  0
SECTION
  2
HEADER
  9
$ACADVER
  1
AC1014
  9
$ACADMAINTVER
 70
     9
  9
$DWGCODEPAGE
  3
ANSI_932
  9
$INSBASE
 10
0.0
 20
0.0
 30
0.0
  9
$EXTMIN
 10
50.0
 20
100.0
 30
0.0
  9
$EXTMAX
 10
3850.0
 20
2800.0
 30
0.0
  9
$LIMMIN
 10
0.0
 20
0.0
  9
$LIMMAX
 10
420.0
 20
297.0
  9
$ORTHOMODE
 70
     0
  9
$REGENMODE
 70
     1
  9
$FILLMODE
 70
     1
  9
$QTEXTMODE
 70
     0
  9
$MIRRTEXT
 70
     1
  9
$DRAGMODE
 70
     2
  9
$LTSCALE
 40
0.2
  9
$OSMODE
 70
    37
  9
$ATTMODE
 70
     1
  9
$TEXTSIZE
 40
2.5
  9
$TRACEWID
 40
1.0
  9
$TEXTSTYLE
  7
STANDARD
  9
$CLAYER
  8
LAY-1
  9
$CELTYPE
  6
BYLAYER
  9
$CECOLOR
 62
   256
  9
$CELTSCALE
 40
1.0
  9
$DELOBJ
 70
     1
  9
$DISPSILH
 70
     0
  9
$DIMSCALE
 40
1.0
  9
$DIMASZ
 40
2.5
  9
$DIMEXO
 40
0.625
  9
$DIMDLI
 40
3.75
  9
$DIMRND
 40
0.0
  9
$DIMDLE
 40
0.0
  9
$DIMEXE
 40
1.25
  9
$DIMTP
 40
0.0
  9
$DIMTM
 40
0.0
  9
$DIMTXT
 40
2.5
  9
$DIMCEN
 40
2.5
  9
$DIMTSZ
 40
0.0
  9
$DIMTOL
 70
     0
  9
$DIMLIM
 70
     0
  9
$DIMTIH
 70
     0
  9
$DIMTOH
 70
     0
  9
$DIMSE1
 70
     0
  9
$DIMSE2
 70
     0
  9
$DIMTAD
 70
     1
  9
$DIMZIN
 70
     8
  9
$DIMBLK
  1

  9
$DIMASO
 70
     1
  9
$DIMSHO
 70
     1
  9
$DIMPOST
  1

  9
$DIMAPOST
  1

  9
$DIMALT
 70
     0
  9
$DIMALTD
 70
     3
  9
$DIMALTF
 40
0.03937007874016
  9
$DIMLFAC
 40
1.0
  9
$DIMTOFL
 70
     1
  9
$DIMTVP
 40
0.0
  9
$DIMTIX
 70
     0
  9
$DIMSOXD
 70
     0
  9
$DIMSAH
 70
     0
  9
$DIMBLK1
  1

  9
$DIMBLK2
  1

  9
$DIMSTYLE
  2
ISO-25
  9
$DIMCLRD
 70
     0
  9
$DIMCLRE
 70
     0
  9
$DIMCLRT
 70
     0
  9
$DIMTFAC
 40
1.0
  9
$DIMGAP
 40
0.625
  9
$DIMJUST
 70
     0
  9
$DIMSD1
 70
     0
  9
$DIMSD2
 70
     0
  9
$DIMTOLJ
 70
     0
  9
$DIMTZIN
 70
     8
  9
$DIMALTZ
 70
     0
  9
$DIMALTTZ
 70
     0
  9
$DIMFIT
 70
     3
  9
$DIMUPT
 70
     0
  9
$DIMUNIT
 70
     2
  9
$DIMDEC
 70
     2
  9
$DIMTDEC
 70
     2
  9
$DIMALTU
 70
     2
  9
$DIMALTTD
 70
     3
  9
$DIMTXSTY
  7
STANDARD
  9
$DIMAUNIT
 70
     0
  9
$LUNITS
 70
     2
  9
$LUPREC
 70
     4
  9
$SKETCHINC
 40
1.0
  9
$FILLETRAD
 40
10.0
  9
$AUNITS
 70
     0
  9
$AUPREC
 70
     0
  9
$MENU
  1
.
  9
$ELEVATION
 40
0.0
  9
$PELEVATION
 40
0.0
  9
$THICKNESS
 40
0.0
  9
$LIMCHECK
 70
     0
  9
$CHAMFERA
 40
0.0
  9
$CHAMFERB
 40
0.0
  9
$CHAMFERC
 40
0.0
  9
$CHAMFERD
 40
0.0
  9
$SKPOLY
 70
     0
  9
$TDCREATE
 40
2459229.337844213
  9
$TDUPDATE
 40
2459229.337844653
  9
$TDINDWG
 40
0.0000000116
  9
$TDUSRTIMER
 40
0.0000000116
  9
$USRTIMER
 70
     1
  9
$ANGBASE
 50
0.0
  9
$ANGDIR
 70
     0
  9
$PDMODE
 70
     0
  9
$PDSIZE
 40
0.0
  9
$PLINEWID
 40
0.0
  9
$COORDS
 70
     1
  9
$SPLFRAME
 70
     0
  9
$SPLINETYPE
 70
     6
  9
$SPLINESEGS
 70
     8
  9
$ATTDIA
 70
     0
  9
$ATTREQ
 70
     1
  9
$HANDLING
 70
     1
  9
$HANDSEED
  5
429
  9
$SURFTAB1
 70
     6
  9
$SURFTAB2
 70
     6
  9
$SURFTYPE
 70
     6
  9
$SURFU
 70
     6
  9
$SURFV
 70
     6
  9
$UCSNAME
  2

  9
$UCSORG
 10
0.0
 20
0.0
 30
0.0
  9
$UCSXDIR
 10
1.0
 20
0.0
 30
0.0
  9
$UCSYDIR
 10
0.0
 20
1.0
 30
0.0
  9
$PUCSNAME
  2

  9
$PUCSORG
 10
0.0
 20
0.0
 30
0.0
  9
$PUCSXDIR
 10
1.0
 20
0.0
 30
0.0
  9
$PUCSYDIR
 10
0.0
 20
1.0
 30
0.0
  9
$USERI1
 70
     0
  9
$USERI2
 70
     0
  9
$USERI3
 70
     0
  9
$USERI4
 70
     0
  9
$USERI5
 70
     0
  9
$USERR1
 40
0.0
  9
$USERR2
 40
0.0
  9
$USERR3
 40
0.0
  9
$USERR4
 40
0.0
  9
$USERR5
 40
0.0
  9
$WORLDVIEW
 70
     1
  9
$SHADEDGE
 70
     3
  9
$SHADEDIF
 70
    70
  9
$TILEMODE
 70
     1
  9
$MAXACTVP
 70
    64
  9
$PINSBASE
 10
0.0
 20
0.0
 30
0.0
  9
$PLIMCHECK
 70
     0
  9
$PEXTMIN
 10
1.000000000000000E+20
 20
1.000000000000000E+20
 30
1.000000000000000E+20
  9
$PEXTMAX
 10
-1.000000000000000E+20
 20
-1.000000000000000E+20
 30
-1.000000000000000E+20
  9
$PLIMMIN
 10
0.0
 20
0.0
  9
$PLIMMAX
 10
420.0
 20
297.0
  9
$UNITMODE
 70
     0
  9
$VISRETAIN
 70
     1
  9
$PLINEGEN
 70
     0
  9
$PSLTSCALE
 70
     1
  9
$TREEDEPTH
 70
  3020
  9
$PICKSTYLE
 70
     1
  9
$CMLSTYLE
  2
STANDARD
  9
$CMLJUST
 70
     0
  9
$CMLSCALE
 40
20.0
  9
$PROXYGRAPHICS
 70
     1
  9
$MEASUREMENT
 70
     1
  0
ENDSEC
  0
SECTION
  2
CLASSES
  0
CLASS
  1
ACDBDICTIONARYWDFLT
  2
AcDbDictionaryWithDefault
  3
ObjectDBX Classes
 90
        0
280
     0
281
     0
  0
CLASS
  1
VISUALSTYLE
  2
AcDbVisualStyle
  3
ObjectDBX Classes
 90
     4095
280
     0
281
     0
  0
CLASS
  1
MATERIAL
  2
AcDbMaterial
  3
ObjectDBX Classes
 90
     1153
280
     0
281
     0
  0
CLASS
  1
SCALE
  2
AcDbScale
  3
ObjectDBX Classes
 90
     1153
280
     0
281
     0
  0
CLASS
  1
TABLESTYLE
  2
AcDbTableStyle
  3
ObjectDBX Classes
 90
     4095
280
     0
281
     0
  0
CLASS
  1
MLEADERSTYLE
  2
AcDbMLeaderStyle
  3
ACDB_MLEADERSTYLE_CLASS
 90
     4095
280
     0
281
     0
  0
CLASS
  1
SUN
  2
AcDbSun
  3
SCENEOE
 90
     1153
280
     0
281
     0
  0
CLASS
  1
DICTIONARYVAR
  2
AcDbDictionaryVar
  3
ObjectDBX Classes
 90
        0
280
     0
281
     0
  0
CLASS
  1
XRECORD
  2
AcDbXrecord
  3
ObjectDBX Classes
 90
        0
280
     0
281
     0
  0
CLASS
  1
LWPOLYLINE
  2
AcDbPolyline
  3
ObjectDBX Classes
 90
        0
280
     0
281
     1
  0
CLASS
  1
HATCH
  2
AcDbHatch
  3
ObjectDBX Classes
 90
        0
280
     0
281
     1
  0
CLASS
  1
ACDBPLACEHOLDER
  2
AcDbPlaceHolder
  3
ObjectDBX Classes
 90
        0
280
     0
281
     0
  0
CLASS
  1
LAYOUT
  2
AcDbLayout
  3
ObjectDBX Classes
 90
        0
280
     0
281
     0
  0
ENDSEC
  0
SECTION
  2
TABLES
  0
TABLE
  2
VPORT
  5
8
102
{ACAD_XDICTIONARY
360
41E
102
}
330
0
100
AcDbSymbolTable
 70
     1
  0
VPORT
  5
29
330
8
100
AcDbSymbolTableRecord
100
AcDbViewportTableRecord
  2
*ACTIVE
 70
     0
 10
0.0
 20
0.0
 11
1.0
 21
1.0
 12
1950.0
 22
1450.0
 13
0.0
 23
0.0
 14
10.0
 24
10.0
 15
10.0
 25
10.0
 16
0.0
 26
0.0
 36
1.0
 17
0.0
 27
0.0
 37
0.0
 40
2700.0
 41
1.407407407407408
 42
50.0
 43
0.0
 44
0.0
 50
0.0
 51
0.0
 71
     0
 72
  1000
 73
     1
 74
     3
 75
     0
 76
     0
 77
     0
 78
     0
  0
ENDTAB
  0
TABLE
  2
LTYPE
  5
5
330
0
100
AcDbSymbolTable
 70
     6
  0
LTYPE
  5
14
330
5
100
AcDbSymbolTableRecord
100
AcDbLinetypeTableRecord
  2
BYBLOCK
 70
     0
  3

 72
    65
 73
     0
 40
0.0
  0
LTYPE
  5
15
330
5
100
AcDbSymbolTableRecord
100
AcDbLinetypeTableRecord
  2
BYLAYER
 70
     0
  3

 72
    65
 73
     0
 40
0.0
  0
LTYPE
  5
16
330
5
100
AcDbSymbolTableRecord
100
AcDbLinetypeTableRecord
  2
CONTINUOUS
 70
     0
  3
Solid line
 72
    65
 73
     0
 40
0.0
  0
LTYPE
  5
6E
330
5
100
AcDbSymbolTableRecord
100
AcDbLinetypeTableRecord
  2
HIDDEN
 70
     0
  3
Hidden __ __ __ __ __ __ __ __ __ __ __ __ __ __
 72
    65
 73
     2
 40
9.524999999999999
 49
6.35
 74
     0
 49
-3.175
 74
     0
  0
LTYPE
  5
6F
330
5
100
AcDbSymbolTableRecord
100
AcDbLinetypeTableRecord
  2
CENTER
 70
     0
  3
Center ____ _ ____ _ ____ _ ____ _ ____ _ ____
 72
    65
 73
     4
 40
50.8
 49
31.75
 74
     0
 49
-6.35
 74
     0
 49
6.35
 74
     0
 49
-6.35
 74
     0
  0
LTYPE
  5
70
330
5
100
AcDbSymbolTableRecord
100
AcDbLinetypeTableRecord
  2
PHANTOM
 70
     0
  3
Phantom ______  __  __  ______  __  __  ______ 
 72
    65
 73
     6
 40
63.50000000000001
 49
31.75
 74
     0
 49
-6.35
 74
     0
 49
6.35
 74
     0
 49
-6.35
 74
     0
 49
6.35
 74
     0
 49
-6.35
 74
     0
  0
LTYPE
  5
71
330
5
100
AcDbSymbolTableRecord
100
AcDbLinetypeTableRecord
  2
ACAD_ISO06W100
 70
     0
  3
ISO long-dash triple-dot ____ ... ____ ... ____
 72
    65
 73
     8
 40
36.0
 49
24.0
 74
     0
 49
-3.0
 74
     0
 49
0.0
 74
     0
 49
-3.0
 74
     0
 49
0.0
 74
     0
 49
-3.0
 74
     0
 49
0.0
 74
     0
 49
-3.0
 74
     0
  0
LTYPE
  5
72
330
5
100
AcDbSymbolTableRecord
100
AcDbLinetypeTableRecord
  2
ACAD_ISO15W100
 70
     0
  3
ISO double-dash triple-dot __ __ . . . __ __ . .
 72
    65
 73
    10
 40
39.0
 49
12.0
 74
     0
 49
-3.0
 74
     0
 49
12.0
 74
     0
 49
-3.0
 74
     0
 49
0.0
 74
     0
 49
-3.0
 74
     0
 49
0.0
 74
     0
 49
-3.0
 74
     0
 49
0.0
 74
     0
 49
-3.0
 74
     0
  0
ENDTAB
  0
TABLE
  2
LAYER
  5
2
330
0
100
AcDbSymbolTable
 70
     7
  0
LAYER
  5
10
330
2
100
AcDbSymbolTableRecord
100
AcDbLayerTableRecord
  2
0
 70
     0
 62
     7
  6
CONTINUOUS
  0
LAYER
  5
75
330
2
100
AcDbSymbolTableRecord
100
AcDbLayerTableRecord
  2
LAY-1
 70
     0
 62
     7
  6
CONTINUOUS
  0
LAYER
  5
76
330
2
100
AcDbSymbolTableRecord
100
AcDbLayerTableRecord
  2
LAY-10
 70
     0
 62
     7
  6
CONTINUOUS
  0
LAYER
  5
77
330
2
100
AcDbSymbolTableRecord
100
AcDbLayerTableRecord
  2
LAY-11
 70
     0
 62
     7
  6
CONTINUOUS
  0
LAYER
  5
78
330
2
100
AcDbSymbolTableRecord
100
AcDbLayerTableRecord
  2
LAY-20
 70
     0
 62
     7
  6
CONTINUOUS
  0
LAYER
  5
79
330
2
100
AcDbSymbolTableRecord
100
AcDbLayerTableRecord
  2
LAY-255
 70
     0
 62
     7
  6
CONTINUOUS
  0
LAYER
  5
2D1
330
2
100
AcDbSymbolTableRecord
100
AcDbLayerTableRecord
  2
DEFPOINTS
 70
     0
 62
     7
  6
CONTINUOUS
  0
ENDTAB
  0
TABLE
  2
STYLE
  5
3
330
0
100
AcDbSymbolTable
 70
     4
  0
STYLE
  5
11
330
3
100
AcDbSymbolTableRecord
100
AcDbTextStyleTableRecord
  2
STANDARD
 70
     0
 40
0.0
 41
1.0
 50
0.0
 71
     0
 42
2.5
  3
simplex
  4
bigfont
  0
STYLE
  5
73
330
3
100
AcDbSymbolTableRecord
100
AcDbTextStyleTableRecord
  2
EXCADSTD
 70
     0
 40
0.0
 41
1.0
 50
0.0
 71
     0
 42
2.5
  3
simplex
  4
bigfont
  0
STYLE
  5
74
330
3
100
AcDbSymbolTableRecord
100
AcDbTextStyleTableRecord
  2
EXCADVERT
 70
     4
 40
0.0
 41
1.0
 50
0.0
 71
     0
 42
2.5
  3
simplex
  4
bigfont
  0
STYLE
  5
2CF
330
3
100
AcDbSymbolTableRecord
100
AcDbTextStyleTableRecord
  2
EXCADDIM1
 70
     0
 40
0.0
 41
0.84
 50
0.0
 71
     0
 42
2.5
  3
simplex
  4
bigfont
  0
ENDTAB
  0
TABLE
  2
VIEW
  5
6
330
0
100
AcDbSymbolTable
 70
     0
  0
ENDTAB
  0
TABLE
  2
UCS
  5
7
330
0
100
AcDbSymbolTable
 70
     0
  0
ENDTAB
  0
TABLE
  2
APPID
  5
9
330
0
100
AcDbSymbolTable
 70
     2
  0
APPID
  5
12
330
9
100
AcDbSymbolTableRecord
100
AcDbRegAppTableRecord
  2
ACAD
 70
     0
  0
APPID
  5
428
330
9
100
AcDbSymbolTableRecord
100
AcDbRegAppTableRecord
  2
ACAD_MLEADERVER
 70
     0
  0
ENDTAB
  0
TABLE
  2
DIMSTYLE
  5
A
330
0
100
AcDbSymbolTable
 70
     1
  0
DIMSTYLE
105
27
102
{ACAD_REACTORS
330
2D0
330
2E6
330
2F3
330
300
330
30D
102
}
330
A
100
AcDbSymbolTableRecord
100
AcDbDimStyleTableRecord
  2
ISO-25
 70
     0
  3

  4

  5

  6

  7

 40
1.0
 41
2.5
 42
0.625
 43
3.75
 44
1.25
 45
0.0
 46
0.0
 47
0.0
 48
0.0
140
2.5
141
2.5
142
0.0
143
0.03937007874016
144
1.0
145
0.0
146
1.0
147
0.625
 71
     0
 72
     0
 73
     0
 74
     0
 75
     0
 76
     0
 77
     1
 78
     8
170
     0
171
     3
172
     1
173
     0
174
     0
175
     0
176
     0
177
     0
178
     0
270
     2
271
     2
272
     2
273
     2
274
     3
340
11
275
     0
280
     0
281
     0
282
     0
283
     0
284
     8
285
     0
286
     0
287
     5
288
     0
  0
ENDTAB
  0
TABLE
  2
BLOCK_RECORD
  5
1
330
0
100
AcDbSymbolTable
 70
    19
  0
BLOCK_RECORD
  5
1F
330
1
100
AcDbSymbolTableRecord
100
AcDbBlockTableRecord
  2
*MODEL_SPACE
  0
BLOCK_RECORD
  5
1B
330
1
100
AcDbSymbolTableRecord
100
AcDbBlockTableRecord
  2
*PAPER_SPACE
  0
BLOCK_RECORD
  5
7A
330
1
100
AcDbSymbolTableRecord
100
AcDbBlockTableRecord
  2
EX_NORM
  0
BLOCK_RECORD
  5
7D
330
1
100
AcDbSymbolTableRecord
100
AcDbBlockTableRecord
  2
EX_BNORM
  0
BLOCK_RECORD
  5
80
330
1
100
AcDbSymbolTableRecord
100
AcDbBlockTableRecord
  2
EX_BCIR
  0
BLOCK_RECORD
  5
83
330
1
100
AcDbSymbolTableRecord
100
AcDbBlockTableRecord
  2
EX_RCIVIL
  0
BLOCK_RECORD
  5
86
330
1
100
AcDbSymbolTableRecord
100
AcDbBlockTableRecord
  2
EX_SLANT
  0
BLOCK_RECORD
  5
89
330
1
100
AcDbSymbolTableRecord
100
AcDbBlockTableRecord
  2
EX_NONE
  0
BLOCK_RECORD
  5
8C
330
1
100
AcDbSymbolTableRecord
100
AcDbBlockTableRecord
  2
EX_CIVIL
  0
BLOCK_RECORD
  5
8F
330
1
100
AcDbSymbolTableRecord
100
AcDbBlockTableRecord
  2
EX_WCIR
  0
BLOCK_RECORD
  5
92
330
1
100
AcDbSymbolTableRecord
100
AcDbBlockTableRecord
  2
EX_WCIR2
  0
BLOCK_RECORD
  5
95
330
1
100
AcDbSymbolTableRecord
100
AcDbBlockTableRecord
  2
EX_WNORM
  0
BLOCK_RECORD
  5
98
330
1
100
AcDbSymbolTableRecord
100
AcDbBlockTableRecord
  2
EX_NNORM
  0
BLOCK_RECORD
  5
9B
330
1
100
AcDbSymbolTableRecord
100
AcDbBlockTableRecord
  2
EX_BBOX
  0
BLOCK_RECORD
  5
9E
330
1
100
AcDbSymbolTableRecord
100
AcDbBlockTableRecord
  2
EX_WBOX
  0
BLOCK_RECORD
  5
A1
330
1
100
AcDbSymbolTableRecord
100
AcDbBlockTableRecord
  2
EX_INTEGRAL
  0
BLOCK_RECORD
  5
2D2
330
1
100
AcDbSymbolTableRecord
100
AcDbBlockTableRecord
  2
*D15
  0
BLOCK_RECORD
  5
2E7
330
1
100
AcDbSymbolTableRecord
100
AcDbBlockTableRecord
  2
*D16
  0
BLOCK_RECORD
  5
2F4
330
1
100
AcDbSymbolTableRecord
100
AcDbBlockTableRecord
  2
*D17
  0
BLOCK_RECORD
  5
301
330
1
100
AcDbSymbolTableRecord
100
AcDbBlockTableRecord
  2
*D18
  0
BLOCK_RECORD
  5
30E
330
1
100
AcDbSymbolTableRecord
100
AcDbBlockTableRecord
  2
*D19
  0
ENDTAB
  0
ENDSEC
  0
SECTION
  2
BLOCKS
  0
BLOCK
  5
20
330
1F
100
AcDbEntity
  8
0
100
AcDbBlockBegin
  2
*MODEL_SPACE
 70
     0
 10
0.0
 20
0.0
 30
0.0
  3
*MODEL_SPACE
  1

  0
ENDBLK
  5
21
330
1F
100
AcDbEntity
  8
0
100
AcDbBlockEnd
  0
BLOCK
  5
1C
330
1B
100
AcDbEntity
 67
     1
  8
0
100
AcDbBlockBegin
  2
*PAPER_SPACE
 70
     0
 10
0.0
 20
0.0
 30
0.0
  3
*PAPER_SPACE
  1

  0
ENDBLK
  5
1D
330
1B
100
AcDbEntity
 67
     1
  8
0
100
AcDbBlockEnd
  0
BLOCK
  5
7B
330
7A
100
AcDbEntity
  8
0
100
AcDbBlockBegin
  2
EX_NORM
 70
     0
 10
0.0
 20
0.0
 30
0.0
  3
EX_NORM
  1

  0
LINE
  5
A4
330
7A
100
AcDbEntity
  8
0
  6
CONTINUOUS
 62
     0
100
AcDbLine
 10
0.0
 20
0.0
 30
0.0
 11
-1.0
 21
0.0
 31
0.0
  0
LINE
  5
A5
330
7A
100
AcDbEntity
  8
0
  6
CONTINUOUS
 62
     0
100
AcDbLine
 10
0.0
 20
0.0
 30
0.0
 11
-1.0
 21
0.166666667
 31
0.0
  0
LINE
  5
A6
330
7A
100
AcDbEntity
  8
0
  6
CONTINUOUS
 62
     0
100
AcDbLine
 10
0.0
 20
0.0
 30
0.0
 11
-1.0
 21
-0.166666667
 31
0.0
  0
ENDBLK
  5
7C
330
7A
100
AcDbEntity
  8
0
100
AcDbBlockEnd
  0
BLOCK
  5
7E
330
7D
100
AcDbEntity
  8
0
100
AcDbBlockBegin
  2
EX_BNORM
 70
     0
 10
0.0
 20
0.0
 30
0.0
  3
EX_BNORM
  1

  0
LINE
  5
A7
330
7D
100
AcDbEntity
  8
0
  6
CONTINUOUS
 62
     0
100
AcDbLine
 10
0.0
 20
0.0
 30
0.0
 11
-1.0
 21
0.0
 31
0.0
  0
LINE
  5
A8
330
7D
100
AcDbEntity
  8
0
  6
CONTINUOUS
 62
     0
100
AcDbLine
 10
0.0
 20
0.0
 30
0.0
 11
-1.0
 21
0.166666667
 31
0.0
  0
LINE
  5
A9
330
7D
100
AcDbEntity
  8
0
  6
CONTINUOUS
 62
     0
100
AcDbLine
 10
0.0
 20
0.0
 30
0.0
 11
-1.0
 21
-0.166666667
 31
0.0
  0
LINE
  5
AA
330
7D
100
AcDbEntity
  8
0
  6
CONTINUOUS
 62
     0
100
AcDbLine
 10
0.0
 20
0.0
 30
0.0
 11
-1.0
 21
0.083333333
 31
0.0
  0
LINE
  5
AB
330
7D
100
AcDbEntity
  8
0
  6
CONTINUOUS
 62
     0
100
AcDbLine
 10
0.0
 20
0.0
 30
0.0
 11
-1.0
 21
-0.083333333
 31
0.0
  0
LINE
  5
AC
330
7D
100
AcDbEntity
  8
0
  6
CONTINUOUS
 62
     0
100
AcDbLine
 10
-1.0
 20
0.166666667
 30
0.0
 11
-1.0
 21
-0.166666667
 31
0.0
  0
ENDBLK
  5
7F
330
7D
100
AcDbEntity
  8
0
100
AcDbBlockEnd
  0
BLOCK
  5
81
330
80
100
AcDbEntity
  8
0
100
AcDbBlockBegin
  2
EX_BCIR
 70
     0
 10
0.0
 20
0.0
 30
0.0
  3
EX_BCIR
  1

  0
LINE
  5
AD
330
80
100
AcDbEntity
  8
0
  6
CONTINUOUS
 62
     0
100
AcDbLine
 10
0.0
 20
0.0
 30
0.0
 11
-1.0
 21
0.0
 31
0.0
  0
CIRCLE
  5
AE
330
80
100
AcDbEntity
  8
0
  6
CONTINUOUS
 62
     0
100
AcDbCircle
 10
0.0
 20
0.0
 30
0.0
 40
0.5
  0
CIRCLE
  5
AF
330
80
100
AcDbEntity
  8
0
  6
CONTINUOUS
 62
     0
100
AcDbCircle
 10
0.0
 20
0.0
 30
0.0
 40
0.25
  0
ENDBLK
  5
82
330
80
100
AcDbEntity
  8
0
100
AcDbBlockEnd
  0
BLOCK
  5
84
330
83
100
AcDbEntity
  8
0
100
AcDbBlockBegin
  2
EX_RCIVIL
 70
     0
 10
0.0
 20
0.0
 30
0.0
  3
EX_RCIVIL
  1

  0
LINE
  5
B0
330
83
100
AcDbEntity
  8
0
  6
CONTINUOUS
 62
     0
100
AcDbLine
 10
0.0
 20
0.0
 30
0.0
 11
-1.0
 21
0.0
 31
0.0
  0
LINE
  5
B1
330
83
100
AcDbEntity
  8
0
  6
CONTINUOUS
 62
     0
100
AcDbLine
 10
-1.0
 20
-0.25
 30
0.0
 11
0.0
 21
-0.25
 31
0.0
  0
LINE
  5
B2
330
83
100
AcDbEntity
  8
0
  6
CONTINUOUS
 62
     0
100
AcDbLine
 10
-1.0
 20
-0.125
 30
0.0
 11
0.0
 21
-0.125
 31
0.0
  0
ENDBLK
  5
85
330
83
100
AcDbEntity
  8
0
100
AcDbBlockEnd
  0
BLOCK
  5
87
330
86
100
AcDbEntity
  8
0
100
AcDbBlockBegin
  2
EX_SLANT
 70
     0
 10
0.0
 20
0.0
 30
0.0
  3
EX_SLANT
  1

  0
LINE
  5
B3
330
86
100
AcDbEntity
  8
0
  6
CONTINUOUS
 62
     0
100
AcDbLine
 10
0.0
 20
0.0
 30
0.0
 11
-1.0
 21
0.0
 31
0.0
  0
LINE
  5
B4
330
86
100
AcDbEntity
  8
0
  6
CONTINUOUS
 62
     0
100
AcDbLine
 10
0.707106781
 20
0.707106781
 30
0.0
 11
-0.707106781
 21
-0.707106781
 31
0.0
  0
ENDBLK
  5
88
330
86
100
AcDbEntity
  8
0
100
AcDbBlockEnd
  0
BLOCK
  5
8A
330
89
100
AcDbEntity
  8
0
100
AcDbBlockBegin
  2
EX_NONE
 70
     0
 10
0.0
 20
0.0
 30
0.0
  3
EX_NONE
  1

  0
LINE
  5
B5
330
89
100
AcDbEntity
  8
0
  6
CONTINUOUS
 62
     0
100
AcDbLine
 10
0.0
 20
0.0
 30
0.0
 11
-1.0
 21
0.0
 31
0.0
  0
ENDBLK
  5
8B
330
89
100
AcDbEntity
  8
0
100
AcDbBlockEnd
  0
BLOCK
  5
8D
330
8C
100
AcDbEntity
  8
0
100
AcDbBlockBegin
  2
EX_CIVIL
 70
     0
 10
0.0
 20
0.0
 30
0.0
  3
EX_CIVIL
  1

  0
LINE
  5
B6
330
8C
100
AcDbEntity
  8
0
  6
CONTINUOUS
 62
     0
100
AcDbLine
 10
0.0
 20
0.0
 30
0.0
 11
-1.0
 21
0.0
 31
0.0
  0
LINE
  5
B7
330
8C
100
AcDbEntity
  8
0
  6
CONTINUOUS
 62
     0
100
AcDbLine
 10
-1.0
 20
0.25
 30
0.0
 11
0.0
 21
0.25
 31
0.0
  0
LINE
  5
B8
330
8C
100
AcDbEntity
  8
0
  6
CONTINUOUS
 62
     0
100
AcDbLine
 10
-1.0
 20
0.125
 30
0.0
 11
0.0
 21
0.125
 31
0.0
  0
ENDBLK
  5
8E
330
8C
100
AcDbEntity
  8
0
100
AcDbBlockEnd
  0
BLOCK
  5
90
330
8F
100
AcDbEntity
  8
0
100
AcDbBlockBegin
  2
EX_WCIR
 70
     0
 10
0.0
 20
0.0
 30
0.0
  3
EX_WCIR
  1

  0
LINE
  5
B9
330
8F
100
AcDbEntity
  8
0
  6
CONTINUOUS
 62
     0
100
AcDbLine
 10
0.0
 20
0.0
 30
0.0
 11
-1.0
 21
0.0
 31
0.0
  0
CIRCLE
  5
BA
330
8F
100
AcDbEntity
  8
0
  6
CONTINUOUS
 62
     0
100
AcDbCircle
 10
0.0
 20
0.0
 30
0.0
 40
0.5
  0
ENDBLK
  5
91
330
8F
100
AcDbEntity
  8
0
100
AcDbBlockEnd
  0
BLOCK
  5
93
330
92
100
AcDbEntity
  8
0
100
AcDbBlockBegin
  2
EX_WCIR2
 70
     0
 10
0.0
 20
0.0
 30
0.0
  3
EX_WCIR2
  1

  0
LINE
  5
BB
330
92
100
AcDbEntity
  8
0
  6
CONTINUOUS
 62
     0
100
AcDbLine
 10
-0.5
 20
0.0
 30
0.0
 11
-1.0
 21
0.0
 31
0.0
  0
CIRCLE
  5
BC
330
92
100
AcDbEntity
  8
0
  6
CONTINUOUS
 62
     0
100
AcDbCircle
 10
0.0
 20
0.0
 30
0.0
 40
0.5
  0
ENDBLK
  5
94
330
92
100
AcDbEntity
  8
0
100
AcDbBlockEnd
  0
BLOCK
  5
96
330
95
100
AcDbEntity
  8
0
100
AcDbBlockBegin
  2
EX_WNORM
 70
     0
 10
0.0
 20
0.0
 30
0.0
  3
EX_WNORM
  1

  0
LINE
  5
BD
330
95
100
AcDbEntity
  8
0
  6
CONTINUOUS
 62
     0
100
AcDbLine
 10
-1.0
 20
0.0
 30
0.0
 11
-1.0
 21
0.0
 31
0.0
  0
LINE
  5
BE
330
95
100
AcDbEntity
  8
0
  6
CONTINUOUS
 62
     0
100
AcDbLine
 10
0.0
 20
0.0
 30
0.0
 11
-1.0
 21
0.166666667
 31
0.0
  0
LINE
  5
BF
330
95
100
AcDbEntity
  8
0
  6
CONTINUOUS
 62
     0
100
AcDbLine
 10
0.0
 20
0.0
 30
0.0
 11
-1.0
 21
-0.166666667
 31
0.0
  0
LINE
  5
C0
330
95
100
AcDbEntity
  8
0
  6
CONTINUOUS
 62
     0
100
AcDbLine
 10
-1.0
 20
0.166666667
 30
0.0
 11
-1.0
 21
-0.166666667
 31
0.0
  0
ENDBLK
  5
97
330
95
100
AcDbEntity
  8
0
100
AcDbBlockEnd
  0
BLOCK
  5
99
330
98
100
AcDbEntity
  8
0
100
AcDbBlockBegin
  2
EX_NNORM
 70
     0
 10
0.0
 20
0.0
 30
0.0
  3
EX_NNORM
  1

  0
LINE
  5
C1
330
98
100
AcDbEntity
  8
0
  6
CONTINUOUS
 62
     0
100
AcDbLine
 10
0.0
 20
0.0
 30
0.0
 11
-1.0
 21
0.0
 31
0.0
  0
LINE
  5
C2
330
98
100
AcDbEntity
  8
0
  6
CONTINUOUS
 62
     0
100
AcDbLine
 10
0.0
 20
0.0
 30
0.0
 11
-1.0
 21
0.166666667
 31
0.0
  0
LINE
  5
C3
330
98
100
AcDbEntity
  8
0
  6
CONTINUOUS
 62
     0
100
AcDbLine
 10
0.0
 20
0.0
 30
0.0
 11
-1.0
 21
-0.166666667
 31
0.0
  0
LINE
  5
C4
330
98
100
AcDbEntity
  8
0
  6
CONTINUOUS
 62
     0
100
AcDbLine
 10
-1.0
 20
0.166666667
 30
0.0
 11
-1.0
 21
-0.166666667
 31
0.0
  0
ENDBLK
  5
9A
330
98
100
AcDbEntity
  8
0
100
AcDbBlockEnd
  0
BLOCK
  5
9C
330
9B
100
AcDbEntity
  8
0
100
AcDbBlockBegin
  2
EX_BBOX
 70
     0
 10
0.0
 20
0.0
 30
0.0
  3
EX_BBOX
  1

  0
LINE
  5
C5
330
9B
100
AcDbEntity
  8
0
  6
CONTINUOUS
 62
     0
100
AcDbLine
 10
0.0
 20
0.0
 30
0.0
 11
-1.0
 21
0.0
 31
0.0
  0
LINE
  5
C6
330
9B
100
AcDbEntity
  8
0
  6
CONTINUOUS
 62
     0
100
AcDbLine
 10
-0.5
 20
0.5
 30
0.0
 11
0.5
 21
0.5
 31
0.0
  0
LINE
  5
C7
330
9B
100
AcDbEntity
  8
0
  6
CONTINUOUS
 62
     0
100
AcDbLine
 10
0.5
 20
0.5
 30
0.0
 11
0.5
 21
-0.5
 31
0.0
  0
LINE
  5
C8
330
9B
100
AcDbEntity
  8
0
  6
CONTINUOUS
 62
     0
100
AcDbLine
 10
0.5
 20
-0.5
 30
0.0
 11
-0.5
 21
-0.5
 31
0.0
  0
LINE
  5
C9
330
9B
100
AcDbEntity
  8
0
  6
CONTINUOUS
 62
     0
100
AcDbLine
 10
-0.5
 20
-0.5
 30
0.0
 11
-0.5
 21
0.5
 31
0.0
  0
LINE
  5
CA
330
9B
100
AcDbEntity
  8
0
  6
CONTINUOUS
 62
     0
100
AcDbLine
 10
-0.25
 20
0.25
 30
0.0
 11
0.25
 21
0.25
 31
0.0
  0
LINE
  5
CB
330
9B
100
AcDbEntity
  8
0
  6
CONTINUOUS
 62
     0
100
AcDbLine
 10
0.25
 20
0.25
 30
0.0
 11
0.25
 21
-0.25
 31
0.0
  0
LINE
  5
CC
330
9B
100
AcDbEntity
  8
0
  6
CONTINUOUS
 62
     0
100
AcDbLine
 10
0.25
 20
-0.25
 30
0.0
 11
-0.25
 21
-0.25
 31
0.0
  0
LINE
  5
CD
330
9B
100
AcDbEntity
  8
0
  6
CONTINUOUS
 62
     0
100
AcDbLine
 10
-0.25
 20
-0.25
 30
0.0
 11
-0.25
 21
0.25
 31
0.0
  0
ENDBLK
  5
9D
330
9B
100
AcDbEntity
  8
0
100
AcDbBlockEnd
  0
BLOCK
  5
9F
330
9E
100
AcDbEntity
  8
0
100
AcDbBlockBegin
  2
EX_WBOX
 70
     0
 10
0.0
 20
0.0
 30
0.0
  3
EX_WBOX
  1

  0
LINE
  5
CE
330
9E
100
AcDbEntity
  8
0
  6
CONTINUOUS
 62
     0
100
AcDbLine
 10
-0.5
 20
0.0
 30
0.0
 11
-1.0
 21
0.0
 31
0.0
  0
LINE
  5
CF
330
9E
100
AcDbEntity
  8
0
  6
CONTINUOUS
 62
     0
100
AcDbLine
 10
-0.5
 20
0.5
 30
0.0
 11
0.5
 21
0.5
 31
0.0
  0
LINE
  5
D0
330
9E
100
AcDbEntity
  8
0
  6
CONTINUOUS
 62
     0
100
AcDbLine
 10
0.5
 20
0.5
 30
0.0
 11
0.5
 21
-0.5
 31
0.0
  0
LINE
  5
D1
330
9E
100
AcDbEntity
  8
0
  6
CONTINUOUS
 62
     0
100
AcDbLine
 10
0.5
 20
-0.5
 30
0.0
 11
-0.5
 21
-0.5
 31
0.0
  0
LINE
  5
D2
330
9E
100
AcDbEntity
  8
0
  6
CONTINUOUS
 62
     0
100
AcDbLine
 10
-0.5
 20
-0.5
 30
0.0
 11
-0.5
 21
0.5
 31
0.0
  0
ENDBLK
  5
A0
330
9E
100
AcDbEntity
  8
0
100
AcDbBlockEnd
  0
BLOCK
  5
A2
330
A1
100
AcDbEntity
  8
0
100
AcDbBlockBegin
  2
EX_INTEGRAL
 70
     0
 10
0.0
 20
0.0
 30
0.0
  3
EX_INTEGRAL
  1

  0
LINE
  5
D3
330
A1
100
AcDbEntity
  8
0
  6
CONTINUOUS
 62
     0
100
AcDbLine
 10
0.0
 20
0.0
 30
0.0
 11
-1.0
 21
0.0
 31
0.0
  0
ARC
  5
D4
330
A1
100
AcDbEntity
  8
0
  6
CONTINUOUS
 62
     0
100
AcDbCircle
 10
0.542115
 20
0.164992
 30
0.0
 40
0.56667
100
AcDbArc
 50
73.07249033629006
 51
196.9275130221199
  0
ARC
  5
D5
330
A1
100
AcDbEntity
  8
0
  6
CONTINUOUS
 62
     0
100
AcDbCircle
 10
-0.542115
 20
-0.164992
 30
0.0
 40
0.56667
100
AcDbArc
 50
253.0724869220464
 51
16.9275130559125
  0
ENDBLK
  5
A3
330
A1
100
AcDbEntity
  8
0
100
AcDbBlockEnd
  0
BLOCK
  5
2D3
330
2D2
100
AcDbEntity
  8
0
100
AcDbBlockBegin
  2
*D15
 70
     1
 10
0.0
 20
0.0
 30
0.0
  3
*D15
  1

  0
LINE
  5
2D5
330
2D2
100
AcDbEntity
  8
LAY-1
  6
CONTINUOUS
 62
     4
100
AcDbLine
 10
1960.9999999998
 20
861.0
 30
0.0
 11
2042.0
 21
861.0
 31
0.0
  0
LINE
  5
2D6
330
2D2
100
AcDbEntity
  8
LAY-1
  6
CONTINUOUS
 62
     4
100
AcDbLine
 10
1821.0126927199
 20
942.99999999998
 30
0.0
 11
2042.0
 21
942.99999999998
 31
0.0
  0
LINE
  5
2D7
330
2D2
100
AcDbEntity
  8
LAY-1
  6
CONTINUOUS
 62
     4
100
AcDbLine
 10
2027.0
 20
891.0
 30
0.0
 11
2027.0
 21
912.99999999998
 31
0.0
  0
INSERT
  5
2D8
330
2D2
100
AcDbEntity
  8
LAY-1
 62
     4
100
AcDbBlockReference
  2
EX_BNORM
 10
2027.0
 20
861.0
 30
0.0
 41
30.0
 42
30.0
 43
30.0
 50
270.0
  0
INSERT
  5
2D9
330
2D2
100
AcDbEntity
  8
LAY-1
 62
     4
100
AcDbBlockReference
  2
EX_BNORM
 10
2027.0
 20
942.99999999998
 30
0.0
 41
30.0
 42
30.0
 43
30.0
 50
90.0
  0
MTEXT
  5
2DA
330
2D2
100
AcDbEntity
  8
LAY-1
 62
     7
100
AcDbMText
 10
2002.0
 20
901.99999999999
 30
0.0
 40
31.181104
 41
0.0
 71
     5
 72
     1
  1
80
  7
EXCADDIM1
 11
0.0
 21
1.0
 31
0.0
  0
POINT
  5
2DB
330
2D2
100
AcDbEntity
  8
DEFPOINTS
 62
     0
100
AcDbPoint
 10
1945.9999999998
 20
861.0
 30
0.0
  0
POINT
  5
2DC
330
2D2
100
AcDbEntity
  8
DEFPOINTS
 62
     0
100
AcDbPoint
 10
1806.0126927199
 20
942.99999999998
 30
0.0
  0
POINT
  5
2DD
330
2D2
100
AcDbEntity
  8
DEFPOINTS
 62
     0
100
AcDbPoint
 10
2027.0
 20
942.99999999998
 30
0.0
  0
ENDBLK
  5
2D4
330
2D2
100
AcDbEntity
  8
0
100
AcDbBlockEnd
  0
BLOCK
  5
2E8
330
2E7
100
AcDbEntity
  8
0
100
AcDbBlockBegin
  2
*D16
 70
     1
 10
0.0
 20
0.0
 30
0.0
  3
*D16
  1

  0
LINE
  5
2EA
330
2E7
100
AcDbEntity
  8
LAY-1
  6
CONTINUOUS
 62
     4
100
AcDbLine
 10
912.5
 20
956.0
 30
0.0
 11
912.5
 21
1206.5125442358
 31
0.0
  0
LINE
  5
2EB
330
2E7
100
AcDbEntity
  8
LAY-1
  6
CONTINUOUS
 62
     4
100
AcDbLine
 10
1807.5
 20
956.0
 30
0.0
 11
1807.5
 21
1206.5125442358
 31
0.0
  0
LINE
  5
2EC
330
2E7
100
AcDbEntity
  8
LAY-1
  6
CONTINUOUS
 62
     4
100
AcDbLine
 10
942.5
 20
1191.5125442358
 30
0.0
 11
1777.5
 21
1191.5125442358
 31
0.0
  0
INSERT
  5
2ED
330
2E7
100
AcDbEntity
  8
LAY-1
 62
     4
100
AcDbBlockReference
  2
EX_BNORM
 10
912.5
 20
1191.5125442358
 30
0.0
 41
30.0
 42
30.0
 43
30.0
 50
180.0
  0
INSERT
  5
2EE
330
2E7
100
AcDbEntity
  8
LAY-1
 62
     4
100
AcDbBlockReference
  2
EX_BNORM
 10
1807.5
 20
1191.5125442358
 30
0.0
 41
30.0
 42
30.0
 43
30.0
  0
MTEXT
  5
2EF
330
2E7
100
AcDbEntity
  8
LAY-1
 62
     7
100
AcDbMText
 10
1360.0
 20
1216.5125442358
 30
0.0
 40
31.181104
 41
0.0
 71
     5
 72
     1
  1
%%c895
  7
EXCADDIM1
  0
POINT
  5
2F0
330
2E7
100
AcDbEntity
  8
DEFPOINTS
 62
     0
100
AcDbPoint
 10
912.5
 20
941.0
 30
0.0
  0
POINT
  5
2F1
330
2E7
100
AcDbEntity
  8
DEFPOINTS
 62
     0
100
AcDbPoint
 10
1807.5
 20
941.0
 30
0.0
  0
POINT
  5
2F2
330
2E7
100
AcDbEntity
  8
DEFPOINTS
 62
     0
100
AcDbPoint
 10
1807.5
 20
1191.5125442358
 30
0.0
  0
ENDBLK
  5
2E9
330
2E7
100
AcDbEntity
  8
0
100
AcDbBlockEnd
  0
BLOCK
  5
2F5
330
2F4
100
AcDbEntity
  8
0
100
AcDbBlockBegin
  2
*D17
 70
     1
 10
0.0
 20
0.0
 30
0.0
  3
*D17
  1

  0
LINE
  5
2F7
330
2F4
100
AcDbEntity
  8
LAY-1
  6
CONTINUOUS
 62
     4
100
AcDbLine
 10
932.5
 20
958.00000000011
 30
0.0
 11
932.5
 21
1136.5125442358
 31
0.0
  0
LINE
  5
2F8
330
2F4
100
AcDbEntity
  8
LAY-1
  6
CONTINUOUS
 62
     4
100
AcDbLine
 10
1787.5
 20
958.00000000011
 30
0.0
 11
1787.5
 21
1136.5125442358
 31
0.0
  0
LINE
  5
2F9
330
2F4
100
AcDbEntity
  8
LAY-1
  6
CONTINUOUS
 62
     4
100
AcDbLine
 10
962.5
 20
1121.5125442358
 30
0.0
 11
1757.5
 21
1121.5125442358
 31
0.0
  0
INSERT
  5
2FA
330
2F4
100
AcDbEntity
  8
LAY-1
 62
     4
100
AcDbBlockReference
  2
EX_BNORM
 10
932.5
 20
1121.5125442358
 30
0.0
 41
30.0
 42
30.0
 43
30.0
 50
180.0
  0
INSERT
  5
2FB
330
2F4
100
AcDbEntity
  8
LAY-1
 62
     4
100
AcDbBlockReference
  2
EX_BNORM
 10
1787.5
 20
1121.5125442358
 30
0.0
 41
30.0
 42
30.0
 43
30.0
  0
MTEXT
  5
2FC
330
2F4
100
AcDbEntity
  8
LAY-1
 62
     7
100
AcDbMText
 10
1360.0
 20
1146.5125442358
 30
0.0
 40
31.181104
 41
0.0
 71
     5
 72
     1
  1
%%c855
  7
EXCADDIM1
  0
POINT
  5
2FD
330
2F4
100
AcDbEntity
  8
DEFPOINTS
 62
     0
100
AcDbPoint
 10
932.5
 20
943.00000000011
 30
0.0
  0
POINT
  5
2FE
330
2F4
100
AcDbEntity
  8
DEFPOINTS
 62
     0
100
AcDbPoint
 10
1787.5
 20
943.00000000011
 30
0.0
  0
POINT
  5
2FF
330
2F4
100
AcDbEntity
  8
DEFPOINTS
 62
     0
100
AcDbPoint
 10
1787.5
 20
1121.5125442358
 30
0.0
  0
ENDBLK
  5
2F6
330
2F4
100
AcDbEntity
  8
0
100
AcDbBlockEnd
  0
BLOCK
  5
302
330
301
100
AcDbEntity
  8
0
100
AcDbBlockBegin
  2
*D18
 70
     1
 10
0.0
 20
0.0
 30
0.0
  3
*D18
  1

  0
LINE
  5
304
330
301
100
AcDbEntity
  8
LAY-1
  6
CONTINUOUS
 62
     4
100
AcDbLine
 10
985.0
 20
846.0
 30
0.0
 11
985.0
 21
746.0
 31
0.0
  0
LINE
  5
305
330
301
100
AcDbEntity
  8
LAY-1
  6
CONTINUOUS
 62
     4
100
AcDbLine
 10
1735.0
 20
846.0
 30
0.0
 11
1735.0
 21
746.0
 31
0.0
  0
LINE
  5
306
330
301
100
AcDbEntity
  8
LAY-1
  6
CONTINUOUS
 62
     4
100
AcDbLine
 10
1015.0
 20
761.0
 30
0.0
 11
1705.0
 21
761.0
 31
0.0
  0
INSERT
  5
307
330
301
100
AcDbEntity
  8
LAY-1
 62
     4
100
AcDbBlockReference
  2
EX_BNORM
 10
985.0
 20
761.0
 30
0.0
 41
30.0
 42
30.0
 43
30.0
 50
180.0
  0
INSERT
  5
308
330
301
100
AcDbEntity
  8
LAY-1
 62
     4
100
AcDbBlockReference
  2
EX_BNORM
 10
1735.0
 20
761.0
 30
0.0
 41
30.0
 42
30.0
 43
30.0
  0
MTEXT
  5
309
330
301
100
AcDbEntity
  8
LAY-1
 62
     7
100
AcDbMText
 10
1360.0
 20
786.0
 30
0.0
 40
31.181104
 41
0.0
 71
     5
 72
     1
  1
%%c750
  7
EXCADDIM1
  0
POINT
  5
30A
330
301
100
AcDbEntity
  8
DEFPOINTS
 62
     0
100
AcDbPoint
 10
985.0
 20
861.0
 30
0.0
  0
POINT
  5
30B
330
301
100
AcDbEntity
  8
DEFPOINTS
 62
     0
100
AcDbPoint
 10
1735.0
 20
861.0
 30
0.0
  0
POINT
  5
30C
330
301
100
AcDbEntity
  8
DEFPOINTS
 62
     0
100
AcDbPoint
 10
1735.0
 20
761.0
 30
0.0
  0
ENDBLK
  5
303
330
301
100
AcDbEntity
  8
0
100
AcDbBlockEnd
  0
BLOCK
  5
30F
330
30E
100
AcDbEntity
  8
0
100
AcDbBlockBegin
  2
*D19
 70
     1
 10
0.0
 20
0.0
 30
0.0
  3
*D19
  1

  0
LINE
  5
311
330
30E
100
AcDbEntity
  8
LAY-1
  6
CONTINUOUS
 62
     4
100
AcDbLine
 10
916.0
 20
846.0
 30
0.0
 11
916.0
 21
676.0
 31
0.0
  0
LINE
  5
312
330
30E
100
AcDbEntity
  8
LAY-1
  6
CONTINUOUS
 62
     4
100
AcDbLine
 10
946.0
 20
691.0
 30
0.0
 11
1774.0
 21
691.0
 31
0.0
  0
INSERT
  5
313
330
30E
100
AcDbEntity
  8
LAY-1
 62
     4
100
AcDbBlockReference
  2
EX_BNORM
 10
916.0
 20
691.0
 30
0.0
 41
30.0
 42
30.0
 43
30.0
 50
180.0
  0
INSERT
  5
314
330
30E
100
AcDbEntity
  8
LAY-1
 62
     4
100
AcDbBlockReference
  2
EX_NONE
 10
1804.0
 20
691.0
 30
0.0
 41
30.0
 42
30.0
 43
30.0
  0
MTEXT
  5
315
330
30E
100
AcDbEntity
  8
LAY-1
 62
     7
100
AcDbMText
 10
1360.0
 20
716.0
 30
0.0
 40
31.181104
 41
0.0
 71
     5
 72
     1
  1
□888
  7
EXCADDIM1
  0
POINT
  5
316
330
30E
100
AcDbEntity
  8
DEFPOINTS
 62
     0
100
AcDbPoint
 10
916.0
 20
861.0
 30
0.0
  0
POINT
  5
317
330
30E
100
AcDbEntity
  8
DEFPOINTS
 62
     0
100
AcDbPoint
 10
1804.0
 20
691.0
 30
0.0
  0
POINT
  5
318
330
30E
100
AcDbEntity
  8
DEFPOINTS
 62
     0
100
AcDbPoint
 10
1804.0
 20
691.0
 30
0.0
  0
ENDBLK
  5
310
330
30E
100
AcDbEntity
  8
0
100
AcDbBlockEnd
  0
ENDSEC
  0
SECTION
  2
ENTITIES
  0
LINE
  5
D6
330
1F
100
AcDbEntity
  8
LAY-1
  6
CONTINUOUS
 62
     7
100
AcDbLine
 10
1731.954294114375
 20
927.1071078567611
 30
0.0
 11
1733.061059039086
 21
928.2138727814718
 31
0.0
  0
LINE
  5
D7
330
1F
100
AcDbEntity
  8
LAY-1
  6
CONTINUOUS
 62
     7
100
AcDbLine
 10
1734.225076156196
 20
925.1352492114626
 30
0.0
 11
1735.609296503969
 21
926.5194695592354
 31
0.0
  0
LINE
  5
D8
330
1F
100
AcDbEntity
  8
LAY-1
  6
CONTINUOUS
 62
     7
100
AcDbLine
 10
1736.145414062245
 20
922.8129464303925
 30
0.0
 11
1737.830107700507
 21
924.4976400686546
 31
0.0
  0
LINE
  5
D9
330
1F
100
AcDbEntity
  8
LAY-1
  6
CONTINUOUS
 62
     7
100
AcDbLine
 10
1737.245373452123
 20
919.6702651331511
 30
0.0
 11
1739.730517310281
 21
922.1554089913093
 31
0.0
  0
LINE
  5
DA
330
1F
100
AcDbEntity
  8
LAY-1
  6
CONTINUOUS
 62
     7
100
AcDbLine
 10
1737.25
 20
915.4322509939084
 30
0.0
 11
1741.294639092475
 21
919.4768900863833
 31
0.0
  0
LINE
  5
DB
330
1F
100
AcDbEntity
  8
LAY-1
  6
CONTINUOUS
 62
     7
100
AcDbLine
 10
1739.060389693217
 20
913.0000000000069
 30
0.0
 11
1743.396053890235
 21
917.3356641970241
 31
0.0
  0
LINE
  5
DC
330
1F
100
AcDbEntity
  8
LAY-1
  6
CONTINUOUS
 62
     7
100
AcDbLine
 10
1741.999999999996
 20
911.6969696196662
 30
0.0
 11
1758.246411458838
 21
927.9433810785082
 31
0.0
  0
LINE
  5
DD
330
1F
100
AcDbEntity
  8
LAY-1
  6
CONTINUOUS
 62
     7
100
AcDbLine
 10
1742.000000000001
 20
907.4543289325521
 30
0.0
 11
1752.655171773604
 21
918.1095007061549
 31
0.0
  0
LINE
  5
DE
330
1F
100
AcDbEntity
  8
LAY-1
  6
CONTINUOUS
 62
     7
100
AcDbLine
 10
1741.999999999994
 20
903.2116882454247
 30
0.0
 11
1748.000000000002
 21
909.2116882454334
 31
0.0
  0
LINE
  5
DF
330
1F
100
AcDbEntity
  8
LAY-1
  6
CONTINUOUS
 62
     7
100
AcDbLine
 10
1751.788311754573
 20
913.0000000000041
 30
0.0
 11
1752.750000000001
 21
913.9616882454325
 31
0.0
  0
LINE
  5
E0
330
1F
100
AcDbEntity
  8
LAY-1
  6
CONTINUOUS
 62
     7
100
AcDbLine
 10
1743.030952441687
 20
899.9999999999991
 30
0.0
 11
1747.999999999995
 21
904.9690475583066
 31
0.0
  0
LINE
  5
E1
330
1F
100
AcDbEntity
  8
LAY-1
  6
CONTINUOUS
 62
     7
100
AcDbLine
 10
1747.273593128801
 20
899.9999999999941
 30
0.0
 11
1748.0
 21
900.7264068711925
 31
0.0
  0
LINE
  5
E2
330
1F
100
AcDbEntity
  8
LAY-1
  6
CONTINUOUS
 62
     7
100
AcDbLine
 10
961.9542941143754
 20
927.1071078567611
 30
0.0
 11
963.0610590390861
 21
928.2138727814718
 31
0.0
  0
LINE
  5
E3
330
1F
100
AcDbEntity
  8
LAY-1
  6
CONTINUOUS
 62
     7
100
AcDbLine
 10
964.2250761561954
 20
925.1352492114626
 30
0.0
 11
965.6092965039688
 21
926.5194695592354
 31
0.0
  0
LINE
  5
E4
330
1F
100
AcDbEntity
  8
LAY-1
  6
CONTINUOUS
 62
     7
100
AcDbLine
 10
966.1454140622454
 20
922.8129464303925
 30
0.0
 11
967.8301077005071
 21
924.4976400686546
 31
0.0
  0
LINE
  5
E5
330
1F
100
AcDbEntity
  8
LAY-1
  6
CONTINUOUS
 62
     7
100
AcDbLine
 10
967.2453734521232
 20
919.6702651331511
 30
0.0
 11
969.7305173102814
 21
922.1554089913093
 31
0.0
  0
LINE
  5
E6
330
1F
100
AcDbEntity
  8
LAY-1
  6
CONTINUOUS
 62
     7
100
AcDbLine
 10
967.25
 20
915.4322509939084
 30
0.0
 11
971.2946390924753
 21
919.4768900863833
 31
0.0
  0
LINE
  5
E7
330
1F
100
AcDbEntity
  8
LAY-1
  6
CONTINUOUS
 62
     7
100
AcDbLine
 10
969.0603896932171
 20
913.0000000000069
 30
0.0
 11
973.3960538902347
 21
917.3356641970241
 31
0.0
  0
LINE
  5
E8
330
1F
100
AcDbEntity
  8
LAY-1
  6
CONTINUOUS
 62
     7
100
AcDbLine
 10
971.9999999999965
 20
911.6969696196662
 30
0.0
 11
988.2464114588385
 21
927.9433810785082
 31
0.0
  0
LINE
  5
E9
330
1F
100
AcDbEntity
  8
LAY-1
  6
CONTINUOUS
 62
     7
100
AcDbLine
 10
981.7883117545725
 20
913.0000000000041
 30
0.0
 11
982.7500000000009
 21
913.9616882454325
 31
0.0
  0
LINE
  5
EA
330
1F
100
AcDbEntity
  8
LAY-1
  6
CONTINUOUS
 62
     7
100
AcDbLine
 10
972.000000000001
 20
907.4543289325521
 30
0.0
 11
982.6551717736038
 21
918.1095007061549
 31
0.0
  0
LINE
  5
EB
330
1F
100
AcDbEntity
  8
LAY-1
  6
CONTINUOUS
 62
     7
100
AcDbLine
 10
971.9999999999936
 20
903.2116882454247
 30
0.0
 11
978.0000000000018
 21
909.2116882454334
 31
0.0
  0
LINE
  5
EC
330
1F
100
AcDbEntity
  8
LAY-1
  6
CONTINUOUS
 62
     7
100
AcDbLine
 10
973.0309524416871
 20
899.9999999999991
 30
0.0
 11
977.9999999999945
 21
904.9690475583066
 31
0.0
  0
LINE
  5
ED
330
1F
100
AcDbEntity
  8
LAY-1
  6
CONTINUOUS
 62
     7
100
AcDbLine
 10
977.2735931288008
 20
899.9999999999941
 30
0.0
 11
978.0000000000001
 21
900.7264068711925
 31
0.0
  0
LINE
  5
EE
330
1F
100
AcDbEntity
  8
LAY-1
  6
CONTINUOUS
 62
     7
100
AcDbLine
 10
1061.438065204954
 20
937.1363958786083
 30
0.0
 11
1062.376148356919
 21
938.0744790305727
 31
0.0
  0
LINE
  5
EF
330
1F
100
AcDbEntity
  8
LAY-1
  6
CONTINUOUS
 62
     7
100
AcDbLine
 10
1060.782190959317
 20
937.1876284141567
 30
0.0
 11
1062.32491582137
 21
938.7303532762107
 31
0.0
  0
LINE
  5
F0
330
1F
100
AcDbEntity
  8
LAY-1
  6
CONTINUOUS
 62
     7
100
AcDbLine
 10
1060.351471862326
 20
937.4640160983531
 30
0.0
 11
1062.048528137174
 21
939.161072373201
 31
0.0
  0
LINE
  5
F1
330
1F
100
AcDbEntity
  8
LAY-1
  6
CONTINUOUS
 62
     7
100
AcDbLine
 10
1060.07508417813
 20
937.894735195343
 30
0.0
 11
1061.617809040185
 21
939.4374600573974
 31
0.0
  0
LINE
  5
F2
330
1F
100
AcDbEntity
  8
LAY-1
  6
CONTINUOUS
 62
     7
100
AcDbLine
 10
1060.023851642582
 20
938.5506094409811
 30
0.0
 11
1060.961934794546
 21
939.4886925929459
 31
0.0
  0
LINE
  5
F3
330
1F
100
AcDbEntity
  8
LAY-1
  6
CONTINUOUS
 62
     7
100
AcDbLine
 10
1041.038065204944
 20
937.1363958786083
 30
0.0
 11
1041.976148356909
 21
938.0744790305727
 31
0.0
  0
LINE
  5
F4
330
1F
100
AcDbEntity
  8
LAY-1
  6
CONTINUOUS
 62
     7
100
AcDbLine
 10
1040.382190959306
 20
937.1876284141567
 30
0.0
 11
1041.924915821361
 21
938.7303532762107
 31
0.0
  0
LINE
  5
F5
330
1F
100
AcDbEntity
  8
LAY-1
  6
CONTINUOUS
 62
     7
100
AcDbLine
 10
1039.951471862316
 20
937.4640160983531
 30
0.0
 11
1041.648528137164
 21
939.161072373201
 31
0.0
  0
LINE
  5
F6
330
1F
100
AcDbEntity
  8
LAY-1
  6
CONTINUOUS
 62
     7
100
AcDbLine
 10
1039.67508417812
 20
937.894735195343
 30
0.0
 11
1041.217809040174
 21
939.4374600573974
 31
0.0
  0
LINE
  5
F7
330
1F
100
AcDbEntity
  8
LAY-1
  6
CONTINUOUS
 62
     7
100
AcDbLine
 10
1039.623851642571
 20
938.5506094409811
 30
0.0
 11
1040.561934794536
 21
939.4886925929459
 31
0.0
  0
LINE
  5
F8
330
1F
100
AcDbEntity
  8
LAY-1
  6
CONTINUOUS
 62
     7
100
AcDbLine
 10
1067.051962388771
 20
930.6858269683607
 30
0.0
 11
1068.326717267169
 21
931.960581846759
 31
0.0
  0
LINE
  5
F9
330
1F
100
AcDbEntity
  8
LAY-1
  6
CONTINUOUS
 62
     7
100
AcDbLine
 10
1067.027388417984
 20
929.954146216387
 30
0.0
 11
1069.058398019142
 21
931.985155817546
 31
0.0
  0
LINE
  5
FA
330
1F
100
AcDbEntity
  8
LAY-1
  6
CONTINUOUS
 62
     7
100
AcDbLine
 10
1067.210592486594
 20
929.43024350381
 30
0.0
 11
1069.582300731719
 21
931.8019517489365
 31
0.0
  0
LINE
  5
FB
330
1F
100
AcDbEntity
  8
LAY-1
  6
CONTINUOUS
 62
     7
100
AcDbLine
 10
1067.512563132674
 20
929.0251073687032
 30
0.0
 11
1069.987436866826
 21
931.4999811028565
 31
0.0
  0
LINE
  5
FC
330
1F
100
AcDbEntity
  8
LAY-1
  6
CONTINUOUS
 62
     7
100
AcDbLine
 10
1067.91769926778
 20
928.7231367226232
 30
0.0
 11
1070.289407512906
 21
931.09484496775
 31
0.0
  0
LINE
  5
FD
330
1F
100
AcDbEntity
  8
LAY-1
  6
CONTINUOUS
 62
     7
100
AcDbLine
 10
1068.441601980358
 20
928.5399326540137
 30
0.0
 11
1070.472611581516
 21
930.5709422551727
 31
0.0
  0
LINE
  5
FE
330
1F
100
AcDbEntity
  8
LAY-1
  6
CONTINUOUS
 62
     7
100
AcDbLine
 10
1069.17328273233
 20
928.5645066248009
 30
0.0
 11
1070.448037610729
 21
929.8392615031994
 31
0.0
  0
LINE
  5
FF
330
1F
100
AcDbEntity
  8
LAY-1
  6
CONTINUOUS
 62
     7
100
AcDbLine
 10
1031.551962388771
 20
930.6858269683607
 30
0.0
 11
1032.826717267169
 21
931.960581846759
 31
0.0
  0
LINE
  5
100
330
1F
100
AcDbEntity
  8
LAY-1
  6
CONTINUOUS
 62
     7
100
AcDbLine
 10
1031.527388417984
 20
929.954146216387
 30
0.0
 11
1033.558398019142
 21
931.985155817546
 31
0.0
  0
LINE
  5
101
330
1F
100
AcDbEntity
  8
LAY-1
  6
CONTINUOUS
 62
     7
100
AcDbLine
 10
1031.710592486594
 20
929.43024350381
 30
0.0
 11
1034.082300731719
 21
931.8019517489365
 31
0.0
  0
LINE
  5
102
330
1F
100
AcDbEntity
  8
LAY-1
  6
CONTINUOUS
 62
     7
100
AcDbLine
 10
1032.012563132674
 20
929.0251073687032
 30
0.0
 11
1034.487436866826
 21
931.4999811028565
 31
0.0
  0
LINE
  5
103
330
1F
100
AcDbEntity
  8
LAY-1
  6
CONTINUOUS
 62
     7
100
AcDbLine
 10
1032.41769926778
 20
928.7231367226232
 30
0.0
 11
1034.789407512906
 21
931.09484496775
 31
0.0
  0
LINE
  5
104
330
1F
100
AcDbEntity
  8
LAY-1
  6
CONTINUOUS
 62
     7
100
AcDbLine
 10
1032.941601980358
 20
928.5399326540137
 30
0.0
 11
1034.972611581516
 21
930.5709422551727
 31
0.0
  0
LINE
  5
105
330
1F
100
AcDbEntity
  8
LAY-1
  6
CONTINUOUS
 62
     7
100
AcDbLine
 10
1033.67328273233
 20
928.5645066248009
 30
0.0
 11
1034.948037610729
 21
929.8392615031994
 31
0.0
  0
LINE
  5
106
330
1F
100
AcDbEntity
  8
LAY-1
  6
CONTINUOUS
 62
     7
100
AcDbLine
 10
1017.181674143021
 20
2454.0
 30
0.0
 11
1304.140802010768
 21
2454.0
 31
0.0
  0
LINE
  5
107
330
1F
100
AcDbEntity
  8
LAY-1
  6
CONTINUOUS
 62
     7
100
AcDbLine
 10
1017.181674143021
 20
1566.0
 30
0.0
 11
1304.140802010771
 21
1566.0
 31
0.0
  0
LINE
  5
108
330
1F
100
AcDbEntity
  8
LAY-1
  6
CONTINUOUS
 62
     7
100
AcDbLine
 10
916.0
 20
2352.81832585698
 30
0.0
 11
916.0
 21
2065.859197989228
 31
0.0
  0
LINE
  5
109
330
1F
100
AcDbEntity
  8
LAY-1
  6
CONTINUOUS
 62
     7
100
AcDbLine
 10
1804.0
 20
2352.81832585698
 30
0.0
 11
1804.0
 21
2065.859197989233
 31
0.0
  0
ARC
  5
10A
330
1F
100
AcDbEntity
  8
LAY-1
  6
CONTINUOUS
 62
     7
100
AcDbCircle
 10
1702.818325856981
 20
2352.81832585698
 30
0.0
 40
101.1816741430202
100
AcDbArc
 50
0.0
 51
90.00000000000001
  0
CIRCLE
  5
10B
330
1F
100
AcDbEntity
  8
LAY-1
  6
CONTINUOUS
 62
     7
100
AcDbCircle
 10
1360.000000000001
 20
2010.0
 30
0.0
 40
447.5
  0
LINE
  5
10C
330
1F
100
AcDbEntity
  8
LAY-1
  6
CONTINUOUS
 62
     7
100
AcDbLine
 10
1804.0
 20
1954.140802010768
 30
0.0
 11
1804.0
 21
1667.181674143021
 31
0.0
  0
LINE
  5
10D
330
1F
100
AcDbEntity
  8
LAY-1
  6
CONTINUOUS
 62
     7
100
AcDbLine
 10
1415.85919798923
 20
1566.0
 30
0.0
 11
1702.818325856981
 21
1566.0
 31
0.0
  0
LINE
  5
10E
330
1F
100
AcDbEntity
  8
LAY-1
  6
CONTINUOUS
 62
     7
100
AcDbLine
 10
916.0
 20
1954.140802010773
 30
0.0
 11
916.0
 21
1667.181674143021
 31
0.0
  0
LINE
  5
10F
330
1F
100
AcDbEntity
  8
LAY-1
  6
CONTINUOUS
 62
     7
100
AcDbLine
 10
1415.859197989233
 20
2454.0
 30
0.0
 11
1702.818325856981
 21
2454.0
 31
0.0
  0
CIRCLE
  5
110
330
1F
100
AcDbEntity
  8
LAY-1
  6
CONTINUOUS
 62
     7
100
AcDbCircle
 10
1360.000000000001
 20
2010.0
 30
0.0
 40
446.0126927200591
  0
CIRCLE
  5
111
330
1F
100
AcDbEntity
  8
LAY-1
  6
CONTINUOUS
 62
     7
100
AcDbCircle
 10
1360.000000000001
 20
2010.0
 30
0.0
 40
429.4999999999999
  0
LINE
  5
112
330
1F
100
AcDbEntity
  8
LAY-1
  6
CONTINUOUS
 62
     7
100
AcDbLine
 10
1671.441821635551
 20
2331.341316572163
 30
0.0
 11
1734.059487247683
 21
2393.958982184295
 31
0.0
  0
LINE
  5
113
330
1F
100
AcDbEntity
  8
LAY-1
  6
CONTINUOUS
 62
     7
100
AcDbLine
 10
1681.341316572163
 20
2321.441821635551
 30
0.0
 11
1743.958982184295
 21
2384.059487247683
 31
0.0
  0
LINE
  5
114
330
1F
100
AcDbEntity
  8
LAY-1
  6
CONTINUOUS
 62
     7
100
AcDbLine
 10
1734.059487247683
 20
2393.958982184295
 30
0.0
 11
1743.958982184295
 21
2384.059487247683
 31
0.0
  0
LINE
  5
115
330
1F
100
AcDbEntity
  8
LAY-1
  6
CONTINUOUS
 62
     7
100
AcDbLine
 10
1656.386797464446
 20
2345.277670429705
 30
0.0
 11
1733.038059222875
 21
2421.928932188134
 31
0.0
  0
LINE
  5
116
330
1F
100
AcDbEntity
  8
LAY-1
  6
CONTINUOUS
 62
     7
100
AcDbLine
 10
1695.277670429706
 20
2306.386797464446
 30
0.0
 11
1771.928932188135
 21
2383.038059222874
 31
0.0
  0
LINE
  5
117
330
1F
100
AcDbEntity
  8
LAY-1
  6
CONTINUOUS
 62
     7
100
AcDbLine
 10
1487.339114179424
 20
2439.0
 30
0.0
 11
1725.966991411009
 21
2439.0
 31
0.0
  0
LINE
  5
118
330
1F
100
AcDbEntity
  8
LAY-1
  6
CONTINUOUS
 62
     7
100
AcDbLine
 10
1789.0
 20
2375.966991411009
 30
0.0
 11
1789.0
 21
2137.339114179424
 31
0.0
  0
ARC
  5
119
330
1F
100
AcDbEntity
  8
LAY-1
  6
CONTINUOUS
 62
     7
100
AcDbCircle
 10
1725.966991411009
 20
2429.0
 30
0.0
 40
10.0
100
AcDbArc
 50
315.0000000000028
 51
90.00000000000001
  0
ARC
  5
11A
330
1F
100
AcDbEntity
  8
LAY-1
  6
CONTINUOUS
 62
     7
100
AcDbCircle
 10
1779.0
 20
2375.966991411009
 30
0.0
 40
10.0
100
AcDbArc
 50
0.0
 51
135.0000000000009
  0
CIRCLE
  5
11B
330
1F
100
AcDbEntity
  8
LAY-1
  6
CONTINUOUS
 62
     7
100
AcDbCircle
 10
1674.0
 20
2404.0
 30
0.0
 40
10.0
  0
CIRCLE
  5
11C
330
1F
100
AcDbEntity
  8
LAY-1
  6
CONTINUOUS
 62
     7
100
AcDbCircle
 10
1674.0
 20
2404.0
 30
0.0
 40
11.2
  0
ARC
  5
11D
330
1F
100
AcDbEntity
  8
LAY-1
  6
CONTINUOUS
 62
     7
100
AcDbCircle
 10
1017.181674143021
 20
2352.81832585698
 30
0.0
 40
101.1816741430202
100
AcDbArc
 50
90.00000000000001
 51
180.0
  0
LINE
  5
11E
330
1F
100
AcDbEntity
  8
LAY-1
  6
CONTINUOUS
 62
     7
100
AcDbLine
 10
976.0410178157063
 20
2384.059487247682
 30
0.0
 11
985.9405127523187
 21
2393.958982184295
 31
0.0
  0
LINE
  5
11F
330
1F
100
AcDbEntity
  8
LAY-1
  6
CONTINUOUS
 62
     7
100
AcDbLine
 10
1038.658683427839
 20
2321.44182163555
 30
0.0
 11
976.0410178157063
 21
2384.059487247683
 31
0.0
  0
LINE
  5
120
330
1F
100
AcDbEntity
  8
LAY-1
  6
CONTINUOUS
 62
     7
100
AcDbLine
 10
1048.55817836445
 20
2331.341316572163
 30
0.0
 11
985.9405127523187
 21
2393.958982184295
 31
0.0
  0
LINE
  5
121
330
1F
100
AcDbEntity
  8
LAY-1
  6
CONTINUOUS
 62
     7
100
AcDbLine
 10
931.0000000000009
 20
2137.339114179424
 30
0.0
 11
931.0000000000009
 21
2375.966991411009
 31
0.0
  0
ARC
  5
122
330
1F
100
AcDbEntity
  8
LAY-1
  6
CONTINUOUS
 62
     7
100
AcDbCircle
 10
941.0000000000009
 20
2375.966991411009
 30
0.0
 40
10.0
100
AcDbArc
 50
44.99999999999861
 51
180.0
  0
LINE
  5
123
330
1F
100
AcDbEntity
  8
LAY-1
  6
CONTINUOUS
 62
     7
100
AcDbLine
 10
994.0330085889929
 20
2439.0
 30
0.0
 11
1232.660885820577
 21
2439.0
 31
0.0
  0
ARC
  5
124
330
1F
100
AcDbEntity
  8
LAY-1
  6
CONTINUOUS
 62
     7
100
AcDbCircle
 10
994.0330085889929
 20
2429.0
 30
0.0
 40
10.0
100
AcDbArc
 50
90.00000000000001
 51
225.0000000000014
  0
LINE
  5
125
330
1F
100
AcDbEntity
  8
LAY-1
  6
CONTINUOUS
 62
     7
100
AcDbLine
 10
1024.722329570296
 20
2306.386797464446
 30
0.0
 11
948.0710678118667
 21
2383.038059222874
 31
0.0
  0
LINE
  5
126
330
1F
100
AcDbEntity
  8
LAY-1
  6
CONTINUOUS
 62
     7
100
AcDbLine
 10
1063.613202535555
 20
2345.277670429706
 30
0.0
 11
986.961940777127
 21
2421.928932188134
 31
0.0
  0
CIRCLE
  5
127
330
1F
100
AcDbEntity
  8
LAY-1
  6
CONTINUOUS
 62
     7
100
AcDbCircle
 10
966.0000000000009
 20
2324.0
 30
0.0
 40
10.0
  0
CIRCLE
  5
128
330
1F
100
AcDbEntity
  8
LAY-1
  6
CONTINUOUS
 62
     7
100
AcDbCircle
 10
966.0000000000009
 20
2324.0
 30
0.0
 40
11.2
  0
ARC
  5
129
330
1F
100
AcDbEntity
  8
LAY-1
  6
CONTINUOUS
 62
     7
100
AcDbCircle
 10
1017.181674143021
 20
1667.181674143021
 30
0.0
 40
101.1816741430202
100
AcDbArc
 50
180.0
 51
270.0
  0
LINE
  5
12A
330
1F
100
AcDbEntity
  8
LAY-1
  6
CONTINUOUS
 62
     7
100
AcDbLine
 10
985.9405127523187
 20
1626.041017815706
 30
0.0
 11
976.0410178157072
 21
1635.940512752318
 31
0.0
  0
LINE
  5
12B
330
1F
100
AcDbEntity
  8
LAY-1
  6
CONTINUOUS
 62
     7
100
AcDbLine
 10
1048.55817836445
 20
1688.658683427838
 30
0.0
 11
985.9405127523187
 21
1626.041017815706
 31
0.0
  0
LINE
  5
12C
330
1F
100
AcDbEntity
  8
LAY-1
  6
CONTINUOUS
 62
     7
100
AcDbLine
 10
1038.658683427839
 20
1698.55817836445
 30
0.0
 11
976.0410178157063
 21
1635.940512752318
 31
0.0
  0
LINE
  5
12D
330
1F
100
AcDbEntity
  8
LAY-1
  6
CONTINUOUS
 62
     7
100
AcDbLine
 10
1232.660885820577
 20
1581.000000000001
 30
0.0
 11
994.0330085889918
 21
1581.000000000001
 31
0.0
  0
ARC
  5
12E
330
1F
100
AcDbEntity
  8
LAY-1
  6
CONTINUOUS
 62
     7
100
AcDbCircle
 10
994.0330085889918
 20
1591.000000000001
 30
0.0
 40
10.0
100
AcDbArc
 50
135.0000000000009
 51
270.0
  0
LINE
  5
12F
330
1F
100
AcDbEntity
  8
LAY-1
  6
CONTINUOUS
 62
     7
100
AcDbLine
 10
931.0000000000009
 20
1644.033008588992
 30
0.0
 11
931.0000000000009
 21
1882.660885820577
 31
0.0
  0
ARC
  5
130
330
1F
100
AcDbEntity
  8
LAY-1
  6
CONTINUOUS
 62
     7
100
AcDbCircle
 10
941.0000000000009
 20
1644.033008588992
 30
0.0
 40
10.0
100
AcDbArc
 50
180.0
 51
315.0000000000018
  0
LINE
  5
131
330
1F
100
AcDbEntity
  8
LAY-1
  6
CONTINUOUS
 62
     7
100
AcDbLine
 10
1063.613202535556
 20
1674.722329570296
 30
0.0
 11
986.9619407771262
 21
1598.071067811866
 31
0.0
  0
LINE
  5
132
330
1F
100
AcDbEntity
  8
LAY-1
  6
CONTINUOUS
 62
     7
100
AcDbLine
 10
1024.722329570295
 20
1713.613202535555
 30
0.0
 11
948.0710678118667
 21
1636.961940777126
 31
0.0
  0
CIRCLE
  5
133
330
1F
100
AcDbEntity
  8
LAY-1
  6
CONTINUOUS
 62
     7
100
AcDbCircle
 10
1046.000000000001
 20
1616.000000000001
 30
0.0
 40
10.0
  0
CIRCLE
  5
134
330
1F
100
AcDbEntity
  8
LAY-1
  6
CONTINUOUS
 62
     7
100
AcDbCircle
 10
1046.000000000001
 20
1616.000000000001
 30
0.0
 40
11.2
  0
ARC
  5
135
330
1F
100
AcDbEntity
  8
LAY-1
  6
CONTINUOUS
 62
     7
100
AcDbCircle
 10
1702.81832585698
 20
1667.181674143021
 30
0.0
 40
101.1816741430202
100
AcDbArc
 50
270.0
 51
0.0
  0
LINE
  5
136
330
1F
100
AcDbEntity
  8
LAY-1
  6
CONTINUOUS
 62
     7
100
AcDbLine
 10
1743.958982184295
 20
1635.940512752318
 30
0.0
 11
1734.059487247683
 21
1626.041017815706
 31
0.0
  0
LINE
  5
137
330
1F
100
AcDbEntity
  8
LAY-1
  6
CONTINUOUS
 62
     7
100
AcDbLine
 10
1681.341316572163
 20
1698.55817836445
 30
0.0
 11
1743.958982184295
 21
1635.940512752318
 31
0.0
  0
LINE
  5
138
330
1F
100
AcDbEntity
  8
LAY-1
  6
CONTINUOUS
 62
     7
100
AcDbLine
 10
1671.441821635552
 20
1688.658683427838
 30
0.0
 11
1734.059487247683
 21
1626.041017815706
 31
0.0
  0
LINE
  5
139
330
1F
100
AcDbEntity
  8
LAY-1
  6
CONTINUOUS
 62
     7
100
AcDbLine
 10
1789.0
 20
1882.660885820577
 30
0.0
 11
1789.0
 21
1644.033008588992
 31
0.0
  0
ARC
  5
13A
330
1F
100
AcDbEntity
  8
LAY-1
  6
CONTINUOUS
 62
     7
100
AcDbCircle
 10
1779.0
 20
1644.033008588992
 30
0.0
 40
10.0
100
AcDbArc
 50
225.0000000000018
 51
0.0
  0
LINE
  5
13B
330
1F
100
AcDbEntity
  8
LAY-1
  6
CONTINUOUS
 62
     7
100
AcDbLine
 10
1725.966991411009
 20
1581.000000000001
 30
0.0
 11
1487.339114179424
 21
1581.000000000001
 31
0.0
  0
ARC
  5
13C
330
1F
100
AcDbEntity
  8
LAY-1
  6
CONTINUOUS
 62
     7
100
AcDbCircle
 10
1725.966991411009
 20
1591.000000000001
 30
0.0
 40
10.0
100
AcDbArc
 50
270.0
 51
44.99999999999998
  0
LINE
  5
13D
330
1F
100
AcDbEntity
  8
LAY-1
  6
CONTINUOUS
 62
     7
100
AcDbLine
 10
1695.277670429705
 20
1713.613202535555
 30
0.0
 11
1771.928932188135
 21
1636.961940777126
 31
0.0
  0
LINE
  5
13E
330
1F
100
AcDbEntity
  8
LAY-1
  6
CONTINUOUS
 62
     7
100
AcDbLine
 10
1656.386797464446
 20
1674.722329570295
 30
0.0
 11
1733.038059222875
 21
1598.071067811866
 31
0.0
  0
CIRCLE
  5
13F
330
1F
100
AcDbEntity
  8
LAY-1
  6
CONTINUOUS
 62
     7
100
AcDbCircle
 10
1754.0
 20
1696.000000000001
 30
0.0
 40
10.0
  0
CIRCLE
  5
140
330
1F
100
AcDbEntity
  8
LAY-1
  6
CONTINUOUS
 62
     7
100
AcDbCircle
 10
1754.0
 20
1696.000000000001
 30
0.0
 40
11.2
  0
CIRCLE
  5
141
330
1F
100
AcDbEntity
  8
LAY-1
  6
CONTINUOUS
 62
     7
100
AcDbCircle
 10
1360.000000000001
 20
2010.0
 30
0.0
 40
427.5
  0
TEXT
  5
142
330
1F
100
AcDbEntity
  8
LAY-1
  6
CONTINUOUS
 62
     7
100
AcDbText
 10
1614.000000000002
 20
1591.0787409
 30
0.0
 40
17.9291348
  1
７５
 41
0.8999999999999998
  7
EXCADSTD
100
AcDbText
  0
TEXT
  5
143
330
1F
100
AcDbEntity
  8
LAY-1
  6
CONTINUOUS
 62
     7
100
AcDbText
 10
1778.921259100001
 20
2264.000000000001
 30
0.0
 40
17.9291348
  1
７５
 50
90.00000000000001
 41
0.8999999999999998
  7
EXCADSTD
100
AcDbText
  0
TEXT
  5
144
330
1F
100
AcDbEntity
  8
LAY-1
  6
CONTINUOUS
 62
     7
100
AcDbText
 10
941.0787409000001
 20
1756.0
 30
0.0
 40
17.9291348
  1
７５
 50
270.0
 41
0.8999999999999998
  7
EXCADSTD
100
AcDbText
  0
TEXT
  5
145
330
1F
100
AcDbEntity
  8
LAY-1
  6
CONTINUOUS
 62
     7
100
AcDbText
 10
1106.0
 20
2428.9212591
 30
0.0
 40
17.9291348
  1
７５
 50
180.0
 41
0.8999999999999998
  7
EXCADSTD
100
AcDbText
  0
LINE
  5
146
330
1F
100
AcDbEntity
  8
LAY-1
  6
CONTINUOUS
 62
     7
100
AcDbLine
 10
1578.495995386646
 20
2255.366053071733
 30
0.0
 11
1605.366053071734
 21
2228.495995386646
 31
0.0
  0
LINE
  5
147
330
1F
100
AcDbEntity
  8
LAY-1
  6
CONTINUOUS
 62
     7
100
AcDbLine
 10
1524.755880016468
 20
2201.625937701557
 30
0.0
 11
1551.625937701558
 21
2174.755880016468
 31
0.0
  0
LINE
  5
148
330
1F
100
AcDbEntity
  8
LAY-1
  6
CONTINUOUS
 62
     7
100
AcDbLine
 10
1524.755880016468
 20
2201.625937701557
 30
0.0
 11
1578.495995386646
 21
2255.366053071734
 31
0.0
  0
LINE
  5
149
330
1F
100
AcDbEntity
  8
LAY-1
  6
CONTINUOUS
 62
     7
100
AcDbLine
 10
1551.625937701558
 20
2174.755880016468
 30
0.0
 11
1605.366053071734
 21
2228.495995386646
 31
0.0
  0
LINE
  5
14A
330
1F
100
AcDbEntity
  8
LAY-1
  6
CONTINUOUS
 62
     7
100
AcDbLine
 10
1555.868578388676
 20
2232.738636073765
 30
0.0
 11
1582.738636073766
 21
2205.868578388676
 31
0.0
  0
LINE
  5
14B
330
1F
100
AcDbEntity
  8
LAY-1
  6
CONTINUOUS
 62
     7
100
AcDbLine
 10
1547.383297014438
 20
2224.253354699526
 30
0.0
 11
1574.253354699528
 21
2197.383297014438
 31
0.0
  0
LINE
  5
14C
330
1F
100
AcDbEntity
  8
LAY-1
  6
CONTINUOUS
 62
     7
100
AcDbLine
 10
1574.60690809012
 20
2251.476965775209
 30
0.0
 11
1601.476965775209
 21
2224.60690809012
 31
0.0
  0
LINE
  5
14D
330
1F
100
AcDbEntity
  8
LAY-1
  6
CONTINUOUS
 62
     7
100
AcDbLine
 10
1555.515024998083
 20
2178.644967312995
 30
0.0
 11
1528.644967312994
 21
2205.515024998082
 31
0.0
  0
LINE
  5
14E
330
1F
100
AcDbEntity
  8
LAY-1
  6
CONTINUOUS
 62
     7
100
AcDbLine
 10
1168.374062298444
 20
2174.755880016468
 30
0.0
 11
1114.633946928267
 21
2228.495995386645
 31
0.0
  0
LINE
  5
14F
330
1F
100
AcDbEntity
  8
LAY-1
  6
CONTINUOUS
 62
     7
100
AcDbLine
 10
1195.244119983533
 20
2201.625937701557
 30
0.0
 11
1141.504004613355
 21
2255.366053071733
 31
0.0
  0
LINE
  5
150
330
1F
100
AcDbEntity
  8
LAY-1
  6
CONTINUOUS
 62
     7
100
AcDbLine
 10
1168.374062298444
 20
2174.755880016467
 30
0.0
 11
1195.244119983533
 21
2201.625937701557
 31
0.0
  0
LINE
  5
151
330
1F
100
AcDbEntity
  8
LAY-1
  6
CONTINUOUS
 62
     7
100
AcDbLine
 10
1114.633946928268
 20
2228.495995386644
 30
0.0
 11
1141.504004613355
 21
2255.366053071733
 31
0.0
  0
LINE
  5
152
330
1F
100
AcDbEntity
  8
LAY-1
  6
CONTINUOUS
 62
     7
100
AcDbLine
 10
1137.261363926236
 20
2205.868578388675
 30
0.0
 11
1164.131421611325
 21
2232.738636073765
 31
0.0
  0
LINE
  5
153
330
1F
100
AcDbEntity
  8
LAY-1
  6
CONTINUOUS
 62
     7
100
AcDbLine
 10
1145.746645300475
 20
2197.383297014437
 30
0.0
 11
1172.616702985563
 21
2224.253354699526
 31
0.0
  0
LINE
  5
154
330
1F
100
AcDbEntity
  8
LAY-1
  6
CONTINUOUS
 62
     7
100
AcDbLine
 10
1118.523034224792
 20
2224.606908090119
 30
0.0
 11
1145.393091909881
 21
2251.476965775209
 31
0.0
  0
LINE
  5
155
330
1F
100
AcDbEntity
  8
LAY-1
  6
CONTINUOUS
 62
     7
100
AcDbLine
 10
1191.355032687006
 20
2205.515024998082
 30
0.0
 11
1164.484975001918
 21
2178.644967312993
 31
0.0
  0
LINE
  5
156
330
1F
100
AcDbEntity
  8
LAY-1
  6
CONTINUOUS
 62
     7
100
AcDbLine
 10
1195.244119983533
 20
1818.374062298444
 30
0.0
 11
1141.504004613356
 21
1764.633946928266
 31
0.0
  0
LINE
  5
157
330
1F
100
AcDbEntity
  8
LAY-1
  6
CONTINUOUS
 62
     7
100
AcDbLine
 10
1168.374062298444
 20
1845.244119983533
 30
0.0
 11
1114.633946928268
 21
1791.504004613355
 31
0.0
  0
LINE
  5
158
330
1F
100
AcDbEntity
  8
LAY-1
  6
CONTINUOUS
 62
     7
100
AcDbLine
 10
1195.244119983534
 20
1818.374062298444
 30
0.0
 11
1168.374062298444
 21
1845.244119983533
 31
0.0
  0
LINE
  5
159
330
1F
100
AcDbEntity
  8
LAY-1
  6
CONTINUOUS
 62
     7
100
AcDbLine
 10
1141.504004613356
 20
1764.633946928267
 30
0.0
 11
1114.633946928268
 21
1791.504004613355
 31
0.0
  0
LINE
  5
15A
330
1F
100
AcDbEntity
  8
LAY-1
  6
CONTINUOUS
 62
     7
100
AcDbLine
 10
1164.131421611326
 20
1787.261363926237
 30
0.0
 11
1137.261363926236
 21
1814.131421611325
 31
0.0
  0
LINE
  5
15B
330
1F
100
AcDbEntity
  8
LAY-1
  6
CONTINUOUS
 62
     7
100
AcDbLine
 10
1172.616702985564
 20
1795.746645300475
 30
0.0
 11
1145.746645300474
 21
1822.616702985563
 31
0.0
  0
LINE
  5
15C
330
1F
100
AcDbEntity
  8
LAY-1
  6
CONTINUOUS
 62
     7
100
AcDbLine
 10
1145.393091909882
 20
1768.523034224792
 30
0.0
 11
1118.523034224792
 21
1795.393091909881
 31
0.0
  0
LINE
  5
15D
330
1F
100
AcDbEntity
  8
LAY-1
  6
CONTINUOUS
 62
     7
100
AcDbLine
 10
1164.484975001918
 20
1841.355032687007
 30
0.0
 11
1191.355032687008
 21
1814.484975001918
 31
0.0
  0
LINE
  5
15E
330
1F
100
AcDbEntity
  8
LAY-1
  6
CONTINUOUS
 62
     7
100
AcDbLine
 10
1551.625937701558
 20
1845.244119983533
 30
0.0
 11
1605.366053071735
 21
1791.504004613356
 31
0.0
  0
LINE
  5
15F
330
1F
100
AcDbEntity
  8
LAY-1
  6
CONTINUOUS
 62
     7
100
AcDbLine
 10
1524.755880016469
 20
1818.374062298444
 30
0.0
 11
1578.495995386646
 21
1764.633946928267
 31
0.0
  0
LINE
  5
160
330
1F
100
AcDbEntity
  8
LAY-1
  6
CONTINUOUS
 62
     7
100
AcDbLine
 10
1551.625937701557
 20
1845.244119983533
 30
0.0
 11
1524.755880016469
 21
1818.374062298444
 31
0.0
  0
LINE
  5
161
330
1F
100
AcDbEntity
  8
LAY-1
  6
CONTINUOUS
 62
     7
100
AcDbLine
 10
1605.366053071733
 20
1791.504004613356
 30
0.0
 11
1578.495995386646
 21
1764.633946928267
 31
0.0
  0
LINE
  5
162
330
1F
100
AcDbEntity
  8
LAY-1
  6
CONTINUOUS
 62
     7
100
AcDbLine
 10
1582.738636073765
 20
1814.131421611326
 30
0.0
 11
1555.868578388677
 21
1787.261363926236
 31
0.0
  0
LINE
  5
163
330
1F
100
AcDbEntity
  8
LAY-1
  6
CONTINUOUS
 62
     7
100
AcDbLine
 10
1574.253354699526
 20
1822.616702985564
 30
0.0
 11
1547.383297014438
 21
1795.746645300474
 31
0.0
  0
LINE
  5
164
330
1F
100
AcDbEntity
  8
LAY-1
  6
CONTINUOUS
 62
     7
100
AcDbLine
 10
1601.476965775209
 20
1795.393091909882
 30
0.0
 11
1574.606908090121
 21
1768.523034224792
 31
0.0
  0
LINE
  5
165
330
1F
100
AcDbEntity
  8
LAY-1
  6
CONTINUOUS
 62
     7
100
AcDbLine
 10
1528.644967312994
 20
1814.484975001918
 30
0.0
 11
1555.515024998083
 21
1841.355032687008
 31
0.0
  0
TEXT
  5
166
330
1F
100
AcDbEntity
  8
LAY-1
  6
CONTINUOUS
 62
     7
100
AcDbText
 10
1302.553192078507
 20
2393.125410506738
 30
0.0
 40
14.8110244
  1
Ｏ
 50
7.999999999999979
 41
1.2
  7
EXCADSTD
100
AcDbText
  0
TEXT
  5
167
330
1F
100
AcDbEntity
  8
LAY-1
  6
CONTINUOUS
 62
     7
100
AcDbText
 10
1317.262560912487
 20
2395.268957367081
 30
0.0
 40
14.8110244
  1
Ｐ
 50
4.999999999999971
 41
1.2
  7
EXCADSTD
100
AcDbText
  0
TEXT
  5
168
330
1F
100
AcDbEntity
  8
LAY-1
  6
CONTINUOUS
 62
     7
100
AcDbText
 10
1330.883613626518
 20
2396.794479870988
 30
0.0
 40
14.8110244
  1
Ｅ
 50
1.999999999999966
 41
1.2
  7
EXCADSTD
100
AcDbText
  0
TEXT
  5
169
330
1F
100
AcDbEntity
  8
LAY-1
  6
CONTINUOUS
 62
     7
100
AcDbText
 10
1344.599999999999
 20
2397.6433077
 30
0.0
 40
14.8110244
  1
Ｎ
 41
1.2
  7
EXCADSTD
100
AcDbText
  0
LINE
  5
16A
330
1F
100
AcDbEntity
  8
LAY-1
  6
CONTINUOUS
 62
     7
100
AcDbLine
 10
1371.69466268618
 20
2405.158508525298
 30
0.0
 11
1397.595724836566
 21
2402.892459213858
 31
0.0
  0
LINE
  5
16B
330
1F
100
AcDbEntity
  8
LAY-1
  6
CONTINUOUS
 62
     7
100
AcDbLine
 10
1371.433195457937
 20
2402.169924431022
 30
0.0
 11
1397.334257608323
 21
2399.903875119584
 31
0.0
  0
LINE
  5
16C
330
1F
100
AcDbEntity
  8
LAY-1
  6
CONTINUOUS
 62
     7
100
AcDbLine
 10
1371.302461843816
 20
2400.675632383885
 30
0.0
 11
1371.433195457937
 21
2402.169924431022
 31
0.0
  0
LINE
  5
16D
330
1F
100
AcDbEntity
  8
LAY-1
  6
CONTINUOUS
 62
     7
100
AcDbLine
 10
1363.594371487325
 20
2404.361462420142
 30
0.0
 11
1371.302461843816
 21
2400.675632383885
 31
0.0
  0
LINE
  5
16E
330
1F
100
AcDbEntity
  8
LAY-1
  6
CONTINUOUS
 62
     7
100
AcDbLine
 10
1371.825396300301
 20
2406.652800572435
 30
0.0
 11
1363.594371487325
 21
2404.361462420142
 31
0.0
  0
LINE
  5
16F
330
1F
100
AcDbEntity
  8
LAY-1
  6
CONTINUOUS
 62
     7
100
AcDbLine
 10
1399.718847846871
 20
2404.212439775501
 30
0.0
 11
1413.665573620156
 21
2402.992259377033
 31
0.0
  0
LINE
  5
170
330
1F
100
AcDbEntity
  8
LAY-1
  6
CONTINUOUS
 62
     7
100
AcDbLine
 10
1399.195913390385
 20
2398.235271586951
 30
0.0
 11
1413.142639163669
 21
2397.015091188483
 31
0.0
  0
LINE
  5
171
330
1F
100
AcDbEntity
  8
LAY-1
  6
CONTINUOUS
 62
     7
100
AcDbLine
 10
1409.419327599545
 20
2400.352298253749
 30
0.0
 11
1413.665573620156
 21
2402.992259377033
 31
0.0
  0
LINE
  5
172
330
1F
100
AcDbEntity
  8
LAY-1
  6
CONTINUOUS
 62
     7
100
AcDbLine
 10
1409.419327599545
 20
2400.352298253749
 30
0.0
 11
1413.142639163669
 21
2397.015091188483
 31
0.0
  0
LINE
  5
173
330
1F
100
AcDbEntity
  8
LAY-1
  6
CONTINUOUS
 62
     7
100
AcDbLine
 10
1397.595724836566
 20
2402.892459213858
 30
0.0
 11
1399.718847846871
 21
2404.212439775501
 31
0.0
  0
LINE
  5
174
330
1F
100
AcDbEntity
  8
LAY-1
  6
CONTINUOUS
 62
     7
100
AcDbLine
 10
1397.334257608323
 20
2399.903875119584
 30
0.0
 11
1399.195913390385
 21
2398.235271586951
 31
0.0
  0
LINE
  5
175
330
1F
100
AcDbEntity
  8
LAY-1
  6
CONTINUOUS
 62
     7
100
AcDbLine
 10
1371.69466268618
 20
2405.158508525298
 30
0.0
 11
1371.825396300301
 21
2406.652800572435
 31
0.0
  0
LINE
  5
176
330
1F
100
AcDbEntity
  8
LAY-1
  6
CONTINUOUS
 62
     7
100
AcDbLine
 10
1177.566450453834
 20
1960.502525316925
 30
0.0
 11
1181.809091140953
 21
1956.259884629806
 31
0.0
  0
LINE
  5
177
330
1F
100
AcDbEntity
  8
LAY-1
  6
CONTINUOUS
 62
     7
100
AcDbLine
 10
1181.809091140953
 20
1956.259884629806
 30
0.0
 11
1211.507575950788
 21
1985.958369439641
 31
0.0
  0
LINE
  5
178
330
1F
100
AcDbEntity
  8
LAY-1
  6
CONTINUOUS
 62
     7
100
AcDbLine
 10
1211.507575950788
 20
1985.958369439641
 30
0.0
 11
1217.164430200281
 21
1980.301515190149
 31
0.0
  0
LINE
  5
179
330
1F
100
AcDbEntity
  8
LAY-1
  6
CONTINUOUS
 62
     7
100
AcDbLine
 10
1217.164430200281
 20
1980.301515190149
 30
0.0
 11
1187.465945390445
 21
1950.603030380314
 31
0.0
  0
LINE
  5
17A
330
1F
100
AcDbEntity
  8
LAY-1
  6
CONTINUOUS
 62
     7
100
AcDbLine
 10
1187.465945390445
 20
1950.603030380314
 30
0.0
 11
1191.708586077564
 21
1946.360389693194
 31
0.0
  0
LINE
  5
17B
330
1F
100
AcDbEntity
  8
LAY-1
  6
CONTINUOUS
 62
     7
100
AcDbLine
 10
1191.708586077564
 20
1946.360389693194
 30
0.0
 11
1225.649711574518
 21
1980.301515190147
 31
0.0
  0
LINE
  5
17C
330
1F
100
AcDbEntity
  8
LAY-1
  6
CONTINUOUS
 62
     7
100
AcDbLine
 10
1225.649711574518
 20
1980.301515190147
 30
0.0
 11
1211.507575950787
 21
1994.443650813878
 31
0.0
  0
LINE
  5
17D
330
1F
100
AcDbEntity
  8
LAY-1
  6
CONTINUOUS
 62
     7
100
AcDbLine
 10
1211.507575950787
 20
1994.443650813878
 30
0.0
 11
1177.566450453834
 21
1960.502525316925
 31
0.0
  0
LINE
  5
17E
330
1F
100
AcDbEntity
  8
LAY-1
  6
CONTINUOUS
 62
     7
100
AcDbLine
 10
1177.566450453834
 20
1920.904545570475
 30
0.0
 11
1181.809091140953
 21
1916.661904883356
 31
0.0
  0
LINE
  5
17F
330
1F
100
AcDbEntity
  8
LAY-1
  6
CONTINUOUS
 62
     7
100
AcDbLine
 10
1181.809091140953
 20
1916.661904883356
 30
0.0
 11
1211.507575950788
 21
1946.360389693191
 31
0.0
  0
LINE
  5
180
330
1F
100
AcDbEntity
  8
LAY-1
  6
CONTINUOUS
 62
     7
100
AcDbLine
 10
1211.507575950788
 20
1946.360389693191
 30
0.0
 11
1217.164430200281
 21
1940.703535443699
 31
0.0
  0
LINE
  5
181
330
1F
100
AcDbEntity
  8
LAY-1
  6
CONTINUOUS
 62
     7
100
AcDbLine
 10
1217.164430200281
 20
1940.703535443699
 30
0.0
 11
1187.465945390445
 21
1911.005050633864
 31
0.0
  0
LINE
  5
182
330
1F
100
AcDbEntity
  8
LAY-1
  6
CONTINUOUS
 62
     7
100
AcDbLine
 10
1187.465945390445
 20
1911.005050633864
 30
0.0
 11
1191.708586077564
 21
1906.762409946744
 31
0.0
  0
LINE
  5
183
330
1F
100
AcDbEntity
  8
LAY-1
  6
CONTINUOUS
 62
     7
100
AcDbLine
 10
1191.708586077564
 20
1906.762409946744
 30
0.0
 11
1225.649711574518
 21
1940.703535443698
 31
0.0
  0
LINE
  5
184
330
1F
100
AcDbEntity
  8
LAY-1
  6
CONTINUOUS
 62
     7
100
AcDbLine
 10
1225.649711574518
 20
1940.703535443698
 30
0.0
 11
1211.507575950787
 21
1954.845671067428
 31
0.0
  0
LINE
  5
185
330
1F
100
AcDbEntity
  8
LAY-1
  6
CONTINUOUS
 62
     7
100
AcDbLine
 10
1211.507575950787
 20
1954.845671067428
 30
0.0
 11
1177.566450453834
 21
1920.904545570475
 31
0.0
  0
LINE
  5
186
330
1F
100
AcDbEntity
  8
LAY-1
  6
CONTINUOUS
 62
     7
100
AcDbLine
 10
1177.566450453834
 20
2000.100505063375
 30
0.0
 11
1181.809091140953
 21
1995.857864376256
 31
0.0
  0
LINE
  5
187
330
1F
100
AcDbEntity
  8
LAY-1
  6
CONTINUOUS
 62
     7
100
AcDbLine
 10
1181.809091140953
 20
1995.857864376256
 30
0.0
 11
1211.507575950788
 21
2025.556349186091
 31
0.0
  0
LINE
  5
188
330
1F
100
AcDbEntity
  8
LAY-1
  6
CONTINUOUS
 62
     7
100
AcDbLine
 10
1211.507575950788
 20
2025.556349186091
 30
0.0
 11
1217.164430200281
 21
2019.899494936599
 31
0.0
  0
LINE
  5
189
330
1F
100
AcDbEntity
  8
LAY-1
  6
CONTINUOUS
 62
     7
100
AcDbLine
 10
1217.164430200281
 20
2019.899494936599
 30
0.0
 11
1187.465945390445
 21
1990.201010126764
 31
0.0
  0
LINE
  5
18A
330
1F
100
AcDbEntity
  8
LAY-1
  6
CONTINUOUS
 62
     7
100
AcDbLine
 10
1187.465945390445
 20
1990.201010126764
 30
0.0
 11
1191.708586077564
 21
1985.958369439644
 31
0.0
  0
LINE
  5
18B
330
1F
100
AcDbEntity
  8
LAY-1
  6
CONTINUOUS
 62
     7
100
AcDbLine
 10
1191.708586077564
 20
1985.958369439644
 30
0.0
 11
1225.649711574518
 21
2019.899494936598
 31
0.0
  0
LINE
  5
18C
330
1F
100
AcDbEntity
  8
LAY-1
  6
CONTINUOUS
 62
     7
100
AcDbLine
 10
1225.649711574518
 20
2019.899494936598
 30
0.0
 11
1211.507575950787
 21
2034.041630560328
 31
0.0
  0
LINE
  5
18D
330
1F
100
AcDbEntity
  8
LAY-1
  6
CONTINUOUS
 62
     7
100
AcDbLine
 10
1211.507575950787
 20
2034.041630560328
 30
0.0
 11
1177.566450453834
 21
2000.100505063375
 31
0.0
  0
LINE
  5
18E
330
1F
100
AcDbEntity
  8
LAY-1
  6
CONTINUOUS
 62
     7
100
AcDbLine
 10
1177.566450453834
 20
2039.698484809825
 30
0.0
 11
1181.809091140953
 21
2035.455844122706
 31
0.0
  0
LINE
  5
18F
330
1F
100
AcDbEntity
  8
LAY-1
  6
CONTINUOUS
 62
     7
100
AcDbLine
 10
1181.809091140953
 20
2035.455844122706
 30
0.0
 11
1211.507575950788
 21
2065.154328932541
 31
0.0
  0
LINE
  5
190
330
1F
100
AcDbEntity
  8
LAY-1
  6
CONTINUOUS
 62
     7
100
AcDbLine
 10
1211.507575950788
 20
2065.154328932541
 30
0.0
 11
1217.164430200281
 21
2059.497474683048
 31
0.0
  0
LINE
  5
191
330
1F
100
AcDbEntity
  8
LAY-1
  6
CONTINUOUS
 62
     7
100
AcDbLine
 10
1217.164430200281
 20
2059.497474683048
 30
0.0
 11
1187.465945390445
 21
2029.798989873214
 31
0.0
  0
LINE
  5
192
330
1F
100
AcDbEntity
  8
LAY-1
  6
CONTINUOUS
 62
     7
100
AcDbLine
 10
1187.465945390445
 20
2029.798989873214
 30
0.0
 11
1191.708586077564
 21
2025.556349186094
 31
0.0
  0
LINE
  5
193
330
1F
100
AcDbEntity
  8
LAY-1
  6
CONTINUOUS
 62
     7
100
AcDbLine
 10
1191.708586077564
 20
2025.556349186094
 30
0.0
 11
1225.649711574518
 21
2059.497474683048
 31
0.0
  0
LINE
  5
194
330
1F
100
AcDbEntity
  8
LAY-1
  6
CONTINUOUS
 62
     7
100
AcDbLine
 10
1225.649711574518
 20
2059.497474683048
 30
0.0
 11
1211.507575950787
 21
2073.639610306778
 31
0.0
  0
LINE
  5
195
330
1F
100
AcDbEntity
  8
LAY-1
  6
CONTINUOUS
 62
     7
100
AcDbLine
 10
1211.507575950787
 20
2073.639610306778
 30
0.0
 11
1177.566450453834
 21
2039.698484809825
 31
0.0
  0
LINE
  5
196
330
1F
100
AcDbEntity
  8
LAY-1
  6
CONTINUOUS
 62
     7
100
AcDbLine
 10
1152.110606331115
 20
2053.840620433526
 30
0.0
 11
1147.867965643996
 21
2049.597979746407
 31
0.0
  0
LINE
  5
197
330
1F
100
AcDbEntity
  8
LAY-1
  6
CONTINUOUS
 62
     7
100
AcDbLine
 10
1147.867965643996
 20
2049.597979746407
 30
0.0
 11
1177.566450453831
 21
2019.899494936572
 31
0.0
  0
LINE
  5
198
330
1F
100
AcDbEntity
  8
LAY-1
  6
CONTINUOUS
 62
     7
100
AcDbLine
 10
1177.566450453831
 20
2019.899494936572
 30
0.0
 11
1171.909596204339
 21
2014.24264068708
 31
0.0
  0
LINE
  5
199
330
1F
100
AcDbEntity
  8
LAY-1
  6
CONTINUOUS
 62
     7
100
AcDbLine
 10
1171.909596204339
 20
2014.24264068708
 30
0.0
 11
1142.211111394504
 21
2043.941125496915
 31
0.0
  0
LINE
  5
19A
330
1F
100
AcDbEntity
  8
LAY-1
  6
CONTINUOUS
 62
     7
100
AcDbLine
 10
1142.211111394504
 20
2043.941125496915
 30
0.0
 11
1137.968470707384
 21
2039.698484809795
 31
0.0
  0
LINE
  5
19B
330
1F
100
AcDbEntity
  8
LAY-1
  6
CONTINUOUS
 62
     7
100
AcDbLine
 10
1137.968470707384
 20
2039.698484809795
 30
0.0
 11
1171.909596204338
 21
2005.757359312842
 31
0.0
  0
LINE
  5
19C
330
1F
100
AcDbEntity
  8
LAY-1
  6
CONTINUOUS
 62
     7
100
AcDbLine
 10
1171.909596204338
 20
2005.757359312842
 30
0.0
 11
1186.051731828068
 21
2019.899494936573
 31
0.0
  0
LINE
  5
19D
330
1F
100
AcDbEntity
  8
LAY-1
  6
CONTINUOUS
 62
     7
100
AcDbLine
 10
1186.051731828068
 20
2019.899494936573
 30
0.0
 11
1152.110606331115
 21
2053.840620433526
 31
0.0
  0
LINE
  5
19E
330
1F
100
AcDbEntity
  8
LAY-1
  6
CONTINUOUS
 62
     7
100
AcDbLine
 10
1152.110606331115
 20
2014.242640687076
 30
0.0
 11
1147.867965643996
 21
2009.999999999957
 31
0.0
  0
LINE
  5
19F
330
1F
100
AcDbEntity
  8
LAY-1
  6
CONTINUOUS
 62
     7
100
AcDbLine
 10
1147.867965643996
 20
2009.999999999957
 30
0.0
 11
1177.566450453831
 21
1980.301515190122
 31
0.0
  0
LINE
  5
1A0
330
1F
100
AcDbEntity
  8
LAY-1
  6
CONTINUOUS
 62
     7
100
AcDbLine
 10
1177.566450453831
 20
1980.301515190122
 30
0.0
 11
1171.909596204339
 21
1974.64466094063
 31
0.0
  0
LINE
  5
1A1
330
1F
100
AcDbEntity
  8
LAY-1
  6
CONTINUOUS
 62
     7
100
AcDbLine
 10
1171.909596204339
 20
1974.64466094063
 30
0.0
 11
1142.211111394504
 21
2004.343145750465
 31
0.0
  0
LINE
  5
1A2
330
1F
100
AcDbEntity
  8
LAY-1
  6
CONTINUOUS
 62
     7
100
AcDbLine
 10
1142.211111394504
 20
2004.343145750465
 30
0.0
 11
1137.968470707384
 21
2000.100505063345
 31
0.0
  0
LINE
  5
1A3
330
1F
100
AcDbEntity
  8
LAY-1
  6
CONTINUOUS
 62
     7
100
AcDbLine
 10
1137.968470707384
 20
2000.100505063345
 30
0.0
 11
1171.909596204338
 21
1966.159379566392
 31
0.0
  0
LINE
  5
1A4
330
1F
100
AcDbEntity
  8
LAY-1
  6
CONTINUOUS
 62
     7
100
AcDbLine
 10
1171.909596204338
 20
1966.159379566392
 30
0.0
 11
1186.051731828068
 21
1980.301515190122
 31
0.0
  0
LINE
  5
1A5
330
1F
100
AcDbEntity
  8
LAY-1
  6
CONTINUOUS
 62
     7
100
AcDbLine
 10
1186.051731828068
 20
1980.301515190122
 30
0.0
 11
1152.110606331115
 21
2014.242640687076
 31
0.0
  0
LINE
  5
1A6
330
1F
100
AcDbEntity
  8
LAY-1
  6
CONTINUOUS
 62
     7
100
AcDbLine
 10
1152.110606331115
 20
1974.644660940626
 30
0.0
 11
1147.867965643996
 21
1970.402020253507
 31
0.0
  0
LINE
  5
1A7
330
1F
100
AcDbEntity
  8
LAY-1
  6
CONTINUOUS
 62
     7
100
AcDbLine
 10
1147.867965643996
 20
1970.402020253507
 30
0.0
 11
1177.566450453831
 21
1940.703535443672
 31
0.0
  0
LINE
  5
1A8
330
1F
100
AcDbEntity
  8
LAY-1
  6
CONTINUOUS
 62
     7
100
AcDbLine
 10
1177.566450453831
 20
1940.703535443672
 30
0.0
 11
1171.909596204339
 21
1935.04668119418
 31
0.0
  0
LINE
  5
1A9
330
1F
100
AcDbEntity
  8
LAY-1
  6
CONTINUOUS
 62
     7
100
AcDbLine
 10
1171.909596204339
 20
1935.04668119418
 30
0.0
 11
1142.211111394504
 21
1964.745166004015
 31
0.0
  0
LINE
  5
1AA
330
1F
100
AcDbEntity
  8
LAY-1
  6
CONTINUOUS
 62
     7
100
AcDbLine
 10
1142.211111394504
 20
1964.745166004015
 30
0.0
 11
1137.968470707384
 21
1960.502525316895
 31
0.0
  0
LINE
  5
1AB
330
1F
100
AcDbEntity
  8
LAY-1
  6
CONTINUOUS
 62
     7
100
AcDbLine
 10
1137.968470707384
 20
1960.502525316895
 30
0.0
 11
1171.909596204338
 21
1926.561399819942
 31
0.0
  0
LINE
  5
1AC
330
1F
100
AcDbEntity
  8
LAY-1
  6
CONTINUOUS
 62
     7
100
AcDbLine
 10
1171.909596204338
 20
1926.561399819942
 30
0.0
 11
1186.051731828068
 21
1940.703535443673
 31
0.0
  0
LINE
  5
1AD
330
1F
100
AcDbEntity
  8
LAY-1
  6
CONTINUOUS
 62
     7
100
AcDbLine
 10
1186.051731828068
 20
1940.703535443673
 30
0.0
 11
1152.110606331115
 21
1974.644660940626
 31
0.0
  0
LINE
  5
1AE
330
1F
100
AcDbEntity
  8
LAY-1
  6
CONTINUOUS
 62
     7
100
AcDbLine
 10
1152.110606331115
 20
2093.438600179976
 30
0.0
 11
1147.867965643996
 21
2089.195959492858
 31
0.0
  0
LINE
  5
1AF
330
1F
100
AcDbEntity
  8
LAY-1
  6
CONTINUOUS
 62
     7
100
AcDbLine
 10
1147.867965643996
 20
2089.195959492858
 30
0.0
 11
1177.566450453831
 21
2059.497474683022
 31
0.0
  0
LINE
  5
1B0
330
1F
100
AcDbEntity
  8
LAY-1
  6
CONTINUOUS
 62
     7
100
AcDbLine
 10
1177.566450453831
 20
2059.497474683022
 30
0.0
 11
1171.909596204339
 21
2053.84062043353
 31
0.0
  0
LINE
  5
1B1
330
1F
100
AcDbEntity
  8
LAY-1
  6
CONTINUOUS
 62
     7
100
AcDbLine
 10
1171.909596204339
 20
2053.84062043353
 30
0.0
 11
1142.211111394504
 21
2083.539105243365
 31
0.0
  0
LINE
  5
1B2
330
1F
100
AcDbEntity
  8
LAY-1
  6
CONTINUOUS
 62
     7
100
AcDbLine
 10
1142.211111394504
 20
2083.539105243365
 30
0.0
 11
1137.968470707384
 21
2079.296464556245
 31
0.0
  0
LINE
  5
1B3
330
1F
100
AcDbEntity
  8
LAY-1
  6
CONTINUOUS
 62
     7
100
AcDbLine
 10
1137.968470707384
 20
2079.296464556245
 30
0.0
 11
1171.909596204338
 21
2045.355339059292
 31
0.0
  0
LINE
  5
1B4
330
1F
100
AcDbEntity
  8
LAY-1
  6
CONTINUOUS
 62
     7
100
AcDbLine
 10
1171.909596204338
 20
2045.355339059292
 30
0.0
 11
1186.051731828068
 21
2059.497474683023
 31
0.0
  0
LINE
  5
1B5
330
1F
100
AcDbEntity
  8
LAY-1
  6
CONTINUOUS
 62
     7
100
AcDbLine
 10
1186.051731828068
 20
2059.497474683023
 30
0.0
 11
1152.110606331115
 21
2093.438600179976
 31
0.0
  0
LINE
  5
1B6
330
1F
100
AcDbEntity
  8
LAY-1
  6
CONTINUOUS
 62
     7
100
AcDbLine
 10
1177.566450453834
 20
2079.296464556325
 30
0.0
 11
1181.809091140953
 21
2075.053823869206
 31
0.0
  0
LINE
  5
1B7
330
1F
100
AcDbEntity
  8
LAY-1
  6
CONTINUOUS
 62
     7
100
AcDbLine
 10
1181.809091140953
 20
2075.053823869206
 30
0.0
 11
1211.507575950788
 21
2104.752308679041
 31
0.0
  0
LINE
  5
1B8
330
1F
100
AcDbEntity
  8
LAY-1
  6
CONTINUOUS
 62
     7
100
AcDbLine
 10
1211.507575950788
 20
2104.752308679041
 30
0.0
 11
1217.164430200281
 21
2099.095454429548
 31
0.0
  0
LINE
  5
1B9
330
1F
100
AcDbEntity
  8
LAY-1
  6
CONTINUOUS
 62
     7
100
AcDbLine
 10
1217.164430200281
 20
2099.095454429548
 30
0.0
 11
1187.465945390445
 21
2069.396969619714
 31
0.0
  0
LINE
  5
1BA
330
1F
100
AcDbEntity
  8
LAY-1
  6
CONTINUOUS
 62
     7
100
AcDbLine
 10
1187.465945390445
 20
2069.396969619714
 30
0.0
 11
1191.708586077564
 21
2065.154328932594
 31
0.0
  0
LINE
  5
1BB
330
1F
100
AcDbEntity
  8
LAY-1
  6
CONTINUOUS
 62
     7
100
AcDbLine
 10
1191.708586077564
 20
2065.154328932594
 30
0.0
 11
1225.649711574518
 21
2099.095454429547
 31
0.0
  0
LINE
  5
1BC
330
1F
100
AcDbEntity
  8
LAY-1
  6
CONTINUOUS
 62
     7
100
AcDbLine
 10
1225.649711574518
 20
2099.095454429547
 30
0.0
 11
1211.507575950787
 21
2113.237590053278
 31
0.0
  0
LINE
  5
1BD
330
1F
100
AcDbEntity
  8
LAY-1
  6
CONTINUOUS
 62
     7
100
AcDbLine
 10
1211.507575950787
 20
2113.237590053278
 30
0.0
 11
1177.566450453834
 21
2079.296464556325
 31
0.0
  0
LINE
  5
1BE
330
1F
100
AcDbEntity
  8
LAY-1
  6
CONTINUOUS
 62
     7
100
AcDbLine
 10
1152.110606331115
 20
1935.046681194226
 30
0.0
 11
1147.867965643996
 21
1930.804040507107
 31
0.0
  0
LINE
  5
1BF
330
1F
100
AcDbEntity
  8
LAY-1
  6
CONTINUOUS
 62
     7
100
AcDbLine
 10
1147.867965643996
 20
1930.804040507107
 30
0.0
 11
1177.566450453831
 21
1901.105555697272
 31
0.0
  0
LINE
  5
1C0
330
1F
100
AcDbEntity
  8
LAY-1
  6
CONTINUOUS
 62
     7
100
AcDbLine
 10
1177.566450453831
 20
1901.105555697272
 30
0.0
 11
1171.909596204339
 21
1895.44870144778
 31
0.0
  0
LINE
  5
1C1
330
1F
100
AcDbEntity
  8
LAY-1
  6
CONTINUOUS
 62
     7
100
AcDbLine
 10
1171.909596204339
 20
1895.44870144778
 30
0.0
 11
1142.211111394504
 21
1925.147186257615
 31
0.0
  0
LINE
  5
1C2
330
1F
100
AcDbEntity
  8
LAY-1
  6
CONTINUOUS
 62
     7
100
AcDbLine
 10
1142.211111394504
 20
1925.147186257615
 30
0.0
 11
1137.968470707384
 21
1920.904545570495
 31
0.0
  0
LINE
  5
1C3
330
1F
100
AcDbEntity
  8
LAY-1
  6
CONTINUOUS
 62
     7
100
AcDbLine
 10
1137.968470707384
 20
1920.904545570495
 30
0.0
 11
1171.909596204338
 21
1886.963420073542
 31
0.0
  0
LINE
  5
1C4
330
1F
100
AcDbEntity
  8
LAY-1
  6
CONTINUOUS
 62
     7
100
AcDbLine
 10
1171.909596204338
 20
1886.963420073542
 30
0.0
 11
1186.051731828068
 21
1901.105555697273
 31
0.0
  0
LINE
  5
1C5
330
1F
100
AcDbEntity
  8
LAY-1
  6
CONTINUOUS
 62
     7
100
AcDbLine
 10
1186.051731828068
 20
1901.105555697273
 30
0.0
 11
1152.110606331115
 21
1935.046681194226
 31
0.0
  0
LINE
  5
1C6
330
1F
100
AcDbEntity
  8
LAY-1
  6
CONTINUOUS
 62
     7
100
AcDbLine
 10
1146.453752081616
 20
1940.703535443695
 30
0.0
 11
1142.211111394497
 21
1944.946176130814
 31
0.0
  0
LINE
  5
1C7
330
1F
100
AcDbEntity
  8
LAY-1
  6
CONTINUOUS
 62
     7
100
AcDbLine
 10
1142.211111394497
 20
1944.946176130814
 30
0.0
 11
1112.512626584662
 21
1915.247691320979
 31
0.0
  0
LINE
  5
1C8
330
1F
100
AcDbEntity
  8
LAY-1
  6
CONTINUOUS
 62
     7
100
AcDbLine
 10
1112.512626584662
 20
1915.247691320979
 30
0.0
 11
1106.85577233517
 21
1920.904545570471
 31
0.0
  0
LINE
  5
1C9
330
1F
100
AcDbEntity
  8
LAY-1
  6
CONTINUOUS
 62
     7
100
AcDbLine
 10
1106.85577233517
 20
1920.904545570471
 30
0.0
 11
1136.554257145004
 21
1950.603030380306
 31
0.0
  0
LINE
  5
1CA
330
1F
100
AcDbEntity
  8
LAY-1
  6
CONTINUOUS
 62
     7
100
AcDbLine
 10
1136.554257145004
 20
1950.603030380306
 30
0.0
 11
1132.311616457885
 21
1954.845671067426
 31
0.0
  0
LINE
  5
1CB
330
1F
100
AcDbEntity
  8
LAY-1
  6
CONTINUOUS
 62
     7
100
AcDbLine
 10
1132.311616457885
 20
1954.845671067426
 30
0.0
 11
1098.370490960931
 21
1920.904545570472
 31
0.0
  0
LINE
  5
1CC
330
1F
100
AcDbEntity
  8
LAY-1
  6
CONTINUOUS
 62
     7
100
AcDbLine
 10
1098.370490960931
 20
1920.904545570472
 30
0.0
 11
1112.512626584663
 21
1906.762409946742
 31
0.0
  0
LINE
  5
1CD
330
1F
100
AcDbEntity
  8
LAY-1
  6
CONTINUOUS
 62
     7
100
AcDbLine
 10
1112.512626584663
 20
1906.762409946742
 30
0.0
 11
1146.453752081616
 21
1940.703535443695
 31
0.0
  0
LINE
  5
1CE
330
1F
100
AcDbEntity
  8
LAY-1
  6
CONTINUOUS
 62
     7
100
AcDbLine
 10
1146.453752081616
 20
1980.301515190095
 30
0.0
 11
1142.211111394497
 21
1984.544155877214
 31
0.0
  0
LINE
  5
1CF
330
1F
100
AcDbEntity
  8
LAY-1
  6
CONTINUOUS
 62
     7
100
AcDbLine
 10
1142.211111394497
 20
1984.544155877214
 30
0.0
 11
1112.512626584662
 21
1954.845671067379
 31
0.0
  0
LINE
  5
1D0
330
1F
100
AcDbEntity
  8
LAY-1
  6
CONTINUOUS
 62
     7
100
AcDbLine
 10
1112.512626584662
 20
1954.845671067379
 30
0.0
 11
1106.85577233517
 21
1960.502525316871
 31
0.0
  0
LINE
  5
1D1
330
1F
100
AcDbEntity
  8
LAY-1
  6
CONTINUOUS
 62
     7
100
AcDbLine
 10
1106.85577233517
 20
1960.502525316871
 30
0.0
 11
1136.554257145004
 21
1990.201010126706
 31
0.0
  0
LINE
  5
1D2
330
1F
100
AcDbEntity
  8
LAY-1
  6
CONTINUOUS
 62
     7
100
AcDbLine
 10
1136.554257145004
 20
1990.201010126706
 30
0.0
 11
1132.311616457885
 21
1994.443650813826
 31
0.0
  0
LINE
  5
1D3
330
1F
100
AcDbEntity
  8
LAY-1
  6
CONTINUOUS
 62
     7
100
AcDbLine
 10
1132.311616457885
 20
1994.443650813826
 30
0.0
 11
1098.370490960931
 21
1960.502525316872
 31
0.0
  0
LINE
  5
1D4
330
1F
100
AcDbEntity
  8
LAY-1
  6
CONTINUOUS
 62
     7
100
AcDbLine
 10
1098.370490960931
 20
1960.502525316872
 30
0.0
 11
1112.512626584663
 21
1946.360389693142
 31
0.0
  0
LINE
  5
1D5
330
1F
100
AcDbEntity
  8
LAY-1
  6
CONTINUOUS
 62
     7
100
AcDbLine
 10
1112.512626584663
 20
1946.360389693142
 30
0.0
 11
1146.453752081616
 21
1980.301515190095
 31
0.0
  0
LINE
  5
1D6
330
1F
100
AcDbEntity
  8
LAY-1
  6
CONTINUOUS
 62
     7
100
AcDbLine
 10
1146.453752081616
 20
2019.899494936495
 30
0.0
 11
1142.211111394497
 21
2024.142135623613
 31
0.0
  0
LINE
  5
1D7
330
1F
100
AcDbEntity
  8
LAY-1
  6
CONTINUOUS
 62
     7
100
AcDbLine
 10
1142.211111394497
 20
2024.142135623613
 30
0.0
 11
1112.512626584662
 21
1994.443650813779
 31
0.0
  0
LINE
  5
1D8
330
1F
100
AcDbEntity
  8
LAY-1
  6
CONTINUOUS
 62
     7
100
AcDbLine
 10
1112.512626584662
 20
1994.443650813779
 30
0.0
 11
1106.85577233517
 21
2000.100505063271
 31
0.0
  0
LINE
  5
1D9
330
1F
100
AcDbEntity
  8
LAY-1
  6
CONTINUOUS
 62
     7
100
AcDbLine
 10
1106.85577233517
 20
2000.100505063271
 30
0.0
 11
1136.554257145004
 21
2029.798989873106
 31
0.0
  0
LINE
  5
1DA
330
1F
100
AcDbEntity
  8
LAY-1
  6
CONTINUOUS
 62
     7
100
AcDbLine
 10
1136.554257145004
 20
2029.798989873106
 30
0.0
 11
1132.311616457885
 21
2034.041630560226
 31
0.0
  0
LINE
  5
1DB
330
1F
100
AcDbEntity
  8
LAY-1
  6
CONTINUOUS
 62
     7
100
AcDbLine
 10
1132.311616457885
 20
2034.041630560226
 30
0.0
 11
1098.370490960931
 21
2000.100505063272
 31
0.0
  0
LINE
  5
1DC
330
1F
100
AcDbEntity
  8
LAY-1
  6
CONTINUOUS
 62
     7
100
AcDbLine
 10
1098.370490960931
 20
2000.100505063272
 30
0.0
 11
1112.512626584663
 21
1985.958369439542
 31
0.0
  0
LINE
  5
1DD
330
1F
100
AcDbEntity
  8
LAY-1
  6
CONTINUOUS
 62
     7
100
AcDbLine
 10
1112.512626584663
 20
1985.958369439542
 30
0.0
 11
1146.453752081616
 21
2019.899494936495
 31
0.0
  0
LINE
  5
1DE
330
1F
100
AcDbEntity
  8
LAY-1
  6
CONTINUOUS
 62
     7
100
AcDbLine
 10
1146.453752081616
 20
2059.497474682995
 30
0.0
 11
1142.211111394497
 21
2063.740115370114
 31
0.0
  0
LINE
  5
1DF
330
1F
100
AcDbEntity
  8
LAY-1
  6
CONTINUOUS
 62
     7
100
AcDbLine
 10
1142.211111394497
 20
2063.740115370114
 30
0.0
 11
1112.512626584662
 21
2034.041630560279
 31
0.0
  0
LINE
  5
1E0
330
1F
100
AcDbEntity
  8
LAY-1
  6
CONTINUOUS
 62
     7
100
AcDbLine
 10
1112.512626584662
 20
2034.041630560279
 30
0.0
 11
1106.85577233517
 21
2039.698484809771
 31
0.0
  0
LINE
  5
1E1
330
1F
100
AcDbEntity
  8
LAY-1
  6
CONTINUOUS
 62
     7
100
AcDbLine
 10
1106.85577233517
 20
2039.698484809771
 30
0.0
 11
1136.554257145004
 21
2069.396969619606
 31
0.0
  0
LINE
  5
1E2
330
1F
100
AcDbEntity
  8
LAY-1
  6
CONTINUOUS
 62
     7
100
AcDbLine
 10
1136.554257145004
 20
2069.396969619606
 30
0.0
 11
1132.311616457885
 21
2073.639610306725
 31
0.0
  0
LINE
  5
1E3
330
1F
100
AcDbEntity
  8
LAY-1
  6
CONTINUOUS
 62
     7
100
AcDbLine
 10
1132.311616457885
 20
2073.639610306725
 30
0.0
 11
1098.370490960931
 21
2039.698484809773
 31
0.0
  0
LINE
  5
1E4
330
1F
100
AcDbEntity
  8
LAY-1
  6
CONTINUOUS
 62
     7
100
AcDbLine
 10
1098.370490960931
 20
2039.698484809773
 30
0.0
 11
1112.512626584663
 21
2025.556349186042
 31
0.0
  0
LINE
  5
1E5
330
1F
100
AcDbEntity
  8
LAY-1
  6
CONTINUOUS
 62
     7
100
AcDbLine
 10
1112.512626584663
 20
2025.556349186042
 30
0.0
 11
1146.453752081616
 21
2059.497474682995
 31
0.0
  0
LINE
  5
1E6
330
1F
100
AcDbEntity
  8
LAY-1
  6
CONTINUOUS
 62
     7
100
AcDbLine
 10
1146.453752081616
 20
2099.095454429395
 30
0.0
 11
1142.211111394497
 21
2103.338095116514
 31
0.0
  0
LINE
  5
1E7
330
1F
100
AcDbEntity
  8
LAY-1
  6
CONTINUOUS
 62
     7
100
AcDbLine
 10
1142.211111394497
 20
2103.338095116514
 30
0.0
 11
1112.512626584662
 21
2073.639610306679
 31
0.0
  0
LINE
  5
1E8
330
1F
100
AcDbEntity
  8
LAY-1
  6
CONTINUOUS
 62
     7
100
AcDbLine
 10
1112.512626584662
 20
2073.639610306679
 30
0.0
 11
1106.85577233517
 21
2079.296464556171
 31
0.0
  0
LINE
  5
1E9
330
1F
100
AcDbEntity
  8
LAY-1
  6
CONTINUOUS
 62
     7
100
AcDbLine
 10
1106.85577233517
 20
2079.296464556171
 30
0.0
 11
1136.554257145004
 21
2108.994949366006
 31
0.0
  0
LINE
  5
1EA
330
1F
100
AcDbEntity
  8
LAY-1
  6
CONTINUOUS
 62
     7
100
AcDbLine
 10
1136.554257145004
 20
2108.994949366006
 30
0.0
 11
1132.311616457885
 21
2113.237590053126
 31
0.0
  0
LINE
  5
1EB
330
1F
100
AcDbEntity
  8
LAY-1
  6
CONTINUOUS
 62
     7
100
AcDbLine
 10
1132.311616457885
 20
2113.237590053126
 30
0.0
 11
1098.370490960931
 21
2079.296464556172
 31
0.0
  0
LINE
  5
1EC
330
1F
100
AcDbEntity
  8
LAY-1
  6
CONTINUOUS
 62
     7
100
AcDbLine
 10
1098.370490960931
 20
2079.296464556172
 30
0.0
 11
1112.512626584663
 21
2065.154328932442
 31
0.0
  0
LINE
  5
1ED
330
1F
100
AcDbEntity
  8
LAY-1
  6
CONTINUOUS
 62
     7
100
AcDbLine
 10
1112.512626584663
 20
2065.154328932442
 30
0.0
 11
1146.453752081616
 21
2099.095454429395
 31
0.0
  0
LINE
  5
1EE
330
1F
100
AcDbEntity
  8
LAY-1
  6
CONTINUOUS
 62
     7
100
AcDbLine
 10
1092.713636711464
 20
1966.159379566424
 30
0.0
 11
1096.956277398584
 21
1970.402020253543
 31
0.0
  0
LINE
  5
1EF
330
1F
100
AcDbEntity
  8
LAY-1
  6
CONTINUOUS
 62
     7
100
AcDbLine
 10
1096.956277398584
 20
1970.402020253543
 30
0.0
 11
1067.257792588749
 21
2000.100505063378
 31
0.0
  0
LINE
  5
1F0
330
1F
100
AcDbEntity
  8
LAY-1
  6
CONTINUOUS
 62
     7
100
AcDbLine
 10
1067.257792588749
 20
2000.100505063378
 30
0.0
 11
1072.914646838241
 21
2005.75735931287
 31
0.0
  0
LINE
  5
1F1
330
1F
100
AcDbEntity
  8
LAY-1
  6
CONTINUOUS
 62
     7
100
AcDbLine
 10
1072.914646838241
 20
2005.75735931287
 30
0.0
 11
1102.613131648076
 21
1976.058874503035
 31
0.0
  0
LINE
  5
1F2
330
1F
100
AcDbEntity
  8
LAY-1
  6
CONTINUOUS
 62
     7
100
AcDbLine
 10
1102.613131648076
 20
1976.058874503035
 30
0.0
 11
1106.855772335195
 21
1980.301515190155
 31
0.0
  0
LINE
  5
1F3
330
1F
100
AcDbEntity
  8
LAY-1
  6
CONTINUOUS
 62
     7
100
AcDbLine
 10
1106.855772335195
 20
1980.301515190155
 30
0.0
 11
1072.914646838242
 21
2014.242640687108
 31
0.0
  0
LINE
  5
1F4
330
1F
100
AcDbEntity
  8
LAY-1
  6
CONTINUOUS
 62
     7
100
AcDbLine
 10
1072.914646838242
 20
2014.242640687108
 30
0.0
 11
1058.772511214512
 21
2000.100505063377
 31
0.0
  0
LINE
  5
1F5
330
1F
100
AcDbEntity
  8
LAY-1
  6
CONTINUOUS
 62
     7
100
AcDbLine
 10
1058.772511214512
 20
2000.100505063377
 30
0.0
 11
1092.713636711464
 21
1966.159379566424
 31
0.0
  0
LINE
  5
1F6
330
1F
100
AcDbEntity
  8
LAY-1
  6
CONTINUOUS
 62
     7
100
AcDbLine
 10
1092.713636711464
 20
1926.561399819974
 30
0.0
 11
1096.956277398584
 21
1930.804040507093
 31
0.0
  0
LINE
  5
1F7
330
1F
100
AcDbEntity
  8
LAY-1
  6
CONTINUOUS
 62
     7
100
AcDbLine
 10
1096.956277398584
 20
1930.804040507093
 30
0.0
 11
1067.257792588749
 21
1960.502525316928
 31
0.0
  0
LINE
  5
1F8
330
1F
100
AcDbEntity
  8
LAY-1
  6
CONTINUOUS
 62
     7
100
AcDbLine
 10
1067.257792588749
 20
1960.502525316928
 30
0.0
 11
1072.914646838241
 21
1966.15937956642
 31
0.0
  0
LINE
  5
1F9
330
1F
100
AcDbEntity
  8
LAY-1
  6
CONTINUOUS
 62
     7
100
AcDbLine
 10
1072.914646838241
 20
1966.15937956642
 30
0.0
 11
1102.613131648076
 21
1936.460894756585
 31
0.0
  0
LINE
  5
1FA
330
1F
100
AcDbEntity
  8
LAY-1
  6
CONTINUOUS
 62
     7
100
AcDbLine
 10
1102.613131648076
 20
1936.460894756585
 30
0.0
 11
1106.855772335195
 21
1940.703535443705
 31
0.0
  0
LINE
  5
1FB
330
1F
100
AcDbEntity
  8
LAY-1
  6
CONTINUOUS
 62
     7
100
AcDbLine
 10
1106.855772335195
 20
1940.703535443705
 30
0.0
 11
1072.914646838242
 21
1974.644660940658
 31
0.0
  0
LINE
  5
1FC
330
1F
100
AcDbEntity
  8
LAY-1
  6
CONTINUOUS
 62
     7
100
AcDbLine
 10
1072.914646838242
 20
1974.644660940658
 30
0.0
 11
1058.772511214512
 21
1960.502525316927
 31
0.0
  0
LINE
  5
1FD
330
1F
100
AcDbEntity
  8
LAY-1
  6
CONTINUOUS
 62
     7
100
AcDbLine
 10
1058.772511214512
 20
1960.502525316927
 30
0.0
 11
1092.713636711464
 21
1926.561399819974
 31
0.0
  0
LINE
  5
1FE
330
1F
100
AcDbEntity
  8
LAY-1
  6
CONTINUOUS
 62
     7
100
AcDbLine
 10
1092.713636711464
 20
2005.757359312874
 30
0.0
 11
1096.956277398584
 21
2009.999999999993
 31
0.0
  0
LINE
  5
1FF
330
1F
100
AcDbEntity
  8
LAY-1
  6
CONTINUOUS
 62
     7
100
AcDbLine
 10
1096.956277398584
 20
2009.999999999993
 30
0.0
 11
1067.257792588749
 21
2039.698484809828
 31
0.0
  0
LINE
  5
200
330
1F
100
AcDbEntity
  8
LAY-1
  6
CONTINUOUS
 62
     7
100
AcDbLine
 10
1067.257792588749
 20
2039.698484809828
 30
0.0
 11
1072.914646838241
 21
2045.35533905932
 31
0.0
  0
LINE
  5
201
330
1F
100
AcDbEntity
  8
LAY-1
  6
CONTINUOUS
 62
     7
100
AcDbLine
 10
1072.914646838241
 20
2045.35533905932
 30
0.0
 11
1102.613131648076
 21
2015.656854249485
 31
0.0
  0
LINE
  5
202
330
1F
100
AcDbEntity
  8
LAY-1
  6
CONTINUOUS
 62
     7
100
AcDbLine
 10
1102.613131648076
 20
2015.656854249485
 30
0.0
 11
1106.855772335195
 21
2019.899494936605
 31
0.0
  0
LINE
  5
203
330
1F
100
AcDbEntity
  8
LAY-1
  6
CONTINUOUS
 62
     7
100
AcDbLine
 10
1106.855772335195
 20
2019.899494936605
 30
0.0
 11
1072.914646838242
 21
2053.840620433558
 31
0.0
  0
LINE
  5
204
330
1F
100
AcDbEntity
  8
LAY-1
  6
CONTINUOUS
 62
     7
100
AcDbLine
 10
1072.914646838242
 20
2053.840620433558
 30
0.0
 11
1058.772511214512
 21
2039.698484809827
 31
0.0
  0
LINE
  5
205
330
1F
100
AcDbEntity
  8
LAY-1
  6
CONTINUOUS
 62
     7
100
AcDbLine
 10
1058.772511214512
 20
2039.698484809827
 30
0.0
 11
1092.713636711464
 21
2005.757359312874
 31
0.0
  0
LINE
  5
206
330
1F
100
AcDbEntity
  8
LAY-1
  6
CONTINUOUS
 62
     7
100
AcDbLine
 10
1092.713636711464
 20
2045.355339059324
 30
0.0
 11
1096.956277398584
 21
2049.597979746442
 31
0.0
  0
LINE
  5
207
330
1F
100
AcDbEntity
  8
LAY-1
  6
CONTINUOUS
 62
     7
100
AcDbLine
 10
1096.956277398584
 20
2049.597979746442
 30
0.0
 11
1067.257792588749
 21
2079.296464556278
 31
0.0
  0
LINE
  5
208
330
1F
100
AcDbEntity
  8
LAY-1
  6
CONTINUOUS
 62
     7
100
AcDbLine
 10
1067.257792588749
 20
2079.296464556278
 30
0.0
 11
1072.914646838241
 21
2084.95331880577
 31
0.0
  0
LINE
  5
209
330
1F
100
AcDbEntity
  8
LAY-1
  6
CONTINUOUS
 62
     7
100
AcDbLine
 10
1072.914646838241
 20
2084.95331880577
 30
0.0
 11
1102.613131648076
 21
2055.254833995935
 31
0.0
  0
LINE
  5
20A
330
1F
100
AcDbEntity
  8
LAY-1
  6
CONTINUOUS
 62
     7
100
AcDbLine
 10
1102.613131648076
 20
2055.254833995935
 30
0.0
 11
1106.855772335195
 21
2059.497474683055
 31
0.0
  0
LINE
  5
20B
330
1F
100
AcDbEntity
  8
LAY-1
  6
CONTINUOUS
 62
     7
100
AcDbLine
 10
1106.855772335195
 20
2059.497474683055
 30
0.0
 11
1072.914646838242
 21
2093.438600180008
 31
0.0
  0
LINE
  5
20C
330
1F
100
AcDbEntity
  8
LAY-1
  6
CONTINUOUS
 62
     7
100
AcDbLine
 10
1072.914646838242
 20
2093.438600180008
 30
0.0
 11
1058.772511214512
 21
2079.296464556277
 31
0.0
  0
LINE
  5
20D
330
1F
100
AcDbEntity
  8
LAY-1
  6
CONTINUOUS
 62
     7
100
AcDbLine
 10
1058.772511214512
 20
2079.296464556277
 30
0.0
 11
1092.713636711464
 21
2045.355339059324
 31
0.0
  0
LINE
  5
20E
330
1F
100
AcDbEntity
  8
LAY-1
  6
CONTINUOUS
 62
     7
100
AcDbLine
 10
1092.713636711464
 20
1886.963420073574
 30
0.0
 11
1096.956277398584
 21
1891.206060760693
 31
0.0
  0
LINE
  5
20F
330
1F
100
AcDbEntity
  8
LAY-1
  6
CONTINUOUS
 62
     7
100
AcDbLine
 10
1096.956277398584
 20
1891.206060760693
 30
0.0
 11
1067.257792588749
 21
1920.904545570528
 31
0.0
  0
LINE
  5
210
330
1F
100
AcDbEntity
  8
LAY-1
  6
CONTINUOUS
 62
     7
100
AcDbLine
 10
1067.257792588749
 20
1920.904545570528
 30
0.0
 11
1072.914646838241
 21
1926.56139982002
 31
0.0
  0
LINE
  5
211
330
1F
100
AcDbEntity
  8
LAY-1
  6
CONTINUOUS
 62
     7
100
AcDbLine
 10
1072.914646838241
 20
1926.56139982002
 30
0.0
 11
1102.613131648076
 21
1896.862915010185
 31
0.0
  0
LINE
  5
212
330
1F
100
AcDbEntity
  8
LAY-1
  6
CONTINUOUS
 62
     7
100
AcDbLine
 10
1102.613131648076
 20
1896.862915010185
 30
0.0
 11
1106.855772335195
 21
1901.105555697305
 31
0.0
  0
LINE
  5
213
330
1F
100
AcDbEntity
  8
LAY-1
  6
CONTINUOUS
 62
     7
100
AcDbLine
 10
1106.855772335195
 20
1901.105555697305
 30
0.0
 11
1072.914646838242
 21
1935.046681194258
 31
0.0
  0
LINE
  5
214
330
1F
100
AcDbEntity
  8
LAY-1
  6
CONTINUOUS
 62
     7
100
AcDbLine
 10
1072.914646838242
 20
1935.046681194258
 30
0.0
 11
1058.772511214512
 21
1920.904545570527
 31
0.0
  0
LINE
  5
215
330
1F
100
AcDbEntity
  8
LAY-1
  6
CONTINUOUS
 62
     7
100
AcDbLine
 10
1058.772511214512
 20
1920.904545570527
 30
0.0
 11
1092.713636711464
 21
1886.963420073574
 31
0.0
  0
LINE
  5
216
330
1F
100
AcDbEntity
  8
LAY-1
  6
CONTINUOUS
 62
     7
100
AcDbLine
 10
1806.01269271988
 20
942.9999999999842
 30
0.0
 11
1807.499999999819
 21
926.0
 31
0.0
  0
LINE
  5
217
330
1F
100
AcDbEntity
  8
LAY-1
  6
CONTINUOUS
 62
     7
100
AcDbLine
 10
1789.5
 20
943.0000000000001
 30
0.0
 11
1789.5
 21
928.0000000000001
 31
0.0
  0
LINE
  5
218
330
1F
100
AcDbEntity
  8
LAY-1
  6
CONTINUOUS
 62
     7
100
AcDbLine
 10
1736.5
 20
913.0000000000001
 30
0.0
 11
1735.0
 21
861.0
 31
0.0
  0
LINE
  5
219
330
1F
100
AcDbEntity
  8
LAY-1
  6
CONTINUOUS
 62
     7
100
AcDbLine
 10
1754.900486931427
 20
872.8953015098941
 30
0.0
 11
1753.499999999915
 21
913.0000000000001
 31
0.0
  0
ARC
  5
21A
330
1F
100
AcDbEntity
  8
LAY-1
  6
CONTINUOUS
 62
     7
100
AcDbCircle
 10
1757.898659412484
 20
873.0000000000018
 30
0.0
 40
3.000000000000003
100
AcDbArc
 50
182.0000000000037
 51
270.0000000000002
  0
LINE
  5
21B
330
1F
100
AcDbEntity
  8
LAY-1
  6
CONTINUOUS
 62
     7
100
AcDbLine
 10
1776.077529044999
 20
870.0000000000018
 30
0.0
 11
1757.898659412484
 21
870.0000000000018
 31
0.0
  0
ARC
  5
21C
330
1F
100
AcDbEntity
  8
LAY-1
  6
CONTINUOUS
 62
     7
100
AcDbCircle
 10
1776.077529044999
 20
873.0000000000018
 30
0.0
 40
3.000000000000003
100
AcDbArc
 50
270.0000000000002
 51
357.9999999999964
  0
LINE
  5
21D
330
1F
100
AcDbEntity
  8
LAY-1
  6
CONTINUOUS
 62
     7
100
AcDbLine
 10
1793.0
 20
907.5
 30
0.0
 11
1781.0
 21
908.5
 31
0.0
  0
LINE
  5
21E
330
1F
100
AcDbEntity
  8
LAY-1
  6
CONTINUOUS
 62
     7
100
AcDbLine
 10
1793.0
 20
892.0
 30
0.0
 11
1781.0
 21
891.0
 31
0.0
  0
LINE
  5
21F
330
1F
100
AcDbEntity
  8
LAY-1
  6
CONTINUOUS
 62
     7
100
AcDbLine
 10
1792.999999999996
 20
907.5000000000006
 30
0.0
 11
1792.999999999996
 21
891.9999999999995
 31
0.0
  0
LINE
  5
220
330
1F
100
AcDbEntity
  8
LAY-1
  6
CONTINUOUS
 62
     7
100
AcDbLine
 10
1779.075701526057
 20
872.8953015098941
 30
0.0
 11
1779.603169220273
 21
888.0000000000092
 31
0.0
  0
LINE
  5
221
330
1F
100
AcDbEntity
  8
LAY-1
  6
CONTINUOUS
 62
     7
100
AcDbLine
 10
1781.0
 20
888.0000000000092
 30
0.0
 11
1779.603169220273
 21
888.0000000000092
 31
0.0
  0
LINE
  5
222
330
1F
100
AcDbEntity
  8
LAY-1
  6
CONTINUOUS
 62
     7
100
AcDbLine
 10
913.9873072801203
 20
942.9999999999845
 30
0.0
 11
912.500000000181
 21
926.0
 31
0.0
  0
LINE
  5
223
330
1F
100
AcDbEntity
  8
LAY-1
  6
CONTINUOUS
 62
     7
100
AcDbLine
 10
930.5000000000001
 20
943.0000000000001
 30
0.0
 11
930.5000000000001
 21
928.0000000000001
 31
0.0
  0
LINE
  5
224
330
1F
100
AcDbEntity
  8
LAY-1
  6
CONTINUOUS
 62
     7
100
AcDbLine
 10
983.5
 20
913.0000000000001
 30
0.0
 11
985.0
 21
861.0
 31
0.0
  0
LINE
  5
225
330
1F
100
AcDbEntity
  8
LAY-1
  6
CONTINUOUS
 62
     7
100
AcDbLine
 10
965.0995130685733
 20
872.8953015098946
 30
0.0
 11
966.5000000000846
 21
913.0000000000001
 31
0.0
  0
ARC
  5
226
330
1F
100
AcDbEntity
  8
LAY-1
  6
CONTINUOUS
 62
     7
100
AcDbCircle
 10
962.1013405875165
 20
873.0000000000024
 30
0.0
 40
3.000000000000003
100
AcDbArc
 50
270.0000000000002
 51
357.9999999999964
  0
LINE
  5
227
330
1F
100
AcDbEntity
  8
LAY-1
  6
CONTINUOUS
 62
     7
100
AcDbLine
 10
943.9224709550008
 20
870.0000000000023
 30
0.0
 11
962.1013405875165
 21
870.0000000000023
 31
0.0
  0
ARC
  5
228
330
1F
100
AcDbEntity
  8
LAY-1
  6
CONTINUOUS
 62
     7
100
AcDbCircle
 10
943.9224709550008
 20
873.0000000000024
 30
0.0
 40
3.000000000000003
100
AcDbArc
 50
182.0000000000037
 51
270.0000000000002
  0
LINE
  5
229
330
1F
100
AcDbEntity
  8
LAY-1
  6
CONTINUOUS
 62
     7
100
AcDbLine
 10
940.924298473943
 20
872.8953015098946
 30
0.0
 11
940.3968307797268
 21
888.0000000000095
 31
0.0
  0
LINE
  5
22A
330
1F
100
AcDbEntity
  8
LAY-1
  6
CONTINUOUS
 62
     7
100
AcDbLine
 10
939.0
 20
928.0000000000001
 30
0.0
 11
939.0
 21
888.0000000000095
 31
0.0
  0
LINE
  5
22B
330
1F
100
AcDbEntity
  8
LAY-1
  6
CONTINUOUS
 62
     7
100
AcDbLine
 10
939.0
 20
888.0000000000095
 30
0.0
 11
940.3968307797268
 21
888.0000000000095
 31
0.0
  0
LINE
  5
22C
330
1F
100
AcDbEntity
  8
LAY-1
  6
CONTINUOUS
 62
     7
100
AcDbLine
 10
927.0000000000036
 20
911.500000000122
 30
0.0
 11
912.5
 21
926.0000000001214
 31
0.0
  0
LINE
  5
22D
330
1F
100
AcDbEntity
  8
LAY-1
  6
CONTINUOUS
 62
     7
100
AcDbLine
 10
916.0
 20
874.9999999999995
 30
0.0
 11
927.0000000000036
 21
874.9999999999995
 31
0.0
  0
LINE
  5
22E
330
1F
100
AcDbEntity
  8
LAY-1
  6
CONTINUOUS
 62
     7
100
AcDbLine
 10
916.0
 20
874.9999999999995
 30
0.0
 11
916.0
 21
860.9999999999997
 31
0.0
  0
LINE
  5
22F
330
1F
100
AcDbEntity
  8
LAY-1
  6
CONTINUOUS
 62
     7
100
AcDbLine
 10
927.0000000000036
 20
911.500000000122
 30
0.0
 11
927.0000000000036
 21
874.9999999999995
 31
0.0
  0
LINE
  5
230
330
1F
100
AcDbEntity
  8
LAY-1
  6
CONTINUOUS
 62
     7
100
AcDbLine
 10
1800.499999999983
 20
919.0000000001061
 30
0.0
 11
1807.5
 21
926.000000000121
 31
0.0
  0
LINE
  5
231
330
1F
100
AcDbEntity
  8
LAY-1
  6
CONTINUOUS
 62
     7
100
AcDbLine
 10
1800.499999999983
 20
919.0000000001191
 30
0.0
 11
1800.499999999983
 21
880.0
 31
0.0
  0
ARC
  5
232
330
1F
100
AcDbEntity
  8
LAY-1
  6
CONTINUOUS
 62
     7
100
AcDbCircle
 10
1805.499999999983
 20
880.0
 30
0.0
 40
5.0
100
AcDbArc
 50
180.0
 51
270.0000000000002
  0
LINE
  5
233
330
1F
100
AcDbEntity
  8
LAY-1
  6
CONTINUOUS
 62
     7
100
AcDbLine
 10
1805.499999999983
 20
875.0
 30
0.0
 11
1942.419397389694
 21
875.0
 31
0.0
  0
LINE
  5
234
330
1F
100
AcDbEntity
  8
LAY-1
  6
CONTINUOUS
 62
     7
100
AcDbLine
 10
1945.415285993959
 20
872.1570078687291
 30
0.0
 11
1945.999999999804
 21
861.0
 31
0.0
  0
ARC
  5
235
330
1F
100
AcDbEntity
  8
LAY-1
  6
CONTINUOUS
 62
     7
100
AcDbCircle
 10
1942.419397389694
 20
872.0
 30
0.0
 40
3.000000000000003
100
AcDbArc
 50
3.000000000005679
 51
90.00000000000001
  0
LINE
  5
236
330
1F
100
AcDbEntity
  8
LAY-1
  6
CONTINUOUS
 62
     7
100
AcDbLine
 10
916.0
 20
860.9999999999997
 30
0.0
 11
1945.999999999804
 21
861.0
 31
0.0
  0
LINE
  5
237
330
1F
100
AcDbEntity
  8
LAY-1
  6
CONTINUOUS
 62
     7
100
AcDbLine
 10
1359.999999999998
 20
951.5125442357694
 30
0.0
 11
1772.500000001881
 21
944.3123299528352
 31
0.0
  0
LINE
  5
238
330
1F
100
AcDbEntity
  8
LAY-1
  6
CONTINUOUS
 62
     7
100
AcDbLine
 10
1772.500000001882
 20
944.3123299528347
 30
0.0
 11
1787.5
 21
943.0000000001105
 31
0.0
  0
LINE
  5
239
330
1F
100
AcDbEntity
  8
LAY-1
  6
CONTINUOUS
 62
     7
100
AcDbLine
 10
1787.5
 20
943.0000000000009
 30
0.0
 11
1787.5
 21
927.9999999999995
 31
0.0
  0
LINE
  5
23A
330
1F
100
AcDbEntity
  8
LAY-1
  6
CONTINUOUS
 62
     7
100
AcDbLine
 10
1786.999999999995
 20
895.50000000011
 30
0.0
 11
1786.999999999995
 21
906.9999999999955
 31
0.0
  0
LINE
  5
23B
330
1F
100
AcDbEntity
  8
LAY-1
  6
CONTINUOUS
 62
     7
100
AcDbLine
 10
1786.999999999995
 20
906.9999999999955
 30
0.0
 11
1775.353846153844
 21
906.9999999999955
 31
0.0
  0
LINE
  5
23C
330
1F
100
AcDbEntity
  8
LAY-1
  6
CONTINUOUS
 62
     7
100
AcDbLine
 10
1787.5
 20
927.9999999999995
 30
0.0
 11
1776.0
 21
927.9999999999995
 31
0.0
  0
LINE
  5
23D
330
1F
100
AcDbEntity
  8
LAY-1
  6
CONTINUOUS
 62
     7
100
AcDbLine
 10
1763.0
 20
895.5000000001096
 30
0.0
 11
1760.184615384616
 21
925.99999999999
 31
0.0
  0
LINE
  5
23E
330
1F
100
AcDbEntity
  8
LAY-1
  6
CONTINUOUS
 62
     7
100
AcDbLine
 10
1688.0
 20
945.7872829393045
 30
0.0
 11
1688.0
 21
939.4505754065799
 31
0.0
  0
LINE
  5
23F
330
1F
100
AcDbEntity
  8
LAY-1
  6
CONTINUOUS
 62
     7
100
AcDbLine
 10
1612.0
 20
947.1138678738512
 30
0.0
 11
1612.0
 21
939.4505754065799
 31
0.0
  0
LINE
  5
240
330
1F
100
AcDbEntity
  8
LAY-1
  6
CONTINUOUS
 62
     7
100
AcDbLine
 10
1655.493925027173
 20
928.6921420577193
 30
0.0
 11
1656.0
 21
939.4505754065799
 31
0.0
  0
LINE
  5
241
330
1F
100
AcDbEntity
  8
LAY-1
  6
CONTINUOUS
 62
     7
100
AcDbLine
 10
1644.506074972827
 20
928.6921420577193
 30
0.0
 11
1644.0
 21
939.4505754065799
 31
0.0
  0
ARC
  5
242
330
1F
100
AcDbEntity
  8
LAY-1
  6
CONTINUOUS
 62
     7
100
AcDbCircle
 10
1650.0
 20
928.95057540658
 30
0.0
 40
5.5
100
AcDbArc
 50
182.6931989600604
 51
357.3068010399366
  0
LINE
  5
243
330
1F
100
AcDbEntity
  8
LAY-1
  6
CONTINUOUS
 62
     7
100
AcDbLine
 10
1617.5
 20
932.9505754065799
 30
0.0
 11
1617.5
 21
939.4505754065799
 31
0.0
  0
LINE
  5
244
330
1F
100
AcDbEntity
  8
LAY-1
  6
CONTINUOUS
 62
     7
100
AcDbLine
 10
1682.5
 20
932.9505754065799
 30
0.0
 11
1682.5
 21
939.4505754065799
 31
0.0
  0
ARC
  5
245
330
1F
100
AcDbEntity
  8
LAY-1
  6
CONTINUOUS
 62
     7
100
AcDbCircle
 10
1650.0
 20
932.9505754065799
 30
0.0
 40
32.5
100
AcDbArc
 50
180.0
 51
0.0
  0
LINE
  5
246
330
1F
100
AcDbEntity
  8
LAY-1
  6
CONTINUOUS
 62
     7
100
AcDbLine
 10
1688.0
 20
939.4505754065799
 30
0.0
 11
1682.5
 21
939.4505754065799
 31
0.0
  0
LINE
  5
247
330
1F
100
AcDbEntity
  8
LAY-1
  6
CONTINUOUS
 62
     7
100
AcDbLine
 10
1656.0
 20
939.4505754065799
 30
0.0
 11
1644.0
 21
939.4505754065799
 31
0.0
  0
LINE
  5
248
330
1F
100
AcDbEntity
  8
LAY-1
  6
CONTINUOUS
 62
     7
100
AcDbLine
 10
1617.5
 20
939.4505754065799
 30
0.0
 11
1612.0
 21
939.4505754065799
 31
0.0
  0
ARC
  5
249
330
1F
100
AcDbEntity
  8
LAY-1
  6
CONTINUOUS
 62
     7
100
AcDbCircle
 10
1601.674975637271
 20
918.2896743312149
 30
0.0
 40
10.0
100
AcDbArc
 50
16.87680793343209
 51
88.99999999999821
  0
LINE
  5
24A
330
1F
100
AcDbEntity
  8
LAY-1
  6
CONTINUOUS
 62
     7
100
AcDbLine
 10
1536.609894803393
 20
929.426912822179
 30
0.0
 11
1532.695526216992
 21
925.5125442357786
 31
0.0
  0
LINE
  5
24B
330
1F
100
AcDbEntity
  8
LAY-1
  6
CONTINUOUS
 62
     7
100
AcDbLine
 10
1760.184615384616
 20
925.99999999999
 30
0.0
 11
1732.937598897776
 21
925.99999999999
 31
0.0
  0
LINE
  5
24C
330
1F
100
AcDbEntity
  8
LAY-1
  6
CONTINUOUS
 62
     7
100
AcDbLine
 10
1601.849499701601
 20
928.2881512827794
 30
0.0
 11
1536.6098948034
 21
929.4269128221708
 31
0.0
  0
LINE
  5
24D
330
1F
100
AcDbEntity
  8
LAY-1
  6
CONTINUOUS
 62
     7
100
AcDbLine
 10
1732.937598897776
 20
925.99999999999
 30
0.0
 11
1697.958452059223
 21
926.6105632791914
 31
0.0
  0
ARC
  5
24E
330
1F
100
AcDbEntity
  8
LAY-1
  6
CONTINUOUS
 62
     7
100
AcDbCircle
 10
1650.0
 20
932.9505754065799
 30
0.0
 40
40.49999999999999
100
AcDbArc
 50
196.8768079334322
 51
341.1231920665647
  0
ARC
  5
24F
330
1F
100
AcDbEntity
  8
LAY-1
  6
CONTINUOUS
 62
     7
100
AcDbCircle
 10
1697.783927994849
 20
916.6120863276274
 30
0.0
 40
10.0
100
AcDbArc
 50
88.99999999999827
 51
161.1231920665643
  0
LINE
  5
250
330
1F
100
AcDbEntity
  8
LAY-1
  6
CONTINUOUS
 62
     7
100
AcDbLine
 10
947.4999999981183
 20
944.3123299528352
 30
0.0
 11
932.5
 21
943.0000000001105
 31
0.0
  0
LINE
  5
251
330
1F
100
AcDbEntity
  8
LAY-1
  6
CONTINUOUS
 62
     7
100
AcDbLine
 10
932.5
 20
943.0000000000014
 30
0.0
 11
932.5
 21
927.9999999999995
 31
0.0
  0
LINE
  5
252
330
1F
100
AcDbEntity
  8
LAY-1
  6
CONTINUOUS
 62
     7
100
AcDbLine
 10
944.0
 20
928.0000000000001
 30
0.0
 11
945.0
 21
895.50000000011
 31
0.0
  0
LINE
  5
253
330
1F
100
AcDbEntity
  8
LAY-1
  6
CONTINUOUS
 62
     7
100
AcDbLine
 10
932.5
 20
927.9999999999995
 30
0.0
 11
944.0
 21
927.9999999999995
 31
0.0
  0
LINE
  5
254
330
1F
100
AcDbEntity
  8
LAY-1
  6
CONTINUOUS
 62
     7
100
AcDbLine
 10
957.0
 20
895.50000000011
 30
0.0
 11
959.8153846153838
 21
925.99999999999
 31
0.0
  0
LINE
  5
255
330
1F
100
AcDbEntity
  8
LAY-1
  6
CONTINUOUS
 62
     7
100
AcDbLine
 10
1360.000000000002
 20
951.5125442357694
 30
0.0
 11
947.4999999981192
 21
944.3123299528352
 31
0.0
  0
LINE
  5
256
330
1F
100
AcDbEntity
  8
LAY-1
  6
CONTINUOUS
 62
     7
100
AcDbLine
 10
1789.5
 20
928.0000000000001
 30
0.0
 11
1776.0
 21
928.0000000000001
 31
0.0
  0
LINE
  5
257
330
1F
100
AcDbEntity
  8
LAY-1
  6
CONTINUOUS
 62
     7
100
AcDbLine
 10
944.0
 20
928.0000000000001
 30
0.0
 11
930.5000000000001
 21
928.0000000000001
 31
0.0
  0
LINE
  5
258
330
1F
100
AcDbEntity
  8
LAY-1
  6
CONTINUOUS
 62
     7
100
AcDbLine
 10
913.987307280122
 20
943.0000000000001
 30
0.0
 11
932.5
 21
943.0000000000001
 31
0.0
  0
LINE
  5
259
330
1F
100
AcDbEntity
  8
LAY-1
  6
CONTINUOUS
 62
     7
100
AcDbLine
 10
1787.5
 20
943.0000000000001
 30
0.0
 11
1806.012692719878
 21
943.0000000000001
 31
0.0
  0
LINE
  5
25A
330
1F
100
AcDbEntity
  8
LAY-1
  6
CONTINUOUS
 62
     7
100
AcDbLine
 10
1781.0
 20
928.0000000000001
 30
0.0
 11
1781.0
 21
906.9999999999955
 31
0.0
  0
LINE
  5
25B
330
1F
100
AcDbEntity
  8
LAY-1
  6
CONTINUOUS
 62
     7
100
AcDbLine
 10
1781.0
 20
895.50000000011
 30
0.0
 11
1781.0
 21
888.0000000000092
 31
0.0
  0
LINE
  5
25C
330
1F
100
AcDbEntity
  8
LAY-1
  6
CONTINUOUS
 62
     7
100
AcDbLine
 10
1776.0
 20
928.0000000000001
 30
0.0
 11
1775.353846153844
 21
906.9999999999955
 31
0.0
  0
LINE
  5
25D
330
1F
100
AcDbEntity
  8
LAY-1
  6
CONTINUOUS
 62
     7
100
AcDbLine
 10
1754.111113466019
 20
895.50000000011
 30
0.0
 11
1786.999999999995
 21
895.50000000011
 31
0.0
  0
LINE
  5
25E
330
1F
100
AcDbEntity
  8
LAY-1
  6
CONTINUOUS
 62
     7
100
AcDbLine
 10
945.0
 20
895.50000000011
 30
0.0
 11
965.8888865339813
 21
895.50000000011
 31
0.0
  0
LINE
  5
25F
330
1F
100
AcDbEntity
  8
LAY-1
  6
CONTINUOUS
 62
     7
100
AcDbLine
 10
1895.834591186228
 20
875.0000000000119
 30
0.0
 11
1807.500000000005
 21
926.0000000001273
 31
0.0
  0
TEXT
  5
260
330
1F
100
AcDbEntity
  8
LAY-1
  6
CONTINUOUS
 62
     7
100
AcDbText
 10
996.5625673774437
 20
1830.715857778357
 30
0.0
 40
17.9291348
  1
Ｐ
 50
297.5465835808001
 41
1.2
  7
EXCADSTD
100
AcDbText
  0
TEXT
  5
261
330
1F
100
AcDbEntity
  8
LAY-1
  6
CONTINUOUS
 62
     7
100
AcDbText
 10
1007.58468234771
 20
1812.096212896071
 30
0.0
 40
17.9291348
  1
Ａ
 50
300.6397507426
 41
1.2
  7
EXCADSTD
100
AcDbText
  0
TEXT
  5
262
330
1F
100
AcDbEntity
  8
LAY-1
  6
CONTINUOUS
 62
     7
100
AcDbText
 10
1017.139046433037
 20
1792.680685488473
 30
0.0
 40
17.9291348
  1
Ｔ
 50
303.7329179040999
 41
1.2
  7
EXCADSTD
100
AcDbText
  0
TEXT
  5
263
330
1F
100
AcDbEntity
  8
LAY-1
  6
CONTINUOUS
 62
     7
100
AcDbText
 10
1029.418868272543
 20
1774.969586607277
 30
0.0
 40
17.9291348
  1
Ｅ
 50
306.8260850659001
 41
1.2
  7
EXCADSTD
100
AcDbText
  0
TEXT
  5
264
330
1F
100
AcDbEntity
  8
LAY-1
  6
CONTINUOUS
 62
     7
100
AcDbText
 10
1042.768794304637
 20
1757.736463801485
 30
0.0
 40
17.9291348
  1
Ｎ
 50
309.9192522275001
 41
1.2
  7
EXCADSTD
100
AcDbText
  0
TEXT
  5
265
330
1F
100
AcDbEntity
  8
LAY-1
  6
CONTINUOUS
 62
     7
100
AcDbText
 10
1056.570854758153
 20
1739.921131135044
 30
0.0
 40
17.9291348
  1
Ｔ
 50
313.0124193893001
 41
1.2
  7
EXCADSTD
100
AcDbText
  0
TEXT
  5
266
330
1F
100
AcDbEntity
  8
LAY-1
  6
CONTINUOUS
 62
     7
100
AcDbText
 10
1087.476543741819
 20
1713.705531722248
 30
0.0
 40
12.60496135147324
  1
ＳＦ
 50
319.1987427126001
 41
1.043320973730961
  7
EXCADSTD
100
AcDbText
  0
LINE
  5
267
330
1F
100
AcDbEntity
  8
LAY-1
  6
CONTINUOUS
 62
     7
100
AcDbLine
 10
1084.766529877879
 20
1724.491231068473
 30
0.0
 11
1111.710000000024
 21
1720.560000000024
 31
0.0
  0
LINE
  5
268
330
1F
100
AcDbEntity
  8
LAY-1
  6
CONTINUOUS
 62
     7
100
AcDbLine
 10
1092.590427056133
 20
1698.410744246351
 30
0.0
 11
1119.533897178269
 21
1694.479513177869
 31
0.0
  0
LINE
  5
269
330
1F
100
AcDbEntity
  8
LAY-1
  6
CONTINUOUS
 62
     7
100
AcDbLine
 10
1092.59042705616
 20
1698.410744246328
 30
0.0
 11
1084.766529877881
 21
1724.491231068472
 31
0.0
  0
LINE
  5
26A
330
1F
100
AcDbEntity
  8
LAY-1
  6
CONTINUOUS
 62
     7
100
AcDbLine
 10
1119.533897178271
 20
1694.479513177867
 30
0.0
 11
1111.710000000024
 21
1720.560000000024
 31
0.0
  0
TEXT
  5
26B
330
1F
100
AcDbEntity
  8
LAY-1
  6
CONTINUOUS
 62
     7
100
AcDbText
 10
1123.071917098646
 20
1681.310700863057
 30
0.0
 40
17.9291348
  1
Ｆ
 50
325.8194379965
 41
1.2
  7
EXCADSTD
100
AcDbText
  0
TEXT
  5
26C
330
1F
100
AcDbEntity
  8
LAY-1
  6
CONTINUOUS
 62
     7
100
AcDbText
 10
1140.692758614315
 20
1669.227603479862
 30
0.0
 40
17.9291348
  1
Ｕ
 50
328.4782551976
 41
1.2
  7
EXCADSTD
100
AcDbText
  0
TEXT
  5
26D
330
1F
100
AcDbEntity
  8
LAY-1
  6
CONTINUOUS
 62
     7
100
AcDbText
 10
1159.192101406358
 20
1658.511808797722
 30
0.0
 40
17.9291348
  1
Ｋ
 50
331.5714223594001
 41
1.2
  7
EXCADSTD
100
AcDbText
  0
TEXT
  5
26E
330
1F
100
AcDbEntity
  8
LAY-1
  6
CONTINUOUS
 62
     7
100
AcDbText
 10
1176.836047972999
 20
1648.075583281347
 30
0.0
 40
17.9291348
  1
Ｕ
 50
334.6645895211001
 41
1.2
  7
EXCADSTD
100
AcDbText
  0
TEXT
  5
26F
330
1F
100
AcDbEntity
  8
LAY-1
  6
CONTINUOUS
 62
     7
100
AcDbText
 10
1196.925635773891
 20
1638.521363503899
 30
0.0
 40
17.9291348
  1
Ｎ
 50
337.7577566826
 41
1.2
  7
EXCADSTD
100
AcDbText
  0
TEXT
  5
270
330
1F
100
AcDbEntity
  8
LAY-1
  6
CONTINUOUS
 62
     7
100
AcDbText
 10
1217.361769280332
 20
1630.751638469578
 30
0.0
 40
17.9291348
  1
Ｉ
 50
340.8509238445001
 41
1.2
  7
EXCADSTD
100
AcDbText
  0
TEXT
  5
271
330
1F
100
AcDbEntity
  8
LAY-1
  6
CONTINUOUS
 62
     7
100
AcDbText
 10
1237.845217340007
 20
1623.568942361743
 30
0.0
 40
17.9291348
  1
Ｓ
 50
343.9440910062
 41
1.2
  7
EXCADSTD
100
AcDbText
  0
TEXT
  5
272
330
1F
100
AcDbEntity
  8
LAY-1
  6
CONTINUOUS
 62
     7
100
AcDbText
 10
1258.976610936571
 20
1617.275847158358
 30
0.0
 40
17.9291348
  1
Ｈ
 50
347.0372581678001
 41
1.2
  7
EXCADSTD
100
AcDbText
  0
TEXT
  5
273
330
1F
100
AcDbEntity
  8
LAY-1
  6
CONTINUOUS
 62
     7
100
AcDbText
 10
1280.756441351162
 20
1611.874955138007
 30
0.0
 40
17.9291348
  1
Ｉ
 50
350.1304253294001
 41
1.2
  7
EXCADSTD
100
AcDbText
  0
TEXT
  5
274
330
1F
100
AcDbEntity
  8
LAY-1
  6
CONTINUOUS
 62
     7
100
AcDbText
 10
1324.762671068789
 20
1605.56029570304
 30
0.0
 40
17.9291348
  1
Ｆ
 50
356.3167596527001
 41
1.2
  7
EXCADSTD
100
AcDbText
  0
TEXT
  5
275
330
1F
100
AcDbEntity
  8
LAY-1
  6
CONTINUOUS
 62
     7
100
AcDbText
 10
1345.189343597348
 20
1604.35181579797
 30
0.0
 40
17.9291348
  1
Ｏ
 50
359.4099268145
 41
1.2
  7
EXCADSTD
100
AcDbText
  0
TEXT
  5
276
330
1F
100
AcDbEntity
  8
LAY-1
  6
CONTINUOUS
 62
     7
100
AcDbText
 10
1366.564998598856
 20
1603.446098688527
 30
0.0
 40
17.9291348
  1
Ｕ
 50
2.503093976099928
 41
1.2
  7
EXCADSTD
100
AcDbText
  0
TEXT
  5
277
330
1F
100
AcDbEntity
  8
LAY-1
  6
CONTINUOUS
 62
     7
100
AcDbText
 10
1388.589415631661
 20
1604.645783430577
 30
0.0
 40
17.9291348
  1
Ｎ
 50
5.596261137999957
 41
1.2
  7
EXCADSTD
100
AcDbText
  0
TEXT
  5
278
330
1F
100
AcDbEntity
  8
LAY-1
  6
CONTINUOUS
 62
     7
100
AcDbText
 10
1411.262232172475
 20
1607.053493340552
 30
0.0
 40
17.9291348
  1
Ｄ
 50
8.689428299500003
 41
1.2
  7
EXCADSTD
100
AcDbText
  0
TEXT
  5
279
330
1F
100
AcDbEntity
  8
LAY-1
  6
CONTINUOUS
 62
     7
100
AcDbText
 10
1433.082944672785
 20
1610.371828350973
 30
0.0
 40
17.9291348
  1
Ｒ
 50
11.78259546119995
 41
1.2
  7
EXCADSTD
100
AcDbText
  0
TEXT
  5
27A
330
1F
100
AcDbEntity
  8
LAY-1
  6
CONTINUOUS
 62
     7
100
AcDbText
 10
1453.75091002599
 20
1615.803357435409
 30
0.0
 40
17.9291348
  1
Ｙ
 50
14.87576262299995
 41
1.2
  7
EXCADSTD
100
AcDbText
  0
TEXT
  5
27B
330
1F
100
AcDbEntity
  8
LAY-1
  6
CONTINUOUS
 62
     7
100
AcDbText
 10
1494.625340718749
 20
1627.91607412442
 30
0.0
 40
17.9291348
  1
Ｃ
 50
21.06209694640002
 41
1.2
  7
EXCADSTD
100
AcDbText
  0
TEXT
  5
27C
330
1F
100
AcDbEntity
  8
LAY-1
  6
CONTINUOUS
 62
     7
100
AcDbText
 10
1516.329840918915
 20
1636.402178093155
 30
0.0
 40
17.9291348
  1
Ｏ
 50
24.15526410809992
 41
1.2
  7
EXCADSTD
100
AcDbText
  0
TEXT
  5
27D
330
1F
100
AcDbEntity
  8
LAY-1
  6
CONTINUOUS
 62
     7
100
AcDbText
 10
1537.42679668378
 20
1645.657593923425
 30
0.0
 40
17.9291348
  1
.,
 50
27.24843126969994
 41
0.6267680000000001
  7
EXCADSTD
100
AcDbText
  0
TEXT
  5
27E
330
1F
100
AcDbEntity
  8
LAY-1
  6
CONTINUOUS
 62
     7
100
AcDbText
 10
1555.667521347845
 20
1654.645727919279
 30
0.0
 40
17.9291348
  1
Ｌ
 50
30.34159843119999
 41
1.2
  7
EXCADSTD
100
AcDbText
  0
TEXT
  5
27F
330
1F
100
AcDbEntity
  8
LAY-1
  6
CONTINUOUS
 62
     7
100
AcDbText
 10
1575.097969386755
 20
1664.707708922391
 30
0.0
 40
17.9291348
  1
Ｔ
 50
33.43476559309996
 41
1.2
  7
EXCADSTD
100
AcDbText
  0
TEXT
  5
280
330
1F
100
AcDbEntity
  8
LAY-1
  6
CONTINUOUS
 62
     7
100
AcDbText
 10
1593.667467929448
 20
1677.499387970058
 30
0.0
 40
17.9291348
  1
Ｄ
 50
36.52793275479997
 41
1.2
  7
EXCADSTD
100
AcDbText
  0
TEXT
  5
281
330
1F
100
AcDbEntity
  8
LAY-1
  6
CONTINUOUS
 62
     7
100
AcDbText
 10
1609.929919162891
 20
1690.162298875159
 30
0.0
 40
17.9291348
  1
.
 50
39.6210999163
 41
0.56692
  7
EXCADSTD
100
AcDbText
  0
TEXT
  5
282
330
1F
100
AcDbEntity
  8
LAY-1
  6
CONTINUOUS
 62
     7
100
AcDbText
 10
1631.58507158341
 20
1708.667770626181
 30
0.0
 40
17.9291348
  1
Ｄ
 50
43.51195954600001
 41
1.2
  7
EXCADSTD
100
AcDbText
  0
TEXT
  5
283
330
1F
100
AcDbEntity
  8
LAY-1
  6
CONTINUOUS
 62
     7
100
AcDbText
 10
1647.53168074539
 20
1723.141157167327
 30
0.0
 40
17.9291348
  1
７
 50
46.53668390940003
 41
1.2
  7
EXCADSTD
100
AcDbText
  0
TEXT
  5
284
330
1F
100
AcDbEntity
  8
LAY-1
  6
CONTINUOUS
 62
     7
100
AcDbText
 10
1661.089346774342
 20
1738.548978962304
 30
0.0
 40
17.9291348
  1
５
 50
49.56140827289998
 41
1.2
  7
EXCADSTD
100
AcDbText
  0
TEXT
  5
285
330
1F
100
AcDbEntity
  8
LAY-1
  6
CONTINUOUS
 62
     7
100
AcDbText
 10
1673.756237225471
 20
1753.691771474305
 30
0.0
 40
17.9291348
  1
０
 50
52.58613263630001
 41
1.2
  7
EXCADSTD
100
AcDbText
  0
LINE
  5
286
330
1F
100
AcDbEntity
  8
LAY-1
  6
CONTINUOUS
 62
     7
100
AcDbLine
 10
999.4999999997499
 20
900.5125442357771
 30
0.0
 11
1011.49999999975
 21
900.5125442357771
 31
0.0
  0
LINE
  5
287
330
1F
100
AcDbEntity
  8
LAY-1
  6
CONTINUOUS
 62
     7
100
AcDbLine
 10
999.4999999997499
 20
924.5125442357772
 30
0.0
 11
999.4999999997499
 21
900.5125442357771
 31
0.0
  0
LINE
  5
288
330
1F
100
AcDbEntity
  8
LAY-1
  6
CONTINUOUS
 62
     7
100
AcDbLine
 10
1079.49999999975
 20
894.5125442357767
 30
0.0
 11
1032.49999999975
 21
894.5125442357767
 31
0.0
  0
LINE
  5
289
330
1F
100
AcDbEntity
  8
LAY-1
  6
CONTINUOUS
 62
     7
100
AcDbLine
 10
1011.49999999975
 20
899.0125442357771
 30
0.0
 11
1032.49999999975
 21
899.0125442357771
 31
0.0
  0
LINE
  5
28A
330
1F
100
AcDbEntity
  8
LAY-1
  6
CONTINUOUS
 62
     7
100
AcDbLine
 10
1034.99999999975
 20
943.512544235777
 30
0.0
 11
1066.99999999975
 21
943.512544235777
 31
0.0
  0
LINE
  5
28B
330
1F
100
AcDbEntity
  8
LAY-1
  6
CONTINUOUS
 62
     7
100
AcDbLine
 10
1011.49999999975
 20
924.5125442357772
 30
0.0
 11
999.4999999997499
 21
924.5125442357772
 31
0.0
  0
LINE
  5
28C
330
1F
100
AcDbEntity
  8
LAY-1
  6
CONTINUOUS
 62
     7
100
AcDbLine
 10
1079.499999999747
 20
894.5125442357772
 30
0.0
 11
1079.499999999749
 21
928.5125442357767
 31
0.0
  0
LINE
  5
28D
330
1F
100
AcDbEntity
  8
LAY-1
  6
CONTINUOUS
 62
     7
100
AcDbLine
 10
1032.49999999975
 20
894.5125442357772
 30
0.0
 11
1032.49999999975
 21
923.5125442357776
 31
0.0
  0
LINE
  5
28E
330
1F
100
AcDbEntity
  8
LAY-1
  6
CONTINUOUS
 62
     7
100
AcDbLine
 10
1079.49999999975
 20
923.5125442357776
 30
0.0
 11
1011.49999999975
 21
923.5125442357776
 31
0.0
  0
LINE
  5
28F
330
1F
100
AcDbEntity
  8
LAY-1
  6
CONTINUOUS
 62
     7
100
AcDbLine
 10
1082.49999999975
 20
925.5125442357771
 30
0.0
 11
1079.49999999975
 21
925.5125442357771
 31
0.0
  0
LINE
  5
290
330
1F
100
AcDbEntity
  8
LAY-1
  6
CONTINUOUS
 62
     7
100
AcDbLine
 10
1082.49999999975
 20
895.5125442357771
 30
0.0
 11
1082.49999999975
 21
925.5125442357771
 31
0.0
  0
LINE
  5
291
330
1F
100
AcDbEntity
  8
LAY-1
  6
CONTINUOUS
 62
     7
100
AcDbLine
 10
1079.49999999975
 20
895.5125442357771
 30
0.0
 11
1082.49999999975
 21
895.5125442357771
 31
0.0
  0
LINE
  5
292
330
1F
100
AcDbEntity
  8
LAY-1
  6
CONTINUOUS
 62
     7
100
AcDbLine
 10
1071.499999999764
 20
921.9125442357781
 30
0.0
 11
1071.499999999763
 21
916.5125442357785
 31
0.0
  0
LINE
  5
293
330
1F
100
AcDbEntity
  8
LAY-1
  6
CONTINUOUS
 62
     7
100
AcDbLine
 10
1061.499999999763
 20
921.9125442357781
 30
0.0
 11
1061.499999999763
 21
916.5125442357785
 31
0.0
  0
LINE
  5
294
330
1F
100
AcDbEntity
  8
LAY-1
  6
CONTINUOUS
 62
     7
100
AcDbLine
 10
1071.499999999763
 20
916.5125442357785
 30
0.0
 11
1061.499999999763
 21
916.5125442357785
 31
0.0
  0
LINE
  5
295
330
1F
100
AcDbEntity
  8
LAY-1
  6
CONTINUOUS
 62
     7
100
AcDbLine
 10
1071.499999999763
 20
916.5125442357785
 30
0.0
 11
1070.899999999763
 21
915.912544235779
 31
0.0
  0
LINE
  5
296
330
1F
100
AcDbEntity
  8
LAY-1
  6
CONTINUOUS
 62
     7
100
AcDbLine
 10
1061.499999999763
 20
916.5125442357785
 30
0.0
 11
1062.099999999763
 21
915.912544235779
 31
0.0
  0
LINE
  5
297
330
1F
100
AcDbEntity
  8
LAY-1
  6
CONTINUOUS
 62
     7
100
AcDbLine
 10
1070.899999999763
 20
915.912544235779
 30
0.0
 11
1062.099999999763
 21
915.912544235779
 31
0.0
  0
LINE
  5
298
330
1F
100
AcDbEntity
  8
LAY-1
  6
CONTINUOUS
 62
     7
100
AcDbLine
 10
1067.749999999763
 20
916.5125442357785
 30
0.0
 11
1067.749999999763
 21
917.8625442357784
 31
0.0
  0
LINE
  5
299
330
1F
100
AcDbEntity
  8
LAY-1
  6
CONTINUOUS
 62
     7
100
AcDbLine
 10
1068.999999999763
 20
916.5125442357785
 30
0.0
 11
1068.999999999763
 21
919.2125442357783
 31
0.0
  0
LINE
  5
29A
330
1F
100
AcDbEntity
  8
LAY-1
  6
CONTINUOUS
 62
     7
100
AcDbLine
 10
1070.249999999763
 20
916.5125442357785
 30
0.0
 11
1070.249999999763
 21
920.5625442357782
 31
0.0
  0
LINE
  5
29B
330
1F
100
AcDbEntity
  8
LAY-1
  6
CONTINUOUS
 62
     7
100
AcDbLine
 10
1060.249999999763
 20
921.9125442357781
 30
0.0
 11
1072.749999999763
 21
921.9125442357781
 31
0.0
  0
LINE
  5
29C
330
1F
100
AcDbEntity
  8
LAY-1
  6
CONTINUOUS
 62
     7
100
AcDbLine
 10
1072.749999999763
 20
923.5125442357789
 30
0.0
 11
1072.749999999763
 21
921.9125442357781
 31
0.0
  0
LINE
  5
29D
330
1F
100
AcDbEntity
  8
LAY-1
  6
CONTINUOUS
 62
     7
100
AcDbLine
 10
1060.249999999763
 20
923.5125442357789
 30
0.0
 11
1060.249999999763
 21
921.9125442357781
 31
0.0
  0
LINE
  5
29E
330
1F
100
AcDbEntity
  8
LAY-1
  6
CONTINUOUS
 62
     7
100
AcDbLine
 10
1024.499999999764
 20
921.9125442357781
 30
0.0
 11
1024.499999999763
 21
916.5125442357785
 31
0.0
  0
LINE
  5
29F
330
1F
100
AcDbEntity
  8
LAY-1
  6
CONTINUOUS
 62
     7
100
AcDbLine
 10
1014.499999999764
 20
921.9125442357781
 30
0.0
 11
1014.499999999764
 21
916.5125442357785
 31
0.0
  0
LINE
  5
2A0
330
1F
100
AcDbEntity
  8
LAY-1
  6
CONTINUOUS
 62
     7
100
AcDbLine
 10
1024.499999999763
 20
916.5125442357785
 30
0.0
 11
1014.499999999764
 21
916.5125442357785
 31
0.0
  0
LINE
  5
2A1
330
1F
100
AcDbEntity
  8
LAY-1
  6
CONTINUOUS
 62
     7
100
AcDbLine
 10
1024.499999999763
 20
916.5125442357785
 30
0.0
 11
1023.899999999763
 21
915.912544235779
 31
0.0
  0
LINE
  5
2A2
330
1F
100
AcDbEntity
  8
LAY-1
  6
CONTINUOUS
 62
     7
100
AcDbLine
 10
1014.499999999764
 20
916.5125442357785
 30
0.0
 11
1015.099999999763
 21
915.912544235779
 31
0.0
  0
LINE
  5
2A3
330
1F
100
AcDbEntity
  8
LAY-1
  6
CONTINUOUS
 62
     7
100
AcDbLine
 10
1023.899999999763
 20
915.912544235779
 30
0.0
 11
1015.099999999763
 21
915.912544235779
 31
0.0
  0
LINE
  5
2A4
330
1F
100
AcDbEntity
  8
LAY-1
  6
CONTINUOUS
 62
     7
100
AcDbLine
 10
1020.749999999763
 20
916.5125442357785
 30
0.0
 11
1020.749999999763
 21
917.8625442357784
 31
0.0
  0
LINE
  5
2A5
330
1F
100
AcDbEntity
  8
LAY-1
  6
CONTINUOUS
 62
     7
100
AcDbLine
 10
1021.999999999763
 20
916.5125442357785
 30
0.0
 11
1021.999999999763
 21
919.2125442357783
 31
0.0
  0
LINE
  5
2A6
330
1F
100
AcDbEntity
  8
LAY-1
  6
CONTINUOUS
 62
     7
100
AcDbLine
 10
1023.249999999763
 20
916.5125442357785
 30
0.0
 11
1023.249999999763
 21
920.5625442357782
 31
0.0
  0
LINE
  5
2A7
330
1F
100
AcDbEntity
  8
LAY-1
  6
CONTINUOUS
 62
     7
100
AcDbLine
 10
1013.249999999764
 20
921.9125442357781
 30
0.0
 11
1025.749999999763
 21
921.9125442357781
 31
0.0
  0
LINE
  5
2A8
330
1F
100
AcDbEntity
  8
LAY-1
  6
CONTINUOUS
 62
     7
100
AcDbLine
 10
1025.749999999763
 20
923.5125442357789
 30
0.0
 11
1025.749999999763
 21
921.9125442357781
 31
0.0
  0
LINE
  5
2A9
330
1F
100
AcDbEntity
  8
LAY-1
  6
CONTINUOUS
 62
     7
100
AcDbLine
 10
1013.249999999764
 20
923.5125442357789
 30
0.0
 11
1013.249999999764
 21
921.9125442357781
 31
0.0
  0
LINE
  5
2AA
330
1F
100
AcDbEntity
  8
LAY-1
  6
CONTINUOUS
 62
     7
100
AcDbLine
 10
1063.999999999747
 20
939.555747077091
 30
0.0
 11
1060.999999999751
 21
937.2537661131565
 31
0.0
  0
LINE
  5
2AB
330
1F
100
AcDbEntity
  8
LAY-1
  6
CONTINUOUS
 62
     7
100
AcDbLine
 10
1061.999999999744
 20
930.0898945049667
 30
0.0
 11
1039.999999999744
 21
930.0898945049667
 31
0.0
  0
LINE
  5
2AC
330
1F
100
AcDbEntity
  8
LAY-1
  6
CONTINUOUS
 62
     7
100
AcDbLine
 10
1061.999999999744
 20
936.5125442357771
 30
0.0
 11
1061.999999999744
 21
930.0898945049667
 31
0.0
  0
LINE
  5
2AD
330
1F
100
AcDbEntity
  8
LAY-1
  6
CONTINUOUS
 62
     7
100
AcDbLine
 10
1039.999999999744
 20
936.5125442357771
 30
0.0
 11
1039.999999999744
 21
930.0898945049667
 31
0.0
  0
LINE
  5
2AE
330
1F
100
AcDbEntity
  8
LAY-1
  6
CONTINUOUS
 62
     7
100
AcDbLine
 10
1039.999999999744
 20
930.0898945049667
 30
0.0
 11
1040.999999999744
 21
929.5125442357772
 31
0.0
  0
LINE
  5
2AF
330
1F
100
AcDbEntity
  8
LAY-1
  6
CONTINUOUS
 62
     7
100
AcDbLine
 10
1061.999999999744
 20
930.0898945049667
 30
0.0
 11
1060.999999999744
 21
929.5125442357772
 31
0.0
  0
LINE
  5
2B0
330
1F
100
AcDbEntity
  8
LAY-1
  6
CONTINUOUS
 62
     7
100
AcDbLine
 10
1037.999999999744
 20
943.5125442357767
 30
0.0
 11
1037.999999999744
 21
939.5557470770891
 31
0.0
  0
LINE
  5
2B1
330
1F
100
AcDbEntity
  8
LAY-1
  6
CONTINUOUS
 62
     7
100
AcDbLine
 10
1063.999999999744
 20
943.5125442357767
 30
0.0
 11
1063.999999999744
 21
939.5557470770891
 31
0.0
  0
LINE
  5
2B2
330
1F
100
AcDbEntity
  8
LAY-1
  6
CONTINUOUS
 62
     7
100
AcDbLine
 10
1063.499999999744
 20
939.5125442357772
 30
0.0
 11
1038.499999999744
 21
939.5125442357772
 31
0.0
  0
LINE
  5
2B3
330
1F
100
AcDbEntity
  8
LAY-1
  6
CONTINUOUS
 62
     7
100
AcDbLine
 10
1062.499999999744
 20
943.5125442357771
 30
0.0
 11
1063.499999999744
 21
942.5125442357771
 31
0.0
  0
LINE
  5
2B4
330
1F
100
AcDbEntity
  8
LAY-1
  6
CONTINUOUS
 62
     7
100
AcDbLine
 10
1039.499999999744
 20
943.5125442357771
 30
0.0
 11
1038.499999999744
 21
942.5125442357771
 31
0.0
  0
LINE
  5
2B5
330
1F
100
AcDbEntity
  8
LAY-1
  6
CONTINUOUS
 62
     7
100
AcDbLine
 10
1061.999999999744
 20
936.5125442357771
 30
0.0
 11
1039.999999999744
 21
936.5125442357771
 31
0.0
  0
LINE
  5
2B6
330
1F
100
AcDbEntity
  8
LAY-1
  6
CONTINUOUS
 62
     7
100
AcDbLine
 10
1052.749999999744
 20
943.5125442357771
 30
0.0
 11
1052.749999999744
 21
941.0125442357771
 31
0.0
  0
LINE
  5
2B7
330
1F
100
AcDbEntity
  8
LAY-1
  6
CONTINUOUS
 62
     7
100
AcDbLine
 10
1049.249999999744
 20
943.5125442357771
 30
0.0
 11
1049.249999999744
 21
941.0125442357771
 31
0.0
  0
LINE
  5
2B8
330
1F
100
AcDbEntity
  8
LAY-1
  6
CONTINUOUS
 62
     7
100
AcDbLine
 10
1052.749999999744
 20
941.0125442357771
 30
0.0
 11
1049.249999999744
 21
941.0125442357771
 31
0.0
  0
LINE
  5
2B9
330
1F
100
AcDbEntity
  8
LAY-1
  6
CONTINUOUS
 62
     7
100
AcDbLine
 10
1038.499999999744
 20
942.5125442357771
 30
0.0
 11
1038.499999999744
 21
939.5125442357772
 31
0.0
  0
LINE
  5
2BA
330
1F
100
AcDbEntity
  8
LAY-1
  6
CONTINUOUS
 62
     7
100
AcDbLine
 10
1063.499999999744
 20
942.5125442357771
 30
0.0
 11
1063.499999999744
 21
939.5125442357772
 31
0.0
  0
LINE
  5
2BB
330
1F
100
AcDbEntity
  8
LAY-1
  6
CONTINUOUS
 62
     7
100
AcDbLine
 10
1040.99999999974
 20
929.5125442357772
 30
0.0
 11
1060.99999999974
 21
929.5125442357772
 31
0.0
  0
LINE
  5
2BC
330
1F
100
AcDbEntity
  8
LAY-1
  6
CONTINUOUS
 62
     7
100
AcDbLine
 10
1060.99999999974
 20
929.5125442357772
 30
0.0
 11
1060.99999999974
 21
928.5125442357767
 31
0.0
  0
LINE
  5
2BD
330
1F
100
AcDbEntity
  8
LAY-1
  6
CONTINUOUS
 62
     7
100
AcDbLine
 10
1040.99999999974
 20
929.5125442357772
 30
0.0
 11
1040.99999999974
 21
928.5125442357767
 31
0.0
  0
LINE
  5
2BE
330
1F
100
AcDbEntity
  8
LAY-1
  6
CONTINUOUS
 62
     7
100
AcDbLine
 10
989.4999999997499
 20
921.5125442357721
 30
0.0
 11
999.4999999997499
 21
921.5125442357721
 31
0.0
  0
LINE
  5
2BF
330
1F
100
AcDbEntity
  8
LAY-1
  6
CONTINUOUS
 62
     7
100
AcDbLine
 10
993.8188973055603
 20
903.5125442357721
 30
0.0
 11
999.4999999997499
 21
903.5125442357721
 31
0.0
  0
LINE
  5
2C0
330
1F
100
AcDbEntity
  8
LAY-1
  6
CONTINUOUS
 62
     7
100
AcDbLine
 10
1081.999999999729
 20
928.5125442358003
 30
0.0
 11
998.3587829856206
 21
928.5125442358003
 31
0.0
  0
LINE
  5
2C1
330
1F
100
AcDbEntity
  8
LAY-1
  6
CONTINUOUS
 62
     7
100
AcDbLine
 10
1011.499999999749
 20
899.0125442357771
 30
0.0
 11
1011.499999999749
 21
928.5125442358003
 31
0.0
  0
LINE
  5
2C2
330
1F
100
AcDbEntity
  8
LAY-1
  6
CONTINUOUS
 62
     7
100
AcDbLine
 10
1083.999999999729
 20
926.4894563530902
 30
0.0
 11
1083.999999999729
 21
926.5125442358004
 31
0.0
  0
LINE
  5
2C3
330
1F
100
AcDbEntity
  8
LAY-1
  6
CONTINUOUS
 62
     7
100
AcDbLine
 10
1033.999999999751
 20
945.8221930691798
 30
0.0
 11
1033.999999999751
 21
931.0125442357671
 31
0.0
  0
LINE
  5
2C4
330
1F
100
AcDbEntity
  8
LAY-1
  6
CONTINUOUS
 62
     7
100
AcDbLine
 10
1067.999999999752
 20
946.4156652767392
 30
0.0
 11
1067.999999999752
 21
931.0125442357671
 31
0.0
  0
LINE
  5
2C5
330
1F
100
AcDbEntity
  8
LAY-1
  6
CONTINUOUS
 62
     7
100
AcDbLine
 10
1034.99999999975
 20
943.512544235777
 30
0.0
 11
1034.99999999975
 21
929.5125442357767
 31
0.0
  0
LINE
  5
2C6
330
1F
100
AcDbEntity
  8
LAY-1
  6
CONTINUOUS
 62
     7
100
AcDbLine
 10
1066.99999999975
 20
943.512544235777
 30
0.0
 11
1066.99999999975
 21
929.5125442357767
 31
0.0
  0
LINE
  5
2C7
330
1F
100
AcDbEntity
  8
LAY-1
  6
CONTINUOUS
 62
     7
100
AcDbLine
 10
1532.695526216999
 20
925.512544235768
 30
0.0
 11
1082.4999999997
 21
925.512544235768
 31
0.0
  0
ARC
  5
2C8
330
1F
100
AcDbEntity
  8
LAY-1
  6
CONTINUOUS
 62
     7
100
AcDbCircle
 10
1081.999999999729
 20
926.5125442358004
 30
0.0
 40
2.0
100
AcDbArc
 50
329.9999999989282
 51
90.00000000000001
  0
LINE
  5
2C9
330
1F
100
AcDbEntity
  8
LAY-1
  6
CONTINUOUS
 62
     7
100
AcDbLine
 10
959.8153846153838
 20
925.99999999999
 30
0.0
 11
1011.499999999749
 21
925.99999999999
 31
0.0
  0
LINE
  5
2CA
330
1F
100
AcDbEntity
  8
LAY-1
  6
CONTINUOUS
 62
     7
100
AcDbLine
 10
998.3587829856187
 20
928.5125442358003
 30
0.0
 11
993.4566807661196
 21
925.99999999999
 31
0.0
  0
LINE
  5
2CB
330
1F
100
AcDbEntity
  8
LAY-1
  6
CONTINUOUS
 62
     7
100
AcDbLine
 10
996.0819146423091
 20
893.00000000001
 30
0.0
 11
997.0049915653854
 21
861.0
 31
0.0
  0
LINE
  5
2CC
330
1F
100
AcDbEntity
  8
LAY-1
  6
CONTINUOUS
 62
     7
100
AcDbLine
 10
993.4999999997899
 20
893.00000000001
 30
0.0
 11
996.0819146423091
 21
893.00000000001
 31
0.0
  0
LINE
  5
2CD
330
1F
100
AcDbEntity
  8
LAY-1
  6
CONTINUOUS
 62
     7
100
AcDbLine
 10
982.75
 20
913.0000000000001
 30
0.0
 11
993.4999999997899
 21
913.0000000000001
 31
0.0
  0
LINE
  5
2CE
330
1F
100
AcDbEntity
  8
LAY-1
  6
CONTINUOUS
 62
     7
100
AcDbLine
 10
993.4999999997899
 20
913.0000000000001
 30
0.0
 11
993.4999999997899
 21
893.00000000001
 31
0.0
  0
DIMENSION
  5
2D0
330
1F
100
AcDbEntity
  8
LAY-1
  6
CONTINUOUS
 62
     4
100
AcDbDimension
  2
*D15
 10
2027.0
 20
942.99999999998
 30
0.0
 11
2002.0
 21
901.99999999999
 31
0.0
 70
   160
  1
80
  3
ISO-25
100
AcDbAlignedDimension
 13
1945.9999999998
 23
861.0
 33
0.0
 14
1806.0126927199
 24
942.99999999998
 34
0.0
 50
90.0
100
AcDbRotatedDimension
1001
ACAD
1000
DSTYLE
1002
{
1070
   270
1070
     2
1070
     6
1000
EX_BNORM
1070
     7
1000
EX_BNORM
1070
    41
1040
30.0
1070
    42
1040
15.0
1070
    44
1040
15.0
1070
    73
1070
     0
1070
    74
1070
     0
1070
    75
1070
     0
1070
    76
1070
     0
1070
    77
1070
     1
1070
    78
1070
     8
1070
   140
1040
31.181104
1070
   147
1040
0.0
1070
   173
1070
     1
1070
   176
1070
     4
1070
   177
1070
     4
1070
   178
1070
     7
1070
   271
1070
     1
1070
   277
1070
     2
1070
   279
1070
     2
1070
   280
1070
     0
1070
   287
1070
     5
1070
   340
1005
2CF
1002
}
  0
TEXT
  5
2DE
330
1F
100
AcDbEntity
  8
LAY-1
  6
CONTINUOUS
 62
     7
100
AcDbText
 10
1694.935118079072
 20
1774.532118363523
 30
0.0
 40
17.9291348
  1
Ｆ
 50
56.41934071309998
 41
1.2
  7
EXCADSTD
100
AcDbText
  0
TEXT
  5
2DF
330
1F
100
AcDbEntity
  8
LAY-1
  6
CONTINUOUS
 62
     7
100
AcDbText
 10
1706.881549838441
 20
1792.508588743953
 30
0.0
 40
17.9291348
  1
Ｃ
 50
60.96773628530001
 41
1.2
  7
EXCADSTD
100
AcDbText
  0
TEXT
  5
2E0
330
1F
100
AcDbEntity
  8
LAY-1
  6
CONTINUOUS
 62
     7
100
AcDbText
 10
1717.937483254014
 20
1811.23527806271
 30
0.0
 40
17.9291348
  1
Ｄ
 50
62.48386814260002
 41
1.2
  7
EXCADSTD
100
AcDbText
  0
CIRCLE
  5
2E1
330
1F
100
AcDbEntity
  8
LAY-1
  6
CONTINUOUS
 62
     7
100
AcDbCircle
 10
1360.0
 20
2319.0
 30
0.0
 40
16.0
  0
CIRCLE
  5
2E2
330
1F
100
AcDbEntity
  8
LAY-1
  6
CONTINUOUS
 62
     7
100
AcDbCircle
 10
1360.0
 20
2319.0
 30
0.0
 40
12.50000000000001
  0
LINE
  5
2E3
330
1F
100
AcDbEntity
  8
LAY-1
  6
CONTINUOUS
 62
     7
100
AcDbLine
 10
1350.156295554063
 20
2311.296008646095
 30
0.0
 11
1371.593704445985
 21
2323.672902440574
 31
0.0
  0
LINE
  5
2E4
330
1F
100
AcDbEntity
  8
LAY-1
  6
CONTINUOUS
 62
     7
100
AcDbLine
 10
1348.40629555405
 20
2314.327097559335
 30
0.0
 11
1369.843704445996
 21
2326.703991353828
 31
0.0
  0
CIRCLE
  5
2E5
330
1F
100
AcDbEntity
  8
LAY-1
  6
CONTINUOUS
 62
     7
100
AcDbCircle
 10
1360.0
 20
2319.0
 30
0.0
 40
13.00000000000001
  0
DIMENSION
  5
2E6
330
1F
100
AcDbEntity
  8
LAY-1
  6
CONTINUOUS
 62
     4
100
AcDbDimension
  2
*D16
 10
1807.5
 20
1191.5125442358
 30
0.0
 11
1360.0
 21
1216.5125442358
 31
0.0
 70
   160
  1
%%c<>
  3
ISO-25
100
AcDbAlignedDimension
 13
912.5
 23
941.0
 33
0.0
 14
1807.5
 24
941.0
 34
0.0
100
AcDbRotatedDimension
1001
ACAD
1000
DSTYLE
1002
{
1070
   270
1070
     2
1070
     6
1000
EX_BNORM
1070
     7
1000
EX_BNORM
1070
    41
1040
30.0
1070
    42
1040
15.0
1070
    44
1040
15.0
1070
    73
1070
     0
1070
    74
1070
     0
1070
    75
1070
     0
1070
    76
1070
     0
1070
    77
1070
     1
1070
    78
1070
     8
1070
   140
1040
31.181104
1070
   147
1040
0.0
1070
   173
1070
     1
1070
   176
1070
     4
1070
   177
1070
     4
1070
   178
1070
     7
1070
   271
1070
     1
1070
   277
1070
     2
1070
   279
1070
     2
1070
   280
1070
     0
1070
   287
1070
     5
1070
   340
1005
2CF
1002
}
  0
DIMENSION
  5
2F3
330
1F
100
AcDbEntity
  8
LAY-1
  6
CONTINUOUS
 62
     4
100
AcDbDimension
  2
*D17
 10
1787.5
 20
1121.5125442358
 30
0.0
 11
1360.0
 21
1146.5125442358
 31
0.0
 70
   160
  1
%%c<>
  3
ISO-25
100
AcDbAlignedDimension
 13
932.5
 23
943.00000000011
 33
0.0
 14
1787.5
 24
943.00000000011
 34
0.0
100
AcDbRotatedDimension
1001
ACAD
1000
DSTYLE
1002
{
1070
   270
1070
     2
1070
     6
1000
EX_BNORM
1070
     7
1000
EX_BNORM
1070
    41
1040
30.0
1070
    42
1040
15.0
1070
    44
1040
15.0
1070
    73
1070
     0
1070
    74
1070
     0
1070
    75
1070
     0
1070
    76
1070
     0
1070
    77
1070
     1
1070
    78
1070
     8
1070
   140
1040
31.181104
1070
   147
1040
0.0
1070
   173
1070
     1
1070
   176
1070
     4
1070
   177
1070
     4
1070
   178
1070
     7
1070
   271
1070
     1
1070
   277
1070
     2
1070
   279
1070
     2
1070
   280
1070
     0
1070
   287
1070
     5
1070
   340
1005
2CF
1002
}
  0
DIMENSION
  5
300
330
1F
100
AcDbEntity
  8
LAY-1
  6
CONTINUOUS
 62
     4
100
AcDbDimension
  2
*D18
 10
1735.0
 20
761.0
 30
0.0
 11
1360.0
 21
786.0
 31
0.0
 70
   160
  1
%%c<>
  3
ISO-25
100
AcDbAlignedDimension
 13
985.0
 23
861.0
 33
0.0
 14
1735.0
 24
861.0
 34
0.0
100
AcDbRotatedDimension
1001
ACAD
1000
DSTYLE
1002
{
1070
   270
1070
     2
1070
     6
1000
EX_BNORM
1070
     7
1000
EX_BNORM
1070
    41
1040
30.0
1070
    42
1040
15.0
1070
    44
1040
15.0
1070
    73
1070
     0
1070
    74
1070
     0
1070
    75
1070
     0
1070
    76
1070
     0
1070
    77
1070
     1
1070
    78
1070
     8
1070
   140
1040
31.181104
1070
   147
1040
0.0
1070
   173
1070
     1
1070
   176
1070
     4
1070
   177
1070
     4
1070
   178
1070
     7
1070
   271
1070
     1
1070
   277
1070
     2
1070
   279
1070
     2
1070
   280
1070
     0
1070
   287
1070
     5
1070
   340
1005
2CF
1002
}
  0
DIMENSION
  5
30D
330
1F
100
AcDbEntity
  8
LAY-1
  6
CONTINUOUS
 62
     4
100
AcDbDimension
  2
*D19
 10
1804.0
 20
691.0
 30
0.0
 11
1360.0
 21
716.0
 31
0.0
 70
   160
  1
□<>
  3
ISO-25
100
AcDbAlignedDimension
 13
916.0
 23
861.0
 33
0.0
 14
1804.0
 24
691.0
 34
0.0
100
AcDbRotatedDimension
1001
ACAD
1000
DSTYLE
1002
{
1070
   270
1070
     2
1070
     6
1000
EX_BNORM
1070
     7
1000
EX_NONE
1070
    41
1040
30.0
1070
    42
1040
15.0
1070
    44
1040
15.0
1070
    73
1070
     0
1070
    74
1070
     0
1070
    75
1070
     0
1070
    76
1070
     1
1070
    77
1070
     1
1070
    78
1070
     8
1070
   140
1040
31.181104
1070
   147
1040
0.0
1070
   173
1070
     1
1070
   176
1070
     4
1070
   177
1070
     4
1070
   178
1070
     7
1070
   271
1070
     1
1070
   277
1070
     2
1070
   279
1070
     2
1070
   280
1070
     0
1070
   287
1070
     5
1070
   340
1005
2CF
1002
}
  0
LINE
  5
319
330
1F
100
AcDbEntity
  8
LAY-1
  6
CENTER
 62
     2
100
AcDbLine
 10
1360.0
 20
2500.0
 30
0.0
 11
1360.0
 21
1519.0
 31
0.0
  0
LINE
  5
31A
330
1F
100
AcDbEntity
  8
LAY-1
  6
CENTER
 62
     2
100
AcDbLine
 10
863.0000000000001
 20
2010.0
 30
0.0
 11
1853.000000000001
 21
2010.0
 31
0.0
  0
LINE
  5
31B
330
1F
100
AcDbEntity
  8
LAY-1
  6
CENTER
 62
     2
100
AcDbLine
 10
1687.300000000001
 20
2404.0
 30
0.0
 11
1660.700000000001
 21
2404.0
 31
0.0
  0
LINE
  5
31C
330
1F
100
AcDbEntity
  8
LAY-1
  6
CENTER
 62
     2
100
AcDbLine
 10
1674.0
 20
2418.4
 30
0.0
 11
1674.0
 21
2389.599999999999
 31
0.0
  0
LINE
  5
31D
330
1F
100
AcDbEntity
  8
LAY-1
  6
CENTER
 62
     2
100
AcDbLine
 10
951.6000000000014
 20
2324.0
 30
0.0
 11
980.4000000000015
 21
2324.0
 31
0.0
  0
LINE
  5
31E
330
1F
100
AcDbEntity
  8
LAY-1
  6
CENTER
 62
     2
100
AcDbLine
 10
966.0000000000009
 20
2337.3
 30
0.0
 11
966.0000000000009
 21
2310.700000000001
 31
0.0
  0
LINE
  5
31F
330
1F
100
AcDbEntity
  8
LAY-1
  6
CENTER
 62
     2
100
AcDbLine
 10
1046.000000000001
 20
1601.600000000001
 30
0.0
 11
1046.000000000001
 21
1630.400000000001
 31
0.0
  0
LINE
  5
320
330
1F
100
AcDbEntity
  8
LAY-1
  6
CENTER
 62
     2
100
AcDbLine
 10
1032.700000000001
 20
1616.000000000001
 30
0.0
 11
1059.300000000001
 21
1616.000000000001
 31
0.0
  0
LINE
  5
321
330
1F
100
AcDbEntity
  8
LAY-1
  6
CENTER
 62
     2
100
AcDbLine
 10
1768.400000000001
 20
1696.000000000001
 30
0.0
 11
1739.6
 21
1696.000000000001
 31
0.0
  0
LINE
  5
322
330
1F
100
AcDbEntity
  8
LAY-1
  6
CENTER
 62
     2
100
AcDbLine
 10
1754.0
 20
1682.700000000001
 30
0.0
 11
1754.0
 21
1709.300000000001
 31
0.0
  0
LINE
  5
323
330
1F
100
AcDbEntity
  8
LAY-1
  6
CENTER
 62
     2
100
AcDbLine
 10
1599.700000000001
 20
2249.7
 30
0.0
 11
1530.3
 21
2180.3
 31
0.0
  0
LINE
  5
324
330
1F
100
AcDbEntity
  8
LAY-1
  6
CENTER
 62
     2
100
AcDbLine
 10
1544.860966544101
 20
2235.2609665441
 30
0.0
 11
1586.160966544102
 21
2193.960966544101
 31
0.0
  0
LINE
  5
325
330
1F
100
AcDbEntity
  8
LAY-1
  6
CENTER
 62
     2
100
AcDbLine
 10
1134.7390334559
 20
2194.860966544101
 30
0.0
 11
1176.0390334559
 21
2236.160966544102
 31
0.0
  0
LINE
  5
326
330
1F
100
AcDbEntity
  8
LAY-1
  6
CENTER
 62
     2
100
AcDbLine
 10
1120.300000000001
 20
2249.699999999999
 30
0.0
 11
1189.700000000001
 21
2180.3
 31
0.0
  0
LINE
  5
327
330
1F
100
AcDbEntity
  8
LAY-1
  6
CENTER
 62
     2
100
AcDbLine
 10
1175.1390334559
 20
1784.7390334559
 30
0.0
 11
1133.839033455899
 21
1826.0390334559
 31
0.0
  0
LINE
  5
328
330
1F
100
AcDbEntity
  8
LAY-1
  6
CENTER
 62
     2
100
AcDbLine
 10
1120.300000000001
 20
1770.300000000001
 30
0.0
 11
1189.700000000002
 21
1839.700000000001
 31
0.0
  0
LINE
  5
329
330
1F
100
AcDbEntity
  8
LAY-1
  6
CENTER
 62
     2
100
AcDbLine
 10
1585.2609665441
 20
1825.1390334559
 30
0.0
 11
1543.960966544102
 21
1783.839033455899
 31
0.0
  0
LINE
  5
32A
330
1F
100
AcDbEntity
  8
LAY-1
  6
CENTER
 62
     2
100
AcDbLine
 10
1599.700000000001
 20
1770.300000000001
 30
0.0
 11
1530.3
 21
1839.700000000001
 31
0.0
  0
LINE
  5
32B
330
1F
100
AcDbEntity
  8
LAY-1
  6
CENTER
 62
     2
100
AcDbLine
 10
1360.0
 20
963.0000000000001
 30
0.0
 11
1360.0
 21
838.0000000000001
 31
0.0
  0
LINE
  5
32C
330
1F
100
AcDbEntity
  8
LAY-1
  6
CENTER
 62
     2
100
AcDbLine
 10
1650.0
 20
959.7999999999697
 30
0.0
 11
1650.0
 21
883.3000000000002
 31
0.0
  0
LINE
  5
32D
330
1F
100
AcDbEntity
  8
LAY-1
  6
CENTER
 62
     2
100
AcDbLine
 10
1066.49999999975
 20
912.912544235779
 30
0.0
 11
1066.49999999975
 21
949.342795403697
 31
0.0
  0
LINE
  5
32E
330
1F
100
AcDbEntity
  8
LAY-1
  6
CENTER
 62
     2
100
AcDbLine
 10
1019.499999999752
 20
912.912544235779
 30
0.0
 11
1019.499999999751
 21
948.5224073520722
 31
0.0
  0
LINE
  5
32F
330
1F
100
AcDbEntity
  8
LAY-1
  6
CENTER
 62
     2
100
AcDbLine
 10
1050.999999999752
 20
923.5125442357804
 30
0.0
 11
1050.999999999752
 21
949.07224189731
 31
0.0
  0
LINE
  5
330
330
1F
100
AcDbEntity
  8
LAY-1
  6
CENTER
 62
     2
100
AcDbLine
 10
1042.999999999751
 20
948.9326013778846
 30
0.0
 11
1042.999999999751
 21
891.5125442357767
 31
0.0
  0
LINE
  5
331
330
1F
100
AcDbEntity
  8
LAY-1
  6
CENTER
 62
     2
100
AcDbLine
 10
985.49999999975
 20
912.5125442357722
 30
0.0
 11
1085.19999999975
 21
912.5125442357722
 31
0.0
  0
LINE
  5
332
330
1F
100
AcDbEntity
  8
LAY-1
  6
CENTER
 62
     2
100
AcDbLine
 10
1336.0
 20
2319.00000000001
 30
0.0
 11
1384.0
 21
2319.00000000001
 31
0.0
  0
LINE
  5
333
330
1F
100
AcDbEntity
  8
LAY-1
  6
CENTER
 62
     2
100
AcDbLine
 10
1360.0
 20
2343.00000000001
 30
0.0
 11
1360.0
 21
2295.00000000001
 31
0.0
  0
LINE
  5
334
330
1F
100
AcDbEntity
  8
LAY-1
  6
HIDDEN
 62
     7
100
AcDbLine
 10
1070.49999999975
 20
928.5125442357767
 30
0.0
 11
1070.49999999975
 21
923.5125442357776
 31
0.0
  0
LINE
  5
335
330
1F
100
AcDbEntity
  8
LAY-1
  6
HIDDEN
 62
     7
100
AcDbLine
 10
1062.499999999751
 20
928.5125442357767
 30
0.0
 11
1062.499999999751
 21
923.5125442357776
 31
0.0
  0
LINE
  5
336
330
1F
100
AcDbEntity
  8
LAY-1
  6
HIDDEN
 62
     7
100
AcDbLine
 10
989.4999999997555
 20
903.5125442357771
 30
0.0
 11
988.4999999997499
 21
904.5125442357821
 31
0.0
  0
LINE
  5
337
330
1F
100
AcDbEntity
  8
LAY-1
  6
HIDDEN
 62
     7
100
AcDbLine
 10
1017.499999999751
 20
941.9125442357777
 30
0.0
 11
1021.499999999752
 21
941.9125442357777
 31
0.0
  0
LINE
  5
338
330
1F
100
AcDbEntity
  8
LAY-1
  6
HIDDEN
 62
     7
100
AcDbLine
 10
1016.499999999751
 20
940.9125442357777
 30
0.0
 11
1022.499999999752
 21
940.9125442357777
 31
0.0
  0
LINE
  5
339
330
1F
100
AcDbEntity
  8
LAY-1
  6
HIDDEN
 62
     7
100
AcDbLine
 10
1022.49999999975
 20
940.9125442357782
 30
0.0
 11
1022.49999999975
 21
923.5125442357781
 31
0.0
  0
LINE
  5
33A
330
1F
100
AcDbEntity
  8
LAY-1
  6
HIDDEN
 62
     7
100
AcDbLine
 10
1016.49999999975
 20
940.9125442357782
 30
0.0
 11
1016.49999999975
 21
923.5125442357781
 31
0.0
  0
LINE
  5
33B
330
1F
100
AcDbEntity
  8
LAY-1
  6
HIDDEN
 62
     7
100
AcDbLine
 10
1016.49999999975
 20
940.9125442357782
 30
0.0
 11
1017.49999999975
 21
941.9125442357781
 31
0.0
  0
LINE
  5
33C
330
1F
100
AcDbEntity
  8
LAY-1
  6
HIDDEN
 62
     7
100
AcDbLine
 10
1021.49999999975
 20
941.9125442357781
 30
0.0
 11
1022.49999999975
 21
940.9125442357782
 31
0.0
  0
LINE
  5
33D
330
1F
100
AcDbEntity
  8
LAY-1
  6
HIDDEN
 62
     7
100
AcDbLine
 10
1021.49999999975
 20
941.9125442357781
 30
0.0
 11
1021.49999999975
 21
923.5125442357781
 31
0.0
  0
LINE
  5
33E
330
1F
100
AcDbEntity
  8
LAY-1
  6
HIDDEN
 62
     7
100
AcDbLine
 10
1017.49999999975
 20
941.9125442357781
 30
0.0
 11
1017.49999999975
 21
923.5125442357781
 31
0.0
  0
LINE
  5
33F
330
1F
100
AcDbEntity
  8
LAY-1
  6
HIDDEN
 62
     7
100
AcDbLine
 10
1064.499999999751
 20
941.9125442357777
 30
0.0
 11
1068.499999999752
 21
941.9125442357777
 31
0.0
  0
LINE
  5
340
330
1F
100
AcDbEntity
  8
LAY-1
  6
HIDDEN
 62
     7
100
AcDbLine
 10
1063.499999999751
 20
940.9125442357777
 30
0.0
 11
1069.499999999752
 21
940.9125442357777
 31
0.0
  0
LINE
  5
341
330
1F
100
AcDbEntity
  8
LAY-1
  6
HIDDEN
 62
     7
100
AcDbLine
 10
1069.49999999975
 20
940.9125442357782
 30
0.0
 11
1069.49999999975
 21
923.5125442357781
 31
0.0
  0
LINE
  5
342
330
1F
100
AcDbEntity
  8
LAY-1
  6
HIDDEN
 62
     7
100
AcDbLine
 10
1063.49999999975
 20
940.9125442357782
 30
0.0
 11
1063.49999999975
 21
923.5125442357781
 31
0.0
  0
LINE
  5
343
330
1F
100
AcDbEntity
  8
LAY-1
  6
HIDDEN
 62
     7
100
AcDbLine
 10
1063.49999999975
 20
940.9125442357782
 30
0.0
 11
1064.49999999975
 21
941.9125442357781
 31
0.0
  0
LINE
  5
344
330
1F
100
AcDbEntity
  8
LAY-1
  6
HIDDEN
 62
     7
100
AcDbLine
 10
1068.49999999975
 20
941.9125442357781
 30
0.0
 11
1069.49999999975
 21
940.9125442357782
 31
0.0
  0
LINE
  5
345
330
1F
100
AcDbEntity
  8
LAY-1
  6
HIDDEN
 62
     7
100
AcDbLine
 10
1068.49999999975
 20
941.9125442357781
 30
0.0
 11
1068.49999999975
 21
923.5125442357781
 31
0.0
  0
LINE
  5
346
330
1F
100
AcDbEntity
  8
LAY-1
  6
HIDDEN
 62
     7
100
AcDbLine
 10
1064.49999999975
 20
941.9125442357781
 30
0.0
 11
1064.49999999975
 21
923.5125442357781
 31
0.0
  0
LINE
  5
347
330
1F
100
AcDbEntity
  8
LAY-1
  6
HIDDEN
 62
     7
100
AcDbLine
 10
989.49999999976
 20
903.5125442357721
 30
0.0
 11
993.8188973055603
 21
903.5125442357721
 31
0.0
  0
LINE
  5
348
330
1F
100
AcDbEntity
  8
LAY-1
  6
HIDDEN
 62
     7
100
AcDbLine
 10
1016.499999999751
 20
942.5162724488048
 30
0.0
 11
1016.499999999751
 21
940.9125442357782
 31
0.0
  0
LINE
  5
349
330
1F
100
AcDbEntity
  8
LAY-1
  6
HIDDEN
 62
     7
100
AcDbLine
 10
1017.499999999751
 20
942.5337275137332
 30
0.0
 11
1017.499999999751
 21
941.9125442357781
 31
0.0
  0
LINE
  5
34A
330
1F
100
AcDbEntity
  8
LAY-1
  6
HIDDEN
 62
     7
100
AcDbLine
 10
1021.499999999752
 20
942.6035477734462
 30
0.0
 11
1021.499999999752
 21
941.9125442357781
 31
0.0
  0
LINE
  5
34B
330
1F
100
AcDbEntity
  8
LAY-1
  6
HIDDEN
 62
     7
100
AcDbLine
 10
1022.499999999752
 20
942.6210028383744
 30
0.0
 11
1022.499999999752
 21
940.9125442357782
 31
0.0
  0
LINE
  5
34C
330
1F
100
AcDbEntity
  8
LAY-1
  6
HIDDEN
 62
     7
100
AcDbLine
 10
1063.499999999751
 20
943.3366605004318
 30
0.0
 11
1063.499999999751
 21
940.9125442357782
 31
0.0
  0
LINE
  5
34D
330
1F
100
AcDbEntity
  8
LAY-1
  6
HIDDEN
 62
     7
100
AcDbLine
 10
1064.499999999751
 20
943.35411556536
 30
0.0
 11
1064.499999999751
 21
941.9125442357781
 31
0.0
  0
LINE
  5
34E
330
1F
100
AcDbEntity
  8
LAY-1
  6
HIDDEN
 62
     7
100
AcDbLine
 10
1068.499999999752
 20
943.4239358250729
 30
0.0
 11
1068.499999999752
 21
941.9125442357781
 31
0.0
  0
LINE
  5
34F
330
1F
100
AcDbEntity
  8
LAY-1
  6
HIDDEN
 62
     7
100
AcDbLine
 10
1069.499999999752
 20
943.4413908900012
 30
0.0
 11
1069.499999999752
 21
940.9125442357782
 31
0.0
  0
LINE
  5
350
330
1F
100
AcDbEntity
  8
LAY-1
  6
HIDDEN
 62
     7
100
AcDbLine
 10
1015.499999999751
 20
926.8696749896267
 30
0.0
 11
1015.499999999751
 21
923.5125442357776
 31
0.0
  0
LINE
  5
351
330
1F
100
AcDbEntity
  8
LAY-1
  6
HIDDEN
 62
     7
100
AcDbLine
 10
1023.49999999975
 20
926.8252698933867
 30
0.0
 11
1023.49999999975
 21
923.5125442357776
 31
0.0
  0
LINE
  5
352
330
1F
100
AcDbEntity
  8
LAY-1
  6
HIDDEN
 62
     7
100
AcDbLine
 10
1011.499999999749
 20
926.891877537747
 30
0.0
 11
1079.499999999749
 21
926.5144342197045
 31
0.0
  0
LINE
  5
353
330
1F
100
AcDbEntity
  8
LAY-1
  6
HIDDEN
 62
     7
100
AcDbLine
 10
989.4999999997499
 20
903.5125442357721
 30
0.0
 11
989.4999999997499
 21
913.00000000001
 31
0.0
  0
LINE
  5
354
330
1F
100
AcDbEntity
  8
LAY-1
  6
HIDDEN
 62
     7
100
AcDbLine
 10
988.4999999997499
 20
904.5125442357818
 30
0.0
 11
988.4999999997499
 21
913.00000000001
 31
0.0
  0
ARC
  5
355
330
1F
100
AcDbEntity
  8
LAY-1
  6
HIDDEN
 62
     7
100
AcDbCircle
 10
984.3038475770254
 20
912.5125442357694
 30
0.0
 40
10.39230484542481
100
AcDbArc
 50
300.0000000001422
 51
59.99999999976121
  0
ARC
  5
356
330
1F
100
AcDbEntity
  8
LAY-1
  6
HIDDEN
 62
     7
100
AcDbCircle
 10
984.0339873315997
 20
912.5125442357771
 30
0.0
 40
9.162165090850557
100
AcDbArc
 50
299.1725081650579
 51
53.37427541886593
  0
LINE
  5
357
330
1F
100
AcDbEntity
  8
LAY-1
  6
CONTINUOUS
 62
     7
100
AcDbLine
 10
1031.499999999756
 20
928.5125442357767
 30
0.0
 11
1033.999999999751
 21
931.0125442357707
 31
0.0
  0
ARC
  5
358
330
1F
100
AcDbEntity
  8
LAY-1
  6
CONTINUOUS
 62
     7
100
AcDbCircle
 10
1033.99999999975
 20
929.5125442357767
 30
0.0
 40
1.0
100
AcDbArc
 50
270.0
 51
0.0
  0
CIRCLE
  5
359
330
1F
100
AcDbEntity
  8
LAY-1
  6
CONTINUOUS
 62
     7
100
AcDbCircle
 10
1033.24999999975
 20
930.26254423578
 30
0.0
 40
1.75
  0
LINE
  5
35A
330
1F
100
AcDbEntity
  8
LAY-1
  6
CONTINUOUS
 62
     7
100
AcDbLine
 10
1037.999999999753
 20
939.555747077091
 30
0.0
 11
1040.99999999975
 21
937.2537661131555
 31
0.0
  0
LINE
  5
35B
330
1F
100
AcDbEntity
  8
LAY-1
  6
CONTINUOUS
 62
     7
100
AcDbLine
 10
1041.999999999744
 20
939.5125442357772
 30
0.0
 11
1041.999999999744
 21
936.5125442357771
 31
0.0
  0
LINE
  5
35C
330
1F
100
AcDbEntity
  8
LAY-1
  6
CONTINUOUS
 62
     7
100
AcDbLine
 10
1040.999999999744
 20
937.25376611316
 30
0.0
 11
1040.999999999744
 21
936.5125442357771
 31
0.0
  0
LINE
  5
35D
330
1F
100
AcDbEntity
  8
LAY-1
  6
CONTINUOUS
 62
     7
100
AcDbLine
 10
1039.999999999744
 20
938.0210931011388
 30
0.0
 11
1039.999999999744
 21
936.5125442357771
 31
0.0
  0
CIRCLE
  5
35E
330
1F
100
AcDbEntity
  8
LAY-1
  6
CONTINUOUS
 62
     7
100
AcDbCircle
 10
1040.79999999974
 20
938.3125442357768
 30
0.0
 40
1.199999999999989
  0
LINE
  5
35F
330
1F
100
AcDbEntity
  8
LAY-1
  6
CONTINUOUS
 62
     7
100
AcDbLine
 10
1040.999999999744
 20
936.5125442357771
 30
0.0
 11
1040.999999999744
 21
929.5125442357772
 31
0.0
  0
LINE
  5
360
330
1F
100
AcDbEntity
  8
LAY-1
  6
CONTINUOUS
 62
     7
100
AcDbLine
 10
1039.999999999744
 20
930.0898945049667
 30
0.0
 11
1039.999999999744
 21
928.5125442357767
 31
0.0
  0
LINE
  5
361
330
1F
100
AcDbEntity
  8
LAY-1
  6
CONTINUOUS
 62
     7
100
AcDbLine
 10
1060.999999999744
 20
936.5125442357771
 30
0.0
 11
1060.999999999744
 21
929.5125442357772
 31
0.0
  0
LINE
  5
362
330
1F
100
AcDbEntity
  8
LAY-1
  6
CONTINUOUS
 62
     7
100
AcDbLine
 10
1061.999999999744
 20
930.0898945049667
 30
0.0
 11
1061.999999999744
 21
928.5125442357771
 31
0.0
  0
LINE
  5
363
330
1F
100
AcDbEntity
  8
LAY-1
  6
CONTINUOUS
 62
     7
100
AcDbLine
 10
1059.999999999744
 20
939.5125442357772
 30
0.0
 11
1059.999999999744
 21
936.5125442357771
 31
0.0
  0
LINE
  5
364
330
1F
100
AcDbEntity
  8
LAY-1
  6
CONTINUOUS
 62
     7
100
AcDbLine
 10
1061.999999999744
 20
938.0210931011302
 30
0.0
 11
1061.999999999744
 21
936.5125442357771
 31
0.0
  0
LINE
  5
365
330
1F
100
AcDbEntity
  8
LAY-1
  6
CONTINUOUS
 62
     7
100
AcDbLine
 10
1060.999999999744
 20
937.2537661131514
 30
0.0
 11
1060.999999999744
 21
936.5125442357771
 31
0.0
  0
CIRCLE
  5
366
330
1F
100
AcDbEntity
  8
LAY-1
  6
CONTINUOUS
 62
     7
100
AcDbCircle
 10
1061.19999999975
 20
938.3125442357768
 30
0.0
 40
1.199999999999989
  0
LINE
  5
367
330
1F
100
AcDbEntity
  8
LAY-1
  6
CONTINUOUS
 62
     7
100
AcDbLine
 10
1070.499999999746
 20
928.5125442357767
 30
0.0
 11
1067.999999999752
 21
931.0125442357707
 31
0.0
  0
ARC
  5
368
330
1F
100
AcDbEntity
  8
LAY-1
  6
CONTINUOUS
 62
     7
100
AcDbCircle
 10
1067.99999999975
 20
929.5125442357767
 30
0.0
 40
1.0
100
AcDbArc
 50
180.0
 51
270.0
  0
CIRCLE
  5
369
330
1F
100
AcDbEntity
  8
LAY-1
  6
CONTINUOUS
 62
     7
100
AcDbCircle
 10
1068.749999999753
 20
930.26254423578
 30
0.0
 40
1.75
  0
LINE
  5
36A
330
1F
100
AcDbEntity
  8
LAY-1
  6
CONTINUOUS
 62
     7
100
AcDbLine
 10
978.0000000000001
 20
913.0000000000001
 30
0.0
 11
982.7500000000009
 21
913.0000000000001
 31
0.0
  0
ARC
  5
36B
330
1F
100
AcDbEntity
  8
LAY-1
  6
CONTINUOUS
 62
     7
100
AcDbCircle
 10
953.2936434289968
 20
910.7611482864314
 30
0.0
 40
20.0
100
AcDbArc
 50
25.25317262377013
 51
65.7751981440087
  0
LINE
  5
36C
330
1F
100
AcDbEntity
  8
LAY-1
  6
CONTINUOUS
 62
     7
100
AcDbLine
 10
982.7500000000009
 20
913.0000000000001
 30
0.0
 11
982.7500000000009
 21
917.0
 31
0.0
  0
LINE
  5
36D
330
1F
100
AcDbEntity
  8
LAY-1
  6
CONTINUOUS
 62
     7
100
AcDbLine
 10
988.5
 20
929.0
 30
0.0
 11
987.8999999999996
 21
926.5
 31
0.0
  0
ARC
  5
36E
330
1F
100
AcDbEntity
  8
LAY-1
  6
CONTINUOUS
 62
     7
100
AcDbCircle
 10
995.2046490751436
 20
912.2952796856944
 30
0.0
 40
18.0
100
AcDbArc
 50
111.868677965069
 51
156.6922890278653
  0
ARC
  5
36F
330
1F
100
AcDbEntity
  8
LAY-1
  6
CONTINUOUS
 62
     7
100
AcDbCircle
 10
975.0
 20
921.0
 30
0.0
 40
4.0
100
AcDbArc
 50
205.2531726237694
 51
336.692289027865
  0
ARC
  5
370
330
1F
100
AcDbEntity
  8
LAY-1
  6
CONTINUOUS
 62
     7
100
AcDbCircle
 10
991.6527165160051
 20
918.3197115729026
 30
0.0
 40
9.0
100
AcDbArc
 50
114.643343726691
 51
188.4319478448438
  0
LINE
  5
371
330
1F
100
AcDbEntity
  8
LAY-1
  6
CONTINUOUS
 62
     7
100
AcDbLine
 10
967.2499999999991
 20
913.0000000000001
 30
0.0
 11
967.2499999999991
 21
917.0
 31
0.0
  0
LINE
  5
372
330
1F
100
AcDbEntity
  8
LAY-1
  6
CONTINUOUS
 62
     7
100
AcDbLine
 10
961.5
 20
929.0
 30
0.0
 11
962.1000000000004
 21
926.5
 31
0.0
  0
ARC
  5
373
330
1F
100
AcDbEntity
  8
LAY-1
  6
CONTINUOUS
 62
     7
100
AcDbCircle
 10
958.3472834839949
 20
918.3197115729026
 30
0.0
 40
9.0
100
AcDbArc
 50
351.5680521551562
 51
65.35665627330906
  0
LINE
  5
374
330
1F
100
AcDbEntity
  8
LAY-1
  6
CONTINUOUS
 62
     7
100
AcDbLine
 10
989.4999999997517
 20
921.5125442357703
 30
0.0
 11
988.4999999997499
 21
920.5125442357685
 31
0.0
  0
LINE
  5
375
330
1F
100
AcDbEntity
  8
LAY-1
  6
CONTINUOUS
 62
     7
100
AcDbLine
 10
989.4999999997509
 20
913.00000000001
 30
0.0
 11
989.4999999997499
 21
921.5125442357721
 31
0.0
  0
LINE
  5
376
330
1F
100
AcDbEntity
  8
LAY-1
  6
CONTINUOUS
 62
     7
100
AcDbLine
 10
988.4999999997508
 20
913.00000000001
 30
0.0
 11
988.4999999997499
 21
920.5125442357721
 31
0.0
  0
LINE
  5
377
330
1F
100
AcDbEntity
  8
LAY-1
  6
CONTINUOUS
 62
     7
100
AcDbLine
 10
971.7500000000055
 20
898.0000000000001
 30
0.0
 11
978.2499999999973
 21
898.0000000000001
 31
0.0
  0
LINE
  5
378
330
1F
100
AcDbEntity
  8
LAY-1
  6
CONTINUOUS
 62
     7
100
AcDbLine
 10
978.2499999999973
 20
913.0000000000001
 30
0.0
 11
978.2499999999973
 21
898.0000000000001
 31
0.0
  0
LINE
  5
379
330
1F
100
AcDbEntity
  8
LAY-1
  6
CONTINUOUS
 62
     7
100
AcDbLine
 10
971.7500000000055
 20
913.0000000000001
 30
0.0
 11
971.7500000000055
 21
898.0000000000001
 31
0.0
  0
LINE
  5
37A
330
1F
100
AcDbEntity
  8
LAY-1
  6
CONTINUOUS
 62
     7
100
AcDbLine
 10
978.0000000000001
 20
900.0
 30
0.0
 11
972.0
 21
900.0
 31
0.0
  0
LINE
  5
37B
330
1F
100
AcDbEntity
  8
LAY-1
  6
CONTINUOUS
 62
     7
100
AcDbLine
 10
978.0000000000001
 20
913.0000000000001
 30
0.0
 11
978.0000000000001
 21
900.0
 31
0.0
  0
LINE
  5
37C
330
1F
100
AcDbEntity
  8
LAY-1
  6
CONTINUOUS
 62
     7
100
AcDbLine
 10
972.0
 20
913.0000000000001
 30
0.0
 11
972.0
 21
900.0
 31
0.0
  0
LINE
  5
37D
330
1F
100
AcDbEntity
  8
LAY-1
  6
CONTINUOUS
 62
     7
100
AcDbLine
 10
967.25
 20
913.0000000000001
 30
0.0
 11
972.0
 21
913.0000000000001
 31
0.0
  0
LINE
  5
37E
330
1F
100
AcDbEntity
  8
LAY-1
  6
CONTINUOUS
 62
     7
100
AcDbLine
 10
966.5000000000846
 20
913.0000000000001
 30
0.0
 11
967.25
 21
913.0000000000001
 31
0.0
  0
LINE
  5
37F
330
1F
100
AcDbEntity
  8
LAY-1
  6
CONTINUOUS
 62
     7
100
AcDbLine
 10
1748.249999999995
 20
898.0000000000001
 30
0.0
 11
1741.750000000003
 21
898.0000000000001
 31
0.0
  0
LINE
  5
380
330
1F
100
AcDbEntity
  8
LAY-1
  6
CONTINUOUS
 62
     7
100
AcDbLine
 10
1741.750000000003
 20
913.0000000000001
 30
0.0
 11
1741.750000000003
 21
898.0000000000001
 31
0.0
  0
LINE
  5
381
330
1F
100
AcDbEntity
  8
LAY-1
  6
CONTINUOUS
 62
     7
100
AcDbLine
 10
1748.249999999995
 20
913.0000000000001
 30
0.0
 11
1748.249999999995
 21
898.0000000000001
 31
0.0
  0
LINE
  5
382
330
1F
100
AcDbEntity
  8
LAY-1
  6
CONTINUOUS
 62
     7
100
AcDbLine
 10
1748.0
 20
900.0
 30
0.0
 11
1742.0
 21
900.0
 31
0.0
  0
LINE
  5
383
330
1F
100
AcDbEntity
  8
LAY-1
  6
CONTINUOUS
 62
     7
100
AcDbLine
 10
1748.0
 20
913.0000000000001
 30
0.0
 11
1748.0
 21
900.0
 31
0.0
  0
LINE
  5
384
330
1F
100
AcDbEntity
  8
LAY-1
  6
CONTINUOUS
 62
     7
100
AcDbLine
 10
1742.0
 20
913.0000000000001
 30
0.0
 11
1742.0
 21
900.0
 31
0.0
  0
LINE
  5
385
330
1F
100
AcDbEntity
  8
LAY-1
  6
CONTINUOUS
 62
     7
100
AcDbLine
 10
1748.0
 20
913.0000000000001
 30
0.0
 11
1752.750000000001
 21
913.0000000000001
 31
0.0
  0
LINE
  5
386
330
1F
100
AcDbEntity
  8
LAY-1
  6
CONTINUOUS
 62
     7
100
AcDbLine
 10
1737.25
 20
913.0000000000001
 30
0.0
 11
1742.0
 21
913.0000000000001
 31
0.0
  0
ARC
  5
387
330
1F
100
AcDbEntity
  8
LAY-1
  6
CONTINUOUS
 62
     7
100
AcDbCircle
 10
1723.293643428997
 20
910.7611482864314
 30
0.0
 40
20.0
100
AcDbArc
 50
25.25317262377013
 51
65.7751981440087
  0
LINE
  5
388
330
1F
100
AcDbEntity
  8
LAY-1
  6
CONTINUOUS
 62
     7
100
AcDbLine
 10
1752.750000000001
 20
913.0000000000001
 30
0.0
 11
1752.750000000001
 21
917.0
 31
0.0
  0
LINE
  5
389
330
1F
100
AcDbEntity
  8
LAY-1
  6
CONTINUOUS
 62
     7
100
AcDbLine
 10
1758.5
 20
929.0
 30
0.0
 11
1757.9
 21
926.5
 31
0.0
  0
ARC
  5
38A
330
1F
100
AcDbEntity
  8
LAY-1
  6
CONTINUOUS
 62
     7
100
AcDbCircle
 10
1765.204649075144
 20
912.2952796856944
 30
0.0
 40
18.0
100
AcDbArc
 50
111.868677965069
 51
156.6922890278653
  0
ARC
  5
38B
330
1F
100
AcDbEntity
  8
LAY-1
  6
CONTINUOUS
 62
     7
100
AcDbCircle
 10
1745.0
 20
921.0
 30
0.0
 40
4.0
100
AcDbArc
 50
205.2531726237694
 51
336.692289027865
  0
ARC
  5
38C
330
1F
100
AcDbEntity
  8
LAY-1
  6
CONTINUOUS
 62
     7
100
AcDbCircle
 10
1761.652716516005
 20
918.3197115729026
 30
0.0
 40
9.0
100
AcDbArc
 50
114.643343726691
 51
188.4319478448438
  0
LINE
  5
38D
330
1F
100
AcDbEntity
  8
LAY-1
  6
CONTINUOUS
 62
     7
100
AcDbLine
 10
1737.249999999999
 20
913.0000000000001
 30
0.0
 11
1737.249999999999
 21
917.0
 31
0.0
  0
LINE
  5
38E
330
1F
100
AcDbEntity
  8
LAY-1
  6
CONTINUOUS
 62
     7
100
AcDbLine
 10
1731.5
 20
929.0
 30
0.0
 11
1732.1
 21
926.5
 31
0.0
  0
ARC
  5
38F
330
1F
100
AcDbEntity
  8
LAY-1
  6
CONTINUOUS
 62
     7
100
AcDbCircle
 10
1728.347283483995
 20
918.3197115729026
 30
0.0
 40
9.0
100
AcDbArc
 50
351.5680521551562
 51
65.35665627330906
  0
LINE
  5
390
330
1F
100
AcDbEntity
  8
LAY-1
  6
CONTINUOUS
 62
     7
100
AcDbLine
 10
1737.25
 20
913.0000000000001
 30
0.0
 11
1736.5
 21
913.0000000000001
 31
0.0
  0
LINE
  5
391
330
1F
100
AcDbEntity
  8
LAY-1
  6
CONTINUOUS
 62
     7
100
AcDbLine
 10
1753.499999999915
 20
913.0000000000001
 30
0.0
 11
1752.75
 21
913.0000000000001
 31
0.0
  0
LINE
  5
392
330
1F
100
AcDbEntity
  8
LAY-1
  6
CONTINUOUS
 62
     7
100
AcDbLine
 10
989.2474559015945
 20
1829.171901949506
 30
0.0
 11
1018.907659429468
 21
1843.638149793546
 31
0.0
  0
ARC
  5
393
330
1F
100
AcDbEntity
  8
LAY-1
  6
CONTINUOUS
 62
     7
100
AcDbCircle
 10
1360.000000000001
 20
2010.0
 30
0.0
 40
405.5
100
AcDbArc
 50
334.8478106597473
 51
205.1521893402529
  0
ARC
  5
394
330
1F
100
AcDbEntity
  8
LAY-1
  6
CONTINUOUS
 62
     7
100
AcDbCircle
 10
1360.000000000001
 20
2010.0
 30
0.0
 40
401.5000000000001
100
AcDbArc
 50
334.8478106597473
 51
81.40554794847952
  0
ARC
  5
395
330
1F
100
AcDbEntity
  8
LAY-1
  6
CONTINUOUS
 62
     7
100
AcDbCircle
 10
1360.000000000001
 20
2010.0
 30
0.0
 40
395.5
100
AcDbArc
 50
334.8478106597473
 51
80.536299237926
  0
ARC
  5
396
330
1F
100
AcDbEntity
  8
LAY-1
  6
CONTINUOUS
 62
     7
100
AcDbCircle
 10
1360.000000000001
 20
2010.0
 30
0.0
 40
379.5
100
AcDbArc
 50
205.9999999999999
 51
311.0669091382941
  0
ARC
  5
397
330
1F
100
AcDbEntity
  8
LAY-1
  6
CONTINUOUS
 62
     7
100
AcDbCircle
 10
1360.000000000001
 20
2010.0
 30
0.0
 40
412.5
100
AcDbArc
 50
205.9999999999999
 51
311.0669091382941
  0
ARC
  5
398
330
1F
100
AcDbEntity
  8
LAY-1
  6
CONTINUOUS
 62
     7
100
AcDbCircle
 10
1360.000000000001
 20
2010.0
 30
0.0
 40
373.5
100
AcDbArc
 50
205.1521893402528
 51
334.8478106597473
  0
LINE
  5
399
330
1F
100
AcDbEntity
  8
LAY-1
  6
CONTINUOUS
 62
     7
100
AcDbLine
 10
1730.752544098407
 20
1829.171901949506
 30
0.0
 11
1701.092340570534
 21
1843.638149793546
 31
0.0
  0
LINE
  5
39A
330
1F
100
AcDbEntity
  8
LAY-1
  6
CONTINUOUS
 62
     7
100
AcDbLine
 10
1670.500038400161
 20
1791.802896092779
 30
0.0
 11
1697.500041739306
 21
1772.829234883456
 31
0.0
  0
LINE
  5
39B
330
1F
100
AcDbEntity
  8
LAY-1
  6
CONTINUOUS
 62
     7
100
AcDbLine
 10
992.9486866752632
 20
1837.652724458479
 30
0.0
 11
996.5694147968389
 21
1839.352820887988
 31
0.0
  0
LINE
  5
39C
330
1F
100
AcDbEntity
  8
LAY-1
  6
CONTINUOUS
 62
     7
100
AcDbLine
 10
1002.000506979202
 20
1841.902965532252
 30
0.0
 11
1021.914511647868
 21
1851.253495894554
 31
0.0
  0
LINE
  5
39D
330
1F
100
AcDbEntity
  8
LAY-1
  6
CONTINUOUS
 62
     7
100
AcDbLine
 10
1727.051313324739
 20
1837.652724458479
 30
0.0
 11
1723.430585203163
 21
1839.352820887988
 31
0.0
  0
LINE
  5
39E
330
1F
100
AcDbEntity
  8
LAY-1
  6
CONTINUOUS
 62
     7
100
AcDbLine
 10
1694.014580783443
 20
1767.945233833206
 30
0.0
 11
1667.293414320768
 21
1787.30961512655
 31
0.0
  0
LINE
  5
39F
330
1F
100
AcDbEntity
  8
LAY-1
  6
CONTINUOUS
 62
     7
100
AcDbLine
 10
1635.482706511204
 20
1702.973081940261
 30
0.0
 11
1613.444089990307
 21
1727.53523538504
 31
0.0
  0
LINE
  5
3A0
330
1F
100
AcDbEntity
  8
LAY-1
  6
CONTINUOUS
 62
     7
100
AcDbLine
 10
1630.987716916519
 20
1698.998541353304
 30
0.0
 11
1609.308699563197
 21
1723.87865804504
 31
0.0
  0
ARC
  5
3A1
330
1F
100
AcDbEntity
  8
LAY-1
  6
CONTINUOUS
 62
     7
100
AcDbCircle
 10
1360.000000000001
 20
2010.0
 30
0.0
 40
379.5
100
AcDbArc
 50
311.9003316845122
 51
324.069786309589
  0
ARC
  5
3A2
330
1F
100
AcDbEntity
  8
LAY-1
  6
CONTINUOUS
 62
     7
100
AcDbCircle
 10
1360.000000000001
 20
2010.0
 30
0.0
 40
412.5
100
AcDbArc
 50
311.9003316845121
 51
324.0697863095891
  0
ARC
  5
3A3
330
1F
100
AcDbEntity
  8
LAY-1
  6
CONTINUOUS
 62
     7
100
AcDbCircle
 10
1360.000000000001
 20
2010.0
 30
0.0
 40
379.5
100
AcDbArc
 50
324.9032088558072
 51
334.0000000000002
  0
LINE
  5
3A4
330
1F
100
AcDbEntity
  8
LAY-1
  6
CONTINUOUS
 62
     7
100
AcDbLine
 10
1717.999493020799
 20
1841.902965532252
 30
0.0
 11
1698.085488352133
 21
1851.253495894554
 31
0.0
  0
ARC
  5
3A5
330
1F
100
AcDbEntity
  8
LAY-1
  6
CONTINUOUS
 62
     7
100
AcDbCircle
 10
1360.000000000001
 20
2010.0
 30
0.0
 40
412.5
100
AcDbArc
 50
324.9032088558072
 51
334.0000000000002
  0
ARC
  5
3A6
330
1F
100
AcDbEntity
  8
LAY-1
  6
CONTINUOUS
 62
     7
100
AcDbCircle
 10
1360.000000000001
 20
2010.0
 30
0.0
 40
385.5000000000004
100
AcDbArc
 50
81.40554794847952
 51
98.5944520515204
  0
ARC
  5
3A7
330
1F
100
AcDbEntity
  8
LAY-1
  6
CONTINUOUS
 62
     7
100
AcDbCircle
 10
1360.000000000001
 20
2010.0
 30
0.0
 40
379.5000000000002
100
AcDbArc
 50
80.49964807859662
 51
99.50035192140338
  0
LINE
  5
3A8
330
1F
100
AcDbEntity
  8
LAY-1
  6
CONTINUOUS
 62
     7
100
AcDbLine
 10
1300.000000000001
 20
2406.991498649531
 30
0.0
 11
1302.391033623911
 21
2391.171164954905
 31
0.0
  0
LINE
  5
3A9
330
1F
100
AcDbEntity
  8
LAY-1
  6
CONTINUOUS
 62
     7
100
AcDbLine
 10
1420.0
 20
2406.991498649531
 30
0.0
 11
1417.60896637609
 21
2391.171164954905
 31
0.0
  0
LINE
  5
3AA
330
1F
100
AcDbEntity
  8
LAY-1
  6
CONTINUOUS
 62
     7
100
AcDbLine
 10
1297.362134584728
 20
2384.295001056945
 30
0.0
 11
1294.97081416151
 21
2400.117232366354
 31
0.0
  0
LINE
  5
3AB
330
1F
100
AcDbEntity
  8
LAY-1
  6
CONTINUOUS
 62
     7
100
AcDbLine
 10
1425.029185838491
 20
2400.117232366354
 30
0.0
 11
1422.637865415273
 21
2384.295001056945
 31
0.0
  0
ARC
  5
3AC
330
1F
100
AcDbEntity
  8
LAY-1
  6
CONTINUOUS
 62
     7
100
AcDbCircle
 10
1360.000000000001
 20
2010.0
 30
0.0
 40
395.5
100
AcDbArc
 50
99.46370076207393
 51
205.1521893402527
  0
ARC
  5
3AD
330
1F
100
AcDbEntity
  8
LAY-1
  6
CONTINUOUS
 62
     7
100
AcDbCircle
 10
1360.000000000001
 20
2010.0
 30
0.0
 40
401.5000000000001
100
AcDbArc
 50
98.59445205152052
 51
205.1521893402527
  0
LINE
  5
3AE
330
1F
100
AcDbEntity
  8
LAY-1
  6
CONTINUOUS
 62
     7
100
AcDbLine
 10
1517.684812204602
 20
2201.625937701556
 30
0.0
 11
1578.495995386645
 21
2262.437120883599
 31
0.0
  0
LINE
  5
3AF
330
1F
100
AcDbEntity
  8
LAY-1
  6
CONTINUOUS
 62
     7
100
AcDbLine
 10
1551.625937701558
 20
2167.684812204603
 30
0.0
 11
1612.437120883599
 21
2228.495995386645
 31
0.0
  0
LINE
  5
3B0
330
1F
100
AcDbEntity
  8
LAY-1
  6
CONTINUOUS
 62
     7
100
AcDbLine
 10
1578.495995386645
 20
2262.437120883599
 30
0.0
 11
1612.437120883599
 21
2228.495995386645
 31
0.0
  0
LINE
  5
3B1
330
1F
100
AcDbEntity
  8
LAY-1
  6
CONTINUOUS
 62
     7
100
AcDbLine
 10
1517.684812204602
 20
2201.625937701556
 30
0.0
 11
1551.625937701558
 21
2167.684812204603
 31
0.0
  0
LINE
  5
3B2
330
1F
100
AcDbEntity
  8
LAY-1
  6
CONTINUOUS
 62
     7
100
AcDbLine
 10
1107.562879116403
 20
2228.495995386644
 30
0.0
 11
1141.504004613356
 21
2262.437120883599
 31
0.0
  0
LINE
  5
3B3
330
1F
100
AcDbEntity
  8
LAY-1
  6
CONTINUOUS
 62
     7
100
AcDbLine
 10
1168.374062298445
 20
2167.684812204602
 30
0.0
 11
1202.315187795399
 21
2201.625937701557
 31
0.0
  0
LINE
  5
3B4
330
1F
100
AcDbEntity
  8
LAY-1
  6
CONTINUOUS
 62
     7
100
AcDbLine
 10
1202.315187795399
 20
2201.625937701557
 30
0.0
 11
1141.504004613356
 21
2262.437120883599
 31
0.0
  0
LINE
  5
3B5
330
1F
100
AcDbEntity
  8
LAY-1
  6
CONTINUOUS
 62
     7
100
AcDbLine
 10
1168.374062298445
 20
2167.684812204602
 30
0.0
 11
1107.562879116403
 21
2228.495995386644
 31
0.0
  0
LINE
  5
3B6
330
1F
100
AcDbEntity
  8
LAY-1
  6
CONTINUOUS
 62
     7
100
AcDbLine
 10
1141.504004613356
 20
1757.562879116402
 30
0.0
 11
1107.562879116402
 21
1791.504004613356
 31
0.0
  0
LINE
  5
3B7
330
1F
100
AcDbEntity
  8
LAY-1
  6
CONTINUOUS
 62
     7
100
AcDbLine
 10
1202.315187795399
 20
1818.374062298445
 30
0.0
 11
1168.374062298444
 21
1852.315187795398
 31
0.0
  0
LINE
  5
3B8
330
1F
100
AcDbEntity
  8
LAY-1
  6
CONTINUOUS
 62
     7
100
AcDbLine
 10
1168.374062298444
 20
1852.315187795398
 30
0.0
 11
1107.562879116403
 21
1791.504004613356
 31
0.0
  0
LINE
  5
3B9
330
1F
100
AcDbEntity
  8
LAY-1
  6
CONTINUOUS
 62
     7
100
AcDbLine
 10
1202.315187795399
 20
1818.374062298445
 30
0.0
 11
1141.504004613356
 21
1757.562879116402
 31
0.0
  0
LINE
  5
3BA
330
1F
100
AcDbEntity
  8
LAY-1
  6
CONTINUOUS
 62
     7
100
AcDbLine
 10
1612.437120883599
 20
1791.504004613357
 30
0.0
 11
1578.495995386646
 21
1757.562879116402
 31
0.0
  0
LINE
  5
3BB
330
1F
100
AcDbEntity
  8
LAY-1
  6
CONTINUOUS
 62
     7
100
AcDbLine
 10
1551.625937701557
 20
1852.315187795399
 30
0.0
 11
1517.684812204603
 21
1818.374062298444
 31
0.0
  0
LINE
  5
3BC
330
1F
100
AcDbEntity
  8
LAY-1
  6
CONTINUOUS
 62
     7
100
AcDbLine
 10
1517.684812204603
 20
1818.374062298444
 30
0.0
 11
1578.495995386646
 21
1757.562879116402
 31
0.0
  0
LINE
  5
3BD
330
1F
100
AcDbEntity
  8
LAY-1
  6
CONTINUOUS
 62
     7
100
AcDbLine
 10
1551.625937701557
 20
1852.315187795399
 30
0.0
 11
1612.437120883599
 21
1791.504004613357
 31
0.0
  0
LINE
  5
3BE
330
1F
100
AcDbEntity
  8
LAY-1
  6
PHANTOM
 62
     7
100
AcDbLine
 10
948.4999999981001
 20
941.3293280336297
 30
0.0
 11
947.4999999981001
 21
944.3123299528397
 31
0.0
  0
LINE
  5
3BF
330
1F
100
AcDbEntity
  8
LAY-1
  6
PHANTOM
 62
     7
100
AcDbLine
 10
948.4999999981001
 20
941.3293280336311
 30
0.0
 11
1360.0
 21
948.5120872516372
 31
0.0
  0
LINE
  5
3C0
330
1F
100
AcDbEntity
  8
LAY-1
  6
PHANTOM
 62
     7
100
AcDbLine
 10
1606.000000000011
 20
944.2181412792888
 30
0.0
 11
1360.0
 21
948.5120872516372
 31
0.0
  0
LINE
  5
3C1
330
1F
100
AcDbEntity
  8
LAY-1
  6
PHANTOM
 62
     7
100
AcDbLine
 10
1606.0
 20
944.2181412792897
 30
0.0
 11
1607.0
 21
947.2011431984597
 31
0.0
  0
LINE
  5
3C2
330
1F
100
AcDbEntity
  8
LAY-1
  6
PHANTOM
 62
     7
100
AcDbLine
 10
1693.9999999998
 20
942.6820955656099
 30
0.0
 11
1692.9999999998
 21
945.7000076146696
 31
0.0
  0
LINE
  5
3C3
330
1F
100
AcDbEntity
  8
LAY-1
  6
PHANTOM
 62
     7
100
AcDbLine
 10
1771.500000001894
 20
941.3293280336311
 30
0.0
 11
1693.9999999998
 21
942.6820955656067
 31
0.0
  0
LINE
  5
3C4
330
1F
100
AcDbEntity
  8
LAY-1
  6
PHANTOM
 62
     7
100
AcDbLine
 10
1771.5000000019
 20
941.3293280336297
 30
0.0
 11
1772.5000000019
 21
944.3123299528397
 31
0.0
  0
LINE
  5
3C5
330
1F
100
AcDbEntity
  8
LAY-255
  6
CONTINUOUS
 62
     7
100
AcDbLine
 10
3850.0
 20
219.9999999999999
 30
0.0
 11
2850.0
 21
219.9999999999999
 31
0.0
  0
LINE
  5
3C6
330
1F
100
AcDbEntity
  8
LAY-255
  6
CONTINUOUS
 62
     7
100
AcDbLine
 10
2888.0
 20
160.0
 30
0.0
 11
2968.0
 21
210.0
 31
0.0
  0
LINE
  5
3C7
330
1F
100
AcDbEntity
  8
LAY-255
  6
CONTINUOUS
 62
     7
100
AcDbLine
 10
2968.0
 20
210.0
 30
0.0
 11
3048.0
 21
160.0
 31
0.0
  0
LINE
  5
3C8
330
1F
100
AcDbEntity
  8
LAY-255
  6
CONTINUOUS
 62
     7
100
AcDbLine
 10
3048.0
 20
160.0
 30
0.0
 11
2968.0
 21
110.0
 31
0.0
  0
LINE
  5
3C9
330
1F
100
AcDbEntity
  8
LAY-255
  6
CONTINUOUS
 62
     7
100
AcDbLine
 10
2968.0
 20
110.0
 30
0.0
 11
2888.0
 21
160.0
 31
0.0
  0
LINE
  5
3CA
330
1F
100
AcDbEntity
  8
LAY-255
  6
CONTINUOUS
 62
     7
100
AcDbLine
 10
50.0
 20
100.0
 30
0.0
 11
3850.0
 21
100.0
 31
0.0
  0
LINE
  5
3CB
330
1F
100
AcDbEntity
  8
LAY-255
  6
CONTINUOUS
 62
     7
100
AcDbLine
 10
50.0
 20
2800.0
 30
0.0
 11
3850.0
 21
2800.0
 31
0.0
  0
LINE
  5
3CC
330
1F
100
AcDbEntity
  8
LAY-255
  6
CONTINUOUS
 62
     7
100
AcDbLine
 10
50.0
 20
100.0
 30
0.0
 11
50.0
 21
2800.0
 31
0.0
  0
LINE
  5
3CD
330
1F
100
AcDbEntity
  8
LAY-255
  6
CONTINUOUS
 62
     4
100
AcDbLine
 10
2850.0
 20
279.9999999999999
 30
0.0
 11
3850.0
 21
279.9999999999999
 31
0.0
  0
LINE
  5
3CE
330
1F
100
AcDbEntity
  8
LAY-255
  6
CONTINUOUS
 62
     4
100
AcDbLine
 10
3350.0
 20
279.9999999999999
 30
0.0
 11
3350.0
 21
220.0
 31
0.0
  0
POINT
  5
3CF
330
1F
100
AcDbEntity
  8
LAY-255
  6
CONTINUOUS
 62
     7
100
AcDbPoint
 10
2890.0
 20
299.9999999999998
 30
0.0
  0
POINT
  5
3D0
330
1F
100
AcDbEntity
  8
LAY-255
  6
CONTINUOUS
 62
     7
100
AcDbPoint
 10
2890.0
 20
450.0
 30
0.0
  0
POINT
  5
3D1
330
1F
100
AcDbEntity
  8
LAY-255
  6
CONTINUOUS
 62
     7
100
AcDbPoint
 10
2890.0
 20
399.9999999999999
 30
0.0
  0
POINT
  5
3D2
330
1F
100
AcDbEntity
  8
LAY-255
  6
CONTINUOUS
 62
     7
100
AcDbPoint
 10
2890.0
 20
349.9999999999998
 30
0.0
  0
LINE
  5
3D3
330
1F
100
AcDbEntity
  8
LAY-255
  6
CONTINUOUS
 62
     7
100
AcDbLine
 10
3850.0
 20
100.0
 30
0.0
 11
3850.0
 21
2800.0
 31
0.0
  0
LINE
  5
3D4
330
1F
100
AcDbEntity
  8
LAY-255
  6
CONTINUOUS
 62
     7
100
AcDbLine
 10
2850.0
 20
100.0
 30
0.0
 11
2850.0
 21
770.0
 31
0.0
  0
LINE
  5
3D5
330
1F
100
AcDbEntity
  8
LAY-255
  6
CONTINUOUS
 62
     7
100
AcDbLine
 10
3850.0
 20
770.0
 30
0.0
 11
2850.0
 21
770.0
 31
0.0
  0
LINE
  5
3D6
330
1F
100
AcDbEntity
  8
LAY-255
  6
CONTINUOUS
 62
     4
100
AcDbLine
 10
3830.0
 20
650.0
 30
0.0
 11
2870.0
 21
650.0
 31
0.0
  0
LINE
  5
3D7
330
1F
100
AcDbEntity
  8
LAY-255
  6
CONTINUOUS
 62
     4
100
AcDbLine
 10
3830.0
 20
710.0
 30
0.0
 11
2870.0
 21
710.0
 31
0.0
  0
POINT
  5
3D8
330
1F
100
AcDbEntity
  8
LAY-255
  6
CONTINUOUS
 62
     7
100
AcDbPoint
 10
2890.0
 20
600.0
 30
0.0
  0
POINT
  5
3D9
330
1F
100
AcDbEntity
  8
LAY-255
  6
CONTINUOUS
 62
     7
100
AcDbPoint
 10
3000.0
 20
660.0
 30
0.0
  0
POINT
  5
3DA
330
1F
100
AcDbEntity
  8
LAY-255
  6
CONTINUOUS
 62
     7
100
AcDbPoint
 10
3000.0
 20
720.0
 30
0.0
  0
POINT
  5
3DB
330
1F
100
AcDbEntity
  8
LAY-255
  6
CONTINUOUS
 62
     7
100
AcDbPoint
 10
2890.0
 20
550.0
 30
0.0
  0
POINT
  5
3DC
330
1F
100
AcDbEntity
  8
LAY-255
  6
CONTINUOUS
 62
     7
100
AcDbPoint
 10
2890.0
 20
500.0
 30
0.0
  0
TEXT
  5
3DD
330
1F
100
AcDbEntity
  8
LAY-255
  6
CONTINUOUS
 62
     7
100
AcDbText
 10
3081.3837890625
 20
155.4375
 30
0.0
 40
51.5625
  1
福西鋳物株式会社
 41
1.342691999659091
  7
EXCADSTD
100
AcDbText
  0
TEXT
  5
3DE
330
1F
100
AcDbEntity
  8
LAY-255
  6
CONTINUOUS
 62
     7
100
AcDbText
 10
3085.09375
 20
119.8125
 30
0.0
 40
17.1875
  1
ＦＵＫＵＮＩＳＨＩ
 41
1.204799226045263
  7
EXCADSTD
100
AcDbText
  0
TEXT
  5
3DF
330
1F
100
AcDbEntity
  8
LAY-255
  6
CONTINUOUS
 62
     7
100
AcDbText
 10
3327.191964285714
 20
119.8125
 30
0.0
 40
17.1875
  1
ＦＯＵＮＤＲＹ
 41
1.243252752978497
  7
EXCADSTD
100
AcDbText
  0
TEXT
  5
3E0
330
1F
100
AcDbEntity
  8
LAY-255
  6
CONTINUOUS
 62
     7
100
AcDbText
 10
3519.945914381009
 20
119.8125
 30
0.0
 40
17.1875
  1
ＣＯ.,ＬＴＤ.
 41
1.243831036226633
  7
EXCADSTD
100
AcDbText
  0
TEXT
  5
3E1
330
1F
100
AcDbEntity
  8
LAY-255
  6
CONTINUOUS
 62
     7
100
AcDbText
 10
2940.34375
 20
137.1875
 30
0.0
 40
51.5625
  1
S
 41
0.7582677563636363
  7
EXCADSTD
100
AcDbText
  0
TEXT
  5
3E2
330
1F
100
AcDbEntity
  8
LAY-255
  6
CONTINUOUS
 62
     7
100
AcDbText
 10
2971.046875
 20
137.4941037736
 30
0.0
 40
51.5625
  1
F
 41
0.7440945272727272
  7
EXCADSTD
100
AcDbText
  0
TEXT
  5
3E3
330
1F
100
AcDbEntity
  8
LAY-255
  6
CONTINUOUS
 62
     7
100
AcDbText
 10
3371.0546875
 20
244.2187499999999
 30
0.0
 40
25.78125
  1
縮尺
 41
1.080708718181818
  7
EXCADSTD
100
AcDbText
  0
TEXT
  5
3E4
330
1F
100
AcDbEntity
  8
LAY-255
  6
CONTINUOUS
 62
     7
100
AcDbText
 10
2871.5234375
 20
244.2187499999999
 30
0.0
 40
25.78125
  1
作成日
 41
1.000629973818182
  7
EXCADSTD
100
AcDbText
  0
TEXT
  5
3E5
330
1F
100
AcDbEntity
  8
LAY-255
  6
CONTINUOUS
 62
     7
100
AcDbText
 10
3482.8125
 20
235.6249999999999
 30
0.0
 40
34.375
  1
１：５
 41
0.888661464
  7
EXCADSTD
100
AcDbText
  0
TEXT
  5
3E6
330
1F
100
AcDbEntity
  8
LAY-255
  6
CONTINUOUS
 62
     7
100
AcDbText
 10
2893.75
 20
455.625
 30
0.0
 40
34.375
  1
防水：完全防水防臭型
 41
1.013466409710744
  7
EXCADSTD
100
AcDbText
  0
TEXT
  5
3E7
330
1F
100
AcDbEntity
  8
LAY-255
  6
CONTINUOUS
 62
     7
100
AcDbText
 10
2890.0
 20
405.625
 30
0.0
 40
34.375
  1
      内水圧９８.０ｋＰａ（１ｋｇｆ／ｃｍ2）可能
 41
0.912773818869366
  7
EXCADSTD
100
AcDbText
  0
TEXT
  5
3E8
330
1F
100
AcDbEntity
  8
LAY-255
  6
CONTINUOUS
 62
     7
100
AcDbText
 10
2893.75
 20
355.6249999999998
 30
0.0
 40
34.375
  1
受枠：水抜穴付
 41
1.018265188375559
  7
EXCADSTD
100
AcDbText
  0
TEXT
  5
3E9
330
1F
100
AcDbEntity
  8
LAY-255
  6
CONTINUOUS
 62
     7
100
AcDbText
 10
2872.65625
 20
665.625
 30
0.0
 40
34.375
  1
型式
 41
1.056348480681818
  7
EXCADSTD
100
AcDbText
  0
TEXT
  5
3EA
330
1F
100
AcDbEntity
  8
LAY-255
  6
CONTINUOUS
 62
     7
100
AcDbText
 10
2874.21875
 20
725.625
 30
0.0
 40
34.375
  1
品名
 41
0.9788386340909091
  7
EXCADSTD
100
AcDbText
  0
TEXT
  5
3EB
330
1F
100
AcDbEntity
  8
LAY-255
  6
CONTINUOUS
 62
     7
100
AcDbText
 10
3003.90625
 20
725.625
 30
0.0
 40
34.375
  1
マンホールカバー
 41
1.015410627012987
  7
EXCADSTD
100
AcDbText
  0
TEXT
  5
3EC
330
1F
100
AcDbEntity
  8
LAY-255
  6
CONTINUOUS
 62
     7
100
AcDbText
 10
2891.40625
 20
555.625
 30
0.0
 40
34.375
  1
構造：回転ロック方式
 41
1.019908786570248
  7
EXCADSTD
100
AcDbText
  0
TEXT
  5
3ED
330
1F
100
AcDbEntity
  8
LAY-255
  6
CONTINUOUS
 62
     7
100
AcDbText
 10
2891.40625
 20
505.625
 30
0.0
 40
34.375
  1
機能：施錠装置付
 41
1.024521988571429
  7
EXCADSTD
100
AcDbText
  0
TEXT
  5
3EE
330
1F
100
AcDbEntity
  8
LAY-255
  6
CONTINUOUS
 62
     7
100
AcDbText
 10
3007.5
 20
665.625
 30
0.0
 40
34.375
  1
ＳＦ－７５ＳＫＢ－２型
 41
1.0041805868791
  7
EXCADSTD
100
AcDbText
  0
TEXT
  5
3EF
330
1F
100
AcDbEntity
  8
LAY-255
  6
CONTINUOUS
 62
     7
100
AcDbText
 10
2894.53125
 20
605.6250000000001
 30
0.0
 40
34.375
  1
区分：重荷重用
 41
1.007228657526081
  7
EXCADSTD
100
AcDbText
  0
TEXT
  5
3F0
330
1F
100
AcDbEntity
  8
LAY-255
  6
CONTINUOUS
 62
     7
100
AcDbText
 10
3012.8125
 20
235.6249999999999
 30
0.0
 40
34.375
  1
１３／０９／１０
 41
0.9673228854545455
  7
EXCADSTD
100
AcDbText
  0
TEXT
  5
3F1
330
1F
100
AcDbEntity
  8
LAY-255
  6
CONTINUOUS
 62
     7
100
AcDbText
 10
2891.71875
 20
305.6249999999998
 30
0.0
 40
34.375
  1
破壊荷重：２５０ｋＮ以上
 41
1.015859509605489
  7
EXCADSTD
100
AcDbText
  0
ENDSEC
  0
SECTION
  2
OBJECTS
  0
DICTIONARY
  5
C
330
0
100
AcDbDictionary
  3
ACAD_GROUP
350
D
  3
ACAD_LAYOUT
350
1A
  3
ACAD_MATERIAL
350
43
  3
ACAD_MLEADERSTYLE
350
6B
  3
ACAD_MLINESTYLE
350
17
  3
ACAD_PLOTSETTINGS
350
19
  3
ACAD_SCALELIST
350
47
  3
ACAD_VISUALSTYLE
350
2A
  3
ACDBHEADERROUNDTRIPXREC
350
3F2
  3
ACDBVARIABLEDICTIONARY
350
413
  0
DICTIONARY
  5
41E
330
8
100
AcDbDictionary
280
     1
  3
ACAD_XREC_ROUNDTRIP
360
41F
  0
DICTIONARY
  5
D
102
{ACAD_REACTORS
330
C
102
}
330
C
100
AcDbDictionary
  0
DICTIONARY
  5
1A
102
{ACAD_REACTORS
330
C
102
}
330
C
100
AcDbDictionary
  0
DICTIONARY
  5
43
102
{ACAD_REACTORS
330
C
102
}
330
C
100
AcDbDictionary
  3
BYBLOCK
350
45
  3
BYLAYER
350
44
  3
GLOBAL
350
46
  0
DICTIONARY
  5
6B
102
{ACAD_REACTORS
330
C
102
}
330
C
100
AcDbDictionary
  3
STANDARD
350
6C
  0
DICTIONARY
  5
17
102
{ACAD_REACTORS
330
C
102
}
330
C
100
AcDbDictionary
  3
STANDARD
350
18
  0
DICTIONARY
  5
19
102
{ACAD_REACTORS
330
C
102
}
330
C
100
AcDbDictionary
  0
DICTIONARY
  5
47
102
{ACAD_REACTORS
330
C
102
}
330
C
100
AcDbDictionary
  3
A0
350
48
  3
A1
350
49
  3
A2
350
4A
  3
A3
350
4B
  3
A4
350
4C
  3
A5
350
4D
  3
A6
350
4E
  3
A7
350
4F
  3
A8
350
50
  3
A9
350
51
  3
B0
350
52
  3
B1
350
53
  3
B2
350
54
  3
B3
350
55
  3
B4
350
56
  3
B5
350
57
  3
B6
350
58
  3
B7
350
59
  3
B8
350
5A
  3
B9
350
5B
  3
C0
350
5C
  3
C1
350
5D
  3
C2
350
5E
  3
C3
350
5F
  3
C4
350
60
  3
C5
350
61
  3
C6
350
62
  3
C7
350
63
  3
C8
350
64
  3
C9
350
65
  3
D0
350
66
  3
D1
350
67
  3
D2
350
68
  0
DICTIONARY
  5
2A
102
{ACAD_REACTORS
330
C
102
}
330
C
100
AcDbDictionary
  3
2DWIREFRAME
350
2F
  3
BASIC
350
32
  3
BRIGHTEN
350
36
  3
COLORCHANGE
350
3A
  3
CONCEPTUAL
350
34
  3
DIM
350
35
  3
EDGECOLOROFF
350
3D
  3
FACEPATTERN
350
39
  3
FLAT
350
2B
  3
FLATWITHEDGES
350
2C
  3
GOURAUD
350
2D
  3
GOURAUDWITHEDGES
350
2E
  3
HIDDEN
350
31
  3
JITTEROFF
350
3B
  3
LINEPATTERN
350
38
  3
OVERHANGOFF
350
3C
  3
REALISTIC
350
33
  3
SHADED
350
42
  3
SHADED_WITH_EDGES
350
41
  3
SHADES_OF_GRAY
350
3E
  3
SKETCHY
350
3F
  3
THICKEN
350
37
  3
WIREFRAME
350
30
  3
X-RAY
350
40
  0
DICTIONARY
  5
3F2
102
{ACAD_REACTORS
330
C
102
}
330
C
100
AcDbDictionary
  3
CEPSNID
350
3FC
  3
CEPSNTYPE
350
3FB
  3
DIMSTYLEDATA
350
412
  3
FINGERPRINTGUID
350
3FD
  3
HYPERLINKBASE
350
3F5
  3
INSUNITS
350
3FA
  3
LAYOUTDICT
350
3F7
  3
LWETCUNION
350
3F9
  3
PLOTSETDICT
350
3F8
  3
PSVPSCALE
350
3FF
  3
PUCSBASE
350
402
  3
PUCSORGBACK
350
408
  3
PUCSORGBOTTOM
350
404
  3
PUCSORGFRONT
350
407
  3
PUCSORGLEFT
350
405
  3
PUCSORGRIGHT
350
406
  3
PUCSORGTOP
350
403
  3
PUCSORTHOREF
350
400
  3
PUCSORTHOVIEW
350
401
  3
STYLESHEET
350
3F6
  3
TSTACKALIGN
350
3F3
  3
TSTACKSIZE
350
3F4
  3
UCSBASE
350
40B
  3
UCSORGBACK
350
411
  3
UCSORGBOTTOM
350
40D
  3
UCSORGFRONT
350
410
  3
UCSORGLEFT
350
40E
  3
UCSORGRIGHT
350
40F
  3
UCSORGTOP
350
40C
  3
UCSORTHOREF
350
409
  3
UCSORTHOVIEW
350
40A
  3
VERSIONGUID
350
3FE
  0
DICTIONARY
  5
413
102
{ACAD_REACTORS
330
C
102
}
330
C
100
AcDbDictionary
  3
CANNOSCALE
350
420
  3
CENTEREXE
350
41A
  3
CENTERLTYPEFILE
350
41B
  3
CMLEADERSTYLE
350
415
  3
CTABLESTYLE
350
414
  3
DIMASSOC
350
41C
  3
HIDETEXT
350
41D
  3
MSLTSCALE
350
421
  3
PSOLHEIGHT
350
417
  3
PSOLWIDTH
350
416
  0
XRECORD
  5
41F
102
{ACAD_REACTORS
330
41E
102
}
330
41E
100
AcDbXrecord
102
VTR_0.000_0.000_1.000_1.000_VISUALSTYLE
340
2F
102
VTR_0.000_0.000_1.000_1.000_GRIDDISPLAY
 70
     3
102
VTR_0.000_0.000_1.000_1.000_GRIDMAJOR
 70
     5
102
VTR_0.000_0.000_1.000_1.000_DEFAULTLIGHTING
280
     1
102
VTR_0.000_0.000_1.000_1.000_DEFAULTLIGHTINGTYPE
 70
     1
102
VTR_0.000_0.000_1.000_1.000_BRIGHTNESS
141
0.0
102
VTR_0.000_0.000_1.000_1.000_CONTRAST
142
0.0
  0
MATERIAL
  5
45
102
{ACAD_REACTORS
330
43
102
}
102
{ACAD_XDICTIONARY
360
424
102
}
330
43
100
AcDbMaterial
  1
BYBLOCK
  0
MATERIAL
  5
44
102
{ACAD_REACTORS
330
43
102
}
102
{ACAD_XDICTIONARY
360
422
102
}
330
43
100
AcDbMaterial
  1
BYLAYER
  0
MATERIAL
  5
46
102
{ACAD_REACTORS
330
43
102
}
102
{ACAD_XDICTIONARY
360
426
102
}
330
43
100
AcDbMaterial
  1
GLOBAL
  0
ACAD_PROXY_OBJECT
  5
6C
102
{ACAD_REACTORS
330
6B
102
}
330
6B
100
AcDbProxyObject
 90
      499
 91
      505
 93
      610
310
40901902A4063FBFFFFFE0000000000000020400000000000020404214DD185B99185C990000000000000104090141901A00000000000004100000000000000041025764000000000000039000
340
14
340
0
340
11
340
0
 94
        0
1001
ACAD_MLEADERVER
1070
     2
  0
MLINESTYLE
  5
18
102
{ACAD_REACTORS
330
17
102
}
330
17
100
AcDbMlineStyle
  2
Standard
 70
     0
  3

 62
   256
 51
90.0
 52
90.0
 71
     2
 49
0.5
 62
   256
  6
BYLAYER
 49
-0.5
 62
   256
  6
BYLAYER
  0
ACAD_PROXY_OBJECT
  5
48
102
{ACAD_REACTORS
330
47
102
}
330
47
100
AcDbProxyObject
 90
      499
 91
      503
 93
       41
310
903313A31580
  0
ACAD_PROXY_OBJECT
  5
49
102
{ACAD_REACTORS
330
47
102
}
330
47
100
AcDbProxyObject
 90
      499
 91
      503
 93
      105
310
903313A324000000000000004000
  0
ACAD_PROXY_OBJECT
  5
4A
102
{ACAD_REACTORS
330
47
102
}
330
47
100
AcDbProxyObject
 90
      499
 91
      503
 93
      105
310
903313A344000000000000104000
  0
ACAD_PROXY_OBJECT
  5
4B
102
{ACAD_REACTORS
330
47
102
}
330
47
100
AcDbProxyObject
 90
      499
 91
      503
 93
      105
310
903313A354000000000000144000
  0
ACAD_PROXY_OBJECT
  5
4C
102
{ACAD_REACTORS
330
47
102
}
330
47
100
AcDbProxyObject
 90
      499
 91
      503
 93
      105
310
903313A384000000000000204000
  0
ACAD_PROXY_OBJECT
  5
4D
102
{ACAD_REACTORS
330
47
102
}
330
47
100
AcDbProxyObject
 90
      499
 91
      503
 93
      113
310
904313A31304000000000000244000
  0
ACAD_PROXY_OBJECT
  5
4E
102
{ACAD_REACTORS
330
47
102
}
330
47
100
AcDbProxyObject
 90
      499
 91
      503
 93
      113
310
904313A31364000000000000304000
  0
ACAD_PROXY_OBJECT
  5
4F
102
{ACAD_REACTORS
330
47
102
}
330
47
100
AcDbProxyObject
 90
      499
 91
      503
 93
      113
310
904313A32304000000000000344000
  0
ACAD_PROXY_OBJECT
  5
50
102
{ACAD_REACTORS
330
47
102
}
330
47
100
AcDbProxyObject
 90
      499
 91
      503
 93
      113
310
904313A333040000000000003E4000
  0
ACAD_PROXY_OBJECT
  5
51
102
{ACAD_REACTORS
330
47
102
}
330
47
100
AcDbProxyObject
 90
      499
 91
      503
 93
      113
310
904313A34304000000000000444000
  0
ACAD_PROXY_OBJECT
  5
52
102
{ACAD_REACTORS
330
47
102
}
330
47
100
AcDbProxyObject
 90
      499
 91
      503
 93
      113
310
904313A35304000000000000494000
  0
ACAD_PROXY_OBJECT
  5
53
102
{ACAD_REACTORS
330
47
102
}
330
47
100
AcDbProxyObject
 90
      499
 91
      503
 93
      121
310
905313A3130304000000000000594000
  0
ACAD_PROXY_OBJECT
  5
54
102
{ACAD_REACTORS
330
47
102
}
330
47
100
AcDbProxyObject
 90
      499
 91
      503
 93
      105
310
903323A310000000000000010100
  0
ACAD_PROXY_OBJECT
  5
55
102
{ACAD_REACTORS
330
47
102
}
330
47
100
AcDbProxyObject
 90
      499
 91
      503
 93
      105
310
903343A310000000000000410100
  0
ACAD_PROXY_OBJECT
  5
56
102
{ACAD_REACTORS
330
47
102
}
330
47
100
AcDbProxyObject
 90
      499
 91
      503
 93
      105
310
903383A310000000000000810100
  0
ACAD_PROXY_OBJECT
  5
57
102
{ACAD_REACTORS
330
47
102
}
330
47
100
AcDbProxyObject
 90
      499
 91
      503
 93
      113
310
90431303A310000000000000910100
  0
ACAD_PROXY_OBJECT
  5
58
102
{ACAD_REACTORS
330
47
102
}
330
47
100
AcDbProxyObject
 90
      499
 91
      503
 93
      121
310
9053130303A310000000000001650100
  0
ACAD_PROXY_OBJECT
  5
59
102
{ACAD_REACTORS
330
47
102
}
330
47
100
AcDbProxyObject
 90
      499
 91
      503
 93
      257
310
90E312F31323822203D2031272D3022000000000000200FC000000000000284000
  0
ACAD_PROXY_OBJECT
  5
5A
102
{ACAD_REACTORS
330
47
102
}
330
47
100
AcDbProxyObject
 90
      499
 91
      503
 93
      249
310
90D312F363422203D2031272D3022000000000000240FC000000000000284000
  0
ACAD_PROXY_OBJECT
  5
5B
102
{ACAD_REACTORS
330
47
102
}
330
47
100
AcDbProxyObject
 90
      499
 91
      503
 93
      249
310
90D312F333222203D2031272D3022000000000000280FC000000000000284000
  0
ACAD_PROXY_OBJECT
  5
5C
102
{ACAD_REACTORS
330
47
102
}
330
47
100
AcDbProxyObject
 90
      499
 91
      503
 93
      249
310
90D312F313622203D2031272D30220000000000002C0FC000000000000284000
  0
ACAD_PROXY_OBJECT
  5
5D
102
{ACAD_REACTORS
330
47
102
}
330
47
100
AcDbProxyObject
 90
      499
 91
      503
 93
      249
310
90D332F333222203D2031272D30220000000000002E0FC000000000000284000
  0
ACAD_PROXY_OBJECT
  5
5E
102
{ACAD_REACTORS
330
47
102
}
330
47
100
AcDbProxyObject
 90
      499
 91
      503
 93
      241
310
90C312F3822203D2031272D3022000000000000300FC000000000000284000
  0
ACAD_PROXY_OBJECT
  5
5F
102
{ACAD_REACTORS
330
47
102
}
330
47
100
AcDbProxyObject
 90
      499
 91
      503
 93
      249
310
90D332F313622203D2031272D3022000000000000320FC000000000000284000
  0
ACAD_PROXY_OBJECT
  5
60
102
{ACAD_REACTORS
330
47
102
}
330
47
100
AcDbProxyObject
 90
      499
 91
      503
 93
      241
310
90C312F3422203D2031272D3022000000000000340FC000000000000284000
  0
ACAD_PROXY_OBJECT
  5
61
102
{ACAD_REACTORS
330
47
102
}
330
47
100
AcDbProxyObject
 90
      499
 91
      503
 93
      241
310
90C332F3822203D2031272D3022000000000000360FC000000000000284000
  0
ACAD_PROXY_OBJECT
  5
62
102
{ACAD_REACTORS
330
47
102
}
330
47
100
AcDbProxyObject
 90
      499
 91
      503
 93
      241
310
90C312F3222203D2031272D3022000000000000380FC000000000000284000
  0
ACAD_PROXY_OBJECT
  5
63
102
{ACAD_REACTORS
330
47
102
}
330
47
100
AcDbProxyObject
 90
      499
 91
      503
 93
      241
310
90C332F3422203D2031272D30220000000000003A0FC000000000000284000
  0
ACAD_PROXY_OBJECT
  5
64
102
{ACAD_REACTORS
330
47
102
}
330
47
100
AcDbProxyObject
 90
      499
 91
      503
 93
      161
310
90A3122203D2031272D30224000000000000284000
  0
ACAD_PROXY_OBJECT
  5
65
102
{ACAD_REACTORS
330
47
102
}
330
47
100
AcDbProxyObject
 90
      499
 91
      503
 93
      257
310
90E312D312F3222203D2031272D30220000000000003E0FC000000000000284000
  0
ACAD_PROXY_OBJECT
  5
66
102
{ACAD_REACTORS
330
47
102
}
330
47
100
AcDbProxyObject
 90
      499
 91
      503
 93
      225
310
90A3322203D2031272D302200000000000002100000000000000284000
  0
ACAD_PROXY_OBJECT
  5
67
102
{ACAD_REACTORS
330
47
102
}
330
47
100
AcDbProxyObject
 90
      499
 91
      503
 93
      225
310
90A3622203D2031272D302200000000000006100000000000000284000
  0
ACAD_PROXY_OBJECT
  5
68
102
{ACAD_REACTORS
330
47
102
}
330
47
100
AcDbProxyObject
 90
      499
 91
      503
 93
      249
310
90D31272D3022203D2031272D30220000000000000A100000000000000284000
  0
ACAD_PROXY_OBJECT
  5
2F
102
{ACAD_REACTORS
330
2A
102
}
330
2A
100
AcDbProxyObject
 90
      499
 91
      501
 93
      436
310
42CC9915DA5C99599C985B595049028333333333333E33F0000000000000F90107901411070040501600405405064090741402480A0340
1001
ACAD
1000
AcDbSavedByObjectVersion
1070
     0
  0
ACAD_PROXY_OBJECT
  5
32
102
{ACAD_REACTORS
330
2A
102
}
330
2A
100
AcDbProxyObject
 90
      499
 91
      501
 93
      388
310
4150985CDA58D07406404333333333333E33F0000000000000F90107A41107004050150841D405064090741402480A0350
1001
ACAD
1000
AcDbSavedByObjectVersion
1070
     0
  0
ACAD_PROXY_OBJECT
  5
36
102
{ACAD_REACTORS
330
2A
102
}
330
2A
100
AcDbProxyObject
 90
      499
 91
      501
 93
      428
310
42109C9A59DA1D195B90C409028333333333333E33F0000000000000F9010790141107004050150841D405064090741402480A029950
1001
ACAD
1000
AcDbSavedByObjectVersion
1070
     0
  0
ACAD_PROXY_OBJECT
  5
3A
102
{ACAD_REACTORS
330
2A
102
}
330
2A
100
AcDbProxyObject
 90
      499
 91
      501
 93
      452
310
42D0DBDB1BDC90DA185B99D95104090240C333333333333E33F0000000000000F90108901411070040501508421405064090741402480A0350
1001
ACAD
1000
AcDbSavedByObjectVersion
1070
     0
  0
ACAD_PROXY_OBJECT
  5
34
102
{ACAD_REACTORS
330
2A
102
}
330
2A
100
AcDbProxyObject
 90
      499
 91
      501
 93
      500
310
4290DBDB98D95C1D1D585B10940D028333333333333E33F0000000000000F90107902409070040501000000000018199010841D405064090740C02480A0340
1001
ACAD
1000
AcDbSavedByObjectVersion
1070
     0
  0
ACAD_PROXY_OBJECT
  5
35
102
{ACAD_REACTORS
330
2A
102
}
330
2A
100
AcDbProxyObject
 90
      499
 91
      501
 93
      412
310
40D11A5B50B409028333333333333E33F0000000000000F9010790141107004050150841D405064090741402480A02677FFFFFD0
1001
ACAD
1000
AcDbSavedByObjectVersion
1070
     0
  0
ACAD_PROXY_OBJECT
  5
3D
102
{ACAD_REACTORS
330
2A
102
}
330
2A
100
AcDbProxyObject
 90
      499
 91
      501
 93
      452
310
43115919D950DBDB1BDC93D999916409028333333333333E33F0000000000000F9010790141107004050150841D405064090741402480A0350
1001
ACAD
1000
AcDbSavedByObjectVersion
1070
     0
  0
ACAD_PROXY_OBJECT
  5
39
102
{ACAD_REACTORS
330
2A
102
}
330
2A
100
AcDbProxyObject
 90
      499
 91
      501
 93
      444
310
42D19858D95C185D1D195C9B90F409028333333333333E33F0000000000000F9010790141107004050150841D405064090741402480A0350
1001
ACAD
1000
AcDbSavedByObjectVersion
1070
     0
  0
ACAD_PROXY_OBJECT
  5
2B
102
{ACAD_REACTORS
330
2A
102
}
330
2A
100
AcDbProxyObject
 90
      499
 91
      501
 93
      380
310
41119B185D240901404333333333333E33F0000000000000F9010740A907004050150841D405064090741402480A1B50
1001
ACAD
1000
AcDbSavedByObjectVersion
1070
     0
  0
ACAD_PROXY_OBJECT
  5
2C
102
{ACAD_REACTORS
330
2A
102
}
330
2A
100
AcDbProxyObject
 90
      499
 91
      501
 93
      468
310
43519B185D15DA5D1A115919D95CD0140901404333333333333E33F0000000000000F90107409019070040501600405405064090741402480A1B50
1001
ACAD
1000
AcDbSavedByObjectVersion
1070
     0
  0
ACAD_PROXY_OBJECT
  5
2D
102
{ACAD_REACTORS
330
2A
102
}
330
2A
100
AcDbProxyObject
 90
      499
 91
      501
 93
      404
310
41D1DBDD5C985D5910240902404333333333333E33F0000000000000F9010740A9070040501641D405064090741402480A1B50
1001
ACAD
1000
AcDbSavedByObjectVersion
1070
     0
  0
ACAD_PROXY_OBJECT
  5
2E
102
{ACAD_REACTORS
330
2A
102
}
330
2A
100
AcDbProxyObject
 90
      499
 91
      501
 93
      492
310
4411DBDD5C985D5915DA5D1A115919D95CD0340902404333333333333E33F0000000000000F90107409019070040501600405405064090741402480A1B50
1001
ACAD
1000
AcDbSavedByObjectVersion
1070
     0
  0
ACAD_PROXY_OBJECT
  5
31
102
{ACAD_REACTORS
330
2A
102
}
330
2A
100
AcDbProxyObject
 90
      499
 91
      501
 93
      476
310
41921A5919195B90640502408333333333333E33F0000000000000F901079024090700405020000000000001110200405405064090740C02480A0340
1001
ACAD
1000
AcDbSavedByObjectVersion
1070
     0
  0
ACAD_PROXY_OBJECT
  5
3B
102
{ACAD_REACTORS
330
2A
102
}
330
2A
100
AcDbProxyObject
 90
      499
 91
      501
 93
      428
310
42529A5D1D195C93D999914409028333333333333E33F0000000000000F9010790141107004050150A41D405064090741402480A0350
1001
ACAD
1000
AcDbSavedByObjectVersion
1070
     0
  0
ACAD_PROXY_OBJECT
  5
38
102
{ACAD_REACTORS
330
2A
102
}
330
2A
100
AcDbProxyObject
 90
      499
 91
      501
 93
      444
310
42D31A5B995C185D1D195C9B90E409028333333333333E33F0000000000000F9010790141107004050750841D405064090741402483A0350
1001
ACAD
1000
AcDbSavedByObjectVersion
1070
     0
  0
ACAD_PROXY_OBJECT
  5
3C
102
{ACAD_REACTORS
330
2A
102
}
330
2A
100
AcDbProxyObject
 90
      499
 91
      501
 93
      444
310
42D3DD995C9A185B99D3D999915409028333333333333E33F0000000000000F9010790141107004050150941D405064090741402480A0350
1001
ACAD
1000
AcDbSavedByObjectVersion
1070
     0
  0
ACAD_PROXY_OBJECT
  5
33
102
{ACAD_REACTORS
330
2A
102
}
330
2A
100
AcDbProxyObject
 90
      499
 91
      501
 93
      428
310
425499585B1A5CDD1A58D08409038333333333333E33F0000000000000F9010740A907004050150800405405064090740C02480A1B40
1001
ACAD
1000
AcDbSavedByObjectVersion
1070
     0
  0
ACAD_PROXY_OBJECT
  5
42
102
{ACAD_REACTORS
330
2A
102
}
330
2A
100
AcDbProxyObject
 90
      499
 91
      501
 93
      420
310
4194DA1859195911B40902404333333333333E33F0000000000000F9010740A41107004050150800405405064090840C02480A0B40
1001
ACAD
1000
AcDbSavedByObjectVersion
1070
     0
  0
ACAD_PROXY_OBJECT
  5
41
102
{ACAD_REACTORS
330
2A
102
}
330
2A
100
AcDbProxyObject
 90
      499
 91
      501
 93
      516
310
4454DA18591959081DDA5D1A08195919D95CD1A40902404333333333333E33F0000000000000F901074090142907004050250800405405064090740C02480A0B40
1001
ACAD
1000
AcDbSavedByObjectVersion
1070
     0
  0
ACAD_PROXY_OBJECT
  5
3E
102
{ACAD_REACTORS
330
2A
102
}
330
2A
100
AcDbProxyObject
 90
      499
 91
      501
 93
      532
310
4394DA1859195CC81BD98811DC985E5174090240C333333333333E33F0000000000000F901079024090741D01000000000000111010841D405064090740C02480A0340
1001
ACAD
1000
AcDbSavedByObjectVersion
1070
     0
  0
ACAD_PROXY_OBJECT
  5
3F
102
{ACAD_REACTORS
330
2A
102
}
330
2A
100
AcDbProxyObject
 90
      499
 91
      501
 93
      476
310
41D4DAD95D18DA1E51840502408333333333333E33F0000000000000F901079024090741D01000000000000111010B41D405064090741802480A0340
1001
ACAD
1000
AcDbSavedByObjectVersion
1070
     0
  0
ACAD_PROXY_OBJECT
  5
37
102
{ACAD_REACTORS
330
2A
102
}
330
2A
100
AcDbProxyObject
 90
      499
 91
      501
 93
      412
310
41D51A1A58DAD95B90D409028333333333333E33F0000000000000F9010790141107004050150C41D405064090741402480A0350
1001
ACAD
1000
AcDbSavedByObjectVersion
1070
     0
  0
ACAD_PROXY_OBJECT
  5
30
102
{ACAD_REACTORS
330
2A
102
}
330
2A
100
AcDbProxyObject
 90
      499
 91
      501
 93
      420
310
4255DA5C99599C985B595059028333333333333E33F0000000000000F90107901411070040501600405405064090740C02480A0340
1001
ACAD
1000
AcDbSavedByObjectVersion
1070
     0
  0
ACAD_PROXY_OBJECT
  5
40
102
{ACAD_REACTORS
330
2A
102
}
330
2A
100
AcDbProxyObject
 90
      499
 91
      501
 93
      404
310
41560B54985E51940902404000000000000E03F0000000000000F9010740501907004050150841D405064090740C02480A1B40
1001
ACAD
1000
AcDbSavedByObjectVersion
1070
     0
  0
XRECORD
  5
3FC
102
{ACAD_REACTORS
330
3F2
102
}
330
3F2
100
AcDbXrecord
340
0
  0
XRECORD
  5
3FB
102
{ACAD_REACTORS
330
3F2
102
}
330
3F2
100
AcDbXrecord
 90
        0
  0
XRECORD
  5
412
102
{ACAD_REACTORS
330
3F2
102
}
330
3F2
100
AcDbXrecord
1000
DSTYLE
1002
{
1070
   340
340
11
1002
}
  0
XRECORD
  5
3FD
102
{ACAD_REACTORS
330
3F2
102
}
330
3F2
100
AcDbXrecord
  1
{6799a489-cd3e-45ab-b833-675dabd0c5c0}
  0
XRECORD
  5
3F5
102
{ACAD_REACTORS
330
3F2
102
}
330
3F2
100
AcDbXrecord
  1

  0
XRECORD
  5
3FA
102
{ACAD_REACTORS
330
3F2
102
}
330
3F2
100
AcDbXrecord
 90
        4
  0
XRECORD
  5
3F7
102
{ACAD_REACTORS
330
3F2
102
}
330
3F2
100
AcDbXrecord
340
1A
  0
XRECORD
  5
3F9
102
{ACAD_REACTORS
330
3F2
102
}
330
3F2
100
AcDbXrecord
 90
    10781
  0
XRECORD
  5
3F8
102
{ACAD_REACTORS
330
3F2
102
}
330
3F2
100
AcDbXrecord
340
19
  0
XRECORD
  5
3FF
102
{ACAD_REACTORS
330
3F2
102
}
330
3F2
100
AcDbXrecord
 40
0.0
  0
XRECORD
  5
402
102
{ACAD_REACTORS
330
3F2
102
}
330
3F2
100
AcDbXrecord
340
0
  0
XRECORD
  5
408
102
{ACAD_REACTORS
330
3F2
102
}
330
3F2
100
AcDbXrecord
 10
0.0
 20
0.0
 30
0.0
  0
XRECORD
  5
404
102
{ACAD_REACTORS
330
3F2
102
}
330
3F2
100
AcDbXrecord
 10
0.0
 20
0.0
 30
0.0
  0
XRECORD
  5
407
102
{ACAD_REACTORS
330
3F2
102
}
330
3F2
100
AcDbXrecord
 10
0.0
 20
0.0
 30
0.0
  0
XRECORD
  5
405
102
{ACAD_REACTORS
330
3F2
102
}
330
3F2
100
AcDbXrecord
 10
0.0
 20
0.0
 30
0.0
  0
XRECORD
  5
406
102
{ACAD_REACTORS
330
3F2
102
}
330
3F2
100
AcDbXrecord
 10
0.0
 20
0.0
 30
0.0
  0
XRECORD
  5
403
102
{ACAD_REACTORS
330
3F2
102
}
330
3F2
100
AcDbXrecord
 10
0.0
 20
0.0
 30
0.0
  0
XRECORD
  5
400
102
{ACAD_REACTORS
330
3F2
102
}
330
3F2
100
AcDbXrecord
340
0
  0
XRECORD
  5
401
102
{ACAD_REACTORS
330
3F2
102
}
330
3F2
100
AcDbXrecord
 70
     0
  0
XRECORD
  5
3F6
102
{ACAD_REACTORS
330
3F2
102
}
330
3F2
100
AcDbXrecord
  1

  0
XRECORD
  5
3F3
102
{ACAD_REACTORS
330
3F2
102
}
330
3F2
100
AcDbXrecord
 90
        1
  0
XRECORD
  5
3F4
102
{ACAD_REACTORS
330
3F2
102
}
330
3F2
100
AcDbXrecord
 90
       70
  0
XRECORD
  5
40B
102
{ACAD_REACTORS
330
3F2
102
}
330
3F2
100
AcDbXrecord
340
0
  0
XRECORD
  5
411
102
{ACAD_REACTORS
330
3F2
102
}
330
3F2
100
AcDbXrecord
 10
0.0
 20
0.0
 30
0.0
  0
XRECORD
  5
40D
102
{ACAD_REACTORS
330
3F2
102
}
330
3F2
100
AcDbXrecord
 10
0.0
 20
0.0
 30
0.0
  0
XRECORD
  5
410
102
{ACAD_REACTORS
330
3F2
102
}
330
3F2
100
AcDbXrecord
 10
0.0
 20
0.0
 30
0.0
  0
XRECORD
  5
40E
102
{ACAD_REACTORS
330
3F2
102
}
330
3F2
100
AcDbXrecord
 10
0.0
 20
0.0
 30
0.0
  0
XRECORD
  5
40F
102
{ACAD_REACTORS
330
3F2
102
}
330
3F2
100
AcDbXrecord
 10
0.0
 20
0.0
 30
0.0
  0
XRECORD
  5
40C
102
{ACAD_REACTORS
330
3F2
102
}
330
3F2
100
AcDbXrecord
 10
0.0
 20
0.0
 30
0.0
  0
XRECORD
  5
409
102
{ACAD_REACTORS
330
3F2
102
}
330
3F2
100
AcDbXrecord
340
0
  0
XRECORD
  5
40A
102
{ACAD_REACTORS
330
3F2
102
}
330
3F2
100
AcDbXrecord
 70
     0
  0
XRECORD
  5
3FE
102
{ACAD_REACTORS
330
3F2
102
}
330
3F2
100
AcDbXrecord
  1
{FAEB1C32-E019-11D5-929B-00C0DF256EC4}
  0
DICTIONARYVAR
  5
420
102
{ACAD_REACTORS
330
413
102
}
330
413
100
DictionaryVariables
280
     0
  1
1:1
  0
DICTIONARYVAR
  5
41A
102
{ACAD_REACTORS
330
413
102
}
330
413
100
DictionaryVariables
280
     0
  1
3.500000
  0
DICTIONARYVAR
  5
41B
102
{ACAD_REACTORS
330
413
102
}
330
413
100
DictionaryVariables
280
     0
  1
acadiso.lin
  0
DICTIONARYVAR
  5
415
102
{ACAD_REACTORS
330
413
102
}
330
413
100
DictionaryVariables
280
     0
  1
Standard
  0
DICTIONARYVAR
  5
414
102
{ACAD_REACTORS
330
413
102
}
330
413
100
DictionaryVariables
280
     0
  1
Standard
  0
DICTIONARYVAR
  5
41C
102
{ACAD_REACTORS
330
413
102
}
330
413
100
DictionaryVariables
280
     0
  1
2
  0
DICTIONARYVAR
  5
41D
102
{ACAD_REACTORS
330
413
102
}
330
413
100
DictionaryVariables
280
     0
  1
1
  0
DICTIONARYVAR
  5
421
102
{ACAD_REACTORS
330
413
102
}
330
413
100
DictionaryVariables
280
     0
  1
1
  0
DICTIONARYVAR
  5
417
102
{ACAD_REACTORS
330
413
102
}
330
413
100
DictionaryVariables
280
     0
  1
80.000000
  0
DICTIONARYVAR
  5
416
102
{ACAD_REACTORS
330
413
102
}
330
413
100
DictionaryVariables
280
     0
  1
5.000000
  0
DICTIONARY
  5
424
330
45
100
AcDbDictionary
280
     1
  3
ACAD_XREC_ROUNDTRIP
360
425
  0
DICTIONARY
  5
422
330
44
100
AcDbDictionary
280
     1
  3
ACAD_XREC_ROUNDTRIP
360
423
  0
DICTIONARY
  5
426
330
46
100
AcDbDictionary
280
     1
  3
ACAD_XREC_ROUNDTRIP
360
427
  0
XRECORD
  5
425
102
{ACAD_REACTORS
330
424
102
}
330
424
100
AcDbXrecord
102
MATERIAL
148
0.0
149
0.0
149
0.0
 93
        0
 94
      127
282
     0
 72
     1
 77
     1
171
     1
175
     1
179
     1
273
     0
  0
XRECORD
  5
423
102
{ACAD_REACTORS
330
422
102
}
330
422
100
AcDbXrecord
102
MATERIAL
148
0.0
149
0.0
149
0.0
 93
        0
 94
      127
282
     0
 72
     1
 77
     1
171
     1
175
     1
179
     1
273
     0
  0
XRECORD
  5
427
102
{ACAD_REACTORS
330
426
102
}
330
426
100
AcDbXrecord
102
MATERIAL
148
0.0
149
0.0
149
0.0
 93
        0
 94
      127
282
     0
 72
     1
 77
     1
171
     1
175
     1
179
     1
273
     0
  0
ENDSEC
  0
EOF
