  0
SECTION
  2
HEADER
  9
$ACADVER
  1
AC1014
  9
$ACADMAINTVER
 70
     9
  9
$DWGCODEPAGE
  3
ANSI_932
  9
$INSBASE
 10
0.0
 20
0.0
 30
0.0
  9
$EXTMIN
 10
25.0
 20
50.0
 30
0.0
  9
$EXTMAX
 10
1925.0
 20
1400.0
 30
0.0
  9
$LIMMIN
 10
0.0
 20
0.0
  9
$LIMMAX
 10
420.0
 20
297.0
  9
$ORTHOMODE
 70
     0
  9
$REGENMODE
 70
     1
  9
$FILLMODE
 70
     1
  9
$QTEXTMODE
 70
     0
  9
$MIRRTEXT
 70
     1
  9
$DRAGMODE
 70
     2
  9
$LTSCALE
 40
0.2
  9
$OSMODE
 70
    37
  9
$ATTMODE
 70
     1
  9
$TEXTSIZE
 40
2.5
  9
$TRACEWID
 40
1.0
  9
$TEXTSTYLE
  7
STANDARD
  9
$CLAYER
  8
LAY-10
  9
$CELTYPE
  6
BYLAYER
  9
$CECOLOR
 62
   256
  9
$CELTSCALE
 40
1.0
  9
$DELOBJ
 70
     1
  9
$DISPSILH
 70
     0
  9
$DIMSCALE
 40
1.0
  9
$DIMASZ
 40
2.5
  9
$DIMEXO
 40
0.625
  9
$DIMDLI
 40
3.75
  9
$DIMRND
 40
0.0
  9
$DIMDLE
 40
0.0
  9
$DIMEXE
 40
1.25
  9
$DIMTP
 40
0.0
  9
$DIMTM
 40
0.0
  9
$DIMTXT
 40
2.5
  9
$DIMCEN
 40
2.5
  9
$DIMTSZ
 40
0.0
  9
$DIMTOL
 70
     0
  9
$DIMLIM
 70
     0
  9
$DIMTIH
 70
     0
  9
$DIMTOH
 70
     0
  9
$DIMSE1
 70
     0
  9
$DIMSE2
 70
     0
  9
$DIMTAD
 70
     1
  9
$DIMZIN
 70
     8
  9
$DIMBLK
  1

  9
$DIMASO
 70
     1
  9
$DIMSHO
 70
     1
  9
$DIMPOST
  1

  9
$DIMAPOST
  1

  9
$DIMALT
 70
     0
  9
$DIMALTD
 70
     3
  9
$DIMALTF
 40
0.03937007874016
  9
$DIMLFAC
 40
1.0
  9
$DIMTOFL
 70
     1
  9
$DIMTVP
 40
0.0
  9
$DIMTIX
 70
     0
  9
$DIMSOXD
 70
     0
  9
$DIMSAH
 70
     0
  9
$DIMBLK1
  1

  9
$DIMBLK2
  1

  9
$DIMSTYLE
  2
ISO-25
  9
$DIMCLRD
 70
     0
  9
$DIMCLRE
 70
     0
  9
$DIMCLRT
 70
     0
  9
$DIMTFAC
 40
1.0
  9
$DIMGAP
 40
0.625
  9
$DIMJUST
 70
     0
  9
$DIMSD1
 70
     0
  9
$DIMSD2
 70
     0
  9
$DIMTOLJ
 70
     0
  9
$DIMTZIN
 70
     8
  9
$DIMALTZ
 70
     0
  9
$DIMALTTZ
 70
     0
  9
$DIMFIT
 70
     3
  9
$DIMUPT
 70
     0
  9
$DIMUNIT
 70
     2
  9
$DIMDEC
 70
     2
  9
$DIMTDEC
 70
     2
  9
$DIMALTU
 70
     2
  9
$DIMALTTD
 70
     3
  9
$DIMTXSTY
  7
STANDARD
  9
$DIMAUNIT
 70
     0
  9
$LUNITS
 70
     2
  9
$LUPREC
 70
     4
  9
$SKETCHINC
 40
1.0
  9
$FILLETRAD
 40
10.0
  9
$AUNITS
 70
     0
  9
$AUPREC
 70
     0
  9
$MENU
  1
.
  9
$ELEVATION
 40
0.0
  9
$PELEVATION
 40
0.0
  9
$THICKNESS
 40
0.0
  9
$LIMCHECK
 70
     0
  9
$CHAMFERA
 40
0.0
  9
$CHAMFERB
 40
0.0
  9
$CHAMFERC
 40
0.0
  9
$CHAMFERD
 40
0.0
  9
$SKPOLY
 70
     0
  9
$TDCREATE
 40
2459229.33263978
  9
$TDUPDATE
 40
2459229.332640266
  9
$TDINDWG
 40
0.0000000116
  9
$TDUSRTIMER
 40
0.0000000116
  9
$USRTIMER
 70
     1
  9
$ANGBASE
 50
0.0
  9
$ANGDIR
 70
     0
  9
$PDMODE
 70
     0
  9
$PDSIZE
 40
0.0
  9
$PLINEWID
 40
0.0
  9
$COORDS
 70
     1
  9
$SPLFRAME
 70
     0
  9
$SPLINETYPE
 70
     6
  9
$SPLINESEGS
 70
     8
  9
$ATTDIA
 70
     0
  9
$ATTREQ
 70
     1
  9
$HANDLING
 70
     1
  9
$HANDSEED
  5
338
  9
$SURFTAB1
 70
     6
  9
$SURFTAB2
 70
     6
  9
$SURFTYPE
 70
     6
  9
$SURFU
 70
     6
  9
$SURFV
 70
     6
  9
$UCSNAME
  2

  9
$UCSORG
 10
0.0
 20
0.0
 30
0.0
  9
$UCSXDIR
 10
1.0
 20
0.0
 30
0.0
  9
$UCSYDIR
 10
0.0
 20
1.0
 30
0.0
  9
$PUCSNAME
  2

  9
$PUCSORG
 10
0.0
 20
0.0
 30
0.0
  9
$PUCSXDIR
 10
1.0
 20
0.0
 30
0.0
  9
$PUCSYDIR
 10
0.0
 20
1.0
 30
0.0
  9
$USERI1
 70
     0
  9
$USERI2
 70
     0
  9
$USERI3
 70
     0
  9
$USERI4
 70
     0
  9
$USERI5
 70
     0
  9
$USERR1
 40
0.0
  9
$USERR2
 40
0.0
  9
$USERR3
 40
0.0
  9
$USERR4
 40
0.0
  9
$USERR5
 40
0.0
  9
$WORLDVIEW
 70
     1
  9
$SHADEDGE
 70
     3
  9
$SHADEDIF
 70
    70
  9
$TILEMODE
 70
     1
  9
$MAXACTVP
 70
    64
  9
$PINSBASE
 10
0.0
 20
0.0
 30
0.0
  9
$PLIMCHECK
 70
     0
  9
$PEXTMIN
 10
1.000000000000000E+20
 20
1.000000000000000E+20
 30
1.000000000000000E+20
  9
$PEXTMAX
 10
-1.000000000000000E+20
 20
-1.000000000000000E+20
 30
-1.000000000000000E+20
  9
$PLIMMIN
 10
0.0
 20
0.0
  9
$PLIMMAX
 10
420.0
 20
297.0
  9
$UNITMODE
 70
     0
  9
$VISRETAIN
 70
     1
  9
$PLINEGEN
 70
     0
  9
$PSLTSCALE
 70
     1
  9
$TREEDEPTH
 70
  3020
  9
$PICKSTYLE
 70
     1
  9
$CMLSTYLE
  2
STANDARD
  9
$CMLJUST
 70
     0
  9
$CMLSCALE
 40
20.0
  9
$PROXYGRAPHICS
 70
     1
  9
$MEASUREMENT
 70
     1
  0
ENDSEC
  0
SECTION
  2
CLASSES
  0
CLASS
  1
ACDBDICTIONARYWDFLT
  2
AcDbDictionaryWithDefault
  3
ObjectDBX Classes
 90
        0
280
     0
281
     0
  0
CLASS
  1
VISUALSTYLE
  2
AcDbVisualStyle
  3
ObjectDBX Classes
 90
     4095
280
     0
281
     0
  0
CLASS
  1
MATERIAL
  2
AcDbMaterial
  3
ObjectDBX Classes
 90
     1153
280
     0
281
     0
  0
CLASS
  1
SCALE
  2
AcDbScale
  3
ObjectDBX Classes
 90
     1153
280
     0
281
     0
  0
CLASS
  1
TABLESTYLE
  2
AcDbTableStyle
  3
ObjectDBX Classes
 90
     4095
280
     0
281
     0
  0
CLASS
  1
MLEADERSTYLE
  2
AcDbMLeaderStyle
  3
ACDB_MLEADERSTYLE_CLASS
 90
     4095
280
     0
281
     0
  0
CLASS
  1
SUN
  2
AcDbSun
  3
SCENEOE
 90
     1153
280
     0
281
     0
  0
CLASS
  1
DICTIONARYVAR
  2
AcDbDictionaryVar
  3
ObjectDBX Classes
 90
        0
280
     0
281
     0
  0
CLASS
  1
XRECORD
  2
AcDbXrecord
  3
ObjectDBX Classes
 90
        0
280
     0
281
     0
  0
CLASS
  1
LWPOLYLINE
  2
AcDbPolyline
  3
ObjectDBX Classes
 90
        0
280
     0
281
     1
  0
CLASS
  1
HATCH
  2
AcDbHatch
  3
ObjectDBX Classes
 90
        0
280
     0
281
     1
  0
CLASS
  1
ACDBPLACEHOLDER
  2
AcDbPlaceHolder
  3
ObjectDBX Classes
 90
        0
280
     0
281
     0
  0
CLASS
  1
LAYOUT
  2
AcDbLayout
  3
ObjectDBX Classes
 90
        0
280
     0
281
     0
  0
ENDSEC
  0
SECTION
  2
TABLES
  0
TABLE
  2
VPORT
  5
8
102
{ACAD_XDICTIONARY
360
32D
102
}
330
0
100
AcDbSymbolTable
 70
     1
  0
VPORT
  5
29
330
8
100
AcDbSymbolTableRecord
100
AcDbViewportTableRecord
  2
*ACTIVE
 70
     0
 10
0.0
 20
0.0
 11
1.0
 21
1.0
 12
975.0000000000001
 22
725.0
 13
0.0
 23
0.0
 14
10.0
 24
10.0
 15
10.0
 25
10.0
 16
0.0
 26
0.0
 36
1.0
 17
0.0
 27
0.0
 37
0.0
 40
1350.0
 41
1.407407407407408
 42
50.0
 43
0.0
 44
0.0
 50
0.0
 51
0.0
 71
     0
 72
  1000
 73
     1
 74
     3
 75
     0
 76
     0
 77
     0
 78
     0
  0
ENDTAB
  0
TABLE
  2
LTYPE
  5
5
330
0
100
AcDbSymbolTable
 70
     6
  0
LTYPE
  5
14
330
5
100
AcDbSymbolTableRecord
100
AcDbLinetypeTableRecord
  2
BYBLOCK
 70
     0
  3

 72
    65
 73
     0
 40
0.0
  0
LTYPE
  5
15
330
5
100
AcDbSymbolTableRecord
100
AcDbLinetypeTableRecord
  2
BYLAYER
 70
     0
  3

 72
    65
 73
     0
 40
0.0
  0
LTYPE
  5
16
330
5
100
AcDbSymbolTableRecord
100
AcDbLinetypeTableRecord
  2
CONTINUOUS
 70
     0
  3
Solid line
 72
    65
 73
     0
 40
0.0
  0
LTYPE
  5
6E
330
5
100
AcDbSymbolTableRecord
100
AcDbLinetypeTableRecord
  2
HIDDEN
 70
     0
  3
Hidden __ __ __ __ __ __ __ __ __ __ __ __ __ __
 72
    65
 73
     2
 40
9.524999999999999
 49
6.35
 74
     0
 49
-3.175
 74
     0
  0
LTYPE
  5
6F
330
5
100
AcDbSymbolTableRecord
100
AcDbLinetypeTableRecord
  2
CENTER
 70
     0
  3
Center ____ _ ____ _ ____ _ ____ _ ____ _ ____
 72
    65
 73
     4
 40
50.8
 49
31.75
 74
     0
 49
-6.35
 74
     0
 49
6.35
 74
     0
 49
-6.35
 74
     0
  0
LTYPE
  5
70
330
5
100
AcDbSymbolTableRecord
100
AcDbLinetypeTableRecord
  2
PHANTOM
 70
     0
  3
Phantom ______  __  __  ______  __  __  ______ 
 72
    65
 73
     6
 40
63.50000000000001
 49
31.75
 74
     0
 49
-6.35
 74
     0
 49
6.35
 74
     0
 49
-6.35
 74
     0
 49
6.35
 74
     0
 49
-6.35
 74
     0
  0
LTYPE
  5
71
330
5
100
AcDbSymbolTableRecord
100
AcDbLinetypeTableRecord
  2
ACAD_ISO06W100
 70
     0
  3
ISO long-dash triple-dot ____ ... ____ ... ____
 72
    65
 73
     8
 40
36.0
 49
24.0
 74
     0
 49
-3.0
 74
     0
 49
0.0
 74
     0
 49
-3.0
 74
     0
 49
0.0
 74
     0
 49
-3.0
 74
     0
 49
0.0
 74
     0
 49
-3.0
 74
     0
  0
LTYPE
  5
72
330
5
100
AcDbSymbolTableRecord
100
AcDbLinetypeTableRecord
  2
ACAD_ISO15W100
 70
     0
  3
ISO double-dash triple-dot __ __ . . . __ __ . .
 72
    65
 73
    10
 40
39.0
 49
12.0
 74
     0
 49
-3.0
 74
     0
 49
12.0
 74
     0
 49
-3.0
 74
     0
 49
0.0
 74
     0
 49
-3.0
 74
     0
 49
0.0
 74
     0
 49
-3.0
 74
     0
 49
0.0
 74
     0
 49
-3.0
 74
     0
  0
ENDTAB
  0
TABLE
  2
LAYER
  5
2
330
0
100
AcDbSymbolTable
 70
     6
  0
LAYER
  5
10
330
2
100
AcDbSymbolTableRecord
100
AcDbLayerTableRecord
  2
0
 70
     0
 62
     7
  6
CONTINUOUS
  0
LAYER
  5
75
330
2
100
AcDbSymbolTableRecord
100
AcDbLayerTableRecord
  2
LAY-10
 70
     0
 62
     7
  6
CONTINUOUS
  0
LAYER
  5
76
330
2
100
AcDbSymbolTableRecord
100
AcDbLayerTableRecord
  2
LAY-11
 70
     0
 62
     7
  6
CONTINUOUS
  0
LAYER
  5
77
330
2
100
AcDbSymbolTableRecord
100
AcDbLayerTableRecord
  2
LAY-20
 70
     0
 62
     7
  6
CONTINUOUS
  0
LAYER
  5
78
330
2
100
AcDbSymbolTableRecord
100
AcDbLayerTableRecord
  2
LAY-255
 70
     0
 62
     7
  6
CONTINUOUS
  0
LAYER
  5
299
330
2
100
AcDbSymbolTableRecord
100
AcDbLayerTableRecord
  2
DEFPOINTS
 70
     0
 62
     7
  6
CONTINUOUS
  0
ENDTAB
  0
TABLE
  2
STYLE
  5
3
330
0
100
AcDbSymbolTable
 70
     4
  0
STYLE
  5
11
330
3
100
AcDbSymbolTableRecord
100
AcDbTextStyleTableRecord
  2
STANDARD
 70
     0
 40
0.0
 41
1.0
 50
0.0
 71
     0
 42
2.5
  3
simplex
  4
bigfont
  0
STYLE
  5
73
330
3
100
AcDbSymbolTableRecord
100
AcDbTextStyleTableRecord
  2
EXCADSTD
 70
     0
 40
0.0
 41
1.0
 50
0.0
 71
     0
 42
2.5
  3
simplex
  4
bigfont
  0
STYLE
  5
74
330
3
100
AcDbSymbolTableRecord
100
AcDbTextStyleTableRecord
  2
EXCADVERT
 70
     4
 40
0.0
 41
1.0
 50
0.0
 71
     0
 42
2.5
  3
simplex
  4
bigfont
  0
STYLE
  5
297
330
3
100
AcDbSymbolTableRecord
100
AcDbTextStyleTableRecord
  2
EXCADDIM1
 70
     0
 40
0.0
 41
0.84
 50
0.0
 71
     0
 42
2.5
  3
simplex
  4
bigfont
  0
ENDTAB
  0
TABLE
  2
VIEW
  5
6
330
0
100
AcDbSymbolTable
 70
     0
  0
ENDTAB
  0
TABLE
  2
UCS
  5
7
330
0
100
AcDbSymbolTable
 70
     0
  0
ENDTAB
  0
TABLE
  2
APPID
  5
9
330
0
100
AcDbSymbolTable
 70
     2
  0
APPID
  5
12
330
9
100
AcDbSymbolTableRecord
100
AcDbRegAppTableRecord
  2
ACAD
 70
     0
  0
APPID
  5
337
330
9
100
AcDbSymbolTableRecord
100
AcDbRegAppTableRecord
  2
ACAD_MLEADERVER
 70
     0
  0
ENDTAB
  0
TABLE
  2
DIMSTYLE
  5
A
330
0
100
AcDbSymbolTable
 70
     1
  0
DIMSTYLE
105
27
102
{ACAD_REACTORS
330
298
330
2A6
330
2B3
330
2C0
330
2CD
102
}
330
A
100
AcDbSymbolTableRecord
100
AcDbDimStyleTableRecord
  2
ISO-25
 70
     0
  3

  4

  5

  6

  7

 40
1.0
 41
2.5
 42
0.625
 43
3.75
 44
1.25
 45
0.0
 46
0.0
 47
0.0
 48
0.0
140
2.5
141
2.5
142
0.0
143
0.03937007874016
144
1.0
145
0.0
146
1.0
147
0.625
 71
     0
 72
     0
 73
     0
 74
     0
 75
     0
 76
     0
 77
     1
 78
     8
170
     0
171
     3
172
     1
173
     0
174
     0
175
     0
176
     0
177
     0
178
     0
270
     2
271
     2
272
     2
273
     2
274
     3
340
11
275
     0
280
     0
281
     0
282
     0
283
     0
284
     8
285
     0
286
     0
287
     5
288
     0
  0
ENDTAB
  0
TABLE
  2
BLOCK_RECORD
  5
1
330
0
100
AcDbSymbolTable
 70
    19
  0
BLOCK_RECORD
  5
1F
330
1
100
AcDbSymbolTableRecord
100
AcDbBlockTableRecord
  2
*MODEL_SPACE
  0
BLOCK_RECORD
  5
1B
330
1
100
AcDbSymbolTableRecord
100
AcDbBlockTableRecord
  2
*PAPER_SPACE
  0
BLOCK_RECORD
  5
79
330
1
100
AcDbSymbolTableRecord
100
AcDbBlockTableRecord
  2
EX_NORM
  0
BLOCK_RECORD
  5
7C
330
1
100
AcDbSymbolTableRecord
100
AcDbBlockTableRecord
  2
EX_BNORM
  0
BLOCK_RECORD
  5
7F
330
1
100
AcDbSymbolTableRecord
100
AcDbBlockTableRecord
  2
EX_BCIR
  0
BLOCK_RECORD
  5
82
330
1
100
AcDbSymbolTableRecord
100
AcDbBlockTableRecord
  2
EX_RCIVIL
  0
BLOCK_RECORD
  5
85
330
1
100
AcDbSymbolTableRecord
100
AcDbBlockTableRecord
  2
EX_SLANT
  0
BLOCK_RECORD
  5
88
330
1
100
AcDbSymbolTableRecord
100
AcDbBlockTableRecord
  2
EX_NONE
  0
BLOCK_RECORD
  5
8B
330
1
100
AcDbSymbolTableRecord
100
AcDbBlockTableRecord
  2
EX_CIVIL
  0
BLOCK_RECORD
  5
8E
330
1
100
AcDbSymbolTableRecord
100
AcDbBlockTableRecord
  2
EX_WCIR
  0
BLOCK_RECORD
  5
91
330
1
100
AcDbSymbolTableRecord
100
AcDbBlockTableRecord
  2
EX_WCIR2
  0
BLOCK_RECORD
  5
94
330
1
100
AcDbSymbolTableRecord
100
AcDbBlockTableRecord
  2
EX_WNORM
  0
BLOCK_RECORD
  5
97
330
1
100
AcDbSymbolTableRecord
100
AcDbBlockTableRecord
  2
EX_NNORM
  0
BLOCK_RECORD
  5
9A
330
1
100
AcDbSymbolTableRecord
100
AcDbBlockTableRecord
  2
EX_BBOX
  0
BLOCK_RECORD
  5
9D
330
1
100
AcDbSymbolTableRecord
100
AcDbBlockTableRecord
  2
EX_WBOX
  0
BLOCK_RECORD
  5
A0
330
1
100
AcDbSymbolTableRecord
100
AcDbBlockTableRecord
  2
EX_INTEGRAL
  0
BLOCK_RECORD
  5
29A
330
1
100
AcDbSymbolTableRecord
100
AcDbBlockTableRecord
  2
*D15
  0
BLOCK_RECORD
  5
2A7
330
1
100
AcDbSymbolTableRecord
100
AcDbBlockTableRecord
  2
*D16
  0
BLOCK_RECORD
  5
2B4
330
1
100
AcDbSymbolTableRecord
100
AcDbBlockTableRecord
  2
*D17
  0
BLOCK_RECORD
  5
2C1
330
1
100
AcDbSymbolTableRecord
100
AcDbBlockTableRecord
  2
*D18
  0
BLOCK_RECORD
  5
2CE
330
1
100
AcDbSymbolTableRecord
100
AcDbBlockTableRecord
  2
*D19
  0
ENDTAB
  0
ENDSEC
  0
SECTION
  2
BLOCKS
  0
BLOCK
  5
20
330
1F
100
AcDbEntity
  8
0
100
AcDbBlockBegin
  2
*MODEL_SPACE
 70
     0
 10
0.0
 20
0.0
 30
0.0
  3
*MODEL_SPACE
  1

  0
ENDBLK
  5
21
330
1F
100
AcDbEntity
  8
0
100
AcDbBlockEnd
  0
BLOCK
  5
1C
330
1B
100
AcDbEntity
 67
     1
  8
0
100
AcDbBlockBegin
  2
*PAPER_SPACE
 70
     0
 10
0.0
 20
0.0
 30
0.0
  3
*PAPER_SPACE
  1

  0
ENDBLK
  5
1D
330
1B
100
AcDbEntity
 67
     1
  8
0
100
AcDbBlockEnd
  0
BLOCK
  5
7A
330
79
100
AcDbEntity
  8
0
100
AcDbBlockBegin
  2
EX_NORM
 70
     0
 10
0.0
 20
0.0
 30
0.0
  3
EX_NORM
  1

  0
LINE
  5
A3
330
79
100
AcDbEntity
  8
0
  6
CONTINUOUS
 62
     0
100
AcDbLine
 10
0.0
 20
0.0
 30
0.0
 11
-1.0
 21
0.0
 31
0.0
  0
LINE
  5
A4
330
79
100
AcDbEntity
  8
0
  6
CONTINUOUS
 62
     0
100
AcDbLine
 10
0.0
 20
0.0
 30
0.0
 11
-1.0
 21
0.166666667
 31
0.0
  0
LINE
  5
A5
330
79
100
AcDbEntity
  8
0
  6
CONTINUOUS
 62
     0
100
AcDbLine
 10
0.0
 20
0.0
 30
0.0
 11
-1.0
 21
-0.166666667
 31
0.0
  0
ENDBLK
  5
7B
330
79
100
AcDbEntity
  8
0
100
AcDbBlockEnd
  0
BLOCK
  5
7D
330
7C
100
AcDbEntity
  8
0
100
AcDbBlockBegin
  2
EX_BNORM
 70
     0
 10
0.0
 20
0.0
 30
0.0
  3
EX_BNORM
  1

  0
LINE
  5
A6
330
7C
100
AcDbEntity
  8
0
  6
CONTINUOUS
 62
     0
100
AcDbLine
 10
0.0
 20
0.0
 30
0.0
 11
-1.0
 21
0.0
 31
0.0
  0
LINE
  5
A7
330
7C
100
AcDbEntity
  8
0
  6
CONTINUOUS
 62
     0
100
AcDbLine
 10
0.0
 20
0.0
 30
0.0
 11
-1.0
 21
0.166666667
 31
0.0
  0
LINE
  5
A8
330
7C
100
AcDbEntity
  8
0
  6
CONTINUOUS
 62
     0
100
AcDbLine
 10
0.0
 20
0.0
 30
0.0
 11
-1.0
 21
-0.166666667
 31
0.0
  0
LINE
  5
A9
330
7C
100
AcDbEntity
  8
0
  6
CONTINUOUS
 62
     0
100
AcDbLine
 10
0.0
 20
0.0
 30
0.0
 11
-1.0
 21
0.083333333
 31
0.0
  0
LINE
  5
AA
330
7C
100
AcDbEntity
  8
0
  6
CONTINUOUS
 62
     0
100
AcDbLine
 10
0.0
 20
0.0
 30
0.0
 11
-1.0
 21
-0.083333333
 31
0.0
  0
LINE
  5
AB
330
7C
100
AcDbEntity
  8
0
  6
CONTINUOUS
 62
     0
100
AcDbLine
 10
-1.0
 20
0.166666667
 30
0.0
 11
-1.0
 21
-0.166666667
 31
0.0
  0
ENDBLK
  5
7E
330
7C
100
AcDbEntity
  8
0
100
AcDbBlockEnd
  0
BLOCK
  5
80
330
7F
100
AcDbEntity
  8
0
100
AcDbBlockBegin
  2
EX_BCIR
 70
     0
 10
0.0
 20
0.0
 30
0.0
  3
EX_BCIR
  1

  0
LINE
  5
AC
330
7F
100
AcDbEntity
  8
0
  6
CONTINUOUS
 62
     0
100
AcDbLine
 10
0.0
 20
0.0
 30
0.0
 11
-1.0
 21
0.0
 31
0.0
  0
CIRCLE
  5
AD
330
7F
100
AcDbEntity
  8
0
  6
CONTINUOUS
 62
     0
100
AcDbCircle
 10
0.0
 20
0.0
 30
0.0
 40
0.5
  0
CIRCLE
  5
AE
330
7F
100
AcDbEntity
  8
0
  6
CONTINUOUS
 62
     0
100
AcDbCircle
 10
0.0
 20
0.0
 30
0.0
 40
0.25
  0
ENDBLK
  5
81
330
7F
100
AcDbEntity
  8
0
100
AcDbBlockEnd
  0
BLOCK
  5
83
330
82
100
AcDbEntity
  8
0
100
AcDbBlockBegin
  2
EX_RCIVIL
 70
     0
 10
0.0
 20
0.0
 30
0.0
  3
EX_RCIVIL
  1

  0
LINE
  5
AF
330
82
100
AcDbEntity
  8
0
  6
CONTINUOUS
 62
     0
100
AcDbLine
 10
0.0
 20
0.0
 30
0.0
 11
-1.0
 21
0.0
 31
0.0
  0
LINE
  5
B0
330
82
100
AcDbEntity
  8
0
  6
CONTINUOUS
 62
     0
100
AcDbLine
 10
-1.0
 20
-0.25
 30
0.0
 11
0.0
 21
-0.25
 31
0.0
  0
LINE
  5
B1
330
82
100
AcDbEntity
  8
0
  6
CONTINUOUS
 62
     0
100
AcDbLine
 10
-1.0
 20
-0.125
 30
0.0
 11
0.0
 21
-0.125
 31
0.0
  0
ENDBLK
  5
84
330
82
100
AcDbEntity
  8
0
100
AcDbBlockEnd
  0
BLOCK
  5
86
330
85
100
AcDbEntity
  8
0
100
AcDbBlockBegin
  2
EX_SLANT
 70
     0
 10
0.0
 20
0.0
 30
0.0
  3
EX_SLANT
  1

  0
LINE
  5
B2
330
85
100
AcDbEntity
  8
0
  6
CONTINUOUS
 62
     0
100
AcDbLine
 10
0.0
 20
0.0
 30
0.0
 11
-1.0
 21
0.0
 31
0.0
  0
LINE
  5
B3
330
85
100
AcDbEntity
  8
0
  6
CONTINUOUS
 62
     0
100
AcDbLine
 10
0.707106781
 20
0.707106781
 30
0.0
 11
-0.707106781
 21
-0.707106781
 31
0.0
  0
ENDBLK
  5
87
330
85
100
AcDbEntity
  8
0
100
AcDbBlockEnd
  0
BLOCK
  5
89
330
88
100
AcDbEntity
  8
0
100
AcDbBlockBegin
  2
EX_NONE
 70
     0
 10
0.0
 20
0.0
 30
0.0
  3
EX_NONE
  1

  0
LINE
  5
B4
330
88
100
AcDbEntity
  8
0
  6
CONTINUOUS
 62
     0
100
AcDbLine
 10
0.0
 20
0.0
 30
0.0
 11
-1.0
 21
0.0
 31
0.0
  0
ENDBLK
  5
8A
330
88
100
AcDbEntity
  8
0
100
AcDbBlockEnd
  0
BLOCK
  5
8C
330
8B
100
AcDbEntity
  8
0
100
AcDbBlockBegin
  2
EX_CIVIL
 70
     0
 10
0.0
 20
0.0
 30
0.0
  3
EX_CIVIL
  1

  0
LINE
  5
B5
330
8B
100
AcDbEntity
  8
0
  6
CONTINUOUS
 62
     0
100
AcDbLine
 10
0.0
 20
0.0
 30
0.0
 11
-1.0
 21
0.0
 31
0.0
  0
LINE
  5
B6
330
8B
100
AcDbEntity
  8
0
  6
CONTINUOUS
 62
     0
100
AcDbLine
 10
-1.0
 20
0.25
 30
0.0
 11
0.0
 21
0.25
 31
0.0
  0
LINE
  5
B7
330
8B
100
AcDbEntity
  8
0
  6
CONTINUOUS
 62
     0
100
AcDbLine
 10
-1.0
 20
0.125
 30
0.0
 11
0.0
 21
0.125
 31
0.0
  0
ENDBLK
  5
8D
330
8B
100
AcDbEntity
  8
0
100
AcDbBlockEnd
  0
BLOCK
  5
8F
330
8E
100
AcDbEntity
  8
0
100
AcDbBlockBegin
  2
EX_WCIR
 70
     0
 10
0.0
 20
0.0
 30
0.0
  3
EX_WCIR
  1

  0
LINE
  5
B8
330
8E
100
AcDbEntity
  8
0
  6
CONTINUOUS
 62
     0
100
AcDbLine
 10
0.0
 20
0.0
 30
0.0
 11
-1.0
 21
0.0
 31
0.0
  0
CIRCLE
  5
B9
330
8E
100
AcDbEntity
  8
0
  6
CONTINUOUS
 62
     0
100
AcDbCircle
 10
0.0
 20
0.0
 30
0.0
 40
0.5
  0
ENDBLK
  5
90
330
8E
100
AcDbEntity
  8
0
100
AcDbBlockEnd
  0
BLOCK
  5
92
330
91
100
AcDbEntity
  8
0
100
AcDbBlockBegin
  2
EX_WCIR2
 70
     0
 10
0.0
 20
0.0
 30
0.0
  3
EX_WCIR2
  1

  0
LINE
  5
BA
330
91
100
AcDbEntity
  8
0
  6
CONTINUOUS
 62
     0
100
AcDbLine
 10
-0.5
 20
0.0
 30
0.0
 11
-1.0
 21
0.0
 31
0.0
  0
CIRCLE
  5
BB
330
91
100
AcDbEntity
  8
0
  6
CONTINUOUS
 62
     0
100
AcDbCircle
 10
0.0
 20
0.0
 30
0.0
 40
0.5
  0
ENDBLK
  5
93
330
91
100
AcDbEntity
  8
0
100
AcDbBlockEnd
  0
BLOCK
  5
95
330
94
100
AcDbEntity
  8
0
100
AcDbBlockBegin
  2
EX_WNORM
 70
     0
 10
0.0
 20
0.0
 30
0.0
  3
EX_WNORM
  1

  0
LINE
  5
BC
330
94
100
AcDbEntity
  8
0
  6
CONTINUOUS
 62
     0
100
AcDbLine
 10
-1.0
 20
0.0
 30
0.0
 11
-1.0
 21
0.0
 31
0.0
  0
LINE
  5
BD
330
94
100
AcDbEntity
  8
0
  6
CONTINUOUS
 62
     0
100
AcDbLine
 10
0.0
 20
0.0
 30
0.0
 11
-1.0
 21
0.166666667
 31
0.0
  0
LINE
  5
BE
330
94
100
AcDbEntity
  8
0
  6
CONTINUOUS
 62
     0
100
AcDbLine
 10
0.0
 20
0.0
 30
0.0
 11
-1.0
 21
-0.166666667
 31
0.0
  0
LINE
  5
BF
330
94
100
AcDbEntity
  8
0
  6
CONTINUOUS
 62
     0
100
AcDbLine
 10
-1.0
 20
0.166666667
 30
0.0
 11
-1.0
 21
-0.166666667
 31
0.0
  0
ENDBLK
  5
96
330
94
100
AcDbEntity
  8
0
100
AcDbBlockEnd
  0
BLOCK
  5
98
330
97
100
AcDbEntity
  8
0
100
AcDbBlockBegin
  2
EX_NNORM
 70
     0
 10
0.0
 20
0.0
 30
0.0
  3
EX_NNORM
  1

  0
LINE
  5
C0
330
97
100
AcDbEntity
  8
0
  6
CONTINUOUS
 62
     0
100
AcDbLine
 10
0.0
 20
0.0
 30
0.0
 11
-1.0
 21
0.0
 31
0.0
  0
LINE
  5
C1
330
97
100
AcDbEntity
  8
0
  6
CONTINUOUS
 62
     0
100
AcDbLine
 10
0.0
 20
0.0
 30
0.0
 11
-1.0
 21
0.166666667
 31
0.0
  0
LINE
  5
C2
330
97
100
AcDbEntity
  8
0
  6
CONTINUOUS
 62
     0
100
AcDbLine
 10
0.0
 20
0.0
 30
0.0
 11
-1.0
 21
-0.166666667
 31
0.0
  0
LINE
  5
C3
330
97
100
AcDbEntity
  8
0
  6
CONTINUOUS
 62
     0
100
AcDbLine
 10
-1.0
 20
0.166666667
 30
0.0
 11
-1.0
 21
-0.166666667
 31
0.0
  0
ENDBLK
  5
99
330
97
100
AcDbEntity
  8
0
100
AcDbBlockEnd
  0
BLOCK
  5
9B
330
9A
100
AcDbEntity
  8
0
100
AcDbBlockBegin
  2
EX_BBOX
 70
     0
 10
0.0
 20
0.0
 30
0.0
  3
EX_BBOX
  1

  0
LINE
  5
C4
330
9A
100
AcDbEntity
  8
0
  6
CONTINUOUS
 62
     0
100
AcDbLine
 10
0.0
 20
0.0
 30
0.0
 11
-1.0
 21
0.0
 31
0.0
  0
LINE
  5
C5
330
9A
100
AcDbEntity
  8
0
  6
CONTINUOUS
 62
     0
100
AcDbLine
 10
-0.5
 20
0.5
 30
0.0
 11
0.5
 21
0.5
 31
0.0
  0
LINE
  5
C6
330
9A
100
AcDbEntity
  8
0
  6
CONTINUOUS
 62
     0
100
AcDbLine
 10
0.5
 20
0.5
 30
0.0
 11
0.5
 21
-0.5
 31
0.0
  0
LINE
  5
C7
330
9A
100
AcDbEntity
  8
0
  6
CONTINUOUS
 62
     0
100
AcDbLine
 10
0.5
 20
-0.5
 30
0.0
 11
-0.5
 21
-0.5
 31
0.0
  0
LINE
  5
C8
330
9A
100
AcDbEntity
  8
0
  6
CONTINUOUS
 62
     0
100
AcDbLine
 10
-0.5
 20
-0.5
 30
0.0
 11
-0.5
 21
0.5
 31
0.0
  0
LINE
  5
C9
330
9A
100
AcDbEntity
  8
0
  6
CONTINUOUS
 62
     0
100
AcDbLine
 10
-0.25
 20
0.25
 30
0.0
 11
0.25
 21
0.25
 31
0.0
  0
LINE
  5
CA
330
9A
100
AcDbEntity
  8
0
  6
CONTINUOUS
 62
     0
100
AcDbLine
 10
0.25
 20
0.25
 30
0.0
 11
0.25
 21
-0.25
 31
0.0
  0
LINE
  5
CB
330
9A
100
AcDbEntity
  8
0
  6
CONTINUOUS
 62
     0
100
AcDbLine
 10
0.25
 20
-0.25
 30
0.0
 11
-0.25
 21
-0.25
 31
0.0
  0
LINE
  5
CC
330
9A
100
AcDbEntity
  8
0
  6
CONTINUOUS
 62
     0
100
AcDbLine
 10
-0.25
 20
-0.25
 30
0.0
 11
-0.25
 21
0.25
 31
0.0
  0
ENDBLK
  5
9C
330
9A
100
AcDbEntity
  8
0
100
AcDbBlockEnd
  0
BLOCK
  5
9E
330
9D
100
AcDbEntity
  8
0
100
AcDbBlockBegin
  2
EX_WBOX
 70
     0
 10
0.0
 20
0.0
 30
0.0
  3
EX_WBOX
  1

  0
LINE
  5
CD
330
9D
100
AcDbEntity
  8
0
  6
CONTINUOUS
 62
     0
100
AcDbLine
 10
-0.5
 20
0.0
 30
0.0
 11
-1.0
 21
0.0
 31
0.0
  0
LINE
  5
CE
330
9D
100
AcDbEntity
  8
0
  6
CONTINUOUS
 62
     0
100
AcDbLine
 10
-0.5
 20
0.5
 30
0.0
 11
0.5
 21
0.5
 31
0.0
  0
LINE
  5
CF
330
9D
100
AcDbEntity
  8
0
  6
CONTINUOUS
 62
     0
100
AcDbLine
 10
0.5
 20
0.5
 30
0.0
 11
0.5
 21
-0.5
 31
0.0
  0
LINE
  5
D0
330
9D
100
AcDbEntity
  8
0
  6
CONTINUOUS
 62
     0
100
AcDbLine
 10
0.5
 20
-0.5
 30
0.0
 11
-0.5
 21
-0.5
 31
0.0
  0
LINE
  5
D1
330
9D
100
AcDbEntity
  8
0
  6
CONTINUOUS
 62
     0
100
AcDbLine
 10
-0.5
 20
-0.5
 30
0.0
 11
-0.5
 21
0.5
 31
0.0
  0
ENDBLK
  5
9F
330
9D
100
AcDbEntity
  8
0
100
AcDbBlockEnd
  0
BLOCK
  5
A1
330
A0
100
AcDbEntity
  8
0
100
AcDbBlockBegin
  2
EX_INTEGRAL
 70
     0
 10
0.0
 20
0.0
 30
0.0
  3
EX_INTEGRAL
  1

  0
LINE
  5
D2
330
A0
100
AcDbEntity
  8
0
  6
CONTINUOUS
 62
     0
100
AcDbLine
 10
0.0
 20
0.0
 30
0.0
 11
-1.0
 21
0.0
 31
0.0
  0
ARC
  5
D3
330
A0
100
AcDbEntity
  8
0
  6
CONTINUOUS
 62
     0
100
AcDbCircle
 10
0.542115
 20
0.164992
 30
0.0
 40
0.56667
100
AcDbArc
 50
73.07249033629006
 51
196.9275130221199
  0
ARC
  5
D4
330
A0
100
AcDbEntity
  8
0
  6
CONTINUOUS
 62
     0
100
AcDbCircle
 10
-0.542115
 20
-0.164992
 30
0.0
 40
0.56667
100
AcDbArc
 50
253.0724869220464
 51
16.9275130559125
  0
ENDBLK
  5
A2
330
A0
100
AcDbEntity
  8
0
100
AcDbBlockEnd
  0
BLOCK
  5
29B
330
29A
100
AcDbEntity
  8
0
100
AcDbBlockBegin
  2
*D15
 70
     1
 10
0.0
 20
0.0
 30
0.0
  3
*D15
  1

  0
LINE
  5
29D
330
29A
100
AcDbEntity
  8
LAY-20
  6
CONTINUOUS
 62
     4
100
AcDbLine
 10
1022.91630560344
 20
441.59626233897
 30
0.0
 11
1072.91630560343
 21
441.59626233897
 31
0.0
  0
LINE
  5
29E
330
29A
100
AcDbEntity
  8
LAY-20
  6
CONTINUOUS
 62
     4
100
AcDbLine
 10
935.0
 20
496.596262339
 30
0.0
 11
1072.91630560343
 21
496.596262339
 31
0.0
  0
LINE
  5
29F
330
29A
100
AcDbEntity
  8
LAY-20
  6
CONTINUOUS
 62
     4
100
AcDbLine
 10
1065.41630560343
 20
454.09626233897
 30
0.0
 11
1065.41630560343
 21
484.096262339
 31
0.0
  0
INSERT
  5
2A0
330
29A
100
AcDbEntity
  8
LAY-20
 62
     4
100
AcDbBlockReference
  2
EX_BNORM
 10
1065.41630560343
 20
441.59626233897
 30
0.0
 41
12.5
 42
12.5
 43
12.5
 50
270.0
  0
INSERT
  5
2A1
330
29A
100
AcDbEntity
  8
LAY-20
 62
     4
100
AcDbBlockReference
  2
EX_BNORM
 10
1065.41630560343
 20
496.596262339
 30
0.0
 41
12.5
 42
12.5
 43
12.5
 50
90.0
  0
MTEXT
  5
2A2
330
29A
100
AcDbEntity
  8
LAY-20
 62
     7
100
AcDbMText
 10
1052.91630560343
 20
469.096262338985
 30
0.0
 40
15.590552
 41
0.0
 71
     5
 72
     1
  1
55
  7
EXCADDIM1
 11
0.0
 21
1.0
 31
0.0
  0
POINT
  5
2A3
330
29A
100
AcDbEntity
  8
DEFPOINTS
 62
     0
100
AcDbPoint
 10
1015.41630560344
 20
441.59626233897
 30
0.0
  0
POINT
  5
2A4
330
29A
100
AcDbEntity
  8
DEFPOINTS
 62
     0
100
AcDbPoint
 10
927.5
 20
496.596262339
 30
0.0
  0
POINT
  5
2A5
330
29A
100
AcDbEntity
  8
DEFPOINTS
 62
     0
100
AcDbPoint
 10
1065.41630560343
 20
496.596262339
 30
0.0
  0
ENDBLK
  5
29C
330
29A
100
AcDbEntity
  8
0
100
AcDbBlockEnd
  0
BLOCK
  5
2A8
330
2A7
100
AcDbEntity
  8
0
100
AcDbBlockBegin
  2
*D16
 70
     1
 10
0.0
 20
0.0
 30
0.0
  3
*D16
  1

  0
LINE
  5
2AA
330
2A7
100
AcDbEntity
  8
LAY-20
  6
CONTINUOUS
 62
     4
100
AcDbLine
 10
522.5
 20
504.096262339
 30
0.0
 11
522.5
 21
627.5
 31
0.0
  0
LINE
  5
2AB
330
2A7
100
AcDbEntity
  8
LAY-20
  6
CONTINUOUS
 62
     4
100
AcDbLine
 10
927.5
 20
511.596262339
 30
0.0
 11
927.5
 21
627.5
 31
0.0
  0
LINE
  5
2AC
330
2A7
100
AcDbEntity
  8
LAY-20
  6
CONTINUOUS
 62
     4
100
AcDbLine
 10
537.5
 20
620.0
 30
0.0
 11
912.5
 21
620.0
 31
0.0
  0
INSERT
  5
2AD
330
2A7
100
AcDbEntity
  8
LAY-20
 62
     4
100
AcDbBlockReference
  2
EX_BNORM
 10
522.5
 20
620.0
 30
0.0
 41
15.0
 42
15.0
 43
15.0
 50
180.0
  0
INSERT
  5
2AE
330
2A7
100
AcDbEntity
  8
LAY-20
 62
     4
100
AcDbBlockReference
  2
EX_BNORM
 10
927.5
 20
620.0
 30
0.0
 41
15.0
 42
15.0
 43
15.0
  0
MTEXT
  5
2AF
330
2A7
100
AcDbEntity
  8
LAY-20
 62
     7
100
AcDbMText
 10
725.0
 20
632.5
 30
0.0
 40
15.590552
 41
0.0
 71
     5
 72
     1
  1
%%c405
  7
EXCADDIM1
  0
POINT
  5
2B0
330
2A7
100
AcDbEntity
  8
DEFPOINTS
 62
     0
100
AcDbPoint
 10
522.5
 20
496.596262339
 30
0.0
  0
POINT
  5
2B1
330
2A7
100
AcDbEntity
  8
DEFPOINTS
 62
     0
100
AcDbPoint
 10
927.5
 20
504.096262339
 30
0.0
  0
POINT
  5
2B2
330
2A7
100
AcDbEntity
  8
DEFPOINTS
 62
     0
100
AcDbPoint
 10
927.5
 20
620.0
 30
0.0
  0
ENDBLK
  5
2A9
330
2A7
100
AcDbEntity
  8
0
100
AcDbBlockEnd
  0
BLOCK
  5
2B5
330
2B4
100
AcDbEntity
  8
0
100
AcDbBlockBegin
  2
*D17
 70
     1
 10
0.0
 20
0.0
 30
0.0
  3
*D17
  1

  0
LINE
  5
2B7
330
2B4
100
AcDbEntity
  8
LAY-20
  6
CONTINUOUS
 62
     4
100
AcDbLine
 10
530.0
 20
504.096262339
 30
0.0
 11
530.0
 21
592.5
 31
0.0
  0
LINE
  5
2B8
330
2B4
100
AcDbEntity
  8
LAY-20
  6
CONTINUOUS
 62
     4
100
AcDbLine
 10
920.0
 20
504.096262339
 30
0.0
 11
920.0
 21
592.5
 31
0.0
  0
LINE
  5
2B9
330
2B4
100
AcDbEntity
  8
LAY-20
  6
CONTINUOUS
 62
     4
100
AcDbLine
 10
545.0
 20
585.0
 30
0.0
 11
905.0
 21
585.0
 31
0.0
  0
INSERT
  5
2BA
330
2B4
100
AcDbEntity
  8
LAY-20
 62
     4
100
AcDbBlockReference
  2
EX_BNORM
 10
530.0
 20
585.0
 30
0.0
 41
15.0
 42
15.0
 43
15.0
 50
180.0
  0
INSERT
  5
2BB
330
2B4
100
AcDbEntity
  8
LAY-20
 62
     4
100
AcDbBlockReference
  2
EX_BNORM
 10
920.0
 20
585.0
 30
0.0
 41
15.0
 42
15.0
 43
15.0
  0
MTEXT
  5
2BC
330
2B4
100
AcDbEntity
  8
LAY-20
 62
     7
100
AcDbMText
 10
725.0
 20
597.5
 30
0.0
 40
15.590552
 41
0.0
 71
     5
 72
     1
  1
%%c390
  7
EXCADDIM1
  0
POINT
  5
2BD
330
2B4
100
AcDbEntity
  8
DEFPOINTS
 62
     0
100
AcDbPoint
 10
530.0
 20
496.596262339
 30
0.0
  0
POINT
  5
2BE
330
2B4
100
AcDbEntity
  8
DEFPOINTS
 62
     0
100
AcDbPoint
 10
920.0
 20
496.596262339
 30
0.0
  0
POINT
  5
2BF
330
2B4
100
AcDbEntity
  8
DEFPOINTS
 62
     0
100
AcDbPoint
 10
920.0
 20
585.0
 30
0.0
  0
ENDBLK
  5
2B6
330
2B4
100
AcDbEntity
  8
0
100
AcDbBlockEnd
  0
BLOCK
  5
2C2
330
2C1
100
AcDbEntity
  8
0
100
AcDbBlockBegin
  2
*D18
 70
     1
 10
0.0
 20
0.0
 30
0.0
  3
*D18
  1

  0
LINE
  5
2C4
330
2C1
100
AcDbEntity
  8
LAY-20
  6
CONTINUOUS
 62
     4
100
AcDbLine
 10
550.0
 20
434.096262339
 30
0.0
 11
550.0
 21
384.096262339
 31
0.0
  0
LINE
  5
2C5
330
2C1
100
AcDbEntity
  8
LAY-20
  6
CONTINUOUS
 62
     4
100
AcDbLine
 10
900.0
 20
434.096262339
 30
0.0
 11
900.0
 21
384.096262339
 31
0.0
  0
LINE
  5
2C6
330
2C1
100
AcDbEntity
  8
LAY-20
  6
CONTINUOUS
 62
     4
100
AcDbLine
 10
565.0
 20
391.596262339
 30
0.0
 11
885.0
 21
391.596262339
 31
0.0
  0
INSERT
  5
2C7
330
2C1
100
AcDbEntity
  8
LAY-20
 62
     4
100
AcDbBlockReference
  2
EX_BNORM
 10
550.0
 20
391.596262339
 30
0.0
 41
15.0
 42
15.0
 43
15.0
 50
180.0
  0
INSERT
  5
2C8
330
2C1
100
AcDbEntity
  8
LAY-20
 62
     4
100
AcDbBlockReference
  2
EX_BNORM
 10
900.0
 20
391.596262339
 30
0.0
 41
15.0
 42
15.0
 43
15.0
  0
MTEXT
  5
2C9
330
2C1
100
AcDbEntity
  8
LAY-20
 62
     7
100
AcDbMText
 10
725.0
 20
404.096262339
 30
0.0
 40
15.590552
 41
0.0
 71
     5
 72
     1
  1
%%c350
  7
EXCADDIM1
  0
POINT
  5
2CA
330
2C1
100
AcDbEntity
  8
DEFPOINTS
 62
     0
100
AcDbPoint
 10
550.0
 20
441.596262339
 30
0.0
  0
POINT
  5
2CB
330
2C1
100
AcDbEntity
  8
DEFPOINTS
 62
     0
100
AcDbPoint
 10
900.0
 20
441.596262339
 30
0.0
  0
POINT
  5
2CC
330
2C1
100
AcDbEntity
  8
DEFPOINTS
 62
     0
100
AcDbPoint
 10
900.0
 20
391.596262339
 30
0.0
  0
ENDBLK
  5
2C3
330
2C1
100
AcDbEntity
  8
0
100
AcDbBlockEnd
  0
BLOCK
  5
2CF
330
2CE
100
AcDbEntity
  8
0
100
AcDbBlockBegin
  2
*D19
 70
     1
 10
0.0
 20
0.0
 30
0.0
  3
*D19
  1

  0
LINE
  5
2D1
330
2CE
100
AcDbEntity
  8
LAY-20
  6
CONTINUOUS
 62
     4
100
AcDbLine
 10
505.0
 20
434.096262339
 30
0.0
 11
505.0
 21
349.096262339
 31
0.0
  0
LINE
  5
2D2
330
2CE
100
AcDbEntity
  8
LAY-20
  6
CONTINUOUS
 62
     4
100
AcDbLine
 10
520.0
 20
356.596262339
 30
0.0
 11
930.0
 21
356.596262339
 31
0.0
  0
INSERT
  5
2D3
330
2CE
100
AcDbEntity
  8
LAY-20
 62
     4
100
AcDbBlockReference
  2
EX_BNORM
 10
505.0
 20
356.596262339
 30
0.0
 41
15.0
 42
15.0
 43
15.0
 50
180.0
  0
INSERT
  5
2D4
330
2CE
100
AcDbEntity
  8
LAY-20
 62
     4
100
AcDbBlockReference
  2
EX_NONE
 10
945.0
 20
356.596262339
 30
0.0
 41
15.0
 42
15.0
 43
15.0
  0
MTEXT
  5
2D5
330
2CE
100
AcDbEntity
  8
LAY-20
 62
     7
100
AcDbMText
 10
725.0
 20
369.096262339
 30
0.0
 40
15.590552
 41
0.0
 71
     5
 72
     1
  1
□440
  7
EXCADDIM1
  0
POINT
  5
2D6
330
2CE
100
AcDbEntity
  8
DEFPOINTS
 62
     0
100
AcDbPoint
 10
505.0
 20
441.596262339
 30
0.0
  0
POINT
  5
2D7
330
2CE
100
AcDbEntity
  8
DEFPOINTS
 62
     0
100
AcDbPoint
 10
945.0
 20
356.596262339
 30
0.0
  0
POINT
  5
2D8
330
2CE
100
AcDbEntity
  8
DEFPOINTS
 62
     0
100
AcDbPoint
 10
945.0
 20
356.596262339
 30
0.0
  0
ENDBLK
  5
2D0
330
2CE
100
AcDbEntity
  8
0
100
AcDbBlockEnd
  0
ENDSEC
  0
SECTION
  2
ENTITIES
  0
LINE
  5
D5
330
1F
100
AcDbEntity
  8
LAY-10
  6
CONTINUOUS
 62
     7
100
AcDbLine
 10
530.1355431854731
 20
460.8313004610815
 30
0.0
 11
533.2609614582295
 21
463.9567187338378
 31
0.0
  0
LINE
  5
D6
330
1F
100
AcDbEntity
  8
LAY-10
  6
CONTINUOUS
 62
     7
100
AcDbLine
 10
529.8743569044009
 20
459.1559006176335
 30
0.0
 11
535.2338905650242
 21
464.5154342782568
 31
0.0
  0
LINE
  5
D7
330
1F
100
AcDbEntity
  8
LAY-10
  6
CONTINUOUS
 62
     7
100
AcDbLine
 10
530.0987261285957
 20
457.966056279463
 30
0.0
 11
536.7212641665393
 21
464.5885943174066
 31
0.0
  0
LINE
  5
D8
330
1F
100
AcDbEntity
  8
LAY-10
  6
CONTINUOUS
 62
     7
100
AcDbLine
 10
530.5520926579854
 20
457.005209246477
 30
0.0
 11
537.979640462872
 21
464.4327570513636
 31
0.0
  0
LINE
  5
D9
330
1F
100
AcDbEntity
  8
LAY-10
  6
CONTINUOUS
 62
     7
100
AcDbLine
 10
534.7440290376495
 20
459.7829320637681
 30
0.0
 11
539.0795141812368
 21
464.1184172073554
 31
0.0
  0
LINE
  5
DA
330
1F
100
AcDbEntity
  8
LAY-10
  6
CONTINUOUS
 62
     7
100
AcDbLine
 10
536.4706245857323
 20
460.0953140494724
 30
0.0
 11
540.0494799952461
 21
463.6741694589862
 31
0.0
  0
LINE
  5
DB
330
1F
100
AcDbEntity
  8
LAY-10
  6
CONTINUOUS
 62
     7
100
AcDbLine
 10
537.6969595598492
 20
459.9074354612242
 30
0.0
 11
540.9004858191028
 21
463.1109617204777
 31
0.0
  0
LINE
  5
DC
330
1F
100
AcDbEntity
  8
LAY-10
  6
CONTINUOUS
 62
     7
100
AcDbLine
 10
533.7466131587391
 20
454.5428754977412
 30
0.0
 11
541.632091264992
 21
462.428353603994
 31
0.0
  0
LINE
  5
DD
330
1F
100
AcDbEntity
  8
LAY-10
  6
CONTINUOUS
 62
     7
100
AcDbLine
 10
534.8582038960201
 20
454.2402526726462
 30
0.0
 11
542.2322433534337
 21
461.6142921300599
 31
0.0
  0
LINE
  5
DE
330
1F
100
AcDbEntity
  8
LAY-10
  6
CONTINUOUS
 62
     7
100
AcDbLine
 10
536.1319514876704
 20
454.0997867019209
 30
0.0
 11
542.6702385875059
 21
460.6380738017564
 31
0.0
  0
LINE
  5
DF
330
1F
100
AcDbEntity
  8
LAY-10
  6
CONTINUOUS
 62
     7
100
AcDbLine
 10
537.6445448819807
 20
454.198166533866
 30
0.0
 11
542.8693880189053
 21
459.4230096707906
 31
0.0
  0
LINE
  5
E0
330
1F
100
AcDbEntity
  8
LAY-10
  6
CONTINUOUS
 62
     7
100
AcDbLine
 10
539.6963438873164
 20
454.8357519768259
 30
0.0
 11
542.5293318392921
 21
457.6687399288015
 31
0.0
  0
LINE
  5
E1
330
1F
100
AcDbEntity
  8
LAY-10
  6
CONTINUOUS
 62
     7
100
AcDbLine
 10
531.1639617653399
 20
456.2028647914585
 30
0.0
 11
534.7440290376506
 21
459.7829320637693
 31
0.0
  0
LINE
  5
E2
330
1F
100
AcDbEntity
  8
LAY-10
  6
CONTINUOUS
 62
     7
100
AcDbLine
 10
531.9057387770563
 20
455.5304282407964
 30
0.0
 11
536.47062458573
 21
460.0953140494701
 31
0.0
  0
LINE
  5
E3
330
1F
100
AcDbEntity
  8
LAY-10
  6
CONTINUOUS
 62
     7
100
AcDbLine
 10
532.7664757789094
 20
454.9769516802843
 30
0.0
 11
537.6969595598476
 21
459.9074354612225
 31
0.0
  0
LINE
  5
E4
330
1F
100
AcDbEntity
  8
LAY-10
  6
CONTINUOUS
 62
     7
100
AcDbLine
 10
919.8644568145268
 20
460.8313004610815
 30
0.0
 11
916.7390385417704
 21
463.9567187338378
 31
0.0
  0
LINE
  5
E5
330
1F
100
AcDbEntity
  8
LAY-10
  6
CONTINUOUS
 62
     7
100
AcDbLine
 10
920.125643095599
 20
459.1559006176335
 30
0.0
 11
914.7661094349758
 21
464.5154342782568
 31
0.0
  0
LINE
  5
E6
330
1F
100
AcDbEntity
  8
LAY-10
  6
CONTINUOUS
 62
     7
100
AcDbLine
 10
919.9012738714043
 20
457.966056279463
 30
0.0
 11
913.2787358334606
 21
464.5885943174066
 31
0.0
  0
LINE
  5
E7
330
1F
100
AcDbEntity
  8
LAY-10
  6
CONTINUOUS
 62
     7
100
AcDbLine
 10
919.4479073420144
 20
457.005209246477
 30
0.0
 11
912.0203595371279
 21
464.4327570513636
 31
0.0
  0
LINE
  5
E8
330
1F
100
AcDbEntity
  8
LAY-10
  6
CONTINUOUS
 62
     7
100
AcDbLine
 10
915.2559709623504
 20
459.7829320637681
 30
0.0
 11
910.920485818763
 21
464.1184172073554
 31
0.0
  0
LINE
  5
E9
330
1F
100
AcDbEntity
  8
LAY-10
  6
CONTINUOUS
 62
     7
100
AcDbLine
 10
913.5293754142676
 20
460.0953140494724
 30
0.0
 11
909.9505200047538
 21
463.6741694589862
 31
0.0
  0
LINE
  5
EA
330
1F
100
AcDbEntity
  8
LAY-10
  6
CONTINUOUS
 62
     7
100
AcDbLine
 10
912.3030404401507
 20
459.9074354612242
 30
0.0
 11
909.0995141808971
 21
463.1109617204777
 31
0.0
  0
LINE
  5
EB
330
1F
100
AcDbEntity
  8
LAY-10
  6
CONTINUOUS
 62
     7
100
AcDbLine
 10
916.2533868412607
 20
454.5428754977412
 30
0.0
 11
908.3679087350079
 21
462.428353603994
 31
0.0
  0
LINE
  5
EC
330
1F
100
AcDbEntity
  8
LAY-10
  6
CONTINUOUS
 62
     7
100
AcDbLine
 10
915.1417961039798
 20
454.2402526726462
 30
0.0
 11
907.7677566465662
 21
461.6142921300599
 31
0.0
  0
LINE
  5
ED
330
1F
100
AcDbEntity
  8
LAY-10
  6
CONTINUOUS
 62
     7
100
AcDbLine
 10
913.8680485123294
 20
454.0997867019209
 30
0.0
 11
907.329761412494
 21
460.6380738017564
 31
0.0
  0
LINE
  5
EE
330
1F
100
AcDbEntity
  8
LAY-10
  6
CONTINUOUS
 62
     7
100
AcDbLine
 10
912.3554551180192
 20
454.198166533866
 30
0.0
 11
907.1306119810947
 21
459.4230096707906
 31
0.0
  0
LINE
  5
EF
330
1F
100
AcDbEntity
  8
LAY-10
  6
CONTINUOUS
 62
     7
100
AcDbLine
 10
910.3036561126835
 20
454.8357519768259
 30
0.0
 11
907.4706681607078
 21
457.6687399288015
 31
0.0
  0
LINE
  5
F0
330
1F
100
AcDbEntity
  8
LAY-10
  6
CONTINUOUS
 62
     7
100
AcDbLine
 10
918.83603823466
 20
456.2028647914585
 30
0.0
 11
915.2559709623492
 21
459.7829320637692
 31
0.0
  0
LINE
  5
F1
330
1F
100
AcDbEntity
  8
LAY-10
  6
CONTINUOUS
 62
     7
100
AcDbLine
 10
918.0942612229436
 20
455.5304282407964
 30
0.0
 11
913.52937541427
 21
460.0953140494701
 31
0.0
  0
LINE
  5
F2
330
1F
100
AcDbEntity
  8
LAY-10
  6
CONTINUOUS
 62
     7
100
AcDbLine
 10
917.2335242210905
 20
454.9769516802843
 30
0.0
 11
912.3030404401524
 21
459.9074354612225
 31
0.0
  0
CIRCLE
  5
F3
330
1F
100
AcDbEntity
  8
LAY-10
  6
CONTINUOUS
 62
     7
100
AcDbCircle
 10
534.9999999999997
 20
760.0000000000001
 30
0.0
 40
9.0
  0
CIRCLE
  5
F4
330
1F
100
AcDbEntity
  8
LAY-10
  6
CONTINUOUS
 62
     7
100
AcDbCircle
 10
534.9999999999997
 20
760.0000000000001
 30
0.0
 40
7.500000000000004
  0
CIRCLE
  5
F5
330
1F
100
AcDbEntity
  8
LAY-10
  6
CONTINUOUS
 62
     7
100
AcDbCircle
 10
535.0000000000001
 20
1140.0
 30
0.0
 40
9.0
  0
CIRCLE
  5
F6
330
1F
100
AcDbEntity
  8
LAY-10
  6
CONTINUOUS
 62
     7
100
AcDbCircle
 10
535.0000000000001
 20
1140.0
 30
0.0
 40
7.500000000000004
  0
CIRCLE
  5
F7
330
1F
100
AcDbEntity
  8
LAY-10
  6
CONTINUOUS
 62
     7
100
AcDbCircle
 10
915.0000000000001
 20
1140.0
 30
0.0
 40
9.0
  0
CIRCLE
  5
F8
330
1F
100
AcDbEntity
  8
LAY-10
  6
CONTINUOUS
 62
     7
100
AcDbCircle
 10
915.0000000000001
 20
1140.0
 30
0.0
 40
7.500000000000004
  0
CIRCLE
  5
F9
330
1F
100
AcDbEntity
  8
LAY-10
  6
CONTINUOUS
 62
     7
100
AcDbCircle
 10
915.0
 20
759.9999999999998
 30
0.0
 40
9.0
  0
CIRCLE
  5
FA
330
1F
100
AcDbEntity
  8
LAY-10
  6
CONTINUOUS
 62
     7
100
AcDbCircle
 10
915.0
 20
759.9999999999998
 30
0.0
 40
7.500000000000004
  0
CIRCLE
  5
FB
330
1F
100
AcDbEntity
  8
LAY-10
  6
CONTINUOUS
 62
     7
100
AcDbCircle
 10
725.0
 20
950.0000000000001
 30
0.0
 40
195.0000000000001
  0
CIRCLE
  5
FC
330
1F
100
AcDbEntity
  8
LAY-10
  6
CONTINUOUS
 62
     7
100
AcDbCircle
 10
841.6726188957804
 20
1066.67261889578
 30
0.0
 40
21.0
  0
LINE
  5
FD
330
1F
100
AcDbEntity
  8
LAY-10
  6
CONTINUOUS
 62
     7
100
AcDbLine
 10
852.2899491506954
 20
1069.490317483434
 30
0.0
 11
849.4507934888298
 21
1058.894444302756
 31
0.0
  0
LINE
  5
FE
330
1F
100
AcDbEntity
  8
LAY-10
  6
CONTINUOUS
 62
     7
100
AcDbLine
 10
844.4903174834045
 20
1077.289949150725
 30
0.0
 11
833.8944443027256
 21
1074.45079348886
 31
0.0
  0
LINE
  5
FF
330
1F
100
AcDbEntity
  8
LAY-10
  6
CONTINUOUS
 62
     7
100
AcDbLine
 10
831.0552886408603
 20
1063.854920308181
 30
0.0
 11
833.8944443027256
 21
1074.45079348886
 31
0.0
  0
LINE
  5
100
330
1F
100
AcDbEntity
  8
LAY-10
  6
CONTINUOUS
 62
     7
100
AcDbLine
 10
838.8549203081511
 20
1056.05528864089
 30
0.0
 11
849.4507934888298
 21
1058.894444302756
 31
0.0
  0
LINE
  5
101
330
1F
100
AcDbEntity
  8
LAY-10
  6
CONTINUOUS
 62
     7
100
AcDbLine
 10
831.0552886408603
 20
1063.854920308181
 30
0.0
 11
838.8549203081511
 21
1056.05528864089
 31
0.0
  0
LINE
  5
102
330
1F
100
AcDbEntity
  8
LAY-10
  6
CONTINUOUS
 62
     7
100
AcDbLine
 10
844.4903174834045
 20
1077.289949150725
 30
0.0
 11
852.2899491506954
 21
1069.490317483434
 31
0.0
  0
CIRCLE
  5
103
330
1F
100
AcDbEntity
  8
LAY-10
  6
CONTINUOUS
 62
     7
100
AcDbCircle
 10
841.6726188957779
 20
1066.672618895808
 30
0.0
 40
9.500000000000028
  0
CIRCLE
  5
104
330
1F
100
AcDbEntity
  8
LAY-10
  6
CONTINUOUS
 62
     7
100
AcDbCircle
 10
608.32738110422
 20
1066.67261889578
 30
0.0
 40
21.0
  0
LINE
  5
105
330
1F
100
AcDbEntity
  8
LAY-10
  6
CONTINUOUS
 62
     7
100
AcDbLine
 10
605.5096825165657
 20
1077.289949150696
 30
0.0
 11
616.1055556972445
 21
1074.45079348883
 31
0.0
  0
LINE
  5
106
330
1F
100
AcDbEntity
  8
LAY-10
  6
CONTINUOUS
 62
     7
100
AcDbLine
 10
597.7100508492748
 20
1069.490317483405
 30
0.0
 11
600.54920651114
 21
1058.894444302726
 31
0.0
  0
LINE
  5
107
330
1F
100
AcDbEntity
  8
LAY-10
  6
CONTINUOUS
 62
     7
100
AcDbLine
 10
611.1450796918189
 20
1056.05528864086
 30
0.0
 11
600.54920651114
 21
1058.894444302726
 31
0.0
  0
LINE
  5
108
330
1F
100
AcDbEntity
  8
LAY-10
  6
CONTINUOUS
 62
     7
100
AcDbLine
 10
618.9447113591099
 20
1063.854920308151
 30
0.0
 11
616.1055556972445
 21
1074.45079348883
 31
0.0
  0
LINE
  5
109
330
1F
100
AcDbEntity
  8
LAY-10
  6
CONTINUOUS
 62
     7
100
AcDbLine
 10
611.1450796918189
 20
1056.05528864086
 30
0.0
 11
618.9447113591099
 21
1063.854920308151
 31
0.0
  0
LINE
  5
10A
330
1F
100
AcDbEntity
  8
LAY-10
  6
CONTINUOUS
 62
     7
100
AcDbLine
 10
597.7100508492748
 20
1069.490317483405
 30
0.0
 11
605.5096825165657
 21
1077.289949150696
 31
0.0
  0
CIRCLE
  5
10B
330
1F
100
AcDbEntity
  8
LAY-10
  6
CONTINUOUS
 62
     7
100
AcDbCircle
 10
608.327381104192
 20
1066.672618895778
 30
0.0
 40
9.500000000000028
  0
CIRCLE
  5
10C
330
1F
100
AcDbEntity
  8
LAY-10
  6
CONTINUOUS
 62
     7
100
AcDbCircle
 10
608.3273811042194
 20
833.32738110422
 30
0.0
 40
21.0
  0
LINE
  5
10D
330
1F
100
AcDbEntity
  8
LAY-10
  6
CONTINUOUS
 62
     7
100
AcDbLine
 10
597.7100508493045
 20
830.5096825165658
 30
0.0
 11
600.5492065111699
 21
841.1055556972447
 31
0.0
  0
LINE
  5
10E
330
1F
100
AcDbEntity
  8
LAY-10
  6
CONTINUOUS
 62
     7
100
AcDbLine
 10
605.5096825165954
 20
822.7100508492749
 30
0.0
 11
616.1055556972743
 21
825.5492065111401
 31
0.0
  0
LINE
  5
10F
330
1F
100
AcDbEntity
  8
LAY-10
  6
CONTINUOUS
 62
     7
100
AcDbLine
 10
618.9447113591397
 20
836.145079691819
 30
0.0
 11
616.1055556972743
 21
825.5492065111401
 31
0.0
  0
LINE
  5
110
330
1F
100
AcDbEntity
  8
LAY-10
  6
CONTINUOUS
 62
     7
100
AcDbLine
 10
611.1450796918488
 20
843.9447113591099
 30
0.0
 11
600.5492065111699
 21
841.1055556972447
 31
0.0
  0
LINE
  5
111
330
1F
100
AcDbEntity
  8
LAY-10
  6
CONTINUOUS
 62
     7
100
AcDbLine
 10
618.9447113591397
 20
836.145079691819
 30
0.0
 11
611.1450796918488
 21
843.9447113591099
 31
0.0
  0
LINE
  5
112
330
1F
100
AcDbEntity
  8
LAY-10
  6
CONTINUOUS
 62
     7
100
AcDbLine
 10
605.5096825165954
 20
822.7100508492749
 30
0.0
 11
597.7100508493045
 21
830.5096825165658
 31
0.0
  0
CIRCLE
  5
113
330
1F
100
AcDbEntity
  8
LAY-10
  6
CONTINUOUS
 62
     7
100
AcDbCircle
 10
608.3273811042221
 20
833.3273811041921
 30
0.0
 40
9.500000000000028
  0
CIRCLE
  5
114
330
1F
100
AcDbEntity
  8
LAY-10
  6
CONTINUOUS
 62
     7
100
AcDbCircle
 10
841.6726188957801
 20
833.3273811042195
 30
0.0
 40
21.0
  0
LINE
  5
115
330
1F
100
AcDbEntity
  8
LAY-10
  6
CONTINUOUS
 62
     7
100
AcDbLine
 10
844.4903174834343
 20
822.7100508493046
 30
0.0
 11
833.8944443027552
 21
825.5492065111702
 31
0.0
  0
LINE
  5
116
330
1F
100
AcDbEntity
  8
LAY-10
  6
CONTINUOUS
 62
     7
100
AcDbLine
 10
852.2899491507252
 20
830.5096825165955
 30
0.0
 11
849.45079348886
 21
841.1055556972742
 31
0.0
  0
LINE
  5
117
330
1F
100
AcDbEntity
  8
LAY-10
  6
CONTINUOUS
 62
     7
100
AcDbLine
 10
838.8549203081811
 20
843.9447113591399
 30
0.0
 11
849.45079348886
 21
841.1055556972742
 31
0.0
  0
LINE
  5
118
330
1F
100
AcDbEntity
  8
LAY-10
  6
CONTINUOUS
 62
     7
100
AcDbLine
 10
831.0552886408902
 20
836.145079691849
 30
0.0
 11
833.8944443027552
 21
825.5492065111702
 31
0.0
  0
LINE
  5
119
330
1F
100
AcDbEntity
  8
LAY-10
  6
CONTINUOUS
 62
     7
100
AcDbLine
 10
838.8549203081811
 20
843.9447113591399
 30
0.0
 11
831.0552886408902
 21
836.145079691849
 31
0.0
  0
LINE
  5
11A
330
1F
100
AcDbEntity
  8
LAY-10
  6
CONTINUOUS
 62
     7
100
AcDbLine
 10
852.2899491507252
 20
830.5096825165955
 30
0.0
 11
844.4903174834343
 21
822.7100508493046
 31
0.0
  0
CIRCLE
  5
11B
330
1F
100
AcDbEntity
  8
LAY-10
  6
CONTINUOUS
 62
     7
100
AcDbCircle
 10
841.672618895808
 20
833.3273811042222
 30
0.0
 40
9.500000000000028
  0
LINE
  5
11C
330
1F
100
AcDbEntity
  8
LAY-10
  6
CONTINUOUS
 62
     7
100
AcDbLine
 10
817.0000000000005
 20
936.0000000000002
 30
0.0
 11
883.0000000000003
 21
936.0000000000002
 31
0.0
  0
LINE
  5
11D
330
1F
100
AcDbEntity
  8
LAY-10
  6
CONTINUOUS
 62
     7
100
AcDbLine
 10
817.0000000000005
 20
964.0000000000001
 30
0.0
 11
883.0000000000002
 21
964.0
 31
0.0
  0
LINE
  5
11E
330
1F
100
AcDbEntity
  8
LAY-10
  6
CONTINUOUS
 62
     7
100
AcDbLine
 10
878.0000000000003
 20
964.0000000000001
 30
0.0
 11
878.0000000000003
 21
936.0000000000002
 31
0.0
  0
LINE
  5
11F
330
1F
100
AcDbEntity
  8
LAY-10
  6
CONTINUOUS
 62
     7
100
AcDbLine
 10
883.0000000000002
 20
964.0
 30
0.0
 11
883.0000000000003
 21
936.0000000000002
 31
0.0
  0
LINE
  5
120
330
1F
100
AcDbEntity
  8
LAY-10
  6
CONTINUOUS
 62
     7
100
AcDbLine
 10
855.0000000000003
 20
964.0000000000001
 30
0.0
 11
855.0000000000003
 21
936.0000000000002
 31
0.0
  0
LINE
  5
121
330
1F
100
AcDbEntity
  8
LAY-10
  6
CONTINUOUS
 62
     7
100
AcDbLine
 10
845.0000000000003
 20
964.0000000000001
 30
0.0
 11
845.0000000000003
 21
936.0000000000002
 31
0.0
  0
LINE
  5
122
330
1F
100
AcDbEntity
  8
LAY-10
  6
CONTINUOUS
 62
     7
100
AcDbLine
 10
822.0000000000006
 20
964.0000000000003
 30
0.0
 11
822.0000000000005
 21
936.0000000000002
 31
0.0
  0
LINE
  5
123
330
1F
100
AcDbEntity
  8
LAY-10
  6
CONTINUOUS
 62
     7
100
AcDbLine
 10
817.0000000000005
 20
964.0000000000001
 30
0.0
 11
817.0000000000005
 21
936.0000000000002
 31
0.0
  0
LINE
  5
124
330
1F
100
AcDbEntity
  8
LAY-10
  6
CONTINUOUS
 62
     7
100
AcDbLine
 10
632.9999999999997
 20
936.0000000000002
 30
0.0
 11
566.9999999999995
 21
936.0000000000003
 31
0.0
  0
LINE
  5
125
330
1F
100
AcDbEntity
  8
LAY-10
  6
CONTINUOUS
 62
     7
100
AcDbLine
 10
632.9999999999995
 20
964.0000000000001
 30
0.0
 11
566.9999999999995
 21
964.0000000000001
 31
0.0
  0
LINE
  5
126
330
1F
100
AcDbEntity
  8
LAY-10
  6
CONTINUOUS
 62
     7
100
AcDbLine
 10
571.9999999999995
 20
964.0000000000001
 30
0.0
 11
571.9999999999995
 21
936.0000000000003
 31
0.0
  0
LINE
  5
127
330
1F
100
AcDbEntity
  8
LAY-10
  6
CONTINUOUS
 62
     7
100
AcDbLine
 10
566.9999999999995
 20
964.0000000000001
 30
0.0
 11
566.9999999999995
 21
936.0000000000003
 31
0.0
  0
LINE
  5
128
330
1F
100
AcDbEntity
  8
LAY-10
  6
CONTINUOUS
 62
     7
100
AcDbLine
 10
594.9999999999995
 20
964.0000000000001
 30
0.0
 11
594.9999999999995
 21
936.0000000000003
 31
0.0
  0
LINE
  5
129
330
1F
100
AcDbEntity
  8
LAY-10
  6
CONTINUOUS
 62
     7
100
AcDbLine
 10
604.9999999999995
 20
964.0000000000001
 30
0.0
 11
604.9999999999995
 21
936.0000000000002
 31
0.0
  0
LINE
  5
12A
330
1F
100
AcDbEntity
  8
LAY-10
  6
CONTINUOUS
 62
     7
100
AcDbLine
 10
627.9999999999995
 20
964.0000000000001
 30
0.0
 11
627.9999999999995
 21
936.0000000000003
 31
0.0
  0
LINE
  5
12B
330
1F
100
AcDbEntity
  8
LAY-10
  6
CONTINUOUS
 62
     7
100
AcDbLine
 10
632.9999999999995
 20
964.0000000000001
 30
0.0
 11
632.9999999999997
 21
936.0000000000002
 31
0.0
  0
LINE
  5
12C
330
1F
100
AcDbEntity
  8
LAY-10
  6
CONTINUOUS
 62
     7
100
AcDbLine
 10
664.0052093719546
 20
785.2300333221884
 30
0.0
 11
677.3178509959081
 21
789.427493103001
 31
0.0
  0
LINE
  5
12D
330
1F
100
AcDbEntity
  8
LAY-10
  6
CONTINUOUS
 62
     7
100
AcDbLine
 10
664.0052093719535
 20
785.2300333221838
 30
0.0
 11
673.435565319369
 21
774.9386057086601
 31
0.0
  0
LINE
  5
12E
330
1F
100
AcDbEntity
  8
LAY-10
  6
CONTINUOUS
 62
     7
100
AcDbLine
 10
686.7482069433262
 20
779.1360654894763
 30
0.0
 11
677.317850995911
 21
789.427493103
 31
0.0
  0
LINE
  5
12F
330
1F
100
AcDbEntity
  8
LAY-10
  6
CONTINUOUS
 62
     7
100
AcDbLine
 10
686.748206943325
 20
779.1360654894717
 30
0.0
 11
673.4355653193719
 21
774.9386057086593
 31
0.0
  0
LINE
  5
130
330
1F
100
AcDbEntity
  8
LAY-10
  6
CONTINUOUS
 62
     7
100
AcDbLine
 10
677.0109720888629
 20
788.2822054301353
 30
0.0
 11
684.9504654015801
 21
779.6177688837847
 31
0.0
  0
LINE
  5
131
330
1F
100
AcDbEntity
  8
LAY-10
  6
CONTINUOUS
 62
     7
100
AcDbLine
 10
677.0109720888646
 20
788.2822054301348
 30
0.0
 11
665.8029509136999
 21
784.7483299278754
 31
0.0
  0
LINE
  5
132
330
1F
100
AcDbEntity
  8
LAY-10
  6
CONTINUOUS
 62
     7
100
AcDbLine
 10
673.7424442264168
 20
776.0838933815248
 30
0.0
 11
665.8029509136999
 21
784.7483299278754
 31
0.0
  0
LINE
  5
133
330
1F
100
AcDbEntity
  8
LAY-10
  6
CONTINUOUS
 62
     7
100
AcDbLine
 10
673.742444226415
 20
776.0838933815253
 30
0.0
 11
684.9504654015801
 21
779.6177688837847
 31
0.0
  0
TEXT
  5
134
330
1F
100
AcDbEntity
  8
LAY-10
  6
CONTINUOUS
 62
     7
100
AcDbText
 10
668.2883109164108
 20
780.8428622408477
 30
0.0
 40
6.2362208
  1
ＳＦ
 50
345.0000000000003
 41
0.9703124999999999
  7
EXCADSTD
100
AcDbText
  0
ARC
  5
135
330
1F
100
AcDbEntity
  8
LAY-10
  6
CONTINUOUS
 62
     7
100
AcDbCircle
 10
555.0000000000002
 20
1120.0
 30
0.0
 40
50.00000000000004
100
AcDbArc
 50
90.0
 51
180.0
  0
LINE
  5
136
330
1F
100
AcDbEntity
  8
LAY-10
  6
CONTINUOUS
 62
     7
100
AcDbLine
 10
555.0000000000002
 20
1170.0
 30
0.0
 11
895.0
 21
1170.0
 31
0.0
  0
ARC
  5
137
330
1F
100
AcDbEntity
  8
LAY-10
  6
CONTINUOUS
 62
     7
100
AcDbCircle
 10
894.9999999999997
 20
1120.0
 30
0.0
 40
50.00000000000004
100
AcDbArc
 50
0.0
 51
90.0
  0
LINE
  5
138
330
1F
100
AcDbEntity
  8
LAY-10
  6
CONTINUOUS
 62
     7
100
AcDbLine
 10
945.0
 20
1120.0
 30
0.0
 11
944.9999999999998
 21
780.0000000000002
 31
0.0
  0
ARC
  5
139
330
1F
100
AcDbEntity
  8
LAY-10
  6
CONTINUOUS
 62
     7
100
AcDbCircle
 10
894.9999999999998
 20
780.0000000000002
 30
0.0
 40
50.00000000000004
100
AcDbArc
 50
270.0
 51
0.0
  0
LINE
  5
13A
330
1F
100
AcDbEntity
  8
LAY-10
  6
CONTINUOUS
 62
     7
100
AcDbLine
 10
505.0000000000001
 20
780.0000000000002
 30
0.0
 11
505.0000000000003
 21
1120.0
 31
0.0
  0
LINE
  5
13B
330
1F
100
AcDbEntity
  8
LAY-10
  6
CONTINUOUS
 62
     7
100
AcDbLine
 10
894.9999999999998
 20
730.0000000000002
 30
0.0
 11
555.0000000000001
 21
730.0000000000002
 31
0.0
  0
ARC
  5
13C
330
1F
100
AcDbEntity
  8
LAY-10
  6
CONTINUOUS
 62
     7
100
AcDbCircle
 10
555.0000000000001
 20
780.0000000000002
 30
0.0
 40
50.00000000000004
100
AcDbArc
 50
180.0
 51
270.0
  0
ARC
  5
13D
330
1F
100
AcDbEntity
  8
LAY-10
  6
CONTINUOUS
 62
     7
100
AcDbCircle
 10
518.0000000000005
 20
1114.0
 30
0.0
 40
6.000000000000006
100
AcDbArc
 50
90.0
 51
180.0
  0
ARC
  5
13E
330
1F
100
AcDbEntity
  8
LAY-10
  6
CONTINUOUS
 62
     7
100
AcDbCircle
 10
561.0
 20
1157.0
 30
0.0
 40
6.000000000000006
100
AcDbArc
 50
90.0
 51
180.0
  0
ARC
  5
13F
330
1F
100
AcDbEntity
  8
LAY-10
  6
CONTINUOUS
 62
     7
100
AcDbCircle
 10
560.9999999999999
 20
743.0000000000005
 30
0.0
 40
6.000000000000006
100
AcDbArc
 50
180.0
 51
270.0
  0
ARC
  5
140
330
1F
100
AcDbEntity
  8
LAY-10
  6
CONTINUOUS
 62
     7
100
AcDbCircle
 10
518.0000000000005
 20
786.0000000000002
 30
0.0
 40
6.000000000000006
100
AcDbArc
 50
180.0
 51
270.0
  0
ARC
  5
141
330
1F
100
AcDbEntity
  8
LAY-10
  6
CONTINUOUS
 62
     7
100
AcDbCircle
 10
931.9999999999995
 20
786.0
 30
0.0
 40
6.000000000000006
100
AcDbArc
 50
270.0
 51
0.0
  0
ARC
  5
142
330
1F
100
AcDbEntity
  8
LAY-10
  6
CONTINUOUS
 62
     7
100
AcDbCircle
 10
888.9999999999999
 20
743.0000000000007
 30
0.0
 40
6.000000000000006
100
AcDbArc
 50
270.0
 51
0.0
  0
ARC
  5
143
330
1F
100
AcDbEntity
  8
LAY-10
  6
CONTINUOUS
 62
     7
100
AcDbCircle
 10
889.0000000000001
 20
1157.0
 30
0.0
 40
6.000000000000006
100
AcDbArc
 50
0.0
 51
90.0
  0
LINE
  5
144
330
1F
100
AcDbEntity
  8
LAY-10
  6
CONTINUOUS
 62
     7
100
AcDbLine
 10
512.0000000000005
 20
786.0000000000002
 30
0.0
 11
512.0000000000006
 21
1114.0
 31
0.0
  0
LINE
  5
145
330
1F
100
AcDbEntity
  8
LAY-10
  6
CONTINUOUS
 62
     7
100
AcDbLine
 10
888.9999999999999
 20
737.0000000000006
 30
0.0
 11
560.9999999999999
 21
737.0000000000007
 31
0.0
  0
LINE
  5
146
330
1F
100
AcDbEntity
  8
LAY-10
  6
CONTINUOUS
 62
     7
100
AcDbLine
 10
561.0000000000002
 20
1163.0
 30
0.0
 11
889.0
 21
1163.0
 31
0.0
  0
CIRCLE
  5
147
330
1F
100
AcDbEntity
  8
LAY-10
  6
CONTINUOUS
 62
     7
100
AcDbCircle
 10
725.0
 20
950.0000000000001
 30
0.0
 40
197.5000000000101
  0
CIRCLE
  5
148
330
1F
100
AcDbEntity
  8
LAY-10
  6
CONTINUOUS
 62
     7
100
AcDbCircle
 10
725.0
 20
950.0000000000001
 30
0.0
 40
202.5000000000001
  0
LINE
  5
149
330
1F
100
AcDbEntity
  8
LAY-10
  6
CONTINUOUS
 62
     7
100
AcDbLine
 10
897.4945207084239
 20
773.2628386044566
 30
0.0
 11
901.7371613955432
 21
777.505479291576
 31
0.0
  0
ARC
  5
14A
330
1F
100
AcDbEntity
  8
LAY-10
  6
CONTINUOUS
 62
     7
100
AcDbCircle
 10
895.0
 20
780.0000000000001
 30
0.0
 40
49.30009069180913
100
AcDbArc
 50
270.0
 51
0.0
  0
ARC
  5
14B
330
1F
100
AcDbEntity
  8
LAY-10
  6
CONTINUOUS
 62
     7
100
AcDbCircle
 10
895.0
 20
1120.0
 30
0.0
 40
49.30009069180913
100
AcDbArc
 50
0.0
 51
90.0
  0
ARC
  5
14C
330
1F
100
AcDbEntity
  8
LAY-10
  6
CONTINUOUS
 62
     7
100
AcDbCircle
 10
555.0000000000002
 20
780.0000000000001
 30
0.0
 40
49.30009069180913
100
AcDbArc
 50
180.0
 51
270.0
  0
ARC
  5
14D
330
1F
100
AcDbEntity
  8
LAY-10
  6
CONTINUOUS
 62
     7
100
AcDbCircle
 10
555.0000000000002
 20
1120.0
 30
0.0
 40
49.30009069180913
100
AcDbArc
 50
90.0
 51
180.0
  0
LINE
  5
14E
330
1F
100
AcDbEntity
  8
LAY-10
  6
CONTINUOUS
 62
     7
100
AcDbLine
 10
944.3000906917999
 20
1120.0
 30
0.0
 11
944.3000906917999
 21
780.0000000000001
 31
0.0
  0
LINE
  5
14F
330
1F
100
AcDbEntity
  8
LAY-10
  6
CONTINUOUS
 62
     7
100
AcDbLine
 10
555.0000000000002
 20
1169.3000906918
 30
0.0
 11
895.0
 21
1169.3000906918
 31
0.0
  0
LINE
  5
150
330
1F
100
AcDbEntity
  8
LAY-10
  6
CONTINUOUS
 62
     7
100
AcDbLine
 10
895.0
 20
730.6999093082001
 30
0.0
 11
555.0000000000002
 21
730.6999093082001
 31
0.0
  0
LINE
  5
151
330
1F
100
AcDbEntity
  8
LAY-10
  6
CONTINUOUS
 62
     7
100
AcDbLine
 10
505.6999093081999
 20
780.0000000000001
 30
0.0
 11
505.6999093081999
 21
1120.0
 31
0.0
  0
ARC
  5
152
330
1F
100
AcDbEntity
  8
LAY-10
  6
CONTINUOUS
 62
     7
100
AcDbCircle
 10
866.1093086305937
 20
796.8986200133949
 30
0.0
 40
4.0
100
AcDbArc
 50
47.38936142655984
 51
132.6659075592798
  0
ARC
  5
153
330
1F
100
AcDbEntity
  8
LAY-10
  6
CONTINUOUS
 62
     7
100
AcDbCircle
 10
878.101379986605
 20
808.8906913694061
 30
0.0
 40
4.0
100
AcDbArc
 50
137.3340924407192
 51
222.6106385734414
  0
LINE
  5
154
330
1F
100
AcDbEntity
  8
LAY-10
  6
CONTINUOUS
 62
     7
100
AcDbLine
 10
894.9999999999997
 20
773.5630663840749
 30
0.0
 11
894.9999999999998
 21
743.0000000000007
 31
0.0
  0
ARC
  5
155
330
1F
100
AcDbEntity
  8
LAY-10
  6
CONTINUOUS
 62
     7
100
AcDbCircle
 10
889.9999999999997
 20
773.5630663840749
 30
0.0
 40
5.0
100
AcDbArc
 50
0.0
 51
47.38936142655822
  0
LINE
  5
156
330
1F
100
AcDbEntity
  8
LAY-10
  6
CONTINUOUS
 62
     7
100
AcDbLine
 10
875.1574944131479
 20
806.182640828816
 30
0.0
 11
897.7570766491035
 21
781.6149368242624
 31
0.0
  0
LINE
  5
157
330
1F
100
AcDbEntity
  8
LAY-10
  6
CONTINUOUS
 62
     7
100
AcDbLine
 10
931.9999999999995
 20
780.0000000000001
 30
0.0
 11
901.4369336159251
 21
780.0000000000001
 31
0.0
  0
ARC
  5
158
330
1F
100
AcDbEntity
  8
LAY-10
  6
CONTINUOUS
 62
     7
100
AcDbCircle
 10
901.4369336159251
 20
785.0000000000001
 30
0.0
 40
5.0
100
AcDbArc
 50
222.6106385734418
 51
270.0
  0
ARC
  5
159
330
1F
100
AcDbEntity
  8
LAY-10
  6
CONTINUOUS
 62
     7
100
AcDbCircle
 10
725.0
 20
950.0000000000001
 30
0.0
 40
202.84920769492
100
AcDbArc
 50
314.1526040102286
 51
315.8473959897715
  0
LINE
  5
15A
330
1F
100
AcDbEntity
  8
LAY-10
  6
CONTINUOUS
 62
     7
100
AcDbLine
 10
866.2990426849503
 20
804.4583166279305
 30
0.0
 11
897.494520708424
 21
773.2628386044568
 31
0.0
  0
LINE
  5
15B
330
1F
100
AcDbEntity
  8
LAY-10
  6
CONTINUOUS
 62
     7
100
AcDbLine
 10
870.5416833720695
 20
808.7009573150497
 30
0.0
 11
901.7371613955432
 21
777.505479291576
 31
0.0
  0
LINE
  5
15C
330
1F
100
AcDbEntity
  8
LAY-10
  6
CONTINUOUS
 62
     7
100
AcDbLine
 10
866.0821926368899
 20
802.358557596
 30
0.0
 11
866.2990426849499
 21
804.4583166279301
 31
0.0
  0
LINE
  5
15D
330
1F
100
AcDbEntity
  8
LAY-10
  6
CONTINUOUS
 62
     7
100
AcDbLine
 10
868.8173591711837
 20
799.8425055868521
 30
0.0
 11
893.3850631757374
 21
777.2429233508964
 31
0.0
  0
LINE
  5
15E
330
1F
100
AcDbEntity
  8
LAY-10
  6
CONTINUOUS
 62
     7
100
AcDbLine
 10
872.6414424040021
 20
808.917807363112
 30
0.0
 11
870.5416833720718
 21
808.7009573150519
 31
0.0
  0
TEXT
  5
15F
330
1F
100
AcDbEntity
  8
LAY-10
  6
CONTINUOUS
 62
     7
100
AcDbText
 10
732.3147314859718
 20
1118.736212379688
 30
0.0
 40
12.4724416
  1
Ｈ
 50
356.0000000000003
 41
1.2
  7
EXCADSTD
100
AcDbText
  0
TEXT
  5
160
330
1F
100
AcDbEntity
  8
LAY-10
  6
CONTINUOUS
 62
     7
100
AcDbText
 10
719.8842983804338
 20
1119.011329818958
 30
0.0
 40
12.4724416
  1
Ａ
 50
359.0000000000003
 41
1.2
  7
EXCADSTD
100
AcDbText
  0
TEXT
  5
161
330
1F
100
AcDbEntity
  8
LAY-10
  6
CONTINUOUS
 62
     7
100
AcDbText
 10
708.0760786833554
 20
1118.463428459606
 30
0.0
 40
12.4724416
  1
５
 50
1.00000000000004
 41
1.2
  7
EXCADSTD
100
AcDbText
  0
TEXT
  5
162
330
1F
100
AcDbEntity
  8
LAY-10
  6
CONTINUOUS
 62
     7
100
AcDbText
 10
712.6786248814298
 20
769.0042715057701
 30
0.0
 40
12.4724416
  1
Ｋ
 41
1.2
  7
EXCADSTD
100
AcDbText
  0
TEXT
  5
163
330
1F
100
AcDbEntity
  8
LAY-10
  6
CONTINUOUS
 62
     7
100
AcDbText
 10
723.9814229763699
 20
768.9568335688303
 30
0.0
 40
12.4724416
  1
Ｕ
 41
1.2
  7
EXCADSTD
100
AcDbText
  0
TEXT
  5
164
330
1F
100
AcDbEntity
  8
LAY-10
  6
CONTINUOUS
 62
     7
100
AcDbText
 10
736.0464252121285
 20
769.1741653223398
 30
0.0
 40
12.4724416
  1
Ｎ
 50
4.999999999999971
 41
1.2
  7
EXCADSTD
100
AcDbText
  0
TEXT
  5
165
330
1F
100
AcDbEntity
  8
LAY-10
  6
CONTINUOUS
 62
     7
100
AcDbText
 10
746.234440667074
 20
770.0325191993796
 30
0.0
 40
12.4724416
  1
Ｉ
 50
10.0
 41
1.2
  7
EXCADSTD
100
AcDbText
  0
TEXT
  5
166
330
1F
100
AcDbEntity
  8
LAY-10
  6
CONTINUOUS
 62
     7
100
AcDbText
 10
756.4799103548404
 20
771.5923894702357
 30
0.0
 40
12.4724416
  1
Ｓ
 50
13.00000000000001
 41
1.2
  7
EXCADSTD
100
AcDbText
  0
TEXT
  5
167
330
1F
100
AcDbEntity
  8
LAY-10
  6
CONTINUOUS
 62
     7
100
AcDbText
 10
779.2677807408953
 20
777.4068045516028
 30
0.0
 40
12.4724416
  1
Ｉ
 50
20.00000000000001
 41
1.2
  7
EXCADSTD
100
AcDbText
  0
TEXT
  5
168
330
1F
100
AcDbEntity
  8
LAY-10
  6
CONTINUOUS
 62
     7
100
AcDbText
 10
768.3207611541322
 20
774.1406835737944
 30
0.0
 40
12.4724416
  1
Ｈ
 50
17.0
 41
1.2
  7
EXCADSTD
100
AcDbText
  0
TEXT
  5
169
330
1F
100
AcDbEntity
  8
LAY-10
  6
CONTINUOUS
 62
     7
100
AcDbText
 10
688.499903786729
 20
772.4383402968608
 30
0.0
 40
12.4724416
  1
Ｆ
 50
350.0000000000001
 41
1.2
  7
EXCADSTD
100
AcDbText
  0
TEXT
  5
16A
330
1F
100
AcDbEntity
  8
LAY-10
  6
CONTINUOUS
 62
     7
100
AcDbText
 10
700.247275736216
 20
770.4188067194985
 30
0.0
 40
12.4724416
  1
Ｕ
 50
355.0000000000003
 41
1.2
  7
EXCADSTD
100
AcDbText
  0
TEXT
  5
16B
330
1F
100
AcDbEntity
  8
LAY-10
  6
CONTINUOUS
 62
     7
100
AcDbText
 10
699.2561619153072
 20
1117.068991522233
 30
0.0
 40
12.4724416
  1
３
 50
5.999999999999956
 41
1.2
  7
EXCADSTD
100
AcDbText
  0
TEXT
  5
16C
330
1F
100
AcDbEntity
  8
LAY-10
  6
CONTINUOUS
 62
     7
100
AcDbText
 10
688.1740265527814
 20
1115.287494484509
 30
0.0
 40
12.4724416
  1
－
 50
10.00000000000006
 41
1.2
  7
EXCADSTD
100
AcDbText
  0
TEXT
  5
16D
330
1F
100
AcDbEntity
  8
LAY-10
  6
CONTINUOUS
 62
     7
100
AcDbText
 10
679.277758029979
 20
1112.733937377757
 30
0.0
 40
12.4724416
  1
Ｆ
 50
13.00000000000007
 41
1.2
  7
EXCADSTD
100
AcDbText
  0
TEXT
  5
16E
330
1F
100
AcDbEntity
  8
LAY-10
  6
CONTINUOUS
 62
     7
100
AcDbText
 10
669.8379101399171
 20
1109.44177282511
 30
0.0
 40
12.4724416
  1
Ｓ
 50
18.00000000000004
 41
1.2
  7
EXCADSTD
100
AcDbText
  0
TEXT
  5
16F
330
1F
100
AcDbEntity
  8
LAY-10
  6
CONTINUOUS
 62
     7
100
AcDbText
 10
743.3312940472825
 20
1117.928446232649
 30
0.0
 40
12.4724416
  1
Ｄ
 50
351.0000000000002
 41
1.2
  7
EXCADSTD
100
AcDbText
  0
TEXT
  5
170
330
1F
100
AcDbEntity
  8
LAY-10
  6
CONTINUOUS
 62
     7
100
AcDbText
 10
754.9711510467054
 20
1116.203402856673
 30
0.0
 40
12.4724416
  1
－
 50
349.0000000000001
 41
1.2
  7
EXCADSTD
100
AcDbText
  0
TEXT
  5
171
330
1F
100
AcDbEntity
  8
LAY-10
  6
CONTINUOUS
 62
     7
100
AcDbText
 10
765.1517880694503
 20
1113.870860499115
 30
0.0
 40
12.4724416
  1
Ｂ
 50
342.0000000000004
 41
1.2
  7
EXCADSTD
100
AcDbText
  0
LINE
  5
172
330
1F
100
AcDbEntity
  8
LAY-10
  6
CONTINUOUS
 62
     7
100
AcDbLine
 10
901.7371613955434
 20
1122.494520708424
 30
0.0
 11
897.494520708424
 21
1126.737161395543
 31
0.0
  0
ARC
  5
173
330
1F
100
AcDbEntity
  8
LAY-10
  6
CONTINUOUS
 62
     7
100
AcDbCircle
 10
878.1013799866051
 20
1091.109308630594
 30
0.0
 40
4.0
100
AcDbArc
 50
137.3893614265587
 51
222.6659075592798
  0
ARC
  5
174
330
1F
100
AcDbEntity
  8
LAY-10
  6
CONTINUOUS
 62
     7
100
AcDbCircle
 10
866.1093086305939
 20
1103.101379986605
 30
0.0
 40
4.0
100
AcDbArc
 50
227.3340924407169
 51
312.6106385734426
  0
ARC
  5
175
330
1F
100
AcDbEntity
  8
LAY-10
  6
CONTINUOUS
 62
     7
100
AcDbCircle
 10
901.4369336159252
 20
1115.0
 30
0.0
 40
5.0
100
AcDbArc
 50
90.0
 51
137.3893614265573
  0
LINE
  5
176
330
1F
100
AcDbEntity
  8
LAY-10
  6
CONTINUOUS
 62
     7
100
AcDbLine
 10
868.817359171184
 20
1100.157494413148
 30
0.0
 11
893.3850631757377
 21
1122.757076649104
 31
0.0
  0
ARC
  5
177
330
1F
100
AcDbEntity
  8
LAY-10
  6
CONTINUOUS
 62
     7
100
AcDbCircle
 10
890.0
 20
1126.436933615925
 30
0.0
 40
5.0
100
AcDbArc
 50
312.6106385734417
 51
0.0
  0
ARC
  5
178
330
1F
100
AcDbEntity
  8
LAY-10
  6
CONTINUOUS
 62
     7
100
AcDbCircle
 10
725.0
 20
950.0000000000001
 30
0.0
 40
202.84920769492
100
AcDbArc
 50
44.15260401022854
 51
45.8473959897715
  0
LINE
  5
179
330
1F
100
AcDbEntity
  8
LAY-10
  6
CONTINUOUS
 62
     7
100
AcDbLine
 10
870.5416833720695
 20
1091.29904268495
 30
0.0
 11
901.7371613955432
 21
1122.494520708424
 31
0.0
  0
LINE
  5
17A
330
1F
100
AcDbEntity
  8
LAY-10
  6
CONTINUOUS
 62
     7
100
AcDbLine
 10
866.2990426849503
 20
1095.54168337207
 30
0.0
 11
897.494520708424
 21
1126.737161395543
 31
0.0
  0
LINE
  5
17B
330
1F
100
AcDbEntity
  8
LAY-10
  6
CONTINUOUS
 62
     7
100
AcDbLine
 10
872.6414424040001
 20
1091.08219263689
 30
0.0
 11
870.54168337207
 21
1091.29904268495
 31
0.0
  0
LINE
  5
17C
330
1F
100
AcDbEntity
  8
LAY-10
  6
CONTINUOUS
 62
     7
100
AcDbLine
 10
875.1574944131479
 20
1093.817359171184
 30
0.0
 11
897.7570766491036
 21
1118.385063175738
 31
0.0
  0
LINE
  5
17D
330
1F
100
AcDbEntity
  8
LAY-10
  6
CONTINUOUS
 62
     7
100
AcDbLine
 10
866.0821926368881
 20
1097.641442404002
 30
0.0
 11
866.2990426849481
 21
1095.541683372072
 31
0.0
  0
LINE
  5
17E
330
1F
100
AcDbEntity
  8
LAY-10
  6
CONTINUOUS
 62
     7
100
AcDbLine
 10
552.505479291576
 20
1126.737161395544
 30
0.0
 11
548.2628386044566
 21
1122.494520708424
 31
0.0
  0
ARC
  5
17F
330
1F
100
AcDbEntity
  8
LAY-10
  6
CONTINUOUS
 62
     7
100
AcDbCircle
 10
583.8906913694065
 20
1103.101379986605
 30
0.0
 40
4.0
100
AcDbArc
 50
227.3893614265587
 51
312.6659075592798
  0
ARC
  5
180
330
1F
100
AcDbEntity
  8
LAY-10
  6
CONTINUOUS
 62
     7
100
AcDbCircle
 10
571.898620013395
 20
1091.109308630594
 30
0.0
 40
4.0
100
AcDbArc
 50
317.3340924407214
 51
42.61063857344599
  0
ARC
  5
181
330
1F
100
AcDbEntity
  8
LAY-10
  6
CONTINUOUS
 62
     7
100
AcDbCircle
 10
560.0000000000002
 20
1126.436933615925
 30
0.0
 40
5.0
100
AcDbArc
 50
180.0
 51
227.3893614265582
  0
LINE
  5
182
330
1F
100
AcDbEntity
  8
LAY-10
  6
CONTINUOUS
 62
     7
100
AcDbLine
 10
574.8425055868521
 20
1093.817359171184
 30
0.0
 11
552.2429233508964
 21
1118.385063175738
 31
0.0
  0
ARC
  5
183
330
1F
100
AcDbEntity
  8
LAY-10
  6
CONTINUOUS
 62
     7
100
AcDbCircle
 10
548.5630663840749
 20
1115.0
 30
0.0
 40
5.0
100
AcDbArc
 50
42.6106385734418
 51
90.0
  0
ARC
  5
184
330
1F
100
AcDbEntity
  8
LAY-10
  6
CONTINUOUS
 62
     7
100
AcDbCircle
 10
725.0
 20
950.0000000000001
 30
0.0
 40
202.84920769492
100
AcDbArc
 50
134.1526040102287
 51
135.8473959897715
  0
LINE
  5
185
330
1F
100
AcDbEntity
  8
LAY-10
  6
CONTINUOUS
 62
     7
100
AcDbLine
 10
583.7009573150495
 20
1095.54168337207
 30
0.0
 11
552.5054792915759
 21
1126.737161395543
 31
0.0
  0
LINE
  5
186
330
1F
100
AcDbEntity
  8
LAY-10
  6
CONTINUOUS
 62
     7
100
AcDbLine
 10
579.4583166279303
 20
1091.29904268495
 30
0.0
 11
548.2628386044566
 21
1122.494520708424
 31
0.0
  0
LINE
  5
187
330
1F
100
AcDbEntity
  8
LAY-10
  6
CONTINUOUS
 62
     7
100
AcDbLine
 10
583.91780736311
 20
1097.641442404
 30
0.0
 11
583.70095731505
 21
1095.54168337207
 31
0.0
  0
LINE
  5
188
330
1F
100
AcDbEntity
  8
LAY-10
  6
CONTINUOUS
 62
     7
100
AcDbLine
 10
581.1826408288161
 20
1100.157494413148
 30
0.0
 11
556.6149368242626
 21
1122.757076649104
 31
0.0
  0
LINE
  5
189
330
1F
100
AcDbEntity
  8
LAY-10
  6
CONTINUOUS
 62
     7
100
AcDbLine
 10
577.3585575959979
 20
1091.082192636888
 30
0.0
 11
579.4583166279281
 21
1091.299042684948
 31
0.0
  0
LINE
  5
18A
330
1F
100
AcDbEntity
  8
LAY-10
  6
CONTINUOUS
 62
     7
100
AcDbLine
 10
548.2628386044565
 20
777.5054792915762
 30
0.0
 11
552.5054792915759
 21
773.2628386044568
 31
0.0
  0
ARC
  5
18B
330
1F
100
AcDbEntity
  8
LAY-10
  6
CONTINUOUS
 62
     7
100
AcDbCircle
 10
571.8986200133947
 20
808.8906913694066
 30
0.0
 40
4.0
100
AcDbArc
 50
317.3893614265598
 51
42.66590755928087
  0
ARC
  5
18C
330
1F
100
AcDbEntity
  8
LAY-10
  6
CONTINUOUS
 62
     7
100
AcDbCircle
 10
583.890691369406
 20
796.8986200133952
 30
0.0
 40
4.0
100
AcDbArc
 50
47.33409244071904
 51
132.6106385734425
  0
ARC
  5
18D
330
1F
100
AcDbEntity
  8
LAY-10
  6
CONTINUOUS
 62
     7
100
AcDbCircle
 10
548.5630663840747
 20
785.0000000000003
 30
0.0
 40
5.0
100
AcDbArc
 50
270.0
 51
317.3893614265583
  0
LINE
  5
18E
330
1F
100
AcDbEntity
  8
LAY-10
  6
CONTINUOUS
 62
     7
100
AcDbLine
 10
581.1826408288159
 20
799.8425055868523
 30
0.0
 11
556.6149368242623
 21
777.2429233508965
 31
0.0
  0
ARC
  5
18F
330
1F
100
AcDbEntity
  8
LAY-10
  6
CONTINUOUS
 62
     7
100
AcDbCircle
 10
560.0
 20
773.563066384075
 30
0.0
 40
5.0
100
AcDbArc
 50
132.6106385734427
 51
180.0
  0
ARC
  5
190
330
1F
100
AcDbEntity
  8
LAY-10
  6
CONTINUOUS
 62
     7
100
AcDbCircle
 10
725.0
 20
950.0000000000001
 30
0.0
 40
202.84920769492
100
AcDbArc
 50
224.1526040102286
 51
225.8473959897715
  0
LINE
  5
191
330
1F
100
AcDbEntity
  8
LAY-10
  6
CONTINUOUS
 62
     7
100
AcDbLine
 10
579.4583166279303
 20
808.7009573150497
 30
0.0
 11
548.2628386044566
 21
777.505479291576
 31
0.0
  0
LINE
  5
192
330
1F
100
AcDbEntity
  8
LAY-10
  6
CONTINUOUS
 62
     7
100
AcDbLine
 10
583.7009573150495
 20
804.4583166279305
 30
0.0
 11
552.5054792915759
 21
773.2628386044568
 31
0.0
  0
LINE
  5
193
330
1F
100
AcDbEntity
  8
LAY-10
  6
CONTINUOUS
 62
     7
100
AcDbLine
 10
577.3585575959999
 20
808.9178073631101
 30
0.0
 11
579.4583166279299
 21
808.7009573150501
 31
0.0
  0
LINE
  5
194
330
1F
100
AcDbEntity
  8
LAY-10
  6
CONTINUOUS
 62
     7
100
AcDbLine
 10
574.842505586852
 20
806.1826408288164
 30
0.0
 11
552.2429233508963
 21
781.6149368242628
 31
0.0
  0
LINE
  5
195
330
1F
100
AcDbEntity
  8
LAY-10
  6
CONTINUOUS
 62
     7
100
AcDbLine
 10
583.9178073631118
 20
802.3585575959981
 30
0.0
 11
583.7009573150518
 21
804.4583166279282
 31
0.0
  0
LINE
  5
196
330
1F
100
AcDbEntity
  8
LAY-10
  6
CONTINUOUS
 62
     7
100
AcDbLine
 10
548.5630663840747
 20
780.0000000000002
 30
0.0
 11
518.0000000000005
 21
780.0000000000002
 31
0.0
  0
LINE
  5
197
330
1F
100
AcDbEntity
  8
LAY-10
  6
CONTINUOUS
 62
     7
100
AcDbLine
 10
555.0
 20
743.0000000000005
 30
0.0
 11
555.0
 21
773.563066384075
 31
0.0
  0
LINE
  5
198
330
1F
100
AcDbEntity
  8
LAY-10
  6
CONTINUOUS
 62
     7
100
AcDbLine
 10
518.0000000000003
 20
1120.0
 30
0.0
 11
548.5630663840749
 21
1120.0
 31
0.0
  0
LINE
  5
199
330
1F
100
AcDbEntity
  8
LAY-10
  6
CONTINUOUS
 62
     7
100
AcDbLine
 10
555.0000000000002
 20
1126.436933615925
 30
0.0
 11
555.0000000000001
 21
1157.0
 31
0.0
  0
LINE
  5
19A
330
1F
100
AcDbEntity
  8
LAY-10
  6
CONTINUOUS
 62
     7
100
AcDbLine
 10
895.0000000000001
 20
1156.999999999999
 30
0.0
 11
895.0000000000001
 21
1126.436933615925
 31
0.0
  0
ARC
  5
19B
330
1F
100
AcDbEntity
  8
LAY-10
  6
CONTINUOUS
 62
     7
100
AcDbCircle
 10
725.0
 20
950.0000000000001
 30
0.0
 40
204.2111177051
100
AcDbArc
 50
317.3340924407198
 51
42.66590755928809
  0
ARC
  5
19C
330
1F
100
AcDbEntity
  8
LAY-10
  6
CONTINUOUS
 62
     7
100
AcDbCircle
 10
725.0
 20
950.0000000000001
 30
0.0
 40
204.2111177051
100
AcDbArc
 50
47.33409244071062
 51
132.6659075592893
  0
ARC
  5
19D
330
1F
100
AcDbEntity
  8
LAY-10
  6
CONTINUOUS
 62
     7
100
AcDbCircle
 10
725.0
 20
950.0000000000001
 30
0.0
 40
204.2111177051
100
AcDbArc
 50
137.3340924407119
 51
222.6659075592798
  0
ARC
  5
19E
330
1F
100
AcDbEntity
  8
LAY-10
  6
CONTINUOUS
 62
     7
100
AcDbCircle
 10
725.0
 20
950.0000000000001
 30
0.0
 40
204.2111177051
100
AcDbArc
 50
227.3340924407203
 51
312.6659075592804
  0
LINE
  5
19F
330
1F
100
AcDbEntity
  8
LAY-10
  6
CONTINUOUS
 62
     7
100
AcDbLine
 10
901.4369336159252
 20
1120.0
 30
0.0
 11
921.9999999999999
 21
1120.0
 31
0.0
  0
LINE
  5
1A0
330
1F
100
AcDbEntity
  8
LAY-10
  6
CONTINUOUS
 62
     7
100
AcDbLine
 10
925.0
 20
1117.0
 30
0.0
 11
925.0
 21
1035.000000000001
 31
0.0
  0
ARC
  5
1A1
330
1F
100
AcDbEntity
  8
LAY-10
  6
CONTINUOUS
 62
     7
100
AcDbCircle
 10
921.9999999999999
 20
1117.0
 30
0.0
 40
3.000000000000003
100
AcDbArc
 50
0.0
 51
90.0
  0
LINE
  5
1A2
330
1F
100
AcDbEntity
  8
LAY-10
  6
CONTINUOUS
 62
     7
100
AcDbLine
 10
937.9999999999995
 20
1032.000000000001
 30
0.0
 11
937.9999999999993
 21
785.9999999999999
 31
0.0
  0
LINE
  5
1A3
330
1F
100
AcDbEntity
  8
LAY-10
  6
CONTINUOUS
 62
     7
100
AcDbLine
 10
934.9999999999995
 20
1035.000000000001
 30
0.0
 11
925.0
 21
1035.000000000001
 31
0.0
  0
ARC
  5
1A4
330
1F
100
AcDbEntity
  8
LAY-10
  6
CONTINUOUS
 62
     7
100
AcDbCircle
 10
934.9999999999995
 20
1032.000000000001
 30
0.0
 40
3.000000000000003
100
AcDbArc
 50
0.0
 51
90.0
  0
TEXT
  5
1A5
330
1F
100
AcDbEntity
  8
LAY-10
  6
CONTINUOUS
 62
     7
100
AcDbText
 10
941.6321255
 20
1039.920000000001
 30
0.0
 40
11.692914
  1
ＳＦ－３５－Ｂ
 50
90.00000000000004
 41
0.800936768149883
  7
EXCADSTD
100
AcDbText
  0
LINE
  5
1A6
330
1F
100
AcDbEntity
  8
LAY-10
  6
CONTINUOUS
 62
     7
100
AcDbLine
 10
549.0
 20
466.596262339
 30
0.0
 11
550.0
 21
441.596262339
 31
0.0
  0
LINE
  5
1A7
330
1F
100
AcDbEntity
  8
LAY-10
  6
CONTINUOUS
 62
     7
100
AcDbLine
 10
543.3301796172062
 20
460.3499049691963
 30
0.0
 11
544.0
 21
466.596262339
 31
0.0
  0
ARC
  5
1A8
330
1F
100
AcDbEntity
  8
LAY-10
  6
CONTINUOUS
 62
     7
100
AcDbCircle
 10
536.3700825865218
 20
461.0962623389992
 30
0.0
 40
7.000000000000004
100
AcDbArc
 50
183.000000000001
 51
353.8793472831686
  0
LINE
  5
1A9
330
1F
100
AcDbEntity
  8
LAY-10
  6
CONTINUOUS
 62
     7
100
AcDbLine
 10
529.3796758432399
 20
460.7299106452985
 30
0.0
 11
527.4999999999881
 21
496.5962623389994
 31
0.0
  0
LINE
  5
1AA
330
1F
100
AcDbEntity
  8
LAY-10
  6
CONTINUOUS
 62
     7
100
AcDbLine
 10
505.0
 20
441.5962623389999
 30
0.0
 11
1015.416305603426
 21
441.5962623389999
 31
0.0
  0
LINE
  5
1AB
330
1F
100
AcDbEntity
  8
LAY-10
  6
CONTINUOUS
 62
     7
100
AcDbLine
 10
971.9440906209051
 20
449.5962623389991
 30
0.0
 11
927.8492076949192
 21
486.5962623389993
 31
0.0
  0
LINE
  5
1AC
330
1F
100
AcDbEntity
  8
LAY-10
  6
CONTINUOUS
 62
     7
100
AcDbLine
 10
1001.20057685089
 20
441.596262339
 30
0.0
 11
1002.70057685089
 21
449.596262339
 31
0.0
  0
LINE
  5
1AD
330
1F
100
AcDbEntity
  8
LAY-10
  6
CONTINUOUS
 62
     7
100
AcDbLine
 10
986.2005768508899
 20
441.596262339
 30
0.0
 11
984.70057685089
 21
449.596262339
 31
0.0
  0
ARC
  5
1AE
330
1F
100
AcDbEntity
  8
LAY-10
  6
CONTINUOUS
 62
     7
100
AcDbCircle
 10
966.41630560343
 20
449.596262339
 30
0.0
 40
2.0
100
AcDbArc
 50
270.0
 51
0.0
  0
ARC
  5
1AF
330
1F
100
AcDbEntity
  8
LAY-10
  6
CONTINUOUS
 62
     7
100
AcDbCircle
 10
933.0738728043278
 20
451.5962623389999
 30
0.0
 40
4.0
100
AcDbArc
 50
182.0000000000012
 51
270.0
  0
LINE
  5
1B0
330
1F
100
AcDbEntity
  8
LAY-10
  6
CONTINUOUS
 62
     7
100
AcDbLine
 10
725.0
 20
500.0000000000009
 30
0.0
 11
530.0
 21
496.596262338998
 31
0.0
  0
LINE
  5
1B1
330
1F
100
AcDbEntity
  8
LAY-10
  6
CONTINUOUS
 62
     7
100
AcDbLine
 10
530.0
 20
496.596262339
 30
0.0
 11
530.4999999999999
 21
489.596262339
 31
0.0
  0
LINE
  5
1B2
330
1F
100
AcDbEntity
  8
LAY-10
  6
CONTINUOUS
 62
     7
100
AcDbLine
 10
725.0
 20
500.0000000000009
 30
0.0
 11
920.0
 21
496.596262338998
 31
0.0
  0
LINE
  5
1B3
330
1F
100
AcDbEntity
  8
LAY-10
  6
CONTINUOUS
 62
     7
100
AcDbLine
 10
920.0
 20
496.596262339
 30
0.0
 11
919.5
 21
489.596262339
 31
0.0
  0
LINE
  5
1B4
330
1F
100
AcDbEntity
  8
LAY-10
  6
CONTINUOUS
 62
     7
100
AcDbLine
 10
532.6472407644346
 20
487.755752783566
 30
0.0
 11
534.5
 21
464.596262339
 31
0.0
  0
LINE
  5
1B5
330
1F
100
AcDbEntity
  8
LAY-10
  6
CONTINUOUS
 62
     7
100
AcDbLine
 10
530.6536102073625
 20
489.5962623390002
 30
0.0
 11
530.4999999999999
 21
489.5962623390002
 31
0.0
  0
ARC
  5
1B6
330
1F
100
AcDbEntity
  8
LAY-10
  6
CONTINUOUS
 62
     7
100
AcDbCircle
 10
530.6536102073625
 20
487.5962623390002
 30
0.0
 40
2.0
100
AcDbArc
 50
4.57392125990113
 51
90.0
  0
LINE
  5
1B7
330
1F
100
AcDbEntity
  8
LAY-10
  6
CONTINUOUS
 62
     7
100
AcDbLine
 10
917.3527592355653
 20
487.755752783566
 30
0.0
 11
915.4999999999999
 21
464.596262339
 31
0.0
  0
LINE
  5
1B8
330
1F
100
AcDbEntity
  8
LAY-10
  6
CONTINUOUS
 62
     7
100
AcDbLine
 10
919.3463897926375
 20
489.5962623390002
 30
0.0
 11
919.5
 21
489.5962623390002
 31
0.0
  0
ARC
  5
1B9
330
1F
100
AcDbEntity
  8
LAY-10
  6
CONTINUOUS
 62
     7
100
AcDbCircle
 10
919.3463897926375
 20
487.5962623390002
 30
0.0
 40
2.0
100
AcDbArc
 50
90.0
 51
175.4260787400989
  0
LINE
  5
1BA
330
1F
100
AcDbEntity
  8
LAY-10
  6
CONTINUOUS
 62
     7
100
AcDbLine
 10
552.8838737789349
 20
480.5726300499524
 30
0.0
 11
551.5
 21
466.596262339
 31
0.0
  0
ARC
  5
1BB
330
1F
100
AcDbEntity
  8
LAY-10
  6
CONTINUOUS
 62
     7
100
AcDbCircle
 10
557.8595424842207
 20
480.0799628851843
 30
0.0
 40
5.0
100
AcDbArc
 50
91.00000000000048
 51
174.3452747191793
  0
ARC
  5
1BC
330
1F
100
AcDbEntity
  8
LAY-10
  6
CONTINUOUS
 62
     7
100
AcDbCircle
 10
559.5938640456752
 20
475.1094739404263
 30
0.0
 40
10.0
100
AcDbArc
 50
20.00251944931077
 51
91.00000000000115
  0
LINE
  5
1BD
330
1F
100
AcDbEntity
  8
LAY-10
  6
CONTINUOUS
 62
     7
100
AcDbLine
 10
640.7203217995728
 20
486.5270648083561
 30
0.0
 11
725.0
 21
487.9981720634739
 31
0.0
  0
ARC
  5
1BE
330
1F
100
AcDbEntity
  8
LAY-10
  6
CONTINUOUS
 62
     7
100
AcDbCircle
 10
640.8948458639458
 20
476.5285878567922
 30
0.0
 40
10.0
100
AcDbArc
 50
91.00000000000048
 51
161.9974805506892
  0
ARC
  5
1BF
330
1F
100
AcDbEntity
  8
LAY-10
  6
CONTINUOUS
 62
     7
100
AcDbCircle
 10
872.9999999999999
 20
477.596262339
 30
0.0
 40
9.0
100
AcDbArc
 50
180.0
 51
270.0
  0
LINE
  5
1C0
330
1F
100
AcDbEntity
  8
LAY-10
  6
CONTINUOUS
 62
     7
100
AcDbLine
 10
869.0
 20
497.4864706503372
 30
0.0
 11
869.0
 21
478.5962623389995
 31
0.0
  0
ARC
  5
1C1
330
1F
100
AcDbEntity
  8
LAY-10
  6
CONTINUOUS
 62
     7
100
AcDbCircle
 10
874.0
 20
478.5962623389995
 30
0.0
 40
5.0
100
AcDbArc
 50
180.0
 51
270.0
  0
LINE
  5
1C2
330
1F
100
AcDbEntity
  8
LAY-10
  6
CONTINUOUS
 62
     7
100
AcDbLine
 10
910.9999999999999
 20
496.7533579233521
 30
0.0
 11
910.9999999999999
 21
478.5962623389995
 31
0.0
  0
LINE
  5
1C3
330
1F
100
AcDbEntity
  8
LAY-10
  6
CONTINUOUS
 62
     7
100
AcDbLine
 10
874.0
 20
473.5962623389995
 30
0.0
 11
905.9999999999999
 21
473.5962623389995
 31
0.0
  0
ARC
  5
1C4
330
1F
100
AcDbEntity
  8
LAY-10
  6
CONTINUOUS
 62
     7
100
AcDbCircle
 10
905.9999999999999
 20
478.5962623389995
 30
0.0
 40
5.0
100
AcDbArc
 50
270.0
 51
0.0
  0
LINE
  5
1C5
330
1F
100
AcDbEntity
  8
LAY-10
  6
CONTINUOUS
 62
     7
100
AcDbLine
 10
859.0872620321863
 20
485.6576701986551
 30
0.0
 11
725.0
 21
487.9981720634739
 31
0.0
  0
LINE
  5
1C6
330
1F
100
AcDbEntity
  8
LAY-10
  6
CONTINUOUS
 62
     7
100
AcDbLine
 10
864.0
 20
480.658431722873
 30
0.0
 11
864.0
 21
477.596262339
 31
0.0
  0
ARC
  5
1C7
330
1F
100
AcDbEntity
  8
LAY-10
  6
CONTINUOUS
 62
     7
100
AcDbCircle
 10
859.0
 20
480.658431722873
 30
0.0
 40
5.0
100
AcDbArc
 50
0.0
 51
89.00000000000085
  0
LINE
  5
1C8
330
1F
100
AcDbEntity
  8
LAY-10
  6
CONTINUOUS
 62
     7
100
AcDbLine
 10
898.3019694662336
 20
468.5962623390004
 30
0.0
 11
898.4999999999968
 21
466.5962623389997
 31
0.0
  0
LINE
  5
1C9
330
1F
100
AcDbEntity
  8
LAY-10
  6
CONTINUOUS
 62
     7
100
AcDbLine
 10
541.061471442974
 20
480.3662692495706
 30
0.0
 11
539.5
 21
464.596262339
 31
0.0
  0
LINE
  5
1CA
330
1F
100
AcDbEntity
  8
LAY-10
  6
CONTINUOUS
 62
     7
100
AcDbLine
 10
559.4193399813025
 20
485.1079508919902
 30
0.0
 11
545.9498781160738
 21
484.8728405605847
 31
0.0
  0
ARC
  5
1CB
330
1F
100
AcDbEntity
  8
LAY-10
  6
CONTINUOUS
 62
     7
100
AcDbCircle
 10
546.03714014826
 20
479.8736020848026
 30
0.0
 40
5.0
100
AcDbArc
 50
91.00000000000048
 51
174.3452747191793
  0
LINE
  5
1CC
330
1F
100
AcDbEntity
  8
LAY-10
  6
CONTINUOUS
 62
     7
100
AcDbLine
 10
522.4999999999964
 20
496.596262339
 30
0.0
 11
527.4999999999899
 21
496.596262339
 31
0.0
  0
LINE
  5
1CD
330
1F
100
AcDbEntity
  8
LAY-10
  6
CONTINUOUS
 62
     7
100
AcDbLine
 10
922.5000000000099
 20
496.596262339
 30
0.0
 11
927.5000000000035
 21
496.596262339
 31
0.0
  0
LINE
  5
1CE
330
1F
100
AcDbEntity
  8
LAY-10
  6
CONTINUOUS
 62
     7
100
AcDbLine
 10
534.5
 20
464.5962623390002
 30
0.0
 11
543.78553248137
 21
464.5962623390002
 31
0.0
  0
LINE
  5
1CF
330
1F
100
AcDbEntity
  8
LAY-10
  6
CONTINUOUS
 62
     7
100
AcDbLine
 10
539.6980305337632
 20
466.5962623390003
 30
0.0
 11
576.5533483948715
 21
466.5962623390003
 31
0.0
  0
LINE
  5
1D0
330
1F
100
AcDbEntity
  8
LAY-10
  6
CONTINUOUS
 62
     7
100
AcDbLine
 10
929.0763094962514
 20
451.4566643521898
 30
0.0
 11
927.5000000000035
 21
496.5962623390002
 31
0.0
  0
LINE
  5
1D1
330
1F
100
AcDbEntity
  8
LAY-10
  6
CONTINUOUS
 62
     7
100
AcDbLine
 10
933.0738728043278
 20
447.5962623389999
 30
0.0
 11
966.41630560343
 21
447.5962623389999
 31
0.0
  0
LINE
  5
1D2
330
1F
100
AcDbEntity
  8
LAY-10
  6
CONTINUOUS
 62
     7
100
AcDbLine
 10
520.9236905037484
 20
451.4566643521881
 30
0.0
 11
522.4999999999964
 21
496.5962623390002
 31
0.0
  0
ARC
  5
1D3
330
1F
100
AcDbEntity
  8
LAY-10
  6
CONTINUOUS
 62
     7
100
AcDbCircle
 10
516.926127195672
 20
451.5962623389981
 30
0.0
 40
4.0
100
AcDbArc
 50
270.0
 51
357.9999999999989
  0
LINE
  5
1D4
330
1F
100
AcDbEntity
  8
LAY-10
  6
CONTINUOUS
 62
     7
100
AcDbLine
 10
514.0
 20
447.5962623389981
 30
0.0
 11
516.926127195672
 21
447.5962623389981
 31
0.0
  0
ARC
  5
1D5
330
1F
100
AcDbEntity
  8
LAY-10
  6
CONTINUOUS
 62
     7
100
AcDbCircle
 10
514.0
 20
449.5962623389981
 30
0.0
 40
2.0
100
AcDbArc
 50
180.0
 51
270.0
  0
ELLIPSE
  5
1D6
330
1F
100
AcDbEntity
  8
LAY-10
  6
CONTINUOUS
 62
     7
100
AcDbEllipse
 10
536.3700825865199
 20
459.346262339
 30
0.0
 11
6.500000000000062
 21
-1.592040838891574E-15
 31
0.0
210
0.0
220
0.0
230
1.0
 40
0.8076923076922982
 41
0.0
 42
6.283185307179586
  0
ELLIPSE
  5
1D7
330
1F
100
AcDbEntity
  8
LAY-10
  6
CONTINUOUS
 62
     7
100
AcDbEllipse
 10
913.62991741348
 20
459.346262339
 30
0.0
 11
6.500000000000062
 21
-1.592040838891574E-15
 31
0.0
210
0.0
220
0.0
230
1.0
 40
0.8076923076922982
 41
0.0
 42
6.283185307179586
  0
ARC
  5
1D8
330
1F
100
AcDbEntity
  8
LAY-10
  6
CONTINUOUS
 62
     7
100
AcDbCircle
 10
913.6299174134781
 20
461.0962623389992
 30
0.0
 40
7.000000000000004
100
AcDbArc
 50
186.1206527168315
 51
356.999999999999
  0
LINE
  5
1D9
330
1F
100
AcDbEntity
  8
LAY-10
  6
CONTINUOUS
 62
     7
100
AcDbLine
 10
906.6698203827937
 20
460.3499049691963
 30
0.0
 11
905.9999999999999
 21
466.596262339
 31
0.0
  0
LINE
  5
1DA
330
1F
100
AcDbEntity
  8
LAY-10
  6
CONTINUOUS
 62
     7
100
AcDbLine
 10
876.6867867531665
 20
454.7009342514822
 30
0.0
 11
876.0000000000002
 21
441.5962623389962
 31
0.0
  0
ARC
  5
1DB
330
1F
100
AcDbEntity
  8
LAY-10
  6
CONTINUOUS
 62
     7
100
AcDbCircle
 10
878.6840458226757
 20
454.5962623389963
 30
0.0
 40
2.0
100
AcDbArc
 50
90.0
 51
177.000000000001
  0
LINE
  5
1DC
330
1F
100
AcDbEntity
  8
LAY-10
  6
CONTINUOUS
 62
     7
100
AcDbLine
 10
882.4944470000005
 20
462.5962623389964
 30
0.0
 11
897.5055540000003
 21
462.5962623389964
 31
0.0
  0
LINE
  5
1DD
330
1F
100
AcDbEntity
  8
LAY-10
  6
CONTINUOUS
 62
     7
100
AcDbLine
 10
893.7527770000005
 20
462.5962623389964
 30
0.0
 11
893.7527770000005
 21
456.5962623389965
 31
0.0
  0
LINE
  5
1DE
330
1F
100
AcDbEntity
  8
LAY-10
  6
CONTINUOUS
 62
     7
100
AcDbLine
 10
897.5055540000003
 20
462.5962623389964
 30
0.0
 11
897.5055540000003
 21
456.5962623389965
 31
0.0
  0
LINE
  5
1DF
330
1F
100
AcDbEntity
  8
LAY-10
  6
CONTINUOUS
 62
     7
100
AcDbLine
 10
886.2472230000005
 20
462.5962623389964
 30
0.0
 11
886.2472230000005
 21
456.5962623389965
 31
0.0
  0
LINE
  5
1E0
330
1F
100
AcDbEntity
  8
LAY-10
  6
CONTINUOUS
 62
     7
100
AcDbLine
 10
882.4944470000005
 20
462.5962623389964
 30
0.0
 11
882.4944470000005
 21
456.5962623389965
 31
0.0
  0
LINE
  5
1E1
330
1F
100
AcDbEntity
  8
LAY-10
  6
CONTINUOUS
 62
     7
100
AcDbLine
 10
878.68404582268
 20
456.596262339
 30
0.0
 11
900.6
 21
456.596262339
 31
0.0
  0
LINE
  5
1E2
330
1F
100
AcDbEntity
  8
LAY-10
  6
CONTINUOUS
 62
     7
100
AcDbLine
 10
900.9999999999999
 20
466.596262339
 30
0.0
 11
900.6
 21
456.596262339
 31
0.0
  0
LINE
  5
1E3
330
1F
100
AcDbEntity
  8
LAY-10
  6
CONTINUOUS
 62
     7
100
AcDbLine
 10
920.6203241567601
 20
460.7299106452985
 30
0.0
 11
922.5000000000119
 21
496.5962623389994
 31
0.0
  0
LINE
  5
1E4
330
1F
100
AcDbEntity
  8
LAY-10
  6
CONTINUOUS
 62
     7
100
AcDbLine
 10
906.2144675186314
 20
464.5962623390002
 30
0.0
 11
915.4999999999999
 21
464.5962623390002
 31
0.0
  0
LINE
  5
1E5
330
1F
100
AcDbEntity
  8
LAY-10
  6
CONTINUOUS
 62
     7
100
AcDbLine
 10
884.0000000000006
 20
466.5962623389997
 30
0.0
 11
623.4466516051283
 21
466.5962623389997
 31
0.0
  0
LINE
  5
1E6
330
1F
100
AcDbEntity
  8
LAY-10
  6
CONTINUOUS
 62
     7
100
AcDbLine
 10
872.9999999999999
 20
468.5962623389999
 30
0.0
 11
884.0000000000006
 21
468.5962623389999
 31
0.0
  0
LINE
  5
1E7
330
1F
100
AcDbEntity
  8
LAY-10
  6
CONTINUOUS
 62
     7
100
AcDbLine
 10
505.5401822600548
 20
447.7705738244951
 30
0.0
 11
504.9999999999961
 21
441.5962623390004
 31
0.0
  0
LINE
  5
1E8
330
1F
100
AcDbEntity
  8
LAY-10
  6
CONTINUOUS
 62
     7
100
AcDbLine
 10
507.5325716562384
 20
449.5962623389998
 30
0.0
 11
520.39022881081
 21
449.5962623389998
 31
0.0
  0
ARC
  5
1E9
330
1F
100
AcDbEntity
  8
LAY-10
  6
CONTINUOUS
 62
     7
100
AcDbCircle
 10
507.5325716562384
 20
447.5962623389998
 30
0.0
 40
2.0
100
AcDbArc
 50
90.0
 51
175.0000000000003
  0
LINE
  5
1EA
330
1F
100
AcDbEntity
  8
LAY-10
  6
CONTINUOUS
 62
     7
100
AcDbLine
 10
1014.876123343374
 20
447.7705738244952
 30
0.0
 11
1015.416305603432
 21
441.5962623390002
 31
0.0
  0
LINE
  5
1EB
330
1F
100
AcDbEntity
  8
LAY-10
  6
CONTINUOUS
 62
     7
100
AcDbLine
 10
1012.88373394719
 20
449.5962623389998
 30
0.0
 11
968.4163056034299
 21
449.5962623389998
 31
0.0
  0
ARC
  5
1EC
330
1F
100
AcDbEntity
  8
LAY-10
  6
CONTINUOUS
 62
     7
100
AcDbCircle
 10
1012.88373394719
 20
447.5962623389998
 30
0.0
 40
2.0
100
AcDbArc
 50
4.999999999998139
 51
90.0
  0
LINE
  5
1ED
330
1F
100
AcDbEntity
  8
LAY-10
  6
CONTINUOUS
 62
     7
100
AcDbLine
 10
910.3912284189577
 20
465.6947957719534
 30
0.0
 11
910.4999999999999
 21
464.596262339
 31
0.0
  0
LINE
  5
1EE
330
1F
100
AcDbEntity
  8
LAY-10
  6
CONTINUOUS
 62
     7
100
AcDbLine
 10
909.3960946779006
 20
466.5962623389997
 30
0.0
 11
896.0000000000005
 21
466.5962623389997
 31
0.0
  0
ARC
  5
1EF
330
1F
100
AcDbEntity
  8
LAY-10
  6
CONTINUOUS
 62
     7
100
AcDbCircle
 10
909.3960946779006
 20
465.5962623389997
 30
0.0
 40
1.0
100
AcDbArc
 50
5.654725280821665
 51
90.0
  0
LINE
  5
1F0
330
1F
100
AcDbEntity
  8
LAY-10
  6
CONTINUOUS
 62
     7
100
AcDbLine
 10
896.0
 20
470.5962623390005
 30
0.0
 11
884.0
 21
470.5962623390005
 31
0.0
  0
LINE
  5
1F1
330
1F
100
AcDbEntity
  8
LAY-10
  6
CONTINUOUS
 62
     7
100
AcDbLine
 10
879.25000000001
 20
476.2517962449303
 30
0.0
 11
879.2944660940773
 21
476.2962623389974
 31
0.0
  0
LINE
  5
1F2
330
1F
100
AcDbEntity
  8
LAY-10
  6
CONTINUOUS
 62
     7
100
AcDbLine
 10
879.25000000001
 20
475.5446894637437
 30
0.0
 11
880.0015728752637
 21
476.2962623389974
 31
0.0
  0
LINE
  5
1F3
330
1F
100
AcDbEntity
  8
LAY-10
  6
CONTINUOUS
 62
     7
100
AcDbLine
 10
879.25000000001
 20
474.8375826825571
 30
0.0
 11
880.7086796564505
 21
476.2962623389974
 31
0.0
  0
LINE
  5
1F4
330
1F
100
AcDbEntity
  8
LAY-10
  6
CONTINUOUS
 62
     7
100
AcDbLine
 10
879.25000000001
 20
474.1304759013706
 30
0.0
 11
881.4157864376369
 21
476.2962623389974
 31
0.0
  0
LINE
  5
1F5
330
1F
100
AcDbEntity
  8
LAY-10
  6
CONTINUOUS
 62
     7
100
AcDbLine
 10
879.4228932188196
 20
473.5962623389935
 30
0.0
 11
882.1228932188235
 21
476.2962623389974
 31
0.0
  0
LINE
  5
1F6
330
1F
100
AcDbEntity
  8
LAY-10
  6
CONTINUOUS
 62
     7
100
AcDbLine
 10
883.00000000001
 20
477.173369120184
 30
0.0
 11
883.4228932188234
 21
477.5962623389975
 31
0.0
  0
LINE
  5
1F7
330
1F
100
AcDbEntity
  8
LAY-10
  6
CONTINUOUS
 62
     7
100
AcDbLine
 10
880.130000000006
 20
473.5962623389935
 30
0.0
 11
882.8300000000099
 21
476.2962623389974
 31
0.0
  0
LINE
  5
1F8
330
1F
100
AcDbEntity
  8
LAY-10
  6
CONTINUOUS
 62
     7
100
AcDbLine
 10
883.00000000001
 20
476.4662623389975
 30
0.0
 11
884.00000000001
 21
477.4662623389975
 31
0.0
  0
LINE
  5
1F9
330
1F
100
AcDbEntity
  8
LAY-10
  6
CONTINUOUS
 62
     7
100
AcDbLine
 10
880.8371067811927
 20
473.5962623389935
 30
0.0
 11
884.00000000001
 21
476.7591555578109
 31
0.0
  0
LINE
  5
1FA
330
1F
100
AcDbEntity
  8
LAY-10
  6
CONTINUOUS
 62
     7
100
AcDbLine
 10
881.5442135623791
 20
473.5962623389935
 30
0.0
 11
884.00000000001
 21
476.0520487766244
 31
0.0
  0
LINE
  5
1FB
330
1F
100
AcDbEntity
  8
LAY-10
  6
CONTINUOUS
 62
     7
100
AcDbLine
 10
882.2513203435656
 20
473.5962623389935
 30
0.0
 11
884.00000000001
 21
475.3449419954379
 31
0.0
  0
LINE
  5
1FC
330
1F
100
AcDbEntity
  8
LAY-10
  6
CONTINUOUS
 62
     7
100
AcDbLine
 10
882.9584271247523
 20
473.5962623389935
 30
0.0
 11
884.00000000001
 21
474.6378352142514
 31
0.0
  0
LINE
  5
1FD
330
1F
100
AcDbEntity
  8
LAY-10
  6
CONTINUOUS
 62
     7
100
AcDbLine
 10
883.6655339059388
 20
473.5962623389935
 30
0.0
 11
884.00000000001
 21
473.9307284330648
 31
0.0
  0
LINE
  5
1FE
330
1F
100
AcDbEntity
  8
LAY-10
  6
CONTINUOUS
 62
     7
100
AcDbLine
 10
896.00000000001
 20
477.4454470588254
 30
0.0
 11
896.1508152801821
 21
477.5962623389973
 31
0.0
  0
LINE
  5
1FF
330
1F
100
AcDbEntity
  8
LAY-10
  6
CONTINUOUS
 62
     7
100
AcDbLine
 10
896.00000000001
 20
476.7383402776389
 30
0.0
 11
896.8579220613685
 21
477.5962623389973
 31
0.0
  0
LINE
  5
200
330
1F
100
AcDbEntity
  8
LAY-10
  6
CONTINUOUS
 62
     7
100
AcDbLine
 10
896.00000000001
 20
476.0312334964523
 30
0.0
 11
897.0000000000101
 21
477.0312334964523
 31
0.0
  0
LINE
  5
201
330
1F
100
AcDbEntity
  8
LAY-10
  6
CONTINUOUS
 62
     7
100
AcDbLine
 10
896.00000000001
 20
475.3241267152657
 30
0.0
 11
897.0000000000101
 21
476.3241267152657
 31
0.0
  0
LINE
  5
202
330
1F
100
AcDbEntity
  8
LAY-10
  6
CONTINUOUS
 62
     7
100
AcDbLine
 10
896.00000000001
 20
474.6170199340792
 30
0.0
 11
897.6792424049281
 21
476.2962623389973
 31
0.0
  0
LINE
  5
203
330
1F
100
AcDbEntity
  8
LAY-10
  6
CONTINUOUS
 62
     7
100
AcDbLine
 10
896.00000000001
 20
473.9099131528926
 30
0.0
 11
898.3863491861149
 21
476.2962623389974
 31
0.0
  0
LINE
  5
204
330
1F
100
AcDbEntity
  8
LAY-10
  6
CONTINUOUS
 62
     7
100
AcDbLine
 10
896.3934559672973
 20
473.5962623389934
 30
0.0
 11
899.0934559673013
 21
476.2962623389973
 31
0.0
  0
LINE
  5
205
330
1F
100
AcDbEntity
  8
LAY-10
  6
CONTINUOUS
 62
     7
100
AcDbLine
 10
897.100562748484
 20
473.5962623389934
 30
0.0
 11
899.8005627484879
 21
476.2962623389973
 31
0.0
  0
LINE
  5
206
330
1F
100
AcDbEntity
  8
LAY-10
  6
CONTINUOUS
 62
     7
100
AcDbLine
 10
897.8076695296704
 20
473.5962623389935
 30
0.0
 11
900.5076695296743
 21
476.2962623389974
 31
0.0
  0
LINE
  5
207
330
1F
100
AcDbEntity
  8
LAY-10
  6
CONTINUOUS
 62
     7
100
AcDbLine
 10
898.5147763108569
 20
473.5962623389935
 30
0.0
 11
900.7500000000101
 21
475.8314860281465
 31
0.0
  0
LINE
  5
208
330
1F
100
AcDbEntity
  8
LAY-10
  6
CONTINUOUS
 62
     7
100
AcDbLine
 10
899.2218830920435
 20
473.5962623389935
 30
0.0
 11
900.7500000000101
 21
475.12437924696
 31
0.0
  0
LINE
  5
209
330
1F
100
AcDbEntity
  8
LAY-10
  6
CONTINUOUS
 62
     7
100
AcDbLine
 10
899.92898987323
 20
473.5962623389935
 30
0.0
 11
900.7500000000101
 21
474.4172724657734
 31
0.0
  0
LINE
  5
20A
330
1F
100
AcDbEntity
  8
LAY-10
  6
CONTINUOUS
 62
     7
100
AcDbLine
 10
900.6360966544167
 20
473.5962623389935
 30
0.0
 11
900.7500000000101
 21
473.7101656845869
 31
0.0
  0
LINE
  5
20B
330
1F
100
AcDbEntity
  8
LAY-10
  6
CONTINUOUS
 62
     7
100
AcDbLine
 10
896.00000000001
 20
470.5962623389977
 30
0.0
 11
884.00000000001
 21
470.5962623389977
 31
0.0
  0
LINE
  5
20C
330
1F
100
AcDbEntity
  8
LAY-10
  6
CONTINUOUS
 62
     7
100
AcDbLine
 10
896.0
 20
473.5962623389963
 30
0.0
 11
906.9999999999704
 21
473.5962623389963
 31
0.0
  0
ARC
  5
20D
330
1F
100
AcDbEntity
  8
LAY-10
  6
CONTINUOUS
 62
     7
100
AcDbCircle
 10
881.772758664055
 20
481.3286788549782
 30
0.0
 40
3.73290897830259
100
AcDbArc
 50
222.7216217368134
 51
317.2783782631868
  0
ARC
  5
20E
330
1F
100
AcDbEntity
  8
LAY-10
  6
CONTINUOUS
 62
     7
100
AcDbCircle
 10
890.0000000000051
 20
490.730857670466
 30
0.0
 40
13.13472222221601
100
AcDbArc
 50
245.3179579874927
 51
294.6820420125072
  0
ARC
  5
20F
330
1F
100
AcDbEntity
  8
LAY-10
  6
CONTINUOUS
 62
     7
100
AcDbCircle
 10
881.772758664055
 20
483.8635920415218
 30
0.0
 40
3.73290897830259
100
AcDbArc
 50
42.72162173681333
 51
137.2783782631867
  0
ARC
  5
210
330
1F
100
AcDbEntity
  8
LAY-10
  6
CONTINUOUS
 62
     7
100
AcDbCircle
 10
890.0000000000051
 20
474.461413226034
 30
0.0
 40
13.13472222221601
100
AcDbArc
 50
65.31795798749282
 51
114.6820420125074
  0
ARC
  5
211
330
1F
100
AcDbEntity
  8
LAY-10
  6
CONTINUOUS
 62
     7
100
AcDbCircle
 10
898.227241335955
 20
483.8635920415218
 30
0.0
 40
3.73290897830259
100
AcDbArc
 50
42.72162173681333
 51
137.2783782631867
  0
LINE
  5
212
330
1F
100
AcDbEntity
  8
LAY-10
  6
CONTINUOUS
 62
     7
100
AcDbLine
 10
879.0303448854049
 20
478.7961354482496
 30
0.0
 11
879.0303448854049
 21
486.39613544825
 31
0.0
  0
LINE
  5
213
330
1F
100
AcDbEntity
  8
LAY-10
  6
CONTINUOUS
 62
     7
100
AcDbLine
 10
900.9696551146051
 20
478.7961354482496
 30
0.0
 11
900.9696551146051
 21
486.39613544825
 31
0.0
  0
LINE
  5
214
330
1F
100
AcDbEntity
  8
LAY-10
  6
CONTINUOUS
 62
     7
100
AcDbLine
 10
895.484827557305
 20
478.79613544825
 30
0.0
 11
895.484827557305
 21
486.39613544825
 31
0.0
  0
LINE
  5
215
330
1F
100
AcDbEntity
  8
LAY-10
  6
CONTINUOUS
 62
     7
100
AcDbLine
 10
884.5151724427052
 20
478.79613544825
 30
0.0
 11
884.5151724427052
 21
486.39613544825
 31
0.0
  0
LINE
  5
216
330
1F
100
AcDbEntity
  8
LAY-10
  6
CONTINUOUS
 62
     7
100
AcDbLine
 10
881.8250000000052
 20
487.59613544825
 30
0.0
 11
898.1750000000051
 21
487.59613544825
 31
0.0
  0
ARC
  5
217
330
1F
100
AcDbEntity
  8
LAY-10
  6
CONTINUOUS
 62
     7
100
AcDbCircle
 10
890.0000000000051
 20
479.7989033054046
 30
0.0
 40
11.29723214284536
100
AcDbArc
 50
43.64511928785755
 51
136.3548807121427
  0
LINE
  5
218
330
1F
100
AcDbEntity
  8
LAY-10
  6
CONTINUOUS
 62
     7
100
AcDbLine
 10
879.4804895891971
 20
477.59613544825
 30
0.0
 11
900.5195104108232
 21
477.59613544825
 31
0.0
  0
LINE
  5
219
330
1F
100
AcDbEntity
  8
LAY-10
  6
CONTINUOUS
 62
     7
100
AcDbLine
 10
884.0000000000009
 20
477.59613544825
 30
0.0
 11
884.0000000000009
 21
462.5962623390026
 31
0.0
  0
LINE
  5
21A
330
1F
100
AcDbEntity
  8
LAY-10
  6
CONTINUOUS
 62
     7
100
AcDbLine
 10
895.9999999999998
 20
477.59613544825
 30
0.0
 11
895.9999999999998
 21
462.5962623390026
 31
0.0
  0
CIRCLE
  5
21B
330
1F
100
AcDbEntity
  8
LAY-10
  6
CONTINUOUS
 62
     7
100
AcDbCircle
 10
841.672618895781
 20
1066.6726188958
 30
0.0
 40
12.0
  0
CIRCLE
  5
21C
330
1F
100
AcDbEntity
  8
LAY-10
  6
CONTINUOUS
 62
     7
100
AcDbCircle
 10
841.672618895781
 20
833.32738110422
 30
0.0
 40
12.0
  0
CIRCLE
  5
21D
330
1F
100
AcDbEntity
  8
LAY-10
  6
CONTINUOUS
 62
     7
100
AcDbCircle
 10
608.327381104221
 20
833.32738110422
 30
0.0
 40
12.0
  0
CIRCLE
  5
21E
330
1F
100
AcDbEntity
  8
LAY-10
  6
CONTINUOUS
 62
     7
100
AcDbCircle
 10
608.327381104191
 20
1066.6726188958
 30
0.0
 40
12.0
  0
LINE
  5
21F
330
1F
100
AcDbEntity
  8
LAY-10
  6
CENTER
 62
     2
100
AcDbLine
 10
547.3999999999997
 20
760.0000000000006
 30
0.0
 11
522.3999999999999
 21
760.0000000000003
 31
0.0
  0
LINE
  5
220
330
1F
100
AcDbEntity
  8
LAY-10
  6
CENTER
 62
     2
100
AcDbLine
 10
535.0
 20
772.4000000000002
 30
0.0
 11
535.0000000000001
 21
746.8000000000002
 31
0.0
  0
LINE
  5
221
330
1F
100
AcDbEntity
  8
LAY-10
  6
CENTER
 62
     2
100
AcDbLine
 10
535.0000000000002
 20
1127.6
 30
0.0
 11
535.0000000000002
 21
1152.6
 31
0.0
  0
LINE
  5
222
330
1F
100
AcDbEntity
  8
LAY-10
  6
CENTER
 62
     2
100
AcDbLine
 10
547.4000000000001
 20
1140.0
 30
0.0
 11
521.8000000000001
 21
1140.0
 31
0.0
  0
LINE
  5
223
330
1F
100
AcDbEntity
  8
LAY-10
  6
CENTER
 62
     2
100
AcDbLine
 10
902.6000000000001
 20
1140.0
 30
0.0
 11
927.6
 21
1140.0
 31
0.0
  0
LINE
  5
224
330
1F
100
AcDbEntity
  8
LAY-10
  6
CENTER
 62
     2
100
AcDbLine
 10
915.0
 20
1127.6
 30
0.0
 11
915.0
 21
1153.2
 31
0.0
  0
LINE
  5
225
330
1F
100
AcDbEntity
  8
LAY-10
  6
CENTER
 62
     2
100
AcDbLine
 10
914.9999999999997
 20
772.4000000000001
 30
0.0
 11
914.9999999999997
 21
747.3999999999999
 31
0.0
  0
LINE
  5
226
330
1F
100
AcDbEntity
  8
LAY-10
  6
CENTER
 62
     2
100
AcDbLine
 10
902.5999999999999
 20
760.0000000000001
 30
0.0
 11
928.1999999999999
 21
760.0000000000002
 31
0.0
  0
LINE
  5
227
330
1F
100
AcDbEntity
  8
LAY-10
  6
CENTER
 62
     2
100
AcDbLine
 10
863.2726188957804
 20
1045.07261889578
 30
0.0
 11
819.8226188957804
 21
1088.52261889578
 31
0.0
  0
LINE
  5
228
330
1F
100
AcDbEntity
  8
LAY-10
  6
CENTER
 62
     2
100
AcDbLine
 10
860.1499999999987
 20
1085.150000000001
 30
0.0
 11
819.8999999999987
 21
1044.900000000001
 31
0.0
  0
LINE
  5
229
330
1F
100
AcDbEntity
  8
LAY-10
  6
CENTER
 62
     2
100
AcDbLine
 10
629.9273811042196
 20
1088.27261889578
 30
0.0
 11
586.4773811042198
 21
1044.82261889578
 31
0.0
  0
LINE
  5
22A
330
1F
100
AcDbEntity
  8
LAY-10
  6
CENTER
 62
     2
100
AcDbLine
 10
589.8499999999991
 20
1085.149999999999
 30
0.0
 11
630.0999999999989
 21
1044.899999999999
 31
0.0
  0
LINE
  5
22B
330
1F
100
AcDbEntity
  8
LAY-10
  6
CENTER
 62
     2
100
AcDbLine
 10
586.7273811042196
 20
854.9273811042199
 30
0.0
 11
630.1773811042195
 21
811.4773811042198
 31
0.0
  0
LINE
  5
22C
330
1F
100
AcDbEntity
  8
LAY-10
  6
CENTER
 62
     2
100
AcDbLine
 10
589.850000000001
 20
814.8499999999991
 30
0.0
 11
630.1000000000012
 21
855.0999999999989
 31
0.0
  0
LINE
  5
22D
330
1F
100
AcDbEntity
  8
LAY-10
  6
CENTER
 62
     2
100
AcDbLine
 10
820.0726188957802
 20
811.7273811042197
 30
0.0
 11
863.5226188957803
 21
855.1773811042196
 31
0.0
  0
LINE
  5
22E
330
1F
100
AcDbEntity
  8
LAY-10
  6
CENTER
 62
     2
100
AcDbLine
 10
860.150000000001
 20
814.850000000001
 30
0.0
 11
819.9000000000012
 21
855.1000000000013
 31
0.0
  0
LINE
  5
22F
330
1F
100
AcDbEntity
  8
LAY-10
  6
CENTER
 62
     2
100
AcDbLine
 10
850.0000000000006
 20
974.1
 30
0.0
 11
850.0000000000006
 21
926.8000000000002
 31
0.0
  0
LINE
  5
230
330
1F
100
AcDbEntity
  8
LAY-10
  6
CENTER
 62
     2
100
AcDbLine
 10
599.9999999999995
 20
974.1
 30
0.0
 11
599.9999999999995
 21
926.8000000000001
 31
0.0
  0
LINE
  5
231
330
1F
100
AcDbEntity
  8
LAY-10
  6
CENTER
 62
     2
100
AcDbLine
 10
496.0000000000001
 20
950.0000000000001
 30
0.0
 11
952.9999999999998
 21
949.9999999999998
 31
0.0
  0
LINE
  5
232
330
1F
100
AcDbEntity
  8
LAY-10
  6
CENTER
 62
     2
100
AcDbLine
 10
725.0000000000001
 20
1180.0
 30
0.0
 11
724.9999999999997
 21
721.0
 31
0.0
  0
LINE
  5
233
330
1F
100
AcDbEntity
  8
LAY-10
  6
CENTER
 62
     2
100
AcDbLine
 10
600.0000000000001
 20
453.196262339
 30
0.0
 11
600.0000000000001
 21
501.3962623389999
 31
0.0
  0
LINE
  5
234
330
1F
100
AcDbEntity
  8
LAY-10
  6
CENTER
 62
     2
100
AcDbLine
 10
725.0
 20
509.596262339
 30
0.0
 11
725.0
 21
435.596262339
 31
0.0
  0
LINE
  5
235
330
1F
100
AcDbEntity
  8
LAY-10
  6
CENTER
 62
     2
100
AcDbLine
 10
890.0
 20
438.796262339
 30
0.0
 11
890.0
 21
500.4962623390001
 31
0.0
  0
LINE
  5
236
330
1F
100
AcDbEntity
  8
LAY-10
  6
CENTER
 62
     2
100
AcDbLine
 10
993.7005768508899
 20
451.896262339
 30
0.0
 11
993.7005768508899
 21
439.596262339
 31
0.0
  0
LINE
  5
237
330
1F
100
AcDbEntity
  8
LAY-10
  6
CONTINUOUS
 62
     7
100
AcDbLine
 10
885.0000000000108
 20
470.5962623389975
 30
0.0
 11
885.0000000000108
 21
477.5961354482476
 31
0.0
  0
LINE
  5
238
330
1F
100
AcDbEntity
  8
LAY-10
  6
CONTINUOUS
 62
     7
100
AcDbLine
 10
883.0000000000103
 20
476.2962623389938
 30
0.0
 11
883.0000000000103
 21
477.5962623389938
 31
0.0
  0
LINE
  5
239
330
1F
100
AcDbEntity
  8
LAY-10
  6
CONTINUOUS
 62
     7
100
AcDbLine
 10
883.0000000000103
 20
476.2962623389938
 30
0.0
 11
879.2500000000103
 21
476.2962623389938
 31
0.0
  0
LINE
  5
23A
330
1F
100
AcDbEntity
  8
LAY-10
  6
CONTINUOUS
 62
     7
100
AcDbLine
 10
879.2500000000103
 20
473.5962623389935
 30
0.0
 11
879.2500000000103
 21
476.2962623389938
 31
0.0
  0
LINE
  5
23B
330
1F
100
AcDbEntity
  8
LAY-10
  6
CONTINUOUS
 62
     7
100
AcDbLine
 10
878.0000000000103
 20
473.5962623389935
 30
0.0
 11
878.0000000000103
 21
476.0962623389938
 31
0.0
  0
ARC
  5
23C
330
1F
100
AcDbEntity
  8
LAY-10
  6
CONTINUOUS
 62
     7
100
AcDbCircle
 10
879.5000000000102
 20
476.0962623389938
 30
0.0
 40
1.5
100
AcDbArc
 50
90.00000000000001
 51
180.0
  0
LINE
  5
23D
330
1F
100
AcDbEntity
  8
LAY-10
  6
CONTINUOUS
 62
     7
100
AcDbLine
 10
884.0
 20
469.596262339
 30
0.0
 11
885.0
 21
470.596262339
 31
0.0
  0
LINE
  5
23E
330
1F
100
AcDbEntity
  8
LAY-10
  6
CONTINUOUS
 62
     7
100
AcDbLine
 10
882.4999999999997
 20
468.5962623389999
 30
0.0
 11
882.4999999999997
 21
473.5962623389995
 31
0.0
  0
ARC
  5
23F
330
1F
100
AcDbEntity
  8
LAY-10
  6
CONTINUOUS
 62
     7
100
AcDbCircle
 10
898.227241335955
 20
481.3286788549782
 30
0.0
 40
3.73290897830259
100
AcDbArc
 50
222.7216217368134
 51
317.2783782631868
  0
LINE
  5
240
330
1F
100
AcDbEntity
  8
LAY-10
  6
CONTINUOUS
 62
     7
100
AcDbLine
 10
895.0000000000098
 20
470.5962623389975
 30
0.0
 11
895.0000000000098
 21
477.5961354482476
 31
0.0
  0
LINE
  5
241
330
1F
100
AcDbEntity
  8
LAY-10
  6
CONTINUOUS
 62
     7
100
AcDbLine
 10
900.7500000000101
 20
473.5962623389935
 30
0.0
 11
900.7500000000101
 21
476.2962623389938
 31
0.0
  0
LINE
  5
242
330
1F
100
AcDbEntity
  8
LAY-10
  6
CONTINUOUS
 62
     7
100
AcDbLine
 10
902.0000000000101
 20
473.5962623389935
 30
0.0
 11
902.0000000000101
 21
476.0962623389938
 31
0.0
  0
LINE
  5
243
330
1F
100
AcDbEntity
  8
LAY-10
  6
CONTINUOUS
 62
     7
100
AcDbLine
 10
900.7500000000101
 20
476.2962623389938
 30
0.0
 11
897.0000000000101
 21
476.2962623389938
 31
0.0
  0
ARC
  5
244
330
1F
100
AcDbEntity
  8
LAY-10
  6
CONTINUOUS
 62
     7
100
AcDbCircle
 10
900.50000000001
 20
476.0962623389938
 30
0.0
 40
1.5
100
AcDbArc
 50
0.0
 51
90.00000000000001
  0
LINE
  5
245
330
1F
100
AcDbEntity
  8
LAY-10
  6
CONTINUOUS
 62
     7
100
AcDbLine
 10
897.0000000000101
 20
477.5962623389938
 30
0.0
 11
897.0000000000101
 21
476.2962623389938
 31
0.0
  0
LINE
  5
246
330
1F
100
AcDbEntity
  8
LAY-10
  6
CONTINUOUS
 62
     7
100
AcDbLine
 10
896.0
 20
469.596262339
 30
0.0
 11
895.0
 21
470.596262339
 31
0.0
  0
LINE
  5
247
330
1F
100
AcDbEntity
  8
LAY-10
  6
CONTINUOUS
 62
     7
100
AcDbLine
 10
896.0000000000005
 20
468.5962623389999
 30
0.0
 11
898.30196946623
 21
468.5962623389999
 31
0.0
  0
LINE
  5
248
330
1F
100
AcDbEntity
  8
LAY-10
  6
CONTINUOUS
 62
     7
100
AcDbLine
 10
897.5000000000003
 20
468.5962623389999
 30
0.0
 11
897.5000000000003
 21
473.5962623389995
 31
0.0
  0
LINE
  5
249
330
1F
100
AcDbEntity
  8
LAY-10
  6
CONTINUOUS
 62
     7
100
AcDbLine
 10
896.0000000000005
 20
456.5962623389965
 30
0.0
 11
896.0000000000005
 21
441.5962623389965
 31
0.0
  0
LINE
  5
24A
330
1F
100
AcDbEntity
  8
LAY-10
  6
CONTINUOUS
 62
     7
100
AcDbLine
 10
895.0000000000002
 20
456.5962623389965
 30
0.0
 11
895.0000000000002
 21
441.5962623389965
 31
0.0
  0
LINE
  5
24B
330
1F
100
AcDbEntity
  8
LAY-10
  6
CONTINUOUS
 62
     7
100
AcDbLine
 10
885.0000000000002
 20
456.5962623389965
 30
0.0
 11
885.0000000000002
 21
441.5962623389965
 31
0.0
  0
LINE
  5
24C
330
1F
100
AcDbEntity
  8
LAY-10
  6
CONTINUOUS
 62
     7
100
AcDbLine
 10
884.0000000000006
 20
456.5962623389965
 30
0.0
 11
884.0000000000006
 21
441.5962623389965
 31
0.0
  0
LINE
  5
24D
330
1F
100
AcDbEntity
  8
LAY-10
  6
HIDDEN
 62
     7
100
AcDbLine
 10
900.6
 20
456.596262339
 30
0.0
 11
900.0
 21
441.596262339
 31
0.0
  0
ARC
  5
24E
330
1F
100
AcDbEntity
  8
LAY-10
  6
CONTINUOUS
 62
     7
100
AcDbCircle
 10
829.2792829386118
 20
1096.71684003484
 30
0.0
 40
5.0
100
AcDbArc
 50
292.4163018761711
 51
54.59661351891115
  0
ARC
  5
24F
330
1F
100
AcDbEntity
  8
LAY-10
  6
CONTINUOUS
 62
     7
100
AcDbCircle
 10
841.6726188957804
 20
1066.67261889578
 30
0.0
 40
27.50000000000002
100
AcDbArc
 50
112.4163018761718
 51
337.5836981238276
  0
ARC
  5
250
330
1F
100
AcDbEntity
  8
LAY-10
  6
CONTINUOUS
 62
     7
100
AcDbCircle
 10
871.7168400348405
 20
1054.279282938612
 30
0.0
 40
5.0
100
AcDbArc
 50
35.40338648108887
 51
157.5836981238301
  0
ARC
  5
251
330
1F
100
AcDbEntity
  8
LAY-10
  6
CONTINUOUS
 62
     7
100
AcDbCircle
 10
578.2831599651595
 20
1054.279282938612
 30
0.0
 40
5.0
100
AcDbArc
 50
22.41630187616704
 51
144.5966135189105
  0
ARC
  5
252
330
1F
100
AcDbEntity
  8
LAY-10
  6
CONTINUOUS
 62
     7
100
AcDbCircle
 10
608.32738110422
 20
1066.67261889578
 30
0.0
 40
27.50000000000002
100
AcDbArc
 50
202.4163018761715
 51
67.58369812382819
  0
ARC
  5
253
330
1F
100
AcDbEntity
  8
LAY-10
  6
CONTINUOUS
 62
     7
100
AcDbCircle
 10
620.7207170613884
 20
1096.716840034841
 30
0.0
 40
5.0
100
AcDbArc
 50
125.4033864810946
 51
247.5836981238279
  0
ARC
  5
254
330
1F
100
AcDbEntity
  8
LAY-10
  6
CONTINUOUS
 62
     7
100
AcDbCircle
 10
620.7207170613879
 20
803.2831599651596
 30
0.0
 40
5.0
100
AcDbArc
 50
112.4163018761687
 51
234.5966135189083
  0
ARC
  5
255
330
1F
100
AcDbEntity
  8
LAY-10
  6
CONTINUOUS
 62
     7
100
AcDbCircle
 10
608.3273811042194
 20
833.32738110422
 30
0.0
 40
27.50000000000002
100
AcDbArc
 50
292.4163018761723
 51
157.5836981238282
  0
ARC
  5
256
330
1F
100
AcDbEntity
  8
LAY-10
  6
CONTINUOUS
 62
     7
100
AcDbCircle
 10
578.2831599651594
 20
845.7207170613885
 30
0.0
 40
5.0
100
AcDbArc
 50
215.4033864810917
 51
337.5836981238285
  0
ARC
  5
257
330
1F
100
AcDbEntity
  8
LAY-10
  6
CONTINUOUS
 62
     7
100
AcDbCircle
 10
871.7168400348404
 20
845.7207170613881
 30
0.0
 40
5.0
100
AcDbArc
 50
202.4163018761728
 51
324.5966135189111
  0
ARC
  5
258
330
1F
100
AcDbEntity
  8
LAY-10
  6
CONTINUOUS
 62
     7
100
AcDbCircle
 10
841.6726188957801
 20
833.3273811042195
 30
0.0
 40
27.50000000000002
100
AcDbArc
 50
22.41630187617213
 51
247.5836981238279
  0
ARC
  5
259
330
1F
100
AcDbEntity
  8
LAY-10
  6
CONTINUOUS
 62
     7
100
AcDbCircle
 10
829.2792829386116
 20
803.2831599651594
 30
0.0
 40
5.0
100
AcDbArc
 50
305.4033864810926
 51
67.58369812383131
  0
ARC
  5
25A
330
1F
100
AcDbEntity
  8
LAY-10
  6
CONTINUOUS
 62
     7
100
AcDbCircle
 10
725.0
 20
950.0000000000001
 30
0.0
 40
185.0000000000001
100
AcDbArc
 50
144.5966135189119
 51
215.4033864810908
  0
ARC
  5
25B
330
1F
100
AcDbEntity
  8
LAY-10
  6
CONTINUOUS
 62
     7
100
AcDbCircle
 10
725.0
 20
950.0000000000001
 30
0.0
 40
185.0000000000001
100
AcDbArc
 50
324.5966135189095
 51
35.40338648109047
  0
LINE
  5
25C
330
1F
100
AcDbEntity
  8
LAY-10
  6
CONTINUOUS
 62
     7
100
AcDbLine
 10
785.9999999999999
 20
1124.653943557
 30
0.0
 11
779.4054054053948
 21
1105.772436145402
 31
0.0
  0
LINE
  5
25D
330
1F
100
AcDbEntity
  8
LAY-10
  6
CONTINUOUS
 62
     7
100
AcDbLine
 10
789.7620412325532
 20
1123.294194984694
 30
0.0
 11
781.8464013537457
 21
1100.630297925501
 31
0.0
  0
LINE
  5
25E
330
1F
100
AcDbEntity
  8
LAY-10
  6
CONTINUOUS
 62
     7
100
AcDbLine
 10
663.9999999999998
 20
1124.653943557
 30
0.0
 11
670.5945945946053
 21
1105.772436145402
 31
0.0
  0
LINE
  5
25F
330
1F
100
AcDbEntity
  8
LAY-10
  6
CONTINUOUS
 62
     7
100
AcDbLine
 10
660.2379587674468
 20
1123.294194984694
 30
0.0
 11
668.1535986462543
 21
1100.630297925501
 31
0.0
  0
ARC
  5
260
330
1F
100
AcDbEntity
  8
LAY-10
  6
CONTINUOUS
 62
     7
100
AcDbCircle
 10
725.0
 20
950.0000000000001
 30
0.0
 40
165.0000000000001
100
AcDbArc
 50
70.74762798725662
 51
109.2523720127435
  0
ARC
  5
261
330
1F
100
AcDbEntity
  8
LAY-10
  6
CONTINUOUS
 62
     7
100
AcDbCircle
 10
725.0
 20
950.0000000000001
 30
0.0
 40
161.0000000000001
100
AcDbArc
 50
69.3239838741868
 51
110.6760161258134
  0
ARC
  5
262
330
1F
100
AcDbEntity
  8
LAY-10
  6
CONTINUOUS
 62
     7
100
AcDbCircle
 10
725.0
 20
950.0000000000001
 30
0.0
 40
185.0000000000001
100
AcDbArc
 50
110.4912962223921
 51
125.403386481089
  0
ARC
  5
263
330
1F
100
AcDbEntity
  8
LAY-10
  6
CONTINUOUS
 62
     7
100
AcDbCircle
 10
725.0
 20
950.0000000000001
 30
0.0
 40
185.0000000000001
100
AcDbArc
 50
54.59661351890949
 51
69.50870377760799
  0
ARC
  5
264
330
1F
100
AcDbEntity
  8
LAY-10
  6
CONTINUOUS
 62
     7
100
AcDbCircle
 10
725.0
 20
950.0000000000001
 30
0.0
 40
185.0000000000001
100
AcDbArc
 50
70.74762798725853
 51
109.2523720127418
  0
LINE
  5
265
330
1F
100
AcDbEntity
  8
LAY-10
  6
CONTINUOUS
 62
     7
100
AcDbLine
 10
790.1081081081089
 20
798.3888715872596
 30
0.0
 11
797.9999999999998
 21
780.01176511299
 31
0.0
  0
LINE
  5
266
330
1F
100
AcDbEntity
  8
LAY-10
  6
CONTINUOUS
 62
     7
100
AcDbLine
 10
801.6583557500708
 20
781.6298824206158
 30
0.0
 11
792.1855408131388
 21
803.6883357156895
 31
0.0
  0
LINE
  5
267
330
1F
100
AcDbEntity
  8
LAY-10
  6
CONTINUOUS
 62
     7
100
AcDbLine
 10
659.8918918918909
 20
798.3888715872596
 30
0.0
 11
652.0
 21
780.0117651129901
 31
0.0
  0
LINE
  5
268
330
1F
100
AcDbEntity
  8
LAY-10
  6
CONTINUOUS
 62
     7
100
AcDbLine
 10
648.341644249929
 20
781.629882420616
 30
0.0
 11
657.814459186861
 21
803.6883357156895
 31
0.0
  0
ARC
  5
269
330
1F
100
AcDbEntity
  8
LAY-10
  6
CONTINUOUS
 62
     7
100
AcDbCircle
 10
725.0
 20
950.0000000000001
 30
0.0
 40
165.0000000000001
100
AcDbArc
 50
246.7593076338834
 51
293.2406923661168
  0
ARC
  5
26A
330
1F
100
AcDbEntity
  8
LAY-10
  6
CONTINUOUS
 62
     7
100
AcDbCircle
 10
725.0
 20
950.0000000000001
 30
0.0
 40
161.0000000000001
100
AcDbArc
 50
245.3356635208133
 51
294.6643364791867
  0
ARC
  5
26B
330
1F
100
AcDbEntity
  8
LAY-10
  6
CONTINUOUS
 62
     7
100
AcDbCircle
 10
725.0
 20
950.0000000000001
 30
0.0
 40
185.0000000000001
100
AcDbArc
 50
234.5966135189092
 51
245.5203834242334
  0
ARC
  5
26C
330
1F
100
AcDbEntity
  8
LAY-10
  6
CONTINUOUS
 62
     7
100
AcDbCircle
 10
725.0
 20
950.0000000000001
 30
0.0
 40
185.0000000000001
100
AcDbArc
 50
246.759307633884
 51
293.2406923661161
  0
ARC
  5
26D
330
1F
100
AcDbEntity
  8
LAY-10
  6
CONTINUOUS
 62
     7
100
AcDbCircle
 10
725.0
 20
950.0000000000001
 30
0.0
 40
185.0000000000001
100
AcDbArc
 50
294.479616575767
 51
305.4033864810908
  0
LINE
  5
26E
330
1F
100
AcDbEntity
  8
LAY-10
  6
CONTINUOUS
 62
     7
100
AcDbLine
 10
812.0000000000005
 20
931.0
 30
0.0
 11
888.0000000000003
 21
931.0000000000002
 31
0.0
  0
LINE
  5
26F
330
1F
100
AcDbEntity
  8
LAY-10
  6
CONTINUOUS
 62
     7
100
AcDbLine
 10
812.0000000000005
 20
969.0000000000001
 30
0.0
 11
888.0000000000003
 21
969.0
 31
0.0
  0
LINE
  5
270
330
1F
100
AcDbEntity
  8
LAY-10
  6
CONTINUOUS
 62
     7
100
AcDbLine
 10
888.0000000000003
 20
969.0
 30
0.0
 11
888.0000000000003
 21
931.0000000000002
 31
0.0
  0
LINE
  5
271
330
1F
100
AcDbEntity
  8
LAY-10
  6
CONTINUOUS
 62
     7
100
AcDbLine
 10
812.0000000000005
 20
969.0000000000001
 30
0.0
 11
812.0000000000005
 21
931.0
 31
0.0
  0
LINE
  5
272
330
1F
100
AcDbEntity
  8
LAY-10
  6
CONTINUOUS
 62
     7
100
AcDbLine
 10
637.9999999999995
 20
931.0000000000003
 30
0.0
 11
561.9999999999995
 21
931.0000000000002
 31
0.0
  0
LINE
  5
273
330
1F
100
AcDbEntity
  8
LAY-10
  6
CONTINUOUS
 62
     7
100
AcDbLine
 10
637.9999999999995
 20
969.0000000000001
 30
0.0
 11
561.9999999999995
 21
969.0000000000003
 31
0.0
  0
LINE
  5
274
330
1F
100
AcDbEntity
  8
LAY-10
  6
CONTINUOUS
 62
     7
100
AcDbLine
 10
561.9999999999995
 20
969.0000000000003
 30
0.0
 11
561.9999999999995
 21
931.0000000000002
 31
0.0
  0
LINE
  5
275
330
1F
100
AcDbEntity
  8
LAY-10
  6
CONTINUOUS
 62
     7
100
AcDbLine
 10
637.9999999999995
 20
969.0000000000001
 30
0.0
 11
637.9999999999995
 21
931.0000000000003
 31
0.0
  0
LINE
  5
276
330
1F
100
AcDbEntity
  8
LAY-10
  6
PHANTOM
 62
     7
100
AcDbLine
 10
540.1747371363781
 20
494.7735583802536
 30
0.0
 11
540.0000000000008
 21
496.7708129882803
 31
0.0
  0
LINE
  5
277
330
1F
100
AcDbEntity
  8
LAY-10
  6
PHANTOM
 62
     7
100
AcDbLine
 10
561.8247283581098
 20
495.1514603827241
 30
0.0
 11
540.1747371363781
 21
494.7735583802533
 31
0.0
  0
LINE
  5
278
330
1F
100
AcDbEntity
  8
LAY-10
  6
PHANTOM
 62
     7
100
AcDbLine
 10
561.8247283581113
 20
495.1514603827241
 30
0.0
 11
561.9999999999997
 21
497.1548244166999
 31
0.0
  0
LINE
  5
279
330
1F
100
AcDbEntity
  8
LAY-10
  6
PHANTOM
 62
     7
100
AcDbLine
 10
725.0
 20
497.9996953439131
 30
0.0
 11
638.17473713638
 21
496.484154743219
 31
0.0
  0
LINE
  5
27A
330
1F
100
AcDbEntity
  8
LAY-10
  6
PHANTOM
 62
     7
100
AcDbLine
 10
638.1747371363819
 20
496.4841547432194
 30
0.0
 11
638.0000000000043
 21
498.4814093512503
 31
0.0
  0
LINE
  5
27B
330
1F
100
AcDbEntity
  8
LAY-10
  6
PHANTOM
 62
     7
100
AcDbLine
 10
725.0
 20
497.9996953439131
 30
0.0
 11
862.32526286362
 21
495.6026739643438
 31
0.0
  0
LINE
  5
27C
330
1F
100
AcDbEntity
  8
LAY-10
  6
PHANTOM
 62
     7
100
AcDbLine
 10
862.3252628636218
 20
495.6026739643436
 30
0.0
 11
862.4999999999991
 21
497.5999285723703
 31
0.0
  0
LINE
  5
27D
330
1F
100
AcDbEntity
  8
LAY-10
  6
CONTINUOUS
 62
     7
100
AcDbLine
 10
633.0000000000002
 20
498.3941340266047
 30
0.0
 11
633.0000000000002
 21
491.8181168839706
 31
0.0
  0
ARC
  5
27E
330
1F
100
AcDbEntity
  8
LAY-10
  6
CONTINUOUS
 62
     7
100
AcDbCircle
 10
598.0000000000013
 20
484.8181168839709
 30
0.0
 40
3.000000000000003
100
AcDbArc
 50
180.0
 51
270.0
  0
LINE
  5
27F
330
1F
100
AcDbEntity
  8
LAY-10
  6
CONTINUOUS
 62
     7
100
AcDbLine
 10
605.0000000000008
 20
484.8181168839709
 30
0.0
 11
605.0000000000008
 21
491.8181168839706
 31
0.0
  0
ARC
  5
280
330
1F
100
AcDbEntity
  8
LAY-10
  6
CONTINUOUS
 62
     7
100
AcDbCircle
 10
602.0000000000008
 20
484.8181168839709
 30
0.0
 40
3.000000000000003
100
AcDbArc
 50
270.0
 51
0.0
  0
LINE
  5
281
330
1F
100
AcDbEntity
  8
LAY-10
  6
CONTINUOUS
 62
     7
100
AcDbLine
 10
571.999999999999
 20
491.8181168839706
 30
0.0
 11
571.999999999999
 21
489.8181168839711
 31
0.0
  0
LINE
  5
282
330
1F
100
AcDbEntity
  8
LAY-10
  6
CONTINUOUS
 62
     7
100
AcDbLine
 10
628.0000000000013
 20
491.8181168839706
 30
0.0
 11
628.0000000000013
 21
489.8181168839711
 31
0.0
  0
LINE
  5
283
330
1F
100
AcDbEntity
  8
LAY-10
  6
CONTINUOUS
 62
     7
100
AcDbLine
 10
567.0
 20
491.8181168839706
 30
0.0
 11
571.999999999999
 21
491.8181168839706
 31
0.0
  0
LINE
  5
284
330
1F
100
AcDbEntity
  8
LAY-10
  6
CONTINUOUS
 62
     7
100
AcDbLine
 10
595.0000000000013
 20
491.8181168839706
 30
0.0
 11
605.0000000000008
 21
491.8181168839706
 31
0.0
  0
LINE
  5
285
330
1F
100
AcDbEntity
  8
LAY-10
  6
CONTINUOUS
 62
     7
100
AcDbLine
 10
628.0000000000013
 20
491.8181168839706
 30
0.0
 11
633.0000000000002
 21
491.8181168839706
 31
0.0
  0
LINE
  5
286
330
1F
100
AcDbEntity
  8
LAY-10
  6
CONTINUOUS
 62
     7
100
AcDbLine
 10
602.0000000000006
 20
481.8181168839691
 30
0.0
 11
598.0000000000006
 21
481.8181168839691
 31
0.0
  0
LINE
  5
287
330
1F
100
AcDbEntity
  8
LAY-10
  6
CONTINUOUS
 62
     7
100
AcDbLine
 10
595.0000000000006
 20
491.8181168839682
 30
0.0
 11
595.0000000000006
 21
484.8181168839691
 31
0.0
  0
LINE
  5
288
330
1F
100
AcDbEntity
  8
LAY-10
  6
CONTINUOUS
 62
     7
100
AcDbLine
 10
567.0000000000006
 20
497.2420997413359
 30
0.0
 11
567.0000000000006
 21
491.8181168839682
 31
0.0
  0
LINE
  5
289
330
1F
100
AcDbEntity
  8
LAY-10
  6
CONTINUOUS
 62
     7
100
AcDbLine
 10
572.0000000000015
 20
489.8181168839677
 30
0.0
 11
572.0000000000015
 21
491.8181168839682
 31
0.0
  0
LINE
  5
28A
330
1F
100
AcDbEntity
  8
LAY-10
  6
CONTINUOUS
 62
     7
100
AcDbLine
 10
628.0000000000015
 20
489.8181168839677
 30
0.0
 11
628.0000000000015
 21
491.8181168839682
 31
0.0
  0
ARC
  5
28B
330
1F
100
AcDbEntity
  8
LAY-10
  6
CONTINUOUS
 62
     7
100
AcDbCircle
 10
616.5227116418588
 20
473.8181168839682
 30
0.0
 40
5.0
100
AcDbArc
 50
270.0
 51
315.9207901521117
  0
LINE
  5
28C
330
1F
100
AcDbEntity
  8
LAY-10
  6
CONTINUOUS
 62
     7
100
AcDbLine
 10
616.5227116418588
 20
468.8181168839682
 30
0.0
 11
583.4772883581433
 21
468.8181168839682
 31
0.0
  0
ARC
  5
28D
330
1F
100
AcDbEntity
  8
LAY-10
  6
CONTINUOUS
 62
     7
100
AcDbCircle
 10
583.4772883581433
 20
473.8181168839682
 30
0.0
 40
5.0
100
AcDbArc
 50
224.0792098478883
 51
270.0
  0
ARC
  5
28E
330
1F
100
AcDbEntity
  8
LAY-10
  6
CONTINUOUS
 62
     7
100
AcDbCircle
 10
600.0000000000015
 20
489.8181168839677
 30
0.0
 40
27.99999999999931
100
AcDbArc
 50
315.9207901521118
 51
0.0000000000011459
  0
ARC
  5
28F
330
1F
100
AcDbEntity
  8
LAY-10
  6
CONTINUOUS
 62
     7
100
AcDbCircle
 10
600.0000000000015
 20
489.8181168839677
 30
0.0
 40
27.99999999999931
100
AcDbArc
 50
179.9999999999989
 51
224.0792098478882
  0
ARC
  5
290
330
1F
100
AcDbEntity
  8
LAY-10
  6
CONTINUOUS
 62
     7
100
AcDbCircle
 10
581.4797408225501
 20
468.8181168839673
 30
0.0
 40
5.0
100
AcDbArc
 50
228.5903778907312
 51
270.0
  0
LINE
  5
291
330
1F
100
AcDbEntity
  8
LAY-10
  6
CONTINUOUS
 62
     7
100
AcDbLine
 10
618.520259177452
 20
463.8181168839673
 30
0.0
 11
581.4797408225501
 21
463.8181168839673
 31
0.0
  0
ARC
  5
292
330
1F
100
AcDbEntity
  8
LAY-10
  6
CONTINUOUS
 62
     7
100
AcDbCircle
 10
618.520259177452
 20
468.8181168839673
 30
0.0
 40
5.0
100
AcDbArc
 50
270.0
 51
311.409622109269
  0
ARC
  5
293
330
1F
100
AcDbEntity
  8
LAY-10
  6
CONTINUOUS
 62
     7
100
AcDbCircle
 10
600.0000000000015
 20
489.8181168839677
 30
0.0
 40
32.99999999999932
100
AcDbArc
 50
311.4096221092684
 51
341.9974805506934
  0
ARC
  5
294
330
1F
100
AcDbEntity
  8
LAY-10
  6
CONTINUOUS
 62
     7
100
AcDbCircle
 10
600.0000000000002
 20
489.8181168839711
 30
0.0
 40
33.00000000000104
100
AcDbArc
 50
311.4096221092651
 51
341.99748055069
  0
ARC
  5
295
330
1F
100
AcDbEntity
  8
LAY-10
  6
CONTINUOUS
 62
     7
100
AcDbCircle
 10
600.0000000000015
 20
489.8181168839677
 30
0.0
 40
32.99999999999932
100
AcDbArc
 50
200.0025194493058
 51
228.5903778907316
  0
ARC
  5
296
330
1F
100
AcDbEntity
  8
LAY-10
  6
CONTINUOUS
 62
     7
100
AcDbCircle
 10
600.0000000000002
 20
489.8181168839711
 30
0.0
 40
33.00000000000104
100
AcDbArc
 50
200.0025194493106
 51
228.5903778907374
  0
DIMENSION
  5
298
330
1F
100
AcDbEntity
  8
LAY-20
  6
CONTINUOUS
 62
     4
100
AcDbDimension
  2
*D15
 10
1065.41630560343
 20
496.596262339
 30
0.0
 11
1052.91630560343
 21
469.096262338985
 31
0.0
 70
   160
  3
ISO-25
100
AcDbAlignedDimension
 13
1015.41630560344
 23
441.59626233897
 33
0.0
 14
927.5
 24
496.596262339
 34
0.0
 50
90.0
100
AcDbRotatedDimension
1001
ACAD
1000
DSTYLE
1002
{
1070
   270
1070
     2
1070
     6
1000
EX_BNORM
1070
     7
1000
EX_BNORM
1070
    41
1040
12.5
1070
    42
1040
7.5
1070
    44
1040
7.5
1070
    73
1070
     0
1070
    74
1070
     0
1070
    75
1070
     0
1070
    76
1070
     0
1070
    77
1070
     1
1070
    78
1070
     8
1070
   140
1040
15.590552
1070
   147
1040
0.0
1070
   173
1070
     1
1070
   176
1070
     4
1070
   177
1070
     4
1070
   178
1070
     7
1070
   271
1070
     1
1070
   277
1070
     2
1070
   279
1070
     2
1070
   280
1070
     0
1070
   287
1070
     5
1070
   340
1005
297
1002
}
  0
DIMENSION
  5
2A6
330
1F
100
AcDbEntity
  8
LAY-20
  6
CONTINUOUS
 62
     4
100
AcDbDimension
  2
*D16
 10
927.5
 20
620.0
 30
0.0
 11
725.0
 21
632.5
 31
0.0
 70
   160
  1
%%c<>
  3
ISO-25
100
AcDbAlignedDimension
 13
522.5
 23
496.596262339
 33
0.0
 14
927.5
 24
504.096262339
 34
0.0
100
AcDbRotatedDimension
1001
ACAD
1000
DSTYLE
1002
{
1070
   270
1070
     2
1070
     6
1000
EX_BNORM
1070
     7
1000
EX_BNORM
1070
    41
1040
15.0
1070
    42
1040
7.5
1070
    44
1040
7.5
1070
    73
1070
     0
1070
    74
1070
     0
1070
    75
1070
     0
1070
    76
1070
     0
1070
    77
1070
     1
1070
    78
1070
     8
1070
   140
1040
15.590552
1070
   147
1040
0.0
1070
   173
1070
     1
1070
   176
1070
     4
1070
   177
1070
     4
1070
   178
1070
     7
1070
   271
1070
     1
1070
   277
1070
     2
1070
   279
1070
     2
1070
   280
1070
     0
1070
   287
1070
     5
1070
   340
1005
297
1002
}
  0
DIMENSION
  5
2B3
330
1F
100
AcDbEntity
  8
LAY-20
  6
CONTINUOUS
 62
     4
100
AcDbDimension
  2
*D17
 10
920.0
 20
585.0
 30
0.0
 11
725.0
 21
597.5
 31
0.0
 70
   160
  1
%%c<>
  3
ISO-25
100
AcDbAlignedDimension
 13
530.0
 23
496.596262339
 33
0.0
 14
920.0
 24
496.596262339
 34
0.0
100
AcDbRotatedDimension
1001
ACAD
1000
DSTYLE
1002
{
1070
   270
1070
     2
1070
     6
1000
EX_BNORM
1070
     7
1000
EX_BNORM
1070
    41
1040
15.0
1070
    42
1040
7.5
1070
    44
1040
7.5
1070
    73
1070
     0
1070
    74
1070
     0
1070
    75
1070
     0
1070
    76
1070
     0
1070
    77
1070
     1
1070
    78
1070
     8
1070
   140
1040
15.590552
1070
   147
1040
0.0
1070
   173
1070
     1
1070
   176
1070
     4
1070
   177
1070
     4
1070
   178
1070
     7
1070
   271
1070
     1
1070
   277
1070
     2
1070
   279
1070
     2
1070
   280
1070
     0
1070
   287
1070
     5
1070
   340
1005
297
1002
}
  0
DIMENSION
  5
2C0
330
1F
100
AcDbEntity
  8
LAY-20
  6
CONTINUOUS
 62
     4
100
AcDbDimension
  2
*D18
 10
900.0
 20
391.596262339
 30
0.0
 11
725.0
 21
404.096262339
 31
0.0
 70
   160
  1
%%c<>
  3
ISO-25
100
AcDbAlignedDimension
 13
550.0
 23
441.596262339
 33
0.0
 14
900.0
 24
441.596262339
 34
0.0
100
AcDbRotatedDimension
1001
ACAD
1000
DSTYLE
1002
{
1070
   270
1070
     2
1070
     6
1000
EX_BNORM
1070
     7
1000
EX_BNORM
1070
    41
1040
15.0
1070
    42
1040
7.5
1070
    44
1040
7.5
1070
    73
1070
     0
1070
    74
1070
     0
1070
    75
1070
     0
1070
    76
1070
     0
1070
    77
1070
     1
1070
    78
1070
     8
1070
   140
1040
15.590552
1070
   147
1040
0.0
1070
   173
1070
     1
1070
   176
1070
     4
1070
   177
1070
     4
1070
   178
1070
     7
1070
   271
1070
     1
1070
   277
1070
     2
1070
   279
1070
     2
1070
   280
1070
     0
1070
   287
1070
     5
1070
   340
1005
297
1002
}
  0
DIMENSION
  5
2CD
330
1F
100
AcDbEntity
  8
LAY-20
  6
CONTINUOUS
 62
     4
100
AcDbDimension
  2
*D19
 10
945.0
 20
356.596262339
 30
0.0
 11
725.0
 21
369.096262339
 31
0.0
 70
   160
  1
□<>
  3
ISO-25
100
AcDbAlignedDimension
 13
505.0
 23
441.596262339
 33
0.0
 14
945.0
 24
356.596262339
 34
0.0
100
AcDbRotatedDimension
1001
ACAD
1000
DSTYLE
1002
{
1070
   270
1070
     2
1070
     6
1000
EX_BNORM
1070
     7
1000
EX_NONE
1070
    41
1040
15.0
1070
    42
1040
7.5
1070
    44
1040
7.5
1070
    73
1070
     0
1070
    74
1070
     0
1070
    75
1070
     0
1070
    76
1070
     1
1070
    77
1070
     1
1070
    78
1070
     8
1070
   140
1040
15.590552
1070
   147
1040
0.0
1070
   173
1070
     1
1070
   176
1070
     4
1070
   177
1070
     4
1070
   178
1070
     7
1070
   271
1070
     1
1070
   277
1070
     2
1070
   279
1070
     2
1070
   280
1070
     0
1070
   287
1070
     5
1070
   340
1005
297
1002
}
  0
LINE
  5
2D9
330
1F
100
AcDbEntity
  8
LAY-255
  6
CONTINUOUS
 62
     7
100
AcDbLine
 10
1925.0
 20
110.0
 30
0.0
 11
1425.0
 21
110.0
 31
0.0
  0
LINE
  5
2DA
330
1F
100
AcDbEntity
  8
LAY-255
  6
CONTINUOUS
 62
     7
100
AcDbLine
 10
1444.0
 20
79.99999999999999
 30
0.0
 11
1484.0
 21
105.0
 31
0.0
  0
LINE
  5
2DB
330
1F
100
AcDbEntity
  8
LAY-255
  6
CONTINUOUS
 62
     7
100
AcDbLine
 10
1484.0
 20
105.0
 30
0.0
 11
1524.0
 21
79.99999999999999
 31
0.0
  0
LINE
  5
2DC
330
1F
100
AcDbEntity
  8
LAY-255
  6
CONTINUOUS
 62
     7
100
AcDbLine
 10
1524.0
 20
79.99999999999999
 30
0.0
 11
1484.0
 21
55.0
 31
0.0
  0
LINE
  5
2DD
330
1F
100
AcDbEntity
  8
LAY-255
  6
CONTINUOUS
 62
     7
100
AcDbLine
 10
1484.0
 20
55.0
 30
0.0
 11
1444.0
 21
79.99999999999999
 31
0.0
  0
LINE
  5
2DE
330
1F
100
AcDbEntity
  8
LAY-255
  6
CONTINUOUS
 62
     7
100
AcDbLine
 10
25.0
 20
50.0
 30
0.0
 11
1925.0
 21
50.0
 31
0.0
  0
LINE
  5
2DF
330
1F
100
AcDbEntity
  8
LAY-255
  6
CONTINUOUS
 62
     7
100
AcDbLine
 10
25.0
 20
1400.0
 30
0.0
 11
1925.0
 21
1400.0
 31
0.0
  0
LINE
  5
2E0
330
1F
100
AcDbEntity
  8
LAY-255
  6
CONTINUOUS
 62
     7
100
AcDbLine
 10
25.0
 20
50.0
 30
0.0
 11
25.0
 21
1400.0
 31
0.0
  0
LINE
  5
2E1
330
1F
100
AcDbEntity
  8
LAY-255
  6
CONTINUOUS
 62
     7
100
AcDbLine
 10
1925.0
 20
50.0
 30
0.0
 11
1925.0
 21
1400.0
 31
0.0
  0
LINE
  5
2E2
330
1F
100
AcDbEntity
  8
LAY-255
  6
CONTINUOUS
 62
     4
100
AcDbLine
 10
1425.0
 20
140.0
 30
0.0
 11
1925.0
 21
140.0
 31
0.0
  0
LINE
  5
2E3
330
1F
100
AcDbEntity
  8
LAY-255
  6
CONTINUOUS
 62
     7
100
AcDbLine
 10
1425.0
 20
50.0
 30
0.0
 11
1425.0
 21
335.0
 31
0.0
  0
LINE
  5
2E4
330
1F
100
AcDbEntity
  8
LAY-255
  6
CONTINUOUS
 62
     4
100
AcDbLine
 10
1675.0
 20
140.0
 30
0.0
 11
1675.0
 21
110.0
 31
0.0
  0
LINE
  5
2E5
330
1F
100
AcDbEntity
  8
LAY-255
  6
CONTINUOUS
 62
     7
100
AcDbLine
 10
1925.0
 20
335.0
 30
0.0
 11
1425.0
 21
335.0
 31
0.0
  0
LINE
  5
2E6
330
1F
100
AcDbEntity
  8
LAY-255
  6
CONTINUOUS
 62
     4
100
AcDbLine
 10
1915.0
 20
275.0
 30
0.0
 11
1435.0
 21
275.0
 31
0.0
  0
LINE
  5
2E7
330
1F
100
AcDbEntity
  8
LAY-255
  6
CONTINUOUS
 62
     4
100
AcDbLine
 10
1915.0
 20
305.0
 30
0.0
 11
1435.0
 21
305.0
 31
0.0
  0
POINT
  5
2E8
330
1F
100
AcDbEntity
  8
LAY-255
  6
CONTINUOUS
 62
     7
100
AcDbPoint
 10
1445.0
 20
250.0
 30
0.0
  0
POINT
  5
2E9
330
1F
100
AcDbEntity
  8
LAY-255
  6
CONTINUOUS
 62
     7
100
AcDbPoint
 10
1500.0
 20
280.0
 30
0.0
  0
POINT
  5
2EA
330
1F
100
AcDbEntity
  8
LAY-255
  6
CONTINUOUS
 62
     7
100
AcDbPoint
 10
1500.0
 20
310.0
 30
0.0
  0
POINT
  5
2EB
330
1F
100
AcDbEntity
  8
LAY-255
  6
CONTINUOUS
 62
     7
100
AcDbPoint
 10
1445.0
 20
200.0
 30
0.0
  0
POINT
  5
2EC
330
1F
100
AcDbEntity
  8
LAY-255
  6
CONTINUOUS
 62
     7
100
AcDbPoint
 10
1445.0
 20
225.0
 30
0.0
  0
POINT
  5
2ED
330
1F
100
AcDbEntity
  8
LAY-255
  6
CONTINUOUS
 62
     7
100
AcDbPoint
 10
1445.0
 20
174.9999999999999
 30
0.0
  0
POINT
  5
2EE
330
1F
100
AcDbEntity
  8
LAY-255
  6
CONTINUOUS
 62
     7
100
AcDbPoint
 10
1445.0
 20
149.9999999999999
 30
0.0
  0
TEXT
  5
2EF
330
1F
100
AcDbEntity
  8
LAY-255
  6
CONTINUOUS
 62
     7
100
AcDbText
 10
1540.691894370117
 20
77.71874999999999
 30
0.0
 40
25.78125
  1
福西鋳物株式会社
 41
1.342691871783662
  7
EXCADSTD
100
AcDbText
  0
TEXT
  5
2F0
330
1F
100
AcDbEntity
  8
LAY-255
  6
CONTINUOUS
 62
     7
100
AcDbText
 10
1542.546875
 20
59.90624999999999
 30
0.0
 40
8.59375
  1
ＦＵＫＵＮＩＳＨＩ
 41
1.204799226045263
  7
EXCADSTD
100
AcDbText
  0
TEXT
  5
2F1
330
1F
100
AcDbEntity
  8
LAY-255
  6
CONTINUOUS
 62
     7
100
AcDbText
 10
1663.595982142857
 20
59.90624999999999
 30
0.0
 40
8.59375
  1
ＦＯＵＮＤＲＹ
 41
1.243252752978497
  7
EXCADSTD
100
AcDbText
  0
TEXT
  5
2F2
330
1F
100
AcDbEntity
  8
LAY-255
  6
CONTINUOUS
 62
     7
100
AcDbText
 10
1759.97295734375
 20
59.90624999999999
 30
0.0
 40
8.59375
  1
ＣＯ.,ＬＴＤ.
 41
1.243831100341625
  7
EXCADSTD
100
AcDbText
  0
TEXT
  5
2F3
330
1F
100
AcDbEntity
  8
LAY-255
  6
CONTINUOUS
 62
     7
100
AcDbText
 10
1470.171875
 20
68.59375
 30
0.0
 40
25.78125
  1
S
 41
0.7582677563636363
  7
EXCADSTD
100
AcDbText
  0
TEXT
  5
2F4
330
1F
100
AcDbEntity
  8
LAY-255
  6
CONTINUOUS
 62
     7
100
AcDbText
 10
1485.5234375
 20
68.7470518868
 30
0.0
 40
25.78125
  1
F
 41
0.7440945272727272
  7
EXCADSTD
100
AcDbText
  0
TEXT
  5
2F5
330
1F
100
AcDbEntity
  8
LAY-255
  6
CONTINUOUS
 62
     7
100
AcDbText
 10
1685.52734375
 20
122.1093749999999
 30
0.0
 40
12.890625
  1
縮尺
 41
1.080708718181818
  7
EXCADSTD
100
AcDbText
  0
TEXT
  5
2F6
330
1F
100
AcDbEntity
  8
LAY-255
  6
CONTINUOUS
 62
     7
100
AcDbText
 10
1436.328125
 20
282.8125
 30
0.0
 40
17.1875
  1
型式
 41
1.056348480681818
  7
EXCADSTD
100
AcDbText
  0
TEXT
  5
2F7
330
1F
100
AcDbEntity
  8
LAY-255
  6
CONTINUOUS
 62
     7
100
AcDbText
 10
1437.109375
 20
312.8125
 30
0.0
 40
17.1875
  1
品名
 41
0.9788386340909091
  7
EXCADSTD
100
AcDbText
  0
TEXT
  5
2F8
330
1F
100
AcDbEntity
  8
LAY-255
  6
CONTINUOUS
 62
     7
100
AcDbText
 10
1435.76171875
 20
122.1093749999999
 30
0.0
 40
12.890625
  1
作成日
 41
1.000629973818182
  7
EXCADSTD
100
AcDbText
  0
TEXT
  5
2F9
330
1F
100
AcDbEntity
  8
LAY-255
  6
CONTINUOUS
 62
     7
100
AcDbText
 10
1447.265625
 20
252.8125000000001
 30
0.0
 40
17.1875
  1
区分：重荷重用
 41
1.007228657526081
  7
EXCADSTD
100
AcDbText
  0
TEXT
  5
2FA
330
1F
100
AcDbEntity
  8
LAY-255
  6
CONTINUOUS
 62
     7
100
AcDbText
 10
1741.40625
 20
117.8124999999999
 30
0.0
 40
17.1875
  1
１：５
 41
0.888661464
  7
EXCADSTD
100
AcDbText
  0
TEXT
  5
2FB
330
1F
100
AcDbEntity
  8
LAY-255
  6
CONTINUOUS
 62
     7
100
AcDbText
 10
1501.953125
 20
312.8125
 30
0.0
 40
17.1875
  1
マンホールカバー
 41
1.015410627012987
  7
EXCADSTD
100
AcDbText
  0
TEXT
  5
2FC
330
1F
100
AcDbEntity
  8
LAY-255
  6
CONTINUOUS
 62
     7
100
AcDbText
 10
1445.703125
 20
227.8125
 30
0.0
 40
17.1875
  1
機能：ボルト固定式
 41
1.021279830379747
  7
EXCADSTD
100
AcDbText
  0
TEXT
  5
2FD
330
1F
100
AcDbEntity
  8
LAY-255
  6
CONTINUOUS
 62
     7
100
AcDbText
 10
1446.875
 20
202.8125
 30
0.0
 40
17.1875
  1
防水：密閉式防水型
 41
1.014103511852704
  7
EXCADSTD
100
AcDbText
  0
TEXT
  5
2FE
330
1F
100
AcDbEntity
  8
LAY-255
  6
CONTINUOUS
 62
     7
100
AcDbText
 10
1503.75
 20
282.8125
 30
0.0
 40
17.1875
  1
ＳＦ－３５ＡＨＤ－Ｂ型
 41
1.0041805868791
  7
EXCADSTD
100
AcDbText
  0
TEXT
  5
2FF
330
1F
100
AcDbEntity
  8
LAY-255
  6
CONTINUOUS
 62
     7
100
AcDbText
 10
1506.40625
 20
117.8124999999999
 30
0.0
 40
17.1875
  1
１５／１１／０５
 41
0.9652981384415584
  7
EXCADSTD
100
AcDbText
  0
TEXT
  5
300
330
1F
100
AcDbEntity
  8
LAY-255
  6
CONTINUOUS
 62
     7
100
AcDbText
 10
1445.859375
 20
177.8125
 30
0.0
 40
17.1875
  1
破壊荷重：２００ｋＮ以上
 41
1.015859509605489
  7
EXCADSTD
100
AcDbText
  0
ENDSEC
  0
SECTION
  2
OBJECTS
  0
DICTIONARY
  5
C
330
0
100
AcDbDictionary
  3
ACAD_GROUP
350
D
  3
ACAD_LAYOUT
350
1A
  3
ACAD_MATERIAL
350
43
  3
ACAD_MLEADERSTYLE
350
6B
  3
ACAD_MLINESTYLE
350
17
  3
ACAD_PLOTSETTINGS
350
19
  3
ACAD_SCALELIST
350
47
  3
ACAD_VISUALSTYLE
350
2A
  3
ACDBHEADERROUNDTRIPXREC
350
301
  3
ACDBVARIABLEDICTIONARY
350
322
  0
DICTIONARY
  5
32D
330
8
100
AcDbDictionary
280
     1
  3
ACAD_XREC_ROUNDTRIP
360
32E
  0
DICTIONARY
  5
D
102
{ACAD_REACTORS
330
C
102
}
330
C
100
AcDbDictionary
  0
DICTIONARY
  5
1A
102
{ACAD_REACTORS
330
C
102
}
330
C
100
AcDbDictionary
  0
DICTIONARY
  5
43
102
{ACAD_REACTORS
330
C
102
}
330
C
100
AcDbDictionary
  3
BYBLOCK
350
45
  3
BYLAYER
350
44
  3
GLOBAL
350
46
  0
DICTIONARY
  5
6B
102
{ACAD_REACTORS
330
C
102
}
330
C
100
AcDbDictionary
  3
STANDARD
350
6C
  0
DICTIONARY
  5
17
102
{ACAD_REACTORS
330
C
102
}
330
C
100
AcDbDictionary
  3
STANDARD
350
18
  0
DICTIONARY
  5
19
102
{ACAD_REACTORS
330
C
102
}
330
C
100
AcDbDictionary
  0
DICTIONARY
  5
47
102
{ACAD_REACTORS
330
C
102
}
330
C
100
AcDbDictionary
  3
A0
350
48
  3
A1
350
49
  3
A2
350
4A
  3
A3
350
4B
  3
A4
350
4C
  3
A5
350
4D
  3
A6
350
4E
  3
A7
350
4F
  3
A8
350
50
  3
A9
350
51
  3
B0
350
52
  3
B1
350
53
  3
B2
350
54
  3
B3
350
55
  3
B4
350
56
  3
B5
350
57
  3
B6
350
58
  3
B7
350
59
  3
B8
350
5A
  3
B9
350
5B
  3
C0
350
5C
  3
C1
350
5D
  3
C2
350
5E
  3
C3
350
5F
  3
C4
350
60
  3
C5
350
61
  3
C6
350
62
  3
C7
350
63
  3
C8
350
64
  3
C9
350
65
  3
D0
350
66
  3
D1
350
67
  3
D2
350
68
  0
DICTIONARY
  5
2A
102
{ACAD_REACTORS
330
C
102
}
330
C
100
AcDbDictionary
  3
2DWIREFRAME
350
2F
  3
BASIC
350
32
  3
BRIGHTEN
350
36
  3
COLORCHANGE
350
3A
  3
CONCEPTUAL
350
34
  3
DIM
350
35
  3
EDGECOLOROFF
350
3D
  3
FACEPATTERN
350
39
  3
FLAT
350
2B
  3
FLATWITHEDGES
350
2C
  3
GOURAUD
350
2D
  3
GOURAUDWITHEDGES
350
2E
  3
HIDDEN
350
31
  3
JITTEROFF
350
3B
  3
LINEPATTERN
350
38
  3
OVERHANGOFF
350
3C
  3
REALISTIC
350
33
  3
SHADED
350
42
  3
SHADED_WITH_EDGES
350
41
  3
SHADES_OF_GRAY
350
3E
  3
SKETCHY
350
3F
  3
THICKEN
350
37
  3
WIREFRAME
350
30
  3
X-RAY
350
40
  0
DICTIONARY
  5
301
102
{ACAD_REACTORS
330
C
102
}
330
C
100
AcDbDictionary
  3
CEPSNID
350
30B
  3
CEPSNTYPE
350
30A
  3
DIMSTYLEDATA
350
321
  3
FINGERPRINTGUID
350
30C
  3
HYPERLINKBASE
350
304
  3
INSUNITS
350
309
  3
LAYOUTDICT
350
306
  3
LWETCUNION
350
308
  3
PLOTSETDICT
350
307
  3
PSVPSCALE
350
30E
  3
PUCSBASE
350
311
  3
PUCSORGBACK
350
317
  3
PUCSORGBOTTOM
350
313
  3
PUCSORGFRONT
350
316
  3
PUCSORGLEFT
350
314
  3
PUCSORGRIGHT
350
315
  3
PUCSORGTOP
350
312
  3
PUCSORTHOREF
350
30F
  3
PUCSORTHOVIEW
350
310
  3
STYLESHEET
350
305
  3
TSTACKALIGN
350
302
  3
TSTACKSIZE
350
303
  3
UCSBASE
350
31A
  3
UCSORGBACK
350
320
  3
UCSORGBOTTOM
350
31C
  3
UCSORGFRONT
350
31F
  3
UCSORGLEFT
350
31D
  3
UCSORGRIGHT
350
31E
  3
UCSORGTOP
350
31B
  3
UCSORTHOREF
350
318
  3
UCSORTHOVIEW
350
319
  3
VERSIONGUID
350
30D
  0
DICTIONARY
  5
322
102
{ACAD_REACTORS
330
C
102
}
330
C
100
AcDbDictionary
  3
CANNOSCALE
350
32F
  3
CENTEREXE
350
329
  3
CENTERLTYPEFILE
350
32A
  3
CMLEADERSTYLE
350
324
  3
CTABLESTYLE
350
323
  3
DIMASSOC
350
32B
  3
HIDETEXT
350
32C
  3
MSLTSCALE
350
330
  3
PSOLHEIGHT
350
326
  3
PSOLWIDTH
350
325
  0
XRECORD
  5
32E
102
{ACAD_REACTORS
330
32D
102
}
330
32D
100
AcDbXrecord
102
VTR_0.000_0.000_1.000_1.000_VISUALSTYLE
340
2F
102
VTR_0.000_0.000_1.000_1.000_GRIDDISPLAY
 70
     3
102
VTR_0.000_0.000_1.000_1.000_GRIDMAJOR
 70
     5
102
VTR_0.000_0.000_1.000_1.000_DEFAULTLIGHTING
280
     1
102
VTR_0.000_0.000_1.000_1.000_DEFAULTLIGHTINGTYPE
 70
     1
102
VTR_0.000_0.000_1.000_1.000_BRIGHTNESS
141
0.0
102
VTR_0.000_0.000_1.000_1.000_CONTRAST
142
0.0
  0
MATERIAL
  5
45
102
{ACAD_REACTORS
330
43
102
}
102
{ACAD_XDICTIONARY
360
333
102
}
330
43
100
AcDbMaterial
  1
BYBLOCK
  0
MATERIAL
  5
44
102
{ACAD_REACTORS
330
43
102
}
102
{ACAD_XDICTIONARY
360
331
102
}
330
43
100
AcDbMaterial
  1
BYLAYER
  0
MATERIAL
  5
46
102
{ACAD_REACTORS
330
43
102
}
102
{ACAD_XDICTIONARY
360
335
102
}
330
43
100
AcDbMaterial
  1
GLOBAL
  0
ACAD_PROXY_OBJECT
  5
6C
102
{ACAD_REACTORS
330
6B
102
}
330
6B
100
AcDbProxyObject
 90
      499
 91
      505
 93
      610
310
40901902A4063FBFFFFFE0000000000000020400000000000020404214DD185B99185C990000000000000104090141901A00000000000004100000000000000041025764000000000000039000
340
14
340
0
340
11
340
0
 94
        0
1001
ACAD_MLEADERVER
1070
     2
  0
MLINESTYLE
  5
18
102
{ACAD_REACTORS
330
17
102
}
330
17
100
AcDbMlineStyle
  2
Standard
 70
     0
  3

 62
   256
 51
90.0
 52
90.0
 71
     2
 49
0.5
 62
   256
  6
BYLAYER
 49
-0.5
 62
   256
  6
BYLAYER
  0
ACAD_PROXY_OBJECT
  5
48
102
{ACAD_REACTORS
330
47
102
}
330
47
100
AcDbProxyObject
 90
      499
 91
      503
 93
       41
310
903313A31580
  0
ACAD_PROXY_OBJECT
  5
49
102
{ACAD_REACTORS
330
47
102
}
330
47
100
AcDbProxyObject
 90
      499
 91
      503
 93
      105
310
903313A324000000000000004000
  0
ACAD_PROXY_OBJECT
  5
4A
102
{ACAD_REACTORS
330
47
102
}
330
47
100
AcDbProxyObject
 90
      499
 91
      503
 93
      105
310
903313A344000000000000104000
  0
ACAD_PROXY_OBJECT
  5
4B
102
{ACAD_REACTORS
330
47
102
}
330
47
100
AcDbProxyObject
 90
      499
 91
      503
 93
      105
310
903313A354000000000000144000
  0
ACAD_PROXY_OBJECT
  5
4C
102
{ACAD_REACTORS
330
47
102
}
330
47
100
AcDbProxyObject
 90
      499
 91
      503
 93
      105
310
903313A384000000000000204000
  0
ACAD_PROXY_OBJECT
  5
4D
102
{ACAD_REACTORS
330
47
102
}
330
47
100
AcDbProxyObject
 90
      499
 91
      503
 93
      113
310
904313A31304000000000000244000
  0
ACAD_PROXY_OBJECT
  5
4E
102
{ACAD_REACTORS
330
47
102
}
330
47
100
AcDbProxyObject
 90
      499
 91
      503
 93
      113
310
904313A31364000000000000304000
  0
ACAD_PROXY_OBJECT
  5
4F
102
{ACAD_REACTORS
330
47
102
}
330
47
100
AcDbProxyObject
 90
      499
 91
      503
 93
      113
310
904313A32304000000000000344000
  0
ACAD_PROXY_OBJECT
  5
50
102
{ACAD_REACTORS
330
47
102
}
330
47
100
AcDbProxyObject
 90
      499
 91
      503
 93
      113
310
904313A333040000000000003E4000
  0
ACAD_PROXY_OBJECT
  5
51
102
{ACAD_REACTORS
330
47
102
}
330
47
100
AcDbProxyObject
 90
      499
 91
      503
 93
      113
310
904313A34304000000000000444000
  0
ACAD_PROXY_OBJECT
  5
52
102
{ACAD_REACTORS
330
47
102
}
330
47
100
AcDbProxyObject
 90
      499
 91
      503
 93
      113
310
904313A35304000000000000494000
  0
ACAD_PROXY_OBJECT
  5
53
102
{ACAD_REACTORS
330
47
102
}
330
47
100
AcDbProxyObject
 90
      499
 91
      503
 93
      121
310
905313A3130304000000000000594000
  0
ACAD_PROXY_OBJECT
  5
54
102
{ACAD_REACTORS
330
47
102
}
330
47
100
AcDbProxyObject
 90
      499
 91
      503
 93
      105
310
903323A310000000000000010100
  0
ACAD_PROXY_OBJECT
  5
55
102
{ACAD_REACTORS
330
47
102
}
330
47
100
AcDbProxyObject
 90
      499
 91
      503
 93
      105
310
903343A310000000000000410100
  0
ACAD_PROXY_OBJECT
  5
56
102
{ACAD_REACTORS
330
47
102
}
330
47
100
AcDbProxyObject
 90
      499
 91
      503
 93
      105
310
903383A310000000000000810100
  0
ACAD_PROXY_OBJECT
  5
57
102
{ACAD_REACTORS
330
47
102
}
330
47
100
AcDbProxyObject
 90
      499
 91
      503
 93
      113
310
90431303A310000000000000910100
  0
ACAD_PROXY_OBJECT
  5
58
102
{ACAD_REACTORS
330
47
102
}
330
47
100
AcDbProxyObject
 90
      499
 91
      503
 93
      121
310
9053130303A310000000000001650100
  0
ACAD_PROXY_OBJECT
  5
59
102
{ACAD_REACTORS
330
47
102
}
330
47
100
AcDbProxyObject
 90
      499
 91
      503
 93
      257
310
90E312F31323822203D2031272D3022000000000000200FC000000000000284000
  0
ACAD_PROXY_OBJECT
  5
5A
102
{ACAD_REACTORS
330
47
102
}
330
47
100
AcDbProxyObject
 90
      499
 91
      503
 93
      249
310
90D312F363422203D2031272D3022000000000000240FC000000000000284000
  0
ACAD_PROXY_OBJECT
  5
5B
102
{ACAD_REACTORS
330
47
102
}
330
47
100
AcDbProxyObject
 90
      499
 91
      503
 93
      249
310
90D312F333222203D2031272D3022000000000000280FC000000000000284000
  0
ACAD_PROXY_OBJECT
  5
5C
102
{ACAD_REACTORS
330
47
102
}
330
47
100
AcDbProxyObject
 90
      499
 91
      503
 93
      249
310
90D312F313622203D2031272D30220000000000002C0FC000000000000284000
  0
ACAD_PROXY_OBJECT
  5
5D
102
{ACAD_REACTORS
330
47
102
}
330
47
100
AcDbProxyObject
 90
      499
 91
      503
 93
      249
310
90D332F333222203D2031272D30220000000000002E0FC000000000000284000
  0
ACAD_PROXY_OBJECT
  5
5E
102
{ACAD_REACTORS
330
47
102
}
330
47
100
AcDbProxyObject
 90
      499
 91
      503
 93
      241
310
90C312F3822203D2031272D3022000000000000300FC000000000000284000
  0
ACAD_PROXY_OBJECT
  5
5F
102
{ACAD_REACTORS
330
47
102
}
330
47
100
AcDbProxyObject
 90
      499
 91
      503
 93
      249
310
90D332F313622203D2031272D3022000000000000320FC000000000000284000
  0
ACAD_PROXY_OBJECT
  5
60
102
{ACAD_REACTORS
330
47
102
}
330
47
100
AcDbProxyObject
 90
      499
 91
      503
 93
      241
310
90C312F3422203D2031272D3022000000000000340FC000000000000284000
  0
ACAD_PROXY_OBJECT
  5
61
102
{ACAD_REACTORS
330
47
102
}
330
47
100
AcDbProxyObject
 90
      499
 91
      503
 93
      241
310
90C332F3822203D2031272D3022000000000000360FC000000000000284000
  0
ACAD_PROXY_OBJECT
  5
62
102
{ACAD_REACTORS
330
47
102
}
330
47
100
AcDbProxyObject
 90
      499
 91
      503
 93
      241
310
90C312F3222203D2031272D3022000000000000380FC000000000000284000
  0
ACAD_PROXY_OBJECT
  5
63
102
{ACAD_REACTORS
330
47
102
}
330
47
100
AcDbProxyObject
 90
      499
 91
      503
 93
      241
310
90C332F3422203D2031272D30220000000000003A0FC000000000000284000
  0
ACAD_PROXY_OBJECT
  5
64
102
{ACAD_REACTORS
330
47
102
}
330
47
100
AcDbProxyObject
 90
      499
 91
      503
 93
      161
310
90A3122203D2031272D30224000000000000284000
  0
ACAD_PROXY_OBJECT
  5
65
102
{ACAD_REACTORS
330
47
102
}
330
47
100
AcDbProxyObject
 90
      499
 91
      503
 93
      257
310
90E312D312F3222203D2031272D30220000000000003E0FC000000000000284000
  0
ACAD_PROXY_OBJECT
  5
66
102
{ACAD_REACTORS
330
47
102
}
330
47
100
AcDbProxyObject
 90
      499
 91
      503
 93
      225
310
90A3322203D2031272D302200000000000002100000000000000284000
  0
ACAD_PROXY_OBJECT
  5
67
102
{ACAD_REACTORS
330
47
102
}
330
47
100
AcDbProxyObject
 90
      499
 91
      503
 93
      225
310
90A3622203D2031272D302200000000000006100000000000000284000
  0
ACAD_PROXY_OBJECT
  5
68
102
{ACAD_REACTORS
330
47
102
}
330
47
100
AcDbProxyObject
 90
      499
 91
      503
 93
      249
310
90D31272D3022203D2031272D30220000000000000A100000000000000284000
  0
ACAD_PROXY_OBJECT
  5
2F
102
{ACAD_REACTORS
330
2A
102
}
330
2A
100
AcDbProxyObject
 90
      499
 91
      501
 93
      436
310
42CC9915DA5C99599C985B595049028333333333333E33F0000000000000F90107901411070040501600405405064090741402480A0340
1001
ACAD
1000
AcDbSavedByObjectVersion
1070
     0
  0
ACAD_PROXY_OBJECT
  5
32
102
{ACAD_REACTORS
330
2A
102
}
330
2A
100
AcDbProxyObject
 90
      499
 91
      501
 93
      388
310
4150985CDA58D07406404333333333333E33F0000000000000F90107A41107004050150841D405064090741402480A0350
1001
ACAD
1000
AcDbSavedByObjectVersion
1070
     0
  0
ACAD_PROXY_OBJECT
  5
36
102
{ACAD_REACTORS
330
2A
102
}
330
2A
100
AcDbProxyObject
 90
      499
 91
      501
 93
      428
310
42109C9A59DA1D195B90C409028333333333333E33F0000000000000F9010790141107004050150841D405064090741402480A029950
1001
ACAD
1000
AcDbSavedByObjectVersion
1070
     0
  0
ACAD_PROXY_OBJECT
  5
3A
102
{ACAD_REACTORS
330
2A
102
}
330
2A
100
AcDbProxyObject
 90
      499
 91
      501
 93
      452
310
42D0DBDB1BDC90DA185B99D95104090240C333333333333E33F0000000000000F90108901411070040501508421405064090741402480A0350
1001
ACAD
1000
AcDbSavedByObjectVersion
1070
     0
  0
ACAD_PROXY_OBJECT
  5
34
102
{ACAD_REACTORS
330
2A
102
}
330
2A
100
AcDbProxyObject
 90
      499
 91
      501
 93
      500
310
4290DBDB98D95C1D1D585B10940D028333333333333E33F0000000000000F90107902409070040501000000000018199010841D405064090740C02480A0340
1001
ACAD
1000
AcDbSavedByObjectVersion
1070
     0
  0
ACAD_PROXY_OBJECT
  5
35
102
{ACAD_REACTORS
330
2A
102
}
330
2A
100
AcDbProxyObject
 90
      499
 91
      501
 93
      412
310
40D11A5B50B409028333333333333E33F0000000000000F9010790141107004050150841D405064090741402480A02677FFFFFD0
1001
ACAD
1000
AcDbSavedByObjectVersion
1070
     0
  0
ACAD_PROXY_OBJECT
  5
3D
102
{ACAD_REACTORS
330
2A
102
}
330
2A
100
AcDbProxyObject
 90
      499
 91
      501
 93
      452
310
43115919D950DBDB1BDC93D999916409028333333333333E33F0000000000000F9010790141107004050150841D405064090741402480A0350
1001
ACAD
1000
AcDbSavedByObjectVersion
1070
     0
  0
ACAD_PROXY_OBJECT
  5
39
102
{ACAD_REACTORS
330
2A
102
}
330
2A
100
AcDbProxyObject
 90
      499
 91
      501
 93
      444
310
42D19858D95C185D1D195C9B90F409028333333333333E33F0000000000000F9010790141107004050150841D405064090741402480A0350
1001
ACAD
1000
AcDbSavedByObjectVersion
1070
     0
  0
ACAD_PROXY_OBJECT
  5
2B
102
{ACAD_REACTORS
330
2A
102
}
330
2A
100
AcDbProxyObject
 90
      499
 91
      501
 93
      380
310
41119B185D240901404333333333333E33F0000000000000F9010740A907004050150841D405064090741402480A1B50
1001
ACAD
1000
AcDbSavedByObjectVersion
1070
     0
  0
ACAD_PROXY_OBJECT
  5
2C
102
{ACAD_REACTORS
330
2A
102
}
330
2A
100
AcDbProxyObject
 90
      499
 91
      501
 93
      468
310
43519B185D15DA5D1A115919D95CD0140901404333333333333E33F0000000000000F90107409019070040501600405405064090741402480A1B50
1001
ACAD
1000
AcDbSavedByObjectVersion
1070
     0
  0
ACAD_PROXY_OBJECT
  5
2D
102
{ACAD_REACTORS
330
2A
102
}
330
2A
100
AcDbProxyObject
 90
      499
 91
      501
 93
      404
310
41D1DBDD5C985D5910240902404333333333333E33F0000000000000F9010740A9070040501641D405064090741402480A1B50
1001
ACAD
1000
AcDbSavedByObjectVersion
1070
     0
  0
ACAD_PROXY_OBJECT
  5
2E
102
{ACAD_REACTORS
330
2A
102
}
330
2A
100
AcDbProxyObject
 90
      499
 91
      501
 93
      492
310
4411DBDD5C985D5915DA5D1A115919D95CD0340902404333333333333E33F0000000000000F90107409019070040501600405405064090741402480A1B50
1001
ACAD
1000
AcDbSavedByObjectVersion
1070
     0
  0
ACAD_PROXY_OBJECT
  5
31
102
{ACAD_REACTORS
330
2A
102
}
330
2A
100
AcDbProxyObject
 90
      499
 91
      501
 93
      476
310
41921A5919195B90640502408333333333333E33F0000000000000F901079024090700405020000000000001110200405405064090740C02480A0340
1001
ACAD
1000
AcDbSavedByObjectVersion
1070
     0
  0
ACAD_PROXY_OBJECT
  5
3B
102
{ACAD_REACTORS
330
2A
102
}
330
2A
100
AcDbProxyObject
 90
      499
 91
      501
 93
      428
310
42529A5D1D195C93D999914409028333333333333E33F0000000000000F9010790141107004050150A41D405064090741402480A0350
1001
ACAD
1000
AcDbSavedByObjectVersion
1070
     0
  0
ACAD_PROXY_OBJECT
  5
38
102
{ACAD_REACTORS
330
2A
102
}
330
2A
100
AcDbProxyObject
 90
      499
 91
      501
 93
      444
310
42D31A5B995C185D1D195C9B90E409028333333333333E33F0000000000000F9010790141107004050750841D405064090741402483A0350
1001
ACAD
1000
AcDbSavedByObjectVersion
1070
     0
  0
ACAD_PROXY_OBJECT
  5
3C
102
{ACAD_REACTORS
330
2A
102
}
330
2A
100
AcDbProxyObject
 90
      499
 91
      501
 93
      444
310
42D3DD995C9A185B99D3D999915409028333333333333E33F0000000000000F9010790141107004050150941D405064090741402480A0350
1001
ACAD
1000
AcDbSavedByObjectVersion
1070
     0
  0
ACAD_PROXY_OBJECT
  5
33
102
{ACAD_REACTORS
330
2A
102
}
330
2A
100
AcDbProxyObject
 90
      499
 91
      501
 93
      428
310
425499585B1A5CDD1A58D08409038333333333333E33F0000000000000F9010740A907004050150800405405064090740C02480A1B40
1001
ACAD
1000
AcDbSavedByObjectVersion
1070
     0
  0
ACAD_PROXY_OBJECT
  5
42
102
{ACAD_REACTORS
330
2A
102
}
330
2A
100
AcDbProxyObject
 90
      499
 91
      501
 93
      420
310
4194DA1859195911B40902404333333333333E33F0000000000000F9010740A41107004050150800405405064090840C02480A0B40
1001
ACAD
1000
AcDbSavedByObjectVersion
1070
     0
  0
ACAD_PROXY_OBJECT
  5
41
102
{ACAD_REACTORS
330
2A
102
}
330
2A
100
AcDbProxyObject
 90
      499
 91
      501
 93
      516
310
4454DA18591959081DDA5D1A08195919D95CD1A40902404333333333333E33F0000000000000F901074090142907004050250800405405064090740C02480A0B40
1001
ACAD
1000
AcDbSavedByObjectVersion
1070
     0
  0
ACAD_PROXY_OBJECT
  5
3E
102
{ACAD_REACTORS
330
2A
102
}
330
2A
100
AcDbProxyObject
 90
      499
 91
      501
 93
      532
310
4394DA1859195CC81BD98811DC985E5174090240C333333333333E33F0000000000000F901079024090741D01000000000000111010841D405064090740C02480A0340
1001
ACAD
1000
AcDbSavedByObjectVersion
1070
     0
  0
ACAD_PROXY_OBJECT
  5
3F
102
{ACAD_REACTORS
330
2A
102
}
330
2A
100
AcDbProxyObject
 90
      499
 91
      501
 93
      476
310
41D4DAD95D18DA1E51840502408333333333333E33F0000000000000F901079024090741D01000000000000111010B41D405064090741802480A0340
1001
ACAD
1000
AcDbSavedByObjectVersion
1070
     0
  0
ACAD_PROXY_OBJECT
  5
37
102
{ACAD_REACTORS
330
2A
102
}
330
2A
100
AcDbProxyObject
 90
      499
 91
      501
 93
      412
310
41D51A1A58DAD95B90D409028333333333333E33F0000000000000F9010790141107004050150C41D405064090741402480A0350
1001
ACAD
1000
AcDbSavedByObjectVersion
1070
     0
  0
ACAD_PROXY_OBJECT
  5
30
102
{ACAD_REACTORS
330
2A
102
}
330
2A
100
AcDbProxyObject
 90
      499
 91
      501
 93
      420
310
4255DA5C99599C985B595059028333333333333E33F0000000000000F90107901411070040501600405405064090740C02480A0340
1001
ACAD
1000
AcDbSavedByObjectVersion
1070
     0
  0
ACAD_PROXY_OBJECT
  5
40
102
{ACAD_REACTORS
330
2A
102
}
330
2A
100
AcDbProxyObject
 90
      499
 91
      501
 93
      404
310
41560B54985E51940902404000000000000E03F0000000000000F9010740501907004050150841D405064090740C02480A1B40
1001
ACAD
1000
AcDbSavedByObjectVersion
1070
     0
  0
XRECORD
  5
30B
102
{ACAD_REACTORS
330
301
102
}
330
301
100
AcDbXrecord
340
0
  0
XRECORD
  5
30A
102
{ACAD_REACTORS
330
301
102
}
330
301
100
AcDbXrecord
 90
        0
  0
XRECORD
  5
321
102
{ACAD_REACTORS
330
301
102
}
330
301
100
AcDbXrecord
1000
DSTYLE
1002
{
1070
   340
340
11
1002
}
  0
XRECORD
  5
30C
102
{ACAD_REACTORS
330
301
102
}
330
301
100
AcDbXrecord
  1
{31fcacc9-6192-4434-ba51-e61b5f191e1a}
  0
XRECORD
  5
304
102
{ACAD_REACTORS
330
301
102
}
330
301
100
AcDbXrecord
  1

  0
XRECORD
  5
309
102
{ACAD_REACTORS
330
301
102
}
330
301
100
AcDbXrecord
 90
        4
  0
XRECORD
  5
306
102
{ACAD_REACTORS
330
301
102
}
330
301
100
AcDbXrecord
340
1A
  0
XRECORD
  5
308
102
{ACAD_REACTORS
330
301
102
}
330
301
100
AcDbXrecord
 90
    10781
  0
XRECORD
  5
307
102
{ACAD_REACTORS
330
301
102
}
330
301
100
AcDbXrecord
340
19
  0
XRECORD
  5
30E
102
{ACAD_REACTORS
330
301
102
}
330
301
100
AcDbXrecord
 40
0.0
  0
XRECORD
  5
311
102
{ACAD_REACTORS
330
301
102
}
330
301
100
AcDbXrecord
340
0
  0
XRECORD
  5
317
102
{ACAD_REACTORS
330
301
102
}
330
301
100
AcDbXrecord
 10
0.0
 20
0.0
 30
0.0
  0
XRECORD
  5
313
102
{ACAD_REACTORS
330
301
102
}
330
301
100
AcDbXrecord
 10
0.0
 20
0.0
 30
0.0
  0
XRECORD
  5
316
102
{ACAD_REACTORS
330
301
102
}
330
301
100
AcDbXrecord
 10
0.0
 20
0.0
 30
0.0
  0
XRECORD
  5
314
102
{ACAD_REACTORS
330
301
102
}
330
301
100
AcDbXrecord
 10
0.0
 20
0.0
 30
0.0
  0
XRECORD
  5
315
102
{ACAD_REACTORS
330
301
102
}
330
301
100
AcDbXrecord
 10
0.0
 20
0.0
 30
0.0
  0
XRECORD
  5
312
102
{ACAD_REACTORS
330
301
102
}
330
301
100
AcDbXrecord
 10
0.0
 20
0.0
 30
0.0
  0
XRECORD
  5
30F
102
{ACAD_REACTORS
330
301
102
}
330
301
100
AcDbXrecord
340
0
  0
XRECORD
  5
310
102
{ACAD_REACTORS
330
301
102
}
330
301
100
AcDbXrecord
 70
     0
  0
XRECORD
  5
305
102
{ACAD_REACTORS
330
301
102
}
330
301
100
AcDbXrecord
  1

  0
XRECORD
  5
302
102
{ACAD_REACTORS
330
301
102
}
330
301
100
AcDbXrecord
 90
        1
  0
XRECORD
  5
303
102
{ACAD_REACTORS
330
301
102
}
330
301
100
AcDbXrecord
 90
       70
  0
XRECORD
  5
31A
102
{ACAD_REACTORS
330
301
102
}
330
301
100
AcDbXrecord
340
0
  0
XRECORD
  5
320
102
{ACAD_REACTORS
330
301
102
}
330
301
100
AcDbXrecord
 10
0.0
 20
0.0
 30
0.0
  0
XRECORD
  5
31C
102
{ACAD_REACTORS
330
301
102
}
330
301
100
AcDbXrecord
 10
0.0
 20
0.0
 30
0.0
  0
XRECORD
  5
31F
102
{ACAD_REACTORS
330
301
102
}
330
301
100
AcDbXrecord
 10
0.0
 20
0.0
 30
0.0
  0
XRECORD
  5
31D
102
{ACAD_REACTORS
330
301
102
}
330
301
100
AcDbXrecord
 10
0.0
 20
0.0
 30
0.0
  0
XRECORD
  5
31E
102
{ACAD_REACTORS
330
301
102
}
330
301
100
AcDbXrecord
 10
0.0
 20
0.0
 30
0.0
  0
XRECORD
  5
31B
102
{ACAD_REACTORS
330
301
102
}
330
301
100
AcDbXrecord
 10
0.0
 20
0.0
 30
0.0
  0
XRECORD
  5
318
102
{ACAD_REACTORS
330
301
102
}
330
301
100
AcDbXrecord
340
0
  0
XRECORD
  5
319
102
{ACAD_REACTORS
330
301
102
}
330
301
100
AcDbXrecord
 70
     0
  0
XRECORD
  5
30D
102
{ACAD_REACTORS
330
301
102
}
330
301
100
AcDbXrecord
  1
{FAEB1C32-E019-11D5-929B-00C0DF256EC4}
  0
DICTIONARYVAR
  5
32F
102
{ACAD_REACTORS
330
322
102
}
330
322
100
DictionaryVariables
280
     0
  1
1:1
  0
DICTIONARYVAR
  5
329
102
{ACAD_REACTORS
330
322
102
}
330
322
100
DictionaryVariables
280
     0
  1
3.500000
  0
DICTIONARYVAR
  5
32A
102
{ACAD_REACTORS
330
322
102
}
330
322
100
DictionaryVariables
280
     0
  1
acadiso.lin
  0
DICTIONARYVAR
  5
324
102
{ACAD_REACTORS
330
322
102
}
330
322
100
DictionaryVariables
280
     0
  1
Standard
  0
DICTIONARYVAR
  5
323
102
{ACAD_REACTORS
330
322
102
}
330
322
100
DictionaryVariables
280
     0
  1
Standard
  0
DICTIONARYVAR
  5
32B
102
{ACAD_REACTORS
330
322
102
}
330
322
100
DictionaryVariables
280
     0
  1
2
  0
DICTIONARYVAR
  5
32C
102
{ACAD_REACTORS
330
322
102
}
330
322
100
DictionaryVariables
280
     0
  1
1
  0
DICTIONARYVAR
  5
330
102
{ACAD_REACTORS
330
322
102
}
330
322
100
DictionaryVariables
280
     0
  1
1
  0
DICTIONARYVAR
  5
326
102
{ACAD_REACTORS
330
322
102
}
330
322
100
DictionaryVariables
280
     0
  1
80.000000
  0
DICTIONARYVAR
  5
325
102
{ACAD_REACTORS
330
322
102
}
330
322
100
DictionaryVariables
280
     0
  1
5.000000
  0
DICTIONARY
  5
333
330
45
100
AcDbDictionary
280
     1
  3
ACAD_XREC_ROUNDTRIP
360
334
  0
DICTIONARY
  5
331
330
44
100
AcDbDictionary
280
     1
  3
ACAD_XREC_ROUNDTRIP
360
332
  0
DICTIONARY
  5
335
330
46
100
AcDbDictionary
280
     1
  3
ACAD_XREC_ROUNDTRIP
360
336
  0
XRECORD
  5
334
102
{ACAD_REACTORS
330
333
102
}
330
333
100
AcDbXrecord
102
MATERIAL
148
0.0
149
0.0
149
0.0
 93
        0
 94
      127
282
     0
 72
     1
 77
     1
171
     1
175
     1
179
     1
273
     0
  0
XRECORD
  5
332
102
{ACAD_REACTORS
330
331
102
}
330
331
100
AcDbXrecord
102
MATERIAL
148
0.0
149
0.0
149
0.0
 93
        0
 94
      127
282
     0
 72
     1
 77
     1
171
     1
175
     1
179
     1
273
     0
  0
XRECORD
  5
336
102
{ACAD_REACTORS
330
335
102
}
330
335
100
AcDbXrecord
102
MATERIAL
148
0.0
149
0.0
149
0.0
 93
        0
 94
      127
282
     0
 72
     1
 77
     1
171
     1
175
     1
179
     1
273
     0
  0
ENDSEC
  0
EOF
