  0
SECTION
  2
HEADER
  9
$ACADVER
  1
AC1014
  9
$ACADMAINTVER
 70
     9
  9
$DWGCODEPAGE
  3
ANSI_932
  9
$INSBASE
 10
0.0
 20
0.0
 30
0.0
  9
$EXTMIN
 10
40.0
 20
80.0
 30
0.0
  9
$EXTMAX
 10
3080.0
 20
2240.0
 30
0.0
  9
$LIMMIN
 10
0.0
 20
0.0
  9
$LIMMAX
 10
420.0
 20
297.0
  9
$ORTHOMODE
 70
     0
  9
$REGENMODE
 70
     1
  9
$FILLMODE
 70
     1
  9
$QTEXTMODE
 70
     0
  9
$MIRRTEXT
 70
     1
  9
$DRAGMODE
 70
     2
  9
$LTSCALE
 40
0.2
  9
$OSMODE
 70
    37
  9
$ATTMODE
 70
     1
  9
$TEXTSIZE
 40
2.5
  9
$TRACEWID
 40
1.0
  9
$TEXTSTYLE
  7
STANDARD
  9
$CLAYER
  8
LAY-1
  9
$CELTYPE
  6
BYLAYER
  9
$CECOLOR
 62
   256
  9
$CELTSCALE
 40
1.0
  9
$DELOBJ
 70
     1
  9
$DISPSILH
 70
     0
  9
$DIMSCALE
 40
1.0
  9
$DIMASZ
 40
2.5
  9
$DIMEXO
 40
0.625
  9
$DIMDLI
 40
3.75
  9
$DIMRND
 40
0.0
  9
$DIMDLE
 40
0.0
  9
$DIMEXE
 40
1.25
  9
$DIMTP
 40
0.0
  9
$DIMTM
 40
0.0
  9
$DIMTXT
 40
2.5
  9
$DIMCEN
 40
2.5
  9
$DIMTSZ
 40
0.0
  9
$DIMTOL
 70
     0
  9
$DIMLIM
 70
     0
  9
$DIMTIH
 70
     0
  9
$DIMTOH
 70
     0
  9
$DIMSE1
 70
     0
  9
$DIMSE2
 70
     0
  9
$DIMTAD
 70
     1
  9
$DIMZIN
 70
     8
  9
$DIMBLK
  1

  9
$DIMASO
 70
     1
  9
$DIMSHO
 70
     1
  9
$DIMPOST
  1

  9
$DIMAPOST
  1

  9
$DIMALT
 70
     0
  9
$DIMALTD
 70
     3
  9
$DIMALTF
 40
0.03937007874016
  9
$DIMLFAC
 40
1.0
  9
$DIMTOFL
 70
     1
  9
$DIMTVP
 40
0.0
  9
$DIMTIX
 70
     0
  9
$DIMSOXD
 70
     0
  9
$DIMSAH
 70
     0
  9
$DIMBLK1
  1

  9
$DIMBLK2
  1

  9
$DIMSTYLE
  2
ISO-25
  9
$DIMCLRD
 70
     0
  9
$DIMCLRE
 70
     0
  9
$DIMCLRT
 70
     0
  9
$DIMTFAC
 40
1.0
  9
$DIMGAP
 40
0.625
  9
$DIMJUST
 70
     0
  9
$DIMSD1
 70
     0
  9
$DIMSD2
 70
     0
  9
$DIMTOLJ
 70
     0
  9
$DIMTZIN
 70
     8
  9
$DIMALTZ
 70
     0
  9
$DIMALTTZ
 70
     0
  9
$DIMFIT
 70
     3
  9
$DIMUPT
 70
     0
  9
$DIMUNIT
 70
     2
  9
$DIMDEC
 70
     2
  9
$DIMTDEC
 70
     2
  9
$DIMALTU
 70
     2
  9
$DIMALTTD
 70
     3
  9
$DIMTXSTY
  7
STANDARD
  9
$DIMAUNIT
 70
     0
  9
$LUNITS
 70
     2
  9
$LUPREC
 70
     4
  9
$SKETCHINC
 40
1.0
  9
$FILLETRAD
 40
10.0
  9
$AUNITS
 70
     0
  9
$AUPREC
 70
     0
  9
$MENU
  1
.
  9
$ELEVATION
 40
0.0
  9
$PELEVATION
 40
0.0
  9
$THICKNESS
 40
0.0
  9
$LIMCHECK
 70
     0
  9
$CHAMFERA
 40
0.0
  9
$CHAMFERB
 40
0.0
  9
$CHAMFERC
 40
0.0
  9
$CHAMFERD
 40
0.0
  9
$SKPOLY
 70
     0
  9
$TDCREATE
 40
2459229.332718009
  9
$TDUPDATE
 40
2459229.332718495
  9
$TDINDWG
 40
0.0000000116
  9
$TDUSRTIMER
 40
0.0000000116
  9
$USRTIMER
 70
     1
  9
$ANGBASE
 50
0.0
  9
$ANGDIR
 70
     0
  9
$PDMODE
 70
     0
  9
$PDSIZE
 40
0.0
  9
$PLINEWID
 40
0.0
  9
$COORDS
 70
     1
  9
$SPLFRAME
 70
     0
  9
$SPLINETYPE
 70
     6
  9
$SPLINESEGS
 70
     8
  9
$ATTDIA
 70
     0
  9
$ATTREQ
 70
     1
  9
$HANDLING
 70
     1
  9
$HANDSEED
  5
3A3
  9
$SURFTAB1
 70
     6
  9
$SURFTAB2
 70
     6
  9
$SURFTYPE
 70
     6
  9
$SURFU
 70
     6
  9
$SURFV
 70
     6
  9
$UCSNAME
  2

  9
$UCSORG
 10
0.0
 20
0.0
 30
0.0
  9
$UCSXDIR
 10
1.0
 20
0.0
 30
0.0
  9
$UCSYDIR
 10
0.0
 20
1.0
 30
0.0
  9
$PUCSNAME
  2

  9
$PUCSORG
 10
0.0
 20
0.0
 30
0.0
  9
$PUCSXDIR
 10
1.0
 20
0.0
 30
0.0
  9
$PUCSYDIR
 10
0.0
 20
1.0
 30
0.0
  9
$USERI1
 70
     0
  9
$USERI2
 70
     0
  9
$USERI3
 70
     0
  9
$USERI4
 70
     0
  9
$USERI5
 70
     0
  9
$USERR1
 40
0.0
  9
$USERR2
 40
0.0
  9
$USERR3
 40
0.0
  9
$USERR4
 40
0.0
  9
$USERR5
 40
0.0
  9
$WORLDVIEW
 70
     1
  9
$SHADEDGE
 70
     3
  9
$SHADEDIF
 70
    70
  9
$TILEMODE
 70
     1
  9
$MAXACTVP
 70
    64
  9
$PINSBASE
 10
0.0
 20
0.0
 30
0.0
  9
$PLIMCHECK
 70
     0
  9
$PEXTMIN
 10
1.000000000000000E+20
 20
1.000000000000000E+20
 30
1.000000000000000E+20
  9
$PEXTMAX
 10
-1.000000000000000E+20
 20
-1.000000000000000E+20
 30
-1.000000000000000E+20
  9
$PLIMMIN
 10
0.0
 20
0.0
  9
$PLIMMAX
 10
420.0
 20
297.0
  9
$UNITMODE
 70
     0
  9
$VISRETAIN
 70
     1
  9
$PLINEGEN
 70
     0
  9
$PSLTSCALE
 70
     1
  9
$TREEDEPTH
 70
  3020
  9
$PICKSTYLE
 70
     1
  9
$CMLSTYLE
  2
STANDARD
  9
$CMLJUST
 70
     0
  9
$CMLSCALE
 40
20.0
  9
$PROXYGRAPHICS
 70
     1
  9
$MEASUREMENT
 70
     1
  0
ENDSEC
  0
SECTION
  2
CLASSES
  0
CLASS
  1
ACDBDICTIONARYWDFLT
  2
AcDbDictionaryWithDefault
  3
ObjectDBX Classes
 90
        0
280
     0
281
     0
  0
CLASS
  1
VISUALSTYLE
  2
AcDbVisualStyle
  3
ObjectDBX Classes
 90
     4095
280
     0
281
     0
  0
CLASS
  1
MATERIAL
  2
AcDbMaterial
  3
ObjectDBX Classes
 90
     1153
280
     0
281
     0
  0
CLASS
  1
SCALE
  2
AcDbScale
  3
ObjectDBX Classes
 90
     1153
280
     0
281
     0
  0
CLASS
  1
TABLESTYLE
  2
AcDbTableStyle
  3
ObjectDBX Classes
 90
     4095
280
     0
281
     0
  0
CLASS
  1
MLEADERSTYLE
  2
AcDbMLeaderStyle
  3
ACDB_MLEADERSTYLE_CLASS
 90
     4095
280
     0
281
     0
  0
CLASS
  1
SUN
  2
AcDbSun
  3
SCENEOE
 90
     1153
280
     0
281
     0
  0
CLASS
  1
DICTIONARYVAR
  2
AcDbDictionaryVar
  3
ObjectDBX Classes
 90
        0
280
     0
281
     0
  0
CLASS
  1
XRECORD
  2
AcDbXrecord
  3
ObjectDBX Classes
 90
        0
280
     0
281
     0
  0
CLASS
  1
LWPOLYLINE
  2
AcDbPolyline
  3
ObjectDBX Classes
 90
        0
280
     0
281
     1
  0
CLASS
  1
HATCH
  2
AcDbHatch
  3
ObjectDBX Classes
 90
        0
280
     0
281
     1
  0
CLASS
  1
ACDBPLACEHOLDER
  2
AcDbPlaceHolder
  3
ObjectDBX Classes
 90
        0
280
     0
281
     0
  0
CLASS
  1
LAYOUT
  2
AcDbLayout
  3
ObjectDBX Classes
 90
        0
280
     0
281
     0
  0
ENDSEC
  0
SECTION
  2
TABLES
  0
TABLE
  2
VPORT
  5
8
102
{ACAD_XDICTIONARY
360
398
102
}
330
0
100
AcDbSymbolTable
 70
     1
  0
VPORT
  5
29
330
8
100
AcDbSymbolTableRecord
100
AcDbViewportTableRecord
  2
*ACTIVE
 70
     0
 10
0.0
 20
0.0
 11
1.0
 21
1.0
 12
1560.0
 22
1160.0
 13
0.0
 23
0.0
 14
10.0
 24
10.0
 15
10.0
 25
10.0
 16
0.0
 26
0.0
 36
1.0
 17
0.0
 27
0.0
 37
0.0
 40
2160.0
 41
1.407407407407408
 42
50.0
 43
0.0
 44
0.0
 50
0.0
 51
0.0
 71
     0
 72
  1000
 73
     1
 74
     3
 75
     0
 76
     0
 77
     0
 78
     0
  0
ENDTAB
  0
TABLE
  2
LTYPE
  5
5
330
0
100
AcDbSymbolTable
 70
     6
  0
LTYPE
  5
14
330
5
100
AcDbSymbolTableRecord
100
AcDbLinetypeTableRecord
  2
BYBLOCK
 70
     0
  3

 72
    65
 73
     0
 40
0.0
  0
LTYPE
  5
15
330
5
100
AcDbSymbolTableRecord
100
AcDbLinetypeTableRecord
  2
BYLAYER
 70
     0
  3

 72
    65
 73
     0
 40
0.0
  0
LTYPE
  5
16
330
5
100
AcDbSymbolTableRecord
100
AcDbLinetypeTableRecord
  2
CONTINUOUS
 70
     0
  3
Solid line
 72
    65
 73
     0
 40
0.0
  0
LTYPE
  5
6E
330
5
100
AcDbSymbolTableRecord
100
AcDbLinetypeTableRecord
  2
HIDDEN
 70
     0
  3
Hidden __ __ __ __ __ __ __ __ __ __ __ __ __ __
 72
    65
 73
     2
 40
9.524999999999999
 49
6.35
 74
     0
 49
-3.175
 74
     0
  0
LTYPE
  5
6F
330
5
100
AcDbSymbolTableRecord
100
AcDbLinetypeTableRecord
  2
CENTER
 70
     0
  3
Center ____ _ ____ _ ____ _ ____ _ ____ _ ____
 72
    65
 73
     4
 40
50.8
 49
31.75
 74
     0
 49
-6.35
 74
     0
 49
6.35
 74
     0
 49
-6.35
 74
     0
  0
LTYPE
  5
70
330
5
100
AcDbSymbolTableRecord
100
AcDbLinetypeTableRecord
  2
PHANTOM
 70
     0
  3
Phantom ______  __  __  ______  __  __  ______ 
 72
    65
 73
     6
 40
63.50000000000001
 49
31.75
 74
     0
 49
-6.35
 74
     0
 49
6.35
 74
     0
 49
-6.35
 74
     0
 49
6.35
 74
     0
 49
-6.35
 74
     0
  0
LTYPE
  5
71
330
5
100
AcDbSymbolTableRecord
100
AcDbLinetypeTableRecord
  2
ACAD_ISO06W100
 70
     0
  3
ISO long-dash triple-dot ____ ... ____ ... ____
 72
    65
 73
     8
 40
36.0
 49
24.0
 74
     0
 49
-3.0
 74
     0
 49
0.0
 74
     0
 49
-3.0
 74
     0
 49
0.0
 74
     0
 49
-3.0
 74
     0
 49
0.0
 74
     0
 49
-3.0
 74
     0
  0
LTYPE
  5
72
330
5
100
AcDbSymbolTableRecord
100
AcDbLinetypeTableRecord
  2
ACAD_ISO15W100
 70
     0
  3
ISO double-dash triple-dot __ __ . . . __ __ . .
 72
    65
 73
    10
 40
39.0
 49
12.0
 74
     0
 49
-3.0
 74
     0
 49
12.0
 74
     0
 49
-3.0
 74
     0
 49
0.0
 74
     0
 49
-3.0
 74
     0
 49
0.0
 74
     0
 49
-3.0
 74
     0
 49
0.0
 74
     0
 49
-3.0
 74
     0
  0
ENDTAB
  0
TABLE
  2
LAYER
  5
2
330
0
100
AcDbSymbolTable
 70
     6
  0
LAYER
  5
10
330
2
100
AcDbSymbolTableRecord
100
AcDbLayerTableRecord
  2
0
 70
     0
 62
     7
  6
CONTINUOUS
  0
LAYER
  5
75
330
2
100
AcDbSymbolTableRecord
100
AcDbLayerTableRecord
  2
LAY-1
 70
     0
 62
     7
  6
CONTINUOUS
  0
LAYER
  5
76
330
2
100
AcDbSymbolTableRecord
100
AcDbLayerTableRecord
  2
LAY-2
 70
     0
 62
     7
  6
CONTINUOUS
  0
LAYER
  5
77
330
2
100
AcDbSymbolTableRecord
100
AcDbLayerTableRecord
  2
LAY-11
 70
     0
 62
     7
  6
CONTINUOUS
  0
LAYER
  5
78
330
2
100
AcDbSymbolTableRecord
100
AcDbLayerTableRecord
  2
LAY-255
 70
     0
 62
     7
  6
CONTINUOUS
  0
LAYER
  5
306
330
2
100
AcDbSymbolTableRecord
100
AcDbLayerTableRecord
  2
DEFPOINTS
 70
     0
 62
     7
  6
CONTINUOUS
  0
ENDTAB
  0
TABLE
  2
STYLE
  5
3
330
0
100
AcDbSymbolTable
 70
     4
  0
STYLE
  5
11
330
3
100
AcDbSymbolTableRecord
100
AcDbTextStyleTableRecord
  2
STANDARD
 70
     0
 40
0.0
 41
1.0
 50
0.0
 71
     0
 42
2.5
  3
simplex
  4
bigfont
  0
STYLE
  5
73
330
3
100
AcDbSymbolTableRecord
100
AcDbTextStyleTableRecord
  2
EXCADSTD
 70
     0
 40
0.0
 41
1.0
 50
0.0
 71
     0
 42
2.5
  3
simplex
  4
bigfont
  0
STYLE
  5
74
330
3
100
AcDbSymbolTableRecord
100
AcDbTextStyleTableRecord
  2
EXCADVERT
 70
     4
 40
0.0
 41
1.0
 50
0.0
 71
     0
 42
2.5
  3
simplex
  4
bigfont
  0
STYLE
  5
304
330
3
100
AcDbSymbolTableRecord
100
AcDbTextStyleTableRecord
  2
EXCADDIM1
 70
     0
 40
0.0
 41
0.84
 50
0.0
 71
     0
 42
2.5
  3
simplex
  4
bigfont
  0
ENDTAB
  0
TABLE
  2
VIEW
  5
6
330
0
100
AcDbSymbolTable
 70
     0
  0
ENDTAB
  0
TABLE
  2
UCS
  5
7
330
0
100
AcDbSymbolTable
 70
     0
  0
ENDTAB
  0
TABLE
  2
APPID
  5
9
330
0
100
AcDbSymbolTable
 70
     2
  0
APPID
  5
12
330
9
100
AcDbSymbolTableRecord
100
AcDbRegAppTableRecord
  2
ACAD
 70
     0
  0
APPID
  5
3A2
330
9
100
AcDbSymbolTableRecord
100
AcDbRegAppTableRecord
  2
ACAD_MLEADERVER
 70
     0
  0
ENDTAB
  0
TABLE
  2
DIMSTYLE
  5
A
330
0
100
AcDbSymbolTable
 70
     1
  0
DIMSTYLE
105
27
102
{ACAD_REACTORS
330
305
330
313
330
320
330
32D
330
33A
102
}
330
A
100
AcDbSymbolTableRecord
100
AcDbDimStyleTableRecord
  2
ISO-25
 70
     0
  3

  4

  5

  6

  7

 40
1.0
 41
2.5
 42
0.625
 43
3.75
 44
1.25
 45
0.0
 46
0.0
 47
0.0
 48
0.0
140
2.5
141
2.5
142
0.0
143
0.03937007874016
144
1.0
145
0.0
146
1.0
147
0.625
 71
     0
 72
     0
 73
     0
 74
     0
 75
     0
 76
     0
 77
     1
 78
     8
170
     0
171
     3
172
     1
173
     0
174
     0
175
     0
176
     0
177
     0
178
     0
270
     2
271
     2
272
     2
273
     2
274
     3
340
11
275
     0
280
     0
281
     0
282
     0
283
     0
284
     8
285
     0
286
     0
287
     5
288
     0
  0
ENDTAB
  0
TABLE
  2
BLOCK_RECORD
  5
1
330
0
100
AcDbSymbolTable
 70
    19
  0
BLOCK_RECORD
  5
1F
330
1
100
AcDbSymbolTableRecord
100
AcDbBlockTableRecord
  2
*MODEL_SPACE
  0
BLOCK_RECORD
  5
1B
330
1
100
AcDbSymbolTableRecord
100
AcDbBlockTableRecord
  2
*PAPER_SPACE
  0
BLOCK_RECORD
  5
79
330
1
100
AcDbSymbolTableRecord
100
AcDbBlockTableRecord
  2
EX_NORM
  0
BLOCK_RECORD
  5
7C
330
1
100
AcDbSymbolTableRecord
100
AcDbBlockTableRecord
  2
EX_BNORM
  0
BLOCK_RECORD
  5
7F
330
1
100
AcDbSymbolTableRecord
100
AcDbBlockTableRecord
  2
EX_BCIR
  0
BLOCK_RECORD
  5
82
330
1
100
AcDbSymbolTableRecord
100
AcDbBlockTableRecord
  2
EX_RCIVIL
  0
BLOCK_RECORD
  5
85
330
1
100
AcDbSymbolTableRecord
100
AcDbBlockTableRecord
  2
EX_SLANT
  0
BLOCK_RECORD
  5
88
330
1
100
AcDbSymbolTableRecord
100
AcDbBlockTableRecord
  2
EX_NONE
  0
BLOCK_RECORD
  5
8B
330
1
100
AcDbSymbolTableRecord
100
AcDbBlockTableRecord
  2
EX_CIVIL
  0
BLOCK_RECORD
  5
8E
330
1
100
AcDbSymbolTableRecord
100
AcDbBlockTableRecord
  2
EX_WCIR
  0
BLOCK_RECORD
  5
91
330
1
100
AcDbSymbolTableRecord
100
AcDbBlockTableRecord
  2
EX_WCIR2
  0
BLOCK_RECORD
  5
94
330
1
100
AcDbSymbolTableRecord
100
AcDbBlockTableRecord
  2
EX_WNORM
  0
BLOCK_RECORD
  5
97
330
1
100
AcDbSymbolTableRecord
100
AcDbBlockTableRecord
  2
EX_NNORM
  0
BLOCK_RECORD
  5
9A
330
1
100
AcDbSymbolTableRecord
100
AcDbBlockTableRecord
  2
EX_BBOX
  0
BLOCK_RECORD
  5
9D
330
1
100
AcDbSymbolTableRecord
100
AcDbBlockTableRecord
  2
EX_WBOX
  0
BLOCK_RECORD
  5
A0
330
1
100
AcDbSymbolTableRecord
100
AcDbBlockTableRecord
  2
EX_INTEGRAL
  0
BLOCK_RECORD
  5
307
330
1
100
AcDbSymbolTableRecord
100
AcDbBlockTableRecord
  2
*D15
  0
BLOCK_RECORD
  5
314
330
1
100
AcDbSymbolTableRecord
100
AcDbBlockTableRecord
  2
*D16
  0
BLOCK_RECORD
  5
321
330
1
100
AcDbSymbolTableRecord
100
AcDbBlockTableRecord
  2
*D17
  0
BLOCK_RECORD
  5
32E
330
1
100
AcDbSymbolTableRecord
100
AcDbBlockTableRecord
  2
*D18
  0
BLOCK_RECORD
  5
33B
330
1
100
AcDbSymbolTableRecord
100
AcDbBlockTableRecord
  2
*D19
  0
ENDTAB
  0
ENDSEC
  0
SECTION
  2
BLOCKS
  0
BLOCK
  5
20
330
1F
100
AcDbEntity
  8
0
100
AcDbBlockBegin
  2
*MODEL_SPACE
 70
     0
 10
0.0
 20
0.0
 30
0.0
  3
*MODEL_SPACE
  1

  0
ENDBLK
  5
21
330
1F
100
AcDbEntity
  8
0
100
AcDbBlockEnd
  0
BLOCK
  5
1C
330
1B
100
AcDbEntity
 67
     1
  8
0
100
AcDbBlockBegin
  2
*PAPER_SPACE
 70
     0
 10
0.0
 20
0.0
 30
0.0
  3
*PAPER_SPACE
  1

  0
ENDBLK
  5
1D
330
1B
100
AcDbEntity
 67
     1
  8
0
100
AcDbBlockEnd
  0
BLOCK
  5
7A
330
79
100
AcDbEntity
  8
0
100
AcDbBlockBegin
  2
EX_NORM
 70
     0
 10
0.0
 20
0.0
 30
0.0
  3
EX_NORM
  1

  0
LINE
  5
A3
330
79
100
AcDbEntity
  8
0
  6
CONTINUOUS
 62
     0
100
AcDbLine
 10
0.0
 20
0.0
 30
0.0
 11
-1.0
 21
0.0
 31
0.0
  0
LINE
  5
A4
330
79
100
AcDbEntity
  8
0
  6
CONTINUOUS
 62
     0
100
AcDbLine
 10
0.0
 20
0.0
 30
0.0
 11
-1.0
 21
0.166666667
 31
0.0
  0
LINE
  5
A5
330
79
100
AcDbEntity
  8
0
  6
CONTINUOUS
 62
     0
100
AcDbLine
 10
0.0
 20
0.0
 30
0.0
 11
-1.0
 21
-0.166666667
 31
0.0
  0
ENDBLK
  5
7B
330
79
100
AcDbEntity
  8
0
100
AcDbBlockEnd
  0
BLOCK
  5
7D
330
7C
100
AcDbEntity
  8
0
100
AcDbBlockBegin
  2
EX_BNORM
 70
     0
 10
0.0
 20
0.0
 30
0.0
  3
EX_BNORM
  1

  0
LINE
  5
A6
330
7C
100
AcDbEntity
  8
0
  6
CONTINUOUS
 62
     0
100
AcDbLine
 10
0.0
 20
0.0
 30
0.0
 11
-1.0
 21
0.0
 31
0.0
  0
LINE
  5
A7
330
7C
100
AcDbEntity
  8
0
  6
CONTINUOUS
 62
     0
100
AcDbLine
 10
0.0
 20
0.0
 30
0.0
 11
-1.0
 21
0.166666667
 31
0.0
  0
LINE
  5
A8
330
7C
100
AcDbEntity
  8
0
  6
CONTINUOUS
 62
     0
100
AcDbLine
 10
0.0
 20
0.0
 30
0.0
 11
-1.0
 21
-0.166666667
 31
0.0
  0
LINE
  5
A9
330
7C
100
AcDbEntity
  8
0
  6
CONTINUOUS
 62
     0
100
AcDbLine
 10
0.0
 20
0.0
 30
0.0
 11
-1.0
 21
0.083333333
 31
0.0
  0
LINE
  5
AA
330
7C
100
AcDbEntity
  8
0
  6
CONTINUOUS
 62
     0
100
AcDbLine
 10
0.0
 20
0.0
 30
0.0
 11
-1.0
 21
-0.083333333
 31
0.0
  0
LINE
  5
AB
330
7C
100
AcDbEntity
  8
0
  6
CONTINUOUS
 62
     0
100
AcDbLine
 10
-1.0
 20
0.166666667
 30
0.0
 11
-1.0
 21
-0.166666667
 31
0.0
  0
ENDBLK
  5
7E
330
7C
100
AcDbEntity
  8
0
100
AcDbBlockEnd
  0
BLOCK
  5
80
330
7F
100
AcDbEntity
  8
0
100
AcDbBlockBegin
  2
EX_BCIR
 70
     0
 10
0.0
 20
0.0
 30
0.0
  3
EX_BCIR
  1

  0
LINE
  5
AC
330
7F
100
AcDbEntity
  8
0
  6
CONTINUOUS
 62
     0
100
AcDbLine
 10
0.0
 20
0.0
 30
0.0
 11
-1.0
 21
0.0
 31
0.0
  0
CIRCLE
  5
AD
330
7F
100
AcDbEntity
  8
0
  6
CONTINUOUS
 62
     0
100
AcDbCircle
 10
0.0
 20
0.0
 30
0.0
 40
0.5
  0
CIRCLE
  5
AE
330
7F
100
AcDbEntity
  8
0
  6
CONTINUOUS
 62
     0
100
AcDbCircle
 10
0.0
 20
0.0
 30
0.0
 40
0.25
  0
ENDBLK
  5
81
330
7F
100
AcDbEntity
  8
0
100
AcDbBlockEnd
  0
BLOCK
  5
83
330
82
100
AcDbEntity
  8
0
100
AcDbBlockBegin
  2
EX_RCIVIL
 70
     0
 10
0.0
 20
0.0
 30
0.0
  3
EX_RCIVIL
  1

  0
LINE
  5
AF
330
82
100
AcDbEntity
  8
0
  6
CONTINUOUS
 62
     0
100
AcDbLine
 10
0.0
 20
0.0
 30
0.0
 11
-1.0
 21
0.0
 31
0.0
  0
LINE
  5
B0
330
82
100
AcDbEntity
  8
0
  6
CONTINUOUS
 62
     0
100
AcDbLine
 10
-1.0
 20
-0.25
 30
0.0
 11
0.0
 21
-0.25
 31
0.0
  0
LINE
  5
B1
330
82
100
AcDbEntity
  8
0
  6
CONTINUOUS
 62
     0
100
AcDbLine
 10
-1.0
 20
-0.125
 30
0.0
 11
0.0
 21
-0.125
 31
0.0
  0
ENDBLK
  5
84
330
82
100
AcDbEntity
  8
0
100
AcDbBlockEnd
  0
BLOCK
  5
86
330
85
100
AcDbEntity
  8
0
100
AcDbBlockBegin
  2
EX_SLANT
 70
     0
 10
0.0
 20
0.0
 30
0.0
  3
EX_SLANT
  1

  0
LINE
  5
B2
330
85
100
AcDbEntity
  8
0
  6
CONTINUOUS
 62
     0
100
AcDbLine
 10
0.0
 20
0.0
 30
0.0
 11
-1.0
 21
0.0
 31
0.0
  0
LINE
  5
B3
330
85
100
AcDbEntity
  8
0
  6
CONTINUOUS
 62
     0
100
AcDbLine
 10
0.707106781
 20
0.707106781
 30
0.0
 11
-0.707106781
 21
-0.707106781
 31
0.0
  0
ENDBLK
  5
87
330
85
100
AcDbEntity
  8
0
100
AcDbBlockEnd
  0
BLOCK
  5
89
330
88
100
AcDbEntity
  8
0
100
AcDbBlockBegin
  2
EX_NONE
 70
     0
 10
0.0
 20
0.0
 30
0.0
  3
EX_NONE
  1

  0
LINE
  5
B4
330
88
100
AcDbEntity
  8
0
  6
CONTINUOUS
 62
     0
100
AcDbLine
 10
0.0
 20
0.0
 30
0.0
 11
-1.0
 21
0.0
 31
0.0
  0
ENDBLK
  5
8A
330
88
100
AcDbEntity
  8
0
100
AcDbBlockEnd
  0
BLOCK
  5
8C
330
8B
100
AcDbEntity
  8
0
100
AcDbBlockBegin
  2
EX_CIVIL
 70
     0
 10
0.0
 20
0.0
 30
0.0
  3
EX_CIVIL
  1

  0
LINE
  5
B5
330
8B
100
AcDbEntity
  8
0
  6
CONTINUOUS
 62
     0
100
AcDbLine
 10
0.0
 20
0.0
 30
0.0
 11
-1.0
 21
0.0
 31
0.0
  0
LINE
  5
B6
330
8B
100
AcDbEntity
  8
0
  6
CONTINUOUS
 62
     0
100
AcDbLine
 10
-1.0
 20
0.25
 30
0.0
 11
0.0
 21
0.25
 31
0.0
  0
LINE
  5
B7
330
8B
100
AcDbEntity
  8
0
  6
CONTINUOUS
 62
     0
100
AcDbLine
 10
-1.0
 20
0.125
 30
0.0
 11
0.0
 21
0.125
 31
0.0
  0
ENDBLK
  5
8D
330
8B
100
AcDbEntity
  8
0
100
AcDbBlockEnd
  0
BLOCK
  5
8F
330
8E
100
AcDbEntity
  8
0
100
AcDbBlockBegin
  2
EX_WCIR
 70
     0
 10
0.0
 20
0.0
 30
0.0
  3
EX_WCIR
  1

  0
LINE
  5
B8
330
8E
100
AcDbEntity
  8
0
  6
CONTINUOUS
 62
     0
100
AcDbLine
 10
0.0
 20
0.0
 30
0.0
 11
-1.0
 21
0.0
 31
0.0
  0
CIRCLE
  5
B9
330
8E
100
AcDbEntity
  8
0
  6
CONTINUOUS
 62
     0
100
AcDbCircle
 10
0.0
 20
0.0
 30
0.0
 40
0.5
  0
ENDBLK
  5
90
330
8E
100
AcDbEntity
  8
0
100
AcDbBlockEnd
  0
BLOCK
  5
92
330
91
100
AcDbEntity
  8
0
100
AcDbBlockBegin
  2
EX_WCIR2
 70
     0
 10
0.0
 20
0.0
 30
0.0
  3
EX_WCIR2
  1

  0
LINE
  5
BA
330
91
100
AcDbEntity
  8
0
  6
CONTINUOUS
 62
     0
100
AcDbLine
 10
-0.5
 20
0.0
 30
0.0
 11
-1.0
 21
0.0
 31
0.0
  0
CIRCLE
  5
BB
330
91
100
AcDbEntity
  8
0
  6
CONTINUOUS
 62
     0
100
AcDbCircle
 10
0.0
 20
0.0
 30
0.0
 40
0.5
  0
ENDBLK
  5
93
330
91
100
AcDbEntity
  8
0
100
AcDbBlockEnd
  0
BLOCK
  5
95
330
94
100
AcDbEntity
  8
0
100
AcDbBlockBegin
  2
EX_WNORM
 70
     0
 10
0.0
 20
0.0
 30
0.0
  3
EX_WNORM
  1

  0
LINE
  5
BC
330
94
100
AcDbEntity
  8
0
  6
CONTINUOUS
 62
     0
100
AcDbLine
 10
-1.0
 20
0.0
 30
0.0
 11
-1.0
 21
0.0
 31
0.0
  0
LINE
  5
BD
330
94
100
AcDbEntity
  8
0
  6
CONTINUOUS
 62
     0
100
AcDbLine
 10
0.0
 20
0.0
 30
0.0
 11
-1.0
 21
0.166666667
 31
0.0
  0
LINE
  5
BE
330
94
100
AcDbEntity
  8
0
  6
CONTINUOUS
 62
     0
100
AcDbLine
 10
0.0
 20
0.0
 30
0.0
 11
-1.0
 21
-0.166666667
 31
0.0
  0
LINE
  5
BF
330
94
100
AcDbEntity
  8
0
  6
CONTINUOUS
 62
     0
100
AcDbLine
 10
-1.0
 20
0.166666667
 30
0.0
 11
-1.0
 21
-0.166666667
 31
0.0
  0
ENDBLK
  5
96
330
94
100
AcDbEntity
  8
0
100
AcDbBlockEnd
  0
BLOCK
  5
98
330
97
100
AcDbEntity
  8
0
100
AcDbBlockBegin
  2
EX_NNORM
 70
     0
 10
0.0
 20
0.0
 30
0.0
  3
EX_NNORM
  1

  0
LINE
  5
C0
330
97
100
AcDbEntity
  8
0
  6
CONTINUOUS
 62
     0
100
AcDbLine
 10
0.0
 20
0.0
 30
0.0
 11
-1.0
 21
0.0
 31
0.0
  0
LINE
  5
C1
330
97
100
AcDbEntity
  8
0
  6
CONTINUOUS
 62
     0
100
AcDbLine
 10
0.0
 20
0.0
 30
0.0
 11
-1.0
 21
0.166666667
 31
0.0
  0
LINE
  5
C2
330
97
100
AcDbEntity
  8
0
  6
CONTINUOUS
 62
     0
100
AcDbLine
 10
0.0
 20
0.0
 30
0.0
 11
-1.0
 21
-0.166666667
 31
0.0
  0
LINE
  5
C3
330
97
100
AcDbEntity
  8
0
  6
CONTINUOUS
 62
     0
100
AcDbLine
 10
-1.0
 20
0.166666667
 30
0.0
 11
-1.0
 21
-0.166666667
 31
0.0
  0
ENDBLK
  5
99
330
97
100
AcDbEntity
  8
0
100
AcDbBlockEnd
  0
BLOCK
  5
9B
330
9A
100
AcDbEntity
  8
0
100
AcDbBlockBegin
  2
EX_BBOX
 70
     0
 10
0.0
 20
0.0
 30
0.0
  3
EX_BBOX
  1

  0
LINE
  5
C4
330
9A
100
AcDbEntity
  8
0
  6
CONTINUOUS
 62
     0
100
AcDbLine
 10
0.0
 20
0.0
 30
0.0
 11
-1.0
 21
0.0
 31
0.0
  0
LINE
  5
C5
330
9A
100
AcDbEntity
  8
0
  6
CONTINUOUS
 62
     0
100
AcDbLine
 10
-0.5
 20
0.5
 30
0.0
 11
0.5
 21
0.5
 31
0.0
  0
LINE
  5
C6
330
9A
100
AcDbEntity
  8
0
  6
CONTINUOUS
 62
     0
100
AcDbLine
 10
0.5
 20
0.5
 30
0.0
 11
0.5
 21
-0.5
 31
0.0
  0
LINE
  5
C7
330
9A
100
AcDbEntity
  8
0
  6
CONTINUOUS
 62
     0
100
AcDbLine
 10
0.5
 20
-0.5
 30
0.0
 11
-0.5
 21
-0.5
 31
0.0
  0
LINE
  5
C8
330
9A
100
AcDbEntity
  8
0
  6
CONTINUOUS
 62
     0
100
AcDbLine
 10
-0.5
 20
-0.5
 30
0.0
 11
-0.5
 21
0.5
 31
0.0
  0
LINE
  5
C9
330
9A
100
AcDbEntity
  8
0
  6
CONTINUOUS
 62
     0
100
AcDbLine
 10
-0.25
 20
0.25
 30
0.0
 11
0.25
 21
0.25
 31
0.0
  0
LINE
  5
CA
330
9A
100
AcDbEntity
  8
0
  6
CONTINUOUS
 62
     0
100
AcDbLine
 10
0.25
 20
0.25
 30
0.0
 11
0.25
 21
-0.25
 31
0.0
  0
LINE
  5
CB
330
9A
100
AcDbEntity
  8
0
  6
CONTINUOUS
 62
     0
100
AcDbLine
 10
0.25
 20
-0.25
 30
0.0
 11
-0.25
 21
-0.25
 31
0.0
  0
LINE
  5
CC
330
9A
100
AcDbEntity
  8
0
  6
CONTINUOUS
 62
     0
100
AcDbLine
 10
-0.25
 20
-0.25
 30
0.0
 11
-0.25
 21
0.25
 31
0.0
  0
ENDBLK
  5
9C
330
9A
100
AcDbEntity
  8
0
100
AcDbBlockEnd
  0
BLOCK
  5
9E
330
9D
100
AcDbEntity
  8
0
100
AcDbBlockBegin
  2
EX_WBOX
 70
     0
 10
0.0
 20
0.0
 30
0.0
  3
EX_WBOX
  1

  0
LINE
  5
CD
330
9D
100
AcDbEntity
  8
0
  6
CONTINUOUS
 62
     0
100
AcDbLine
 10
-0.5
 20
0.0
 30
0.0
 11
-1.0
 21
0.0
 31
0.0
  0
LINE
  5
CE
330
9D
100
AcDbEntity
  8
0
  6
CONTINUOUS
 62
     0
100
AcDbLine
 10
-0.5
 20
0.5
 30
0.0
 11
0.5
 21
0.5
 31
0.0
  0
LINE
  5
CF
330
9D
100
AcDbEntity
  8
0
  6
CONTINUOUS
 62
     0
100
AcDbLine
 10
0.5
 20
0.5
 30
0.0
 11
0.5
 21
-0.5
 31
0.0
  0
LINE
  5
D0
330
9D
100
AcDbEntity
  8
0
  6
CONTINUOUS
 62
     0
100
AcDbLine
 10
0.5
 20
-0.5
 30
0.0
 11
-0.5
 21
-0.5
 31
0.0
  0
LINE
  5
D1
330
9D
100
AcDbEntity
  8
0
  6
CONTINUOUS
 62
     0
100
AcDbLine
 10
-0.5
 20
-0.5
 30
0.0
 11
-0.5
 21
0.5
 31
0.0
  0
ENDBLK
  5
9F
330
9D
100
AcDbEntity
  8
0
100
AcDbBlockEnd
  0
BLOCK
  5
A1
330
A0
100
AcDbEntity
  8
0
100
AcDbBlockBegin
  2
EX_INTEGRAL
 70
     0
 10
0.0
 20
0.0
 30
0.0
  3
EX_INTEGRAL
  1

  0
LINE
  5
D2
330
A0
100
AcDbEntity
  8
0
  6
CONTINUOUS
 62
     0
100
AcDbLine
 10
0.0
 20
0.0
 30
0.0
 11
-1.0
 21
0.0
 31
0.0
  0
ARC
  5
D3
330
A0
100
AcDbEntity
  8
0
  6
CONTINUOUS
 62
     0
100
AcDbCircle
 10
0.542115
 20
0.164992
 30
0.0
 40
0.56667
100
AcDbArc
 50
73.07249033629006
 51
196.9275130221199
  0
ARC
  5
D4
330
A0
100
AcDbEntity
  8
0
  6
CONTINUOUS
 62
     0
100
AcDbCircle
 10
-0.542115
 20
-0.164992
 30
0.0
 40
0.56667
100
AcDbArc
 50
253.0724869220464
 51
16.9275130559125
  0
ENDBLK
  5
A2
330
A0
100
AcDbEntity
  8
0
100
AcDbBlockEnd
  0
BLOCK
  5
308
330
307
100
AcDbEntity
  8
0
100
AcDbBlockBegin
  2
*D15
 70
     1
 10
0.0
 20
0.0
 30
0.0
  3
*D15
  1

  0
LINE
  5
30A
330
307
100
AcDbEntity
  8
LAY-2
  6
CONTINUOUS
 62
     4
100
AcDbLine
 10
1822.0
 20
529.8999999999801
 30
0.0
 11
1902.0
 21
529.8999999999801
 31
0.0
  0
LINE
  5
30B
330
307
100
AcDbEntity
  8
LAY-2
  6
CONTINUOUS
 62
     4
100
AcDbLine
 10
1638.5
 20
582.8999999999801
 30
0.0
 11
1902.0
 21
582.8999999999801
 31
0.0
  0
LINE
  5
30C
330
307
100
AcDbEntity
  8
LAY-2
  6
CONTINUOUS
 62
     4
100
AcDbLine
 10
1890.0
 20
553.8999999999801
 30
0.0
 11
1890.0
 21
558.8999999999801
 31
0.0
  0
INSERT
  5
30D
330
307
100
AcDbEntity
  8
LAY-2
 62
     4
100
AcDbBlockReference
  2
EX_BNORM
 10
1890.0
 20
529.8999999999801
 30
0.0
 41
24.0
 42
24.0
 43
24.0
 50
270.0
  0
INSERT
  5
30E
330
307
100
AcDbEntity
  8
LAY-2
 62
     4
100
AcDbBlockReference
  2
EX_BNORM
 10
1890.0
 20
582.8999999999801
 30
0.0
 41
24.0
 42
24.0
 43
24.0
 50
90.0
  0
MTEXT
  5
30F
330
307
100
AcDbEntity
  8
LAY-2
 62
     7
100
AcDbMText
 10
1870.0
 20
634.8999999999796
 30
0.0
 40
24.9448832
 41
0.0
 71
     5
 72
     1
  1
53
  7
EXCADDIM1
 11
0.0
 21
1.0
 31
0.0
  0
POINT
  5
310
330
307
100
AcDbEntity
  8
DEFPOINTS
 62
     0
100
AcDbPoint
 10
1810.0
 20
529.8999999999801
 30
0.0
  0
POINT
  5
311
330
307
100
AcDbEntity
  8
DEFPOINTS
 62
     0
100
AcDbPoint
 10
1626.5
 20
582.8999999999801
 30
0.0
  0
POINT
  5
312
330
307
100
AcDbEntity
  8
DEFPOINTS
 62
     0
100
AcDbPoint
 10
1890.0
 20
582.8999999999801
 30
0.0
  0
ENDBLK
  5
309
330
307
100
AcDbEntity
  8
0
100
AcDbBlockEnd
  0
BLOCK
  5
315
330
314
100
AcDbEntity
  8
0
100
AcDbBlockBegin
  2
*D16
 70
     1
 10
0.0
 20
0.0
 30
0.0
  3
*D16
  1

  0
LINE
  5
317
330
314
100
AcDbEntity
  8
LAY-2
  6
CONTINUOUS
 62
     4
100
AcDbLine
 10
733.5
 20
594.89999999998
 30
0.0
 11
733.5
 21
794.4
 31
0.0
  0
LINE
  5
318
330
314
100
AcDbEntity
  8
LAY-2
  6
CONTINUOUS
 62
     4
100
AcDbLine
 10
1626.5
 20
594.89999999998
 30
0.0
 11
1626.5
 21
794.4
 31
0.0
  0
LINE
  5
319
330
314
100
AcDbEntity
  8
LAY-2
  6
CONTINUOUS
 62
     4
100
AcDbLine
 10
757.5
 20
782.4
 30
0.0
 11
1602.5
 21
782.4
 31
0.0
  0
INSERT
  5
31A
330
314
100
AcDbEntity
  8
LAY-2
 62
     4
100
AcDbBlockReference
  2
EX_BNORM
 10
733.5
 20
782.4
 30
0.0
 41
24.0
 42
24.0
 43
24.0
 50
180.0
  0
INSERT
  5
31B
330
314
100
AcDbEntity
  8
LAY-2
 62
     4
100
AcDbBlockReference
  2
EX_BNORM
 10
1626.5
 20
782.4
 30
0.0
 41
24.0
 42
24.0
 43
24.0
  0
MTEXT
  5
31C
330
314
100
AcDbEntity
  8
LAY-2
 62
     7
100
AcDbMText
 10
1180.0
 20
802.4
 30
0.0
 40
24.9448832
 41
0.0
 71
     5
 72
     1
  1
%%c893
  7
EXCADDIM1
  0
POINT
  5
31D
330
314
100
AcDbEntity
  8
DEFPOINTS
 62
     0
100
AcDbPoint
 10
733.5
 20
582.89999999998
 30
0.0
  0
POINT
  5
31E
330
314
100
AcDbEntity
  8
DEFPOINTS
 62
     0
100
AcDbPoint
 10
1626.5
 20
582.89999999998
 30
0.0
  0
POINT
  5
31F
330
314
100
AcDbEntity
  8
DEFPOINTS
 62
     0
100
AcDbPoint
 10
1626.5
 20
782.4
 30
0.0
  0
ENDBLK
  5
316
330
314
100
AcDbEntity
  8
0
100
AcDbBlockEnd
  0
BLOCK
  5
322
330
321
100
AcDbEntity
  8
0
100
AcDbBlockBegin
  2
*D17
 70
     1
 10
0.0
 20
0.0
 30
0.0
  3
*D17
  1

  0
LINE
  5
324
330
321
100
AcDbEntity
  8
LAY-2
  6
CONTINUOUS
 62
     4
100
AcDbLine
 10
744.0
 20
594.89999999998
 30
0.0
 11
744.0
 21
738.4
 31
0.0
  0
LINE
  5
325
330
321
100
AcDbEntity
  8
LAY-2
  6
CONTINUOUS
 62
     4
100
AcDbLine
 10
1614.0
 20
594.9344036697
 30
0.0
 11
1614.0
 21
738.4
 31
0.0
  0
LINE
  5
326
330
321
100
AcDbEntity
  8
LAY-2
  6
CONTINUOUS
 62
     4
100
AcDbLine
 10
768.0
 20
726.4
 30
0.0
 11
1590.0
 21
726.4
 31
0.0
  0
INSERT
  5
327
330
321
100
AcDbEntity
  8
LAY-2
 62
     4
100
AcDbBlockReference
  2
EX_BNORM
 10
744.0
 20
726.4
 30
0.0
 41
24.0
 42
24.0
 43
24.0
 50
180.0
  0
INSERT
  5
328
330
321
100
AcDbEntity
  8
LAY-2
 62
     4
100
AcDbBlockReference
  2
EX_BNORM
 10
1614.0
 20
726.4
 30
0.0
 41
24.0
 42
24.0
 43
24.0
  0
MTEXT
  5
329
330
321
100
AcDbEntity
  8
LAY-2
 62
     7
100
AcDbMText
 10
1179.0
 20
746.4
 30
0.0
 40
24.9448832
 41
0.0
 71
     5
 72
     1
  1
%%c870
  7
EXCADDIM1
  0
POINT
  5
32A
330
321
100
AcDbEntity
  8
DEFPOINTS
 62
     0
100
AcDbPoint
 10
744.0
 20
582.89999999998
 30
0.0
  0
POINT
  5
32B
330
321
100
AcDbEntity
  8
DEFPOINTS
 62
     0
100
AcDbPoint
 10
1614.0
 20
582.9344036697
 30
0.0
  0
POINT
  5
32C
330
321
100
AcDbEntity
  8
DEFPOINTS
 62
     0
100
AcDbPoint
 10
1614.0
 20
726.4
 30
0.0
  0
ENDBLK
  5
323
330
321
100
AcDbEntity
  8
0
100
AcDbBlockEnd
  0
BLOCK
  5
32F
330
32E
100
AcDbEntity
  8
0
100
AcDbBlockBegin
  2
*D18
 70
     1
 10
0.0
 20
0.0
 30
0.0
  3
*D18
  1

  0
LINE
  5
331
330
32E
100
AcDbEntity
  8
LAY-2
  6
CONTINUOUS
 62
     4
100
AcDbLine
 10
780.0
 20
517.89999999998
 30
0.0
 11
780.0
 21
461.89999999998
 31
0.0
  0
LINE
  5
332
330
32E
100
AcDbEntity
  8
LAY-2
  6
CONTINUOUS
 62
     4
100
AcDbLine
 10
1580.0
 20
517.89999999998
 30
0.0
 11
1580.0
 21
461.89999999998
 31
0.0
  0
LINE
  5
333
330
32E
100
AcDbEntity
  8
LAY-2
  6
CONTINUOUS
 62
     4
100
AcDbLine
 10
804.0
 20
473.89999999998
 30
0.0
 11
1556.0
 21
473.89999999998
 31
0.0
  0
INSERT
  5
334
330
32E
100
AcDbEntity
  8
LAY-2
 62
     4
100
AcDbBlockReference
  2
EX_BNORM
 10
780.0
 20
473.89999999998
 30
0.0
 41
24.0
 42
24.0
 43
24.0
 50
180.0
  0
INSERT
  5
335
330
32E
100
AcDbEntity
  8
LAY-2
 62
     4
100
AcDbBlockReference
  2
EX_BNORM
 10
1580.0
 20
473.89999999998
 30
0.0
 41
24.0
 42
24.0
 43
24.0
  0
MTEXT
  5
336
330
32E
100
AcDbEntity
  8
LAY-2
 62
     7
100
AcDbMText
 10
1180.0
 20
493.89999999998
 30
0.0
 40
24.9448832
 41
0.0
 71
     5
 72
     1
  1
%%c800
  7
EXCADDIM1
  0
POINT
  5
337
330
32E
100
AcDbEntity
  8
DEFPOINTS
 62
     0
100
AcDbPoint
 10
780.0
 20
529.89999999998
 30
0.0
  0
POINT
  5
338
330
32E
100
AcDbEntity
  8
DEFPOINTS
 62
     0
100
AcDbPoint
 10
1580.0
 20
529.89999999998
 30
0.0
  0
POINT
  5
339
330
32E
100
AcDbEntity
  8
DEFPOINTS
 62
     0
100
AcDbPoint
 10
1580.0
 20
473.89999999998
 30
0.0
  0
ENDBLK
  5
330
330
32E
100
AcDbEntity
  8
0
100
AcDbBlockEnd
  0
BLOCK
  5
33C
330
33B
100
AcDbEntity
  8
0
100
AcDbBlockBegin
  2
*D19
 70
     1
 10
0.0
 20
0.0
 30
0.0
  3
*D19
  1

  0
LINE
  5
33E
330
33B
100
AcDbEntity
  8
LAY-2
  6
CONTINUOUS
 62
     4
100
AcDbLine
 10
715.0
 20
505.89999999998
 30
0.0
 11
715.0
 21
405.89999999998
 31
0.0
  0
LINE
  5
33F
330
33B
100
AcDbEntity
  8
LAY-2
  6
CONTINUOUS
 62
     4
100
AcDbLine
 10
1645.0
 20
429.6
 30
0.0
 11
1645.0
 21
429.89999999998
 31
0.0
  0
LINE
  5
340
330
33B
100
AcDbEntity
  8
LAY-2
  6
CONTINUOUS
 62
     4
100
AcDbLine
 10
739.0
 20
417.89999999998
 30
0.0
 11
1621.0
 21
417.89999999998
 31
0.0
  0
INSERT
  5
341
330
33B
100
AcDbEntity
  8
LAY-2
 62
     4
100
AcDbBlockReference
  2
EX_BNORM
 10
715.0
 20
417.89999999998
 30
0.0
 41
24.0
 42
24.0
 43
24.0
 50
180.0
  0
INSERT
  5
342
330
33B
100
AcDbEntity
  8
LAY-2
 62
     4
100
AcDbBlockReference
  2
EX_NONE
 10
1645.0
 20
417.89999999998
 30
0.0
 41
24.0
 42
24.0
 43
24.0
  0
MTEXT
  5
343
330
33B
100
AcDbEntity
  8
LAY-2
 62
     7
100
AcDbMText
 10
1180.0
 20
437.89999999998
 30
0.0
 40
24.9448832
 41
0.0
 71
     5
 72
     1
  1
□930
  7
EXCADDIM1
  0
POINT
  5
344
330
33B
100
AcDbEntity
  8
DEFPOINTS
 62
     0
100
AcDbPoint
 10
715.0
 20
517.89999999998
 30
0.0
  0
POINT
  5
345
330
33B
100
AcDbEntity
  8
DEFPOINTS
 62
     0
100
AcDbPoint
 10
1645.0
 20
417.6
 30
0.0
  0
POINT
  5
346
330
33B
100
AcDbEntity
  8
DEFPOINTS
 62
     0
100
AcDbPoint
 10
1645.0
 20
417.89999999998
 30
0.0
  0
ENDBLK
  5
33D
330
33B
100
AcDbEntity
  8
0
100
AcDbBlockEnd
  0
ENDSEC
  0
SECTION
  2
ENTITIES
  0
CIRCLE
  5
D5
330
1F
100
AcDbEntity
  8
LAY-1
  6
CONTINUOUS
 62
     7
100
AcDbCircle
 10
1180.0
 20
1501.6
 30
0.0
 40
436.0
  0
CIRCLE
  5
D6
330
1F
100
AcDbEntity
  8
LAY-1
  6
CONTINUOUS
 62
     7
100
AcDbCircle
 10
1180.0
 20
1501.6
 30
0.0
 40
446.5
  0
CIRCLE
  5
D7
330
1F
100
AcDbEntity
  8
LAY-1
  6
CONTINUOUS
 62
     7
100
AcDbCircle
 10
1180.0
 20
1501.6
 30
0.0
 40
438.5
  0
ARC
  5
D8
330
1F
100
AcDbEntity
  8
LAY-1
  6
CONTINUOUS
 62
     7
100
AcDbCircle
 10
1578.345237791513
 20
1103.254762208487
 30
0.0
 40
66.6547622084854
100
AcDbArc
 50
270.0
 51
0.0
  0
LINE
  5
D9
330
1F
100
AcDbEntity
  8
LAY-1
  6
CONTINUOUS
 62
     7
100
AcDbLine
 10
1583.050865276313
 20
1091.478066911822
 30
0.0
 11
1590.121933088179
 21
1098.549134723688
 31
0.0
  0
LINE
  5
DA
330
1F
100
AcDbEntity
  8
LAY-1
  6
CONTINUOUS
 62
     7
100
AcDbLine
 10
1499.413076449769
 20
1189.257991362097
 30
0.0
 11
1590.121933088178
 21
1098.549134723687
 31
0.0
  0
LINE
  5
DB
330
1F
100
AcDbEntity
  8
LAY-1
  6
CONTINUOUS
 62
     7
100
AcDbLine
 10
1492.342008637903
 20
1182.186923550231
 30
0.0
 11
1583.050865276313
 21
1091.478066911822
 31
0.0
  0
LINE
  5
DC
330
1F
100
AcDbEntity
  8
LAY-1
  6
CONTINUOUS
 62
     7
100
AcDbLine
 10
1499.4130764498
 20
1189.2579913621
 30
0.0
 11
1501.9551600426
 21
1189.6453277266
 31
0.0
  0
LINE
  5
DD
330
1F
100
AcDbEntity
  8
LAY-1
  6
CONTINUOUS
 62
     7
100
AcDbLine
 10
1492.3420086379
 20
1182.18692355023
 30
0.0
 11
1491.954672273399
 21
1179.644839957377
 31
0.0
  0
LINE
  5
DE
330
1F
100
AcDbEntity
  8
LAY-1
  6
CONTINUOUS
 62
     7
100
AcDbLine
 10
1499.413076449769
 20
1189.257991362097
 30
0.0
 11
1492.3420086379
 21
1182.186923550227
 31
0.0
  0
LINE
  5
DF
330
1F
100
AcDbEntity
  8
LAY-1
  6
CONTINUOUS
 62
     7
100
AcDbLine
 10
1585.69543597059
 20
1103.122706170432
 30
0.0
 11
1501.95516004262
 21
1189.645327726603
 31
0.0
  0
ARC
  5
E0
330
1F
100
AcDbEntity
  8
LAY-1
  6
CONTINUOUS
 62
     7
100
AcDbCircle
 10
1589.288266000363
 20
1106.600000000001
 30
0.0
 40
5.0
100
AcDbArc
 50
224.0637862043144
 51
270.0
  0
LINE
  5
E1
330
1F
100
AcDbEntity
  8
LAY-1
  6
CONTINUOUS
 62
     7
100
AcDbLine
 10
1578.477293829567
 20
1095.904564029411
 30
0.0
 11
1491.954672273399
 21
1179.644839957378
 31
0.0
  0
ARC
  5
E2
330
1F
100
AcDbEntity
  8
LAY-1
  6
CONTINUOUS
 62
     7
100
AcDbCircle
 10
1574.999999999997
 20
1092.311733999638
 30
0.0
 40
5.0
100
AcDbArc
 50
0.0
 51
45.93621379568557
  0
CIRCLE
  5
E3
330
1F
100
AcDbEntity
  8
LAY-1
  6
CONTINUOUS
 62
     7
100
AcDbCircle
 10
1605.0
 20
1076.6
 30
0.0
 40
12.0
  0
CIRCLE
  5
E4
330
1F
100
AcDbEntity
  8
LAY-1
  6
CONTINUOUS
 62
     7
100
AcDbCircle
 10
1605.0
 20
1076.6
 30
0.0
 40
10.0
  0
LINE
  5
E5
330
1F
100
AcDbEntity
  8
LAY-1
  6
CONTINUOUS
 62
     7
100
AcDbLine
 10
1625.0
 20
1101.600000000001
 30
0.0
 11
1589.288266000363
 21
1101.600000000001
 31
0.0
  0
ARC
  5
E6
330
1F
100
AcDbEntity
  8
LAY-1
  6
CONTINUOUS
 62
     7
100
AcDbCircle
 10
1625.0
 20
1111.600000000001
 30
0.0
 40
10.0
100
AcDbArc
 50
270.0
 51
0.0
  0
ARC
  5
E7
330
1F
100
AcDbEntity
  8
LAY-1
  6
CONTINUOUS
 62
     7
100
AcDbCircle
 10
1578.345237791512
 20
1899.945237791513
 30
0.0
 40
66.6547622084854
100
AcDbArc
 50
0.0
 51
90.00000000000001
  0
LINE
  5
E8
330
1F
100
AcDbEntity
  8
LAY-1
  6
CONTINUOUS
 62
     7
100
AcDbLine
 10
1583.050865276313
 20
1911.721933088178
 30
0.0
 11
1590.121933088178
 21
1904.650865276313
 31
0.0
  0
LINE
  5
E9
330
1F
100
AcDbEntity
  8
LAY-1
  6
CONTINUOUS
 62
     7
100
AcDbLine
 10
1499.413076449769
 20
1813.942008637904
 30
0.0
 11
1590.121933088178
 21
1904.650865276313
 31
0.0
  0
LINE
  5
EA
330
1F
100
AcDbEntity
  8
LAY-1
  6
CONTINUOUS
 62
     7
100
AcDbLine
 10
1492.342008637903
 20
1821.013076449769
 30
0.0
 11
1583.050865276313
 21
1911.721933088179
 31
0.0
  0
LINE
  5
EB
330
1F
100
AcDbEntity
  8
LAY-1
  6
CONTINUOUS
 62
     7
100
AcDbLine
 10
1499.4130764498
 20
1813.9420086379
 30
0.0
 11
1501.9551600426
 21
1813.5546722734
 31
0.0
  0
LINE
  5
EC
330
1F
100
AcDbEntity
  8
LAY-1
  6
CONTINUOUS
 62
     7
100
AcDbLine
 10
1492.3420086379
 20
1821.01307644977
 30
0.0
 11
1491.954672273399
 21
1823.555160042623
 31
0.0
  0
LINE
  5
ED
330
1F
100
AcDbEntity
  8
LAY-1
  6
CONTINUOUS
 62
     7
100
AcDbLine
 10
1499.413076449769
 20
1813.942008637904
 30
0.0
 11
1492.342008637899
 21
1821.013076449773
 31
0.0
  0
LINE
  5
EE
330
1F
100
AcDbEntity
  8
LAY-1
  6
CONTINUOUS
 62
     7
100
AcDbLine
 10
1585.69543597059
 20
1900.077293829569
 30
0.0
 11
1501.95516004262
 21
1813.554672273397
 31
0.0
  0
ARC
  5
EF
330
1F
100
AcDbEntity
  8
LAY-1
  6
CONTINUOUS
 62
     7
100
AcDbCircle
 10
1589.288266000363
 20
1896.599999999999
 30
0.0
 40
5.0
100
AcDbArc
 50
90.00000000000001
 51
135.9362137956865
  0
LINE
  5
F0
330
1F
100
AcDbEntity
  8
LAY-1
  6
CONTINUOUS
 62
     7
100
AcDbLine
 10
1578.477293829567
 20
1907.29543597059
 30
0.0
 11
1491.954672273399
 21
1823.555160042622
 31
0.0
  0
ARC
  5
F1
330
1F
100
AcDbEntity
  8
LAY-1
  6
CONTINUOUS
 62
     7
100
AcDbCircle
 10
1574.999999999997
 20
1910.888266000362
 30
0.0
 40
5.0
100
AcDbArc
 50
314.0637862043154
 51
0.0
  0
CIRCLE
  5
F2
330
1F
100
AcDbEntity
  8
LAY-1
  6
CONTINUOUS
 62
     7
100
AcDbCircle
 10
1605.0
 20
1926.6
 30
0.0
 40
12.0
  0
CIRCLE
  5
F3
330
1F
100
AcDbEntity
  8
LAY-1
  6
CONTINUOUS
 62
     7
100
AcDbCircle
 10
1605.0
 20
1926.6
 30
0.0
 40
10.0
  0
LINE
  5
F4
330
1F
100
AcDbEntity
  8
LAY-1
  6
CONTINUOUS
 62
     7
100
AcDbLine
 10
1625.0
 20
1901.599999999999
 30
0.0
 11
1589.288266000363
 21
1901.599999999999
 31
0.0
  0
ARC
  5
F5
330
1F
100
AcDbEntity
  8
LAY-1
  6
CONTINUOUS
 62
     7
100
AcDbCircle
 10
1625.0
 20
1891.599999999999
 30
0.0
 40
10.0
100
AcDbArc
 50
0.0
 51
90.00000000000001
  0
LINE
  5
F6
330
1F
100
AcDbEntity
  8
LAY-1
  6
CONTINUOUS
 62
     7
100
AcDbLine
 10
1579.999999999997
 20
1910.888266000362
 30
0.0
 11
1579.999999999997
 21
1946.6
 31
0.0
  0
ARC
  5
F7
330
1F
100
AcDbEntity
  8
LAY-1
  6
CONTINUOUS
 62
     7
100
AcDbCircle
 10
1569.999999999997
 20
1946.6
 30
0.0
 40
10.0
100
AcDbArc
 50
0.0
 51
90.00000000000001
  0
ARC
  5
F8
330
1F
100
AcDbEntity
  8
LAY-1
  6
CONTINUOUS
 62
     7
100
AcDbCircle
 10
781.6547622084881
 20
1103.254762208487
 30
0.0
 40
66.6547622084854
100
AcDbArc
 50
179.9999999999998
 51
269.9999999999997
  0
LINE
  5
F9
330
1F
100
AcDbEntity
  8
LAY-1
  6
CONTINUOUS
 62
     7
100
AcDbLine
 10
776.9491347236872
 20
1091.478066911822
 30
0.0
 11
769.8780669118219
 21
1098.549134723688
 31
0.0
  0
LINE
  5
FA
330
1F
100
AcDbEntity
  8
LAY-1
  6
CONTINUOUS
 62
     7
100
AcDbLine
 10
860.5869235502314
 20
1189.257991362097
 30
0.0
 11
769.8780669118223
 21
1098.549134723687
 31
0.0
  0
LINE
  5
FB
330
1F
100
AcDbEntity
  8
LAY-1
  6
CONTINUOUS
 62
     7
100
AcDbLine
 10
867.6579913620972
 20
1182.186923550231
 30
0.0
 11
776.9491347236876
 21
1091.478066911822
 31
0.0
  0
LINE
  5
FC
330
1F
100
AcDbEntity
  8
LAY-1
  6
CONTINUOUS
 62
     7
100
AcDbLine
 10
860.5869235502005
 20
1189.2579913621
 30
0.0
 11
858.0448399574007
 21
1189.6453277266
 31
0.0
  0
LINE
  5
FD
330
1F
100
AcDbEntity
  8
LAY-1
  6
CONTINUOUS
 62
     7
100
AcDbLine
 10
867.6579913621003
 20
1182.18692355023
 30
0.0
 11
868.045327726601
 21
1179.644839957377
 31
0.0
  0
LINE
  5
FE
330
1F
100
AcDbEntity
  8
LAY-1
  6
CONTINUOUS
 62
     7
100
AcDbLine
 10
860.5869235502314
 20
1189.257991362097
 30
0.0
 11
867.6579913621008
 21
1182.186923550227
 31
0.0
  0
LINE
  5
FF
330
1F
100
AcDbEntity
  8
LAY-1
  6
CONTINUOUS
 62
     7
100
AcDbLine
 10
774.3045640294104
 20
1103.122706170432
 30
0.0
 11
858.0448399573806
 21
1189.645327726603
 31
0.0
  0
ARC
  5
100
330
1F
100
AcDbEntity
  8
LAY-1
  6
CONTINUOUS
 62
     7
100
AcDbCircle
 10
770.7117339996375
 20
1106.600000000001
 30
0.0
 40
5.0
100
AcDbArc
 50
270.0
 51
315.9362137956865
  0
LINE
  5
101
330
1F
100
AcDbEntity
  8
LAY-1
  6
CONTINUOUS
 62
     7
100
AcDbLine
 10
781.5227061704331
 20
1095.904564029411
 30
0.0
 11
868.045327726601
 21
1179.644839957378
 31
0.0
  0
ARC
  5
102
330
1F
100
AcDbEntity
  8
LAY-1
  6
CONTINUOUS
 62
     7
100
AcDbCircle
 10
785.0000000000027
 20
1092.311733999638
 30
0.0
 40
5.0
100
AcDbArc
 50
134.0637862043153
 51
180.0
  0
CIRCLE
  5
103
330
1F
100
AcDbEntity
  8
LAY-1
  6
CONTINUOUS
 62
     7
100
AcDbCircle
 10
755.0000000000005
 20
1076.6
 30
0.0
 40
12.0
  0
CIRCLE
  5
104
330
1F
100
AcDbEntity
  8
LAY-1
  6
CONTINUOUS
 62
     7
100
AcDbCircle
 10
755.0000000000005
 20
1076.6
 30
0.0
 40
10.0
  0
LINE
  5
105
330
1F
100
AcDbEntity
  8
LAY-1
  6
CONTINUOUS
 62
     7
100
AcDbLine
 10
735.0
 20
1101.600000000001
 30
0.0
 11
770.7117339996375
 21
1101.600000000001
 31
0.0
  0
ARC
  5
106
330
1F
100
AcDbEntity
  8
LAY-1
  6
CONTINUOUS
 62
     7
100
AcDbCircle
 10
735.0
 20
1111.600000000001
 30
0.0
 40
10.0
100
AcDbArc
 50
180.0
 51
270.0
  0
LINE
  5
107
330
1F
100
AcDbEntity
  8
LAY-1
  6
CONTINUOUS
 62
     7
100
AcDbLine
 10
780.0000000000027
 20
1092.311733999638
 30
0.0
 11
780.0000000000027
 21
1056.6
 31
0.0
  0
ARC
  5
108
330
1F
100
AcDbEntity
  8
LAY-1
  6
CONTINUOUS
 62
     7
100
AcDbCircle
 10
790.0000000000027
 20
1056.6
 30
0.0
 40
10.0
100
AcDbArc
 50
180.0
 51
270.0
  0
ARC
  5
109
330
1F
100
AcDbEntity
  8
LAY-1
  6
CONTINUOUS
 62
     7
100
AcDbCircle
 10
781.6547622084881
 20
1899.945237791513
 30
0.0
 40
66.6547622084854
100
AcDbArc
 50
90.00000000000001
 51
179.9999999999998
  0
LINE
  5
10A
330
1F
100
AcDbEntity
  8
LAY-1
  6
CONTINUOUS
 62
     7
100
AcDbLine
 10
776.9491347236876
 20
1911.721933088178
 30
0.0
 11
769.8780669118223
 21
1904.650865276313
 31
0.0
  0
LINE
  5
10B
330
1F
100
AcDbEntity
  8
LAY-1
  6
CONTINUOUS
 62
     7
100
AcDbLine
 10
860.5869235502319
 20
1813.942008637904
 30
0.0
 11
769.8780669118228
 21
1904.650865276313
 31
0.0
  0
LINE
  5
10C
330
1F
100
AcDbEntity
  8
LAY-1
  6
CONTINUOUS
 62
     7
100
AcDbLine
 10
867.6579913620976
 20
1821.013076449769
 30
0.0
 11
776.9491347236881
 21
1911.721933088179
 31
0.0
  0
LINE
  5
10D
330
1F
100
AcDbEntity
  8
LAY-1
  6
CONTINUOUS
 62
     7
100
AcDbLine
 10
860.5869235502009
 20
1813.9420086379
 30
0.0
 11
858.0448399574007
 21
1813.5546722734
 31
0.0
  0
LINE
  5
10E
330
1F
100
AcDbEntity
  8
LAY-1
  6
CONTINUOUS
 62
     7
100
AcDbLine
 10
867.6579913621008
 20
1821.01307644977
 30
0.0
 11
868.0453277266015
 21
1823.555160042623
 31
0.0
  0
LINE
  5
10F
330
1F
100
AcDbEntity
  8
LAY-1
  6
CONTINUOUS
 62
     7
100
AcDbLine
 10
860.5869235502319
 20
1813.942008637904
 30
0.0
 11
867.6579913621013
 21
1821.013076449773
 31
0.0
  0
LINE
  5
110
330
1F
100
AcDbEntity
  8
LAY-1
  6
CONTINUOUS
 62
     7
100
AcDbLine
 10
774.3045640294104
 20
1900.077293829569
 30
0.0
 11
858.0448399573811
 21
1813.554672273397
 31
0.0
  0
ARC
  5
111
330
1F
100
AcDbEntity
  8
LAY-1
  6
CONTINUOUS
 62
     7
100
AcDbCircle
 10
770.7117339996375
 20
1896.599999999999
 30
0.0
 40
5.0
100
AcDbArc
 50
44.06378620431354
 51
90.00000000000001
  0
LINE
  5
112
330
1F
100
AcDbEntity
  8
LAY-1
  6
CONTINUOUS
 62
     7
100
AcDbLine
 10
781.5227061704336
 20
1907.29543597059
 30
0.0
 11
868.0453277266015
 21
1823.555160042622
 31
0.0
  0
ARC
  5
113
330
1F
100
AcDbEntity
  8
LAY-1
  6
CONTINUOUS
 62
     7
100
AcDbCircle
 10
785.0000000000032
 20
1910.888266000362
 30
0.0
 40
5.0
100
AcDbArc
 50
180.0
 51
225.9362137956847
  0
CIRCLE
  5
114
330
1F
100
AcDbEntity
  8
LAY-1
  6
CONTINUOUS
 62
     7
100
AcDbCircle
 10
755.0000000000009
 20
1926.6
 30
0.0
 40
12.0
  0
CIRCLE
  5
115
330
1F
100
AcDbEntity
  8
LAY-1
  6
CONTINUOUS
 62
     7
100
AcDbCircle
 10
755.0000000000009
 20
1926.6
 30
0.0
 40
10.0
  0
LINE
  5
116
330
1F
100
AcDbEntity
  8
LAY-1
  6
CONTINUOUS
 62
     7
100
AcDbLine
 10
735.0000000000005
 20
1901.599999999999
 30
0.0
 11
770.7117339996375
 21
1901.599999999999
 31
0.0
  0
ARC
  5
117
330
1F
100
AcDbEntity
  8
LAY-1
  6
CONTINUOUS
 62
     7
100
AcDbCircle
 10
735.0000000000005
 20
1891.599999999999
 30
0.0
 40
10.0
100
AcDbArc
 50
90.00000000000001
 51
180.0
  0
LINE
  5
118
330
1F
100
AcDbEntity
  8
LAY-1
  6
CONTINUOUS
 62
     7
100
AcDbLine
 10
780.0000000000032
 20
1910.888266000362
 30
0.0
 11
780.0000000000032
 21
1946.6
 31
0.0
  0
ARC
  5
119
330
1F
100
AcDbEntity
  8
LAY-1
  6
CONTINUOUS
 62
     7
100
AcDbCircle
 10
790.0000000000032
 20
1946.6
 30
0.0
 40
10.0
100
AcDbArc
 50
90.00000000000001
 51
180.0
  0
LINE
  5
11A
330
1F
100
AcDbEntity
  8
LAY-1
  6
CONTINUOUS
 62
     7
100
AcDbLine
 10
790.0
 20
1956.6
 30
0.0
 11
1570.0
 21
1956.6
 31
0.0
  0
LINE
  5
11B
330
1F
100
AcDbEntity
  8
LAY-1
  6
CONTINUOUS
 62
     7
100
AcDbLine
 10
1635.0
 20
1891.6
 30
0.0
 11
1635.0
 21
1111.600000000001
 31
0.0
  0
LINE
  5
11C
330
1F
100
AcDbEntity
  8
LAY-1
  6
CONTINUOUS
 62
     7
100
AcDbLine
 10
725.0
 20
1891.6
 30
0.0
 11
725.0
 21
1111.600000000001
 31
0.0
  0
LINE
  5
11D
330
1F
100
AcDbEntity
  8
LAY-1
  6
CONTINUOUS
 62
     7
100
AcDbLine
 10
1578.345237791513
 20
1036.6
 30
0.0
 11
781.6547622084881
 21
1036.6
 31
0.0
  0
LINE
  5
11E
330
1F
100
AcDbEntity
  8
LAY-1
  6
CONTINUOUS
 62
     7
100
AcDbLine
 10
715.0
 20
1899.945237791513
 30
0.0
 11
715.0
 21
1103.254762208487
 31
0.0
  0
LINE
  5
11F
330
1F
100
AcDbEntity
  8
LAY-1
  6
CONTINUOUS
 62
     7
100
AcDbLine
 10
1645.0
 20
1899.945237791513
 30
0.0
 11
1645.0
 21
1103.254762208487
 31
0.0
  0
LINE
  5
120
330
1F
100
AcDbEntity
  8
LAY-1
  6
CONTINUOUS
 62
     7
100
AcDbLine
 10
1578.345237791512
 20
1966.6
 30
0.0
 11
781.6547622084881
 21
1966.6
 31
0.0
  0
ARC
  5
121
330
1F
100
AcDbEntity
  8
LAY-1
  6
CONTINUOUS
 62
     7
100
AcDbCircle
 10
1180.0
 20
1501.6
 30
0.0
 40
448.297716513563
100
AcDbArc
 50
315.9038165769422
 51
44.09618342305784
  0
ARC
  5
122
330
1F
100
AcDbEntity
  8
LAY-1
  6
CONTINUOUS
 62
     7
100
AcDbCircle
 10
1180.0
 20
1501.6
 30
0.0
 40
448.297716513563
100
AcDbArc
 50
45.90381657694223
 51
134.0961834230576
  0
ARC
  5
123
330
1F
100
AcDbEntity
  8
LAY-1
  6
CONTINUOUS
 62
     7
100
AcDbCircle
 10
1180.0
 20
1501.6
 30
0.0
 40
448.297716513563
100
AcDbArc
 50
225.9038165769422
 51
314.0961834230579
  0
ARC
  5
124
330
1F
100
AcDbEntity
  8
LAY-1
  6
CONTINUOUS
 62
     7
100
AcDbCircle
 10
1180.0
 20
1501.6
 30
0.0
 40
448.297716513563
100
AcDbArc
 50
135.9038165769421
 51
224.0961834230579
  0
TEXT
  5
125
330
1F
100
AcDbEntity
  8
LAY-1
  6
CONTINUOUS
 62
     7
100
AcDbText
 10
1095.786313747724
 20
1103.090464955374
 30
0.0
 40
9.3543312
  1
SF
 50
348.7970880892001
 41
0.626768
  7
EXCADSTD
100
AcDbText
  0
LINE
  5
126
330
1F
100
AcDbEntity
  8
LAY-1
  6
CONTINUOUS
 62
     7
100
AcDbLine
 10
1099.662868458789
 20
1099.682910380347
 30
0.0
 11
1089.59389292921
 21
1109.322839414564
 31
0.0
  0
LINE
  5
127
330
1F
100
AcDbEntity
  8
LAY-1
  6
CONTINUOUS
 62
     7
100
AcDbLine
 10
1102.577131541211
 20
1114.397089619653
 30
0.0
 11
1089.59389292921
 21
1109.322839414564
 31
0.0
  0
LINE
  5
128
330
1F
100
AcDbEntity
  8
LAY-1
  6
CONTINUOUS
 62
     7
100
AcDbLine
 10
1102.577131541211
 20
1114.397089619653
 30
0.0
 11
1112.64610707079
 21
1104.757160585436
 31
0.0
  0
LINE
  5
129
330
1F
100
AcDbEntity
  8
LAY-1
  6
CONTINUOUS
 62
     7
100
AcDbLine
 10
1099.662868458789
 20
1099.682910380347
 30
0.0
 11
1112.64610707079
 21
1104.757160585436
 31
0.0
  0
TEXT
  5
12A
330
1F
100
AcDbEntity
  8
LAY-1
  6
CONTINUOUS
 62
     7
100
AcDbText
 10
1119.220989481209
 20
1098.070840148894
 30
0.0
 40
11.692914
  1
Ｆ
 50
352.5313920595001
 41
1.2
  7
EXCADSTD
100
AcDbText
  0
TEXT
  5
12B
330
1F
100
AcDbEntity
  8
LAY-1
  6
CONTINUOUS
 62
     7
100
AcDbText
 10
1136.974267169893
 20
1095.840297718153
 30
0.0
 40
11.692914
  1
Ｕ
 50
355.0209280396001
 41
1.2
  7
EXCADSTD
100
AcDbText
  0
TEXT
  5
12C
330
1F
100
AcDbEntity
  8
LAY-1
  6
CONTINUOUS
 62
     7
100
AcDbText
 10
1154.727215901827
 20
1094.565979410218
 30
0.0
 40
11.692914
  1
Ｋ
 50
357.5104640198001
 41
1.2
  7
EXCADSTD
100
AcDbText
  0
TEXT
  5
12D
330
1F
100
AcDbEntity
  8
LAY-1
  6
CONTINUOUS
 62
     7
100
AcDbText
 10
1172.64
 20
1093.8478745
 30
0.0
 40
11.692914
  1
Ｕ
 41
1.2
  7
EXCADSTD
100
AcDbText
  0
TEXT
  5
12E
330
1F
100
AcDbEntity
  8
LAY-1
  6
CONTINUOUS
 62
     7
100
AcDbText
 10
1190.152784098173
 20
1093.685979410218
 30
0.0
 40
11.692914
  1
Ｎ
 50
2.489535980199979
 41
1.2
  7
EXCADSTD
100
AcDbText
  0
TEXT
  5
12F
330
1F
100
AcDbEntity
  8
LAY-1
  6
CONTINUOUS
 62
     7
100
AcDbText
 10
1207.745732830107
 20
1094.560297718153
 30
0.0
 40
11.692914
  1
Ｉ
 50
4.979071960400017
 41
1.2
  7
EXCADSTD
100
AcDbText
  0
TEXT
  5
130
330
1F
100
AcDbEntity
  8
LAY-1
  6
CONTINUOUS
 62
     7
100
AcDbText
 10
1225.819010518791
 20
1095.830840148894
 30
0.0
 40
11.692914
  1
Ｓ
 50
7.468607940500015
 41
1.2
  7
EXCADSTD
100
AcDbText
  0
TEXT
  5
131
330
1F
100
AcDbEntity
  8
LAY-1
  6
CONTINUOUS
 62
     7
100
AcDbText
 10
1243.812780866251
 20
1098.617624555093
 30
0.0
 40
11.692914
  1
Ｈ
 50
9.958143920699996
 41
1.2
  7
EXCADSTD
100
AcDbText
  0
TEXT
  5
132
330
1F
100
AcDbEntity
  8
LAY-1
  6
CONTINUOUS
 62
     7
100
AcDbText
 10
1260.607206644548
 20
1101.400675883267
 30
0.0
 40
11.692914
  1
Ｉ
 50
12.44767990090003
 41
1.2
  7
EXCADSTD
100
AcDbText
  0
TEXT
  5
133
330
1F
100
AcDbEntity
  8
LAY-1
  6
CONTINUOUS
 62
     7
100
AcDbText
 10
1100.683809410893
 20
1889.072608840466
 30
0.0
 40
11.692914
  1
８
 50
10.28909888529997
 41
1.2
  7
EXCADSTD
100
AcDbText
  0
TEXT
  5
134
330
1F
100
AcDbEntity
  8
LAY-1
  6
CONTINUOUS
 62
     7
100
AcDbText
 10
1118.153337429896
 20
1892.241870541531
 30
0.0
 40
11.692914
  1
０
 50
7.716824163499987
 41
1.2
  7
EXCADSTD
100
AcDbText
  0
TEXT
  5
135
330
1F
100
AcDbEntity
  8
LAY-1
  6
CONTINUOUS
 62
     7
100
AcDbText
 10
1135.747498365283
 20
1894.623913763838
 30
0.0
 40
11.692914
  1
０
 50
5.144549442800018
 41
1.2
  7
EXCADSTD
100
AcDbText
  0
TEXT
  5
136
330
1F
100
AcDbEntity
  8
LAY-1
  6
CONTINUOUS
 62
     7
100
AcDbText
 10
1153.430836600066
 20
1896.213938232612
 30
0.0
 40
11.692914
  1
－
 50
2.572274721300028
 41
1.2
  7
EXCADSTD
100
AcDbText
  0
TEXT
  5
137
330
1F
100
AcDbEntity
  8
LAY-1
  6
CONTINUOUS
 62
     7
100
AcDbText
 10
1171.1677168076
 20
1897.0087397426
 30
0.0
 40
11.692914
  1
１
 41
1.2
  7
EXCADSTD
100
AcDbText
  0
TEXT
  5
138
330
1F
100
AcDbEntity
  8
LAY-1
  6
CONTINUOUS
 62
     7
100
AcDbText
 10
1188.922395763833
 20
1897.006716616012
 30
0.0
 40
11.692914
  1
５
 50
357.4277252787001
 41
1.2
  7
EXCADSTD
100
AcDbText
  0
TEXT
  5
139
330
1F
100
AcDbEntity
  8
LAY-1
  6
CONTINUOUS
 62
     7
100
AcDbText
 10
1206.659094377217
 20
1896.207872929838
 30
0.0
 40
11.692914
  1
０
 50
354.8554505572
 41
1.2
  7
EXCADSTD
100
AcDbText
  0
TEXT
  5
13A
330
1F
100
AcDbEntity
  8
LAY-1
  6
CONTINUOUS
 62
     7
100
AcDbText
 10
1224.342069789604
 20
1894.613818507631
 30
0.0
 40
11.692914
  1
０
 50
352.2831758365
 41
1.2
  7
EXCADSTD
100
AcDbText
  0
TEXT
  5
13B
330
1F
100
AcDbEntity
  8
LAY-1
  6
CONTINUOUS
 62
     7
100
AcDbText
 10
1241.935687405607
 20
1892.227765675766
 30
0.0
 40
11.692914
  1
Ｋ
 50
349.7109011147001
 41
1.2
  7
EXCADSTD
100
AcDbText
  0
LINE
  5
13C
330
1F
100
AcDbEntity
  8
LAY-1
  6
CONTINUOUS
 62
     7
100
AcDbLine
 10
715.92897665377
 20
529.8999999999794
 30
0.0
 11
1810.0
 21
529.8999999999799
 31
0.0
  0
LINE
  5
13D
330
1F
100
AcDbEntity
  8
LAY-1
  6
CONTINUOUS
 62
     7
100
AcDbLine
 10
1055.0
 20
567.8999999999802
 30
0.0
 11
1305.0
 21
567.89999999998
 31
0.0
  0
LINE
  5
13E
330
1F
100
AcDbEntity
  8
LAY-1
  6
CONTINUOUS
 62
     7
100
AcDbLine
 10
1055.0
 20
567.8999999999802
 30
0.0
 11
920.6872160183461
 21
567.8999999999801
 31
0.0
  0
LINE
  5
13F
330
1F
100
AcDbEntity
  8
LAY-1
  6
CONTINUOUS
 62
     7
100
AcDbLine
 10
1305.0
 20
567.8999999999801
 30
0.0
 11
1579.12
 21
567.8999999999797
 31
0.0
  0
LINE
  5
140
330
1F
100
AcDbEntity
  8
LAY-1
  6
CONTINUOUS
 62
     7
100
AcDbLine
 10
1309.765502181082
 20
572.6655021810611
 30
0.0
 11
1596.279215894577
 21
567.7369405919396
 31
0.0
  0
LINE
  5
141
330
1F
100
AcDbEntity
  8
LAY-1
  6
CONTINUOUS
 62
     7
100
AcDbLine
 10
1180.0
 20
590.4000000000001
 30
0.0
 11
1616.0
 21
582.8999999999799
 31
0.0
  0
LINE
  5
142
330
1F
100
AcDbEntity
  8
LAY-1
  6
CONTINUOUS
 62
     7
100
AcDbLine
 10
1309.765502181082
 20
572.6655021810611
 30
0.0
 11
1305.0
 21
567.8999999999801
 31
0.0
  0
ARC
  5
143
330
1F
100
AcDbEntity
  8
LAY-1
  6
CONTINUOUS
 62
     7
100
AcDbCircle
 10
1596.230415311044
 20
564.8999999999797
 30
0.0
 40
3.0
100
AcDbArc
 50
4.573921259903651
 51
90.00000000000001
  0
LINE
  5
144
330
1F
100
AcDbEntity
  8
LAY-1
  6
CONTINUOUS
 62
     7
100
AcDbLine
 10
1599.220861146653
 20
565.1392356668288
 30
0.0
 11
1601.0
 21
542.8999999999797
 31
0.0
  0
LINE
  5
145
330
1F
100
AcDbEntity
  8
LAY-1
  6
CONTINUOUS
 62
     7
100
AcDbLine
 10
1601.0
 20
542.8999999999797
 30
0.0
 11
1610.0
 21
542.8999999999799
 31
0.0
  0
ARC
  5
146
330
1F
100
AcDbEntity
  8
LAY-1
  6
CONTINUOUS
 62
     7
100
AcDbCircle
 10
1613.862238406803
 20
568.8999999999799
 30
0.0
 40
2.0
100
AcDbArc
 50
90.00000000000001
 51
175.9143832200224
  0
LINE
  5
147
330
1F
100
AcDbEntity
  8
LAY-1
  6
CONTINUOUS
 62
     7
100
AcDbLine
 10
1614.0
 20
570.89999999998
 30
0.0
 11
1613.862238406803
 21
570.8999999999796
 31
0.0
  0
LINE
  5
148
330
1F
100
AcDbEntity
  8
LAY-1
  6
CONTINUOUS
 62
     7
100
AcDbLine
 10
1611.867321007142
 20
569.0424940999558
 30
0.0
 11
1610.0
 21
542.8999999999799
 31
0.0
  0
LINE
  5
149
330
1F
100
AcDbEntity
  8
LAY-1
  6
CONTINUOUS
 62
     7
100
AcDbLine
 10
1614.0
 20
570.89999999998
 30
0.0
 11
1616.0
 21
582.8999999999799
 31
0.0
  0
LINE
  5
14A
330
1F
100
AcDbEntity
  8
LAY-1
  6
CONTINUOUS
 62
     7
100
AcDbLine
 10
838.2460035500144
 20
567.8999999999801
 30
0.0
 11
763.769584688956
 21
567.8999999999802
 31
0.0
  0
ARC
  5
14B
330
1F
100
AcDbEntity
  8
LAY-1
  6
CONTINUOUS
 62
     7
100
AcDbCircle
 10
925.0800356341595
 20
565.5118760871717
 30
0.0
 40
5.0
100
AcDbArc
 50
90.98549534145042
 51
172.1244807716639
  0
ARC
  5
14C
330
1F
100
AcDbEntity
  8
LAY-1
  6
CONTINUOUS
 62
     7
100
AcDbCircle
 10
880.0
 20
571.74761689733
 30
0.0
 40
40.50927461769253
100
AcDbArc
 50
189.8465099112386
 51
352.1244807716633
  0
LINE
  5
14D
330
1F
100
AcDbEntity
  8
LAY-1
  6
CONTINUOUS
 62
     7
100
AcDbLine
 10
1050.234497818919
 20
572.6655021810612
 30
0.0
 11
924.9940391822154
 21
570.5111364934971
 31
0.0
  0
LINE
  5
14E
330
1F
100
AcDbEntity
  8
LAY-1
  6
CONTINUOUS
 62
     7
100
AcDbLine
 10
1050.234497818919
 20
572.6655021810612
 30
0.0
 11
1055.0
 21
567.8999999999802
 31
0.0
  0
LINE
  5
14F
330
1F
100
AcDbEntity
  8
LAY-1
  6
CONTINUOUS
 62
     7
100
AcDbLine
 10
835.0751075738558
 20
568.964365880964
 30
0.0
 11
773.1999710261616
 21
567.8999999999801
 31
0.0
  0
ARC
  5
150
330
1F
100
AcDbEntity
  8
LAY-1
  6
CONTINUOUS
 62
     7
100
AcDbCircle
 10
835.1611040258099
 20
563.9651054746387
 30
0.0
 40
5.0
100
AcDbArc
 50
9.84650991123836
 51
90.98549534145306
  0
ARC
  5
151
330
1F
100
AcDbEntity
  8
LAY-1
  6
CONTINUOUS
 62
     7
100
AcDbCircle
 10
880.0
 20
571.74761689733
 30
0.0
 40
32.50954709550642
100
AcDbArc
 50
168.4811662023749
 51
11.51883379762532
  0
LINE
  5
152
330
1F
100
AcDbEntity
  8
LAY-1
  6
CONTINUOUS
 62
     7
100
AcDbLine
 10
917.999999999997
 20
585.893119266043
 30
0.0
 11
917.9999999999973
 21
578.23944954127
 31
0.0
  0
LINE
  5
153
330
1F
100
AcDbEntity
  8
LAY-1
  6
CONTINUOUS
 62
     7
100
AcDbLine
 10
911.854776114078
 20
578.2394495412702
 30
0.0
 11
918.0
 21
578.2394495412702
 31
0.0
  0
LINE
  5
154
330
1F
100
AcDbEntity
  8
LAY-1
  6
CONTINUOUS
 62
     7
100
AcDbLine
 10
848.145223885922
 20
578.2394495412702
 30
0.0
 11
842.0
 21
578.2394495412702
 31
0.0
  0
LINE
  5
155
330
1F
100
AcDbEntity
  8
LAY-1
  6
CONTINUOUS
 62
     7
100
AcDbLine
 10
842.0000000000027
 20
584.5857798164984
 30
0.0
 11
842.0000000000027
 21
578.2394495412701
 31
0.0
  0
ARC
  5
156
330
1F
100
AcDbEntity
  8
LAY-1
  6
CONTINUOUS
 62
     7
100
AcDbCircle
 10
879.4999999999973
 20
567.7394495412668
 30
0.0
 40
5.5
100
AcDbArc
 50
179.9999999999999
 51
270.0000000000002
  0
LINE
  5
157
330
1F
100
AcDbEntity
  8
LAY-1
  6
CONTINUOUS
 62
     7
100
AcDbLine
 10
873.9999999999973
 20
578.2394495412702
 30
0.0
 11
873.9999999999973
 21
567.7394495412669
 31
0.0
  0
LINE
  5
158
330
1F
100
AcDbEntity
  8
LAY-1
  6
CONTINUOUS
 62
     7
100
AcDbLine
 10
879.4999999999973
 20
562.2394495412669
 30
0.0
 11
880.5000000000036
 21
562.2394495412667
 31
0.0
  0
ARC
  5
159
330
1F
100
AcDbEntity
  8
LAY-1
  6
CONTINUOUS
 62
     7
100
AcDbCircle
 10
880.5000000000036
 20
567.7394495412669
 30
0.0
 40
5.5
100
AcDbArc
 50
270.0000000000002
 51
0.0
  0
LINE
  5
15A
330
1F
100
AcDbEntity
  8
LAY-1
  6
CONTINUOUS
 62
     7
100
AcDbLine
 10
886.0000000000036
 20
578.2394495412702
 30
0.0
 11
886.0000000000036
 21
567.7394495412667
 31
0.0
  0
LINE
  5
15B
330
1F
100
AcDbEntity
  8
LAY-1
  6
CONTINUOUS
 62
     7
100
AcDbLine
 10
886.0000000000036
 20
578.2394495412702
 30
0.0
 11
873.9999999999973
 21
578.2394495412702
 31
0.0
  0
ARC
  5
15C
330
1F
100
AcDbEntity
  8
LAY-1
  6
CONTINUOUS
 62
     7
100
AcDbCircle
 10
763.7695846889565
 20
564.8999999999803
 30
0.0
 40
3.0
100
AcDbArc
 50
90.00000000000001
 51
175.4260787400985
  0
LINE
  5
15D
330
1F
100
AcDbEntity
  8
LAY-1
  6
CONTINUOUS
 62
     7
100
AcDbLine
 10
760.7791388533478
 20
565.1392356668289
 30
0.0
 11
759.0
 21
542.8999999999801
 31
0.0
  0
LINE
  5
15E
330
1F
100
AcDbEntity
  8
LAY-1
  6
CONTINUOUS
 62
     7
100
AcDbLine
 10
759.0
 20
542.8999999999801
 30
0.0
 11
750.0
 21
542.89999999998
 31
0.0
  0
ARC
  5
15F
330
1F
100
AcDbEntity
  8
LAY-1
  6
CONTINUOUS
 62
     7
100
AcDbCircle
 10
746.1377615931974
 20
568.8999999999802
 30
0.0
 40
2.0
100
AcDbArc
 50
4.0856167799744
 51
90.00000000000001
  0
LINE
  5
160
330
1F
100
AcDbEntity
  8
LAY-1
  6
CONTINUOUS
 62
     7
100
AcDbLine
 10
746.0
 20
570.8999999999801
 30
0.0
 11
746.1377615931974
 21
570.8999999999801
 31
0.0
  0
LINE
  5
161
330
1F
100
AcDbEntity
  8
LAY-1
  6
CONTINUOUS
 62
     7
100
AcDbLine
 10
748.1326789928589
 20
569.0424940999559
 30
0.0
 11
750.0
 21
542.89999999998
 31
0.0
  0
LINE
  5
162
330
1F
100
AcDbEntity
  8
LAY-1
  6
CONTINUOUS
 62
     7
100
AcDbLine
 10
746.0
 20
570.8999999999801
 30
0.0
 11
744.0
 21
582.8999999999802
 31
0.0
  0
LINE
  5
163
330
1F
100
AcDbEntity
  8
LAY-1
  6
CONTINUOUS
 62
     7
100
AcDbLine
 10
1180.0
 20
590.4
 30
0.0
 11
744.0
 21
582.8999999999802
 31
0.0
  0
ARC
  5
164
330
1F
100
AcDbEntity
  8
LAY-1
  6
CONTINUOUS
 62
     7
100
AcDbCircle
 10
1738.24
 20
541.8999999999799
 30
0.0
 40
4.0
100
AcDbArc
 50
270.0000000000002
 51
0.0
  0
LINE
  5
165
330
1F
100
AcDbEntity
  8
LAY-1
  6
CONTINUOUS
 62
     7
100
AcDbLine
 10
1738.24
 20
537.8999999999799
 30
0.0
 11
1632.293909399903
 21
537.8999999999801
 31
0.0
  0
LINE
  5
166
330
1F
100
AcDbEntity
  8
LAY-1
  6
CONTINUOUS
 62
     7
100
AcDbLine
 10
1742.24
 20
542.8999999999799
 30
0.0
 11
1742.24
 21
541.8999999999799
 31
0.0
  0
ARC
  5
167
330
1F
100
AcDbEntity
  8
LAY-1
  6
CONTINUOUS
 62
     7
100
AcDbCircle
 10
1632.293909399903
 20
541.8999999999801
 30
0.0
 40
4.0
100
AcDbArc
 50
182.5000000000003
 51
270.0000000000002
  0
LINE
  5
168
330
1F
100
AcDbEntity
  8
LAY-1
  6
CONTINUOUS
 62
     7
100
AcDbLine
 10
1626.5
 20
582.8999999999799
 30
0.0
 11
1628.297716513575
 21
541.7255224505185
 31
0.0
  0
LINE
  5
169
330
1F
100
AcDbEntity
  8
LAY-1
  6
CONTINUOUS
 62
     7
100
AcDbLine
 10
1626.7183047145
 20
577.89999999998
 30
0.0
 11
1755.0
 21
542.8999999999797
 31
0.0
  0
ARC
  5
16A
330
1F
100
AcDbEntity
  8
LAY-1
  6
CONTINUOUS
 62
     7
100
AcDbCircle
 10
1808.073968860738
 20
541.8999999999799
 30
0.0
 40
1.0
100
AcDbArc
 50
4.398705354996561
 51
90.00000000000001
  0
LINE
  5
16B
330
1F
100
AcDbEntity
  8
LAY-1
  6
CONTINUOUS
 62
     7
100
AcDbLine
 10
1742.24
 20
542.8999999999799
 30
0.0
 11
1808.073968860738
 21
542.89999999998
 31
0.0
  0
LINE
  5
16C
330
1F
100
AcDbEntity
  8
LAY-1
  6
CONTINUOUS
 62
     7
100
AcDbLine
 10
1810.0
 20
529.8999999999799
 30
0.0
 11
1809.07102334624
 21
541.9766964988646
 31
0.0
  0
LINE
  5
16D
330
1F
100
AcDbEntity
  8
LAY-1
  6
HIDDEN
 62
     7
100
AcDbLine
 10
1588.686786753167
 20
544.7953280874884
 30
0.0
 11
1588.899160681543
 21
540.7429921312516
 31
0.0
  0
ARC
  5
16E
330
1F
100
AcDbEntity
  8
LAY-1
  6
HIDDEN
 62
     7
100
AcDbCircle
 10
1591.895049285807
 20
540.8999999999808
 30
0.0
 40
3.0
100
AcDbArc
 50
183.0000000000057
 51
270.0000000000002
  0
LINE
  5
16F
330
1F
100
AcDbEntity
  8
LAY-1
  6
HIDDEN
 62
     7
100
AcDbLine
 10
1591.895049285807
 20
537.8999999999808
 30
0.0
 11
1612.365777320284
 21
537.8999999999809
 31
0.0
  0
LINE
  5
170
330
1F
100
AcDbEntity
  8
LAY-1
  6
CONTINUOUS
 62
     7
100
AcDbLine
 10
1588.0
 20
557.8999999999799
 30
0.0
 11
1588.686786753167
 21
544.7953280874884
 31
0.0
  0
LINE
  5
171
330
1F
100
AcDbEntity
  8
LAY-1
  6
CONTINUOUS
 62
     7
100
AcDbLine
 10
1582.0
 20
557.8999999999797
 30
0.0
 11
1580.0
 21
529.8999999999797
 31
0.0
  0
ARC
  5
172
330
1F
100
AcDbEntity
  8
LAY-1
  6
CONTINUOUS
 62
     7
100
AcDbCircle
 10
1590.684045822677
 20
544.8999999999797
 30
0.0
 40
2.0
100
AcDbArc
 50
183.0000000000055
 51
270.0000000000002
  0
LINE
  5
173
330
1F
100
AcDbEntity
  8
LAY-1
  6
CONTINUOUS
 62
     7
100
AcDbLine
 10
1613.683676346066
 20
542.8999999999799
 30
0.0
 11
1590.684045822677
 21
542.8999999999799
 31
0.0
  0
LINE
  5
174
330
1F
100
AcDbEntity
  8
LAY-1
  6
CONTINUOUS
 62
     7
100
AcDbLine
 10
1582.0
 20
557.8999999999817
 30
0.0
 11
1588.0
 21
557.8999999999818
 31
0.0
  0
LINE
  5
175
330
1F
100
AcDbEntity
  8
LAY-1
  6
HIDDEN
 62
     7
100
AcDbLine
 10
1615.67751101353
 20
544.7430818085177
 30
0.0
 11
1615.356529321483
 21
540.6646227127969
 31
0.0
  0
ARC
  5
176
330
1F
100
AcDbEntity
  8
LAY-1
  6
CONTINUOUS
 62
     7
100
AcDbCircle
 10
1613.683676346066
 20
544.8999999999799
 30
0.0
 40
2.0
100
AcDbArc
 50
270.0000000000002
 51
355.5000000000029
  0
LINE
  5
177
330
1F
100
AcDbEntity
  8
LAY-1
  6
CONTINUOUS
 62
     7
100
AcDbLine
 10
1617.499999999998
 20
567.8999999999799
 30
0.0
 11
1615.677511013532
 21
544.7430818085242
 31
0.0
  0
ARC
  5
178
330
1F
100
AcDbEntity
  8
LAY-1
  6
HIDDEN
 62
     7
100
AcDbCircle
 10
1612.365777320284
 20
540.8999999999809
 30
0.0
 40
3.0
100
AcDbArc
 50
270.0000000000002
 51
355.4999999999943
  0
LINE
  5
179
330
1F
100
AcDbEntity
  8
LAY-1
  6
CONTINUOUS
 62
     7
100
AcDbLine
 10
1617.499999999998
 20
567.8999999999799
 30
0.0
 11
1618.5
 21
567.8999999999797
 31
0.0
  0
LINE
  5
17A
330
1F
100
AcDbEntity
  8
LAY-1
  6
CONTINUOUS
 62
     7
100
AcDbLine
 10
1618.5
 20
582.8999999999797
 30
0.0
 11
1618.5
 21
567.8999999999797
 31
0.0
  0
LINE
  5
17B
330
1F
100
AcDbEntity
  8
LAY-1
  6
CONTINUOUS
 62
     7
100
AcDbLine
 10
1626.5
 20
582.8999999999799
 30
0.0
 11
1618.5
 21
582.8999999999797
 31
0.0
  0
LINE
  5
17C
330
1F
100
AcDbEntity
  8
LAY-1
  6
HIDDEN
 62
     7
100
AcDbLine
 10
771.3132132468331
 20
544.7953280874885
 30
0.0
 11
771.1008393184575
 21
540.7429921312519
 31
0.0
  0
ARC
  5
17D
330
1F
100
AcDbEntity
  8
LAY-1
  6
HIDDEN
 62
     7
100
AcDbCircle
 10
768.1049507141938
 20
540.899999999981
 30
0.0
 40
3.0
100
AcDbArc
 50
270.0000000000002
 51
356.9999999999945
  0
LINE
  5
17E
330
1F
100
AcDbEntity
  8
LAY-1
  6
HIDDEN
 62
     7
100
AcDbLine
 10
768.1049507141938
 20
537.899999999981
 30
0.0
 11
747.6342226797165
 21
537.8999999999809
 31
0.0
  0
LINE
  5
17F
330
1F
100
AcDbEntity
  8
LAY-1
  6
CONTINUOUS
 62
     7
100
AcDbLine
 10
772.0
 20
557.8999999999802
 30
0.0
 11
771.3132132468331
 21
544.7953280874885
 31
0.0
  0
LINE
  5
180
330
1F
100
AcDbEntity
  8
LAY-1
  6
CONTINUOUS
 62
     7
100
AcDbLine
 10
778.0
 20
557.8999999999801
 30
0.0
 11
780.0
 21
529.8999999999801
 31
0.0
  0
ARC
  5
181
330
1F
100
AcDbEntity
  8
LAY-1
  6
CONTINUOUS
 62
     7
100
AcDbCircle
 10
769.3159541773239
 20
544.8999999999801
 30
0.0
 40
2.0
100
AcDbArc
 50
270.0000000000002
 51
356.9999999999981
  0
LINE
  5
182
330
1F
100
AcDbEntity
  8
LAY-1
  6
CONTINUOUS
 62
     7
100
AcDbLine
 10
746.3163236539349
 20
542.8999999999802
 30
0.0
 11
769.3159541773239
 21
542.89999999998
 31
0.0
  0
LINE
  5
183
330
1F
100
AcDbEntity
  8
LAY-1
  6
CONTINUOUS
 62
     7
100
AcDbLine
 10
778.0
 20
557.8999999999819
 30
0.0
 11
772.0
 21
557.8999999999821
 31
0.0
  0
LINE
  5
184
330
1F
100
AcDbEntity
  8
LAY-1
  6
HIDDEN
 62
     7
100
AcDbLine
 10
744.32248898647
 20
544.7430818085178
 30
0.0
 11
744.6434706785171
 21
540.6646227127972
 31
0.0
  0
ARC
  5
185
330
1F
100
AcDbEntity
  8
LAY-1
  6
CONTINUOUS
 62
     7
100
AcDbCircle
 10
746.3163236539349
 20
544.8999999999801
 30
0.0
 40
2.0
100
AcDbArc
 50
184.5000000000005
 51
270.0000000000002
  0
LINE
  5
186
330
1F
100
AcDbEntity
  8
LAY-1
  6
CONTINUOUS
 62
     7
100
AcDbLine
 10
742.5000000000023
 20
567.8999999999804
 30
0.0
 11
744.3224889864687
 21
544.7430818085244
 31
0.0
  0
ARC
  5
187
330
1F
100
AcDbEntity
  8
LAY-1
  6
HIDDEN
 62
     7
100
AcDbCircle
 10
747.6342226797165
 20
540.8999999999809
 30
0.0
 40
3.0
100
AcDbArc
 50
184.5000000000015
 51
270.0000000000002
  0
LINE
  5
188
330
1F
100
AcDbEntity
  8
LAY-1
  6
CONTINUOUS
 62
     7
100
AcDbLine
 10
742.5000000000023
 20
567.89999999998
 30
0.0
 11
741.5
 21
567.8999999999801
 31
0.0
  0
LINE
  5
189
330
1F
100
AcDbEntity
  8
LAY-1
  6
CONTINUOUS
 62
     7
100
AcDbLine
 10
741.5
 20
582.8999999999801
 30
0.0
 11
741.5
 21
567.8999999999801
 31
0.0
  0
LINE
  5
18A
330
1F
100
AcDbEntity
  8
LAY-1
  6
CONTINUOUS
 62
     7
100
AcDbLine
 10
733.5
 20
582.8999999999801
 30
0.0
 11
741.5
 21
582.8999999999801
 31
0.0
  0
ARC
  5
18B
330
1F
100
AcDbEntity
  8
LAY-1
  6
CONTINUOUS
 62
     7
100
AcDbCircle
 10
727.8370734288233
 20
544.8999999999804
 30
0.0
 40
4.0
100
AcDbArc
 50
270.0000000000002
 51
357.4999999999997
  0
LINE
  5
18C
330
1F
100
AcDbEntity
  8
LAY-1
  6
CONTINUOUS
 62
     7
100
AcDbLine
 10
727.8370734288233
 20
540.8999999999803
 30
0.0
 11
725.9999999999859
 21
540.8999999999804
 31
0.0
  0
LINE
  5
18D
330
1F
100
AcDbEntity
  8
LAY-1
  6
CONTINUOUS
 62
     7
100
AcDbLine
 10
733.5
 20
582.8999999999801
 30
0.0
 11
731.8332663151505
 21
544.7255224505191
 31
0.0
  0
ARC
  5
18E
330
1F
100
AcDbEntity
  8
LAY-1
  6
CONTINUOUS
 62
     7
100
AcDbCircle
 10
716.9260311392618
 20
541.8999999999799
 30
0.0
 40
1.0
100
AcDbArc
 50
90.00000000000001
 51
175.6012946450025
  0
LINE
  5
18F
330
1F
100
AcDbEntity
  8
LAY-1
  6
CONTINUOUS
 62
     7
100
AcDbLine
 10
715.9289766537604
 20
541.9766964988646
 30
0.0
 11
715.0
 21
529.8999999999801
 31
0.0
  0
LINE
  5
190
330
1F
100
AcDbEntity
  8
LAY-1
  6
CONTINUOUS
 62
     7
100
AcDbLine
 10
723.9999999999859
 20
542.8999999999799
 30
0.0
 11
716.9260311392618
 21
542.89999999998
 31
0.0
  0
ARC
  5
191
330
1F
100
AcDbEntity
  8
LAY-1
  6
CONTINUOUS
 62
     7
100
AcDbCircle
 10
723.9999999999859
 20
541.8999999999799
 30
0.0
 40
1.0
100
AcDbArc
 50
0.0
 51
90.00000000000001
  0
ARC
  5
192
330
1F
100
AcDbEntity
  8
LAY-1
  6
CONTINUOUS
 62
     7
100
AcDbCircle
 10
725.9999999999864
 20
541.8999999999805
 30
0.0
 40
1.0
100
AcDbArc
 50
179.9999999999999
 51
270.0000000000002
  0
LINE
  5
193
330
1F
100
AcDbEntity
  8
LAY-1
  6
CONTINUOUS
 62
     7
100
AcDbLine
 10
1791.04076400859
 20
529.9000000000052
 30
0.0
 11
1793.04076400859
 21
542.9000000000071
 31
0.0
  0
LINE
  5
194
330
1F
100
AcDbEntity
  8
LAY-1
  6
CONTINUOUS
 62
     7
100
AcDbLine
 10
1771.040764008538
 20
529.9000000000053
 30
0.0
 11
1769.040764008537
 21
542.9000000000071
 31
0.0
  0
LINE
  5
195
330
1F
100
AcDbEntity
  8
LAY-1
  6
CONTINUOUS
 62
     7
100
AcDbLine
 10
1418.999999999996
 20
1070.6
 30
0.0
 11
1418.999999999996
 21
1056.6
 31
0.0
  0
LINE
  5
196
330
1F
100
AcDbEntity
  8
LAY-1
  6
CONTINUOUS
 62
     7
100
AcDbLine
 10
790.0
 20
1046.6
 30
0.0
 11
1408.999999999996
 21
1046.600000000015
 31
0.0
  0
ARC
  5
197
330
1F
100
AcDbEntity
  8
LAY-1
  6
CONTINUOUS
 62
     7
100
AcDbCircle
 10
1408.999999999996
 20
1056.6
 30
0.0
 40
10.0
100
AcDbArc
 50
270.0
 51
0.0
  0
LINE
  5
198
330
1F
100
AcDbEntity
  8
LAY-1
  6
CONTINUOUS
 62
     7
100
AcDbLine
 10
1579.999999999997
 20
1092.3117339996
 30
0.0
 11
1579.999999999997
 21
1080.6
 31
0.0
  0
LINE
  5
199
330
1F
100
AcDbEntity
  8
LAY-1
  6
CONTINUOUS
 62
     7
100
AcDbLine
 10
1418.999999999996
 20
1070.6
 30
0.0
 11
1569.999999999997
 21
1070.6
 31
0.0
  0
ARC
  5
19A
330
1F
100
AcDbEntity
  8
LAY-1
  6
CONTINUOUS
 62
     7
100
AcDbCircle
 10
1569.999999999997
 20
1080.6
 30
0.0
 40
10.0
100
AcDbArc
 50
270.0
 51
0.0
  0
LINE
  5
19B
330
1F
100
AcDbEntity
  8
LAY-1
  6
CONTINUOUS
 62
     7
100
AcDbLine
 10
1409.809703885728
 20
1704.539646200539
 30
0.0
 11
1382.939646200639
 21
1731.409703885628
 31
0.0
  0
LINE
  5
19C
330
1F
100
AcDbEntity
  8
LAY-1
  6
CONTINUOUS
 62
     7
100
AcDbLine
 10
1401.324422511489
 20
1696.0543648263
 30
0.0
 11
1374.4543648264
 21
1722.924422511389
 31
0.0
  0
LINE
  5
19D
330
1F
100
AcDbEntity
  8
LAY-1
  6
CONTINUOUS
 62
     7
100
AcDbLine
 10
1401.677975902082
 20
1750.148033587071
 30
0.0
 11
1428.548033587171
 21
1723.277975901982
 31
0.0
  0
LINE
  5
19E
330
1F
100
AcDbEntity
  8
LAY-1
  6
CONTINUOUS
 62
     7
100
AcDbLine
 10
1355.716035124956
 20
1704.186092809946
 30
0.0
 11
1382.586092810045
 21
1677.316035124857
 31
0.0
  0
LINE
  5
19F
330
1F
100
AcDbEntity
  8
LAY-1
  6
CONTINUOUS
 62
     7
100
AcDbLine
 10
1432.437120883697
 20
1727.167063198508
 30
0.0
 11
1405.567063198608
 21
1754.037120883597
 31
0.0
  0
LINE
  5
1A0
330
1F
100
AcDbEntity
  8
LAY-1
  6
CONTINUOUS
 62
     7
100
AcDbLine
 10
1378.697005513519
 20
1673.426947828331
 30
0.0
 11
1351.826947828431
 21
1700.29700551342
 31
0.0
  0
LINE
  5
1A1
330
1F
100
AcDbEntity
  8
LAY-1
  6
CONTINUOUS
 62
     7
100
AcDbLine
 10
1351.826947828431
 20
1700.29700551342
 30
0.0
 11
1405.567063198608
 21
1754.037120883597
 31
0.0
  0
LINE
  5
1A2
330
1F
100
AcDbEntity
  8
LAY-1
  6
CONTINUOUS
 62
     7
100
AcDbLine
 10
1378.697005513519
 20
1673.426947828331
 30
0.0
 11
1432.437120883697
 21
1727.167063198508
 31
0.0
  0
LINE
  5
1A3
330
1F
100
AcDbEntity
  8
LAY-1
  6
CONTINUOUS
 62
     7
100
AcDbLine
 10
1409.809703885728
 20
1298.660353799461
 30
0.0
 11
1382.939646200639
 21
1271.790296114372
 31
0.0
  0
LINE
  5
1A4
330
1F
100
AcDbEntity
  8
LAY-1
  6
CONTINUOUS
 62
     7
100
AcDbLine
 10
1401.324422511489
 20
1307.1456351737
 30
0.0
 11
1374.4543648264
 21
1280.275577488611
 31
0.0
  0
LINE
  5
1A5
330
1F
100
AcDbEntity
  8
LAY-1
  6
CONTINUOUS
 62
     7
100
AcDbLine
 10
1401.677975902082
 20
1253.051966412929
 30
0.0
 11
1428.548033587171
 21
1279.922024098018
 31
0.0
  0
LINE
  5
1A6
330
1F
100
AcDbEntity
  8
LAY-1
  6
CONTINUOUS
 62
     7
100
AcDbLine
 10
1355.716035124956
 20
1299.013907190054
 30
0.0
 11
1382.586092810045
 21
1325.883964875143
 31
0.0
  0
LINE
  5
1A7
330
1F
100
AcDbEntity
  8
LAY-1
  6
CONTINUOUS
 62
     7
100
AcDbLine
 10
1432.437120883697
 20
1276.032936801492
 30
0.0
 11
1405.567063198608
 21
1249.162879116403
 31
0.0
  0
LINE
  5
1A8
330
1F
100
AcDbEntity
  8
LAY-1
  6
CONTINUOUS
 62
     7
100
AcDbLine
 10
1378.697005513519
 20
1329.773052171669
 30
0.0
 11
1351.826947828431
 21
1302.90299448658
 31
0.0
  0
LINE
  5
1A9
330
1F
100
AcDbEntity
  8
LAY-1
  6
CONTINUOUS
 62
     7
100
AcDbLine
 10
1351.826947828431
 20
1302.90299448658
 30
0.0
 11
1405.567063198608
 21
1249.162879116403
 31
0.0
  0
LINE
  5
1AA
330
1F
100
AcDbEntity
  8
LAY-1
  6
CONTINUOUS
 62
     7
100
AcDbLine
 10
1378.697005513519
 20
1329.773052171669
 30
0.0
 11
1432.437120883697
 21
1276.032936801492
 31
0.0
  0
LINE
  5
1AB
330
1F
100
AcDbEntity
  8
LAY-1
  6
CONTINUOUS
 62
     7
100
AcDbLine
 10
950.1902961142732
 20
1704.539646200539
 30
0.0
 11
977.060353799362
 21
1731.409703885628
 31
0.0
  0
LINE
  5
1AC
330
1F
100
AcDbEntity
  8
LAY-1
  6
CONTINUOUS
 62
     7
100
AcDbLine
 10
958.6755774885119
 20
1696.0543648263
 30
0.0
 11
985.5456351736007
 21
1722.924422511389
 31
0.0
  0
LINE
  5
1AD
330
1F
100
AcDbEntity
  8
LAY-1
  6
CONTINUOUS
 62
     7
100
AcDbLine
 10
958.3220240979185
 20
1750.148033587071
 30
0.0
 11
931.4519664128297
 21
1723.277975901982
 31
0.0
  0
LINE
  5
1AE
330
1F
100
AcDbEntity
  8
LAY-1
  6
CONTINUOUS
 62
     7
100
AcDbLine
 10
1004.283964875045
 20
1704.186092809946
 30
0.0
 11
977.4139071899558
 21
1677.316035124857
 31
0.0
  0
LINE
  5
1AF
330
1F
100
AcDbEntity
  8
LAY-1
  6
CONTINUOUS
 62
     7
100
AcDbLine
 10
927.562879116304
 20
1727.167063198508
 30
0.0
 11
954.4329368013928
 21
1754.037120883597
 31
0.0
  0
LINE
  5
1B0
330
1F
100
AcDbEntity
  8
LAY-1
  6
CONTINUOUS
 62
     7
100
AcDbLine
 10
981.3029944864816
 20
1673.426947828331
 30
0.0
 11
1008.17305217157
 21
1700.29700551342
 31
0.0
  0
LINE
  5
1B1
330
1F
100
AcDbEntity
  8
LAY-1
  6
CONTINUOUS
 62
     7
100
AcDbLine
 10
1008.17305217157
 20
1700.29700551342
 30
0.0
 11
954.4329368013928
 21
1754.037120883597
 31
0.0
  0
LINE
  5
1B2
330
1F
100
AcDbEntity
  8
LAY-1
  6
CONTINUOUS
 62
     7
100
AcDbLine
 10
981.3029944864816
 20
1673.426947828331
 30
0.0
 11
927.562879116304
 21
1727.167063198508
 31
0.0
  0
LINE
  5
1B3
330
1F
100
AcDbEntity
  8
LAY-1
  6
CONTINUOUS
 62
     7
100
AcDbLine
 10
950.190296114273
 20
1298.660353799461
 30
0.0
 11
977.0603537993618
 21
1271.790296114372
 31
0.0
  0
LINE
  5
1B4
330
1F
100
AcDbEntity
  8
LAY-1
  6
CONTINUOUS
 62
     7
100
AcDbLine
 10
958.6755774885116
 20
1307.1456351737
 30
0.0
 11
985.5456351736004
 21
1280.275577488611
 31
0.0
  0
LINE
  5
1B5
330
1F
100
AcDbEntity
  8
LAY-1
  6
CONTINUOUS
 62
     7
100
AcDbLine
 10
958.3220240979183
 20
1253.051966412929
 30
0.0
 11
931.4519664128295
 21
1279.922024098018
 31
0.0
  0
LINE
  5
1B6
330
1F
100
AcDbEntity
  8
LAY-1
  6
CONTINUOUS
 62
     7
100
AcDbLine
 10
1004.283964875044
 20
1299.013907190054
 30
0.0
 11
977.4139071899556
 21
1325.883964875143
 31
0.0
  0
LINE
  5
1B7
330
1F
100
AcDbEntity
  8
LAY-1
  6
CONTINUOUS
 62
     7
100
AcDbLine
 10
927.5628791163037
 20
1276.032936801492
 30
0.0
 11
954.4329368013925
 21
1249.162879116403
 31
0.0
  0
LINE
  5
1B8
330
1F
100
AcDbEntity
  8
LAY-1
  6
CONTINUOUS
 62
     7
100
AcDbLine
 10
981.3029944864813
 20
1329.773052171669
 30
0.0
 11
1008.17305217157
 21
1302.90299448658
 31
0.0
  0
LINE
  5
1B9
330
1F
100
AcDbEntity
  8
LAY-1
  6
CONTINUOUS
 62
     7
100
AcDbLine
 10
1008.17305217157
 20
1302.90299448658
 30
0.0
 11
954.4329368013925
 21
1249.162879116403
 31
0.0
  0
LINE
  5
1BA
330
1F
100
AcDbEntity
  8
LAY-1
  6
CONTINUOUS
 62
     7
100
AcDbLine
 10
981.3029944864813
 20
1329.773052171669
 30
0.0
 11
927.5628791163037
 21
1276.032936801492
 31
0.0
  0
LINE
  5
1BB
330
1F
100
AcDbEntity
  8
LAY-1
  6
CONTINUOUS
 62
     7
100
AcDbLine
 10
831.7999999999997
 20
1434.199999999999
 30
0.0
 11
801.7999999999997
 21
1434.199999999999
 31
0.0
  0
LINE
  5
1BC
330
1F
100
AcDbEntity
  8
LAY-1
  6
CONTINUOUS
 62
     7
100
AcDbLine
 10
831.7999999999997
 20
1483.200000000001
 30
0.0
 11
801.7999999999997
 21
1483.200000000001
 31
0.0
  0
LINE
  5
1BD
330
1F
100
AcDbEntity
  8
LAY-1
  6
CONTINUOUS
 62
     7
100
AcDbLine
 10
812.7999999999979
 20
1445.200000000002
 30
0.0
 11
831.7999999999997
 21
1445.200000000002
 31
0.0
  0
LINE
  5
1BE
330
1F
100
AcDbEntity
  8
LAY-1
  6
CONTINUOUS
 62
     7
100
AcDbLine
 10
801.7999999999997
 20
1472.200000000003
 30
0.0
 11
820.800000000002
 21
1472.200000000003
 31
0.0
  0
LINE
  5
1BF
330
1F
100
AcDbEntity
  8
LAY-1
  6
CONTINUOUS
 62
     7
100
AcDbLine
 10
801.7999999999997
 20
1464.200000000003
 30
0.0
 11
812.7999999999979
 21
1464.200000000003
 31
0.0
  0
LINE
  5
1C0
330
1F
100
AcDbEntity
  8
LAY-1
  6
CONTINUOUS
 62
     7
100
AcDbLine
 10
812.7999999999979
 20
1464.200000000003
 30
0.0
 11
812.7999999999979
 21
1445.200000000002
 31
0.0
  0
LINE
  5
1C1
330
1F
100
AcDbEntity
  8
LAY-1
  6
CONTINUOUS
 62
     7
100
AcDbLine
 10
831.7999999999997
 20
1453.199999999995
 30
0.0
 11
820.7999999999997
 21
1453.199999999995
 31
0.0
  0
LINE
  5
1C2
330
1F
100
AcDbEntity
  8
LAY-1
  6
CONTINUOUS
 62
     7
100
AcDbLine
 10
820.800000000002
 20
1472.200000000003
 30
0.0
 11
820.800000000002
 21
1453.199999999995
 31
0.0
  0
LINE
  5
1C3
330
1F
100
AcDbEntity
  8
LAY-1
  6
CONTINUOUS
 62
     7
100
AcDbLine
 10
831.7999999999997
 20
1483.200000000001
 30
0.0
 11
831.7999999999997
 21
1453.199999999995
 31
0.0
  0
LINE
  5
1C4
330
1F
100
AcDbEntity
  8
LAY-1
  6
CONTINUOUS
 62
     7
100
AcDbLine
 10
831.7999999999997
 20
1445.200000000002
 30
0.0
 11
831.7999999999997
 21
1434.199999999999
 31
0.0
  0
LINE
  5
1C5
330
1F
100
AcDbEntity
  8
LAY-1
  6
CONTINUOUS
 62
     7
100
AcDbLine
 10
801.7999999999997
 20
1483.200000000001
 30
0.0
 11
801.7999999999997
 21
1472.200000000003
 31
0.0
  0
LINE
  5
1C6
330
1F
100
AcDbEntity
  8
LAY-1
  6
CONTINUOUS
 62
     7
100
AcDbLine
 10
801.7999999999997
 20
1464.200000000003
 30
0.0
 11
801.7999999999997
 21
1434.199999999999
 31
0.0
  0
LINE
  5
1C7
330
1F
100
AcDbEntity
  8
LAY-1
  6
CONTINUOUS
 62
     7
100
AcDbLine
 10
869.7999999999997
 20
1434.199999999999
 30
0.0
 11
839.7999999999997
 21
1434.199999999999
 31
0.0
  0
LINE
  5
1C8
330
1F
100
AcDbEntity
  8
LAY-1
  6
CONTINUOUS
 62
     7
100
AcDbLine
 10
869.7999999999997
 20
1483.200000000001
 30
0.0
 11
839.7999999999997
 21
1483.200000000001
 31
0.0
  0
LINE
  5
1C9
330
1F
100
AcDbEntity
  8
LAY-1
  6
CONTINUOUS
 62
     7
100
AcDbLine
 10
850.7999999999979
 20
1445.200000000002
 30
0.0
 11
869.7999999999997
 21
1445.200000000002
 31
0.0
  0
LINE
  5
1CA
330
1F
100
AcDbEntity
  8
LAY-1
  6
CONTINUOUS
 62
     7
100
AcDbLine
 10
839.7999999999997
 20
1472.200000000003
 30
0.0
 11
858.800000000002
 21
1472.200000000003
 31
0.0
  0
LINE
  5
1CB
330
1F
100
AcDbEntity
  8
LAY-1
  6
CONTINUOUS
 62
     7
100
AcDbLine
 10
839.7999999999997
 20
1464.200000000003
 30
0.0
 11
850.7999999999979
 21
1464.200000000003
 31
0.0
  0
LINE
  5
1CC
330
1F
100
AcDbEntity
  8
LAY-1
  6
CONTINUOUS
 62
     7
100
AcDbLine
 10
850.7999999999979
 20
1464.200000000003
 30
0.0
 11
850.7999999999979
 21
1445.200000000002
 31
0.0
  0
LINE
  5
1CD
330
1F
100
AcDbEntity
  8
LAY-1
  6
CONTINUOUS
 62
     7
100
AcDbLine
 10
869.7999999999997
 20
1453.199999999995
 30
0.0
 11
858.7999999999997
 21
1453.199999999995
 31
0.0
  0
LINE
  5
1CE
330
1F
100
AcDbEntity
  8
LAY-1
  6
CONTINUOUS
 62
     7
100
AcDbLine
 10
858.800000000002
 20
1472.200000000003
 30
0.0
 11
858.800000000002
 21
1453.199999999995
 31
0.0
  0
LINE
  5
1CF
330
1F
100
AcDbEntity
  8
LAY-1
  6
CONTINUOUS
 62
     7
100
AcDbLine
 10
869.7999999999997
 20
1483.200000000001
 30
0.0
 11
869.7999999999997
 21
1453.199999999995
 31
0.0
  0
LINE
  5
1D0
330
1F
100
AcDbEntity
  8
LAY-1
  6
CONTINUOUS
 62
     7
100
AcDbLine
 10
869.7999999999997
 20
1445.200000000002
 30
0.0
 11
869.7999999999997
 21
1434.199999999999
 31
0.0
  0
LINE
  5
1D1
330
1F
100
AcDbEntity
  8
LAY-1
  6
CONTINUOUS
 62
     7
100
AcDbLine
 10
839.7999999999997
 20
1483.200000000001
 30
0.0
 11
839.7999999999997
 21
1472.200000000003
 31
0.0
  0
LINE
  5
1D2
330
1F
100
AcDbEntity
  8
LAY-1
  6
CONTINUOUS
 62
     7
100
AcDbLine
 10
839.7999999999997
 20
1464.200000000003
 30
0.0
 11
839.7999999999997
 21
1434.199999999999
 31
0.0
  0
LINE
  5
1D3
330
1F
100
AcDbEntity
  8
LAY-1
  6
CONTINUOUS
 62
     7
100
AcDbLine
 10
869.7999999999997
 20
1377.199999999999
 30
0.0
 11
839.7999999999997
 21
1377.199999999999
 31
0.0
  0
LINE
  5
1D4
330
1F
100
AcDbEntity
  8
LAY-1
  6
CONTINUOUS
 62
     7
100
AcDbLine
 10
869.7999999999997
 20
1426.200000000001
 30
0.0
 11
839.7999999999997
 21
1426.200000000001
 31
0.0
  0
LINE
  5
1D5
330
1F
100
AcDbEntity
  8
LAY-1
  6
CONTINUOUS
 62
     7
100
AcDbLine
 10
850.7999999999979
 20
1388.200000000002
 30
0.0
 11
869.7999999999997
 21
1388.200000000002
 31
0.0
  0
LINE
  5
1D6
330
1F
100
AcDbEntity
  8
LAY-1
  6
CONTINUOUS
 62
     7
100
AcDbLine
 10
839.7999999999997
 20
1415.200000000003
 30
0.0
 11
858.800000000002
 21
1415.200000000003
 31
0.0
  0
LINE
  5
1D7
330
1F
100
AcDbEntity
  8
LAY-1
  6
CONTINUOUS
 62
     7
100
AcDbLine
 10
839.7999999999997
 20
1407.200000000003
 30
0.0
 11
850.7999999999979
 21
1407.200000000003
 31
0.0
  0
LINE
  5
1D8
330
1F
100
AcDbEntity
  8
LAY-1
  6
CONTINUOUS
 62
     7
100
AcDbLine
 10
850.7999999999979
 20
1407.200000000003
 30
0.0
 11
850.7999999999979
 21
1388.200000000002
 31
0.0
  0
LINE
  5
1D9
330
1F
100
AcDbEntity
  8
LAY-1
  6
CONTINUOUS
 62
     7
100
AcDbLine
 10
869.7999999999997
 20
1396.199999999995
 30
0.0
 11
858.7999999999997
 21
1396.199999999995
 31
0.0
  0
LINE
  5
1DA
330
1F
100
AcDbEntity
  8
LAY-1
  6
CONTINUOUS
 62
     7
100
AcDbLine
 10
858.800000000002
 20
1415.200000000003
 30
0.0
 11
858.800000000002
 21
1396.199999999995
 31
0.0
  0
LINE
  5
1DB
330
1F
100
AcDbEntity
  8
LAY-1
  6
CONTINUOUS
 62
     7
100
AcDbLine
 10
869.7999999999997
 20
1426.200000000001
 30
0.0
 11
869.7999999999997
 21
1396.199999999995
 31
0.0
  0
LINE
  5
1DC
330
1F
100
AcDbEntity
  8
LAY-1
  6
CONTINUOUS
 62
     7
100
AcDbLine
 10
869.7999999999997
 20
1388.200000000002
 30
0.0
 11
869.7999999999997
 21
1377.199999999999
 31
0.0
  0
LINE
  5
1DD
330
1F
100
AcDbEntity
  8
LAY-1
  6
CONTINUOUS
 62
     7
100
AcDbLine
 10
839.7999999999997
 20
1426.200000000001
 30
0.0
 11
839.7999999999997
 21
1415.200000000003
 31
0.0
  0
LINE
  5
1DE
330
1F
100
AcDbEntity
  8
LAY-1
  6
CONTINUOUS
 62
     7
100
AcDbLine
 10
839.7999999999997
 20
1407.200000000003
 30
0.0
 11
839.7999999999997
 21
1377.199999999999
 31
0.0
  0
LINE
  5
1DF
330
1F
100
AcDbEntity
  8
LAY-1
  6
CONTINUOUS
 62
     7
100
AcDbLine
 10
831.7999999999997
 20
1377.199999999999
 30
0.0
 11
801.7999999999997
 21
1377.199999999999
 31
0.0
  0
LINE
  5
1E0
330
1F
100
AcDbEntity
  8
LAY-1
  6
CONTINUOUS
 62
     7
100
AcDbLine
 10
831.7999999999997
 20
1426.200000000001
 30
0.0
 11
801.7999999999997
 21
1426.200000000001
 31
0.0
  0
LINE
  5
1E1
330
1F
100
AcDbEntity
  8
LAY-1
  6
CONTINUOUS
 62
     7
100
AcDbLine
 10
812.7999999999979
 20
1388.200000000002
 30
0.0
 11
831.7999999999997
 21
1388.200000000002
 31
0.0
  0
LINE
  5
1E2
330
1F
100
AcDbEntity
  8
LAY-1
  6
CONTINUOUS
 62
     7
100
AcDbLine
 10
801.7999999999997
 20
1415.200000000003
 30
0.0
 11
820.800000000002
 21
1415.200000000003
 31
0.0
  0
LINE
  5
1E3
330
1F
100
AcDbEntity
  8
LAY-1
  6
CONTINUOUS
 62
     7
100
AcDbLine
 10
801.7999999999997
 20
1407.200000000003
 30
0.0
 11
812.7999999999979
 21
1407.200000000003
 31
0.0
  0
LINE
  5
1E4
330
1F
100
AcDbEntity
  8
LAY-1
  6
CONTINUOUS
 62
     7
100
AcDbLine
 10
812.7999999999979
 20
1407.200000000003
 30
0.0
 11
812.7999999999979
 21
1388.200000000002
 31
0.0
  0
LINE
  5
1E5
330
1F
100
AcDbEntity
  8
LAY-1
  6
CONTINUOUS
 62
     7
100
AcDbLine
 10
831.7999999999997
 20
1396.199999999995
 30
0.0
 11
820.7999999999997
 21
1396.199999999995
 31
0.0
  0
LINE
  5
1E6
330
1F
100
AcDbEntity
  8
LAY-1
  6
CONTINUOUS
 62
     7
100
AcDbLine
 10
820.800000000002
 20
1415.200000000003
 30
0.0
 11
820.800000000002
 21
1396.199999999995
 31
0.0
  0
LINE
  5
1E7
330
1F
100
AcDbEntity
  8
LAY-1
  6
CONTINUOUS
 62
     7
100
AcDbLine
 10
831.7999999999997
 20
1426.200000000001
 30
0.0
 11
831.7999999999997
 21
1396.199999999995
 31
0.0
  0
LINE
  5
1E8
330
1F
100
AcDbEntity
  8
LAY-1
  6
CONTINUOUS
 62
     7
100
AcDbLine
 10
831.7999999999997
 20
1388.200000000002
 30
0.0
 11
831.7999999999997
 21
1377.199999999999
 31
0.0
  0
LINE
  5
1E9
330
1F
100
AcDbEntity
  8
LAY-1
  6
CONTINUOUS
 62
     7
100
AcDbLine
 10
801.7999999999997
 20
1426.200000000001
 30
0.0
 11
801.7999999999997
 21
1415.200000000003
 31
0.0
  0
LINE
  5
1EA
330
1F
100
AcDbEntity
  8
LAY-1
  6
CONTINUOUS
 62
     7
100
AcDbLine
 10
801.7999999999997
 20
1407.200000000003
 30
0.0
 11
801.7999999999997
 21
1377.199999999999
 31
0.0
  0
LINE
  5
1EB
330
1F
100
AcDbEntity
  8
LAY-1
  6
CONTINUOUS
 62
     7
100
AcDbLine
 10
907.7999999999997
 20
1377.199999999999
 30
0.0
 11
877.8000000000002
 21
1377.199999999999
 31
0.0
  0
LINE
  5
1EC
330
1F
100
AcDbEntity
  8
LAY-1
  6
CONTINUOUS
 62
     7
100
AcDbLine
 10
907.7999999999997
 20
1426.200000000001
 30
0.0
 11
877.8000000000002
 21
1426.200000000001
 31
0.0
  0
LINE
  5
1ED
330
1F
100
AcDbEntity
  8
LAY-1
  6
CONTINUOUS
 62
     7
100
AcDbLine
 10
888.7999999999979
 20
1388.200000000002
 30
0.0
 11
907.7999999999997
 21
1388.200000000002
 31
0.0
  0
LINE
  5
1EE
330
1F
100
AcDbEntity
  8
LAY-1
  6
CONTINUOUS
 62
     7
100
AcDbLine
 10
877.8000000000002
 20
1415.200000000003
 30
0.0
 11
896.800000000002
 21
1415.200000000003
 31
0.0
  0
LINE
  5
1EF
330
1F
100
AcDbEntity
  8
LAY-1
  6
CONTINUOUS
 62
     7
100
AcDbLine
 10
877.8000000000002
 20
1407.200000000003
 30
0.0
 11
888.7999999999979
 21
1407.200000000003
 31
0.0
  0
LINE
  5
1F0
330
1F
100
AcDbEntity
  8
LAY-1
  6
CONTINUOUS
 62
     7
100
AcDbLine
 10
888.7999999999979
 20
1407.200000000003
 30
0.0
 11
888.7999999999979
 21
1388.200000000002
 31
0.0
  0
LINE
  5
1F1
330
1F
100
AcDbEntity
  8
LAY-1
  6
CONTINUOUS
 62
     7
100
AcDbLine
 10
907.7999999999997
 20
1396.199999999995
 30
0.0
 11
896.7999999999997
 21
1396.199999999995
 31
0.0
  0
LINE
  5
1F2
330
1F
100
AcDbEntity
  8
LAY-1
  6
CONTINUOUS
 62
     7
100
AcDbLine
 10
896.800000000002
 20
1415.200000000003
 30
0.0
 11
896.800000000002
 21
1396.199999999995
 31
0.0
  0
LINE
  5
1F3
330
1F
100
AcDbEntity
  8
LAY-1
  6
CONTINUOUS
 62
     7
100
AcDbLine
 10
907.7999999999997
 20
1426.200000000001
 30
0.0
 11
907.7999999999997
 21
1396.199999999995
 31
0.0
  0
LINE
  5
1F4
330
1F
100
AcDbEntity
  8
LAY-1
  6
CONTINUOUS
 62
     7
100
AcDbLine
 10
907.7999999999997
 20
1388.200000000002
 30
0.0
 11
907.7999999999997
 21
1377.199999999999
 31
0.0
  0
LINE
  5
1F5
330
1F
100
AcDbEntity
  8
LAY-1
  6
CONTINUOUS
 62
     7
100
AcDbLine
 10
877.8000000000002
 20
1426.200000000001
 30
0.0
 11
877.8000000000002
 21
1415.200000000003
 31
0.0
  0
LINE
  5
1F6
330
1F
100
AcDbEntity
  8
LAY-1
  6
CONTINUOUS
 62
     7
100
AcDbLine
 10
877.8000000000002
 20
1407.200000000003
 30
0.0
 11
877.8000000000002
 21
1377.199999999999
 31
0.0
  0
LINE
  5
1F7
330
1F
100
AcDbEntity
  8
LAY-1
  6
CONTINUOUS
 62
     7
100
AcDbLine
 10
907.7999999999997
 20
1434.199999999999
 30
0.0
 11
877.8000000000002
 21
1434.199999999999
 31
0.0
  0
LINE
  5
1F8
330
1F
100
AcDbEntity
  8
LAY-1
  6
CONTINUOUS
 62
     7
100
AcDbLine
 10
907.7999999999997
 20
1483.200000000001
 30
0.0
 11
877.8000000000002
 21
1483.200000000001
 31
0.0
  0
LINE
  5
1F9
330
1F
100
AcDbEntity
  8
LAY-1
  6
CONTINUOUS
 62
     7
100
AcDbLine
 10
888.7999999999979
 20
1445.200000000002
 30
0.0
 11
907.7999999999997
 21
1445.200000000002
 31
0.0
  0
LINE
  5
1FA
330
1F
100
AcDbEntity
  8
LAY-1
  6
CONTINUOUS
 62
     7
100
AcDbLine
 10
877.8000000000002
 20
1472.200000000003
 30
0.0
 11
896.800000000002
 21
1472.200000000003
 31
0.0
  0
LINE
  5
1FB
330
1F
100
AcDbEntity
  8
LAY-1
  6
CONTINUOUS
 62
     7
100
AcDbLine
 10
877.8000000000002
 20
1464.200000000003
 30
0.0
 11
888.7999999999979
 21
1464.200000000003
 31
0.0
  0
LINE
  5
1FC
330
1F
100
AcDbEntity
  8
LAY-1
  6
CONTINUOUS
 62
     7
100
AcDbLine
 10
888.7999999999979
 20
1464.200000000003
 30
0.0
 11
888.7999999999979
 21
1445.200000000002
 31
0.0
  0
LINE
  5
1FD
330
1F
100
AcDbEntity
  8
LAY-1
  6
CONTINUOUS
 62
     7
100
AcDbLine
 10
907.7999999999997
 20
1453.199999999995
 30
0.0
 11
896.7999999999997
 21
1453.199999999995
 31
0.0
  0
LINE
  5
1FE
330
1F
100
AcDbEntity
  8
LAY-1
  6
CONTINUOUS
 62
     7
100
AcDbLine
 10
896.800000000002
 20
1472.200000000003
 30
0.0
 11
896.800000000002
 21
1453.199999999995
 31
0.0
  0
LINE
  5
1FF
330
1F
100
AcDbEntity
  8
LAY-1
  6
CONTINUOUS
 62
     7
100
AcDbLine
 10
907.7999999999997
 20
1483.200000000001
 30
0.0
 11
907.7999999999997
 21
1453.199999999995
 31
0.0
  0
LINE
  5
200
330
1F
100
AcDbEntity
  8
LAY-1
  6
CONTINUOUS
 62
     7
100
AcDbLine
 10
907.7999999999997
 20
1445.200000000002
 30
0.0
 11
907.7999999999997
 21
1434.199999999999
 31
0.0
  0
LINE
  5
201
330
1F
100
AcDbEntity
  8
LAY-1
  6
CONTINUOUS
 62
     7
100
AcDbLine
 10
877.8000000000002
 20
1483.200000000001
 30
0.0
 11
877.8000000000002
 21
1472.200000000003
 31
0.0
  0
LINE
  5
202
330
1F
100
AcDbEntity
  8
LAY-1
  6
CONTINUOUS
 62
     7
100
AcDbLine
 10
877.8000000000002
 20
1464.200000000003
 30
0.0
 11
877.8000000000002
 21
1434.199999999999
 31
0.0
  0
LINE
  5
203
330
1F
100
AcDbEntity
  8
LAY-1
  6
CONTINUOUS
 62
     7
100
AcDbLine
 10
907.7999999999997
 20
1320.199999999999
 30
0.0
 11
877.8000000000002
 21
1320.199999999999
 31
0.0
  0
LINE
  5
204
330
1F
100
AcDbEntity
  8
LAY-1
  6
CONTINUOUS
 62
     7
100
AcDbLine
 10
907.7999999999997
 20
1369.200000000001
 30
0.0
 11
877.8000000000002
 21
1369.200000000001
 31
0.0
  0
LINE
  5
205
330
1F
100
AcDbEntity
  8
LAY-1
  6
CONTINUOUS
 62
     7
100
AcDbLine
 10
888.7999999999979
 20
1331.200000000002
 30
0.0
 11
907.7999999999997
 21
1331.200000000002
 31
0.0
  0
LINE
  5
206
330
1F
100
AcDbEntity
  8
LAY-1
  6
CONTINUOUS
 62
     7
100
AcDbLine
 10
877.8000000000002
 20
1358.200000000003
 30
0.0
 11
896.800000000002
 21
1358.200000000003
 31
0.0
  0
LINE
  5
207
330
1F
100
AcDbEntity
  8
LAY-1
  6
CONTINUOUS
 62
     7
100
AcDbLine
 10
877.8000000000002
 20
1350.200000000003
 30
0.0
 11
888.7999999999979
 21
1350.200000000003
 31
0.0
  0
LINE
  5
208
330
1F
100
AcDbEntity
  8
LAY-1
  6
CONTINUOUS
 62
     7
100
AcDbLine
 10
888.7999999999979
 20
1350.200000000003
 30
0.0
 11
888.7999999999979
 21
1331.200000000002
 31
0.0
  0
LINE
  5
209
330
1F
100
AcDbEntity
  8
LAY-1
  6
CONTINUOUS
 62
     7
100
AcDbLine
 10
907.7999999999997
 20
1339.199999999995
 30
0.0
 11
896.7999999999997
 21
1339.199999999995
 31
0.0
  0
LINE
  5
20A
330
1F
100
AcDbEntity
  8
LAY-1
  6
CONTINUOUS
 62
     7
100
AcDbLine
 10
896.800000000002
 20
1358.200000000003
 30
0.0
 11
896.800000000002
 21
1339.199999999995
 31
0.0
  0
LINE
  5
20B
330
1F
100
AcDbEntity
  8
LAY-1
  6
CONTINUOUS
 62
     7
100
AcDbLine
 10
907.7999999999997
 20
1369.200000000001
 30
0.0
 11
907.7999999999997
 21
1339.199999999995
 31
0.0
  0
LINE
  5
20C
330
1F
100
AcDbEntity
  8
LAY-1
  6
CONTINUOUS
 62
     7
100
AcDbLine
 10
907.7999999999997
 20
1331.200000000002
 30
0.0
 11
907.7999999999997
 21
1320.199999999999
 31
0.0
  0
LINE
  5
20D
330
1F
100
AcDbEntity
  8
LAY-1
  6
CONTINUOUS
 62
     7
100
AcDbLine
 10
877.8000000000002
 20
1369.200000000001
 30
0.0
 11
877.8000000000002
 21
1358.200000000003
 31
0.0
  0
LINE
  5
20E
330
1F
100
AcDbEntity
  8
LAY-1
  6
CONTINUOUS
 62
     7
100
AcDbLine
 10
877.8000000000002
 20
1350.200000000003
 30
0.0
 11
877.8000000000002
 21
1320.199999999999
 31
0.0
  0
LINE
  5
20F
330
1F
100
AcDbEntity
  8
LAY-1
  6
CONTINUOUS
 62
     7
100
AcDbLine
 10
945.7999999999997
 20
1320.199999999999
 30
0.0
 11
915.8000000000002
 21
1320.199999999999
 31
0.0
  0
LINE
  5
210
330
1F
100
AcDbEntity
  8
LAY-1
  6
CONTINUOUS
 62
     7
100
AcDbLine
 10
945.7999999999997
 20
1369.200000000001
 30
0.0
 11
915.8000000000002
 21
1369.200000000001
 31
0.0
  0
LINE
  5
211
330
1F
100
AcDbEntity
  8
LAY-1
  6
CONTINUOUS
 62
     7
100
AcDbLine
 10
926.7999999999979
 20
1331.200000000002
 30
0.0
 11
945.7999999999997
 21
1331.200000000002
 31
0.0
  0
LINE
  5
212
330
1F
100
AcDbEntity
  8
LAY-1
  6
CONTINUOUS
 62
     7
100
AcDbLine
 10
915.8000000000002
 20
1358.200000000003
 30
0.0
 11
934.800000000002
 21
1358.200000000003
 31
0.0
  0
LINE
  5
213
330
1F
100
AcDbEntity
  8
LAY-1
  6
CONTINUOUS
 62
     7
100
AcDbLine
 10
915.8000000000002
 20
1350.200000000003
 30
0.0
 11
926.7999999999979
 21
1350.200000000003
 31
0.0
  0
LINE
  5
214
330
1F
100
AcDbEntity
  8
LAY-1
  6
CONTINUOUS
 62
     7
100
AcDbLine
 10
926.7999999999979
 20
1350.200000000003
 30
0.0
 11
926.7999999999979
 21
1331.200000000002
 31
0.0
  0
LINE
  5
215
330
1F
100
AcDbEntity
  8
LAY-1
  6
CONTINUOUS
 62
     7
100
AcDbLine
 10
945.7999999999997
 20
1339.199999999995
 30
0.0
 11
934.7999999999997
 21
1339.199999999995
 31
0.0
  0
LINE
  5
216
330
1F
100
AcDbEntity
  8
LAY-1
  6
CONTINUOUS
 62
     7
100
AcDbLine
 10
934.800000000002
 20
1358.200000000003
 30
0.0
 11
934.800000000002
 21
1339.199999999995
 31
0.0
  0
LINE
  5
217
330
1F
100
AcDbEntity
  8
LAY-1
  6
CONTINUOUS
 62
     7
100
AcDbLine
 10
945.7999999999997
 20
1369.200000000001
 30
0.0
 11
945.7999999999997
 21
1339.199999999995
 31
0.0
  0
LINE
  5
218
330
1F
100
AcDbEntity
  8
LAY-1
  6
CONTINUOUS
 62
     7
100
AcDbLine
 10
945.7999999999997
 20
1331.200000000002
 30
0.0
 11
945.7999999999997
 21
1320.199999999999
 31
0.0
  0
LINE
  5
219
330
1F
100
AcDbEntity
  8
LAY-1
  6
CONTINUOUS
 62
     7
100
AcDbLine
 10
915.8000000000002
 20
1369.200000000001
 30
0.0
 11
915.8000000000002
 21
1358.200000000003
 31
0.0
  0
LINE
  5
21A
330
1F
100
AcDbEntity
  8
LAY-1
  6
CONTINUOUS
 62
     7
100
AcDbLine
 10
915.8000000000002
 20
1350.200000000003
 30
0.0
 11
915.8000000000002
 21
1320.199999999999
 31
0.0
  0
LINE
  5
21B
330
1F
100
AcDbEntity
  8
LAY-1
  6
CONTINUOUS
 62
     7
100
AcDbLine
 10
945.7999999999997
 20
1377.199999999999
 30
0.0
 11
915.8000000000002
 21
1377.199999999999
 31
0.0
  0
LINE
  5
21C
330
1F
100
AcDbEntity
  8
LAY-1
  6
CONTINUOUS
 62
     7
100
AcDbLine
 10
945.7999999999997
 20
1426.200000000001
 30
0.0
 11
915.8000000000002
 21
1426.200000000001
 31
0.0
  0
LINE
  5
21D
330
1F
100
AcDbEntity
  8
LAY-1
  6
CONTINUOUS
 62
     7
100
AcDbLine
 10
926.7999999999979
 20
1388.200000000002
 30
0.0
 11
945.7999999999997
 21
1388.200000000002
 31
0.0
  0
LINE
  5
21E
330
1F
100
AcDbEntity
  8
LAY-1
  6
CONTINUOUS
 62
     7
100
AcDbLine
 10
915.8000000000002
 20
1415.200000000003
 30
0.0
 11
934.800000000002
 21
1415.200000000003
 31
0.0
  0
LINE
  5
21F
330
1F
100
AcDbEntity
  8
LAY-1
  6
CONTINUOUS
 62
     7
100
AcDbLine
 10
915.8000000000002
 20
1407.200000000003
 30
0.0
 11
926.7999999999979
 21
1407.200000000003
 31
0.0
  0
LINE
  5
220
330
1F
100
AcDbEntity
  8
LAY-1
  6
CONTINUOUS
 62
     7
100
AcDbLine
 10
926.7999999999979
 20
1407.200000000003
 30
0.0
 11
926.7999999999979
 21
1388.200000000002
 31
0.0
  0
LINE
  5
221
330
1F
100
AcDbEntity
  8
LAY-1
  6
CONTINUOUS
 62
     7
100
AcDbLine
 10
945.7999999999997
 20
1396.199999999995
 30
0.0
 11
934.7999999999997
 21
1396.199999999995
 31
0.0
  0
LINE
  5
222
330
1F
100
AcDbEntity
  8
LAY-1
  6
CONTINUOUS
 62
     7
100
AcDbLine
 10
934.800000000002
 20
1415.200000000003
 30
0.0
 11
934.800000000002
 21
1396.199999999995
 31
0.0
  0
LINE
  5
223
330
1F
100
AcDbEntity
  8
LAY-1
  6
CONTINUOUS
 62
     7
100
AcDbLine
 10
945.7999999999997
 20
1426.200000000001
 30
0.0
 11
945.7999999999997
 21
1396.199999999995
 31
0.0
  0
LINE
  5
224
330
1F
100
AcDbEntity
  8
LAY-1
  6
CONTINUOUS
 62
     7
100
AcDbLine
 10
945.7999999999997
 20
1388.200000000002
 30
0.0
 11
945.7999999999997
 21
1377.199999999999
 31
0.0
  0
LINE
  5
225
330
1F
100
AcDbEntity
  8
LAY-1
  6
CONTINUOUS
 62
     7
100
AcDbLine
 10
915.8000000000002
 20
1426.200000000001
 30
0.0
 11
915.8000000000002
 21
1415.200000000003
 31
0.0
  0
LINE
  5
226
330
1F
100
AcDbEntity
  8
LAY-1
  6
CONTINUOUS
 62
     7
100
AcDbLine
 10
915.8000000000002
 20
1407.200000000003
 30
0.0
 11
915.8000000000002
 21
1377.199999999999
 31
0.0
  0
LINE
  5
227
330
1F
100
AcDbEntity
  8
LAY-1
  6
CONTINUOUS
 62
     7
100
AcDbLine
 10
869.7999999999997
 20
1320.199999999999
 30
0.0
 11
839.8000000000002
 21
1320.199999999999
 31
0.0
  0
LINE
  5
228
330
1F
100
AcDbEntity
  8
LAY-1
  6
CONTINUOUS
 62
     7
100
AcDbLine
 10
869.7999999999997
 20
1369.200000000001
 30
0.0
 11
839.8000000000002
 21
1369.200000000001
 31
0.0
  0
LINE
  5
229
330
1F
100
AcDbEntity
  8
LAY-1
  6
CONTINUOUS
 62
     7
100
AcDbLine
 10
850.7999999999979
 20
1331.200000000002
 30
0.0
 11
869.7999999999997
 21
1331.200000000002
 31
0.0
  0
LINE
  5
22A
330
1F
100
AcDbEntity
  8
LAY-1
  6
CONTINUOUS
 62
     7
100
AcDbLine
 10
839.8000000000002
 20
1358.200000000003
 30
0.0
 11
858.800000000002
 21
1358.200000000003
 31
0.0
  0
LINE
  5
22B
330
1F
100
AcDbEntity
  8
LAY-1
  6
CONTINUOUS
 62
     7
100
AcDbLine
 10
839.8000000000002
 20
1350.200000000003
 30
0.0
 11
850.7999999999979
 21
1350.200000000003
 31
0.0
  0
LINE
  5
22C
330
1F
100
AcDbEntity
  8
LAY-1
  6
CONTINUOUS
 62
     7
100
AcDbLine
 10
850.7999999999979
 20
1350.200000000003
 30
0.0
 11
850.7999999999979
 21
1331.200000000002
 31
0.0
  0
LINE
  5
22D
330
1F
100
AcDbEntity
  8
LAY-1
  6
CONTINUOUS
 62
     7
100
AcDbLine
 10
869.7999999999997
 20
1339.199999999995
 30
0.0
 11
858.7999999999997
 21
1339.199999999995
 31
0.0
  0
LINE
  5
22E
330
1F
100
AcDbEntity
  8
LAY-1
  6
CONTINUOUS
 62
     7
100
AcDbLine
 10
858.800000000002
 20
1358.200000000003
 30
0.0
 11
858.800000000002
 21
1339.199999999995
 31
0.0
  0
LINE
  5
22F
330
1F
100
AcDbEntity
  8
LAY-1
  6
CONTINUOUS
 62
     7
100
AcDbLine
 10
869.7999999999997
 20
1369.200000000001
 30
0.0
 11
869.7999999999997
 21
1339.199999999995
 31
0.0
  0
LINE
  5
230
330
1F
100
AcDbEntity
  8
LAY-1
  6
CONTINUOUS
 62
     7
100
AcDbLine
 10
869.7999999999997
 20
1331.200000000002
 30
0.0
 11
869.7999999999997
 21
1320.199999999999
 31
0.0
  0
LINE
  5
231
330
1F
100
AcDbEntity
  8
LAY-1
  6
CONTINUOUS
 62
     7
100
AcDbLine
 10
839.8000000000002
 20
1369.200000000001
 30
0.0
 11
839.8000000000002
 21
1358.200000000003
 31
0.0
  0
LINE
  5
232
330
1F
100
AcDbEntity
  8
LAY-1
  6
CONTINUOUS
 62
     7
100
AcDbLine
 10
839.8000000000002
 20
1350.200000000003
 30
0.0
 11
839.8000000000002
 21
1320.199999999999
 31
0.0
  0
TEXT
  5
233
330
1F
100
AcDbEntity
  8
LAY-1
  6
CONTINUOUS
 62
     7
100
AcDbText
 10
1428.399999999976
 20
1048.007874499724
 30
0.0
 40
11.692914
  1
ＳＦ－８０ＡＨ，ＡＨＤ
 50
360.0
 41
1.01593252108716
  7
EXCADSTD
100
AcDbText
  0
LINE
  5
234
330
1F
100
AcDbEntity
  8
LAY-1
  6
CONTINUOUS
 62
     7
100
AcDbLine
 10
767.2426291735096
 20
565.1539422532628
 30
0.0
 11
769.6960577467099
 21
567.6073708264632
 31
0.0
  0
LINE
  5
235
330
1F
100
AcDbEntity
  8
LAY-1
  6
CONTINUOUS
 62
     7
100
AcDbLine
 10
767.3184012937533
 20
563.8155008111335
 30
0.0
 11
768.4199147884154
 21
564.9170143057954
 31
0.0
  0
LINE
  5
236
330
1F
100
AcDbEntity
  8
LAY-1
  6
CONTINUOUS
 62
     7
100
AcDbLine
 10
769.9329856941772
 20
566.4300852115573
 30
0.0
 11
771.2606047294101
 21
567.7577042467904
 31
0.0
  0
LINE
  5
237
330
1F
100
AcDbEntity
  8
LAY-1
  6
CONTINUOUS
 62
     7
100
AcDbLine
 10
767.7859717817876
 20
562.8688577367947
 30
0.0
 11
768.6507294424935
 21
563.7336153975004
 31
0.0
  0
LINE
  5
238
330
1F
100
AcDbEntity
  8
LAY-1
  6
CONTINUOUS
 62
     7
100
AcDbLine
 10
771.488511953538
 20
566.571397908545
 30
0.0
 11
772.7663917764519
 21
567.8492777314589
 31
0.0
  0
LINE
  5
239
330
1F
100
AcDbEntity
  8
LAY-1
  6
CONTINUOUS
 62
     7
100
AcDbLine
 10
768.5056262038887
 20
562.1742985965226
 30
0.0
 11
769.3793084501502
 21
563.0479808427842
 31
0.0
  0
LINE
  5
23A
330
1F
100
AcDbEntity
  8
LAY-1
  6
CONTINUOUS
 62
     7
100
AcDbLine
 10
772.9891954322586
 20
566.6578678248925
 30
0.0
 11
774.2252275198819
 21
567.8938999125157
 31
0.0
  0
LINE
  5
23B
330
1F
100
AcDbEntity
  8
LAY-1
  6
CONTINUOUS
 62
     7
100
AcDbLine
 10
769.4825847147544
 20
561.7370435450152
 30
0.0
 11
770.3263496157748
 21
562.5808084460357
 31
0.0
  0
LINE
  5
23C
330
1F
100
AcDbEntity
  8
LAY-1
  6
CONTINUOUS
 62
     7
100
AcDbLine
 10
774.4423015271587
 20
566.6967603574196
 30
0.0
 11
775.6413610912438
 21
567.8958199215047
 31
0.0
  0
LINE
  5
23D
330
1F
100
AcDbEntity
  8
LAY-1
  6
CONTINUOUS
 62
     7
100
AcDbLine
 10
770.3078616312922
 20
561.14810689918
 30
0.0
 11
771.2735493035118
 21
562.1137945713995
 31
0.0
  0
LINE
  5
23E
330
1F
100
AcDbEntity
  8
LAY-1
  6
CONTINUOUS
 62
     7
100
AcDbLine
 10
775.8521900502211
 20
566.6924353181089
 30
0.0
 11
777.0183420734783
 21
567.8585873413659
 31
0.0
  0
LINE
  5
23F
330
1F
100
AcDbEntity
  8
LAY-1
  6
CONTINUOUS
 62
     7
100
AcDbLine
 10
768.7605495923332
 20
558.1865812978479
 30
0.0
 11
772.2207489912463
 21
561.6467806967609
 31
0.0
  0
LINE
  5
240
330
1F
100
AcDbEntity
  8
LAY-1
  6
CONTINUOUS
 62
     7
100
AcDbLine
 10
777.2224931811651
 20
566.6485248866798
 30
0.0
 11
778.3591709382446
 21
567.7852026437592
 31
0.0
  0
LINE
  5
241
330
1F
100
AcDbEntity
  8
LAY-1
  6
CONTINUOUS
 62
     7
100
AcDbLine
 10
768.5883678712142
 20
556.6001860143558
 30
0.0
 11
773.3881818568333
 21
561.3999999999749
 31
0.0
  0
LINE
  5
242
330
1F
100
AcDbEntity
  8
LAY-1
  6
CONTINUOUS
 62
     7
100
AcDbLine
 10
778.5562738919776
 20
566.5680920351192
 30
0.0
 11
779.6664100315618
 21
567.6782281747032
 31
0.0
  0
LINE
  5
243
330
1F
100
AcDbEntity
  8
LAY-1
  6
CONTINUOUS
 62
     7
100
AcDbLine
 10
768.4161861500928
 20
555.0137907308613
 30
0.0
 11
774.8023954192064
 21
561.3999999999749
 31
0.0
  0
LINE
  5
244
330
1F
100
AcDbEntity
  8
LAY-1
  6
CONTINUOUS
 62
     7
100
AcDbLine
 10
779.8561423317268
 20
566.4537469124953
 30
0.0
 11
780.8591926804457
 21
567.4567972612142
 31
0.0
  0
LINE
  5
245
330
1F
100
AcDbEntity
  8
LAY-1
  6
CONTINUOUS
 62
     7
100
AcDbLine
 10
768.2440044289738
 20
553.4273954473692
 30
0.0
 11
771.6290205932764
 21
556.8124116116717
 31
0.0
  0
LINE
  5
246
330
1F
100
AcDbEntity
  8
LAY-1
  6
CONTINUOUS
 62
     7
100
AcDbLine
 10
773.03438724415
 20
558.2177782625454
 30
0.0
 11
776.2166089815795
 21
561.3999999999749
 31
0.0
  0
LINE
  5
247
330
1F
100
AcDbEntity
  8
LAY-1
  6
CONTINUOUS
 62
     7
100
AcDbLine
 10
780.8951335628957
 20
566.078524581291
 30
0.0
 11
781.7480651408902
 21
566.9314561592855
 31
0.0
  0
LINE
  5
248
330
1F
100
AcDbEntity
  8
LAY-1
  6
CONTINUOUS
 62
     7
100
AcDbLine
 10
768.0718227078522
 20
551.8410001638745
 30
0.0
 11
771.6069293338721
 21
555.3761067898943
 31
0.0
  0
LINE
  5
249
330
1F
100
AcDbEntity
  8
LAY-1
  6
CONTINUOUS
 62
     7
100
AcDbLine
 10
774.6308225439521
 20
558.3999999999744
 30
0.0
 11
777.9732575805564
 21
561.7424350365786
 31
0.0
  0
LINE
  5
24A
330
1F
100
AcDbEntity
  8
LAY-1
  6
CONTINUOUS
 62
     7
100
AcDbLine
 10
781.4927808555398
 20
565.261958311562
 30
0.0
 11
782.3917414884758
 21
566.160918944498
 31
0.0
  0
LINE
  5
24B
330
1F
100
AcDbEntity
  8
LAY-1
  6
CONTINUOUS
 62
     7
100
AcDbLine
 10
767.8996409867333
 20
550.2546048803824
 30
0.0
 11
771.284657151036
 21
553.6396210446851
 31
0.0
  0
LINE
  5
24C
330
1F
100
AcDbEntity
  8
LAY-1
  6
CONTINUOUS
 62
     7
100
AcDbLine
 10
776.0018670530461
 20
558.3568309466953
 30
0.0
 11
780.7951320253601
 21
563.1500959190091
 31
0.0
  0
LINE
  5
24D
330
1F
100
AcDbEntity
  8
LAY-1
  6
CONTINUOUS
 62
     7
100
AcDbLine
 10
781.2999040809675
 20
563.6548679746168
 30
0.0
 11
782.7632390989723
 21
565.1182029926215
 31
0.0
  0
LINE
  5
24E
330
1F
100
AcDbEntity
  8
LAY-1
  6
CONTINUOUS
 62
     7
100
AcDbLine
 10
768.292761310157
 20
549.2335116414331
 30
0.0
 11
771.1124754299169
 21
552.0532257611931
 31
0.0
  0
LINE
  5
24F
330
1F
100
AcDbEntity
  8
LAY-1
  6
CONTINUOUS
 62
     7
100
AcDbLine
 10
777.4592496686984
 20
558.3999999999744
 30
0.0
 11
779.8118493345942
 21
560.7525996658703
 31
0.0
  0
LINE
  5
250
330
1F
100
AcDbEntity
  8
LAY-1
  6
CONTINUOUS
 62
     7
100
AcDbLine
 10
780.9303422632978
 20
561.8710925945738
 30
0.0
 11
782.5789074054029
 21
563.5196577366789
 31
0.0
  0
LINE
  5
251
330
1F
100
AcDbEntity
  8
LAY-1
  6
CONTINUOUS
 62
     7
100
AcDbLine
 10
770.342816291491
 20
549.8693530603939
 30
0.0
 11
771.4913578878576
 21
551.0178946567605
 31
0.0
  0
LINE
  5
252
330
1F
100
AcDbEntity
  8
LAY-1
  6
CONTINUOUS
 62
     7
100
AcDbLine
 10
778.2621786552007
 20
557.7887154241037
 30
0.0
 11
780.5168942170494
 21
560.0434309859525
 31
0.0
  0
LINE
  5
253
330
1F
100
AcDbEntity
  8
LAY-1
  6
CONTINUOUS
 62
     7
100
AcDbLine
 10
778.3800298701073
 20
556.4923530766371
 30
0.0
 11
781.0242692472162
 21
559.1365924537462
 31
0.0
  0
LINE
  5
254
330
1F
100
AcDbEntity
  8
LAY-1
  6
CONTINUOUS
 62
     7
100
AcDbLine
 10
778.0483366071659
 20
554.7464462513226
 30
0.0
 11
781.2592211766226
 21
557.9573308207794
 31
0.0
  0
LINE
  5
255
330
1F
100
AcDbEntity
  8
LAY-1
  6
CONTINUOUS
 62
     7
100
AcDbLine
 10
778.6157322999202
 20
553.8996283817039
 30
0.0
 11
781.3770723915292
 21
556.6609684733128
 31
0.0
  0
LINE
  5
256
330
1F
100
AcDbEntity
  8
LAY-1
  6
CONTINUOUS
 62
     7
100
AcDbLine
 10
778.7335835148241
 20
552.6032660342346
 30
0.0
 11
781.4949236064356
 21
555.3646061258462
 31
0.0
  0
LINE
  5
257
330
1F
100
AcDbEntity
  8
LAY-1
  6
CONTINUOUS
 62
     7
100
AcDbLine
 10
778.393466518613
 20
550.8489354756505
 30
0.0
 11
781.6127748213421
 21
554.0682437783796
 31
0.0
  0
LINE
  5
258
330
1F
100
AcDbEntity
  8
LAY-1
  6
CONTINUOUS
 62
     7
100
AcDbLine
 10
779.1066022254553
 20
550.1478576201198
 30
0.0
 11
781.7306260362485
 21
552.771881430913
 31
0.0
  0
LINE
  5
259
330
1F
100
AcDbEntity
  8
LAY-1
  6
CONTINUOUS
 62
     7
100
AcDbLine
 10
779.9114010445828
 20
549.5384428768741
 30
0.0
 11
781.848477251155
 21
551.4755190834462
 31
0.0
  0
LINE
  5
25A
330
1F
100
AcDbEntity
  8
LAY-1
  6
CONTINUOUS
 62
     7
100
AcDbLine
 10
780.7891792673622
 20
549.0020075372804
 30
0.0
 11
781.9663284660614
 21
550.1791567359796
 31
0.0
  0
LINE
  5
25B
330
1F
100
AcDbEntity
  8
LAY-1
  6
CONTINUOUS
 62
     7
100
AcDbLine
 10
777.7499999999981
 20
558.3999999999746
 30
0.0
 11
776.999999999998
 21
558.3999999999746
 31
0.0
  0
ARC
  5
25C
330
1F
100
AcDbEntity
  8
LAY-1
  6
CONTINUOUS
 62
     7
100
AcDbCircle
 10
776.499999999998
 20
558.3999999999746
 30
0.0
 40
0.5
100
AcDbArc
 50
180.0
 51
0.0
  0
LINE
  5
25D
330
1F
100
AcDbEntity
  8
LAY-1
  6
CONTINUOUS
 62
     7
100
AcDbLine
 10
773.999999999998
 20
558.3999999999746
 30
0.0
 11
775.999999999998
 21
558.3999999999746
 31
0.0
  0
ARC
  5
25E
330
1F
100
AcDbEntity
  8
LAY-1
  6
CONTINUOUS
 62
     7
100
AcDbCircle
 10
773.499999999998
 20
558.3999999999746
 30
0.0
 40
0.5
100
AcDbArc
 50
180.0
 51
0.0
  0
LINE
  5
25F
330
1F
100
AcDbEntity
  8
LAY-1
  6
CONTINUOUS
 62
     7
100
AcDbLine
 10
772.2499999999978
 20
558.3999999999746
 30
0.0
 11
772.999999999998
 21
558.3999999999746
 31
0.0
  0
LINE
  5
260
330
1F
100
AcDbEntity
  8
LAY-1
  6
CONTINUOUS
 62
     7
100
AcDbLine
 10
771.7529192735757
 20
557.9539513801271
 30
0.0
 11
771.476631264962
 21
555.4083734238882
 31
0.0
  0
ARC
  5
261
330
1F
100
AcDbEntity
  8
LAY-1
  6
CONTINUOUS
 62
     7
100
AcDbCircle
 10
771.4226798848059
 20
554.9112926974672
 30
0.0
 40
0.5
100
AcDbArc
 50
263.805567041983
 51
83.8055670410148
  0
LINE
  5
262
330
1F
100
AcDbEntity
  8
LAY-1
  6
CONTINUOUS
 62
     7
100
AcDbLine
 10
771.3687285046582
 20
554.4142119710451
 30
0.0
 11
771.048214254701
 21
551.4611557980849
 31
0.0
  0
ARC
  5
263
330
1F
100
AcDbEntity
  8
LAY-1
  6
CONTINUOUS
 62
     7
100
AcDbCircle
 10
770.9942628745451
 20
550.9640750716637
 30
0.0
 40
0.5
100
AcDbArc
 50
306.1339591617556
 51
83.8055670410415
  0
LINE
  5
264
330
1F
100
AcDbEntity
  8
LAY-1
  6
CONTINUOUS
 62
     7
100
AcDbLine
 10
769.4720281810025
 20
549.2335725464073
 30
0.0
 11
771.2891004489351
 21
550.5602548087647
 31
0.0
  0
ARC
  5
265
330
1F
100
AcDbEntity
  8
LAY-1
  6
CONTINUOUS
 62
     7
100
AcDbCircle
 10
768.8823530322226
 20
550.0412130722052
 30
0.0
 40
1.0
100
AcDbArc
 50
173.8055670414987
 51
306.1339591617602
  0
LINE
  5
266
330
1F
100
AcDbEntity
  8
LAY-1
  6
CONTINUOUS
 62
     7
100
AcDbLine
 10
768.770434915047
 20
558.2776596610383
 30
0.0
 11
767.8881915793796
 21
550.1491158325091
 31
0.0
  0
ARC
  5
267
330
1F
100
AcDbEntity
  8
LAY-1
  6
CONTINUOUS
 62
     7
100
AcDbCircle
 10
772.2499999999974
 20
557.8999999999753
 30
0.0
 40
0.5
100
AcDbArc
 50
90.00000000000001
 51
173.8055670414951
  0
LINE
  5
268
330
1F
100
AcDbEntity
  8
LAY-1
  6
CONTINUOUS
 62
     7
100
AcDbLine
 10
778.2479466000324
 20
557.9452679081999
 30
0.0
 11
778.479766067534
 21
555.3952557651933
 31
0.0
  0
ARC
  5
269
330
1F
100
AcDbEntity
  8
LAY-1
  6
CONTINUOUS
 62
     7
100
AcDbCircle
 10
778.5250339757639
 20
554.8973091651601
 30
0.0
 40
0.5
100
AcDbArc
 50
95.19443295898522
 51
275.194432958017
  0
LINE
  5
26A
330
1F
100
AcDbEntity
  8
LAY-1
  6
CONTINUOUS
 62
     7
100
AcDbLine
 10
778.5703018839854
 20
554.3993625651262
 30
0.0
 11
778.8392293815074
 21
551.4411624119655
 31
0.0
  0
ARC
  5
26B
330
1F
100
AcDbEntity
  8
LAY-1
  6
CONTINUOUS
 62
     7
100
AcDbCircle
 10
778.8844972897369
 20
550.9432158119323
 30
0.0
 40
0.5
100
AcDbArc
 50
95.19443295895869
 51
232.866040838247
  0
LINE
  5
26C
330
1F
100
AcDbEntity
  8
LAY-1
  6
CONTINUOUS
 62
     7
100
AcDbLine
 10
780.3762987061511
 20
549.1864101920278
 30
0.0
 11
778.582656985182
 21
550.5446026779965
 31
0.0
  0
ARC
  5
26D
330
1F
100
AcDbEntity
  8
LAY-1
  6
CONTINUOUS
 62
     7
100
AcDbCircle
 10
780.9799793152613
 20
549.9836364598992
 30
0.0
 40
1.0
100
AcDbArc
 50
232.86604083824
 51
5.194432958501033
  0
LINE
  5
26E
330
1F
100
AcDbEntity
  8
LAY-1
  6
CONTINUOUS
 62
     7
100
AcDbLine
 10
781.2356262002328
 20
558.216875357554
 30
0.0
 11
781.9758725153282
 21
550.0741722763506
 31
0.0
  0
ARC
  5
26F
330
1F
100
AcDbEntity
  8
LAY-1
  6
CONTINUOUS
 62
     7
100
AcDbCircle
 10
777.7499999999987
 20
557.8999999999742
 30
0.0
 40
0.5
100
AcDbArc
 50
5.194432958502293
 51
90.00000000000001
  0
ARC
  5
270
330
1F
100
AcDbEntity
  8
LAY-1
  6
CONTINUOUS
 62
     7
100
AcDbCircle
 10
772.2499999999975
 20
557.8999999999753
 30
0.0
 40
3.5
100
AcDbArc
 50
128.1185061700335
 51
173.8055670414981
  0
ARC
  5
271
330
1F
100
AcDbEntity
  8
LAY-1
  6
CONTINUOUS
 62
     7
100
AcDbCircle
 10
777.7499999999986
 20
557.899999999974
 30
0.0
 40
3.5
100
AcDbArc
 50
5.194432958501778
 51
51.88149382977241
  0
LINE
  5
272
330
1F
100
AcDbEntity
  8
LAY-1
  6
CONTINUOUS
 62
     7
100
AcDbLine
 10
777.045603747348
 20
561.3999999999746
 30
0.0
 11
772.9543962526463
 21
561.3999999999746
 31
0.0
  0
ARC
  5
273
330
1F
100
AcDbEntity
  8
LAY-1
  6
CONTINUOUS
 62
     7
100
AcDbCircle
 10
774.9999999999983
 20
518.6949999999238
 30
0.0
 40
49.20500000005277
100
AcDbArc
 50
84.03707756004043
 51
95.96292243996048
  0
ARC
  5
274
330
1F
100
AcDbEntity
  8
LAY-1
  6
CONTINUOUS
 62
     7
100
AcDbCircle
 10
779.8
 20
564.6499999999767
 30
0.0
 40
3.0
100
AcDbArc
 50
277.6299213011758
 51
84.03707756003955
  0
ARC
  5
275
330
1F
100
AcDbEntity
  8
LAY-1
  6
CONTINUOUS
 62
     7
100
AcDbCircle
 10
780.2652704092972
 20
561.1057103210504
 30
0.0
 40
0.574698012687244
100
AcDbArc
 50
97.4786396192178
 51
231.8814938297725
  0
ARC
  5
276
330
1F
100
AcDbEntity
  8
LAY-1
  6
CONTINUOUS
 62
     7
100
AcDbCircle
 10
769.7347295907117
 20
561.1057103210578
 30
0.0
 40
0.574698012678255
100
AcDbArc
 50
308.1185061700329
 51
82.52136038097277
  0
ARC
  5
277
330
1F
100
AcDbEntity
  8
LAY-1
  6
CONTINUOUS
 62
     7
100
AcDbCircle
 10
770.199999999996
 20
564.6499999999767
 30
0.0
 40
3.0
100
AcDbArc
 50
95.96292243996042
 51
262.5213603809735
  0
ARC
  5
278
330
1F
100
AcDbEntity
  8
LAY-1
  6
CONTINUOUS
 62
     7
100
AcDbCircle
 10
774.9999999999983
 20
518.6949999999238
 30
0.0
 40
48.00500000005277
100
AcDbArc
 50
84.03707756004043
 51
95.96292243996048
  0
LINE
  5
279
330
1F
100
AcDbEntity
  8
LAY-1
  6
CONTINUOUS
 62
     7
100
AcDbLine
 10
777.4878213577955
 20
561.5030922092784
 30
0.0
 11
780.5959916988025
 21
563.0355659767235
 31
0.0
  0
LINE
  5
27A
330
1F
100
AcDbEntity
  8
LAY-1
  6
CONTINUOUS
 62
     7
100
AcDbLine
 10
769.4040083011934
 20
563.0355659767235
 30
0.0
 11
772.5121786422004
 21
561.5030922092784
 31
0.0
  0
ARC
  5
27B
330
1F
100
AcDbEntity
  8
LAY-1
  6
CONTINUOUS
 62
     7
100
AcDbCircle
 10
772.9543962526463
 20
562.3999999999746
 30
0.0
 40
1.0
100
AcDbArc
 50
243.7545407684272
 51
270.0
  0
ARC
  5
27C
330
1F
100
AcDbEntity
  8
LAY-1
  6
CONTINUOUS
 62
     7
100
AcDbCircle
 10
770.199999999996
 20
564.6499999999767
 30
0.0
 40
1.8
100
AcDbArc
 50
95.96292243996122
 51
243.7545407684302
  0
ARC
  5
27D
330
1F
100
AcDbEntity
  8
LAY-1
  6
CONTINUOUS
 62
     7
100
AcDbCircle
 10
779.8
 20
564.6499999999767
 30
0.0
 40
1.8
100
AcDbArc
 50
296.2454592315698
 51
84.03707756003881
  0
ARC
  5
27E
330
1F
100
AcDbEntity
  8
LAY-1
  6
CONTINUOUS
 62
     7
100
AcDbCircle
 10
777.0456037473496
 20
562.3999999999746
 30
0.0
 40
1.0
100
AcDbArc
 50
270.0
 51
296.2454592315728
  0
LINE
  5
27F
330
1F
100
AcDbEntity
  8
LAY-1
  6
CONTINUOUS
 62
     7
100
AcDbLine
 10
1577.24262917351
 20
565.1539422532628
 30
0.0
 11
1579.69605774671
 21
567.6073708264632
 31
0.0
  0
LINE
  5
280
330
1F
100
AcDbEntity
  8
LAY-1
  6
CONTINUOUS
 62
     7
100
AcDbLine
 10
1577.318401293753
 20
563.8155008111335
 30
0.0
 11
1578.419914788416
 21
564.9170143057954
 31
0.0
  0
LINE
  5
281
330
1F
100
AcDbEntity
  8
LAY-1
  6
CONTINUOUS
 62
     7
100
AcDbLine
 10
1579.932985694177
 20
566.4300852115573
 30
0.0
 11
1581.26060472941
 21
567.7577042467904
 31
0.0
  0
LINE
  5
282
330
1F
100
AcDbEntity
  8
LAY-1
  6
CONTINUOUS
 62
     7
100
AcDbLine
 10
1577.785971781788
 20
562.8688577367947
 30
0.0
 11
1578.650729442493
 21
563.7336153975004
 31
0.0
  0
LINE
  5
283
330
1F
100
AcDbEntity
  8
LAY-1
  6
CONTINUOUS
 62
     7
100
AcDbLine
 10
1581.488511953538
 20
566.571397908545
 30
0.0
 11
1582.766391776452
 21
567.8492777314589
 31
0.0
  0
LINE
  5
284
330
1F
100
AcDbEntity
  8
LAY-1
  6
CONTINUOUS
 62
     7
100
AcDbLine
 10
1578.505626203889
 20
562.1742985965226
 30
0.0
 11
1579.37930845015
 21
563.0479808427842
 31
0.0
  0
LINE
  5
285
330
1F
100
AcDbEntity
  8
LAY-1
  6
CONTINUOUS
 62
     7
100
AcDbLine
 10
1582.989195432259
 20
566.6578678248925
 30
0.0
 11
1584.225227519882
 21
567.8938999125157
 31
0.0
  0
LINE
  5
286
330
1F
100
AcDbEntity
  8
LAY-1
  6
CONTINUOUS
 62
     7
100
AcDbLine
 10
1579.482584714754
 20
561.7370435450152
 30
0.0
 11
1580.326349615775
 21
562.5808084460357
 31
0.0
  0
LINE
  5
287
330
1F
100
AcDbEntity
  8
LAY-1
  6
CONTINUOUS
 62
     7
100
AcDbLine
 10
1584.442301527159
 20
566.6967603574196
 30
0.0
 11
1585.641361091244
 21
567.8958199215047
 31
0.0
  0
LINE
  5
288
330
1F
100
AcDbEntity
  8
LAY-1
  6
CONTINUOUS
 62
     7
100
AcDbLine
 10
1580.307861631292
 20
561.14810689918
 30
0.0
 11
1581.273549303512
 21
562.1137945713995
 31
0.0
  0
LINE
  5
289
330
1F
100
AcDbEntity
  8
LAY-1
  6
CONTINUOUS
 62
     7
100
AcDbLine
 10
1585.852190050221
 20
566.6924353181089
 30
0.0
 11
1587.018342073478
 21
567.8585873413659
 31
0.0
  0
LINE
  5
28A
330
1F
100
AcDbEntity
  8
LAY-1
  6
CONTINUOUS
 62
     7
100
AcDbLine
 10
1578.760549592333
 20
558.1865812978479
 30
0.0
 11
1582.220748991246
 21
561.6467806967609
 31
0.0
  0
LINE
  5
28B
330
1F
100
AcDbEntity
  8
LAY-1
  6
CONTINUOUS
 62
     7
100
AcDbLine
 10
1587.222493181165
 20
566.6485248866798
 30
0.0
 11
1588.359170938244
 21
567.7852026437592
 31
0.0
  0
LINE
  5
28C
330
1F
100
AcDbEntity
  8
LAY-1
  6
CONTINUOUS
 62
     7
100
AcDbLine
 10
1578.588367871214
 20
556.6001860143558
 30
0.0
 11
1583.388181856833
 21
561.3999999999749
 31
0.0
  0
LINE
  5
28D
330
1F
100
AcDbEntity
  8
LAY-1
  6
CONTINUOUS
 62
     7
100
AcDbLine
 10
1588.556273891978
 20
566.5680920351192
 30
0.0
 11
1589.666410031562
 21
567.6782281747032
 31
0.0
  0
LINE
  5
28E
330
1F
100
AcDbEntity
  8
LAY-1
  6
CONTINUOUS
 62
     7
100
AcDbLine
 10
1578.416186150093
 20
555.0137907308613
 30
0.0
 11
1584.802395419206
 21
561.3999999999749
 31
0.0
  0
LINE
  5
28F
330
1F
100
AcDbEntity
  8
LAY-1
  6
CONTINUOUS
 62
     7
100
AcDbLine
 10
1589.856142331727
 20
566.4537469124953
 30
0.0
 11
1590.859192680446
 21
567.4567972612142
 31
0.0
  0
LINE
  5
290
330
1F
100
AcDbEntity
  8
LAY-1
  6
CONTINUOUS
 62
     7
100
AcDbLine
 10
1578.244004428974
 20
553.4273954473692
 30
0.0
 11
1581.629020593276
 21
556.8124116116717
 31
0.0
  0
LINE
  5
291
330
1F
100
AcDbEntity
  8
LAY-1
  6
CONTINUOUS
 62
     7
100
AcDbLine
 10
1583.03438724415
 20
558.2177782625454
 30
0.0
 11
1586.21660898158
 21
561.3999999999749
 31
0.0
  0
LINE
  5
292
330
1F
100
AcDbEntity
  8
LAY-1
  6
CONTINUOUS
 62
     7
100
AcDbLine
 10
1590.895133562896
 20
566.078524581291
 30
0.0
 11
1591.74806514089
 21
566.9314561592855
 31
0.0
  0
LINE
  5
293
330
1F
100
AcDbEntity
  8
LAY-1
  6
CONTINUOUS
 62
     7
100
AcDbLine
 10
1578.071822707852
 20
551.8410001638745
 30
0.0
 11
1581.606929333872
 21
555.3761067898943
 31
0.0
  0
LINE
  5
294
330
1F
100
AcDbEntity
  8
LAY-1
  6
CONTINUOUS
 62
     7
100
AcDbLine
 10
1584.630822543952
 20
558.3999999999744
 30
0.0
 11
1587.973257580556
 21
561.7424350365786
 31
0.0
  0
LINE
  5
295
330
1F
100
AcDbEntity
  8
LAY-1
  6
CONTINUOUS
 62
     7
100
AcDbLine
 10
1591.49278085554
 20
565.261958311562
 30
0.0
 11
1592.391741488476
 21
566.160918944498
 31
0.0
  0
LINE
  5
296
330
1F
100
AcDbEntity
  8
LAY-1
  6
CONTINUOUS
 62
     7
100
AcDbLine
 10
1577.899640986733
 20
550.2546048803824
 30
0.0
 11
1581.284657151036
 21
553.6396210446851
 31
0.0
  0
LINE
  5
297
330
1F
100
AcDbEntity
  8
LAY-1
  6
CONTINUOUS
 62
     7
100
AcDbLine
 10
1586.001867053046
 20
558.3568309466953
 30
0.0
 11
1590.79513202536
 21
563.1500959190091
 31
0.0
  0
LINE
  5
298
330
1F
100
AcDbEntity
  8
LAY-1
  6
CONTINUOUS
 62
     7
100
AcDbLine
 10
1591.299904080968
 20
563.6548679746168
 30
0.0
 11
1592.763239098972
 21
565.1182029926215
 31
0.0
  0
LINE
  5
299
330
1F
100
AcDbEntity
  8
LAY-1
  6
CONTINUOUS
 62
     7
100
AcDbLine
 10
1578.292761310157
 20
549.2335116414331
 30
0.0
 11
1581.112475429917
 21
552.0532257611931
 31
0.0
  0
LINE
  5
29A
330
1F
100
AcDbEntity
  8
LAY-1
  6
CONTINUOUS
 62
     7
100
AcDbLine
 10
1587.459249668698
 20
558.3999999999744
 30
0.0
 11
1589.811849334594
 21
560.7525996658703
 31
0.0
  0
LINE
  5
29B
330
1F
100
AcDbEntity
  8
LAY-1
  6
CONTINUOUS
 62
     7
100
AcDbLine
 10
1590.930342263298
 20
561.8710925945738
 30
0.0
 11
1592.578907405403
 21
563.5196577366789
 31
0.0
  0
LINE
  5
29C
330
1F
100
AcDbEntity
  8
LAY-1
  6
CONTINUOUS
 62
     7
100
AcDbLine
 10
1580.342816291491
 20
549.8693530603939
 30
0.0
 11
1581.491357887858
 21
551.0178946567605
 31
0.0
  0
LINE
  5
29D
330
1F
100
AcDbEntity
  8
LAY-1
  6
CONTINUOUS
 62
     7
100
AcDbLine
 10
1588.262178655201
 20
557.7887154241037
 30
0.0
 11
1590.516894217049
 21
560.0434309859525
 31
0.0
  0
LINE
  5
29E
330
1F
100
AcDbEntity
  8
LAY-1
  6
CONTINUOUS
 62
     7
100
AcDbLine
 10
1588.380029870107
 20
556.4923530766371
 30
0.0
 11
1591.024269247216
 21
559.1365924537462
 31
0.0
  0
LINE
  5
29F
330
1F
100
AcDbEntity
  8
LAY-1
  6
CONTINUOUS
 62
     7
100
AcDbLine
 10
1588.048336607166
 20
554.7464462513226
 30
0.0
 11
1591.259221176623
 21
557.9573308207794
 31
0.0
  0
LINE
  5
2A0
330
1F
100
AcDbEntity
  8
LAY-1
  6
CONTINUOUS
 62
     7
100
AcDbLine
 10
1588.61573229992
 20
553.8996283817039
 30
0.0
 11
1591.377072391529
 21
556.6609684733128
 31
0.0
  0
LINE
  5
2A1
330
1F
100
AcDbEntity
  8
LAY-1
  6
CONTINUOUS
 62
     7
100
AcDbLine
 10
1588.733583514824
 20
552.6032660342346
 30
0.0
 11
1591.494923606436
 21
555.3646061258462
 31
0.0
  0
LINE
  5
2A2
330
1F
100
AcDbEntity
  8
LAY-1
  6
CONTINUOUS
 62
     7
100
AcDbLine
 10
1588.393466518613
 20
550.8489354756505
 30
0.0
 11
1591.612774821342
 21
554.0682437783796
 31
0.0
  0
LINE
  5
2A3
330
1F
100
AcDbEntity
  8
LAY-1
  6
CONTINUOUS
 62
     7
100
AcDbLine
 10
1589.106602225455
 20
550.1478576201198
 30
0.0
 11
1591.730626036248
 21
552.771881430913
 31
0.0
  0
LINE
  5
2A4
330
1F
100
AcDbEntity
  8
LAY-1
  6
CONTINUOUS
 62
     7
100
AcDbLine
 10
1589.911401044583
 20
549.5384428768741
 30
0.0
 11
1591.848477251155
 21
551.4755190834462
 31
0.0
  0
LINE
  5
2A5
330
1F
100
AcDbEntity
  8
LAY-1
  6
CONTINUOUS
 62
     7
100
AcDbLine
 10
1590.789179267362
 20
549.0020075372804
 30
0.0
 11
1591.966328466061
 21
550.1791567359796
 31
0.0
  0
LINE
  5
2A6
330
1F
100
AcDbEntity
  8
LAY-1
  6
CONTINUOUS
 62
     7
100
AcDbLine
 10
1587.749999999998
 20
558.3999999999746
 30
0.0
 11
1586.999999999998
 21
558.3999999999746
 31
0.0
  0
ARC
  5
2A7
330
1F
100
AcDbEntity
  8
LAY-1
  6
CONTINUOUS
 62
     7
100
AcDbCircle
 10
1586.499999999998
 20
558.3999999999746
 30
0.0
 40
0.5
100
AcDbArc
 50
180.0
 51
0.0
  0
LINE
  5
2A8
330
1F
100
AcDbEntity
  8
LAY-1
  6
CONTINUOUS
 62
     7
100
AcDbLine
 10
1583.999999999998
 20
558.3999999999746
 30
0.0
 11
1585.999999999998
 21
558.3999999999746
 31
0.0
  0
ARC
  5
2A9
330
1F
100
AcDbEntity
  8
LAY-1
  6
CONTINUOUS
 62
     7
100
AcDbCircle
 10
1583.499999999998
 20
558.3999999999746
 30
0.0
 40
0.5
100
AcDbArc
 50
180.0
 51
0.0
  0
LINE
  5
2AA
330
1F
100
AcDbEntity
  8
LAY-1
  6
CONTINUOUS
 62
     7
100
AcDbLine
 10
1582.249999999998
 20
558.3999999999746
 30
0.0
 11
1582.999999999998
 21
558.3999999999746
 31
0.0
  0
LINE
  5
2AB
330
1F
100
AcDbEntity
  8
LAY-1
  6
CONTINUOUS
 62
     7
100
AcDbLine
 10
1581.752919273576
 20
557.9539513801271
 30
0.0
 11
1581.476631264962
 21
555.4083734238882
 31
0.0
  0
ARC
  5
2AC
330
1F
100
AcDbEntity
  8
LAY-1
  6
CONTINUOUS
 62
     7
100
AcDbCircle
 10
1581.422679884806
 20
554.9112926974672
 30
0.0
 40
0.5
100
AcDbArc
 50
263.805567041983
 51
83.8055670410148
  0
LINE
  5
2AD
330
1F
100
AcDbEntity
  8
LAY-1
  6
CONTINUOUS
 62
     7
100
AcDbLine
 10
1581.368728504658
 20
554.4142119710451
 30
0.0
 11
1581.048214254701
 21
551.4611557980849
 31
0.0
  0
ARC
  5
2AE
330
1F
100
AcDbEntity
  8
LAY-1
  6
CONTINUOUS
 62
     7
100
AcDbCircle
 10
1580.994262874545
 20
550.9640750716637
 30
0.0
 40
0.5
100
AcDbArc
 50
306.1339591617556
 51
83.8055670410415
  0
LINE
  5
2AF
330
1F
100
AcDbEntity
  8
LAY-1
  6
CONTINUOUS
 62
     7
100
AcDbLine
 10
1579.472028181003
 20
549.2335725464073
 30
0.0
 11
1581.289100448935
 21
550.5602548087647
 31
0.0
  0
ARC
  5
2B0
330
1F
100
AcDbEntity
  8
LAY-1
  6
CONTINUOUS
 62
     7
100
AcDbCircle
 10
1578.882353032222
 20
550.0412130722052
 30
0.0
 40
1.0
100
AcDbArc
 50
173.8055670414987
 51
306.1339591617602
  0
LINE
  5
2B1
330
1F
100
AcDbEntity
  8
LAY-1
  6
CONTINUOUS
 62
     7
100
AcDbLine
 10
1578.770434915047
 20
558.2776596610383
 30
0.0
 11
1577.88819157938
 21
550.1491158325091
 31
0.0
  0
ARC
  5
2B2
330
1F
100
AcDbEntity
  8
LAY-1
  6
CONTINUOUS
 62
     7
100
AcDbCircle
 10
1582.249999999997
 20
557.8999999999753
 30
0.0
 40
0.5
100
AcDbArc
 50
90.00000000000001
 51
173.8055670414951
  0
LINE
  5
2B3
330
1F
100
AcDbEntity
  8
LAY-1
  6
CONTINUOUS
 62
     7
100
AcDbLine
 10
1588.247946600032
 20
557.9452679081999
 30
0.0
 11
1588.479766067534
 21
555.3952557651933
 31
0.0
  0
ARC
  5
2B4
330
1F
100
AcDbEntity
  8
LAY-1
  6
CONTINUOUS
 62
     7
100
AcDbCircle
 10
1588.525033975764
 20
554.8973091651601
 30
0.0
 40
0.5
100
AcDbArc
 50
95.19443295898522
 51
275.194432958017
  0
LINE
  5
2B5
330
1F
100
AcDbEntity
  8
LAY-1
  6
CONTINUOUS
 62
     7
100
AcDbLine
 10
1588.570301883985
 20
554.3993625651262
 30
0.0
 11
1588.839229381507
 21
551.4411624119655
 31
0.0
  0
ARC
  5
2B6
330
1F
100
AcDbEntity
  8
LAY-1
  6
CONTINUOUS
 62
     7
100
AcDbCircle
 10
1588.884497289737
 20
550.9432158119323
 30
0.0
 40
0.5
100
AcDbArc
 50
95.19443295895869
 51
232.866040838247
  0
LINE
  5
2B7
330
1F
100
AcDbEntity
  8
LAY-1
  6
CONTINUOUS
 62
     7
100
AcDbLine
 10
1590.376298706151
 20
549.1864101920278
 30
0.0
 11
1588.582656985182
 21
550.5446026779965
 31
0.0
  0
ARC
  5
2B8
330
1F
100
AcDbEntity
  8
LAY-1
  6
CONTINUOUS
 62
     7
100
AcDbCircle
 10
1590.979979315261
 20
549.9836364598992
 30
0.0
 40
1.0
100
AcDbArc
 50
232.86604083824
 51
5.194432958501033
  0
LINE
  5
2B9
330
1F
100
AcDbEntity
  8
LAY-1
  6
CONTINUOUS
 62
     7
100
AcDbLine
 10
1591.235626200233
 20
558.216875357554
 30
0.0
 11
1591.975872515328
 21
550.0741722763506
 31
0.0
  0
ARC
  5
2BA
330
1F
100
AcDbEntity
  8
LAY-1
  6
CONTINUOUS
 62
     7
100
AcDbCircle
 10
1587.749999999999
 20
557.8999999999742
 30
0.0
 40
0.5
100
AcDbArc
 50
5.194432958502293
 51
90.00000000000001
  0
ARC
  5
2BB
330
1F
100
AcDbEntity
  8
LAY-1
  6
CONTINUOUS
 62
     7
100
AcDbCircle
 10
1582.249999999997
 20
557.8999999999753
 30
0.0
 40
3.5
100
AcDbArc
 50
128.1185061700335
 51
173.8055670414981
  0
ARC
  5
2BC
330
1F
100
AcDbEntity
  8
LAY-1
  6
CONTINUOUS
 62
     7
100
AcDbCircle
 10
1587.749999999999
 20
557.899999999974
 30
0.0
 40
3.5
100
AcDbArc
 50
5.194432958501778
 51
51.88149382977241
  0
LINE
  5
2BD
330
1F
100
AcDbEntity
  8
LAY-1
  6
CONTINUOUS
 62
     7
100
AcDbLine
 10
1587.045603747348
 20
561.3999999999746
 30
0.0
 11
1582.954396252646
 21
561.3999999999746
 31
0.0
  0
ARC
  5
2BE
330
1F
100
AcDbEntity
  8
LAY-1
  6
CONTINUOUS
 62
     7
100
AcDbCircle
 10
1584.999999999998
 20
518.6949999999238
 30
0.0
 40
49.20500000005277
100
AcDbArc
 50
84.03707756004043
 51
95.96292243996048
  0
ARC
  5
2BF
330
1F
100
AcDbEntity
  8
LAY-1
  6
CONTINUOUS
 62
     7
100
AcDbCircle
 10
1589.8
 20
564.6499999999767
 30
0.0
 40
3.0
100
AcDbArc
 50
277.6299213011758
 51
84.03707756003955
  0
ARC
  5
2C0
330
1F
100
AcDbEntity
  8
LAY-1
  6
CONTINUOUS
 62
     7
100
AcDbCircle
 10
1590.265270409297
 20
561.1057103210504
 30
0.0
 40
0.574698012687244
100
AcDbArc
 50
97.4786396192178
 51
231.8814938297725
  0
ARC
  5
2C1
330
1F
100
AcDbEntity
  8
LAY-1
  6
CONTINUOUS
 62
     7
100
AcDbCircle
 10
1579.734729590712
 20
561.1057103210578
 30
0.0
 40
0.574698012678255
100
AcDbArc
 50
308.1185061700329
 51
82.52136038097277
  0
ARC
  5
2C2
330
1F
100
AcDbEntity
  8
LAY-1
  6
CONTINUOUS
 62
     7
100
AcDbCircle
 10
1580.199999999996
 20
564.6499999999767
 30
0.0
 40
3.0
100
AcDbArc
 50
95.96292243996042
 51
262.5213603809735
  0
ARC
  5
2C3
330
1F
100
AcDbEntity
  8
LAY-1
  6
CONTINUOUS
 62
     7
100
AcDbCircle
 10
1584.999999999998
 20
518.6949999999238
 30
0.0
 40
48.00500000005277
100
AcDbArc
 50
84.03707756004043
 51
95.96292243996048
  0
LINE
  5
2C4
330
1F
100
AcDbEntity
  8
LAY-1
  6
CONTINUOUS
 62
     7
100
AcDbLine
 10
1587.487821357795
 20
561.5030922092784
 30
0.0
 11
1590.595991698803
 21
563.0355659767235
 31
0.0
  0
LINE
  5
2C5
330
1F
100
AcDbEntity
  8
LAY-1
  6
CONTINUOUS
 62
     7
100
AcDbLine
 10
1579.404008301193
 20
563.0355659767235
 30
0.0
 11
1582.512178642201
 21
561.5030922092784
 31
0.0
  0
ARC
  5
2C6
330
1F
100
AcDbEntity
  8
LAY-1
  6
CONTINUOUS
 62
     7
100
AcDbCircle
 10
1582.954396252646
 20
562.3999999999746
 30
0.0
 40
1.0
100
AcDbArc
 50
243.7545407684272
 51
270.0
  0
ARC
  5
2C7
330
1F
100
AcDbEntity
  8
LAY-1
  6
CONTINUOUS
 62
     7
100
AcDbCircle
 10
1580.199999999996
 20
564.6499999999767
 30
0.0
 40
1.8
100
AcDbArc
 50
95.96292243996122
 51
243.7545407684302
  0
ARC
  5
2C8
330
1F
100
AcDbEntity
  8
LAY-1
  6
CONTINUOUS
 62
     7
100
AcDbCircle
 10
1589.8
 20
564.6499999999767
 30
0.0
 40
1.8
100
AcDbArc
 50
296.2454592315698
 51
84.03707756003881
  0
ARC
  5
2C9
330
1F
100
AcDbEntity
  8
LAY-1
  6
CONTINUOUS
 62
     7
100
AcDbCircle
 10
1587.04560374735
 20
562.3999999999746
 30
0.0
 40
1.0
100
AcDbArc
 50
270.0
 51
296.2454592315728
  0
LINE
  5
2CA
330
1F
100
AcDbEntity
  8
LAY-1
  6
CENTER
 62
     2
100
AcDbLine
 10
710.4000000000001
 20
1501.6
 30
0.0
 11
1654.4
 21
1501.6
 31
0.0
  0
LINE
  5
2CB
330
1F
100
AcDbEntity
  8
LAY-1
  6
CENTER
 62
     2
100
AcDbLine
 10
1605.0
 20
1090.4
 30
0.0
 11
1605.0
 21
1064.8
 31
0.0
  0
LINE
  5
2CC
330
1F
100
AcDbEntity
  8
LAY-1
  6
CENTER
 62
     2
100
AcDbLine
 10
1620.88
 20
1076.6
 30
0.0
 11
1595.6
 21
1076.6
 31
0.0
  0
LINE
  5
2CD
330
1F
100
AcDbEntity
  8
LAY-1
  6
CENTER
 62
     2
100
AcDbLine
 10
1605.0
 20
1912.8
 30
0.0
 11
1605.0
 21
1938.4
 31
0.0
  0
LINE
  5
2CE
330
1F
100
AcDbEntity
  8
LAY-1
  6
CENTER
 62
     2
100
AcDbLine
 10
1620.88
 20
1926.6
 30
0.0
 11
1595.6
 21
1926.6
 31
0.0
  0
LINE
  5
2CF
330
1F
100
AcDbEntity
  8
LAY-1
  6
CENTER
 62
     2
100
AcDbLine
 10
755.0
 20
1090.4
 30
0.0
 11
755.0
 21
1064.8
 31
0.0
  0
LINE
  5
2D0
330
1F
100
AcDbEntity
  8
LAY-1
  6
CENTER
 62
     2
100
AcDbLine
 10
739.1200000000003
 20
1076.6
 30
0.0
 11
764.4000000000005
 21
1076.6
 31
0.0
  0
LINE
  5
2D1
330
1F
100
AcDbEntity
  8
LAY-1
  6
CENTER
 62
     2
100
AcDbLine
 10
755.0000000000005
 20
1912.8
 30
0.0
 11
755.0000000000005
 21
1938.4
 31
0.0
  0
LINE
  5
2D2
330
1F
100
AcDbEntity
  8
LAY-1
  6
CENTER
 62
     2
100
AcDbLine
 10
739.1200000000008
 20
1926.6
 30
0.0
 11
764.400000000001
 21
1926.6
 31
0.0
  0
LINE
  5
2D3
330
1F
100
AcDbEntity
  8
LAY-1
  6
CENTER
 62
     2
100
AcDbLine
 10
1180.0
 20
2010.4
 30
0.0
 11
1180.0
 21
1017.6
 31
0.0
  0
LINE
  5
2D4
330
1F
100
AcDbEntity
  8
LAY-1
  6
CENTER
 62
     2
100
AcDbLine
 10
1180.0
 20
608.8
 30
0.0
 11
1180.0
 21
509.6
 31
0.0
  0
LINE
  5
2D5
330
1F
100
AcDbEntity
  8
LAY-1
  6
CENTER
 62
     2
100
AcDbLine
 10
1411.082496091863
 20
1694.781572620165
 30
0.0
 11
1370.070302783043
 21
1735.793765928984
 31
0.0
  0
LINE
  5
2D6
330
1F
100
AcDbEntity
  8
LAY-1
  6
CENTER
 62
     2
100
AcDbLine
 10
1430.000000000167
 20
1751.599999999932
 30
0.0
 11
1355.600000000161
 21
1677.199999999937
 31
0.0
  0
LINE
  5
2D7
330
1F
100
AcDbEntity
  8
LAY-1
  6
CENTER
 62
     2
100
AcDbLine
 10
1411.082496091863
 20
1308.418427379836
 30
0.0
 11
1370.070302783043
 21
1267.406234071016
 31
0.0
  0
LINE
  5
2D8
330
1F
100
AcDbEntity
  8
LAY-1
  6
CENTER
 62
     2
100
AcDbLine
 10
1430.000000000167
 20
1251.600000000068
 30
0.0
 11
1355.600000000161
 21
1326.000000000063
 31
0.0
  0
LINE
  5
2D9
330
1F
100
AcDbEntity
  8
LAY-1
  6
CENTER
 62
     2
100
AcDbLine
 10
948.9175039081379
 20
1694.781572620165
 30
0.0
 11
989.9296972169577
 21
1735.793765928984
 31
0.0
  0
LINE
  5
2DA
330
1F
100
AcDbEntity
  8
LAY-1
  6
CENTER
 62
     2
100
AcDbLine
 10
929.9999999998336
 20
1751.599999999932
 30
0.0
 11
1004.39999999984
 21
1677.199999999937
 31
0.0
  0
LINE
  5
2DB
330
1F
100
AcDbEntity
  8
LAY-1
  6
CENTER
 62
     2
100
AcDbLine
 10
948.9175039081376
 20
1308.418427379836
 30
0.0
 11
989.9296972169575
 21
1267.406234071016
 31
0.0
  0
LINE
  5
2DC
330
1F
100
AcDbEntity
  8
LAY-1
  6
CENTER
 62
     2
100
AcDbLine
 10
929.9999999998333
 20
1251.600000000069
 30
0.0
 11
1004.39999999984
 21
1326.000000000063
 31
0.0
  0
LINE
  5
2DD
330
1F
100
AcDbEntity
  8
LAY-1
  6
CONTINUOUS
 62
     7
100
AcDbLine
 10
1277.455089820362
 20
1126.55499540973
 30
0.0
 11
1285.0
 21
1097.51925311888
 31
0.0
  0
LINE
  5
2DE
330
1F
100
AcDbEntity
  8
LAY-1
  6
CONTINUOUS
 62
     7
100
AcDbLine
 10
1281.741389332829
 20
1133.916794377788
 30
0.0
 11
1290.796304913565
 21
1099.069965322461
 31
0.0
  0
LINE
  5
2DF
330
1F
100
AcDbEntity
  8
LAY-1
  6
CONTINUOUS
 62
     7
100
AcDbLine
 10
1082.544910179639
 20
1126.55499540973
 30
0.0
 11
1075.0
 21
1097.51925311888
 31
0.0
  0
LINE
  5
2E0
330
1F
100
AcDbEntity
  8
LAY-1
  6
CONTINUOUS
 62
     7
100
AcDbLine
 10
1078.258610667171
 20
1133.916794377788
 30
0.0
 11
1069.203695086435
 21
1099.069965322461
 31
0.0
  0
ARC
  5
2E1
330
1F
100
AcDbEntity
  8
LAY-1
  6
CONTINUOUS
 62
     7
100
AcDbCircle
 10
1180.0
 20
1501.6
 30
0.0
 40
381.4999999999999
100
AcDbArc
 50
254.5327346904342
 51
285.4672653095659
  0
ARC
  5
2E2
330
1F
100
AcDbEntity
  8
LAY-1
  6
CONTINUOUS
 62
     7
100
AcDbCircle
 10
1180.0
 20
1501.6
 30
0.0
 40
387.4999999999999
100
AcDbArc
 50
255.4338850202278
 51
284.5661149797722
  0
ARC
  5
2E3
330
1F
100
AcDbEntity
  8
LAY-1
  6
CONTINUOUS
 62
     7
100
AcDbCircle
 10
1180.0
 20
1501.6
 30
0.0
 40
417.5
100
AcDbArc
 50
255.4338850202278
 51
284.5661149797722
  0
LINE
  5
2E4
330
1F
100
AcDbEntity
  8
LAY-1
  6
CONTINUOUS
 62
     7
100
AcDbLine
 10
1275.849637378023
 20
1907.948492078538
 30
0.0
 11
1268.088281165963
 21
1872.790927584749
 31
0.0
  0
LINE
  5
2E5
330
1F
100
AcDbEntity
  8
LAY-1
  6
CONTINUOUS
 62
     7
100
AcDbLine
 10
1263.522920010146
 20
1879.943986119761
 30
0.0
 11
1270.0
 21
1909.2840075352
 31
0.0
  0
LINE
  5
2E6
330
1F
100
AcDbEntity
  8
LAY-1
  6
CONTINUOUS
 62
     7
100
AcDbLine
 10
1084.150362621978
 20
1907.948492078538
 30
0.0
 11
1091.911718834038
 21
1872.790927584749
 31
0.0
  0
LINE
  5
2E7
330
1F
100
AcDbEntity
  8
LAY-1
  6
CONTINUOUS
 62
     7
100
AcDbLine
 10
1096.477079989854
 20
1879.943986119761
 30
0.0
 11
1090.000000000001
 21
1909.2840075352
 31
0.0
  0
ARC
  5
2E8
330
1F
100
AcDbEntity
  8
LAY-1
  6
CONTINUOUS
 62
     7
100
AcDbCircle
 10
1180.0
 20
1501.6
 30
0.0
 40
381.4999999999999
100
AcDbArc
 50
76.64994633569097
 51
103.3500536643018
  0
ARC
  5
2E9
330
1F
100
AcDbEntity
  8
LAY-1
  6
CONTINUOUS
 62
     7
100
AcDbCircle
 10
1180.0
 20
1501.6
 30
0.0
 40
387.4999999999999
100
AcDbArc
 50
77.55109666549177
 51
102.4489033345081
  0
ARC
  5
2EA
330
1F
100
AcDbEntity
  8
LAY-1
  6
CONTINUOUS
 62
     7
100
AcDbCircle
 10
1180.0
 20
1501.6
 30
0.0
 40
417.5
100
AcDbArc
 50
103.2723440809753
 51
254.6104442737606
  0
ARC
  5
2EB
330
1F
100
AcDbEntity
  8
LAY-1
  6
CONTINUOUS
 62
     7
100
AcDbCircle
 10
1180.0
 20
1501.6
 30
0.0
 40
417.5
100
AcDbArc
 50
285.3895557262395
 51
76.72765591902449
  0
ARC
  5
2EC
330
1F
100
AcDbEntity
  8
LAY-1
  6
CONTINUOUS
 62
     7
100
AcDbCircle
 10
1180.0
 20
1501.6
 30
0.0
 40
417.5
100
AcDbArc
 50
77.55109666549171
 51
102.4489033345082
  0
LINE
  5
2ED
330
1F
100
AcDbEntity
  8
LAY-1
  6
CONTINUOUS
 62
     7
100
AcDbLine
 10
1405.567063198609
 20
1761.108188695463
 30
0.0
 11
1344.755880016565
 21
1700.297005513419
 31
0.0
  0
LINE
  5
2EE
330
1F
100
AcDbEntity
  8
LAY-1
  6
CONTINUOUS
 62
     7
100
AcDbLine
 10
1439.508188695563
 20
1727.167063198509
 30
0.0
 11
1378.697005513519
 21
1666.355880016465
 31
0.0
  0
LINE
  5
2EF
330
1F
100
AcDbEntity
  8
LAY-1
  6
CONTINUOUS
 62
     7
100
AcDbLine
 10
1405.567063198609
 20
1761.108188695463
 30
0.0
 11
1439.508188695563
 21
1727.167063198509
 31
0.0
  0
LINE
  5
2F0
330
1F
100
AcDbEntity
  8
LAY-1
  6
CONTINUOUS
 62
     7
100
AcDbLine
 10
1344.755880016565
 20
1700.29700551342
 30
0.0
 11
1378.697005513519
 21
1666.355880016465
 31
0.0
  0
LINE
  5
2F1
330
1F
100
AcDbEntity
  8
LAY-1
  6
CONTINUOUS
 62
     7
100
AcDbLine
 10
1405.567063198609
 20
1242.091811304537
 30
0.0
 11
1344.755880016565
 21
1302.902994486581
 31
0.0
  0
LINE
  5
2F2
330
1F
100
AcDbEntity
  8
LAY-1
  6
CONTINUOUS
 62
     7
100
AcDbLine
 10
1439.508188695563
 20
1276.032936801491
 30
0.0
 11
1378.697005513519
 21
1336.844119983535
 31
0.0
  0
LINE
  5
2F3
330
1F
100
AcDbEntity
  8
LAY-1
  6
CONTINUOUS
 62
     7
100
AcDbLine
 10
1405.567063198609
 20
1242.091811304537
 30
0.0
 11
1439.508188695563
 21
1276.032936801491
 31
0.0
  0
LINE
  5
2F4
330
1F
100
AcDbEntity
  8
LAY-1
  6
CONTINUOUS
 62
     7
100
AcDbLine
 10
1344.755880016565
 20
1302.902994486581
 30
0.0
 11
1378.697005513519
 21
1336.844119983535
 31
0.0
  0
LINE
  5
2F5
330
1F
100
AcDbEntity
  8
LAY-1
  6
CONTINUOUS
 62
     7
100
AcDbLine
 10
954.4329368013923
 20
1761.108188695463
 30
0.0
 11
1015.244119983436
 21
1700.297005513419
 31
0.0
  0
LINE
  5
2F6
330
1F
100
AcDbEntity
  8
LAY-1
  6
CONTINUOUS
 62
     7
100
AcDbLine
 10
920.4918113044382
 20
1727.167063198509
 30
0.0
 11
981.302994486482
 21
1666.355880016465
 31
0.0
  0
LINE
  5
2F7
330
1F
100
AcDbEntity
  8
LAY-1
  6
CONTINUOUS
 62
     7
100
AcDbLine
 10
954.4329368013923
 20
1761.108188695463
 30
0.0
 11
920.4918113044382
 21
1727.167063198509
 31
0.0
  0
LINE
  5
2F8
330
1F
100
AcDbEntity
  8
LAY-1
  6
CONTINUOUS
 62
     7
100
AcDbLine
 10
1015.244119983436
 20
1700.29700551342
 30
0.0
 11
981.302994486482
 21
1666.355880016465
 31
0.0
  0
LINE
  5
2F9
330
1F
100
AcDbEntity
  8
LAY-1
  6
CONTINUOUS
 62
     7
100
AcDbLine
 10
954.4329368013921
 20
1242.091811304537
 30
0.0
 11
1015.244119983436
 21
1302.902994486581
 31
0.0
  0
LINE
  5
2FA
330
1F
100
AcDbEntity
  8
LAY-1
  6
CONTINUOUS
 62
     7
100
AcDbLine
 10
920.491811304438
 20
1276.032936801491
 30
0.0
 11
981.3029944864818
 21
1336.844119983535
 31
0.0
  0
LINE
  5
2FB
330
1F
100
AcDbEntity
  8
LAY-1
  6
CONTINUOUS
 62
     7
100
AcDbLine
 10
954.4329368013921
 20
1242.091811304537
 30
0.0
 11
920.491811304438
 21
1276.032936801491
 31
0.0
  0
LINE
  5
2FC
330
1F
100
AcDbEntity
  8
LAY-1
  6
CONTINUOUS
 62
     7
100
AcDbLine
 10
1015.244119983436
 20
1302.902994486581
 30
0.0
 11
981.3029944864818
 21
1336.844119983535
 31
0.0
  0
LINE
  5
2FD
330
1F
100
AcDbEntity
  8
LAY-1
  6
PHANTOM
 62
     7
100
AcDbLine
 10
837.0
 20
584.49977064219
 30
0.0
 11
836.6932827778642
 21
580.9939767510187
 31
0.0
  0
LINE
  5
2FE
330
1F
100
AcDbEntity
  8
LAY-1
  6
PHANTOM
 62
     7
100
AcDbLine
 10
836.6932827778642
 20
580.9939767510187
 30
0.0
 11
762.8057954117276
 21
579.7229763949463
 31
0.0
  0
LINE
  5
2FF
330
1F
100
AcDbEntity
  8
LAY-1
  6
PHANTOM
 62
     7
100
AcDbLine
 10
762.5
 20
583.2182339449399
 30
0.0
 11
762.8057954117276
 21
579.7229763949463
 31
0.0
  0
LINE
  5
300
330
1F
100
AcDbEntity
  8
LAY-1
  6
PHANTOM
 62
     7
100
AcDbLine
 10
1180.0
 20
586.8994822078369
 30
0.0
 11
923.176562865618
 21
582.4816478534494
 31
0.0
  0
LINE
  5
301
330
1F
100
AcDbEntity
  8
LAY-1
  6
PHANTOM
 62
     7
100
AcDbLine
 10
922.8707674538905
 20
585.9769054034383
 30
0.0
 11
923.176562865618
 21
582.4816478534494
 31
0.0
  0
LINE
  5
302
330
1F
100
AcDbEntity
  8
LAY-1
  6
PHANTOM
 62
     7
100
AcDbLine
 10
1597.5
 20
583.2182339449399
 30
0.0
 11
1597.194204588273
 21
579.722976394946
 31
0.0
  0
LINE
  5
303
330
1F
100
AcDbEntity
  8
LAY-1
  6
PHANTOM
 62
     7
100
AcDbLine
 10
1180.0
 20
586.8994822078369
 30
0.0
 11
1597.1942045883
 21
579.722976394946
 31
0.0
  0
DIMENSION
  5
305
330
1F
100
AcDbEntity
  8
LAY-2
  6
CONTINUOUS
 62
     4
100
AcDbDimension
  2
*D15
 10
1890.0
 20
582.8999999999801
 30
0.0
 11
1870.0
 21
634.8999999999796
 31
0.0
 70
   160
  3
ISO-25
100
AcDbAlignedDimension
 13
1810.0
 23
529.8999999999801
 33
0.0
 14
1626.5
 24
582.8999999999801
 34
0.0
 50
90.0
100
AcDbRotatedDimension
1001
ACAD
1000
DSTYLE
1002
{
1070
   270
1070
     2
1070
     6
1000
EX_BNORM
1070
     7
1000
EX_BNORM
1070
    41
1040
24.0
1070
    42
1040
12.0
1070
    44
1040
12.0
1070
    73
1070
     0
1070
    74
1070
     0
1070
    75
1070
     0
1070
    76
1070
     0
1070
    77
1070
     1
1070
    78
1070
     8
1070
   140
1040
24.9448832
1070
   147
1040
0.0
1070
   173
1070
     1
1070
   176
1070
     4
1070
   177
1070
     4
1070
   178
1070
     7
1070
   271
1070
     1
1070
   277
1070
     2
1070
   279
1070
     2
1070
   280
1070
     2
1070
   287
1070
     5
1070
   340
1005
304
1002
}
  0
DIMENSION
  5
313
330
1F
100
AcDbEntity
  8
LAY-2
  6
CONTINUOUS
 62
     4
100
AcDbDimension
  2
*D16
 10
1626.5
 20
782.4
 30
0.0
 11
1180.0
 21
802.4
 31
0.0
 70
   160
  1
%%c<>
  3
ISO-25
100
AcDbAlignedDimension
 13
733.5
 23
582.89999999998
 33
0.0
 14
1626.5
 24
582.89999999998
 34
0.0
100
AcDbRotatedDimension
1001
ACAD
1000
DSTYLE
1002
{
1070
   270
1070
     2
1070
     6
1000
EX_BNORM
1070
     7
1000
EX_BNORM
1070
    41
1040
24.0
1070
    42
1040
12.0
1070
    44
1040
12.0
1070
    73
1070
     0
1070
    74
1070
     0
1070
    75
1070
     0
1070
    76
1070
     0
1070
    77
1070
     1
1070
    78
1070
     8
1070
   140
1040
24.9448832
1070
   147
1040
0.0
1070
   173
1070
     1
1070
   176
1070
     4
1070
   177
1070
     4
1070
   178
1070
     7
1070
   271
1070
     1
1070
   277
1070
     2
1070
   279
1070
     2
1070
   280
1070
     0
1070
   287
1070
     5
1070
   340
1005
304
1002
}
  0
DIMENSION
  5
320
330
1F
100
AcDbEntity
  8
LAY-2
  6
CONTINUOUS
 62
     4
100
AcDbDimension
  2
*D17
 10
1614.0
 20
726.4
 30
0.0
 11
1179.0
 21
746.4
 31
0.0
 70
   160
  1
%%c<>
  3
ISO-25
100
AcDbAlignedDimension
 13
744.0
 23
582.89999999998
 33
0.0
 14
1614.0
 24
582.9344036697
 34
0.0
100
AcDbRotatedDimension
1001
ACAD
1000
DSTYLE
1002
{
1070
   270
1070
     2
1070
     6
1000
EX_BNORM
1070
     7
1000
EX_BNORM
1070
    41
1040
24.0
1070
    42
1040
12.0
1070
    44
1040
12.0
1070
    73
1070
     0
1070
    74
1070
     0
1070
    75
1070
     0
1070
    76
1070
     0
1070
    77
1070
     1
1070
    78
1070
     8
1070
   140
1040
24.9448832
1070
   147
1040
0.0
1070
   173
1070
     1
1070
   176
1070
     4
1070
   177
1070
     4
1070
   178
1070
     7
1070
   271
1070
     1
1070
   277
1070
     2
1070
   279
1070
     2
1070
   280
1070
     0
1070
   287
1070
     5
1070
   340
1005
304
1002
}
  0
DIMENSION
  5
32D
330
1F
100
AcDbEntity
  8
LAY-2
  6
CONTINUOUS
 62
     4
100
AcDbDimension
  2
*D18
 10
1580.0
 20
473.89999999998
 30
0.0
 11
1180.0
 21
493.89999999998
 31
0.0
 70
   160
  1
%%c<>
  3
ISO-25
100
AcDbAlignedDimension
 13
780.0
 23
529.89999999998
 33
0.0
 14
1580.0
 24
529.89999999998
 34
0.0
100
AcDbRotatedDimension
1001
ACAD
1000
DSTYLE
1002
{
1070
   270
1070
     2
1070
     6
1000
EX_BNORM
1070
     7
1000
EX_BNORM
1070
    41
1040
24.0
1070
    42
1040
12.0
1070
    44
1040
12.0
1070
    73
1070
     0
1070
    74
1070
     0
1070
    75
1070
     0
1070
    76
1070
     0
1070
    77
1070
     1
1070
    78
1070
     8
1070
   140
1040
24.9448832
1070
   147
1040
0.0
1070
   173
1070
     1
1070
   176
1070
     4
1070
   177
1070
     4
1070
   178
1070
     7
1070
   271
1070
     1
1070
   277
1070
     2
1070
   279
1070
     2
1070
   280
1070
     0
1070
   287
1070
     5
1070
   340
1005
304
1002
}
  0
DIMENSION
  5
33A
330
1F
100
AcDbEntity
  8
LAY-2
  6
CONTINUOUS
 62
     4
100
AcDbDimension
  2
*D19
 10
1645.0
 20
417.89999999998
 30
0.0
 11
1180.0
 21
437.89999999998
 31
0.0
 70
   160
  1
□<>
  3
ISO-25
100
AcDbAlignedDimension
 13
715.0
 23
517.89999999998
 33
0.0
 14
1645.0
 24
417.6
 34
0.0
100
AcDbRotatedDimension
1001
ACAD
1000
DSTYLE
1002
{
1070
   270
1070
     2
1070
     6
1000
EX_BNORM
1070
     7
1000
EX_NONE
1070
    41
1040
24.0
1070
    42
1040
12.0
1070
    44
1040
12.0
1070
    73
1070
     0
1070
    74
1070
     0
1070
    75
1070
     0
1070
    76
1070
     0
1070
    77
1070
     1
1070
    78
1070
     8
1070
   140
1040
24.9448832
1070
   147
1040
0.0
1070
   173
1070
     1
1070
   176
1070
     4
1070
   177
1070
     4
1070
   178
1070
     7
1070
   271
1070
     1
1070
   277
1070
     2
1070
   279
1070
     2
1070
   280
1070
     0
1070
   287
1070
     5
1070
   340
1005
304
1002
}
  0
LINE
  5
347
330
1F
100
AcDbEntity
  8
LAY-255
  6
CONTINUOUS
 62
     7
100
AcDbLine
 10
3080.0
 20
176.0
 30
0.0
 11
2280.0
 21
176.0
 31
0.0
  0
LINE
  5
348
330
1F
100
AcDbEntity
  8
LAY-255
  6
CONTINUOUS
 62
     7
100
AcDbLine
 10
2310.4
 20
128.0
 30
0.0
 11
2374.4
 21
168.0
 31
0.0
  0
LINE
  5
349
330
1F
100
AcDbEntity
  8
LAY-255
  6
CONTINUOUS
 62
     7
100
AcDbLine
 10
2374.4
 20
168.0
 30
0.0
 11
2438.4
 21
128.0
 31
0.0
  0
LINE
  5
34A
330
1F
100
AcDbEntity
  8
LAY-255
  6
CONTINUOUS
 62
     7
100
AcDbLine
 10
2438.4
 20
128.0
 30
0.0
 11
2374.4
 21
88.0
 31
0.0
  0
LINE
  5
34B
330
1F
100
AcDbEntity
  8
LAY-255
  6
CONTINUOUS
 62
     7
100
AcDbLine
 10
2374.4
 20
88.0
 30
0.0
 11
2310.4
 21
128.0
 31
0.0
  0
LINE
  5
34C
330
1F
100
AcDbEntity
  8
LAY-255
  6
CONTINUOUS
 62
     7
100
AcDbLine
 10
40.0
 20
80.0
 30
0.0
 11
3080.0
 21
80.0
 31
0.0
  0
LINE
  5
34D
330
1F
100
AcDbEntity
  8
LAY-255
  6
CONTINUOUS
 62
     7
100
AcDbLine
 10
40.0
 20
2240.0
 30
0.0
 11
3080.0
 21
2240.0
 31
0.0
  0
LINE
  5
34E
330
1F
100
AcDbEntity
  8
LAY-255
  6
CONTINUOUS
 62
     7
100
AcDbLine
 10
40.0
 20
80.0
 30
0.0
 11
40.0
 21
2240.0
 31
0.0
  0
LINE
  5
34F
330
1F
100
AcDbEntity
  8
LAY-255
  6
CONTINUOUS
 62
     4
100
AcDbLine
 10
2280.0
 20
224.0
 30
0.0
 11
3080.0
 21
224.0
 31
0.0
  0
LINE
  5
350
330
1F
100
AcDbEntity
  8
LAY-255
  6
CONTINUOUS
 62
     4
100
AcDbLine
 10
2680.0
 20
224.0
 30
0.0
 11
2680.0
 21
176.0
 31
0.0
  0
LINE
  5
351
330
1F
100
AcDbEntity
  8
LAY-255
  6
CONTINUOUS
 62
     7
100
AcDbLine
 10
3080.0
 20
80.0
 30
0.0
 11
3080.0
 21
2240.0
 31
0.0
  0
LINE
  5
352
330
1F
100
AcDbEntity
  8
LAY-255
  6
CONTINUOUS
 62
     7
100
AcDbLine
 10
2280.0
 20
80.0
 30
0.0
 11
2280.0
 21
496.0
 31
0.0
  0
LINE
  5
353
330
1F
100
AcDbEntity
  8
LAY-255
  6
CONTINUOUS
 62
     7
100
AcDbLine
 10
3080.0
 20
496.0
 30
0.0
 11
2280.0
 21
496.0
 31
0.0
  0
LINE
  5
354
330
1F
100
AcDbEntity
  8
LAY-255
  6
CONTINUOUS
 62
     4
100
AcDbLine
 10
3064.0
 20
400.0
 30
0.0
 11
2296.0
 21
400.0
 31
0.0
  0
LINE
  5
355
330
1F
100
AcDbEntity
  8
LAY-255
  6
CONTINUOUS
 62
     4
100
AcDbLine
 10
3064.0
 20
448.0
 30
0.0
 11
2296.0
 21
448.0
 31
0.0
  0
POINT
  5
356
330
1F
100
AcDbEntity
  8
LAY-255
  6
CONTINUOUS
 62
     7
100
AcDbPoint
 10
2400.0
 20
408.0
 30
0.0
  0
POINT
  5
357
330
1F
100
AcDbEntity
  8
LAY-255
  6
CONTINUOUS
 62
     7
100
AcDbPoint
 10
2400.0
 20
456.0
 30
0.0
  0
POINT
  5
358
330
1F
100
AcDbEntity
  8
LAY-255
  6
CONTINUOUS
 62
     7
100
AcDbPoint
 10
2312.0
 20
320.0
 30
0.0
  0
POINT
  5
359
330
1F
100
AcDbEntity
  8
LAY-255
  6
CONTINUOUS
 62
     7
100
AcDbPoint
 10
2312.0
 20
360.0
 30
0.0
  0
POINT
  5
35A
330
1F
100
AcDbEntity
  8
LAY-255
  6
CONTINUOUS
 62
     7
100
AcDbPoint
 10
2312.0
 20
279.9999999999999
 30
0.0
  0
TEXT
  5
35B
330
1F
100
AcDbEntity
  8
LAY-255
  6
CONTINUOUS
 62
     7
100
AcDbText
 10
2465.107031088867
 20
124.35
 30
0.0
 40
41.25
  1
福西鋳物株式会社
 41
1.342691919736948
  7
EXCADSTD
100
AcDbText
  0
TEXT
  5
35C
330
1F
100
AcDbEntity
  8
LAY-255
  6
CONTINUOUS
 62
     7
100
AcDbText
 10
2468.0750003125
 20
95.85
 30
0.0
 40
13.75
  1
ＦＵＫＵＮＩＳＨＩ
 41
1.204799292388832
  7
EXCADSTD
100
AcDbText
  0
TEXT
  5
35D
330
1F
100
AcDbEntity
  8
LAY-255
  6
CONTINUOUS
 62
     7
100
AcDbText
 10
2661.753571428571
 20
95.85
 30
0.0
 40
13.75
  1
ＦＯＵＮＤＲＹ
 41
1.243252752978497
  7
EXCADSTD
100
AcDbText
  0
TEXT
  5
35E
330
1F
100
AcDbEntity
  8
LAY-255
  6
CONTINUOUS
 62
     7
100
AcDbText
 10
2815.956731688702
 20
95.85
 30
0.0
 40
13.75
  1
ＣＯ.,ＬＴＤ.
 41
1.243831084312877
  7
EXCADSTD
100
AcDbText
  0
TEXT
  5
35F
330
1F
100
AcDbEntity
  8
LAY-255
  6
CONTINUOUS
 62
     7
100
AcDbText
 10
2352.275
 20
109.75
 30
0.0
 40
41.25
  1
S
 41
0.7582677563636363
  7
EXCADSTD
100
AcDbText
  0
TEXT
  5
360
330
1F
100
AcDbEntity
  8
LAY-255
  6
CONTINUOUS
 62
     7
100
AcDbText
 10
2376.8375
 20
109.99528301888
 30
0.0
 40
41.25
  1
F
 41
0.7440945272727272
  7
EXCADSTD
100
AcDbText
  0
TEXT
  5
361
330
1F
100
AcDbEntity
  8
LAY-255
  6
CONTINUOUS
 62
     7
100
AcDbText
 10
2696.84375
 20
195.3749999999999
 30
0.0
 40
20.625
  1
縮尺
 41
1.080708718181818
  7
EXCADSTD
100
AcDbText
  0
TEXT
  5
362
330
1F
100
AcDbEntity
  8
LAY-255
  6
CONTINUOUS
 62
     7
100
AcDbText
 10
2297.21875
 20
195.3749999999999
 30
0.0
 40
20.625
  1
作成日
 41
1.000629973818182
  7
EXCADSTD
100
AcDbText
  0
TEXT
  5
363
330
1F
100
AcDbEntity
  8
LAY-255
  6
CONTINUOUS
 62
     7
100
AcDbText
 10
2786.25
 20
188.4999999999999
 30
0.0
 40
27.5
  1
１：５
 41
0.888661464
  7
EXCADSTD
100
AcDbText
  0
TEXT
  5
364
330
1F
100
AcDbEntity
  8
LAY-255
  6
CONTINUOUS
 62
     7
100
AcDbText
 10
2298.125
 20
412.5
 30
0.0
 40
27.5
  1
型式
 41
1.056348480681818
  7
EXCADSTD
100
AcDbText
  0
TEXT
  5
365
330
1F
100
AcDbEntity
  8
LAY-255
  6
CONTINUOUS
 62
     7
100
AcDbText
 10
2299.375
 20
460.5
 30
0.0
 40
27.5
  1
品名
 41
0.978838634090909
  7
EXCADSTD
100
AcDbText
  0
TEXT
  5
366
330
1F
100
AcDbEntity
  8
LAY-255
  6
CONTINUOUS
 62
     7
100
AcDbText
 10
2403.125
 20
460.5
 30
0.0
 40
27.5
  1
マンホールカバー
 41
1.015410627012987
  7
EXCADSTD
100
AcDbText
  0
TEXT
  5
367
330
1F
100
AcDbEntity
  8
LAY-255
  6
CONTINUOUS
 62
     7
100
AcDbText
 10
2315.625
 20
364.5000000000001
 30
0.0
 40
27.5
  1
区分：中荷重用
 41
1.00722865752608
  7
EXCADSTD
100
AcDbText
  0
TEXT
  5
368
330
1F
100
AcDbEntity
  8
LAY-255
  6
CONTINUOUS
 62
     7
100
AcDbText
 10
2315.0
 20
324.5
 30
0.0
 40
27.5
  1
防水：簡易防水防臭型
 41
1.013466409710744
  7
EXCADSTD
100
AcDbText
  0
TEXT
  5
369
330
1F
100
AcDbEntity
  8
LAY-255
  6
CONTINUOUS
 62
     7
100
AcDbText
 10
2406.0
 20
412.5
 30
0.0
 40
27.5
  1
ＳＦ－８０ＡＨＰ型
 41
1.00333903406214
  7
EXCADSTD
100
AcDbText
  0
TEXT
  5
36A
330
1F
100
AcDbEntity
  8
LAY-255
  6
CONTINUOUS
 62
     7
100
AcDbText
 10
2410.25
 20
188.4999999999999
 30
0.0
 40
27.5
  1
１６／０２／２７
 41
0.9607424576623377
  7
EXCADSTD
100
AcDbText
  0
TEXT
  5
36B
330
1F
100
AcDbEntity
  8
LAY-255
  6
CONTINUOUS
 62
     7
100
AcDbText
 10
2313.375
 20
284.4999999999999
 30
0.0
 40
27.5
  1
破壊荷重：６０ｋＮ以上
 41
1.016600426804124
  7
EXCADSTD
100
AcDbText
  0
ENDSEC
  0
SECTION
  2
OBJECTS
  0
DICTIONARY
  5
C
330
0
100
AcDbDictionary
  3
ACAD_GROUP
350
D
  3
ACAD_LAYOUT
350
1A
  3
ACAD_MATERIAL
350
43
  3
ACAD_MLEADERSTYLE
350
6B
  3
ACAD_MLINESTYLE
350
17
  3
ACAD_PLOTSETTINGS
350
19
  3
ACAD_SCALELIST
350
47
  3
ACAD_VISUALSTYLE
350
2A
  3
ACDBHEADERROUNDTRIPXREC
350
36C
  3
ACDBVARIABLEDICTIONARY
350
38D
  0
DICTIONARY
  5
398
330
8
100
AcDbDictionary
280
     1
  3
ACAD_XREC_ROUNDTRIP
360
399
  0
DICTIONARY
  5
D
102
{ACAD_REACTORS
330
C
102
}
330
C
100
AcDbDictionary
  0
DICTIONARY
  5
1A
102
{ACAD_REACTORS
330
C
102
}
330
C
100
AcDbDictionary
  0
DICTIONARY
  5
43
102
{ACAD_REACTORS
330
C
102
}
330
C
100
AcDbDictionary
  3
BYBLOCK
350
45
  3
BYLAYER
350
44
  3
GLOBAL
350
46
  0
DICTIONARY
  5
6B
102
{ACAD_REACTORS
330
C
102
}
330
C
100
AcDbDictionary
  3
STANDARD
350
6C
  0
DICTIONARY
  5
17
102
{ACAD_REACTORS
330
C
102
}
330
C
100
AcDbDictionary
  3
STANDARD
350
18
  0
DICTIONARY
  5
19
102
{ACAD_REACTORS
330
C
102
}
330
C
100
AcDbDictionary
  0
DICTIONARY
  5
47
102
{ACAD_REACTORS
330
C
102
}
330
C
100
AcDbDictionary
  3
A0
350
48
  3
A1
350
49
  3
A2
350
4A
  3
A3
350
4B
  3
A4
350
4C
  3
A5
350
4D
  3
A6
350
4E
  3
A7
350
4F
  3
A8
350
50
  3
A9
350
51
  3
B0
350
52
  3
B1
350
53
  3
B2
350
54
  3
B3
350
55
  3
B4
350
56
  3
B5
350
57
  3
B6
350
58
  3
B7
350
59
  3
B8
350
5A
  3
B9
350
5B
  3
C0
350
5C
  3
C1
350
5D
  3
C2
350
5E
  3
C3
350
5F
  3
C4
350
60
  3
C5
350
61
  3
C6
350
62
  3
C7
350
63
  3
C8
350
64
  3
C9
350
65
  3
D0
350
66
  3
D1
350
67
  3
D2
350
68
  0
DICTIONARY
  5
2A
102
{ACAD_REACTORS
330
C
102
}
330
C
100
AcDbDictionary
  3
2DWIREFRAME
350
2F
  3
BASIC
350
32
  3
BRIGHTEN
350
36
  3
COLORCHANGE
350
3A
  3
CONCEPTUAL
350
34
  3
DIM
350
35
  3
EDGECOLOROFF
350
3D
  3
FACEPATTERN
350
39
  3
FLAT
350
2B
  3
FLATWITHEDGES
350
2C
  3
GOURAUD
350
2D
  3
GOURAUDWITHEDGES
350
2E
  3
HIDDEN
350
31
  3
JITTEROFF
350
3B
  3
LINEPATTERN
350
38
  3
OVERHANGOFF
350
3C
  3
REALISTIC
350
33
  3
SHADED
350
42
  3
SHADED_WITH_EDGES
350
41
  3
SHADES_OF_GRAY
350
3E
  3
SKETCHY
350
3F
  3
THICKEN
350
37
  3
WIREFRAME
350
30
  3
X-RAY
350
40
  0
DICTIONARY
  5
36C
102
{ACAD_REACTORS
330
C
102
}
330
C
100
AcDbDictionary
  3
CEPSNID
350
376
  3
CEPSNTYPE
350
375
  3
DIMSTYLEDATA
350
38C
  3
FINGERPRINTGUID
350
377
  3
HYPERLINKBASE
350
36F
  3
INSUNITS
350
374
  3
LAYOUTDICT
350
371
  3
LWETCUNION
350
373
  3
PLOTSETDICT
350
372
  3
PSVPSCALE
350
379
  3
PUCSBASE
350
37C
  3
PUCSORGBACK
350
382
  3
PUCSORGBOTTOM
350
37E
  3
PUCSORGFRONT
350
381
  3
PUCSORGLEFT
350
37F
  3
PUCSORGRIGHT
350
380
  3
PUCSORGTOP
350
37D
  3
PUCSORTHOREF
350
37A
  3
PUCSORTHOVIEW
350
37B
  3
STYLESHEET
350
370
  3
TSTACKALIGN
350
36D
  3
TSTACKSIZE
350
36E
  3
UCSBASE
350
385
  3
UCSORGBACK
350
38B
  3
UCSORGBOTTOM
350
387
  3
UCSORGFRONT
350
38A
  3
UCSORGLEFT
350
388
  3
UCSORGRIGHT
350
389
  3
UCSORGTOP
350
386
  3
UCSORTHOREF
350
383
  3
UCSORTHOVIEW
350
384
  3
VERSIONGUID
350
378
  0
DICTIONARY
  5
38D
102
{ACAD_REACTORS
330
C
102
}
330
C
100
AcDbDictionary
  3
CANNOSCALE
350
39A
  3
CENTEREXE
350
394
  3
CENTERLTYPEFILE
350
395
  3
CMLEADERSTYLE
350
38F
  3
CTABLESTYLE
350
38E
  3
DIMASSOC
350
396
  3
HIDETEXT
350
397
  3
MSLTSCALE
350
39B
  3
PSOLHEIGHT
350
391
  3
PSOLWIDTH
350
390
  0
XRECORD
  5
399
102
{ACAD_REACTORS
330
398
102
}
330
398
100
AcDbXrecord
102
VTR_0.000_0.000_1.000_1.000_VISUALSTYLE
340
2F
102
VTR_0.000_0.000_1.000_1.000_GRIDDISPLAY
 70
     3
102
VTR_0.000_0.000_1.000_1.000_GRIDMAJOR
 70
     5
102
VTR_0.000_0.000_1.000_1.000_DEFAULTLIGHTING
280
     1
102
VTR_0.000_0.000_1.000_1.000_DEFAULTLIGHTINGTYPE
 70
     1
102
VTR_0.000_0.000_1.000_1.000_BRIGHTNESS
141
0.0
102
VTR_0.000_0.000_1.000_1.000_CONTRAST
142
0.0
  0
MATERIAL
  5
45
102
{ACAD_REACTORS
330
43
102
}
102
{ACAD_XDICTIONARY
360
39E
102
}
330
43
100
AcDbMaterial
  1
BYBLOCK
  0
MATERIAL
  5
44
102
{ACAD_REACTORS
330
43
102
}
102
{ACAD_XDICTIONARY
360
39C
102
}
330
43
100
AcDbMaterial
  1
BYLAYER
  0
MATERIAL
  5
46
102
{ACAD_REACTORS
330
43
102
}
102
{ACAD_XDICTIONARY
360
3A0
102
}
330
43
100
AcDbMaterial
  1
GLOBAL
  0
ACAD_PROXY_OBJECT
  5
6C
102
{ACAD_REACTORS
330
6B
102
}
330
6B
100
AcDbProxyObject
 90
      499
 91
      505
 93
      610
310
40901902A4063FBFFFFFE0000000000000020400000000000020404214DD185B99185C990000000000000104090141901A00000000000004100000000000000041025764000000000000039000
340
14
340
0
340
11
340
0
 94
        0
1001
ACAD_MLEADERVER
1070
     2
  0
MLINESTYLE
  5
18
102
{ACAD_REACTORS
330
17
102
}
330
17
100
AcDbMlineStyle
  2
Standard
 70
     0
  3

 62
   256
 51
90.0
 52
90.0
 71
     2
 49
0.5
 62
   256
  6
BYLAYER
 49
-0.5
 62
   256
  6
BYLAYER
  0
ACAD_PROXY_OBJECT
  5
48
102
{ACAD_REACTORS
330
47
102
}
330
47
100
AcDbProxyObject
 90
      499
 91
      503
 93
       41
310
903313A31580
  0
ACAD_PROXY_OBJECT
  5
49
102
{ACAD_REACTORS
330
47
102
}
330
47
100
AcDbProxyObject
 90
      499
 91
      503
 93
      105
310
903313A324000000000000004000
  0
ACAD_PROXY_OBJECT
  5
4A
102
{ACAD_REACTORS
330
47
102
}
330
47
100
AcDbProxyObject
 90
      499
 91
      503
 93
      105
310
903313A344000000000000104000
  0
ACAD_PROXY_OBJECT
  5
4B
102
{ACAD_REACTORS
330
47
102
}
330
47
100
AcDbProxyObject
 90
      499
 91
      503
 93
      105
310
903313A354000000000000144000
  0
ACAD_PROXY_OBJECT
  5
4C
102
{ACAD_REACTORS
330
47
102
}
330
47
100
AcDbProxyObject
 90
      499
 91
      503
 93
      105
310
903313A384000000000000204000
  0
ACAD_PROXY_OBJECT
  5
4D
102
{ACAD_REACTORS
330
47
102
}
330
47
100
AcDbProxyObject
 90
      499
 91
      503
 93
      113
310
904313A31304000000000000244000
  0
ACAD_PROXY_OBJECT
  5
4E
102
{ACAD_REACTORS
330
47
102
}
330
47
100
AcDbProxyObject
 90
      499
 91
      503
 93
      113
310
904313A31364000000000000304000
  0
ACAD_PROXY_OBJECT
  5
4F
102
{ACAD_REACTORS
330
47
102
}
330
47
100
AcDbProxyObject
 90
      499
 91
      503
 93
      113
310
904313A32304000000000000344000
  0
ACAD_PROXY_OBJECT
  5
50
102
{ACAD_REACTORS
330
47
102
}
330
47
100
AcDbProxyObject
 90
      499
 91
      503
 93
      113
310
904313A333040000000000003E4000
  0
ACAD_PROXY_OBJECT
  5
51
102
{ACAD_REACTORS
330
47
102
}
330
47
100
AcDbProxyObject
 90
      499
 91
      503
 93
      113
310
904313A34304000000000000444000
  0
ACAD_PROXY_OBJECT
  5
52
102
{ACAD_REACTORS
330
47
102
}
330
47
100
AcDbProxyObject
 90
      499
 91
      503
 93
      113
310
904313A35304000000000000494000
  0
ACAD_PROXY_OBJECT
  5
53
102
{ACAD_REACTORS
330
47
102
}
330
47
100
AcDbProxyObject
 90
      499
 91
      503
 93
      121
310
905313A3130304000000000000594000
  0
ACAD_PROXY_OBJECT
  5
54
102
{ACAD_REACTORS
330
47
102
}
330
47
100
AcDbProxyObject
 90
      499
 91
      503
 93
      105
310
903323A310000000000000010100
  0
ACAD_PROXY_OBJECT
  5
55
102
{ACAD_REACTORS
330
47
102
}
330
47
100
AcDbProxyObject
 90
      499
 91
      503
 93
      105
310
903343A310000000000000410100
  0
ACAD_PROXY_OBJECT
  5
56
102
{ACAD_REACTORS
330
47
102
}
330
47
100
AcDbProxyObject
 90
      499
 91
      503
 93
      105
310
903383A310000000000000810100
  0
ACAD_PROXY_OBJECT
  5
57
102
{ACAD_REACTORS
330
47
102
}
330
47
100
AcDbProxyObject
 90
      499
 91
      503
 93
      113
310
90431303A310000000000000910100
  0
ACAD_PROXY_OBJECT
  5
58
102
{ACAD_REACTORS
330
47
102
}
330
47
100
AcDbProxyObject
 90
      499
 91
      503
 93
      121
310
9053130303A310000000000001650100
  0
ACAD_PROXY_OBJECT
  5
59
102
{ACAD_REACTORS
330
47
102
}
330
47
100
AcDbProxyObject
 90
      499
 91
      503
 93
      257
310
90E312F31323822203D2031272D3022000000000000200FC000000000000284000
  0
ACAD_PROXY_OBJECT
  5
5A
102
{ACAD_REACTORS
330
47
102
}
330
47
100
AcDbProxyObject
 90
      499
 91
      503
 93
      249
310
90D312F363422203D2031272D3022000000000000240FC000000000000284000
  0
ACAD_PROXY_OBJECT
  5
5B
102
{ACAD_REACTORS
330
47
102
}
330
47
100
AcDbProxyObject
 90
      499
 91
      503
 93
      249
310
90D312F333222203D2031272D3022000000000000280FC000000000000284000
  0
ACAD_PROXY_OBJECT
  5
5C
102
{ACAD_REACTORS
330
47
102
}
330
47
100
AcDbProxyObject
 90
      499
 91
      503
 93
      249
310
90D312F313622203D2031272D30220000000000002C0FC000000000000284000
  0
ACAD_PROXY_OBJECT
  5
5D
102
{ACAD_REACTORS
330
47
102
}
330
47
100
AcDbProxyObject
 90
      499
 91
      503
 93
      249
310
90D332F333222203D2031272D30220000000000002E0FC000000000000284000
  0
ACAD_PROXY_OBJECT
  5
5E
102
{ACAD_REACTORS
330
47
102
}
330
47
100
AcDbProxyObject
 90
      499
 91
      503
 93
      241
310
90C312F3822203D2031272D3022000000000000300FC000000000000284000
  0
ACAD_PROXY_OBJECT
  5
5F
102
{ACAD_REACTORS
330
47
102
}
330
47
100
AcDbProxyObject
 90
      499
 91
      503
 93
      249
310
90D332F313622203D2031272D3022000000000000320FC000000000000284000
  0
ACAD_PROXY_OBJECT
  5
60
102
{ACAD_REACTORS
330
47
102
}
330
47
100
AcDbProxyObject
 90
      499
 91
      503
 93
      241
310
90C312F3422203D2031272D3022000000000000340FC000000000000284000
  0
ACAD_PROXY_OBJECT
  5
61
102
{ACAD_REACTORS
330
47
102
}
330
47
100
AcDbProxyObject
 90
      499
 91
      503
 93
      241
310
90C332F3822203D2031272D3022000000000000360FC000000000000284000
  0
ACAD_PROXY_OBJECT
  5
62
102
{ACAD_REACTORS
330
47
102
}
330
47
100
AcDbProxyObject
 90
      499
 91
      503
 93
      241
310
90C312F3222203D2031272D3022000000000000380FC000000000000284000
  0
ACAD_PROXY_OBJECT
  5
63
102
{ACAD_REACTORS
330
47
102
}
330
47
100
AcDbProxyObject
 90
      499
 91
      503
 93
      241
310
90C332F3422203D2031272D30220000000000003A0FC000000000000284000
  0
ACAD_PROXY_OBJECT
  5
64
102
{ACAD_REACTORS
330
47
102
}
330
47
100
AcDbProxyObject
 90
      499
 91
      503
 93
      161
310
90A3122203D2031272D30224000000000000284000
  0
ACAD_PROXY_OBJECT
  5
65
102
{ACAD_REACTORS
330
47
102
}
330
47
100
AcDbProxyObject
 90
      499
 91
      503
 93
      257
310
90E312D312F3222203D2031272D30220000000000003E0FC000000000000284000
  0
ACAD_PROXY_OBJECT
  5
66
102
{ACAD_REACTORS
330
47
102
}
330
47
100
AcDbProxyObject
 90
      499
 91
      503
 93
      225
310
90A3322203D2031272D302200000000000002100000000000000284000
  0
ACAD_PROXY_OBJECT
  5
67
102
{ACAD_REACTORS
330
47
102
}
330
47
100
AcDbProxyObject
 90
      499
 91
      503
 93
      225
310
90A3622203D2031272D302200000000000006100000000000000284000
  0
ACAD_PROXY_OBJECT
  5
68
102
{ACAD_REACTORS
330
47
102
}
330
47
100
AcDbProxyObject
 90
      499
 91
      503
 93
      249
310
90D31272D3022203D2031272D30220000000000000A100000000000000284000
  0
ACAD_PROXY_OBJECT
  5
2F
102
{ACAD_REACTORS
330
2A
102
}
330
2A
100
AcDbProxyObject
 90
      499
 91
      501
 93
      436
310
42CC9915DA5C99599C985B595049028333333333333E33F0000000000000F90107901411070040501600405405064090741402480A0340
1001
ACAD
1000
AcDbSavedByObjectVersion
1070
     0
  0
ACAD_PROXY_OBJECT
  5
32
102
{ACAD_REACTORS
330
2A
102
}
330
2A
100
AcDbProxyObject
 90
      499
 91
      501
 93
      388
310
4150985CDA58D07406404333333333333E33F0000000000000F90107A41107004050150841D405064090741402480A0350
1001
ACAD
1000
AcDbSavedByObjectVersion
1070
     0
  0
ACAD_PROXY_OBJECT
  5
36
102
{ACAD_REACTORS
330
2A
102
}
330
2A
100
AcDbProxyObject
 90
      499
 91
      501
 93
      428
310
42109C9A59DA1D195B90C409028333333333333E33F0000000000000F9010790141107004050150841D405064090741402480A029950
1001
ACAD
1000
AcDbSavedByObjectVersion
1070
     0
  0
ACAD_PROXY_OBJECT
  5
3A
102
{ACAD_REACTORS
330
2A
102
}
330
2A
100
AcDbProxyObject
 90
      499
 91
      501
 93
      452
310
42D0DBDB1BDC90DA185B99D95104090240C333333333333E33F0000000000000F90108901411070040501508421405064090741402480A0350
1001
ACAD
1000
AcDbSavedByObjectVersion
1070
     0
  0
ACAD_PROXY_OBJECT
  5
34
102
{ACAD_REACTORS
330
2A
102
}
330
2A
100
AcDbProxyObject
 90
      499
 91
      501
 93
      500
310
4290DBDB98D95C1D1D585B10940D028333333333333E33F0000000000000F90107902409070040501000000000018199010841D405064090740C02480A0340
1001
ACAD
1000
AcDbSavedByObjectVersion
1070
     0
  0
ACAD_PROXY_OBJECT
  5
35
102
{ACAD_REACTORS
330
2A
102
}
330
2A
100
AcDbProxyObject
 90
      499
 91
      501
 93
      412
310
40D11A5B50B409028333333333333E33F0000000000000F9010790141107004050150841D405064090741402480A02677FFFFFD0
1001
ACAD
1000
AcDbSavedByObjectVersion
1070
     0
  0
ACAD_PROXY_OBJECT
  5
3D
102
{ACAD_REACTORS
330
2A
102
}
330
2A
100
AcDbProxyObject
 90
      499
 91
      501
 93
      452
310
43115919D950DBDB1BDC93D999916409028333333333333E33F0000000000000F9010790141107004050150841D405064090741402480A0350
1001
ACAD
1000
AcDbSavedByObjectVersion
1070
     0
  0
ACAD_PROXY_OBJECT
  5
39
102
{ACAD_REACTORS
330
2A
102
}
330
2A
100
AcDbProxyObject
 90
      499
 91
      501
 93
      444
310
42D19858D95C185D1D195C9B90F409028333333333333E33F0000000000000F9010790141107004050150841D405064090741402480A0350
1001
ACAD
1000
AcDbSavedByObjectVersion
1070
     0
  0
ACAD_PROXY_OBJECT
  5
2B
102
{ACAD_REACTORS
330
2A
102
}
330
2A
100
AcDbProxyObject
 90
      499
 91
      501
 93
      380
310
41119B185D240901404333333333333E33F0000000000000F9010740A907004050150841D405064090741402480A1B50
1001
ACAD
1000
AcDbSavedByObjectVersion
1070
     0
  0
ACAD_PROXY_OBJECT
  5
2C
102
{ACAD_REACTORS
330
2A
102
}
330
2A
100
AcDbProxyObject
 90
      499
 91
      501
 93
      468
310
43519B185D15DA5D1A115919D95CD0140901404333333333333E33F0000000000000F90107409019070040501600405405064090741402480A1B50
1001
ACAD
1000
AcDbSavedByObjectVersion
1070
     0
  0
ACAD_PROXY_OBJECT
  5
2D
102
{ACAD_REACTORS
330
2A
102
}
330
2A
100
AcDbProxyObject
 90
      499
 91
      501
 93
      404
310
41D1DBDD5C985D5910240902404333333333333E33F0000000000000F9010740A9070040501641D405064090741402480A1B50
1001
ACAD
1000
AcDbSavedByObjectVersion
1070
     0
  0
ACAD_PROXY_OBJECT
  5
2E
102
{ACAD_REACTORS
330
2A
102
}
330
2A
100
AcDbProxyObject
 90
      499
 91
      501
 93
      492
310
4411DBDD5C985D5915DA5D1A115919D95CD0340902404333333333333E33F0000000000000F90107409019070040501600405405064090741402480A1B50
1001
ACAD
1000
AcDbSavedByObjectVersion
1070
     0
  0
ACAD_PROXY_OBJECT
  5
31
102
{ACAD_REACTORS
330
2A
102
}
330
2A
100
AcDbProxyObject
 90
      499
 91
      501
 93
      476
310
41921A5919195B90640502408333333333333E33F0000000000000F901079024090700405020000000000001110200405405064090740C02480A0340
1001
ACAD
1000
AcDbSavedByObjectVersion
1070
     0
  0
ACAD_PROXY_OBJECT
  5
3B
102
{ACAD_REACTORS
330
2A
102
}
330
2A
100
AcDbProxyObject
 90
      499
 91
      501
 93
      428
310
42529A5D1D195C93D999914409028333333333333E33F0000000000000F9010790141107004050150A41D405064090741402480A0350
1001
ACAD
1000
AcDbSavedByObjectVersion
1070
     0
  0
ACAD_PROXY_OBJECT
  5
38
102
{ACAD_REACTORS
330
2A
102
}
330
2A
100
AcDbProxyObject
 90
      499
 91
      501
 93
      444
310
42D31A5B995C185D1D195C9B90E409028333333333333E33F0000000000000F9010790141107004050750841D405064090741402483A0350
1001
ACAD
1000
AcDbSavedByObjectVersion
1070
     0
  0
ACAD_PROXY_OBJECT
  5
3C
102
{ACAD_REACTORS
330
2A
102
}
330
2A
100
AcDbProxyObject
 90
      499
 91
      501
 93
      444
310
42D3DD995C9A185B99D3D999915409028333333333333E33F0000000000000F9010790141107004050150941D405064090741402480A0350
1001
ACAD
1000
AcDbSavedByObjectVersion
1070
     0
  0
ACAD_PROXY_OBJECT
  5
33
102
{ACAD_REACTORS
330
2A
102
}
330
2A
100
AcDbProxyObject
 90
      499
 91
      501
 93
      428
310
425499585B1A5CDD1A58D08409038333333333333E33F0000000000000F9010740A907004050150800405405064090740C02480A1B40
1001
ACAD
1000
AcDbSavedByObjectVersion
1070
     0
  0
ACAD_PROXY_OBJECT
  5
42
102
{ACAD_REACTORS
330
2A
102
}
330
2A
100
AcDbProxyObject
 90
      499
 91
      501
 93
      420
310
4194DA1859195911B40902404333333333333E33F0000000000000F9010740A41107004050150800405405064090840C02480A0B40
1001
ACAD
1000
AcDbSavedByObjectVersion
1070
     0
  0
ACAD_PROXY_OBJECT
  5
41
102
{ACAD_REACTORS
330
2A
102
}
330
2A
100
AcDbProxyObject
 90
      499
 91
      501
 93
      516
310
4454DA18591959081DDA5D1A08195919D95CD1A40902404333333333333E33F0000000000000F901074090142907004050250800405405064090740C02480A0B40
1001
ACAD
1000
AcDbSavedByObjectVersion
1070
     0
  0
ACAD_PROXY_OBJECT
  5
3E
102
{ACAD_REACTORS
330
2A
102
}
330
2A
100
AcDbProxyObject
 90
      499
 91
      501
 93
      532
310
4394DA1859195CC81BD98811DC985E5174090240C333333333333E33F0000000000000F901079024090741D01000000000000111010841D405064090740C02480A0340
1001
ACAD
1000
AcDbSavedByObjectVersion
1070
     0
  0
ACAD_PROXY_OBJECT
  5
3F
102
{ACAD_REACTORS
330
2A
102
}
330
2A
100
AcDbProxyObject
 90
      499
 91
      501
 93
      476
310
41D4DAD95D18DA1E51840502408333333333333E33F0000000000000F901079024090741D01000000000000111010B41D405064090741802480A0340
1001
ACAD
1000
AcDbSavedByObjectVersion
1070
     0
  0
ACAD_PROXY_OBJECT
  5
37
102
{ACAD_REACTORS
330
2A
102
}
330
2A
100
AcDbProxyObject
 90
      499
 91
      501
 93
      412
310
41D51A1A58DAD95B90D409028333333333333E33F0000000000000F9010790141107004050150C41D405064090741402480A0350
1001
ACAD
1000
AcDbSavedByObjectVersion
1070
     0
  0
ACAD_PROXY_OBJECT
  5
30
102
{ACAD_REACTORS
330
2A
102
}
330
2A
100
AcDbProxyObject
 90
      499
 91
      501
 93
      420
310
4255DA5C99599C985B595059028333333333333E33F0000000000000F90107901411070040501600405405064090740C02480A0340
1001
ACAD
1000
AcDbSavedByObjectVersion
1070
     0
  0
ACAD_PROXY_OBJECT
  5
40
102
{ACAD_REACTORS
330
2A
102
}
330
2A
100
AcDbProxyObject
 90
      499
 91
      501
 93
      404
310
41560B54985E51940902404000000000000E03F0000000000000F9010740501907004050150841D405064090740C02480A1B40
1001
ACAD
1000
AcDbSavedByObjectVersion
1070
     0
  0
XRECORD
  5
376
102
{ACAD_REACTORS
330
36C
102
}
330
36C
100
AcDbXrecord
340
0
  0
XRECORD
  5
375
102
{ACAD_REACTORS
330
36C
102
}
330
36C
100
AcDbXrecord
 90
        0
  0
XRECORD
  5
38C
102
{ACAD_REACTORS
330
36C
102
}
330
36C
100
AcDbXrecord
1000
DSTYLE
1002
{
1070
   340
340
11
1002
}
  0
XRECORD
  5
377
102
{ACAD_REACTORS
330
36C
102
}
330
36C
100
AcDbXrecord
  1
{6a339bc3-bdc0-400a-923e-2d356f100eb5}
  0
XRECORD
  5
36F
102
{ACAD_REACTORS
330
36C
102
}
330
36C
100
AcDbXrecord
  1

  0
XRECORD
  5
374
102
{ACAD_REACTORS
330
36C
102
}
330
36C
100
AcDbXrecord
 90
        4
  0
XRECORD
  5
371
102
{ACAD_REACTORS
330
36C
102
}
330
36C
100
AcDbXrecord
340
1A
  0
XRECORD
  5
373
102
{ACAD_REACTORS
330
36C
102
}
330
36C
100
AcDbXrecord
 90
    10781
  0
XRECORD
  5
372
102
{ACAD_REACTORS
330
36C
102
}
330
36C
100
AcDbXrecord
340
19
  0
XRECORD
  5
379
102
{ACAD_REACTORS
330
36C
102
}
330
36C
100
AcDbXrecord
 40
0.0
  0
XRECORD
  5
37C
102
{ACAD_REACTORS
330
36C
102
}
330
36C
100
AcDbXrecord
340
0
  0
XRECORD
  5
382
102
{ACAD_REACTORS
330
36C
102
}
330
36C
100
AcDbXrecord
 10
0.0
 20
0.0
 30
0.0
  0
XRECORD
  5
37E
102
{ACAD_REACTORS
330
36C
102
}
330
36C
100
AcDbXrecord
 10
0.0
 20
0.0
 30
0.0
  0
XRECORD
  5
381
102
{ACAD_REACTORS
330
36C
102
}
330
36C
100
AcDbXrecord
 10
0.0
 20
0.0
 30
0.0
  0
XRECORD
  5
37F
102
{ACAD_REACTORS
330
36C
102
}
330
36C
100
AcDbXrecord
 10
0.0
 20
0.0
 30
0.0
  0
XRECORD
  5
380
102
{ACAD_REACTORS
330
36C
102
}
330
36C
100
AcDbXrecord
 10
0.0
 20
0.0
 30
0.0
  0
XRECORD
  5
37D
102
{ACAD_REACTORS
330
36C
102
}
330
36C
100
AcDbXrecord
 10
0.0
 20
0.0
 30
0.0
  0
XRECORD
  5
37A
102
{ACAD_REACTORS
330
36C
102
}
330
36C
100
AcDbXrecord
340
0
  0
XRECORD
  5
37B
102
{ACAD_REACTORS
330
36C
102
}
330
36C
100
AcDbXrecord
 70
     0
  0
XRECORD
  5
370
102
{ACAD_REACTORS
330
36C
102
}
330
36C
100
AcDbXrecord
  1

  0
XRECORD
  5
36D
102
{ACAD_REACTORS
330
36C
102
}
330
36C
100
AcDbXrecord
 90
        1
  0
XRECORD
  5
36E
102
{ACAD_REACTORS
330
36C
102
}
330
36C
100
AcDbXrecord
 90
       70
  0
XRECORD
  5
385
102
{ACAD_REACTORS
330
36C
102
}
330
36C
100
AcDbXrecord
340
0
  0
XRECORD
  5
38B
102
{ACAD_REACTORS
330
36C
102
}
330
36C
100
AcDbXrecord
 10
0.0
 20
0.0
 30
0.0
  0
XRECORD
  5
387
102
{ACAD_REACTORS
330
36C
102
}
330
36C
100
AcDbXrecord
 10
0.0
 20
0.0
 30
0.0
  0
XRECORD
  5
38A
102
{ACAD_REACTORS
330
36C
102
}
330
36C
100
AcDbXrecord
 10
0.0
 20
0.0
 30
0.0
  0
XRECORD
  5
388
102
{ACAD_REACTORS
330
36C
102
}
330
36C
100
AcDbXrecord
 10
0.0
 20
0.0
 30
0.0
  0
XRECORD
  5
389
102
{ACAD_REACTORS
330
36C
102
}
330
36C
100
AcDbXrecord
 10
0.0
 20
0.0
 30
0.0
  0
XRECORD
  5
386
102
{ACAD_REACTORS
330
36C
102
}
330
36C
100
AcDbXrecord
 10
0.0
 20
0.0
 30
0.0
  0
XRECORD
  5
383
102
{ACAD_REACTORS
330
36C
102
}
330
36C
100
AcDbXrecord
340
0
  0
XRECORD
  5
384
102
{ACAD_REACTORS
330
36C
102
}
330
36C
100
AcDbXrecord
 70
     0
  0
XRECORD
  5
378
102
{ACAD_REACTORS
330
36C
102
}
330
36C
100
AcDbXrecord
  1
{FAEB1C32-E019-11D5-929B-00C0DF256EC4}
  0
DICTIONARYVAR
  5
39A
102
{ACAD_REACTORS
330
38D
102
}
330
38D
100
DictionaryVariables
280
     0
  1
1:1
  0
DICTIONARYVAR
  5
394
102
{ACAD_REACTORS
330
38D
102
}
330
38D
100
DictionaryVariables
280
     0
  1
3.500000
  0
DICTIONARYVAR
  5
395
102
{ACAD_REACTORS
330
38D
102
}
330
38D
100
DictionaryVariables
280
     0
  1
acadiso.lin
  0
DICTIONARYVAR
  5
38F
102
{ACAD_REACTORS
330
38D
102
}
330
38D
100
DictionaryVariables
280
     0
  1
Standard
  0
DICTIONARYVAR
  5
38E
102
{ACAD_REACTORS
330
38D
102
}
330
38D
100
DictionaryVariables
280
     0
  1
Standard
  0
DICTIONARYVAR
  5
396
102
{ACAD_REACTORS
330
38D
102
}
330
38D
100
DictionaryVariables
280
     0
  1
2
  0
DICTIONARYVAR
  5
397
102
{ACAD_REACTORS
330
38D
102
}
330
38D
100
DictionaryVariables
280
     0
  1
1
  0
DICTIONARYVAR
  5
39B
102
{ACAD_REACTORS
330
38D
102
}
330
38D
100
DictionaryVariables
280
     0
  1
1
  0
DICTIONARYVAR
  5
391
102
{ACAD_REACTORS
330
38D
102
}
330
38D
100
DictionaryVariables
280
     0
  1
80.000000
  0
DICTIONARYVAR
  5
390
102
{ACAD_REACTORS
330
38D
102
}
330
38D
100
DictionaryVariables
280
     0
  1
5.000000
  0
DICTIONARY
  5
39E
330
45
100
AcDbDictionary
280
     1
  3
ACAD_XREC_ROUNDTRIP
360
39F
  0
DICTIONARY
  5
39C
330
44
100
AcDbDictionary
280
     1
  3
ACAD_XREC_ROUNDTRIP
360
39D
  0
DICTIONARY
  5
3A0
330
46
100
AcDbDictionary
280
     1
  3
ACAD_XREC_ROUNDTRIP
360
3A1
  0
XRECORD
  5
39F
102
{ACAD_REACTORS
330
39E
102
}
330
39E
100
AcDbXrecord
102
MATERIAL
148
0.0
149
0.0
149
0.0
 93
        0
 94
      127
282
     0
 72
     1
 77
     1
171
     1
175
     1
179
     1
273
     0
  0
XRECORD
  5
39D
102
{ACAD_REACTORS
330
39C
102
}
330
39C
100
AcDbXrecord
102
MATERIAL
148
0.0
149
0.0
149
0.0
 93
        0
 94
      127
282
     0
 72
     1
 77
     1
171
     1
175
     1
179
     1
273
     0
  0
XRECORD
  5
3A1
102
{ACAD_REACTORS
330
3A0
102
}
330
3A0
100
AcDbXrecord
102
MATERIAL
148
0.0
149
0.0
149
0.0
 93
        0
 94
      127
282
     0
 72
     1
 77
     1
171
     1
175
     1
179
     1
273
     0
  0
ENDSEC
  0
EOF
