  0
SECTION
  2
HEADER
  9
$ACADVER
  1
AC1014
  9
$ACADMAINTVER
 70
     9
  9
$DWGCODEPAGE
  3
ANSI_932
  9
$INSBASE
 10
0.0
 20
0.0
 30
0.0
  9
$EXTMIN
 10
25.0
 20
50.0
 30
0.0
  9
$EXTMAX
 10
1925.0
 20
1400.0
 30
0.0
  9
$LIMMIN
 10
0.0
 20
0.0
  9
$LIMMAX
 10
420.0
 20
297.0
  9
$ORTHOMODE
 70
     0
  9
$REGENMODE
 70
     1
  9
$FILLMODE
 70
     1
  9
$QTEXTMODE
 70
     0
  9
$MIRRTEXT
 70
     1
  9
$DRAGMODE
 70
     2
  9
$LTSCALE
 40
0.2
  9
$OSMODE
 70
    37
  9
$ATTMODE
 70
     1
  9
$TEXTSIZE
 40
2.5
  9
$TRACEWID
 40
1.0
  9
$TEXTSTYLE
  7
STANDARD
  9
$CLAYER
  8
LAY-10
  9
$CELTYPE
  6
BYLAYER
  9
$CECOLOR
 62
   256
  9
$CELTSCALE
 40
1.0
  9
$DELOBJ
 70
     1
  9
$DISPSILH
 70
     0
  9
$DIMSCALE
 40
1.0
  9
$DIMASZ
 40
2.5
  9
$DIMEXO
 40
0.625
  9
$DIMDLI
 40
3.75
  9
$DIMRND
 40
0.0
  9
$DIMDLE
 40
0.0
  9
$DIMEXE
 40
1.25
  9
$DIMTP
 40
0.0
  9
$DIMTM
 40
0.0
  9
$DIMTXT
 40
2.5
  9
$DIMCEN
 40
2.5
  9
$DIMTSZ
 40
0.0
  9
$DIMTOL
 70
     0
  9
$DIMLIM
 70
     0
  9
$DIMTIH
 70
     0
  9
$DIMTOH
 70
     0
  9
$DIMSE1
 70
     0
  9
$DIMSE2
 70
     0
  9
$DIMTAD
 70
     1
  9
$DIMZIN
 70
     8
  9
$DIMBLK
  1

  9
$DIMASO
 70
     1
  9
$DIMSHO
 70
     1
  9
$DIMPOST
  1

  9
$DIMAPOST
  1

  9
$DIMALT
 70
     0
  9
$DIMALTD
 70
     3
  9
$DIMALTF
 40
0.03937007874016
  9
$DIMLFAC
 40
1.0
  9
$DIMTOFL
 70
     1
  9
$DIMTVP
 40
0.0
  9
$DIMTIX
 70
     0
  9
$DIMSOXD
 70
     0
  9
$DIMSAH
 70
     0
  9
$DIMBLK1
  1

  9
$DIMBLK2
  1

  9
$DIMSTYLE
  2
ISO-25
  9
$DIMCLRD
 70
     0
  9
$DIMCLRE
 70
     0
  9
$DIMCLRT
 70
     0
  9
$DIMTFAC
 40
1.0
  9
$DIMGAP
 40
0.625
  9
$DIMJUST
 70
     0
  9
$DIMSD1
 70
     0
  9
$DIMSD2
 70
     0
  9
$DIMTOLJ
 70
     0
  9
$DIMTZIN
 70
     8
  9
$DIMALTZ
 70
     0
  9
$DIMALTTZ
 70
     0
  9
$DIMFIT
 70
     3
  9
$DIMUPT
 70
     0
  9
$DIMUNIT
 70
     2
  9
$DIMDEC
 70
     2
  9
$DIMTDEC
 70
     2
  9
$DIMALTU
 70
     2
  9
$DIMALTTD
 70
     3
  9
$DIMTXSTY
  7
STANDARD
  9
$DIMAUNIT
 70
     0
  9
$LUNITS
 70
     2
  9
$LUPREC
 70
     4
  9
$SKETCHINC
 40
1.0
  9
$FILLETRAD
 40
10.0
  9
$AUNITS
 70
     0
  9
$AUPREC
 70
     0
  9
$MENU
  1
.
  9
$ELEVATION
 40
0.0
  9
$PELEVATION
 40
0.0
  9
$THICKNESS
 40
0.0
  9
$LIMCHECK
 70
     0
  9
$CHAMFERA
 40
0.0
  9
$CHAMFERB
 40
0.0
  9
$CHAMFERC
 40
0.0
  9
$CHAMFERD
 40
0.0
  9
$SKPOLY
 70
     0
  9
$TDCREATE
 40
2459229.332732685
  9
$TDUPDATE
 40
2459229.33273316
  9
$TDINDWG
 40
0.0000000116
  9
$TDUSRTIMER
 40
0.0000000116
  9
$USRTIMER
 70
     1
  9
$ANGBASE
 50
0.0
  9
$ANGDIR
 70
     0
  9
$PDMODE
 70
     0
  9
$PDSIZE
 40
0.0
  9
$PLINEWID
 40
0.0
  9
$COORDS
 70
     1
  9
$SPLFRAME
 70
     0
  9
$SPLINETYPE
 70
     6
  9
$SPLINESEGS
 70
     8
  9
$ATTDIA
 70
     0
  9
$ATTREQ
 70
     1
  9
$HANDLING
 70
     1
  9
$HANDSEED
  5
5AC
  9
$SURFTAB1
 70
     6
  9
$SURFTAB2
 70
     6
  9
$SURFTYPE
 70
     6
  9
$SURFU
 70
     6
  9
$SURFV
 70
     6
  9
$UCSNAME
  2

  9
$UCSORG
 10
0.0
 20
0.0
 30
0.0
  9
$UCSXDIR
 10
1.0
 20
0.0
 30
0.0
  9
$UCSYDIR
 10
0.0
 20
1.0
 30
0.0
  9
$PUCSNAME
  2

  9
$PUCSORG
 10
0.0
 20
0.0
 30
0.0
  9
$PUCSXDIR
 10
1.0
 20
0.0
 30
0.0
  9
$PUCSYDIR
 10
0.0
 20
1.0
 30
0.0
  9
$USERI1
 70
     0
  9
$USERI2
 70
     0
  9
$USERI3
 70
     0
  9
$USERI4
 70
     0
  9
$USERI5
 70
     0
  9
$USERR1
 40
0.0
  9
$USERR2
 40
0.0
  9
$USERR3
 40
0.0
  9
$USERR4
 40
0.0
  9
$USERR5
 40
0.0
  9
$WORLDVIEW
 70
     1
  9
$SHADEDGE
 70
     3
  9
$SHADEDIF
 70
    70
  9
$TILEMODE
 70
     1
  9
$MAXACTVP
 70
    64
  9
$PINSBASE
 10
0.0
 20
0.0
 30
0.0
  9
$PLIMCHECK
 70
     0
  9
$PEXTMIN
 10
1.000000000000000E+20
 20
1.000000000000000E+20
 30
1.000000000000000E+20
  9
$PEXTMAX
 10
-1.000000000000000E+20
 20
-1.000000000000000E+20
 30
-1.000000000000000E+20
  9
$PLIMMIN
 10
0.0
 20
0.0
  9
$PLIMMAX
 10
420.0
 20
297.0
  9
$UNITMODE
 70
     0
  9
$VISRETAIN
 70
     1
  9
$PLINEGEN
 70
     0
  9
$PSLTSCALE
 70
     1
  9
$TREEDEPTH
 70
  3020
  9
$PICKSTYLE
 70
     1
  9
$CMLSTYLE
  2
STANDARD
  9
$CMLJUST
 70
     0
  9
$CMLSCALE
 40
20.0
  9
$PROXYGRAPHICS
 70
     1
  9
$MEASUREMENT
 70
     1
  0
ENDSEC
  0
SECTION
  2
CLASSES
  0
CLASS
  1
ACDBDICTIONARYWDFLT
  2
AcDbDictionaryWithDefault
  3
ObjectDBX Classes
 90
        0
280
     0
281
     0
  0
CLASS
  1
VISUALSTYLE
  2
AcDbVisualStyle
  3
ObjectDBX Classes
 90
     4095
280
     0
281
     0
  0
CLASS
  1
MATERIAL
  2
AcDbMaterial
  3
ObjectDBX Classes
 90
     1153
280
     0
281
     0
  0
CLASS
  1
SCALE
  2
AcDbScale
  3
ObjectDBX Classes
 90
     1153
280
     0
281
     0
  0
CLASS
  1
TABLESTYLE
  2
AcDbTableStyle
  3
ObjectDBX Classes
 90
     4095
280
     0
281
     0
  0
CLASS
  1
MLEADERSTYLE
  2
AcDbMLeaderStyle
  3
ACDB_MLEADERSTYLE_CLASS
 90
     4095
280
     0
281
     0
  0
CLASS
  1
SUN
  2
AcDbSun
  3
SCENEOE
 90
     1153
280
     0
281
     0
  0
CLASS
  1
DICTIONARYVAR
  2
AcDbDictionaryVar
  3
ObjectDBX Classes
 90
        0
280
     0
281
     0
  0
CLASS
  1
XRECORD
  2
AcDbXrecord
  3
ObjectDBX Classes
 90
        0
280
     0
281
     0
  0
CLASS
  1
LWPOLYLINE
  2
AcDbPolyline
  3
ObjectDBX Classes
 90
        0
280
     0
281
     1
  0
CLASS
  1
HATCH
  2
AcDbHatch
  3
ObjectDBX Classes
 90
        0
280
     0
281
     1
  0
CLASS
  1
ACDBPLACEHOLDER
  2
AcDbPlaceHolder
  3
ObjectDBX Classes
 90
        0
280
     0
281
     0
  0
CLASS
  1
LAYOUT
  2
AcDbLayout
  3
ObjectDBX Classes
 90
        0
280
     0
281
     0
  0
ENDSEC
  0
SECTION
  2
TABLES
  0
TABLE
  2
VPORT
  5
8
102
{ACAD_XDICTIONARY
360
5A1
102
}
330
0
100
AcDbSymbolTable
 70
     1
  0
VPORT
  5
29
330
8
100
AcDbSymbolTableRecord
100
AcDbViewportTableRecord
  2
*ACTIVE
 70
     0
 10
0.0
 20
0.0
 11
1.0
 21
1.0
 12
975.0000000000001
 22
725.0
 13
0.0
 23
0.0
 14
10.0
 24
10.0
 15
10.0
 25
10.0
 16
0.0
 26
0.0
 36
1.0
 17
0.0
 27
0.0
 37
0.0
 40
1350.0
 41
1.407407407407408
 42
50.0
 43
0.0
 44
0.0
 50
0.0
 51
0.0
 71
     0
 72
  1000
 73
     1
 74
     3
 75
     0
 76
     0
 77
     0
 78
     0
  0
ENDTAB
  0
TABLE
  2
LTYPE
  5
5
330
0
100
AcDbSymbolTable
 70
     6
  0
LTYPE
  5
14
330
5
100
AcDbSymbolTableRecord
100
AcDbLinetypeTableRecord
  2
BYBLOCK
 70
     0
  3

 72
    65
 73
     0
 40
0.0
  0
LTYPE
  5
15
330
5
100
AcDbSymbolTableRecord
100
AcDbLinetypeTableRecord
  2
BYLAYER
 70
     0
  3

 72
    65
 73
     0
 40
0.0
  0
LTYPE
  5
16
330
5
100
AcDbSymbolTableRecord
100
AcDbLinetypeTableRecord
  2
CONTINUOUS
 70
     0
  3
Solid line
 72
    65
 73
     0
 40
0.0
  0
LTYPE
  5
6E
330
5
100
AcDbSymbolTableRecord
100
AcDbLinetypeTableRecord
  2
HIDDEN
 70
     0
  3
Hidden __ __ __ __ __ __ __ __ __ __ __ __ __ __
 72
    65
 73
     2
 40
9.524999999999999
 49
6.35
 74
     0
 49
-3.175
 74
     0
  0
LTYPE
  5
6F
330
5
100
AcDbSymbolTableRecord
100
AcDbLinetypeTableRecord
  2
CENTER
 70
     0
  3
Center ____ _ ____ _ ____ _ ____ _ ____ _ ____
 72
    65
 73
     4
 40
50.8
 49
31.75
 74
     0
 49
-6.35
 74
     0
 49
6.35
 74
     0
 49
-6.35
 74
     0
  0
LTYPE
  5
70
330
5
100
AcDbSymbolTableRecord
100
AcDbLinetypeTableRecord
  2
PHANTOM
 70
     0
  3
Phantom ______  __  __  ______  __  __  ______ 
 72
    65
 73
     6
 40
63.50000000000001
 49
31.75
 74
     0
 49
-6.35
 74
     0
 49
6.35
 74
     0
 49
-6.35
 74
     0
 49
6.35
 74
     0
 49
-6.35
 74
     0
  0
LTYPE
  5
71
330
5
100
AcDbSymbolTableRecord
100
AcDbLinetypeTableRecord
  2
ACAD_ISO06W100
 70
     0
  3
ISO long-dash triple-dot ____ ... ____ ... ____
 72
    65
 73
     8
 40
36.0
 49
24.0
 74
     0
 49
-3.0
 74
     0
 49
0.0
 74
     0
 49
-3.0
 74
     0
 49
0.0
 74
     0
 49
-3.0
 74
     0
 49
0.0
 74
     0
 49
-3.0
 74
     0
  0
LTYPE
  5
72
330
5
100
AcDbSymbolTableRecord
100
AcDbLinetypeTableRecord
  2
ACAD_ISO15W100
 70
     0
  3
ISO double-dash triple-dot __ __ . . . __ __ . .
 72
    65
 73
    10
 40
39.0
 49
12.0
 74
     0
 49
-3.0
 74
     0
 49
12.0
 74
     0
 49
-3.0
 74
     0
 49
0.0
 74
     0
 49
-3.0
 74
     0
 49
0.0
 74
     0
 49
-3.0
 74
     0
 49
0.0
 74
     0
 49
-3.0
 74
     0
  0
ENDTAB
  0
TABLE
  2
LAYER
  5
2
330
0
100
AcDbSymbolTable
 70
     6
  0
LAYER
  5
10
330
2
100
AcDbSymbolTableRecord
100
AcDbLayerTableRecord
  2
0
 70
     0
 62
     7
  6
CONTINUOUS
  0
LAYER
  5
75
330
2
100
AcDbSymbolTableRecord
100
AcDbLayerTableRecord
  2
LAY-10
 70
     0
 62
     7
  6
CONTINUOUS
  0
LAYER
  5
76
330
2
100
AcDbSymbolTableRecord
100
AcDbLayerTableRecord
  2
LAY-11
 70
     0
 62
     7
  6
CONTINUOUS
  0
LAYER
  5
77
330
2
100
AcDbSymbolTableRecord
100
AcDbLayerTableRecord
  2
LAY-20
 70
     0
 62
     7
  6
CONTINUOUS
  0
LAYER
  5
78
330
2
100
AcDbSymbolTableRecord
100
AcDbLayerTableRecord
  2
LAY-255
 70
     0
 62
     7
  6
CONTINUOUS
  0
LAYER
  5
4C8
330
2
100
AcDbSymbolTableRecord
100
AcDbLayerTableRecord
  2
DEFPOINTS
 70
     0
 62
     7
  6
CONTINUOUS
  0
ENDTAB
  0
TABLE
  2
STYLE
  5
3
330
0
100
AcDbSymbolTable
 70
     4
  0
STYLE
  5
11
330
3
100
AcDbSymbolTableRecord
100
AcDbTextStyleTableRecord
  2
STANDARD
 70
     0
 40
0.0
 41
1.0
 50
0.0
 71
     0
 42
2.5
  3
simplex
  4
bigfont
  0
STYLE
  5
73
330
3
100
AcDbSymbolTableRecord
100
AcDbTextStyleTableRecord
  2
EXCADSTD
 70
     0
 40
0.0
 41
1.0
 50
0.0
 71
     0
 42
2.5
  3
simplex
  4
bigfont
  0
STYLE
  5
74
330
3
100
AcDbSymbolTableRecord
100
AcDbTextStyleTableRecord
  2
EXCADVERT
 70
     4
 40
0.0
 41
1.0
 50
0.0
 71
     0
 42
2.5
  3
simplex
  4
bigfont
  0
STYLE
  5
4C6
330
3
100
AcDbSymbolTableRecord
100
AcDbTextStyleTableRecord
  2
EXCADDIM1
 70
     0
 40
0.0
 41
0.84
 50
0.0
 71
     0
 42
2.5
  3
simplex
  4
bigfont
  0
ENDTAB
  0
TABLE
  2
VIEW
  5
6
330
0
100
AcDbSymbolTable
 70
     0
  0
ENDTAB
  0
TABLE
  2
UCS
  5
7
330
0
100
AcDbSymbolTable
 70
     0
  0
ENDTAB
  0
TABLE
  2
APPID
  5
9
330
0
100
AcDbSymbolTable
 70
     2
  0
APPID
  5
12
330
9
100
AcDbSymbolTableRecord
100
AcDbRegAppTableRecord
  2
ACAD
 70
     0
  0
APPID
  5
5AB
330
9
100
AcDbSymbolTableRecord
100
AcDbRegAppTableRecord
  2
ACAD_MLEADERVER
 70
     0
  0
ENDTAB
  0
TABLE
  2
DIMSTYLE
  5
A
330
0
100
AcDbSymbolTable
 70
     1
  0
DIMSTYLE
105
27
102
{ACAD_REACTORS
330
4C7
330
4D5
330
4E2
330
4F0
330
4FD
330
50A
330
519
330
528
330
535
330
542
102
}
330
A
100
AcDbSymbolTableRecord
100
AcDbDimStyleTableRecord
  2
ISO-25
 70
     0
  3

  4

  5

  6

  7

 40
1.0
 41
2.5
 42
0.625
 43
3.75
 44
1.25
 45
0.0
 46
0.0
 47
0.0
 48
0.0
140
2.5
141
2.5
142
0.0
143
0.03937007874016
144
1.0
145
0.0
146
1.0
147
0.625
 71
     0
 72
     0
 73
     0
 74
     0
 75
     0
 76
     0
 77
     1
 78
     8
170
     0
171
     3
172
     1
173
     0
174
     0
175
     0
176
     0
177
     0
178
     0
270
     2
271
     2
272
     2
273
     2
274
     3
340
11
275
     0
280
     0
281
     0
282
     0
283
     0
284
     8
285
     0
286
     0
287
     5
288
     0
  0
ENDTAB
  0
TABLE
  2
BLOCK_RECORD
  5
1
330
0
100
AcDbSymbolTable
 70
    24
  0
BLOCK_RECORD
  5
1F
330
1
100
AcDbSymbolTableRecord
100
AcDbBlockTableRecord
  2
*MODEL_SPACE
  0
BLOCK_RECORD
  5
1B
330
1
100
AcDbSymbolTableRecord
100
AcDbBlockTableRecord
  2
*PAPER_SPACE
  0
BLOCK_RECORD
  5
79
330
1
100
AcDbSymbolTableRecord
100
AcDbBlockTableRecord
  2
EX_NORM
  0
BLOCK_RECORD
  5
7C
330
1
100
AcDbSymbolTableRecord
100
AcDbBlockTableRecord
  2
EX_BNORM
  0
BLOCK_RECORD
  5
7F
330
1
100
AcDbSymbolTableRecord
100
AcDbBlockTableRecord
  2
EX_BCIR
  0
BLOCK_RECORD
  5
82
330
1
100
AcDbSymbolTableRecord
100
AcDbBlockTableRecord
  2
EX_RCIVIL
  0
BLOCK_RECORD
  5
85
330
1
100
AcDbSymbolTableRecord
100
AcDbBlockTableRecord
  2
EX_SLANT
  0
BLOCK_RECORD
  5
88
330
1
100
AcDbSymbolTableRecord
100
AcDbBlockTableRecord
  2
EX_NONE
  0
BLOCK_RECORD
  5
8B
330
1
100
AcDbSymbolTableRecord
100
AcDbBlockTableRecord
  2
EX_CIVIL
  0
BLOCK_RECORD
  5
8E
330
1
100
AcDbSymbolTableRecord
100
AcDbBlockTableRecord
  2
EX_WCIR
  0
BLOCK_RECORD
  5
91
330
1
100
AcDbSymbolTableRecord
100
AcDbBlockTableRecord
  2
EX_WCIR2
  0
BLOCK_RECORD
  5
94
330
1
100
AcDbSymbolTableRecord
100
AcDbBlockTableRecord
  2
EX_WNORM
  0
BLOCK_RECORD
  5
97
330
1
100
AcDbSymbolTableRecord
100
AcDbBlockTableRecord
  2
EX_NNORM
  0
BLOCK_RECORD
  5
9A
330
1
100
AcDbSymbolTableRecord
100
AcDbBlockTableRecord
  2
EX_BBOX
  0
BLOCK_RECORD
  5
9D
330
1
100
AcDbSymbolTableRecord
100
AcDbBlockTableRecord
  2
EX_WBOX
  0
BLOCK_RECORD
  5
A0
330
1
100
AcDbSymbolTableRecord
100
AcDbBlockTableRecord
  2
EX_INTEGRAL
  0
BLOCK_RECORD
  5
4C9
330
1
100
AcDbSymbolTableRecord
100
AcDbBlockTableRecord
  2
*D15
  0
BLOCK_RECORD
  5
4D6
330
1
100
AcDbSymbolTableRecord
100
AcDbBlockTableRecord
  2
*D16
  0
BLOCK_RECORD
  5
4E3
330
1
100
AcDbSymbolTableRecord
100
AcDbBlockTableRecord
  2
*D17
  0
BLOCK_RECORD
  5
4F1
330
1
100
AcDbSymbolTableRecord
100
AcDbBlockTableRecord
  2
*D18
  0
BLOCK_RECORD
  5
4FE
330
1
100
AcDbSymbolTableRecord
100
AcDbBlockTableRecord
  2
*D19
  0
BLOCK_RECORD
  5
50B
330
1
100
AcDbSymbolTableRecord
100
AcDbBlockTableRecord
  2
*D20
  0
BLOCK_RECORD
  5
51A
330
1
100
AcDbSymbolTableRecord
100
AcDbBlockTableRecord
  2
*D21
  0
BLOCK_RECORD
  5
529
330
1
100
AcDbSymbolTableRecord
100
AcDbBlockTableRecord
  2
*D22
  0
BLOCK_RECORD
  5
536
330
1
100
AcDbSymbolTableRecord
100
AcDbBlockTableRecord
  2
*D23
  0
BLOCK_RECORD
  5
543
330
1
100
AcDbSymbolTableRecord
100
AcDbBlockTableRecord
  2
*D24
  0
ENDTAB
  0
ENDSEC
  0
SECTION
  2
BLOCKS
  0
BLOCK
  5
20
330
1F
100
AcDbEntity
  8
0
100
AcDbBlockBegin
  2
*MODEL_SPACE
 70
     0
 10
0.0
 20
0.0
 30
0.0
  3
*MODEL_SPACE
  1

  0
ENDBLK
  5
21
330
1F
100
AcDbEntity
  8
0
100
AcDbBlockEnd
  0
BLOCK
  5
1C
330
1B
100
AcDbEntity
 67
     1
  8
0
100
AcDbBlockBegin
  2
*PAPER_SPACE
 70
     0
 10
0.0
 20
0.0
 30
0.0
  3
*PAPER_SPACE
  1

  0
ENDBLK
  5
1D
330
1B
100
AcDbEntity
 67
     1
  8
0
100
AcDbBlockEnd
  0
BLOCK
  5
7A
330
79
100
AcDbEntity
  8
0
100
AcDbBlockBegin
  2
EX_NORM
 70
     0
 10
0.0
 20
0.0
 30
0.0
  3
EX_NORM
  1

  0
LINE
  5
A3
330
79
100
AcDbEntity
  8
0
  6
CONTINUOUS
 62
     0
100
AcDbLine
 10
0.0
 20
0.0
 30
0.0
 11
-1.0
 21
0.0
 31
0.0
  0
LINE
  5
A4
330
79
100
AcDbEntity
  8
0
  6
CONTINUOUS
 62
     0
100
AcDbLine
 10
0.0
 20
0.0
 30
0.0
 11
-1.0
 21
0.166666667
 31
0.0
  0
LINE
  5
A5
330
79
100
AcDbEntity
  8
0
  6
CONTINUOUS
 62
     0
100
AcDbLine
 10
0.0
 20
0.0
 30
0.0
 11
-1.0
 21
-0.166666667
 31
0.0
  0
ENDBLK
  5
7B
330
79
100
AcDbEntity
  8
0
100
AcDbBlockEnd
  0
BLOCK
  5
7D
330
7C
100
AcDbEntity
  8
0
100
AcDbBlockBegin
  2
EX_BNORM
 70
     0
 10
0.0
 20
0.0
 30
0.0
  3
EX_BNORM
  1

  0
LINE
  5
A6
330
7C
100
AcDbEntity
  8
0
  6
CONTINUOUS
 62
     0
100
AcDbLine
 10
0.0
 20
0.0
 30
0.0
 11
-1.0
 21
0.0
 31
0.0
  0
LINE
  5
A7
330
7C
100
AcDbEntity
  8
0
  6
CONTINUOUS
 62
     0
100
AcDbLine
 10
0.0
 20
0.0
 30
0.0
 11
-1.0
 21
0.166666667
 31
0.0
  0
LINE
  5
A8
330
7C
100
AcDbEntity
  8
0
  6
CONTINUOUS
 62
     0
100
AcDbLine
 10
0.0
 20
0.0
 30
0.0
 11
-1.0
 21
-0.166666667
 31
0.0
  0
LINE
  5
A9
330
7C
100
AcDbEntity
  8
0
  6
CONTINUOUS
 62
     0
100
AcDbLine
 10
0.0
 20
0.0
 30
0.0
 11
-1.0
 21
0.083333333
 31
0.0
  0
LINE
  5
AA
330
7C
100
AcDbEntity
  8
0
  6
CONTINUOUS
 62
     0
100
AcDbLine
 10
0.0
 20
0.0
 30
0.0
 11
-1.0
 21
-0.083333333
 31
0.0
  0
LINE
  5
AB
330
7C
100
AcDbEntity
  8
0
  6
CONTINUOUS
 62
     0
100
AcDbLine
 10
-1.0
 20
0.166666667
 30
0.0
 11
-1.0
 21
-0.166666667
 31
0.0
  0
ENDBLK
  5
7E
330
7C
100
AcDbEntity
  8
0
100
AcDbBlockEnd
  0
BLOCK
  5
80
330
7F
100
AcDbEntity
  8
0
100
AcDbBlockBegin
  2
EX_BCIR
 70
     0
 10
0.0
 20
0.0
 30
0.0
  3
EX_BCIR
  1

  0
LINE
  5
AC
330
7F
100
AcDbEntity
  8
0
  6
CONTINUOUS
 62
     0
100
AcDbLine
 10
0.0
 20
0.0
 30
0.0
 11
-1.0
 21
0.0
 31
0.0
  0
CIRCLE
  5
AD
330
7F
100
AcDbEntity
  8
0
  6
CONTINUOUS
 62
     0
100
AcDbCircle
 10
0.0
 20
0.0
 30
0.0
 40
0.5
  0
CIRCLE
  5
AE
330
7F
100
AcDbEntity
  8
0
  6
CONTINUOUS
 62
     0
100
AcDbCircle
 10
0.0
 20
0.0
 30
0.0
 40
0.25
  0
ENDBLK
  5
81
330
7F
100
AcDbEntity
  8
0
100
AcDbBlockEnd
  0
BLOCK
  5
83
330
82
100
AcDbEntity
  8
0
100
AcDbBlockBegin
  2
EX_RCIVIL
 70
     0
 10
0.0
 20
0.0
 30
0.0
  3
EX_RCIVIL
  1

  0
LINE
  5
AF
330
82
100
AcDbEntity
  8
0
  6
CONTINUOUS
 62
     0
100
AcDbLine
 10
0.0
 20
0.0
 30
0.0
 11
-1.0
 21
0.0
 31
0.0
  0
LINE
  5
B0
330
82
100
AcDbEntity
  8
0
  6
CONTINUOUS
 62
     0
100
AcDbLine
 10
-1.0
 20
-0.25
 30
0.0
 11
0.0
 21
-0.25
 31
0.0
  0
LINE
  5
B1
330
82
100
AcDbEntity
  8
0
  6
CONTINUOUS
 62
     0
100
AcDbLine
 10
-1.0
 20
-0.125
 30
0.0
 11
0.0
 21
-0.125
 31
0.0
  0
ENDBLK
  5
84
330
82
100
AcDbEntity
  8
0
100
AcDbBlockEnd
  0
BLOCK
  5
86
330
85
100
AcDbEntity
  8
0
100
AcDbBlockBegin
  2
EX_SLANT
 70
     0
 10
0.0
 20
0.0
 30
0.0
  3
EX_SLANT
  1

  0
LINE
  5
B2
330
85
100
AcDbEntity
  8
0
  6
CONTINUOUS
 62
     0
100
AcDbLine
 10
0.0
 20
0.0
 30
0.0
 11
-1.0
 21
0.0
 31
0.0
  0
LINE
  5
B3
330
85
100
AcDbEntity
  8
0
  6
CONTINUOUS
 62
     0
100
AcDbLine
 10
0.707106781
 20
0.707106781
 30
0.0
 11
-0.707106781
 21
-0.707106781
 31
0.0
  0
ENDBLK
  5
87
330
85
100
AcDbEntity
  8
0
100
AcDbBlockEnd
  0
BLOCK
  5
89
330
88
100
AcDbEntity
  8
0
100
AcDbBlockBegin
  2
EX_NONE
 70
     0
 10
0.0
 20
0.0
 30
0.0
  3
EX_NONE
  1

  0
LINE
  5
B4
330
88
100
AcDbEntity
  8
0
  6
CONTINUOUS
 62
     0
100
AcDbLine
 10
0.0
 20
0.0
 30
0.0
 11
-1.0
 21
0.0
 31
0.0
  0
ENDBLK
  5
8A
330
88
100
AcDbEntity
  8
0
100
AcDbBlockEnd
  0
BLOCK
  5
8C
330
8B
100
AcDbEntity
  8
0
100
AcDbBlockBegin
  2
EX_CIVIL
 70
     0
 10
0.0
 20
0.0
 30
0.0
  3
EX_CIVIL
  1

  0
LINE
  5
B5
330
8B
100
AcDbEntity
  8
0
  6
CONTINUOUS
 62
     0
100
AcDbLine
 10
0.0
 20
0.0
 30
0.0
 11
-1.0
 21
0.0
 31
0.0
  0
LINE
  5
B6
330
8B
100
AcDbEntity
  8
0
  6
CONTINUOUS
 62
     0
100
AcDbLine
 10
-1.0
 20
0.25
 30
0.0
 11
0.0
 21
0.25
 31
0.0
  0
LINE
  5
B7
330
8B
100
AcDbEntity
  8
0
  6
CONTINUOUS
 62
     0
100
AcDbLine
 10
-1.0
 20
0.125
 30
0.0
 11
0.0
 21
0.125
 31
0.0
  0
ENDBLK
  5
8D
330
8B
100
AcDbEntity
  8
0
100
AcDbBlockEnd
  0
BLOCK
  5
8F
330
8E
100
AcDbEntity
  8
0
100
AcDbBlockBegin
  2
EX_WCIR
 70
     0
 10
0.0
 20
0.0
 30
0.0
  3
EX_WCIR
  1

  0
LINE
  5
B8
330
8E
100
AcDbEntity
  8
0
  6
CONTINUOUS
 62
     0
100
AcDbLine
 10
0.0
 20
0.0
 30
0.0
 11
-1.0
 21
0.0
 31
0.0
  0
CIRCLE
  5
B9
330
8E
100
AcDbEntity
  8
0
  6
CONTINUOUS
 62
     0
100
AcDbCircle
 10
0.0
 20
0.0
 30
0.0
 40
0.5
  0
ENDBLK
  5
90
330
8E
100
AcDbEntity
  8
0
100
AcDbBlockEnd
  0
BLOCK
  5
92
330
91
100
AcDbEntity
  8
0
100
AcDbBlockBegin
  2
EX_WCIR2
 70
     0
 10
0.0
 20
0.0
 30
0.0
  3
EX_WCIR2
  1

  0
LINE
  5
BA
330
91
100
AcDbEntity
  8
0
  6
CONTINUOUS
 62
     0
100
AcDbLine
 10
-0.5
 20
0.0
 30
0.0
 11
-1.0
 21
0.0
 31
0.0
  0
CIRCLE
  5
BB
330
91
100
AcDbEntity
  8
0
  6
CONTINUOUS
 62
     0
100
AcDbCircle
 10
0.0
 20
0.0
 30
0.0
 40
0.5
  0
ENDBLK
  5
93
330
91
100
AcDbEntity
  8
0
100
AcDbBlockEnd
  0
BLOCK
  5
95
330
94
100
AcDbEntity
  8
0
100
AcDbBlockBegin
  2
EX_WNORM
 70
     0
 10
0.0
 20
0.0
 30
0.0
  3
EX_WNORM
  1

  0
LINE
  5
BC
330
94
100
AcDbEntity
  8
0
  6
CONTINUOUS
 62
     0
100
AcDbLine
 10
-1.0
 20
0.0
 30
0.0
 11
-1.0
 21
0.0
 31
0.0
  0
LINE
  5
BD
330
94
100
AcDbEntity
  8
0
  6
CONTINUOUS
 62
     0
100
AcDbLine
 10
0.0
 20
0.0
 30
0.0
 11
-1.0
 21
0.166666667
 31
0.0
  0
LINE
  5
BE
330
94
100
AcDbEntity
  8
0
  6
CONTINUOUS
 62
     0
100
AcDbLine
 10
0.0
 20
0.0
 30
0.0
 11
-1.0
 21
-0.166666667
 31
0.0
  0
LINE
  5
BF
330
94
100
AcDbEntity
  8
0
  6
CONTINUOUS
 62
     0
100
AcDbLine
 10
-1.0
 20
0.166666667
 30
0.0
 11
-1.0
 21
-0.166666667
 31
0.0
  0
ENDBLK
  5
96
330
94
100
AcDbEntity
  8
0
100
AcDbBlockEnd
  0
BLOCK
  5
98
330
97
100
AcDbEntity
  8
0
100
AcDbBlockBegin
  2
EX_NNORM
 70
     0
 10
0.0
 20
0.0
 30
0.0
  3
EX_NNORM
  1

  0
LINE
  5
C0
330
97
100
AcDbEntity
  8
0
  6
CONTINUOUS
 62
     0
100
AcDbLine
 10
0.0
 20
0.0
 30
0.0
 11
-1.0
 21
0.0
 31
0.0
  0
LINE
  5
C1
330
97
100
AcDbEntity
  8
0
  6
CONTINUOUS
 62
     0
100
AcDbLine
 10
0.0
 20
0.0
 30
0.0
 11
-1.0
 21
0.166666667
 31
0.0
  0
LINE
  5
C2
330
97
100
AcDbEntity
  8
0
  6
CONTINUOUS
 62
     0
100
AcDbLine
 10
0.0
 20
0.0
 30
0.0
 11
-1.0
 21
-0.166666667
 31
0.0
  0
LINE
  5
C3
330
97
100
AcDbEntity
  8
0
  6
CONTINUOUS
 62
     0
100
AcDbLine
 10
-1.0
 20
0.166666667
 30
0.0
 11
-1.0
 21
-0.166666667
 31
0.0
  0
ENDBLK
  5
99
330
97
100
AcDbEntity
  8
0
100
AcDbBlockEnd
  0
BLOCK
  5
9B
330
9A
100
AcDbEntity
  8
0
100
AcDbBlockBegin
  2
EX_BBOX
 70
     0
 10
0.0
 20
0.0
 30
0.0
  3
EX_BBOX
  1

  0
LINE
  5
C4
330
9A
100
AcDbEntity
  8
0
  6
CONTINUOUS
 62
     0
100
AcDbLine
 10
0.0
 20
0.0
 30
0.0
 11
-1.0
 21
0.0
 31
0.0
  0
LINE
  5
C5
330
9A
100
AcDbEntity
  8
0
  6
CONTINUOUS
 62
     0
100
AcDbLine
 10
-0.5
 20
0.5
 30
0.0
 11
0.5
 21
0.5
 31
0.0
  0
LINE
  5
C6
330
9A
100
AcDbEntity
  8
0
  6
CONTINUOUS
 62
     0
100
AcDbLine
 10
0.5
 20
0.5
 30
0.0
 11
0.5
 21
-0.5
 31
0.0
  0
LINE
  5
C7
330
9A
100
AcDbEntity
  8
0
  6
CONTINUOUS
 62
     0
100
AcDbLine
 10
0.5
 20
-0.5
 30
0.0
 11
-0.5
 21
-0.5
 31
0.0
  0
LINE
  5
C8
330
9A
100
AcDbEntity
  8
0
  6
CONTINUOUS
 62
     0
100
AcDbLine
 10
-0.5
 20
-0.5
 30
0.0
 11
-0.5
 21
0.5
 31
0.0
  0
LINE
  5
C9
330
9A
100
AcDbEntity
  8
0
  6
CONTINUOUS
 62
     0
100
AcDbLine
 10
-0.25
 20
0.25
 30
0.0
 11
0.25
 21
0.25
 31
0.0
  0
LINE
  5
CA
330
9A
100
AcDbEntity
  8
0
  6
CONTINUOUS
 62
     0
100
AcDbLine
 10
0.25
 20
0.25
 30
0.0
 11
0.25
 21
-0.25
 31
0.0
  0
LINE
  5
CB
330
9A
100
AcDbEntity
  8
0
  6
CONTINUOUS
 62
     0
100
AcDbLine
 10
0.25
 20
-0.25
 30
0.0
 11
-0.25
 21
-0.25
 31
0.0
  0
LINE
  5
CC
330
9A
100
AcDbEntity
  8
0
  6
CONTINUOUS
 62
     0
100
AcDbLine
 10
-0.25
 20
-0.25
 30
0.0
 11
-0.25
 21
0.25
 31
0.0
  0
ENDBLK
  5
9C
330
9A
100
AcDbEntity
  8
0
100
AcDbBlockEnd
  0
BLOCK
  5
9E
330
9D
100
AcDbEntity
  8
0
100
AcDbBlockBegin
  2
EX_WBOX
 70
     0
 10
0.0
 20
0.0
 30
0.0
  3
EX_WBOX
  1

  0
LINE
  5
CD
330
9D
100
AcDbEntity
  8
0
  6
CONTINUOUS
 62
     0
100
AcDbLine
 10
-0.5
 20
0.0
 30
0.0
 11
-1.0
 21
0.0
 31
0.0
  0
LINE
  5
CE
330
9D
100
AcDbEntity
  8
0
  6
CONTINUOUS
 62
     0
100
AcDbLine
 10
-0.5
 20
0.5
 30
0.0
 11
0.5
 21
0.5
 31
0.0
  0
LINE
  5
CF
330
9D
100
AcDbEntity
  8
0
  6
CONTINUOUS
 62
     0
100
AcDbLine
 10
0.5
 20
0.5
 30
0.0
 11
0.5
 21
-0.5
 31
0.0
  0
LINE
  5
D0
330
9D
100
AcDbEntity
  8
0
  6
CONTINUOUS
 62
     0
100
AcDbLine
 10
0.5
 20
-0.5
 30
0.0
 11
-0.5
 21
-0.5
 31
0.0
  0
LINE
  5
D1
330
9D
100
AcDbEntity
  8
0
  6
CONTINUOUS
 62
     0
100
AcDbLine
 10
-0.5
 20
-0.5
 30
0.0
 11
-0.5
 21
0.5
 31
0.0
  0
ENDBLK
  5
9F
330
9D
100
AcDbEntity
  8
0
100
AcDbBlockEnd
  0
BLOCK
  5
A1
330
A0
100
AcDbEntity
  8
0
100
AcDbBlockBegin
  2
EX_INTEGRAL
 70
     0
 10
0.0
 20
0.0
 30
0.0
  3
EX_INTEGRAL
  1

  0
LINE
  5
D2
330
A0
100
AcDbEntity
  8
0
  6
CONTINUOUS
 62
     0
100
AcDbLine
 10
0.0
 20
0.0
 30
0.0
 11
-1.0
 21
0.0
 31
0.0
  0
ARC
  5
D3
330
A0
100
AcDbEntity
  8
0
  6
CONTINUOUS
 62
     0
100
AcDbCircle
 10
0.542115
 20
0.164992
 30
0.0
 40
0.56667
100
AcDbArc
 50
73.07249033629006
 51
196.9275130221199
  0
ARC
  5
D4
330
A0
100
AcDbEntity
  8
0
  6
CONTINUOUS
 62
     0
100
AcDbCircle
 10
-0.542115
 20
-0.164992
 30
0.0
 40
0.56667
100
AcDbArc
 50
253.0724869220464
 51
16.9275130559125
  0
ENDBLK
  5
A2
330
A0
100
AcDbEntity
  8
0
100
AcDbBlockEnd
  0
BLOCK
  5
4CA
330
4C9
100
AcDbEntity
  8
0
100
AcDbBlockBegin
  2
*D15
 70
     1
 10
0.0
 20
0.0
 30
0.0
  3
*D15
  1

  0
LINE
  5
4CC
330
4C9
100
AcDbEntity
  8
LAY-20
  6
CONTINUOUS
 62
     4
100
AcDbLine
 10
274.9999999994199
 20
253.499999523273
 30
0.0
 11
274.9999999994199
 21
117.499999523273
 31
0.0
  0
LINE
  5
4CD
330
4C9
100
AcDbEntity
  8
LAY-20
  6
CONTINUOUS
 62
     4
100
AcDbLine
 10
974.9999999994401
 20
253.499999523283
 30
0.0
 11
974.9999999994401
 21
117.499999523273
 31
0.0
  0
LINE
  5
4CE
330
4C9
100
AcDbEntity
  8
LAY-20
  6
CONTINUOUS
 62
     4
100
AcDbLine
 10
287.4999999994199
 20
129.5000000001102
 30
0.0
 11
962.4999999994401
 21
129.5000000001102
 31
0.0
  0
INSERT
  5
4CF
330
4C9
100
AcDbEntity
  8
LAY-20
 62
     4
100
AcDbBlockReference
  2
EX_BNORM
 10
274.9999999994199
 20
129.5000000001102
 30
0.0
 41
12.5
 42
12.5
 43
12.5
 50
180.0
  0
INSERT
  5
4D0
330
4C9
100
AcDbEntity
  8
LAY-20
 62
     4
100
AcDbBlockReference
  2
EX_BNORM
 10
974.9999999994401
 20
129.5000000001102
 30
0.0
 41
12.5
 42
12.5
 43
12.5
  0
MTEXT
  5
4D1
330
4C9
100
AcDbEntity
  8
LAY-20
 62
     7
100
AcDbMText
 10
624.99999999943
 20
143.5000000597148
 30
0.0
 40
15.590552
 41
0.0
 71
     5
 72
     1
  1
%%c700
  7
EXCADDIM1
  0
POINT
  5
4D2
330
4C9
100
AcDbEntity
  8
DEFPOINTS
 62
     0
100
AcDbPoint
 10
274.9999999994199
 20
265.5000000001102
 30
0.0
  0
POINT
  5
4D3
330
4C9
100
AcDbEntity
  8
DEFPOINTS
 62
     0
100
AcDbPoint
 10
974.9999999994401
 20
265.5000000001202
 30
0.0
  0
POINT
  5
4D4
330
4C9
100
AcDbEntity
  8
DEFPOINTS
 62
     0
100
AcDbPoint
 10
974.9999999994401
 20
129.5000000001102
 30
0.0
  0
ENDBLK
  5
4CB
330
4C9
100
AcDbEntity
  8
0
100
AcDbBlockEnd
  0
BLOCK
  5
4D7
330
4D6
100
AcDbEntity
  8
0
100
AcDbBlockBegin
  2
*D16
 70
     1
 10
0.0
 20
0.0
 30
0.0
  3
*D16
  1

  0
LINE
  5
4D9
330
4D6
100
AcDbEntity
  8
LAY-20
  6
CONTINUOUS
 62
     4
100
AcDbLine
 10
324.9999999994198
 20
253.499999523273
 30
0.0
 11
324.9999999994197
 21
197.499999523273
 31
0.0
  0
LINE
  5
4DA
330
4D6
100
AcDbEntity
  8
LAY-20
  6
CONTINUOUS
 62
     4
100
AcDbLine
 10
924.9999999994202
 20
253.499999523273
 30
0.0
 11
924.9999999994202
 21
197.499999523273
 31
0.0
  0
LINE
  5
4DB
330
4D6
100
AcDbEntity
  8
LAY-20
  6
CONTINUOUS
 62
     4
100
AcDbLine
 10
337.4999999994197
 20
209.5000000001102
 30
0.0
 11
912.4999999994202
 21
209.5000000001102
 31
0.0
  0
INSERT
  5
4DC
330
4D6
100
AcDbEntity
  8
LAY-20
 62
     4
100
AcDbBlockReference
  2
EX_BNORM
 10
324.9999999994197
 20
209.5000000001102
 30
0.0
 41
12.5
 42
12.5
 43
12.5
 50
180.0
  0
INSERT
  5
4DD
330
4D6
100
AcDbEntity
  8
LAY-20
 62
     4
100
AcDbBlockReference
  2
EX_BNORM
 10
924.9999999994202
 20
209.5000000001102
 30
0.0
 41
12.5
 42
12.5
 43
12.5
  0
MTEXT
  5
4DE
330
4D6
100
AcDbEntity
  8
LAY-20
 62
     7
100
AcDbMText
 10
624.99999999942
 20
223.5000000597148
 30
0.0
 40
15.590552
 41
0.0
 71
     5
 72
     1
  1
%%c600
  7
EXCADDIM1
  0
POINT
  5
4DF
330
4D6
100
AcDbEntity
  8
DEFPOINTS
 62
     0
100
AcDbPoint
 10
324.9999999994198
 20
265.5000000001102
 30
0.0
  0
POINT
  5
4E0
330
4D6
100
AcDbEntity
  8
DEFPOINTS
 62
     0
100
AcDbPoint
 10
924.9999999994202
 20
265.5000000001102
 30
0.0
  0
POINT
  5
4E1
330
4D6
100
AcDbEntity
  8
DEFPOINTS
 62
     0
100
AcDbPoint
 10
924.9999999994202
 20
209.5000000001102
 30
0.0
  0
ENDBLK
  5
4D8
330
4D6
100
AcDbEntity
  8
0
100
AcDbBlockEnd
  0
BLOCK
  5
4E4
330
4E3
100
AcDbEntity
  8
0
100
AcDbBlockBegin
  2
*D17
 70
     1
 10
0.0
 20
0.0
 30
0.0
  3
*D17
  1

  0
LINE
  5
4E6
330
4E3
100
AcDbEntity
  8
LAY-20
  6
CONTINUOUS
 62
     4
100
AcDbLine
 10
989.9999999994401
 20
253.499999523273
 30
0.0
 11
989.9999999994401
 21
117.499999523273
 31
0.0
  0
LINE
  5
4E7
330
4E3
100
AcDbEntity
  8
LAY-20
  6
CONTINUOUS
 62
     4
100
AcDbLine
 10
974.9999999994401
 20
129.5000000001102
 30
0.0
 11
989.9999999994401
 21
129.5000000001102
 31
0.0
  0
LINE
  5
4E8
330
4E3
100
AcDbEntity
  8
LAY-20
  6
CONTINUOUS
 62
     4
100
AcDbLine
 10
962.4999999994401
 20
129.5000000001102
 30
0.0
 11
949.9999999994401
 21
129.5000000001102
 31
0.0
  0
LINE
  5
4E9
330
4E3
100
AcDbEntity
  8
LAY-20
  6
CONTINUOUS
 62
     4
100
AcDbLine
 10
1002.49999999944
 20
129.5000000001102
 30
0.0
 11
1014.99999999944
 21
129.5000000001102
 31
0.0
  0
INSERT
  5
4EA
330
4E3
100
AcDbEntity
  8
LAY-20
 62
     4
100
AcDbBlockReference
  2
EX_BNORM
 10
974.9999999994401
 20
129.5000000001102
 30
0.0
 41
12.5
 42
12.5
 43
12.5
  0
INSERT
  5
4EB
330
4E3
100
AcDbEntity
  8
LAY-20
 62
     4
100
AcDbBlockReference
  2
EX_BNORM
 10
989.9999999994401
 20
129.5000000001102
 30
0.0
 41
12.5
 42
12.5
 43
12.5
 50
180.0
  0
MTEXT
  5
4EC
330
4E3
100
AcDbEntity
  8
LAY-20
 62
     7
100
AcDbMText
 10
1019.99999999944
 20
143.5000000597148
 30
0.0
 40
15.590552
 41
0.0
 71
     5
 72
     1
  1
15
  7
EXCADDIM1
  0
POINT
  5
4ED
330
4E3
100
AcDbEntity
  8
DEFPOINTS
 62
     0
100
AcDbPoint
 10
974.9999999994401
 20
174.5000000001102
 30
0.0
  0
POINT
  5
4EE
330
4E3
100
AcDbEntity
  8
DEFPOINTS
 62
     0
100
AcDbPoint
 10
989.9999999994401
 20
265.5000000001102
 30
0.0
  0
POINT
  5
4EF
330
4E3
100
AcDbEntity
  8
DEFPOINTS
 62
     0
100
AcDbPoint
 10
989.9999999994401
 20
129.5000000001102
 30
0.0
  0
ENDBLK
  5
4E5
330
4E3
100
AcDbEntity
  8
0
100
AcDbBlockEnd
  0
BLOCK
  5
4F2
330
4F1
100
AcDbEntity
  8
0
100
AcDbBlockBegin
  2
*D18
 70
     1
 10
0.0
 20
0.0
 30
0.0
  3
*D18
  1

  0
LINE
  5
4F4
330
4F1
100
AcDbEntity
  8
LAY-20
  6
CONTINUOUS
 62
     4
100
AcDbLine
 10
299.9999999978901
 20
326.5000004769673
 30
0.0
 11
299.9999999978901
 21
423.5000004769474
 31
0.0
  0
LINE
  5
4F5
330
4F1
100
AcDbEntity
  8
LAY-20
  6
CONTINUOUS
 62
     4
100
AcDbLine
 10
950.00000000095
 20
326.5000004769673
 30
0.0
 11
950.00000000095
 21
423.5000004769474
 31
0.0
  0
LINE
  5
4F6
330
4F1
100
AcDbEntity
  8
LAY-20
  6
CONTINUOUS
 62
     4
100
AcDbLine
 10
312.4999999978901
 20
411.5000000001102
 30
0.0
 11
937.50000000095
 21
411.5000000001102
 31
0.0
  0
INSERT
  5
4F7
330
4F1
100
AcDbEntity
  8
LAY-20
 62
     4
100
AcDbBlockReference
  2
EX_BNORM
 10
299.9999999978901
 20
411.5000000001102
 30
0.0
 41
12.5
 42
12.5
 43
12.5
 50
180.0
  0
INSERT
  5
4F8
330
4F1
100
AcDbEntity
  8
LAY-20
 62
     4
100
AcDbBlockReference
  2
EX_BNORM
 10
950.00000000095
 20
411.5000000001102
 30
0.0
 41
12.5
 42
12.5
 43
12.5
  0
MTEXT
  5
4F9
330
4F1
100
AcDbEntity
  8
LAY-20
 62
     7
100
AcDbMText
 10
624.99999999942
 20
425.5000000597149
 30
0.0
 40
15.590552
 41
0.0
 71
     5
 72
     1
  1
%%c650
  7
EXCADDIM1
  0
POINT
  5
4FA
330
4F1
100
AcDbEntity
  8
DEFPOINTS
 62
     0
100
AcDbPoint
 10
299.9999999978901
 20
314.5000000001302
 30
0.0
  0
POINT
  5
4FB
330
4F1
100
AcDbEntity
  8
DEFPOINTS
 62
     0
100
AcDbPoint
 10
950.00000000095
 20
314.5000000001302
 30
0.0
  0
POINT
  5
4FC
330
4F1
100
AcDbEntity
  8
DEFPOINTS
 62
     0
100
AcDbPoint
 10
950.00000000095
 20
411.5000000001102
 30
0.0
  0
ENDBLK
  5
4F3
330
4F1
100
AcDbEntity
  8
0
100
AcDbBlockEnd
  0
BLOCK
  5
4FF
330
4FE
100
AcDbEntity
  8
0
100
AcDbBlockBegin
  2
*D19
 70
     1
 10
0.0
 20
0.0
 30
0.0
  3
*D19
  1

  0
LINE
  5
501
330
4FE
100
AcDbEntity
  8
LAY-20
  6
CONTINUOUS
 62
     4
100
AcDbLine
 10
291.4999999993898
 20
327.5000004769473
 30
0.0
 11
291.4999999993898
 21
463.5000004769474
 31
0.0
  0
LINE
  5
502
330
4FE
100
AcDbEntity
  8
LAY-20
  6
CONTINUOUS
 62
     4
100
AcDbLine
 10
958.49999999945
 20
327.5000004769473
 30
0.0
 11
958.49999999945
 21
463.5000004769474
 31
0.0
  0
LINE
  5
503
330
4FE
100
AcDbEntity
  8
LAY-20
  6
CONTINUOUS
 62
     4
100
AcDbLine
 10
303.9999999993898
 20
451.5000000001102
 30
0.0
 11
945.99999999945
 21
451.5000000001102
 31
0.0
  0
INSERT
  5
504
330
4FE
100
AcDbEntity
  8
LAY-20
 62
     4
100
AcDbBlockReference
  2
EX_BNORM
 10
291.4999999993898
 20
451.5000000001102
 30
0.0
 41
12.5
 42
12.5
 43
12.5
 50
180.0
  0
INSERT
  5
505
330
4FE
100
AcDbEntity
  8
LAY-20
 62
     4
100
AcDbBlockReference
  2
EX_BNORM
 10
958.49999999945
 20
451.5000000001102
 30
0.0
 41
12.5
 42
12.5
 43
12.5
  0
MTEXT
  5
506
330
4FE
100
AcDbEntity
  8
LAY-20
 62
     7
100
AcDbMText
 10
624.9999999994199
 20
465.5000000597149
 30
0.0
 40
15.590552
 41
0.0
 71
     5
 72
     1
  1
%%c667
  7
EXCADDIM1
  0
POINT
  5
507
330
4FE
100
AcDbEntity
  8
DEFPOINTS
 62
     0
100
AcDbPoint
 10
291.4999999993898
 20
315.5000000001102
 30
0.0
  0
POINT
  5
508
330
4FE
100
AcDbEntity
  8
DEFPOINTS
 62
     0
100
AcDbPoint
 10
958.49999999945
 20
315.5000000001102
 30
0.0
  0
POINT
  5
509
330
4FE
100
AcDbEntity
  8
DEFPOINTS
 62
     0
100
AcDbPoint
 10
958.49999999945
 20
451.5000000001102
 30
0.0
  0
ENDBLK
  5
500
330
4FE
100
AcDbEntity
  8
0
100
AcDbBlockEnd
  0
BLOCK
  5
50C
330
50B
100
AcDbEntity
  8
0
100
AcDbBlockBegin
  2
*D20
 70
     1
 10
0.0
 20
0.0
 30
0.0
  3
*D20
  1

  0
LINE
  5
50E
330
50B
100
AcDbEntity
  8
LAY-20
  6
CONTINUOUS
 62
     4
100
AcDbLine
 10
306.6231931573282
 20
733.2304992997178
 30
0.0
 11
245.0116799893378
 21
697.6590755870475
 31
0.0
  0
LINE
  5
50F
330
50B
100
AcDbEntity
  8
LAY-20
  6
CONTINUOUS
 62
     4
100
AcDbLine
 10
316.6218326748283
 20
715.9123476488177
 30
0.0
 11
255.010319506838
 21
680.3409239361473
 31
0.0
  0
LINE
  5
510
330
50B
100
AcDbEntity
  8
LAY-20
  6
CONTINUOUS
 62
     4
100
AcDbLine
 10
255.4039852477077
 20
703.6590758254598
 30
0.0
 11
265.4026247652079
 21
686.3409241745596
 31
0.0
  0
LINE
  5
511
330
50B
100
AcDbEntity
  8
LAY-20
  6
CONTINUOUS
 62
     4
100
AcDbLine
 10
249.1539852477142
 20
714.484393372769
 30
0.0
 11
242.9039852477207
 21
725.3097109200781
 31
0.0
  0
LINE
  5
512
330
50B
100
AcDbEntity
  8
LAY-20
  6
CONTINUOUS
 62
     4
100
AcDbLine
 10
271.6526247652014
 20
675.5156066272505
 30
0.0
 11
277.902624765195
 21
664.6902890799413
 31
0.0
  0
INSERT
  5
513
330
50B
100
AcDbEntity
  8
LAY-20
 62
     4
100
AcDbBlockReference
  2
EX_BNORM
 10
255.4039852477077
 20
703.6590758254598
 30
0.0
 41
12.5
 42
12.5
 43
12.5
 50
299.9999999999658
  0
INSERT
  5
514
330
50B
100
AcDbEntity
  8
LAY-20
 62
     4
100
AcDbBlockReference
  2
EX_BNORM
 10
265.4026247652079
 20
686.3409241745596
 30
0.0
 41
12.5
 42
12.5
 43
12.5
 50
119.9999999999658
  0
MTEXT
  5
515
330
50B
100
AcDbEntity
  8
LAY-20
 62
     7
100
AcDbMText
 10
292.526980469798
 20
667.3601620908124
 30
0.0
 40
15.590552
 41
0.0
 71
     5
 72
     1
  1
20
  7
EXCADDIM1
 11
0.4999999999994825
 21
-0.8660254037847375
 31
0.0
  0
POINT
  5
516
330
50B
100
AcDbEntity
  8
DEFPOINTS
 62
     0
100
AcDbPoint
 10
317.0154984156981
 20
739.2304995381302
 30
0.0
  0
POINT
  5
517
330
50B
100
AcDbEntity
  8
DEFPOINTS
 62
     0
100
AcDbPoint
 10
327.0141379331982
 20
721.91234788723
 30
0.0
  0
POINT
  5
518
330
50B
100
AcDbEntity
  8
DEFPOINTS
 62
     0
100
AcDbPoint
 10
265.4026247652079
 20
686.3409241745596
 30
0.0
  0
ENDBLK
  5
50D
330
50B
100
AcDbEntity
  8
0
100
AcDbBlockEnd
  0
BLOCK
  5
51B
330
51A
100
AcDbEntity
  8
0
100
AcDbBlockBegin
  2
*D21
 70
     1
 10
0.0
 20
0.0
 30
0.0
  3
*D21
  1

  0
LINE
  5
51D
330
51A
100
AcDbEntity
  8
LAY-20
  6
CONTINUOUS
 62
     4
100
AcDbLine
 10
309.3959179084566
 20
737.1423052583832
 30
0.0
 11
281.3959179082748
 21
785.6397278703771
 31
0.0
  0
LINE
  5
51E
330
51A
100
AcDbEntity
  8
LAY-20
  6
CONTINUOUS
 62
     4
100
AcDbLine
 10
322.3862989651563
 20
744.6423052583832
 30
0.0
 11
294.3862989649746
 21
793.1397278703771
 31
0.0
  0
LINE
  5
51F
330
51A
100
AcDbEntity
  8
LAY-20
  6
CONTINUOUS
 62
     4
100
AcDbLine
 10
287.3959181467165
 20
775.2474226120241
 30
0.0
 11
300.3862992034163
 21
782.7474226120241
 31
0.0
  0
LINE
  5
520
330
51A
100
AcDbEntity
  8
LAY-20
  6
CONTINUOUS
 62
     4
100
AcDbLine
 10
276.5706005994249
 20
768.997422612
 30
0.0
 11
265.7452830521334
 21
762.7474226119759
 31
0.0
  0
LINE
  5
521
330
51A
100
AcDbEntity
  8
LAY-20
  6
CONTINUOUS
 62
     4
100
AcDbLine
 10
311.2116167507078
 20
788.9974226120482
 30
0.0
 11
322.0369342979994
 21
795.2474226120723
 31
0.0
  0
INSERT
  5
522
330
51A
100
AcDbEntity
  8
LAY-20
 62
     4
100
AcDbBlockReference
  2
EX_BNORM
 10
287.3959181467165
 20
775.2474226120241
 30
0.0
 41
12.5
 42
12.5
 43
12.5
 50
30.00000000012756
  0
INSERT
  5
523
330
51A
100
AcDbEntity
  8
LAY-20
 62
     4
100
AcDbBlockReference
  2
EX_BNORM
 10
300.3862992034163
 20
782.7474226120241
 30
0.0
 41
12.5
 42
12.5
 43
12.5
 50
210.0000000001276
  0
MTEXT
  5
524
330
51A
100
AcDbEntity
  8
LAY-20
 62
     7
100
AcDbMText
 10
254.4151560033872
 20
772.371778316552
 30
0.0
 40
15.590552
 41
0.0
 71
     5
 72
     1
  1
15
  7
EXCADDIM1
 11
0.8660254037833254
 21
0.500000000001928
 31
0.0
  0
POINT
  5
525
330
51A
100
AcDbEntity
  8
DEFPOINTS
 62
     0
100
AcDbPoint
 10
315.3959181468982
 20
726.7500000000302
 30
0.0
  0
POINT
  5
526
330
51A
100
AcDbEntity
  8
DEFPOINTS
 62
     0
100
AcDbPoint
 10
328.386299203598
 20
734.2500000000302
 30
0.0
  0
POINT
  5
527
330
51A
100
AcDbEntity
  8
DEFPOINTS
 62
     0
100
AcDbPoint
 10
300.3862992034163
 20
782.7474226120241
 30
0.0
  0
ENDBLK
  5
51C
330
51A
100
AcDbEntity
  8
0
100
AcDbBlockEnd
  0
BLOCK
  5
52A
330
529
100
AcDbEntity
  8
0
100
AcDbBlockBegin
  2
*D22
 70
     1
 10
0.0
 20
0.0
 30
0.0
  3
*D22
  1

  0
LINE
  5
52C
330
529
100
AcDbEntity
  8
LAY-20
  6
CONTINUOUS
 62
     4
100
AcDbLine
 10
274.9999999999978
 20
917.5000004768674
 30
0.0
 11
274.9999999999978
 21
1338.500000476967
 31
0.0
  0
LINE
  5
52D
330
529
100
AcDbEntity
  8
LAY-20
  6
CONTINUOUS
 62
     4
100
AcDbLine
 10
975.000000000018
 20
917.5000004768674
 30
0.0
 11
975.000000000018
 21
1338.500000476967
 31
0.0
  0
LINE
  5
52E
330
529
100
AcDbEntity
  8
LAY-20
  6
CONTINUOUS
 62
     4
100
AcDbLine
 10
287.4999999999978
 20
1326.50000000013
 30
0.0
 11
962.500000000018
 21
1326.50000000013
 31
0.0
  0
INSERT
  5
52F
330
529
100
AcDbEntity
  8
LAY-20
 62
     4
100
AcDbBlockReference
  2
EX_BNORM
 10
274.9999999999978
 20
1326.50000000013
 30
0.0
 41
12.5
 42
12.5
 43
12.5
 50
180.0
  0
INSERT
  5
530
330
529
100
AcDbEntity
  8
LAY-20
 62
     4
100
AcDbBlockReference
  2
EX_BNORM
 10
975.000000000018
 20
1326.50000000013
 30
0.0
 41
12.5
 42
12.5
 43
12.5
  0
MTEXT
  5
531
330
529
100
AcDbEntity
  8
LAY-20
 62
     7
100
AcDbMText
 10
625.000000000008
 20
1340.500000059735
 30
0.0
 40
15.590552
 41
0.0
 71
     5
 72
     1
  1
%%c700
  7
EXCADDIM1
  0
POINT
  5
532
330
529
100
AcDbEntity
  8
DEFPOINTS
 62
     0
100
AcDbPoint
 10
274.9999999999978
 20
905.5000000000302
 30
0.0
  0
POINT
  5
533
330
529
100
AcDbEntity
  8
DEFPOINTS
 62
     0
100
AcDbPoint
 10
975.000000000018
 20
905.5000000000302
 30
0.0
  0
POINT
  5
534
330
529
100
AcDbEntity
  8
DEFPOINTS
 62
     0
100
AcDbPoint
 10
975.000000000018
 20
1326.50000000013
 30
0.0
  0
ENDBLK
  5
52B
330
529
100
AcDbEntity
  8
0
100
AcDbBlockEnd
  0
BLOCK
  5
537
330
536
100
AcDbEntity
  8
0
100
AcDbBlockBegin
  2
*D23
 70
     1
 10
0.0
 20
0.0
 30
0.0
  3
*D23
  1

  0
LINE
  5
539
330
536
100
AcDbEntity
  8
LAY-20
  6
CONTINUOUS
 62
     4
100
AcDbLine
 10
965.99999999945
 20
315.50000000011
 30
0.0
 11
1054.5
 21
315.50000000011
 31
0.0
  0
LINE
  5
53A
330
536
100
AcDbEntity
  8
LAY-20
  6
CONTINUOUS
 62
     4
100
AcDbLine
 10
997.4999999994401
 20
265.50000000011
 30
0.0
 11
1054.5
 21
265.50000000011
 31
0.0
  0
LINE
  5
53B
330
536
100
AcDbEntity
  8
LAY-20
  6
CONTINUOUS
 62
     4
100
AcDbLine
 10
1047.0
 20
300.50000000011
 30
0.0
 11
1047.0
 21
280.50000000011
 31
0.0
  0
INSERT
  5
53C
330
536
100
AcDbEntity
  8
LAY-20
 62
     4
100
AcDbBlockReference
  2
EX_BNORM
 10
1047.0
 20
315.50000000011
 30
0.0
 41
15.0
 42
15.0
 43
15.0
 50
90.0
  0
INSERT
  5
53D
330
536
100
AcDbEntity
  8
LAY-20
 62
     4
100
AcDbBlockReference
  2
EX_BNORM
 10
1047.0
 20
265.50000000011
 30
0.0
 41
15.0
 42
15.0
 43
15.0
 50
270.0
  0
MTEXT
  5
53E
330
536
100
AcDbEntity
  8
LAY-20
 62
     7
100
AcDbMText
 10
1034.5
 20
290.50000000011
 30
0.0
 40
15.590552
 41
0.0
 71
     5
 72
     1
  1
50
  7
EXCADDIM1
 11
0.0
 21
1.0
 31
0.0
  0
POINT
  5
53F
330
536
100
AcDbEntity
  8
DEFPOINTS
 62
     0
100
AcDbPoint
 10
958.49999999945
 20
315.50000000011
 30
0.0
  0
POINT
  5
540
330
536
100
AcDbEntity
  8
DEFPOINTS
 62
     0
100
AcDbPoint
 10
989.9999999994401
 20
265.50000000011
 30
0.0
  0
POINT
  5
541
330
536
100
AcDbEntity
  8
DEFPOINTS
 62
     0
100
AcDbPoint
 10
1047.0
 20
265.50000000011
 30
0.0
  0
ENDBLK
  5
538
330
536
100
AcDbEntity
  8
0
100
AcDbBlockEnd
  0
BLOCK
  5
544
330
543
100
AcDbEntity
  8
0
100
AcDbBlockBegin
  2
*D24
 70
     1
 10
0.0
 20
0.0
 30
0.0
  3
*D24
  1

  0
LINE
  5
546
330
543
100
AcDbEntity
  8
LAY-20
  6
CONTINUOUS
 62
     4
100
AcDbLine
 10
974.9999999994401
 20
169.50000000011
 30
0.0
 11
974.99999999944
 21
170.0
 31
0.0
  0
LINE
  5
547
330
543
100
AcDbEntity
  8
LAY-20
  6
CONTINUOUS
 62
     4
100
AcDbLine
 10
959.99999999944
 20
170.0
 30
0.0
 11
289.99999999942
 21
170.0
 31
0.0
  0
INSERT
  5
548
330
543
100
AcDbEntity
  8
LAY-20
 62
     4
100
AcDbBlockReference
  2
EX_BNORM
 10
974.99999999944
 20
170.0
 30
0.0
 41
15.0
 42
15.0
 43
15.0
  0
INSERT
  5
549
330
543
100
AcDbEntity
  8
LAY-20
 62
     4
100
AcDbBlockReference
  2
EX_NONE
 10
274.99999999942
 20
170.0
 30
0.0
 41
15.0
 42
15.0
 43
15.0
 50
180.0
  0
MTEXT
  5
54A
330
543
100
AcDbEntity
  8
LAY-20
 62
     7
100
AcDbMText
 10
624.9999999994301
 20
182.5
 30
0.0
 40
15.590552
 41
0.0
 71
     5
 72
     1
  1
アンカーピッチ700
  7
EXCADDIM1
  0
POINT
  5
54B
330
543
100
AcDbEntity
  8
DEFPOINTS
 62
     0
100
AcDbPoint
 10
974.9999999994401
 20
169.50000000011
 30
0.0
  0
POINT
  5
54C
330
543
100
AcDbEntity
  8
DEFPOINTS
 62
     0
100
AcDbPoint
 10
274.99999999942
 20
170.0
 30
0.0
  0
POINT
  5
54D
330
543
100
AcDbEntity
  8
DEFPOINTS
 62
     0
100
AcDbPoint
 10
274.99999999942
 20
170.0
 30
0.0
  0
ENDBLK
  5
545
330
543
100
AcDbEntity
  8
0
100
AcDbBlockEnd
  0
ENDSEC
  0
SECTION
  2
ENTITIES
  0
LINE
  5
D5
330
1F
100
AcDbEntity
  8
LAY-10
  6
CONTINUOUS
 62
     7
100
AcDbLine
 10
312.7426291729295
 20
298.7539422533964
 30
0.0
 11
315.1960577461301
 21
301.2073708265966
 31
0.0
  0
LINE
  5
D6
330
1F
100
AcDbEntity
  8
LAY-10
  6
CONTINUOUS
 62
     7
100
AcDbLine
 10
312.8184012931735
 20
297.4155008112668
 30
0.0
 11
313.9199147878354
 21
298.517014305929
 31
0.0
  0
LINE
  5
D7
330
1F
100
AcDbEntity
  8
LAY-10
  6
CONTINUOUS
 62
     7
100
AcDbLine
 10
315.4329856935971
 20
300.0300852116909
 30
0.0
 11
316.7606047288301
 21
301.3577042469237
 31
0.0
  0
LINE
  5
D8
330
1F
100
AcDbEntity
  8
LAY-10
  6
CONTINUOUS
 62
     7
100
AcDbLine
 10
313.2859717812076
 20
296.4688577369282
 30
0.0
 11
314.1507294419135
 21
297.3336153976339
 31
0.0
  0
LINE
  5
D9
330
1F
100
AcDbEntity
  8
LAY-10
  6
CONTINUOUS
 62
     7
100
AcDbLine
 10
316.9885119529582
 20
300.1713979086785
 30
0.0
 11
318.266391775872
 21
301.4492777315925
 31
0.0
  0
LINE
  5
DA
330
1F
100
AcDbEntity
  8
LAY-10
  6
CONTINUOUS
 62
     7
100
AcDbLine
 10
314.0056262033087
 20
295.7742985966561
 30
0.0
 11
314.8793084495702
 21
296.6479808429176
 31
0.0
  0
LINE
  5
DB
330
1F
100
AcDbEntity
  8
LAY-10
  6
CONTINUOUS
 62
     7
100
AcDbLine
 10
318.4891954316787
 20
300.257867825026
 30
0.0
 11
319.7252275193019
 21
301.4938999126493
 31
0.0
  0
LINE
  5
DC
330
1F
100
AcDbEntity
  8
LAY-10
  6
CONTINUOUS
 62
     7
100
AcDbLine
 10
314.9825847141743
 20
295.3370435451487
 30
0.0
 11
315.826349615195
 21
296.1808084461691
 31
0.0
  0
LINE
  5
DD
330
1F
100
AcDbEntity
  8
LAY-10
  6
CONTINUOUS
 62
     7
100
AcDbLine
 10
319.9423015265789
 20
300.2967603575531
 30
0.0
 11
321.141361090664
 21
301.495819921638
 31
0.0
  0
LINE
  5
DE
330
1F
100
AcDbEntity
  8
LAY-10
  6
CONTINUOUS
 62
     7
100
AcDbLine
 10
315.8078616307122
 20
294.7481068993134
 30
0.0
 11
316.7735493029319
 21
295.7137945715331
 31
0.0
  0
LINE
  5
DF
330
1F
100
AcDbEntity
  8
LAY-10
  6
CONTINUOUS
 62
     7
100
AcDbLine
 10
321.3521900496413
 20
300.2924353182424
 30
0.0
 11
322.5183420728982
 21
301.4585873414994
 31
0.0
  0
LINE
  5
E0
330
1F
100
AcDbEntity
  8
LAY-10
  6
CONTINUOUS
 62
     7
100
AcDbLine
 10
314.2605495917534
 20
291.7865812979813
 30
0.0
 11
317.7207489906665
 21
295.2467806968943
 31
0.0
  0
LINE
  5
E1
330
1F
100
AcDbEntity
  8
LAY-10
  6
CONTINUOUS
 62
     7
100
AcDbLine
 10
322.722493180585
 20
300.2485248868134
 30
0.0
 11
323.8591709376648
 21
301.3852026438927
 31
0.0
  0
LINE
  5
E2
330
1F
100
AcDbEntity
  8
LAY-10
  6
CONTINUOUS
 62
     7
100
AcDbLine
 10
314.0883678706342
 20
290.2001860144894
 30
0.0
 11
318.8881818562533
 21
295.0000000001085
 31
0.0
  0
LINE
  5
E3
330
1F
100
AcDbEntity
  8
LAY-10
  6
CONTINUOUS
 62
     7
100
AcDbLine
 10
324.0562738913978
 20
300.1680920352528
 30
0.0
 11
325.1664100309819
 21
301.2782281748368
 31
0.0
  0
LINE
  5
E4
330
1F
100
AcDbEntity
  8
LAY-10
  6
CONTINUOUS
 62
     7
100
AcDbLine
 10
313.9161861495128
 20
288.6137907309947
 30
0.0
 11
320.3023954186266
 21
295.0000000001085
 31
0.0
  0
LINE
  5
E5
330
1F
100
AcDbEntity
  8
LAY-10
  6
CONTINUOUS
 62
     7
100
AcDbLine
 10
325.3561423311468
 20
300.0537469126289
 30
0.0
 11
326.3591926798659
 21
301.0567972613478
 31
0.0
  0
LINE
  5
E6
330
1F
100
AcDbEntity
  8
LAY-10
  6
CONTINUOUS
 62
     7
100
AcDbLine
 10
313.7440044283936
 20
287.0273954475026
 30
0.0
 11
317.1290205926963
 21
290.4124116118053
 31
0.0
  0
LINE
  5
E7
330
1F
100
AcDbEntity
  8
LAY-10
  6
CONTINUOUS
 62
     7
100
AcDbLine
 10
326.3951335623157
 20
299.6785245814247
 30
0.0
 11
327.2480651403104
 21
300.5314561594191
 31
0.0
  0
LINE
  5
E8
330
1F
100
AcDbEntity
  8
LAY-10
  6
CONTINUOUS
 62
     7
100
AcDbLine
 10
313.5718227072722
 20
285.4410001640081
 30
0.0
 11
317.1069293332922
 21
288.9761067900279
 31
0.0
  0
LINE
  5
E9
330
1F
100
AcDbEntity
  8
LAY-10
  6
CONTINUOUS
 62
     7
100
AcDbLine
 10
326.9927808549597
 20
298.8619583116954
 30
0.0
 11
327.8917414878957
 21
299.7609189446316
 31
0.0
  0
LINE
  5
EA
330
1F
100
AcDbEntity
  8
LAY-10
  6
CONTINUOUS
 62
     7
100
AcDbLine
 10
313.3996409861535
 20
283.854604880516
 30
0.0
 11
316.7846571504562
 21
287.2396210448185
 31
0.0
  0
LINE
  5
EB
330
1F
100
AcDbEntity
  8
LAY-10
  6
CONTINUOUS
 62
     7
100
AcDbLine
 10
326.7999040803876
 20
297.2548679747501
 30
0.0
 11
328.2632390983923
 21
298.7182029927551
 31
0.0
  0
LINE
  5
EC
330
1F
100
AcDbEntity
  8
LAY-10
  6
CONTINUOUS
 62
     7
100
AcDbLine
 10
313.7927613095768
 20
282.8335116415665
 30
0.0
 11
316.612475429337
 21
285.6532257613266
 31
0.0
  0
LINE
  5
ED
330
1F
100
AcDbEntity
  8
LAY-10
  6
CONTINUOUS
 62
     7
100
AcDbLine
 10
326.4303422627178
 20
295.4710925947073
 30
0.0
 11
328.0789074048231
 21
297.1196577368125
 31
0.0
  0
LINE
  5
EE
330
1F
100
AcDbEntity
  8
LAY-10
  6
CONTINUOUS
 62
     7
100
AcDbLine
 10
315.8428162909109
 20
283.4693530605274
 30
0.0
 11
316.9913578872776
 21
284.617894656894
 31
0.0
  0
LINE
  5
EF
330
1F
100
AcDbEntity
  8
LAY-10
  6
CONTINUOUS
 62
     7
100
AcDbLine
 10
323.8800298695274
 20
290.0923530767706
 30
0.0
 11
326.5242692466364
 21
292.7365924538797
 31
0.0
  0
LINE
  5
F0
330
1F
100
AcDbEntity
  8
LAY-10
  6
CONTINUOUS
 62
     7
100
AcDbLine
 10
323.548336606586
 20
288.3464462514562
 30
0.0
 11
326.7592211760426
 21
291.557330820913
 31
0.0
  0
LINE
  5
F1
330
1F
100
AcDbEntity
  8
LAY-10
  6
CONTINUOUS
 62
     7
100
AcDbLine
 10
324.11573229934
 20
287.4996283818373
 30
0.0
 11
326.8770723909494
 21
290.2609684734463
 31
0.0
  0
LINE
  5
F2
330
1F
100
AcDbEntity
  8
LAY-10
  6
CONTINUOUS
 62
     7
100
AcDbLine
 10
324.233583514244
 20
286.2032660343682
 30
0.0
 11
326.9949236058557
 21
288.9646061259798
 31
0.0
  0
LINE
  5
F3
330
1F
100
AcDbEntity
  8
LAY-10
  6
CONTINUOUS
 62
     7
100
AcDbLine
 10
323.8934665180328
 20
284.4489354757839
 30
0.0
 11
327.112774820762
 21
287.668243778513
 31
0.0
  0
LINE
  5
F4
330
1F
100
AcDbEntity
  8
LAY-10
  6
CONTINUOUS
 62
     7
100
AcDbLine
 10
324.6066022248752
 20
283.7478576202532
 30
0.0
 11
327.2306260356687
 21
286.3718814310464
 31
0.0
  0
LINE
  5
F5
330
1F
100
AcDbEntity
  8
LAY-10
  6
CONTINUOUS
 62
     7
100
AcDbLine
 10
325.4114010440027
 20
283.1384428770075
 30
0.0
 11
327.3484772505749
 21
285.0755190835798
 31
0.0
  0
LINE
  5
F6
330
1F
100
AcDbEntity
  8
LAY-10
  6
CONTINUOUS
 62
     7
100
AcDbLine
 10
326.289179266782
 20
282.602007537414
 30
0.0
 11
327.4663284654813
 21
283.7791567361132
 31
0.0
  0
LINE
  5
F7
330
1F
100
AcDbEntity
  8
LAY-10
  6
CONTINUOUS
 62
     7
100
AcDbLine
 10
318.2166089810013
 20
291.5000000001102
 30
0.0
 11
321.7166089809995
 21
295.0000000001085
 31
0.0
  0
LINE
  5
F8
330
1F
100
AcDbEntity
  8
LAY-10
  6
CONTINUOUS
 62
     7
100
AcDbLine
 10
319.6308225433746
 20
291.5000000001102
 30
0.0
 11
323.4732575799763
 21
295.3424350367122
 31
0.0
  0
LINE
  5
F9
330
1F
100
AcDbEntity
  8
LAY-10
  6
CONTINUOUS
 62
     7
100
AcDbLine
 10
321.045036105747
 20
291.5000000001102
 30
0.0
 11
326.2951320247799
 21
296.7500959191427
 31
0.0
  0
LINE
  5
FA
330
1F
100
AcDbEntity
  8
LAY-10
  6
CONTINUOUS
 62
     7
100
AcDbLine
 10
322.4592496681208
 20
291.5000000001102
 30
0.0
 11
325.311849334014
 21
294.3525996660038
 31
0.0
  0
LINE
  5
FB
330
1F
100
AcDbEntity
  8
LAY-10
  6
CONTINUOUS
 62
     7
100
AcDbLine
 10
323.6858542137144
 20
291.3123909833312
 30
0.0
 11
326.0168942164693
 21
293.6434309860858
 31
0.0
  0
LINE
  5
FC
330
1F
100
AcDbEntity
  8
LAY-10
  6
CONTINUOUS
 62
     7
100
AcDbLine
 10
921.7426291729596
 20
298.7539422533964
 30
0.0
 11
924.19605774616
 21
301.2073708265966
 31
0.0
  0
LINE
  5
FD
330
1F
100
AcDbEntity
  8
LAY-10
  6
CONTINUOUS
 62
     7
100
AcDbLine
 10
921.8184012932034
 20
297.4155008112668
 30
0.0
 11
922.9199147878654
 21
298.517014305929
 31
0.0
  0
LINE
  5
FE
330
1F
100
AcDbEntity
  8
LAY-10
  6
CONTINUOUS
 62
     7
100
AcDbLine
 10
924.4329856936272
 20
300.0300852116909
 30
0.0
 11
925.7606047288601
 21
301.3577042469237
 31
0.0
  0
LINE
  5
FF
330
1F
100
AcDbEntity
  8
LAY-10
  6
CONTINUOUS
 62
     7
100
AcDbLine
 10
922.2859717812375
 20
296.4688577369282
 30
0.0
 11
923.1507294419436
 21
297.3336153976339
 31
0.0
  0
LINE
  5
100
330
1F
100
AcDbEntity
  8
LAY-10
  6
CONTINUOUS
 62
     7
100
AcDbLine
 10
925.9885119529881
 20
300.1713979086785
 30
0.0
 11
927.2663917759019
 21
301.4492777315925
 31
0.0
  0
LINE
  5
101
330
1F
100
AcDbEntity
  8
LAY-10
  6
CONTINUOUS
 62
     7
100
AcDbLine
 10
923.0056262033386
 20
295.7742985966561
 30
0.0
 11
923.8793084496001
 21
296.6479808429176
 31
0.0
  0
LINE
  5
102
330
1F
100
AcDbEntity
  8
LAY-10
  6
CONTINUOUS
 62
     7
100
AcDbLine
 10
927.4891954317087
 20
300.257867825026
 30
0.0
 11
928.7252275193318
 21
301.4938999126493
 31
0.0
  0
LINE
  5
103
330
1F
100
AcDbEntity
  8
LAY-10
  6
CONTINUOUS
 62
     7
100
AcDbLine
 10
923.9825847142043
 20
295.3370435451487
 30
0.0
 11
924.8263496152249
 21
296.1808084461691
 31
0.0
  0
LINE
  5
104
330
1F
100
AcDbEntity
  8
LAY-10
  6
CONTINUOUS
 62
     7
100
AcDbLine
 10
928.942301526609
 20
300.2967603575531
 30
0.0
 11
930.141361090694
 21
301.495819921638
 31
0.0
  0
LINE
  5
105
330
1F
100
AcDbEntity
  8
LAY-10
  6
CONTINUOUS
 62
     7
100
AcDbLine
 10
924.8078616307421
 20
294.7481068993134
 30
0.0
 11
925.7735493029618
 21
295.7137945715331
 31
0.0
  0
LINE
  5
106
330
1F
100
AcDbEntity
  8
LAY-10
  6
CONTINUOUS
 62
     7
100
AcDbLine
 10
930.3521900496713
 20
300.2924353182424
 30
0.0
 11
931.5183420729281
 21
301.4585873414994
 31
0.0
  0
LINE
  5
107
330
1F
100
AcDbEntity
  8
LAY-10
  6
CONTINUOUS
 62
     7
100
AcDbLine
 10
923.2605495917833
 20
291.7865812979813
 30
0.0
 11
926.7207489906964
 21
295.2467806968943
 31
0.0
  0
LINE
  5
108
330
1F
100
AcDbEntity
  8
LAY-10
  6
CONTINUOUS
 62
     7
100
AcDbLine
 10
931.722493180615
 20
300.2485248868134
 30
0.0
 11
932.8591709376947
 21
301.3852026438927
 31
0.0
  0
LINE
  5
109
330
1F
100
AcDbEntity
  8
LAY-10
  6
CONTINUOUS
 62
     7
100
AcDbLine
 10
923.0883678706641
 20
290.2001860144894
 30
0.0
 11
927.8881818562832
 21
295.0000000001085
 31
0.0
  0
LINE
  5
10A
330
1F
100
AcDbEntity
  8
LAY-10
  6
CONTINUOUS
 62
     7
100
AcDbLine
 10
933.0562738914278
 20
300.1680920352528
 30
0.0
 11
934.1664100310118
 21
301.2782281748368
 31
0.0
  0
LINE
  5
10B
330
1F
100
AcDbEntity
  8
LAY-10
  6
CONTINUOUS
 62
     7
100
AcDbLine
 10
922.9161861495427
 20
288.6137907309947
 30
0.0
 11
929.3023954186566
 21
295.0000000001085
 31
0.0
  0
LINE
  5
10C
330
1F
100
AcDbEntity
  8
LAY-10
  6
CONTINUOUS
 62
     7
100
AcDbLine
 10
934.3561423311767
 20
300.0537469126289
 30
0.0
 11
935.3591926798958
 21
301.0567972613478
 31
0.0
  0
LINE
  5
10D
330
1F
100
AcDbEntity
  8
LAY-10
  6
CONTINUOUS
 62
     7
100
AcDbLine
 10
922.7440044284238
 20
287.0273954475026
 30
0.0
 11
926.1290205927264
 21
290.4124116118053
 31
0.0
  0
LINE
  5
10E
330
1F
100
AcDbEntity
  8
LAY-10
  6
CONTINUOUS
 62
     7
100
AcDbLine
 10
935.3951335623456
 20
299.6785245814247
 30
0.0
 11
936.2480651403403
 21
300.5314561594191
 31
0.0
  0
LINE
  5
10F
330
1F
100
AcDbEntity
  8
LAY-10
  6
CONTINUOUS
 62
     7
100
AcDbLine
 10
922.5718227073021
 20
285.4410001640081
 30
0.0
 11
926.1069293333221
 21
288.9761067900279
 31
0.0
  0
LINE
  5
110
330
1F
100
AcDbEntity
  8
LAY-10
  6
CONTINUOUS
 62
     7
100
AcDbLine
 10
935.9927808549896
 20
298.8619583116954
 30
0.0
 11
936.8917414879257
 21
299.7609189446316
 31
0.0
  0
LINE
  5
111
330
1F
100
AcDbEntity
  8
LAY-10
  6
CONTINUOUS
 62
     7
100
AcDbLine
 10
922.3996409861834
 20
283.854604880516
 30
0.0
 11
925.784657150486
 21
287.2396210448185
 31
0.0
  0
LINE
  5
112
330
1F
100
AcDbEntity
  8
LAY-10
  6
CONTINUOUS
 62
     7
100
AcDbLine
 10
935.7999040804175
 20
297.2548679747501
 30
0.0
 11
937.2632390984222
 21
298.7182029927551
 31
0.0
  0
LINE
  5
113
330
1F
100
AcDbEntity
  8
LAY-10
  6
CONTINUOUS
 62
     7
100
AcDbLine
 10
922.7927613096069
 20
282.8335116415665
 30
0.0
 11
925.6124754293669
 21
285.6532257613266
 31
0.0
  0
LINE
  5
114
330
1F
100
AcDbEntity
  8
LAY-10
  6
CONTINUOUS
 62
     7
100
AcDbLine
 10
935.4303422627477
 20
295.4710925947073
 30
0.0
 11
937.0789074048531
 21
297.1196577368125
 31
0.0
  0
LINE
  5
115
330
1F
100
AcDbEntity
  8
LAY-10
  6
CONTINUOUS
 62
     7
100
AcDbLine
 10
924.8428162909408
 20
283.4693530605274
 30
0.0
 11
925.9913578873075
 21
284.617894656894
 31
0.0
  0
LINE
  5
116
330
1F
100
AcDbEntity
  8
LAY-10
  6
CONTINUOUS
 62
     7
100
AcDbLine
 10
932.8800298695575
 20
290.0923530767706
 30
0.0
 11
935.5242692466663
 21
292.7365924538797
 31
0.0
  0
LINE
  5
117
330
1F
100
AcDbEntity
  8
LAY-10
  6
CONTINUOUS
 62
     7
100
AcDbLine
 10
932.548336606616
 20
288.3464462514562
 30
0.0
 11
935.7592211760726
 21
291.557330820913
 31
0.0
  0
LINE
  5
118
330
1F
100
AcDbEntity
  8
LAY-10
  6
CONTINUOUS
 62
     7
100
AcDbLine
 10
933.1157322993702
 20
287.4996283818373
 30
0.0
 11
935.8770723909794
 21
290.2609684734463
 31
0.0
  0
LINE
  5
119
330
1F
100
AcDbEntity
  8
LAY-10
  6
CONTINUOUS
 62
     7
100
AcDbLine
 10
933.233583514274
 20
286.2032660343682
 30
0.0
 11
935.9949236058856
 21
288.9646061259798
 31
0.0
  0
LINE
  5
11A
330
1F
100
AcDbEntity
  8
LAY-10
  6
CONTINUOUS
 62
     7
100
AcDbLine
 10
932.893466518063
 20
284.4489354757839
 30
0.0
 11
936.1127748207921
 21
287.668243778513
 31
0.0
  0
LINE
  5
11B
330
1F
100
AcDbEntity
  8
LAY-10
  6
CONTINUOUS
 62
     7
100
AcDbLine
 10
933.6066022249051
 20
283.7478576202532
 30
0.0
 11
936.2306260356986
 21
286.3718814310464
 31
0.0
  0
LINE
  5
11C
330
1F
100
AcDbEntity
  8
LAY-10
  6
CONTINUOUS
 62
     7
100
AcDbLine
 10
934.4114010440328
 20
283.1384428770075
 30
0.0
 11
936.3484772506049
 21
285.0755190835798
 31
0.0
  0
LINE
  5
11D
330
1F
100
AcDbEntity
  8
LAY-10
  6
CONTINUOUS
 62
     7
100
AcDbLine
 10
935.2891792668123
 20
282.602007537414
 30
0.0
 11
936.4663284655114
 21
283.7791567361132
 31
0.0
  0
LINE
  5
11E
330
1F
100
AcDbEntity
  8
LAY-10
  6
CONTINUOUS
 62
     7
100
AcDbLine
 10
927.2166089810315
 20
291.5000000001102
 30
0.0
 11
930.7166089810295
 21
295.0000000001085
 31
0.0
  0
LINE
  5
11F
330
1F
100
AcDbEntity
  8
LAY-10
  6
CONTINUOUS
 62
     7
100
AcDbLine
 10
928.6308225434047
 20
291.5000000001102
 30
0.0
 11
932.4732575800062
 21
295.3424350367122
 31
0.0
  0
LINE
  5
120
330
1F
100
AcDbEntity
  8
LAY-10
  6
CONTINUOUS
 62
     7
100
AcDbLine
 10
930.0450361057773
 20
291.5000000001102
 30
0.0
 11
935.2951320248101
 21
296.7500959191427
 31
0.0
  0
LINE
  5
121
330
1F
100
AcDbEntity
  8
LAY-10
  6
CONTINUOUS
 62
     7
100
AcDbLine
 10
931.4592496681507
 20
291.5000000001102
 30
0.0
 11
934.3118493340442
 21
294.3525996660038
 31
0.0
  0
LINE
  5
122
330
1F
100
AcDbEntity
  8
LAY-10
  6
CONTINUOUS
 62
     7
100
AcDbLine
 10
932.6858542137445
 20
291.3123909833312
 30
0.0
 11
935.0168942164994
 21
293.6434309860858
 31
0.0
  0
ARC
  5
123
330
1F
100
AcDbEntity
  8
LAY-10
  6
CONTINUOUS
 62
     7
100
AcDbCircle
 10
607.0000000000136
 20
564.9754047062717
 30
0.0
 40
3.0
100
AcDbArc
 50
266.9741830742381
 51
0.0
  0
ARC
  5
124
330
1F
100
AcDbEntity
  8
LAY-10
  6
CONTINUOUS
 62
     7
100
AcDbCircle
 10
605.0000000000159
 20
565.0870155238528
 30
0.0
 40
3.0
100
AcDbArc
 50
266.6376141054633
 51
0.0
  0
ARC
  5
125
330
1F
100
AcDbEntity
  8
LAY-10
  6
CONTINUOUS
 62
     7
100
AcDbCircle
 10
643.0000000000132
 20
564.9754047062717
 30
0.0
 40
3.0
100
AcDbArc
 50
180.0
 51
273.0258169257621
  0
ARC
  5
126
330
1F
100
AcDbEntity
  8
LAY-10
  6
CONTINUOUS
 62
     7
100
AcDbCircle
 10
645.0000000000105
 20
565.0870155238528
 30
0.0
 40
3.0
100
AcDbArc
 50
180.0
 51
273.3623858945371
  0
CIRCLE
  5
127
330
1F
100
AcDbEntity
  8
LAY-10
  6
CONTINUOUS
 62
     7
100
AcDbCircle
 10
625.0000000000136
 20
905.5000000000621
 30
0.0
 40
333.5
  0
CIRCLE
  5
128
330
1F
100
AcDbEntity
  8
LAY-10
  6
CONTINUOUS
 62
     7
100
AcDbCircle
 10
625.0000000000136
 20
905.5000000000621
 30
0.0
 40
327.5
  0
ARC
  5
129
330
1F
100
AcDbEntity
  8
LAY-10
  6
CONTINUOUS
 62
     7
100
AcDbCircle
 10
313.7450000424734
 20
1044.788639168862
 30
0.0
 40
3.0
100
AcDbArc
 50
60.00000000000001
 51
155.8911732734634
  0
ARC
  5
12A
330
1F
100
AcDbEntity
  8
LAY-10
  6
CONTINUOUS
 62
     7
100
AcDbCircle
 10
348.745000042473
 20
1105.410417433771
 30
0.0
 40
3.0
100
AcDbArc
 50
144.1088267265367
 51
240.0000000000001
  0
ARC
  5
12B
330
1F
100
AcDbEntity
  8
LAY-10
  6
CONTINUOUS
 62
     7
100
AcDbCircle
 10
347.5714372503986
 20
1103.778573150928
 30
0.0
 40
3.0
100
AcDbArc
 50
144.4465558043422
 51
240.0000000000001
  0
ARC
  5
12C
330
1F
100
AcDbEntity
  8
LAY-10
  6
CONTINUOUS
 62
     7
100
AcDbCircle
 10
314.5714372503986
 20
1046.620896501156
 30
0.0
 40
3.0
100
AcDbArc
 50
60.00000000000001
 51
155.5534441956578
  0
ARC
  5
12D
330
1F
100
AcDbEntity
  8
LAY-10
  6
CONTINUOUS
 62
     7
100
AcDbCircle
 10
627.4999999999363
 20
1255.50000000003
 30
0.0
 40
8.500000000006334
100
AcDbArc
 50
269.9999999999957
 51
89.9999999999967
  0
ARC
  5
12E
330
1F
100
AcDbEntity
  8
LAY-10
  6
CONTINUOUS
 62
     7
100
AcDbCircle
 10
627.4999999999363
 20
1255.50000000003
 30
0.0
 40
7.500000000006333
100
AcDbArc
 50
269.9999999999959
 51
89.99999999999629
  0
ARC
  5
12F
330
1F
100
AcDbEntity
  8
LAY-10
  6
CONTINUOUS
 62
     7
100
AcDbCircle
 10
622.4999999999427
 20
1255.500000000027
 30
0.0
 40
8.50000000000022
100
AcDbArc
 50
89.99999999999729
 51
269.9999999999957
  0
LINE
  5
130
330
1F
100
AcDbEntity
  8
LAY-10
  6
CONTINUOUS
 62
     7
100
AcDbLine
 10
627.4999999999368
 20
1264.000000000029
 30
0.0
 11
622.4999999999432
 21
1264.000000000029
 31
0.0
  0
LINE
  5
131
330
1F
100
AcDbEntity
  8
LAY-10
  6
CONTINUOUS
 62
     7
100
AcDbLine
 10
622.4999999999418
 20
1247.000000000029
 30
0.0
 11
627.4999999999359
 21
1247.000000000028
 31
0.0
  0
LINE
  5
132
330
1F
100
AcDbEntity
  8
LAY-10
  6
CONTINUOUS
 62
     7
100
AcDbLine
 10
627.4999999999359
 20
1248.000000000028
 30
0.0
 11
622.4999999999422
 21
1248.000000000029
 31
0.0
  0
LINE
  5
133
330
1F
100
AcDbEntity
  8
LAY-10
  6
CONTINUOUS
 62
     7
100
AcDbLine
 10
622.4999999999432
 20
1263.000000000029
 30
0.0
 11
627.4999999999368
 21
1263.000000000029
 31
0.0
  0
ARC
  5
134
330
1F
100
AcDbEntity
  8
LAY-10
  6
CONTINUOUS
 62
     7
100
AcDbCircle
 10
622.4999999999427
 20
1255.500000000027
 30
0.0
 40
7.500000000000222
100
AcDbArc
 50
89.99999999999693
 51
269.9999999999959
  0
ARC
  5
135
330
1F
100
AcDbEntity
  8
LAY-10
  6
CONTINUOUS
 62
     7
100
AcDbCircle
 10
625.0000000000136
 20
905.5000000000621
 30
0.0
 40
343.9999999999999
100
AcDbArc
 50
93.44654583427935
 51
144.4465558043473
  0
ARC
  5
136
330
1F
100
AcDbEntity
  8
LAY-10
  6
CONTINUOUS
 62
     7
100
AcDbCircle
 10
319.9694672300653
 20
753.0619008311087
 30
0.0
 40
3.0
100
AcDbArc
 50
206.553454165731
 51
300.0000000000001
  0
ARC
  5
137
330
1F
100
AcDbEntity
  8
LAY-10
  6
CONTINUOUS
 62
     7
100
AcDbCircle
 10
318.857844156331
 20
755.3068562965128
 30
0.0
 40
3.0
100
AcDbArc
 50
206.1325391043175
 51
300.0000000069655
  0
ARC
  5
138
330
1F
100
AcDbEntity
  8
LAY-10
  6
CONTINUOUS
 62
     7
100
AcDbCircle
 10
320.6411086752643
 20
732.6650635094567
 30
0.0
 40
8.500000000006334
100
AcDbArc
 50
29.99999999999571
 51
209.9999999999968
  0
ARC
  5
139
330
1F
100
AcDbEntity
  8
LAY-10
  6
CONTINUOUS
 62
     7
100
AcDbCircle
 10
320.6411086752643
 20
732.6650635094567
 30
0.0
 40
7.500000000006333
100
AcDbArc
 50
29.99999999999577
 51
209.9999999999964
  0
ARC
  5
13A
330
1F
100
AcDbEntity
  8
LAY-10
  6
CONTINUOUS
 62
     7
100
AcDbCircle
 10
323.1411086752634
 20
728.3349364905417
 30
0.0
 40
8.50000000000022
100
AcDbArc
 50
209.9999999999972
 51
29.99999999999571
  0
LINE
  5
13B
330
1F
100
AcDbEntity
  8
LAY-10
  6
CONTINUOUS
 62
     7
100
AcDbLine
 10
313.2798927430973
 20
728.4150635094585
 30
0.0
 11
315.7798927430941
 21
724.0849364905407
 31
0.0
  0
LINE
  5
13C
330
1F
100
AcDbEntity
  8
LAY-10
  6
CONTINUOUS
 62
     7
100
AcDbLine
 10
330.5023246074303
 20
732.5849364905398
 30
0.0
 11
328.0023246074335
 21
736.9150635094567
 31
0.0
  0
LINE
  5
13D
330
1F
100
AcDbEntity
  8
LAY-10
  6
CONTINUOUS
 62
     7
100
AcDbLine
 10
327.1362992036494
 20
736.4150635094567
 30
0.0
 11
329.6362992036457
 21
732.0849364905399
 31
0.0
  0
LINE
  5
13E
330
1F
100
AcDbEntity
  8
LAY-10
  6
CONTINUOUS
 62
     7
100
AcDbLine
 10
316.6459181468787
 20
724.5849364905408
 30
0.0
 11
314.1459181468819
 21
728.9150635094584
 31
0.0
  0
ARC
  5
13F
330
1F
100
AcDbEntity
  8
LAY-10
  6
CONTINUOUS
 62
     7
100
AcDbCircle
 10
323.1411086752634
 20
728.3349364905417
 30
0.0
 40
7.500000000000222
100
AcDbArc
 50
209.999999999997
 51
29.99999999999577
  0
ARC
  5
140
330
1F
100
AcDbEntity
  8
LAY-10
  6
CONTINUOUS
 62
     7
100
AcDbCircle
 10
625.0000000000136
 20
905.5000000000621
 30
0.0
 40
343.9999999999999
100
AcDbArc
 50
155.5534441956614
 51
206.5534541657263
  0
ARC
  5
141
330
1F
100
AcDbEntity
  8
LAY-10
  6
CONTINUOUS
 62
     7
100
AcDbCircle
 10
625.0000000000136
 20
905.5000000000621
 30
0.0
 40
343.9999999999999
100
AcDbArc
 50
213.4465458342573
 51
266.9741830742378
  0
ARC
  5
142
330
1F
100
AcDbEntity
  8
LAY-10
  6
CONTINUOUS
 62
     7
100
AcDbCircle
 10
625.0000000000136
 20
905.5000000000621
 30
0.0
 40
343.9999999999999
100
AcDbArc
 50
273.0258169257626
 51
326.5534541657149
  0
ARC
  5
143
330
1F
100
AcDbEntity
  8
LAY-10
  6
CONTINUOUS
 62
     7
100
AcDbCircle
 10
625.0000000000136
 20
905.5000000000621
 30
0.0
 40
343.9999999999999
100
AcDbArc
 50
333.4465458342527
 51
24.44655580434265
  0
ARC
  5
144
330
1F
100
AcDbEntity
  8
LAY-10
  6
CONTINUOUS
 62
     7
100
AcDbCircle
 10
646.177735657648
 20
1260.500000000137
 30
0.0
 40
10.0
100
AcDbArc
 50
48.16364466756792
 51
90.00000000000001
  0
LINE
  5
145
330
1F
100
AcDbEntity
  8
LAY-10
  6
CONTINUOUS
 62
     7
100
AcDbLine
 10
652.8477892142309
 20
1267.95052921304
 30
0.0
 11
667.707969301438
 21
1254.647018252974
 31
0.0
  0
ARC
  5
146
330
1F
100
AcDbEntity
  8
LAY-10
  6
CONTINUOUS
 62
     7
100
AcDbCircle
 10
674.3780228580213
 20
1262.097547465876
 30
0.0
 40
10.0
100
AcDbArc
 50
228.163644667568
 51
262.1163912265695
  0
ARC
  5
147
330
1F
100
AcDbEntity
  8
LAY-10
  6
CONTINUOUS
 62
     7
100
AcDbCircle
 10
673.5391897281747
 20
1261.50632260479
 30
0.0
 40
10.0
100
AcDbArc
 50
228.1636446675675
 51
262.2359600653922
  0
LINE
  5
148
330
1F
100
AcDbEntity
  8
LAY-10
  6
CONTINUOUS
 62
     7
100
AcDbLine
 10
666.8691361715919
 20
1254.055793391887
 30
0.0
 11
652.4655627800066
 21
1266.950529213024
 31
0.0
  0
ARC
  5
149
330
1F
100
AcDbEntity
  8
LAY-10
  6
CONTINUOUS
 62
     7
100
AcDbCircle
 10
645.7955092234238
 20
1259.500000000122
 30
0.0
 40
10.0
100
AcDbArc
 50
48.16364466756747
 51
89.99999999998897
  0
ARC
  5
14A
330
1F
100
AcDbEntity
  8
LAY-10
  6
CONTINUOUS
 62
     7
100
AcDbCircle
 10
603.8222643423792
 20
1260.500000000137
 30
0.0
 40
10.0
100
AcDbArc
 50
90.00000000000001
 51
131.8363553324321
  0
LINE
  5
14B
330
1F
100
AcDbEntity
  8
LAY-10
  6
CONTINUOUS
 62
     7
100
AcDbLine
 10
597.1522107857959
 20
1267.95052921304
 30
0.0
 11
582.2920306985893
 21
1254.647018252974
 31
0.0
  0
ARC
  5
14C
330
1F
100
AcDbEntity
  8
LAY-10
  6
CONTINUOUS
 62
     7
100
AcDbCircle
 10
575.621977142006
 20
1262.097547465876
 30
0.0
 40
10.0
100
AcDbArc
 50
277.8836087734305
 51
311.836355332432
  0
ARC
  5
14D
330
1F
100
AcDbEntity
  8
LAY-10
  6
CONTINUOUS
 62
     7
100
AcDbCircle
 10
576.4608102718526
 20
1261.50632260479
 30
0.0
 40
10.0
100
AcDbArc
 50
277.7640399346078
 51
311.836355332432
  0
LINE
  5
14E
330
1F
100
AcDbEntity
  8
LAY-10
  6
CONTINUOUS
 62
     7
100
AcDbLine
 10
583.1308638284354
 20
1254.055793391887
 30
0.0
 11
597.5344372200202
 21
1266.950529213024
 31
0.0
  0
ARC
  5
14F
330
1F
100
AcDbEntity
  8
LAY-10
  6
CONTINUOUS
 62
     7
100
AcDbCircle
 10
604.2044907766035
 20
1259.500000000122
 30
0.0
 40
10.0
100
AcDbArc
 50
90.00000000001107
 51
131.8363553324321
  0
LINE
  5
150
330
1F
100
AcDbEntity
  8
LAY-10
  6
CONTINUOUS
 62
     7
100
AcDbLine
 10
603.8222643423792
 20
1270.500000000137
 30
0.0
 11
646.177735657648
 21
1270.500000000137
 31
0.0
  0
LINE
  5
151
330
1F
100
AcDbEntity
  8
LAY-10
  6
CONTINUOUS
 62
     7
100
AcDbLine
 10
645.7955092234256
 20
1269.500000000122
 30
0.0
 11
604.2044907766053
 21
1269.50000000013
 31
0.0
  0
ARC
  5
152
330
1F
100
AcDbEntity
  8
LAY-10
  6
CONTINUOUS
 62
     7
100
AcDbCircle
 10
328.1498494852245
 20
709.6595429259079
 30
0.0
 40
10.0
100
AcDbArc
 50
210.0000000000001
 51
251.8363553324321
  0
ARC
  5
153
330
1F
100
AcDbEntity
  8
LAY-10
  6
CONTINUOUS
 62
     7
100
AcDbCircle
 10
328.8247616719096
 20
710.4905607279517
 30
0.0
 40
10.0
100
AcDbArc
 50
210.0000000000111
 51
251.8363553324321
  0
LINE
  5
154
330
1F
100
AcDbEntity
  8
LAY-10
  6
CONTINUOUS
 62
     7
100
AcDbLine
 10
344.0763963721762
 20
694.9623677450792
 30
0.0
 11
325.7074408801897
 21
700.988860296896
 31
0.0
  0
LINE
  5
155
330
1F
100
AcDbEntity
  8
LAY-10
  6
CONTINUOUS
 62
     7
100
AcDbLine
 10
325.0325286935045
 20
700.1578424948531
 30
0.0
 11
343.9837971880494
 21
693.9403045145528
 31
0.0
  0
ARC
  5
156
330
1F
100
AcDbEntity
  8
LAY-10
  6
CONTINUOUS
 62
     7
100
AcDbCircle
 10
340.9590755804562
 20
685.4606673140235
 30
0.0
 40
10.0
100
AcDbArc
 50
37.76403993460779
 51
71.83635533243206
  0
ARC
  5
157
330
1F
100
AcDbEntity
  8
LAY-10
  6
CONTINUOUS
 62
     7
100
AcDbCircle
 10
340.8664763963289
 20
684.4386040834971
 30
0.0
 40
10.0
100
AcDbArc
 50
37.88360877343052
 51
71.83635533243206
  0
ARC
  5
158
330
1F
100
AcDbEntity
  8
LAY-10
  6
CONTINUOUS
 62
     7
100
AcDbCircle
 10
306.9721138275901
 20
746.3404570741941
 30
0.0
 40
10.0
100
AcDbArc
 50
168.163644667568
 51
210.0000000000001
  0
ARC
  5
159
330
1F
100
AcDbEntity
  8
LAY-10
  6
CONTINUOUS
 62
     7
100
AcDbCircle
 10
308.0292524485
 20
746.509439272165
 30
0.0
 40
10.0
100
AcDbArc
 50
168.1636446675675
 51
209.999999999989
  0
ARC
  5
15A
330
1F
100
AcDbEntity
  8
LAY-10
  6
CONTINUOUS
 62
     7
100
AcDbCircle
 10
291.4884535383213
 20
769.9638484508642
 30
0.0
 40
10.0
100
AcDbArc
 50
348.1636446675681
 51
22.11639122656956
  0
ARC
  5
15B
330
1F
100
AcDbEntity
  8
LAY-10
  6
CONTINUOUS
 62
     7
100
AcDbCircle
 10
292.4198858522947
 20
769.5330100814245
 30
0.0
 40
10.0
100
AcDbArc
 50
348.1636446675676
 51
22.23596006539223
  0
LINE
  5
15C
330
1F
100
AcDbEntity
  8
LAY-10
  6
CONTINUOUS
 62
     7
100
AcDbLine
 10
302.2072602005979
 20
767.4818388632722
 30
0.0
 11
298.2418781001967
 21
748.5606104903173
 31
0.0
  0
LINE
  5
15D
330
1F
100
AcDbEntity
  8
LAY-10
  6
CONTINUOUS
 62
     7
100
AcDbLine
 10
297.1847394792868
 20
748.3916282923457
 30
0.0
 11
301.2758278866246
 21
767.9126772327119
 31
0.0
  0
LINE
  5
15E
330
1F
100
AcDbEntity
  8
LAY-10
  6
CONTINUOUS
 62
     7
100
AcDbLine
 10
319.4895954472164
 20
704.6595429258124
 30
0.0
 11
298.3118597895633
 21
741.3404570741233
 31
0.0
  0
LINE
  5
15F
330
1F
100
AcDbEntity
  8
LAY-10
  6
CONTINUOUS
 62
     7
100
AcDbLine
 10
299.3689984105059
 20
741.5094392720422
 30
0.0
 11
320.1645076338924
 21
705.4905607278534
 31
0.0
  0
ARC
  5
160
330
1F
100
AcDbEntity
  8
LAY-10
  6
CONTINUOUS
 62
     7
100
AcDbCircle
 10
625.0000000000136
 20
905.5000000000621
 30
0.0
 40
350.0
100
AcDbArc
 50
97.88360877343025
 51
202.1163912265619
  0
ARC
  5
161
330
1F
100
AcDbEntity
  8
LAY-10
  6
CONTINUOUS
 62
     7
100
AcDbCircle
 10
625.0000000000136
 20
905.5000000000621
 30
0.0
 40
349.30009
100
AcDbArc
 50
97.76403993460741
 51
202.2359600653848
  0
ARC
  5
162
330
1F
100
AcDbEntity
  8
LAY-10
  6
CONTINUOUS
 62
     7
100
AcDbCircle
 10
929.3588913247627
 20
732.6650635094567
 30
0.0
 40
8.500000000006334
100
AcDbArc
 50
330.0000000000028
 51
150.0000000000043
  0
ARC
  5
163
330
1F
100
AcDbEntity
  8
LAY-10
  6
CONTINUOUS
 62
     7
100
AcDbCircle
 10
929.3588913247627
 20
732.6650635094567
 30
0.0
 40
7.500000000006333
100
AcDbArc
 50
330.0000000000038
 51
150.0000000000038
  0
ARC
  5
164
330
1F
100
AcDbEntity
  8
LAY-10
  6
CONTINUOUS
 62
     7
100
AcDbCircle
 10
926.8588913247636
 20
728.3349364905417
 30
0.0
 40
8.50000000000022
100
AcDbArc
 50
150.0000000000046
 51
330.0000000000026
  0
LINE
  5
165
330
1F
100
AcDbEntity
  8
LAY-10
  6
CONTINUOUS
 62
     7
100
AcDbLine
 10
936.7201072569296
 20
728.4150635094585
 30
0.0
 11
934.2201072569328
 21
724.0849364905407
 31
0.0
  0
LINE
  5
166
330
1F
100
AcDbEntity
  8
LAY-10
  6
CONTINUOUS
 62
     7
100
AcDbLine
 10
919.4976753925971
 20
732.5849364905398
 30
0.0
 11
921.9976753925935
 21
736.9150635094567
 31
0.0
  0
LINE
  5
167
330
1F
100
AcDbEntity
  8
LAY-10
  6
CONTINUOUS
 62
     7
100
AcDbLine
 10
922.8637007963775
 20
736.4150635094567
 30
0.0
 11
920.3637007963812
 21
732.0849364905399
 31
0.0
  0
LINE
  5
168
330
1F
100
AcDbEntity
  8
LAY-10
  6
CONTINUOUS
 62
     7
100
AcDbLine
 10
933.3540818531487
 20
724.5849364905408
 30
0.0
 11
935.8540818531452
 21
728.9150635094576
 31
0.0
  0
ARC
  5
169
330
1F
100
AcDbEntity
  8
LAY-10
  6
CONTINUOUS
 62
     7
100
AcDbCircle
 10
926.8588913247636
 20
728.3349364905417
 30
0.0
 40
7.500000000000222
100
AcDbArc
 50
150.0000000000041
 51
330.0000000000026
  0
ARC
  5
16A
330
1F
100
AcDbEntity
  8
LAY-10
  6
CONTINUOUS
 62
     7
100
AcDbCircle
 10
921.8501505148024
 20
709.6595429259079
 30
0.0
 40
10.0
100
AcDbArc
 50
288.1636446675688
 51
330.0000000000002
  0
ARC
  5
16B
330
1F
100
AcDbEntity
  8
LAY-10
  6
CONTINUOUS
 62
     7
100
AcDbCircle
 10
921.1752383281174
 20
710.4905607279517
 30
0.0
 40
10.0
100
AcDbArc
 50
288.1636446675676
 51
329.9999999999885
  0
LINE
  5
16C
330
1F
100
AcDbEntity
  8
LAY-10
  6
CONTINUOUS
 62
     7
100
AcDbLine
 10
905.9236036278509
 20
694.9623677450792
 30
0.0
 11
924.2925591198377
 21
700.988860296896
 31
0.0
  0
LINE
  5
16D
330
1F
100
AcDbEntity
  8
LAY-10
  6
CONTINUOUS
 62
     7
100
AcDbLine
 10
924.967471306523
 20
700.1578424948522
 30
0.0
 11
906.016202811978
 21
693.9403045145528
 31
0.0
  0
ARC
  5
16E
330
1F
100
AcDbEntity
  8
LAY-10
  6
CONTINUOUS
 62
     7
100
AcDbCircle
 10
909.0409244195712
 20
685.4606673140235
 30
0.0
 40
10.0
100
AcDbArc
 50
108.1636446675674
 51
142.2359600653918
  0
ARC
  5
16F
330
1F
100
AcDbEntity
  8
LAY-10
  6
CONTINUOUS
 62
     7
100
AcDbCircle
 10
909.133523603698
 20
684.4386040834971
 30
0.0
 40
10.0
100
AcDbArc
 50
108.1636446675674
 51
142.116391226569
  0
ARC
  5
170
330
1F
100
AcDbEntity
  8
LAY-10
  6
CONTINUOUS
 62
     7
100
AcDbCircle
 10
943.0278861724366
 20
746.3404570741933
 30
0.0
 40
10.0
100
AcDbArc
 50
330.0000000000002
 51
11.83635533243209
  0
ARC
  5
171
330
1F
100
AcDbEntity
  8
LAY-10
  6
CONTINUOUS
 62
     7
100
AcDbCircle
 10
941.9707475515272
 20
746.509439272165
 30
0.0
 40
10.0
100
AcDbArc
 50
330.0000000000111
 51
11.83635533243238
  0
ARC
  5
172
330
1F
100
AcDbEntity
  8
LAY-10
  6
CONTINUOUS
 62
     7
100
AcDbCircle
 10
958.5115464617054
 20
769.9638484508633
 30
0.0
 40
10.0
100
AcDbArc
 50
157.8836087734311
 51
191.8363553324315
  0
ARC
  5
173
330
1F
100
AcDbEntity
  8
LAY-10
  6
CONTINUOUS
 62
     7
100
AcDbCircle
 10
957.580114147732
 20
769.5330100814245
 30
0.0
 40
10.0
100
AcDbArc
 50
157.7640399346079
 51
191.8363553324328
  0
LINE
  5
174
330
1F
100
AcDbEntity
  8
LAY-10
  6
CONTINUOUS
 62
     7
100
AcDbLine
 10
947.7927397994288
 20
767.4818388632722
 30
0.0
 11
951.7581218998305
 21
748.5606104903173
 31
0.0
  0
LINE
  5
175
330
1F
100
AcDbEntity
  8
LAY-10
  6
CONTINUOUS
 62
     7
100
AcDbLine
 10
952.8152605207399
 20
748.3916282923457
 30
0.0
 11
948.7241721134021
 21
767.9126772327119
 31
0.0
  0
LINE
  5
176
330
1F
100
AcDbEntity
  8
LAY-10
  6
CONTINUOUS
 62
     7
100
AcDbLine
 10
930.5104045528111
 20
704.6595429258114
 30
0.0
 11
951.6881402104639
 21
741.3404570741233
 31
0.0
  0
LINE
  5
177
330
1F
100
AcDbEntity
  8
LAY-10
  6
CONTINUOUS
 62
     7
100
AcDbLine
 10
950.6310015895208
 20
741.5094392720422
 30
0.0
 11
929.835492366135
 21
705.4905607278534
 31
0.0
  0
ARC
  5
178
330
1F
100
AcDbEntity
  8
LAY-10
  6
CONTINUOUS
 62
     7
100
AcDbCircle
 10
625.0000000000136
 20
905.5000000000621
 30
0.0
 40
350.0
100
AcDbArc
 50
337.883608773438
 51
82.11639122656975
  0
ARC
  5
179
330
1F
100
AcDbEntity
  8
LAY-10
  6
CONTINUOUS
 62
     7
100
AcDbCircle
 10
625.0000000000136
 20
905.5000000000621
 30
0.0
 40
349.30009
100
AcDbArc
 50
337.7640399346152
 51
82.23596006539259
  0
ARC
  5
17A
330
1F
100
AcDbEntity
  8
LAY-10
  6
CONTINUOUS
 62
     7
100
AcDbCircle
 10
625.0000000000136
 20
905.5000000000621
 30
0.0
 40
350.0
100
AcDbArc
 50
217.8836087734205
 51
322.1163912265795
  0
ARC
  5
17B
330
1F
100
AcDbEntity
  8
LAY-10
  6
CONTINUOUS
 62
     7
100
AcDbCircle
 10
625.0000000000136
 20
905.5000000000621
 30
0.0
 40
349.30009
100
AcDbArc
 50
217.7640399345977
 51
322.2359600654023
  0
LINE
  5
17C
330
1F
100
AcDbEntity
  8
LAY-10
  6
CONTINUOUS
 62
     7
100
AcDbLine
 10
642.0000000000105
 20
565.0870155238528
 30
0.0
 11
642.0000000000105
 21
567.6704151565974
 31
0.0
  0
ARC
  5
17D
330
1F
100
AcDbEntity
  8
LAY-10
  6
CONTINUOUS
 62
     7
100
AcDbCircle
 10
645.0000000000102
 20
567.6704151565974
 30
0.0
 40
3.0
100
AcDbArc
 50
93.38803855707866
 51
180.0
  0
LINE
  5
17E
330
1F
100
AcDbEntity
  8
LAY-10
  6
CONTINUOUS
 62
     7
100
AcDbLine
 10
640.0000000000132
 20
567.5579511285024
 30
0.0
 11
640.0000000000132
 21
564.9754047062717
 31
0.0
  0
ARC
  5
17F
330
1F
100
AcDbEntity
  8
LAY-10
  6
CONTINUOUS
 62
     7
100
AcDbCircle
 10
643.000000000013
 20
567.5579511285024
 30
0.0
 40
3.0
100
AcDbArc
 50
93.04889669690847
 51
180.0
  0
LINE
  5
180
330
1F
100
AcDbEntity
  8
LAY-10
  6
CONTINUOUS
 62
     7
100
AcDbLine
 10
608.0000000000159
 20
565.0870155238528
 30
0.0
 11
608.0000000000159
 21
567.6704151565974
 31
0.0
  0
ARC
  5
181
330
1F
100
AcDbEntity
  8
LAY-10
  6
CONTINUOUS
 62
     7
100
AcDbCircle
 10
605.0000000000157
 20
567.6704151565974
 30
0.0
 40
3.0
100
AcDbArc
 50
0.0
 51
86.61196144292138
  0
LINE
  5
182
330
1F
100
AcDbEntity
  8
LAY-10
  6
CONTINUOUS
 62
     7
100
AcDbLine
 10
610.0000000000136
 20
567.5579511285024
 30
0.0
 11
610.0000000000136
 21
564.9754047062708
 31
0.0
  0
ARC
  5
183
330
1F
100
AcDbEntity
  8
LAY-10
  6
CONTINUOUS
 62
     7
100
AcDbCircle
 10
607.0000000000134
 20
567.5579511285024
 30
0.0
 40
3.0
100
AcDbArc
 50
0.0
 51
86.95110330309153
  0
LINE
  5
184
330
1F
100
AcDbEntity
  8
LAY-10
  6
CONTINUOUS
 62
     7
100
AcDbLine
 10
320.3578441565361
 20
752.7087800847867
 30
0.0
 11
322.5963897339871
 21
754.0012049765124
 31
0.0
  0
ARC
  5
185
330
1F
100
AcDbEntity
  8
LAY-10
  6
CONTINUOUS
 62
     7
100
AcDbCircle
 10
321.0963897339949
 20
756.5992811878706
 30
0.0
 40
3.0
100
AcDbArc
 50
299.9999999998279
 51
26.10302198248592
  0
LINE
  5
186
330
1F
100
AcDbEntity
  8
LAY-10
  6
CONTINUOUS
 62
     7
100
AcDbLine
 10
321.4694672300653
 20
750.4638246197557
 30
0.0
 11
323.7827160774356
 21
751.7993794644877
 31
0.0
  0
ARC
  5
187
330
1F
100
AcDbEntity
  8
LAY-10
  6
CONTINUOUS
 62
     7
100
AcDbCircle
 10
322.2827160774356
 20
754.3974556758409
 30
0.0
 40
3.0
100
AcDbArc
 50
300.0000000000016
 51
26.52626045216809
  0
ARC
  5
188
330
1F
100
AcDbEntity
  8
LAY-10
  6
CONTINUOUS
 62
     7
100
AcDbCircle
 10
340.4694672300735
 20
717.5548592759334
 30
0.0
 40
3.0
100
AcDbArc
 50
120.0000000000007
 51
213.4465458342644
  0
ARC
  5
189
330
1F
100
AcDbEntity
  8
LAY-10
  6
CONTINUOUS
 62
     7
100
AcDbCircle
 10
341.8578441566107
 20
715.4696877219445
 30
0.0
 40
3.0
100
AcDbArc
 50
119.9999999930338
 51
213.8674608956856
  0
LINE
  5
18A
330
1F
100
AcDbEntity
  8
LAY-10
  6
CONTINUOUS
 62
     7
100
AcDbLine
 10
340.3578441563906
 20
718.0677639336619
 30
0.0
 11
342.5963897338339
 21
719.3601888254012
 31
0.0
  0
ARC
  5
18B
330
1F
100
AcDbEntity
  8
LAY-10
  6
CONTINUOUS
 62
     7
100
AcDbCircle
 10
344.0963897338421
 20
716.7621126140521
 30
0.0
 40
3.0
100
AcDbArc
 50
33.89697801751266
 51
120.0000000001729
  0
LINE
  5
18C
330
1F
100
AcDbEntity
  8
LAY-10
  6
CONTINUOUS
 62
     7
100
AcDbLine
 10
338.9694672300735
 20
720.1529354872864
 30
0.0
 11
341.2827160774437
 21
721.4884903320186
 31
0.0
  0
ARC
  5
18D
330
1F
100
AcDbEntity
  8
LAY-10
  6
CONTINUOUS
 62
     7
100
AcDbCircle
 10
342.7827160774438
 20
718.8904141206655
 30
0.0
 40
3.0
100
AcDbArc
 50
33.47373954783468
 51
119.9999999999997
  0
ARC
  5
18E
330
1F
100
AcDbEntity
  8
LAY-10
  6
CONTINUOUS
 62
     7
100
AcDbCircle
 10
624.9999999997417
 20
905.5000000000211
 30
0.0
 40
335.3337596021699
100
AcDbArc
 50
206.5262604521714
 51
213.4737395478486
  0
ARC
  5
18F
330
1F
100
AcDbEntity
  8
LAY-10
  6
CONTINUOUS
 62
     7
100
AcDbCircle
 10
930.0305327699616
 20
753.0619008311087
 30
0.0
 40
3.0
100
AcDbArc
 50
239.9999999999984
 51
333.4465458342659
  0
ARC
  5
190
330
1F
100
AcDbEntity
  8
LAY-10
  6
CONTINUOUS
 62
     7
100
AcDbCircle
 10
931.142155843696
 20
755.3068562965128
 30
0.0
 40
3.0
100
AcDbArc
 50
239.9999999930334
 51
333.8674608956828
  0
LINE
  5
191
330
1F
100
AcDbEntity
  8
LAY-10
  6
CONTINUOUS
 62
     7
100
AcDbLine
 10
929.6421558434909
 20
752.7087800847867
 30
0.0
 11
927.4036102660398
 21
754.0012049765124
 31
0.0
  0
ARC
  5
192
330
1F
100
AcDbEntity
  8
LAY-10
  6
CONTINUOUS
 62
     7
100
AcDbCircle
 10
928.9036102660322
 20
756.5992811878706
 30
0.0
 40
3.0
100
AcDbArc
 50
153.8969780175151
 51
240.0000000001696
  0
LINE
  5
193
330
1F
100
AcDbEntity
  8
LAY-10
  6
CONTINUOUS
 62
     7
100
AcDbLine
 10
928.5305327699616
 20
750.4638246197557
 30
0.0
 11
926.2172839225914
 21
751.7993794644877
 31
0.0
  0
ARC
  5
194
330
1F
100
AcDbEntity
  8
LAY-10
  6
CONTINUOUS
 62
     7
100
AcDbCircle
 10
927.7172839225915
 20
754.3974556758409
 30
0.0
 40
3.0
100
AcDbArc
 50
153.473739547831
 51
239.9999999999984
  0
ARC
  5
195
330
1F
100
AcDbEntity
  8
LAY-10
  6
CONTINUOUS
 62
     7
100
AcDbCircle
 10
909.5305327699534
 20
717.5548592759334
 30
0.0
 40
3.0
100
AcDbArc
 50
326.5534541657357
 51
59.99999999999836
  0
ARC
  5
196
330
1F
100
AcDbEntity
  8
LAY-10
  6
CONTINUOUS
 62
     7
100
AcDbCircle
 10
908.1421558434164
 20
715.4696877219445
 30
0.0
 40
3.0
100
AcDbArc
 50
326.1325391043125
 51
60.00000000696712
  0
LINE
  5
197
330
1F
100
AcDbEntity
  8
LAY-10
  6
CONTINUOUS
 62
     7
100
AcDbLine
 10
909.6421558436364
 20
718.0677639336619
 30
0.0
 11
907.403610266193
 21
719.3601888254012
 31
0.0
  0
ARC
  5
198
330
1F
100
AcDbEntity
  8
LAY-10
  6
CONTINUOUS
 62
     7
100
AcDbCircle
 10
905.903610266185
 20
716.7621126140521
 30
0.0
 40
3.0
100
AcDbArc
 50
59.99999999982332
 51
146.103021982488
  0
LINE
  5
199
330
1F
100
AcDbEntity
  8
LAY-10
  6
CONTINUOUS
 62
     7
100
AcDbLine
 10
911.0305327699535
 20
720.1529354872864
 30
0.0
 11
908.7172839225827
 21
721.4884903320186
 31
0.0
  0
ARC
  5
19A
330
1F
100
AcDbEntity
  8
LAY-10
  6
CONTINUOUS
 62
     7
100
AcDbCircle
 10
907.2172839225832
 20
718.8904141206655
 30
0.0
 40
3.0
100
AcDbArc
 50
59.99999999999836
 51
146.526260452166
  0
ARC
  5
19B
330
1F
100
AcDbEntity
  8
LAY-10
  6
CONTINUOUS
 62
     7
100
AcDbCircle
 10
625.0000000002851
 20
905.5000000000211
 30
0.0
 40
335.3337596021699
100
AcDbArc
 50
326.5262604521513
 51
333.4737395478286
  0
ARC
  5
19C
330
1F
100
AcDbEntity
  8
LAY-10
  6
CONTINUOUS
 62
     7
100
AcDbCircle
 10
625.0000000000136
 20
905.5000000000621
 30
0.0
 40
335.421081488
100
AcDbArc
 50
213.8969780174991
 51
326.1030219824959
  0
LINE
  5
19D
330
1F
100
AcDbEntity
  8
LAY-10
  6
CONTINUOUS
 62
     7
100
AcDbLine
 10
349.4903581412233
 20
1101.515983119677
 30
0.0
 11
347.245000042473
 21
1102.812341222418
 31
0.0
  0
ARC
  5
19E
330
1F
100
AcDbEntity
  8
LAY-10
  6
CONTINUOUS
 62
     7
100
AcDbCircle
 10
350.9903581412237
 20
1104.11405933103
 30
0.0
 40
3.0
100
AcDbArc
 50
239.999999999991
 51
324.0637726683393
  0
LINE
  5
19F
330
1F
100
AcDbEntity
  8
LAY-10
  6
CONTINUOUS
 62
     7
100
AcDbLine
 10
346.0714372503986
 20
1101.180496939575
 30
0.0
 11
348.3914444585658
 21
1099.841040153418
 31
0.0
  0
ARC
  5
1A0
330
1F
100
AcDbEntity
  8
LAY-10
  6
CONTINUOUS
 62
     7
100
AcDbCircle
 10
349.8914444585658
 20
1102.439116364772
 30
0.0
 40
3.0
100
AcDbArc
 50
240.0000000000038
 51
324.4026526622127
  0
ARC
  5
1A1
330
1F
100
AcDbEntity
  8
LAY-10
  6
CONTINUOUS
 62
     7
100
AcDbCircle
 10
316.8914444586395
 20
1045.281439715127
 30
0.0
 40
3.0
100
AcDbArc
 50
335.5973473377895
 51
59.99999999999275
  0
ARC
  5
1A2
330
1F
100
AcDbEntity
  8
LAY-10
  6
CONTINUOUS
 62
     7
100
AcDbCircle
 10
315.9903581412988
 20
1043.49228106625
 30
0.0
 40
3.0
100
AcDbArc
 50
335.9362273316577
 51
60.00000000000404
  0
LINE
  5
1A3
330
1F
100
AcDbEntity
  8
LAY-10
  6
CONTINUOUS
 62
     7
100
AcDbLine
 10
317.4903581412242
 20
1046.090357277474
 30
0.0
 11
315.2450000424739
 21
1047.386715380216
 31
0.0
  0
ARC
  5
1A4
330
1F
100
AcDbEntity
  8
LAY-10
  6
CONTINUOUS
 62
     7
100
AcDbCircle
 10
625.0000000000136
 20
905.5000000000621
 30
0.0
 40
335.421081488
100
AcDbArc
 50
155.9362273316462
 51
206.1030219824819
  0
LINE
  5
1A5
330
1F
100
AcDbEntity
  8
LAY-10
  6
CONTINUOUS
 62
     7
100
AcDbLine
 10
316.0714372503977
 20
1049.218972712509
 30
0.0
 11
318.3914444585649
 21
1047.879515926352
 31
0.0
  0
ARC
  5
1A6
330
1F
100
AcDbEntity
  8
LAY-10
  6
CONTINUOUS
 62
     7
100
AcDbCircle
 10
624.999999999905
 20
905.500000000102
 30
0.0
 40
335.3337596021699
100
AcDbArc
 50
144.4026526622131
 51
155.5973473377642
  0
ARC
  5
1A7
330
1F
100
AcDbEntity
  8
LAY-10
  6
CONTINUOUS
 62
     7
100
AcDbCircle
 10
936.2549999575535
 20
1044.788639168862
 30
0.0
 40
3.0
100
AcDbArc
 50
24.10882672653722
 51
120.0000000000016
  0
ARC
  5
1A8
330
1F
100
AcDbEntity
  8
LAY-10
  6
CONTINUOUS
 62
     7
100
AcDbCircle
 10
901.254999957554
 20
1105.410417433771
 30
0.0
 40
3.0
100
AcDbArc
 50
300.0000000000016
 51
35.89117327346624
  0
ARC
  5
1A9
330
1F
100
AcDbEntity
  8
LAY-10
  6
CONTINUOUS
 62
     7
100
AcDbCircle
 10
902.4285627496283
 20
1103.778573150928
 30
0.0
 40
3.0
100
AcDbArc
 50
300.0000000000016
 51
35.55344419565753
  0
ARC
  5
1AA
330
1F
100
AcDbEntity
  8
LAY-10
  6
CONTINUOUS
 62
     7
100
AcDbCircle
 10
935.4285627496284
 20
1046.620896501156
 30
0.0
 40
3.0
100
AcDbArc
 50
24.44655580433882
 51
120.0000000000016
  0
LINE
  5
1AB
330
1F
100
AcDbEntity
  8
LAY-10
  6
CONTINUOUS
 62
     7
100
AcDbLine
 10
900.5096418588037
 20
1101.515983119677
 30
0.0
 11
902.7549999575541
 21
1102.812341222418
 31
0.0
  0
ARC
  5
1AC
330
1F
100
AcDbEntity
  8
LAY-10
  6
CONTINUOUS
 62
     7
100
AcDbCircle
 10
899.0096418588032
 20
1104.11405933103
 30
0.0
 40
3.0
100
AcDbArc
 50
215.9362273316613
 51
300.0000000000092
  0
LINE
  5
1AD
330
1F
100
AcDbEntity
  8
LAY-10
  6
CONTINUOUS
 62
     7
100
AcDbLine
 10
903.9285627496283
 20
1101.180496939575
 30
0.0
 11
901.6085555414611
 21
1099.841040153418
 31
0.0
  0
ARC
  5
1AE
330
1F
100
AcDbEntity
  8
LAY-10
  6
CONTINUOUS
 62
     7
100
AcDbCircle
 10
900.1085555414611
 20
1102.439116364772
 30
0.0
 40
3.0
100
AcDbArc
 50
215.5973473377861
 51
299.9999999999935
  0
ARC
  5
1AF
330
1F
100
AcDbEntity
  8
LAY-10
  6
CONTINUOUS
 62
     7
100
AcDbCircle
 10
933.1085555413875
 20
1045.281439715127
 30
0.0
 40
3.0
100
AcDbArc
 50
120.0000000000054
 51
204.4026526622106
  0
ARC
  5
1B0
330
1F
100
AcDbEntity
  8
LAY-10
  6
CONTINUOUS
 62
     7
100
AcDbCircle
 10
934.0096418587282
 20
1043.49228106625
 30
0.0
 40
3.0
100
AcDbArc
 50
119.9999999999936
 51
204.0637726683431
  0
LINE
  5
1B1
330
1F
100
AcDbEntity
  8
LAY-10
  6
CONTINUOUS
 62
     7
100
AcDbLine
 10
933.9285627496288
 20
1049.218972712509
 30
0.0
 11
931.608555541462
 21
1047.879515926352
 31
0.0
  0
ARC
  5
1B2
330
1F
100
AcDbEntity
  8
LAY-10
  6
CONTINUOUS
 62
     7
100
AcDbCircle
 10
625.0000000001219
 20
905.500000000102
 30
0.0
 40
335.3337596021699
100
AcDbArc
 50
24.40265266223578
 51
35.59734733778693
  0
ARC
  5
1B3
330
1F
100
AcDbEntity
  8
LAY-10
  6
CONTINUOUS
 62
     7
100
AcDbCircle
 10
625.0000000000136
 20
905.5000000000621
 30
0.0
 40
335.421081488
100
AcDbArc
 50
333.896978017518
 51
24.0637726683586
  0
LINE
  5
1B4
330
1F
100
AcDbEntity
  8
LAY-10
  6
CONTINUOUS
 62
     7
100
AcDbLine
 10
932.5096418588028
 20
1046.090357277474
 30
0.0
 11
934.7549999575526
 21
1047.386715380215
 31
0.0
  0
ARC
  5
1B5
330
1F
100
AcDbEntity
  8
LAY-10
  6
CONTINUOUS
 62
     7
100
AcDbCircle
 10
604.5000000000571
 20
1245.883239892967
 30
0.0
 40
3.0
100
AcDbArc
 50
0.0
 51
93.44654583426588
  0
ARC
  5
1B6
330
1F
100
AcDbEntity
  8
LAY-10
  6
CONTINUOUS
 62
     7
100
AcDbCircle
 10
601.9999999997854
 20
1245.723455981552
 30
0.0
 40
3.0
100
AcDbArc
 50
359.9999999930334
 51
93.86746089568284
  0
LINE
  5
1B7
330
1F
100
AcDbEntity
  8
LAY-10
  6
CONTINUOUS
 62
     7
100
AcDbLine
 10
605.0000000002105
 20
1245.723455981561
 30
0.0
 11
605.0000000002185
 21
1243.138606198096
 31
0.0
  0
ARC
  5
1B8
330
1F
100
AcDbEntity
  8
LAY-10
  6
CONTINUOUS
 62
     7
100
AcDbCircle
 10
602.000000000218
 20
1243.138606198087
 30
0.0
 40
3.0
100
AcDbArc
 50
273.8969780175152
 51
0.0000000001696528
  0
LINE
  5
1B9
330
1F
100
AcDbEntity
  8
LAY-10
  6
CONTINUOUS
 62
     7
100
AcDbLine
 10
607.5000000000568
 20
1245.883239892967
 30
0.0
 11
607.5000000000568
 21
1243.212130203503
 31
0.0
  0
ARC
  5
1BA
330
1F
100
AcDbEntity
  8
LAY-10
  6
CONTINUOUS
 62
     7
100
AcDbCircle
 10
604.5000000000568
 20
1243.212130203503
 30
0.0
 40
3.0
100
AcDbArc
 50
273.473739547831
 51
0.0
  0
ARC
  5
1BB
330
1F
100
AcDbEntity
  8
LAY-10
  6
CONTINUOUS
 62
     7
100
AcDbCircle
 10
645.4999999999698
 20
1245.883239892967
 30
0.0
 40
3.0
100
AcDbArc
 50
86.55345416573297
 51
180.0
  0
ARC
  5
1BC
330
1F
100
AcDbEntity
  8
LAY-10
  6
CONTINUOUS
 62
     7
100
AcDbCircle
 10
648.0000000002415
 20
1245.723455981552
 30
0.0
 40
3.0
100
AcDbArc
 50
86.13253910431739
 51
180.0000000069654
  0
LINE
  5
1BD
330
1F
100
AcDbEntity
  8
LAY-10
  6
CONTINUOUS
 62
     7
100
AcDbLine
 10
644.9999999998162
 20
1245.723455981561
 30
0.0
 11
644.9999999998082
 21
1243.138606198096
 31
0.0
  0
ARC
  5
1BE
330
1F
100
AcDbEntity
  8
LAY-10
  6
CONTINUOUS
 62
     7
100
AcDbCircle
 10
647.9999999998088
 20
1243.138606198087
 30
0.0
 40
3.0
100
AcDbArc
 50
179.9999999998263
 51
266.1030219824857
  0
LINE
  5
1BF
330
1F
100
AcDbEntity
  8
LAY-10
  6
CONTINUOUS
 62
     7
100
AcDbLine
 10
642.49999999997
 20
1245.883239892967
 30
0.0
 11
642.49999999997
 21
1243.212130203503
 31
0.0
  0
ARC
  5
1C0
330
1F
100
AcDbEntity
  8
LAY-10
  6
CONTINUOUS
 62
     7
100
AcDbCircle
 10
645.49999999997
 20
1243.212130203503
 30
0.0
 40
3.0
100
AcDbArc
 50
180.0
 51
266.5262604521696
  0
ARC
  5
1C1
330
1F
100
AcDbEntity
  8
LAY-10
  6
CONTINUOUS
 62
     7
100
AcDbCircle
 10
625.0000000000136
 20
905.5000000000621
 30
0.0
 40
343.9999999999999
100
AcDbArc
 50
35.55344419566206
 51
86.55345416573938
  0
ARC
  5
1C2
330
1F
100
AcDbEntity
  8
LAY-10
  6
CONTINUOUS
 62
     7
100
AcDbCircle
 10
625.0000000000136
 20
905.5000000000621
 30
0.0
 40
335.421081488
100
AcDbArc
 50
35.9362273316578
 51
86.10302198249482
  0
ARC
  5
1C3
330
1F
100
AcDbEntity
  8
LAY-10
  6
CONTINUOUS
 62
     7
100
AcDbCircle
 10
625.0000000000136
 20
905.5000000000621
 30
0.0
 40
335.421081488
100
AcDbArc
 50
93.89697801750529
 51
144.0637726683423
  0
ARC
  5
1C4
330
1F
100
AcDbEntity
  8
LAY-10
  6
CONTINUOUS
 62
     7
100
AcDbCircle
 10
624.9999999999959
 20
905.5000000000838
 30
0.0
 40
335.3337596021699
100
AcDbArc
 50
86.52626045216691
 51
93.47373954782712
  0
CIRCLE
  5
1C5
330
1F
100
AcDbEntity
  8
LAY-10
  6
CONTINUOUS
 62
     7
100
AcDbCircle
 10
624.999999999998
 20
905.5000000000001
 30
0.0
 40
325.0
  0
LINE
  5
1C6
330
1F
100
AcDbEntity
  8
LAY-10
  6
CONTINUOUS
 62
     7
100
AcDbLine
 10
394.9999999999907
 20
919.499999999921
 30
0.0
 11
394.9999999999907
 21
891.499999999921
 31
0.0
  0
LINE
  5
1C7
330
1F
100
AcDbEntity
  8
LAY-10
  6
CONTINUOUS
 62
     7
100
AcDbLine
 10
404.9999999999907
 20
919.499999999921
 30
0.0
 11
404.9999999999907
 21
891.499999999921
 31
0.0
  0
LINE
  5
1C8
330
1F
100
AcDbEntity
  8
LAY-10
  6
CONTINUOUS
 62
     7
100
AcDbLine
 10
366.9999999999906
 20
919.4999999999205
 30
0.0
 11
366.9999999999906
 21
891.4999999999205
 31
0.0
  0
LINE
  5
1C9
330
1F
100
AcDbEntity
  8
LAY-10
  6
CONTINUOUS
 62
     7
100
AcDbLine
 10
432.9999999999907
 20
919.4999999999205
 30
0.0
 11
432.9999999999907
 21
891.4999999999205
 31
0.0
  0
LINE
  5
1CA
330
1F
100
AcDbEntity
  8
LAY-10
  6
CONTINUOUS
 62
     7
100
AcDbLine
 10
371.9999999999906
 20
891.499999999921
 30
0.0
 11
371.9999999999906
 21
919.4999999999205
 31
0.0
  0
LINE
  5
1CB
330
1F
100
AcDbEntity
  8
LAY-10
  6
CONTINUOUS
 62
     7
100
AcDbLine
 10
427.9999999999907
 20
891.4999999999202
 30
0.0
 11
427.9999999999907
 21
919.4999999999201
 31
0.0
  0
LINE
  5
1CC
330
1F
100
AcDbEntity
  8
LAY-10
  6
CONTINUOUS
 62
     7
100
AcDbLine
 10
432.9999999999907
 20
891.4999999999205
 30
0.0
 11
366.9999999999906
 21
891.4999999999205
 31
0.0
  0
LINE
  5
1CD
330
1F
100
AcDbEntity
  8
LAY-10
  6
CONTINUOUS
 62
     7
100
AcDbLine
 10
432.9999999999907
 20
919.4999999999205
 30
0.0
 11
366.9999999999906
 21
919.4999999999205
 31
0.0
  0
LINE
  5
1CE
330
1F
100
AcDbEntity
  8
LAY-10
  6
CONTINUOUS
 62
     7
100
AcDbLine
 10
844.9999999999907
 20
919.499999999921
 30
0.0
 11
844.9999999999907
 21
891.499999999921
 31
0.0
  0
LINE
  5
1CF
330
1F
100
AcDbEntity
  8
LAY-10
  6
CONTINUOUS
 62
     7
100
AcDbLine
 10
854.9999999999907
 20
919.499999999921
 30
0.0
 11
854.9999999999907
 21
891.499999999921
 31
0.0
  0
LINE
  5
1D0
330
1F
100
AcDbEntity
  8
LAY-10
  6
CONTINUOUS
 62
     7
100
AcDbLine
 10
816.9999999999908
 20
919.4999999999205
 30
0.0
 11
816.9999999999908
 21
891.4999999999205
 31
0.0
  0
LINE
  5
1D1
330
1F
100
AcDbEntity
  8
LAY-10
  6
CONTINUOUS
 62
     7
100
AcDbLine
 10
882.9999999999907
 20
919.4999999999205
 30
0.0
 11
882.9999999999907
 21
891.4999999999205
 31
0.0
  0
LINE
  5
1D2
330
1F
100
AcDbEntity
  8
LAY-10
  6
CONTINUOUS
 62
     7
100
AcDbLine
 10
821.9999999999908
 20
891.499999999921
 30
0.0
 11
821.9999999999908
 21
919.4999999999205
 31
0.0
  0
LINE
  5
1D3
330
1F
100
AcDbEntity
  8
LAY-10
  6
CONTINUOUS
 62
     7
100
AcDbLine
 10
877.9999999999907
 20
891.4999999999202
 30
0.0
 11
877.9999999999907
 21
919.4999999999201
 31
0.0
  0
LINE
  5
1D4
330
1F
100
AcDbEntity
  8
LAY-10
  6
CONTINUOUS
 62
     7
100
AcDbLine
 10
882.9999999999907
 20
891.4999999999205
 30
0.0
 11
816.9999999999908
 21
891.4999999999205
 31
0.0
  0
LINE
  5
1D5
330
1F
100
AcDbEntity
  8
LAY-10
  6
CONTINUOUS
 62
     7
100
AcDbLine
 10
882.9999999999907
 20
919.4999999999205
 30
0.0
 11
816.9999999999908
 21
919.4999999999205
 31
0.0
  0
LINE
  5
1D6
330
1F
100
AcDbEntity
  8
LAY-10
  6
CONTINUOUS
 62
     7
100
AcDbLine
 10
541.4423477377547
 20
619.565962256114
 30
0.0
 11
553.7102380500189
 21
606.8334448897668
 31
0.0
  0
LINE
  5
1D7
330
1F
100
AcDbEntity
  8
LAY-10
  6
CONTINUOUS
 62
     7
100
AcDbLine
 10
570.434452166535
 20
612.5709350534054
 30
0.0
 11
558.1665618543082
 21
625.3034524197152
 31
0.0
  0
LINE
  5
1D8
330
1F
100
AcDbEntity
  8
LAY-10
  6
CONTINUOUS
 62
     7
100
AcDbLine
 10
570.4344521664304
 20
612.5709350534026
 30
0.0
 11
553.7102380497352
 21
606.8334448898355
 31
0.0
  0
LINE
  5
1D9
330
1F
100
AcDbEntity
  8
LAY-10
  6
CONTINUOUS
 62
     7
100
AcDbLine
 10
541.4423477376629
 20
619.565962256164
 30
0.0
 11
558.1665618543082
 21
625.3034524197152
 31
0.0
  0
POLYLINE
  5
1DA
330
1F
100
AcDbEntity
  8
LAY-10
  6
CONTINUOUS
 62
     7
100
AcDb2dPolyline
 66
     1
 10
0.0
 20
0.0
 30
0.0
 70
   128
  0
VERTEX
  5
1DB
330
1DA
100
AcDbEntity
  8
LAY-10
  6
CONTINUOUS
 62
     7
100
AcDbVertex
100
AcDb2dVertex
 10
555.3135681642941
 20
619.2006996524884
 30
0.0
  0
VERTEX
  5
1DC
330
1DA
100
AcDbEntity
  8
LAY-10
  6
CONTINUOUS
 62
     7
100
AcDbVertex
100
AcDb2dVertex
 10
555.370431477814
 20
619.0880193406421
 30
0.0
  0
VERTEX
  5
1DD
330
1DA
100
AcDbEntity
  8
LAY-10
  6
CONTINUOUS
 62
     7
100
AcDbVertex
100
AcDb2dVertex
 10
555.4210652723139
 20
618.9810054226388
 30
0.0
  0
VERTEX
  5
1DE
330
1DA
100
AcDbEntity
  8
LAY-10
  6
CONTINUOUS
 62
     7
100
AcDbVertex
100
AcDb2dVertex
 10
555.4654695477946
 20
618.8796578984753
 30
0.0
  0
VERTEX
  5
1DF
330
1DA
100
AcDbEntity
  8
LAY-10
  6
CONTINUOUS
 62
     7
100
AcDbVertex
100
AcDb2dVertex
 10
555.5036443042552
 20
618.7839767681531
 30
0.0
  0
VERTEX
  5
1E0
330
1DA
100
AcDbEntity
  8
LAY-10
  6
CONTINUOUS
 62
     7
100
AcDbVertex
100
AcDb2dVertex
 10
555.5355895416949
 20
618.6939620316699
 30
0.0
  0
VERTEX
  5
1E1
330
1DA
100
AcDbEntity
  8
LAY-10
  6
CONTINUOUS
 62
     7
100
AcDbVertex
100
AcDb2dVertex
 10
555.5613052601145
 20
618.6096136890297
 30
0.0
  0
VERTEX
  5
1E2
330
1DA
100
AcDbEntity
  8
LAY-10
  6
CONTINUOUS
 62
     7
100
AcDbVertex
100
AcDb2dVertex
 10
555.5807914595141
 20
618.5309317402285
 30
0.0
  0
VERTEX
  5
1E3
330
1DA
100
AcDbEntity
  8
LAY-10
  6
CONTINUOUS
 62
     7
100
AcDbVertex
100
AcDb2dVertex
 10
555.5940481398936
 20
618.457916185269
 30
0.0
  0
VERTEX
  5
1E4
330
1DA
100
AcDbEntity
  8
LAY-10
  6
CONTINUOUS
 62
     7
100
AcDbVertex
100
AcDb2dVertex
 10
555.601075301254
 20
618.3905670241489
 30
0.0
  0
VERTEX
  5
1E5
330
1DA
100
AcDbEntity
  8
LAY-10
  6
CONTINUOUS
 62
     7
100
AcDbVertex
100
AcDb2dVertex
 10
555.6018729435934
 20
618.3288842568719
 30
0.0
  0
VERTEX
  5
1E6
330
1DA
100
AcDbEntity
  8
LAY-10
  6
CONTINUOUS
 62
     7
100
AcDbVertex
100
AcDb2dVertex
 10
555.590086443646
 20
618.2403693654088
 30
0.0
  0
VERTEX
  5
1E7
330
1DA
100
AcDbEntity
  8
LAY-10
  6
CONTINUOUS
 62
     7
100
AcDbVertex
100
AcDb2dVertex
 10
555.5727031633576
 20
618.1596884814859
 30
0.0
  0
VERTEX
  5
1E8
330
1DA
100
AcDbEntity
  8
LAY-10
  6
CONTINUOUS
 62
     7
100
AcDbVertex
100
AcDb2dVertex
 10
555.5497231027273
 20
618.0868416051027
 30
0.0
  0
VERTEX
  5
1E9
330
1DA
100
AcDbEntity
  8
LAY-10
  6
CONTINUOUS
 62
     7
100
AcDbVertex
100
AcDb2dVertex
 10
555.5211462617569
 20
618.0218287362587
 30
0.0
  0
VERTEX
  5
1EA
330
1DA
100
AcDbEntity
  8
LAY-10
  6
CONTINUOUS
 62
     7
100
AcDbVertex
100
AcDb2dVertex
 10
555.4869726404465
 20
617.964649874955
 30
0.0
  0
VERTEX
  5
1EB
330
1DA
100
AcDbEntity
  8
LAY-10
  6
CONTINUOUS
 62
     7
100
AcDbVertex
100
AcDb2dVertex
 10
555.4472022387924
 20
617.9153050211927
 30
0.0
  0
VERTEX
  5
1EC
330
1DA
100
AcDbEntity
  8
LAY-10
  6
CONTINUOUS
 62
     7
100
AcDbVertex
100
AcDb2dVertex
 10
555.4018350568001
 20
617.8737941749702
 30
0.0
  0
VERTEX
  5
1ED
330
1DA
100
AcDbEntity
  8
LAY-10
  6
CONTINUOUS
 62
     7
100
AcDbVertex
100
AcDb2dVertex
 10
555.3508710944659
 20
617.8401173362873
 30
0.0
  0
VERTEX
  5
1EE
330
1DA
100
AcDbEntity
  8
LAY-10
  6
CONTINUOUS
 62
     7
100
AcDbVertex
100
AcDb2dVertex
 10
555.2943103517898
 20
617.8142745051438
 30
0.0
  0
VERTEX
  5
1EF
330
1DA
100
AcDbEntity
  8
LAY-10
  6
CONTINUOUS
 62
     7
100
AcDbVertex
100
AcDb2dVertex
 10
555.2321528287737
 20
617.7962656815408
 30
0.0
  0
VERTEX
  5
1F0
330
1DA
100
AcDbEntity
  8
LAY-10
  6
CONTINUOUS
 62
     7
100
AcDbVertex
100
AcDb2dVertex
 10
555.1741978144426
 20
617.798859055754
 30
0.0
  0
VERTEX
  5
1F1
330
1DA
100
AcDbEntity
  8
LAY-10
  6
CONTINUOUS
 62
     7
100
AcDbVertex
100
AcDb2dVertex
 10
555.12080364179
 20
617.8083507115908
 30
0.0
  0
VERTEX
  5
1F2
330
1DA
100
AcDbEntity
  8
LAY-10
  6
CONTINUOUS
 62
     7
100
AcDbVertex
100
AcDb2dVertex
 10
555.071970310815
 20
617.8247406490528
 30
0.0
  0
VERTEX
  5
1F3
330
1DA
100
AcDbEntity
  8
LAY-10
  6
CONTINUOUS
 62
     7
100
AcDbVertex
100
AcDb2dVertex
 10
555.0276978215204
 20
617.8480288681382
 30
0.0
  0
VERTEX
  5
1F4
330
1DA
100
AcDbEntity
  8
LAY-10
  6
CONTINUOUS
 62
     7
100
AcDbVertex
100
AcDb2dVertex
 10
554.9879861739025
 20
617.8782153688481
 30
0.0
  0
VERTEX
  5
1F5
330
1DA
100
AcDbEntity
  8
LAY-10
  6
CONTINUOUS
 62
     7
100
AcDbVertex
100
AcDb2dVertex
 10
554.9528353679641
 20
617.9153001511814
 30
0.0
  0
VERTEX
  5
1F6
330
1DA
100
AcDbEntity
  8
LAY-10
  6
CONTINUOUS
 62
     7
100
AcDbVertex
100
AcDb2dVertex
 10
554.9222454037024
 20
617.959283215139
 30
0.0
  0
VERTEX
  5
1F7
330
1DA
100
AcDbEntity
  8
LAY-10
  6
CONTINUOUS
 62
     7
100
AcDbVertex
100
AcDb2dVertex
 10
554.896216281122
 20
618.0101645607202
 30
0.0
  0
VERTEX
  5
1F8
330
1DA
100
AcDbEntity
  8
LAY-10
  6
CONTINUOUS
 62
     7
100
AcDbVertex
100
AcDb2dVertex
 10
554.8747480002182
 20
618.0679441879266
 30
0.0
  0
VERTEX
  5
1F9
330
1DA
100
AcDbEntity
  8
LAY-10
  6
CONTINUOUS
 62
     7
100
AcDbVertex
100
AcDb2dVertex
 10
554.857840560994
 20
618.1326220967568
 30
0.0
  0
VERTEX
  5
1FA
330
1DA
100
AcDbEntity
  8
LAY-10
  6
CONTINUOUS
 62
     7
100
AcDbVertex
100
AcDb2dVertex
 10
554.8584895658348
 20
618.1709707708175
 30
0.0
  0
VERTEX
  5
1FB
330
1DA
100
AcDbEntity
  8
LAY-10
  6
CONTINUOUS
 62
     7
100
AcDbVertex
100
AcDb2dVertex
 10
554.855020903098
 20
618.2161046739353
 30
0.0
  0
VERTEX
  5
1FC
330
1DA
100
AcDbEntity
  8
LAY-10
  6
CONTINUOUS
 62
     7
100
AcDbVertex
100
AcDb2dVertex
 10
554.8474345727834
 20
618.2680238061145
 30
0.0
  0
VERTEX
  5
1FD
330
1DA
100
AcDbEntity
  8
LAY-10
  6
CONTINUOUS
 62
     7
100
AcDbVertex
100
AcDb2dVertex
 10
554.8357305748939
 20
618.326728167353
 30
0.0
  0
VERTEX
  5
1FE
330
1DA
100
AcDbEntity
  8
LAY-10
  6
CONTINUOUS
 62
     7
100
AcDbVertex
100
AcDb2dVertex
 10
554.8199089094267
 20
618.3922177576511
 30
0.0
  0
VERTEX
  5
1FF
330
1DA
100
AcDbEntity
  8
LAY-10
  6
CONTINUOUS
 62
     7
100
AcDbVertex
100
AcDb2dVertex
 10
554.7999695763826
 20
618.4644925770077
 30
0.0
  0
VERTEX
  5
200
330
1DA
100
AcDbEntity
  8
LAY-10
  6
CONTINUOUS
 62
     7
100
AcDbVertex
100
AcDb2dVertex
 10
554.77591257576
 20
618.5435526254242
 30
0.0
  0
VERTEX
  5
201
330
1DA
100
AcDbEntity
  8
LAY-10
  6
CONTINUOUS
 62
     7
100
AcDbVertex
100
AcDb2dVertex
 10
554.7477379075624
 20
618.6293979029007
 30
0.0
  0
VERTEX
  5
202
330
1DA
100
AcDbEntity
  8
LAY-10
  6
CONTINUOUS
 62
     7
100
AcDbVertex
100
AcDb2dVertex
 10
554.7154455717871
 20
618.7220284094375
 30
0.0
  0
VERTEX
  5
203
330
1DA
100
AcDbEntity
  8
LAY-10
  6
CONTINUOUS
 62
     7
100
AcDbVertex
100
AcDb2dVertex
 10
554.679035568435
 20
618.8214441450315
 30
0.0
  0
VERTEX
  5
204
330
1DA
100
AcDbEntity
  8
LAY-10
  6
CONTINUOUS
 62
     7
100
AcDbVertex
100
AcDb2dVertex
 10
554.6265227481551
 20
618.9345242254441
 30
0.0
  0
VERTEX
  5
205
330
1DA
100
AcDbEntity
  8
LAY-10
  6
CONTINUOUS
 62
     7
100
AcDbVertex
100
AcDb2dVertex
 10
554.5594024746686
 20
619.0405592104959
 30
0.0
  0
VERTEX
  5
206
330
1DA
100
AcDbEntity
  8
LAY-10
  6
CONTINUOUS
 62
     7
100
AcDbVertex
100
AcDb2dVertex
 10
554.4776747479734
 20
619.1395491001837
 30
0.0
  0
VERTEX
  5
207
330
1DA
100
AcDbEntity
  8
LAY-10
  6
CONTINUOUS
 62
     7
100
AcDbVertex
100
AcDb2dVertex
 10
554.3813395680688
 20
619.2314938945084
 30
0.0
  0
VERTEX
  5
208
330
1DA
100
AcDbEntity
  8
LAY-10
  6
CONTINUOUS
 62
     7
100
AcDbVertex
100
AcDb2dVertex
 10
554.2703969349584
 20
619.3163935934678
 30
0.0
  0
VERTEX
  5
209
330
1DA
100
AcDbEntity
  8
LAY-10
  6
CONTINUOUS
 62
     7
100
AcDbVertex
100
AcDb2dVertex
 10
554.1448468486412
 20
619.3942481970658
 30
0.0
  0
VERTEX
  5
20A
330
1DA
100
AcDbEntity
  8
LAY-10
  6
CONTINUOUS
 62
     7
100
AcDbVertex
100
AcDb2dVertex
 10
554.0046893091128
 20
619.4650577053
 30
0.0
  0
VERTEX
  5
20B
330
1DA
100
AcDbEntity
  8
LAY-10
  6
CONTINUOUS
 62
     7
100
AcDbVertex
100
AcDb2dVertex
 10
553.8499243163785
 20
619.528822118171
 30
0.0
  0
VERTEX
  5
20C
330
1DA
100
AcDbEntity
  8
LAY-10
  6
CONTINUOUS
 62
     7
100
AcDbVertex
100
AcDb2dVertex
 10
553.6805518704366
 20
619.5855414356794
 30
0.0
  0
VERTEX
  5
20D
330
1DA
100
AcDbEntity
  8
LAY-10
  6
CONTINUOUS
 62
     7
100
AcDbVertex
100
AcDb2dVertex
 10
553.4965719712852
 20
619.6352156578229
 30
0.0
  0
VERTEX
  5
20E
330
1DA
100
AcDbEntity
  8
LAY-10
  6
CONTINUOUS
 62
     7
100
AcDbVertex
100
AcDb2dVertex
 10
553.3115725827945
 20
619.6752552940485
 30
0.0
  0
VERTEX
  5
20F
330
1DA
100
AcDbEntity
  8
LAY-10
  6
CONTINUOUS
 62
     7
100
AcDbVertex
100
AcDb2dVertex
 10
553.1365262868637
 20
619.7037018762268
 30
0.0
  0
VERTEX
  5
210
330
1DA
100
AcDbEntity
  8
LAY-10
  6
CONTINUOUS
 62
     7
100
AcDbVertex
100
AcDb2dVertex
 10
552.971433083492
 20
619.7205554043527
 30
0.0
  0
VERTEX
  5
211
330
1DA
100
AcDbEntity
  8
LAY-10
  6
CONTINUOUS
 62
     7
100
AcDbVertex
100
AcDb2dVertex
 10
552.8162929726802
 20
619.7258158784304
 30
0.0
  0
VERTEX
  5
212
330
1DA
100
AcDbEntity
  8
LAY-10
  6
CONTINUOUS
 62
     7
100
AcDbVertex
100
AcDb2dVertex
 10
552.6711059544302
 20
619.7194832984593
 30
0.0
  0
VERTEX
  5
213
330
1DA
100
AcDbEntity
  8
LAY-10
  6
CONTINUOUS
 62
     7
100
AcDbVertex
100
AcDb2dVertex
 10
552.5358720287402
 20
619.7015576644372
 30
0.0
  0
VERTEX
  5
214
330
1DA
100
AcDbEntity
  8
LAY-10
  6
CONTINUOUS
 62
     7
100
AcDbVertex
100
AcDb2dVertex
 10
552.4105911956101
 20
619.6720389763665
 30
0.0
  0
VERTEX
  5
215
330
1DA
100
AcDbEntity
  8
LAY-10
  6
CONTINUOUS
 62
     7
100
AcDbVertex
100
AcDb2dVertex
 10
552.29526345504
 20
619.6309272342456
 30
0.0
  0
VERTEX
  5
216
330
1DA
100
AcDbEntity
  8
LAY-10
  6
CONTINUOUS
 62
     7
100
AcDbVertex
100
AcDb2dVertex
 10
552.1898888070307
 20
619.5782224380752
 30
0.0
  0
VERTEX
  5
217
330
1DA
100
AcDbEntity
  8
LAY-10
  6
CONTINUOUS
 62
     7
100
AcDbVertex
100
AcDb2dVertex
 10
552.0944672515805
 20
619.5139245878564
 30
0.0
  0
VERTEX
  5
218
330
1DA
100
AcDbEntity
  8
LAY-10
  6
CONTINUOUS
 62
     7
100
AcDbVertex
100
AcDb2dVertex
 10
552.0159922279706
 20
619.4502083653707
 30
0.0
  0
VERTEX
  5
219
330
1DA
100
AcDbEntity
  8
LAY-10
  6
CONTINUOUS
 62
     7
100
AcDbVertex
100
AcDb2dVertex
 10
551.9439668362627
 20
619.3856935371397
 30
0.0
  0
VERTEX
  5
21A
330
1DA
100
AcDbEntity
  8
LAY-10
  6
CONTINUOUS
 62
     7
100
AcDbVertex
100
AcDb2dVertex
 10
551.8783910764548
 20
619.3203801031628
 30
0.0
  0
VERTEX
  5
21B
330
1DA
100
AcDbEntity
  8
LAY-10
  6
CONTINUOUS
 62
     7
100
AcDbVertex
100
AcDb2dVertex
 10
551.8192649485479
 20
619.2542680634402
 30
0.0
  0
VERTEX
  5
21C
330
1DA
100
AcDbEntity
  8
LAY-10
  6
CONTINUOUS
 62
     7
100
AcDbVertex
100
AcDb2dVertex
 10
551.7665884525429
 20
619.1873574179727
 30
0.0
  0
VERTEX
  5
21D
330
1DA
100
AcDbEntity
  8
LAY-10
  6
CONTINUOUS
 62
     7
100
AcDbVertex
100
AcDb2dVertex
 10
551.7203615884416
 20
619.1196481667599
 30
0.0
  0
VERTEX
  5
21E
330
1DA
100
AcDbEntity
  8
LAY-10
  6
CONTINUOUS
 62
     7
100
AcDbVertex
100
AcDb2dVertex
 10
551.6805843562395
 20
619.0511403098009
 30
0.0
  0
VERTEX
  5
21F
330
1DA
100
AcDbEntity
  8
LAY-10
  6
CONTINUOUS
 62
     7
100
AcDbVertex
100
AcDb2dVertex
 10
551.6472567559401
 20
618.9818338470997
 30
0.0
  0
VERTEX
  5
220
330
1DA
100
AcDbEntity
  8
LAY-10
  6
CONTINUOUS
 62
     7
100
AcDbVertex
100
AcDb2dVertex
 10
551.6203787875418
 20
618.9117287786504
 30
0.0
  0
VERTEX
  5
221
330
1DA
100
AcDbEntity
  8
LAY-10
  6
CONTINUOUS
 62
     7
100
AcDbVertex
100
AcDb2dVertex
 10
551.5999504510435
 20
618.8408251044563
 30
0.0
  0
VERTEX
  5
222
330
1DA
100
AcDbEntity
  8
LAY-10
  6
CONTINUOUS
 62
     7
100
AcDbVertex
100
AcDb2dVertex
 10
551.584757787137
 20
618.7703014819486
 30
0.0
  0
VERTEX
  5
223
330
1DA
100
AcDbEntity
  8
LAY-10
  6
CONTINUOUS
 62
     7
100
AcDbVertex
100
AcDb2dVertex
 10
551.5736956334729
 20
618.70178749648
 30
0.0
  0
VERTEX
  5
224
330
1DA
100
AcDbEntity
  8
LAY-10
  6
CONTINUOUS
 62
     7
100
AcDbVertex
100
AcDb2dVertex
 10
551.5667639900528
 20
618.6352831480482
 30
0.0
  0
VERTEX
  5
225
330
1DA
100
AcDbEntity
  8
LAY-10
  6
CONTINUOUS
 62
     7
100
AcDbVertex
100
AcDb2dVertex
 10
551.5639628568777
 20
618.570788436654
 30
0.0
  0
VERTEX
  5
226
330
1DA
100
AcDbEntity
  8
LAY-10
  6
CONTINUOUS
 62
     7
100
AcDbVertex
100
AcDb2dVertex
 10
551.5652922339448
 20
618.5083033622992
 30
0.0
  0
VERTEX
  5
227
330
1DA
100
AcDbEntity
  8
LAY-10
  6
CONTINUOUS
 62
     7
100
AcDbVertex
100
AcDb2dVertex
 10
551.5707521212587
 20
618.4478279249798
 30
0.0
  0
VERTEX
  5
228
330
1DA
100
AcDbEntity
  8
LAY-10
  6
CONTINUOUS
 62
     7
100
AcDbVertex
100
AcDb2dVertex
 10
551.580342518814
 20
618.3893621247013
 30
0.0
  0
VERTEX
  5
229
330
1DA
100
AcDbEntity
  8
LAY-10
  6
CONTINUOUS
 62
     7
100
AcDbVertex
100
AcDb2dVertex
 10
551.5940634266151
 20
618.3329059614572
 30
0.0
  0
VERTEX
  5
22A
330
1DA
100
AcDbEntity
  8
LAY-10
  6
CONTINUOUS
 62
     7
100
AcDbVertex
100
AcDb2dVertex
 10
551.6119148446594
 20
618.2784594352516
 30
0.0
  0
VERTEX
  5
22B
330
1DA
100
AcDbEntity
  8
LAY-10
  6
CONTINUOUS
 62
     7
100
AcDbVertex
100
AcDb2dVertex
 10
551.6338967729478
 20
618.2260225460847
 30
0.0
  0
VERTEX
  5
22C
330
1DA
100
AcDbEntity
  8
LAY-10
  6
CONTINUOUS
 62
     7
100
AcDbVertex
100
AcDb2dVertex
 10
551.6785407339637
 20
618.1388698949487
 30
0.0
  0
VERTEX
  5
22D
330
1DA
100
AcDbEntity
  8
LAY-10
  6
CONTINUOUS
 62
     7
100
AcDbVertex
100
AcDb2dVertex
 10
551.7290514996164
 20
618.0553657880142
 30
0.0
  0
VERTEX
  5
22E
330
1DA
100
AcDbEntity
  8
LAY-10
  6
CONTINUOUS
 62
     7
100
AcDbVertex
100
AcDb2dVertex
 10
551.7854290699067
 20
617.9755102252817
 30
0.0
  0
VERTEX
  5
22F
330
1DA
100
AcDbEntity
  8
LAY-10
  6
CONTINUOUS
 62
     7
100
AcDbVertex
100
AcDb2dVertex
 10
551.8476734448338
 20
617.8993032067466
 30
0.0
  0
VERTEX
  5
230
330
1DA
100
AcDbEntity
  8
LAY-10
  6
CONTINUOUS
 62
     7
100
AcDbVertex
100
AcDb2dVertex
 10
551.9157846243977
 20
617.8267447324148
 30
0.0
  0
VERTEX
  5
231
330
1DA
100
AcDbEntity
  8
LAY-10
  6
CONTINUOUS
 62
     7
100
AcDbVertex
100
AcDb2dVertex
 10
551.9897626085983
 20
617.7578348022827
 30
0.0
  0
VERTEX
  5
232
330
1DA
100
AcDbEntity
  8
LAY-10
  6
CONTINUOUS
 62
     7
100
AcDbVertex
100
AcDb2dVertex
 10
552.0696073974375
 20
617.6925734163516
 30
0.0
  0
VERTEX
  5
233
330
1DA
100
AcDbEntity
  8
LAY-10
  6
CONTINUOUS
 62
     7
100
AcDbVertex
100
AcDb2dVertex
 10
552.1553189909116
 20
617.6309605746211
 30
0.0
  0
VERTEX
  5
234
330
1DA
100
AcDbEntity
  8
LAY-10
  6
CONTINUOUS
 62
     7
100
AcDbVertex
100
AcDb2dVertex
 10
552.2468973890252
 20
617.5729962770907
 30
0.0
  0
VERTEX
  5
235
330
1DA
100
AcDbEntity
  8
LAY-10
  6
CONTINUOUS
 62
     7
100
AcDbVertex
100
AcDb2dVertex
 10
552.3443425917737
 20
617.5186805237623
 30
0.0
  0
VERTEX
  5
236
330
1DA
100
AcDbEntity
  8
LAY-10
  6
CONTINUOUS
 62
     7
100
AcDbVertex
100
AcDb2dVertex
 10
553.8545166557249
 20
616.7370832138519
 30
0.0
  0
VERTEX
  5
237
330
1DA
100
AcDbEntity
  8
LAY-10
  6
CONTINUOUS
 62
     7
100
AcDbVertex
100
AcDb2dVertex
 10
553.9802708616696
 20
616.6652365366082
 30
0.0
  0
VERTEX
  5
238
330
1DA
100
AcDbEntity
  8
LAY-10
  6
CONTINUOUS
 62
     7
100
AcDbVertex
100
AcDb2dVertex
 10
554.0988013210024
 20
616.588112280575
 30
0.0
  0
VERTEX
  5
239
330
1DA
100
AcDbEntity
  8
LAY-10
  6
CONTINUOUS
 62
     7
100
AcDbVertex
100
AcDb2dVertex
 10
554.2101080337213
 20
616.5057104457557
 30
0.0
  0
VERTEX
  5
23A
330
1DA
100
AcDbEntity
  8
LAY-10
  6
CONTINUOUS
 62
     7
100
AcDbVertex
100
AcDb2dVertex
 10
554.3141909998246
 20
616.41803103215
 30
0.0
  0
VERTEX
  5
23B
330
1DA
100
AcDbEntity
  8
LAY-10
  6
CONTINUOUS
 62
     7
100
AcDbVertex
100
AcDb2dVertex
 10
554.411050219315
 20
616.3250740397563
 30
0.0
  0
VERTEX
  5
23C
330
1DA
100
AcDbEntity
  8
LAY-10
  6
CONTINUOUS
 62
     7
100
AcDbVertex
100
AcDb2dVertex
 10
554.5006856921916
 20
616.2268394685744
 30
0.0
  0
VERTEX
  5
23D
330
1DA
100
AcDbEntity
  8
LAY-10
  6
CONTINUOUS
 62
     7
100
AcDbVertex
100
AcDb2dVertex
 10
554.5830974184553
 20
616.1233273186091
 30
0.0
  0
VERTEX
  5
23E
330
1DA
100
AcDbEntity
  8
LAY-10
  6
CONTINUOUS
 62
     7
100
AcDbVertex
100
AcDb2dVertex
 10
554.6582853981042
 20
616.0145375898556
 30
0.0
  0
VERTEX
  5
23F
330
1DA
100
AcDbEntity
  8
LAY-10
  6
CONTINUOUS
 62
     7
100
AcDbVertex
100
AcDb2dVertex
 10
554.7262496311394
 20
615.900470282315
 30
0.0
  0
VERTEX
  5
240
330
1DA
100
AcDbEntity
  8
LAY-10
  6
CONTINUOUS
 62
     7
100
AcDbVertex
100
AcDb2dVertex
 10
554.7869901175616
 20
615.7811253959864
 30
0.0
  0
VERTEX
  5
241
330
1DA
100
AcDbEntity
  8
LAY-10
  6
CONTINUOUS
 62
     7
100
AcDbVertex
100
AcDb2dVertex
 10
554.8448273217734
 20
615.6458215267295
 30
0.0
  0
VERTEX
  5
242
330
1DA
100
AcDbEntity
  8
LAY-10
  6
CONTINUOUS
 62
     7
100
AcDbVertex
100
AcDb2dVertex
 10
554.8926453929905
 20
615.5084674323499
 30
0.0
  0
VERTEX
  5
243
330
1DA
100
AcDbEntity
  8
LAY-10
  6
CONTINUOUS
 62
     7
100
AcDbVertex
100
AcDb2dVertex
 10
554.9304443312155
 20
615.3690631128471
 30
0.0
  0
VERTEX
  5
244
330
1DA
100
AcDbEntity
  8
LAY-10
  6
CONTINUOUS
 62
     7
100
AcDbVertex
100
AcDb2dVertex
 10
554.9582241364485
 20
615.2276085682216
 30
0.0
  0
VERTEX
  5
245
330
1DA
100
AcDbEntity
  8
LAY-10
  6
CONTINUOUS
 62
     7
100
AcDbVertex
100
AcDb2dVertex
 10
554.9759848086867
 20
615.0841037984734
 30
0.0
  0
VERTEX
  5
246
330
1DA
100
AcDbEntity
  8
LAY-10
  6
CONTINUOUS
 62
     7
100
AcDbVertex
100
AcDb2dVertex
 10
554.983726347931
 20
614.938548803602
 30
0.0
  0
VERTEX
  5
247
330
1DA
100
AcDbEntity
  8
LAY-10
  6
CONTINUOUS
 62
     7
100
AcDbVertex
100
AcDb2dVertex
 10
554.9814487541823
 20
614.7909435836069
 30
0.0
  0
VERTEX
  5
248
330
1DA
100
AcDbEntity
  8
LAY-10
  6
CONTINUOUS
 62
     7
100
AcDbVertex
100
AcDb2dVertex
 10
554.9691520274398
 20
614.6412881384896
 30
0.0
  0
VERTEX
  5
249
330
1DA
100
AcDbEntity
  8
LAY-10
  6
CONTINUOUS
 62
     7
100
AcDbVertex
100
AcDb2dVertex
 10
554.9468361677061
 20
614.4895824682495
 30
0.0
  0
VERTEX
  5
24A
330
1DA
100
AcDbEntity
  8
LAY-10
  6
CONTINUOUS
 62
     7
100
AcDbVertex
100
AcDb2dVertex
 10
554.9145011749777
 20
614.3358265728867
 30
0.0
  0
VERTEX
  5
24B
330
1DA
100
AcDbEntity
  8
LAY-10
  6
CONTINUOUS
 62
     7
100
AcDbVertex
100
AcDb2dVertex
 10
554.8750835252247
 20
614.1909550954975
 30
0.0
  0
VERTEX
  5
24C
330
1DA
100
AcDbEntity
  8
LAY-10
  6
CONTINUOUS
 62
     7
100
AcDbVertex
100
AcDb2dVertex
 10
554.8282557853806
 20
614.0523748416373
 30
0.0
  0
VERTEX
  5
24D
330
1DA
100
AcDbEntity
  8
LAY-10
  6
CONTINUOUS
 62
     7
100
AcDbVertex
100
AcDb2dVertex
 10
554.7740179554473
 20
613.9200858113041
 30
0.0
  0
VERTEX
  5
24E
330
1DA
100
AcDbEntity
  8
LAY-10
  6
CONTINUOUS
 62
     7
100
AcDbVertex
100
AcDb2dVertex
 10
554.7123700354211
 20
613.7940880044999
 30
0.0
  0
VERTEX
  5
24F
330
1DA
100
AcDbEntity
  8
LAY-10
  6
CONTINUOUS
 62
     7
100
AcDbVertex
100
AcDb2dVertex
 10
554.6433120253057
 20
613.6743814212215
 30
0.0
  0
VERTEX
  5
250
330
1DA
100
AcDbEntity
  8
LAY-10
  6
CONTINUOUS
 62
     7
100
AcDbVertex
100
AcDb2dVertex
 10
554.5668439250983
 20
613.5609660614697
 30
0.0
  0
VERTEX
  5
251
330
1DA
100
AcDbEntity
  8
LAY-10
  6
CONTINUOUS
 62
     7
100
AcDbVertex
100
AcDb2dVertex
 10
554.4829657347989
 20
613.4538419252468
 30
0.0
  0
VERTEX
  5
252
330
1DA
100
AcDbEntity
  8
LAY-10
  6
CONTINUOUS
 62
     7
100
AcDbVertex
100
AcDb2dVertex
 10
554.3916774544084
 20
613.3530090125511
 30
0.0
  0
VERTEX
  5
253
330
1DA
100
AcDbEntity
  8
LAY-10
  6
CONTINUOUS
 62
     7
100
AcDbVertex
100
AcDb2dVertex
 10
554.2929790839296
 20
613.2584673233843
 30
0.0
  0
VERTEX
  5
254
330
1DA
100
AcDbEntity
  8
LAY-10
  6
CONTINUOUS
 62
     7
100
AcDbVertex
100
AcDb2dVertex
 10
554.1868706233579
 20
613.1702168577432
 30
0.0
  0
VERTEX
  5
255
330
1DA
100
AcDbEntity
  8
LAY-10
  6
CONTINUOUS
 62
     7
100
AcDbVertex
100
AcDb2dVertex
 10
554.0276307478832
 20
613.0613085945635
 30
0.0
  0
VERTEX
  5
256
330
1DA
100
AcDbEntity
  8
LAY-10
  6
CONTINUOUS
 62
     7
100
AcDbVertex
100
AcDb2dVertex
 10
553.8551116715441
 20
612.9711125277182
 30
0.0
  0
VERTEX
  5
257
330
1DA
100
AcDbEntity
  8
LAY-10
  6
CONTINUOUS
 62
     7
100
AcDbVertex
100
AcDb2dVertex
 10
553.6693133943406
 20
612.8996286572079
 30
0.0
  0
VERTEX
  5
258
330
1DA
100
AcDbEntity
  8
LAY-10
  6
CONTINUOUS
 62
     7
100
AcDbVertex
100
AcDb2dVertex
 10
553.4702359162727
 20
612.8468569830317
 30
0.0
  0
VERTEX
  5
259
330
1DA
100
AcDbEntity
  8
LAY-10
  6
CONTINUOUS
 62
     7
100
AcDbVertex
100
AcDb2dVertex
 10
553.2578792373404
 20
612.8127975051895
 30
0.0
  0
VERTEX
  5
25A
330
1DA
100
AcDbEntity
  8
LAY-10
  6
CONTINUOUS
 62
     7
100
AcDbVertex
100
AcDb2dVertex
 10
553.0322433575436
 20
612.7974502236822
 30
0.0
  0
VERTEX
  5
25B
330
1DA
100
AcDbEntity
  8
LAY-10
  6
CONTINUOUS
 62
     7
100
AcDbVertex
100
AcDb2dVertex
 10
552.7933282768843
 20
612.8008151385094
 30
0.0
  0
VERTEX
  5
25C
330
1DA
100
AcDbEntity
  8
LAY-10
  6
CONTINUOUS
 62
     7
100
AcDbVertex
100
AcDb2dVertex
 10
552.5411339953587
 20
612.8228922496711
 30
0.0
  0
VERTEX
  5
25D
330
1DA
100
AcDbEntity
  8
LAY-10
  6
CONTINUOUS
 62
     7
100
AcDbVertex
100
AcDb2dVertex
 10
552.2756605129687
 20
612.8636815571673
 30
0.0
  0
VERTEX
  5
25E
330
1DA
100
AcDbEntity
  8
LAY-10
  6
CONTINUOUS
 62
     7
100
AcDbVertex
100
AcDb2dVertex
 10
551.9969078297142
 20
612.923183060998
 30
0.0
  0
VERTEX
  5
25F
330
1DA
100
AcDbEntity
  8
LAY-10
  6
CONTINUOUS
 62
     7
100
AcDbVertex
100
AcDb2dVertex
 10
551.7119963905432
 20
613.0016083738288
 30
0.0
  0
VERTEX
  5
260
330
1DA
100
AcDbEntity
  8
LAY-10
  6
CONTINUOUS
 62
     7
100
AcDbVertex
100
AcDb2dVertex
 10
551.4487893249459
 20
613.0941644477285
 30
0.0
  0
VERTEX
  5
261
330
1DA
100
AcDbEntity
  8
LAY-10
  6
CONTINUOUS
 62
     7
100
AcDbVertex
100
AcDb2dVertex
 10
551.2072866329252
 20
613.2008512827011
 30
0.0
  0
VERTEX
  5
262
330
1DA
100
AcDbEntity
  8
LAY-10
  6
CONTINUOUS
 62
     7
100
AcDbVertex
100
AcDb2dVertex
 10
550.987488314481
 20
613.3216688787376
 30
0.0
  0
VERTEX
  5
263
330
1DA
100
AcDbEntity
  8
LAY-10
  6
CONTINUOUS
 62
     7
100
AcDbVertex
100
AcDb2dVertex
 10
550.7893943696106
 20
613.4566172358492
 30
0.0
  0
VERTEX
  5
264
330
1DA
100
AcDbEntity
  8
LAY-10
  6
CONTINUOUS
 62
     7
100
AcDbVertex
100
AcDb2dVertex
 10
550.6130047983177
 20
613.6056963540278
 30
0.0
  0
VERTEX
  5
265
330
1DA
100
AcDbEntity
  8
LAY-10
  6
CONTINUOUS
 62
     7
100
AcDbVertex
100
AcDb2dVertex
 10
550.4583196005985
 20
613.7689062332771
 30
0.0
  0
VERTEX
  5
266
330
1DA
100
AcDbEntity
  8
LAY-10
  6
CONTINUOUS
 62
     7
100
AcDbVertex
100
AcDb2dVertex
 10
550.3253387764541
 20
613.9462468735934
 30
0.0
  0
VERTEX
  5
267
330
1DA
100
AcDbEntity
  8
LAY-10
  6
CONTINUOUS
 62
     7
100
AcDbVertex
100
AcDb2dVertex
 10
550.214062325889
 20
614.1377182749821
 30
0.0
  0
VERTEX
  5
268
330
1DA
100
AcDbEntity
  8
LAY-10
  6
CONTINUOUS
 62
     7
100
AcDbVertex
100
AcDb2dVertex
 10
550.1244902488959
 20
614.3433204374393
 30
0.0
  0
VERTEX
  5
269
330
1DA
100
AcDbEntity
  8
LAY-10
  6
CONTINUOUS
 62
     7
100
AcDbVertex
100
AcDb2dVertex
 10
550.0850485383678
 20
614.4525489326867
 30
0.0
  0
VERTEX
  5
26A
330
1DA
100
AcDbEntity
  8
LAY-10
  6
CONTINUOUS
 62
     7
100
AcDbVertex
100
AcDb2dVertex
 10
550.0489032519251
 20
614.560349827566
 30
0.0
  0
VERTEX
  5
26B
330
1DA
100
AcDbEntity
  8
LAY-10
  6
CONTINUOUS
 62
     7
100
AcDbVertex
100
AcDb2dVertex
 10
550.016054389567
 20
614.6667231220764
 30
0.0
  0
VERTEX
  5
26C
330
1DA
100
AcDbEntity
  8
LAY-10
  6
CONTINUOUS
 62
     7
100
AcDbVertex
100
AcDb2dVertex
 10
549.9865019512943
 20
614.7716688162178
 30
0.0
  0
VERTEX
  5
26D
330
1DA
100
AcDbEntity
  8
LAY-10
  6
CONTINUOUS
 62
     7
100
AcDbVertex
100
AcDb2dVertex
 10
549.9602459371051
 20
614.8751869099912
 30
0.0
  0
VERTEX
  5
26E
330
1DA
100
AcDbEntity
  8
LAY-10
  6
CONTINUOUS
 62
     7
100
AcDbVertex
100
AcDb2dVertex
 10
549.9372863470014
 20
614.9772774033937
 30
0.0
  0
VERTEX
  5
26F
330
1DA
100
AcDbEntity
  8
LAY-10
  6
CONTINUOUS
 62
     7
100
AcDbVertex
100
AcDb2dVertex
 10
549.9176231809822
 20
615.0779402964287
 30
0.0
  0
VERTEX
  5
270
330
1DA
100
AcDbEntity
  8
LAY-10
  6
CONTINUOUS
 62
     7
100
AcDbVertex
100
AcDb2dVertex
 10
549.9012564390466
 20
615.1771755890946
 30
0.0
  0
VERTEX
  5
271
330
1DA
100
AcDbEntity
  8
LAY-10
  6
CONTINUOUS
 62
     7
100
AcDbVertex
100
AcDb2dVertex
 10
549.8881861211974
 20
615.2749832813912
 30
0.0
  0
VERTEX
  5
272
330
1DA
100
AcDbEntity
  8
LAY-10
  6
CONTINUOUS
 62
     7
100
AcDbVertex
100
AcDb2dVertex
 10
549.8784122274317
 20
615.3713633733202
 30
0.0
  0
VERTEX
  5
273
330
1DA
100
AcDbEntity
  8
LAY-10
  6
CONTINUOUS
 62
     7
100
AcDbVertex
100
AcDb2dVertex
 10
549.8779086136608
 20
615.4521040621836
 30
0.0
  0
VERTEX
  5
274
330
1DA
100
AcDbEntity
  8
LAY-10
  6
CONTINUOUS
 62
     7
100
AcDbVertex
100
AcDb2dVertex
 10
549.8847028591733
 20
615.5266223588934
 30
0.0
  0
VERTEX
  5
275
330
1DA
100
AcDbEntity
  8
LAY-10
  6
CONTINUOUS
 62
     7
100
AcDbVertex
100
AcDb2dVertex
 10
549.898794963972
 20
615.5949182634519
 30
0.0
  0
VERTEX
  5
276
330
1DA
100
AcDbEntity
  8
LAY-10
  6
CONTINUOUS
 62
     7
100
AcDbVertex
100
AcDb2dVertex
 10
549.9201849280587
 20
615.6569917758562
 30
0.0
  0
VERTEX
  5
277
330
1DA
100
AcDbEntity
  8
LAY-10
  6
CONTINUOUS
 62
     7
100
AcDbVertex
100
AcDb2dVertex
 10
549.9488727514288
 20
615.712842896111
 30
0.0
  0
VERTEX
  5
278
330
1DA
100
AcDbEntity
  8
LAY-10
  6
CONTINUOUS
 62
     7
100
AcDbVertex
100
AcDb2dVertex
 10
549.9848584340868
 20
615.7624716242086
 30
0.0
  0
VERTEX
  5
279
330
1DA
100
AcDbEntity
  8
LAY-10
  6
CONTINUOUS
 62
     7
100
AcDbVertex
100
AcDb2dVertex
 10
550.0281419760302
 20
615.8058779601562
 30
0.0
  0
VERTEX
  5
27A
330
1DA
100
AcDbEntity
  8
LAY-10
  6
CONTINUOUS
 62
     7
100
AcDbVertex
100
AcDb2dVertex
 10
550.0787233772587
 20
615.8430619039497
 30
0.0
  0
VERTEX
  5
27B
330
1DA
100
AcDbEntity
  8
LAY-10
  6
CONTINUOUS
 62
     7
100
AcDbVertex
100
AcDb2dVertex
 10
550.1366026377752
 20
615.8740234555922
 30
0.0
  0
VERTEX
  5
27C
330
1DA
100
AcDbEntity
  8
LAY-10
  6
CONTINUOUS
 62
     7
100
AcDbVertex
100
AcDb2dVertex
 10
550.2017797575752
 20
615.8987626150807
 30
0.0
  0
VERTEX
  5
27D
330
1DA
100
AcDbEntity
  8
LAY-10
  6
CONTINUOUS
 62
     7
100
AcDbVertex
100
AcDb2dVertex
 10
550.2758010010855
 20
615.8995101985453
 30
0.0
  0
VERTEX
  5
27E
330
1DA
100
AcDbEntity
  8
LAY-10
  6
CONTINUOUS
 62
     7
100
AcDbVertex
100
AcDb2dVertex
 10
550.3431032396718
 20
615.8916136137437
 30
0.0
  0
VERTEX
  5
27F
330
1DA
100
AcDbEntity
  8
LAY-10
  6
CONTINUOUS
 62
     7
100
AcDbVertex
100
AcDb2dVertex
 10
550.4036864733368
 20
615.8750728606752
 30
0.0
  0
VERTEX
  5
280
330
1DA
100
AcDbEntity
  8
LAY-10
  6
CONTINUOUS
 62
     7
100
AcDbVertex
100
AcDb2dVertex
 10
550.4575507020779
 20
615.8498879393402
 30
0.0
  0
VERTEX
  5
281
330
1DA
100
AcDbEntity
  8
LAY-10
  6
CONTINUOUS
 62
     7
100
AcDbVertex
100
AcDb2dVertex
 10
550.5046959258959
 20
615.81605884974
 30
0.0
  0
VERTEX
  5
282
330
1DA
100
AcDbEntity
  8
LAY-10
  6
CONTINUOUS
 62
     7
100
AcDbVertex
100
AcDb2dVertex
 10
550.5451221447927
 20
615.7735855918714
 30
0.0
  0
VERTEX
  5
283
330
1DA
100
AcDbEntity
  8
LAY-10
  6
CONTINUOUS
 62
     7
100
AcDbVertex
100
AcDb2dVertex
 10
550.5788293587664
 20
615.7224681657368
 30
0.0
  0
VERTEX
  5
284
330
1DA
100
AcDbEntity
  8
LAY-10
  6
CONTINUOUS
 62
     7
100
AcDbVertex
100
AcDb2dVertex
 10
550.605817567817
 20
615.6627065713361
 30
0.0
  0
VERTEX
  5
285
330
1DA
100
AcDbEntity
  8
LAY-10
  6
CONTINUOUS
 62
     7
100
AcDbVertex
100
AcDb2dVertex
 10
550.6260867719454
 20
615.5943008086684
 30
0.0
  0
VERTEX
  5
286
330
1DA
100
AcDbEntity
  8
LAY-10
  6
CONTINUOUS
 62
     7
100
AcDbVertex
100
AcDb2dVertex
 10
550.6396369711508
 20
615.5172508777347
 30
0.0
  0
VERTEX
  5
287
330
1DA
100
AcDbEntity
  8
LAY-10
  6
CONTINUOUS
 62
     7
100
AcDbVertex
100
AcDb2dVertex
 10
550.6467537163223
 20
615.420903483786
 30
0.0
  0
VERTEX
  5
288
330
1DA
100
AcDbEntity
  8
LAY-10
  6
CONTINUOUS
 62
     7
100
AcDbVertex
100
AcDb2dVertex
 10
550.6560884656826
 20
615.3273015411534
 30
0.0
  0
VERTEX
  5
289
330
1DA
100
AcDbEntity
  8
LAY-10
  6
CONTINUOUS
 62
     7
100
AcDbVertex
100
AcDb2dVertex
 10
550.6676412192307
 20
615.2364450498377
 30
0.0
  0
VERTEX
  5
28A
330
1DA
100
AcDbEntity
  8
LAY-10
  6
CONTINUOUS
 62
     7
100
AcDbVertex
100
AcDb2dVertex
 10
550.6814119769685
 20
615.1483340098404
 30
0.0
  0
VERTEX
  5
28B
330
1DA
100
AcDbEntity
  8
LAY-10
  6
CONTINUOUS
 62
     7
100
AcDbVertex
100
AcDb2dVertex
 10
550.6974007388969
 20
615.0629684211609
 30
0.0
  0
VERTEX
  5
28C
330
1DA
100
AcDbEntity
  8
LAY-10
  6
CONTINUOUS
 62
     7
100
AcDbVertex
100
AcDb2dVertex
 10
550.715607505015
 20
614.9803482837975
 30
0.0
  0
VERTEX
  5
28D
330
1DA
100
AcDbEntity
  8
LAY-10
  6
CONTINUOUS
 62
     7
100
AcDbVertex
100
AcDb2dVertex
 10
550.7360322753227
 20
614.9004735977506
 30
0.0
  0
VERTEX
  5
28E
330
1DA
100
AcDbEntity
  8
LAY-10
  6
CONTINUOUS
 62
     7
100
AcDbVertex
100
AcDb2dVertex
 10
550.7586750498174
 20
614.8233443630203
 30
0.0
  0
VERTEX
  5
28F
330
1DA
100
AcDbEntity
  8
LAY-10
  6
CONTINUOUS
 62
     7
100
AcDbVertex
100
AcDb2dVertex
 10
550.7835358285026
 20
614.7489605796087
 30
0.0
  0
VERTEX
  5
290
330
1DA
100
AcDbEntity
  8
LAY-10
  6
CONTINUOUS
 62
     7
100
AcDbVertex
100
AcDb2dVertex
 10
550.8106146113785
 20
614.6773222475146
 30
0.0
  0
VERTEX
  5
291
330
1DA
100
AcDbEntity
  8
LAY-10
  6
CONTINUOUS
 62
     7
100
AcDbVertex
100
AcDb2dVertex
 10
550.8790325985226
 20
614.5319589130555
 30
0.0
  0
VERTEX
  5
292
330
1DA
100
AcDbEntity
  8
LAY-10
  6
CONTINUOUS
 62
     7
100
AcDbVertex
100
AcDb2dVertex
 10
550.9626099707509
 20
614.3965017977681
 30
0.0
  0
VERTEX
  5
293
330
1DA
100
AcDbEntity
  8
LAY-10
  6
CONTINUOUS
 62
     7
100
AcDbVertex
100
AcDb2dVertex
 10
551.0613467280598
 20
614.2709509016519
 30
0.0
  0
VERTEX
  5
294
330
1DA
100
AcDbEntity
  8
LAY-10
  6
CONTINUOUS
 62
     7
100
AcDbVertex
100
AcDb2dVertex
 10
551.1752428704528
 20
614.1553062247068
 30
0.0
  0
VERTEX
  5
295
330
1DA
100
AcDbEntity
  8
LAY-10
  6
CONTINUOUS
 62
     7
100
AcDbVertex
100
AcDb2dVertex
 10
551.3042983979292
 20
614.0495677669334
 30
0.0
  0
VERTEX
  5
296
330
1DA
100
AcDbEntity
  8
LAY-10
  6
CONTINUOUS
 62
     7
100
AcDbVertex
100
AcDb2dVertex
 10
551.4485133104888
 20
613.9537355283297
 30
0.0
  0
VERTEX
  5
297
330
1DA
100
AcDbEntity
  8
LAY-10
  6
CONTINUOUS
 62
     7
100
AcDbVertex
100
AcDb2dVertex
 10
551.6078876081317
 20
613.8678095088982
 30
0.0
  0
VERTEX
  5
298
330
1DA
100
AcDbEntity
  8
LAY-10
  6
CONTINUOUS
 62
     7
100
AcDbVertex
100
AcDb2dVertex
 10
551.782421290857
 20
613.7917897086382
 30
0.0
  0
VERTEX
  5
299
330
1DA
100
AcDbEntity
  8
LAY-10
  6
CONTINUOUS
 62
     7
100
AcDbVertex
100
AcDb2dVertex
 10
551.9721143586646
 20
613.7256761275486
 30
0.0
  0
VERTEX
  5
29A
330
1DA
100
AcDbEntity
  8
LAY-10
  6
CONTINUOUS
 62
     7
100
AcDbVertex
100
AcDb2dVertex
 10
552.1769668115564
 20
613.6694687656314
 30
0.0
  0
VERTEX
  5
29B
330
1DA
100
AcDbEntity
  8
LAY-10
  6
CONTINUOUS
 62
     7
100
AcDbVertex
100
AcDb2dVertex
 10
552.3810927412967
 20
613.6259238396552
 30
0.0
  0
VERTEX
  5
29C
330
1DA
100
AcDbEntity
  8
LAY-10
  6
CONTINUOUS
 62
     7
100
AcDbVertex
100
AcDb2dVertex
 10
552.5755505296945
 20
613.5961220930636
 30
0.0
  0
VERTEX
  5
29D
330
1DA
100
AcDbEntity
  8
LAY-10
  6
CONTINUOUS
 62
     7
100
AcDbVertex
100
AcDb2dVertex
 10
552.7603401767481
 20
613.5800635258594
 30
0.0
  0
VERTEX
  5
29E
330
1DA
100
AcDbEntity
  8
LAY-10
  6
CONTINUOUS
 62
     7
100
AcDbVertex
100
AcDb2dVertex
 10
552.9354616824601
 20
613.5777481380356
 30
0.0
  0
VERTEX
  5
29F
330
1DA
100
AcDbEntity
  8
LAY-10
  6
CONTINUOUS
 62
     7
100
AcDbVertex
100
AcDb2dVertex
 10
553.1009150468278
 20
613.5891759295988
 30
0.0
  0
VERTEX
  5
2A0
330
1DA
100
AcDbEntity
  8
LAY-10
  6
CONTINUOUS
 62
     7
100
AcDbVertex
100
AcDb2dVertex
 10
553.256700269854
 20
613.6143469005434
 30
0.0
  0
VERTEX
  5
2A1
330
1DA
100
AcDbEntity
  8
LAY-10
  6
CONTINUOUS
 62
     7
100
AcDbVertex
100
AcDb2dVertex
 10
553.4028173515378
 20
613.6532610508758
 30
0.0
  0
VERTEX
  5
2A2
330
1DA
100
AcDbEntity
  8
LAY-10
  6
CONTINUOUS
 62
     7
100
AcDbVertex
100
AcDb2dVertex
 10
553.5392662918764
 20
613.705918380591
 30
0.0
  0
VERTEX
  5
2A3
330
1DA
100
AcDbEntity
  8
LAY-10
  6
CONTINUOUS
 62
     7
100
AcDbVertex
100
AcDb2dVertex
 10
553.6660470908735
 20
613.7723188896908
 30
0.0
  0
VERTEX
  5
2A4
330
1DA
100
AcDbEntity
  8
LAY-10
  6
CONTINUOUS
 62
     7
100
AcDbVertex
100
AcDb2dVertex
 10
553.783159748529
 20
613.8524625781735
 30
0.0
  0
VERTEX
  5
2A5
330
1DA
100
AcDbEntity
  8
LAY-10
  6
CONTINUOUS
 62
     7
100
AcDbVertex
100
AcDb2dVertex
 10
553.8421100268822
 20
613.9015788178405
 30
0.0
  0
VERTEX
  5
2A6
330
1DA
100
AcDbEntity
  8
LAY-10
  6
CONTINUOUS
 62
     7
100
AcDbVertex
100
AcDb2dVertex
 10
553.8969980267382
 20
613.9544070203552
 30
0.0
  0
VERTEX
  5
2A7
330
1DA
100
AcDbEntity
  8
LAY-10
  6
CONTINUOUS
 62
     7
100
AcDbVertex
100
AcDb2dVertex
 10
553.9478237480942
 20
614.0109471857132
 30
0.0
  0
VERTEX
  5
2A8
330
1DA
100
AcDbEntity
  8
LAY-10
  6
CONTINUOUS
 62
     7
100
AcDbVertex
100
AcDb2dVertex
 10
553.994587190951
 20
614.0711993139172
 30
0.0
  0
VERTEX
  5
2A9
330
1DA
100
AcDbEntity
  8
LAY-10
  6
CONTINUOUS
 62
     7
100
AcDbVertex
100
AcDb2dVertex
 10
554.0372883553098
 20
614.1351634049639
 30
0.0
  0
VERTEX
  5
2AA
330
1DA
100
AcDbEntity
  8
LAY-10
  6
CONTINUOUS
 62
     7
100
AcDbVertex
100
AcDb2dVertex
 10
554.0759272411703
 20
614.2028394588552
 30
0.0
  0
VERTEX
  5
2AB
330
1DA
100
AcDbEntity
  8
LAY-10
  6
CONTINUOUS
 62
     7
100
AcDbVertex
100
AcDb2dVertex
 10
554.1105038485291
 20
614.274227475593
 30
0.0
  0
VERTEX
  5
2AC
330
1DA
100
AcDbEntity
  8
LAY-10
  6
CONTINUOUS
 62
     7
100
AcDbVertex
100
AcDb2dVertex
 10
554.1410181773924
 20
614.3493274551748
 30
0.0
  0
VERTEX
  5
2AD
330
1DA
100
AcDbEntity
  8
LAY-10
  6
CONTINUOUS
 62
     7
100
AcDbVertex
100
AcDb2dVertex
 10
554.1674702277558
 20
614.4281393976026
 30
0.0
  0
VERTEX
  5
2AE
330
1DA
100
AcDbEntity
  8
LAY-10
  6
CONTINUOUS
 62
     7
100
AcDbVertex
100
AcDb2dVertex
 10
554.18985999962
 20
614.5106633028764
 30
0.0
  0
VERTEX
  5
2AF
330
1DA
100
AcDbEntity
  8
LAY-10
  6
CONTINUOUS
 62
     7
100
AcDbVertex
100
AcDb2dVertex
 10
554.2074877924849
 20
614.5939991408187
 30
0.0
  0
VERTEX
  5
2B0
330
1DA
100
AcDbEntity
  8
LAY-10
  6
CONTINUOUS
 62
     7
100
AcDbVertex
100
AcDb2dVertex
 10
554.219817101304
 20
614.6759232731362
 30
0.0
  0
VERTEX
  5
2B1
330
1DA
100
AcDbEntity
  8
LAY-10
  6
CONTINUOUS
 62
     7
100
AcDbVertex
100
AcDb2dVertex
 10
554.2268479260763
 20
614.7564356998279
 30
0.0
  0
VERTEX
  5
2B2
330
1DA
100
AcDbEntity
  8
LAY-10
  6
CONTINUOUS
 62
     7
100
AcDbVertex
100
AcDb2dVertex
 10
554.2285802668036
 20
614.8355364208934
 30
0.0
  0
VERTEX
  5
2B3
330
1DA
100
AcDbEntity
  8
LAY-10
  6
CONTINUOUS
 62
     7
100
AcDbVertex
100
AcDb2dVertex
 10
554.2250141234833
 20
614.9132254363341
 30
0.0
  0
VERTEX
  5
2B4
330
1DA
100
AcDbEntity
  8
LAY-10
  6
CONTINUOUS
 62
     7
100
AcDbVertex
100
AcDb2dVertex
 10
554.2161494961163
 20
614.9895027461477
 30
0.0
  0
VERTEX
  5
2B5
330
1DA
100
AcDbEntity
  8
LAY-10
  6
CONTINUOUS
 62
     7
100
AcDbVertex
100
AcDb2dVertex
 10
554.2019863847033
 20
615.0643683503364
 30
0.0
  0
VERTEX
  5
2B6
330
1DA
100
AcDbEntity
  8
LAY-10
  6
CONTINUOUS
 62
     7
100
AcDbVertex
100
AcDb2dVertex
 10
554.1825247892446
 20
615.1378222488989
 30
0.0
  0
VERTEX
  5
2B7
330
1DA
100
AcDbEntity
  8
LAY-10
  6
CONTINUOUS
 62
     7
100
AcDbVertex
100
AcDb2dVertex
 10
554.1577647097381
 20
615.2098644418353
 30
0.0
  0
VERTEX
  5
2B8
330
1DA
100
AcDbEntity
  8
LAY-10
  6
CONTINUOUS
 62
     7
100
AcDbVertex
100
AcDb2dVertex
 10
554.1277061461867
 20
615.2804949291473
 30
0.0
  0
VERTEX
  5
2B9
330
1DA
100
AcDbEntity
  8
LAY-10
  6
CONTINUOUS
 62
     7
100
AcDbVertex
100
AcDb2dVertex
 10
554.0803688077065
 20
615.3746796733077
 30
0.0
  0
VERTEX
  5
2BA
330
1DA
100
AcDbEntity
  8
LAY-10
  6
CONTINUOUS
 62
     7
100
AcDbVertex
100
AcDb2dVertex
 10
554.0291201125535
 20
615.4634318366449
 30
0.0
  0
VERTEX
  5
2BB
330
1DA
100
AcDbEntity
  8
LAY-10
  6
CONTINUOUS
 62
     7
100
AcDbVertex
100
AcDb2dVertex
 10
553.9739600607252
 20
615.5467514191592
 30
0.0
  0
VERTEX
  5
2BC
330
1DA
100
AcDbEntity
  8
LAY-10
  6
CONTINUOUS
 62
     7
100
AcDbVertex
100
AcDb2dVertex
 10
553.9148886522232
 20
615.6246384208504
 30
0.0
  0
VERTEX
  5
2BD
330
1DA
100
AcDbEntity
  8
LAY-10
  6
CONTINUOUS
 62
     7
100
AcDbVertex
100
AcDb2dVertex
 10
553.8519058870468
 20
615.6970928417187
 30
0.0
  0
VERTEX
  5
2BE
330
1DA
100
AcDbEntity
  8
LAY-10
  6
CONTINUOUS
 62
     7
100
AcDbVertex
100
AcDb2dVertex
 10
553.7850117651958
 20
615.7641146817629
 30
0.0
  0
VERTEX
  5
2BF
330
1DA
100
AcDbEntity
  8
LAY-10
  6
CONTINUOUS
 62
     7
100
AcDbVertex
100
AcDb2dVertex
 10
553.7142062866722
 20
615.8257039409833
 30
0.0
  0
VERTEX
  5
2C0
330
1DA
100
AcDbEntity
  8
LAY-10
  6
CONTINUOUS
 62
     7
100
AcDbVertex
100
AcDb2dVertex
 10
553.6394894514722
 20
615.8818606193819
 30
0.0
  0
VERTEX
  5
2C1
330
1DA
100
AcDbEntity
  8
LAY-10
  6
CONTINUOUS
 62
     7
100
AcDbVertex
100
AcDb2dVertex
 10
553.5608612596004
 20
615.9325847169563
 30
0.0
  0
VERTEX
  5
2C2
330
1DA
100
AcDbEntity
  8
LAY-10
  6
CONTINUOUS
 62
     7
100
AcDbVertex
100
AcDb2dVertex
 10
553.4783217110542
 20
615.9778762337083
 30
0.0
  0
VERTEX
  5
2C3
330
1DA
100
AcDbEntity
  8
LAY-10
  6
CONTINUOUS
 62
     7
100
AcDbVertex
100
AcDb2dVertex
 10
552.0194102560115
 20
616.7405440393114
 30
0.0
  0
VERTEX
  5
2C4
330
1DA
100
AcDbEntity
  8
LAY-10
  6
CONTINUOUS
 62
     7
100
AcDbVertex
100
AcDb2dVertex
 10
551.8777687864438
 20
616.8164565167887
 30
0.0
  0
VERTEX
  5
2C5
330
1DA
100
AcDbEntity
  8
LAY-10
  6
CONTINUOUS
 62
     7
100
AcDbVertex
100
AcDb2dVertex
 10
551.7445758724832
 20
616.898174190682
 30
0.0
  0
VERTEX
  5
2C6
330
1DA
100
AcDbEntity
  8
LAY-10
  6
CONTINUOUS
 62
     7
100
AcDbVertex
100
AcDb2dVertex
 10
551.6198315141335
 20
616.9856970609914
 30
0.0
  0
VERTEX
  5
2C7
330
1DA
100
AcDbEntity
  8
LAY-10
  6
CONTINUOUS
 62
     7
100
AcDbVertex
100
AcDb2dVertex
 10
551.5035357113954
 20
617.0790251277155
 30
0.0
  0
VERTEX
  5
2C8
330
1DA
100
AcDbEntity
  8
LAY-10
  6
CONTINUOUS
 62
     7
100
AcDbVertex
100
AcDb2dVertex
 10
551.3956884642691
 20
617.1781583908579
 30
0.0
  0
VERTEX
  5
2C9
330
1DA
100
AcDbEntity
  8
LAY-10
  6
CONTINUOUS
 62
     7
100
AcDbVertex
100
AcDb2dVertex
 10
551.2962897727527
 20
617.2830968504155
 30
0.0
  0
VERTEX
  5
2CA
330
1DA
100
AcDbEntity
  8
LAY-10
  6
CONTINUOUS
 62
     7
100
AcDbVertex
100
AcDb2dVertex
 10
551.2053396368462
 20
617.3938405063888
 30
0.0
  0
VERTEX
  5
2CB
330
1DA
100
AcDbEntity
  8
LAY-10
  6
CONTINUOUS
 62
     7
100
AcDbVertex
100
AcDb2dVertex
 10
551.1228380565515
 20
617.5103893587781
 30
0.0
  0
VERTEX
  5
2CC
330
1DA
100
AcDbEntity
  8
LAY-10
  6
CONTINUOUS
 62
     7
100
AcDbVertex
100
AcDb2dVertex
 10
551.0487850318675
 20
617.6327434075816
 30
0.0
  0
VERTEX
  5
2CD
330
1DA
100
AcDbEntity
  8
LAY-10
  6
CONTINUOUS
 62
     7
100
AcDbVertex
100
AcDb2dVertex
 10
550.9831805627925
 20
617.7609026528045
 30
0.0
  0
VERTEX
  5
2CE
330
1DA
100
AcDbEntity
  8
LAY-10
  6
CONTINUOUS
 62
     7
100
AcDbVertex
100
AcDb2dVertex
 10
550.9333220765745
 20
617.8776070887922
 30
0.0
  0
VERTEX
  5
2CF
330
1DA
100
AcDbEntity
  8
LAY-10
  6
CONTINUOUS
 62
     7
100
AcDbVertex
100
AcDb2dVertex
 10
550.892146114247
 20
617.9962607430394
 30
0.0
  0
VERTEX
  5
2D0
330
1DA
100
AcDbEntity
  8
LAY-10
  6
CONTINUOUS
 62
     7
100
AcDbVertex
100
AcDb2dVertex
 10
550.8596526758081
 20
618.11686361555
 30
0.0
  0
VERTEX
  5
2D1
330
1DA
100
AcDbEntity
  8
LAY-10
  6
CONTINUOUS
 62
     7
100
AcDbVertex
100
AcDb2dVertex
 10
550.8358417612615
 20
618.2394157063219
 30
0.0
  0
VERTEX
  5
2D2
330
1DA
100
AcDbEntity
  8
LAY-10
  6
CONTINUOUS
 62
     7
100
AcDbVertex
100
AcDb2dVertex
 10
550.8207133706053
 20
618.3639170153543
 30
0.0
  0
VERTEX
  5
2D3
330
1DA
100
AcDbEntity
  8
LAY-10
  6
CONTINUOUS
 62
     7
100
AcDbVertex
100
AcDb2dVertex
 10
550.8142675038396
 20
618.4903675426505
 30
0.0
  0
VERTEX
  5
2D4
330
1DA
100
AcDbEntity
  8
LAY-10
  6
CONTINUOUS
 62
     7
100
AcDbVertex
100
AcDb2dVertex
 10
550.8165041609661
 20
618.6187672882062
 30
0.0
  0
VERTEX
  5
2D5
330
1DA
100
AcDbEntity
  8
LAY-10
  6
CONTINUOUS
 62
     7
100
AcDbVertex
100
AcDb2dVertex
 10
550.8274233419822
 20
618.7491162520242
 30
0.0
  0
VERTEX
  5
2D6
330
1DA
100
AcDbEntity
  8
LAY-10
  6
CONTINUOUS
 62
     7
100
AcDbVertex
100
AcDb2dVertex
 10
550.8470250468897
 20
618.8814144341051
 30
0.0
  0
VERTEX
  5
2D7
330
1DA
100
AcDbEntity
  8
LAY-10
  6
CONTINUOUS
 62
     7
100
AcDbVertex
100
AcDb2dVertex
 10
550.8753092756867
 20
619.015661834446
 30
0.0
  0
VERTEX
  5
2D8
330
1DA
100
AcDbEntity
  8
LAY-10
  6
CONTINUOUS
 62
     7
100
AcDbVertex
100
AcDb2dVertex
 10
550.911147600458
 20
619.1422173451543
 30
0.0
  0
VERTEX
  5
2D9
330
1DA
100
AcDbEntity
  8
LAY-10
  6
CONTINUOUS
 62
     7
100
AcDbVertex
100
AcDb2dVertex
 10
550.9569474947464
 20
619.2660950156788
 30
0.0
  0
VERTEX
  5
2DA
330
1DA
100
AcDbEntity
  8
LAY-10
  6
CONTINUOUS
 62
     7
100
AcDbVertex
100
AcDb2dVertex
 10
551.0127089585492
 20
619.3872948460177
 30
0.0
  0
VERTEX
  5
2DB
330
1DA
100
AcDbEntity
  8
LAY-10
  6
CONTINUOUS
 62
     7
100
AcDbVertex
100
AcDb2dVertex
 10
551.0784319918646
 20
619.5058168361721
 30
0.0
  0
VERTEX
  5
2DC
330
1DA
100
AcDbEntity
  8
LAY-10
  6
CONTINUOUS
 62
     7
100
AcDbVertex
100
AcDb2dVertex
 10
551.1541165946953
 20
619.6216609861414
 30
0.0
  0
VERTEX
  5
2DD
330
1DA
100
AcDbEntity
  8
LAY-10
  6
CONTINUOUS
 62
     7
100
AcDbVertex
100
AcDb2dVertex
 10
551.2397627670414
 20
619.7348272959254
 30
0.0
  0
VERTEX
  5
2DE
330
1DA
100
AcDbEntity
  8
LAY-10
  6
CONTINUOUS
 62
     7
100
AcDbVertex
100
AcDb2dVertex
 10
551.335370508901
 20
619.8453157655246
 30
0.0
  0
VERTEX
  5
2DF
330
1DA
100
AcDbEntity
  8
LAY-10
  6
CONTINUOUS
 62
     7
100
AcDbVertex
100
AcDb2dVertex
 10
551.4409398202758
 20
619.9531263949385
 30
0.0
  0
VERTEX
  5
2E0
330
1DA
100
AcDbEntity
  8
LAY-10
  6
CONTINUOUS
 62
     7
100
AcDbVertex
100
AcDb2dVertex
 10
551.5564707011642
 20
620.0582591841677
 30
0.0
  0
VERTEX
  5
2E1
330
1DA
100
AcDbEntity
  8
LAY-10
  6
CONTINUOUS
 62
     7
100
AcDbVertex
100
AcDb2dVertex
 10
551.681963151568
 20
620.1607141332125
 30
0.0
  0
VERTEX
  5
2E2
330
1DA
100
AcDbEntity
  8
LAY-10
  6
CONTINUOUS
 62
     7
100
AcDbVertex
100
AcDb2dVertex
 10
551.8259714921858
 20
620.2593578075758
 30
0.0
  0
VERTEX
  5
2E3
330
1DA
100
AcDbEntity
  8
LAY-10
  6
CONTINUOUS
 62
     7
100
AcDbVertex
100
AcDb2dVertex
 10
551.9816726313836
 20
620.3411393640432
 30
0.0
  0
VERTEX
  5
2E4
330
1DA
100
AcDbEntity
  8
LAY-10
  6
CONTINUOUS
 62
     7
100
AcDbVertex
100
AcDb2dVertex
 10
552.1490665691615
 20
620.4060588026151
 30
0.0
  0
VERTEX
  5
2E5
330
1DA
100
AcDbEntity
  8
LAY-10
  6
CONTINUOUS
 62
     7
100
AcDbVertex
100
AcDb2dVertex
 10
552.3281533055194
 20
620.454116123292
 30
0.0
  0
VERTEX
  5
2E6
330
1DA
100
AcDbEntity
  8
LAY-10
  6
CONTINUOUS
 62
     7
100
AcDbVertex
100
AcDb2dVertex
 10
552.5189328404583
 20
620.4853113260725
 30
0.0
  0
VERTEX
  5
2E7
330
1DA
100
AcDbEntity
  8
LAY-10
  6
CONTINUOUS
 62
     7
100
AcDbVertex
100
AcDb2dVertex
 10
552.7214051739772
 20
620.4996444109576
 30
0.0
  0
VERTEX
  5
2E8
330
1DA
100
AcDbEntity
  8
LAY-10
  6
CONTINUOUS
 62
     7
100
AcDbVertex
100
AcDb2dVertex
 10
552.935570306078
 20
620.4971153779444
 30
0.0
  0
VERTEX
  5
2E9
330
1DA
100
AcDbEntity
  8
LAY-10
  6
CONTINUOUS
 62
     7
100
AcDbVertex
100
AcDb2dVertex
 10
553.161428236757
 20
620.4777242270371
 30
0.0
  0
VERTEX
  5
2EA
330
1DA
100
AcDbEntity
  8
LAY-10
  6
CONTINUOUS
 62
     7
100
AcDbVertex
100
AcDb2dVertex
 10
553.398978966017
 20
620.4414709582339
 30
0.0
  0
VERTEX
  5
2EB
330
1DA
100
AcDbEntity
  8
LAY-10
  6
CONTINUOUS
 62
     7
100
AcDbVertex
100
AcDb2dVertex
 10
553.6482224938579
 20
620.3883555715348
 30
0.0
  0
VERTEX
  5
2EC
330
1DA
100
AcDbEntity
  8
LAY-10
  6
CONTINUOUS
 62
     7
100
AcDbVertex
100
AcDb2dVertex
 10
553.9116642945962
 20
620.3169355189062
 30
0.0
  0
VERTEX
  5
2ED
330
1DA
100
AcDbEntity
  8
LAY-10
  6
CONTINUOUS
 62
     7
100
AcDbVertex
100
AcDb2dVertex
 10
554.1535711545127
 20
620.2349942353254
 30
0.0
  0
VERTEX
  5
2EE
330
1DA
100
AcDbEntity
  8
LAY-10
  6
CONTINUOUS
 62
     7
100
AcDbVertex
100
AcDb2dVertex
 10
554.3739430736093
 20
620.142531720796
 30
0.0
  0
VERTEX
  5
2EF
330
1DA
100
AcDbEntity
  8
LAY-10
  6
CONTINUOUS
 62
     7
100
AcDbVertex
100
AcDb2dVertex
 10
554.572780051885
 20
620.0395479753175
 30
0.0
  0
VERTEX
  5
2F0
330
1DA
100
AcDbEntity
  8
LAY-10
  6
CONTINUOUS
 62
     7
100
AcDbVertex
100
AcDb2dVertex
 10
554.7500820893381
 20
619.9260429988877
 30
0.0
  0
VERTEX
  5
2F1
330
1DA
100
AcDbEntity
  8
LAY-10
  6
CONTINUOUS
 62
     7
100
AcDbVertex
100
AcDb2dVertex
 10
554.9058491859721
 20
619.8020167915084
 30
0.0
  0
VERTEX
  5
2F2
330
1DA
100
AcDbEntity
  8
LAY-10
  6
CONTINUOUS
 62
     7
100
AcDbVertex
100
AcDb2dVertex
 10
555.0400813417834
 20
619.6674693531774
 30
0.0
  0
VERTEX
  5
2F3
330
1DA
100
AcDbEntity
  8
LAY-10
  6
CONTINUOUS
 62
     7
100
AcDbVertex
100
AcDb2dVertex
 10
555.1527785567748
 20
619.5224006838977
 30
0.0
  0
VERTEX
  5
2F4
330
1DA
100
AcDbEntity
  8
LAY-10
  6
CONTINUOUS
 62
     7
100
AcDbVertex
100
AcDb2dVertex
 10
555.2439408309444
 20
619.3668107836689
 30
0.0
  0
VERTEX
  5
2F5
330
1DA
100
AcDbEntity
  8
LAY-10
  6
CONTINUOUS
 62
     7
100
AcDbVertex
100
AcDb2dVertex
 10
555.3135681642941
 20
619.2006996524884
 30
0.0
  0
SEQEND
  5
2F6
330
1DA
100
AcDbEntity
  8
LAY-10
  6
CONTINUOUS
 62
     7
  0
POLYLINE
  5
2F7
330
1F
100
AcDbEntity
  8
LAY-10
  6
CONTINUOUS
 62
     7
100
AcDb2dPolyline
 66
     1
 10
0.0
 20
0.0
 30
0.0
 70
   128
  0
VERTEX
  5
2F8
330
2F7
100
AcDbEntity
  8
LAY-10
  6
CONTINUOUS
 62
     7
100
AcDbVertex
100
AcDb2dVertex
 10
562.1078558294519
 20
618.347270025192
 30
0.0
  0
VERTEX
  5
2F9
330
2F7
100
AcDbEntity
  8
LAY-10
  6
CONTINUOUS
 62
     7
100
AcDbVertex
100
AcDb2dVertex
 10
562.1718124979859
 20
618.3278903285446
 30
0.0
  0
VERTEX
  5
2FA
330
2F7
100
AcDbEntity
  8
LAY-10
  6
CONTINUOUS
 62
     7
100
AcDbVertex
100
AcDb2dVertex
 10
562.2271415279172
 20
618.3026949609699
 30
0.0
  0
VERTEX
  5
2FB
330
2F7
100
AcDbEntity
  8
LAY-10
  6
CONTINUOUS
 62
     7
100
AcDbVertex
100
AcDb2dVertex
 10
562.2738429192466
 20
618.2716839224673
 30
0.0
  0
VERTEX
  5
2FC
330
2F7
100
AcDbEntity
  8
LAY-10
  6
CONTINUOUS
 62
     7
100
AcDbVertex
100
AcDb2dVertex
 10
562.3119166719741
 20
618.2348572130364
 30
0.0
  0
VERTEX
  5
2FD
330
2F7
100
AcDbEntity
  8
LAY-10
  6
CONTINUOUS
 62
     7
100
AcDbVertex
100
AcDb2dVertex
 10
562.3413627860989
 20
618.1922148326777
 30
0.0
  0
VERTEX
  5
2FE
330
2F7
100
AcDbEntity
  8
LAY-10
  6
CONTINUOUS
 62
     7
100
AcDbVertex
100
AcDb2dVertex
 10
562.3621812616236
 20
618.1437567813915
 30
0.0
  0
VERTEX
  5
2FF
330
2F7
100
AcDbEntity
  8
LAY-10
  6
CONTINUOUS
 62
     7
100
AcDbVertex
100
AcDb2dVertex
 10
562.3743720985456
 20
618.0894830591752
 30
0.0
  0
VERTEX
  5
300
330
2F7
100
AcDbEntity
  8
LAY-10
  6
CONTINUOUS
 62
     7
100
AcDbVertex
100
AcDb2dVertex
 10
562.3779352968656
 20
618.029393666032
 30
0.0
  0
VERTEX
  5
301
330
2F7
100
AcDbEntity
  8
LAY-10
  6
CONTINUOUS
 62
     7
100
AcDbVertex
100
AcDb2dVertex
 10
562.3728708565848
 20
617.9634886019609
 30
0.0
  0
VERTEX
  5
302
330
2F7
100
AcDbEntity
  8
LAY-10
  6
CONTINUOUS
 62
     7
100
AcDbVertex
100
AcDb2dVertex
 10
562.3591787777002
 20
617.8917678669619
 30
0.0
  0
VERTEX
  5
303
330
2F7
100
AcDbEntity
  8
LAY-10
  6
CONTINUOUS
 62
     7
100
AcDbVertex
100
AcDb2dVertex
 10
562.3386596500347
 20
617.8216943180802
 30
0.0
  0
VERTEX
  5
304
330
2F7
100
AcDbEntity
  8
LAY-10
  6
CONTINUOUS
 62
     7
100
AcDbVertex
100
AcDb2dVertex
 10
562.313114063403
 20
617.7607308123653
 30
0.0
  0
VERTEX
  5
305
330
2F7
100
AcDbEntity
  8
LAY-10
  6
CONTINUOUS
 62
     7
100
AcDbVertex
100
AcDb2dVertex
 10
562.2825420178058
 20
617.7088773498118
 30
0.0
  0
VERTEX
  5
306
330
2F7
100
AcDbEntity
  8
LAY-10
  6
CONTINUOUS
 62
     7
100
AcDbVertex
100
AcDb2dVertex
 10
562.2469435132441
 20
617.6661339304247
 30
0.0
  0
VERTEX
  5
307
330
2F7
100
AcDbEntity
  8
LAY-10
  6
CONTINUOUS
 62
     7
100
AcDbVertex
100
AcDb2dVertex
 10
562.206318549717
 20
617.6325005542027
 30
0.0
  0
VERTEX
  5
308
330
2F7
100
AcDbEntity
  8
LAY-10
  6
CONTINUOUS
 62
     7
100
AcDbVertex
100
AcDb2dVertex
 10
562.1606671272264
 20
617.6079772211439
 30
0.0
  0
VERTEX
  5
309
330
2F7
100
AcDbEntity
  8
LAY-10
  6
CONTINUOUS
 62
     7
100
AcDbVertex
100
AcDb2dVertex
 10
562.1099892457694
 20
617.592563931251
 30
0.0
  0
VERTEX
  5
30A
330
2F7
100
AcDbEntity
  8
LAY-10
  6
CONTINUOUS
 62
     7
100
AcDbVertex
100
AcDb2dVertex
 10
562.054284905347
 20
617.5862606845218
 30
0.0
  0
VERTEX
  5
30B
330
2F7
100
AcDbEntity
  8
LAY-10
  6
CONTINUOUS
 62
     7
100
AcDbVertex
100
AcDb2dVertex
 10
561.993554105962
 20
617.5890674809572
 30
0.0
  0
VERTEX
  5
30C
330
2F7
100
AcDbEntity
  8
LAY-10
  6
CONTINUOUS
 62
     7
100
AcDbVertex
100
AcDb2dVertex
 10
561.9277968476097
 20
617.600984320558
 30
0.0
  0
VERTEX
  5
30D
330
2F7
100
AcDbEntity
  8
LAY-10
  6
CONTINUOUS
 62
     7
100
AcDbVertex
100
AcDb2dVertex
 10
558.7304923959143
 20
618.3724092328122
 30
0.0
  0
VERTEX
  5
30E
330
2F7
100
AcDbEntity
  8
LAY-10
  6
CONTINUOUS
 62
     7
100
AcDbVertex
100
AcDb2dVertex
 10
558.7198311324335
 20
618.374065928621
 30
0.0
  0
VERTEX
  5
30F
330
2F7
100
AcDbEntity
  8
LAY-10
  6
CONTINUOUS
 62
     7
100
AcDbVertex
100
AcDb2dVertex
 10
558.7098526247235
 20
618.3737267239413
 30
0.0
  0
VERTEX
  5
310
330
2F7
100
AcDbEntity
  8
LAY-10
  6
CONTINUOUS
 62
     7
100
AcDbVertex
100
AcDb2dVertex
 10
558.7005568727852
 20
618.3713916187677
 30
0.0
  0
VERTEX
  5
311
330
2F7
100
AcDbEntity
  8
LAY-10
  6
CONTINUOUS
 62
     7
100
AcDbVertex
100
AcDb2dVertex
 10
558.6919438766224
 20
618.3670606131005
 30
0.0
  0
VERTEX
  5
312
330
2F7
100
AcDbEntity
  8
LAY-10
  6
CONTINUOUS
 62
     7
100
AcDbVertex
100
AcDb2dVertex
 10
558.6840136362314
 20
618.3607337069453
 30
0.0
  0
VERTEX
  5
313
330
2F7
100
AcDbEntity
  8
LAY-10
  6
CONTINUOUS
 62
     7
100
AcDbVertex
100
AcDb2dVertex
 10
558.6767661516121
 20
618.3524109002975
 30
0.0
  0
VERTEX
  5
314
330
2F7
100
AcDbEntity
  8
LAY-10
  6
CONTINUOUS
 62
     7
100
AcDbVertex
100
AcDb2dVertex
 10
558.6702014227665
 20
618.3420921931566
 30
0.0
  0
VERTEX
  5
315
330
2F7
100
AcDbEntity
  8
LAY-10
  6
CONTINUOUS
 62
     7
100
AcDbVertex
100
AcDb2dVertex
 10
558.6643194496917
 20
618.3297775855245
 30
0.0
  0
VERTEX
  5
316
330
2F7
100
AcDbEntity
  8
LAY-10
  6
CONTINUOUS
 62
     7
100
AcDbVertex
100
AcDb2dVertex
 10
558.6591202323905
 20
618.3154670774016
 30
0.0
  0
VERTEX
  5
317
330
2F7
100
AcDbEntity
  8
LAY-10
  6
CONTINUOUS
 62
     7
100
AcDbVertex
100
AcDb2dVertex
 10
558.6546037708611
 20
618.2991606687852
 30
0.0
  0
VERTEX
  5
318
330
2F7
100
AcDbEntity
  8
LAY-10
  6
CONTINUOUS
 62
     7
100
AcDbVertex
100
AcDb2dVertex
 10
558.0960673370034
 20
615.984209468687
 30
0.0
  0
VERTEX
  5
319
330
2F7
100
AcDbEntity
  8
LAY-10
  6
CONTINUOUS
 62
     7
100
AcDbVertex
100
AcDb2dVertex
 10
560.9240618181827
 20
615.301889274455
 30
0.0
  0
VERTEX
  5
31A
330
2F7
100
AcDbEntity
  8
LAY-10
  6
CONTINUOUS
 62
     7
100
AcDbVertex
100
AcDb2dVertex
 10
560.9879756485641
 20
615.2825199135196
 30
0.0
  0
VERTEX
  5
31B
330
2F7
100
AcDbEntity
  8
LAY-10
  6
CONTINUOUS
 62
     7
100
AcDbVertex
100
AcDb2dVertex
 10
561.043266349621
 20
615.2573337936875
 30
0.0
  0
VERTEX
  5
31C
330
2F7
100
AcDbEntity
  8
LAY-10
  6
CONTINUOUS
 62
     7
100
AcDbVertex
100
AcDb2dVertex
 10
561.0899339213554
 20
615.2263309149572
 30
0.0
  0
VERTEX
  5
31D
330
2F7
100
AcDbEntity
  8
LAY-10
  6
CONTINUOUS
 62
     7
100
AcDbVertex
100
AcDb2dVertex
 10
561.1279783637681
 20
615.1895112773296
 30
0.0
  0
VERTEX
  5
31E
330
2F7
100
AcDbEntity
  8
LAY-10
  6
CONTINUOUS
 62
     7
100
AcDbVertex
100
AcDb2dVertex
 10
561.1573996768582
 20
615.1468748808044
 30
0.0
  0
VERTEX
  5
31F
330
2F7
100
AcDbEntity
  8
LAY-10
  6
CONTINUOUS
 62
     7
100
AcDbVertex
100
AcDb2dVertex
 10
561.1781978606248
 20
615.0984217253819
 30
0.0
  0
VERTEX
  5
320
330
2F7
100
AcDbEntity
  8
LAY-10
  6
CONTINUOUS
 62
     7
100
AcDbVertex
100
AcDb2dVertex
 10
561.1903729150706
 20
615.0441518110594
 30
0.0
  0
VERTEX
  5
321
330
2F7
100
AcDbEntity
  8
LAY-10
  6
CONTINUOUS
 62
     7
100
AcDbVertex
100
AcDb2dVertex
 10
561.193924840192
 20
614.9840651378405
 30
0.0
  0
VERTEX
  5
322
330
2F7
100
AcDbEntity
  8
LAY-10
  6
CONTINUOUS
 62
     7
100
AcDbVertex
100
AcDb2dVertex
 10
561.1888536359927
 20
614.918161705724
 30
0.0
  0
VERTEX
  5
323
330
2F7
100
AcDbEntity
  8
LAY-10
  6
CONTINUOUS
 62
     7
100
AcDbVertex
100
AcDb2dVertex
 10
561.175159302469
 20
614.8464415147097
 30
0.0
  0
VERTEX
  5
324
330
2F7
100
AcDbEntity
  8
LAY-10
  6
CONTINUOUS
 62
     7
100
AcDbVertex
100
AcDb2dVertex
 10
561.1546424294418
 20
614.7763674218432
 30
0.0
  0
VERTEX
  5
325
330
2F7
100
AcDbEntity
  8
LAY-10
  6
CONTINUOUS
 62
     7
100
AcDbVertex
100
AcDb2dVertex
 10
561.1291036067284
 20
614.7154022841738
 30
0.0
  0
VERTEX
  5
326
330
2F7
100
AcDbEntity
  8
LAY-10
  6
CONTINUOUS
 62
     7
100
AcDbVertex
100
AcDb2dVertex
 10
561.0985428343299
 20
614.6635461016959
 30
0.0
  0
VERTEX
  5
327
330
2F7
100
AcDbEntity
  8
LAY-10
  6
CONTINUOUS
 62
     7
100
AcDbVertex
100
AcDb2dVertex
 10
561.0629601122453
 20
614.6207988744151
 30
0.0
  0
VERTEX
  5
328
330
2F7
100
AcDbEntity
  8
LAY-10
  6
CONTINUOUS
 62
     7
100
AcDbVertex
100
AcDb2dVertex
 10
561.0223554404763
 20
614.5871606023294
 30
0.0
  0
VERTEX
  5
329
330
2F7
100
AcDbEntity
  8
LAY-10
  6
CONTINUOUS
 62
     7
100
AcDbVertex
100
AcDb2dVertex
 10
560.9767288190194
 20
614.5626312854371
 30
0.0
  0
VERTEX
  5
32A
330
2F7
100
AcDbEntity
  8
LAY-10
  6
CONTINUOUS
 62
     7
100
AcDbVertex
100
AcDb2dVertex
 10
560.9260802478791
 20
614.5472109237409
 30
0.0
  0
VERTEX
  5
32B
330
2F7
100
AcDbEntity
  8
LAY-10
  6
CONTINUOUS
 62
     7
100
AcDbVertex
100
AcDb2dVertex
 10
560.8704097270518
 20
614.5408995172394
 30
0.0
  0
VERTEX
  5
32C
330
2F7
100
AcDbEntity
  8
LAY-10
  6
CONTINUOUS
 62
     7
100
AcDbVertex
100
AcDb2dVertex
 10
560.8097172565392
 20
614.5436970659326
 30
0.0
  0
VERTEX
  5
32D
330
2F7
100
AcDbEntity
  8
LAY-10
  6
CONTINUOUS
 62
     7
100
AcDbVertex
100
AcDb2dVertex
 10
560.7440028363396
 20
614.5556035698211
 30
0.0
  0
VERTEX
  5
32E
330
2F7
100
AcDbEntity
  8
LAY-10
  6
CONTINUOUS
 62
     7
100
AcDbVertex
100
AcDb2dVertex
 10
557.9160083551603
 20
615.2379237640531
 30
0.0
  0
VERTEX
  5
32F
330
2F7
100
AcDbEntity
  8
LAY-10
  6
CONTINUOUS
 62
     7
100
AcDbVertex
100
AcDb2dVertex
 10
557.1782289167184
 20
612.1800688187074
 30
0.0
  0
VERTEX
  5
330
330
2F7
100
AcDbEntity
  8
LAY-10
  6
CONTINUOUS
 62
     7
100
AcDbVertex
100
AcDb2dVertex
 10
557.1525701744829
 20
612.0899293363842
 30
0.0
  0
VERTEX
  5
331
330
2F7
100
AcDbEntity
  8
LAY-10
  6
CONTINUOUS
 62
     7
100
AcDbVertex
100
AcDb2dVertex
 10
557.1218326591259
 20
612.0111552546533
 30
0.0
  0
VERTEX
  5
332
330
2F7
100
AcDbEntity
  8
LAY-10
  6
CONTINUOUS
 62
     7
100
AcDbVertex
100
AcDb2dVertex
 10
557.0860163706445
 20
611.9437465735142
 30
0.0
  0
VERTEX
  5
333
330
2F7
100
AcDbEntity
  8
LAY-10
  6
CONTINUOUS
 62
     7
100
AcDbVertex
100
AcDb2dVertex
 10
557.0451213090435
 20
611.8877032929673
 30
0.0
  0
VERTEX
  5
334
330
2F7
100
AcDbEntity
  8
LAY-10
  6
CONTINUOUS
 62
     7
100
AcDbVertex
100
AcDb2dVertex
 10
556.999147474319
 20
611.8430254130127
 30
0.0
  0
VERTEX
  5
335
330
2F7
100
AcDbEntity
  8
LAY-10
  6
CONTINUOUS
 62
     7
100
AcDbVertex
100
AcDb2dVertex
 10
556.948094866473
 20
611.8097129336494
 30
0.0
  0
VERTEX
  5
336
330
2F7
100
AcDbEntity
  8
LAY-10
  6
CONTINUOUS
 62
     7
100
AcDbVertex
100
AcDb2dVertex
 10
556.8919634855044
 20
611.7877658548788
 30
0.0
  0
VERTEX
  5
337
330
2F7
100
AcDbEntity
  8
LAY-10
  6
CONTINUOUS
 62
     7
100
AcDbVertex
100
AcDb2dVertex
 10
556.8307533314144
 20
611.7771841767
 30
0.0
  0
VERTEX
  5
338
330
2F7
100
AcDbEntity
  8
LAY-10
  6
CONTINUOUS
 62
     7
100
AcDbVertex
100
AcDb2dVertex
 10
556.7644644042018
 20
611.7779678991134
 30
0.0
  0
VERTEX
  5
339
330
2F7
100
AcDbEntity
  8
LAY-10
  6
CONTINUOUS
 62
     7
100
AcDbVertex
100
AcDb2dVertex
 10
556.6930967038677
 20
611.7901170221186
 30
0.0
  0
VERTEX
  5
33A
330
2F7
100
AcDbEntity
  8
LAY-10
  6
CONTINUOUS
 62
     7
100
AcDbVertex
100
AcDb2dVertex
 10
556.6267825808843
 20
611.8111868778116
 30
0.0
  0
VERTEX
  5
33B
330
2F7
100
AcDbEntity
  8
LAY-10
  6
CONTINUOUS
 62
     7
100
AcDbVertex
100
AcDb2dVertex
 10
556.5698825082852
 20
611.8401253994963
 30
0.0
  0
VERTEX
  5
33C
330
2F7
100
AcDbEntity
  8
LAY-10
  6
CONTINUOUS
 62
     7
100
AcDbVertex
100
AcDb2dVertex
 10
556.5223964860722
 20
611.8769325871737
 30
0.0
  0
VERTEX
  5
33D
330
2F7
100
AcDbEntity
  8
LAY-10
  6
CONTINUOUS
 62
     7
100
AcDbVertex
100
AcDb2dVertex
 10
556.4843245142436
 20
611.9216084408432
 30
0.0
  0
VERTEX
  5
33E
330
2F7
100
AcDbEntity
  8
LAY-10
  6
CONTINUOUS
 62
     7
100
AcDbVertex
100
AcDb2dVertex
 10
556.455666592801
 20
611.974152960505
 30
0.0
  0
VERTEX
  5
33F
330
2F7
100
AcDbEntity
  8
LAY-10
  6
CONTINUOUS
 62
     7
100
AcDbVertex
100
AcDb2dVertex
 10
556.4364227217427
 20
612.0345661461589
 30
0.0
  0
VERTEX
  5
340
330
2F7
100
AcDbEntity
  8
LAY-10
  6
CONTINUOUS
 62
     7
100
AcDbVertex
100
AcDb2dVertex
 10
556.4265929010696
 20
612.102847997805
 30
0.0
  0
VERTEX
  5
341
330
2F7
100
AcDbEntity
  8
LAY-10
  6
CONTINUOUS
 62
     7
100
AcDbVertex
100
AcDb2dVertex
 10
556.4261771307818
 20
612.1789985154434
 30
0.0
  0
VERTEX
  5
342
330
2F7
100
AcDbEntity
  8
LAY-10
  6
CONTINUOUS
 62
     7
100
AcDbVertex
100
AcDb2dVertex
 10
556.4351754108791
 20
612.2630176990743
 30
0.0
  0
VERTEX
  5
343
330
2F7
100
AcDbEntity
  8
LAY-10
  6
CONTINUOUS
 62
     7
100
AcDbVertex
100
AcDb2dVertex
 10
556.4535877413607
 20
612.354905548697
 30
0.0
  0
VERTEX
  5
344
330
2F7
100
AcDbEntity
  8
LAY-10
  6
CONTINUOUS
 62
     7
100
AcDbVertex
100
AcDb2dVertex
 10
557.9555298829562
 20
618.579965459554
 30
0.0
  0
VERTEX
  5
345
330
2F7
100
AcDbEntity
  8
LAY-10
  6
CONTINUOUS
 62
     7
100
AcDbVertex
100
AcDb2dVertex
 10
557.9946643499413
 20
618.7166620158824
 30
0.0
  0
VERTEX
  5
346
330
2F7
100
AcDbEntity
  8
LAY-10
  6
CONTINUOUS
 62
     7
100
AcDbVertex
100
AcDb2dVertex
 10
558.0419209058607
 20
618.8360159096043
 30
0.0
  0
VERTEX
  5
347
330
2F7
100
AcDbEntity
  8
LAY-10
  6
CONTINUOUS
 62
     7
100
AcDbVertex
100
AcDb2dVertex
 10
558.0972995507107
 20
618.93802714072
 30
0.0
  0
VERTEX
  5
348
330
2F7
100
AcDbEntity
  8
LAY-10
  6
CONTINUOUS
 62
     7
100
AcDbVertex
100
AcDb2dVertex
 10
558.160800284493
 20
619.0226957092292
 30
0.0
  0
VERTEX
  5
349
330
2F7
100
AcDbEntity
  8
LAY-10
  6
CONTINUOUS
 62
     7
100
AcDbVertex
100
AcDb2dVertex
 10
558.2324231072059
 20
619.0900216151314
 30
0.0
  0
VERTEX
  5
34A
330
2F7
100
AcDbEntity
  8
LAY-10
  6
CONTINUOUS
 62
     7
100
AcDbVertex
100
AcDb2dVertex
 10
558.3121680188522
 20
619.1400048584279
 30
0.0
  0
VERTEX
  5
34B
330
2F7
100
AcDbEntity
  8
LAY-10
  6
CONTINUOUS
 62
     7
100
AcDbVertex
100
AcDb2dVertex
 10
558.400035019429
 20
619.1726454391152
 30
0.0
  0
VERTEX
  5
34C
330
2F7
100
AcDbEntity
  8
LAY-10
  6
CONTINUOUS
 62
     7
100
AcDbVertex
100
AcDb2dVertex
 10
558.4960241089373
 20
619.1879433571977
 30
0.0
  0
VERTEX
  5
34D
330
2F7
100
AcDbEntity
  8
LAY-10
  6
CONTINUOUS
 62
     7
100
AcDbVertex
100
AcDb2dVertex
 10
558.6001352873789
 20
619.1858986126732
 30
0.0
  0
VERTEX
  5
34E
330
2F7
100
AcDbEntity
  8
LAY-10
  6
CONTINUOUS
 62
     7
100
AcDbVertex
100
AcDb2dVertex
 10
558.712368554752
 20
619.1665112055422
 30
0.0
  0
VERTEX
  5
34F
330
2F7
100
AcDbEntity
  8
LAY-10
  6
CONTINUOUS
 62
     7
100
AcDbVertex
100
AcDb2dVertex
 10
562.1078558294519
 20
618.347270025192
 30
0.0
  0
SEQEND
  5
350
330
2F7
100
AcDbEntity
  8
LAY-10
  6
CONTINUOUS
 62
     7
  0
LINE
  5
351
330
1F
100
AcDbEntity
  8
LAY-10
  6
CONTINUOUS
 62
     7
100
AcDbLine
 10
567.8562806152347
 20
613.1929795889956
 30
0.0
 11
557.7702757798004
 21
623.6609759971353
 31
0.0
  0
LINE
  5
352
330
1F
100
AcDbEntity
  8
LAY-10
  6
CONTINUOUS
 62
     7
100
AcDbLine
 10
544.0205192889714
 20
618.9439177206074
 30
0.0
 11
557.7702757798004
 21
623.6609759971353
 31
0.0
  0
LINE
  5
353
330
1F
100
AcDbEntity
  8
LAY-10
  6
CONTINUOUS
 62
     7
100
AcDbLine
 10
567.8562806152347
 20
613.1929795889956
 30
0.0
 11
554.1065241244066
 21
608.475921312469
 31
0.0
  0
LINE
  5
354
330
1F
100
AcDbEntity
  8
LAY-10
  6
CONTINUOUS
 62
     7
100
AcDbLine
 10
544.0205192889714
 20
618.9439177206074
 30
0.0
 11
554.1065241244066
 21
608.475921312469
 31
0.0
  0
TEXT
  5
355
330
1F
100
AcDbEntity
  8
LAY-10
  6
CONTINUOUS
 62
     7
100
AcDbText
 10
574.5477844056785
 20
606.8023345386898
 30
0.0
 40
12.890625
  1
Ｆ
 50
351.042853
 41
0.6025244995892571
  7
EXCADSTD
100
AcDbText
  0
TEXT
  5
356
330
1F
100
AcDbEntity
  8
LAY-10
  6
CONTINUOUS
 62
     7
100
AcDbText
 10
589.3323799240715
 20
604.755758788047
 30
0.0
 40
12.890625
  1
Ｕ
 50
354.0285680000001
 41
0.7181605146619429
  7
EXCADSTD
100
AcDbText
  0
TEXT
  5
357
330
1F
100
AcDbEntity
  8
LAY-10
  6
CONTINUOUS
 62
     7
100
AcDbText
 10
605.288164408755
 20
603.2624572512885
 30
0.0
 40
12.890625
  1
Ｋ
 50
357.014284
 41
0.7729354691700572
  7
EXCADSTD
100
AcDbText
  0
TEXT
  5
358
330
1F
100
AcDbEntity
  8
LAY-10
  6
CONTINUOUS
 62
     7
100
AcDbText
 10
621.4212460937468
 20
602.7293749999995
 30
0.0
 40
12.890625
  1
Ｕ
 41
0.7181605146619429
  7
EXCADSTD
100
AcDbText
  0
TEXT
  5
359
330
1F
100
AcDbEntity
  8
LAY-10
  6
CONTINUOUS
 62
     7
100
AcDbText
 10
636.7291032852976
 20
602.8555529860996
 30
0.0
 40
12.890625
  1
Ｎ
 50
2.985716
 41
0.7181605146619429
  7
EXCADSTD
100
AcDbText
  0
TEXT
  5
35A
330
1F
100
AcDbEntity
  8
LAY-10
  6
CONTINUOUS
 62
     7
100
AcDbText
 10
655.7475156557438
 20
604.2542110357076
 30
0.0
 40
12.890625
  1
Ｉ
 50
5.971431999999998
 41
0.0973776969033144
  7
EXCADSTD
100
AcDbText
  0
TEXT
  5
35B
330
1F
100
AcDbEntity
  8
LAY-10
  6
CONTINUOUS
 62
     7
100
AcDbText
 10
668.4740582873045
 20
605.7442963952307
 30
0.0
 40
12.890625
  1
Ｓ
 50
8.957147000000028
 41
0.7080170045678477
  7
EXCADSTD
100
AcDbText
  0
TEXT
  5
35C
330
1F
100
AcDbEntity
  8
LAY-10
  6
CONTINUOUS
 62
     7
100
AcDbText
 10
683.5475210121234
 20
608.3882141087377
 30
0.0
 40
12.890625
  1
Ｈ
 50
11.94286300000003
 41
0.7181605146619429
  7
EXCADSTD
100
AcDbText
  0
TEXT
  5
35D
330
1F
100
AcDbEntity
  8
LAY-10
  6
CONTINUOUS
 62
     7
100
AcDbText
 10
702.1485001141887
 20
612.7004779197048
 30
0.0
 40
12.890625
  1
Ｉ
 50
14.92857900000003
 41
0.0973776969033144
  7
EXCADSTD
100
AcDbText
  0
TEXT
  5
35E
330
1F
100
AcDbEntity
  8
LAY-10
  6
CONTINUOUS
 62
     7
100
AcDbText
 10
693.0654555421745
 20
1189.399906503134
 30
0.0
 40
12.890625
  1
６
 50
345.7157821604
 41
0.6958447924549334
  7
EXCADSTD
100
AcDbText
  0
TEXT
  5
35F
330
1F
100
AcDbEntity
  8
LAY-10
  6
CONTINUOUS
 62
     7
100
AcDbText
 10
659.3913945478226
 20
1193.944142808905
 30
0.0
 40
15.46875
  1
Ｋ
 50
352.1969933446001
 41
0.772935040598606
  7
EXCADSTD
100
AcDbText
  0
TEXT
  5
360
330
1F
100
AcDbEntity
  8
LAY-10
  6
CONTINUOUS
 62
     7
100
AcDbText
 10
645.1245680818026
 20
1195.287750088516
 30
0.0
 40
15.46875
  1
０
 50
355.0404042184001
 41
0.7201888173556567
  7
EXCADSTD
100
AcDbText
  0
TEXT
  5
361
330
1F
100
AcDbEntity
  8
LAY-10
  6
CONTINUOUS
 62
     7
100
AcDbText
 10
630.7244314615115
 20
1195.929284381363
 30
0.0
 40
15.46875
  1
０
 50
357.8838150932
 41
0.7201888173556567
  7
EXCADSTD
100
AcDbText
  0
TEXT
  5
362
330
1F
100
AcDbEntity
  8
LAY-10
  6
CONTINUOUS
 62
     7
100
AcDbText
 10
616.3665547519955
 20
1195.856403593034
 30
0.0
 40
15.46875
  1
５
 50
0.727225967300022
 41
0.7120740137798183
  7
EXCADSTD
100
AcDbText
  0
TEXT
  5
363
330
1F
100
AcDbEntity
  8
LAY-10
  6
CONTINUOUS
 62
     7
100
AcDbText
 10
603.2392497835003
 20
1195.149628825567
 30
0.0
 40
15.46875
  1
１
 50
3.570636842000026
 41
0.3387930492912525
  7
EXCADSTD
100
AcDbText
  0
TEXT
  5
364
330
1F
100
AcDbEntity
  8
LAY-10
  6
CONTINUOUS
 62
     7
100
AcDbText
 10
586.8252711291085
 20
1193.480592714826
 30
0.0
 40
15.46875
  1
－
 50
6.414047716100026
 41
0.8297386656294748
  7
EXCADSTD
100
AcDbText
  0
TEXT
  5
365
330
1F
100
AcDbEntity
  8
LAY-10
  6
CONTINUOUS
 62
     7
100
AcDbText
 10
573.3375051523384
 20
1191.354727034487
 30
0.0
 40
15.46875
  1
０
 50
9.257458590300013
 41
0.7201888173556567
  7
EXCADSTD
100
AcDbText
  0
TEXT
  5
366
330
1F
100
AcDbEntity
  8
LAY-10
  6
CONTINUOUS
 62
     7
100
AcDbText
 10
559.2208535259036
 20
1188.439997580722
 30
0.0
 40
15.46875
  1
０
 50
12.10086946500001
 41
0.7201888173556567
  7
EXCADSTD
100
AcDbText
  0
TEXT
  5
367
330
1F
100
AcDbEntity
  8
LAY-10
  6
CONTINUOUS
 62
     7
100
AcDbText
 10
545.4295321030714
 20
1184.872180910291
 30
0.0
 40
15.46875
  1
６
 50
14.9442803392
 41
0.6958444066281414
  7
EXCADSTD
100
AcDbText
  0
LINE
  5
368
330
1F
100
AcDbEntity
  8
LAY-10
  6
CONTINUOUS
 62
     7
100
AcDbLine
 10
983.2810086830881
 20
271.748069469302
 30
0.0
 11
982.4999999994395
 21
265.5000000001098
 31
0.0
  0
ARC
  5
369
330
1F
100
AcDbEntity
  8
LAY-10
  6
CONTINUOUS
 62
     7
100
AcDbCircle
 10
985.2655644365152
 20
271.5000000001244
 30
0.0
 40
2.0
100
AcDbArc
 50
90.00000000000001
 51
172.8749836511051
  0
LINE
  5
36A
330
1F
100
AcDbEntity
  8
LAY-10
  6
CONTINUOUS
 62
     7
100
AcDbLine
 10
966.7189913157921
 20
271.748069469302
 30
0.0
 11
967.4999999994401
 21
265.5000000001098
 31
0.0
  0
ARC
  5
36B
330
1F
100
AcDbEntity
  8
LAY-10
  6
CONTINUOUS
 62
     7
100
AcDbCircle
 10
964.7344355623643
 20
271.5000000001244
 30
0.0
 40
2.0
100
AcDbArc
 50
7.125016348894955
 51
90.00000000000001
  0
ARC
  5
36C
330
1F
100
AcDbEntity
  8
LAY-10
  6
CONTINUOUS
 62
     7
100
AcDbCircle
 10
277.5325721895571
 20
271.5000000001244
 30
0.0
 40
2.0
100
AcDbArc
 50
90.00000000000001
 51
174.9999950830376
  0
LINE
  5
36D
330
1F
100
AcDbEntity
  8
LAY-10
  6
CONTINUOUS
 62
     7
100
AcDbLine
 10
274.9999999993971
 20
265.5000000001244
 30
0.0
 11
275.5401828083328
 21
271.6743116566001
 31
0.0
  0
ARC
  5
36E
330
1F
100
AcDbEntity
  8
LAY-10
  6
CONTINUOUS
 62
     7
100
AcDbCircle
 10
281.4174243044382
 20
271.500000000108
 30
0.0
 40
2.0
100
AcDbArc
 50
23.57817847802989
 51
89.99999999999837
  0
LINE
  5
36F
330
1F
100
AcDbEntity
  8
LAY-10
  6
CONTINUOUS
 62
     7
100
AcDbLine
 10
286.7943659994008
 20
273.5000000001244
 30
0.0
 11
277.5325721895571
 21
273.5000000001244
 31
0.0
  0
ARC
  5
370
330
1F
100
AcDbEntity
  8
LAY-10
  6
CONTINUOUS
 62
     7
100
AcDbCircle
 10
285.9999999994003
 20
273.5000000000935
 30
0.0
 40
3.0
100
AcDbArc
 50
203.5781784780273
 51
270.0
  0
LINE
  5
371
330
1F
100
AcDbEntity
  8
LAY-10
  6
HIDDEN
 62
     4
100
AcDbLine
 10
963.99999999944
 20
270.5000000000935
 30
0.0
 11
963.3366176571014
 21
270.5000000000935
 31
0.0
  0
LINE
  5
372
330
1F
100
AcDbEntity
  8
LAY-10
  6
CONTINUOUS
 62
     7
100
AcDbLine
 10
958.4999999994541
 20
315.500000000108
 30
0.0
 11
960.208587393783
 21
276.3669149013892
 31
0.0
  0
LINE
  5
373
330
1F
100
AcDbEntity
  8
LAY-10
  6
CONTINUOUS
 62
     7
100
AcDbLine
 10
291.4999999993862
 20
315.500000000108
 30
0.0
 11
289.6605270064839
 21
273.3691418379974
 31
0.0
  0
ARC
  5
374
330
1F
100
AcDbEntity
  8
LAY-10
  6
CONTINUOUS
 62
     7
100
AcDbCircle
 10
286.6633823417388
 20
273.5000000000935
 30
0.0
 40
3.0
100
AcDbArc
 50
270.0
 51
357.4999999999997
  0
LINE
  5
375
330
1F
100
AcDbEntity
  8
LAY-10
  6
CONTINUOUS
 62
     7
100
AcDbLine
 10
285.9999999994003
 20
270.5000000000935
 30
0.0
 11
286.6633823417388
 21
270.5000000000935
 31
0.0
  0
ARC
  5
376
330
1F
100
AcDbEntity
  8
LAY-10
  6
CONTINUOUS
 62
     7
100
AcDbCircle
 10
987.2344355623648
 20
271.5000000001244
 30
0.0
 40
2.0
100
AcDbArc
 50
7.125016348891688
 51
90.00000000000001
  0
LINE
  5
377
330
1F
100
AcDbEntity
  8
LAY-10
  6
CONTINUOUS
 62
     7
100
AcDbLine
 10
963.2056339994394
 20
273.5000000001244
 30
0.0
 11
987.2344355623643
 21
273.5000000001244
 31
0.0
  0
LINE
  5
378
330
1F
100
AcDbEntity
  8
LAY-10
  6
CONTINUOUS
 62
     7
100
AcDbLine
 10
989.2189913157921
 20
271.748069469302
 30
0.0
 11
989.9999999994401
 21
265.5000000001098
 31
0.0
  0
ARC
  5
379
330
1F
100
AcDbEntity
  8
LAY-10
  6
CONTINUOUS
 62
     7
100
AcDbCircle
 10
963.2056339994426
 20
276.5000000001244
 30
0.0
 40
3.000000000000003
100
AcDbArc
 50
182.5000000000008
 51
270.0000000000002
  0
ARC
  5
37A
330
1F
100
AcDbEntity
  8
LAY-10
  6
CONTINUOUS
 62
     7
100
AcDbCircle
 10
302.4432048708642
 20
278.5000000001271
 30
0.0
 40
3.0
100
AcDbArc
 50
183.0000000000013
 51
270.0
  0
LINE
  5
37B
330
1F
100
AcDbEntity
  8
LAY-10
  6
CONTINUOUS
 62
     7
100
AcDbLine
 10
297.4999999993989
 20
315.500000000108
 30
0.0
 11
299.4473162666005
 21
278.3429921313989
 31
0.0
  0
ARC
  5
37C
330
1F
100
AcDbEntity
  8
LAY-10
  6
CONTINUOUS
 62
     7
100
AcDbCircle
 10
286.7943659993977
 20
276.5000000001244
 30
0.0
 40
3.000000000000003
100
AcDbArc
 50
270.0
 51
357.4999999999993
  0
ARC
  5
37D
330
1F
100
AcDbEntity
  8
LAY-10
  6
CONTINUOUS
 62
     7
100
AcDbCircle
 10
947.5567951279761
 20
278.5000000001271
 30
0.0
 40
3.0
100
AcDbArc
 50
270.0
 51
357.0000000000003
  0
LINE
  5
37E
330
1F
100
AcDbEntity
  8
LAY-10
  6
CONTINUOUS
 62
     7
100
AcDbLine
 10
952.4999999994413
 20
315.500000000108
 30
0.0
 11
950.5526837322398
 21
278.3429921313989
 31
0.0
  0
LINE
  5
37F
330
1F
100
AcDbEntity
  8
LAY-10
  6
CONTINUOUS
 62
     7
100
AcDbLine
 10
932.4999999994416
 20
291.500000000108
 30
0.0
 11
933.1895295638501
 21
278.3429921313989
 31
0.0
  0
LINE
  5
380
330
1F
100
AcDbEntity
  8
LAY-10
  6
CONTINUOUS
 62
     7
100
AcDbLine
 10
936.1854181681139
 20
275.5000000001271
 30
0.0
 11
947.5567951279761
 21
275.5000000001271
 31
0.0
  0
ARC
  5
381
330
1F
100
AcDbEntity
  8
LAY-10
  6
CONTINUOUS
 62
     7
100
AcDbCircle
 10
936.1854181681139
 20
278.5000000001271
 30
0.0
 40
3.0
100
AcDbArc
 50
182.9999999999991
 51
270.0
  0
LINE
  5
382
330
1F
100
AcDbEntity
  8
LAY-10
  6
CONTINUOUS
 62
     7
100
AcDbLine
 10
313.8145818307263
 20
275.5000000001271
 30
0.0
 11
302.4432048708642
 21
275.5000000001271
 31
0.0
  0
ARC
  5
383
330
1F
100
AcDbEntity
  8
LAY-10
  6
CONTINUOUS
 62
     7
100
AcDbCircle
 10
313.8145818307263
 20
278.5000000001271
 30
0.0
 40
3.0
100
AcDbArc
 50
270.0
 51
357.0000000000031
  0
LINE
  5
384
330
1F
100
AcDbEntity
  8
LAY-10
  6
CONTINUOUS
 62
     7
100
AcDbLine
 10
323.4999999993984
 20
291.500000000108
 30
0.0
 11
324.999999999398
 21
265.500000000108
 31
0.0
  0
LINE
  5
385
330
1F
100
AcDbEntity
  8
LAY-10
  6
CONTINUOUS
 62
     7
100
AcDbLine
 10
297.4999999993989
 20
315.5000000001081
 30
0.0
 11
291.4999999993871
 21
315.500000000108
 31
0.0
  0
LINE
  5
386
330
1F
100
AcDbEntity
  8
LAY-10
  6
CONTINUOUS
 62
     7
100
AcDbLine
 10
624.99999999942
 20
320.1728961018381
 30
0.0
 11
299.9999999978864
 21
314.5000000001302
 31
0.0
  0
LINE
  5
387
330
1F
100
AcDbEntity
  8
LAY-10
  6
CONTINUOUS
 62
     7
100
AcDbLine
 10
404.99999999942
 20
310.2455064929806
 30
0.0
 11
404.99999999942
 21
303.2455064929815
 31
0.0
  0
ARC
  5
388
330
1F
100
AcDbEntity
  8
LAY-10
  6
CONTINUOUS
 62
     7
100
AcDbCircle
 10
401.99999999942
 20
303.2455064929815
 30
0.0
 40
3.0
100
AcDbArc
 50
270.0
 51
0.0
  0
LINE
  5
389
330
1F
100
AcDbEntity
  8
LAY-10
  6
CONTINUOUS
 62
     7
100
AcDbLine
 10
401.99999999942
 20
300.2455064929815
 30
0.0
 11
397.99999999942
 21
300.2455064929815
 31
0.0
  0
LINE
  5
38A
330
1F
100
AcDbEntity
  8
LAY-10
  6
CONTINUOUS
 62
     7
100
AcDbLine
 10
394.99999999942
 20
310.2455064929806
 30
0.0
 11
394.99999999942
 21
303.2455064929815
 31
0.0
  0
ARC
  5
38B
330
1F
100
AcDbEntity
  8
LAY-10
  6
CONTINUOUS
 62
     7
100
AcDbCircle
 10
397.99999999942
 20
303.2455064929815
 30
0.0
 40
3.0
100
AcDbArc
 50
180.0
 51
270.0
  0
LINE
  5
38C
330
1F
100
AcDbEntity
  8
LAY-10
  6
CONTINUOUS
 62
     7
100
AcDbLine
 10
432.99999999942
 20
310.2455064929806
 30
0.0
 11
432.99999999942
 21
316.8215236356087
 31
0.0
  0
LINE
  5
38D
330
1F
100
AcDbEntity
  8
LAY-10
  6
CONTINUOUS
 62
     7
100
AcDbLine
 10
366.9999999994199
 20
315.6694893503483
 30
0.0
 11
366.9999999994199
 21
310.2455064929806
 31
0.0
  0
LINE
  5
38E
330
1F
100
AcDbEntity
  8
LAY-10
  6
CONTINUOUS
 62
     7
100
AcDbLine
 10
371.9999999994208
 20
308.2455064929801
 30
0.0
 11
371.9999999994208
 21
310.2455064929806
 31
0.0
  0
LINE
  5
38F
330
1F
100
AcDbEntity
  8
LAY-10
  6
CONTINUOUS
 62
     7
100
AcDbLine
 10
427.9999999994209
 20
308.2455064929801
 30
0.0
 11
427.9999999994209
 21
310.2455064929806
 31
0.0
  0
LINE
  5
390
330
1F
100
AcDbEntity
  8
LAY-10
  6
CONTINUOUS
 62
     7
100
AcDbLine
 10
432.9999999994209
 20
310.2455064929806
 30
0.0
 11
427.9999999994209
 21
310.2455064929806
 31
0.0
  0
LINE
  5
391
330
1F
100
AcDbEntity
  8
LAY-10
  6
CONTINUOUS
 62
     7
100
AcDbLine
 10
404.99999999942
 20
310.2455064929806
 30
0.0
 11
394.99999999942
 21
310.2455064929806
 31
0.0
  0
LINE
  5
392
330
1F
100
AcDbEntity
  8
LAY-10
  6
CONTINUOUS
 62
     7
100
AcDbLine
 10
371.9999999994208
 20
310.2455064929806
 30
0.0
 11
366.9999999994208
 21
310.2455064929806
 31
0.0
  0
ARC
  5
393
330
1F
100
AcDbEntity
  8
LAY-10
  6
CONTINUOUS
 62
     7
100
AcDbCircle
 10
416.5227116412782
 20
292.2455064929806
 30
0.0
 40
5.0
100
AcDbArc
 50
270.0
 51
315.9207901521117
  0
LINE
  5
394
330
1F
100
AcDbEntity
  8
LAY-10
  6
CONTINUOUS
 62
     7
100
AcDbLine
 10
416.5227116412782
 20
287.2455064929806
 30
0.0
 11
383.4772883575626
 21
287.2455064929806
 31
0.0
  0
ARC
  5
395
330
1F
100
AcDbEntity
  8
LAY-10
  6
CONTINUOUS
 62
     7
100
AcDbCircle
 10
383.4772883575626
 20
292.2455064929806
 30
0.0
 40
5.0
100
AcDbArc
 50
224.0792098478883
 51
270.0
  0
ARC
  5
396
330
1F
100
AcDbEntity
  8
LAY-10
  6
CONTINUOUS
 62
     7
100
AcDbCircle
 10
399.9999999994209
 20
308.2455064929801
 30
0.0
 40
27.99999999999931
100
AcDbArc
 50
315.9207901521118
 51
0.0000000000011459
  0
ARC
  5
397
330
1F
100
AcDbEntity
  8
LAY-10
  6
CONTINUOUS
 62
     7
100
AcDbCircle
 10
399.9999999994209
 20
308.2455064929801
 30
0.0
 40
27.99999999999931
100
AcDbArc
 50
179.9999999999989
 51
224.0792098478882
  0
ARC
  5
398
330
1F
100
AcDbEntity
  8
LAY-10
  6
CONTINUOUS
 62
     7
100
AcDbCircle
 10
381.4797408219694
 20
287.2455064929796
 30
0.0
 40
5.0
100
AcDbArc
 50
228.5903778907312
 51
270.0
  0
LINE
  5
399
330
1F
100
AcDbEntity
  8
LAY-10
  6
CONTINUOUS
 62
     7
100
AcDbLine
 10
418.5202591768714
 20
282.2455064929796
 30
0.0
 11
381.4797408219694
 21
282.2455064929796
 31
0.0
  0
ARC
  5
39A
330
1F
100
AcDbEntity
  8
LAY-10
  6
CONTINUOUS
 62
     7
100
AcDbCircle
 10
418.5202591768714
 20
287.2455064929796
 30
0.0
 40
5.0
100
AcDbArc
 50
270.0
 51
311.409622109269
  0
LINE
  5
39B
330
1F
100
AcDbEntity
  8
LAY-10
  6
CONTINUOUS
 62
     7
100
AcDbLine
 10
624.9999999994209
 20
320.1728961018381
 30
0.0
 11
950.0000000009534
 21
314.5000000001302
 31
0.0
  0
LINE
  5
39C
330
1F
100
AcDbEntity
  8
LAY-10
  6
CONTINUOUS
 62
     7
100
AcDbLine
 10
299.9999999978864
 20
314.5000000001302
 30
0.0
 11
299.9999999978864
 21
304.5000000001311
 31
0.0
  0
LINE
  5
39D
330
1F
100
AcDbEntity
  8
LAY-10
  6
CONTINUOUS
 62
     7
100
AcDbLine
 10
301.5642205448231
 20
303.5688020917428
 30
0.0
 11
303.499999999338
 21
275.5000000001302
 31
0.0
  0
LINE
  5
39E
330
1F
100
AcDbEntity
  8
LAY-10
  6
CONTINUOUS
 62
     7
100
AcDbLine
 10
300.5665902164002
 20
304.5000000001302
 30
0.0
 11
299.9999999978864
 21
304.5000000001302
 31
0.0
  0
ARC
  5
39F
330
1F
100
AcDbEntity
  8
LAY-10
  6
CONTINUOUS
 62
     7
100
AcDbCircle
 10
300.5665902164002
 20
303.5000000001302
 30
0.0
 40
1.0
100
AcDbArc
 50
3.945186228875382
 51
90.00000000000001
  0
LINE
  5
3A0
330
1F
100
AcDbEntity
  8
LAY-10
  6
CONTINUOUS
 62
     7
100
AcDbLine
 10
950.0000000009534
 20
314.5000000001301
 30
0.0
 11
950.0000000009534
 21
304.500000000131
 31
0.0
  0
LINE
  5
3A1
330
1F
100
AcDbEntity
  8
LAY-10
  6
CONTINUOUS
 62
     7
100
AcDbLine
 10
948.4357794540167
 20
303.5688020917427
 30
0.0
 11
946.4999999995018
 21
275.5000000001301
 31
0.0
  0
LINE
  5
3A2
330
1F
100
AcDbEntity
  8
LAY-10
  6
CONTINUOUS
 62
     7
100
AcDbLine
 10
949.4334097824396
 20
304.5000000001302
 30
0.0
 11
950.0000000009534
 21
304.5000000001302
 31
0.0
  0
ARC
  5
3A3
330
1F
100
AcDbEntity
  8
LAY-10
  6
CONTINUOUS
 62
     7
100
AcDbCircle
 10
949.4334097824396
 20
303.5000000001302
 30
0.0
 40
1.0
100
AcDbArc
 50
90.00000000000001
 51
176.0548137711245
  0
LINE
  5
3A4
330
1F
100
AcDbEntity
  8
LAY-10
  6
CONTINUOUS
 62
     7
100
AcDbLine
 10
940.5000000008279
 20
275.5000000001301
 30
0.0
 11
939.1087388608505
 21
299.6151930704543
 31
0.0
  0
LINE
  5
3A5
330
1F
100
AcDbEntity
  8
LAY-10
  6
CONTINUOUS
 62
     7
100
AcDbLine
 10
922.5000000009125
 20
301.5000000001532
 30
0.0
 11
937.1120589775057
 21
301.5000000001532
 31
0.0
  0
ARC
  5
3A6
330
1F
100
AcDbEntity
  8
LAY-10
  6
CONTINUOUS
 62
     7
100
AcDbCircle
 10
937.1120589775057
 20
299.5000000001532
 30
0.0
 40
2.0
100
AcDbArc
 50
3.301865677524909
 51
90.00000000000001
  0
LINE
  5
3A7
330
1F
100
AcDbEntity
  8
LAY-10
  6
CONTINUOUS
 62
     7
100
AcDbLine
 10
309.499999998012
 20
275.5000000001302
 30
0.0
 11
310.8912611379893
 21
299.6151930704543
 31
0.0
  0
ARC
  5
3A8
330
1F
100
AcDbEntity
  8
LAY-10
  6
CONTINUOUS
 62
     7
100
AcDbCircle
 10
399.9999999994209
 20
308.2455064929801
 30
0.0
 40
32.99999999999932
100
AcDbArc
 50
197.9014261880716
 51
228.5903778907316
  0
ARC
  5
3A9
330
1F
100
AcDbEntity
  8
LAY-10
  6
CONTINUOUS
 62
     7
100
AcDbCircle
 10
359.0817696220212
 20
295.0281534000954
 30
0.0
 40
10.0
100
AcDbArc
 50
17.90142618807171
 51
91.00000000000178
  0
ARC
  5
3AA
330
1F
100
AcDbEntity
  8
LAY-10
  6
CONTINUOUS
 62
     7
100
AcDbCircle
 10
399.9999999994209
 20
308.2455064929801
 30
0.0
 40
32.99999999999932
100
AcDbArc
 50
311.4096221092684
 51
344.0985738119321
  0
ARC
  5
3AB
330
1F
100
AcDbEntity
  8
LAY-10
  6
CONTINUOUS
 62
     7
100
AcDbCircle
 10
441.3545830671299
 20
296.4642307006095
 30
0.0
 40
10.0
100
AcDbArc
 50
91.00000000000178
 51
164.0985738119319
  0
LINE
  5
3AC
330
1F
100
AcDbEntity
  8
LAY-10
  6
CONTINUOUS
 62
     7
100
AcDbLine
 10
329.6752179379083
 20
304.5163834115723
 30
0.0
 11
358.907245557648
 21
305.0266303516593
 31
0.0
  0
LINE
  5
3AD
330
1F
100
AcDbEntity
  8
LAY-10
  6
CONTINUOUS
 62
     7
100
AcDbLine
 10
922.2594927540815
 20
302.8639843765933
 30
0.0
 11
922.5000000009135
 21
301.5000000001492
 31
0.0
  0
ARC
  5
3AE
330
1F
100
AcDbEntity
  8
LAY-10
  6
CONTINUOUS
 62
     7
100
AcDbCircle
 10
920.2898772480569
 20
302.5166880212593
 30
0.0
 40
2.0
100
AcDbArc
 50
10.00000000000504
 51
88.99999999999821
  0
LINE
  5
3AF
330
1F
100
AcDbEntity
  8
LAY-10
  6
CONTINUOUS
 62
     7
100
AcDbLine
 10
917.5000000009252
 20
296.5000000001706
 30
0.0
 11
922.5000000009125
 21
301.500000000158
 31
0.0
  0
LINE
  5
3B0
330
1F
100
AcDbEntity
  8
LAY-10
  6
CONTINUOUS
 62
     7
100
AcDbLine
 10
952.4999999994401
 20
315.5000000001102
 30
0.0
 11
958.49999999945
 21
315.5000000001102
 31
0.0
  0
LINE
  5
3B1
330
1F
100
AcDbEntity
  8
LAY-10
  6
CONTINUOUS
 62
     7
100
AcDbLine
 10
926.4999999994416
 20
291.500000000108
 30
0.0
 11
924.9999999994416
 21
265.500000000108
 31
0.0
  0
LINE
  5
3B2
330
1F
100
AcDbEntity
  8
LAY-10
  6
CONTINUOUS
 62
     7
100
AcDbLine
 10
274.9999999994003
 20
265.500000000108
 30
0.0
 11
989.99999999942
 21
265.5000000001081
 31
0.0
  0
LINE
  5
3B3
330
1F
100
AcDbEntity
  8
LAY-10
  6
CONTINUOUS
 62
     7
100
AcDbLine
 10
527.49999999942
 20
275.5000000001302
 30
0.0
 11
424.8680683942999
 21
286.5526695575403
 31
0.0
  0
LINE
  5
3B4
330
1F
100
AcDbEntity
  8
LAY-10
  6
CONTINUOUS
 62
     7
100
AcDbLine
 10
706.2169528037566
 20
303.7270383047234
 30
0.0
 11
707.4132188776853
 21
277.4091846782929
 31
0.0
  0
ARC
  5
3B5
330
1F
100
AcDbEntity
  8
LAY-10
  6
CONTINUOUS
 62
     7
100
AcDbCircle
 10
709.411155958106
 20
277.5000000001302
 30
0.0
 40
2.0
100
AcDbArc
 50
182.6025622024993
 51
270.0
  0
ARC
  5
3B6
330
1F
100
AcDbEntity
  8
LAY-10
  6
CONTINUOUS
 62
     7
100
AcDbCircle
 10
720.5903326749444
 20
277.5000000001302
 30
0.0
 40
2.0
100
AcDbArc
 50
270.0
 51
357.3528385246282
  0
LINE
  5
3B7
330
1F
100
AcDbEntity
  8
LAY-10
  6
CONTINUOUS
 62
     7
100
AcDbLine
 10
723.7756188854294
 20
303.0901442254579
 30
0.0
 11
722.5881984590603
 21
277.407629503437
 31
0.0
  0
ARC
  5
3B8
330
1F
100
AcDbEntity
  8
LAY-10
  6
CONTINUOUS
 62
     7
100
AcDbCircle
 10
728.7702833457187
 20
302.859217983725
 30
0.0
 40
5.0
100
AcDbArc
 50
88.99999999999821
 51
177.3528385246289
  0
ARC
  5
3B9
330
1F
100
AcDbEntity
  8
LAY-10
  6
CONTINUOUS
 62
     7
100
AcDbCircle
 10
701.2221101027052
 20
303.5000000001302
 30
0.0
 40
5.0
100
AcDbArc
 50
2.602562202499634
 51
90.00000000000001
  0
ARC
  5
3BA
330
1F
100
AcDbEntity
  8
LAY-10
  6
CONTINUOUS
 62
     7
100
AcDbCircle
 10
548.7778898961348
 20
303.5000000001302
 30
0.0
 40
5.0
100
AcDbArc
 50
90.00000000000001
 51
177.3974377975003
  0
LINE
  5
3BB
330
1F
100
AcDbEntity
  8
LAY-10
  6
CONTINUOUS
 62
     7
100
AcDbLine
 10
543.7830471950833
 20
303.7270383047234
 30
0.0
 11
542.5867811211547
 21
277.4091846782929
 31
0.0
  0
ARC
  5
3BC
330
1F
100
AcDbEntity
  8
LAY-10
  6
CONTINUOUS
 62
     7
100
AcDbCircle
 10
521.2297166531212
 20
302.859217983725
 30
0.0
 40
5.0
100
AcDbArc
 50
2.647161475371187
 51
91.00000000000178
  0
LINE
  5
3BD
330
1F
100
AcDbEntity
  8
LAY-10
  6
CONTINUOUS
 62
     7
100
AcDbLine
 10
526.2243811134106
 20
303.0901442254579
 30
0.0
 11
527.4118015397796
 21
277.407629503437
 31
0.0
  0
ARC
  5
3BE
330
1F
100
AcDbEntity
  8
LAY-10
  6
CONTINUOUS
 62
     7
100
AcDbCircle
 10
529.4096673238955
 20
277.5000000001302
 30
0.0
 40
2.0
100
AcDbArc
 50
182.6471614753719
 51
270.0
  0
LINE
  5
3BF
330
1F
100
AcDbEntity
  8
LAY-10
  6
CONTINUOUS
 62
     7
100
AcDbLine
 10
371.083403081269
 20
292.3448642835255
 30
0.0
 11
332.4999999979151
 21
296.5000000001702
 31
0.0
  0
ARC
  5
3C0
330
1F
100
AcDbEntity
  8
LAY-10
  6
CONTINUOUS
 62
     7
100
AcDbCircle
 10
540.5888440407344
 20
277.5000000001302
 30
0.0
 40
2.0
100
AcDbArc
 50
270.0
 51
357.3974377975023
  0
LINE
  5
3C1
330
1F
100
AcDbEntity
  8
LAY-10
  6
CONTINUOUS
 62
     7
100
AcDbLine
 10
920.32478206093
 20
304.5163834115723
 30
0.0
 11
728.85754537791
 21
307.8584564595069
 31
0.0
  0
LINE
  5
3C2
330
1F
100
AcDbEntity
  8
LAY-10
  6
CONTINUOUS
 62
     7
100
AcDbLine
 10
441.1800590027568
 20
306.4627076521734
 30
0.0
 11
521.1424546209299
 21
307.858456459507
 31
0.0
  0
LINE
  5
3C3
330
1F
100
AcDbEntity
  8
LAY-10
  6
CONTINUOUS
 62
     7
100
AcDbLine
 10
722.49999999942
 20
275.5000000001302
 30
0.0
 11
917.50000000093
 21
296.5000000001708
 31
0.0
  0
LINE
  5
3C4
330
1F
100
AcDbEntity
  8
LAY-10
  6
CONTINUOUS
 62
     7
100
AcDbLine
 10
527.49999999942
 20
275.5000000001302
 30
0.0
 11
722.49999999942
 21
275.5000000001302
 31
0.0
  0
LINE
  5
3C5
330
1F
100
AcDbEntity
  8
LAY-10
  6
CONTINUOUS
 62
     7
100
AcDbLine
 10
932.4999999994197
 20
291.500000000108
 30
0.0
 11
926.4999999994416
 21
291.500000000108
 31
0.0
  0
LINE
  5
3C6
330
1F
100
AcDbEntity
  8
LAY-10
  6
CONTINUOUS
 62
     7
100
AcDbLine
 10
932.4999999994287
 20
291.500000000108
 30
0.0
 11
926.4999999994286
 21
291.500000000108
 31
0.0
  0
LINE
  5
3C7
330
1F
100
AcDbEntity
  8
LAY-10
  6
CONTINUOUS
 62
     7
100
AcDbLine
 10
926.1986510452671
 20
291.053951380262
 30
0.0
 11
925.976631264412
 21
289.0083734240216
 31
0.0
  0
LINE
  5
3C8
330
1F
100
AcDbEntity
  8
LAY-10
  6
CONTINUOUS
 62
     7
100
AcDbLine
 10
932.7934011805786
 20
291.0452679083359
 30
0.0
 11
932.979766066984
 21
288.9952557653266
 31
0.0
  0
ARC
  5
3C9
330
1F
100
AcDbEntity
  8
LAY-10
  6
CONTINUOUS
 62
     7
100
AcDbCircle
 10
924.699999999446
 20
298.25000000011
 30
0.0
 40
1.8
100
AcDbArc
 50
95.96292243996122
 51
243.7545407684302
  0
ARC
  5
3CA
330
1F
100
AcDbEntity
  8
LAY-10
  6
CONTINUOUS
 62
     7
100
AcDbCircle
 10
927.4543962520963
 20
296.000000000108
 30
0.0
 40
1.0
100
AcDbArc
 50
243.7545407684272
 51
270.0
  0
LINE
  5
3CB
330
1F
100
AcDbEntity
  8
LAY-10
  6
CONTINUOUS
 62
     7
100
AcDbLine
 10
923.9040083006435
 20
296.6355659768569
 30
0.0
 11
927.0121786416503
 21
295.1030922094119
 31
0.0
  0
ARC
  5
3CC
330
1F
100
AcDbEntity
  8
LAY-10
  6
CONTINUOUS
 62
     7
100
AcDbCircle
 10
929.4999999994485
 20
252.2950000000571
 30
0.0
 40
48.00500000005277
100
AcDbArc
 50
84.03707756004043
 51
95.96292243996048
  0
ARC
  5
3CD
330
1F
100
AcDbEntity
  8
LAY-10
  6
CONTINUOUS
 62
     7
100
AcDbCircle
 10
924.2347295901618
 20
294.7057103211913
 30
0.0
 40
0.574698012678255
100
AcDbArc
 50
308.1185061700329
 51
82.52136038097277
  0
ARC
  5
3CE
330
1F
100
AcDbEntity
  8
LAY-10
  6
CONTINUOUS
 62
     7
100
AcDbCircle
 10
929.4999999994485
 20
252.2950000000571
 30
0.0
 40
49.20500000005277
100
AcDbArc
 50
84.03707756004043
 51
95.96292243996048
  0
LINE
  5
3CF
330
1F
100
AcDbEntity
  8
LAY-10
  6
CONTINUOUS
 62
     7
100
AcDbLine
 10
931.545603746798
 20
295.000000000108
 30
0.0
 11
927.4543962520963
 21
295.000000000108
 31
0.0
  0
ARC
  5
3D0
330
1F
100
AcDbEntity
  8
LAY-10
  6
CONTINUOUS
 62
     7
100
AcDbCircle
 10
932.2499999994486
 20
291.5000000001075
 30
0.0
 40
3.5
100
AcDbArc
 50
5.194432958501778
 51
51.88149382977241
  0
ARC
  5
3D1
330
1F
100
AcDbEntity
  8
LAY-10
  6
CONTINUOUS
 62
     7
100
AcDbCircle
 10
926.7499999994476
 20
291.5000000001087
 30
0.0
 40
3.5
100
AcDbArc
 50
128.1185061700335
 51
173.8055670414981
  0
LINE
  5
3D2
330
1F
100
AcDbEntity
  8
LAY-10
  6
CONTINUOUS
 62
     7
100
AcDbLine
 10
935.735626199683
 20
291.8168753576874
 30
0.0
 11
936.4758725147781
 21
283.6741722764841
 31
0.0
  0
ARC
  5
3D3
330
1F
100
AcDbEntity
  8
LAY-10
  6
CONTINUOUS
 62
     7
100
AcDbCircle
 10
935.4799793147113
 20
283.5836364600327
 30
0.0
 40
1.0
100
AcDbArc
 50
232.86604083824
 51
5.194432958501033
  0
LINE
  5
3D4
330
1F
100
AcDbEntity
  8
LAY-10
  6
CONTINUOUS
 62
     7
100
AcDbLine
 10
934.8762987056011
 20
282.7864101921612
 30
0.0
 11
933.082656984632
 21
284.14460267813
 31
0.0
  0
ARC
  5
3D5
330
1F
100
AcDbEntity
  8
LAY-10
  6
CONTINUOUS
 62
     7
100
AcDbCircle
 10
933.384497289187
 20
284.5432158120658
 30
0.0
 40
0.5
100
AcDbArc
 50
95.19443295895869
 51
232.866040838247
  0
LINE
  5
3D6
330
1F
100
AcDbEntity
  8
LAY-10
  6
CONTINUOUS
 62
     7
100
AcDbLine
 10
933.0703018834354
 20
287.9993625652598
 30
0.0
 11
933.3392293809575
 21
285.0411624120989
 31
0.0
  0
ARC
  5
3D7
330
1F
100
AcDbEntity
  8
LAY-10
  6
CONTINUOUS
 62
     7
100
AcDbCircle
 10
933.0250339752138
 20
288.4973091652937
 30
0.0
 40
0.5
100
AcDbArc
 50
95.19443295898522
 51
275.194432958017
  0
LINE
  5
3D8
330
1F
100
AcDbEntity
  8
LAY-10
  6
CONTINUOUS
 62
     7
100
AcDbLine
 10
923.270434914497
 20
291.8776596611717
 30
0.0
 11
922.3881915788297
 21
283.7491158326425
 31
0.0
  0
ARC
  5
3D9
330
1F
100
AcDbEntity
  8
LAY-10
  6
CONTINUOUS
 62
     7
100
AcDbCircle
 10
923.3823530316727
 20
283.6412130723388
 30
0.0
 40
1.0
100
AcDbArc
 50
173.8055670414987
 51
306.1339591617602
  0
LINE
  5
3DA
330
1F
100
AcDbEntity
  8
LAY-10
  6
CONTINUOUS
 62
     7
100
AcDbLine
 10
923.9720281804525
 20
282.8335725465408
 30
0.0
 11
925.7891004483849
 21
284.1602548088983
 31
0.0
  0
ARC
  5
3DB
330
1F
100
AcDbEntity
  8
LAY-10
  6
CONTINUOUS
 62
     7
100
AcDbCircle
 10
925.4942628739951
 20
284.5640750717973
 30
0.0
 40
0.5
100
AcDbArc
 50
306.1339591617556
 51
83.8055670410415
  0
LINE
  5
3DC
330
1F
100
AcDbEntity
  8
LAY-10
  6
CONTINUOUS
 62
     7
100
AcDbLine
 10
925.8687285041083
 20
288.0142119711786
 30
0.0
 11
925.5482142541509
 21
285.0611557982184
 31
0.0
  0
ARC
  5
3DD
330
1F
100
AcDbEntity
  8
LAY-10
  6
CONTINUOUS
 62
     7
100
AcDbCircle
 10
925.922679884256
 20
288.5112926976005
 30
0.0
 40
0.5
100
AcDbArc
 50
263.805567041983
 51
83.8055670410148
  0
ARC
  5
3DE
330
1F
100
AcDbEntity
  8
LAY-10
  6
CONTINUOUS
 62
     7
100
AcDbCircle
 10
926.6957317716885
 20
291.0000000001102
 30
0.0
 40
0.5
100
AcDbArc
 50
90.00000000000001
 51
173.8055670415016
  0
LINE
  5
3DF
330
1F
100
AcDbEntity
  8
LAY-10
  6
CONTINUOUS
 62
     7
100
AcDbLine
 10
932.2954545805451
 20
291.5000000001102
 30
0.0
 11
926.6957317716885
 21
291.5000000001102
 31
0.0
  0
ARC
  5
3E0
330
1F
100
AcDbEntity
  8
LAY-10
  6
CONTINUOUS
 62
     7
100
AcDbCircle
 10
932.2954545805451
 20
291.0000000001102
 30
0.0
 40
0.5
100
AcDbArc
 50
5.194432958502293
 51
90.00000000000001
  0
ARC
  5
3E1
330
1F
100
AcDbEntity
  8
LAY-10
  6
CONTINUOUS
 62
     7
100
AcDbCircle
 10
924.699999999446
 20
298.25000000011
 30
0.0
 40
3.0
100
AcDbArc
 50
95.96292243996042
 51
262.5213603809735
  0
ARC
  5
3E2
330
1F
100
AcDbEntity
  8
LAY-10
  6
CONTINUOUS
 62
     7
100
AcDbCircle
 10
934.2999999994499
 20
298.25000000011
 30
0.0
 40
3.0
100
AcDbArc
 50
277.6299213011758
 51
84.03707756003955
  0
ARC
  5
3E3
330
1F
100
AcDbEntity
  8
LAY-10
  6
CONTINUOUS
 62
     7
100
AcDbCircle
 10
931.5456037467995
 20
296.000000000108
 30
0.0
 40
1.0
100
AcDbArc
 50
270.0
 51
296.2454592315728
  0
ARC
  5
3E4
330
1F
100
AcDbEntity
  8
LAY-10
  6
CONTINUOUS
 62
     7
100
AcDbCircle
 10
934.2999999994499
 20
298.25000000011
 30
0.0
 40
1.8
100
AcDbArc
 50
296.2454592315698
 51
84.03707756003881
  0
LINE
  5
3E5
330
1F
100
AcDbEntity
  8
LAY-10
  6
CONTINUOUS
 62
     7
100
AcDbLine
 10
931.9878213572457
 20
295.1030922094119
 30
0.0
 11
935.0959916982524
 21
296.6355659768569
 31
0.0
  0
ARC
  5
3E6
330
1F
100
AcDbEntity
  8
LAY-10
  6
CONTINUOUS
 62
     7
100
AcDbCircle
 10
934.7652704087473
 20
294.7057103211839
 30
0.0
 40
0.574698012687244
100
AcDbArc
 50
97.4786396192178
 51
231.8814938297725
  0
LINE
  5
3E7
330
1F
100
AcDbEntity
  8
LAY-10
  6
CONTINUOUS
 62
     7
100
AcDbLine
 10
317.4999999993985
 20
291.500000000108
 30
0.0
 11
316.81047043499
 21
278.3429921313989
 31
0.0
  0
LINE
  5
3E8
330
1F
100
AcDbEntity
  8
LAY-10
  6
CONTINUOUS
 62
     7
100
AcDbLine
 10
323.4999999993984
 20
291.500000000108
 30
0.0
 11
317.4999999993985
 21
291.500000000108
 31
0.0
  0
LINE
  5
3E9
330
1F
100
AcDbEntity
  8
LAY-10
  6
CONTINUOUS
 62
     7
100
AcDbLine
 10
317.1986510452372
 20
291.053951380262
 30
0.0
 11
316.976631264382
 21
289.0083734240216
 31
0.0
  0
LINE
  5
3EA
330
1F
100
AcDbEntity
  8
LAY-10
  6
CONTINUOUS
 62
     7
100
AcDbLine
 10
323.7934011805483
 20
291.0452679083359
 30
0.0
 11
323.9797660669539
 21
288.9952557653266
 31
0.0
  0
ARC
  5
3EB
330
1F
100
AcDbEntity
  8
LAY-10
  6
CONTINUOUS
 62
     7
100
AcDbCircle
 10
322.5456037467694
 20
296.000000000108
 30
0.0
 40
1.0
100
AcDbArc
 50
270.0
 51
296.2454592315728
  0
ARC
  5
3EC
330
1F
100
AcDbEntity
  8
LAY-10
  6
CONTINUOUS
 62
     7
100
AcDbCircle
 10
325.29999999942
 20
298.25000000011
 30
0.0
 40
1.8
100
AcDbArc
 50
296.2454592315698
 51
84.03707756003881
  0
ARC
  5
3ED
330
1F
100
AcDbEntity
  8
LAY-10
  6
CONTINUOUS
 62
     7
100
AcDbCircle
 10
315.699999999416
 20
298.25000000011
 30
0.0
 40
1.8
100
AcDbArc
 50
95.96292243996122
 51
243.7545407684302
  0
ARC
  5
3EE
330
1F
100
AcDbEntity
  8
LAY-10
  6
CONTINUOUS
 62
     7
100
AcDbCircle
 10
318.4543962520662
 20
296.000000000108
 30
0.0
 40
1.0
100
AcDbArc
 50
243.7545407684272
 51
270.0
  0
LINE
  5
3EF
330
1F
100
AcDbEntity
  8
LAY-10
  6
CONTINUOUS
 62
     7
100
AcDbLine
 10
314.9040083006136
 20
296.6355659768569
 30
0.0
 11
318.0121786416204
 21
295.1030922094119
 31
0.0
  0
LINE
  5
3F0
330
1F
100
AcDbEntity
  8
LAY-10
  6
CONTINUOUS
 62
     7
100
AcDbLine
 10
322.9878213572157
 20
295.1030922094119
 30
0.0
 11
326.0959916982225
 21
296.6355659768569
 31
0.0
  0
ARC
  5
3F1
330
1F
100
AcDbEntity
  8
LAY-10
  6
CONTINUOUS
 62
     7
100
AcDbCircle
 10
320.4999999994185
 20
252.2950000000571
 30
0.0
 40
48.00500000005277
100
AcDbArc
 50
84.03707756004043
 51
95.96292243996048
  0
ARC
  5
3F2
330
1F
100
AcDbEntity
  8
LAY-10
  6
CONTINUOUS
 62
     7
100
AcDbCircle
 10
315.699999999416
 20
298.25000000011
 30
0.0
 40
3.0
100
AcDbArc
 50
95.96292243996042
 51
262.5213603809735
  0
ARC
  5
3F3
330
1F
100
AcDbEntity
  8
LAY-10
  6
CONTINUOUS
 62
     7
100
AcDbCircle
 10
315.2347295901319
 20
294.7057103211913
 30
0.0
 40
0.574698012678255
100
AcDbArc
 50
308.1185061700329
 51
82.52136038097277
  0
ARC
  5
3F4
330
1F
100
AcDbEntity
  8
LAY-10
  6
CONTINUOUS
 62
     7
100
AcDbCircle
 10
325.7652704087174
 20
294.7057103211839
 30
0.0
 40
0.574698012687244
100
AcDbArc
 50
97.4786396192178
 51
231.8814938297725
  0
ARC
  5
3F5
330
1F
100
AcDbEntity
  8
LAY-10
  6
CONTINUOUS
 62
     7
100
AcDbCircle
 10
325.29999999942
 20
298.25000000011
 30
0.0
 40
3.0
100
AcDbArc
 50
277.6299213011758
 51
84.03707756003955
  0
ARC
  5
3F6
330
1F
100
AcDbEntity
  8
LAY-10
  6
CONTINUOUS
 62
     7
100
AcDbCircle
 10
320.4999999994185
 20
252.2950000000571
 30
0.0
 40
49.20500000005277
100
AcDbArc
 50
84.03707756004043
 51
95.96292243996048
  0
LINE
  5
3F7
330
1F
100
AcDbEntity
  8
LAY-10
  6
CONTINUOUS
 62
     7
100
AcDbLine
 10
322.5456037467681
 20
295.000000000108
 30
0.0
 11
318.4543962520662
 21
295.000000000108
 31
0.0
  0
ARC
  5
3F8
330
1F
100
AcDbEntity
  8
LAY-10
  6
CONTINUOUS
 62
     7
100
AcDbCircle
 10
323.2499999994185
 20
291.5000000001075
 30
0.0
 40
3.5
100
AcDbArc
 50
5.194432958501778
 51
51.88149382977241
  0
ARC
  5
3F9
330
1F
100
AcDbEntity
  8
LAY-10
  6
CONTINUOUS
 62
     7
100
AcDbCircle
 10
317.7499999994176
 20
291.5000000001087
 30
0.0
 40
3.5
100
AcDbArc
 50
128.1185061700335
 51
173.8055670414981
  0
LINE
  5
3FA
330
1F
100
AcDbEntity
  8
LAY-10
  6
CONTINUOUS
 62
     7
100
AcDbLine
 10
326.735626199653
 20
291.8168753576874
 30
0.0
 11
327.4758725147482
 21
283.6741722764841
 31
0.0
  0
ARC
  5
3FB
330
1F
100
AcDbEntity
  8
LAY-10
  6
CONTINUOUS
 62
     7
100
AcDbCircle
 10
326.4799793146814
 20
283.5836364600327
 30
0.0
 40
1.0
100
AcDbArc
 50
232.86604083824
 51
5.194432958501033
  0
LINE
  5
3FC
330
1F
100
AcDbEntity
  8
LAY-10
  6
CONTINUOUS
 62
     7
100
AcDbLine
 10
325.8762987055712
 20
282.7864101921612
 30
0.0
 11
324.0826569846018
 21
284.14460267813
 31
0.0
  0
ARC
  5
3FD
330
1F
100
AcDbEntity
  8
LAY-10
  6
CONTINUOUS
 62
     7
100
AcDbCircle
 10
324.3844972891571
 20
284.5432158120658
 30
0.0
 40
0.5
100
AcDbArc
 50
95.19443295895869
 51
232.866040838247
  0
LINE
  5
3FE
330
1F
100
AcDbEntity
  8
LAY-10
  6
CONTINUOUS
 62
     7
100
AcDbLine
 10
324.0703018834053
 20
287.9993625652598
 30
0.0
 11
324.3392293809275
 21
285.0411624120989
 31
0.0
  0
ARC
  5
3FF
330
1F
100
AcDbEntity
  8
LAY-10
  6
CONTINUOUS
 62
     7
100
AcDbCircle
 10
324.0250339751839
 20
288.4973091652937
 30
0.0
 40
0.5
100
AcDbArc
 50
95.19443295898522
 51
275.194432958017
  0
LINE
  5
400
330
1F
100
AcDbEntity
  8
LAY-10
  6
CONTINUOUS
 62
     7
100
AcDbLine
 10
314.270434914467
 20
291.8776596611717
 30
0.0
 11
313.3881915787998
 21
283.7491158326425
 31
0.0
  0
ARC
  5
401
330
1F
100
AcDbEntity
  8
LAY-10
  6
CONTINUOUS
 62
     7
100
AcDbCircle
 10
314.3823530316428
 20
283.6412130723388
 30
0.0
 40
1.0
100
AcDbArc
 50
173.8055670414987
 51
306.1339591617602
  0
LINE
  5
402
330
1F
100
AcDbEntity
  8
LAY-10
  6
CONTINUOUS
 62
     7
100
AcDbLine
 10
314.9720281804226
 20
282.8335725465408
 30
0.0
 11
316.789100448355
 21
284.1602548088983
 31
0.0
  0
ARC
  5
403
330
1F
100
AcDbEntity
  8
LAY-10
  6
CONTINUOUS
 62
     7
100
AcDbCircle
 10
316.4942628739651
 20
284.5640750717973
 30
0.0
 40
0.5
100
AcDbArc
 50
306.1339591617556
 51
83.8055670410415
  0
LINE
  5
404
330
1F
100
AcDbEntity
  8
LAY-10
  6
CONTINUOUS
 62
     7
100
AcDbLine
 10
316.8687285040784
 20
288.0142119711786
 30
0.0
 11
316.548214254121
 21
285.0611557982184
 31
0.0
  0
ARC
  5
405
330
1F
100
AcDbEntity
  8
LAY-10
  6
CONTINUOUS
 62
     7
100
AcDbCircle
 10
316.9226798842261
 20
288.5112926976005
 30
0.0
 40
0.5
100
AcDbArc
 50
263.805567041983
 51
83.8055670410148
  0
ARC
  5
406
330
1F
100
AcDbEntity
  8
LAY-10
  6
CONTINUOUS
 62
     7
100
AcDbCircle
 10
317.6957317716584
 20
291.0000000001102
 30
0.0
 40
0.5
100
AcDbArc
 50
90.00000000000001
 51
173.8055670415016
  0
LINE
  5
407
330
1F
100
AcDbEntity
  8
LAY-10
  6
CONTINUOUS
 62
     7
100
AcDbLine
 10
323.2954545805152
 20
291.5000000001102
 30
0.0
 11
317.6957317716584
 21
291.5000000001102
 31
0.0
  0
ARC
  5
408
330
1F
100
AcDbEntity
  8
LAY-10
  6
CONTINUOUS
 62
     7
100
AcDbCircle
 10
323.2954545805152
 20
291.0000000001102
 30
0.0
 40
0.5
100
AcDbArc
 50
5.194432958502293
 51
90.00000000000001
  0
LINE
  5
409
330
1F
100
AcDbEntity
  8
LAY-10
  6
CONTINUOUS
 62
     7
100
AcDbLine
 10
327.4999999979274
 20
301.5000000001534
 30
0.0
 11
312.8879410213345
 21
301.5000000001534
 31
0.0
  0
ARC
  5
40A
330
1F
100
AcDbEntity
  8
LAY-10
  6
CONTINUOUS
 62
     7
100
AcDbCircle
 10
312.8879410213345
 20
299.5000000001534
 30
0.0
 40
2.0
100
AcDbArc
 50
90.00000000000001
 51
176.6981343224751
  0
LINE
  5
40B
330
1F
100
AcDbEntity
  8
LAY-10
  6
CONTINUOUS
 62
     7
100
AcDbLine
 10
327.7405072447588
 20
302.8639843765936
 30
0.0
 11
327.4999999979265
 21
301.5000000001493
 31
0.0
  0
ARC
  5
40C
330
1F
100
AcDbEntity
  8
LAY-10
  6
CONTINUOUS
 62
     7
100
AcDbCircle
 10
329.7101227507829
 20
302.5166880212596
 30
0.0
 40
2.0
100
AcDbArc
 50
91.00000000000178
 51
169.999999999995
  0
LINE
  5
40D
330
1F
100
AcDbEntity
  8
LAY-10
  6
CONTINUOUS
 62
     7
100
AcDbLine
 10
332.4999999979151
 20
296.5000000001706
 30
0.0
 11
327.4999999979278
 21
301.500000000158
 31
0.0
  0
LINE
  5
40E
330
1F
100
AcDbEntity
  8
LAY-10
  6
CENTER
 62
     2
100
AcDbLine
 10
625.0000000000001
 20
1277.5
 30
0.0
 11
625.0000000000001
 21
527.5000000000001
 31
0.0
  0
LINE
  5
40F
330
1F
100
AcDbEntity
  8
LAY-10
  6
CENTER
 62
     2
100
AcDbLine
 10
249.0
 20
905.5000000000002
 30
0.0
 11
1003.0
 21
905.5000000000002
 31
0.0
  0
LINE
  5
410
330
1F
100
AcDbEntity
  8
LAY-10
  6
CENTER
 62
     2
100
AcDbLine
 10
612.4118022386233
 20
1255.500000000029
 30
0.0
 11
640.8374948423225
 21
1255.500000000027
 31
0.0
  0
LINE
  5
411
330
1F
100
AcDbEntity
  8
LAY-10
  6
CENTER
 62
     2
100
AcDbLine
 10
399.999999999997
 20
883.6000000000001
 30
0.0
 11
399.999999999997
 21
931.0000000000002
 31
0.0
  0
LINE
  5
412
330
1F
100
AcDbEntity
  8
LAY-10
  6
CENTER
 62
     2
100
AcDbLine
 10
849.9999999999961
 20
883.6000000000001
 30
0.0
 11
849.9999999999961
 21
930.6999999999999
 31
0.0
  0
ARC
  5
413
330
1F
100
AcDbEntity
  8
LAY-10
  6
CENTER
 62
     2
100
AcDbCircle
 10
624.999999999998
 20
905.5000000000302
 30
0.0
 40
350.0
100
AcDbArc
 50
326.1815882466749
 51
332.2009496468579
  0
LINE
  5
414
330
1F
100
AcDbEntity
  8
LAY-10
  6
CENTER
 62
     2
100
AcDbLine
 10
937.5369669176007
 20
725.0566980185723
 30
0.0
 11
918.317557866375
 21
736.1530290079617
 31
0.0
  0
LINE
  5
415
330
1F
100
AcDbEntity
  8
LAY-10
  6
CENTER
 62
     2
100
AcDbLine
 10
312.4630330824258
 20
725.0566980185723
 30
0.0
 11
331.6824421336515
 21
736.1530290079617
 31
0.0
  0
ARC
  5
416
330
1F
100
AcDbEntity
  8
LAY-10
  6
CENTER
 62
     2
100
AcDbCircle
 10
625.0000000000284
 20
905.5000000000302
 30
0.0
 40
350.0
100
AcDbArc
 50
207.7990503531421
 51
212.2426840611834
  0
LINE
  5
417
330
1F
100
AcDbEntity
  8
LAY-10
  6
CENTER
 62
     2
100
AcDbLine
 10
974.9999999994401
 20
262.5606561751199
 30
0.0
 11
974.9999999994401
 21
276.9606561751204
 31
0.0
  0
LINE
  5
418
330
1F
100
AcDbEntity
  8
LAY-10
  6
CENTER
 62
     2
100
AcDbLine
 10
624.9999999994202
 20
327.3506561751201
 30
0.0
 11
624.9999999994202
 21
250.3906561751202
 31
0.0
  0
LINE
  5
419
330
1F
100
AcDbEntity
  8
LAY-10
  6
CENTER
 62
     2
100
AcDbLine
 10
399.99999999942
 20
318.4000000001303
 30
0.0
 11
399.99999999942
 21
280.4200000001302
 31
0.0
  0
LINE
  5
41A
330
1F
100
AcDbEntity
  8
LAY-10
  6
CENTER
 62
     2
100
AcDbLine
 10
714.99999999942
 20
321.1000000001302
 30
0.0
 11
714.99999999942
 21
270.3000000001301
 31
0.0
  0
LINE
  5
41B
330
1F
100
AcDbEntity
  8
LAY-10
  6
CENTER
 62
     2
100
AcDbLine
 10
534.99999999942
 20
321.1000000001302
 30
0.0
 11
534.99999999942
 21
270.3000000001302
 31
0.0
  0
ARC
  5
41C
330
1F
100
AcDbEntity
  8
LAY-10
  6
HIDDEN
 62
     7
100
AcDbCircle
 10
302.0152793495764
 20
265.500000000128
 30
0.0
 40
4.0
100
AcDbArc
 50
90.00000000000001
 51
175.0000000000003
  0
LINE
  5
41D
330
1F
100
AcDbEntity
  8
LAY-10
  6
HIDDEN
 62
     7
100
AcDbLine
 10
298.0305005572092
 20
265.8486229711186
 30
0.0
 11
297.9999999994012
 21
265.500000000108
 31
0.0
  0
LINE
  5
41E
330
1F
100
AcDbEntity
  8
LAY-10
  6
HIDDEN
 62
     7
100
AcDbLine
 10
313.9847206492265
 20
269.500000000128
 30
0.0
 11
302.015279349576
 21
269.500000000128
 31
0.0
  0
ARC
  5
41F
330
1F
100
AcDbEntity
  8
LAY-10
  6
HIDDEN
 62
     7
100
AcDbCircle
 10
313.9847206492265
 20
265.500000000128
 30
0.0
 40
4.0
100
AcDbArc
 50
4.999999999999743
 51
90.00000000000001
  0
LINE
  5
420
330
1F
100
AcDbEntity
  8
LAY-10
  6
HIDDEN
 62
     7
100
AcDbLine
 10
317.9694994415933
 20
265.8486229711186
 30
0.0
 11
317.9999999994012
 21
265.500000000108
 31
0.0
  0
ARC
  5
421
330
1F
100
AcDbEntity
  8
LAY-10
  6
HIDDEN
 62
     7
100
AcDbCircle
 10
947.9847206492639
 20
265.500000000128
 30
0.0
 40
4.0
100
AcDbArc
 50
4.999999999999801
 51
90.00000000000001
  0
LINE
  5
422
330
1F
100
AcDbEntity
  8
LAY-10
  6
HIDDEN
 62
     7
100
AcDbLine
 10
951.9694994416312
 20
265.8486229711186
 30
0.0
 11
951.9999999994391
 21
265.500000000108
 31
0.0
  0
LINE
  5
423
330
1F
100
AcDbEntity
  8
LAY-10
  6
HIDDEN
 62
     7
100
AcDbLine
 10
936.0152793496136
 20
269.500000000128
 30
0.0
 11
947.9847206492639
 21
269.500000000128
 31
0.0
  0
ARC
  5
424
330
1F
100
AcDbEntity
  8
LAY-10
  6
HIDDEN
 62
     7
100
AcDbCircle
 10
936.0152793496136
 20
265.500000000128
 30
0.0
 40
4.0
100
AcDbArc
 50
90.00000000000001
 51
175.0000000000006
  0
LINE
  5
425
330
1F
100
AcDbEntity
  8
LAY-10
  6
HIDDEN
 62
     7
100
AcDbLine
 10
932.0305005572468
 20
265.8486229711186
 30
0.0
 11
931.9999999994388
 21
265.500000000108
 31
0.0
  0
ARC
  5
426
330
1F
100
AcDbEntity
  8
LAY-10
  6
HIDDEN
 62
     7
100
AcDbCircle
 10
963.3366176571014
 20
273.5000000000935
 30
0.0
 40
3.0
100
AcDbArc
 50
182.5000000000007
 51
270.0
  0
ARC
  5
427
330
1F
100
AcDbEntity
  8
LAY-10
  6
HIDDEN
 62
     7
100
AcDbCircle
 10
963.99999999944
 20
273.5000000000935
 30
0.0
 40
3.0
100
AcDbArc
 50
270.0
 51
0.0
  0
LINE
  5
428
330
1F
100
AcDbEntity
  8
LAY-10
  6
HIDDEN
 62
     7
100
AcDbLine
 10
960.3394729923536
 20
273.3691418379974
 30
0.0
 11
960.2085873936064
 21
276.3669149053646
 31
0.0
  0
LINE
  5
429
330
1F
100
AcDbEntity
  8
LAY-10
  6
HIDDEN
 62
     7
100
AcDbLine
 10
974.9999999994432
 20
265.5000000001244
 30
0.0
 11
974.3000899994429
 21
273.5000000001244
 31
0.0
  0
LINE
  5
42A
330
1F
100
AcDbEntity
  8
LAY-10
  6
CONTINUOUS
 62
     7
100
AcDbLine
 10
435.499999999998
 20
830.9999999998901
 30
0.0
 11
435.499999999998
 21
823.9999999998901
 31
0.0
  0
LINE
  5
42B
330
1F
100
AcDbEntity
  8
LAY-10
  6
CONTINUOUS
 62
     7
100
AcDbLine
 10
435.499999999998
 20
823.9999999998901
 30
0.0
 11
447.499999999998
 21
823.9999999998901
 31
0.0
  0
LINE
  5
42C
330
1F
100
AcDbEntity
  8
LAY-10
  6
CONTINUOUS
 62
     7
100
AcDbLine
 10
435.499999999998
 20
830.9999999998901
 30
0.0
 11
454.499999999998
 21
830.9999999998901
 31
0.0
  0
LINE
  5
42D
330
1F
100
AcDbEntity
  8
LAY-10
  6
CONTINUOUS
 62
     7
100
AcDbLine
 10
447.499999999998
 20
811.9999999998902
 30
0.0
 11
454.499999999998
 21
811.9999999998902
 31
0.0
  0
LINE
  5
42E
330
1F
100
AcDbEntity
  8
LAY-10
  6
CONTINUOUS
 62
     7
100
AcDbLine
 10
454.499999999998
 20
830.9999999998901
 30
0.0
 11
454.499999999998
 21
811.9999999998902
 31
0.0
  0
LINE
  5
42F
330
1F
100
AcDbEntity
  8
LAY-10
  6
CONTINUOUS
 62
     7
100
AcDbLine
 10
447.499999999998
 20
823.9999999998901
 30
0.0
 11
447.499999999998
 21
811.9999999998902
 31
0.0
  0
LINE
  5
430
330
1F
100
AcDbEntity
  8
LAY-10
  6
CONTINUOUS
 62
     7
100
AcDbLine
 10
454.499999999998
 20
799.9999999999102
 30
0.0
 11
454.499999999998
 21
806.9999999999101
 31
0.0
  0
LINE
  5
431
330
1F
100
AcDbEntity
  8
LAY-10
  6
CONTINUOUS
 62
     7
100
AcDbLine
 10
454.499999999998
 20
806.9999999999101
 30
0.0
 11
442.499999999998
 21
806.9999999999101
 31
0.0
  0
LINE
  5
432
330
1F
100
AcDbEntity
  8
LAY-10
  6
CONTINUOUS
 62
     7
100
AcDbLine
 10
454.499999999998
 20
799.9999999999102
 30
0.0
 11
435.499999999998
 21
799.9999999999102
 31
0.0
  0
LINE
  5
433
330
1F
100
AcDbEntity
  8
LAY-10
  6
CONTINUOUS
 62
     7
100
AcDbLine
 10
442.499999999998
 20
818.9999999999101
 30
0.0
 11
435.499999999998
 21
818.9999999999101
 31
0.0
  0
LINE
  5
434
330
1F
100
AcDbEntity
  8
LAY-10
  6
CONTINUOUS
 62
     7
100
AcDbLine
 10
435.499999999998
 20
799.9999999999102
 30
0.0
 11
435.499999999998
 21
818.9999999999101
 31
0.0
  0
LINE
  5
435
330
1F
100
AcDbEntity
  8
LAY-10
  6
CONTINUOUS
 62
     7
100
AcDbLine
 10
442.499999999998
 20
806.9999999999101
 30
0.0
 11
442.499999999998
 21
818.9999999999101
 31
0.0
  0
LINE
  5
436
330
1F
100
AcDbEntity
  8
LAY-10
  6
CONTINUOUS
 62
     7
100
AcDbLine
 10
435.499999999998
 20
794.9999999998901
 30
0.0
 11
435.499999999998
 21
787.9999999998901
 31
0.0
  0
LINE
  5
437
330
1F
100
AcDbEntity
  8
LAY-10
  6
CONTINUOUS
 62
     7
100
AcDbLine
 10
435.499999999998
 20
787.9999999998901
 30
0.0
 11
447.499999999998
 21
787.9999999998901
 31
0.0
  0
LINE
  5
438
330
1F
100
AcDbEntity
  8
LAY-10
  6
CONTINUOUS
 62
     7
100
AcDbLine
 10
435.499999999998
 20
794.9999999998901
 30
0.0
 11
454.499999999998
 21
794.9999999998901
 31
0.0
  0
LINE
  5
439
330
1F
100
AcDbEntity
  8
LAY-10
  6
CONTINUOUS
 62
     7
100
AcDbLine
 10
447.499999999998
 20
775.9999999998901
 30
0.0
 11
454.499999999998
 21
775.9999999998901
 31
0.0
  0
LINE
  5
43A
330
1F
100
AcDbEntity
  8
LAY-10
  6
CONTINUOUS
 62
     7
100
AcDbLine
 10
454.499999999998
 20
794.9999999998901
 30
0.0
 11
454.499999999998
 21
775.9999999998901
 31
0.0
  0
LINE
  5
43B
330
1F
100
AcDbEntity
  8
LAY-10
  6
CONTINUOUS
 62
     7
100
AcDbLine
 10
447.499999999998
 20
787.9999999998901
 30
0.0
 11
447.499999999998
 21
775.9999999998901
 31
0.0
  0
LINE
  5
43C
330
1F
100
AcDbEntity
  8
LAY-10
  6
CONTINUOUS
 62
     7
100
AcDbLine
 10
454.499999999998
 20
763.9999999999101
 30
0.0
 11
454.499999999998
 21
770.9999999999101
 31
0.0
  0
LINE
  5
43D
330
1F
100
AcDbEntity
  8
LAY-10
  6
CONTINUOUS
 62
     7
100
AcDbLine
 10
454.499999999998
 20
770.9999999999101
 30
0.0
 11
442.499999999998
 21
770.9999999999101
 31
0.0
  0
LINE
  5
43E
330
1F
100
AcDbEntity
  8
LAY-10
  6
CONTINUOUS
 62
     7
100
AcDbLine
 10
454.499999999998
 20
763.9999999999101
 30
0.0
 11
435.499999999998
 21
763.9999999999101
 31
0.0
  0
LINE
  5
43F
330
1F
100
AcDbEntity
  8
LAY-10
  6
CONTINUOUS
 62
     7
100
AcDbLine
 10
442.499999999998
 20
782.9999999999101
 30
0.0
 11
435.499999999998
 21
782.9999999999101
 31
0.0
  0
LINE
  5
440
330
1F
100
AcDbEntity
  8
LAY-10
  6
CONTINUOUS
 62
     7
100
AcDbLine
 10
435.499999999998
 20
763.9999999999101
 30
0.0
 11
435.499999999998
 21
782.9999999999101
 31
0.0
  0
LINE
  5
441
330
1F
100
AcDbEntity
  8
LAY-10
  6
CONTINUOUS
 62
     7
100
AcDbLine
 10
442.499999999998
 20
770.9999999999101
 30
0.0
 11
442.499999999998
 21
782.9999999999101
 31
0.0
  0
LINE
  5
442
330
1F
100
AcDbEntity
  8
LAY-10
  6
CONTINUOUS
 62
     7
100
AcDbLine
 10
411.499999999998
 20
866.9999999998801
 30
0.0
 11
411.499999999998
 21
859.9999999998801
 31
0.0
  0
LINE
  5
443
330
1F
100
AcDbEntity
  8
LAY-10
  6
CONTINUOUS
 62
     7
100
AcDbLine
 10
411.499999999998
 20
859.9999999998801
 30
0.0
 11
423.499999999998
 21
859.9999999998801
 31
0.0
  0
LINE
  5
444
330
1F
100
AcDbEntity
  8
LAY-10
  6
CONTINUOUS
 62
     7
100
AcDbLine
 10
411.499999999998
 20
866.9999999998801
 30
0.0
 11
430.499999999998
 21
866.9999999998801
 31
0.0
  0
LINE
  5
445
330
1F
100
AcDbEntity
  8
LAY-10
  6
CONTINUOUS
 62
     7
100
AcDbLine
 10
423.499999999998
 20
847.9999999998802
 30
0.0
 11
430.499999999998
 21
847.9999999998802
 31
0.0
  0
LINE
  5
446
330
1F
100
AcDbEntity
  8
LAY-10
  6
CONTINUOUS
 62
     7
100
AcDbLine
 10
430.499999999998
 20
866.9999999998801
 30
0.0
 11
430.499999999998
 21
847.9999999998802
 31
0.0
  0
LINE
  5
447
330
1F
100
AcDbEntity
  8
LAY-10
  6
CONTINUOUS
 62
     7
100
AcDbLine
 10
423.499999999998
 20
859.9999999998801
 30
0.0
 11
423.499999999998
 21
847.9999999998802
 31
0.0
  0
LINE
  5
448
330
1F
100
AcDbEntity
  8
LAY-10
  6
CONTINUOUS
 62
     7
100
AcDbLine
 10
430.499999999998
 20
835.9999999999002
 30
0.0
 11
430.499999999998
 21
842.9999999999001
 31
0.0
  0
LINE
  5
449
330
1F
100
AcDbEntity
  8
LAY-10
  6
CONTINUOUS
 62
     7
100
AcDbLine
 10
430.499999999998
 20
842.9999999999001
 30
0.0
 11
418.499999999998
 21
842.9999999999001
 31
0.0
  0
LINE
  5
44A
330
1F
100
AcDbEntity
  8
LAY-10
  6
CONTINUOUS
 62
     7
100
AcDbLine
 10
430.499999999998
 20
835.9999999999002
 30
0.0
 11
411.499999999998
 21
835.9999999999002
 31
0.0
  0
LINE
  5
44B
330
1F
100
AcDbEntity
  8
LAY-10
  6
CONTINUOUS
 62
     7
100
AcDbLine
 10
418.499999999998
 20
854.9999999999001
 30
0.0
 11
411.499999999998
 21
854.9999999999001
 31
0.0
  0
LINE
  5
44C
330
1F
100
AcDbEntity
  8
LAY-10
  6
CONTINUOUS
 62
     7
100
AcDbLine
 10
411.499999999998
 20
835.9999999999002
 30
0.0
 11
411.499999999998
 21
854.9999999999001
 31
0.0
  0
LINE
  5
44D
330
1F
100
AcDbEntity
  8
LAY-10
  6
CONTINUOUS
 62
     7
100
AcDbLine
 10
418.499999999998
 20
842.9999999999001
 30
0.0
 11
418.499999999998
 21
854.9999999999001
 31
0.0
  0
LINE
  5
44E
330
1F
100
AcDbEntity
  8
LAY-10
  6
CONTINUOUS
 62
     7
100
AcDbLine
 10
387.499999999998
 20
866.99999999987
 30
0.0
 11
387.499999999998
 21
859.99999999987
 31
0.0
  0
LINE
  5
44F
330
1F
100
AcDbEntity
  8
LAY-10
  6
CONTINUOUS
 62
     7
100
AcDbLine
 10
387.499999999998
 20
859.99999999987
 30
0.0
 11
399.499999999998
 21
859.99999999987
 31
0.0
  0
LINE
  5
450
330
1F
100
AcDbEntity
  8
LAY-10
  6
CONTINUOUS
 62
     7
100
AcDbLine
 10
387.499999999998
 20
866.99999999987
 30
0.0
 11
406.499999999998
 21
866.99999999987
 31
0.0
  0
LINE
  5
451
330
1F
100
AcDbEntity
  8
LAY-10
  6
CONTINUOUS
 62
     7
100
AcDbLine
 10
399.499999999998
 20
847.99999999987
 30
0.0
 11
406.499999999998
 21
847.99999999987
 31
0.0
  0
LINE
  5
452
330
1F
100
AcDbEntity
  8
LAY-10
  6
CONTINUOUS
 62
     7
100
AcDbLine
 10
406.499999999998
 20
866.99999999987
 30
0.0
 11
406.499999999998
 21
847.99999999987
 31
0.0
  0
LINE
  5
453
330
1F
100
AcDbEntity
  8
LAY-10
  6
CONTINUOUS
 62
     7
100
AcDbLine
 10
399.499999999998
 20
859.99999999987
 30
0.0
 11
399.499999999998
 21
847.99999999987
 31
0.0
  0
LINE
  5
454
330
1F
100
AcDbEntity
  8
LAY-10
  6
CONTINUOUS
 62
     7
100
AcDbLine
 10
406.499999999998
 20
835.9999999998901
 30
0.0
 11
406.499999999998
 21
842.9999999998901
 31
0.0
  0
LINE
  5
455
330
1F
100
AcDbEntity
  8
LAY-10
  6
CONTINUOUS
 62
     7
100
AcDbLine
 10
406.499999999998
 20
842.9999999998901
 30
0.0
 11
394.499999999998
 21
842.9999999998901
 31
0.0
  0
LINE
  5
456
330
1F
100
AcDbEntity
  8
LAY-10
  6
CONTINUOUS
 62
     7
100
AcDbLine
 10
406.499999999998
 20
835.9999999998901
 30
0.0
 11
387.499999999998
 21
835.9999999998901
 31
0.0
  0
LINE
  5
457
330
1F
100
AcDbEntity
  8
LAY-10
  6
CONTINUOUS
 62
     7
100
AcDbLine
 10
394.499999999998
 20
854.9999999998901
 30
0.0
 11
387.499999999998
 21
854.9999999998901
 31
0.0
  0
LINE
  5
458
330
1F
100
AcDbEntity
  8
LAY-10
  6
CONTINUOUS
 62
     7
100
AcDbLine
 10
387.499999999998
 20
835.9999999998901
 30
0.0
 11
387.499999999998
 21
854.9999999998901
 31
0.0
  0
LINE
  5
459
330
1F
100
AcDbEntity
  8
LAY-10
  6
CONTINUOUS
 62
     7
100
AcDbLine
 10
394.499999999998
 20
842.9999999998901
 30
0.0
 11
394.499999999998
 21
854.9999999998901
 31
0.0
  0
LINE
  5
45A
330
1F
100
AcDbEntity
  8
LAY-10
  6
CONTINUOUS
 62
     7
100
AcDbLine
 10
411.499999999998
 20
830.9999999998801
 30
0.0
 11
411.499999999998
 21
823.9999999998801
 31
0.0
  0
LINE
  5
45B
330
1F
100
AcDbEntity
  8
LAY-10
  6
CONTINUOUS
 62
     7
100
AcDbLine
 10
411.499999999998
 20
823.9999999998801
 30
0.0
 11
423.499999999998
 21
823.9999999998801
 31
0.0
  0
LINE
  5
45C
330
1F
100
AcDbEntity
  8
LAY-10
  6
CONTINUOUS
 62
     7
100
AcDbLine
 10
411.499999999998
 20
830.9999999998801
 30
0.0
 11
430.499999999998
 21
830.9999999998801
 31
0.0
  0
LINE
  5
45D
330
1F
100
AcDbEntity
  8
LAY-10
  6
CONTINUOUS
 62
     7
100
AcDbLine
 10
423.499999999998
 20
811.9999999998801
 30
0.0
 11
430.499999999998
 21
811.9999999998801
 31
0.0
  0
LINE
  5
45E
330
1F
100
AcDbEntity
  8
LAY-10
  6
CONTINUOUS
 62
     7
100
AcDbLine
 10
430.499999999998
 20
830.9999999998801
 30
0.0
 11
430.499999999998
 21
811.9999999998801
 31
0.0
  0
LINE
  5
45F
330
1F
100
AcDbEntity
  8
LAY-10
  6
CONTINUOUS
 62
     7
100
AcDbLine
 10
423.499999999998
 20
823.9999999998801
 30
0.0
 11
423.499999999998
 21
811.9999999998801
 31
0.0
  0
LINE
  5
460
330
1F
100
AcDbEntity
  8
LAY-10
  6
CONTINUOUS
 62
     7
100
AcDbLine
 10
430.499999999998
 20
799.9999999999001
 30
0.0
 11
430.499999999998
 21
806.9999999999001
 31
0.0
  0
LINE
  5
461
330
1F
100
AcDbEntity
  8
LAY-10
  6
CONTINUOUS
 62
     7
100
AcDbLine
 10
430.499999999998
 20
806.9999999999001
 30
0.0
 11
418.499999999998
 21
806.9999999999001
 31
0.0
  0
LINE
  5
462
330
1F
100
AcDbEntity
  8
LAY-10
  6
CONTINUOUS
 62
     7
100
AcDbLine
 10
430.499999999998
 20
799.9999999999001
 30
0.0
 11
411.499999999998
 21
799.9999999999001
 31
0.0
  0
LINE
  5
463
330
1F
100
AcDbEntity
  8
LAY-10
  6
CONTINUOUS
 62
     7
100
AcDbLine
 10
418.499999999998
 20
818.9999999999001
 30
0.0
 11
411.499999999998
 21
818.9999999999001
 31
0.0
  0
LINE
  5
464
330
1F
100
AcDbEntity
  8
LAY-10
  6
CONTINUOUS
 62
     7
100
AcDbLine
 10
411.499999999998
 20
799.9999999999001
 30
0.0
 11
411.499999999998
 21
818.9999999999001
 31
0.0
  0
LINE
  5
465
330
1F
100
AcDbEntity
  8
LAY-10
  6
CONTINUOUS
 62
     7
100
AcDbLine
 10
418.499999999998
 20
806.9999999999001
 30
0.0
 11
418.499999999998
 21
818.9999999999001
 31
0.0
  0
LINE
  5
466
330
1F
100
AcDbEntity
  8
LAY-10
  6
CONTINUOUS
 62
     7
100
AcDbLine
 10
387.499999999998
 20
830.99999999987
 30
0.0
 11
387.499999999998
 21
823.9999999998702
 31
0.0
  0
LINE
  5
467
330
1F
100
AcDbEntity
  8
LAY-10
  6
CONTINUOUS
 62
     7
100
AcDbLine
 10
387.499999999998
 20
823.9999999998702
 30
0.0
 11
399.499999999998
 21
823.9999999998702
 31
0.0
  0
LINE
  5
468
330
1F
100
AcDbEntity
  8
LAY-10
  6
CONTINUOUS
 62
     7
100
AcDbLine
 10
387.499999999998
 20
830.99999999987
 30
0.0
 11
406.499999999998
 21
830.99999999987
 31
0.0
  0
LINE
  5
469
330
1F
100
AcDbEntity
  8
LAY-10
  6
CONTINUOUS
 62
     7
100
AcDbLine
 10
399.499999999998
 20
811.99999999987
 30
0.0
 11
406.499999999998
 21
811.99999999987
 31
0.0
  0
LINE
  5
46A
330
1F
100
AcDbEntity
  8
LAY-10
  6
CONTINUOUS
 62
     7
100
AcDbLine
 10
406.499999999998
 20
830.99999999987
 30
0.0
 11
406.499999999998
 21
811.99999999987
 31
0.0
  0
LINE
  5
46B
330
1F
100
AcDbEntity
  8
LAY-10
  6
CONTINUOUS
 62
     7
100
AcDbLine
 10
399.499999999998
 20
823.9999999998702
 30
0.0
 11
399.499999999998
 21
811.99999999987
 31
0.0
  0
LINE
  5
46C
330
1F
100
AcDbEntity
  8
LAY-10
  6
CONTINUOUS
 62
     7
100
AcDbLine
 10
406.499999999998
 20
799.9999999998901
 30
0.0
 11
406.499999999998
 21
806.9999999998902
 31
0.0
  0
LINE
  5
46D
330
1F
100
AcDbEntity
  8
LAY-10
  6
CONTINUOUS
 62
     7
100
AcDbLine
 10
406.499999999998
 20
806.9999999998902
 30
0.0
 11
394.499999999998
 21
806.9999999998902
 31
0.0
  0
LINE
  5
46E
330
1F
100
AcDbEntity
  8
LAY-10
  6
CONTINUOUS
 62
     7
100
AcDbLine
 10
406.499999999998
 20
799.9999999998901
 30
0.0
 11
387.499999999998
 21
799.9999999998901
 31
0.0
  0
LINE
  5
46F
330
1F
100
AcDbEntity
  8
LAY-10
  6
CONTINUOUS
 62
     7
100
AcDbLine
 10
394.499999999998
 20
818.9999999998901
 30
0.0
 11
387.499999999998
 21
818.9999999998901
 31
0.0
  0
LINE
  5
470
330
1F
100
AcDbEntity
  8
LAY-10
  6
CONTINUOUS
 62
     7
100
AcDbLine
 10
387.499999999998
 20
799.9999999998901
 30
0.0
 11
387.499999999998
 21
818.9999999998901
 31
0.0
  0
LINE
  5
471
330
1F
100
AcDbEntity
  8
LAY-10
  6
CONTINUOUS
 62
     7
100
AcDbLine
 10
394.499999999998
 20
806.9999999998902
 30
0.0
 11
394.499999999998
 21
818.9999999998901
 31
0.0
  0
LINE
  5
472
330
1F
100
AcDbEntity
  8
LAY-10
  6
CONTINUOUS
 62
     7
100
AcDbLine
 10
411.499999999998
 20
794.9999999998801
 30
0.0
 11
411.499999999998
 21
787.9999999998802
 31
0.0
  0
LINE
  5
473
330
1F
100
AcDbEntity
  8
LAY-10
  6
CONTINUOUS
 62
     7
100
AcDbLine
 10
411.499999999998
 20
787.9999999998802
 30
0.0
 11
423.499999999998
 21
787.9999999998802
 31
0.0
  0
LINE
  5
474
330
1F
100
AcDbEntity
  8
LAY-10
  6
CONTINUOUS
 62
     7
100
AcDbLine
 10
411.499999999998
 20
794.9999999998801
 30
0.0
 11
430.499999999998
 21
794.9999999998801
 31
0.0
  0
LINE
  5
475
330
1F
100
AcDbEntity
  8
LAY-10
  6
CONTINUOUS
 62
     7
100
AcDbLine
 10
423.499999999998
 20
775.9999999998801
 30
0.0
 11
430.499999999998
 21
775.9999999998801
 31
0.0
  0
LINE
  5
476
330
1F
100
AcDbEntity
  8
LAY-10
  6
CONTINUOUS
 62
     7
100
AcDbLine
 10
430.499999999998
 20
794.9999999998801
 30
0.0
 11
430.499999999998
 21
775.9999999998801
 31
0.0
  0
LINE
  5
477
330
1F
100
AcDbEntity
  8
LAY-10
  6
CONTINUOUS
 62
     7
100
AcDbLine
 10
423.499999999998
 20
787.9999999998802
 30
0.0
 11
423.499999999998
 21
775.9999999998801
 31
0.0
  0
LINE
  5
478
330
1F
100
AcDbEntity
  8
LAY-10
  6
CONTINUOUS
 62
     7
100
AcDbLine
 10
430.499999999998
 20
763.9999999999001
 30
0.0
 11
430.499999999998
 21
770.9999999999002
 31
0.0
  0
LINE
  5
479
330
1F
100
AcDbEntity
  8
LAY-10
  6
CONTINUOUS
 62
     7
100
AcDbLine
 10
430.499999999998
 20
770.9999999999002
 30
0.0
 11
418.499999999998
 21
770.9999999999002
 31
0.0
  0
LINE
  5
47A
330
1F
100
AcDbEntity
  8
LAY-10
  6
CONTINUOUS
 62
     7
100
AcDbLine
 10
430.499999999998
 20
763.9999999999001
 30
0.0
 11
411.499999999998
 21
763.9999999999001
 31
0.0
  0
LINE
  5
47B
330
1F
100
AcDbEntity
  8
LAY-10
  6
CONTINUOUS
 62
     7
100
AcDbLine
 10
418.499999999998
 20
782.9999999999001
 30
0.0
 11
411.499999999998
 21
782.9999999999001
 31
0.0
  0
LINE
  5
47C
330
1F
100
AcDbEntity
  8
LAY-10
  6
CONTINUOUS
 62
     7
100
AcDbLine
 10
411.499999999998
 20
763.9999999999001
 30
0.0
 11
411.499999999998
 21
782.9999999999001
 31
0.0
  0
LINE
  5
47D
330
1F
100
AcDbEntity
  8
LAY-10
  6
CONTINUOUS
 62
     7
100
AcDbLine
 10
418.499999999998
 20
770.9999999999002
 30
0.0
 11
418.499999999998
 21
782.9999999999001
 31
0.0
  0
LINE
  5
47E
330
1F
100
AcDbEntity
  8
LAY-10
  6
CONTINUOUS
 62
     7
100
AcDbLine
 10
387.499999999998
 20
794.99999999987
 30
0.0
 11
387.499999999998
 21
787.99999999987
 31
0.0
  0
LINE
  5
47F
330
1F
100
AcDbEntity
  8
LAY-10
  6
CONTINUOUS
 62
     7
100
AcDbLine
 10
387.499999999998
 20
787.99999999987
 30
0.0
 11
399.499999999998
 21
787.99999999987
 31
0.0
  0
LINE
  5
480
330
1F
100
AcDbEntity
  8
LAY-10
  6
CONTINUOUS
 62
     7
100
AcDbLine
 10
387.499999999998
 20
794.99999999987
 30
0.0
 11
406.499999999998
 21
794.99999999987
 31
0.0
  0
LINE
  5
481
330
1F
100
AcDbEntity
  8
LAY-10
  6
CONTINUOUS
 62
     7
100
AcDbLine
 10
399.499999999998
 20
775.99999999987
 30
0.0
 11
406.499999999998
 21
775.99999999987
 31
0.0
  0
LINE
  5
482
330
1F
100
AcDbEntity
  8
LAY-10
  6
CONTINUOUS
 62
     7
100
AcDbLine
 10
406.499999999998
 20
794.99999999987
 30
0.0
 11
406.499999999998
 21
775.99999999987
 31
0.0
  0
LINE
  5
483
330
1F
100
AcDbEntity
  8
LAY-10
  6
CONTINUOUS
 62
     7
100
AcDbLine
 10
399.499999999998
 20
787.99999999987
 30
0.0
 11
399.499999999998
 21
775.99999999987
 31
0.0
  0
LINE
  5
484
330
1F
100
AcDbEntity
  8
LAY-10
  6
CONTINUOUS
 62
     7
100
AcDbLine
 10
406.499999999998
 20
763.9999999998901
 30
0.0
 11
406.499999999998
 21
770.9999999998901
 31
0.0
  0
LINE
  5
485
330
1F
100
AcDbEntity
  8
LAY-10
  6
CONTINUOUS
 62
     7
100
AcDbLine
 10
406.499999999998
 20
770.9999999998901
 30
0.0
 11
394.499999999998
 21
770.9999999998901
 31
0.0
  0
LINE
  5
486
330
1F
100
AcDbEntity
  8
LAY-10
  6
CONTINUOUS
 62
     7
100
AcDbLine
 10
406.499999999998
 20
763.9999999998901
 30
0.0
 11
387.499999999998
 21
763.9999999998901
 31
0.0
  0
LINE
  5
487
330
1F
100
AcDbEntity
  8
LAY-10
  6
CONTINUOUS
 62
     7
100
AcDbLine
 10
394.499999999998
 20
782.9999999998901
 30
0.0
 11
387.499999999998
 21
782.9999999998901
 31
0.0
  0
LINE
  5
488
330
1F
100
AcDbEntity
  8
LAY-10
  6
CONTINUOUS
 62
     7
100
AcDbLine
 10
387.499999999998
 20
763.9999999998901
 30
0.0
 11
387.499999999998
 21
782.9999999998901
 31
0.0
  0
LINE
  5
489
330
1F
100
AcDbEntity
  8
LAY-10
  6
CONTINUOUS
 62
     7
100
AcDbLine
 10
394.499999999998
 20
770.9999999998901
 30
0.0
 11
394.499999999998
 21
782.9999999998901
 31
0.0
  0
LINE
  5
48A
330
1F
100
AcDbEntity
  8
LAY-10
  6
CONTINUOUS
 62
     7
100
AcDbLine
 10
363.4999999999978
 20
866.99999999986
 30
0.0
 11
363.4999999999978
 21
859.9999999998602
 31
0.0
  0
LINE
  5
48B
330
1F
100
AcDbEntity
  8
LAY-10
  6
CONTINUOUS
 62
     7
100
AcDbLine
 10
363.4999999999978
 20
859.9999999998602
 30
0.0
 11
375.4999999999978
 21
859.9999999998602
 31
0.0
  0
LINE
  5
48C
330
1F
100
AcDbEntity
  8
LAY-10
  6
CONTINUOUS
 62
     7
100
AcDbLine
 10
363.4999999999978
 20
866.99999999986
 30
0.0
 11
382.4999999999979
 21
866.99999999986
 31
0.0
  0
LINE
  5
48D
330
1F
100
AcDbEntity
  8
LAY-10
  6
CONTINUOUS
 62
     7
100
AcDbLine
 10
375.4999999999978
 20
847.99999999986
 30
0.0
 11
382.4999999999979
 21
847.99999999986
 31
0.0
  0
LINE
  5
48E
330
1F
100
AcDbEntity
  8
LAY-10
  6
CONTINUOUS
 62
     7
100
AcDbLine
 10
382.4999999999979
 20
866.99999999986
 30
0.0
 11
382.4999999999979
 21
847.99999999986
 31
0.0
  0
LINE
  5
48F
330
1F
100
AcDbEntity
  8
LAY-10
  6
CONTINUOUS
 62
     7
100
AcDbLine
 10
375.4999999999978
 20
859.9999999998602
 30
0.0
 11
375.4999999999978
 21
847.99999999986
 31
0.0
  0
LINE
  5
490
330
1F
100
AcDbEntity
  8
LAY-10
  6
CONTINUOUS
 62
     7
100
AcDbLine
 10
382.4999999999979
 20
835.9999999998801
 30
0.0
 11
382.4999999999979
 21
842.9999999998802
 31
0.0
  0
LINE
  5
491
330
1F
100
AcDbEntity
  8
LAY-10
  6
CONTINUOUS
 62
     7
100
AcDbLine
 10
382.4999999999979
 20
842.9999999998802
 30
0.0
 11
370.4999999999978
 21
842.9999999998802
 31
0.0
  0
LINE
  5
492
330
1F
100
AcDbEntity
  8
LAY-10
  6
CONTINUOUS
 62
     7
100
AcDbLine
 10
382.4999999999979
 20
835.9999999998801
 30
0.0
 11
363.4999999999978
 21
835.9999999998801
 31
0.0
  0
LINE
  5
493
330
1F
100
AcDbEntity
  8
LAY-10
  6
CONTINUOUS
 62
     7
100
AcDbLine
 10
370.4999999999978
 20
854.9999999998801
 30
0.0
 11
363.4999999999978
 21
854.9999999998801
 31
0.0
  0
LINE
  5
494
330
1F
100
AcDbEntity
  8
LAY-10
  6
CONTINUOUS
 62
     7
100
AcDbLine
 10
363.4999999999978
 20
835.9999999998801
 30
0.0
 11
363.4999999999978
 21
854.9999999998801
 31
0.0
  0
LINE
  5
495
330
1F
100
AcDbEntity
  8
LAY-10
  6
CONTINUOUS
 62
     7
100
AcDbLine
 10
370.4999999999978
 20
842.9999999998802
 30
0.0
 11
370.4999999999978
 21
854.9999999998801
 31
0.0
  0
LINE
  5
496
330
1F
100
AcDbEntity
  8
LAY-10
  6
CONTINUOUS
 62
     7
100
AcDbLine
 10
370.4999999999978
 20
806.9999999998801
 30
0.0
 11
370.4999999999978
 21
818.9999999998801
 31
0.0
  0
LINE
  5
497
330
1F
100
AcDbEntity
  8
LAY-10
  6
CONTINUOUS
 62
     7
100
AcDbLine
 10
363.4999999999978
 20
799.9999999998801
 30
0.0
 11
363.4999999999978
 21
818.9999999998801
 31
0.0
  0
LINE
  5
498
330
1F
100
AcDbEntity
  8
LAY-10
  6
CONTINUOUS
 62
     7
100
AcDbLine
 10
370.4999999999978
 20
818.9999999998801
 30
0.0
 11
363.4999999999978
 21
818.9999999998801
 31
0.0
  0
LINE
  5
499
330
1F
100
AcDbEntity
  8
LAY-10
  6
CONTINUOUS
 62
     7
100
AcDbLine
 10
382.4999999999979
 20
799.9999999998801
 30
0.0
 11
363.4999999999978
 21
799.9999999998801
 31
0.0
  0
LINE
  5
49A
330
1F
100
AcDbEntity
  8
LAY-10
  6
CONTINUOUS
 62
     7
100
AcDbLine
 10
382.4999999999979
 20
806.9999999998801
 30
0.0
 11
370.4999999999978
 21
806.9999999998801
 31
0.0
  0
LINE
  5
49B
330
1F
100
AcDbEntity
  8
LAY-10
  6
CONTINUOUS
 62
     7
100
AcDbLine
 10
382.4999999999979
 20
799.9999999998801
 30
0.0
 11
382.4999999999979
 21
806.9999999998801
 31
0.0
  0
LINE
  5
49C
330
1F
100
AcDbEntity
  8
LAY-10
  6
CONTINUOUS
 62
     7
100
AcDbLine
 10
375.4999999999978
 20
823.99999999986
 30
0.0
 11
375.4999999999978
 21
811.99999999986
 31
0.0
  0
LINE
  5
49D
330
1F
100
AcDbEntity
  8
LAY-10
  6
CONTINUOUS
 62
     7
100
AcDbLine
 10
382.4999999999979
 20
830.99999999986
 30
0.0
 11
382.4999999999979
 21
811.99999999986
 31
0.0
  0
LINE
  5
49E
330
1F
100
AcDbEntity
  8
LAY-10
  6
CONTINUOUS
 62
     7
100
AcDbLine
 10
375.4999999999978
 20
811.99999999986
 30
0.0
 11
382.4999999999979
 21
811.99999999986
 31
0.0
  0
LINE
  5
49F
330
1F
100
AcDbEntity
  8
LAY-10
  6
CONTINUOUS
 62
     7
100
AcDbLine
 10
363.4999999999978
 20
830.99999999986
 30
0.0
 11
382.4999999999979
 21
830.99999999986
 31
0.0
  0
LINE
  5
4A0
330
1F
100
AcDbEntity
  8
LAY-10
  6
CONTINUOUS
 62
     7
100
AcDbLine
 10
363.4999999999978
 20
823.99999999986
 30
0.0
 11
375.4999999999978
 21
823.99999999986
 31
0.0
  0
LINE
  5
4A1
330
1F
100
AcDbEntity
  8
LAY-10
  6
CONTINUOUS
 62
     7
100
AcDbLine
 10
363.4999999999978
 20
830.99999999986
 30
0.0
 11
363.4999999999978
 21
823.99999999986
 31
0.0
  0
LINE
  5
4A2
330
1F
100
AcDbEntity
  8
LAY-10
  6
CONTINUOUS
 62
     7
100
AcDbLine
 10
548.77788989613
 20
308.5000000001302
 30
0.0
 11
701.22211010271
 21
308.5000000001302
 31
0.0
  0
LINE
  5
4A3
330
1F
100
AcDbEntity
  8
LAY-10
  6
CONTINUOUS
 62
     7
100
AcDbLine
 10
437.9999999999907
 20
885.4999999999205
 30
0.0
 11
437.9999999999907
 21
925.4999999999205
 31
0.0
  0
LINE
  5
4A4
330
1F
100
AcDbEntity
  8
LAY-10
  6
CONTINUOUS
 62
     7
100
AcDbLine
 10
361.9999999999906
 20
925.4999999999205
 30
0.0
 11
437.9999999999907
 21
925.4999999999205
 31
0.0
  0
LINE
  5
4A5
330
1F
100
AcDbEntity
  8
LAY-10
  6
CONTINUOUS
 62
     7
100
AcDbLine
 10
361.9999999999906
 20
885.4999999999205
 30
0.0
 11
437.9999999999907
 21
885.4999999999205
 31
0.0
  0
LINE
  5
4A6
330
1F
100
AcDbEntity
  8
LAY-10
  6
CONTINUOUS
 62
     7
100
AcDbLine
 10
361.9999999999906
 20
885.4999999999205
 30
0.0
 11
361.9999999999906
 21
925.4999999999205
 31
0.0
  0
LINE
  5
4A7
330
1F
100
AcDbEntity
  8
LAY-10
  6
CONTINUOUS
 62
     7
100
AcDbLine
 10
811.9999999999908
 20
885.4999999999205
 30
0.0
 11
811.9999999999908
 21
925.4999999999205
 31
0.0
  0
LINE
  5
4A8
330
1F
100
AcDbEntity
  8
LAY-10
  6
CONTINUOUS
 62
     7
100
AcDbLine
 10
811.9999999999908
 20
885.4999999999205
 30
0.0
 11
887.9999999999907
 21
885.4999999999205
 31
0.0
  0
LINE
  5
4A9
330
1F
100
AcDbEntity
  8
LAY-10
  6
CONTINUOUS
 62
     7
100
AcDbLine
 10
811.9999999999908
 20
925.4999999999205
 30
0.0
 11
887.9999999999907
 21
925.4999999999205
 31
0.0
  0
LINE
  5
4AA
330
1F
100
AcDbEntity
  8
LAY-10
  6
CONTINUOUS
 62
     7
100
AcDbLine
 10
887.9999999999907
 20
885.4999999999205
 30
0.0
 11
887.9999999999907
 21
925.4999999999205
 31
0.0
  0
LINE
  5
4AB
330
1F
100
AcDbEntity
  8
LAY-10
  6
CONTINUOUS
 62
     7
100
AcDbLine
 10
713.3072898742549
 20
1171.210034727872
 30
0.0
 11
722.2601921717389
 21
1199.847507240577
 31
0.0
  0
LINE
  5
4AC
330
1F
100
AcDbEntity
  8
LAY-10
  6
CONTINUOUS
 62
     7
100
AcDbLine
 10
710.0403225806523
 20
1177.516807450202
 30
0.0
 11
717.500000000007
 21
1201.377930910742
 31
0.0
  0
LINE
  5
4AD
330
1F
100
AcDbEntity
  8
LAY-10
  6
CONTINUOUS
 62
     7
100
AcDbLine
 10
684.9135222413472
 20
1209.655173969899
 30
0.0
 11
680.4774106924461
 21
1185.048308710469
 31
0.0
  0
ARC
  5
4AE
330
1F
100
AcDbEntity
  8
LAY-10
  6
CONTINUOUS
 62
     7
100
AcDbCircle
 10
624.9999999999984
 20
905.5000000000401
 30
0.0
 40
285.0
100
AcDbArc
 50
72.63924585302968
 51
78.77527885116453
  0
ARC
  5
4AF
330
1F
100
AcDbEntity
  8
LAY-10
  6
CONTINUOUS
 62
     7
100
AcDbCircle
 10
624.9999999999984
 20
905.5000000000401
 30
0.0
 40
280.0
100
AcDbArc
 50
71.6160525493438
 51
108.3839474506546
  0
ARC
  5
4B0
330
1F
100
AcDbEntity
  8
LAY-10
  6
CONTINUOUS
 62
     7
100
AcDbCircle
 10
624.9999999999984
 20
905.5000000000401
 30
0.0
 40
285.0
100
AcDbArc
 50
79.78051953659445
 51
107.3607541469688
  0
LINE
  5
4B1
330
1F
100
AcDbEntity
  8
LAY-10
  6
CONTINUOUS
 62
     7
100
AcDbLine
 10
679.999999999998
 20
1210.58195620194
 30
0.0
 11
675.5645161290361
 21
1185.978572637302
 31
0.0
  0
ARC
  5
4B2
330
1F
100
AcDbEntity
  8
LAY-10
  6
CONTINUOUS
 62
     7
100
AcDbCircle
 10
624.9999999999984
 20
905.5000000000401
 30
0.0
 40
310.0
100
AcDbArc
 50
79.78051953659445
 51
107.3607541469688
  0
LINE
  5
4B3
330
1F
100
AcDbEntity
  8
LAY-10
  6
CONTINUOUS
 62
     7
100
AcDbLine
 10
539.9596774193517
 20
1177.516807450204
 30
0.0
 11
532.4999999999984
 21
1201.37793091074
 31
0.0
  0
LINE
  5
4B4
330
1F
100
AcDbEntity
  8
LAY-10
  6
CONTINUOUS
 62
     7
100
AcDbLine
 10
536.69271012575
 20
1171.210034727872
 30
0.0
 11
527.7398078282661
 21
1199.847507240577
 31
0.0
  0
ARC
  5
4B5
330
1F
100
AcDbEntity
  8
LAY-10
  6
CONTINUOUS
 62
     7
100
AcDbCircle
 10
624.9999999999984
 20
905.5000000000401
 30
0.0
 40
310.0
100
AcDbArc
 50
72.63924585302996
 51
78.85635398801352
  0
ARC
  5
4B6
330
1F
100
AcDbEntity
  8
LAY-10
  6
CONTINUOUS
 62
     7
100
AcDbCircle
 10
624.999999999998
 20
905.5000000000001
 30
0.0
 40
310.00000000002
100
AcDbArc
 50
288.2849196955539
 51
71.71508030444822
  0
ARC
  5
4B7
330
1F
100
AcDbEntity
  8
LAY-10
  6
CONTINUOUS
 62
     7
100
AcDbCircle
 10
624.999999999998
 20
905.4999999999997
 30
0.0
 40
310.0
100
AcDbArc
 50
252.6392458530312
 51
287.3607541469689
  0
LINE
  5
4B8
330
1F
100
AcDbEntity
  8
LAY-10
  6
CONTINUOUS
 62
     7
100
AcDbLine
 10
710.0403225806529
 20
633.4831925498357
 30
0.0
 11
717.5000000000052
 21
609.6220690892998
 31
0.0
  0
LINE
  5
4B9
330
1F
100
AcDbEntity
  8
LAY-10
  6
CONTINUOUS
 62
     7
100
AcDbLine
 10
713.3072898742546
 20
639.7899652721682
 30
0.0
 11
722.2601921717385
 21
611.1524927594634
 31
0.0
  0
ARC
  5
4BA
330
1F
100
AcDbEntity
  8
LAY-10
  6
CONTINUOUS
 62
     7
100
AcDbCircle
 10
624.999999999998
 20
905.4999999999997
 30
0.0
 40
280.0
100
AcDbArc
 50
251.616052549343
 51
288.3839474506589
  0
ARC
  5
4BB
330
1F
100
AcDbEntity
  8
LAY-10
  6
CONTINUOUS
 62
     7
100
AcDbCircle
 10
624.999999999998
 20
905.4999999999997
 30
0.0
 40
285.0
100
AcDbArc
 50
252.6392458530312
 51
287.3607541469704
  0
LINE
  5
4BC
330
1F
100
AcDbEntity
  8
LAY-10
  6
CONTINUOUS
 62
     7
100
AcDbLine
 10
536.6927101257495
 20
639.7899652721682
 30
0.0
 11
527.7398078282656
 21
611.1524927594634
 31
0.0
  0
LINE
  5
4BD
330
1F
100
AcDbEntity
  8
LAY-10
  6
CONTINUOUS
 62
     7
100
AcDbLine
 10
539.9596774193512
 20
633.4831925498357
 30
0.0
 11
532.499999999998
 21
609.6220690892998
 31
0.0
  0
ARC
  5
4BE
330
1F
100
AcDbEntity
  8
LAY-10
  6
CONTINUOUS
 62
     7
100
AcDbCircle
 10
624.999999999998
 20
905.5000000000001
 30
0.0
 40
310.00000000002
100
AcDbArc
 50
108.2849196955502
 51
251.7150803044475
  0
LINE
  5
4BF
330
1F
100
AcDbEntity
  8
LAY-10
  6
PHANTOM
 62
     7
100
AcDbLine
 10
361.5577542553393
 20
313.074113777419
 30
0.0
 11
361.9999999994344
 21
315.5822140257088
 31
0.0
  0
LINE
  5
4C0
330
1F
100
AcDbEntity
  8
LAY-10
  6
PHANTOM
 62
     7
100
AcDbLine
 10
315.4395318095204
 20
312.2691172102542
 30
0.0
 11
361.5577542553202
 21
313.0741137774213
 31
0.0
  0
LINE
  5
4C1
330
1F
100
AcDbEntity
  8
LAY-10
  6
PHANTOM
 62
     7
100
AcDbLine
 10
315.4395318094795
 20
312.269117210246
 30
0.0
 11
314.9999999993671
 21
314.7618259740804
 31
0.0
  0
LINE
  5
4C2
330
1F
100
AcDbEntity
  8
LAY-10
  6
PHANTOM
 62
     7
100
AcDbLine
 10
438.4395318094678
 20
314.4160901964179
 30
0.0
 11
437.9999999993545
 21
316.9087989602541
 31
0.0
  0
LINE
  5
4C3
330
1F
100
AcDbEntity
  8
LAY-10
  6
PHANTOM
 62
     7
100
AcDbLine
 10
438.439531809466
 20
314.4160901964279
 30
0.0
 11
624.99999999942
 21
317.6725152817281
 31
0.0
  0
LINE
  5
4C4
330
1F
100
AcDbEntity
  8
LAY-10
  6
PHANTOM
 62
     7
100
AcDbLine
 10
934.5604681893203
 20
312.2691172102542
 30
0.0
 11
624.99999999942
 21
317.6725152817281
 31
0.0
  0
LINE
  5
4C5
330
1F
100
AcDbEntity
  8
LAY-10
  6
PHANTOM
 62
     7
100
AcDbLine
 10
934.560468189361
 20
312.269117210246
 30
0.0
 11
934.9999999994733
 21
314.7618259740803
 31
0.0
  0
DIMENSION
  5
4C7
330
1F
100
AcDbEntity
  8
LAY-20
  6
CONTINUOUS
 62
     4
100
AcDbDimension
  2
*D15
 10
974.9999999994401
 20
129.5000000001102
 30
0.0
 11
624.99999999943
 21
143.5000000597148
 31
0.0
 70
   160
  1
%%c<>
  3
ISO-25
100
AcDbAlignedDimension
 13
274.9999999994199
 23
265.5000000001102
 33
0.0
 14
974.9999999994401
 24
265.5000000001202
 34
0.0
100
AcDbRotatedDimension
1001
ACAD
1000
DSTYLE
1002
{
1070
   270
1070
     2
1070
     6
1000
EX_BNORM
1070
     7
1000
EX_BNORM
1070
    41
1040
12.5
1070
    42
1040
12.00000047683716
1070
    44
1040
12.00000047683716
1070
    73
1070
     0
1070
    74
1070
     0
1070
    75
1070
     0
1070
    76
1070
     0
1070
    77
1070
     1
1070
    78
1070
     8
1070
   140
1040
15.590552
1070
   147
1040
0.0
1070
   173
1070
     1
1070
   176
1070
     4
1070
   177
1070
     4
1070
   178
1070
     7
1070
   271
1070
     1
1070
   277
1070
     2
1070
   279
1070
     2
1070
   280
1070
     0
1070
   287
1070
     5
1070
   340
1005
4C6
1002
}
  0
DIMENSION
  5
4D5
330
1F
100
AcDbEntity
  8
LAY-20
  6
CONTINUOUS
 62
     4
100
AcDbDimension
  2
*D16
 10
924.9999999994202
 20
209.5000000001102
 30
0.0
 11
624.99999999942
 21
223.5000000597148
 31
0.0
 70
   160
  1
%%c<>
  3
ISO-25
100
AcDbAlignedDimension
 13
324.9999999994198
 23
265.5000000001102
 33
0.0
 14
924.9999999994202
 24
265.5000000001102
 34
0.0
100
AcDbRotatedDimension
1001
ACAD
1000
DSTYLE
1002
{
1070
   270
1070
     2
1070
     6
1000
EX_BNORM
1070
     7
1000
EX_BNORM
1070
    41
1040
12.5
1070
    42
1040
12.00000047683716
1070
    44
1040
12.00000047683716
1070
    73
1070
     0
1070
    74
1070
     0
1070
    75
1070
     0
1070
    76
1070
     0
1070
    77
1070
     1
1070
    78
1070
     8
1070
   140
1040
15.590552
1070
   147
1040
0.0
1070
   173
1070
     1
1070
   176
1070
     4
1070
   177
1070
     4
1070
   178
1070
     7
1070
   271
1070
     1
1070
   277
1070
     2
1070
   279
1070
     2
1070
   280
1070
     0
1070
   287
1070
     5
1070
   340
1005
4C6
1002
}
  0
DIMENSION
  5
4E2
330
1F
100
AcDbEntity
  8
LAY-20
  6
CONTINUOUS
 62
     4
100
AcDbDimension
  2
*D17
 10
989.9999999994401
 20
129.5000000001102
 30
0.0
 11
1019.99999999944
 21
143.5000000597148
 31
0.0
 70
   160
  3
ISO-25
100
AcDbAlignedDimension
 13
974.9999999994401
 23
174.5000000001102
 33
0.0
 14
989.9999999994401
 24
265.5000000001102
 34
0.0
100
AcDbRotatedDimension
1001
ACAD
1000
DSTYLE
1002
{
1070
   270
1070
     2
1070
     6
1000
EX_BNORM
1070
     7
1000
EX_BNORM
1070
    41
1040
12.5
1070
    42
1040
12.00000047683716
1070
    44
1040
12.00000047683716
1070
    73
1070
     0
1070
    74
1070
     0
1070
    75
1070
     1
1070
    76
1070
     0
1070
    77
1070
     1
1070
    78
1070
     8
1070
   140
1040
15.590552
1070
   147
1040
0.0
1070
   173
1070
     1
1070
   176
1070
     4
1070
   177
1070
     4
1070
   178
1070
     7
1070
   271
1070
     1
1070
   277
1070
     2
1070
   279
1070
     2
1070
   280
1070
     2
1070
   287
1070
     5
1070
   340
1005
4C6
1002
}
  0
DIMENSION
  5
4F0
330
1F
100
AcDbEntity
  8
LAY-20
  6
CONTINUOUS
 62
     4
100
AcDbDimension
  2
*D18
 10
950.00000000095
 20
411.5000000001102
 30
0.0
 11
624.99999999942
 21
425.5000000597149
 31
0.0
 70
   160
  1
%%c<>
  3
ISO-25
100
AcDbAlignedDimension
 13
299.9999999978901
 23
314.5000000001302
 33
0.0
 14
950.00000000095
 24
314.5000000001302
 34
0.0
100
AcDbRotatedDimension
1001
ACAD
1000
DSTYLE
1002
{
1070
   270
1070
     2
1070
     6
1000
EX_BNORM
1070
     7
1000
EX_BNORM
1070
    41
1040
12.5
1070
    42
1040
12.00000047683716
1070
    44
1040
12.00000047683716
1070
    73
1070
     0
1070
    74
1070
     0
1070
    75
1070
     0
1070
    76
1070
     0
1070
    77
1070
     1
1070
    78
1070
     8
1070
   140
1040
15.590552
1070
   147
1040
0.0
1070
   173
1070
     1
1070
   176
1070
     4
1070
   177
1070
     4
1070
   178
1070
     7
1070
   271
1070
     1
1070
   277
1070
     2
1070
   279
1070
     2
1070
   280
1070
     0
1070
   287
1070
     5
1070
   340
1005
4C6
1002
}
  0
DIMENSION
  5
4FD
330
1F
100
AcDbEntity
  8
LAY-20
  6
CONTINUOUS
 62
     4
100
AcDbDimension
  2
*D19
 10
958.49999999945
 20
451.5000000001102
 30
0.0
 11
624.9999999994199
 21
465.5000000597149
 31
0.0
 70
   160
  1
%%c<>
  3
ISO-25
100
AcDbAlignedDimension
 13
291.4999999993898
 23
315.5000000001102
 33
0.0
 14
958.49999999945
 24
315.5000000001102
 34
0.0
100
AcDbRotatedDimension
1001
ACAD
1000
DSTYLE
1002
{
1070
   270
1070
     2
1070
     6
1000
EX_BNORM
1070
     7
1000
EX_BNORM
1070
    41
1040
12.5
1070
    42
1040
12.00000047683716
1070
    44
1040
12.00000047683716
1070
    73
1070
     0
1070
    74
1070
     0
1070
    75
1070
     0
1070
    76
1070
     0
1070
    77
1070
     1
1070
    78
1070
     8
1070
   140
1040
15.590552
1070
   147
1040
0.0
1070
   173
1070
     1
1070
   176
1070
     4
1070
   177
1070
     4
1070
   178
1070
     7
1070
   271
1070
     1
1070
   277
1070
     2
1070
   279
1070
     2
1070
   280
1070
     0
1070
   287
1070
     5
1070
   340
1005
4C6
1002
}
  0
DIMENSION
  5
50A
330
1F
100
AcDbEntity
  8
LAY-20
  6
CONTINUOUS
 62
     4
100
AcDbDimension
  2
*D20
 10
265.4026247652079
 20
686.3409241745596
 30
0.0
 11
292.526980469798
 21
667.3601620908124
 31
0.0
 70
   160
  3
ISO-25
100
AcDbAlignedDimension
 13
317.0154984156981
 23
739.2304995381302
 33
0.0
 14
327.0141379331982
 24
721.91234788723
 34
0.0
 50
119.9999999999658
100
AcDbRotatedDimension
1001
ACAD
1000
DSTYLE
1002
{
1070
   270
1070
     2
1070
     6
1000
EX_BNORM
1070
     7
1000
EX_BNORM
1070
    41
1040
12.5
1070
    42
1040
12.0000004768371
1070
    44
1040
12.00000047683713
1070
    73
1070
     0
1070
    74
1070
     0
1070
    75
1070
     0
1070
    76
1070
     0
1070
    77
1070
     1
1070
    78
1070
     8
1070
   140
1040
15.590552
1070
   147
1040
0.0
1070
   173
1070
     1
1070
   176
1070
     4
1070
   177
1070
     4
1070
   178
1070
     7
1070
   271
1070
     1
1070
   277
1070
     2
1070
   279
1070
     2
1070
   280
1070
     2
1070
   287
1070
     5
1070
   340
1005
4C6
1002
}
  0
DIMENSION
  5
519
330
1F
100
AcDbEntity
  8
LAY-20
  6
CONTINUOUS
 62
     4
100
AcDbDimension
  2
*D21
 10
300.3862992034163
 20
782.7474226120241
 30
0.0
 11
254.4151560033872
 21
772.371778316552
 31
0.0
 70
   160
  3
ISO-25
100
AcDbAlignedDimension
 13
315.3959181468982
 23
726.7500000000302
 33
0.0
 14
328.386299203598
 24
734.2500000000302
 34
0.0
 50
210.0000000001276
100
AcDbRotatedDimension
1001
ACAD
1000
DSTYLE
1002
{
1070
   270
1070
     2
1070
     6
1000
EX_BNORM
1070
     7
1000
EX_BNORM
1070
    41
1040
12.5
1070
    42
1040
12.00000047683706
1070
    44
1040
12.00000047683715
1070
    73
1070
     0
1070
    74
1070
     0
1070
    75
1070
     0
1070
    76
1070
     0
1070
    77
1070
     1
1070
    78
1070
     8
1070
   140
1040
15.590552
1070
   147
1040
0.0
1070
   173
1070
     1
1070
   176
1070
     4
1070
   177
1070
     4
1070
   178
1070
     7
1070
   271
1070
     1
1070
   277
1070
     2
1070
   279
1070
     2
1070
   280
1070
     1
1070
   287
1070
     5
1070
   340
1005
4C6
1002
}
  0
DIMENSION
  5
528
330
1F
100
AcDbEntity
  8
LAY-20
  6
CONTINUOUS
 62
     4
100
AcDbDimension
  2
*D22
 10
975.000000000018
 20
1326.50000000013
 30
0.0
 11
625.000000000008
 21
1340.500000059735
 31
0.0
 70
   160
  1
%%c<>
  3
ISO-25
100
AcDbAlignedDimension
 13
274.9999999999978
 23
905.5000000000302
 33
0.0
 14
975.000000000018
 24
905.5000000000302
 34
0.0
100
AcDbRotatedDimension
1001
ACAD
1000
DSTYLE
1002
{
1070
   270
1070
     2
1070
     6
1000
EX_BNORM
1070
     7
1000
EX_BNORM
1070
    41
1040
12.5
1070
    42
1040
12.00000047683716
1070
    44
1040
12.00000047683716
1070
    73
1070
     0
1070
    74
1070
     0
1070
    75
1070
     0
1070
    76
1070
     0
1070
    77
1070
     1
1070
    78
1070
     8
1070
   140
1040
15.590552
1070
   147
1040
0.0
1070
   173
1070
     1
1070
   176
1070
     4
1070
   177
1070
     4
1070
   178
1070
     7
1070
   271
1070
     1
1070
   277
1070
     2
1070
   279
1070
     2
1070
   280
1070
     0
1070
   287
1070
     5
1070
   340
1005
4C6
1002
}
  0
DIMENSION
  5
535
330
1F
100
AcDbEntity
  8
LAY-20
  6
CONTINUOUS
 62
     4
100
AcDbDimension
  2
*D23
 10
1047.0
 20
265.50000000011
 30
0.0
 11
1034.5
 21
290.50000000011
 31
0.0
 70
   160
  3
ISO-25
100
AcDbAlignedDimension
 13
958.49999999945
 23
315.50000000011
 33
0.0
 14
989.9999999994401
 24
265.50000000011
 34
0.0
 50
90.0
100
AcDbRotatedDimension
1001
ACAD
1000
DSTYLE
1002
{
1070
   270
1070
     2
1070
     6
1000
EX_BNORM
1070
     7
1000
EX_BNORM
1070
    41
1040
15.0
1070
    42
1040
7.5
1070
    44
1040
7.5
1070
    73
1070
     0
1070
    74
1070
     0
1070
    75
1070
     0
1070
    76
1070
     0
1070
    77
1070
     1
1070
    78
1070
     8
1070
   140
1040
15.590552
1070
   147
1040
0.0
1070
   173
1070
     1
1070
   176
1070
     4
1070
   177
1070
     4
1070
   178
1070
     7
1070
   271
1070
     1
1070
   277
1070
     2
1070
   279
1070
     2
1070
   280
1070
     0
1070
   287
1070
     5
1070
   340
1005
4C6
1002
}
  0
DIMENSION
  5
542
330
1F
100
AcDbEntity
  8
LAY-20
  6
CONTINUOUS
 62
     4
100
AcDbDimension
  2
*D24
 10
274.99999999942
 20
170.0
 30
0.0
 11
624.9999999994301
 21
182.5
 31
0.0
 70
   160
  1
アンカーピッチ<>
  3
ISO-25
100
AcDbAlignedDimension
 13
974.9999999994401
 23
169.50000000011
 33
0.0
 14
274.99999999942
 24
170.0
 34
0.0
100
AcDbRotatedDimension
1001
ACAD
1000
DSTYLE
1002
{
1070
   270
1070
     2
1070
     6
1000
EX_BNORM
1070
     7
1000
EX_NONE
1070
    41
1040
15.0
1070
    42
1040
0.0
1070
    44
1040
0.0
1070
    73
1070
     0
1070
    74
1070
     0
1070
    75
1070
     0
1070
    76
1070
     1
1070
    77
1070
     1
1070
    78
1070
     8
1070
   140
1040
15.590552
1070
   147
1040
0.0
1070
   173
1070
     1
1070
   176
1070
     4
1070
   177
1070
     4
1070
   178
1070
     7
1070
   271
1070
     1
1070
   277
1070
     2
1070
   279
1070
     2
1070
   280
1070
     0
1070
   287
1070
     5
1070
   340
1005
4C6
1002
}
  0
LINE
  5
54E
330
1F
100
AcDbEntity
  8
LAY-255
  6
CONTINUOUS
 62
     7
100
AcDbLine
 10
1925.0
 20
110.0
 30
0.0
 11
1425.0
 21
110.0
 31
0.0
  0
LINE
  5
54F
330
1F
100
AcDbEntity
  8
LAY-255
  6
CONTINUOUS
 62
     7
100
AcDbLine
 10
1444.0
 20
79.99999999999999
 30
0.0
 11
1484.0
 21
105.0
 31
0.0
  0
LINE
  5
550
330
1F
100
AcDbEntity
  8
LAY-255
  6
CONTINUOUS
 62
     7
100
AcDbLine
 10
1484.0
 20
105.0
 30
0.0
 11
1524.0
 21
79.99999999999999
 31
0.0
  0
LINE
  5
551
330
1F
100
AcDbEntity
  8
LAY-255
  6
CONTINUOUS
 62
     7
100
AcDbLine
 10
1524.0
 20
79.99999999999999
 30
0.0
 11
1484.0
 21
55.0
 31
0.0
  0
LINE
  5
552
330
1F
100
AcDbEntity
  8
LAY-255
  6
CONTINUOUS
 62
     7
100
AcDbLine
 10
1484.0
 20
55.0
 30
0.0
 11
1444.0
 21
79.99999999999999
 31
0.0
  0
LINE
  5
553
330
1F
100
AcDbEntity
  8
LAY-255
  6
CONTINUOUS
 62
     7
100
AcDbLine
 10
25.0
 20
50.0
 30
0.0
 11
1925.0
 21
50.0
 31
0.0
  0
LINE
  5
554
330
1F
100
AcDbEntity
  8
LAY-255
  6
CONTINUOUS
 62
     7
100
AcDbLine
 10
25.0
 20
1400.0
 30
0.0
 11
1925.0
 21
1400.0
 31
0.0
  0
LINE
  5
555
330
1F
100
AcDbEntity
  8
LAY-255
  6
CONTINUOUS
 62
     7
100
AcDbLine
 10
25.0
 20
50.0
 30
0.0
 11
25.0
 21
1400.0
 31
0.0
  0
LINE
  5
556
330
1F
100
AcDbEntity
  8
LAY-255
  6
CONTINUOUS
 62
     7
100
AcDbLine
 10
1925.0
 20
50.0
 30
0.0
 11
1925.0
 21
1400.0
 31
0.0
  0
LINE
  5
557
330
1F
100
AcDbEntity
  8
LAY-255
  6
CONTINUOUS
 62
     4
100
AcDbLine
 10
1425.0
 20
140.0
 30
0.0
 11
1925.0
 21
140.0
 31
0.0
  0
LINE
  5
558
330
1F
100
AcDbEntity
  8
LAY-255
  6
CONTINUOUS
 62
     7
100
AcDbLine
 10
1425.0
 20
50.0
 30
0.0
 11
1425.0
 21
335.0
 31
0.0
  0
LINE
  5
559
330
1F
100
AcDbEntity
  8
LAY-255
  6
CONTINUOUS
 62
     4
100
AcDbLine
 10
1675.0
 20
140.0
 30
0.0
 11
1675.0
 21
110.0
 31
0.0
  0
LINE
  5
55A
330
1F
100
AcDbEntity
  8
LAY-255
  6
CONTINUOUS
 62
     7
100
AcDbLine
 10
1925.0
 20
335.0
 30
0.0
 11
1425.0
 21
335.0
 31
0.0
  0
LINE
  5
55B
330
1F
100
AcDbEntity
  8
LAY-255
  6
CONTINUOUS
 62
     4
100
AcDbLine
 10
1915.0
 20
275.0
 30
0.0
 11
1435.0
 21
275.0
 31
0.0
  0
LINE
  5
55C
330
1F
100
AcDbEntity
  8
LAY-255
  6
CONTINUOUS
 62
     4
100
AcDbLine
 10
1915.0
 20
305.0
 30
0.0
 11
1435.0
 21
305.0
 31
0.0
  0
POINT
  5
55D
330
1F
100
AcDbEntity
  8
LAY-255
  6
CONTINUOUS
 62
     7
100
AcDbPoint
 10
1445.0
 20
250.0
 30
0.0
  0
POINT
  5
55E
330
1F
100
AcDbEntity
  8
LAY-255
  6
CONTINUOUS
 62
     7
100
AcDbPoint
 10
1500.0
 20
280.0
 30
0.0
  0
POINT
  5
55F
330
1F
100
AcDbEntity
  8
LAY-255
  6
CONTINUOUS
 62
     7
100
AcDbPoint
 10
1500.0
 20
310.0
 30
0.0
  0
POINT
  5
560
330
1F
100
AcDbEntity
  8
LAY-255
  6
CONTINUOUS
 62
     7
100
AcDbPoint
 10
1445.0
 20
175.0
 30
0.0
  0
POINT
  5
561
330
1F
100
AcDbEntity
  8
LAY-255
  6
CONTINUOUS
 62
     7
100
AcDbPoint
 10
1445.0
 20
200.0
 30
0.0
  0
POINT
  5
562
330
1F
100
AcDbEntity
  8
LAY-255
  6
CONTINUOUS
 62
     7
100
AcDbPoint
 10
1445.0
 20
149.9999999999999
 30
0.0
  0
POINT
  5
563
330
1F
100
AcDbEntity
  8
LAY-255
  6
CONTINUOUS
 62
     7
100
AcDbPoint
 10
1445.0
 20
225.0
 30
0.0
  0
TEXT
  5
564
330
1F
100
AcDbEntity
  8
LAY-255
  6
CONTINUOUS
 62
     7
100
AcDbText
 10
1540.691894370117
 20
77.71874999999999
 30
0.0
 40
25.78125
  1
福西鋳物株式会社
 41
1.342691871783662
  7
EXCADSTD
100
AcDbText
  0
TEXT
  5
565
330
1F
100
AcDbEntity
  8
LAY-255
  6
CONTINUOUS
 62
     7
100
AcDbText
 10
1542.546875
 20
59.90624999999999
 30
0.0
 40
8.59375
  1
ＦＵＫＵＮＩＳＨＩ
 41
1.204799226045263
  7
EXCADSTD
100
AcDbText
  0
TEXT
  5
566
330
1F
100
AcDbEntity
  8
LAY-255
  6
CONTINUOUS
 62
     7
100
AcDbText
 10
1663.595982142857
 20
59.90624999999999
 30
0.0
 40
8.59375
  1
ＦＯＵＮＤＲＹ
 41
1.243252752978497
  7
EXCADSTD
100
AcDbText
  0
TEXT
  5
567
330
1F
100
AcDbEntity
  8
LAY-255
  6
CONTINUOUS
 62
     7
100
AcDbText
 10
1759.97295734375
 20
59.90624999999999
 30
0.0
 40
8.59375
  1
ＣＯ.,ＬＴＤ.
 41
1.243831100341625
  7
EXCADSTD
100
AcDbText
  0
TEXT
  5
568
330
1F
100
AcDbEntity
  8
LAY-255
  6
CONTINUOUS
 62
     7
100
AcDbText
 10
1470.171875
 20
68.59375
 30
0.0
 40
25.78125
  1
S
 41
0.7582677563636363
  7
EXCADSTD
100
AcDbText
  0
TEXT
  5
569
330
1F
100
AcDbEntity
  8
LAY-255
  6
CONTINUOUS
 62
     7
100
AcDbText
 10
1485.5234375
 20
68.7470518868
 30
0.0
 40
25.78125
  1
F
 41
0.7440945272727272
  7
EXCADSTD
100
AcDbText
  0
TEXT
  5
56A
330
1F
100
AcDbEntity
  8
LAY-255
  6
CONTINUOUS
 62
     7
100
AcDbText
 10
1685.52734375
 20
122.1093749999999
 30
0.0
 40
12.890625
  1
縮尺
 41
1.080708718181818
  7
EXCADSTD
100
AcDbText
  0
TEXT
  5
56B
330
1F
100
AcDbEntity
  8
LAY-255
  6
CONTINUOUS
 62
     7
100
AcDbText
 10
1436.328125
 20
282.8125
 30
0.0
 40
17.1875
  1
型式
 41
1.056348480681818
  7
EXCADSTD
100
AcDbText
  0
TEXT
  5
56C
330
1F
100
AcDbEntity
  8
LAY-255
  6
CONTINUOUS
 62
     7
100
AcDbText
 10
1437.109375
 20
312.8125
 30
0.0
 40
17.1875
  1
品名
 41
0.9788386340909091
  7
EXCADSTD
100
AcDbText
  0
TEXT
  5
56D
330
1F
100
AcDbEntity
  8
LAY-255
  6
CONTINUOUS
 62
     7
100
AcDbText
 10
1435.76171875
 20
122.1093749999999
 30
0.0
 40
12.890625
  1
作成日
 41
1.000629973818182
  7
EXCADSTD
100
AcDbText
  0
TEXT
  5
56E
330
1F
100
AcDbEntity
  8
LAY-255
  6
CONTINUOUS
 62
     7
100
AcDbText
 10
1741.40625
 20
117.8124999999999
 30
0.0
 40
17.1875
  1
１：５
 41
0.888661464
  7
EXCADSTD
100
AcDbText
  0
TEXT
  5
56F
330
1F
100
AcDbEntity
  8
LAY-255
  6
CONTINUOUS
 62
     7
100
AcDbText
 10
1501.953125
 20
312.8125
 30
0.0
 40
17.1875
  1
マンホールカバー
 41
1.015410627012987
  7
EXCADSTD
100
AcDbText
  0
TEXT
  5
570
330
1F
100
AcDbEntity
  8
LAY-255
  6
CONTINUOUS
 62
     7
100
AcDbText
 10
1447.265625
 20
252.8125000000001
 30
0.0
 40
17.1875
  1
区分：中荷重用
 41
1.007228657526081
  7
EXCADSTD
100
AcDbText
  0
TEXT
  5
571
330
1F
100
AcDbEntity
  8
LAY-255
  6
CONTINUOUS
 62
     7
100
AcDbText
 10
1503.75
 20
282.8125
 30
0.0
 40
17.1875
  1
ＳＦ－６０ＡＨＲＰ型
 41
1.003802844421487
  7
EXCADSTD
100
AcDbText
  0
TEXT
  5
572
330
1F
100
AcDbEntity
  8
LAY-255
  6
CONTINUOUS
 62
     7
100
AcDbText
 10
1446.875
 20
227.8125
 30
0.0
 40
17.1875
  1
防水：簡易防水防臭型
 41
1.013466409710744
  7
EXCADSTD
100
AcDbText
  0
TEXT
  5
573
330
1F
100
AcDbEntity
  8
LAY-255
  6
CONTINUOUS
 62
     7
100
AcDbText
 10
1504.921875
 20
117.8124999999999
 30
0.0
 40
17.1875
  1
２０／０５／１３
 41
0.9733971264935065
  7
EXCADSTD
100
AcDbText
  0
TEXT
  5
574
330
1F
100
AcDbEntity
  8
LAY-255
  6
CONTINUOUS
 62
     7
100
AcDbText
 10
1445.859375
 20
202.8125
 30
0.0
 40
17.1875
  1
破壊荷重：６０ｋＮ以上
 41
1.016600426804124
  7
EXCADSTD
100
AcDbText
  0
ENDSEC
  0
SECTION
  2
OBJECTS
  0
DICTIONARY
  5
C
330
0
100
AcDbDictionary
  3
ACAD_GROUP
350
D
  3
ACAD_LAYOUT
350
1A
  3
ACAD_MATERIAL
350
43
  3
ACAD_MLEADERSTYLE
350
6B
  3
ACAD_MLINESTYLE
350
17
  3
ACAD_PLOTSETTINGS
350
19
  3
ACAD_SCALELIST
350
47
  3
ACAD_VISUALSTYLE
350
2A
  3
ACDBHEADERROUNDTRIPXREC
350
575
  3
ACDBVARIABLEDICTIONARY
350
596
  0
DICTIONARY
  5
5A1
330
8
100
AcDbDictionary
280
     1
  3
ACAD_XREC_ROUNDTRIP
360
5A2
  0
DICTIONARY
  5
D
102
{ACAD_REACTORS
330
C
102
}
330
C
100
AcDbDictionary
  0
DICTIONARY
  5
1A
102
{ACAD_REACTORS
330
C
102
}
330
C
100
AcDbDictionary
  0
DICTIONARY
  5
43
102
{ACAD_REACTORS
330
C
102
}
330
C
100
AcDbDictionary
  3
BYBLOCK
350
45
  3
BYLAYER
350
44
  3
GLOBAL
350
46
  0
DICTIONARY
  5
6B
102
{ACAD_REACTORS
330
C
102
}
330
C
100
AcDbDictionary
  3
STANDARD
350
6C
  0
DICTIONARY
  5
17
102
{ACAD_REACTORS
330
C
102
}
330
C
100
AcDbDictionary
  3
STANDARD
350
18
  0
DICTIONARY
  5
19
102
{ACAD_REACTORS
330
C
102
}
330
C
100
AcDbDictionary
  0
DICTIONARY
  5
47
102
{ACAD_REACTORS
330
C
102
}
330
C
100
AcDbDictionary
  3
A0
350
48
  3
A1
350
49
  3
A2
350
4A
  3
A3
350
4B
  3
A4
350
4C
  3
A5
350
4D
  3
A6
350
4E
  3
A7
350
4F
  3
A8
350
50
  3
A9
350
51
  3
B0
350
52
  3
B1
350
53
  3
B2
350
54
  3
B3
350
55
  3
B4
350
56
  3
B5
350
57
  3
B6
350
58
  3
B7
350
59
  3
B8
350
5A
  3
B9
350
5B
  3
C0
350
5C
  3
C1
350
5D
  3
C2
350
5E
  3
C3
350
5F
  3
C4
350
60
  3
C5
350
61
  3
C6
350
62
  3
C7
350
63
  3
C8
350
64
  3
C9
350
65
  3
D0
350
66
  3
D1
350
67
  3
D2
350
68
  0
DICTIONARY
  5
2A
102
{ACAD_REACTORS
330
C
102
}
330
C
100
AcDbDictionary
  3
2DWIREFRAME
350
2F
  3
BASIC
350
32
  3
BRIGHTEN
350
36
  3
COLORCHANGE
350
3A
  3
CONCEPTUAL
350
34
  3
DIM
350
35
  3
EDGECOLOROFF
350
3D
  3
FACEPATTERN
350
39
  3
FLAT
350
2B
  3
FLATWITHEDGES
350
2C
  3
GOURAUD
350
2D
  3
GOURAUDWITHEDGES
350
2E
  3
HIDDEN
350
31
  3
JITTEROFF
350
3B
  3
LINEPATTERN
350
38
  3
OVERHANGOFF
350
3C
  3
REALISTIC
350
33
  3
SHADED
350
42
  3
SHADED_WITH_EDGES
350
41
  3
SHADES_OF_GRAY
350
3E
  3
SKETCHY
350
3F
  3
THICKEN
350
37
  3
WIREFRAME
350
30
  3
X-RAY
350
40
  0
DICTIONARY
  5
575
102
{ACAD_REACTORS
330
C
102
}
330
C
100
AcDbDictionary
  3
CEPSNID
350
57F
  3
CEPSNTYPE
350
57E
  3
DIMSTYLEDATA
350
595
  3
FINGERPRINTGUID
350
580
  3
HYPERLINKBASE
350
578
  3
INSUNITS
350
57D
  3
LAYOUTDICT
350
57A
  3
LWETCUNION
350
57C
  3
PLOTSETDICT
350
57B
  3
PSVPSCALE
350
582
  3
PUCSBASE
350
585
  3
PUCSORGBACK
350
58B
  3
PUCSORGBOTTOM
350
587
  3
PUCSORGFRONT
350
58A
  3
PUCSORGLEFT
350
588
  3
PUCSORGRIGHT
350
589
  3
PUCSORGTOP
350
586
  3
PUCSORTHOREF
350
583
  3
PUCSORTHOVIEW
350
584
  3
STYLESHEET
350
579
  3
TSTACKALIGN
350
576
  3
TSTACKSIZE
350
577
  3
UCSBASE
350
58E
  3
UCSORGBACK
350
594
  3
UCSORGBOTTOM
350
590
  3
UCSORGFRONT
350
593
  3
UCSORGLEFT
350
591
  3
UCSORGRIGHT
350
592
  3
UCSORGTOP
350
58F
  3
UCSORTHOREF
350
58C
  3
UCSORTHOVIEW
350
58D
  3
VERSIONGUID
350
581
  0
DICTIONARY
  5
596
102
{ACAD_REACTORS
330
C
102
}
330
C
100
AcDbDictionary
  3
CANNOSCALE
350
5A3
  3
CENTEREXE
350
59D
  3
CENTERLTYPEFILE
350
59E
  3
CMLEADERSTYLE
350
598
  3
CTABLESTYLE
350
597
  3
DIMASSOC
350
59F
  3
HIDETEXT
350
5A0
  3
MSLTSCALE
350
5A4
  3
PSOLHEIGHT
350
59A
  3
PSOLWIDTH
350
599
  0
XRECORD
  5
5A2
102
{ACAD_REACTORS
330
5A1
102
}
330
5A1
100
AcDbXrecord
102
VTR_0.000_0.000_1.000_1.000_VISUALSTYLE
340
2F
102
VTR_0.000_0.000_1.000_1.000_GRIDDISPLAY
 70
     3
102
VTR_0.000_0.000_1.000_1.000_GRIDMAJOR
 70
     5
102
VTR_0.000_0.000_1.000_1.000_DEFAULTLIGHTING
280
     1
102
VTR_0.000_0.000_1.000_1.000_DEFAULTLIGHTINGTYPE
 70
     1
102
VTR_0.000_0.000_1.000_1.000_BRIGHTNESS
141
0.0
102
VTR_0.000_0.000_1.000_1.000_CONTRAST
142
0.0
  0
MATERIAL
  5
45
102
{ACAD_REACTORS
330
43
102
}
102
{ACAD_XDICTIONARY
360
5A7
102
}
330
43
100
AcDbMaterial
  1
BYBLOCK
  0
MATERIAL
  5
44
102
{ACAD_REACTORS
330
43
102
}
102
{ACAD_XDICTIONARY
360
5A5
102
}
330
43
100
AcDbMaterial
  1
BYLAYER
  0
MATERIAL
  5
46
102
{ACAD_REACTORS
330
43
102
}
102
{ACAD_XDICTIONARY
360
5A9
102
}
330
43
100
AcDbMaterial
  1
GLOBAL
  0
ACAD_PROXY_OBJECT
  5
6C
102
{ACAD_REACTORS
330
6B
102
}
330
6B
100
AcDbProxyObject
 90
      499
 91
      505
 93
      610
310
40901902A4063FBFFFFFE0000000000000020400000000000020404214DD185B99185C990000000000000104090141901A00000000000004100000000000000041025764000000000000039000
340
14
340
0
340
11
340
0
 94
        0
1001
ACAD_MLEADERVER
1070
     2
  0
MLINESTYLE
  5
18
102
{ACAD_REACTORS
330
17
102
}
330
17
100
AcDbMlineStyle
  2
Standard
 70
     0
  3

 62
   256
 51
90.0
 52
90.0
 71
     2
 49
0.5
 62
   256
  6
BYLAYER
 49
-0.5
 62
   256
  6
BYLAYER
  0
ACAD_PROXY_OBJECT
  5
48
102
{ACAD_REACTORS
330
47
102
}
330
47
100
AcDbProxyObject
 90
      499
 91
      503
 93
       41
310
903313A31580
  0
ACAD_PROXY_OBJECT
  5
49
102
{ACAD_REACTORS
330
47
102
}
330
47
100
AcDbProxyObject
 90
      499
 91
      503
 93
      105
310
903313A324000000000000004000
  0
ACAD_PROXY_OBJECT
  5
4A
102
{ACAD_REACTORS
330
47
102
}
330
47
100
AcDbProxyObject
 90
      499
 91
      503
 93
      105
310
903313A344000000000000104000
  0
ACAD_PROXY_OBJECT
  5
4B
102
{ACAD_REACTORS
330
47
102
}
330
47
100
AcDbProxyObject
 90
      499
 91
      503
 93
      105
310
903313A354000000000000144000
  0
ACAD_PROXY_OBJECT
  5
4C
102
{ACAD_REACTORS
330
47
102
}
330
47
100
AcDbProxyObject
 90
      499
 91
      503
 93
      105
310
903313A384000000000000204000
  0
ACAD_PROXY_OBJECT
  5
4D
102
{ACAD_REACTORS
330
47
102
}
330
47
100
AcDbProxyObject
 90
      499
 91
      503
 93
      113
310
904313A31304000000000000244000
  0
ACAD_PROXY_OBJECT
  5
4E
102
{ACAD_REACTORS
330
47
102
}
330
47
100
AcDbProxyObject
 90
      499
 91
      503
 93
      113
310
904313A31364000000000000304000
  0
ACAD_PROXY_OBJECT
  5
4F
102
{ACAD_REACTORS
330
47
102
}
330
47
100
AcDbProxyObject
 90
      499
 91
      503
 93
      113
310
904313A32304000000000000344000
  0
ACAD_PROXY_OBJECT
  5
50
102
{ACAD_REACTORS
330
47
102
}
330
47
100
AcDbProxyObject
 90
      499
 91
      503
 93
      113
310
904313A333040000000000003E4000
  0
ACAD_PROXY_OBJECT
  5
51
102
{ACAD_REACTORS
330
47
102
}
330
47
100
AcDbProxyObject
 90
      499
 91
      503
 93
      113
310
904313A34304000000000000444000
  0
ACAD_PROXY_OBJECT
  5
52
102
{ACAD_REACTORS
330
47
102
}
330
47
100
AcDbProxyObject
 90
      499
 91
      503
 93
      113
310
904313A35304000000000000494000
  0
ACAD_PROXY_OBJECT
  5
53
102
{ACAD_REACTORS
330
47
102
}
330
47
100
AcDbProxyObject
 90
      499
 91
      503
 93
      121
310
905313A3130304000000000000594000
  0
ACAD_PROXY_OBJECT
  5
54
102
{ACAD_REACTORS
330
47
102
}
330
47
100
AcDbProxyObject
 90
      499
 91
      503
 93
      105
310
903323A310000000000000010100
  0
ACAD_PROXY_OBJECT
  5
55
102
{ACAD_REACTORS
330
47
102
}
330
47
100
AcDbProxyObject
 90
      499
 91
      503
 93
      105
310
903343A310000000000000410100
  0
ACAD_PROXY_OBJECT
  5
56
102
{ACAD_REACTORS
330
47
102
}
330
47
100
AcDbProxyObject
 90
      499
 91
      503
 93
      105
310
903383A310000000000000810100
  0
ACAD_PROXY_OBJECT
  5
57
102
{ACAD_REACTORS
330
47
102
}
330
47
100
AcDbProxyObject
 90
      499
 91
      503
 93
      113
310
90431303A310000000000000910100
  0
ACAD_PROXY_OBJECT
  5
58
102
{ACAD_REACTORS
330
47
102
}
330
47
100
AcDbProxyObject
 90
      499
 91
      503
 93
      121
310
9053130303A310000000000001650100
  0
ACAD_PROXY_OBJECT
  5
59
102
{ACAD_REACTORS
330
47
102
}
330
47
100
AcDbProxyObject
 90
      499
 91
      503
 93
      257
310
90E312F31323822203D2031272D3022000000000000200FC000000000000284000
  0
ACAD_PROXY_OBJECT
  5
5A
102
{ACAD_REACTORS
330
47
102
}
330
47
100
AcDbProxyObject
 90
      499
 91
      503
 93
      249
310
90D312F363422203D2031272D3022000000000000240FC000000000000284000
  0
ACAD_PROXY_OBJECT
  5
5B
102
{ACAD_REACTORS
330
47
102
}
330
47
100
AcDbProxyObject
 90
      499
 91
      503
 93
      249
310
90D312F333222203D2031272D3022000000000000280FC000000000000284000
  0
ACAD_PROXY_OBJECT
  5
5C
102
{ACAD_REACTORS
330
47
102
}
330
47
100
AcDbProxyObject
 90
      499
 91
      503
 93
      249
310
90D312F313622203D2031272D30220000000000002C0FC000000000000284000
  0
ACAD_PROXY_OBJECT
  5
5D
102
{ACAD_REACTORS
330
47
102
}
330
47
100
AcDbProxyObject
 90
      499
 91
      503
 93
      249
310
90D332F333222203D2031272D30220000000000002E0FC000000000000284000
  0
ACAD_PROXY_OBJECT
  5
5E
102
{ACAD_REACTORS
330
47
102
}
330
47
100
AcDbProxyObject
 90
      499
 91
      503
 93
      241
310
90C312F3822203D2031272D3022000000000000300FC000000000000284000
  0
ACAD_PROXY_OBJECT
  5
5F
102
{ACAD_REACTORS
330
47
102
}
330
47
100
AcDbProxyObject
 90
      499
 91
      503
 93
      249
310
90D332F313622203D2031272D3022000000000000320FC000000000000284000
  0
ACAD_PROXY_OBJECT
  5
60
102
{ACAD_REACTORS
330
47
102
}
330
47
100
AcDbProxyObject
 90
      499
 91
      503
 93
      241
310
90C312F3422203D2031272D3022000000000000340FC000000000000284000
  0
ACAD_PROXY_OBJECT
  5
61
102
{ACAD_REACTORS
330
47
102
}
330
47
100
AcDbProxyObject
 90
      499
 91
      503
 93
      241
310
90C332F3822203D2031272D3022000000000000360FC000000000000284000
  0
ACAD_PROXY_OBJECT
  5
62
102
{ACAD_REACTORS
330
47
102
}
330
47
100
AcDbProxyObject
 90
      499
 91
      503
 93
      241
310
90C312F3222203D2031272D3022000000000000380FC000000000000284000
  0
ACAD_PROXY_OBJECT
  5
63
102
{ACAD_REACTORS
330
47
102
}
330
47
100
AcDbProxyObject
 90
      499
 91
      503
 93
      241
310
90C332F3422203D2031272D30220000000000003A0FC000000000000284000
  0
ACAD_PROXY_OBJECT
  5
64
102
{ACAD_REACTORS
330
47
102
}
330
47
100
AcDbProxyObject
 90
      499
 91
      503
 93
      161
310
90A3122203D2031272D30224000000000000284000
  0
ACAD_PROXY_OBJECT
  5
65
102
{ACAD_REACTORS
330
47
102
}
330
47
100
AcDbProxyObject
 90
      499
 91
      503
 93
      257
310
90E312D312F3222203D2031272D30220000000000003E0FC000000000000284000
  0
ACAD_PROXY_OBJECT
  5
66
102
{ACAD_REACTORS
330
47
102
}
330
47
100
AcDbProxyObject
 90
      499
 91
      503
 93
      225
310
90A3322203D2031272D302200000000000002100000000000000284000
  0
ACAD_PROXY_OBJECT
  5
67
102
{ACAD_REACTORS
330
47
102
}
330
47
100
AcDbProxyObject
 90
      499
 91
      503
 93
      225
310
90A3622203D2031272D302200000000000006100000000000000284000
  0
ACAD_PROXY_OBJECT
  5
68
102
{ACAD_REACTORS
330
47
102
}
330
47
100
AcDbProxyObject
 90
      499
 91
      503
 93
      249
310
90D31272D3022203D2031272D30220000000000000A100000000000000284000
  0
ACAD_PROXY_OBJECT
  5
2F
102
{ACAD_REACTORS
330
2A
102
}
330
2A
100
AcDbProxyObject
 90
      499
 91
      501
 93
      436
310
42CC9915DA5C99599C985B595049028333333333333E33F0000000000000F90107901411070040501600405405064090741402480A0340
1001
ACAD
1000
AcDbSavedByObjectVersion
1070
     0
  0
ACAD_PROXY_OBJECT
  5
32
102
{ACAD_REACTORS
330
2A
102
}
330
2A
100
AcDbProxyObject
 90
      499
 91
      501
 93
      388
310
4150985CDA58D07406404333333333333E33F0000000000000F90107A41107004050150841D405064090741402480A0350
1001
ACAD
1000
AcDbSavedByObjectVersion
1070
     0
  0
ACAD_PROXY_OBJECT
  5
36
102
{ACAD_REACTORS
330
2A
102
}
330
2A
100
AcDbProxyObject
 90
      499
 91
      501
 93
      428
310
42109C9A59DA1D195B90C409028333333333333E33F0000000000000F9010790141107004050150841D405064090741402480A029950
1001
ACAD
1000
AcDbSavedByObjectVersion
1070
     0
  0
ACAD_PROXY_OBJECT
  5
3A
102
{ACAD_REACTORS
330
2A
102
}
330
2A
100
AcDbProxyObject
 90
      499
 91
      501
 93
      452
310
42D0DBDB1BDC90DA185B99D95104090240C333333333333E33F0000000000000F90108901411070040501508421405064090741402480A0350
1001
ACAD
1000
AcDbSavedByObjectVersion
1070
     0
  0
ACAD_PROXY_OBJECT
  5
34
102
{ACAD_REACTORS
330
2A
102
}
330
2A
100
AcDbProxyObject
 90
      499
 91
      501
 93
      500
310
4290DBDB98D95C1D1D585B10940D028333333333333E33F0000000000000F90107902409070040501000000000018199010841D405064090740C02480A0340
1001
ACAD
1000
AcDbSavedByObjectVersion
1070
     0
  0
ACAD_PROXY_OBJECT
  5
35
102
{ACAD_REACTORS
330
2A
102
}
330
2A
100
AcDbProxyObject
 90
      499
 91
      501
 93
      412
310
40D11A5B50B409028333333333333E33F0000000000000F9010790141107004050150841D405064090741402480A02677FFFFFD0
1001
ACAD
1000
AcDbSavedByObjectVersion
1070
     0
  0
ACAD_PROXY_OBJECT
  5
3D
102
{ACAD_REACTORS
330
2A
102
}
330
2A
100
AcDbProxyObject
 90
      499
 91
      501
 93
      452
310
43115919D950DBDB1BDC93D999916409028333333333333E33F0000000000000F9010790141107004050150841D405064090741402480A0350
1001
ACAD
1000
AcDbSavedByObjectVersion
1070
     0
  0
ACAD_PROXY_OBJECT
  5
39
102
{ACAD_REACTORS
330
2A
102
}
330
2A
100
AcDbProxyObject
 90
      499
 91
      501
 93
      444
310
42D19858D95C185D1D195C9B90F409028333333333333E33F0000000000000F9010790141107004050150841D405064090741402480A0350
1001
ACAD
1000
AcDbSavedByObjectVersion
1070
     0
  0
ACAD_PROXY_OBJECT
  5
2B
102
{ACAD_REACTORS
330
2A
102
}
330
2A
100
AcDbProxyObject
 90
      499
 91
      501
 93
      380
310
41119B185D240901404333333333333E33F0000000000000F9010740A907004050150841D405064090741402480A1B50
1001
ACAD
1000
AcDbSavedByObjectVersion
1070
     0
  0
ACAD_PROXY_OBJECT
  5
2C
102
{ACAD_REACTORS
330
2A
102
}
330
2A
100
AcDbProxyObject
 90
      499
 91
      501
 93
      468
310
43519B185D15DA5D1A115919D95CD0140901404333333333333E33F0000000000000F90107409019070040501600405405064090741402480A1B50
1001
ACAD
1000
AcDbSavedByObjectVersion
1070
     0
  0
ACAD_PROXY_OBJECT
  5
2D
102
{ACAD_REACTORS
330
2A
102
}
330
2A
100
AcDbProxyObject
 90
      499
 91
      501
 93
      404
310
41D1DBDD5C985D5910240902404333333333333E33F0000000000000F9010740A9070040501641D405064090741402480A1B50
1001
ACAD
1000
AcDbSavedByObjectVersion
1070
     0
  0
ACAD_PROXY_OBJECT
  5
2E
102
{ACAD_REACTORS
330
2A
102
}
330
2A
100
AcDbProxyObject
 90
      499
 91
      501
 93
      492
310
4411DBDD5C985D5915DA5D1A115919D95CD0340902404333333333333E33F0000000000000F90107409019070040501600405405064090741402480A1B50
1001
ACAD
1000
AcDbSavedByObjectVersion
1070
     0
  0
ACAD_PROXY_OBJECT
  5
31
102
{ACAD_REACTORS
330
2A
102
}
330
2A
100
AcDbProxyObject
 90
      499
 91
      501
 93
      476
310
41921A5919195B90640502408333333333333E33F0000000000000F901079024090700405020000000000001110200405405064090740C02480A0340
1001
ACAD
1000
AcDbSavedByObjectVersion
1070
     0
  0
ACAD_PROXY_OBJECT
  5
3B
102
{ACAD_REACTORS
330
2A
102
}
330
2A
100
AcDbProxyObject
 90
      499
 91
      501
 93
      428
310
42529A5D1D195C93D999914409028333333333333E33F0000000000000F9010790141107004050150A41D405064090741402480A0350
1001
ACAD
1000
AcDbSavedByObjectVersion
1070
     0
  0
ACAD_PROXY_OBJECT
  5
38
102
{ACAD_REACTORS
330
2A
102
}
330
2A
100
AcDbProxyObject
 90
      499
 91
      501
 93
      444
310
42D31A5B995C185D1D195C9B90E409028333333333333E33F0000000000000F9010790141107004050750841D405064090741402483A0350
1001
ACAD
1000
AcDbSavedByObjectVersion
1070
     0
  0
ACAD_PROXY_OBJECT
  5
3C
102
{ACAD_REACTORS
330
2A
102
}
330
2A
100
AcDbProxyObject
 90
      499
 91
      501
 93
      444
310
42D3DD995C9A185B99D3D999915409028333333333333E33F0000000000000F9010790141107004050150941D405064090741402480A0350
1001
ACAD
1000
AcDbSavedByObjectVersion
1070
     0
  0
ACAD_PROXY_OBJECT
  5
33
102
{ACAD_REACTORS
330
2A
102
}
330
2A
100
AcDbProxyObject
 90
      499
 91
      501
 93
      428
310
425499585B1A5CDD1A58D08409038333333333333E33F0000000000000F9010740A907004050150800405405064090740C02480A1B40
1001
ACAD
1000
AcDbSavedByObjectVersion
1070
     0
  0
ACAD_PROXY_OBJECT
  5
42
102
{ACAD_REACTORS
330
2A
102
}
330
2A
100
AcDbProxyObject
 90
      499
 91
      501
 93
      420
310
4194DA1859195911B40902404333333333333E33F0000000000000F9010740A41107004050150800405405064090840C02480A0B40
1001
ACAD
1000
AcDbSavedByObjectVersion
1070
     0
  0
ACAD_PROXY_OBJECT
  5
41
102
{ACAD_REACTORS
330
2A
102
}
330
2A
100
AcDbProxyObject
 90
      499
 91
      501
 93
      516
310
4454DA18591959081DDA5D1A08195919D95CD1A40902404333333333333E33F0000000000000F901074090142907004050250800405405064090740C02480A0B40
1001
ACAD
1000
AcDbSavedByObjectVersion
1070
     0
  0
ACAD_PROXY_OBJECT
  5
3E
102
{ACAD_REACTORS
330
2A
102
}
330
2A
100
AcDbProxyObject
 90
      499
 91
      501
 93
      532
310
4394DA1859195CC81BD98811DC985E5174090240C333333333333E33F0000000000000F901079024090741D01000000000000111010841D405064090740C02480A0340
1001
ACAD
1000
AcDbSavedByObjectVersion
1070
     0
  0
ACAD_PROXY_OBJECT
  5
3F
102
{ACAD_REACTORS
330
2A
102
}
330
2A
100
AcDbProxyObject
 90
      499
 91
      501
 93
      476
310
41D4DAD95D18DA1E51840502408333333333333E33F0000000000000F901079024090741D01000000000000111010B41D405064090741802480A0340
1001
ACAD
1000
AcDbSavedByObjectVersion
1070
     0
  0
ACAD_PROXY_OBJECT
  5
37
102
{ACAD_REACTORS
330
2A
102
}
330
2A
100
AcDbProxyObject
 90
      499
 91
      501
 93
      412
310
41D51A1A58DAD95B90D409028333333333333E33F0000000000000F9010790141107004050150C41D405064090741402480A0350
1001
ACAD
1000
AcDbSavedByObjectVersion
1070
     0
  0
ACAD_PROXY_OBJECT
  5
30
102
{ACAD_REACTORS
330
2A
102
}
330
2A
100
AcDbProxyObject
 90
      499
 91
      501
 93
      420
310
4255DA5C99599C985B595059028333333333333E33F0000000000000F90107901411070040501600405405064090740C02480A0340
1001
ACAD
1000
AcDbSavedByObjectVersion
1070
     0
  0
ACAD_PROXY_OBJECT
  5
40
102
{ACAD_REACTORS
330
2A
102
}
330
2A
100
AcDbProxyObject
 90
      499
 91
      501
 93
      404
310
41560B54985E51940902404000000000000E03F0000000000000F9010740501907004050150841D405064090740C02480A1B40
1001
ACAD
1000
AcDbSavedByObjectVersion
1070
     0
  0
XRECORD
  5
57F
102
{ACAD_REACTORS
330
575
102
}
330
575
100
AcDbXrecord
340
0
  0
XRECORD
  5
57E
102
{ACAD_REACTORS
330
575
102
}
330
575
100
AcDbXrecord
 90
        0
  0
XRECORD
  5
595
102
{ACAD_REACTORS
330
575
102
}
330
575
100
AcDbXrecord
1000
DSTYLE
1002
{
1070
   340
340
11
1002
}
  0
XRECORD
  5
580
102
{ACAD_REACTORS
330
575
102
}
330
575
100
AcDbXrecord
  1
{9e2ce11e-974b-41d0-9adc-c43bd9de50bc}
  0
XRECORD
  5
578
102
{ACAD_REACTORS
330
575
102
}
330
575
100
AcDbXrecord
  1

  0
XRECORD
  5
57D
102
{ACAD_REACTORS
330
575
102
}
330
575
100
AcDbXrecord
 90
        4
  0
XRECORD
  5
57A
102
{ACAD_REACTORS
330
575
102
}
330
575
100
AcDbXrecord
340
1A
  0
XRECORD
  5
57C
102
{ACAD_REACTORS
330
575
102
}
330
575
100
AcDbXrecord
 90
    10781
  0
XRECORD
  5
57B
102
{ACAD_REACTORS
330
575
102
}
330
575
100
AcDbXrecord
340
19
  0
XRECORD
  5
582
102
{ACAD_REACTORS
330
575
102
}
330
575
100
AcDbXrecord
 40
0.0
  0
XRECORD
  5
585
102
{ACAD_REACTORS
330
575
102
}
330
575
100
AcDbXrecord
340
0
  0
XRECORD
  5
58B
102
{ACAD_REACTORS
330
575
102
}
330
575
100
AcDbXrecord
 10
0.0
 20
0.0
 30
0.0
  0
XRECORD
  5
587
102
{ACAD_REACTORS
330
575
102
}
330
575
100
AcDbXrecord
 10
0.0
 20
0.0
 30
0.0
  0
XRECORD
  5
58A
102
{ACAD_REACTORS
330
575
102
}
330
575
100
AcDbXrecord
 10
0.0
 20
0.0
 30
0.0
  0
XRECORD
  5
588
102
{ACAD_REACTORS
330
575
102
}
330
575
100
AcDbXrecord
 10
0.0
 20
0.0
 30
0.0
  0
XRECORD
  5
589
102
{ACAD_REACTORS
330
575
102
}
330
575
100
AcDbXrecord
 10
0.0
 20
0.0
 30
0.0
  0
XRECORD
  5
586
102
{ACAD_REACTORS
330
575
102
}
330
575
100
AcDbXrecord
 10
0.0
 20
0.0
 30
0.0
  0
XRECORD
  5
583
102
{ACAD_REACTORS
330
575
102
}
330
575
100
AcDbXrecord
340
0
  0
XRECORD
  5
584
102
{ACAD_REACTORS
330
575
102
}
330
575
100
AcDbXrecord
 70
     0
  0
XRECORD
  5
579
102
{ACAD_REACTORS
330
575
102
}
330
575
100
AcDbXrecord
  1

  0
XRECORD
  5
576
102
{ACAD_REACTORS
330
575
102
}
330
575
100
AcDbXrecord
 90
        1
  0
XRECORD
  5
577
102
{ACAD_REACTORS
330
575
102
}
330
575
100
AcDbXrecord
 90
       70
  0
XRECORD
  5
58E
102
{ACAD_REACTORS
330
575
102
}
330
575
100
AcDbXrecord
340
0
  0
XRECORD
  5
594
102
{ACAD_REACTORS
330
575
102
}
330
575
100
AcDbXrecord
 10
0.0
 20
0.0
 30
0.0
  0
XRECORD
  5
590
102
{ACAD_REACTORS
330
575
102
}
330
575
100
AcDbXrecord
 10
0.0
 20
0.0
 30
0.0
  0
XRECORD
  5
593
102
{ACAD_REACTORS
330
575
102
}
330
575
100
AcDbXrecord
 10
0.0
 20
0.0
 30
0.0
  0
XRECORD
  5
591
102
{ACAD_REACTORS
330
575
102
}
330
575
100
AcDbXrecord
 10
0.0
 20
0.0
 30
0.0
  0
XRECORD
  5
592
102
{ACAD_REACTORS
330
575
102
}
330
575
100
AcDbXrecord
 10
0.0
 20
0.0
 30
0.0
  0
XRECORD
  5
58F
102
{ACAD_REACTORS
330
575
102
}
330
575
100
AcDbXrecord
 10
0.0
 20
0.0
 30
0.0
  0
XRECORD
  5
58C
102
{ACAD_REACTORS
330
575
102
}
330
575
100
AcDbXrecord
340
0
  0
XRECORD
  5
58D
102
{ACAD_REACTORS
330
575
102
}
330
575
100
AcDbXrecord
 70
     0
  0
XRECORD
  5
581
102
{ACAD_REACTORS
330
575
102
}
330
575
100
AcDbXrecord
  1
{FAEB1C32-E019-11D5-929B-00C0DF256EC4}
  0
DICTIONARYVAR
  5
5A3
102
{ACAD_REACTORS
330
596
102
}
330
596
100
DictionaryVariables
280
     0
  1
1:1
  0
DICTIONARYVAR
  5
59D
102
{ACAD_REACTORS
330
596
102
}
330
596
100
DictionaryVariables
280
     0
  1
3.500000
  0
DICTIONARYVAR
  5
59E
102
{ACAD_REACTORS
330
596
102
}
330
596
100
DictionaryVariables
280
     0
  1
acadiso.lin
  0
DICTIONARYVAR
  5
598
102
{ACAD_REACTORS
330
596
102
}
330
596
100
DictionaryVariables
280
     0
  1
Standard
  0
DICTIONARYVAR
  5
597
102
{ACAD_REACTORS
330
596
102
}
330
596
100
DictionaryVariables
280
     0
  1
Standard
  0
DICTIONARYVAR
  5
59F
102
{ACAD_REACTORS
330
596
102
}
330
596
100
DictionaryVariables
280
     0
  1
2
  0
DICTIONARYVAR
  5
5A0
102
{ACAD_REACTORS
330
596
102
}
330
596
100
DictionaryVariables
280
     0
  1
1
  0
DICTIONARYVAR
  5
5A4
102
{ACAD_REACTORS
330
596
102
}
330
596
100
DictionaryVariables
280
     0
  1
1
  0
DICTIONARYVAR
  5
59A
102
{ACAD_REACTORS
330
596
102
}
330
596
100
DictionaryVariables
280
     0
  1
80.000000
  0
DICTIONARYVAR
  5
599
102
{ACAD_REACTORS
330
596
102
}
330
596
100
DictionaryVariables
280
     0
  1
5.000000
  0
DICTIONARY
  5
5A7
330
45
100
AcDbDictionary
280
     1
  3
ACAD_XREC_ROUNDTRIP
360
5A8
  0
DICTIONARY
  5
5A5
330
44
100
AcDbDictionary
280
     1
  3
ACAD_XREC_ROUNDTRIP
360
5A6
  0
DICTIONARY
  5
5A9
330
46
100
AcDbDictionary
280
     1
  3
ACAD_XREC_ROUNDTRIP
360
5AA
  0
XRECORD
  5
5A8
102
{ACAD_REACTORS
330
5A7
102
}
330
5A7
100
AcDbXrecord
102
MATERIAL
148
0.0
149
0.0
149
0.0
 93
        0
 94
      127
282
     0
 72
     1
 77
     1
171
     1
175
     1
179
     1
273
     0
  0
XRECORD
  5
5A6
102
{ACAD_REACTORS
330
5A5
102
}
330
5A5
100
AcDbXrecord
102
MATERIAL
148
0.0
149
0.0
149
0.0
 93
        0
 94
      127
282
     0
 72
     1
 77
     1
171
     1
175
     1
179
     1
273
     0
  0
XRECORD
  5
5AA
102
{ACAD_REACTORS
330
5A9
102
}
330
5A9
100
AcDbXrecord
102
MATERIAL
148
0.0
149
0.0
149
0.0
 93
        0
 94
      127
282
     0
 72
     1
 77
     1
171
     1
175
     1
179
     1
273
     0
  0
ENDSEC
  0
EOF
