  0
SECTION
  2
HEADER
  9
$ACADVER
  1
AC1014
  9
$ACADMAINTVER
 70
     9
  9
$DWGCODEPAGE
  3
ANSI_932
  9
$INSBASE
 10
0.0
 20
0.0
 30
0.0
  9
$EXTMIN
 10
30.0
 20
60.0
 30
0.0
  9
$EXTMAX
 10
2310.0
 20
1680.0
 30
0.0
  9
$LIMMIN
 10
0.0
 20
0.0
  9
$LIMMAX
 10
420.0
 20
297.0
  9
$ORTHOMODE
 70
     0
  9
$REGENMODE
 70
     1
  9
$FILLMODE
 70
     1
  9
$QTEXTMODE
 70
     0
  9
$MIRRTEXT
 70
     1
  9
$DRAGMODE
 70
     2
  9
$LTSCALE
 40
0.2
  9
$OSMODE
 70
    37
  9
$ATTMODE
 70
     1
  9
$TEXTSIZE
 40
2.5
  9
$TRACEWID
 40
1.0
  9
$TEXTSTYLE
  7
STANDARD
  9
$CLAYER
  8
LAY-10
  9
$CELTYPE
  6
BYLAYER
  9
$CECOLOR
 62
   256
  9
$CELTSCALE
 40
1.0
  9
$DELOBJ
 70
     1
  9
$DISPSILH
 70
     0
  9
$DIMSCALE
 40
1.0
  9
$DIMASZ
 40
2.5
  9
$DIMEXO
 40
0.625
  9
$DIMDLI
 40
3.75
  9
$DIMRND
 40
0.0
  9
$DIMDLE
 40
0.0
  9
$DIMEXE
 40
1.25
  9
$DIMTP
 40
0.0
  9
$DIMTM
 40
0.0
  9
$DIMTXT
 40
2.5
  9
$DIMCEN
 40
2.5
  9
$DIMTSZ
 40
0.0
  9
$DIMTOL
 70
     0
  9
$DIMLIM
 70
     0
  9
$DIMTIH
 70
     0
  9
$DIMTOH
 70
     0
  9
$DIMSE1
 70
     0
  9
$DIMSE2
 70
     0
  9
$DIMTAD
 70
     1
  9
$DIMZIN
 70
     8
  9
$DIMBLK
  1

  9
$DIMASO
 70
     1
  9
$DIMSHO
 70
     1
  9
$DIMPOST
  1

  9
$DIMAPOST
  1

  9
$DIMALT
 70
     0
  9
$DIMALTD
 70
     3
  9
$DIMALTF
 40
0.03937007874016
  9
$DIMLFAC
 40
1.0
  9
$DIMTOFL
 70
     1
  9
$DIMTVP
 40
0.0
  9
$DIMTIX
 70
     0
  9
$DIMSOXD
 70
     0
  9
$DIMSAH
 70
     0
  9
$DIMBLK1
  1

  9
$DIMBLK2
  1

  9
$DIMSTYLE
  2
ISO-25
  9
$DIMCLRD
 70
     0
  9
$DIMCLRE
 70
     0
  9
$DIMCLRT
 70
     0
  9
$DIMTFAC
 40
1.0
  9
$DIMGAP
 40
0.625
  9
$DIMJUST
 70
     0
  9
$DIMSD1
 70
     0
  9
$DIMSD2
 70
     0
  9
$DIMTOLJ
 70
     0
  9
$DIMTZIN
 70
     8
  9
$DIMALTZ
 70
     0
  9
$DIMALTTZ
 70
     0
  9
$DIMFIT
 70
     3
  9
$DIMUPT
 70
     0
  9
$DIMUNIT
 70
     2
  9
$DIMDEC
 70
     2
  9
$DIMTDEC
 70
     2
  9
$DIMALTU
 70
     2
  9
$DIMALTTD
 70
     3
  9
$DIMTXSTY
  7
STANDARD
  9
$DIMAUNIT
 70
     0
  9
$LUNITS
 70
     2
  9
$LUPREC
 70
     4
  9
$SKETCHINC
 40
1.0
  9
$FILLETRAD
 40
10.0
  9
$AUNITS
 70
     0
  9
$AUPREC
 70
     0
  9
$MENU
  1
.
  9
$ELEVATION
 40
0.0
  9
$PELEVATION
 40
0.0
  9
$THICKNESS
 40
0.0
  9
$LIMCHECK
 70
     0
  9
$CHAMFERA
 40
0.0
  9
$CHAMFERB
 40
0.0
  9
$CHAMFERC
 40
0.0
  9
$CHAMFERD
 40
0.0
  9
$SKPOLY
 70
     0
  9
$TDCREATE
 40
2459229.332749387
  9
$TDUPDATE
 40
2459229.332749826
  9
$TDINDWG
 40
0.0000000116
  9
$TDUSRTIMER
 40
0.0000000116
  9
$USRTIMER
 70
     1
  9
$ANGBASE
 50
0.0
  9
$ANGDIR
 70
     0
  9
$PDMODE
 70
     0
  9
$PDSIZE
 40
0.0
  9
$PLINEWID
 40
0.0
  9
$COORDS
 70
     1
  9
$SPLFRAME
 70
     0
  9
$SPLINETYPE
 70
     6
  9
$SPLINESEGS
 70
     8
  9
$ATTDIA
 70
     0
  9
$ATTREQ
 70
     1
  9
$HANDLING
 70
     1
  9
$HANDSEED
  5
471
  9
$SURFTAB1
 70
     6
  9
$SURFTAB2
 70
     6
  9
$SURFTYPE
 70
     6
  9
$SURFU
 70
     6
  9
$SURFV
 70
     6
  9
$UCSNAME
  2

  9
$UCSORG
 10
0.0
 20
0.0
 30
0.0
  9
$UCSXDIR
 10
1.0
 20
0.0
 30
0.0
  9
$UCSYDIR
 10
0.0
 20
1.0
 30
0.0
  9
$PUCSNAME
  2

  9
$PUCSORG
 10
0.0
 20
0.0
 30
0.0
  9
$PUCSXDIR
 10
1.0
 20
0.0
 30
0.0
  9
$PUCSYDIR
 10
0.0
 20
1.0
 30
0.0
  9
$USERI1
 70
     0
  9
$USERI2
 70
     0
  9
$USERI3
 70
     0
  9
$USERI4
 70
     0
  9
$USERI5
 70
     0
  9
$USERR1
 40
0.0
  9
$USERR2
 40
0.0
  9
$USERR3
 40
0.0
  9
$USERR4
 40
0.0
  9
$USERR5
 40
0.0
  9
$WORLDVIEW
 70
     1
  9
$SHADEDGE
 70
     3
  9
$SHADEDIF
 70
    70
  9
$TILEMODE
 70
     1
  9
$MAXACTVP
 70
    64
  9
$PINSBASE
 10
0.0
 20
0.0
 30
0.0
  9
$PLIMCHECK
 70
     0
  9
$PEXTMIN
 10
1.000000000000000E+20
 20
1.000000000000000E+20
 30
1.000000000000000E+20
  9
$PEXTMAX
 10
-1.000000000000000E+20
 20
-1.000000000000000E+20
 30
-1.000000000000000E+20
  9
$PLIMMIN
 10
0.0
 20
0.0
  9
$PLIMMAX
 10
420.0
 20
297.0
  9
$UNITMODE
 70
     0
  9
$VISRETAIN
 70
     1
  9
$PLINEGEN
 70
     0
  9
$PSLTSCALE
 70
     1
  9
$TREEDEPTH
 70
  3020
  9
$PICKSTYLE
 70
     1
  9
$CMLSTYLE
  2
STANDARD
  9
$CMLJUST
 70
     0
  9
$CMLSCALE
 40
20.0
  9
$PROXYGRAPHICS
 70
     1
  9
$MEASUREMENT
 70
     1
  0
ENDSEC
  0
SECTION
  2
CLASSES
  0
CLASS
  1
ACDBDICTIONARYWDFLT
  2
AcDbDictionaryWithDefault
  3
ObjectDBX Classes
 90
        0
280
     0
281
     0
  0
CLASS
  1
VISUALSTYLE
  2
AcDbVisualStyle
  3
ObjectDBX Classes
 90
     4095
280
     0
281
     0
  0
CLASS
  1
MATERIAL
  2
AcDbMaterial
  3
ObjectDBX Classes
 90
     1153
280
     0
281
     0
  0
CLASS
  1
SCALE
  2
AcDbScale
  3
ObjectDBX Classes
 90
     1153
280
     0
281
     0
  0
CLASS
  1
TABLESTYLE
  2
AcDbTableStyle
  3
ObjectDBX Classes
 90
     4095
280
     0
281
     0
  0
CLASS
  1
MLEADERSTYLE
  2
AcDbMLeaderStyle
  3
ACDB_MLEADERSTYLE_CLASS
 90
     4095
280
     0
281
     0
  0
CLASS
  1
SUN
  2
AcDbSun
  3
SCENEOE
 90
     1153
280
     0
281
     0
  0
CLASS
  1
DICTIONARYVAR
  2
AcDbDictionaryVar
  3
ObjectDBX Classes
 90
        0
280
     0
281
     0
  0
CLASS
  1
XRECORD
  2
AcDbXrecord
  3
ObjectDBX Classes
 90
        0
280
     0
281
     0
  0
CLASS
  1
LWPOLYLINE
  2
AcDbPolyline
  3
ObjectDBX Classes
 90
        0
280
     0
281
     1
  0
CLASS
  1
HATCH
  2
AcDbHatch
  3
ObjectDBX Classes
 90
        0
280
     0
281
     1
  0
CLASS
  1
ACDBPLACEHOLDER
  2
AcDbPlaceHolder
  3
ObjectDBX Classes
 90
        0
280
     0
281
     0
  0
CLASS
  1
LAYOUT
  2
AcDbLayout
  3
ObjectDBX Classes
 90
        0
280
     0
281
     0
  0
ENDSEC
  0
SECTION
  2
TABLES
  0
TABLE
  2
VPORT
  5
8
102
{ACAD_XDICTIONARY
360
466
102
}
330
0
100
AcDbSymbolTable
 70
     1
  0
VPORT
  5
29
330
8
100
AcDbSymbolTableRecord
100
AcDbViewportTableRecord
  2
*ACTIVE
 70
     0
 10
0.0
 20
0.0
 11
1.0
 21
1.0
 12
1170.0
 22
870.0
 13
0.0
 23
0.0
 14
10.0
 24
10.0
 15
10.0
 25
10.0
 16
0.0
 26
0.0
 36
1.0
 17
0.0
 27
0.0
 37
0.0
 40
1620.0
 41
1.407407407407408
 42
50.0
 43
0.0
 44
0.0
 50
0.0
 51
0.0
 71
     0
 72
  1000
 73
     1
 74
     3
 75
     0
 76
     0
 77
     0
 78
     0
  0
ENDTAB
  0
TABLE
  2
LTYPE
  5
5
330
0
100
AcDbSymbolTable
 70
     6
  0
LTYPE
  5
14
330
5
100
AcDbSymbolTableRecord
100
AcDbLinetypeTableRecord
  2
BYBLOCK
 70
     0
  3

 72
    65
 73
     0
 40
0.0
  0
LTYPE
  5
15
330
5
100
AcDbSymbolTableRecord
100
AcDbLinetypeTableRecord
  2
BYLAYER
 70
     0
  3

 72
    65
 73
     0
 40
0.0
  0
LTYPE
  5
16
330
5
100
AcDbSymbolTableRecord
100
AcDbLinetypeTableRecord
  2
CONTINUOUS
 70
     0
  3
Solid line
 72
    65
 73
     0
 40
0.0
  0
LTYPE
  5
6E
330
5
100
AcDbSymbolTableRecord
100
AcDbLinetypeTableRecord
  2
HIDDEN
 70
     0
  3
Hidden __ __ __ __ __ __ __ __ __ __ __ __ __ __
 72
    65
 73
     2
 40
9.524999999999999
 49
6.35
 74
     0
 49
-3.175
 74
     0
  0
LTYPE
  5
6F
330
5
100
AcDbSymbolTableRecord
100
AcDbLinetypeTableRecord
  2
CENTER
 70
     0
  3
Center ____ _ ____ _ ____ _ ____ _ ____ _ ____
 72
    65
 73
     4
 40
50.8
 49
31.75
 74
     0
 49
-6.35
 74
     0
 49
6.35
 74
     0
 49
-6.35
 74
     0
  0
LTYPE
  5
70
330
5
100
AcDbSymbolTableRecord
100
AcDbLinetypeTableRecord
  2
PHANTOM
 70
     0
  3
Phantom ______  __  __  ______  __  __  ______ 
 72
    65
 73
     6
 40
63.50000000000001
 49
31.75
 74
     0
 49
-6.35
 74
     0
 49
6.35
 74
     0
 49
-6.35
 74
     0
 49
6.35
 74
     0
 49
-6.35
 74
     0
  0
LTYPE
  5
71
330
5
100
AcDbSymbolTableRecord
100
AcDbLinetypeTableRecord
  2
ACAD_ISO06W100
 70
     0
  3
ISO long-dash triple-dot ____ ... ____ ... ____
 72
    65
 73
     8
 40
36.0
 49
24.0
 74
     0
 49
-3.0
 74
     0
 49
0.0
 74
     0
 49
-3.0
 74
     0
 49
0.0
 74
     0
 49
-3.0
 74
     0
 49
0.0
 74
     0
 49
-3.0
 74
     0
  0
LTYPE
  5
72
330
5
100
AcDbSymbolTableRecord
100
AcDbLinetypeTableRecord
  2
ACAD_ISO15W100
 70
     0
  3
ISO double-dash triple-dot __ __ . . . __ __ . .
 72
    65
 73
    10
 40
39.0
 49
12.0
 74
     0
 49
-3.0
 74
     0
 49
12.0
 74
     0
 49
-3.0
 74
     0
 49
0.0
 74
     0
 49
-3.0
 74
     0
 49
0.0
 74
     0
 49
-3.0
 74
     0
 49
0.0
 74
     0
 49
-3.0
 74
     0
  0
ENDTAB
  0
TABLE
  2
LAYER
  5
2
330
0
100
AcDbSymbolTable
 70
     6
  0
LAYER
  5
10
330
2
100
AcDbSymbolTableRecord
100
AcDbLayerTableRecord
  2
0
 70
     0
 62
     7
  6
CONTINUOUS
  0
LAYER
  5
75
330
2
100
AcDbSymbolTableRecord
100
AcDbLayerTableRecord
  2
LAY-10
 70
     0
 62
     7
  6
CONTINUOUS
  0
LAYER
  5
76
330
2
100
AcDbSymbolTableRecord
100
AcDbLayerTableRecord
  2
LAY-11
 70
     0
 62
     7
  6
CONTINUOUS
  0
LAYER
  5
77
330
2
100
AcDbSymbolTableRecord
100
AcDbLayerTableRecord
  2
LAY-20
 70
     0
 62
     7
  6
CONTINUOUS
  0
LAYER
  5
78
330
2
100
AcDbSymbolTableRecord
100
AcDbLayerTableRecord
  2
LAY-255
 70
     0
 62
     7
  6
CONTINUOUS
  0
LAYER
  5
3D1
330
2
100
AcDbSymbolTableRecord
100
AcDbLayerTableRecord
  2
DEFPOINTS
 70
     0
 62
     7
  6
CONTINUOUS
  0
ENDTAB
  0
TABLE
  2
STYLE
  5
3
330
0
100
AcDbSymbolTable
 70
     4
  0
STYLE
  5
11
330
3
100
AcDbSymbolTableRecord
100
AcDbTextStyleTableRecord
  2
STANDARD
 70
     0
 40
0.0
 41
1.0
 50
0.0
 71
     0
 42
2.5
  3
simplex
  4
bigfont
  0
STYLE
  5
73
330
3
100
AcDbSymbolTableRecord
100
AcDbTextStyleTableRecord
  2
EXCADSTD
 70
     0
 40
0.0
 41
1.0
 50
0.0
 71
     0
 42
2.5
  3
simplex
  4
bigfont
  0
STYLE
  5
74
330
3
100
AcDbSymbolTableRecord
100
AcDbTextStyleTableRecord
  2
EXCADVERT
 70
     4
 40
0.0
 41
1.0
 50
0.0
 71
     0
 42
2.5
  3
simplex
  4
bigfont
  0
STYLE
  5
3CF
330
3
100
AcDbSymbolTableRecord
100
AcDbTextStyleTableRecord
  2
EXCADDIM1
 70
     0
 40
0.0
 41
0.84
 50
0.0
 71
     0
 42
2.5
  3
simplex
  4
bigfont
  0
ENDTAB
  0
TABLE
  2
VIEW
  5
6
330
0
100
AcDbSymbolTable
 70
     0
  0
ENDTAB
  0
TABLE
  2
UCS
  5
7
330
0
100
AcDbSymbolTable
 70
     0
  0
ENDTAB
  0
TABLE
  2
APPID
  5
9
330
0
100
AcDbSymbolTable
 70
     2
  0
APPID
  5
12
330
9
100
AcDbSymbolTableRecord
100
AcDbRegAppTableRecord
  2
ACAD
 70
     0
  0
APPID
  5
470
330
9
100
AcDbSymbolTableRecord
100
AcDbRegAppTableRecord
  2
ACAD_MLEADERVER
 70
     0
  0
ENDTAB
  0
TABLE
  2
DIMSTYLE
  5
A
330
0
100
AcDbSymbolTable
 70
     1
  0
DIMSTYLE
105
27
102
{ACAD_REACTORS
330
3D0
330
3DE
330
3EB
330
3F8
330
405
102
}
330
A
100
AcDbSymbolTableRecord
100
AcDbDimStyleTableRecord
  2
ISO-25
 70
     0
  3

  4

  5

  6

  7

 40
1.0
 41
2.5
 42
0.625
 43
3.75
 44
1.25
 45
0.0
 46
0.0
 47
0.0
 48
0.0
140
2.5
141
2.5
142
0.0
143
0.03937007874016
144
1.0
145
0.0
146
1.0
147
0.625
 71
     0
 72
     0
 73
     0
 74
     0
 75
     0
 76
     0
 77
     1
 78
     8
170
     0
171
     3
172
     1
173
     0
174
     0
175
     0
176
     0
177
     0
178
     0
270
     2
271
     2
272
     2
273
     2
274
     3
340
11
275
     0
280
     0
281
     0
282
     0
283
     0
284
     8
285
     0
286
     0
287
     5
288
     0
  0
ENDTAB
  0
TABLE
  2
BLOCK_RECORD
  5
1
330
0
100
AcDbSymbolTable
 70
    19
  0
BLOCK_RECORD
  5
1F
330
1
100
AcDbSymbolTableRecord
100
AcDbBlockTableRecord
  2
*MODEL_SPACE
  0
BLOCK_RECORD
  5
1B
330
1
100
AcDbSymbolTableRecord
100
AcDbBlockTableRecord
  2
*PAPER_SPACE
  0
BLOCK_RECORD
  5
79
330
1
100
AcDbSymbolTableRecord
100
AcDbBlockTableRecord
  2
EX_NORM
  0
BLOCK_RECORD
  5
7C
330
1
100
AcDbSymbolTableRecord
100
AcDbBlockTableRecord
  2
EX_BNORM
  0
BLOCK_RECORD
  5
7F
330
1
100
AcDbSymbolTableRecord
100
AcDbBlockTableRecord
  2
EX_BCIR
  0
BLOCK_RECORD
  5
82
330
1
100
AcDbSymbolTableRecord
100
AcDbBlockTableRecord
  2
EX_RCIVIL
  0
BLOCK_RECORD
  5
85
330
1
100
AcDbSymbolTableRecord
100
AcDbBlockTableRecord
  2
EX_SLANT
  0
BLOCK_RECORD
  5
88
330
1
100
AcDbSymbolTableRecord
100
AcDbBlockTableRecord
  2
EX_NONE
  0
BLOCK_RECORD
  5
8B
330
1
100
AcDbSymbolTableRecord
100
AcDbBlockTableRecord
  2
EX_CIVIL
  0
BLOCK_RECORD
  5
8E
330
1
100
AcDbSymbolTableRecord
100
AcDbBlockTableRecord
  2
EX_WCIR
  0
BLOCK_RECORD
  5
91
330
1
100
AcDbSymbolTableRecord
100
AcDbBlockTableRecord
  2
EX_WCIR2
  0
BLOCK_RECORD
  5
94
330
1
100
AcDbSymbolTableRecord
100
AcDbBlockTableRecord
  2
EX_WNORM
  0
BLOCK_RECORD
  5
97
330
1
100
AcDbSymbolTableRecord
100
AcDbBlockTableRecord
  2
EX_NNORM
  0
BLOCK_RECORD
  5
9A
330
1
100
AcDbSymbolTableRecord
100
AcDbBlockTableRecord
  2
EX_BBOX
  0
BLOCK_RECORD
  5
9D
330
1
100
AcDbSymbolTableRecord
100
AcDbBlockTableRecord
  2
EX_WBOX
  0
BLOCK_RECORD
  5
A0
330
1
100
AcDbSymbolTableRecord
100
AcDbBlockTableRecord
  2
EX_INTEGRAL
  0
BLOCK_RECORD
  5
3D2
330
1
100
AcDbSymbolTableRecord
100
AcDbBlockTableRecord
  2
*D15
  0
BLOCK_RECORD
  5
3DF
330
1
100
AcDbSymbolTableRecord
100
AcDbBlockTableRecord
  2
*D16
  0
BLOCK_RECORD
  5
3EC
330
1
100
AcDbSymbolTableRecord
100
AcDbBlockTableRecord
  2
*D17
  0
BLOCK_RECORD
  5
3F9
330
1
100
AcDbSymbolTableRecord
100
AcDbBlockTableRecord
  2
*D18
  0
BLOCK_RECORD
  5
406
330
1
100
AcDbSymbolTableRecord
100
AcDbBlockTableRecord
  2
*D19
  0
ENDTAB
  0
ENDSEC
  0
SECTION
  2
BLOCKS
  0
BLOCK
  5
20
330
1F
100
AcDbEntity
  8
0
100
AcDbBlockBegin
  2
*MODEL_SPACE
 70
     0
 10
0.0
 20
0.0
 30
0.0
  3
*MODEL_SPACE
  1

  0
ENDBLK
  5
21
330
1F
100
AcDbEntity
  8
0
100
AcDbBlockEnd
  0
BLOCK
  5
1C
330
1B
100
AcDbEntity
 67
     1
  8
0
100
AcDbBlockBegin
  2
*PAPER_SPACE
 70
     0
 10
0.0
 20
0.0
 30
0.0
  3
*PAPER_SPACE
  1

  0
ENDBLK
  5
1D
330
1B
100
AcDbEntity
 67
     1
  8
0
100
AcDbBlockEnd
  0
BLOCK
  5
7A
330
79
100
AcDbEntity
  8
0
100
AcDbBlockBegin
  2
EX_NORM
 70
     0
 10
0.0
 20
0.0
 30
0.0
  3
EX_NORM
  1

  0
LINE
  5
A3
330
79
100
AcDbEntity
  8
0
  6
CONTINUOUS
 62
     0
100
AcDbLine
 10
0.0
 20
0.0
 30
0.0
 11
-1.0
 21
0.0
 31
0.0
  0
LINE
  5
A4
330
79
100
AcDbEntity
  8
0
  6
CONTINUOUS
 62
     0
100
AcDbLine
 10
0.0
 20
0.0
 30
0.0
 11
-1.0
 21
0.166666667
 31
0.0
  0
LINE
  5
A5
330
79
100
AcDbEntity
  8
0
  6
CONTINUOUS
 62
     0
100
AcDbLine
 10
0.0
 20
0.0
 30
0.0
 11
-1.0
 21
-0.166666667
 31
0.0
  0
ENDBLK
  5
7B
330
79
100
AcDbEntity
  8
0
100
AcDbBlockEnd
  0
BLOCK
  5
7D
330
7C
100
AcDbEntity
  8
0
100
AcDbBlockBegin
  2
EX_BNORM
 70
     0
 10
0.0
 20
0.0
 30
0.0
  3
EX_BNORM
  1

  0
LINE
  5
A6
330
7C
100
AcDbEntity
  8
0
  6
CONTINUOUS
 62
     0
100
AcDbLine
 10
0.0
 20
0.0
 30
0.0
 11
-1.0
 21
0.0
 31
0.0
  0
LINE
  5
A7
330
7C
100
AcDbEntity
  8
0
  6
CONTINUOUS
 62
     0
100
AcDbLine
 10
0.0
 20
0.0
 30
0.0
 11
-1.0
 21
0.166666667
 31
0.0
  0
LINE
  5
A8
330
7C
100
AcDbEntity
  8
0
  6
CONTINUOUS
 62
     0
100
AcDbLine
 10
0.0
 20
0.0
 30
0.0
 11
-1.0
 21
-0.166666667
 31
0.0
  0
LINE
  5
A9
330
7C
100
AcDbEntity
  8
0
  6
CONTINUOUS
 62
     0
100
AcDbLine
 10
0.0
 20
0.0
 30
0.0
 11
-1.0
 21
0.083333333
 31
0.0
  0
LINE
  5
AA
330
7C
100
AcDbEntity
  8
0
  6
CONTINUOUS
 62
     0
100
AcDbLine
 10
0.0
 20
0.0
 30
0.0
 11
-1.0
 21
-0.083333333
 31
0.0
  0
LINE
  5
AB
330
7C
100
AcDbEntity
  8
0
  6
CONTINUOUS
 62
     0
100
AcDbLine
 10
-1.0
 20
0.166666667
 30
0.0
 11
-1.0
 21
-0.166666667
 31
0.0
  0
ENDBLK
  5
7E
330
7C
100
AcDbEntity
  8
0
100
AcDbBlockEnd
  0
BLOCK
  5
80
330
7F
100
AcDbEntity
  8
0
100
AcDbBlockBegin
  2
EX_BCIR
 70
     0
 10
0.0
 20
0.0
 30
0.0
  3
EX_BCIR
  1

  0
LINE
  5
AC
330
7F
100
AcDbEntity
  8
0
  6
CONTINUOUS
 62
     0
100
AcDbLine
 10
0.0
 20
0.0
 30
0.0
 11
-1.0
 21
0.0
 31
0.0
  0
CIRCLE
  5
AD
330
7F
100
AcDbEntity
  8
0
  6
CONTINUOUS
 62
     0
100
AcDbCircle
 10
0.0
 20
0.0
 30
0.0
 40
0.5
  0
CIRCLE
  5
AE
330
7F
100
AcDbEntity
  8
0
  6
CONTINUOUS
 62
     0
100
AcDbCircle
 10
0.0
 20
0.0
 30
0.0
 40
0.25
  0
ENDBLK
  5
81
330
7F
100
AcDbEntity
  8
0
100
AcDbBlockEnd
  0
BLOCK
  5
83
330
82
100
AcDbEntity
  8
0
100
AcDbBlockBegin
  2
EX_RCIVIL
 70
     0
 10
0.0
 20
0.0
 30
0.0
  3
EX_RCIVIL
  1

  0
LINE
  5
AF
330
82
100
AcDbEntity
  8
0
  6
CONTINUOUS
 62
     0
100
AcDbLine
 10
0.0
 20
0.0
 30
0.0
 11
-1.0
 21
0.0
 31
0.0
  0
LINE
  5
B0
330
82
100
AcDbEntity
  8
0
  6
CONTINUOUS
 62
     0
100
AcDbLine
 10
-1.0
 20
-0.25
 30
0.0
 11
0.0
 21
-0.25
 31
0.0
  0
LINE
  5
B1
330
82
100
AcDbEntity
  8
0
  6
CONTINUOUS
 62
     0
100
AcDbLine
 10
-1.0
 20
-0.125
 30
0.0
 11
0.0
 21
-0.125
 31
0.0
  0
ENDBLK
  5
84
330
82
100
AcDbEntity
  8
0
100
AcDbBlockEnd
  0
BLOCK
  5
86
330
85
100
AcDbEntity
  8
0
100
AcDbBlockBegin
  2
EX_SLANT
 70
     0
 10
0.0
 20
0.0
 30
0.0
  3
EX_SLANT
  1

  0
LINE
  5
B2
330
85
100
AcDbEntity
  8
0
  6
CONTINUOUS
 62
     0
100
AcDbLine
 10
0.0
 20
0.0
 30
0.0
 11
-1.0
 21
0.0
 31
0.0
  0
LINE
  5
B3
330
85
100
AcDbEntity
  8
0
  6
CONTINUOUS
 62
     0
100
AcDbLine
 10
0.707106781
 20
0.707106781
 30
0.0
 11
-0.707106781
 21
-0.707106781
 31
0.0
  0
ENDBLK
  5
87
330
85
100
AcDbEntity
  8
0
100
AcDbBlockEnd
  0
BLOCK
  5
89
330
88
100
AcDbEntity
  8
0
100
AcDbBlockBegin
  2
EX_NONE
 70
     0
 10
0.0
 20
0.0
 30
0.0
  3
EX_NONE
  1

  0
LINE
  5
B4
330
88
100
AcDbEntity
  8
0
  6
CONTINUOUS
 62
     0
100
AcDbLine
 10
0.0
 20
0.0
 30
0.0
 11
-1.0
 21
0.0
 31
0.0
  0
ENDBLK
  5
8A
330
88
100
AcDbEntity
  8
0
100
AcDbBlockEnd
  0
BLOCK
  5
8C
330
8B
100
AcDbEntity
  8
0
100
AcDbBlockBegin
  2
EX_CIVIL
 70
     0
 10
0.0
 20
0.0
 30
0.0
  3
EX_CIVIL
  1

  0
LINE
  5
B5
330
8B
100
AcDbEntity
  8
0
  6
CONTINUOUS
 62
     0
100
AcDbLine
 10
0.0
 20
0.0
 30
0.0
 11
-1.0
 21
0.0
 31
0.0
  0
LINE
  5
B6
330
8B
100
AcDbEntity
  8
0
  6
CONTINUOUS
 62
     0
100
AcDbLine
 10
-1.0
 20
0.25
 30
0.0
 11
0.0
 21
0.25
 31
0.0
  0
LINE
  5
B7
330
8B
100
AcDbEntity
  8
0
  6
CONTINUOUS
 62
     0
100
AcDbLine
 10
-1.0
 20
0.125
 30
0.0
 11
0.0
 21
0.125
 31
0.0
  0
ENDBLK
  5
8D
330
8B
100
AcDbEntity
  8
0
100
AcDbBlockEnd
  0
BLOCK
  5
8F
330
8E
100
AcDbEntity
  8
0
100
AcDbBlockBegin
  2
EX_WCIR
 70
     0
 10
0.0
 20
0.0
 30
0.0
  3
EX_WCIR
  1

  0
LINE
  5
B8
330
8E
100
AcDbEntity
  8
0
  6
CONTINUOUS
 62
     0
100
AcDbLine
 10
0.0
 20
0.0
 30
0.0
 11
-1.0
 21
0.0
 31
0.0
  0
CIRCLE
  5
B9
330
8E
100
AcDbEntity
  8
0
  6
CONTINUOUS
 62
     0
100
AcDbCircle
 10
0.0
 20
0.0
 30
0.0
 40
0.5
  0
ENDBLK
  5
90
330
8E
100
AcDbEntity
  8
0
100
AcDbBlockEnd
  0
BLOCK
  5
92
330
91
100
AcDbEntity
  8
0
100
AcDbBlockBegin
  2
EX_WCIR2
 70
     0
 10
0.0
 20
0.0
 30
0.0
  3
EX_WCIR2
  1

  0
LINE
  5
BA
330
91
100
AcDbEntity
  8
0
  6
CONTINUOUS
 62
     0
100
AcDbLine
 10
-0.5
 20
0.0
 30
0.0
 11
-1.0
 21
0.0
 31
0.0
  0
CIRCLE
  5
BB
330
91
100
AcDbEntity
  8
0
  6
CONTINUOUS
 62
     0
100
AcDbCircle
 10
0.0
 20
0.0
 30
0.0
 40
0.5
  0
ENDBLK
  5
93
330
91
100
AcDbEntity
  8
0
100
AcDbBlockEnd
  0
BLOCK
  5
95
330
94
100
AcDbEntity
  8
0
100
AcDbBlockBegin
  2
EX_WNORM
 70
     0
 10
0.0
 20
0.0
 30
0.0
  3
EX_WNORM
  1

  0
LINE
  5
BC
330
94
100
AcDbEntity
  8
0
  6
CONTINUOUS
 62
     0
100
AcDbLine
 10
-1.0
 20
0.0
 30
0.0
 11
-1.0
 21
0.0
 31
0.0
  0
LINE
  5
BD
330
94
100
AcDbEntity
  8
0
  6
CONTINUOUS
 62
     0
100
AcDbLine
 10
0.0
 20
0.0
 30
0.0
 11
-1.0
 21
0.166666667
 31
0.0
  0
LINE
  5
BE
330
94
100
AcDbEntity
  8
0
  6
CONTINUOUS
 62
     0
100
AcDbLine
 10
0.0
 20
0.0
 30
0.0
 11
-1.0
 21
-0.166666667
 31
0.0
  0
LINE
  5
BF
330
94
100
AcDbEntity
  8
0
  6
CONTINUOUS
 62
     0
100
AcDbLine
 10
-1.0
 20
0.166666667
 30
0.0
 11
-1.0
 21
-0.166666667
 31
0.0
  0
ENDBLK
  5
96
330
94
100
AcDbEntity
  8
0
100
AcDbBlockEnd
  0
BLOCK
  5
98
330
97
100
AcDbEntity
  8
0
100
AcDbBlockBegin
  2
EX_NNORM
 70
     0
 10
0.0
 20
0.0
 30
0.0
  3
EX_NNORM
  1

  0
LINE
  5
C0
330
97
100
AcDbEntity
  8
0
  6
CONTINUOUS
 62
     0
100
AcDbLine
 10
0.0
 20
0.0
 30
0.0
 11
-1.0
 21
0.0
 31
0.0
  0
LINE
  5
C1
330
97
100
AcDbEntity
  8
0
  6
CONTINUOUS
 62
     0
100
AcDbLine
 10
0.0
 20
0.0
 30
0.0
 11
-1.0
 21
0.166666667
 31
0.0
  0
LINE
  5
C2
330
97
100
AcDbEntity
  8
0
  6
CONTINUOUS
 62
     0
100
AcDbLine
 10
0.0
 20
0.0
 30
0.0
 11
-1.0
 21
-0.166666667
 31
0.0
  0
LINE
  5
C3
330
97
100
AcDbEntity
  8
0
  6
CONTINUOUS
 62
     0
100
AcDbLine
 10
-1.0
 20
0.166666667
 30
0.0
 11
-1.0
 21
-0.166666667
 31
0.0
  0
ENDBLK
  5
99
330
97
100
AcDbEntity
  8
0
100
AcDbBlockEnd
  0
BLOCK
  5
9B
330
9A
100
AcDbEntity
  8
0
100
AcDbBlockBegin
  2
EX_BBOX
 70
     0
 10
0.0
 20
0.0
 30
0.0
  3
EX_BBOX
  1

  0
LINE
  5
C4
330
9A
100
AcDbEntity
  8
0
  6
CONTINUOUS
 62
     0
100
AcDbLine
 10
0.0
 20
0.0
 30
0.0
 11
-1.0
 21
0.0
 31
0.0
  0
LINE
  5
C5
330
9A
100
AcDbEntity
  8
0
  6
CONTINUOUS
 62
     0
100
AcDbLine
 10
-0.5
 20
0.5
 30
0.0
 11
0.5
 21
0.5
 31
0.0
  0
LINE
  5
C6
330
9A
100
AcDbEntity
  8
0
  6
CONTINUOUS
 62
     0
100
AcDbLine
 10
0.5
 20
0.5
 30
0.0
 11
0.5
 21
-0.5
 31
0.0
  0
LINE
  5
C7
330
9A
100
AcDbEntity
  8
0
  6
CONTINUOUS
 62
     0
100
AcDbLine
 10
0.5
 20
-0.5
 30
0.0
 11
-0.5
 21
-0.5
 31
0.0
  0
LINE
  5
C8
330
9A
100
AcDbEntity
  8
0
  6
CONTINUOUS
 62
     0
100
AcDbLine
 10
-0.5
 20
-0.5
 30
0.0
 11
-0.5
 21
0.5
 31
0.0
  0
LINE
  5
C9
330
9A
100
AcDbEntity
  8
0
  6
CONTINUOUS
 62
     0
100
AcDbLine
 10
-0.25
 20
0.25
 30
0.0
 11
0.25
 21
0.25
 31
0.0
  0
LINE
  5
CA
330
9A
100
AcDbEntity
  8
0
  6
CONTINUOUS
 62
     0
100
AcDbLine
 10
0.25
 20
0.25
 30
0.0
 11
0.25
 21
-0.25
 31
0.0
  0
LINE
  5
CB
330
9A
100
AcDbEntity
  8
0
  6
CONTINUOUS
 62
     0
100
AcDbLine
 10
0.25
 20
-0.25
 30
0.0
 11
-0.25
 21
-0.25
 31
0.0
  0
LINE
  5
CC
330
9A
100
AcDbEntity
  8
0
  6
CONTINUOUS
 62
     0
100
AcDbLine
 10
-0.25
 20
-0.25
 30
0.0
 11
-0.25
 21
0.25
 31
0.0
  0
ENDBLK
  5
9C
330
9A
100
AcDbEntity
  8
0
100
AcDbBlockEnd
  0
BLOCK
  5
9E
330
9D
100
AcDbEntity
  8
0
100
AcDbBlockBegin
  2
EX_WBOX
 70
     0
 10
0.0
 20
0.0
 30
0.0
  3
EX_WBOX
  1

  0
LINE
  5
CD
330
9D
100
AcDbEntity
  8
0
  6
CONTINUOUS
 62
     0
100
AcDbLine
 10
-0.5
 20
0.0
 30
0.0
 11
-1.0
 21
0.0
 31
0.0
  0
LINE
  5
CE
330
9D
100
AcDbEntity
  8
0
  6
CONTINUOUS
 62
     0
100
AcDbLine
 10
-0.5
 20
0.5
 30
0.0
 11
0.5
 21
0.5
 31
0.0
  0
LINE
  5
CF
330
9D
100
AcDbEntity
  8
0
  6
CONTINUOUS
 62
     0
100
AcDbLine
 10
0.5
 20
0.5
 30
0.0
 11
0.5
 21
-0.5
 31
0.0
  0
LINE
  5
D0
330
9D
100
AcDbEntity
  8
0
  6
CONTINUOUS
 62
     0
100
AcDbLine
 10
0.5
 20
-0.5
 30
0.0
 11
-0.5
 21
-0.5
 31
0.0
  0
LINE
  5
D1
330
9D
100
AcDbEntity
  8
0
  6
CONTINUOUS
 62
     0
100
AcDbLine
 10
-0.5
 20
-0.5
 30
0.0
 11
-0.5
 21
0.5
 31
0.0
  0
ENDBLK
  5
9F
330
9D
100
AcDbEntity
  8
0
100
AcDbBlockEnd
  0
BLOCK
  5
A1
330
A0
100
AcDbEntity
  8
0
100
AcDbBlockBegin
  2
EX_INTEGRAL
 70
     0
 10
0.0
 20
0.0
 30
0.0
  3
EX_INTEGRAL
  1

  0
LINE
  5
D2
330
A0
100
AcDbEntity
  8
0
  6
CONTINUOUS
 62
     0
100
AcDbLine
 10
0.0
 20
0.0
 30
0.0
 11
-1.0
 21
0.0
 31
0.0
  0
ARC
  5
D3
330
A0
100
AcDbEntity
  8
0
  6
CONTINUOUS
 62
     0
100
AcDbCircle
 10
0.542115
 20
0.164992
 30
0.0
 40
0.56667
100
AcDbArc
 50
73.07249033629006
 51
196.9275130221199
  0
ARC
  5
D4
330
A0
100
AcDbEntity
  8
0
  6
CONTINUOUS
 62
     0
100
AcDbCircle
 10
-0.542115
 20
-0.164992
 30
0.0
 40
0.56667
100
AcDbArc
 50
253.0724869220464
 51
16.9275130559125
  0
ENDBLK
  5
A2
330
A0
100
AcDbEntity
  8
0
100
AcDbBlockEnd
  0
BLOCK
  5
3D3
330
3D2
100
AcDbEntity
  8
0
100
AcDbBlockBegin
  2
*D15
 70
     1
 10
0.0
 20
0.0
 30
0.0
  3
*D15
  1

  0
LINE
  5
3D5
330
3D2
100
AcDbEntity
  8
LAY-20
  6
CONTINUOUS
 62
     4
100
AcDbLine
 10
1174.57151627228
 20
358.2025106206781
 30
0.0
 11
1281.57151627188
 21
358.2025106206781
 31
0.0
  0
LINE
  5
3D6
330
3D2
100
AcDbEntity
  8
LAY-20
  6
CONTINUOUS
 62
     4
100
AcDbLine
 10
1221.57151627188
 20
288.2025106206841
 30
0.0
 11
1281.57151627188
 21
288.2025106206841
 31
0.0
  0
LINE
  5
3D7
330
3D2
100
AcDbEntity
  8
LAY-20
  6
CONTINUOUS
 62
     4
100
AcDbLine
 10
1272.57151627188
 20
343.2025106206781
 30
0.0
 11
1272.57151627188
 21
303.2025106206841
 31
0.0
  0
INSERT
  5
3D8
330
3D2
100
AcDbEntity
  8
LAY-20
 62
     4
100
AcDbBlockReference
  2
EX_BNORM
 10
1272.57151627188
 20
358.2025106206781
 30
0.0
 41
15.0
 42
15.0
 43
15.0
 50
90.0
  0
INSERT
  5
3D9
330
3D2
100
AcDbEntity
  8
LAY-20
 62
     4
100
AcDbBlockReference
  2
EX_BNORM
 10
1272.57151627188
 20
288.2025106206841
 30
0.0
 41
15.0
 42
15.0
 43
15.0
 50
270.0
  0
MTEXT
  5
3DA
330
3D2
100
AcDbEntity
  8
LAY-20
 62
     7
100
AcDbMText
 10
1259.571526523879
 20
323.202510620681
 30
0.0
 40
15.59053564486008
 41
0.0
 71
     5
 72
     1
  1
70
  7
EXCADDIM1
 11
0.0
 21
1.0
 31
0.0
  0
POINT
  5
3DB
330
3D2
100
AcDbEntity
  8
DEFPOINTS
 62
     0
100
AcDbPoint
 10
1165.57151627228
 20
358.2025106206781
 30
0.0
  0
POINT
  5
3DC
330
3D2
100
AcDbEntity
  8
DEFPOINTS
 62
     0
100
AcDbPoint
 10
1212.57151627188
 20
288.2025106206841
 30
0.0
  0
POINT
  5
3DD
330
3D2
100
AcDbEntity
  8
DEFPOINTS
 62
     0
100
AcDbPoint
 10
1272.57151627188
 20
288.2025106206841
 30
0.0
  0
ENDBLK
  5
3D4
330
3D2
100
AcDbEntity
  8
0
100
AcDbBlockEnd
  0
BLOCK
  5
3E0
330
3DF
100
AcDbEntity
  8
0
100
AcDbBlockBegin
  2
*D16
 70
     1
 10
0.0
 20
0.0
 30
0.0
  3
*D16
  1

  0
LINE
  5
3E2
330
3DF
100
AcDbEntity
  8
LAY-20
  6
CONTINUOUS
 62
     4
100
AcDbLine
 10
444.57151627048
 20
282.2
 30
0.0
 11
444.5715162704801
 21
212.20251062069
 31
0.0
  0
LINE
  5
3E3
330
3DF
100
AcDbEntity
  8
LAY-20
  6
CONTINUOUS
 62
     4
100
AcDbLine
 10
1094.5715162738
 20
281.9
 30
0.0
 11
1094.5715162738
 21
212.20251062069
 31
0.0
  0
LINE
  5
3E4
330
3DF
100
AcDbEntity
  8
LAY-20
  6
CONTINUOUS
 62
     4
100
AcDbLine
 10
462.5715162704801
 20
221.20251062069
 30
0.0
 11
1076.5715162738
 21
221.20251062069
 31
0.0
  0
INSERT
  5
3E5
330
3DF
100
AcDbEntity
  8
LAY-20
 62
     4
100
AcDbBlockReference
  2
EX_BNORM
 10
444.5715162704801
 20
221.20251062069
 30
0.0
 41
18.0
 42
18.0
 43
18.0
 50
180.0
  0
INSERT
  5
3E6
330
3DF
100
AcDbEntity
  8
LAY-20
 62
     4
100
AcDbBlockReference
  2
EX_BNORM
 10
1094.5715162738
 20
221.20251062069
 30
0.0
 41
18.0
 42
18.0
 43
18.0
  0
MTEXT
  5
3E7
330
3DF
100
AcDbEntity
  8
LAY-20
 62
     7
100
AcDbMText
 10
769.5715162721399
 20
236.20251062069
 30
0.0
 40
18.7086624
 41
0.0
 71
     5
 72
     1
  1
%%c650
  7
EXCADDIM1
  0
POINT
  5
3E8
330
3DF
100
AcDbEntity
  8
DEFPOINTS
 62
     0
100
AcDbPoint
 10
444.57151627048
 20
291.2
 30
0.0
  0
POINT
  5
3E9
330
3DF
100
AcDbEntity
  8
DEFPOINTS
 62
     0
100
AcDbPoint
 10
1094.5715162738
 20
290.9
 30
0.0
  0
POINT
  5
3EA
330
3DF
100
AcDbEntity
  8
DEFPOINTS
 62
     0
100
AcDbPoint
 10
1094.5715162738
 20
221.20251062069
 30
0.0
  0
ENDBLK
  5
3E1
330
3DF
100
AcDbEntity
  8
0
100
AcDbBlockEnd
  0
BLOCK
  5
3ED
330
3EC
100
AcDbEntity
  8
0
100
AcDbBlockBegin
  2
*D17
 70
     1
 10
0.0
 20
0.0
 30
0.0
  3
*D17
  1

  0
LINE
  5
3EF
330
3EC
100
AcDbEntity
  8
LAY-20
  6
CONTINUOUS
 62
     4
100
AcDbLine
 10
1212.5715162719
 20
270.20251062068
 30
0.0
 11
1212.5715162719
 21
170.20251062068
 31
0.0
  0
LINE
  5
3F0
330
3EC
100
AcDbEntity
  8
LAY-20
  6
CONTINUOUS
 62
     4
100
AcDbLine
 10
326.57151627238
 20
270.20251062068
 30
0.0
 11
326.57151627238
 21
170.20251062068
 31
0.0
  0
LINE
  5
3F1
330
3EC
100
AcDbEntity
  8
LAY-20
  6
CONTINUOUS
 62
     4
100
AcDbLine
 10
1194.5715162719
 20
179.20251062068
 30
0.0
 11
344.57151627238
 21
179.20251062068
 31
0.0
  0
INSERT
  5
3F2
330
3EC
100
AcDbEntity
  8
LAY-20
 62
     4
100
AcDbBlockReference
  2
EX_BNORM
 10
1212.5715162719
 20
179.20251062068
 30
0.0
 41
18.0
 42
18.0
 43
18.0
  0
INSERT
  5
3F3
330
3EC
100
AcDbEntity
  8
LAY-20
 62
     4
100
AcDbBlockReference
  2
EX_BNORM
 10
326.57151627238
 20
179.20251062068
 30
0.0
 41
18.0
 42
18.0
 43
18.0
 50
180.0
  0
MTEXT
  5
3F4
330
3EC
100
AcDbEntity
  8
LAY-20
 62
     7
100
AcDbMText
 10
769.5715162721401
 20
194.20251062068
 30
0.0
 40
18.7086624
 41
0.0
 71
     5
 72
     1
  1
%%c886
  7
EXCADDIM1
  0
POINT
  5
3F5
330
3EC
100
AcDbEntity
  8
DEFPOINTS
 62
     0
100
AcDbPoint
 10
1212.5715162719
 20
279.20251062068
 30
0.0
  0
POINT
  5
3F6
330
3EC
100
AcDbEntity
  8
DEFPOINTS
 62
     0
100
AcDbPoint
 10
326.57151627238
 20
279.20251062068
 30
0.0
  0
POINT
  5
3F7
330
3EC
100
AcDbEntity
  8
DEFPOINTS
 62
     0
100
AcDbPoint
 10
326.57151627238
 20
179.20251062068
 30
0.0
  0
ENDBLK
  5
3EE
330
3EC
100
AcDbEntity
  8
0
100
AcDbBlockEnd
  0
BLOCK
  5
3FA
330
3F9
100
AcDbEntity
  8
0
100
AcDbBlockBegin
  2
*D18
 70
     1
 10
0.0
 20
0.0
 30
0.0
  3
*D18
  1

  0
LINE
  5
3FC
330
3F9
100
AcDbEntity
  8
LAY-20
  6
CONTINUOUS
 62
     4
100
AcDbLine
 10
381.57151627382
 20
367.20251062068
 30
0.0
 11
381.57151627382
 21
475.9749907476199
 31
0.0
  0
LINE
  5
3FD
330
3F9
100
AcDbEntity
  8
LAY-20
  6
CONTINUOUS
 62
     4
100
AcDbLine
 10
1157.5666428888
 20
367.20251062068
 30
0.0
 11
1157.5666428888
 21
475.9749907476199
 31
0.0
  0
LINE
  5
3FE
330
3F9
100
AcDbEntity
  8
LAY-20
  6
CONTINUOUS
 62
     4
100
AcDbLine
 10
399.57151627382
 20
466.9749907476199
 30
0.0
 11
1139.5666428888
 21
466.9749907476199
 31
0.0
  0
INSERT
  5
3FF
330
3F9
100
AcDbEntity
  8
LAY-20
 62
     4
100
AcDbBlockReference
  2
EX_BNORM
 10
381.57151627382
 20
466.9749907476199
 30
0.0
 41
18.0
 42
18.0
 43
18.0
 50
180.0
  0
INSERT
  5
400
330
3F9
100
AcDbEntity
  8
LAY-20
 62
     4
100
AcDbBlockReference
  2
EX_BNORM
 10
1157.5666428888
 20
466.9749907476199
 30
0.0
 41
18.0
 42
18.0
 43
18.0
  0
MTEXT
  5
401
330
3F9
100
AcDbEntity
  8
LAY-20
 62
     7
100
AcDbMText
 10
769.5690795813099
 20
481.9749907476199
 30
0.0
 40
18.7086624
 41
0.0
 71
     5
 72
     1
  1
%%c776
  7
EXCADDIM1
  0
POINT
  5
402
330
3F9
100
AcDbEntity
  8
DEFPOINTS
 62
     0
100
AcDbPoint
 10
381.57151627382
 20
358.20251062068
 30
0.0
  0
POINT
  5
403
330
3F9
100
AcDbEntity
  8
DEFPOINTS
 62
     0
100
AcDbPoint
 10
1157.5666428888
 20
358.20251062068
 30
0.0
  0
POINT
  5
404
330
3F9
100
AcDbEntity
  8
DEFPOINTS
 62
     0
100
AcDbPoint
 10
1157.5666428888
 20
466.9749907476199
 30
0.0
  0
ENDBLK
  5
3FB
330
3F9
100
AcDbEntity
  8
0
100
AcDbBlockEnd
  0
BLOCK
  5
407
330
406
100
AcDbEntity
  8
0
100
AcDbBlockBegin
  2
*D19
 70
     1
 10
0.0
 20
0.0
 30
0.0
  3
*D19
  1

  0
LINE
  5
409
330
406
100
AcDbEntity
  8
LAY-20
  6
CONTINUOUS
 62
     4
100
AcDbLine
 10
373.57151627199
 20
367.20251062068
 30
0.0
 11
373.57151627199
 21
517.9749907476199
 31
0.0
  0
LINE
  5
40A
330
406
100
AcDbEntity
  8
LAY-20
  6
CONTINUOUS
 62
     4
100
AcDbLine
 10
1165.5715162722
 20
367.20251062066
 30
0.0
 11
1165.5715162722
 21
517.9749907476199
 31
0.0
  0
LINE
  5
40B
330
406
100
AcDbEntity
  8
LAY-20
  6
CONTINUOUS
 62
     4
100
AcDbLine
 10
391.57151627199
 20
508.9749907476199
 30
0.0
 11
1147.5715162722
 21
508.9749907476199
 31
0.0
  0
INSERT
  5
40C
330
406
100
AcDbEntity
  8
LAY-20
 62
     4
100
AcDbBlockReference
  2
EX_BNORM
 10
373.57151627199
 20
508.9749907476199
 30
0.0
 41
18.0
 42
18.0
 43
18.0
 50
180.0
  0
INSERT
  5
40D
330
406
100
AcDbEntity
  8
LAY-20
 62
     4
100
AcDbBlockReference
  2
EX_BNORM
 10
1165.5715162722
 20
508.9749907476199
 30
0.0
 41
18.0
 42
18.0
 43
18.0
  0
MTEXT
  5
40E
330
406
100
AcDbEntity
  8
LAY-20
 62
     7
100
AcDbMText
 10
769.5715162720949
 20
523.9749907476199
 30
0.0
 40
18.7086624
 41
0.0
 71
     5
 72
     1
  1
%%c792
  7
EXCADDIM1
  0
POINT
  5
40F
330
406
100
AcDbEntity
  8
DEFPOINTS
 62
     0
100
AcDbPoint
 10
373.57151627199
 20
358.20251062068
 30
0.0
  0
POINT
  5
410
330
406
100
AcDbEntity
  8
DEFPOINTS
 62
     0
100
AcDbPoint
 10
1165.5715162722
 20
358.20251062066
 30
0.0
  0
POINT
  5
411
330
406
100
AcDbEntity
  8
DEFPOINTS
 62
     0
100
AcDbPoint
 10
1165.5715162722
 20
508.9749907476199
 30
0.0
  0
ENDBLK
  5
408
330
406
100
AcDbEntity
  8
0
100
AcDbBlockEnd
  0
ENDSEC
  0
SECTION
  2
ENTITIES
  0
LINE
  5
D5
330
1F
100
AcDbEntity
  8
LAY-10
  6
CONTINUOUS
 62
     7
100
AcDbLine
 10
1101.947801926976
 20
311.6662482262314
 30
0.0
 11
1107.983522710987
 21
317.7019690102434
 31
0.0
  0
LINE
  5
D6
330
1F
100
AcDbEntity
  8
LAY-10
  6
CONTINUOUS
 62
     7
100
AcDbLine
 10
1102.796096963061
 20
309.6861161375701
 30
0.0
 11
1105.030459704283
 21
311.9204788787929
 31
0.0
  0
LINE
  5
D7
330
1F
100
AcDbEntity
  8
LAY-10
  6
CONTINUOUS
 62
     7
100
AcDbLine
 10
1104.244523719063
 20
308.3061157688267
 30
0.0
 11
1106.298385953532
 21
310.359978003295
 31
0.0
  0
LINE
  5
D8
330
1F
100
AcDbEntity
  8
LAY-10
  6
CONTINUOUS
 62
     7
100
AcDbLine
 10
1106.201207988186
 20
307.4343729132032
 30
0.0
 11
1108.737636742619
 21
309.9708016676364
 31
0.0
  0
LINE
  5
D9
330
1F
100
AcDbEntity
  8
LAY-10
  6
CONTINUOUS
 62
     7
100
AcDbLine
 10
1108.858030316677
 20
307.2627681169483
 30
0.0
 11
1114.093598246592
 21
312.4983360468637
 31
0.0
  0
LINE
  5
DA
330
1F
100
AcDbEntity
  8
LAY-10
  6
CONTINUOUS
 62
     7
100
AcDbLine
 10
1108.737636742611
 20
309.9708016676286
 30
0.0
 11
1113.488340126193
 21
314.7215050512102
 31
0.0
  0
LINE
  5
DB
330
1F
100
AcDbEntity
  8
LAY-10
  6
CONTINUOUS
 62
     7
100
AcDbLine
 10
1106.298385953519
 20
310.3599780032814
 30
0.0
 11
1112.19114921959
 21
316.2527412693542
 31
0.0
  0
LINE
  5
DC
330
1F
100
AcDbEntity
  8
LAY-10
  6
CONTINUOUS
 62
     7
100
AcDbLine
 10
1105.03045970429
 20
311.9204788788
 30
0.0
 11
1110.385783494906
 21
317.2758026694159
 31
0.0
  0
LINE
  5
DD
330
1F
100
AcDbEntity
  8
LAY-10
  6
CONTINUOUS
 62
     7
100
AcDbLine
 10
437.1952306172655
 20
311.6662482262315
 30
0.0
 11
431.1595098332539
 21
317.7019690102435
 31
0.0
  0
LINE
  5
DE
330
1F
100
AcDbEntity
  8
LAY-10
  6
CONTINUOUS
 62
     7
100
AcDbLine
 10
430.2850022275641
 20
307.2627681169484
 30
0.0
 11
425.0494342976487
 21
312.4983360468638
 31
0.0
  0
LINE
  5
DF
330
1F
100
AcDbEntity
  8
LAY-10
  6
CONTINUOUS
 62
     7
100
AcDbLine
 10
431.0353592148488
 20
314.9976925039024
 30
0.0
 11
428.7572490493351
 21
317.275802669416
 31
0.0
  0
LINE
  5
E0
330
1F
100
AcDbEntity
  8
LAY-10
  6
CONTINUOUS
 62
     7
100
AcDbLine
 10
428.9997277473596
 20
314.2048968466452
 30
0.0
 11
426.9518833246509
 21
316.2527412693543
 31
0.0
  0
LINE
  5
E1
330
1F
100
AcDbEntity
  8
LAY-10
  6
CONTINUOUS
 62
     7
100
AcDbLine
 10
428.1315546686608
 20
312.2446428005977
 30
0.0
 11
425.6546924180482
 21
314.7215050512103
 31
0.0
  0
LINE
  5
E2
330
1F
100
AcDbEntity
  8
LAY-10
  6
CONTINUOUS
 62
     7
100
AcDbLine
 10
432.9418245560553
 20
307.4343729132033
 30
0.0
 11
428.1315546686595
 21
312.2446428005995
 31
0.0
  0
LINE
  5
E3
330
1F
100
AcDbEntity
  8
LAY-10
  6
CONTINUOUS
 62
     7
100
AcDbLine
 10
434.8985088251781
 20
308.3061157688268
 30
0.0
 11
428.9997277473566
 21
314.2048968466466
 31
0.0
  0
LINE
  5
E4
330
1F
100
AcDbEntity
  8
LAY-10
  6
CONTINUOUS
 62
     7
100
AcDbLine
 10
436.3469355811806
 20
309.6861161375702
 30
0.0
 11
431.0353592148503
 21
314.9976925039003
 31
0.0
  0
CIRCLE
  5
E5
330
1F
100
AcDbEntity
  8
LAY-10
  6
CONTINUOUS
 62
     7
100
AcDbCircle
 10
769.5715162721201
 20
1060.628901592574
 30
0.0
 40
390.00000000096
  0
CIRCLE
  5
E6
330
1F
100
AcDbEntity
  8
LAY-10
  6
CONTINUOUS
 62
     7
100
AcDbCircle
 10
769.5715162721201
 20
1060.628901592574
 30
0.0
 40
396.0000000001601
  0
CIRCLE
  5
E7
330
1F
100
AcDbEntity
  8
LAY-10
  6
CONTINUOUS
 62
     7
100
AcDbCircle
 10
769.5715162721201
 20
1060.628901592574
 30
0.0
 40
442.9999999996602
  0
CIRCLE
  5
E8
330
1F
100
AcDbEntity
  8
LAY-10
  6
CONTINUOUS
 62
     7
100
AcDbCircle
 10
1063.02083046452
 20
767.179587400155
 30
0.0
 40
7.000000000000004
  0
CIRCLE
  5
E9
330
1F
100
AcDbEntity
  8
LAY-10
  6
CONTINUOUS
 62
     7
100
AcDbCircle
 10
1063.02083046452
 20
767.179587400155
 30
0.0
 40
12.00000000000001
  0
CIRCLE
  5
EA
330
1F
100
AcDbEntity
  8
LAY-10
  6
CONTINUOUS
 62
     7
100
AcDbCircle
 10
476.1222020797197
 20
767.179587400155
 30
0.0
 40
7.000000000000004
  0
CIRCLE
  5
EB
330
1F
100
AcDbEntity
  8
LAY-10
  6
CONTINUOUS
 62
     7
100
AcDbCircle
 10
476.1222020797197
 20
767.179587400155
 30
0.0
 40
12.00000000000001
  0
CIRCLE
  5
EC
330
1F
100
AcDbEntity
  8
LAY-10
  6
CONTINUOUS
 62
     7
100
AcDbCircle
 10
1063.02083046452
 20
1354.078215784914
 30
0.0
 40
7.000000000000004
  0
CIRCLE
  5
ED
330
1F
100
AcDbEntity
  8
LAY-10
  6
CONTINUOUS
 62
     7
100
AcDbCircle
 10
1063.02083046452
 20
1354.078215784914
 30
0.0
 40
12.00000000000001
  0
CIRCLE
  5
EE
330
1F
100
AcDbEntity
  8
LAY-10
  6
CONTINUOUS
 62
     7
100
AcDbCircle
 10
476.1222020797197
 20
1354.078215784913
 30
0.0
 40
7.000000000000004
  0
CIRCLE
  5
EF
330
1F
100
AcDbEntity
  8
LAY-10
  6
CONTINUOUS
 62
     7
100
AcDbCircle
 10
476.1222020797197
 20
1354.078215784913
 30
0.0
 40
12.00000000000001
  0
ARC
  5
F0
330
1F
100
AcDbEntity
  8
LAY-10
  6
CONTINUOUS
 62
     7
100
AcDbCircle
 10
1039.806255727299
 20
1361.976339419873
 30
0.0
 40
2.0
100
AcDbArc
 50
228.1156829495144
 51
315.0000000000026
  0
LINE
  5
F1
330
1F
100
AcDbEntity
  8
LAY-10
  6
CONTINUOUS
 62
     7
100
AcDbLine
 10
1041.220469289672
 20
1360.5621258575
 30
0.0
 11
1042.257272513398
 21
1361.598929081226
 31
0.0
  0
ARC
  5
F2
330
1F
100
AcDbEntity
  8
LAY-10
  6
CONTINUOUS
 62
     7
100
AcDbCircle
 10
1040.843058951026
 20
1363.013142643599
 30
0.0
 40
2.0
100
AcDbArc
 50
315.0000000000002
 51
48.1044426896717
  0
ARC
  5
F3
330
1F
100
AcDbEntity
  8
LAY-10
  6
CONTINUOUS
 62
     7
100
AcDbCircle
 10
1053.968338982264
 20
1376.138422674839
 30
0.0
 40
2.0
100
AcDbArc
 50
227.9688477852077
 51
314.9999999999931
  0
LINE
  5
F4
330
1F
100
AcDbEntity
  8
LAY-10
  6
CONTINUOUS
 62
     7
100
AcDbLine
 10
1055.382552544638
 20
1374.724209112466
 30
0.0
 11
1056.419215307103
 21
1375.760871874931
 31
0.0
  0
ARC
  5
F5
330
1F
100
AcDbEntity
  8
LAY-10
  6
CONTINUOUS
 62
     7
100
AcDbCircle
 10
1055.00500174473
 20
1377.175085437304
 30
0.0
 40
2.0
100
AcDbArc
 50
314.9999999999954
 51
47.9586407416345
  0
ARC
  5
F6
330
1F
100
AcDbEntity
  8
LAY-10
  6
CONTINUOUS
 62
     7
100
AcDbCircle
 10
1070.918954099501
 20
1330.863641047662
 30
0.0
 40
2.0
100
AcDbArc
 50
135.0000000000046
 51
221.8843170504649
  0
LINE
  5
F7
330
1F
100
AcDbEntity
  8
LAY-10
  6
CONTINUOUS
 62
     7
100
AcDbLine
 10
1069.504740537127
 20
1332.277854610035
 30
0.0
 11
1070.541543760854
 21
1333.314657833761
 31
0.0
  0
ARC
  5
F8
330
1F
100
AcDbEntity
  8
LAY-10
  6
CONTINUOUS
 62
     7
100
AcDbCircle
 10
1071.955757323227
 20
1331.900444271388
 30
0.0
 40
2.0
100
AcDbArc
 50
41.89555731030988
 51
135.0000000000046
  0
ARC
  5
F9
330
1F
100
AcDbEntity
  8
LAY-10
  6
CONTINUOUS
 62
     7
100
AcDbCircle
 10
1085.081037354467
 20
1345.025724302628
 30
0.0
 40
2.0
100
AcDbArc
 50
135.0000000000023
 51
222.0311522147762
  0
LINE
  5
FA
330
1F
100
AcDbEntity
  8
LAY-10
  6
CONTINUOUS
 62
     7
100
AcDbLine
 10
1083.666823792093
 20
1346.439937865001
 30
0.0
 11
1084.703486554559
 21
1347.476600627466
 31
0.0
  0
ARC
  5
FB
330
1F
100
AcDbEntity
  8
LAY-10
  6
CONTINUOUS
 62
     7
100
AcDbCircle
 10
1086.117700116932
 20
1346.062387065093
 30
0.0
 40
2.0
100
AcDbArc
 50
42.04135925834932
 51
135.0000000000001
  0
ARC
  5
FC
330
1F
100
AcDbEntity
  8
LAY-10
  6
CONTINUOUS
 62
     7
100
AcDbCircle
 10
769.5715162721201
 20
1060.628901592574
 30
0.0
 40
428.2320508076602
100
AcDbArc
 50
47.95864074163386
 51
132.0413592583661
  0
ARC
  5
FD
330
1F
100
AcDbEntity
  8
LAY-10
  6
CONTINUOUS
 62
     7
100
AcDbCircle
 10
484.1380307995107
 20
1377.175085437304
 30
0.0
 40
2.0
100
AcDbArc
 50
132.0413592583643
 51
225.0000000000058
  0
LINE
  5
FE
330
1F
100
AcDbEntity
  8
LAY-10
  6
CONTINUOUS
 62
     7
100
AcDbLine
 10
483.7604799996031
 20
1374.724209112466
 30
0.0
 11
482.7238172371383
 21
1375.760871874931
 31
0.0
  0
ARC
  5
FF
330
1F
100
AcDbEntity
  8
LAY-10
  6
CONTINUOUS
 62
     7
100
AcDbCircle
 10
769.5715162721201
 20
1060.628901592574
 30
0.0
 40
422.7679491924802
100
AcDbArc
 50
47.96884778520616
 51
132.0311522147938
  0
ARC
  5
100
330
1F
100
AcDbEntity
  8
LAY-10
  6
CONTINUOUS
 62
     7
100
AcDbCircle
 10
485.174693561976
 20
1376.138422674839
 30
0.0
 40
2.0
100
AcDbArc
 50
225.0000000000024
 51
312.0311522147924
  0
ARC
  5
101
330
1F
100
AcDbEntity
  8
LAY-10
  6
CONTINUOUS
 62
     7
100
AcDbCircle
 10
769.5715162721201
 20
1060.628901592574
 30
0.0
 40
408.2320508076602
100
AcDbArc
 50
48.10444268967251
 51
131.8955573103274
  0
ARC
  5
102
330
1F
100
AcDbEntity
  8
LAY-10
  6
CONTINUOUS
 62
     7
100
AcDbCircle
 10
498.2999735932156
 20
1363.0131426436
 30
0.0
 40
2.0
100
AcDbArc
 50
131.8955573103283
 51
225.0000000000024
  0
LINE
  5
103
330
1F
100
AcDbEntity
  8
LAY-10
  6
CONTINUOUS
 62
     7
100
AcDbLine
 10
497.9225632545688
 20
1360.5621258575
 30
0.0
 11
496.8857600308427
 21
1361.598929081226
 31
0.0
  0
ARC
  5
104
330
1F
100
AcDbEntity
  8
LAY-10
  6
CONTINUOUS
 62
     7
100
AcDbCircle
 10
769.5715162721201
 20
1060.628901592574
 30
0.0
 40
402.7679491924801
100
AcDbArc
 50
48.11568294951664
 51
131.8843170504833
  0
ARC
  5
105
330
1F
100
AcDbEntity
  8
LAY-10
  6
CONTINUOUS
 62
     7
100
AcDbCircle
 10
499.3367768169421
 20
1361.976339419873
 30
0.0
 40
2.0
100
AcDbArc
 50
225.0000000000001
 51
311.8843170504848
  0
ARC
  5
106
330
1F
100
AcDbEntity
  8
LAY-10
  6
CONTINUOUS
 62
     7
100
AcDbCircle
 10
467.187275221014
 20
1331.900444271388
 30
0.0
 40
2.0
100
AcDbArc
 50
45.00000000000113
 51
138.1044426896901
  0
LINE
  5
107
330
1F
100
AcDbEntity
  8
LAY-10
  6
CONTINUOUS
 62
     7
100
AcDbLine
 10
469.638292007113
 20
1332.277854610035
 30
0.0
 11
468.6014887833869
 21
1333.314657833761
 31
0.0
  0
ARC
  5
108
330
1F
100
AcDbEntity
  8
LAY-10
  6
CONTINUOUS
 62
     7
100
AcDbCircle
 10
468.2240784447401
 20
1330.863641047662
 30
0.0
 40
2.0
100
AcDbArc
 50
318.1156829495353
 51
44.99999999999655
  0
ARC
  5
109
330
1F
100
AcDbEntity
  8
LAY-10
  6
CONTINUOUS
 62
     7
100
AcDbCircle
 10
454.0619951897741
 20
1345.025724302628
 30
0.0
 40
2.0
100
AcDbArc
 50
317.9688477852227
 51
44.99999999999425
  0
LINE
  5
10A
330
1F
100
AcDbEntity
  8
LAY-10
  6
CONTINUOUS
 62
     7
100
AcDbLine
 10
455.4762087521469
 20
1346.439937865001
 30
0.0
 11
454.4395459896821
 21
1347.476600627466
 31
0.0
  0
ARC
  5
10B
330
1F
100
AcDbEntity
  8
LAY-10
  6
CONTINUOUS
 62
     7
100
AcDbCircle
 10
453.0253324273092
 20
1346.062387065093
 30
0.0
 40
2.0
100
AcDbArc
 50
44.9999999999977
 51
137.9586407416496
  0
ARC
  5
10C
330
1F
100
AcDbEntity
  8
LAY-10
  6
CONTINUOUS
 62
     7
100
AcDbCircle
 10
769.5715162721201
 20
1060.628901592574
 30
0.0
 40
402.7679491924801
100
AcDbArc
 50
138.1156829495339
 51
221.8843170504792
  0
ARC
  5
10D
330
1F
100
AcDbEntity
  8
LAY-10
  6
CONTINUOUS
 62
     7
100
AcDbCircle
 10
468.2240784448011
 20
790.3941621374179
 30
0.0
 40
2.0
100
AcDbArc
 50
314.9999999999989
 51
41.88431705048006
  0
LINE
  5
10E
330
1F
100
AcDbEntity
  8
LAY-10
  6
CONTINUOUS
 62
     7
100
AcDbLine
 10
469.638292007174
 20
788.9799485750448
 30
0.0
 11
468.6014887834478
 21
787.9431453513187
 31
0.0
  0
ARC
  5
10F
330
1F
100
AcDbEntity
  8
LAY-10
  6
CONTINUOUS
 62
     7
100
AcDbCircle
 10
769.5715162721201
 20
1060.628901592574
 30
0.0
 40
408.2320508076602
100
AcDbArc
 50
138.1044426896896
 51
221.8955573103233
  0
ARC
  5
110
330
1F
100
AcDbEntity
  8
LAY-10
  6
CONTINUOUS
 62
     7
100
AcDbCircle
 10
467.187275221075
 20
789.3573589136918
 30
0.0
 40
2.0
100
AcDbArc
 50
221.8955573103237
 51
315.0000000000002
  0
ARC
  5
111
330
1F
100
AcDbEntity
  8
LAY-10
  6
CONTINUOUS
 62
     7
100
AcDbCircle
 10
769.5715162721201
 20
1060.628901592574
 30
0.0
 40
422.7679491924802
100
AcDbArc
 50
137.9688477852226
 51
222.0311522147898
  0
ARC
  5
112
330
1F
100
AcDbEntity
  8
LAY-10
  6
CONTINUOUS
 62
     7
100
AcDbCircle
 10
454.0619951898354
 20
776.2320788824522
 30
0.0
 40
2.0
100
AcDbArc
 50
315.0000000000011
 51
42.03115221478998
  0
LINE
  5
113
330
1F
100
AcDbEntity
  8
LAY-10
  6
CONTINUOUS
 62
     7
100
AcDbLine
 10
455.4762087522088
 20
774.8178653200789
 30
0.0
 11
454.4395459897435
 21
773.781202557614
 31
0.0
  0
ARC
  5
114
330
1F
100
AcDbEntity
  8
LAY-10
  6
CONTINUOUS
 62
     7
100
AcDbCircle
 10
769.5715162721201
 20
1060.628901592574
 30
0.0
 40
428.2320508076602
100
AcDbArc
 50
137.9586407416502
 51
222.0413592583622
  0
ARC
  5
115
330
1F
100
AcDbEntity
  8
LAY-10
  6
CONTINUOUS
 62
     7
100
AcDbCircle
 10
453.0253324273701
 20
775.1954161199869
 30
0.0
 40
2.0
100
AcDbArc
 50
222.0413592583631
 51
315.0000000000011
  0
ARC
  5
116
330
1F
100
AcDbEntity
  8
LAY-10
  6
CONTINUOUS
 62
     7
100
AcDbCircle
 10
499.3367768170103
 20
759.2814637652136
 30
0.0
 40
2.0
100
AcDbArc
 50
48.11568294952925
 51
135.0000000000001
  0
LINE
  5
117
330
1F
100
AcDbEntity
  8
LAY-10
  6
CONTINUOUS
 62
     7
100
AcDbLine
 10
497.922563254637
 20
760.6956773275865
 30
0.0
 11
496.8857600309109
 21
759.6588741038604
 31
0.0
  0
ARC
  5
118
330
1F
100
AcDbEntity
  8
LAY-10
  6
CONTINUOUS
 62
     7
100
AcDbCircle
 10
498.2999735932838
 20
758.2446605414875
 30
0.0
 40
2.0
100
AcDbArc
 50
134.9999999999989
 51
228.1044426896855
  0
ARC
  5
119
330
1F
100
AcDbEntity
  8
LAY-10
  6
CONTINUOUS
 62
     7
100
AcDbCircle
 10
485.1746935620442
 20
745.119380510248
 30
0.0
 40
2.0
100
AcDbArc
 50
47.96884778521922
 51
134.9999999999989
  0
LINE
  5
11A
330
1F
100
AcDbEntity
  8
LAY-10
  6
CONTINUOUS
 62
     7
100
AcDbLine
 10
483.7604799996708
 20
746.5335940726209
 30
0.0
 11
482.723817237206
 21
745.4969313101558
 31
0.0
  0
ARC
  5
11B
330
1F
100
AcDbEntity
  8
LAY-10
  6
CONTINUOUS
 62
     7
100
AcDbCircle
 10
484.1380307995789
 20
744.0827177477829
 30
0.0
 40
2.0
100
AcDbArc
 50
134.9999999999978
 51
227.9586407416461
  0
ARC
  5
11C
330
1F
100
AcDbEntity
  8
LAY-10
  6
CONTINUOUS
 62
     7
100
AcDbCircle
 10
769.5715162721201
 20
1060.628901592574
 30
0.0
 40
402.7679491924801
100
AcDbArc
 50
228.1156829495298
 51
311.8843170504704
  0
ARC
  5
11D
330
1F
100
AcDbEntity
  8
LAY-10
  6
CONTINUOUS
 62
     7
100
AcDbCircle
 10
1039.806255727231
 20
759.2814637652136
 30
0.0
 40
2.0
100
AcDbArc
 50
44.9999999999977
 51
131.8843170504719
  0
LINE
  5
11E
330
1F
100
AcDbEntity
  8
LAY-10
  6
CONTINUOUS
 62
     7
100
AcDbLine
 10
1041.220469289604
 20
760.695677327587
 30
0.0
 11
1042.25727251333
 21
759.6588741038609
 31
0.0
  0
ARC
  5
11F
330
1F
100
AcDbEntity
  8
LAY-10
  6
CONTINUOUS
 62
     7
100
AcDbCircle
 10
769.5715162721201
 20
1060.628901592574
 30
0.0
 40
408.2320508076602
100
AcDbArc
 50
228.1044426896855
 51
311.8955573103146
  0
ARC
  5
120
330
1F
100
AcDbEntity
  8
LAY-10
  6
CONTINUOUS
 62
     7
100
AcDbCircle
 10
1040.843058950957
 20
758.2446605414875
 30
0.0
 40
2.0
100
AcDbArc
 50
311.8955573103146
 51
44.9999999999977
  0
ARC
  5
121
330
1F
100
AcDbEntity
  8
LAY-10
  6
CONTINUOUS
 62
     7
100
AcDbCircle
 10
769.5715162721201
 20
1060.628901592574
 30
0.0
 40
422.7679491924802
100
AcDbArc
 50
227.9688477852186
 51
312.0311522147816
  0
ARC
  5
122
330
1F
100
AcDbEntity
  8
LAY-10
  6
CONTINUOUS
 62
     7
100
AcDbCircle
 10
1053.968338982197
 20
745.1193805102478
 30
0.0
 40
2.0
100
AcDbArc
 50
45.00000000000463
 51
132.0311522147808
  0
LINE
  5
123
330
1F
100
AcDbEntity
  8
LAY-10
  6
CONTINUOUS
 62
     7
100
AcDbLine
 10
1055.382552544569
 20
746.5335940726209
 30
0.0
 11
1056.419215307035
 21
745.496931310156
 31
0.0
  0
ARC
  5
124
330
1F
100
AcDbEntity
  8
LAY-10
  6
CONTINUOUS
 62
     7
100
AcDbCircle
 10
769.5715162721201
 20
1060.628901592574
 30
0.0
 40
428.2320508076602
100
AcDbArc
 50
227.9586407416462
 51
312.041359258354
  0
ARC
  5
125
330
1F
100
AcDbEntity
  8
LAY-10
  6
CONTINUOUS
 62
     7
100
AcDbCircle
 10
1055.005001744661
 20
744.0827177477827
 30
0.0
 40
2.0
100
AcDbArc
 50
312.041359258354
 51
45.00000000000693
  0
ARC
  5
126
330
1F
100
AcDbEntity
  8
LAY-10
  6
CONTINUOUS
 62
     7
100
AcDbCircle
 10
769.5715162721201
 20
1060.628901592574
 30
0.0
 40
428.2320508076602
100
AcDbArc
 50
317.958640741638
 51
42.04135925834979
  0
ARC
  5
127
330
1F
100
AcDbEntity
  8
LAY-10
  6
CONTINUOUS
 62
     7
100
AcDbCircle
 10
1086.117700116871
 20
775.195416119987
 30
0.0
 40
2.0
100
AcDbArc
 50
224.9999999999978
 51
317.958640741637
  0
ARC
  5
128
330
1F
100
AcDbEntity
  8
LAY-10
  6
CONTINUOUS
 62
     7
100
AcDbCircle
 10
769.5715162721201
 20
1060.628901592574
 30
0.0
 40
422.7679491924802
100
AcDbArc
 50
317.9688477852102
 51
42.03115221477738
  0
LINE
  5
129
330
1F
100
AcDbEntity
  8
LAY-10
  6
CONTINUOUS
 62
     7
100
AcDbLine
 10
1083.666823792032
 20
774.8178653200794
 30
0.0
 11
1084.703486554498
 21
773.781202557614
 31
0.0
  0
ARC
  5
12A
330
1F
100
AcDbEntity
  8
LAY-10
  6
CONTINUOUS
 62
     7
100
AcDbCircle
 10
1085.081037354406
 20
776.2320788824522
 30
0.0
 40
2.0
100
AcDbArc
 50
137.9688477852101
 51
224.9999999999955
  0
ARC
  5
12B
330
1F
100
AcDbEntity
  8
LAY-10
  6
CONTINUOUS
 62
     7
100
AcDbCircle
 10
769.5715162721201
 20
1060.628901592574
 30
0.0
 40
408.2320508076602
100
AcDbArc
 50
318.1044426896768
 51
41.89555731031028
  0
ARC
  5
12C
330
1F
100
AcDbEntity
  8
LAY-10
  6
CONTINUOUS
 62
     7
100
AcDbCircle
 10
1071.955757323165
 20
789.3573589136914
 30
0.0
 40
2.0
100
AcDbArc
 50
224.9999999999978
 51
318.1044426896764
  0
LINE
  5
12D
330
1F
100
AcDbEntity
  8
LAY-10
  6
CONTINUOUS
 62
     7
100
AcDbLine
 10
1069.504740537066
 20
788.9799485750448
 30
0.0
 11
1070.541543760792
 21
787.9431453513184
 31
0.0
  0
ARC
  5
12E
330
1F
100
AcDbEntity
  8
LAY-10
  6
CONTINUOUS
 62
     7
100
AcDbCircle
 10
769.5715162721201
 20
1060.628901592574
 30
0.0
 40
402.7679491924801
100
AcDbArc
 50
318.1156829495212
 51
41.88431705046614
  0
ARC
  5
12F
330
1F
100
AcDbEntity
  8
LAY-10
  6
CONTINUOUS
 62
     7
100
AcDbCircle
 10
1070.91895409944
 20
790.3941621374175
 30
0.0
 40
2.0
100
AcDbArc
 50
138.1156829495189
 51
224.9999999999955
  0
ARC
  5
130
330
1F
100
AcDbEntity
  8
LAY-10
  6
CONTINUOUS
 62
     7
100
AcDbCircle
 10
769.5715162721201
 20
1060.628901592574
 30
0.0
 40
426.5000000001
100
AcDbArc
 50
42.30769989164647
 51
42.31222513187233
  0
ARC
  5
131
330
1F
100
AcDbEntity
  8
LAY-10
  6
CONTINUOUS
 62
     7
100
AcDbCircle
 10
769.5715162721201
 20
1060.628901592574
 30
0.0
 40
424.50000000004
100
AcDbArc
 50
42.29857923404023
 51
42.29955251862803
  0
ARC
  5
132
330
1F
100
AcDbEntity
  8
LAY-10
  6
CONTINUOUS
 62
     7
100
AcDbCircle
 10
1086.068309467074
 20
1345.023046921499
 30
0.0
 40
1.000000000029985
100
AcDbArc
 50
41.94187559047577
 51
221.9418755904758
  0
ARC
  5
133
330
1F
100
AcDbEntity
  8
LAY-10
  6
CONTINUOUS
 62
     7
100
AcDbCircle
 10
769.5715162721201
 20
1060.628901592574
 30
0.0
 40
406.5000000001
100
AcDbArc
 50
42.17500638085333
 51
42.17988090521391
  0
ARC
  5
134
330
1F
100
AcDbEntity
  8
LAY-10
  6
CONTINUOUS
 62
     7
100
AcDbCircle
 10
1071.905008703325
 20
1330.859746157748
 30
0.0
 40
1.000000000030013
100
AcDbArc
 50
41.79088911589982
 51
221.7908891159
  0
ARC
  5
135
330
1F
100
AcDbEntity
  8
LAY-10
  6
CONTINUOUS
 62
     7
100
AcDbCircle
 10
769.5715162721201
 20
1060.628901592574
 30
0.0
 40
404.50000000004
100
AcDbArc
 50
42.16496231568758
 51
42.16592582167814
  0
ARC
  5
136
330
1F
100
AcDbEntity
  8
LAY-10
  6
CONTINUOUS
 62
     7
100
AcDbCircle
 10
1053.965661601085
 20
1377.125694787489
 30
0.0
 40
1.000000000029985
100
AcDbArc
 50
228.0581244095262
 51
48.05812440952231
  0
ARC
  5
137
330
1F
100
AcDbEntity
  8
LAY-10
  6
CONTINUOUS
 62
     7
100
AcDbCircle
 10
1039.802360837334
 20
1362.962394023739
 30
0.0
 40
1.000000000030013
100
AcDbArc
 50
228.2091108840999
 51
48.20911088409127
  0
ARC
  5
138
330
1F
100
AcDbEntity
  8
LAY-10
  6
CONTINUOUS
 62
     7
100
AcDbCircle
 10
769.5715162721201
 20
1060.628901592574
 30
0.0
 40
426.5000000001
100
AcDbArc
 50
47.67689581374613
 51
47.69230010833717
  0
ARC
  5
139
330
1F
100
AcDbEntity
  8
LAY-10
  6
CONTINUOUS
 62
     7
100
AcDbCircle
 10
769.5715162721201
 20
1060.628901592574
 30
0.0
 40
406.5000000001
100
AcDbArc
 50
47.82011909476898
 51
47.82499361912952
  0
ARC
  5
13A
330
1F
100
AcDbEntity
  8
LAY-10
  6
CONTINUOUS
 62
     7
100
AcDbCircle
 10
769.5715162721201
 20
1060.628901592574
 30
0.0
 40
404.50000000004
100
AcDbArc
 50
47.83407417830464
 51
47.8350376842952
  0
ARC
  5
13B
330
1F
100
AcDbEntity
  8
LAY-10
  6
CONTINUOUS
 62
     7
100
AcDbCircle
 10
499.3406717069058
 20
1362.962394023739
 30
0.0
 40
1.000000000030013
100
AcDbArc
 50
131.7908891159136
 51
311.7908891159002
  0
ARC
  5
13C
330
1F
100
AcDbEntity
  8
LAY-10
  6
CONTINUOUS
 62
     7
100
AcDbCircle
 10
485.1773709431548
 20
1377.125694787489
 30
0.0
 40
1.000000000029985
100
AcDbArc
 50
131.9418755904826
 51
311.9418755904691
  0
ARC
  5
13D
330
1F
100
AcDbEntity
  8
LAY-10
  6
CONTINUOUS
 62
     7
100
AcDbCircle
 10
453.0747230771656
 20
1345.023046921499
 30
0.0
 40
1.000000000029985
100
AcDbArc
 50
318.0581244095218
 51
138.0581244095219
  0
ARC
  5
13E
330
1F
100
AcDbEntity
  8
LAY-10
  6
CONTINUOUS
 62
     7
100
AcDbCircle
 10
467.2380238409153
 20
1330.859746157748
 30
0.0
 40
1.000000000030013
100
AcDbArc
 50
318.2091108840958
 51
138.2091108840956
  0
ARC
  5
13F
330
1F
100
AcDbEntity
  8
LAY-10
  6
CONTINUOUS
 62
     7
100
AcDbCircle
 10
769.5715162721201
 20
1060.628901592574
 30
0.0
 40
406.5000000001
100
AcDbArc
 50
48.20911088409288
 51
131.7908891159072
  0
ARC
  5
140
330
1F
100
AcDbEntity
  8
LAY-10
  6
CONTINUOUS
 62
     7
100
AcDbCircle
 10
769.5715162721201
 20
1060.628901592574
 30
0.0
 40
406.5000000001
100
AcDbArc
 50
132.1750063808704
 51
132.1798809052311
  0
ARC
  5
141
330
1F
100
AcDbEntity
  8
LAY-10
  6
CONTINUOUS
 62
     7
100
AcDbCircle
 10
769.5715162721201
 20
1060.628901592574
 30
0.0
 40
404.50000000004
100
AcDbArc
 50
48.20911088409288
 51
131.7908891159072
  0
ARC
  5
142
330
1F
100
AcDbEntity
  8
LAY-10
  6
CONTINUOUS
 62
     7
100
AcDbCircle
 10
769.5715162721201
 20
1060.628901592574
 30
0.0
 40
404.50000000004
100
AcDbArc
 50
132.1649623157048
 51
132.1659258216955
  0
ARC
  5
143
330
1F
100
AcDbEntity
  8
LAY-10
  6
CONTINUOUS
 62
     7
100
AcDbCircle
 10
769.5715162721201
 20
1060.628901592574
 30
0.0
 40
424.50000000004
100
AcDbArc
 50
48.05812440951063
 51
131.9418755904895
  0
ARC
  5
144
330
1F
100
AcDbEntity
  8
LAY-10
  6
CONTINUOUS
 62
     7
100
AcDbCircle
 10
769.5715162721201
 20
1060.628901592574
 30
0.0
 40
424.50000000004
100
AcDbArc
 50
132.2985792340566
 51
132.2995525186447
  0
ARC
  5
145
330
1F
100
AcDbEntity
  8
LAY-10
  6
CONTINUOUS
 62
     7
100
AcDbCircle
 10
769.5715162721201
 20
1060.628901592574
 30
0.0
 40
426.5000000001
100
AcDbArc
 50
48.05812440951063
 51
131.9418755904895
  0
ARC
  5
146
330
1F
100
AcDbEntity
  8
LAY-10
  6
CONTINUOUS
 62
     7
100
AcDbCircle
 10
769.5715162721201
 20
1060.628901592574
 30
0.0
 40
426.5000000001
100
AcDbArc
 50
132.3076998916628
 51
132.3122251318888
  0
ARC
  5
147
330
1F
100
AcDbEntity
  8
LAY-10
  6
CONTINUOUS
 62
     7
100
AcDbCircle
 10
769.5715162721201
 20
1060.628901592574
 30
0.0
 40
426.5000000001
100
AcDbArc
 50
137.6877748681277
 51
137.6923001083535
  0
ARC
  5
148
330
1F
100
AcDbEntity
  8
LAY-10
  6
CONTINUOUS
 62
     7
100
AcDbCircle
 10
769.5715162721201
 20
1060.628901592574
 30
0.0
 40
424.50000000004
100
AcDbArc
 50
137.700447481372
 51
137.7014207659598
  0
ARC
  5
149
330
1F
100
AcDbEntity
  8
LAY-10
  6
CONTINUOUS
 62
     7
100
AcDbCircle
 10
769.5715162721201
 20
1060.628901592574
 30
0.0
 40
406.5000000001
100
AcDbArc
 50
137.8201190947845
 51
137.8249936191467
  0
ARC
  5
14A
330
1F
100
AcDbEntity
  8
LAY-10
  6
CONTINUOUS
 62
     7
100
AcDbCircle
 10
769.5715162721201
 20
1060.628901592574
 30
0.0
 40
404.50000000004
100
AcDbArc
 50
137.8340741783181
 51
137.8350376843124
  0
ARC
  5
14B
330
1F
100
AcDbEntity
  8
LAY-10
  6
CONTINUOUS
 62
     7
100
AcDbCircle
 10
453.074723077166
 20
776.2347562635691
 30
0.0
 40
1.000000000029985
100
AcDbArc
 50
221.9418755904783
 51
41.94187559047823
  0
ARC
  5
14C
330
1F
100
AcDbEntity
  8
LAY-10
  6
CONTINUOUS
 62
     7
100
AcDbCircle
 10
467.2380238409153
 20
790.3980570273202
 30
0.0
 40
1.000000000030013
100
AcDbArc
 50
221.7908891159046
 51
41.79088911590441
  0
ARC
  5
14D
330
1F
100
AcDbEntity
  8
LAY-10
  6
CONTINUOUS
 62
     7
100
AcDbCircle
 10
485.1773709431552
 20
744.1321083975799
 30
0.0
 40
1.000000000029985
100
AcDbArc
 50
48.05812440953102
 51
228.0581244095151
  0
ARC
  5
14E
330
1F
100
AcDbEntity
  8
LAY-10
  6
CONTINUOUS
 62
     7
100
AcDbCircle
 10
499.3406717069062
 20
758.2954091613292
 30
0.0
 40
1.000000000030013
100
AcDbArc
 50
48.20911088410239
 51
228.2091108840865
  0
ARC
  5
14F
330
1F
100
AcDbEntity
  8
LAY-10
  6
CONTINUOUS
 62
     7
100
AcDbCircle
 10
1039.802360837334
 20
758.2954091613296
 30
0.0
 40
1.000000000030013
100
AcDbArc
 50
311.7908891159138
 51
131.7908891159001
  0
ARC
  5
150
330
1F
100
AcDbEntity
  8
LAY-10
  6
CONTINUOUS
 62
     7
100
AcDbCircle
 10
1053.965661601085
 20
744.1321083975802
 30
0.0
 40
1.000000000029985
100
AcDbArc
 50
311.9418755904828
 51
131.941875590469
  0
ARC
  5
151
330
1F
100
AcDbEntity
  8
LAY-10
  6
CONTINUOUS
 62
     7
100
AcDbCircle
 10
1086.068309467075
 20
776.2347562635695
 30
0.0
 40
1.000000000029985
100
AcDbArc
 50
138.0581244095219
 51
318.0581244095218
  0
ARC
  5
152
330
1F
100
AcDbEntity
  8
LAY-10
  6
CONTINUOUS
 62
     7
100
AcDbCircle
 10
1071.905008703325
 20
790.3980570273205
 30
0.0
 40
1.000000000030013
100
AcDbArc
 50
138.2091108840956
 51
318.2091108840958
  0
ARC
  5
153
330
1F
100
AcDbEntity
  8
LAY-10
  6
CONTINUOUS
 62
     7
100
AcDbCircle
 10
769.5715162721201
 20
1060.628901592574
 30
0.0
 40
406.5000000001
100
AcDbArc
 50
317.8201190947733
 51
317.8249936191339
  0
ARC
  5
154
330
1F
100
AcDbEntity
  8
LAY-10
  6
CONTINUOUS
 62
     7
100
AcDbCircle
 10
769.5715162721201
 20
1060.628901592574
 30
0.0
 40
406.5000000001
100
AcDbArc
 50
318.2091108840926
 51
41.79088911589931
  0
ARC
  5
155
330
1F
100
AcDbEntity
  8
LAY-10
  6
CONTINUOUS
 62
     7
100
AcDbCircle
 10
769.5715162721201
 20
1060.628901592574
 30
0.0
 40
404.50000000004
100
AcDbArc
 50
317.834074178309
 51
317.8350376842994
  0
ARC
  5
156
330
1F
100
AcDbEntity
  8
LAY-10
  6
CONTINUOUS
 62
     7
100
AcDbCircle
 10
769.5715162721201
 20
1060.628901592574
 30
0.0
 40
404.50000000004
100
AcDbArc
 50
318.2091108840926
 51
41.79088911589931
  0
ARC
  5
157
330
1F
100
AcDbEntity
  8
LAY-10
  6
CONTINUOUS
 62
     7
100
AcDbCircle
 10
769.5715162721201
 20
1060.628901592574
 30
0.0
 40
424.50000000004
100
AcDbArc
 50
317.7004474813599
 51
317.7014207659477
  0
ARC
  5
158
330
1F
100
AcDbEntity
  8
LAY-10
  6
CONTINUOUS
 62
     7
100
AcDbCircle
 10
769.5715162721201
 20
1060.628901592574
 30
0.0
 40
424.50000000004
100
AcDbArc
 50
318.0581244095102
 51
41.9418755904819
  0
ARC
  5
159
330
1F
100
AcDbEntity
  8
LAY-10
  6
CONTINUOUS
 62
     7
100
AcDbCircle
 10
769.5715162721201
 20
1060.628901592574
 30
0.0
 40
426.5000000001
100
AcDbArc
 50
317.6877748681156
 51
317.6923001083416
  0
ARC
  5
15A
330
1F
100
AcDbEntity
  8
LAY-10
  6
CONTINUOUS
 62
     7
100
AcDbCircle
 10
769.5715162721201
 20
1060.628901592574
 30
0.0
 40
426.5000000001
100
AcDbArc
 50
318.0581244095102
 51
41.9418755904819
  0
ARC
  5
15B
330
1F
100
AcDbEntity
  8
LAY-10
  6
CONTINUOUS
 62
     7
100
AcDbCircle
 10
769.5715162721201
 20
1060.628901592574
 30
0.0
 40
406.5000000001
100
AcDbArc
 50
312.1750063808576
 51
312.1798809052181
  0
ARC
  5
15C
330
1F
100
AcDbEntity
  8
LAY-10
  6
CONTINUOUS
 62
     7
100
AcDbCircle
 10
769.5715162721201
 20
1060.628901592574
 30
0.0
 40
406.5000000001
100
AcDbArc
 50
228.2091108841004
 51
311.7908891158997
  0
ARC
  5
15D
330
1F
100
AcDbEntity
  8
LAY-10
  6
CONTINUOUS
 62
     7
100
AcDbCircle
 10
769.5715162721201
 20
1060.628901592574
 30
0.0
 40
404.50000000004
100
AcDbArc
 50
228.2091108841004
 51
311.7908891158997
  0
ARC
  5
15E
330
1F
100
AcDbEntity
  8
LAY-10
  6
CONTINUOUS
 62
     7
100
AcDbCircle
 10
769.5715162721201
 20
1060.628901592574
 30
0.0
 40
426.5000000001
100
AcDbArc
 50
228.0581244095178
 51
311.9418755904823
  0
ARC
  5
15F
330
1F
100
AcDbEntity
  8
LAY-10
  6
CONTINUOUS
 62
     7
100
AcDbCircle
 10
769.5715162721201
 20
1060.628901592574
 30
0.0
 40
424.50000000004
100
AcDbArc
 50
228.0581244095178
 51
311.9418755904823
  0
ARC
  5
160
330
1F
100
AcDbEntity
  8
LAY-10
  6
CONTINUOUS
 62
     7
100
AcDbCircle
 10
769.5715162721201
 20
1060.628901592574
 30
0.0
 40
426.5000000001
100
AcDbArc
 50
138.0581244095182
 51
221.9418755904898
  0
ARC
  5
161
330
1F
100
AcDbEntity
  8
LAY-10
  6
CONTINUOUS
 62
     7
100
AcDbCircle
 10
769.5715162721201
 20
1060.628901592574
 30
0.0
 40
426.5000000001
100
AcDbArc
 50
222.3076998916588
 51
222.3122251318847
  0
ARC
  5
162
330
1F
100
AcDbEntity
  8
LAY-10
  6
CONTINUOUS
 62
     7
100
AcDbCircle
 10
769.5715162721201
 20
1060.628901592574
 30
0.0
 40
424.50000000004
100
AcDbArc
 50
138.0581244095182
 51
221.9418755904898
  0
ARC
  5
163
330
1F
100
AcDbEntity
  8
LAY-10
  6
CONTINUOUS
 62
     7
100
AcDbCircle
 10
769.5715162721201
 20
1060.628901592574
 30
0.0
 40
424.50000000004
100
AcDbArc
 50
222.2985792340527
 51
222.2995525186404
  0
ARC
  5
164
330
1F
100
AcDbEntity
  8
LAY-10
  6
CONTINUOUS
 62
     7
100
AcDbCircle
 10
769.5715162721201
 20
1060.628901592574
 30
0.0
 40
406.5000000001
100
AcDbArc
 50
138.2091108841008
 51
221.7908891159077
  0
ARC
  5
165
330
1F
100
AcDbEntity
  8
LAY-10
  6
CONTINUOUS
 62
     7
100
AcDbCircle
 10
769.5715162721201
 20
1060.628901592574
 30
0.0
 40
406.5000000001
100
AcDbArc
 50
222.1750063808663
 51
222.1798809052268
  0
ARC
  5
166
330
1F
100
AcDbEntity
  8
LAY-10
  6
CONTINUOUS
 62
     7
100
AcDbCircle
 10
769.5715162721201
 20
1060.628901592574
 30
0.0
 40
404.50000000004
100
AcDbArc
 50
138.2091108841008
 51
221.7908891159077
  0
ARC
  5
167
330
1F
100
AcDbEntity
  8
LAY-10
  6
CONTINUOUS
 62
     7
100
AcDbCircle
 10
769.5715162721201
 20
1060.628901592574
 30
0.0
 40
404.50000000004
100
AcDbArc
 50
222.1649623157005
 51
222.1659258216912
  0
CIRCLE
  5
168
330
1F
100
AcDbEntity
  8
LAY-10
  6
CONTINUOUS
 62
     7
100
AcDbCircle
 10
769.5715162721201
 20
1060.628901592574
 30
0.0
 40
397.1135010788601
  0
CIRCLE
  5
169
330
1F
100
AcDbEntity
  8
LAY-10
  6
CONTINUOUS
 62
     7
100
AcDbCircle
 10
769.5715162721201
 20
1060.628901592574
 30
0.0
 40
441.2367301926203
  0
CIRCLE
  5
16A
330
1F
100
AcDbEntity
  8
LAY-10
  6
CONTINUOUS
 62
     7
100
AcDbCircle
 10
769.5715162721169
 20
1060.628901592571
 30
0.0
 40
387.9951266157603
  0
CIRCLE
  5
16B
330
1F
100
AcDbEntity
  8
LAY-10
  6
CONTINUOUS
 62
     7
100
AcDbCircle
 10
1022.715743936617
 20
1313.773129256971
 30
0.0
 40
21.0
  0
CIRCLE
  5
16C
330
1F
100
AcDbEntity
  8
LAY-10
  6
CONTINUOUS
 62
     7
100
AcDbCircle
 10
516.4272886076162
 20
1313.773129256971
 30
0.0
 40
21.0
  0
CIRCLE
  5
16D
330
1F
100
AcDbEntity
  8
LAY-10
  6
CONTINUOUS
 62
     7
100
AcDbCircle
 10
516.4272886076167
 20
807.4846739280911
 30
0.0
 40
21.0
  0
CIRCLE
  5
16E
330
1F
100
AcDbEntity
  8
LAY-10
  6
CONTINUOUS
 62
     7
100
AcDbCircle
 10
1022.715743936617
 20
807.4846739280912
 30
0.0
 40
21.0
  0
LINE
  5
16F
330
1F
100
AcDbEntity
  8
LAY-10
  6
CONTINUOUS
 62
     7
100
AcDbLine
 10
947.0553183500134
 20
902.9440893880237
 30
0.0
 11
927.2563284767895
 21
883.1450995148002
 31
0.0
  0
LINE
  5
170
330
1F
100
AcDbEntity
  8
LAY-10
  6
CONTINUOUS
 62
     7
100
AcDbLine
 10
930.7918623827228
 20
879.6095656088672
 30
0.0
 11
950.590852255946
 21
899.4085554820908
 31
0.0
  0
LINE
  5
171
330
1F
100
AcDbEntity
  8
LAY-10
  6
CONTINUOUS
 62
     7
100
AcDbLine
 10
954.1263861618784
 20
856.2750418297113
 30
0.0
 11
973.9253760351023
 21
876.0740317029349
 31
0.0
  0
LINE
  5
172
330
1F
100
AcDbEntity
  8
LAY-10
  6
CONTINUOUS
 62
     7
100
AcDbLine
 10
947.0553183500134
 20
863.3461096415772
 30
0.0
 11
966.8543082232366
 21
883.1450995148002
 31
0.0
  0
LINE
  5
173
330
1F
100
AcDbEntity
  8
LAY-10
  6
CONTINUOUS
 62
     7
100
AcDbLine
 10
970.389842129169
 20
840.0115858624207
 30
0.0
 11
990.1888320023929
 21
859.8105757356443
 31
0.0
  0
LINE
  5
174
330
1F
100
AcDbEntity
  8
LAY-10
  6
CONTINUOUS
 62
     7
100
AcDbLine
 10
993.7243659083252
 20
856.2750418297113
 30
0.0
 11
973.9253760351023
 21
836.4760519564884
 31
0.0
  0
LINE
  5
175
330
1F
100
AcDbEntity
  8
LAY-10
  6
CONTINUOUS
 62
     7
100
AcDbLine
 10
993.7243659083252
 20
856.2750418297113
 30
0.0
 11
947.0553183500134
 21
902.9440893880237
 31
0.0
  0
LINE
  5
176
330
1F
100
AcDbEntity
  8
LAY-10
  6
CONTINUOUS
 62
     7
100
AcDbLine
 10
927.2563284767895
 20
883.1450995148002
 30
0.0
 11
973.9253760351023
 21
836.4760519564884
 31
0.0
  0
LINE
  5
177
330
1F
100
AcDbEntity
  8
LAY-10
  6
CONTINUOUS
 62
     7
100
AcDbLine
 10
592.0877141943317
 20
902.9440893879828
 30
0.0
 11
611.8867040675548
 21
883.1450995147593
 31
0.0
  0
LINE
  5
178
330
1F
100
AcDbEntity
  8
LAY-10
  6
CONTINUOUS
 62
     7
100
AcDbLine
 10
608.3511701616223
 20
879.6095656088266
 30
0.0
 11
588.5521802883993
 21
899.4085554820499
 31
0.0
  0
LINE
  5
179
330
1F
100
AcDbEntity
  8
LAY-10
  6
CONTINUOUS
 62
     7
100
AcDbLine
 10
585.016646382466
 20
856.2750418296704
 30
0.0
 11
565.2176565092429
 21
876.074031702894
 31
0.0
  0
LINE
  5
17A
330
1F
100
AcDbEntity
  8
LAY-10
  6
CONTINUOUS
 62
     7
100
AcDbLine
 10
592.0877141943317
 20
863.346109641536
 30
0.0
 11
572.2887243211087
 21
883.1450995147593
 31
0.0
  0
LINE
  5
17B
330
1F
100
AcDbEntity
  8
LAY-10
  6
CONTINUOUS
 62
     7
100
AcDbLine
 10
568.7531904151754
 20
840.0115858623798
 30
0.0
 11
548.9542005419523
 21
859.8105757356034
 31
0.0
  0
LINE
  5
17C
330
1F
100
AcDbEntity
  8
LAY-10
  6
CONTINUOUS
 62
     7
100
AcDbLine
 10
545.4186666360199
 20
856.2750418296704
 30
0.0
 11
565.2176565092429
 21
836.4760519564471
 31
0.0
  0
LINE
  5
17D
330
1F
100
AcDbEntity
  8
LAY-10
  6
CONTINUOUS
 62
     7
100
AcDbLine
 10
545.4186666360199
 20
856.2750418296704
 30
0.0
 11
592.0877141943317
 21
902.9440893879828
 31
0.0
  0
LINE
  5
17E
330
1F
100
AcDbEntity
  8
LAY-10
  6
CONTINUOUS
 62
     7
100
AcDbLine
 10
611.8867040675548
 20
883.1450995147593
 30
0.0
 11
565.2176565092429
 21
836.4760519564471
 31
0.0
  0
LINE
  5
17F
330
1F
100
AcDbEntity
  8
LAY-10
  6
CONTINUOUS
 62
     7
100
AcDbLine
 10
592.0877141942908
 20
1218.313713797207
 30
0.0
 11
611.8867040675148
 21
1238.112703670431
 31
0.0
  0
LINE
  5
180
330
1F
100
AcDbEntity
  8
LAY-10
  6
CONTINUOUS
 62
     7
100
AcDbLine
 10
608.3511701615814
 20
1241.648237576363
 30
0.0
 11
588.5521802883584
 21
1221.84924770314
 31
0.0
  0
LINE
  5
181
330
1F
100
AcDbEntity
  8
LAY-10
  6
CONTINUOUS
 62
     7
100
AcDbLine
 10
585.016646382426
 20
1264.982761355519
 30
0.0
 11
565.217656509202
 21
1245.183771482296
 31
0.0
  0
LINE
  5
182
330
1F
100
AcDbEntity
  8
LAY-10
  6
CONTINUOUS
 62
     7
100
AcDbLine
 10
592.0877141942908
 20
1257.911693543654
 30
0.0
 11
572.2887243210678
 21
1238.112703670431
 31
0.0
  0
LINE
  5
183
330
1F
100
AcDbEntity
  8
LAY-10
  6
CONTINUOUS
 62
     7
100
AcDbLine
 10
568.7531904151354
 20
1281.24621732281
 30
0.0
 11
548.9542005419114
 21
1261.447227449587
 31
0.0
  0
LINE
  5
184
330
1F
100
AcDbEntity
  8
LAY-10
  6
CONTINUOUS
 62
     7
100
AcDbLine
 10
545.418666635979
 20
1264.982761355519
 30
0.0
 11
565.217656509202
 21
1284.781751228743
 31
0.0
  0
LINE
  5
185
330
1F
100
AcDbEntity
  8
LAY-10
  6
CONTINUOUS
 62
     7
100
AcDbLine
 10
545.418666635979
 20
1264.982761355519
 30
0.0
 11
592.0877141942908
 21
1218.313713797207
 31
0.0
  0
LINE
  5
186
330
1F
100
AcDbEntity
  8
LAY-10
  6
CONTINUOUS
 62
     7
100
AcDbLine
 10
611.8867040675148
 20
1238.112703670431
 30
0.0
 11
565.217656509202
 21
1284.781751228743
 31
0.0
  0
LINE
  5
187
330
1F
100
AcDbEntity
  8
LAY-10
  6
CONTINUOUS
 62
     7
100
AcDbLine
 10
947.0553183499425
 20
1218.313713797207
 30
0.0
 11
927.2563284767195
 21
1238.11270367043
 31
0.0
  0
LINE
  5
188
330
1F
100
AcDbEntity
  8
LAY-10
  6
CONTINUOUS
 62
     7
100
AcDbLine
 10
930.7918623826519
 20
1241.648237576363
 30
0.0
 11
950.590852255875
 21
1221.84924770314
 31
0.0
  0
LINE
  5
189
330
1F
100
AcDbEntity
  8
LAY-10
  6
CONTINUOUS
 62
     7
100
AcDbLine
 10
954.1263861618083
 20
1264.982761355519
 30
0.0
 11
973.9253760350314
 21
1245.183771482296
 31
0.0
  0
LINE
  5
18A
330
1F
100
AcDbEntity
  8
LAY-10
  6
CONTINUOUS
 62
     7
100
AcDbLine
 10
947.0553183499425
 20
1257.911693543654
 30
0.0
 11
966.8543082231656
 21
1238.11270367043
 31
0.0
  0
LINE
  5
18B
330
1F
100
AcDbEntity
  8
LAY-10
  6
CONTINUOUS
 62
     7
100
AcDbLine
 10
970.389842129099
 20
1281.24621732281
 30
0.0
 11
990.188832002322
 21
1261.447227449586
 31
0.0
  0
LINE
  5
18C
330
1F
100
AcDbEntity
  8
LAY-10
  6
CONTINUOUS
 62
     7
100
AcDbLine
 10
993.7243659082543
 20
1264.982761355519
 30
0.0
 11
973.9253760350314
 21
1284.781751228742
 31
0.0
  0
LINE
  5
18D
330
1F
100
AcDbEntity
  8
LAY-10
  6
CONTINUOUS
 62
     7
100
AcDbLine
 10
993.7243659082543
 20
1264.982761355519
 30
0.0
 11
947.0553183499425
 21
1218.313713797207
 31
0.0
  0
LINE
  5
18E
330
1F
100
AcDbEntity
  8
LAY-10
  6
CONTINUOUS
 62
     7
100
AcDbLine
 10
927.2563284767195
 20
1238.11270367043
 30
0.0
 11
973.9253760350314
 21
1284.781751228742
 31
0.0
  0
TEXT
  5
18F
330
1F
100
AcDbEntity
  8
LAY-10
  6
CONTINUOUS
 62
     7
100
AcDbText
 10
721.1417573895302
 20
699.5738186713681
 30
0.0
 40
13.36297450831986
  1
Ｆ
 50
351.9873442228004
 41
1.2
  7
EXCADSTD
100
AcDbText
  0
TEXT
  5
190
330
1F
100
AcDbEntity
  8
LAY-10
  6
CONTINUOUS
 62
     7
100
AcDbText
 10
735.713248028038
 20
697.6045892734558
 30
0.0
 40
13.36297450831986
  1
Ｕ
 50
354.6582294759004
 41
1.2
  7
EXCADSTD
100
AcDbText
  0
TEXT
  5
191
330
1F
100
AcDbEntity
  8
LAY-10
  6
CONTINUOUS
 62
     7
100
AcDbText
 10
750.06132504533
 20
696.288554627798
 30
0.0
 40
13.36297450831986
  1
Ｋ
 50
357.3291147290004
 41
1.2
  7
EXCADSTD
100
AcDbText
  0
TEXT
  5
192
330
1F
100
AcDbEntity
  8
LAY-10
  6
CONTINUOUS
 62
     7
100
AcDbText
 10
764.3554671130776
 20
695.6285739938571
 30
0.0
 40
13.36297450831986
  1
Ｕ
 41
1.2
  7
EXCADSTD
100
AcDbText
  0
TEXT
  5
193
330
1F
100
AcDbEntity
  8
LAY-10
  6
CONTINUOUS
 62
     7
100
AcDbText
 10
834.3789522191139
 20
701.7920742495942
 30
0.0
 40
13.36297450831986
  1
Ｉ
 50
11.35442624755004
 41
1.2
  7
EXCADSTD
100
AcDbText
  0
TEXT
  5
194
330
1F
100
AcDbEntity
  8
LAY-10
  6
CONTINUOUS
 62
     7
100
AcDbText
 10
820.7856849095407
 20
699.5130174950868
 30
0.0
 40
13.36297450831986
  1
Ｈ
 50
8.683540994450048
 41
1.2
  7
EXCADSTD
100
AcDbText
  0
TEXT
  5
195
330
1F
100
AcDbEntity
  8
LAY-10
  6
CONTINUOUS
 62
     7
100
AcDbText
 10
806.9103703283791
 20
697.7348065426577
 30
0.0
 40
13.36297450831986
  1
Ｓ
 50
7.012655741360008
 41
1.2
  7
EXCADSTD
100
AcDbText
  0
TEXT
  5
196
330
1F
100
AcDbEntity
  8
LAY-10
  6
CONTINUOUS
 62
     7
100
AcDbText
 10
793.1981715729179
 20
696.4103027742965
 30
0.0
 40
13.36297450831986
  1
Ｉ
 50
4.341770488260011
 41
1.2
  7
EXCADSTD
100
AcDbText
  0
TEXT
  5
197
330
1F
100
AcDbEntity
  8
LAY-10
  6
CONTINUOUS
 62
     7
100
AcDbText
 10
779.6650528232583
 20
695.7260812698651
 30
0.0
 40
13.36297450831986
  1
Ｎ
 50
2.670885235170025
 41
1.2
  7
EXCADSTD
100
AcDbText
  0
TEXT
  5
198
330
1F
100
AcDbEntity
  8
LAY-10
  6
CONTINUOUS
 62
     7
100
AcDbText
 10
697.5527891473142
 20
705.8450919782848
 30
0.0
 40
9.120472027901458
  1
S
 50
348.1780669915007
 41
0.56692
  7
EXCADSTD
100
AcDbText
  0
TEXT
  5
199
330
1F
100
AcDbEntity
  8
LAY-10
  6
CONTINUOUS
 62
     7
100
AcDbText
 10
703.2909537621093
 20
704.7051176678766
 30
0.0
 40
9.120472027901458
  1
F
 50
348.1780669915007
 41
0.56692
  7
EXCADSTD
100
AcDbText
  0
LINE
  5
19A
330
1F
100
AcDbEntity
  8
LAY-10
  6
CONTINUOUS
 62
     7
100
AcDbLine
 10
705.3409603562379
 20
718.5465415394008
 30
0.0
 11
688.7989734254509
 21
712.3030809942695
 31
0.0
  0
LINE
  5
19B
330
1F
100
AcDbEntity
  8
LAY-10
  6
CONTINUOUS
 62
     7
100
AcDbLine
 10
705.3409603562379
 20
718.5465415394008
 30
0.0
 11
717.990403028645
 21
706.193010413923
 31
0.0
  0
LINE
  5
19C
330
1F
100
AcDbEntity
  8
LAY-10
  6
CONTINUOUS
 62
     7
100
AcDbLine
 10
701.4484160979594
 20
699.9495498687716
 30
0.0
 11
717.99040302864
 21
706.1930104139253
 31
0.0
  0
LINE
  5
19D
330
1F
100
AcDbEntity
  8
LAY-10
  6
CONTINUOUS
 62
     7
100
AcDbLine
 10
688.79897342545
 20
712.3030809942661
 30
0.0
 11
701.4484160979607
 21
699.9495498687713
 31
0.0
  0
TEXT
  5
19E
330
1F
100
AcDbEntity
  8
LAY-10
  6
CONTINUOUS
 62
     7
100
AcDbText
 10
727.1563255528898
 20
1409.789372242615
 30
0.0
 40
11.22519788604927
  1
Ｆ
 50
5.056713000000056
 41
1.2
 51
-0.0000000000002036
  7
EXCADSTD
100
AcDbText
  0
TEXT
  5
19F
330
1F
100
AcDbEntity
  8
LAY-10
  6
CONTINUOUS
 62
     7
100
AcDbText
 10
714.8388240232604
 20
1407.886481861755
 30
0.0
 40
11.22519788604927
  1
Ｓ
 50
9.075617000000046
 41
1.19999976158143
 51
-0.0000000000001018
  7
EXCADSTD
100
AcDbText
  0
TEXT
  5
1A0
330
1F
100
AcDbEntity
  8
LAY-10
  6
CONTINUOUS
 62
     7
100
AcDbText
 10
741.0621877137089
 20
1411.584583825841
 30
0.0
 40
11.22519788604927
  1
－
 50
3.037808000000178
 41
1.19999976158143
 51
0.0000000000003053
  7
EXCADSTD
100
AcDbText
  0
TEXT
  5
1A1
330
1F
100
AcDbEntity
  8
LAY-10
  6
CONTINUOUS
 62
     7
100
AcDbText
 10
767.9767365822105
 20
1412.749655885878
 30
0.0
 40
11.22519788604927
  1
Ｋ
 50
358.0000000000003
 41
1.2
  7
EXCADSTD
100
AcDbText
  0
TEXT
  5
1A2
330
1F
100
AcDbEntity
  8
LAY-10
  6
CONTINUOUS
 62
     7
100
AcDbText
 10
807.703497667172
 20
1410.265413717304
 30
0.0
 40
11.22519788604927
  1
Ｂ
 50
351.924383
 41
1.2
  7
EXCADSTD
100
AcDbText
  0
TEXT
  5
1A3
330
1F
100
AcDbEntity
  8
LAY-10
  6
CONTINUOUS
 62
     7
100
AcDbText
 10
793.96596268838
 20
1411.222672689806
 30
0.0
 40
11.22519788604927
  1
－
 50
354.9432870000005
 41
1.2
 51
0.0000000000001527
  7
EXCADSTD
100
AcDbText
  0
TEXT
  5
1A4
330
1F
100
AcDbEntity
  8
LAY-10
  6
CONTINUOUS
 62
     7
100
AcDbText
 10
781.0667722994436
 20
1412.498133743326
 30
0.0
 40
11.22519788604927
  1
Ａ
 50
356.9999999999999
 41
1.2
  7
EXCADSTD
100
AcDbText
  0
LINE
  5
1A5
330
1F
100
AcDbEntity
  8
LAY-10
  6
CONTINUOUS
 62
     7
100
AcDbLine
 10
586.2715162721145
 20
1033.728901592834
 30
0.0
 11
586.2715162721145
 21
1057.728901592548
 31
0.0
  0
LINE
  5
1A6
330
1F
100
AcDbEntity
  8
LAY-10
  6
CONTINUOUS
 62
     7
100
AcDbLine
 10
586.2715162721145
 20
1018.728901592536
 30
0.0
 11
586.2715162721145
 21
1027.72890159263
 31
0.0
  0
LINE
  5
1A7
330
1F
100
AcDbEntity
  8
LAY-10
  6
CONTINUOUS
 62
     7
100
AcDbLine
 10
586.2715162721145
 20
1027.72890159263
 30
0.0
 11
571.2715162720986
 21
1027.72890159263
 31
0.0
  0
LINE
  5
1A8
330
1F
100
AcDbEntity
  8
LAY-10
  6
CONTINUOUS
 62
     7
100
AcDbLine
 10
577.2715162721863
 20
1048.728901592578
 30
0.0
 11
577.2715162721863
 21
1033.728901592834
 31
0.0
  0
LINE
  5
1A9
330
1F
100
AcDbEntity
  8
LAY-10
  6
CONTINUOUS
 62
     7
100
AcDbLine
 10
562.2715162720967
 20
1048.728901592578
 30
0.0
 11
577.2715162721863
 21
1048.728901592578
 31
0.0
  0
LINE
  5
1AA
330
1F
100
AcDbEntity
  8
LAY-10
  6
CONTINUOUS
 62
     7
100
AcDbLine
 10
571.2715162720986
 20
1027.72890159263
 30
0.0
 11
571.2715162720986
 21
1042.728901592561
 31
0.0
  0
LINE
  5
1AB
330
1F
100
AcDbEntity
  8
LAY-10
  6
CONTINUOUS
 62
     7
100
AcDbLine
 10
562.2715162720967
 20
1048.728901592578
 30
0.0
 11
562.2715162720967
 21
1057.728901592548
 31
0.0
  0
LINE
  5
1AC
330
1F
100
AcDbEntity
  8
LAY-10
  6
CONTINUOUS
 62
     7
100
AcDbLine
 10
562.2715162720967
 20
1018.728901592534
 30
0.0
 11
562.2715162720967
 21
1042.728901592561
 31
0.0
  0
LINE
  5
1AD
330
1F
100
AcDbEntity
  8
LAY-10
  6
CONTINUOUS
 62
     7
100
AcDbLine
 10
562.2715162720967
 20
1042.728901592561
 30
0.0
 11
571.2715162720986
 21
1042.728901592561
 31
0.0
  0
LINE
  5
1AE
330
1F
100
AcDbEntity
  8
LAY-10
  6
CONTINUOUS
 62
     7
100
AcDbLine
 10
577.2715162721863
 20
1033.728901592834
 30
0.0
 11
586.2715162721145
 21
1033.728901592834
 31
0.0
  0
LINE
  5
1AF
330
1F
100
AcDbEntity
  8
LAY-10
  6
CONTINUOUS
 62
     7
100
AcDbLine
 10
562.271516272099
 20
1018.728901592536
 30
0.0
 11
586.2715162721145
 21
1018.728901592536
 31
0.0
  0
LINE
  5
1B0
330
1F
100
AcDbEntity
  8
LAY-10
  6
CONTINUOUS
 62
     7
100
AcDbLine
 10
562.2715162720967
 20
1057.728901592548
 30
0.0
 11
586.2715162721145
 21
1057.728901592548
 31
0.0
  0
LINE
  5
1B1
330
1F
100
AcDbEntity
  8
LAY-10
  6
CONTINUOUS
 62
     7
100
AcDbLine
 10
556.2715162721145
 20
1033.728901592834
 30
0.0
 11
556.2715162721145
 21
1057.728901592548
 31
0.0
  0
LINE
  5
1B2
330
1F
100
AcDbEntity
  8
LAY-10
  6
CONTINUOUS
 62
     7
100
AcDbLine
 10
556.2715162721145
 20
1018.728901592536
 30
0.0
 11
556.2715162721145
 21
1027.72890159263
 31
0.0
  0
LINE
  5
1B3
330
1F
100
AcDbEntity
  8
LAY-10
  6
CONTINUOUS
 62
     7
100
AcDbLine
 10
556.2715162721145
 20
1027.72890159263
 30
0.0
 11
541.2715162720986
 21
1027.72890159263
 31
0.0
  0
LINE
  5
1B4
330
1F
100
AcDbEntity
  8
LAY-10
  6
CONTINUOUS
 62
     7
100
AcDbLine
 10
547.2715162721863
 20
1048.728901592578
 30
0.0
 11
547.2715162721863
 21
1033.728901592834
 31
0.0
  0
LINE
  5
1B5
330
1F
100
AcDbEntity
  8
LAY-10
  6
CONTINUOUS
 62
     7
100
AcDbLine
 10
532.2715162720967
 20
1048.728901592578
 30
0.0
 11
547.2715162721863
 21
1048.728901592578
 31
0.0
  0
LINE
  5
1B6
330
1F
100
AcDbEntity
  8
LAY-10
  6
CONTINUOUS
 62
     7
100
AcDbLine
 10
541.2715162720986
 20
1027.72890159263
 30
0.0
 11
541.2715162720986
 21
1042.728901592561
 31
0.0
  0
LINE
  5
1B7
330
1F
100
AcDbEntity
  8
LAY-10
  6
CONTINUOUS
 62
     7
100
AcDbLine
 10
532.2715162720967
 20
1048.728901592578
 30
0.0
 11
532.2715162720967
 21
1057.728901592548
 31
0.0
  0
LINE
  5
1B8
330
1F
100
AcDbEntity
  8
LAY-10
  6
CONTINUOUS
 62
     7
100
AcDbLine
 10
532.2715162720967
 20
1018.728901592534
 30
0.0
 11
532.2715162720967
 21
1042.728901592561
 31
0.0
  0
LINE
  5
1B9
330
1F
100
AcDbEntity
  8
LAY-10
  6
CONTINUOUS
 62
     7
100
AcDbLine
 10
532.2715162720967
 20
1042.728901592561
 30
0.0
 11
541.2715162720986
 21
1042.728901592561
 31
0.0
  0
LINE
  5
1BA
330
1F
100
AcDbEntity
  8
LAY-10
  6
CONTINUOUS
 62
     7
100
AcDbLine
 10
547.2715162721863
 20
1033.728901592834
 30
0.0
 11
556.2715162721145
 21
1033.728901592834
 31
0.0
  0
LINE
  5
1BB
330
1F
100
AcDbEntity
  8
LAY-10
  6
CONTINUOUS
 62
     7
100
AcDbLine
 10
532.271516272099
 20
1018.728901592536
 30
0.0
 11
556.2715162721145
 21
1018.728901592536
 31
0.0
  0
LINE
  5
1BC
330
1F
100
AcDbEntity
  8
LAY-10
  6
CONTINUOUS
 62
     7
100
AcDbLine
 10
532.2715162720967
 20
1057.728901592548
 30
0.0
 11
556.2715162721145
 21
1057.728901592548
 31
0.0
  0
LINE
  5
1BD
330
1F
100
AcDbEntity
  8
LAY-10
  6
CONTINUOUS
 62
     7
100
AcDbLine
 10
526.2715162721145
 20
1033.728901592834
 30
0.0
 11
526.2715162721145
 21
1057.728901592548
 31
0.0
  0
LINE
  5
1BE
330
1F
100
AcDbEntity
  8
LAY-10
  6
CONTINUOUS
 62
     7
100
AcDbLine
 10
526.2715162721145
 20
1018.728901592536
 30
0.0
 11
526.2715162721145
 21
1027.72890159263
 31
0.0
  0
LINE
  5
1BF
330
1F
100
AcDbEntity
  8
LAY-10
  6
CONTINUOUS
 62
     7
100
AcDbLine
 10
526.2715162721145
 20
1027.72890159263
 30
0.0
 11
511.2715162720986
 21
1027.72890159263
 31
0.0
  0
LINE
  5
1C0
330
1F
100
AcDbEntity
  8
LAY-10
  6
CONTINUOUS
 62
     7
100
AcDbLine
 10
517.2715162721863
 20
1048.728901592578
 30
0.0
 11
517.2715162721863
 21
1033.728901592834
 31
0.0
  0
LINE
  5
1C1
330
1F
100
AcDbEntity
  8
LAY-10
  6
CONTINUOUS
 62
     7
100
AcDbLine
 10
502.2715162720967
 20
1048.728901592578
 30
0.0
 11
517.2715162721863
 21
1048.728901592578
 31
0.0
  0
LINE
  5
1C2
330
1F
100
AcDbEntity
  8
LAY-10
  6
CONTINUOUS
 62
     7
100
AcDbLine
 10
511.2715162720986
 20
1027.72890159263
 30
0.0
 11
511.2715162720986
 21
1042.728901592561
 31
0.0
  0
LINE
  5
1C3
330
1F
100
AcDbEntity
  8
LAY-10
  6
CONTINUOUS
 62
     7
100
AcDbLine
 10
502.2715162720967
 20
1048.728901592578
 30
0.0
 11
502.2715162720967
 21
1057.728901592548
 31
0.0
  0
LINE
  5
1C4
330
1F
100
AcDbEntity
  8
LAY-10
  6
CONTINUOUS
 62
     7
100
AcDbLine
 10
502.2715162720967
 20
1018.728901592534
 30
0.0
 11
502.2715162720967
 21
1042.728901592561
 31
0.0
  0
LINE
  5
1C5
330
1F
100
AcDbEntity
  8
LAY-10
  6
CONTINUOUS
 62
     7
100
AcDbLine
 10
502.2715162720967
 20
1042.728901592561
 30
0.0
 11
511.2715162720986
 21
1042.728901592561
 31
0.0
  0
LINE
  5
1C6
330
1F
100
AcDbEntity
  8
LAY-10
  6
CONTINUOUS
 62
     7
100
AcDbLine
 10
517.2715162721863
 20
1033.728901592834
 30
0.0
 11
526.2715162721145
 21
1033.728901592834
 31
0.0
  0
LINE
  5
1C7
330
1F
100
AcDbEntity
  8
LAY-10
  6
CONTINUOUS
 62
     7
100
AcDbLine
 10
502.271516272099
 20
1018.728901592536
 30
0.0
 11
526.2715162721145
 21
1018.728901592536
 31
0.0
  0
LINE
  5
1C8
330
1F
100
AcDbEntity
  8
LAY-10
  6
CONTINUOUS
 62
     7
100
AcDbLine
 10
502.2715162720967
 20
1057.728901592548
 30
0.0
 11
526.2715162721145
 21
1057.728901592548
 31
0.0
  0
LINE
  5
1C9
330
1F
100
AcDbEntity
  8
LAY-10
  6
CONTINUOUS
 62
     7
100
AcDbLine
 10
616.2715162721145
 20
988.728901592834
 30
0.0
 11
616.2715162721145
 21
1012.728901592548
 31
0.0
  0
LINE
  5
1CA
330
1F
100
AcDbEntity
  8
LAY-10
  6
CONTINUOUS
 62
     7
100
AcDbLine
 10
616.2715162721145
 20
973.7289015925357
 30
0.0
 11
616.2715162721145
 21
982.7289015926303
 31
0.0
  0
LINE
  5
1CB
330
1F
100
AcDbEntity
  8
LAY-10
  6
CONTINUOUS
 62
     7
100
AcDbLine
 10
616.2715162721145
 20
982.7289015926303
 30
0.0
 11
601.2715162720986
 21
982.7289015926303
 31
0.0
  0
LINE
  5
1CC
330
1F
100
AcDbEntity
  8
LAY-10
  6
CONTINUOUS
 62
     7
100
AcDbLine
 10
607.2715162721863
 20
1003.728901592577
 30
0.0
 11
607.2715162721863
 21
988.728901592834
 31
0.0
  0
LINE
  5
1CD
330
1F
100
AcDbEntity
  8
LAY-10
  6
CONTINUOUS
 62
     7
100
AcDbLine
 10
592.2715162720967
 20
1003.728901592577
 30
0.0
 11
607.2715162721863
 21
1003.728901592577
 31
0.0
  0
LINE
  5
1CE
330
1F
100
AcDbEntity
  8
LAY-10
  6
CONTINUOUS
 62
     7
100
AcDbLine
 10
601.2715162720986
 20
982.7289015926303
 30
0.0
 11
601.2715162720986
 21
997.7289015925611
 31
0.0
  0
LINE
  5
1CF
330
1F
100
AcDbEntity
  8
LAY-10
  6
CONTINUOUS
 62
     7
100
AcDbLine
 10
592.2715162720967
 20
1003.728901592577
 30
0.0
 11
592.2715162720967
 21
1012.728901592548
 31
0.0
  0
LINE
  5
1D0
330
1F
100
AcDbEntity
  8
LAY-10
  6
CONTINUOUS
 62
     7
100
AcDbLine
 10
592.2715162720967
 20
973.7289015925338
 30
0.0
 11
592.2715162720967
 21
997.7289015925611
 31
0.0
  0
LINE
  5
1D1
330
1F
100
AcDbEntity
  8
LAY-10
  6
CONTINUOUS
 62
     7
100
AcDbLine
 10
592.2715162720967
 20
997.7289015925611
 30
0.0
 11
601.2715162720986
 21
997.7289015925611
 31
0.0
  0
LINE
  5
1D2
330
1F
100
AcDbEntity
  8
LAY-10
  6
CONTINUOUS
 62
     7
100
AcDbLine
 10
607.2715162721863
 20
988.728901592834
 30
0.0
 11
616.2715162721145
 21
988.728901592834
 31
0.0
  0
LINE
  5
1D3
330
1F
100
AcDbEntity
  8
LAY-10
  6
CONTINUOUS
 62
     7
100
AcDbLine
 10
592.271516272099
 20
973.7289015925357
 30
0.0
 11
616.2715162721145
 21
973.7289015925357
 31
0.0
  0
LINE
  5
1D4
330
1F
100
AcDbEntity
  8
LAY-10
  6
CONTINUOUS
 62
     7
100
AcDbLine
 10
592.2715162720967
 20
1012.728901592548
 30
0.0
 11
616.2715162721145
 21
1012.728901592548
 31
0.0
  0
LINE
  5
1D5
330
1F
100
AcDbEntity
  8
LAY-10
  6
CONTINUOUS
 62
     7
100
AcDbLine
 10
586.2715162721145
 20
988.728901592834
 30
0.0
 11
586.2715162721145
 21
1012.728901592548
 31
0.0
  0
LINE
  5
1D6
330
1F
100
AcDbEntity
  8
LAY-10
  6
CONTINUOUS
 62
     7
100
AcDbLine
 10
586.2715162721145
 20
973.7289015925357
 30
0.0
 11
586.2715162721145
 21
982.7289015926303
 31
0.0
  0
LINE
  5
1D7
330
1F
100
AcDbEntity
  8
LAY-10
  6
CONTINUOUS
 62
     7
100
AcDbLine
 10
586.2715162721145
 20
982.7289015926303
 30
0.0
 11
571.2715162720986
 21
982.7289015926303
 31
0.0
  0
LINE
  5
1D8
330
1F
100
AcDbEntity
  8
LAY-10
  6
CONTINUOUS
 62
     7
100
AcDbLine
 10
577.2715162721863
 20
1003.728901592577
 30
0.0
 11
577.2715162721863
 21
988.728901592834
 31
0.0
  0
LINE
  5
1D9
330
1F
100
AcDbEntity
  8
LAY-10
  6
CONTINUOUS
 62
     7
100
AcDbLine
 10
562.2715162720967
 20
1003.728901592577
 30
0.0
 11
577.2715162721863
 21
1003.728901592577
 31
0.0
  0
LINE
  5
1DA
330
1F
100
AcDbEntity
  8
LAY-10
  6
CONTINUOUS
 62
     7
100
AcDbLine
 10
571.2715162720986
 20
982.7289015926303
 30
0.0
 11
571.2715162720986
 21
997.7289015925611
 31
0.0
  0
LINE
  5
1DB
330
1F
100
AcDbEntity
  8
LAY-10
  6
CONTINUOUS
 62
     7
100
AcDbLine
 10
562.2715162720967
 20
1003.728901592577
 30
0.0
 11
562.2715162720967
 21
1012.728901592548
 31
0.0
  0
LINE
  5
1DC
330
1F
100
AcDbEntity
  8
LAY-10
  6
CONTINUOUS
 62
     7
100
AcDbLine
 10
562.2715162720967
 20
973.7289015925338
 30
0.0
 11
562.2715162720967
 21
997.7289015925611
 31
0.0
  0
LINE
  5
1DD
330
1F
100
AcDbEntity
  8
LAY-10
  6
CONTINUOUS
 62
     7
100
AcDbLine
 10
562.2715162720967
 20
997.7289015925611
 30
0.0
 11
571.2715162720986
 21
997.7289015925611
 31
0.0
  0
LINE
  5
1DE
330
1F
100
AcDbEntity
  8
LAY-10
  6
CONTINUOUS
 62
     7
100
AcDbLine
 10
577.2715162721863
 20
988.728901592834
 30
0.0
 11
586.2715162721145
 21
988.728901592834
 31
0.0
  0
LINE
  5
1DF
330
1F
100
AcDbEntity
  8
LAY-10
  6
CONTINUOUS
 62
     7
100
AcDbLine
 10
562.271516272099
 20
973.7289015925357
 30
0.0
 11
586.2715162721145
 21
973.7289015925357
 31
0.0
  0
LINE
  5
1E0
330
1F
100
AcDbEntity
  8
LAY-10
  6
CONTINUOUS
 62
     7
100
AcDbLine
 10
562.2715162720967
 20
1012.728901592548
 30
0.0
 11
586.2715162721145
 21
1012.728901592548
 31
0.0
  0
LINE
  5
1E1
330
1F
100
AcDbEntity
  8
LAY-10
  6
CONTINUOUS
 62
     7
100
AcDbLine
 10
556.2715162721145
 20
988.728901592834
 30
0.0
 11
556.2715162721145
 21
1012.728901592548
 31
0.0
  0
LINE
  5
1E2
330
1F
100
AcDbEntity
  8
LAY-10
  6
CONTINUOUS
 62
     7
100
AcDbLine
 10
556.2715162721145
 20
973.7289015925357
 30
0.0
 11
556.2715162721145
 21
982.7289015926303
 31
0.0
  0
LINE
  5
1E3
330
1F
100
AcDbEntity
  8
LAY-10
  6
CONTINUOUS
 62
     7
100
AcDbLine
 10
556.2715162721145
 20
982.7289015926303
 30
0.0
 11
541.2715162720986
 21
982.7289015926303
 31
0.0
  0
LINE
  5
1E4
330
1F
100
AcDbEntity
  8
LAY-10
  6
CONTINUOUS
 62
     7
100
AcDbLine
 10
547.2715162721863
 20
1003.728901592577
 30
0.0
 11
547.2715162721863
 21
988.728901592834
 31
0.0
  0
LINE
  5
1E5
330
1F
100
AcDbEntity
  8
LAY-10
  6
CONTINUOUS
 62
     7
100
AcDbLine
 10
532.2715162720967
 20
1003.728901592577
 30
0.0
 11
547.2715162721863
 21
1003.728901592577
 31
0.0
  0
LINE
  5
1E6
330
1F
100
AcDbEntity
  8
LAY-10
  6
CONTINUOUS
 62
     7
100
AcDbLine
 10
541.2715162720986
 20
982.7289015926303
 30
0.0
 11
541.2715162720986
 21
997.7289015925611
 31
0.0
  0
LINE
  5
1E7
330
1F
100
AcDbEntity
  8
LAY-10
  6
CONTINUOUS
 62
     7
100
AcDbLine
 10
532.2715162720967
 20
1003.728901592577
 30
0.0
 11
532.2715162720967
 21
1012.728901592548
 31
0.0
  0
LINE
  5
1E8
330
1F
100
AcDbEntity
  8
LAY-10
  6
CONTINUOUS
 62
     7
100
AcDbLine
 10
532.2715162720967
 20
973.7289015925338
 30
0.0
 11
532.2715162720967
 21
997.7289015925611
 31
0.0
  0
LINE
  5
1E9
330
1F
100
AcDbEntity
  8
LAY-10
  6
CONTINUOUS
 62
     7
100
AcDbLine
 10
532.2715162720967
 20
997.7289015925611
 30
0.0
 11
541.2715162720986
 21
997.7289015925611
 31
0.0
  0
LINE
  5
1EA
330
1F
100
AcDbEntity
  8
LAY-10
  6
CONTINUOUS
 62
     7
100
AcDbLine
 10
547.2715162721863
 20
988.728901592834
 30
0.0
 11
556.2715162721145
 21
988.728901592834
 31
0.0
  0
LINE
  5
1EB
330
1F
100
AcDbEntity
  8
LAY-10
  6
CONTINUOUS
 62
     7
100
AcDbLine
 10
532.271516272099
 20
973.7289015925357
 30
0.0
 11
556.2715162721145
 21
973.7289015925357
 31
0.0
  0
LINE
  5
1EC
330
1F
100
AcDbEntity
  8
LAY-10
  6
CONTINUOUS
 62
     7
100
AcDbLine
 10
532.2715162720967
 20
1012.728901592548
 30
0.0
 11
556.2715162721145
 21
1012.728901592548
 31
0.0
  0
LINE
  5
1ED
330
1F
100
AcDbEntity
  8
LAY-10
  6
CONTINUOUS
 62
     7
100
AcDbLine
 10
526.2715162721145
 20
988.728901592834
 30
0.0
 11
526.2715162721145
 21
1012.728901592548
 31
0.0
  0
LINE
  5
1EE
330
1F
100
AcDbEntity
  8
LAY-10
  6
CONTINUOUS
 62
     7
100
AcDbLine
 10
526.2715162721145
 20
973.7289015925357
 30
0.0
 11
526.2715162721145
 21
982.7289015926303
 31
0.0
  0
LINE
  5
1EF
330
1F
100
AcDbEntity
  8
LAY-10
  6
CONTINUOUS
 62
     7
100
AcDbLine
 10
526.2715162721145
 20
982.7289015926303
 30
0.0
 11
511.2715162720986
 21
982.7289015926303
 31
0.0
  0
LINE
  5
1F0
330
1F
100
AcDbEntity
  8
LAY-10
  6
CONTINUOUS
 62
     7
100
AcDbLine
 10
517.2715162721863
 20
1003.728901592577
 30
0.0
 11
517.2715162721863
 21
988.728901592834
 31
0.0
  0
LINE
  5
1F1
330
1F
100
AcDbEntity
  8
LAY-10
  6
CONTINUOUS
 62
     7
100
AcDbLine
 10
502.2715162720967
 20
1003.728901592577
 30
0.0
 11
517.2715162721863
 21
1003.728901592577
 31
0.0
  0
LINE
  5
1F2
330
1F
100
AcDbEntity
  8
LAY-10
  6
CONTINUOUS
 62
     7
100
AcDbLine
 10
511.2715162720986
 20
982.7289015926303
 30
0.0
 11
511.2715162720986
 21
997.7289015925611
 31
0.0
  0
LINE
  5
1F3
330
1F
100
AcDbEntity
  8
LAY-10
  6
CONTINUOUS
 62
     7
100
AcDbLine
 10
502.2715162720967
 20
1003.728901592577
 30
0.0
 11
502.2715162720967
 21
1012.728901592548
 31
0.0
  0
LINE
  5
1F4
330
1F
100
AcDbEntity
  8
LAY-10
  6
CONTINUOUS
 62
     7
100
AcDbLine
 10
502.2715162720967
 20
973.7289015925338
 30
0.0
 11
502.2715162720967
 21
997.7289015925611
 31
0.0
  0
LINE
  5
1F5
330
1F
100
AcDbEntity
  8
LAY-10
  6
CONTINUOUS
 62
     7
100
AcDbLine
 10
502.2715162720967
 20
997.7289015925611
 30
0.0
 11
511.2715162720986
 21
997.7289015925611
 31
0.0
  0
LINE
  5
1F6
330
1F
100
AcDbEntity
  8
LAY-10
  6
CONTINUOUS
 62
     7
100
AcDbLine
 10
517.2715162721863
 20
988.728901592834
 30
0.0
 11
526.2715162721145
 21
988.728901592834
 31
0.0
  0
LINE
  5
1F7
330
1F
100
AcDbEntity
  8
LAY-10
  6
CONTINUOUS
 62
     7
100
AcDbLine
 10
502.271516272099
 20
973.7289015925357
 30
0.0
 11
526.2715162721145
 21
973.7289015925357
 31
0.0
  0
LINE
  5
1F8
330
1F
100
AcDbEntity
  8
LAY-10
  6
CONTINUOUS
 62
     7
100
AcDbLine
 10
502.2715162720967
 20
1012.728901592548
 30
0.0
 11
526.2715162721145
 21
1012.728901592548
 31
0.0
  0
LINE
  5
1F9
330
1F
100
AcDbEntity
  8
LAY-10
  6
CONTINUOUS
 62
     7
100
AcDbLine
 10
616.2715162721145
 20
943.728901592834
 30
0.0
 11
616.2715162721145
 21
967.7289015925485
 31
0.0
  0
LINE
  5
1FA
330
1F
100
AcDbEntity
  8
LAY-10
  6
CONTINUOUS
 62
     7
100
AcDbLine
 10
616.2715162721145
 20
928.7289015925357
 30
0.0
 11
616.2715162721145
 21
937.7289015926303
 31
0.0
  0
LINE
  5
1FB
330
1F
100
AcDbEntity
  8
LAY-10
  6
CONTINUOUS
 62
     7
100
AcDbLine
 10
616.2715162721145
 20
937.7289015926303
 30
0.0
 11
601.2715162720986
 21
937.7289015926303
 31
0.0
  0
LINE
  5
1FC
330
1F
100
AcDbEntity
  8
LAY-10
  6
CONTINUOUS
 62
     7
100
AcDbLine
 10
607.2715162721863
 20
958.7289015925775
 30
0.0
 11
607.2715162721863
 21
943.728901592834
 31
0.0
  0
LINE
  5
1FD
330
1F
100
AcDbEntity
  8
LAY-10
  6
CONTINUOUS
 62
     7
100
AcDbLine
 10
592.2715162720967
 20
958.7289015925775
 30
0.0
 11
607.2715162721863
 21
958.7289015925775
 31
0.0
  0
LINE
  5
1FE
330
1F
100
AcDbEntity
  8
LAY-10
  6
CONTINUOUS
 62
     7
100
AcDbLine
 10
601.2715162720986
 20
937.7289015926303
 30
0.0
 11
601.2715162720986
 21
952.7289015925611
 31
0.0
  0
LINE
  5
1FF
330
1F
100
AcDbEntity
  8
LAY-10
  6
CONTINUOUS
 62
     7
100
AcDbLine
 10
592.2715162720967
 20
958.7289015925775
 30
0.0
 11
592.2715162720967
 21
967.7289015925485
 31
0.0
  0
LINE
  5
200
330
1F
100
AcDbEntity
  8
LAY-10
  6
CONTINUOUS
 62
     7
100
AcDbLine
 10
592.2715162720967
 20
928.7289015925338
 30
0.0
 11
592.2715162720967
 21
952.7289015925611
 31
0.0
  0
LINE
  5
201
330
1F
100
AcDbEntity
  8
LAY-10
  6
CONTINUOUS
 62
     7
100
AcDbLine
 10
592.2715162720967
 20
952.7289015925611
 30
0.0
 11
601.2715162720986
 21
952.7289015925611
 31
0.0
  0
LINE
  5
202
330
1F
100
AcDbEntity
  8
LAY-10
  6
CONTINUOUS
 62
     7
100
AcDbLine
 10
607.2715162721863
 20
943.728901592834
 30
0.0
 11
616.2715162721145
 21
943.728901592834
 31
0.0
  0
LINE
  5
203
330
1F
100
AcDbEntity
  8
LAY-10
  6
CONTINUOUS
 62
     7
100
AcDbLine
 10
592.271516272099
 20
928.7289015925357
 30
0.0
 11
616.2715162721145
 21
928.7289015925357
 31
0.0
  0
LINE
  5
204
330
1F
100
AcDbEntity
  8
LAY-10
  6
CONTINUOUS
 62
     7
100
AcDbLine
 10
592.2715162720967
 20
967.7289015925485
 30
0.0
 11
616.2715162721145
 21
967.7289015925485
 31
0.0
  0
LINE
  5
205
330
1F
100
AcDbEntity
  8
LAY-10
  6
CONTINUOUS
 62
     7
100
AcDbLine
 10
586.2715162721145
 20
943.728901592834
 30
0.0
 11
586.2715162721145
 21
967.7289015925485
 31
0.0
  0
LINE
  5
206
330
1F
100
AcDbEntity
  8
LAY-10
  6
CONTINUOUS
 62
     7
100
AcDbLine
 10
586.2715162721145
 20
928.7289015925357
 30
0.0
 11
586.2715162721145
 21
937.7289015926303
 31
0.0
  0
LINE
  5
207
330
1F
100
AcDbEntity
  8
LAY-10
  6
CONTINUOUS
 62
     7
100
AcDbLine
 10
586.2715162721145
 20
937.7289015926303
 30
0.0
 11
571.2715162720986
 21
937.7289015926303
 31
0.0
  0
LINE
  5
208
330
1F
100
AcDbEntity
  8
LAY-10
  6
CONTINUOUS
 62
     7
100
AcDbLine
 10
577.2715162721863
 20
958.7289015925775
 30
0.0
 11
577.2715162721863
 21
943.728901592834
 31
0.0
  0
LINE
  5
209
330
1F
100
AcDbEntity
  8
LAY-10
  6
CONTINUOUS
 62
     7
100
AcDbLine
 10
562.2715162720967
 20
958.7289015925775
 30
0.0
 11
577.2715162721863
 21
958.7289015925775
 31
0.0
  0
LINE
  5
20A
330
1F
100
AcDbEntity
  8
LAY-10
  6
CONTINUOUS
 62
     7
100
AcDbLine
 10
571.2715162720986
 20
937.7289015926303
 30
0.0
 11
571.2715162720986
 21
952.7289015925611
 31
0.0
  0
LINE
  5
20B
330
1F
100
AcDbEntity
  8
LAY-10
  6
CONTINUOUS
 62
     7
100
AcDbLine
 10
562.2715162720967
 20
958.7289015925775
 30
0.0
 11
562.2715162720967
 21
967.7289015925485
 31
0.0
  0
LINE
  5
20C
330
1F
100
AcDbEntity
  8
LAY-10
  6
CONTINUOUS
 62
     7
100
AcDbLine
 10
562.2715162720967
 20
928.7289015925338
 30
0.0
 11
562.2715162720967
 21
952.7289015925611
 31
0.0
  0
LINE
  5
20D
330
1F
100
AcDbEntity
  8
LAY-10
  6
CONTINUOUS
 62
     7
100
AcDbLine
 10
562.2715162720967
 20
952.7289015925611
 30
0.0
 11
571.2715162720986
 21
952.7289015925611
 31
0.0
  0
LINE
  5
20E
330
1F
100
AcDbEntity
  8
LAY-10
  6
CONTINUOUS
 62
     7
100
AcDbLine
 10
577.2715162721863
 20
943.728901592834
 30
0.0
 11
586.2715162721145
 21
943.728901592834
 31
0.0
  0
LINE
  5
20F
330
1F
100
AcDbEntity
  8
LAY-10
  6
CONTINUOUS
 62
     7
100
AcDbLine
 10
562.271516272099
 20
928.7289015925357
 30
0.0
 11
586.2715162721145
 21
928.7289015925357
 31
0.0
  0
LINE
  5
210
330
1F
100
AcDbEntity
  8
LAY-10
  6
CONTINUOUS
 62
     7
100
AcDbLine
 10
562.2715162720967
 20
967.7289015925485
 30
0.0
 11
586.2715162721145
 21
967.7289015925485
 31
0.0
  0
LINE
  5
211
330
1F
100
AcDbEntity
  8
LAY-10
  6
CONTINUOUS
 62
     7
100
AcDbLine
 10
532.2715162720967
 20
967.7289015925485
 30
0.0
 11
556.2715162721145
 21
967.7289015925485
 31
0.0
  0
LINE
  5
212
330
1F
100
AcDbEntity
  8
LAY-10
  6
CONTINUOUS
 62
     7
100
AcDbLine
 10
532.271516272099
 20
928.7289015925357
 30
0.0
 11
556.2715162721145
 21
928.7289015925357
 31
0.0
  0
LINE
  5
213
330
1F
100
AcDbEntity
  8
LAY-10
  6
CONTINUOUS
 62
     7
100
AcDbLine
 10
547.2715162721863
 20
943.728901592834
 30
0.0
 11
556.2715162721145
 21
943.728901592834
 31
0.0
  0
LINE
  5
214
330
1F
100
AcDbEntity
  8
LAY-10
  6
CONTINUOUS
 62
     7
100
AcDbLine
 10
532.2715162720967
 20
952.7289015925611
 30
0.0
 11
541.2715162720986
 21
952.7289015925611
 31
0.0
  0
LINE
  5
215
330
1F
100
AcDbEntity
  8
LAY-10
  6
CONTINUOUS
 62
     7
100
AcDbLine
 10
532.2715162720967
 20
928.7289015925338
 30
0.0
 11
532.2715162720967
 21
952.7289015925611
 31
0.0
  0
LINE
  5
216
330
1F
100
AcDbEntity
  8
LAY-10
  6
CONTINUOUS
 62
     7
100
AcDbLine
 10
532.2715162720967
 20
958.7289015925775
 30
0.0
 11
532.2715162720967
 21
967.7289015925485
 31
0.0
  0
LINE
  5
217
330
1F
100
AcDbEntity
  8
LAY-10
  6
CONTINUOUS
 62
     7
100
AcDbLine
 10
541.2715162720986
 20
937.7289015926303
 30
0.0
 11
541.2715162720986
 21
952.7289015925611
 31
0.0
  0
LINE
  5
218
330
1F
100
AcDbEntity
  8
LAY-10
  6
CONTINUOUS
 62
     7
100
AcDbLine
 10
532.2715162720967
 20
958.7289015925775
 30
0.0
 11
547.2715162721863
 21
958.7289015925775
 31
0.0
  0
LINE
  5
219
330
1F
100
AcDbEntity
  8
LAY-10
  6
CONTINUOUS
 62
     7
100
AcDbLine
 10
547.2715162721863
 20
958.7289015925775
 30
0.0
 11
547.2715162721863
 21
943.728901592834
 31
0.0
  0
LINE
  5
21A
330
1F
100
AcDbEntity
  8
LAY-10
  6
CONTINUOUS
 62
     7
100
AcDbLine
 10
556.2715162721145
 20
937.7289015926303
 30
0.0
 11
541.2715162720986
 21
937.7289015926303
 31
0.0
  0
LINE
  5
21B
330
1F
100
AcDbEntity
  8
LAY-10
  6
CONTINUOUS
 62
     7
100
AcDbLine
 10
556.2715162721145
 20
928.7289015925357
 30
0.0
 11
556.2715162721145
 21
937.7289015926303
 31
0.0
  0
LINE
  5
21C
330
1F
100
AcDbEntity
  8
LAY-10
  6
CONTINUOUS
 62
     7
100
AcDbLine
 10
556.2715162721145
 20
943.728901592834
 30
0.0
 11
556.2715162721145
 21
967.7289015925485
 31
0.0
  0
CIRCLE
  5
21D
330
1F
100
AcDbEntity
  8
LAY-10
  6
CONTINUOUS
 62
     7
100
AcDbCircle
 10
1022.715743936579
 20
807.4846739280455
 30
0.0
 40
14.00000000000001
  0
CIRCLE
  5
21E
330
1F
100
AcDbEntity
  8
LAY-10
  6
CONTINUOUS
 62
     7
100
AcDbCircle
 10
1022.715743936579
 20
1313.773129256976
 30
0.0
 40
14.00000000000001
  0
CIRCLE
  5
21F
330
1F
100
AcDbEntity
  8
LAY-10
  6
CONTINUOUS
 62
     7
100
AcDbCircle
 10
516.4272886075794
 20
1313.773129256976
 30
0.0
 40
14.00000000000001
  0
CIRCLE
  5
220
330
1F
100
AcDbEntity
  8
LAY-10
  6
CONTINUOUS
 62
     7
100
AcDbCircle
 10
516.4272886075794
 20
807.4846739280455
 30
0.0
 40
14.00000000000001
  0
LINE
  5
221
330
1F
100
AcDbEntity
  8
LAY-10
  6
CONTINUOUS
 62
     7
100
AcDbLine
 10
1158.489185081899
 20
327.2086004950255
 30
0.0
 11
1159.571516273047
 21
358.2025106206482
 31
0.0
  0
LINE
  5
222
330
1F
100
AcDbEntity
  8
LAY-10
  6
CONTINUOUS
 62
     7
100
AcDbLine
 10
1165.571516272249
 20
358.2025106206627
 30
0.0
 11
1166.639493151836
 21
327.6196541965649
 31
0.0
  0
LINE
  5
223
330
1F
100
AcDbEntity
  8
LAY-10
  6
CONTINUOUS
 62
     7
100
AcDbLine
 10
1154.450195928606
 20
314.081190277159
 30
0.0
 11
1165.76264101434
 21
325.3936353628922
 31
0.0
  0
ARC
  5
224
330
1F
100
AcDbEntity
  8
LAY-10
  6
CONTINUOUS
 62
     7
100
AcDbCircle
 10
1163.64132067078
 20
327.5149557064522
 30
0.0
 40
3.000000000000002
100
AcDbArc
 50
315.0000000000002
 51
2.000000000003634
  0
ARC
  5
225
330
1F
100
AcDbEntity
  8
LAY-10
  6
CONTINUOUS
 62
     7
100
AcDbCircle
 10
1156.571516272166
 20
311.9598699335999
 30
0.0
 40
3.000000000000002
100
AcDbArc
 50
135.0000000000062
 51
180.0
  0
LINE
  5
226
330
1F
100
AcDbEntity
  8
LAY-10
  6
CONTINUOUS
 62
     7
100
AcDbLine
 10
1156.57151627218
 20
298.2025106206854
 30
0.0
 11
1206.612748308881
 21
298.2025106206854
 31
0.0
  0
ARC
  5
227
330
1F
100
AcDbEntity
  8
LAY-10
  6
CONTINUOUS
 62
     7
100
AcDbCircle
 10
1206.612748308858
 20
293.2025106206854
 30
0.0
 40
5.0
100
AcDbArc
 50
10.00000000000138
 51
90.00000000000004
  0
LINE
  5
228
330
1F
100
AcDbEntity
  8
LAY-10
  6
CONTINUOUS
 62
     7
100
AcDbLine
 10
1211.536787073919
 20
294.07075150902
 30
0.0
 11
1212.571516271829
 21
288.2025106206844
 31
0.0
  0
ARC
  5
229
330
1F
100
AcDbEntity
  8
LAY-10
  6
CONTINUOUS
 62
     7
100
AcDbCircle
 10
1156.571516272166
 20
301.2025106206854
 30
0.0
 40
3.000000000000002
100
AcDbArc
 50
180.0
 51
270.0000000000002
  0
LINE
  5
22A
330
1F
100
AcDbEntity
  8
LAY-10
  6
CONTINUOUS
 62
     7
100
AcDbLine
 10
380.653847462341
 20
327.2086004950255
 30
0.0
 11
379.5715162711933
 21
358.2025106206482
 31
0.0
  0
LINE
  5
22B
330
1F
100
AcDbEntity
  8
LAY-10
  6
CONTINUOUS
 62
     7
100
AcDbLine
 10
384.6928366156337
 20
314.081190277159
 30
0.0
 11
373.3803915299006
 21
325.3936353628922
 31
0.0
  0
ARC
  5
22C
330
1F
100
AcDbEntity
  8
LAY-10
  6
CONTINUOUS
 62
     7
100
AcDbCircle
 10
375.5017118734606
 20
327.5149557064522
 30
0.0
 40
3.000000000000002
100
AcDbArc
 50
177.9999999999965
 51
225.0000000000017
  0
ARC
  5
22D
330
1F
100
AcDbEntity
  8
LAY-10
  6
CONTINUOUS
 62
     7
100
AcDbCircle
 10
382.5715162720737
 20
311.9598699335999
 30
0.0
 40
3.000000000000002
100
AcDbArc
 50
0.0
 51
44.9999999999954
  0
ARC
  5
22E
330
1F
100
AcDbEntity
  8
LAY-10
  6
CONTINUOUS
 62
     7
100
AcDbCircle
 10
332.5302842353824
 20
293.2025106206854
 30
0.0
 40
5.0
100
AcDbArc
 50
90.00000000000004
 51
169.9999999999987
  0
ARC
  5
22F
330
1F
100
AcDbEntity
  8
LAY-10
  6
CONTINUOUS
 62
     7
100
AcDbCircle
 10
382.5715162720737
 20
301.2025106206854
 30
0.0
 40
3.000000000000002
100
AcDbArc
 50
270.0000000000002
 51
0.0
  0
LINE
  5
230
330
1F
100
AcDbEntity
  8
LAY-10
  6
CONTINUOUS
 62
     7
100
AcDbLine
 10
1153.571516272166
 20
301.2025106206744
 30
0.0
 11
1153.571516272166
 21
311.9598699336042
 31
0.0
  0
ARC
  5
231
330
1F
100
AcDbEntity
  8
LAY-10
  6
CONTINUOUS
 62
     7
100
AcDbCircle
 10
364.4941660028264
 20
296.2025106206979
 30
0.0
 40
1.0
100
AcDbArc
 50
270.0000000000002
 51
330.0000000000058
  0
LINE
  5
232
330
1F
100
AcDbEntity
  8
LAY-10
  6
CONTINUOUS
 62
     7
100
AcDbLine
 10
364.4941660028264
 20
295.2025106206979
 30
0.0
 11
363.6488665412073
 21
295.2025106206979
 31
0.0
  0
ARC
  5
233
330
1F
100
AcDbEntity
  8
LAY-10
  6
CONTINUOUS
 62
     7
100
AcDbCircle
 10
363.6488665412073
 20
296.2025106206979
 30
0.0
 40
1.0
100
AcDbArc
 50
209.9999999999946
 51
270.0000000000002
  0
ARC
  5
234
330
1F
100
AcDbEntity
  8
LAY-10
  6
CONTINUOUS
 62
     7
100
AcDbCircle
 10
367.9582676179637
 20
296.2025106206979
 30
0.0
 40
2.0
100
AcDbArc
 50
90.00000000000004
 51
149.999999999998
  0
ARC
  5
235
330
1F
100
AcDbEntity
  8
LAY-10
  6
CONTINUOUS
 62
     7
100
AcDbCircle
 10
360.1847649260701
 20
296.2025106206979
 30
0.0
 40
2.0
100
AcDbArc
 50
30.00000000000196
 51
90.00000000000004
  0
LINE
  5
236
330
1F
100
AcDbEntity
  8
LAY-10
  6
CONTINUOUS
 62
     7
100
AcDbLine
 10
365.3601914066087
 20
295.7025106206951
 30
0.0
 11
366.2262168103955
 21
297.2025106206979
 31
0.0
  0
LINE
  5
237
330
1F
100
AcDbEntity
  8
LAY-10
  6
CONTINUOUS
 62
     7
100
AcDbLine
 10
362.7828411374242
 20
295.702510620696
 30
0.0
 11
361.9168157336392
 21
297.2025106206979
 31
0.0
  0
ARC
  5
238
330
1F
100
AcDbEntity
  8
LAY-10
  6
CONTINUOUS
 62
     7
100
AcDbCircle
 10
344.4941660028264
 20
296.2025106206979
 30
0.0
 40
1.0
100
AcDbArc
 50
270.0000000000002
 51
330.0000000000058
  0
LINE
  5
239
330
1F
100
AcDbEntity
  8
LAY-10
  6
CONTINUOUS
 62
     7
100
AcDbLine
 10
344.4941660028264
 20
295.2025106206979
 30
0.0
 11
343.6488665412073
 21
295.2025106206979
 31
0.0
  0
ARC
  5
23A
330
1F
100
AcDbEntity
  8
LAY-10
  6
CONTINUOUS
 62
     7
100
AcDbCircle
 10
343.6488665412073
 20
296.2025106206979
 30
0.0
 40
1.0
100
AcDbArc
 50
209.9999999999946
 51
270.0000000000002
  0
ARC
  5
23B
330
1F
100
AcDbEntity
  8
LAY-10
  6
CONTINUOUS
 62
     7
100
AcDbCircle
 10
347.9582676179637
 20
296.2025106206979
 30
0.0
 40
2.0
100
AcDbArc
 50
90.00000000000004
 51
149.999999999998
  0
ARC
  5
23C
330
1F
100
AcDbEntity
  8
LAY-10
  6
CONTINUOUS
 62
     7
100
AcDbCircle
 10
340.1847649260701
 20
296.2025106206979
 30
0.0
 40
2.0
100
AcDbArc
 50
30.00000000000196
 51
90.00000000000004
  0
LINE
  5
23D
330
1F
100
AcDbEntity
  8
LAY-10
  6
CONTINUOUS
 62
     7
100
AcDbLine
 10
345.3601914066114
 20
295.7025106206979
 30
0.0
 11
346.2262168103946
 21
297.2025106206979
 31
0.0
  0
LINE
  5
23E
330
1F
100
AcDbEntity
  8
LAY-10
  6
CONTINUOUS
 62
     7
100
AcDbLine
 10
385.5715162720737
 20
301.2025106206744
 30
0.0
 11
385.5715162720737
 21
311.9598699336042
 31
0.0
  0
LINE
  5
23F
330
1F
100
AcDbEntity
  8
LAY-10
  6
CONTINUOUS
 62
     7
100
AcDbLine
 10
1191.571516272096
 20
293.1814901361101
 30
0.0
 11
1196.592536756674
 21
298.2025106206854
 31
0.0
  0
LINE
  5
240
330
1F
100
AcDbEntity
  8
LAY-10
  6
CONTINUOUS
 62
     7
100
AcDbLine
 10
1191.571516272096
 20
288.2025106206844
 30
0.0
 11
1191.571516272096
 21
293.1814901361092
 31
0.0
  0
LINE
  5
241
330
1F
100
AcDbEntity
  8
LAY-10
  6
CONTINUOUS
 62
     7
100
AcDbLine
 10
1177.571516272085
 20
288.2025106206844
 30
0.0
 11
1177.571516272085
 21
293.1814901361092
 31
0.0
  0
LINE
  5
242
330
1F
100
AcDbEntity
  8
LAY-10
  6
CONTINUOUS
 62
     7
100
AcDbLine
 10
1177.571516272085
 20
293.1814901361092
 30
0.0
 11
1172.550495787508
 21
298.2025106206854
 31
0.0
  0
ARC
  5
243
330
1F
100
AcDbEntity
  8
LAY-10
  6
CONTINUOUS
 62
     7
100
AcDbCircle
 10
1115.919022150194
 20
313.2025106206742
 30
0.0
 40
1.0
100
AcDbArc
 50
90.00000000000004
 51
172.8219828752391
  0
ARC
  5
244
330
1F
100
AcDbEntity
  8
LAY-10
  6
CONTINUOUS
 62
     7
100
AcDbCircle
 10
431.1613121167495
 20
314.2021312300932
 30
0.0
 40
7.000000000000004
100
AcDbArc
 50
187.1780171247619
 51
350.6486604044879
  0
ARC
  5
245
330
1F
100
AcDbEntity
  8
LAY-10
  6
CONTINUOUS
 62
     7
100
AcDbCircle
 10
421.9779970175697
 20
314.2025106206744
 30
0.0
 40
2.0
100
AcDbArc
 50
12.31670435883168
 51
90.00000000000004
  0
LINE
  5
246
330
1F
100
AcDbEntity
  8
LAY-10
  6
CONTINUOUS
 62
     7
100
AcDbLine
 10
440.2763195934806
 20
316.2025106206744
 30
0.0
 11
1098.86671295076
 21
316.2025106206744
 31
0.0
  0
ARC
  5
247
330
1F
100
AcDbEntity
  8
LAY-10
  6
CONTINUOUS
 62
     7
100
AcDbCircle
 10
441.679869932216
 20
314.2025106206744
 30
0.0
 40
2.0
100
AcDbArc
 50
2.680257793552697
 51
90.00000000000004
  0
ARC
  5
248
330
1F
100
AcDbEntity
  8
LAY-10
  6
CONTINUOUS
 62
     7
100
AcDbCircle
 10
1098.86671295076
 20
314.2025106206743
 30
0.0
 40
2.0
100
AcDbArc
 50
9.11134246332168
 51
90.00000000000004
  0
ARC
  5
249
330
1F
100
AcDbEntity
  8
LAY-10
  6
CONTINUOUS
 62
     7
100
AcDbCircle
 10
1107.981720427491
 20
314.2021312300931
 30
0.0
 40
7.000000000000004
100
AcDbArc
 50
189.3513395955121
 51
352.8219828752382
  0
LINE
  5
24A
330
1F
100
AcDbEntity
  8
LAY-10
  6
CONTINUOUS
 62
     7
100
AcDbLine
 10
1118.702388256581
 20
316.2025106206743
 30
0.0
 11
1117.16503552667
 21
316.2025106206743
 31
0.0
  0
ARC
  5
24B
330
1F
100
AcDbEntity
  8
LAY-10
  6
CONTINUOUS
 62
     7
100
AcDbCircle
 10
1117.16503552667
 20
314.2025106206743
 30
0.0
 40
2.0
100
AcDbArc
 50
90.00000000000004
 51
167.6832956411681
  0
ARC
  5
24C
330
1F
100
AcDbEntity
  8
LAY-10
  6
CONTINUOUS
 62
     7
100
AcDbCircle
 10
1097.463162612024
 20
314.2025106206743
 30
0.0
 40
2.0
100
AcDbArc
 50
90.00000000000004
 51
177.3197422064474
  0
ARC
  5
24D
330
1F
100
AcDbEntity
  8
LAY-10
  6
CONTINUOUS
 62
     7
100
AcDbCircle
 10
440.2763195934806
 20
314.2025106206744
 30
0.0
 40
2.0
100
AcDbArc
 50
90.00000000000004
 51
170.8886575366623
  0
LINE
  5
24E
330
1F
100
AcDbEntity
  8
LAY-10
  6
CONTINUOUS
 62
     7
100
AcDbLine
 10
382.5715162720601
 20
298.2025106206854
 30
0.0
 11
367.9582676179637
 21
298.2025106206854
 31
0.0
  0
LINE
  5
24F
330
1F
100
AcDbEntity
  8
LAY-10
  6
CONTINUOUS
 62
     7
100
AcDbLine
 10
360.1847649260701
 20
298.2025106206854
 30
0.0
 11
347.9582676179637
 21
298.2025106206854
 31
0.0
  0
LINE
  5
250
330
1F
100
AcDbEntity
  8
LAY-10
  6
CONTINUOUS
 62
     7
100
AcDbLine
 10
340.1847649260701
 20
298.2025106206854
 30
0.0
 11
332.5302842353597
 21
298.2025106206854
 31
0.0
  0
LINE
  5
251
330
1F
100
AcDbEntity
  8
LAY-10
  6
CONTINUOUS
 62
     7
100
AcDbLine
 10
342.7828411374232
 20
295.7025106206983
 30
0.0
 11
341.9168157336392
 21
297.2025106206976
 31
0.0
  0
LINE
  5
252
330
1F
100
AcDbEntity
  8
LAY-10
  6
CONTINUOUS
 62
     7
100
AcDbLine
 10
327.6062454703217
 20
294.0707515090202
 30
0.0
 11
326.5715162724111
 21
288.2025106206844
 31
0.0
  0
LINE
  5
253
330
1F
100
AcDbEntity
  8
LAY-10
  6
CONTINUOUS
 62
     7
100
AcDbLine
 10
1115.117917889514
 20
314.2025106206742
 30
0.0
 11
1143.044540529989
 21
314.2025106206742
 31
0.0
  0
LINE
  5
254
330
1F
100
AcDbEntity
  8
LAY-10
  6
CONTINUOUS
 62
     7
100
AcDbLine
 10
1146.040429134253
 20
317.0455027519454
 30
0.0
 11
1146.57273313381
 21
327.2024681269127
 31
0.0
  0
ARC
  5
255
330
1F
100
AcDbEntity
  8
LAY-10
  6
CONTINUOUS
 62
     7
100
AcDbCircle
 10
1143.044540529989
 20
317.2025106206742
 30
0.0
 40
3.000000000000002
100
AcDbArc
 50
270.0000000000002
 51
357.0000000000012
  0
ARC
  5
256
330
1F
100
AcDbEntity
  8
LAY-10
  6
CONTINUOUS
 62
     7
100
AcDbCircle
 10
398.9921689540581
 20
300.2025106206844
 30
0.0
 40
5.0
100
AcDbArc
 50
183.0000000000005
 51
270.0000000000002
  0
LINE
  5
257
330
1F
100
AcDbEntity
  8
LAY-10
  6
CONTINUOUS
 62
     7
100
AcDbLine
 10
393.9990212802852
 20
299.940830839474
 30
0.0
 11
392.5702994104306
 21
327.2024681269129
 31
0.0
  0
LINE
  5
258
330
1F
100
AcDbEntity
  8
LAY-10
  6
CONTINUOUS
 62
     7
100
AcDbLine
 10
398.9921689540581
 20
295.2025106206844
 30
0.0
 11
405.7551972607837
 21
295.2025106206844
 31
0.0
  0
ARC
  5
259
330
1F
100
AcDbEntity
  8
LAY-10
  6
CONTINUOUS
 62
     7
100
AcDbCircle
 10
405.7551972607837
 20
307.2025106206844
 30
0.0
 40
12.00000000000001
100
AcDbArc
 50
270.0000000000002
 51
354.9999999999998
  0
LINE
  5
25A
330
1F
100
AcDbEntity
  8
LAY-10
  6
CONTINUOUS
 62
     7
100
AcDbLine
 10
420.421095631071
 20
316.2025106206744
 30
0.0
 11
421.9779970175697
 21
316.2025106206744
 31
0.0
  0
ARC
  5
25B
330
1F
100
AcDbEntity
  8
LAY-10
  6
CONTINUOUS
 62
     7
100
AcDbCircle
 10
420.421095631071
 20
314.2025106206744
 30
0.0
 40
2.0
100
AcDbArc
 50
90.00000000000004
 51
175.0000000000003
  0
LINE
  5
25C
330
1F
100
AcDbEntity
  8
LAY-10
  6
CONTINUOUS
 62
     7
100
AcDbLine
 10
1114.92685943486
 20
313.3274631968541
 30
0.0
 11
1115.211068677186
 21
314.6291410826851
 31
0.0
  0
LINE
  5
25D
330
1F
100
AcDbEntity
  8
LAY-10
  6
CONTINUOUS
 62
     7
100
AcDbLine
 10
1101.074746815779
 20
313.0647150675689
 30
0.0
 11
1100.84147790657
 21
314.5192176924342
 31
0.0
  0
LINE
  5
25E
330
1F
100
AcDbEntity
  8
LAY-10
  6
CONTINUOUS
 62
     7
100
AcDbLine
 10
1095.465350518085
 20
314.296035148534
 30
0.0
 11
1094.571516272117
 21
295.2025106206698
 31
0.0
  0
LINE
  5
25F
330
1F
100
AcDbEntity
  8
LAY-10
  6
CONTINUOUS
 62
     7
100
AcDbLine
 10
443.677682026155
 20
314.2960351485343
 30
0.0
 11
444.5715162721228
 21
295.2025106206699
 31
0.0
  0
LINE
  5
260
330
1F
100
AcDbEntity
  8
LAY-10
  6
CONTINUOUS
 62
     7
100
AcDbLine
 10
438.3015546376703
 20
314.5192176924339
 30
0.0
 11
438.0682857284602
 21
313.0647150675681
 31
0.0
  0
LINE
  5
261
330
1F
100
AcDbEntity
  8
LAY-10
  6
CONTINUOUS
 62
     7
100
AcDbLine
 10
424.21617310938
 20
313.3274631968542
 30
0.0
 11
423.9319638670534
 21
314.6291410826861
 31
0.0
  0
LINE
  5
262
330
1F
100
AcDbEntity
  8
LAY-10
  6
CONTINUOUS
 62
     7
100
AcDbLine
 10
417.7095336378845
 20
306.1566417077125
 30
0.0
 11
418.4287062348878
 21
314.3768221061698
 31
0.0
  0
LINE
  5
263
330
1F
100
AcDbEntity
  8
LAY-10
  6
CONTINUOUS
 62
     7
100
AcDbLine
 10
1177.57151627208
 20
293.1814901361042
 30
0.0
 11
1191.57151627208
 21
293.1814901361042
 31
0.0
  0
LINE
  5
264
330
1F
100
AcDbEntity
  8
LAY-10
  6
CONTINUOUS
 62
     7
100
AcDbLine
 10
1132.571516271722
 20
296.2025106207442
 30
0.0
 11
1127.571516271721
 21
293.3157592747406
 31
0.0
  0
LINE
  5
265
330
1F
100
AcDbEntity
  8
LAY-10
  6
CONTINUOUS
 62
     7
100
AcDbLine
 10
1122.571516271721
 20
296.2025106207442
 30
0.0
 11
1127.571516271721
 21
293.3157592747406
 31
0.0
  0
LINE
  5
266
330
1F
100
AcDbEntity
  8
LAY-10
  6
CONTINUOUS
 62
     7
100
AcDbLine
 10
1157.222468144297
 20
348.2070799982742
 30
0.0
 11
1157.571516273035
 21
358.2025106206741
 31
0.0
  0
ARC
  5
267
330
1F
100
AcDbEntity
  8
LAY-10
  6
CONTINUOUS
 62
     7
100
AcDbCircle
 10
1156.753545160667
 20
346.7070799982742
 30
0.0
 40
1.5
100
AcDbArc
 50
90.00000000000004
 51
177.9999999999942
  0
LINE
  5
268
330
1F
100
AcDbEntity
  8
LAY-10
  6
CONTINUOUS
 62
     7
100
AcDbLine
 10
1157.222468144327
 20
348.2070799982742
 30
0.0
 11
1156.753545160667
 21
348.2070799982742
 31
0.0
  0
LINE
  5
269
330
1F
100
AcDbEntity
  8
LAY-10
  6
CONTINUOUS
 62
     7
100
AcDbLine
 10
1154.571516272946
 20
327.2025106206739
 30
0.0
 11
1155.254458920139
 21
346.759429243328
 31
0.0
  0
ARC
  5
26A
330
1F
100
AcDbEntity
  8
LAY-10
  6
CONTINUOUS
 62
     7
100
AcDbCircle
 10
1144.571516273027
 20
339.2025106206832
 30
0.0
 40
4.0
100
AcDbArc
 50
270.0000000000002
 51
0.0
  0
LINE
  5
26B
330
1F
100
AcDbEntity
  8
LAY-10
  6
CONTINUOUS
 62
     7
100
AcDbLine
 10
1110.571516272986
 20
335.2025106206832
 30
0.0
 11
1144.571516273027
 21
335.2025106206832
 31
0.0
  0
ARC
  5
26C
330
1F
100
AcDbEntity
  8
LAY-10
  6
CONTINUOUS
 62
     7
100
AcDbCircle
 10
1110.571516272987
 20
339.2025106206832
 30
0.0
 40
4.0
100
AcDbArc
 50
180.0
 51
270.0000000000002
  0
ARC
  5
26D
330
1F
100
AcDbEntity
  8
LAY-10
  6
CONTINUOUS
 62
     7
100
AcDbCircle
 10
1146.572734618973
 20
327.2025106206941
 30
0.0
 40
2.0
100
AcDbArc
 50
2.000000000010222
 51
90.00000000000004
  0
LINE
  5
26E
330
1F
100
AcDbEntity
  8
LAY-10
  6
CONTINUOUS
 62
     7
100
AcDbLine
 10
769.5715162734266
 20
364.9749907475942
 30
0.0
 11
1157.566642889186
 21
358.2025106206716
 31
0.0
  0
LINE
  5
26F
330
1F
100
AcDbEntity
  8
LAY-10
  6
CONTINUOUS
 62
     7
100
AcDbLine
 10
399.5739537084421
 20
332.2723096140996
 30
0.0
 11
399.5715162738817
 21
332.2025106206741
 31
0.0
  0
LINE
  5
270
330
1F
100
AcDbEntity
  8
LAY-10
  6
CONTINUOUS
 62
     7
100
AcDbLine
 10
381.9205644025558
 20
348.2070799982742
 30
0.0
 11
381.5715162738186
 21
358.2025106206741
 31
0.0
  0
ARC
  5
271
330
1F
100
AcDbEntity
  8
LAY-10
  6
CONTINUOUS
 62
     7
100
AcDbCircle
 10
382.3894873861861
 20
346.7070799982742
 30
0.0
 40
1.5
100
AcDbArc
 50
2.00000000000581
 51
90.00000000000004
  0
LINE
  5
272
330
1F
100
AcDbEntity
  8
LAY-10
  6
CONTINUOUS
 62
     7
100
AcDbLine
 10
381.9205644025258
 20
348.2070799982742
 30
0.0
 11
382.3894873861861
 21
348.2070799982742
 31
0.0
  0
LINE
  5
273
330
1F
100
AcDbEntity
  8
LAY-10
  6
CONTINUOUS
 62
     7
100
AcDbLine
 10
384.5715162739073
 20
327.2025106206741
 30
0.0
 11
383.8885736267146
 21
346.759429243328
 31
0.0
  0
ARC
  5
274
330
1F
100
AcDbEntity
  8
LAY-10
  6
CONTINUOUS
 62
     7
100
AcDbCircle
 10
392.5702979278797
 20
327.2025106206736
 30
0.0
 40
2.0
100
AcDbArc
 50
90.00000000000004
 51
177.9999999999899
  0
LINE
  5
275
330
1F
100
AcDbEntity
  8
LAY-10
  6
CONTINUOUS
 62
     7
100
AcDbLine
 10
1114.054599262527
 20
317.7018012262317
 30
0.0
 11
1114.388889472258
 21
327.2746203420828
 31
0.0
  0
ARC
  5
276
330
1F
100
AcDbEntity
  8
LAY-10
  6
CONTINUOUS
 62
     7
100
AcDbCircle
 10
1116.387590433897
 20
327.2025106206941
 30
0.0
 40
2.0
100
AcDbArc
 50
90.00000000000004
 51
177.9999999999997
  0
LINE
  5
277
330
1F
100
AcDbEntity
  8
LAY-10
  6
CONTINUOUS
 62
     7
100
AcDbLine
 10
392.5702979278797
 20
329.2025106206736
 30
0.0
 11
422.7554421129573
 21
329.2025106206736
 31
0.0
  0
ARC
  5
278
330
1F
100
AcDbEntity
  8
LAY-10
  6
CONTINUOUS
 62
     7
100
AcDbCircle
 10
422.7554421129573
 20
327.2025106206736
 30
0.0
 40
2.0
100
AcDbArc
 50
2.000000000000425
 51
90.00000000000004
  0
LINE
  5
279
330
1F
100
AcDbEntity
  8
LAY-10
  6
CONTINUOUS
 62
     7
100
AcDbLine
 10
425.0884332843277
 20
317.7018012261901
 30
0.0
 11
424.7542237669957
 21
327.2723096140748
 31
0.0
  0
ARC
  5
27A
330
1F
100
AcDbEntity
  8
LAY-10
  6
CONTINUOUS
 62
     7
100
AcDbCircle
 10
443.0368315156636
 20
344.7730978671757
 30
0.0
 40
5.0
100
AcDbArc
 50
91.00000000000374
 51
177.999999999999
  0
ARC
  5
27B
330
1F
100
AcDbEntity
  8
LAY-10
  6
CONTINUOUS
 62
     7
100
AcDbCircle
 10
1096.10620103119
 20
344.7730978671755
 30
0.0
 40
5.0
100
AcDbArc
 50
2.000000000001055
 51
88.99999999999564
  0
LINE
  5
27C
330
1F
100
AcDbEntity
  8
LAY-10
  6
CONTINUOUS
 62
     7
100
AcDbLine
 10
919.5715162734266
 20
351.3550553998649
 30
0.0
 11
924.5715162734266
 21
352.7680085672949
 31
0.0
  0
LINE
  5
27D
330
1F
100
AcDbEntity
  8
LAY-10
  6
CONTINUOUS
 62
     7
100
AcDbLine
 10
442.9495694834766
 20
349.7723363429575
 30
0.0
 11
614.5715162734266
 21
352.7680085672937
 31
0.0
  0
LINE
  5
27E
330
1F
100
AcDbEntity
  8
LAY-10
  6
CONTINUOUS
 62
     7
100
AcDbLine
 10
1114.054599262526
 20
317.70180122619
 30
0.0
 11
1049.721581391601
 21
317.70180122619
 31
0.0
  0
LINE
  5
27F
330
1F
100
AcDbEntity
  8
LAY-10
  6
CONTINUOUS
 62
     7
100
AcDbLine
 10
1102.054599262525
 20
317.7018012262317
 30
0.0
 11
1101.103155166285
 21
344.9475953506879
 31
0.0
  0
LINE
  5
280
330
1F
100
AcDbEntity
  8
LAY-10
  6
CONTINUOUS
 62
     7
100
AcDbLine
 10
1106.571516272987
 20
359.0926338667817
 30
0.0
 11
1106.571516272987
 21
339.2025106206832
 31
0.0
  0
LINE
  5
281
330
1F
100
AcDbEntity
  8
LAY-10
  6
CONTINUOUS
 62
     7
100
AcDbLine
 10
1148.571516273027
 20
358.3595211397945
 30
0.0
 11
1148.571516273027
 21
339.2025106206832
 31
0.0
  0
LINE
  5
282
330
1F
100
AcDbEntity
  8
LAY-10
  6
CONTINUOUS
 62
     7
100
AcDbLine
 10
437.0884332843277
 20
317.7018012262318
 30
0.0
 11
438.039877380568
 21
344.9475953506883
 31
0.0
  0
LINE
  5
283
330
1F
100
AcDbEntity
  8
LAY-10
  6
CONTINUOUS
 62
     7
100
AcDbLine
 10
1119.071516273026
 20
329.2025106206941
 30
0.0
 11
1119.071516273026
 21
335.2025106206832
 31
0.0
  0
LINE
  5
284
330
1F
100
AcDbEntity
  8
LAY-10
  6
CONTINUOUS
 62
     7
100
AcDbLine
 10
1136.071516273029
 20
329.2025106206941
 30
0.0
 11
1136.071516273029
 21
335.2025106206832
 31
0.0
  0
LINE
  5
285
330
1F
100
AcDbEntity
  8
LAY-10
  6
CONTINUOUS
 62
     7
100
AcDbLine
 10
769.5715162734266
 20
364.9749907475942
 30
0.0
 11
381.5715192425525
 21
358.2024256072596
 31
0.0
  0
LINE
  5
286
330
1F
100
AcDbEntity
  8
LAY-10
  6
CONTINUOUS
 62
     7
100
AcDbLine
 10
619.571516273412
 20
351.3550553998689
 30
0.0
 11
614.5715162734266
 21
352.7680085672949
 31
0.0
  0
LINE
  5
287
330
1F
100
AcDbEntity
  8
LAY-10
  6
CONTINUOUS
 62
     7
100
AcDbLine
 10
619.5715162733602
 20
351.3550553998641
 30
0.0
 11
919.5715162733802
 21
351.3550553998641
 31
0.0
  0
LINE
  5
288
330
1F
100
AcDbEntity
  8
LAY-10
  6
CONTINUOUS
 62
     7
100
AcDbLine
 10
1165.57151627228
 20
358.2025106206782
 30
0.0
 11
1157.566642888805
 21
358.2025106206782
 31
0.0
  0
LINE
  5
289
330
1F
100
AcDbEntity
  8
LAY-10
  6
CONTINUOUS
 62
     7
100
AcDbLine
 10
381.5715162737799
 20
358.2025106206782
 30
0.0
 11
373.5715162719919
 21
358.2025106206782
 31
0.0
  0
LINE
  5
28A
330
1F
100
AcDbEntity
  8
LAY-10
  6
CONTINUOUS
 62
     7
100
AcDbLine
 10
424.7566612015555
 20
327.2025106206727
 30
0.0
 11
380.6540601254394
 21
327.2025106206736
 31
0.0
  0
LINE
  5
28B
330
1F
100
AcDbEntity
  8
LAY-10
  6
CONTINUOUS
 62
     7
100
AcDbLine
 10
1158.48918508188
 20
327.2025106206586
 30
0.0
 11
1146.57273313378
 21
327.2025106206589
 31
0.0
  0
POLYLINE
  5
28C
330
1F
100
AcDbEntity
  8
LAY-10
  6
CONTINUOUS
 62
     7
100
AcDb2dPolyline
 66
     1
 10
0.0
 20
0.0
 30
0.0
 70
   128
  0
VERTEX
  5
28D
330
28C
100
AcDbEntity
  8
LAY-10
  6
CONTINUOUS
 62
     7
100
AcDbVertex
100
AcDb2dVertex
 10
1107.983523131451
 20
307.2019688572046
 30
0.0
  0
VERTEX
  5
28E
330
28C
100
AcDbEntity
  8
LAY-10
  6
CONTINUOUS
 62
     7
100
AcDbVertex
100
AcDb2dVertex
 10
1108.62249513145
 20
307.2307288572046
 30
0.0
  0
VERTEX
  5
28F
330
28C
100
AcDbEntity
  8
LAY-10
  6
CONTINUOUS
 62
     7
100
AcDbVertex
100
AcDb2dVertex
 10
1109.25446713145
 20
307.3166938572046
 30
0.0
  0
VERTEX
  5
290
330
28C
100
AcDbEntity
  8
LAY-10
  6
CONTINUOUS
 62
     7
100
AcDbVertex
100
AcDb2dVertex
 10
1109.872514131451
 20
307.4589218572045
 30
0.0
  0
VERTEX
  5
291
330
28C
100
AcDbEntity
  8
LAY-10
  6
CONTINUOUS
 62
     7
100
AcDbVertex
100
AcDb2dVertex
 10
1110.469865131451
 20
307.6558548572047
 30
0.0
  0
VERTEX
  5
292
330
28C
100
AcDbEntity
  8
LAY-10
  6
CONTINUOUS
 62
     7
100
AcDbVertex
100
AcDb2dVertex
 10
1111.039975131451
 20
307.9053358572048
 30
0.0
  0
VERTEX
  5
293
330
28C
100
AcDbEntity
  8
LAY-10
  6
CONTINUOUS
 62
     7
100
AcDbVertex
100
AcDb2dVertex
 10
1111.576598131451
 20
308.2046298572046
 30
0.0
  0
VERTEX
  5
294
330
28C
100
AcDbEntity
  8
LAY-10
  6
CONTINUOUS
 62
     7
100
AcDbVertex
100
AcDb2dVertex
 10
1112.073854131451
 20
308.5504588572047
 30
0.0
  0
VERTEX
  5
295
330
28C
100
AcDbEntity
  8
LAY-10
  6
CONTINUOUS
 62
     7
100
AcDbVertex
100
AcDb2dVertex
 10
1112.52629613145
 20
308.9390328572046
 30
0.0
  0
VERTEX
  5
296
330
28C
100
AcDbEntity
  8
LAY-10
  6
CONTINUOUS
 62
     7
100
AcDbVertex
100
AcDb2dVertex
 10
1112.928967131451
 20
309.3660958572047
 30
0.0
  0
VERTEX
  5
297
330
28C
100
AcDbEntity
  8
LAY-10
  6
CONTINUOUS
 62
     7
100
AcDbVertex
100
AcDb2dVertex
 10
1113.27745413145
 20
309.8269688572048
 30
0.0
  0
VERTEX
  5
298
330
28C
100
AcDbEntity
  8
LAY-10
  6
CONTINUOUS
 62
     7
100
AcDbVertex
100
AcDb2dVertex
 10
1113.56793913145
 20
310.3166018572046
 30
0.0
  0
VERTEX
  5
299
330
28C
100
AcDbEntity
  8
LAY-10
  6
CONTINUOUS
 62
     7
100
AcDbVertex
100
AcDb2dVertex
 10
1113.797241131451
 20
310.8296298572047
 30
0.0
  0
VERTEX
  5
29A
330
28C
100
AcDbEntity
  8
LAY-10
  6
CONTINUOUS
 62
     7
100
AcDbVertex
100
AcDb2dVertex
 10
1113.96284613145
 20
311.3604328572047
 30
0.0
  0
VERTEX
  5
29B
330
28C
100
AcDbEntity
  8
LAY-10
  6
CONTINUOUS
 62
     7
100
AcDbVertex
100
AcDb2dVertex
 10
1114.062940131451
 20
311.9031948572046
 30
0.0
  0
VERTEX
  5
29C
330
28C
100
AcDbEntity
  8
LAY-10
  6
CONTINUOUS
 62
     7
100
AcDbVertex
100
AcDb2dVertex
 10
1114.096428131451
 20
312.4519688572047
 30
0.0
  0
VERTEX
  5
29D
330
28C
100
AcDbEntity
  8
LAY-10
  6
CONTINUOUS
 62
     7
100
AcDbVertex
100
AcDb2dVertex
 10
1114.062940131451
 20
313.0007438572047
 30
0.0
  0
VERTEX
  5
29E
330
28C
100
AcDbEntity
  8
LAY-10
  6
CONTINUOUS
 62
     7
100
AcDbVertex
100
AcDb2dVertex
 10
1113.96284613145
 20
313.5435048572045
 30
0.0
  0
VERTEX
  5
29F
330
28C
100
AcDbEntity
  8
LAY-10
  6
CONTINUOUS
 62
     7
100
AcDbVertex
100
AcDb2dVertex
 10
1113.797241131451
 20
314.0743078572047
 30
0.0
  0
VERTEX
  5
2A0
330
28C
100
AcDbEntity
  8
LAY-10
  6
CONTINUOUS
 62
     7
100
AcDbVertex
100
AcDb2dVertex
 10
1113.56793913145
 20
314.5873358572046
 30
0.0
  0
VERTEX
  5
2A1
330
28C
100
AcDbEntity
  8
LAY-10
  6
CONTINUOUS
 62
     7
100
AcDbVertex
100
AcDb2dVertex
 10
1113.27745413145
 20
315.0769688572047
 30
0.0
  0
VERTEX
  5
2A2
330
28C
100
AcDbEntity
  8
LAY-10
  6
CONTINUOUS
 62
     7
100
AcDbVertex
100
AcDb2dVertex
 10
1112.928967131451
 20
315.5378418572047
 30
0.0
  0
VERTEX
  5
2A3
330
28C
100
AcDbEntity
  8
LAY-10
  6
CONTINUOUS
 62
     7
100
AcDbVertex
100
AcDb2dVertex
 10
1112.52629613145
 20
315.9649048572045
 30
0.0
  0
VERTEX
  5
2A4
330
28C
100
AcDbEntity
  8
LAY-10
  6
CONTINUOUS
 62
     7
100
AcDbVertex
100
AcDb2dVertex
 10
1112.073854131451
 20
316.3534788572046
 30
0.0
  0
VERTEX
  5
2A5
330
28C
100
AcDbEntity
  8
LAY-10
  6
CONTINUOUS
 62
     7
100
AcDbVertex
100
AcDb2dVertex
 10
1111.576598131451
 20
316.6993078572047
 30
0.0
  0
VERTEX
  5
2A6
330
28C
100
AcDbEntity
  8
LAY-10
  6
CONTINUOUS
 62
     7
100
AcDbVertex
100
AcDb2dVertex
 10
1111.039975131451
 20
316.9986018572046
 30
0.0
  0
VERTEX
  5
2A7
330
28C
100
AcDbEntity
  8
LAY-10
  6
CONTINUOUS
 62
     7
100
AcDbVertex
100
AcDb2dVertex
 10
1110.469865131451
 20
317.2480828572047
 30
0.0
  0
VERTEX
  5
2A8
330
28C
100
AcDbEntity
  8
LAY-10
  6
CONTINUOUS
 62
     7
100
AcDbVertex
100
AcDb2dVertex
 10
1109.872514131451
 20
317.4450158572046
 30
0.0
  0
VERTEX
  5
2A9
330
28C
100
AcDbEntity
  8
LAY-10
  6
CONTINUOUS
 62
     7
100
AcDbVertex
100
AcDb2dVertex
 10
1109.25446713145
 20
317.5872438572047
 30
0.0
  0
VERTEX
  5
2AA
330
28C
100
AcDbEntity
  8
LAY-10
  6
CONTINUOUS
 62
     7
100
AcDbVertex
100
AcDb2dVertex
 10
1108.62249513145
 20
317.6732088572045
 30
0.0
  0
VERTEX
  5
2AB
330
28C
100
AcDbEntity
  8
LAY-10
  6
CONTINUOUS
 62
     7
100
AcDbVertex
100
AcDb2dVertex
 10
1107.983523131451
 20
317.7019688572047
 30
0.0
  0
VERTEX
  5
2AC
330
28C
100
AcDbEntity
  8
LAY-10
  6
CONTINUOUS
 62
     7
100
AcDbVertex
100
AcDb2dVertex
 10
1107.344550131451
 20
317.6732088572045
 30
0.0
  0
VERTEX
  5
2AD
330
28C
100
AcDbEntity
  8
LAY-10
  6
CONTINUOUS
 62
     7
100
AcDbVertex
100
AcDb2dVertex
 10
1106.712578131451
 20
317.5872438572047
 30
0.0
  0
VERTEX
  5
2AE
330
28C
100
AcDbEntity
  8
LAY-10
  6
CONTINUOUS
 62
     7
100
AcDbVertex
100
AcDb2dVertex
 10
1106.094531131451
 20
317.4450158572046
 30
0.0
  0
VERTEX
  5
2AF
330
28C
100
AcDbEntity
  8
LAY-10
  6
CONTINUOUS
 62
     7
100
AcDbVertex
100
AcDb2dVertex
 10
1105.497180131451
 20
317.2480828572047
 30
0.0
  0
VERTEX
  5
2B0
330
28C
100
AcDbEntity
  8
LAY-10
  6
CONTINUOUS
 62
     7
100
AcDbVertex
100
AcDb2dVertex
 10
1104.927070131451
 20
316.9986018572046
 30
0.0
  0
VERTEX
  5
2B1
330
28C
100
AcDbEntity
  8
LAY-10
  6
CONTINUOUS
 62
     7
100
AcDbVertex
100
AcDb2dVertex
 10
1104.39044713145
 20
316.6993078572047
 30
0.0
  0
VERTEX
  5
2B2
330
28C
100
AcDbEntity
  8
LAY-10
  6
CONTINUOUS
 62
     7
100
AcDbVertex
100
AcDb2dVertex
 10
1103.893191131451
 20
316.3534788572046
 30
0.0
  0
VERTEX
  5
2B3
330
28C
100
AcDbEntity
  8
LAY-10
  6
CONTINUOUS
 62
     7
100
AcDbVertex
100
AcDb2dVertex
 10
1103.44074913145
 20
315.9649048572045
 30
0.0
  0
VERTEX
  5
2B4
330
28C
100
AcDbEntity
  8
LAY-10
  6
CONTINUOUS
 62
     7
100
AcDbVertex
100
AcDb2dVertex
 10
1103.038079131451
 20
315.5378418572047
 30
0.0
  0
VERTEX
  5
2B5
330
28C
100
AcDbEntity
  8
LAY-10
  6
CONTINUOUS
 62
     7
100
AcDbVertex
100
AcDb2dVertex
 10
1102.689592131451
 20
315.0769688572047
 30
0.0
  0
VERTEX
  5
2B6
330
28C
100
AcDbEntity
  8
LAY-10
  6
CONTINUOUS
 62
     7
100
AcDbVertex
100
AcDb2dVertex
 10
1102.399106131451
 20
314.5873358572046
 30
0.0
  0
VERTEX
  5
2B7
330
28C
100
AcDbEntity
  8
LAY-10
  6
CONTINUOUS
 62
     7
100
AcDbVertex
100
AcDb2dVertex
 10
1102.169805131451
 20
314.0743078572047
 30
0.0
  0
VERTEX
  5
2B8
330
28C
100
AcDbEntity
  8
LAY-10
  6
CONTINUOUS
 62
     7
100
AcDbVertex
100
AcDb2dVertex
 10
1102.00420013145
 20
313.5435048572045
 30
0.0
  0
VERTEX
  5
2B9
330
28C
100
AcDbEntity
  8
LAY-10
  6
CONTINUOUS
 62
     7
100
AcDbVertex
100
AcDb2dVertex
 10
1101.904105131451
 20
313.0007438572047
 30
0.0
  0
VERTEX
  5
2BA
330
28C
100
AcDbEntity
  8
LAY-10
  6
CONTINUOUS
 62
     7
100
AcDbVertex
100
AcDb2dVertex
 10
1101.870618131451
 20
312.4519688572047
 30
0.0
  0
VERTEX
  5
2BB
330
28C
100
AcDbEntity
  8
LAY-10
  6
CONTINUOUS
 62
     7
100
AcDbVertex
100
AcDb2dVertex
 10
1101.904105131451
 20
311.9031948572046
 30
0.0
  0
VERTEX
  5
2BC
330
28C
100
AcDbEntity
  8
LAY-10
  6
CONTINUOUS
 62
     7
100
AcDbVertex
100
AcDb2dVertex
 10
1102.00420013145
 20
311.3604328572047
 30
0.0
  0
VERTEX
  5
2BD
330
28C
100
AcDbEntity
  8
LAY-10
  6
CONTINUOUS
 62
     7
100
AcDbVertex
100
AcDb2dVertex
 10
1102.169805131451
 20
310.8296298572047
 30
0.0
  0
VERTEX
  5
2BE
330
28C
100
AcDbEntity
  8
LAY-10
  6
CONTINUOUS
 62
     7
100
AcDbVertex
100
AcDb2dVertex
 10
1102.399106131451
 20
310.3166018572046
 30
0.0
  0
VERTEX
  5
2BF
330
28C
100
AcDbEntity
  8
LAY-10
  6
CONTINUOUS
 62
     7
100
AcDbVertex
100
AcDb2dVertex
 10
1102.689592131451
 20
309.8269688572048
 30
0.0
  0
VERTEX
  5
2C0
330
28C
100
AcDbEntity
  8
LAY-10
  6
CONTINUOUS
 62
     7
100
AcDbVertex
100
AcDb2dVertex
 10
1103.038079131451
 20
309.3660958572047
 30
0.0
  0
VERTEX
  5
2C1
330
28C
100
AcDbEntity
  8
LAY-10
  6
CONTINUOUS
 62
     7
100
AcDbVertex
100
AcDb2dVertex
 10
1103.44074913145
 20
308.9390328572046
 30
0.0
  0
VERTEX
  5
2C2
330
28C
100
AcDbEntity
  8
LAY-10
  6
CONTINUOUS
 62
     7
100
AcDbVertex
100
AcDb2dVertex
 10
1103.893191131451
 20
308.5504588572047
 30
0.0
  0
VERTEX
  5
2C3
330
28C
100
AcDbEntity
  8
LAY-10
  6
CONTINUOUS
 62
     7
100
AcDbVertex
100
AcDb2dVertex
 10
1104.39044713145
 20
308.2046298572046
 30
0.0
  0
VERTEX
  5
2C4
330
28C
100
AcDbEntity
  8
LAY-10
  6
CONTINUOUS
 62
     7
100
AcDbVertex
100
AcDb2dVertex
 10
1104.927070131451
 20
307.9053358572048
 30
0.0
  0
VERTEX
  5
2C5
330
28C
100
AcDbEntity
  8
LAY-10
  6
CONTINUOUS
 62
     7
100
AcDbVertex
100
AcDb2dVertex
 10
1105.497180131451
 20
307.6558548572047
 30
0.0
  0
VERTEX
  5
2C6
330
28C
100
AcDbEntity
  8
LAY-10
  6
CONTINUOUS
 62
     7
100
AcDbVertex
100
AcDb2dVertex
 10
1106.094531131451
 20
307.4589218572045
 30
0.0
  0
VERTEX
  5
2C7
330
28C
100
AcDbEntity
  8
LAY-10
  6
CONTINUOUS
 62
     7
100
AcDbVertex
100
AcDb2dVertex
 10
1106.712578131451
 20
307.3166938572046
 30
0.0
  0
VERTEX
  5
2C8
330
28C
100
AcDbEntity
  8
LAY-10
  6
CONTINUOUS
 62
     7
100
AcDbVertex
100
AcDb2dVertex
 10
1107.344550131451
 20
307.2307288572046
 30
0.0
  0
SEQEND
  5
2C9
330
28C
100
AcDbEntity
  8
LAY-10
  6
CONTINUOUS
 62
     7
  0
POLYLINE
  5
2CA
330
1F
100
AcDbEntity
  8
LAY-10
  6
CONTINUOUS
 62
     7
100
AcDb2dPolyline
 66
     1
 10
0.0
 20
0.0
 30
0.0
 70
   128
  0
VERTEX
  5
2CB
330
2CA
100
AcDbEntity
  8
LAY-10
  6
CONTINUOUS
 62
     7
100
AcDbVertex
100
AcDb2dVertex
 10
1107.344550131451
 20
307.2307288572046
 30
0.0
  0
VERTEX
  5
2CC
330
2CA
100
AcDbEntity
  8
LAY-10
  6
CONTINUOUS
 62
     7
100
AcDbVertex
100
AcDb2dVertex
 10
1107.983523131451
 20
307.2019688572046
 30
0.0
  0
SEQEND
  5
2CD
330
2CA
100
AcDbEntity
  8
LAY-10
  6
CONTINUOUS
 62
     7
  0
POLYLINE
  5
2CE
330
1F
100
AcDbEntity
  8
LAY-10
  6
CONTINUOUS
 62
     7
100
AcDb2dPolyline
 66
     1
 10
0.0
 20
0.0
 30
0.0
 70
   128
  0
VERTEX
  5
2CF
330
2CE
100
AcDbEntity
  8
LAY-10
  6
CONTINUOUS
 62
     7
100
AcDbVertex
100
AcDb2dVertex
 10
431.1595094127904
 20
307.2019688572047
 30
0.0
  0
VERTEX
  5
2D0
330
2CE
100
AcDbEntity
  8
LAY-10
  6
CONTINUOUS
 62
     7
100
AcDbVertex
100
AcDb2dVertex
 10
430.5205374127906
 20
307.2307288572047
 30
0.0
  0
VERTEX
  5
2D1
330
2CE
100
AcDbEntity
  8
LAY-10
  6
CONTINUOUS
 62
     7
100
AcDbVertex
100
AcDb2dVertex
 10
429.8885654127909
 20
307.3166938572047
 30
0.0
  0
VERTEX
  5
2D2
330
2CE
100
AcDbEntity
  8
LAY-10
  6
CONTINUOUS
 62
     7
100
AcDbVertex
100
AcDb2dVertex
 10
429.2705184127901
 20
307.4589218572046
 30
0.0
  0
VERTEX
  5
2D3
330
2CE
100
AcDbEntity
  8
LAY-10
  6
CONTINUOUS
 62
     7
100
AcDbVertex
100
AcDb2dVertex
 10
428.6731674127902
 20
307.6558548572048
 30
0.0
  0
VERTEX
  5
2D4
330
2CE
100
AcDbEntity
  8
LAY-10
  6
CONTINUOUS
 62
     7
100
AcDbVertex
100
AcDb2dVertex
 10
428.1030574127901
 20
307.9053358572049
 30
0.0
  0
VERTEX
  5
2D5
330
2CE
100
AcDbEntity
  8
LAY-10
  6
CONTINUOUS
 62
     7
100
AcDbVertex
100
AcDb2dVertex
 10
427.5664344127906
 20
308.2046298572047
 30
0.0
  0
VERTEX
  5
2D6
330
2CE
100
AcDbEntity
  8
LAY-10
  6
CONTINUOUS
 62
     7
100
AcDbVertex
100
AcDb2dVertex
 10
427.0691784127905
 20
308.5504588572048
 30
0.0
  0
VERTEX
  5
2D7
330
2CE
100
AcDbEntity
  8
LAY-10
  6
CONTINUOUS
 62
     7
100
AcDbVertex
100
AcDb2dVertex
 10
426.6167364127907
 20
308.9390328572047
 30
0.0
  0
VERTEX
  5
2D8
330
2CE
100
AcDbEntity
  8
LAY-10
  6
CONTINUOUS
 62
     7
100
AcDbVertex
100
AcDb2dVertex
 10
426.2140654127904
 20
309.3660958572048
 30
0.0
  0
VERTEX
  5
2D9
330
2CE
100
AcDbEntity
  8
LAY-10
  6
CONTINUOUS
 62
     7
100
AcDbVertex
100
AcDb2dVertex
 10
425.8655784127907
 20
309.8269688572049
 30
0.0
  0
VERTEX
  5
2DA
330
2CE
100
AcDbEntity
  8
LAY-10
  6
CONTINUOUS
 62
     7
100
AcDbVertex
100
AcDb2dVertex
 10
425.5750934127906
 20
310.3166018572047
 30
0.0
  0
VERTEX
  5
2DB
330
2CE
100
AcDbEntity
  8
LAY-10
  6
CONTINUOUS
 62
     7
100
AcDbVertex
100
AcDb2dVertex
 10
425.3457914127904
 20
310.8296298572048
 30
0.0
  0
VERTEX
  5
2DC
330
2CE
100
AcDbEntity
  8
LAY-10
  6
CONTINUOUS
 62
     7
100
AcDbVertex
100
AcDb2dVertex
 10
425.1801864127908
 20
311.3604328572048
 30
0.0
  0
VERTEX
  5
2DD
330
2CE
100
AcDbEntity
  8
LAY-10
  6
CONTINUOUS
 62
     7
100
AcDbVertex
100
AcDb2dVertex
 10
425.08009241279
 20
311.9031948572047
 30
0.0
  0
VERTEX
  5
2DE
330
2CE
100
AcDbEntity
  8
LAY-10
  6
CONTINUOUS
 62
     7
100
AcDbVertex
100
AcDb2dVertex
 10
425.0466044127904
 20
312.4519688572048
 30
0.0
  0
VERTEX
  5
2DF
330
2CE
100
AcDbEntity
  8
LAY-10
  6
CONTINUOUS
 62
     7
100
AcDbVertex
100
AcDb2dVertex
 10
425.08009241279
 20
313.0007438572048
 30
0.0
  0
VERTEX
  5
2E0
330
2CE
100
AcDbEntity
  8
LAY-10
  6
CONTINUOUS
 62
     7
100
AcDbVertex
100
AcDb2dVertex
 10
425.1801864127908
 20
313.5435048572046
 30
0.0
  0
VERTEX
  5
2E1
330
2CE
100
AcDbEntity
  8
LAY-10
  6
CONTINUOUS
 62
     7
100
AcDbVertex
100
AcDb2dVertex
 10
425.3457914127904
 20
314.0743078572048
 30
0.0
  0
VERTEX
  5
2E2
330
2CE
100
AcDbEntity
  8
LAY-10
  6
CONTINUOUS
 62
     7
100
AcDbVertex
100
AcDb2dVertex
 10
425.5750934127906
 20
314.5873358572047
 30
0.0
  0
VERTEX
  5
2E3
330
2CE
100
AcDbEntity
  8
LAY-10
  6
CONTINUOUS
 62
     7
100
AcDbVertex
100
AcDb2dVertex
 10
425.8655784127907
 20
315.0769688572048
 30
0.0
  0
VERTEX
  5
2E4
330
2CE
100
AcDbEntity
  8
LAY-10
  6
CONTINUOUS
 62
     7
100
AcDbVertex
100
AcDb2dVertex
 10
426.2140654127904
 20
315.5378418572048
 30
0.0
  0
VERTEX
  5
2E5
330
2CE
100
AcDbEntity
  8
LAY-10
  6
CONTINUOUS
 62
     7
100
AcDbVertex
100
AcDb2dVertex
 10
426.6167364127907
 20
315.9649048572047
 30
0.0
  0
VERTEX
  5
2E6
330
2CE
100
AcDbEntity
  8
LAY-10
  6
CONTINUOUS
 62
     7
100
AcDbVertex
100
AcDb2dVertex
 10
427.0691784127905
 20
316.3534788572047
 30
0.0
  0
VERTEX
  5
2E7
330
2CE
100
AcDbEntity
  8
LAY-10
  6
CONTINUOUS
 62
     7
100
AcDbVertex
100
AcDb2dVertex
 10
427.5664344127906
 20
316.6993078572048
 30
0.0
  0
VERTEX
  5
2E8
330
2CE
100
AcDbEntity
  8
LAY-10
  6
CONTINUOUS
 62
     7
100
AcDbVertex
100
AcDb2dVertex
 10
428.1030574127901
 20
316.9986018572047
 30
0.0
  0
VERTEX
  5
2E9
330
2CE
100
AcDbEntity
  8
LAY-10
  6
CONTINUOUS
 62
     7
100
AcDbVertex
100
AcDb2dVertex
 10
428.6731674127902
 20
317.2480828572048
 30
0.0
  0
VERTEX
  5
2EA
330
2CE
100
AcDbEntity
  8
LAY-10
  6
CONTINUOUS
 62
     7
100
AcDbVertex
100
AcDb2dVertex
 10
429.2705184127901
 20
317.4450158572047
 30
0.0
  0
VERTEX
  5
2EB
330
2CE
100
AcDbEntity
  8
LAY-10
  6
CONTINUOUS
 62
     7
100
AcDbVertex
100
AcDb2dVertex
 10
429.8885654127909
 20
317.5872438572048
 30
0.0
  0
VERTEX
  5
2EC
330
2CE
100
AcDbEntity
  8
LAY-10
  6
CONTINUOUS
 62
     7
100
AcDbVertex
100
AcDb2dVertex
 10
430.5205374127906
 20
317.6732088572047
 30
0.0
  0
VERTEX
  5
2ED
330
2CE
100
AcDbEntity
  8
LAY-10
  6
CONTINUOUS
 62
     7
100
AcDbVertex
100
AcDb2dVertex
 10
431.1595094127904
 20
317.7019688572048
 30
0.0
  0
VERTEX
  5
2EE
330
2CE
100
AcDbEntity
  8
LAY-10
  6
CONTINUOUS
 62
     7
100
AcDbVertex
100
AcDb2dVertex
 10
431.7984824127904
 20
317.6732088572047
 30
0.0
  0
VERTEX
  5
2EF
330
2CE
100
AcDbEntity
  8
LAY-10
  6
CONTINUOUS
 62
     7
100
AcDbVertex
100
AcDb2dVertex
 10
432.4304544127906
 20
317.5872438572048
 30
0.0
  0
VERTEX
  5
2F0
330
2CE
100
AcDbEntity
  8
LAY-10
  6
CONTINUOUS
 62
     7
100
AcDbVertex
100
AcDb2dVertex
 10
433.0485014127901
 20
317.4450158572047
 30
0.0
  0
VERTEX
  5
2F1
330
2CE
100
AcDbEntity
  8
LAY-10
  6
CONTINUOUS
 62
     7
100
AcDbVertex
100
AcDb2dVertex
 10
433.6458524127904
 20
317.2480828572048
 30
0.0
  0
VERTEX
  5
2F2
330
2CE
100
AcDbEntity
  8
LAY-10
  6
CONTINUOUS
 62
     7
100
AcDbVertex
100
AcDb2dVertex
 10
434.2159624127901
 20
316.9986018572047
 30
0.0
  0
VERTEX
  5
2F3
330
2CE
100
AcDbEntity
  8
LAY-10
  6
CONTINUOUS
 62
     7
100
AcDbVertex
100
AcDb2dVertex
 10
434.7525854127909
 20
316.6993078572048
 30
0.0
  0
VERTEX
  5
2F4
330
2CE
100
AcDbEntity
  8
LAY-10
  6
CONTINUOUS
 62
     7
100
AcDbVertex
100
AcDb2dVertex
 10
435.2498414127906
 20
316.3534788572047
 30
0.0
  0
VERTEX
  5
2F5
330
2CE
100
AcDbEntity
  8
LAY-10
  6
CONTINUOUS
 62
     7
100
AcDbVertex
100
AcDb2dVertex
 10
435.7022834127908
 20
315.9649048572047
 30
0.0
  0
VERTEX
  5
2F6
330
2CE
100
AcDbEntity
  8
LAY-10
  6
CONTINUOUS
 62
     7
100
AcDbVertex
100
AcDb2dVertex
 10
436.1049534127903
 20
315.5378418572048
 30
0.0
  0
VERTEX
  5
2F7
330
2CE
100
AcDbEntity
  8
LAY-10
  6
CONTINUOUS
 62
     7
100
AcDbVertex
100
AcDb2dVertex
 10
436.4534404127905
 20
315.0769688572048
 30
0.0
  0
VERTEX
  5
2F8
330
2CE
100
AcDbEntity
  8
LAY-10
  6
CONTINUOUS
 62
     7
100
AcDbVertex
100
AcDb2dVertex
 10
436.7439264127904
 20
314.5873358572047
 30
0.0
  0
VERTEX
  5
2F9
330
2CE
100
AcDbEntity
  8
LAY-10
  6
CONTINUOUS
 62
     7
100
AcDbVertex
100
AcDb2dVertex
 10
436.9732274127903
 20
314.0743078572048
 30
0.0
  0
VERTEX
  5
2FA
330
2CE
100
AcDbEntity
  8
LAY-10
  6
CONTINUOUS
 62
     7
100
AcDbVertex
100
AcDb2dVertex
 10
437.1388324127908
 20
313.5435048572046
 30
0.0
  0
VERTEX
  5
2FB
330
2CE
100
AcDbEntity
  8
LAY-10
  6
CONTINUOUS
 62
     7
100
AcDbVertex
100
AcDb2dVertex
 10
437.2389274127901
 20
313.0007438572048
 30
0.0
  0
VERTEX
  5
2FC
330
2CE
100
AcDbEntity
  8
LAY-10
  6
CONTINUOUS
 62
     7
100
AcDbVertex
100
AcDb2dVertex
 10
437.2724144127903
 20
312.4519688572048
 30
0.0
  0
VERTEX
  5
2FD
330
2CE
100
AcDbEntity
  8
LAY-10
  6
CONTINUOUS
 62
     7
100
AcDbVertex
100
AcDb2dVertex
 10
437.2389274127901
 20
311.9031948572047
 30
0.0
  0
VERTEX
  5
2FE
330
2CE
100
AcDbEntity
  8
LAY-10
  6
CONTINUOUS
 62
     7
100
AcDbVertex
100
AcDb2dVertex
 10
437.1388324127908
 20
311.3604328572048
 30
0.0
  0
VERTEX
  5
2FF
330
2CE
100
AcDbEntity
  8
LAY-10
  6
CONTINUOUS
 62
     7
100
AcDbVertex
100
AcDb2dVertex
 10
436.9732274127903
 20
310.8296298572048
 30
0.0
  0
VERTEX
  5
300
330
2CE
100
AcDbEntity
  8
LAY-10
  6
CONTINUOUS
 62
     7
100
AcDbVertex
100
AcDb2dVertex
 10
436.7439264127904
 20
310.3166018572047
 30
0.0
  0
VERTEX
  5
301
330
2CE
100
AcDbEntity
  8
LAY-10
  6
CONTINUOUS
 62
     7
100
AcDbVertex
100
AcDb2dVertex
 10
436.4534404127905
 20
309.8269688572049
 30
0.0
  0
VERTEX
  5
302
330
2CE
100
AcDbEntity
  8
LAY-10
  6
CONTINUOUS
 62
     7
100
AcDbVertex
100
AcDb2dVertex
 10
436.1049534127903
 20
309.3660958572048
 30
0.0
  0
VERTEX
  5
303
330
2CE
100
AcDbEntity
  8
LAY-10
  6
CONTINUOUS
 62
     7
100
AcDbVertex
100
AcDb2dVertex
 10
435.7022834127908
 20
308.9390328572047
 30
0.0
  0
VERTEX
  5
304
330
2CE
100
AcDbEntity
  8
LAY-10
  6
CONTINUOUS
 62
     7
100
AcDbVertex
100
AcDb2dVertex
 10
435.2498414127906
 20
308.5504588572048
 30
0.0
  0
VERTEX
  5
305
330
2CE
100
AcDbEntity
  8
LAY-10
  6
CONTINUOUS
 62
     7
100
AcDbVertex
100
AcDb2dVertex
 10
434.7525854127909
 20
308.2046298572047
 30
0.0
  0
VERTEX
  5
306
330
2CE
100
AcDbEntity
  8
LAY-10
  6
CONTINUOUS
 62
     7
100
AcDbVertex
100
AcDb2dVertex
 10
434.2159624127901
 20
307.9053358572049
 30
0.0
  0
VERTEX
  5
307
330
2CE
100
AcDbEntity
  8
LAY-10
  6
CONTINUOUS
 62
     7
100
AcDbVertex
100
AcDb2dVertex
 10
433.6458524127904
 20
307.6558548572048
 30
0.0
  0
VERTEX
  5
308
330
2CE
100
AcDbEntity
  8
LAY-10
  6
CONTINUOUS
 62
     7
100
AcDbVertex
100
AcDb2dVertex
 10
433.0485014127901
 20
307.4589218572046
 30
0.0
  0
VERTEX
  5
309
330
2CE
100
AcDbEntity
  8
LAY-10
  6
CONTINUOUS
 62
     7
100
AcDbVertex
100
AcDb2dVertex
 10
432.4304544127906
 20
307.3166938572047
 30
0.0
  0
VERTEX
  5
30A
330
2CE
100
AcDbEntity
  8
LAY-10
  6
CONTINUOUS
 62
     7
100
AcDbVertex
100
AcDb2dVertex
 10
431.7984824127904
 20
307.2307288572047
 30
0.0
  0
SEQEND
  5
30B
330
2CE
100
AcDbEntity
  8
LAY-10
  6
CONTINUOUS
 62
     7
  0
LINE
  5
30C
330
1F
100
AcDbEntity
  8
LAY-10
  6
CONTINUOUS
 62
     7
100
AcDbLine
 10
373.571516271991
 20
358.2025106206627
 30
0.0
 11
372.5035393924043
 21
327.6196541965633
 31
0.0
  0
LINE
  5
30D
330
1F
100
AcDbEntity
  8
LAY-10
  6
CONTINUOUS
 62
     7
100
AcDbLine
 10
1148.57151627298
 20
327.2723096141041
 30
0.0
 11
1148.57151627298
 21
327.2025106206589
 31
0.0
  0
LINE
  5
30E
330
1F
100
AcDbEntity
  8
LAY-10
  6
CONTINUOUS
 62
     7
100
AcDbLine
 10
1139.56907883708
 20
330.2723096141088
 30
0.0
 11
1139.57151627164
 21
330.2025106206832
 31
0.0
  0
LINE
  5
30F
330
1F
100
AcDbEntity
  8
LAY-10
  6
CONTINUOUS
 62
     7
100
AcDbLine
 10
1121.571516271677
 20
301.2025106206683
 30
0.0
 11
1121.571516271677
 21
314.2025106206683
 31
0.0
  0
LINE
  5
310
330
1F
100
AcDbEntity
  8
LAY-10
  6
CONTINUOUS
 62
     7
100
AcDbLine
 10
1132.571516271676
 20
300.2025106206683
 30
0.0
 11
1133.571516271676
 21
301.2025106206683
 31
0.0
  0
LINE
  5
311
330
1F
100
AcDbEntity
  8
LAY-10
  6
CONTINUOUS
 62
     7
100
AcDbLine
 10
1121.571516271676
 20
301.2025106206683
 30
0.0
 11
1122.571516271676
 21
300.2025106206683
 31
0.0
  0
LINE
  5
312
330
1F
100
AcDbEntity
  8
LAY-10
  6
CONTINUOUS
 62
     7
100
AcDbLine
 10
1122.571516271676
 20
300.2025106206683
 30
0.0
 11
1132.571516271676
 21
300.2025106206683
 31
0.0
  0
LINE
  5
313
330
1F
100
AcDbEntity
  8
LAY-10
  6
CONTINUOUS
 62
     7
100
AcDbLine
 10
1121.571516271676
 20
301.2025106206683
 30
0.0
 11
1133.571516271676
 21
301.2025106206683
 31
0.0
  0
LINE
  5
314
330
1F
100
AcDbEntity
  8
LAY-10
  6
CONTINUOUS
 62
     7
100
AcDbLine
 10
1133.571516271676
 20
301.2025106206683
 30
0.0
 11
1133.571516271676
 21
314.2025106206683
 31
0.0
  0
LINE
  5
315
330
1F
100
AcDbEntity
  8
LAY-10
  6
CONTINUOUS
 62
     7
100
AcDbLine
 10
1135.077069771147
 20
320.2025106206738
 30
0.0
 11
1135.077069771147
 21
314.2025106206738
 31
0.0
  0
LINE
  5
316
330
1F
100
AcDbEntity
  8
LAY-10
  6
CONTINUOUS
 62
     7
100
AcDbLine
 10
1131.324293021406
 20
320.2025106206738
 30
0.0
 11
1131.324293021406
 21
314.2025106206738
 31
0.0
  0
LINE
  5
317
330
1F
100
AcDbEntity
  8
LAY-10
  6
CONTINUOUS
 62
     7
100
AcDbLine
 10
1120.065962772207
 20
320.2025106206738
 30
0.0
 11
1120.065962772207
 21
314.2025106206738
 31
0.0
  0
LINE
  5
318
330
1F
100
AcDbEntity
  8
LAY-10
  6
CONTINUOUS
 62
     7
100
AcDbLine
 10
1123.818739521946
 20
320.2025106206738
 30
0.0
 11
1123.818739521946
 21
314.2025106206738
 31
0.0
  0
LINE
  5
319
330
1F
100
AcDbEntity
  8
LAY-10
  6
CONTINUOUS
 62
     7
100
AcDbLine
 10
1120.065962772207
 20
320.2025106206738
 30
0.0
 11
1135.077069771147
 21
320.2025106206738
 31
0.0
  0
LINE
  5
31A
330
1F
100
AcDbEntity
  8
LAY-10
  6
CONTINUOUS
 62
     7
100
AcDbLine
 10
1133.571516271676
 20
335.2025106206901
 30
0.0
 11
1133.571516271676
 21
320.2025106206738
 31
0.0
  0
LINE
  5
31B
330
1F
100
AcDbEntity
  8
LAY-10
  6
CONTINUOUS
 62
     7
100
AcDbLine
 10
1121.571516271677
 20
335.2025106206901
 30
0.0
 11
1121.571516271677
 21
320.2025106206738
 31
0.0
  0
LINE
  5
31C
330
1F
100
AcDbEntity
  8
LAY-10
  6
CONTINUOUS
 62
     7
100
AcDbLine
 10
1122.571516271641
 20
300.202510620703
 30
0.0
 11
1132.57151627171
 21
300.202510620703
 31
0.0
  0
ARC
  5
31D
330
1F
100
AcDbEntity
  8
LAY-10
  6
CONTINUOUS
 62
     7
100
AcDbCircle
 10
1118.721936913169
 20
314.2025106206743
 30
0.0
 40
2.0
100
AcDbArc
 50
47.77738559163049
 51
90.00000000000004
  0
LINE
  5
31E
330
1F
100
AcDbEntity
  8
LAY-10
  6
CONTINUOUS
 62
     7
100
AcDbLine
 10
1122.571516271721
 20
300.202510620703
 30
0.0
 11
1122.571516271721
 21
296.2025106207442
 31
0.0
  0
LINE
  5
31F
330
1F
100
AcDbEntity
  8
LAY-10
  6
CONTINUOUS
 62
     7
100
AcDbLine
 10
1132.571516271721
 20
300.202510620703
 30
0.0
 11
1132.571516271721
 21
296.2025106207442
 31
0.0
  0
LINE
  5
320
330
1F
100
AcDbEntity
  8
LAY-10
  6
CONTINUOUS
 62
     7
100
AcDbLine
 10
1139.569078838411
 20
334.2723096140795
 30
0.0
 11
1139.571516272971
 21
334.2025106206539
 31
0.0
  0
LINE
  5
321
330
1F
100
AcDbEntity
  8
LAY-10
  6
CONTINUOUS
 62
     7
100
AcDbLine
 10
1114.571516271677
 20
335.2025106206862
 30
0.0
 11
1114.571516271677
 21
337.7025106206862
 31
0.0
  0
ARC
  5
322
330
1F
100
AcDbEntity
  8
LAY-10
  6
CONTINUOUS
 62
     7
100
AcDbCircle
 10
1119.344274935736
 20
341.4351809181613
 30
0.0
 40
3.73290897830259
100
AcDbArc
 50
222.7216217368134
 51
317.2783782631868
  0
LINE
  5
323
330
1F
100
AcDbEntity
  8
LAY-10
  6
CONTINUOUS
 62
     7
100
AcDbLine
 10
1116.601861157086
 20
338.9026375114341
 30
0.0
 11
1116.601861157086
 21
346.5026375114344
 31
0.0
  0
LINE
  5
324
330
1F
100
AcDbEntity
  8
LAY-10
  6
CONTINUOUS
 62
     7
100
AcDbLine
 10
1122.086688714386
 20
338.9026375114341
 30
0.0
 11
1122.086688714386
 21
346.5026375114335
 31
0.0
  0
ARC
  5
325
330
1F
100
AcDbEntity
  8
LAY-10
  6
CONTINUOUS
 62
     7
100
AcDbCircle
 10
1119.344274935736
 20
343.9700941047054
 30
0.0
 40
3.73290897830259
100
AcDbArc
 50
42.72162173681333
 51
137.2783782631867
  0
ARC
  5
326
330
1F
100
AcDbEntity
  8
LAY-10
  6
CONTINUOUS
 62
     7
100
AcDbCircle
 10
1127.513781244766
 20
339.9041505649862
 30
0.0
 40
11.29723214285722
100
AcDbArc
 50
43.64511928788345
 51
136.3548807121166
  0
LINE
  5
327
330
1F
100
AcDbEntity
  8
LAY-10
  6
CONTINUOUS
 62
     7
100
AcDbLine
 10
1119.396516271686
 20
347.7026375114334
 30
0.0
 11
1135.746516271686
 21
347.7026375114334
 31
0.0
  0
ARC
  5
328
330
1F
100
AcDbEntity
  8
LAY-10
  6
CONTINUOUS
 62
     7
100
AcDbCircle
 10
1127.571516271686
 20
334.5679152892176
 30
0.0
 40
13.13472222221601
100
AcDbArc
 50
65.31795798749285
 51
114.6820420125075
  0
ARC
  5
329
330
1F
100
AcDbEntity
  8
LAY-10
  6
CONTINUOUS
 62
     7
100
AcDbCircle
 10
1135.798757607635
 20
343.9700941047054
 30
0.0
 40
3.73290897830259
100
AcDbArc
 50
42.72162173681333
 51
137.2783782631867
  0
LINE
  5
32A
330
1F
100
AcDbEntity
  8
LAY-10
  6
CONTINUOUS
 62
     7
100
AcDbLine
 10
1133.056343828986
 20
338.9026375114341
 30
0.0
 11
1133.056343828986
 21
346.5026375114335
 31
0.0
  0
ARC
  5
32B
330
1F
100
AcDbEntity
  8
LAY-10
  6
CONTINUOUS
 62
     7
100
AcDbCircle
 10
1127.571516271686
 20
350.8373597336491
 30
0.0
 40
13.13472222221601
100
AcDbArc
 50
245.3179579874927
 51
294.6820420125072
  0
ARC
  5
32C
330
1F
100
AcDbEntity
  8
LAY-10
  6
CONTINUOUS
 62
     7
100
AcDbCircle
 10
1135.798757607635
 20
341.4351809181613
 30
0.0
 40
3.73290897830259
100
AcDbArc
 50
222.7216217368134
 51
317.2783782631868
  0
LINE
  5
32D
330
1F
100
AcDbEntity
  8
LAY-10
  6
CONTINUOUS
 62
     7
100
AcDbLine
 10
1138.541171386286
 20
338.9026375114341
 30
0.0
 11
1138.541171386286
 21
346.5026375114344
 31
0.0
  0
LINE
  5
32E
330
1F
100
AcDbEntity
  8
LAY-10
  6
CONTINUOUS
 62
     7
100
AcDbLine
 10
1140.571516271677
 20
335.2025106206862
 30
0.0
 11
1140.571516271677
 21
337.7025106206862
 31
0.0
  0
LINE
  5
32F
330
1F
100
AcDbEntity
  8
LAY-10
  6
CONTINUOUS
 62
     7
100
AcDbLine
 10
1114.571516271676
 20
337.7026375114334
 30
0.0
 11
1140.571516271676
 21
337.7026375114334
 31
0.0
  0
LINE
  5
330
330
1F
100
AcDbEntity
  8
LAY-10
  6
CONTINUOUS
 62
     7
100
AcDbLine
 10
1116.387590433887
 20
329.2025106206941
 30
0.0
 11
1121.571516271677
 21
329.2025106206941
 31
0.0
  0
LINE
  5
331
330
1F
100
AcDbEntity
  8
LAY-10
  6
CONTINUOUS
 62
     7
100
AcDbLine
 10
1133.571516271676
 20
329.2025106206941
 30
0.0
 11
1146.572734618987
 21
329.2025106206941
 31
0.0
  0
ARC
  5
332
330
1F
100
AcDbEntity
  8
LAY-10
  6
CONTINUOUS
 62
     7
100
AcDbCircle
 10
1117.738853923839
 20
293.2025106206802
 30
0.0
 40
2.0
100
AcDbArc
 50
4.999999999999457
 51
90.00000000000004
  0
LINE
  5
333
330
1F
100
AcDbEntity
  8
LAY-10
  6
CONTINUOUS
 62
     7
100
AcDbLine
 10
1120.183936916555
 20
288.2025106206767
 30
0.0
 11
1119.731243320022
 21
293.3768221061752
 31
0.0
  0
ARC
  5
334
330
1F
100
AcDbEntity
  8
LAY-10
  6
CONTINUOUS
 62
     7
100
AcDbCircle
 10
421.4041786204011
 20
293.2025106206803
 30
0.0
 40
2.0
100
AcDbArc
 50
90.00000000000004
 51
175.0
  0
LINE
  5
335
330
1F
100
AcDbEntity
  8
LAY-10
  6
CONTINUOUS
 62
     7
100
AcDbLine
 10
418.9590956276847
 20
288.2025106206768
 30
0.0
 11
419.4117892242179
 21
293.3768221061753
 31
0.0
  0
LINE
  5
336
330
1F
100
AcDbEntity
  8
LAY-10
  6
CONTINUOUS
 62
     7
100
AcDbLine
 10
1117.7388539238
 20
295.2025106206744
 30
0.0
 11
421.4041786203999
 21
295.2025106206744
 31
0.0
  0
LINE
  5
337
330
1F
100
AcDbEntity
  8
LAY-10
  6
CONTINUOUS
 62
     7
100
AcDbLine
 10
326.57151627241
 20
288.2025106206843
 30
0.0
 11
1212.57151627178
 21
288.2025106206844
 31
0.0
  0
TEXT
  5
338
330
1F
100
AcDbEntity
  8
LAY-10
  6
CONTINUOUS
 62
     7
100
AcDbText
 10
755.1681126745718
 20
1412.715169107276
 30
0.0
 40
11.22519788604927
  1
Ａ
 50
360.0
 41
1.2
  7
EXCADSTD
100
AcDbText
  0
ARC
  5
339
330
1F
100
AcDbEntity
  8
LAY-10
  6
CENTER
 62
     2
100
AcDbCircle
 10
764.2682154132401
 20
1065.932202451414
 30
0.0
 40
407.5000000000003
100
AcDbArc
 50
132.5671384952156
 51
137.7405533340629
  0
LINE
  5
33A
330
1F
100
AcDbEntity
  8
LAY-10
  6
CENTER
 62
     2
100
AcDbLine
 10
486.0029885039395
 20
1344.197429360714
 30
0.0
 11
463.7529885039396
 21
1366.447429360714
 31
0.0
  0
ARC
  5
33B
330
1F
100
AcDbEntity
  8
LAY-10
  6
CENTER
 62
     2
100
AcDbCircle
 10
774.874817131
 20
1055.325600733655
 30
0.0
 40
407.5000000000003
100
AcDbArc
 50
312.9619386049843
 51
317.075967308584
  0
ARC
  5
33C
330
1F
100
AcDbEntity
  8
LAY-10
  6
CENTER
 62
     2
100
AcDbCircle
 10
764.2682154132401
 20
1055.325600733655
 30
0.0
 40
407.5000000000003
100
AcDbArc
 50
222.7450447970905
 51
227.0807348477686
  0
LINE
  5
33D
330
1F
100
AcDbEntity
  8
LAY-10
  6
CENTER
 62
     2
100
AcDbLine
 10
486.0029885039395
 20
777.0603738243544
 30
0.0
 11
465.4651655768196
 21
756.5225508972344
 31
0.0
  0
LINE
  5
33E
330
1F
100
AcDbEntity
  8
LAY-10
  6
CENTER
 62
     2
100
AcDbLine
 10
1052.33877460498
 20
777.8616432596743
 30
0.0
 11
1073.938774604981
 21
756.2616432596747
 31
0.0
  0
ARC
  5
33F
330
1F
100
AcDbEntity
  8
LAY-10
  6
CENTER
 62
     2
100
AcDbCircle
 10
774.874817131
 20
1065.932202451414
 30
0.0
 40
407.5000000000003
100
AcDbArc
 50
42.81107929267673
 51
47.16597398216508
  0
LINE
  5
340
330
1F
100
AcDbEntity
  8
LAY-10
  6
CENTER
 62
     2
100
AcDbLine
 10
1053.140044040301
 20
1344.197429360715
 30
0.0
 11
1073.71516557682
 21
1364.772550897234
 31
0.0
  0
LINE
  5
341
330
1F
100
AcDbEntity
  8
LAY-10
  6
CENTER
 62
     2
100
AcDbLine
 10
769.5715162721201
 20
1523.155292564374
 30
0.0
 11
769.5715162721201
 21
591.1552925643741
 31
0.0
  0
LINE
  5
342
330
1F
100
AcDbEntity
  8
LAY-10
  6
CENTER
 62
     2
100
AcDbLine
 10
310.0324239096801
 20
1060.628901592534
 30
0.0
 11
1236.53242390968
 21
1060.628901592534
 31
0.0
  0
ARC
  5
343
330
1F
100
AcDbEntity
  8
LAY-10
  6
CENTER
 62
     2
100
AcDbCircle
 10
769.0341249920268
 20
1060.091510312431
 30
0.0
 40
358.7599860362
100
AcDbArc
 50
41.26986689914146
 51
48.73013310086046
  0
LINE
  5
344
330
1F
100
AcDbEntity
  8
LAY-10
  6
CENTER
 62
     2
100
AcDbLine
 10
1006.203199563752
 20
1297.260584884157
 30
0.0
 11
1042.551383324887
 21
1333.608768645291
 31
0.0
  0
ARC
  5
345
330
1F
100
AcDbEntity
  8
LAY-10
  6
CENTER
 62
     2
100
AcDbCircle
 10
770.1089075522065
 20
1060.091510312431
 30
0.0
 40
358.7599860362
100
AcDbArc
 50
131.2698668991395
 51
138.7301331008586
  0
LINE
  5
346
330
1F
100
AcDbEntity
  8
LAY-10
  6
CENTER
 62
     2
100
AcDbLine
 10
532.9398329804815
 20
1297.260584884157
 30
0.0
 11
496.5916492193462
 21
1333.608768645291
 31
0.0
  0
ARC
  5
347
330
1F
100
AcDbEntity
  8
LAY-10
  6
CENTER
 62
     2
100
AcDbCircle
 10
770.1089075522065
 20
1061.166292872631
 30
0.0
 40
358.7599860362
100
AcDbArc
 50
221.2698668991415
 51
228.7301331008605
  0
LINE
  5
348
330
1F
100
AcDbEntity
  8
LAY-10
  6
CENTER
 62
     2
100
AcDbLine
 10
532.9398329804815
 20
823.9972183009054
 30
0.0
 11
496.5916492193466
 21
787.6490345397705
 31
0.0
  0
ARC
  5
349
330
1F
100
AcDbEntity
  8
LAY-10
  6
CENTER
 62
     2
100
AcDbCircle
 10
769.0341249920268
 20
1061.166292872631
 30
0.0
 40
358.7599860362
100
AcDbArc
 50
311.2698668991396
 51
318.7301331008586
  0
LINE
  5
34A
330
1F
100
AcDbEntity
  8
LAY-10
  6
CENTER
 62
     2
100
AcDbLine
 10
1006.203199563752
 20
823.9972183009055
 30
0.0
 11
1042.551383324887
 21
787.6490345397708
 31
0.0
  0
LINE
  5
34B
330
1F
100
AcDbEntity
  8
LAY-10
  6
CENTER
 62
     2
100
AcDbLine
 10
981.2792865594421
 20
890.4990100391406
 30
0.0
 11
941.9641495254702
 21
851.1838730051686
 31
0.0
  0
LINE
  5
34C
330
1F
100
AcDbEntity
  8
LAY-10
  6
CENTER
 62
     2
100
AcDbLine
 10
933.6202895074749
 20
896.5801283572632
 30
0.0
 11
987.3604048776526
 21
842.8400129870852
 31
0.0
  0
LINE
  5
34D
330
1F
100
AcDbEntity
  8
LAY-10
  6
CENTER
 62
     2
100
AcDbLine
 10
557.8637459849031
 20
890.4990100390994
 30
0.0
 11
597.178883018875
 21
851.1838730051273
 31
0.0
  0
LINE
  5
34E
330
1F
100
AcDbEntity
  8
LAY-10
  6
CENTER
 62
     2
100
AcDbLine
 10
605.5227430368088
 20
896.5801283572227
 30
0.0
 11
551.7826276666312
 21
842.8400129870449
 31
0.0
  0
LINE
  5
34F
330
1F
100
AcDbEntity
  8
LAY-10
  6
CENTER
 62
     2
100
AcDbLine
 10
557.8637459848621
 20
1230.758793146091
 30
0.0
 11
597.1788830188341
 21
1270.073930180062
 31
0.0
  0
LINE
  5
350
330
1F
100
AcDbEntity
  8
LAY-10
  6
CENTER
 62
     2
100
AcDbLine
 10
605.5227430367688
 20
1224.677674827879
 30
0.0
 11
551.7826276665912
 21
1278.417790198057
 31
0.0
  0
LINE
  5
351
330
1F
100
AcDbEntity
  8
LAY-10
  6
CENTER
 62
     2
100
AcDbLine
 10
981.2792865593711
 20
1230.75879314609
 30
0.0
 11
941.9641495253993
 21
1270.073930180062
 31
0.0
  0
LINE
  5
352
330
1F
100
AcDbEntity
  8
LAY-10
  6
CENTER
 62
     2
100
AcDbLine
 10
930.6720213355003
 20
1221.729406655974
 30
0.0
 11
991.4220213355
 21
1282.479406655974
 31
0.0
  0
LINE
  5
353
330
1F
100
AcDbEntity
  8
LAY-10
  6
CENTER
 62
     2
100
AcDbLine
 10
1184.571516272091
 20
302.600408572174
 30
0.0
 11
1184.571516272091
 21
280.8552925643743
 31
0.0
  0
LINE
  5
354
330
1F
100
AcDbEntity
  8
LAY-10
  6
CENTER
 62
     2
100
AcDbLine
 10
769.5715162721201
 20
374.6552925643744
 30
0.0
 11
769.5715162721201
 21
275.6552925643743
 31
0.0
  0
LINE
  5
355
330
1F
100
AcDbEntity
  8
LAY-10
  6
CENTER
 62
     2
100
AcDbLine
 10
1127.571516271721
 20
291.9552925643742
 30
0.0
 11
1127.571516271721
 21
317.9552925643742
 31
0.0
  0
LINE
  5
356
330
1F
100
AcDbEntity
  8
LAY-10
  6
PHANTOM
 62
     7
100
AcDbLine
 10
1101.351981989432
 20
359.166286111662
 30
0.0
 11
1100.556409980529
 21
356.1971709535201
 31
0.0
  0
LINE
  5
357
330
1F
100
AcDbEntity
  8
LAY-10
  6
PHANTOM
 62
     7
100
AcDbLine
 10
1078.102211166339
 20
356.5891104517453
 30
0.0
 11
1077.571516273426
 21
359.5988307496896
 31
0.0
  0
LINE
  5
358
330
1F
100
AcDbEntity
  8
LAY-10
  6
PHANTOM
 62
     7
100
AcDbLine
 10
1100.556409980532
 20
356.1971709535349
 30
0.0
 11
1078.10260177337
 21
356.6103382115944
 31
0.0
  0
LINE
  5
359
330
1F
100
AcDbEntity
  8
LAY-10
  6
CONTINUOUS
 62
     7
100
AcDbLine
 10
1122.571516271677
 20
320.2025106206738
 30
0.0
 11
1122.571516271677
 21
335.2025106206901
 31
0.0
  0
LINE
  5
35A
330
1F
100
AcDbEntity
  8
LAY-10
  6
CONTINUOUS
 62
     7
100
AcDbLine
 10
1132.571516271676
 20
320.2025106206738
 30
0.0
 11
1132.571516271676
 21
335.2025106206901
 31
0.0
  0
LINE
  5
35B
330
1F
100
AcDbEntity
  8
LAY-10
  6
CONTINUOUS
 62
     7
100
AcDbLine
 10
1132.571516271676
 20
301.2025106206683
 30
0.0
 11
1132.571516271676
 21
314.2025106206683
 31
0.0
  0
LINE
  5
35C
330
1F
100
AcDbEntity
  8
LAY-10
  6
CONTINUOUS
 62
     7
100
AcDbLine
 10
1122.571516271676
 20
300.2025106206683
 30
0.0
 11
1122.571516271676
 21
314.2025106206683
 31
0.0
  0
LINE
  5
35D
330
1F
100
AcDbEntity
  8
LAY-10
  6
HIDDEN
 62
     7
100
AcDbLine
 10
391.201308841976
 20
345.3072091107859
 30
0.0
 11
390.5690788392819
 21
327.2025106206739
 31
0.0
  0
ARC
  5
35E
330
1F
100
AcDbEntity
  8
LAY-10
  6
HIDDEN
 62
     7
100
AcDbCircle
 10
394.1994813230333
 20
345.2025106206777
 30
0.0
 40
3.000000000000002
100
AcDbArc
 50
90.00000000000001
 51
177.9999999999899
  0
LINE
  5
35F
330
1F
100
AcDbEntity
  8
LAY-10
  6
HIDDEN
 62
     7
100
AcDbLine
 10
394.1994813230665
 20
348.2025106206777
 30
0.0
 11
421.12625871781
 21
348.2025106206777
 31
0.0
  0
ARC
  5
360
330
1F
100
AcDbEntity
  8
LAY-10
  6
HIDDEN
 62
     7
100
AcDbCircle
 10
421.1262587178064
 20
345.2025106206777
 30
0.0
 40
3.000000000000002
100
AcDbArc
 50
2.000000000001456
 51
90.00000000000001
  0
LINE
  5
361
330
1F
100
AcDbEntity
  8
LAY-10
  6
HIDDEN
 62
     7
100
AcDbLine
 10
424.7542237669957
 20
327.2723096140748
 30
0.0
 11
424.1244311988637
 21
345.3072091107852
 31
0.0
  0
LINE
  5
362
330
1F
100
AcDbEntity
  8
LAY-10
  6
CONTINUOUS
 62
     7
100
AcDbLine
 10
672.230287089358
 20
703.6279420687717
 30
0.0
 11
679.7394787627238
 21
732.7109163631676
 31
0.0
  0
LINE
  5
363
330
1F
100
AcDbEntity
  8
LAY-10
  6
CONTINUOUS
 62
     7
100
AcDbLine
 10
677.0715162721115
 20
702.377942068749
 30
0.0
 11
683.3215162720296
 21
726.5840879822035
 31
0.0
  0
LINE
  5
364
330
1F
100
AcDbEntity
  8
LAY-10
  6
CONTINUOUS
 62
     7
100
AcDbLine
 10
866.9127454548754
 20
703.6279420687717
 30
0.0
 11
859.4035537815091
 21
732.7109163631676
 31
0.0
  0
ARC
  5
365
330
1F
100
AcDbEntity
  8
LAY-10
  6
CONTINUOUS
 62
     7
100
AcDbCircle
 10
769.5715162721169
 20
1060.628901592571
 30
0.0
 40
345.0
100
AcDbArc
 50
255.5224878140554
 51
284.477512185945
  0
ARC
  5
366
330
1F
100
AcDbEntity
  8
LAY-10
  6
CONTINUOUS
 62
     7
100
AcDbCircle
 10
769.5715162721169
 20
1060.628901592571
 30
0.0
 40
340.0
100
AcDbArc
 50
254.6798724482702
 51
285.3201275517303
  0
ARC
  5
367
330
1F
100
AcDbEntity
  8
LAY-10
  6
CONTINUOUS
 62
     7
100
AcDbCircle
 10
769.5715162721164
 20
1060.628901592531
 30
0.0
 40
369.9999999996099
100
AcDbArc
 50
255.5224878140536
 51
284.4775121859462
  0
ARC
  5
368
330
1F
100
AcDbEntity
  8
LAY-10
  6
CONTINUOUS
 62
     7
100
AcDbCircle
 10
1048.307915201345
 20
1296.279108279648
 30
0.0
 40
5.0
100
AcDbArc
 50
40.21195213157427
 51
145.6446897199988
  0
ARC
  5
369
330
1F
100
AcDbEntity
  8
LAY-10
  6
CONTINUOUS
 62
     7
100
AcDbCircle
 10
1022.715743936617
 20
1313.773129257022
 30
0.0
 40
26.00000000000001
100
AcDbArc
 50
124.3553102799993
 51
325.6446897199987
  0
ARC
  5
36A
330
1F
100
AcDbEntity
  8
LAY-10
  6
CONTINUOUS
 62
     7
100
AcDbCircle
 10
1005.221722959244
 20
1339.365300521751
 30
0.0
 40
5.0
100
AcDbArc
 50
304.3553102799995
 51
49.7880478684229
  0
ARC
  5
36B
330
1F
100
AcDbEntity
  8
LAY-10
  6
CONTINUOUS
 62
     7
100
AcDbCircle
 10
490.8351173428875
 20
1296.279108279648
 30
0.0
 40
5.0
100
AcDbArc
 50
34.35531028000126
 51
139.7880478684266
  0
ARC
  5
36C
330
1F
100
AcDbEntity
  8
LAY-10
  6
CONTINUOUS
 62
     7
100
AcDbCircle
 10
516.4272886076167
 20
1313.773129257022
 30
0.0
 40
26.00000000000001
100
AcDbArc
 50
214.3553102800016
 51
55.64468972000065
  0
ARC
  5
36D
330
1F
100
AcDbEntity
  8
LAY-10
  6
CONTINUOUS
 62
     7
100
AcDbCircle
 10
533.9213095849893
 20
1339.365300521751
 30
0.0
 40
5.0
100
AcDbArc
 50
130.2119521315771
 51
235.6446897200008
  0
ARC
  5
36E
330
1F
100
AcDbEntity
  8
LAY-10
  6
CONTINUOUS
 62
     7
100
AcDbCircle
 10
490.835117342888
 20
824.9786949054139
 30
0.0
 40
5.0
100
AcDbArc
 50
220.2119521315735
 51
325.6446897199988
  0
ARC
  5
36F
330
1F
100
AcDbEntity
  8
LAY-10
  6
CONTINUOUS
 62
     7
100
AcDbCircle
 10
516.4272886076167
 20
807.4846739280404
 30
0.0
 40
26.00000000000001
100
AcDbArc
 50
304.3553102799995
 51
145.6446897199985
  0
ARC
  5
370
330
1F
100
AcDbEntity
  8
LAY-10
  6
CONTINUOUS
 62
     7
100
AcDbCircle
 10
533.9213095849893
 20
781.8925026633107
 30
0.0
 40
5.0
100
AcDbArc
 50
124.35531028
 51
229.7880478684231
  0
ARC
  5
371
330
1F
100
AcDbEntity
  8
LAY-10
  6
CONTINUOUS
 62
     7
100
AcDbCircle
 10
1048.307915201346
 20
824.9786949054142
 30
0.0
 40
5.0
100
AcDbArc
 50
214.3553102800013
 51
319.7880478684266
  0
ARC
  5
372
330
1F
100
AcDbEntity
  8
LAY-10
  6
CONTINUOUS
 62
     7
100
AcDbCircle
 10
1022.715743936617
 20
807.4846739280406
 30
0.0
 40
26.00000000000001
100
AcDbArc
 50
34.3553102800016
 51
235.6446897200008
  0
ARC
  5
373
330
1F
100
AcDbEntity
  8
LAY-10
  6
CONTINUOUS
 62
     7
100
AcDbCircle
 10
1005.221722959245
 20
781.892502663311
 30
0.0
 40
5.0
100
AcDbArc
 50
310.2119521315772
 51
55.64468972000054
  0
ARC
  5
374
330
1F
100
AcDbEntity
  8
LAY-10
  6
CONTINUOUS
 62
     7
100
AcDbCircle
 10
769.5715162721164
 20
1060.628901592531
 30
0.0
 40
369.9999999996099
100
AcDbArc
 50
319.788047868426
 51
40.21195213157495
  0
ARC
  5
375
330
1F
100
AcDbEntity
  8
LAY-10
  6
CONTINUOUS
 62
     7
100
AcDbCircle
 10
769.5715162721164
 20
1060.628901592531
 30
0.0
 40
369.9999999996099
100
AcDbArc
 50
285.2518030440777
 51
310.2119521315777
  0
ARC
  5
376
330
1F
100
AcDbEntity
  8
LAY-10
  6
CONTINUOUS
 62
     7
100
AcDbCircle
 10
769.5715162721164
 20
1060.628901592531
 30
0.0
 40
369.9999999996099
100
AcDbArc
 50
229.7880478684222
 51
254.7481969559227
  0
ARC
  5
377
330
1F
100
AcDbEntity
  8
LAY-10
  6
CONTINUOUS
 62
     7
100
AcDbCircle
 10
769.5715162721164
 20
1060.628901592531
 30
0.0
 40
369.9999999996099
100
AcDbArc
 50
139.7880478684199
 51
220.2119521315748
  0
LINE
  5
378
330
1F
100
AcDbEntity
  8
LAY-10
  6
CONTINUOUS
 62
     7
100
AcDbLine
 10
920.1852606649247
 20
883.1450995148002
 30
0.0
 11
947.0553183500134
 21
910.015157199889
 31
0.0
  0
LINE
  5
379
330
1F
100
AcDbEntity
  8
LAY-10
  6
CONTINUOUS
 62
     7
100
AcDbLine
 10
973.9253760351023
 20
829.4049841446227
 30
0.0
 11
1000.795433720191
 21
856.2750418297113
 31
0.0
  0
LINE
  5
37A
330
1F
100
AcDbEntity
  8
LAY-10
  6
CONTINUOUS
 62
     7
100
AcDbLine
 10
1000.795433720191
 20
856.2750418297113
 30
0.0
 11
947.0553183500134
 21
910.015157199889
 31
0.0
  0
LINE
  5
37B
330
1F
100
AcDbEntity
  8
LAY-10
  6
CONTINUOUS
 62
     7
100
AcDbLine
 10
973.9253760351023
 20
829.4049841446227
 30
0.0
 11
920.1852606649247
 21
883.1450995148002
 31
0.0
  0
LINE
  5
37C
330
1F
100
AcDbEntity
  8
LAY-10
  6
CONTINUOUS
 62
     7
100
AcDbLine
 10
618.9577718794205
 20
883.1450995147593
 30
0.0
 11
592.0877141943317
 21
910.0151571998481
 31
0.0
  0
LINE
  5
37D
330
1F
100
AcDbEntity
  8
LAY-10
  6
CONTINUOUS
 62
     7
100
AcDbLine
 10
565.2176565092429
 20
829.4049841445817
 30
0.0
 11
538.3475988241541
 21
856.2750418296704
 31
0.0
  0
LINE
  5
37E
330
1F
100
AcDbEntity
  8
LAY-10
  6
CONTINUOUS
 62
     7
100
AcDbLine
 10
538.3475988241541
 20
856.2750418296704
 30
0.0
 11
592.0877141943317
 21
910.0151571998481
 31
0.0
  0
LINE
  5
37F
330
1F
100
AcDbEntity
  8
LAY-10
  6
CONTINUOUS
 62
     7
100
AcDbLine
 10
565.2176565092429
 20
829.4049841445817
 30
0.0
 11
618.9577718794205
 21
883.1450995147593
 31
0.0
  0
LINE
  5
380
330
1F
100
AcDbEntity
  8
LAY-10
  6
CONTINUOUS
 62
     7
100
AcDbLine
 10
618.9577718793796
 20
1238.112703670431
 30
0.0
 11
592.0877141942908
 21
1211.242645985342
 31
0.0
  0
LINE
  5
381
330
1F
100
AcDbEntity
  8
LAY-10
  6
CONTINUOUS
 62
     7
100
AcDbLine
 10
565.217656509202
 20
1291.852819040608
 30
0.0
 11
538.3475988241132
 21
1264.982761355519
 31
0.0
  0
LINE
  5
382
330
1F
100
AcDbEntity
  8
LAY-10
  6
CONTINUOUS
 62
     7
100
AcDbLine
 10
538.3475988241132
 20
1264.982761355519
 30
0.0
 11
592.0877141942908
 21
1211.242645985342
 31
0.0
  0
LINE
  5
383
330
1F
100
AcDbEntity
  8
LAY-10
  6
CONTINUOUS
 62
     7
100
AcDbLine
 10
565.217656509202
 20
1291.852819040608
 30
0.0
 11
618.9577718793796
 21
1238.112703670431
 31
0.0
  0
LINE
  5
384
330
1F
100
AcDbEntity
  8
LAY-10
  6
CONTINUOUS
 62
     7
100
AcDbLine
 10
920.1852606648538
 20
1238.11270367043
 30
0.0
 11
947.0553183499425
 21
1211.242645985342
 31
0.0
  0
LINE
  5
385
330
1F
100
AcDbEntity
  8
LAY-10
  6
CONTINUOUS
 62
     7
100
AcDbLine
 10
973.9253760350314
 20
1291.852819040608
 30
0.0
 11
1000.79543372012
 21
1264.982761355519
 31
0.0
  0
LINE
  5
386
330
1F
100
AcDbEntity
  8
LAY-10
  6
CONTINUOUS
 62
     7
100
AcDbLine
 10
1000.79543372012
 20
1264.982761355519
 30
0.0
 11
947.0553183499425
 21
1211.242645985342
 31
0.0
  0
LINE
  5
387
330
1F
100
AcDbEntity
  8
LAY-10
  6
CONTINUOUS
 62
     7
100
AcDbLine
 10
973.9253760350314
 20
1291.852819040608
 30
0.0
 11
920.1852606648538
 21
1238.11270367043
 31
0.0
  0
LINE
  5
388
330
1F
100
AcDbEntity
  8
LAY-10
  6
CONTINUOUS
 62
     7
100
AcDbLine
 10
862.0715162721219
 20
702.377942068749
 30
0.0
 11
855.8215162722033
 21
726.5840879822047
 31
0.0
  0
LINE
  5
389
330
1F
100
AcDbEntity
  8
LAY-10
  6
CONTINUOUS
 62
     7
100
AcDbLine
 10
704.5715162721201
 20
1424.874697724404
 30
0.0
 11
708.9634081639467
 21
1400.263495283427
 31
0.0
  0
LINE
  5
38A
330
1F
100
AcDbEntity
  8
LAY-10
  6
CONTINUOUS
 62
     7
100
AcDbLine
 10
699.6492757838471
 20
1423.996319346024
 30
0.0
 11
704.9260050678297
 21
1394.426681514999
 31
0.0
  0
ARC
  5
38B
330
1F
100
AcDbEntity
  8
LAY-10
  6
CONTINUOUS
 62
     7
100
AcDbCircle
 10
769.5715162721164
 20
1060.628901592531
 30
0.0
 40
369.9999999996099
100
AcDbArc
 50
100.8922715032518
 51
130.2119521315774
  0
LINE
  5
38C
330
1F
100
AcDbEntity
  8
LAY-10
  6
CONTINUOUS
 62
     7
100
AcDbLine
 10
839.4937567603863
 20
1423.996319346024
 30
0.0
 11
834.2170274764037
 21
1394.426681514999
 31
0.0
  0
ARC
  5
38D
330
1F
100
AcDbEntity
  8
LAY-10
  6
CONTINUOUS
 62
     7
100
AcDbCircle
 10
769.5715162720768
 20
1060.628901592571
 30
0.0
 40
340.0
100
AcDbArc
 50
79.03940398908743
 51
100.9605960108999
  0
LINE
  5
38E
330
1F
100
AcDbEntity
  8
LAY-10
  6
CONTINUOUS
 62
     7
100
AcDbLine
 10
834.5715162721132
 20
1424.874697724404
 30
0.0
 11
830.1796243802825
 21
1400.263495283403
 31
0.0
  0
ARC
  5
38F
330
1F
100
AcDbEntity
  8
LAY-10
  6
CONTINUOUS
 62
     7
100
AcDbCircle
 10
769.5715162720768
 20
1060.628901592571
 30
0.0
 40
345.0
100
AcDbArc
 50
79.88201935487177
 51
100.1179806451153
  0
ARC
  5
390
330
1F
100
AcDbEntity
  8
LAY-10
  6
CONTINUOUS
 62
     7
100
AcDbCircle
 10
769.5715162721164
 20
1060.628901592531
 30
0.0
 40
369.9999999996099
100
AcDbArc
 50
79.88201935487945
 51
100.1179806451205
  0
ARC
  5
391
330
1F
100
AcDbEntity
  8
LAY-10
  6
CONTINUOUS
 62
     7
100
AcDbCircle
 10
769.5715162721164
 20
1060.628901592531
 30
0.0
 40
369.9999999996099
100
AcDbArc
 50
49.78804786842295
 51
79.10779918995215
  0
LINE
  5
392
330
1F
100
AcDbEntity
  8
LAY-10
  6
CONTINUOUS
 62
     7
100
AcDbLine
 10
1012.098413681662
 20
804.6669753404187
 30
0.0
 11
1019.898045348953
 21
796.8673436731278
 31
0.0
  0
LINE
  5
393
330
1F
100
AcDbEntity
  8
LAY-10
  6
CONTINUOUS
 62
     7
100
AcDbLine
 10
1025.533442524206
 20
818.1020041829631
 30
0.0
 11
1014.937569343527
 21
815.2628485210975
 31
0.0
  0
LINE
  5
394
330
1F
100
AcDbEntity
  8
LAY-10
  6
CONTINUOUS
 62
     7
100
AcDbLine
 10
1012.098413681662
 20
804.6669753404187
 30
0.0
 11
1014.937569343527
 21
815.2628485210975
 31
0.0
  0
LINE
  5
395
330
1F
100
AcDbEntity
  8
LAY-10
  6
CONTINUOUS
 62
     7
100
AcDbLine
 10
1019.898045348953
 20
796.8673436731278
 30
0.0
 11
1030.493918529632
 21
799.7064993349934
 31
0.0
  0
LINE
  5
396
330
1F
100
AcDbEntity
  8
LAY-10
  6
CONTINUOUS
 62
     7
100
AcDbLine
 10
1033.333074191497
 20
810.3023725156721
 30
0.0
 11
1030.493918529632
 21
799.7064993349934
 31
0.0
  0
LINE
  5
397
330
1F
100
AcDbEntity
  8
LAY-10
  6
CONTINUOUS
 62
     7
100
AcDbLine
 10
1025.533442524206
 20
818.1020041829631
 30
0.0
 11
1033.333074191497
 21
810.3023725156721
 31
0.0
  0
CIRCLE
  5
398
330
1F
100
AcDbEntity
  8
LAY-10
  6
CONTINUOUS
 62
     7
100
AcDbCircle
 10
1022.715743936579
 20
807.4846739280455
 30
0.0
 40
9.500000000000028
  0
LINE
  5
399
330
1F
100
AcDbEntity
  8
LAY-10
  6
CONTINUOUS
 62
     7
100
AcDbLine
 10
1012.098413681662
 20
1310.955430669349
 30
0.0
 11
1019.898045348953
 21
1303.155799002058
 31
0.0
  0
LINE
  5
39A
330
1F
100
AcDbEntity
  8
LAY-10
  6
CONTINUOUS
 62
     7
100
AcDbLine
 10
1025.533442524206
 20
1324.390459511893
 30
0.0
 11
1014.937569343527
 21
1321.551303850028
 31
0.0
  0
LINE
  5
39B
330
1F
100
AcDbEntity
  8
LAY-10
  6
CONTINUOUS
 62
     7
100
AcDbLine
 10
1012.098413681662
 20
1310.955430669349
 30
0.0
 11
1014.937569343527
 21
1321.551303850028
 31
0.0
  0
LINE
  5
39C
330
1F
100
AcDbEntity
  8
LAY-10
  6
CONTINUOUS
 62
     7
100
AcDbLine
 10
1019.898045348953
 20
1303.155799002058
 30
0.0
 11
1030.493918529632
 21
1305.994954663923
 31
0.0
  0
LINE
  5
39D
330
1F
100
AcDbEntity
  8
LAY-10
  6
CONTINUOUS
 62
     7
100
AcDbLine
 10
1033.333074191497
 20
1316.590827844602
 30
0.0
 11
1030.493918529632
 21
1305.994954663923
 31
0.0
  0
LINE
  5
39E
330
1F
100
AcDbEntity
  8
LAY-10
  6
CONTINUOUS
 62
     7
100
AcDbLine
 10
1025.533442524206
 20
1324.390459511893
 30
0.0
 11
1033.333074191497
 21
1316.590827844602
 31
0.0
  0
CIRCLE
  5
39F
330
1F
100
AcDbEntity
  8
LAY-10
  6
CONTINUOUS
 62
     7
100
AcDbCircle
 10
1022.715743936579
 20
1313.773129256976
 30
0.0
 40
9.500000000000028
  0
LINE
  5
3A0
330
1F
100
AcDbEntity
  8
LAY-10
  6
CONTINUOUS
 62
     7
100
AcDbLine
 10
505.809958352662
 20
1310.955430669349
 30
0.0
 11
513.6095900199527
 21
1303.155799002058
 31
0.0
  0
LINE
  5
3A1
330
1F
100
AcDbEntity
  8
LAY-10
  6
CONTINUOUS
 62
     7
100
AcDbLine
 10
519.244987195206
 20
1324.390459511893
 30
0.0
 11
508.6491140145274
 21
1321.551303850028
 31
0.0
  0
LINE
  5
3A2
330
1F
100
AcDbEntity
  8
LAY-10
  6
CONTINUOUS
 62
     7
100
AcDbLine
 10
505.809958352662
 20
1310.955430669349
 30
0.0
 11
508.6491140145274
 21
1321.551303850028
 31
0.0
  0
LINE
  5
3A3
330
1F
100
AcDbEntity
  8
LAY-10
  6
CONTINUOUS
 62
     7
100
AcDbLine
 10
513.6095900199527
 20
1303.155799002058
 30
0.0
 11
524.2054632006314
 21
1305.994954663923
 31
0.0
  0
LINE
  5
3A4
330
1F
100
AcDbEntity
  8
LAY-10
  6
CONTINUOUS
 62
     7
100
AcDbLine
 10
527.0446188624971
 20
1316.590827844602
 30
0.0
 11
524.2054632006314
 21
1305.994954663923
 31
0.0
  0
LINE
  5
3A5
330
1F
100
AcDbEntity
  8
LAY-10
  6
CONTINUOUS
 62
     7
100
AcDbLine
 10
519.244987195206
 20
1324.390459511893
 30
0.0
 11
527.0446188624971
 21
1316.590827844602
 31
0.0
  0
CIRCLE
  5
3A6
330
1F
100
AcDbEntity
  8
LAY-10
  6
CONTINUOUS
 62
     7
100
AcDbCircle
 10
516.4272886075794
 20
1313.773129256976
 30
0.0
 40
9.500000000000028
  0
LINE
  5
3A7
330
1F
100
AcDbEntity
  8
LAY-10
  6
CONTINUOUS
 62
     7
100
AcDbLine
 10
505.809958352662
 20
804.6669753404187
 30
0.0
 11
513.6095900199527
 21
796.8673436731278
 31
0.0
  0
LINE
  5
3A8
330
1F
100
AcDbEntity
  8
LAY-10
  6
CONTINUOUS
 62
     7
100
AcDbLine
 10
519.244987195206
 20
818.1020041829631
 30
0.0
 11
508.6491140145274
 21
815.2628485210975
 31
0.0
  0
LINE
  5
3A9
330
1F
100
AcDbEntity
  8
LAY-10
  6
CONTINUOUS
 62
     7
100
AcDbLine
 10
505.809958352662
 20
804.6669753404187
 30
0.0
 11
508.6491140145274
 21
815.2628485210975
 31
0.0
  0
LINE
  5
3AA
330
1F
100
AcDbEntity
  8
LAY-10
  6
CONTINUOUS
 62
     7
100
AcDbLine
 10
513.6095900199527
 20
796.8673436731278
 30
0.0
 11
524.2054632006314
 21
799.7064993349934
 31
0.0
  0
LINE
  5
3AB
330
1F
100
AcDbEntity
  8
LAY-10
  6
CONTINUOUS
 62
     7
100
AcDbLine
 10
527.0446188624971
 20
810.3023725156721
 30
0.0
 11
524.2054632006314
 21
799.7064993349934
 31
0.0
  0
LINE
  5
3AC
330
1F
100
AcDbEntity
  8
LAY-10
  6
CONTINUOUS
 62
     7
100
AcDbLine
 10
519.244987195206
 20
818.1020041829631
 30
0.0
 11
527.0446188624971
 21
810.3023725156721
 31
0.0
  0
CIRCLE
  5
3AD
330
1F
100
AcDbEntity
  8
LAY-10
  6
CONTINUOUS
 62
     7
100
AcDbCircle
 10
516.4272886075794
 20
807.4846739280455
 30
0.0
 40
9.500000000000028
  0
LINE
  5
3AE
330
1F
100
AcDbEntity
  8
LAY-10
  6
PHANTOM
 62
     7
100
AcDbLine
 10
1001.04407810129
 20
357.9341651676421
 30
0.0
 11
769.5715162734266
 21
361.9745337634623
 31
0.0
  0
LINE
  5
3AF
330
1F
100
AcDbEntity
  8
LAY-10
  6
PHANTOM
 62
     7
100
AcDbLine
 10
1001.044078101289
 20
357.9341651676382
 30
0.0
 11
1001.571516273422
 21
360.9254156842299
 31
0.0
  0
LINE
  5
3B0
330
1F
100
AcDbEntity
  8
LAY-10
  6
PHANTOM
 62
     7
100
AcDbLine
 10
400.3717435800766
 20
355.5301277595943
 30
0.0
 11
769.5715162734266
 21
361.9745337634623
 31
0.0
  0
LINE
  5
3B1
330
1F
100
AcDbEntity
  8
LAY-10
  6
PHANTOM
 62
     7
100
AcDbLine
 10
399.5715162738168
 20
358.5166167241449
 30
0.0
 11
400.3717435800725
 21
355.5301277595941
 31
0.0
  0
LINE
  5
3B2
330
1F
100
AcDbEntity
  8
LAY-10
  6
CONTINUOUS
 62
     7
100
AcDbLine
 10
998.1182831465676
 20
351.4842449762578
 30
0.0
 11
924.5715162734266
 21
352.7680085672935
 31
0.0
  0
LINE
  5
3B3
330
1F
100
AcDbEntity
  8
LAY-10
  6
CONTINUOUS
 62
     7
100
AcDbLine
 10
1096.193463063377
 20
349.7723363429575
 30
0.0
 11
1080.972349651547
 21
350.0380218658417
 31
0.0
  0
LINE
  5
3B4
330
1F
100
AcDbEntity
  8
LAY-10
  6
CONTINUOUS
 62
     7
100
AcDbLine
 10
1078.175263680568
 20
349.689527766388
 30
0.0
 11
1096.86192006908
 21
349.689527766388
 31
0.0
  0
LINE
  5
3B5
330
1F
100
AcDbEntity
  8
LAY-10
  6
CONTINUOUS
 62
     7
100
AcDbLine
 10
442.8619200690798
 20
349.689527766388
 30
0.0
 11
1003.44
 21
349.6895277663882
 31
0.0
  0
LINE
  5
3B6
330
1F
100
AcDbEntity
  8
LAY-10
  6
CONTINUOUS
 62
     7
100
AcDbLine
 10
1051.02
 20
317.70180122619
 30
0.0
 11
425.0884332843273
 21
317.70180122619
 31
0.0
  0
LINE
  5
3B7
330
1F
100
AcDbEntity
  8
LAY-10
  6
CONTINUOUS
 62
     7
100
AcDbLine
 10
1072.571516273427
 20
359.6861060743348
 30
0.0
 11
1072.571516273427
 21
354.262123216965
 31
0.0
  0
LINE
  5
3B8
330
1F
100
AcDbEntity
  8
LAY-10
  6
CONTINUOUS
 62
     7
100
AcDbLine
 10
1044.571516273427
 20
354.262123216965
 30
0.0
 11
1034.571516273427
 21
354.262123216965
 31
0.0
  0
LINE
  5
3B9
330
1F
100
AcDbEntity
  8
LAY-10
  6
CONTINUOUS
 62
     7
100
AcDbLine
 10
1044.571516273427
 20
354.262123216965
 30
0.0
 11
1044.571516273427
 21
347.2621232169652
 31
0.0
  0
LINE
  5
3BA
330
1F
100
AcDbEntity
  8
LAY-10
  6
CONTINUOUS
 62
     7
100
AcDbLine
 10
1041.571516273427
 20
344.262123216965
 30
0.0
 11
1037.571516273427
 21
344.262123216965
 31
0.0
  0
ARC
  5
3BB
330
1F
100
AcDbEntity
  8
LAY-10
  6
CONTINUOUS
 62
     7
100
AcDbCircle
 10
1037.571516273427
 20
347.2621232169652
 30
0.0
 40
3.000000000000003
100
AcDbArc
 50
180.0
 51
270.0000000000002
  0
ARC
  5
3BC
330
1F
100
AcDbEntity
  8
LAY-10
  6
CONTINUOUS
 62
     7
100
AcDbCircle
 10
1041.5715162734
 20
347.262123216959
 30
0.0
 40
3.0
100
AcDbArc
 50
270.0
 51
0.0
  0
LINE
  5
3BD
330
1F
100
AcDbEntity
  8
LAY-10
  6
CONTINUOUS
 62
     7
100
AcDbLine
 10
1034.5715162734
 20
354.2621232169581
 30
0.0
 11
1034.5715162734
 21
347.262123216959
 31
0.0
  0
LINE
  5
3BE
330
1F
100
AcDbEntity
  8
LAY-10
  6
CONTINUOUS
 62
     7
100
AcDbLine
 10
1011.571516273401
 20
352.2621232169577
 30
0.0
 11
1011.571516273401
 21
354.2621232169581
 31
0.0
  0
LINE
  5
3BF
330
1F
100
AcDbEntity
  8
LAY-10
  6
CONTINUOUS
 62
     7
100
AcDbLine
 10
1067.571516273401
 20
352.2621232169577
 30
0.0
 11
1067.571516273401
 21
354.2621232169581
 31
0.0
  0
LINE
  5
3C0
330
1F
100
AcDbEntity
  8
LAY-10
  6
CONTINUOUS
 62
     7
100
AcDbLine
 10
1011.571516273401
 20
354.2621232169581
 30
0.0
 11
1006.571516273401
 21
354.2621232169581
 31
0.0
  0
ARC
  5
3C1
330
1F
100
AcDbEntity
  8
LAY-10
  6
CONTINUOUS
 62
     7
100
AcDbCircle
 10
1056.094227915259
 20
336.2621232169581
 30
0.0
 40
5.0
100
AcDbArc
 50
270.0
 51
315.9207901521117
  0
LINE
  5
3C2
330
1F
100
AcDbEntity
  8
LAY-10
  6
CONTINUOUS
 62
     7
100
AcDbLine
 10
1056.094227915259
 20
331.2621232169581
 30
0.0
 11
1023.048804631543
 21
331.2621232169581
 31
0.0
  0
ARC
  5
3C3
330
1F
100
AcDbEntity
  8
LAY-10
  6
CONTINUOUS
 62
     7
100
AcDbCircle
 10
1023.048804631543
 20
336.2621232169581
 30
0.0
 40
5.0
100
AcDbArc
 50
224.0792098478883
 51
270.0
  0
ARC
  5
3C4
330
1F
100
AcDbEntity
  8
LAY-10
  6
CONTINUOUS
 62
     7
100
AcDbCircle
 10
1039.571516273401
 20
352.2621232169577
 30
0.0
 40
27.99999999999931
100
AcDbArc
 50
315.9207901521118
 51
0.0000000000011459
  0
ARC
  5
3C5
330
1F
100
AcDbEntity
  8
LAY-10
  6
CONTINUOUS
 62
     7
100
AcDbCircle
 10
1039.571516273401
 20
352.2621232169577
 30
0.0
 40
27.99999999999931
100
AcDbArc
 50
179.9999999999989
 51
224.0792098478882
  0
ARC
  5
3C6
330
1F
100
AcDbEntity
  8
LAY-10
  6
CONTINUOUS
 62
     7
100
AcDbCircle
 10
1021.05125709595
 20
331.2621232169572
 30
0.0
 40
5.0
100
AcDbArc
 50
228.5903778907312
 51
270.0
  0
LINE
  5
3C7
330
1F
100
AcDbEntity
  8
LAY-10
  6
CONTINUOUS
 62
     7
100
AcDbLine
 10
1058.091775450852
 20
326.2621232169572
 30
0.0
 11
1021.05125709595
 21
326.2621232169572
 31
0.0
  0
ARC
  5
3C8
330
1F
100
AcDbEntity
  8
LAY-10
  6
CONTINUOUS
 62
     7
100
AcDbCircle
 10
1058.091775450852
 20
331.2621232169572
 30
0.0
 40
5.0
100
AcDbArc
 50
270.0
 51
311.409622109269
  0
LINE
  5
3C9
330
1F
100
AcDbEntity
  8
LAY-10
  6
CONTINUOUS
 62
     7
100
AcDbLine
 10
1072.571516273401
 20
354.2621232169581
 30
0.0
 11
1067.571516273401
 21
354.2621232169581
 31
0.0
  0
ARC
  5
3CA
330
1F
100
AcDbEntity
  8
LAY-10
  6
CONTINUOUS
 62
     7
100
AcDbCircle
 10
1039.571516273401
 20
352.2621232169577
 30
0.0
 40
32.99999999999932
100
AcDbArc
 50
194.5137840814646
 51
228.5903778907316
  0
ARC
  5
3CB
330
1F
100
AcDbEntity
  8
LAY-10
  6
CONTINUOUS
 62
     7
100
AcDbCircle
 10
1039.571516273401
 20
352.2621232169577
 30
0.0
 40
32.99999999999932
100
AcDbArc
 50
311.4096221092684
 51
343.4862159185288
  0
ARC
  5
3CC
330
1F
100
AcDbEntity
  8
LAY-10
  6
CONTINUOUS
 62
     7
100
AcDbCircle
 10
1080.797825587173
 20
340.0395449142778
 30
0.0
 40
10.0
100
AcDbArc
 50
88.99999999999694
 51
163.4862159185289
  0
ARC
  5
3CD
330
1F
100
AcDbEntity
  8
LAY-10
  6
CONTINUOUS
 62
     7
100
AcDbCircle
 10
997.9437590821941
 20
341.4857680246939
 30
0.0
 40
10.0
100
AcDbArc
 50
14.51378408146436
 51
88.99999999999626
  0
LINE
  5
3CE
330
1F
100
AcDbEntity
  8
LAY-10
  6
CONTINUOUS
 62
     7
100
AcDbLine
 10
1006.5715162734
 20
360.8381403595995
 30
0.0
 11
1006.5715162734
 21
354.2621232169581
 31
0.0
  0
DIMENSION
  5
3D0
330
1F
100
AcDbEntity
  8
LAY-20
  6
CONTINUOUS
 62
     4
100
AcDbDimension
  2
*D15
 10
1272.57151627188
 20
288.2025106206841
 30
0.0
 11
1259.571526523879
 21
323.202510620681
 31
0.0
 70
   160
  3
ISO-25
100
AcDbAlignedDimension
 13
1165.57151627228
 23
358.2025106206781
 33
0.0
 14
1212.57151627188
 24
288.2025106206841
 34
0.0
 50
90.0
100
AcDbRotatedDimension
1001
ACAD
1000
DSTYLE
1002
{
1070
   270
1070
     2
1070
     6
1000
EX_BNORM
1070
     7
1000
EX_BNORM
1070
    41
1040
15.0
1070
    42
1040
9.0
1070
    44
1040
9.0
1070
    73
1070
     0
1070
    74
1070
     0
1070
    75
1070
     0
1070
    76
1070
     0
1070
    77
1070
     1
1070
    78
1070
     8
1070
   140
1040
15.59053564486008
1070
   147
1040
0.0
1070
   173
1070
     1
1070
   176
1070
     4
1070
   177
1070
     4
1070
   178
1070
     7
1070
   271
1070
     1
1070
   277
1070
     2
1070
   279
1070
     2
1070
   280
1070
     0
1070
   287
1070
     5
1070
   340
1005
3CF
1002
}
  0
DIMENSION
  5
3DE
330
1F
100
AcDbEntity
  8
LAY-20
  6
CONTINUOUS
 62
     4
100
AcDbDimension
  2
*D16
 10
1094.5715162738
 20
221.20251062069
 30
0.0
 11
769.5715162721399
 21
236.20251062069
 31
0.0
 70
   160
  1
%%c<>
  3
ISO-25
100
AcDbAlignedDimension
 13
444.57151627048
 23
291.2
 33
0.0
 14
1094.5715162738
 24
290.9
 34
0.0
100
AcDbRotatedDimension
1001
ACAD
1000
DSTYLE
1002
{
1070
   270
1070
     2
1070
     6
1000
EX_BNORM
1070
     7
1000
EX_BNORM
1070
    41
1040
18.0
1070
    42
1040
9.0
1070
    44
1040
9.0
1070
    73
1070
     0
1070
    74
1070
     0
1070
    75
1070
     0
1070
    76
1070
     0
1070
    77
1070
     1
1070
    78
1070
     8
1070
   140
1040
18.7086624
1070
   147
1040
0.0
1070
   173
1070
     1
1070
   176
1070
     4
1070
   177
1070
     4
1070
   178
1070
     7
1070
   271
1070
     1
1070
   277
1070
     2
1070
   279
1070
     2
1070
   280
1070
     0
1070
   287
1070
     5
1070
   340
1005
3CF
1002
}
  0
DIMENSION
  5
3EB
330
1F
100
AcDbEntity
  8
LAY-20
  6
CONTINUOUS
 62
     4
100
AcDbDimension
  2
*D17
 10
326.57151627238
 20
179.20251062068
 30
0.0
 11
769.5715162721401
 21
194.20251062068
 31
0.0
 70
   160
  1
%%c<>
  3
ISO-25
100
AcDbAlignedDimension
 13
1212.5715162719
 23
279.20251062068
 33
0.0
 14
326.57151627238
 24
279.20251062068
 34
0.0
100
AcDbRotatedDimension
1001
ACAD
1000
DSTYLE
1002
{
1070
   270
1070
     2
1070
     6
1000
EX_BNORM
1070
     7
1000
EX_BNORM
1070
    41
1040
18.0
1070
    42
1040
9.0
1070
    44
1040
9.0
1070
    73
1070
     0
1070
    74
1070
     0
1070
    75
1070
     0
1070
    76
1070
     0
1070
    77
1070
     1
1070
    78
1070
     8
1070
   140
1040
18.7086624
1070
   147
1040
0.0
1070
   173
1070
     1
1070
   176
1070
     4
1070
   177
1070
     4
1070
   178
1070
     7
1070
   271
1070
     1
1070
   277
1070
     2
1070
   279
1070
     2
1070
   280
1070
     0
1070
   287
1070
     5
1070
   340
1005
3CF
1002
}
  0
DIMENSION
  5
3F8
330
1F
100
AcDbEntity
  8
LAY-20
  6
CONTINUOUS
 62
     4
100
AcDbDimension
  2
*D18
 10
1157.5666428888
 20
466.9749907476199
 30
0.0
 11
769.5690795813099
 21
481.9749907476199
 31
0.0
 70
   160
  1
%%c<>
  3
ISO-25
100
AcDbAlignedDimension
 13
381.57151627382
 23
358.20251062068
 33
0.0
 14
1157.5666428888
 24
358.20251062068
 34
0.0
100
AcDbRotatedDimension
1001
ACAD
1000
DSTYLE
1002
{
1070
   270
1070
     2
1070
     6
1000
EX_BNORM
1070
     7
1000
EX_BNORM
1070
    41
1040
18.0
1070
    42
1040
9.0
1070
    44
1040
9.0
1070
    73
1070
     0
1070
    74
1070
     0
1070
    75
1070
     0
1070
    76
1070
     0
1070
    77
1070
     1
1070
    78
1070
     8
1070
   140
1040
18.7086624
1070
   147
1040
0.0
1070
   173
1070
     1
1070
   176
1070
     4
1070
   177
1070
     4
1070
   178
1070
     7
1070
   271
1070
     1
1070
   277
1070
     2
1070
   279
1070
     2
1070
   280
1070
     0
1070
   287
1070
     5
1070
   340
1005
3CF
1002
}
  0
DIMENSION
  5
405
330
1F
100
AcDbEntity
  8
LAY-20
  6
CONTINUOUS
 62
     4
100
AcDbDimension
  2
*D19
 10
1165.5715162722
 20
508.9749907476199
 30
0.0
 11
769.5715162720949
 21
523.9749907476199
 31
0.0
 70
   160
  1
%%c<>
  3
ISO-25
100
AcDbAlignedDimension
 13
373.57151627199
 23
358.20251062068
 33
0.0
 14
1165.5715162722
 24
358.20251062066
 34
0.0
100
AcDbRotatedDimension
1001
ACAD
1000
DSTYLE
1002
{
1070
   270
1070
     2
1070
     6
1000
EX_BNORM
1070
     7
1000
EX_BNORM
1070
    41
1040
18.0
1070
    42
1040
9.0
1070
    44
1040
9.0
1070
    73
1070
     0
1070
    74
1070
     0
1070
    75
1070
     0
1070
    76
1070
     0
1070
    77
1070
     1
1070
    78
1070
     8
1070
   140
1040
18.7086624
1070
   147
1040
0.0
1070
   173
1070
     1
1070
   176
1070
     4
1070
   177
1070
     4
1070
   178
1070
     7
1070
   271
1070
     1
1070
   277
1070
     2
1070
   279
1070
     2
1070
   280
1070
     0
1070
   287
1070
     5
1070
   340
1005
3CF
1002
}
  0
LINE
  5
412
330
1F
100
AcDbEntity
  8
LAY-255
  6
CONTINUOUS
 62
     7
100
AcDbLine
 10
2310.0
 20
132.0
 30
0.0
 11
1710.0
 21
132.0
 31
0.0
  0
LINE
  5
413
330
1F
100
AcDbEntity
  8
LAY-255
  6
CONTINUOUS
 62
     7
100
AcDbLine
 10
1732.8
 20
96.0
 30
0.0
 11
1780.8
 21
126.0
 31
0.0
  0
LINE
  5
414
330
1F
100
AcDbEntity
  8
LAY-255
  6
CONTINUOUS
 62
     7
100
AcDbLine
 10
1780.8
 20
126.0
 30
0.0
 11
1828.8
 21
96.0
 31
0.0
  0
LINE
  5
415
330
1F
100
AcDbEntity
  8
LAY-255
  6
CONTINUOUS
 62
     7
100
AcDbLine
 10
1828.8
 20
96.0
 30
0.0
 11
1780.8
 21
66.0
 31
0.0
  0
LINE
  5
416
330
1F
100
AcDbEntity
  8
LAY-255
  6
CONTINUOUS
 62
     7
100
AcDbLine
 10
1780.8
 20
66.0
 30
0.0
 11
1732.8
 21
96.0
 31
0.0
  0
LINE
  5
417
330
1F
100
AcDbEntity
  8
LAY-255
  6
CONTINUOUS
 62
     7
100
AcDbLine
 10
30.0
 20
60.0
 30
0.0
 11
2310.0
 21
60.0
 31
0.0
  0
LINE
  5
418
330
1F
100
AcDbEntity
  8
LAY-255
  6
CONTINUOUS
 62
     7
100
AcDbLine
 10
30.0
 20
1680.0
 30
0.0
 11
2310.0
 21
1680.0
 31
0.0
  0
LINE
  5
419
330
1F
100
AcDbEntity
  8
LAY-255
  6
CONTINUOUS
 62
     7
100
AcDbLine
 10
30.0
 20
60.0
 30
0.0
 11
30.0
 21
1680.0
 31
0.0
  0
LINE
  5
41A
330
1F
100
AcDbEntity
  8
LAY-255
  6
CONTINUOUS
 62
     7
100
AcDbLine
 10
2310.0
 20
60.0
 30
0.0
 11
2310.0
 21
1680.0
 31
0.0
  0
LINE
  5
41B
330
1F
100
AcDbEntity
  8
LAY-255
  6
CONTINUOUS
 62
     4
100
AcDbLine
 10
1710.0
 20
168.0
 30
0.0
 11
2310.0
 21
168.0
 31
0.0
  0
LINE
  5
41C
330
1F
100
AcDbEntity
  8
LAY-255
  6
CONTINUOUS
 62
     7
100
AcDbLine
 10
1710.0
 20
60.0
 30
0.0
 11
1710.0
 21
402.0
 31
0.0
  0
LINE
  5
41D
330
1F
100
AcDbEntity
  8
LAY-255
  6
CONTINUOUS
 62
     4
100
AcDbLine
 10
2010.0
 20
168.0
 30
0.0
 11
2010.0
 21
132.0
 31
0.0
  0
LINE
  5
41E
330
1F
100
AcDbEntity
  8
LAY-255
  6
CONTINUOUS
 62
     7
100
AcDbLine
 10
2310.0
 20
402.0
 30
0.0
 11
1710.0
 21
402.0
 31
0.0
  0
LINE
  5
41F
330
1F
100
AcDbEntity
  8
LAY-255
  6
CONTINUOUS
 62
     4
100
AcDbLine
 10
2298.0
 20
330.0
 30
0.0
 11
1722.0
 21
330.0
 31
0.0
  0
LINE
  5
420
330
1F
100
AcDbEntity
  8
LAY-255
  6
CONTINUOUS
 62
     4
100
AcDbLine
 10
2298.0
 20
366.0
 30
0.0
 11
1722.0
 21
366.0
 31
0.0
  0
POINT
  5
421
330
1F
100
AcDbEntity
  8
LAY-255
  6
CONTINUOUS
 62
     7
100
AcDbPoint
 10
1734.0
 20
300.0
 30
0.0
  0
POINT
  5
422
330
1F
100
AcDbEntity
  8
LAY-255
  6
CONTINUOUS
 62
     7
100
AcDbPoint
 10
1800.0
 20
336.0
 30
0.0
  0
POINT
  5
423
330
1F
100
AcDbEntity
  8
LAY-255
  6
CONTINUOUS
 62
     7
100
AcDbPoint
 10
1800.0
 20
372.0
 30
0.0
  0
POINT
  5
424
330
1F
100
AcDbEntity
  8
LAY-255
  6
CONTINUOUS
 62
     7
100
AcDbPoint
 10
1734.0
 20
240.0
 30
0.0
  0
POINT
  5
425
330
1F
100
AcDbEntity
  8
LAY-255
  6
CONTINUOUS
 62
     7
100
AcDbPoint
 10
1734.0
 20
270.0
 30
0.0
  0
POINT
  5
426
330
1F
100
AcDbEntity
  8
LAY-255
  6
CONTINUOUS
 62
     7
100
AcDbPoint
 10
1734.0
 20
210.0
 30
0.0
  0
POINT
  5
427
330
1F
100
AcDbEntity
  8
LAY-255
  6
CONTINUOUS
 62
     7
100
AcDbPoint
 10
1734.0
 20
179.9999999999999
 30
0.0
  0
TEXT
  5
428
330
1F
100
AcDbEntity
  8
LAY-255
  6
CONTINUOUS
 62
     7
100
AcDbText
 10
1848.830273598633
 20
93.2625
 30
0.0
 40
30.9375
  1
福西鋳物株式会社
 41
1.342692106221948
  7
EXCADSTD
100
AcDbText
  0
TEXT
  5
429
330
1F
100
AcDbEntity
  8
LAY-255
  6
CONTINUOUS
 62
     7
100
AcDbText
 10
1851.05625
 20
71.8875
 30
0.0
 40
10.3125
  1
ＦＵＫＵＮＩＳＨＩ
 41
1.204799226045263
  7
EXCADSTD
100
AcDbText
  0
TEXT
  5
42A
330
1F
100
AcDbEntity
  8
LAY-255
  6
CONTINUOUS
 62
     7
100
AcDbText
 10
1996.315178571429
 20
71.8875
 30
0.0
 40
10.3125
  1
ＦＯＵＮＤＲＹ
 41
1.243252752978497
  7
EXCADSTD
100
AcDbText
  0
TEXT
  5
42B
330
1F
100
AcDbEntity
  8
LAY-255
  6
CONTINUOUS
 62
     7
100
AcDbText
 10
2111.967549302885
 20
71.8875
 30
0.0
 40
10.3125
  1
ＣＯ.,ＬＴＤ.
 41
1.243831271314936
  7
EXCADSTD
100
AcDbText
  0
TEXT
  5
42C
330
1F
100
AcDbEntity
  8
LAY-255
  6
CONTINUOUS
 62
     7
100
AcDbText
 10
1764.20625
 20
82.3125
 30
0.0
 40
30.9375
  1
S
 41
0.7582677563636363
  7
EXCADSTD
100
AcDbText
  0
TEXT
  5
42D
330
1F
100
AcDbEntity
  8
LAY-255
  6
CONTINUOUS
 62
     7
100
AcDbText
 10
1782.628125
 20
82.49646226416
 30
0.0
 40
30.9375
  1
F
 41
0.7440945272727273
  7
EXCADSTD
100
AcDbText
  0
TEXT
  5
42E
330
1F
100
AcDbEntity
  8
LAY-255
  6
CONTINUOUS
 62
     7
100
AcDbText
 10
2022.6328125
 20
146.5312499999999
 30
0.0
 40
15.46875
  1
縮尺
 41
1.080708718181818
  7
EXCADSTD
100
AcDbText
  0
TEXT
  5
42F
330
1F
100
AcDbEntity
  8
LAY-255
  6
CONTINUOUS
 62
     7
100
AcDbText
 10
1723.59375
 20
339.375
 30
0.0
 40
20.625
  1
型式
 41
1.056348480681818
  7
EXCADSTD
100
AcDbText
  0
TEXT
  5
430
330
1F
100
AcDbEntity
  8
LAY-255
  6
CONTINUOUS
 62
     7
100
AcDbText
 10
1724.53125
 20
375.375
 30
0.0
 40
20.625
  1
品名
 41
0.978838634090909
  7
EXCADSTD
100
AcDbText
  0
TEXT
  5
431
330
1F
100
AcDbEntity
  8
LAY-255
  6
CONTINUOUS
 62
     7
100
AcDbText
 10
1722.9140625
 20
146.5312499999999
 30
0.0
 40
15.46875
  1
作成日
 41
1.000629973818182
  7
EXCADSTD
100
AcDbText
  0
TEXT
  5
432
330
1F
100
AcDbEntity
  8
LAY-255
  6
CONTINUOUS
 62
     7
100
AcDbText
 10
1802.34375
 20
375.375
 30
0.0
 40
20.625
  1
マンホールカバー
 41
1.015410627012987
  7
EXCADSTD
100
AcDbText
  0
TEXT
  5
433
330
1F
100
AcDbEntity
  8
LAY-255
  6
CONTINUOUS
 62
     7
100
AcDbText
 10
1734.84375
 20
273.375
 30
0.0
 40
20.625
  1
機能：ボルト固定式
 41
1.021279830379747
  7
EXCADSTD
100
AcDbText
  0
TEXT
  5
434
330
1F
100
AcDbEntity
  8
LAY-255
  6
CONTINUOUS
 62
     7
100
AcDbText
 10
1736.25
 20
243.375
 30
0.0
 40
20.625
  1
防水：密閉式防水型
 41
1.014103511852704
  7
EXCADSTD
100
AcDbText
  0
TEXT
  5
435
330
1F
100
AcDbEntity
  8
LAY-255
  6
CONTINUOUS
 62
     7
100
AcDbText
 10
2089.6875
 20
141.3749999999999
 30
0.0
 40
20.625
  1
１：６
 41
0.8886614639999999
  7
EXCADSTD
100
AcDbText
  0
TEXT
  5
436
330
1F
100
AcDbEntity
  8
LAY-255
  6
CONTINUOUS
 62
     7
100
AcDbText
 10
1804.5
 20
339.375
 30
0.0
 40
20.625
  1
ＳＦ－６５ＡＫＡ－Ｂ型
 41
1.0041805868791
  7
EXCADSTD
100
AcDbText
  0
TEXT
  5
437
330
1F
100
AcDbEntity
  8
LAY-255
  6
CONTINUOUS
 62
     7
100
AcDbText
 10
1736.71875
 20
303.3750000000001
 30
0.0
 40
20.625
  1
区分：中荷重用
 41
1.00722865752608
  7
EXCADSTD
100
AcDbText
  0
TEXT
  5
438
330
1F
100
AcDbEntity
  8
LAY-255
  6
CONTINUOUS
 62
     7
100
AcDbText
 10
1807.6875
 20
141.3749999999999
 30
0.0
 40
20.625
  1
１０／０４／０２
 41
0.9652981384415584
  7
EXCADSTD
100
AcDbText
  0
TEXT
  5
439
330
1F
100
AcDbEntity
  8
LAY-255
  6
CONTINUOUS
 62
     7
100
AcDbText
 10
1735.03125
 20
213.375
 30
0.0
 40
20.625
  1
破壊荷重：８０ｋＮ以上
 41
1.016600426804124
  7
EXCADSTD
100
AcDbText
  0
ENDSEC
  0
SECTION
  2
OBJECTS
  0
DICTIONARY
  5
C
330
0
100
AcDbDictionary
  3
ACAD_GROUP
350
D
  3
ACAD_LAYOUT
350
1A
  3
ACAD_MATERIAL
350
43
  3
ACAD_MLEADERSTYLE
350
6B
  3
ACAD_MLINESTYLE
350
17
  3
ACAD_PLOTSETTINGS
350
19
  3
ACAD_SCALELIST
350
47
  3
ACAD_VISUALSTYLE
350
2A
  3
ACDBHEADERROUNDTRIPXREC
350
43A
  3
ACDBVARIABLEDICTIONARY
350
45B
  0
DICTIONARY
  5
466
330
8
100
AcDbDictionary
280
     1
  3
ACAD_XREC_ROUNDTRIP
360
467
  0
DICTIONARY
  5
D
102
{ACAD_REACTORS
330
C
102
}
330
C
100
AcDbDictionary
  0
DICTIONARY
  5
1A
102
{ACAD_REACTORS
330
C
102
}
330
C
100
AcDbDictionary
  0
DICTIONARY
  5
43
102
{ACAD_REACTORS
330
C
102
}
330
C
100
AcDbDictionary
  3
BYBLOCK
350
45
  3
BYLAYER
350
44
  3
GLOBAL
350
46
  0
DICTIONARY
  5
6B
102
{ACAD_REACTORS
330
C
102
}
330
C
100
AcDbDictionary
  3
STANDARD
350
6C
  0
DICTIONARY
  5
17
102
{ACAD_REACTORS
330
C
102
}
330
C
100
AcDbDictionary
  3
STANDARD
350
18
  0
DICTIONARY
  5
19
102
{ACAD_REACTORS
330
C
102
}
330
C
100
AcDbDictionary
  0
DICTIONARY
  5
47
102
{ACAD_REACTORS
330
C
102
}
330
C
100
AcDbDictionary
  3
A0
350
48
  3
A1
350
49
  3
A2
350
4A
  3
A3
350
4B
  3
A4
350
4C
  3
A5
350
4D
  3
A6
350
4E
  3
A7
350
4F
  3
A8
350
50
  3
A9
350
51
  3
B0
350
52
  3
B1
350
53
  3
B2
350
54
  3
B3
350
55
  3
B4
350
56
  3
B5
350
57
  3
B6
350
58
  3
B7
350
59
  3
B8
350
5A
  3
B9
350
5B
  3
C0
350
5C
  3
C1
350
5D
  3
C2
350
5E
  3
C3
350
5F
  3
C4
350
60
  3
C5
350
61
  3
C6
350
62
  3
C7
350
63
  3
C8
350
64
  3
C9
350
65
  3
D0
350
66
  3
D1
350
67
  3
D2
350
68
  0
DICTIONARY
  5
2A
102
{ACAD_REACTORS
330
C
102
}
330
C
100
AcDbDictionary
  3
2DWIREFRAME
350
2F
  3
BASIC
350
32
  3
BRIGHTEN
350
36
  3
COLORCHANGE
350
3A
  3
CONCEPTUAL
350
34
  3
DIM
350
35
  3
EDGECOLOROFF
350
3D
  3
FACEPATTERN
350
39
  3
FLAT
350
2B
  3
FLATWITHEDGES
350
2C
  3
GOURAUD
350
2D
  3
GOURAUDWITHEDGES
350
2E
  3
HIDDEN
350
31
  3
JITTEROFF
350
3B
  3
LINEPATTERN
350
38
  3
OVERHANGOFF
350
3C
  3
REALISTIC
350
33
  3
SHADED
350
42
  3
SHADED_WITH_EDGES
350
41
  3
SHADES_OF_GRAY
350
3E
  3
SKETCHY
350
3F
  3
THICKEN
350
37
  3
WIREFRAME
350
30
  3
X-RAY
350
40
  0
DICTIONARY
  5
43A
102
{ACAD_REACTORS
330
C
102
}
330
C
100
AcDbDictionary
  3
CEPSNID
350
444
  3
CEPSNTYPE
350
443
  3
DIMSTYLEDATA
350
45A
  3
FINGERPRINTGUID
350
445
  3
HYPERLINKBASE
350
43D
  3
INSUNITS
350
442
  3
LAYOUTDICT
350
43F
  3
LWETCUNION
350
441
  3
PLOTSETDICT
350
440
  3
PSVPSCALE
350
447
  3
PUCSBASE
350
44A
  3
PUCSORGBACK
350
450
  3
PUCSORGBOTTOM
350
44C
  3
PUCSORGFRONT
350
44F
  3
PUCSORGLEFT
350
44D
  3
PUCSORGRIGHT
350
44E
  3
PUCSORGTOP
350
44B
  3
PUCSORTHOREF
350
448
  3
PUCSORTHOVIEW
350
449
  3
STYLESHEET
350
43E
  3
TSTACKALIGN
350
43B
  3
TSTACKSIZE
350
43C
  3
UCSBASE
350
453
  3
UCSORGBACK
350
459
  3
UCSORGBOTTOM
350
455
  3
UCSORGFRONT
350
458
  3
UCSORGLEFT
350
456
  3
UCSORGRIGHT
350
457
  3
UCSORGTOP
350
454
  3
UCSORTHOREF
350
451
  3
UCSORTHOVIEW
350
452
  3
VERSIONGUID
350
446
  0
DICTIONARY
  5
45B
102
{ACAD_REACTORS
330
C
102
}
330
C
100
AcDbDictionary
  3
CANNOSCALE
350
468
  3
CENTEREXE
350
462
  3
CENTERLTYPEFILE
350
463
  3
CMLEADERSTYLE
350
45D
  3
CTABLESTYLE
350
45C
  3
DIMASSOC
350
464
  3
HIDETEXT
350
465
  3
MSLTSCALE
350
469
  3
PSOLHEIGHT
350
45F
  3
PSOLWIDTH
350
45E
  0
XRECORD
  5
467
102
{ACAD_REACTORS
330
466
102
}
330
466
100
AcDbXrecord
102
VTR_0.000_0.000_1.000_1.000_VISUALSTYLE
340
2F
102
VTR_0.000_0.000_1.000_1.000_GRIDDISPLAY
 70
     3
102
VTR_0.000_0.000_1.000_1.000_GRIDMAJOR
 70
     5
102
VTR_0.000_0.000_1.000_1.000_DEFAULTLIGHTING
280
     1
102
VTR_0.000_0.000_1.000_1.000_DEFAULTLIGHTINGTYPE
 70
     1
102
VTR_0.000_0.000_1.000_1.000_BRIGHTNESS
141
0.0
102
VTR_0.000_0.000_1.000_1.000_CONTRAST
142
0.0
  0
MATERIAL
  5
45
102
{ACAD_REACTORS
330
43
102
}
102
{ACAD_XDICTIONARY
360
46C
102
}
330
43
100
AcDbMaterial
  1
BYBLOCK
  0
MATERIAL
  5
44
102
{ACAD_REACTORS
330
43
102
}
102
{ACAD_XDICTIONARY
360
46A
102
}
330
43
100
AcDbMaterial
  1
BYLAYER
  0
MATERIAL
  5
46
102
{ACAD_REACTORS
330
43
102
}
102
{ACAD_XDICTIONARY
360
46E
102
}
330
43
100
AcDbMaterial
  1
GLOBAL
  0
ACAD_PROXY_OBJECT
  5
6C
102
{ACAD_REACTORS
330
6B
102
}
330
6B
100
AcDbProxyObject
 90
      499
 91
      505
 93
      610
310
40901902A4063FBFFFFFE0000000000000020400000000000020404214DD185B99185C990000000000000104090141901A00000000000004100000000000000041025764000000000000039000
340
14
340
0
340
11
340
0
 94
        0
1001
ACAD_MLEADERVER
1070
     2
  0
MLINESTYLE
  5
18
102
{ACAD_REACTORS
330
17
102
}
330
17
100
AcDbMlineStyle
  2
Standard
 70
     0
  3

 62
   256
 51
90.0
 52
90.0
 71
     2
 49
0.5
 62
   256
  6
BYLAYER
 49
-0.5
 62
   256
  6
BYLAYER
  0
ACAD_PROXY_OBJECT
  5
48
102
{ACAD_REACTORS
330
47
102
}
330
47
100
AcDbProxyObject
 90
      499
 91
      503
 93
       41
310
903313A31580
  0
ACAD_PROXY_OBJECT
  5
49
102
{ACAD_REACTORS
330
47
102
}
330
47
100
AcDbProxyObject
 90
      499
 91
      503
 93
      105
310
903313A324000000000000004000
  0
ACAD_PROXY_OBJECT
  5
4A
102
{ACAD_REACTORS
330
47
102
}
330
47
100
AcDbProxyObject
 90
      499
 91
      503
 93
      105
310
903313A344000000000000104000
  0
ACAD_PROXY_OBJECT
  5
4B
102
{ACAD_REACTORS
330
47
102
}
330
47
100
AcDbProxyObject
 90
      499
 91
      503
 93
      105
310
903313A354000000000000144000
  0
ACAD_PROXY_OBJECT
  5
4C
102
{ACAD_REACTORS
330
47
102
}
330
47
100
AcDbProxyObject
 90
      499
 91
      503
 93
      105
310
903313A384000000000000204000
  0
ACAD_PROXY_OBJECT
  5
4D
102
{ACAD_REACTORS
330
47
102
}
330
47
100
AcDbProxyObject
 90
      499
 91
      503
 93
      113
310
904313A31304000000000000244000
  0
ACAD_PROXY_OBJECT
  5
4E
102
{ACAD_REACTORS
330
47
102
}
330
47
100
AcDbProxyObject
 90
      499
 91
      503
 93
      113
310
904313A31364000000000000304000
  0
ACAD_PROXY_OBJECT
  5
4F
102
{ACAD_REACTORS
330
47
102
}
330
47
100
AcDbProxyObject
 90
      499
 91
      503
 93
      113
310
904313A32304000000000000344000
  0
ACAD_PROXY_OBJECT
  5
50
102
{ACAD_REACTORS
330
47
102
}
330
47
100
AcDbProxyObject
 90
      499
 91
      503
 93
      113
310
904313A333040000000000003E4000
  0
ACAD_PROXY_OBJECT
  5
51
102
{ACAD_REACTORS
330
47
102
}
330
47
100
AcDbProxyObject
 90
      499
 91
      503
 93
      113
310
904313A34304000000000000444000
  0
ACAD_PROXY_OBJECT
  5
52
102
{ACAD_REACTORS
330
47
102
}
330
47
100
AcDbProxyObject
 90
      499
 91
      503
 93
      113
310
904313A35304000000000000494000
  0
ACAD_PROXY_OBJECT
  5
53
102
{ACAD_REACTORS
330
47
102
}
330
47
100
AcDbProxyObject
 90
      499
 91
      503
 93
      121
310
905313A3130304000000000000594000
  0
ACAD_PROXY_OBJECT
  5
54
102
{ACAD_REACTORS
330
47
102
}
330
47
100
AcDbProxyObject
 90
      499
 91
      503
 93
      105
310
903323A310000000000000010100
  0
ACAD_PROXY_OBJECT
  5
55
102
{ACAD_REACTORS
330
47
102
}
330
47
100
AcDbProxyObject
 90
      499
 91
      503
 93
      105
310
903343A310000000000000410100
  0
ACAD_PROXY_OBJECT
  5
56
102
{ACAD_REACTORS
330
47
102
}
330
47
100
AcDbProxyObject
 90
      499
 91
      503
 93
      105
310
903383A310000000000000810100
  0
ACAD_PROXY_OBJECT
  5
57
102
{ACAD_REACTORS
330
47
102
}
330
47
100
AcDbProxyObject
 90
      499
 91
      503
 93
      113
310
90431303A310000000000000910100
  0
ACAD_PROXY_OBJECT
  5
58
102
{ACAD_REACTORS
330
47
102
}
330
47
100
AcDbProxyObject
 90
      499
 91
      503
 93
      121
310
9053130303A310000000000001650100
  0
ACAD_PROXY_OBJECT
  5
59
102
{ACAD_REACTORS
330
47
102
}
330
47
100
AcDbProxyObject
 90
      499
 91
      503
 93
      257
310
90E312F31323822203D2031272D3022000000000000200FC000000000000284000
  0
ACAD_PROXY_OBJECT
  5
5A
102
{ACAD_REACTORS
330
47
102
}
330
47
100
AcDbProxyObject
 90
      499
 91
      503
 93
      249
310
90D312F363422203D2031272D3022000000000000240FC000000000000284000
  0
ACAD_PROXY_OBJECT
  5
5B
102
{ACAD_REACTORS
330
47
102
}
330
47
100
AcDbProxyObject
 90
      499
 91
      503
 93
      249
310
90D312F333222203D2031272D3022000000000000280FC000000000000284000
  0
ACAD_PROXY_OBJECT
  5
5C
102
{ACAD_REACTORS
330
47
102
}
330
47
100
AcDbProxyObject
 90
      499
 91
      503
 93
      249
310
90D312F313622203D2031272D30220000000000002C0FC000000000000284000
  0
ACAD_PROXY_OBJECT
  5
5D
102
{ACAD_REACTORS
330
47
102
}
330
47
100
AcDbProxyObject
 90
      499
 91
      503
 93
      249
310
90D332F333222203D2031272D30220000000000002E0FC000000000000284000
  0
ACAD_PROXY_OBJECT
  5
5E
102
{ACAD_REACTORS
330
47
102
}
330
47
100
AcDbProxyObject
 90
      499
 91
      503
 93
      241
310
90C312F3822203D2031272D3022000000000000300FC000000000000284000
  0
ACAD_PROXY_OBJECT
  5
5F
102
{ACAD_REACTORS
330
47
102
}
330
47
100
AcDbProxyObject
 90
      499
 91
      503
 93
      249
310
90D332F313622203D2031272D3022000000000000320FC000000000000284000
  0
ACAD_PROXY_OBJECT
  5
60
102
{ACAD_REACTORS
330
47
102
}
330
47
100
AcDbProxyObject
 90
      499
 91
      503
 93
      241
310
90C312F3422203D2031272D3022000000000000340FC000000000000284000
  0
ACAD_PROXY_OBJECT
  5
61
102
{ACAD_REACTORS
330
47
102
}
330
47
100
AcDbProxyObject
 90
      499
 91
      503
 93
      241
310
90C332F3822203D2031272D3022000000000000360FC000000000000284000
  0
ACAD_PROXY_OBJECT
  5
62
102
{ACAD_REACTORS
330
47
102
}
330
47
100
AcDbProxyObject
 90
      499
 91
      503
 93
      241
310
90C312F3222203D2031272D3022000000000000380FC000000000000284000
  0
ACAD_PROXY_OBJECT
  5
63
102
{ACAD_REACTORS
330
47
102
}
330
47
100
AcDbProxyObject
 90
      499
 91
      503
 93
      241
310
90C332F3422203D2031272D30220000000000003A0FC000000000000284000
  0
ACAD_PROXY_OBJECT
  5
64
102
{ACAD_REACTORS
330
47
102
}
330
47
100
AcDbProxyObject
 90
      499
 91
      503
 93
      161
310
90A3122203D2031272D30224000000000000284000
  0
ACAD_PROXY_OBJECT
  5
65
102
{ACAD_REACTORS
330
47
102
}
330
47
100
AcDbProxyObject
 90
      499
 91
      503
 93
      257
310
90E312D312F3222203D2031272D30220000000000003E0FC000000000000284000
  0
ACAD_PROXY_OBJECT
  5
66
102
{ACAD_REACTORS
330
47
102
}
330
47
100
AcDbProxyObject
 90
      499
 91
      503
 93
      225
310
90A3322203D2031272D302200000000000002100000000000000284000
  0
ACAD_PROXY_OBJECT
  5
67
102
{ACAD_REACTORS
330
47
102
}
330
47
100
AcDbProxyObject
 90
      499
 91
      503
 93
      225
310
90A3622203D2031272D302200000000000006100000000000000284000
  0
ACAD_PROXY_OBJECT
  5
68
102
{ACAD_REACTORS
330
47
102
}
330
47
100
AcDbProxyObject
 90
      499
 91
      503
 93
      249
310
90D31272D3022203D2031272D30220000000000000A100000000000000284000
  0
ACAD_PROXY_OBJECT
  5
2F
102
{ACAD_REACTORS
330
2A
102
}
330
2A
100
AcDbProxyObject
 90
      499
 91
      501
 93
      436
310
42CC9915DA5C99599C985B595049028333333333333E33F0000000000000F90107901411070040501600405405064090741402480A0340
1001
ACAD
1000
AcDbSavedByObjectVersion
1070
     0
  0
ACAD_PROXY_OBJECT
  5
32
102
{ACAD_REACTORS
330
2A
102
}
330
2A
100
AcDbProxyObject
 90
      499
 91
      501
 93
      388
310
4150985CDA58D07406404333333333333E33F0000000000000F90107A41107004050150841D405064090741402480A0350
1001
ACAD
1000
AcDbSavedByObjectVersion
1070
     0
  0
ACAD_PROXY_OBJECT
  5
36
102
{ACAD_REACTORS
330
2A
102
}
330
2A
100
AcDbProxyObject
 90
      499
 91
      501
 93
      428
310
42109C9A59DA1D195B90C409028333333333333E33F0000000000000F9010790141107004050150841D405064090741402480A029950
1001
ACAD
1000
AcDbSavedByObjectVersion
1070
     0
  0
ACAD_PROXY_OBJECT
  5
3A
102
{ACAD_REACTORS
330
2A
102
}
330
2A
100
AcDbProxyObject
 90
      499
 91
      501
 93
      452
310
42D0DBDB1BDC90DA185B99D95104090240C333333333333E33F0000000000000F90108901411070040501508421405064090741402480A0350
1001
ACAD
1000
AcDbSavedByObjectVersion
1070
     0
  0
ACAD_PROXY_OBJECT
  5
34
102
{ACAD_REACTORS
330
2A
102
}
330
2A
100
AcDbProxyObject
 90
      499
 91
      501
 93
      500
310
4290DBDB98D95C1D1D585B10940D028333333333333E33F0000000000000F90107902409070040501000000000018199010841D405064090740C02480A0340
1001
ACAD
1000
AcDbSavedByObjectVersion
1070
     0
  0
ACAD_PROXY_OBJECT
  5
35
102
{ACAD_REACTORS
330
2A
102
}
330
2A
100
AcDbProxyObject
 90
      499
 91
      501
 93
      412
310
40D11A5B50B409028333333333333E33F0000000000000F9010790141107004050150841D405064090741402480A02677FFFFFD0
1001
ACAD
1000
AcDbSavedByObjectVersion
1070
     0
  0
ACAD_PROXY_OBJECT
  5
3D
102
{ACAD_REACTORS
330
2A
102
}
330
2A
100
AcDbProxyObject
 90
      499
 91
      501
 93
      452
310
43115919D950DBDB1BDC93D999916409028333333333333E33F0000000000000F9010790141107004050150841D405064090741402480A0350
1001
ACAD
1000
AcDbSavedByObjectVersion
1070
     0
  0
ACAD_PROXY_OBJECT
  5
39
102
{ACAD_REACTORS
330
2A
102
}
330
2A
100
AcDbProxyObject
 90
      499
 91
      501
 93
      444
310
42D19858D95C185D1D195C9B90F409028333333333333E33F0000000000000F9010790141107004050150841D405064090741402480A0350
1001
ACAD
1000
AcDbSavedByObjectVersion
1070
     0
  0
ACAD_PROXY_OBJECT
  5
2B
102
{ACAD_REACTORS
330
2A
102
}
330
2A
100
AcDbProxyObject
 90
      499
 91
      501
 93
      380
310
41119B185D240901404333333333333E33F0000000000000F9010740A907004050150841D405064090741402480A1B50
1001
ACAD
1000
AcDbSavedByObjectVersion
1070
     0
  0
ACAD_PROXY_OBJECT
  5
2C
102
{ACAD_REACTORS
330
2A
102
}
330
2A
100
AcDbProxyObject
 90
      499
 91
      501
 93
      468
310
43519B185D15DA5D1A115919D95CD0140901404333333333333E33F0000000000000F90107409019070040501600405405064090741402480A1B50
1001
ACAD
1000
AcDbSavedByObjectVersion
1070
     0
  0
ACAD_PROXY_OBJECT
  5
2D
102
{ACAD_REACTORS
330
2A
102
}
330
2A
100
AcDbProxyObject
 90
      499
 91
      501
 93
      404
310
41D1DBDD5C985D5910240902404333333333333E33F0000000000000F9010740A9070040501641D405064090741402480A1B50
1001
ACAD
1000
AcDbSavedByObjectVersion
1070
     0
  0
ACAD_PROXY_OBJECT
  5
2E
102
{ACAD_REACTORS
330
2A
102
}
330
2A
100
AcDbProxyObject
 90
      499
 91
      501
 93
      492
310
4411DBDD5C985D5915DA5D1A115919D95CD0340902404333333333333E33F0000000000000F90107409019070040501600405405064090741402480A1B50
1001
ACAD
1000
AcDbSavedByObjectVersion
1070
     0
  0
ACAD_PROXY_OBJECT
  5
31
102
{ACAD_REACTORS
330
2A
102
}
330
2A
100
AcDbProxyObject
 90
      499
 91
      501
 93
      476
310
41921A5919195B90640502408333333333333E33F0000000000000F901079024090700405020000000000001110200405405064090740C02480A0340
1001
ACAD
1000
AcDbSavedByObjectVersion
1070
     0
  0
ACAD_PROXY_OBJECT
  5
3B
102
{ACAD_REACTORS
330
2A
102
}
330
2A
100
AcDbProxyObject
 90
      499
 91
      501
 93
      428
310
42529A5D1D195C93D999914409028333333333333E33F0000000000000F9010790141107004050150A41D405064090741402480A0350
1001
ACAD
1000
AcDbSavedByObjectVersion
1070
     0
  0
ACAD_PROXY_OBJECT
  5
38
102
{ACAD_REACTORS
330
2A
102
}
330
2A
100
AcDbProxyObject
 90
      499
 91
      501
 93
      444
310
42D31A5B995C185D1D195C9B90E409028333333333333E33F0000000000000F9010790141107004050750841D405064090741402483A0350
1001
ACAD
1000
AcDbSavedByObjectVersion
1070
     0
  0
ACAD_PROXY_OBJECT
  5
3C
102
{ACAD_REACTORS
330
2A
102
}
330
2A
100
AcDbProxyObject
 90
      499
 91
      501
 93
      444
310
42D3DD995C9A185B99D3D999915409028333333333333E33F0000000000000F9010790141107004050150941D405064090741402480A0350
1001
ACAD
1000
AcDbSavedByObjectVersion
1070
     0
  0
ACAD_PROXY_OBJECT
  5
33
102
{ACAD_REACTORS
330
2A
102
}
330
2A
100
AcDbProxyObject
 90
      499
 91
      501
 93
      428
310
425499585B1A5CDD1A58D08409038333333333333E33F0000000000000F9010740A907004050150800405405064090740C02480A1B40
1001
ACAD
1000
AcDbSavedByObjectVersion
1070
     0
  0
ACAD_PROXY_OBJECT
  5
42
102
{ACAD_REACTORS
330
2A
102
}
330
2A
100
AcDbProxyObject
 90
      499
 91
      501
 93
      420
310
4194DA1859195911B40902404333333333333E33F0000000000000F9010740A41107004050150800405405064090840C02480A0B40
1001
ACAD
1000
AcDbSavedByObjectVersion
1070
     0
  0
ACAD_PROXY_OBJECT
  5
41
102
{ACAD_REACTORS
330
2A
102
}
330
2A
100
AcDbProxyObject
 90
      499
 91
      501
 93
      516
310
4454DA18591959081DDA5D1A08195919D95CD1A40902404333333333333E33F0000000000000F901074090142907004050250800405405064090740C02480A0B40
1001
ACAD
1000
AcDbSavedByObjectVersion
1070
     0
  0
ACAD_PROXY_OBJECT
  5
3E
102
{ACAD_REACTORS
330
2A
102
}
330
2A
100
AcDbProxyObject
 90
      499
 91
      501
 93
      532
310
4394DA1859195CC81BD98811DC985E5174090240C333333333333E33F0000000000000F901079024090741D01000000000000111010841D405064090740C02480A0340
1001
ACAD
1000
AcDbSavedByObjectVersion
1070
     0
  0
ACAD_PROXY_OBJECT
  5
3F
102
{ACAD_REACTORS
330
2A
102
}
330
2A
100
AcDbProxyObject
 90
      499
 91
      501
 93
      476
310
41D4DAD95D18DA1E51840502408333333333333E33F0000000000000F901079024090741D01000000000000111010B41D405064090741802480A0340
1001
ACAD
1000
AcDbSavedByObjectVersion
1070
     0
  0
ACAD_PROXY_OBJECT
  5
37
102
{ACAD_REACTORS
330
2A
102
}
330
2A
100
AcDbProxyObject
 90
      499
 91
      501
 93
      412
310
41D51A1A58DAD95B90D409028333333333333E33F0000000000000F9010790141107004050150C41D405064090741402480A0350
1001
ACAD
1000
AcDbSavedByObjectVersion
1070
     0
  0
ACAD_PROXY_OBJECT
  5
30
102
{ACAD_REACTORS
330
2A
102
}
330
2A
100
AcDbProxyObject
 90
      499
 91
      501
 93
      420
310
4255DA5C99599C985B595059028333333333333E33F0000000000000F90107901411070040501600405405064090740C02480A0340
1001
ACAD
1000
AcDbSavedByObjectVersion
1070
     0
  0
ACAD_PROXY_OBJECT
  5
40
102
{ACAD_REACTORS
330
2A
102
}
330
2A
100
AcDbProxyObject
 90
      499
 91
      501
 93
      404
310
41560B54985E51940902404000000000000E03F0000000000000F9010740501907004050150841D405064090740C02480A1B40
1001
ACAD
1000
AcDbSavedByObjectVersion
1070
     0
  0
XRECORD
  5
444
102
{ACAD_REACTORS
330
43A
102
}
330
43A
100
AcDbXrecord
340
0
  0
XRECORD
  5
443
102
{ACAD_REACTORS
330
43A
102
}
330
43A
100
AcDbXrecord
 90
        0
  0
XRECORD
  5
45A
102
{ACAD_REACTORS
330
43A
102
}
330
43A
100
AcDbXrecord
1000
DSTYLE
1002
{
1070
   340
340
11
1002
}
  0
XRECORD
  5
445
102
{ACAD_REACTORS
330
43A
102
}
330
43A
100
AcDbXrecord
  1
{e8a1d7b4-85cc-4bd1-b2a6-1a7b61edb1c4}
  0
XRECORD
  5
43D
102
{ACAD_REACTORS
330
43A
102
}
330
43A
100
AcDbXrecord
  1

  0
XRECORD
  5
442
102
{ACAD_REACTORS
330
43A
102
}
330
43A
100
AcDbXrecord
 90
        4
  0
XRECORD
  5
43F
102
{ACAD_REACTORS
330
43A
102
}
330
43A
100
AcDbXrecord
340
1A
  0
XRECORD
  5
441
102
{ACAD_REACTORS
330
43A
102
}
330
43A
100
AcDbXrecord
 90
    10781
  0
XRECORD
  5
440
102
{ACAD_REACTORS
330
43A
102
}
330
43A
100
AcDbXrecord
340
19
  0
XRECORD
  5
447
102
{ACAD_REACTORS
330
43A
102
}
330
43A
100
AcDbXrecord
 40
0.0
  0
XRECORD
  5
44A
102
{ACAD_REACTORS
330
43A
102
}
330
43A
100
AcDbXrecord
340
0
  0
XRECORD
  5
450
102
{ACAD_REACTORS
330
43A
102
}
330
43A
100
AcDbXrecord
 10
0.0
 20
0.0
 30
0.0
  0
XRECORD
  5
44C
102
{ACAD_REACTORS
330
43A
102
}
330
43A
100
AcDbXrecord
 10
0.0
 20
0.0
 30
0.0
  0
XRECORD
  5
44F
102
{ACAD_REACTORS
330
43A
102
}
330
43A
100
AcDbXrecord
 10
0.0
 20
0.0
 30
0.0
  0
XRECORD
  5
44D
102
{ACAD_REACTORS
330
43A
102
}
330
43A
100
AcDbXrecord
 10
0.0
 20
0.0
 30
0.0
  0
XRECORD
  5
44E
102
{ACAD_REACTORS
330
43A
102
}
330
43A
100
AcDbXrecord
 10
0.0
 20
0.0
 30
0.0
  0
XRECORD
  5
44B
102
{ACAD_REACTORS
330
43A
102
}
330
43A
100
AcDbXrecord
 10
0.0
 20
0.0
 30
0.0
  0
XRECORD
  5
448
102
{ACAD_REACTORS
330
43A
102
}
330
43A
100
AcDbXrecord
340
0
  0
XRECORD
  5
449
102
{ACAD_REACTORS
330
43A
102
}
330
43A
100
AcDbXrecord
 70
     0
  0
XRECORD
  5
43E
102
{ACAD_REACTORS
330
43A
102
}
330
43A
100
AcDbXrecord
  1

  0
XRECORD
  5
43B
102
{ACAD_REACTORS
330
43A
102
}
330
43A
100
AcDbXrecord
 90
        1
  0
XRECORD
  5
43C
102
{ACAD_REACTORS
330
43A
102
}
330
43A
100
AcDbXrecord
 90
       70
  0
XRECORD
  5
453
102
{ACAD_REACTORS
330
43A
102
}
330
43A
100
AcDbXrecord
340
0
  0
XRECORD
  5
459
102
{ACAD_REACTORS
330
43A
102
}
330
43A
100
AcDbXrecord
 10
0.0
 20
0.0
 30
0.0
  0
XRECORD
  5
455
102
{ACAD_REACTORS
330
43A
102
}
330
43A
100
AcDbXrecord
 10
0.0
 20
0.0
 30
0.0
  0
XRECORD
  5
458
102
{ACAD_REACTORS
330
43A
102
}
330
43A
100
AcDbXrecord
 10
0.0
 20
0.0
 30
0.0
  0
XRECORD
  5
456
102
{ACAD_REACTORS
330
43A
102
}
330
43A
100
AcDbXrecord
 10
0.0
 20
0.0
 30
0.0
  0
XRECORD
  5
457
102
{ACAD_REACTORS
330
43A
102
}
330
43A
100
AcDbXrecord
 10
0.0
 20
0.0
 30
0.0
  0
XRECORD
  5
454
102
{ACAD_REACTORS
330
43A
102
}
330
43A
100
AcDbXrecord
 10
0.0
 20
0.0
 30
0.0
  0
XRECORD
  5
451
102
{ACAD_REACTORS
330
43A
102
}
330
43A
100
AcDbXrecord
340
0
  0
XRECORD
  5
452
102
{ACAD_REACTORS
330
43A
102
}
330
43A
100
AcDbXrecord
 70
     0
  0
XRECORD
  5
446
102
{ACAD_REACTORS
330
43A
102
}
330
43A
100
AcDbXrecord
  1
{FAEB1C32-E019-11D5-929B-00C0DF256EC4}
  0
DICTIONARYVAR
  5
468
102
{ACAD_REACTORS
330
45B
102
}
330
45B
100
DictionaryVariables
280
     0
  1
1:1
  0
DICTIONARYVAR
  5
462
102
{ACAD_REACTORS
330
45B
102
}
330
45B
100
DictionaryVariables
280
     0
  1
3.500000
  0
DICTIONARYVAR
  5
463
102
{ACAD_REACTORS
330
45B
102
}
330
45B
100
DictionaryVariables
280
     0
  1
acadiso.lin
  0
DICTIONARYVAR
  5
45D
102
{ACAD_REACTORS
330
45B
102
}
330
45B
100
DictionaryVariables
280
     0
  1
Standard
  0
DICTIONARYVAR
  5
45C
102
{ACAD_REACTORS
330
45B
102
}
330
45B
100
DictionaryVariables
280
     0
  1
Standard
  0
DICTIONARYVAR
  5
464
102
{ACAD_REACTORS
330
45B
102
}
330
45B
100
DictionaryVariables
280
     0
  1
2
  0
DICTIONARYVAR
  5
465
102
{ACAD_REACTORS
330
45B
102
}
330
45B
100
DictionaryVariables
280
     0
  1
1
  0
DICTIONARYVAR
  5
469
102
{ACAD_REACTORS
330
45B
102
}
330
45B
100
DictionaryVariables
280
     0
  1
1
  0
DICTIONARYVAR
  5
45F
102
{ACAD_REACTORS
330
45B
102
}
330
45B
100
DictionaryVariables
280
     0
  1
80.000000
  0
DICTIONARYVAR
  5
45E
102
{ACAD_REACTORS
330
45B
102
}
330
45B
100
DictionaryVariables
280
     0
  1
5.000000
  0
DICTIONARY
  5
46C
330
45
100
AcDbDictionary
280
     1
  3
ACAD_XREC_ROUNDTRIP
360
46D
  0
DICTIONARY
  5
46A
330
44
100
AcDbDictionary
280
     1
  3
ACAD_XREC_ROUNDTRIP
360
46B
  0
DICTIONARY
  5
46E
330
46
100
AcDbDictionary
280
     1
  3
ACAD_XREC_ROUNDTRIP
360
46F
  0
XRECORD
  5
46D
102
{ACAD_REACTORS
330
46C
102
}
330
46C
100
AcDbXrecord
102
MATERIAL
148
0.0
149
0.0
149
0.0
 93
        0
 94
      127
282
     0
 72
     1
 77
     1
171
     1
175
     1
179
     1
273
     0
  0
XRECORD
  5
46B
102
{ACAD_REACTORS
330
46A
102
}
330
46A
100
AcDbXrecord
102
MATERIAL
148
0.0
149
0.0
149
0.0
 93
        0
 94
      127
282
     0
 72
     1
 77
     1
171
     1
175
     1
179
     1
273
     0
  0
XRECORD
  5
46F
102
{ACAD_REACTORS
330
46E
102
}
330
46E
100
AcDbXrecord
102
MATERIAL
148
0.0
149
0.0
149
0.0
 93
        0
 94
      127
282
     0
 72
     1
 77
     1
171
     1
175
     1
179
     1
273
     0
  0
ENDSEC
  0
EOF
