  0
SECTION
  2
HEADER
  9
$ACADVER
  1
AC1014
  9
$ACADMAINTVER
 70
     9
  9
$DWGCODEPAGE
  3
ANSI_932
  9
$INSBASE
 10
0.0
 20
0.0
 30
0.0
  9
$EXTMIN
 10
15.0
 20
30.0
 30
0.0
  9
$EXTMAX
 10
1155.0
 20
840.0
 30
0.0
  9
$LIMMIN
 10
0.0
 20
0.0
  9
$LIMMAX
 10
420.0
 20
297.0
  9
$ORTHOMODE
 70
     0
  9
$REGENMODE
 70
     1
  9
$FILLMODE
 70
     1
  9
$QTEXTMODE
 70
     0
  9
$MIRRTEXT
 70
     1
  9
$DRAGMODE
 70
     2
  9
$LTSCALE
 40
0.2
  9
$OSMODE
 70
    37
  9
$ATTMODE
 70
     1
  9
$TEXTSIZE
 40
2.5
  9
$TRACEWID
 40
1.0
  9
$TEXTSTYLE
  7
STANDARD
  9
$CLAYER
  8
LAY-10
  9
$CELTYPE
  6
BYLAYER
  9
$CECOLOR
 62
   256
  9
$CELTSCALE
 40
1.0
  9
$DELOBJ
 70
     1
  9
$DISPSILH
 70
     0
  9
$DIMSCALE
 40
1.0
  9
$DIMASZ
 40
2.5
  9
$DIMEXO
 40
0.625
  9
$DIMDLI
 40
3.75
  9
$DIMRND
 40
0.0
  9
$DIMDLE
 40
0.0
  9
$DIMEXE
 40
1.25
  9
$DIMTP
 40
0.0
  9
$DIMTM
 40
0.0
  9
$DIMTXT
 40
2.5
  9
$DIMCEN
 40
2.5
  9
$DIMTSZ
 40
0.0
  9
$DIMTOL
 70
     0
  9
$DIMLIM
 70
     0
  9
$DIMTIH
 70
     0
  9
$DIMTOH
 70
     0
  9
$DIMSE1
 70
     0
  9
$DIMSE2
 70
     0
  9
$DIMTAD
 70
     1
  9
$DIMZIN
 70
     8
  9
$DIMBLK
  1

  9
$DIMASO
 70
     1
  9
$DIMSHO
 70
     1
  9
$DIMPOST
  1

  9
$DIMAPOST
  1

  9
$DIMALT
 70
     0
  9
$DIMALTD
 70
     3
  9
$DIMALTF
 40
0.03937007874016
  9
$DIMLFAC
 40
1.0
  9
$DIMTOFL
 70
     1
  9
$DIMTVP
 40
0.0
  9
$DIMTIX
 70
     0
  9
$DIMSOXD
 70
     0
  9
$DIMSAH
 70
     0
  9
$DIMBLK1
  1

  9
$DIMBLK2
  1

  9
$DIMSTYLE
  2
ISO-25
  9
$DIMCLRD
 70
     0
  9
$DIMCLRE
 70
     0
  9
$DIMCLRT
 70
     0
  9
$DIMTFAC
 40
1.0
  9
$DIMGAP
 40
0.625
  9
$DIMJUST
 70
     0
  9
$DIMSD1
 70
     0
  9
$DIMSD2
 70
     0
  9
$DIMTOLJ
 70
     0
  9
$DIMTZIN
 70
     8
  9
$DIMALTZ
 70
     0
  9
$DIMALTTZ
 70
     0
  9
$DIMFIT
 70
     3
  9
$DIMUPT
 70
     0
  9
$DIMUNIT
 70
     2
  9
$DIMDEC
 70
     2
  9
$DIMTDEC
 70
     2
  9
$DIMALTU
 70
     2
  9
$DIMALTTD
 70
     3
  9
$DIMTXSTY
  7
STANDARD
  9
$DIMAUNIT
 70
     0
  9
$LUNITS
 70
     2
  9
$LUPREC
 70
     4
  9
$SKETCHINC
 40
1.0
  9
$FILLETRAD
 40
10.0
  9
$AUNITS
 70
     0
  9
$AUPREC
 70
     0
  9
$MENU
  1
.
  9
$ELEVATION
 40
0.0
  9
$PELEVATION
 40
0.0
  9
$THICKNESS
 40
0.0
  9
$LIMCHECK
 70
     0
  9
$CHAMFERA
 40
0.0
  9
$CHAMFERB
 40
0.0
  9
$CHAMFERC
 40
0.0
  9
$CHAMFERD
 40
0.0
  9
$SKPOLY
 70
     0
  9
$TDCREATE
 40
2459229.332813056
  9
$TDUPDATE
 40
2459229.332813542
  9
$TDINDWG
 40
0.0000000116
  9
$TDUSRTIMER
 40
0.0000000116
  9
$USRTIMER
 70
     1
  9
$ANGBASE
 50
0.0
  9
$ANGDIR
 70
     0
  9
$PDMODE
 70
     0
  9
$PDSIZE
 40
0.0
  9
$PLINEWID
 40
0.0
  9
$COORDS
 70
     1
  9
$SPLFRAME
 70
     0
  9
$SPLINETYPE
 70
     6
  9
$SPLINESEGS
 70
     8
  9
$ATTDIA
 70
     0
  9
$ATTREQ
 70
     1
  9
$HANDLING
 70
     1
  9
$HANDSEED
  5
528
  9
$SURFTAB1
 70
     6
  9
$SURFTAB2
 70
     6
  9
$SURFTYPE
 70
     6
  9
$SURFU
 70
     6
  9
$SURFV
 70
     6
  9
$UCSNAME
  2

  9
$UCSORG
 10
0.0
 20
0.0
 30
0.0
  9
$UCSXDIR
 10
1.0
 20
0.0
 30
0.0
  9
$UCSYDIR
 10
0.0
 20
1.0
 30
0.0
  9
$PUCSNAME
  2

  9
$PUCSORG
 10
0.0
 20
0.0
 30
0.0
  9
$PUCSXDIR
 10
1.0
 20
0.0
 30
0.0
  9
$PUCSYDIR
 10
0.0
 20
1.0
 30
0.0
  9
$USERI1
 70
     0
  9
$USERI2
 70
     0
  9
$USERI3
 70
     0
  9
$USERI4
 70
     0
  9
$USERI5
 70
     0
  9
$USERR1
 40
0.0
  9
$USERR2
 40
0.0
  9
$USERR3
 40
0.0
  9
$USERR4
 40
0.0
  9
$USERR5
 40
0.0
  9
$WORLDVIEW
 70
     1
  9
$SHADEDGE
 70
     3
  9
$SHADEDIF
 70
    70
  9
$TILEMODE
 70
     1
  9
$MAXACTVP
 70
    64
  9
$PINSBASE
 10
0.0
 20
0.0
 30
0.0
  9
$PLIMCHECK
 70
     0
  9
$PEXTMIN
 10
1.000000000000000E+20
 20
1.000000000000000E+20
 30
1.000000000000000E+20
  9
$PEXTMAX
 10
-1.000000000000000E+20
 20
-1.000000000000000E+20
 30
-1.000000000000000E+20
  9
$PLIMMIN
 10
0.0
 20
0.0
  9
$PLIMMAX
 10
420.0
 20
297.0
  9
$UNITMODE
 70
     0
  9
$VISRETAIN
 70
     1
  9
$PLINEGEN
 70
     0
  9
$PSLTSCALE
 70
     1
  9
$TREEDEPTH
 70
  3020
  9
$PICKSTYLE
 70
     1
  9
$CMLSTYLE
  2
STANDARD
  9
$CMLJUST
 70
     0
  9
$CMLSCALE
 40
20.0
  9
$PROXYGRAPHICS
 70
     1
  9
$MEASUREMENT
 70
     1
  0
ENDSEC
  0
SECTION
  2
CLASSES
  0
CLASS
  1
ACDBDICTIONARYWDFLT
  2
AcDbDictionaryWithDefault
  3
ObjectDBX Classes
 90
        0
280
     0
281
     0
  0
CLASS
  1
VISUALSTYLE
  2
AcDbVisualStyle
  3
ObjectDBX Classes
 90
     4095
280
     0
281
     0
  0
CLASS
  1
MATERIAL
  2
AcDbMaterial
  3
ObjectDBX Classes
 90
     1153
280
     0
281
     0
  0
CLASS
  1
SCALE
  2
AcDbScale
  3
ObjectDBX Classes
 90
     1153
280
     0
281
     0
  0
CLASS
  1
TABLESTYLE
  2
AcDbTableStyle
  3
ObjectDBX Classes
 90
     4095
280
     0
281
     0
  0
CLASS
  1
MLEADERSTYLE
  2
AcDbMLeaderStyle
  3
ACDB_MLEADERSTYLE_CLASS
 90
     4095
280
     0
281
     0
  0
CLASS
  1
SUN
  2
AcDbSun
  3
SCENEOE
 90
     1153
280
     0
281
     0
  0
CLASS
  1
DICTIONARYVAR
  2
AcDbDictionaryVar
  3
ObjectDBX Classes
 90
        0
280
     0
281
     0
  0
CLASS
  1
XRECORD
  2
AcDbXrecord
  3
ObjectDBX Classes
 90
        0
280
     0
281
     0
  0
CLASS
  1
LWPOLYLINE
  2
AcDbPolyline
  3
ObjectDBX Classes
 90
        0
280
     0
281
     1
  0
CLASS
  1
HATCH
  2
AcDbHatch
  3
ObjectDBX Classes
 90
        0
280
     0
281
     1
  0
CLASS
  1
ACDBPLACEHOLDER
  2
AcDbPlaceHolder
  3
ObjectDBX Classes
 90
        0
280
     0
281
     0
  0
CLASS
  1
LAYOUT
  2
AcDbLayout
  3
ObjectDBX Classes
 90
        0
280
     0
281
     0
  0
ENDSEC
  0
SECTION
  2
TABLES
  0
TABLE
  2
VPORT
  5
8
102
{ACAD_XDICTIONARY
360
51D
102
}
330
0
100
AcDbSymbolTable
 70
     1
  0
VPORT
  5
29
330
8
100
AcDbSymbolTableRecord
100
AcDbViewportTableRecord
  2
*ACTIVE
 70
     0
 10
0.0
 20
0.0
 11
1.0
 21
1.0
 12
585.0000000000001
 22
435.0
 13
0.0
 23
0.0
 14
10.0
 24
10.0
 15
10.0
 25
10.0
 16
0.0
 26
0.0
 36
1.0
 17
0.0
 27
0.0
 37
0.0
 40
810.0
 41
1.407407407407408
 42
50.0
 43
0.0
 44
0.0
 50
0.0
 51
0.0
 71
     0
 72
  1000
 73
     1
 74
     3
 75
     0
 76
     0
 77
     0
 78
     0
  0
ENDTAB
  0
TABLE
  2
LTYPE
  5
5
330
0
100
AcDbSymbolTable
 70
     6
  0
LTYPE
  5
14
330
5
100
AcDbSymbolTableRecord
100
AcDbLinetypeTableRecord
  2
BYBLOCK
 70
     0
  3

 72
    65
 73
     0
 40
0.0
  0
LTYPE
  5
15
330
5
100
AcDbSymbolTableRecord
100
AcDbLinetypeTableRecord
  2
BYLAYER
 70
     0
  3

 72
    65
 73
     0
 40
0.0
  0
LTYPE
  5
16
330
5
100
AcDbSymbolTableRecord
100
AcDbLinetypeTableRecord
  2
CONTINUOUS
 70
     0
  3
Solid line
 72
    65
 73
     0
 40
0.0
  0
LTYPE
  5
6E
330
5
100
AcDbSymbolTableRecord
100
AcDbLinetypeTableRecord
  2
HIDDEN
 70
     0
  3
Hidden __ __ __ __ __ __ __ __ __ __ __ __ __ __
 72
    65
 73
     2
 40
9.524999999999999
 49
6.35
 74
     0
 49
-3.175
 74
     0
  0
LTYPE
  5
6F
330
5
100
AcDbSymbolTableRecord
100
AcDbLinetypeTableRecord
  2
CENTER
 70
     0
  3
Center ____ _ ____ _ ____ _ ____ _ ____ _ ____
 72
    65
 73
     4
 40
50.8
 49
31.75
 74
     0
 49
-6.35
 74
     0
 49
6.35
 74
     0
 49
-6.35
 74
     0
  0
LTYPE
  5
70
330
5
100
AcDbSymbolTableRecord
100
AcDbLinetypeTableRecord
  2
PHANTOM
 70
     0
  3
Phantom ______  __  __  ______  __  __  ______ 
 72
    65
 73
     6
 40
63.50000000000001
 49
31.75
 74
     0
 49
-6.35
 74
     0
 49
6.35
 74
     0
 49
-6.35
 74
     0
 49
6.35
 74
     0
 49
-6.35
 74
     0
  0
LTYPE
  5
71
330
5
100
AcDbSymbolTableRecord
100
AcDbLinetypeTableRecord
  2
ACAD_ISO06W100
 70
     0
  3
ISO long-dash triple-dot ____ ... ____ ... ____
 72
    65
 73
     8
 40
36.0
 49
24.0
 74
     0
 49
-3.0
 74
     0
 49
0.0
 74
     0
 49
-3.0
 74
     0
 49
0.0
 74
     0
 49
-3.0
 74
     0
 49
0.0
 74
     0
 49
-3.0
 74
     0
  0
LTYPE
  5
72
330
5
100
AcDbSymbolTableRecord
100
AcDbLinetypeTableRecord
  2
ACAD_ISO15W100
 70
     0
  3
ISO double-dash triple-dot __ __ . . . __ __ . .
 72
    65
 73
    10
 40
39.0
 49
12.0
 74
     0
 49
-3.0
 74
     0
 49
12.0
 74
     0
 49
-3.0
 74
     0
 49
0.0
 74
     0
 49
-3.0
 74
     0
 49
0.0
 74
     0
 49
-3.0
 74
     0
 49
0.0
 74
     0
 49
-3.0
 74
     0
  0
ENDTAB
  0
TABLE
  2
LAYER
  5
2
330
0
100
AcDbSymbolTable
 70
     5
  0
LAYER
  5
10
330
2
100
AcDbSymbolTableRecord
100
AcDbLayerTableRecord
  2
0
 70
     0
 62
     7
  6
CONTINUOUS
  0
LAYER
  5
75
330
2
100
AcDbSymbolTableRecord
100
AcDbLayerTableRecord
  2
LAY-10
 70
     0
 62
     7
  6
CONTINUOUS
  0
LAYER
  5
76
330
2
100
AcDbSymbolTableRecord
100
AcDbLayerTableRecord
  2
LAY-20
 70
     0
 62
     7
  6
CONTINUOUS
  0
LAYER
  5
77
330
2
100
AcDbSymbolTableRecord
100
AcDbLayerTableRecord
  2
LAY-255
 70
     0
 62
     7
  6
CONTINUOUS
  0
LAYER
  5
439
330
2
100
AcDbSymbolTableRecord
100
AcDbLayerTableRecord
  2
DEFPOINTS
 70
     0
 62
     7
  6
CONTINUOUS
  0
ENDTAB
  0
TABLE
  2
STYLE
  5
3
330
0
100
AcDbSymbolTable
 70
     4
  0
STYLE
  5
11
330
3
100
AcDbSymbolTableRecord
100
AcDbTextStyleTableRecord
  2
STANDARD
 70
     0
 40
0.0
 41
1.0
 50
0.0
 71
     0
 42
2.5
  3
simplex
  4
bigfont
  0
STYLE
  5
73
330
3
100
AcDbSymbolTableRecord
100
AcDbTextStyleTableRecord
  2
EXCADSTD
 70
     0
 40
0.0
 41
1.0
 50
0.0
 71
     0
 42
2.5
  3
simplex
  4
bigfont
  0
STYLE
  5
74
330
3
100
AcDbSymbolTableRecord
100
AcDbTextStyleTableRecord
  2
EXCADVERT
 70
     4
 40
0.0
 41
1.0
 50
0.0
 71
     0
 42
2.5
  3
simplex
  4
bigfont
  0
STYLE
  5
437
330
3
100
AcDbSymbolTableRecord
100
AcDbTextStyleTableRecord
  2
EXCADDIM1
 70
     0
 40
0.0
 41
0.84
 50
0.0
 71
     0
 42
2.5
  3
simplex
  4
bigfont
  0
ENDTAB
  0
TABLE
  2
VIEW
  5
6
330
0
100
AcDbSymbolTable
 70
     0
  0
ENDTAB
  0
TABLE
  2
UCS
  5
7
330
0
100
AcDbSymbolTable
 70
     0
  0
ENDTAB
  0
TABLE
  2
APPID
  5
9
330
0
100
AcDbSymbolTable
 70
     2
  0
APPID
  5
12
330
9
100
AcDbSymbolTableRecord
100
AcDbRegAppTableRecord
  2
ACAD
 70
     0
  0
APPID
  5
527
330
9
100
AcDbSymbolTableRecord
100
AcDbRegAppTableRecord
  2
ACAD_MLEADERVER
 70
     0
  0
ENDTAB
  0
TABLE
  2
DIMSTYLE
  5
A
330
0
100
AcDbSymbolTable
 70
     1
  0
DIMSTYLE
105
27
102
{ACAD_REACTORS
330
438
330
446
330
453
330
460
330
46D
330
47A
330
487
330
494
330
4A1
330
4AE
330
4BB
102
}
330
A
100
AcDbSymbolTableRecord
100
AcDbDimStyleTableRecord
  2
ISO-25
 70
     0
  3

  4

  5

  6

  7

 40
1.0
 41
2.5
 42
0.625
 43
3.75
 44
1.25
 45
0.0
 46
0.0
 47
0.0
 48
0.0
140
2.5
141
2.5
142
0.0
143
0.03937007874016
144
1.0
145
0.0
146
1.0
147
0.625
 71
     0
 72
     0
 73
     0
 74
     0
 75
     0
 76
     0
 77
     1
 78
     8
170
     0
171
     3
172
     1
173
     0
174
     0
175
     0
176
     0
177
     0
178
     0
270
     2
271
     2
272
     2
273
     2
274
     3
340
11
275
     0
280
     0
281
     0
282
     0
283
     0
284
     8
285
     0
286
     0
287
     5
288
     0
  0
ENDTAB
  0
TABLE
  2
BLOCK_RECORD
  5
1
330
0
100
AcDbSymbolTable
 70
    25
  0
BLOCK_RECORD
  5
1F
330
1
100
AcDbSymbolTableRecord
100
AcDbBlockTableRecord
  2
*MODEL_SPACE
  0
BLOCK_RECORD
  5
1B
330
1
100
AcDbSymbolTableRecord
100
AcDbBlockTableRecord
  2
*PAPER_SPACE
  0
BLOCK_RECORD
  5
78
330
1
100
AcDbSymbolTableRecord
100
AcDbBlockTableRecord
  2
EX_NORM
  0
BLOCK_RECORD
  5
7B
330
1
100
AcDbSymbolTableRecord
100
AcDbBlockTableRecord
  2
EX_BNORM
  0
BLOCK_RECORD
  5
7E
330
1
100
AcDbSymbolTableRecord
100
AcDbBlockTableRecord
  2
EX_BCIR
  0
BLOCK_RECORD
  5
81
330
1
100
AcDbSymbolTableRecord
100
AcDbBlockTableRecord
  2
EX_RCIVIL
  0
BLOCK_RECORD
  5
84
330
1
100
AcDbSymbolTableRecord
100
AcDbBlockTableRecord
  2
EX_SLANT
  0
BLOCK_RECORD
  5
87
330
1
100
AcDbSymbolTableRecord
100
AcDbBlockTableRecord
  2
EX_NONE
  0
BLOCK_RECORD
  5
8A
330
1
100
AcDbSymbolTableRecord
100
AcDbBlockTableRecord
  2
EX_CIVIL
  0
BLOCK_RECORD
  5
8D
330
1
100
AcDbSymbolTableRecord
100
AcDbBlockTableRecord
  2
EX_WCIR
  0
BLOCK_RECORD
  5
90
330
1
100
AcDbSymbolTableRecord
100
AcDbBlockTableRecord
  2
EX_WCIR2
  0
BLOCK_RECORD
  5
93
330
1
100
AcDbSymbolTableRecord
100
AcDbBlockTableRecord
  2
EX_WNORM
  0
BLOCK_RECORD
  5
96
330
1
100
AcDbSymbolTableRecord
100
AcDbBlockTableRecord
  2
EX_NNORM
  0
BLOCK_RECORD
  5
99
330
1
100
AcDbSymbolTableRecord
100
AcDbBlockTableRecord
  2
EX_BBOX
  0
BLOCK_RECORD
  5
9C
330
1
100
AcDbSymbolTableRecord
100
AcDbBlockTableRecord
  2
EX_WBOX
  0
BLOCK_RECORD
  5
9F
330
1
100
AcDbSymbolTableRecord
100
AcDbBlockTableRecord
  2
EX_INTEGRAL
  0
BLOCK_RECORD
  5
43A
330
1
100
AcDbSymbolTableRecord
100
AcDbBlockTableRecord
  2
*D15
  0
BLOCK_RECORD
  5
447
330
1
100
AcDbSymbolTableRecord
100
AcDbBlockTableRecord
  2
*D16
  0
BLOCK_RECORD
  5
454
330
1
100
AcDbSymbolTableRecord
100
AcDbBlockTableRecord
  2
*D17
  0
BLOCK_RECORD
  5
461
330
1
100
AcDbSymbolTableRecord
100
AcDbBlockTableRecord
  2
*D18
  0
BLOCK_RECORD
  5
46E
330
1
100
AcDbSymbolTableRecord
100
AcDbBlockTableRecord
  2
*D19
  0
BLOCK_RECORD
  5
47B
330
1
100
AcDbSymbolTableRecord
100
AcDbBlockTableRecord
  2
*D20
  0
BLOCK_RECORD
  5
488
330
1
100
AcDbSymbolTableRecord
100
AcDbBlockTableRecord
  2
*D21
  0
BLOCK_RECORD
  5
495
330
1
100
AcDbSymbolTableRecord
100
AcDbBlockTableRecord
  2
*D22
  0
BLOCK_RECORD
  5
4A2
330
1
100
AcDbSymbolTableRecord
100
AcDbBlockTableRecord
  2
*D23
  0
BLOCK_RECORD
  5
4AF
330
1
100
AcDbSymbolTableRecord
100
AcDbBlockTableRecord
  2
*D24
  0
BLOCK_RECORD
  5
4BC
330
1
100
AcDbSymbolTableRecord
100
AcDbBlockTableRecord
  2
*D25
  0
ENDTAB
  0
ENDSEC
  0
SECTION
  2
BLOCKS
  0
BLOCK
  5
20
330
1F
100
AcDbEntity
  8
0
100
AcDbBlockBegin
  2
*MODEL_SPACE
 70
     0
 10
0.0
 20
0.0
 30
0.0
  3
*MODEL_SPACE
  1

  0
ENDBLK
  5
21
330
1F
100
AcDbEntity
  8
0
100
AcDbBlockEnd
  0
BLOCK
  5
1C
330
1B
100
AcDbEntity
 67
     1
  8
0
100
AcDbBlockBegin
  2
*PAPER_SPACE
 70
     0
 10
0.0
 20
0.0
 30
0.0
  3
*PAPER_SPACE
  1

  0
ENDBLK
  5
1D
330
1B
100
AcDbEntity
 67
     1
  8
0
100
AcDbBlockEnd
  0
BLOCK
  5
79
330
78
100
AcDbEntity
  8
0
100
AcDbBlockBegin
  2
EX_NORM
 70
     0
 10
0.0
 20
0.0
 30
0.0
  3
EX_NORM
  1

  0
LINE
  5
A2
330
78
100
AcDbEntity
  8
0
  6
CONTINUOUS
 62
     0
100
AcDbLine
 10
0.0
 20
0.0
 30
0.0
 11
-1.0
 21
0.0
 31
0.0
  0
LINE
  5
A3
330
78
100
AcDbEntity
  8
0
  6
CONTINUOUS
 62
     0
100
AcDbLine
 10
0.0
 20
0.0
 30
0.0
 11
-1.0
 21
0.166666667
 31
0.0
  0
LINE
  5
A4
330
78
100
AcDbEntity
  8
0
  6
CONTINUOUS
 62
     0
100
AcDbLine
 10
0.0
 20
0.0
 30
0.0
 11
-1.0
 21
-0.166666667
 31
0.0
  0
ENDBLK
  5
7A
330
78
100
AcDbEntity
  8
0
100
AcDbBlockEnd
  0
BLOCK
  5
7C
330
7B
100
AcDbEntity
  8
0
100
AcDbBlockBegin
  2
EX_BNORM
 70
     0
 10
0.0
 20
0.0
 30
0.0
  3
EX_BNORM
  1

  0
LINE
  5
A5
330
7B
100
AcDbEntity
  8
0
  6
CONTINUOUS
 62
     0
100
AcDbLine
 10
0.0
 20
0.0
 30
0.0
 11
-1.0
 21
0.0
 31
0.0
  0
LINE
  5
A6
330
7B
100
AcDbEntity
  8
0
  6
CONTINUOUS
 62
     0
100
AcDbLine
 10
0.0
 20
0.0
 30
0.0
 11
-1.0
 21
0.166666667
 31
0.0
  0
LINE
  5
A7
330
7B
100
AcDbEntity
  8
0
  6
CONTINUOUS
 62
     0
100
AcDbLine
 10
0.0
 20
0.0
 30
0.0
 11
-1.0
 21
-0.166666667
 31
0.0
  0
LINE
  5
A8
330
7B
100
AcDbEntity
  8
0
  6
CONTINUOUS
 62
     0
100
AcDbLine
 10
0.0
 20
0.0
 30
0.0
 11
-1.0
 21
0.083333333
 31
0.0
  0
LINE
  5
A9
330
7B
100
AcDbEntity
  8
0
  6
CONTINUOUS
 62
     0
100
AcDbLine
 10
0.0
 20
0.0
 30
0.0
 11
-1.0
 21
-0.083333333
 31
0.0
  0
LINE
  5
AA
330
7B
100
AcDbEntity
  8
0
  6
CONTINUOUS
 62
     0
100
AcDbLine
 10
-1.0
 20
0.166666667
 30
0.0
 11
-1.0
 21
-0.166666667
 31
0.0
  0
ENDBLK
  5
7D
330
7B
100
AcDbEntity
  8
0
100
AcDbBlockEnd
  0
BLOCK
  5
7F
330
7E
100
AcDbEntity
  8
0
100
AcDbBlockBegin
  2
EX_BCIR
 70
     0
 10
0.0
 20
0.0
 30
0.0
  3
EX_BCIR
  1

  0
LINE
  5
AB
330
7E
100
AcDbEntity
  8
0
  6
CONTINUOUS
 62
     0
100
AcDbLine
 10
0.0
 20
0.0
 30
0.0
 11
-1.0
 21
0.0
 31
0.0
  0
CIRCLE
  5
AC
330
7E
100
AcDbEntity
  8
0
  6
CONTINUOUS
 62
     0
100
AcDbCircle
 10
0.0
 20
0.0
 30
0.0
 40
0.5
  0
CIRCLE
  5
AD
330
7E
100
AcDbEntity
  8
0
  6
CONTINUOUS
 62
     0
100
AcDbCircle
 10
0.0
 20
0.0
 30
0.0
 40
0.25
  0
ENDBLK
  5
80
330
7E
100
AcDbEntity
  8
0
100
AcDbBlockEnd
  0
BLOCK
  5
82
330
81
100
AcDbEntity
  8
0
100
AcDbBlockBegin
  2
EX_RCIVIL
 70
     0
 10
0.0
 20
0.0
 30
0.0
  3
EX_RCIVIL
  1

  0
LINE
  5
AE
330
81
100
AcDbEntity
  8
0
  6
CONTINUOUS
 62
     0
100
AcDbLine
 10
0.0
 20
0.0
 30
0.0
 11
-1.0
 21
0.0
 31
0.0
  0
LINE
  5
AF
330
81
100
AcDbEntity
  8
0
  6
CONTINUOUS
 62
     0
100
AcDbLine
 10
-1.0
 20
-0.25
 30
0.0
 11
0.0
 21
-0.25
 31
0.0
  0
LINE
  5
B0
330
81
100
AcDbEntity
  8
0
  6
CONTINUOUS
 62
     0
100
AcDbLine
 10
-1.0
 20
-0.125
 30
0.0
 11
0.0
 21
-0.125
 31
0.0
  0
ENDBLK
  5
83
330
81
100
AcDbEntity
  8
0
100
AcDbBlockEnd
  0
BLOCK
  5
85
330
84
100
AcDbEntity
  8
0
100
AcDbBlockBegin
  2
EX_SLANT
 70
     0
 10
0.0
 20
0.0
 30
0.0
  3
EX_SLANT
  1

  0
LINE
  5
B1
330
84
100
AcDbEntity
  8
0
  6
CONTINUOUS
 62
     0
100
AcDbLine
 10
0.0
 20
0.0
 30
0.0
 11
-1.0
 21
0.0
 31
0.0
  0
LINE
  5
B2
330
84
100
AcDbEntity
  8
0
  6
CONTINUOUS
 62
     0
100
AcDbLine
 10
0.707106781
 20
0.707106781
 30
0.0
 11
-0.707106781
 21
-0.707106781
 31
0.0
  0
ENDBLK
  5
86
330
84
100
AcDbEntity
  8
0
100
AcDbBlockEnd
  0
BLOCK
  5
88
330
87
100
AcDbEntity
  8
0
100
AcDbBlockBegin
  2
EX_NONE
 70
     0
 10
0.0
 20
0.0
 30
0.0
  3
EX_NONE
  1

  0
LINE
  5
B3
330
87
100
AcDbEntity
  8
0
  6
CONTINUOUS
 62
     0
100
AcDbLine
 10
0.0
 20
0.0
 30
0.0
 11
-1.0
 21
0.0
 31
0.0
  0
ENDBLK
  5
89
330
87
100
AcDbEntity
  8
0
100
AcDbBlockEnd
  0
BLOCK
  5
8B
330
8A
100
AcDbEntity
  8
0
100
AcDbBlockBegin
  2
EX_CIVIL
 70
     0
 10
0.0
 20
0.0
 30
0.0
  3
EX_CIVIL
  1

  0
LINE
  5
B4
330
8A
100
AcDbEntity
  8
0
  6
CONTINUOUS
 62
     0
100
AcDbLine
 10
0.0
 20
0.0
 30
0.0
 11
-1.0
 21
0.0
 31
0.0
  0
LINE
  5
B5
330
8A
100
AcDbEntity
  8
0
  6
CONTINUOUS
 62
     0
100
AcDbLine
 10
-1.0
 20
0.25
 30
0.0
 11
0.0
 21
0.25
 31
0.0
  0
LINE
  5
B6
330
8A
100
AcDbEntity
  8
0
  6
CONTINUOUS
 62
     0
100
AcDbLine
 10
-1.0
 20
0.125
 30
0.0
 11
0.0
 21
0.125
 31
0.0
  0
ENDBLK
  5
8C
330
8A
100
AcDbEntity
  8
0
100
AcDbBlockEnd
  0
BLOCK
  5
8E
330
8D
100
AcDbEntity
  8
0
100
AcDbBlockBegin
  2
EX_WCIR
 70
     0
 10
0.0
 20
0.0
 30
0.0
  3
EX_WCIR
  1

  0
LINE
  5
B7
330
8D
100
AcDbEntity
  8
0
  6
CONTINUOUS
 62
     0
100
AcDbLine
 10
0.0
 20
0.0
 30
0.0
 11
-1.0
 21
0.0
 31
0.0
  0
CIRCLE
  5
B8
330
8D
100
AcDbEntity
  8
0
  6
CONTINUOUS
 62
     0
100
AcDbCircle
 10
0.0
 20
0.0
 30
0.0
 40
0.5
  0
ENDBLK
  5
8F
330
8D
100
AcDbEntity
  8
0
100
AcDbBlockEnd
  0
BLOCK
  5
91
330
90
100
AcDbEntity
  8
0
100
AcDbBlockBegin
  2
EX_WCIR2
 70
     0
 10
0.0
 20
0.0
 30
0.0
  3
EX_WCIR2
  1

  0
LINE
  5
B9
330
90
100
AcDbEntity
  8
0
  6
CONTINUOUS
 62
     0
100
AcDbLine
 10
-0.5
 20
0.0
 30
0.0
 11
-1.0
 21
0.0
 31
0.0
  0
CIRCLE
  5
BA
330
90
100
AcDbEntity
  8
0
  6
CONTINUOUS
 62
     0
100
AcDbCircle
 10
0.0
 20
0.0
 30
0.0
 40
0.5
  0
ENDBLK
  5
92
330
90
100
AcDbEntity
  8
0
100
AcDbBlockEnd
  0
BLOCK
  5
94
330
93
100
AcDbEntity
  8
0
100
AcDbBlockBegin
  2
EX_WNORM
 70
     0
 10
0.0
 20
0.0
 30
0.0
  3
EX_WNORM
  1

  0
LINE
  5
BB
330
93
100
AcDbEntity
  8
0
  6
CONTINUOUS
 62
     0
100
AcDbLine
 10
-1.0
 20
0.0
 30
0.0
 11
-1.0
 21
0.0
 31
0.0
  0
LINE
  5
BC
330
93
100
AcDbEntity
  8
0
  6
CONTINUOUS
 62
     0
100
AcDbLine
 10
0.0
 20
0.0
 30
0.0
 11
-1.0
 21
0.166666667
 31
0.0
  0
LINE
  5
BD
330
93
100
AcDbEntity
  8
0
  6
CONTINUOUS
 62
     0
100
AcDbLine
 10
0.0
 20
0.0
 30
0.0
 11
-1.0
 21
-0.166666667
 31
0.0
  0
LINE
  5
BE
330
93
100
AcDbEntity
  8
0
  6
CONTINUOUS
 62
     0
100
AcDbLine
 10
-1.0
 20
0.166666667
 30
0.0
 11
-1.0
 21
-0.166666667
 31
0.0
  0
ENDBLK
  5
95
330
93
100
AcDbEntity
  8
0
100
AcDbBlockEnd
  0
BLOCK
  5
97
330
96
100
AcDbEntity
  8
0
100
AcDbBlockBegin
  2
EX_NNORM
 70
     0
 10
0.0
 20
0.0
 30
0.0
  3
EX_NNORM
  1

  0
LINE
  5
BF
330
96
100
AcDbEntity
  8
0
  6
CONTINUOUS
 62
     0
100
AcDbLine
 10
0.0
 20
0.0
 30
0.0
 11
-1.0
 21
0.0
 31
0.0
  0
LINE
  5
C0
330
96
100
AcDbEntity
  8
0
  6
CONTINUOUS
 62
     0
100
AcDbLine
 10
0.0
 20
0.0
 30
0.0
 11
-1.0
 21
0.166666667
 31
0.0
  0
LINE
  5
C1
330
96
100
AcDbEntity
  8
0
  6
CONTINUOUS
 62
     0
100
AcDbLine
 10
0.0
 20
0.0
 30
0.0
 11
-1.0
 21
-0.166666667
 31
0.0
  0
LINE
  5
C2
330
96
100
AcDbEntity
  8
0
  6
CONTINUOUS
 62
     0
100
AcDbLine
 10
-1.0
 20
0.166666667
 30
0.0
 11
-1.0
 21
-0.166666667
 31
0.0
  0
ENDBLK
  5
98
330
96
100
AcDbEntity
  8
0
100
AcDbBlockEnd
  0
BLOCK
  5
9A
330
99
100
AcDbEntity
  8
0
100
AcDbBlockBegin
  2
EX_BBOX
 70
     0
 10
0.0
 20
0.0
 30
0.0
  3
EX_BBOX
  1

  0
LINE
  5
C3
330
99
100
AcDbEntity
  8
0
  6
CONTINUOUS
 62
     0
100
AcDbLine
 10
0.0
 20
0.0
 30
0.0
 11
-1.0
 21
0.0
 31
0.0
  0
LINE
  5
C4
330
99
100
AcDbEntity
  8
0
  6
CONTINUOUS
 62
     0
100
AcDbLine
 10
-0.5
 20
0.5
 30
0.0
 11
0.5
 21
0.5
 31
0.0
  0
LINE
  5
C5
330
99
100
AcDbEntity
  8
0
  6
CONTINUOUS
 62
     0
100
AcDbLine
 10
0.5
 20
0.5
 30
0.0
 11
0.5
 21
-0.5
 31
0.0
  0
LINE
  5
C6
330
99
100
AcDbEntity
  8
0
  6
CONTINUOUS
 62
     0
100
AcDbLine
 10
0.5
 20
-0.5
 30
0.0
 11
-0.5
 21
-0.5
 31
0.0
  0
LINE
  5
C7
330
99
100
AcDbEntity
  8
0
  6
CONTINUOUS
 62
     0
100
AcDbLine
 10
-0.5
 20
-0.5
 30
0.0
 11
-0.5
 21
0.5
 31
0.0
  0
LINE
  5
C8
330
99
100
AcDbEntity
  8
0
  6
CONTINUOUS
 62
     0
100
AcDbLine
 10
-0.25
 20
0.25
 30
0.0
 11
0.25
 21
0.25
 31
0.0
  0
LINE
  5
C9
330
99
100
AcDbEntity
  8
0
  6
CONTINUOUS
 62
     0
100
AcDbLine
 10
0.25
 20
0.25
 30
0.0
 11
0.25
 21
-0.25
 31
0.0
  0
LINE
  5
CA
330
99
100
AcDbEntity
  8
0
  6
CONTINUOUS
 62
     0
100
AcDbLine
 10
0.25
 20
-0.25
 30
0.0
 11
-0.25
 21
-0.25
 31
0.0
  0
LINE
  5
CB
330
99
100
AcDbEntity
  8
0
  6
CONTINUOUS
 62
     0
100
AcDbLine
 10
-0.25
 20
-0.25
 30
0.0
 11
-0.25
 21
0.25
 31
0.0
  0
ENDBLK
  5
9B
330
99
100
AcDbEntity
  8
0
100
AcDbBlockEnd
  0
BLOCK
  5
9D
330
9C
100
AcDbEntity
  8
0
100
AcDbBlockBegin
  2
EX_WBOX
 70
     0
 10
0.0
 20
0.0
 30
0.0
  3
EX_WBOX
  1

  0
LINE
  5
CC
330
9C
100
AcDbEntity
  8
0
  6
CONTINUOUS
 62
     0
100
AcDbLine
 10
-0.5
 20
0.0
 30
0.0
 11
-1.0
 21
0.0
 31
0.0
  0
LINE
  5
CD
330
9C
100
AcDbEntity
  8
0
  6
CONTINUOUS
 62
     0
100
AcDbLine
 10
-0.5
 20
0.5
 30
0.0
 11
0.5
 21
0.5
 31
0.0
  0
LINE
  5
CE
330
9C
100
AcDbEntity
  8
0
  6
CONTINUOUS
 62
     0
100
AcDbLine
 10
0.5
 20
0.5
 30
0.0
 11
0.5
 21
-0.5
 31
0.0
  0
LINE
  5
CF
330
9C
100
AcDbEntity
  8
0
  6
CONTINUOUS
 62
     0
100
AcDbLine
 10
0.5
 20
-0.5
 30
0.0
 11
-0.5
 21
-0.5
 31
0.0
  0
LINE
  5
D0
330
9C
100
AcDbEntity
  8
0
  6
CONTINUOUS
 62
     0
100
AcDbLine
 10
-0.5
 20
-0.5
 30
0.0
 11
-0.5
 21
0.5
 31
0.0
  0
ENDBLK
  5
9E
330
9C
100
AcDbEntity
  8
0
100
AcDbBlockEnd
  0
BLOCK
  5
A0
330
9F
100
AcDbEntity
  8
0
100
AcDbBlockBegin
  2
EX_INTEGRAL
 70
     0
 10
0.0
 20
0.0
 30
0.0
  3
EX_INTEGRAL
  1

  0
LINE
  5
D1
330
9F
100
AcDbEntity
  8
0
  6
CONTINUOUS
 62
     0
100
AcDbLine
 10
0.0
 20
0.0
 30
0.0
 11
-1.0
 21
0.0
 31
0.0
  0
ARC
  5
D2
330
9F
100
AcDbEntity
  8
0
  6
CONTINUOUS
 62
     0
100
AcDbCircle
 10
0.542115
 20
0.164992
 30
0.0
 40
0.56667
100
AcDbArc
 50
73.07249033629006
 51
196.9275130221199
  0
ARC
  5
D3
330
9F
100
AcDbEntity
  8
0
  6
CONTINUOUS
 62
     0
100
AcDbCircle
 10
-0.542115
 20
-0.164992
 30
0.0
 40
0.56667
100
AcDbArc
 50
253.0724869220464
 51
16.9275130559125
  0
ENDBLK
  5
A1
330
9F
100
AcDbEntity
  8
0
100
AcDbBlockEnd
  0
BLOCK
  5
43B
330
43A
100
AcDbEntity
  8
0
100
AcDbBlockBegin
  2
*D15
 70
     1
 10
0.0
 20
0.0
 30
0.0
  3
*D15
  1

  0
LINE
  5
43D
330
43A
100
AcDbEntity
  8
LAY-20
  6
CONTINUOUS
 62
     4
100
AcDbLine
 10
257.5003350000003
 20
363.5000000000003
 30
0.0
 11
257.5003350000003
 21
436.5
 31
0.0
  0
LINE
  5
43E
330
43A
100
AcDbEntity
  8
LAY-20
  6
CONTINUOUS
 62
     4
100
AcDbLine
 10
492.5003350000001
 20
363.5000000000003
 30
0.0
 11
492.5003350000001
 21
436.5
 31
0.0
  0
LINE
  5
43F
330
43A
100
AcDbEntity
  8
LAY-20
  6
CONTINUOUS
 62
     4
100
AcDbLine
 10
265.0003350000003
 20
432.0
 30
0.0
 11
485.0003350000001
 21
432.0
 31
0.0
  0
INSERT
  5
440
330
43A
100
AcDbEntity
  8
LAY-20
 62
     4
100
AcDbBlockReference
  2
EX_BNORM
 10
257.5003350000003
 20
432.0
 30
0.0
 41
7.5
 42
7.5
 43
7.5
 50
180.0
  0
INSERT
  5
441
330
43A
100
AcDbEntity
  8
LAY-20
 62
     4
100
AcDbBlockReference
  2
EX_BNORM
 10
492.5003350000001
 20
432.0
 30
0.0
 41
7.5
 42
7.5
 43
7.5
  0
MTEXT
  5
442
330
43A
100
AcDbEntity
  8
LAY-20
 62
     7
100
AcDbMText
 10
375.0003350000002
 20
439.5
 30
0.0
 40
9.3543312
 41
0.0
 71
     5
 72
     1
  1
235
  7
EXCADDIM1
  0
POINT
  5
443
330
43A
100
AcDbEntity
  8
DEFPOINTS
 62
     0
100
AcDbPoint
 10
257.5003350000003
 20
359.0000000000003
 30
0.0
  0
POINT
  5
444
330
43A
100
AcDbEntity
  8
DEFPOINTS
 62
     0
100
AcDbPoint
 10
492.5003350000001
 20
359.0000000000003
 30
0.0
  0
POINT
  5
445
330
43A
100
AcDbEntity
  8
DEFPOINTS
 62
     0
100
AcDbPoint
 10
492.5003350000001
 20
432.0
 30
0.0
  0
ENDBLK
  5
43C
330
43A
100
AcDbEntity
  8
0
100
AcDbBlockEnd
  0
BLOCK
  5
448
330
447
100
AcDbEntity
  8
0
100
AcDbBlockBegin
  2
*D16
 70
     1
 10
0.0
 20
0.0
 30
0.0
  3
*D16
  1

  0
LINE
  5
44A
330
447
100
AcDbEntity
  8
LAY-20
  6
CONTINUOUS
 62
     4
100
AcDbLine
 10
481.5003350000002
 20
363.0
 30
0.0
 11
481.5003350000002
 21
415.5000000000001
 31
0.0
  0
LINE
  5
44B
330
447
100
AcDbEntity
  8
LAY-20
  6
CONTINUOUS
 62
     4
100
AcDbLine
 10
268.5003350000003
 20
363.0
 30
0.0
 11
268.5003350000003
 21
415.5000000000001
 31
0.0
  0
LINE
  5
44C
330
447
100
AcDbEntity
  8
LAY-20
  6
CONTINUOUS
 62
     4
100
AcDbLine
 10
474.0003350000002
 20
411.0000000000001
 30
0.0
 11
276.0003350000003
 21
411.0000000000001
 31
0.0
  0
INSERT
  5
44D
330
447
100
AcDbEntity
  8
LAY-20
 62
     4
100
AcDbBlockReference
  2
EX_BNORM
 10
481.5003350000002
 20
411.0000000000001
 30
0.0
 41
7.5
 42
7.5
 43
7.5
  0
INSERT
  5
44E
330
447
100
AcDbEntity
  8
LAY-20
 62
     4
100
AcDbBlockReference
  2
EX_BNORM
 10
268.5003350000003
 20
411.0000000000001
 30
0.0
 41
7.5
 42
7.5
 43
7.5
 50
180.0
  0
MTEXT
  5
44F
330
447
100
AcDbEntity
  8
LAY-20
 62
     7
100
AcDbMText
 10
375.0003350000003
 20
418.5000000000001
 30
0.0
 40
9.3543312
 41
0.0
 71
     5
 72
     1
  1
213
  7
EXCADDIM1
  0
POINT
  5
450
330
447
100
AcDbEntity
  8
DEFPOINTS
 62
     0
100
AcDbPoint
 10
481.5003350000002
 20
358.5
 30
0.0
  0
POINT
  5
451
330
447
100
AcDbEntity
  8
DEFPOINTS
 62
     0
100
AcDbPoint
 10
268.5003350000003
 20
358.5
 30
0.0
  0
POINT
  5
452
330
447
100
AcDbEntity
  8
DEFPOINTS
 62
     0
100
AcDbPoint
 10
268.5003350000003
 20
411.0000000000001
 30
0.0
  0
ENDBLK
  5
449
330
447
100
AcDbEntity
  8
0
100
AcDbBlockEnd
  0
BLOCK
  5
455
330
454
100
AcDbEntity
  8
0
100
AcDbBlockBegin
  2
*D17
 70
     1
 10
0.0
 20
0.0
 30
0.0
  3
*D17
  1

  0
LINE
  5
457
330
454
100
AcDbEntity
  8
LAY-20
  6
CONTINUOUS
 62
     4
100
AcDbLine
 10
263.5000000000002
 20
257.4999999999999
 30
0.0
 11
263.5000000000002
 21
227.5000000000001
 31
0.0
  0
LINE
  5
458
330
454
100
AcDbEntity
  8
LAY-20
  6
CONTINUOUS
 62
     4
100
AcDbLine
 10
486.5000000000002
 20
257.5
 30
0.0
 11
486.5000000000002
 21
227.5000000000001
 31
0.0
  0
LINE
  5
459
330
454
100
AcDbEntity
  8
LAY-20
  6
CONTINUOUS
 62
     4
100
AcDbLine
 10
271.0000000000002
 20
232.0000000000001
 30
0.0
 11
479.0000000000002
 21
232.0000000000001
 31
0.0
  0
INSERT
  5
45A
330
454
100
AcDbEntity
  8
LAY-20
 62
     4
100
AcDbBlockReference
  2
EX_BNORM
 10
263.5000000000002
 20
232.0000000000001
 30
0.0
 41
7.5
 42
7.5
 43
7.5
 50
180.0
  0
INSERT
  5
45B
330
454
100
AcDbEntity
  8
LAY-20
 62
     4
100
AcDbBlockReference
  2
EX_BNORM
 10
486.5000000000002
 20
232.0000000000001
 30
0.0
 41
7.5
 42
7.5
 43
7.5
  0
MTEXT
  5
45C
330
454
100
AcDbEntity
  8
LAY-20
 62
     7
100
AcDbMText
 10
375.0000000000002
 20
239.5
 30
0.0
 40
9.3543312
 41
0.0
 71
     5
 72
     1
  1
223
  7
EXCADDIM1
  0
POINT
  5
45D
330
454
100
AcDbEntity
  8
DEFPOINTS
 62
     0
100
AcDbPoint
 10
263.5000000000002
 20
261.9999999999999
 30
0.0
  0
POINT
  5
45E
330
454
100
AcDbEntity
  8
DEFPOINTS
 62
     0
100
AcDbPoint
 10
486.5000000000002
 20
262.0
 30
0.0
  0
POINT
  5
45F
330
454
100
AcDbEntity
  8
DEFPOINTS
 62
     0
100
AcDbPoint
 10
486.5000000000002
 20
232.0000000000001
 30
0.0
  0
ENDBLK
  5
456
330
454
100
AcDbEntity
  8
0
100
AcDbBlockEnd
  0
BLOCK
  5
462
330
461
100
AcDbEntity
  8
0
100
AcDbBlockBegin
  2
*D18
 70
     1
 10
0.0
 20
0.0
 30
0.0
  3
*D18
  1

  0
LINE
  5
464
330
461
100
AcDbEntity
  8
LAY-20
  6
CONTINUOUS
 62
     4
100
AcDbLine
 10
492.5003349999802
 20
257.4999999999999
 30
0.0
 11
492.5003349999802
 21
206.4999999999999
 31
0.0
  0
LINE
  5
465
330
461
100
AcDbEntity
  8
LAY-20
  6
CONTINUOUS
 62
     4
100
AcDbLine
 10
257.5003349999992
 20
257.4999999999999
 30
0.0
 11
257.5003349999992
 21
206.4999999999999
 31
0.0
  0
LINE
  5
466
330
461
100
AcDbEntity
  8
LAY-20
  6
CONTINUOUS
 62
     4
100
AcDbLine
 10
485.0003349999802
 20
210.9999999999999
 30
0.0
 11
265.0003349999992
 21
210.9999999999999
 31
0.0
  0
INSERT
  5
467
330
461
100
AcDbEntity
  8
LAY-20
 62
     4
100
AcDbBlockReference
  2
EX_BNORM
 10
492.5003349999802
 20
210.9999999999999
 30
0.0
 41
7.5
 42
7.5
 43
7.5
  0
INSERT
  5
468
330
461
100
AcDbEntity
  8
LAY-20
 62
     4
100
AcDbBlockReference
  2
EX_BNORM
 10
257.5003349999992
 20
210.9999999999999
 30
0.0
 41
7.5
 42
7.5
 43
7.5
 50
180.0
  0
MTEXT
  5
469
330
461
100
AcDbEntity
  8
LAY-20
 62
     7
100
AcDbMText
 10
375.0003349999897
 20
218.4999999999999
 30
0.0
 40
9.3543312
 41
0.0
 71
     5
 72
     1
  1
235
  7
EXCADDIM1
  0
POINT
  5
46A
330
461
100
AcDbEntity
  8
DEFPOINTS
 62
     0
100
AcDbPoint
 10
492.5003349999802
 20
261.9999999999999
 30
0.0
  0
POINT
  5
46B
330
461
100
AcDbEntity
  8
DEFPOINTS
 62
     0
100
AcDbPoint
 10
257.5003349999992
 20
261.9999999999999
 30
0.0
  0
POINT
  5
46C
330
461
100
AcDbEntity
  8
DEFPOINTS
 62
     0
100
AcDbPoint
 10
257.5003349999992
 20
210.9999999999999
 30
0.0
  0
ENDBLK
  5
463
330
461
100
AcDbEntity
  8
0
100
AcDbBlockEnd
  0
BLOCK
  5
46F
330
46E
100
AcDbEntity
  8
0
100
AcDbBlockBegin
  2
*D19
 70
     1
 10
0.0
 20
0.0
 30
0.0
  3
*D19
  1

  0
LINE
  5
471
330
46E
100
AcDbEntity
  8
LAY-20
  6
CONTINUOUS
 62
     4
100
AcDbLine
 10
496.0003350000001
 20
360.0
 30
0.0
 11
526.9999999999998
 21
360.0
 31
0.0
  0
LINE
  5
472
330
46E
100
AcDbEntity
  8
LAY-20
  6
CONTINUOUS
 62
     4
100
AcDbLine
 10
497.0003349999802
 20
261.9999999999999
 30
0.0
 11
526.9999999999998
 21
261.9999999999999
 31
0.0
  0
LINE
  5
473
330
46E
100
AcDbEntity
  8
LAY-20
  6
CONTINUOUS
 62
     4
100
AcDbLine
 10
522.4999999999998
 20
352.5
 30
0.0
 11
522.4999999999998
 21
269.4999999999999
 31
0.0
  0
INSERT
  5
474
330
46E
100
AcDbEntity
  8
LAY-20
 62
     4
100
AcDbBlockReference
  2
EX_BNORM
 10
522.4999999999998
 20
360.0
 30
0.0
 41
7.5
 42
7.5
 43
7.5
 50
90.0
  0
INSERT
  5
475
330
46E
100
AcDbEntity
  8
LAY-20
 62
     4
100
AcDbBlockReference
  2
EX_BNORM
 10
522.4999999999998
 20
261.9999999999999
 30
0.0
 41
7.5
 42
7.5
 43
7.5
 50
270.0
  0
MTEXT
  5
476
330
46E
100
AcDbEntity
  8
LAY-20
 62
     7
100
AcDbMText
 10
514.9999999999998
 20
311.0
 30
0.0
 40
9.3543312
 41
0.0
 71
     5
 72
     1
  1
98
  7
EXCADDIM1
 11
0.0
 21
1.0
 31
0.0
  0
POINT
  5
477
330
46E
100
AcDbEntity
  8
DEFPOINTS
 62
     0
100
AcDbPoint
 10
491.5003350000001
 20
360.0
 30
0.0
  0
POINT
  5
478
330
46E
100
AcDbEntity
  8
DEFPOINTS
 62
     0
100
AcDbPoint
 10
492.5003349999802
 20
261.9999999999999
 30
0.0
  0
POINT
  5
479
330
46E
100
AcDbEntity
  8
DEFPOINTS
 62
     0
100
AcDbPoint
 10
522.4999999999998
 20
261.9999999999999
 30
0.0
  0
ENDBLK
  5
470
330
46E
100
AcDbEntity
  8
0
100
AcDbBlockEnd
  0
BLOCK
  5
47C
330
47B
100
AcDbEntity
  8
0
100
AcDbBlockBegin
  2
*D20
 70
     1
 10
0.0
 20
0.0
 30
0.0
  3
*D20
  1

  0
LINE
  5
47E
330
47B
100
AcDbEntity
  8
LAY-20
  6
CONTINUOUS
 62
     4
100
AcDbLine
 10
671.5000000000006
 20
505.0000000000002
 30
0.0
 11
619.5000000000007
 21
505.0000000000003
 31
0.0
  0
LINE
  5
47F
330
47B
100
AcDbEntity
  8
LAY-20
  6
CONTINUOUS
 62
     4
100
AcDbLine
 10
671.5000000000006
 20
695.0
 30
0.0
 11
619.5000000000007
 21
695.0
 31
0.0
  0
LINE
  5
480
330
47B
100
AcDbEntity
  8
LAY-20
  6
CONTINUOUS
 62
     4
100
AcDbLine
 10
624.0000000000007
 20
512.5000000000002
 30
0.0
 11
624.0000000000007
 21
687.5
 31
0.0
  0
INSERT
  5
481
330
47B
100
AcDbEntity
  8
LAY-20
 62
     4
100
AcDbBlockReference
  2
EX_BNORM
 10
624.0000000000007
 20
505.0000000000003
 30
0.0
 41
7.5
 42
7.5
 43
7.5
 50
270.0
  0
INSERT
  5
482
330
47B
100
AcDbEntity
  8
LAY-20
 62
     4
100
AcDbBlockReference
  2
EX_BNORM
 10
624.0000000000007
 20
695.0
 30
0.0
 41
7.5
 42
7.5
 43
7.5
 50
90.0
  0
MTEXT
  5
483
330
47B
100
AcDbEntity
  8
LAY-20
 62
     7
100
AcDbMText
 10
616.5000000000007
 20
600.0000000000001
 30
0.0
 40
9.3543312
 41
0.0
 71
     5
 72
     1
  1
190
  7
EXCADDIM1
 11
0.0
 21
1.0
 31
0.0
  0
POINT
  5
484
330
47B
100
AcDbEntity
  8
DEFPOINTS
 62
     0
100
AcDbPoint
 10
676.0000000000006
 20
505.0000000000002
 30
0.0
  0
POINT
  5
485
330
47B
100
AcDbEntity
  8
DEFPOINTS
 62
     0
100
AcDbPoint
 10
676.0000000000006
 20
695.0
 30
0.0
  0
POINT
  5
486
330
47B
100
AcDbEntity
  8
DEFPOINTS
 62
     0
100
AcDbPoint
 10
624.0000000000007
 20
695.0
 30
0.0
  0
ENDBLK
  5
47D
330
47B
100
AcDbEntity
  8
0
100
AcDbBlockEnd
  0
BLOCK
  5
489
330
488
100
AcDbEntity
  8
0
100
AcDbBlockBegin
  2
*D21
 70
     1
 10
0.0
 20
0.0
 30
0.0
  3
*D21
  1

  0
LINE
  5
48B
330
488
100
AcDbEntity
  8
LAY-20
  6
CONTINUOUS
 62
     4
100
AcDbLine
 10
672.0000000000008
 20
684.0000000000001
 30
0.0
 11
640.5000000000008
 21
684.0000000000001
 31
0.0
  0
LINE
  5
48C
330
488
100
AcDbEntity
  8
LAY-20
  6
CONTINUOUS
 62
     4
100
AcDbLine
 10
672.0000000000008
 20
516.0000000000003
 30
0.0
 11
640.5000000000008
 21
516.0000000000003
 31
0.0
  0
LINE
  5
48D
330
488
100
AcDbEntity
  8
LAY-20
  6
CONTINUOUS
 62
     4
100
AcDbLine
 10
645.0000000000008
 20
676.5000000000001
 30
0.0
 11
645.0000000000008
 21
523.5000000000003
 31
0.0
  0
INSERT
  5
48E
330
488
100
AcDbEntity
  8
LAY-20
 62
     4
100
AcDbBlockReference
  2
EX_BNORM
 10
645.0000000000008
 20
684.0000000000001
 30
0.0
 41
7.5
 42
7.5
 43
7.5
 50
90.0
  0
INSERT
  5
48F
330
488
100
AcDbEntity
  8
LAY-20
 62
     4
100
AcDbBlockReference
  2
EX_BNORM
 10
645.0000000000008
 20
516.0000000000003
 30
0.0
 41
7.5
 42
7.5
 43
7.5
 50
270.0
  0
MTEXT
  5
490
330
488
100
AcDbEntity
  8
LAY-20
 62
     7
100
AcDbMText
 10
637.5000000000008
 20
600.0000000000002
 30
0.0
 40
9.3543312
 41
0.0
 71
     5
 72
     1
  1
168
  7
EXCADDIM1
 11
0.0
 21
1.0
 31
0.0
  0
POINT
  5
491
330
488
100
AcDbEntity
  8
DEFPOINTS
 62
     0
100
AcDbPoint
 10
676.5000000000008
 20
684.0000000000001
 30
0.0
  0
POINT
  5
492
330
488
100
AcDbEntity
  8
DEFPOINTS
 62
     0
100
AcDbPoint
 10
676.5000000000008
 20
516.0000000000003
 30
0.0
  0
POINT
  5
493
330
488
100
AcDbEntity
  8
DEFPOINTS
 62
     0
100
AcDbPoint
 10
645.0000000000008
 20
516.0000000000003
 30
0.0
  0
ENDBLK
  5
48A
330
488
100
AcDbEntity
  8
0
100
AcDbBlockEnd
  0
BLOCK
  5
496
330
495
100
AcDbEntity
  8
0
100
AcDbBlockBegin
  2
*D22
 70
     1
 10
0.0
 20
0.0
 30
0.0
  3
*D22
  1

  0
LINE
  5
498
330
495
100
AcDbEntity
  8
LAY-20
  6
CONTINUOUS
 62
     4
100
AcDbLine
 10
777.5000000000006
 20
511.0000000000004
 30
0.0
 11
807.5000000000002
 21
511.0000000000005
 31
0.0
  0
LINE
  5
499
330
495
100
AcDbEntity
  8
LAY-20
  6
CONTINUOUS
 62
     4
100
AcDbLine
 10
777.5000000000006
 20
689.0000000000001
 30
0.0
 11
807.5000000000002
 21
689.0000000000001
 31
0.0
  0
LINE
  5
49A
330
495
100
AcDbEntity
  8
LAY-20
  6
CONTINUOUS
 62
     4
100
AcDbLine
 10
803.0000000000002
 20
518.5000000000005
 30
0.0
 11
803.0000000000002
 21
681.5000000000001
 31
0.0
  0
INSERT
  5
49B
330
495
100
AcDbEntity
  8
LAY-20
 62
     4
100
AcDbBlockReference
  2
EX_BNORM
 10
803.0000000000002
 20
511.0000000000005
 30
0.0
 41
7.5
 42
7.5
 43
7.5
 50
270.0
  0
INSERT
  5
49C
330
495
100
AcDbEntity
  8
LAY-20
 62
     4
100
AcDbBlockReference
  2
EX_BNORM
 10
803.0000000000002
 20
689.0000000000001
 30
0.0
 41
7.5
 42
7.5
 43
7.5
 50
90.0
  0
MTEXT
  5
49D
330
495
100
AcDbEntity
  8
LAY-20
 62
     7
100
AcDbMText
 10
795.5000000000002
 20
600.0000000000002
 30
0.0
 40
9.3543312
 41
0.0
 71
     5
 72
     1
  1
178
  7
EXCADDIM1
 11
0.0
 21
1.0
 31
0.0
  0
POINT
  5
49E
330
495
100
AcDbEntity
  8
DEFPOINTS
 62
     0
100
AcDbPoint
 10
773.0000000000006
 20
511.0000000000004
 30
0.0
  0
POINT
  5
49F
330
495
100
AcDbEntity
  8
DEFPOINTS
 62
     0
100
AcDbPoint
 10
773.0000000000006
 20
689.0000000000001
 30
0.0
  0
POINT
  5
4A0
330
495
100
AcDbEntity
  8
DEFPOINTS
 62
     0
100
AcDbPoint
 10
803.0000000000002
 20
689.0000000000001
 30
0.0
  0
ENDBLK
  5
497
330
495
100
AcDbEntity
  8
0
100
AcDbBlockEnd
  0
BLOCK
  5
4A3
330
4A2
100
AcDbEntity
  8
0
100
AcDbBlockBegin
  2
*D23
 70
     1
 10
0.0
 20
0.0
 30
0.0
  3
*D23
  1

  0
LINE
  5
4A5
330
4A2
100
AcDbEntity
  8
LAY-20
  6
CONTINUOUS
 62
     4
100
AcDbLine
 10
777.5000000000006
 20
695.0000000000002
 30
0.0
 11
828.5000000000002
 21
695.0000000000002
 31
0.0
  0
LINE
  5
4A6
330
4A2
100
AcDbEntity
  8
LAY-20
  6
CONTINUOUS
 62
     4
100
AcDbLine
 10
777.5000000000006
 20
505.0000000000001
 30
0.0
 11
828.5000000000002
 21
505.0000000000001
 31
0.0
  0
LINE
  5
4A7
330
4A2
100
AcDbEntity
  8
LAY-20
  6
CONTINUOUS
 62
     4
100
AcDbLine
 10
824.0000000000002
 20
687.5000000000002
 30
0.0
 11
824.0000000000002
 21
512.5000000000001
 31
0.0
  0
INSERT
  5
4A8
330
4A2
100
AcDbEntity
  8
LAY-20
 62
     4
100
AcDbBlockReference
  2
EX_BNORM
 10
824.0000000000002
 20
695.0000000000002
 30
0.0
 41
7.5
 42
7.5
 43
7.5
 50
90.0
  0
INSERT
  5
4A9
330
4A2
100
AcDbEntity
  8
LAY-20
 62
     4
100
AcDbBlockReference
  2
EX_BNORM
 10
824.0000000000002
 20
505.0000000000001
 30
0.0
 41
7.5
 42
7.5
 43
7.5
 50
270.0
  0
MTEXT
  5
4AA
330
4A2
100
AcDbEntity
  8
LAY-20
 62
     7
100
AcDbMText
 10
816.5000000000002
 20
600.0000000000002
 30
0.0
 40
9.3543312
 41
0.0
 71
     5
 72
     1
  1
190
  7
EXCADDIM1
 11
0.0
 21
1.0
 31
0.0
  0
POINT
  5
4AB
330
4A2
100
AcDbEntity
  8
DEFPOINTS
 62
     0
100
AcDbPoint
 10
773.0000000000006
 20
695.0000000000002
 30
0.0
  0
POINT
  5
4AC
330
4A2
100
AcDbEntity
  8
DEFPOINTS
 62
     0
100
AcDbPoint
 10
773.0000000000006
 20
505.0000000000001
 30
0.0
  0
POINT
  5
4AD
330
4A2
100
AcDbEntity
  8
DEFPOINTS
 62
     0
100
AcDbPoint
 10
824.0000000000002
 20
505.0000000000001
 30
0.0
  0
ENDBLK
  5
4A4
330
4A2
100
AcDbEntity
  8
0
100
AcDbBlockEnd
  0
BLOCK
  5
4B0
330
4AF
100
AcDbEntity
  8
0
100
AcDbBlockBegin
  2
*D24
 70
     1
 10
0.0
 20
0.0
 30
0.0
  3
*D24
  1

  0
LINE
  5
4B2
330
4AF
100
AcDbEntity
  8
LAY-20
  6
CONTINUOUS
 62
     4
100
AcDbLine
 10
481.5003350000002
 20
310.2500000000001
 30
0.0
 11
482.5003350000001
 21
310.2500000000001
 31
0.0
  0
LINE
  5
4B3
330
4AF
100
AcDbEntity
  8
LAY-20
  6
CONTINUOUS
 62
     4
100
AcDbLine
 10
474.0003350000002
 20
310.2500000000001
 30
0.0
 11
466.5003350000002
 21
310.2500000000001
 31
0.0
  0
LINE
  5
4B4
330
4AF
100
AcDbEntity
  8
LAY-20
  6
CONTINUOUS
 62
     4
100
AcDbLine
 10
490.0003350000001
 20
310.2500000000001
 30
0.0
 11
497.5003350000001
 21
310.2500000000001
 31
0.0
  0
INSERT
  5
4B5
330
4AF
100
AcDbEntity
  8
LAY-20
 62
     4
100
AcDbBlockReference
  2
EX_BNORM
 10
481.5003350000002
 20
310.2500000000001
 30
0.0
 41
7.5
 42
7.5
 43
7.5
  0
INSERT
  5
4B6
330
4AF
100
AcDbEntity
  8
LAY-20
 62
     4
100
AcDbBlockReference
  2
EX_BNORM
 10
482.5003350000001
 20
310.2500000000001
 30
0.0
 41
7.5
 42
7.5
 43
7.5
 50
180.0
  0
MTEXT
  5
4B7
330
4AF
100
AcDbEntity
  8
LAY-20
 62
     7
100
AcDbMText
 10
496.0003350000001
 20
317.7500000000001
 30
0.0
 40
9.3543312
 41
0.0
 71
     5
 72
     1
  1
1
  7
EXCADDIM1
  0
POINT
  5
4B8
330
4AF
100
AcDbEntity
  8
DEFPOINTS
 62
     0
100
AcDbPoint
 10
481.5003350000002
 20
310.2500000000001
 30
0.0
  0
POINT
  5
4B9
330
4AF
100
AcDbEntity
  8
DEFPOINTS
 62
     0
100
AcDbPoint
 10
482.5003350000001
 20
310.2500000000001
 30
0.0
  0
POINT
  5
4BA
330
4AF
100
AcDbEntity
  8
DEFPOINTS
 62
     0
100
AcDbPoint
 10
482.5003350000001
 20
310.2500000000001
 30
0.0
  0
ENDBLK
  5
4B1
330
4AF
100
AcDbEntity
  8
0
100
AcDbBlockEnd
  0
BLOCK
  5
4BD
330
4BC
100
AcDbEntity
  8
0
100
AcDbBlockBegin
  2
*D25
 70
     1
 10
0.0
 20
0.0
 30
0.0
  3
*D25
  1

  0
LINE
  5
4BF
330
4BC
100
AcDbEntity
  8
LAY-20
  6
CONTINUOUS
 62
     4
100
AcDbLine
 10
425.0000000000002
 20
355.5
 30
0.0
 11
425.0000000000002
 21
358.5
 31
0.0
  0
LINE
  5
4C0
330
4BC
100
AcDbEntity
  8
LAY-20
  6
CONTINUOUS
 62
     4
100
AcDbLine
 10
425.0000000000002
 20
348.0
 30
0.0
 11
425.0000000000002
 21
340.5
 31
0.0
  0
LINE
  5
4C1
330
4BC
100
AcDbEntity
  8
LAY-20
  6
CONTINUOUS
 62
     4
100
AcDbLine
 10
425.0000000000002
 20
366.0
 30
0.0
 11
425.0000000000002
 21
373.5
 31
0.0
  0
INSERT
  5
4C2
330
4BC
100
AcDbEntity
  8
LAY-20
 62
     4
100
AcDbBlockReference
  2
EX_BNORM
 10
425.0000000000002
 20
355.5
 30
0.0
 41
7.5
 42
7.5
 43
7.5
 50
90.0
  0
INSERT
  5
4C3
330
4BC
100
AcDbEntity
  8
LAY-20
 62
     4
100
AcDbBlockReference
  2
EX_BNORM
 10
425.0000000000002
 20
358.5
 30
0.0
 41
7.5
 42
7.5
 43
7.5
 50
270.0
  0
MTEXT
  5
4C4
330
4BC
100
AcDbEntity
  8
LAY-20
 62
     7
100
AcDbMText
 10
434.4999999999999
 20
397.4999999999999
 30
0.0
 40
9.3543312
 41
0.0
 71
     5
 72
     1
  1
3
  7
EXCADDIM1
  0
POINT
  5
4C5
330
4BC
100
AcDbEntity
  8
DEFPOINTS
 62
     0
100
AcDbPoint
 10
425.0000000000002
 20
355.5
 30
0.0
  0
POINT
  5
4C6
330
4BC
100
AcDbEntity
  8
DEFPOINTS
 62
     0
100
AcDbPoint
 10
425.0000000000002
 20
358.5
 30
0.0
  0
POINT
  5
4C7
330
4BC
100
AcDbEntity
  8
DEFPOINTS
 62
     0
100
AcDbPoint
 10
425.0000000000002
 20
358.5
 30
0.0
  0
ENDBLK
  5
4BE
330
4BC
100
AcDbEntity
  8
0
100
AcDbBlockEnd
  0
ENDSEC
  0
SECTION
  2
ENTITIES
  0
LINE
  5
D4
330
1F
100
AcDbEntity
  8
LAY-10
  6
CONTINUOUS
 62
     7
100
AcDbLine
 10
482.5000000000001
 20
682.0000000000001
 30
0.0
 11
482.5000000000001
 21
518.0
 31
0.0
  0
LINE
  5
D5
330
1F
100
AcDbEntity
  8
LAY-10
  6
CONTINUOUS
 62
     7
100
AcDbLine
 10
267.5000000000001
 20
518.0
 30
0.0
 11
267.5000000000001
 21
682.0000000000001
 31
0.0
  0
CIRCLE
  5
D6
330
1F
100
AcDbEntity
  8
LAY-10
  6
CONTINUOUS
 62
     7
100
AcDbCircle
 10
375.0000000000001
 20
550.8789999999999
 30
0.0
 40
9.0
  0
LINE
  5
D7
330
1F
100
AcDbEntity
  8
LAY-10
  6
CONTINUOUS
 62
     7
100
AcDbLine
 10
676.5000000000007
 20
684.0000000000001
 30
0.0
 11
676.5000000000007
 21
516.0000000000003
 31
0.0
  0
LINE
  5
D8
330
1F
100
AcDbEntity
  8
LAY-10
  6
CONTINUOUS
 62
     7
100
AcDbLine
 10
679.5000000000007
 20
678.0000000000001
 30
0.0
 11
679.5000000000007
 21
522.0000000000003
 31
0.0
  0
LINE
  5
D9
330
1F
100
AcDbEntity
  8
LAY-10
  6
CONTINUOUS
 62
     7
100
AcDbLine
 10
675.0000000000007
 20
686.0
 30
0.0
 11
675.0000000000007
 21
514.0000000000002
 31
0.0
  0
LINE
  5
DA
330
1F
100
AcDbEntity
  8
LAY-10
  6
CONTINUOUS
 62
     7
100
AcDbLine
 10
682.5000000000007
 20
632.675445
 30
0.0
 11
682.5000000000007
 21
645.3245550000003
 31
0.0
  0
LINE
  5
DB
330
1F
100
AcDbEntity
  8
LAY-10
  6
CONTINUOUS
 62
     7
100
AcDbLine
 10
682.5000000000007
 20
626.5838020000001
 30
0.0
 11
682.5000000000007
 21
631.583802
 31
0.0
  0
LINE
  5
DC
330
1F
100
AcDbEntity
  8
LAY-10
  6
CONTINUOUS
 62
     7
100
AcDbLine
 10
682.5000000000007
 20
678.0000000000001
 30
0.0
 11
682.5000000000007
 21
646.4161980000002
 31
0.0
  0
LINE
  5
DD
330
1F
100
AcDbEntity
  8
LAY-10
  6
CONTINUOUS
 62
     7
100
AcDbLine
 10
680.5000000000005
 20
656.5000000000002
 30
0.0
 11
680.5000000000005
 21
646.9372540000002
 31
0.0
  0
LINE
  5
DE
330
1F
100
AcDbEntity
  8
LAY-10
  6
CONTINUOUS
 62
     7
100
AcDbLine
 10
680.5000000000005
 20
621.5
 30
0.0
 11
680.5000000000005
 21
631.0627460000001
 31
0.0
  0
LINE
  5
DF
330
1F
100
AcDbEntity
  8
LAY-10
  6
CONTINUOUS
 62
     7
100
AcDbLine
 10
679.5000000000007
 20
621.5
 30
0.0
 11
680.5000000000005
 21
621.5
 31
0.0
  0
LINE
  5
E0
330
1F
100
AcDbEntity
  8
LAY-10
  6
CONTINUOUS
 62
     7
100
AcDbLine
 10
679.5000000000007
 20
656.5000000000002
 30
0.0
 11
680.5000000000005
 21
656.5000000000002
 31
0.0
  0
ARC
  5
E1
330
1F
100
AcDbEntity
  8
LAY-10
  6
CONTINUOUS
 62
     7
100
AcDbCircle
 10
679.5000000000007
 20
639.0000000000001
 30
0.0
 40
8.0
100
AcDbArc
 50
277.1807559999981
 51
13.0954859999989
  0
ARC
  5
E2
330
1F
100
AcDbEntity
  8
LAY-10
  6
CONTINUOUS
 62
     7
100
AcDbCircle
 10
679.5000000000007
 20
639.0000000000001
 30
0.0
 40
8.0
100
AcDbArc
 50
20.81691600000172
 51
82.81924400000202
  0
ARC
  5
E3
330
1F
100
AcDbEntity
  8
LAY-10
  6
CONTINUOUS
 62
     7
100
AcDbCircle
 10
679.5000000000007
 20
639.0000000000001
 30
0.0
 40
6.999999999999999
100
AcDbArc
 50
270.0
 51
0.0
  0
ARC
  5
E4
330
1F
100
AcDbEntity
  8
LAY-10
  6
CONTINUOUS
 62
     7
100
AcDbCircle
 10
679.5000000000007
 20
639.0000000000001
 30
0.0
 40
6.999999999999999
100
AcDbArc
 50
16.68337299999977
 51
90.0
  0
POLYLINE
  5
E5
330
1F
100
AcDbEntity
  8
LAY-10
  6
CONTINUOUS
 62
     7
100
AcDb2dPolyline
 66
     1
 10
0.0
 20
0.0
 30
0.0
 70
   128
  0
VERTEX
  5
E6
330
E5
100
AcDbEntity
  8
LAY-10
  6
CONTINUOUS
 62
     7
100
AcDbVertex
100
AcDb2dVertex
 10
686.9777660000004
 20
636.1569360000002
 30
0.0
  0
VERTEX
  5
E7
330
E5
100
AcDbEntity
  8
LAY-10
  6
CONTINUOUS
 62
     7
100
AcDbVertex
100
AcDb2dVertex
 10
687.9500860000003
 20
635.4485640000001
 30
0.0
  0
VERTEX
  5
E8
330
E5
100
AcDbEntity
  8
LAY-10
  6
CONTINUOUS
 62
     7
100
AcDbVertex
100
AcDb2dVertex
 10
689.1214210000003
 20
634.8481010000002
 30
0.0
  0
VERTEX
  5
E9
330
E5
100
AcDbEntity
  8
LAY-10
  6
CONTINUOUS
 62
     7
100
AcDbVertex
100
AcDb2dVertex
 10
690.4561820000004
 20
634.3737900000002
 30
0.0
  0
VERTEX
  5
EA
330
E5
100
AcDbEntity
  8
LAY-10
  6
CONTINUOUS
 62
     7
100
AcDbVertex
100
AcDb2dVertex
 10
691.9138120000005
 20
634.0400450000001
 30
0.0
  0
VERTEX
  5
EB
330
E5
100
AcDbEntity
  8
LAY-10
  6
CONTINUOUS
 62
     7
100
AcDbVertex
100
AcDb2dVertex
 10
693.4500220000004
 20
633.8570060000001
 30
0.0
  0
VERTEX
  5
EC
330
E5
100
AcDbEntity
  8
LAY-10
  6
CONTINUOUS
 62
     7
100
AcDbVertex
100
AcDb2dVertex
 10
695.0181360000004
 20
633.8302340000001
 30
0.0
  0
VERTEX
  5
ED
330
E5
100
AcDbEntity
  8
LAY-10
  6
CONTINUOUS
 62
     7
100
AcDbVertex
100
AcDb2dVertex
 10
696.5705050000006
 20
633.9605420000003
 30
0.0
  0
VERTEX
  5
EE
330
E5
100
AcDbEntity
  8
LAY-10
  6
CONTINUOUS
 62
     7
100
AcDbVertex
100
AcDb2dVertex
 10
698.0599640000005
 20
634.2439720000002
 30
0.0
  0
VERTEX
  5
EF
330
E5
100
AcDbEntity
  8
LAY-10
  6
CONTINUOUS
 62
     7
100
AcDbVertex
100
AcDb2dVertex
 10
699.4412550000004
 20
634.6719120000002
 30
0.0
  0
VERTEX
  5
F0
330
E5
100
AcDbEntity
  8
LAY-10
  6
CONTINUOUS
 62
     7
100
AcDbVertex
100
AcDb2dVertex
 10
700.6724080000006
 20
635.2313580000001
 30
0.0
  0
VERTEX
  5
F1
330
E5
100
AcDbEntity
  8
LAY-10
  6
CONTINUOUS
 62
     7
100
AcDbVertex
100
AcDb2dVertex
 10
701.7160160000003
 20
635.9053120000001
 30
0.0
  0
VERTEX
  5
F2
330
E5
100
AcDbEntity
  8
LAY-10
  6
CONTINUOUS
 62
     7
100
AcDbVertex
100
AcDb2dVertex
 10
702.5403690000003
 20
636.673297
 30
0.0
  0
VERTEX
  5
F3
330
E5
100
AcDbEntity
  8
LAY-10
  6
CONTINUOUS
 62
     7
100
AcDbVertex
100
AcDb2dVertex
 10
702.7006620000004
 20
636.8665280000002
 30
0.0
  0
SEQEND
  5
F4
330
E5
100
AcDbEntity
  8
LAY-10
  6
CONTINUOUS
 62
     7
  0
POLYLINE
  5
F5
330
1F
100
AcDbEntity
  8
LAY-10
  6
CONTINUOUS
 62
     7
100
AcDb2dPolyline
 66
     1
 10
0.0
 20
0.0
 30
0.0
 70
   128
  0
VERTEX
  5
F6
330
F5
100
AcDbEntity
  8
LAY-10
  6
CONTINUOUS
 62
     7
100
AcDbVertex
100
AcDb2dVertex
 10
702.5000000000005
 20
639.0000000000001
 30
0.0
  0
VERTEX
  5
F7
330
F5
100
AcDbEntity
  8
LAY-10
  6
CONTINUOUS
 62
     7
100
AcDbVertex
100
AcDb2dVertex
 10
702.3462820000004
 20
639.815157
 30
0.0
  0
VERTEX
  5
F8
330
F5
100
AcDbEntity
  8
LAY-10
  6
CONTINUOUS
 62
     7
100
AcDbVertex
100
AcDb2dVertex
 10
701.8910360000004
 20
640.5989870000002
 30
0.0
  0
VERTEX
  5
F9
330
F5
100
AcDbEntity
  8
LAY-10
  6
CONTINUOUS
 62
     7
100
AcDbVertex
100
AcDb2dVertex
 10
701.1517570000003
 20
641.32137
 30
0.0
  0
VERTEX
  5
FA
330
F5
100
AcDbEntity
  8
LAY-10
  6
CONTINUOUS
 62
     7
100
AcDbVertex
100
AcDb2dVertex
 10
700.1568540000003
 20
641.9545430000003
 30
0.0
  0
VERTEX
  5
FB
330
F5
100
AcDbEntity
  8
LAY-10
  6
CONTINUOUS
 62
     7
100
AcDbVertex
100
AcDb2dVertex
 10
698.9445620000004
 20
642.4741750000001
 30
0.0
  0
VERTEX
  5
FC
330
F5
100
AcDbEntity
  8
LAY-10
  6
CONTINUOUS
 62
     7
100
AcDbVertex
100
AcDb2dVertex
 10
697.5614670000007
 20
642.8602970000003
 30
0.0
  0
VERTEX
  5
FD
330
F5
100
AcDbEntity
  8
LAY-10
  6
CONTINUOUS
 62
     7
100
AcDbVertex
100
AcDb2dVertex
 10
696.0607220000004
 20
643.0980690000002
 30
0.0
  0
VERTEX
  5
FE
330
F5
100
AcDbEntity
  8
LAY-10
  6
CONTINUOUS
 62
     7
100
AcDbVertex
100
AcDb2dVertex
 10
694.5000000000007
 20
643.1783550000001
 30
0.0
  0
VERTEX
  5
FF
330
F5
100
AcDbEntity
  8
LAY-10
  6
CONTINUOUS
 62
     7
100
AcDbVertex
100
AcDb2dVertex
 10
692.9392770000004
 20
643.0980690000002
 30
0.0
  0
VERTEX
  5
100
330
F5
100
AcDbEntity
  8
LAY-10
  6
CONTINUOUS
 62
     7
100
AcDbVertex
100
AcDb2dVertex
 10
691.4385320000004
 20
642.8602970000003
 30
0.0
  0
VERTEX
  5
101
330
F5
100
AcDbEntity
  8
LAY-10
  6
CONTINUOUS
 62
     7
100
AcDbVertex
100
AcDb2dVertex
 10
690.0554380000005
 20
642.4741750000001
 30
0.0
  0
VERTEX
  5
102
330
F5
100
AcDbEntity
  8
LAY-10
  6
CONTINUOUS
 62
     7
100
AcDbVertex
100
AcDb2dVertex
 10
688.8431460000006
 20
641.9545430000003
 30
0.0
  0
VERTEX
  5
103
330
F5
100
AcDbEntity
  8
LAY-10
  6
CONTINUOUS
 62
     7
100
AcDbVertex
100
AcDb2dVertex
 10
687.8482430000006
 20
641.32137
 30
0.0
  0
VERTEX
  5
104
330
F5
100
AcDbEntity
  8
LAY-10
  6
CONTINUOUS
 62
     7
100
AcDbVertex
100
AcDb2dVertex
 10
687.1089640000005
 20
640.5989870000002
 30
0.0
  0
VERTEX
  5
105
330
F5
100
AcDbEntity
  8
LAY-10
  6
CONTINUOUS
 62
     7
100
AcDbVertex
100
AcDb2dVertex
 10
686.6537180000005
 20
639.815156
 30
0.0
  0
VERTEX
  5
106
330
F5
100
AcDbEntity
  8
LAY-10
  6
CONTINUOUS
 62
     7
100
AcDbVertex
100
AcDb2dVertex
 10
686.5000000000005
 20
639.0000000000001
 30
0.0
  0
SEQEND
  5
107
330
F5
100
AcDbEntity
  8
LAY-10
  6
CONTINUOUS
 62
     7
  0
POLYLINE
  5
108
330
1F
100
AcDbEntity
  8
LAY-10
  6
CONTINUOUS
 62
     7
100
AcDb2dPolyline
 66
     1
 10
0.0
 20
0.0
 30
0.0
 70
   128
  0
VERTEX
  5
109
330
108
100
AcDbEntity
  8
LAY-10
  6
CONTINUOUS
 62
     7
100
AcDbVertex
100
AcDb2dVertex
 10
687.2919510000006
 20
637.1874030000001
 30
0.0
  0
VERTEX
  5
10A
330
108
100
AcDbEntity
  8
LAY-10
  6
CONTINUOUS
 62
     7
100
AcDbVertex
100
AcDb2dVertex
 10
688.1075020000005
 20
636.4877710000002
 30
0.0
  0
VERTEX
  5
10B
330
108
100
AcDbEntity
  8
LAY-10
  6
CONTINUOUS
 62
     7
100
AcDbVertex
100
AcDb2dVertex
 10
689.1687140000006
 20
635.884682
 30
0.0
  0
VERTEX
  5
10C
330
108
100
AcDbEntity
  8
LAY-10
  6
CONTINUOUS
 62
     7
100
AcDbVertex
100
AcDb2dVertex
 10
690.4348050000003
 20
635.4013130000001
 30
0.0
  0
VERTEX
  5
10D
330
108
100
AcDbEntity
  8
LAY-10
  6
CONTINUOUS
 62
     7
100
AcDbVertex
100
AcDb2dVertex
 10
691.8571180000004
 20
635.0562390000002
 30
0.0
  0
VERTEX
  5
10E
330
108
100
AcDbEntity
  8
LAY-10
  6
CONTINUOUS
 62
     7
100
AcDbVertex
100
AcDb2dVertex
 10
693.3809960000006
 20
634.8627220000001
 30
0.0
  0
VERTEX
  5
10F
330
108
100
AcDbEntity
  8
LAY-10
  6
CONTINUOUS
 62
     7
100
AcDbVertex
100
AcDb2dVertex
 10
694.9478770000005
 20
634.8281980000003
 30
0.0
  0
VERTEX
  5
110
330
108
100
AcDbEntity
  8
LAY-10
  6
CONTINUOUS
 62
     7
100
AcDbVertex
100
AcDb2dVertex
 10
696.4975460000003
 20
634.9539940000002
 30
0.0
  0
VERTEX
  5
111
330
108
100
AcDbEntity
  8
LAY-10
  6
CONTINUOUS
 62
     7
100
AcDbVertex
100
AcDb2dVertex
 10
697.9704500000005
 20
635.2352760000001
 30
0.0
  0
VERTEX
  5
112
330
108
100
AcDbEntity
  8
LAY-10
  6
CONTINUOUS
 62
     7
100
AcDbVertex
100
AcDb2dVertex
 10
699.3099870000003
 20
635.661235
 30
0.0
  0
VERTEX
  5
113
330
108
100
AcDbEntity
  8
LAY-10
  6
CONTINUOUS
 62
     7
100
AcDbVertex
100
AcDb2dVertex
 10
700.4646790000004
 20
636.2155
 30
0.0
  0
VERTEX
  5
114
330
108
100
AcDbEntity
  8
LAY-10
  6
CONTINUOUS
 62
     7
100
AcDbVertex
100
AcDb2dVertex
 10
701.3901510000005
 20
636.8767710000003
 30
0.0
  0
VERTEX
  5
115
330
108
100
AcDbEntity
  8
LAY-10
  6
CONTINUOUS
 62
     7
100
AcDbVertex
100
AcDb2dVertex
 10
701.9850770000005
 20
637.525166
 30
0.0
  0
SEQEND
  5
116
330
108
100
AcDbEntity
  8
LAY-10
  6
CONTINUOUS
 62
     7
  0
POLYLINE
  5
117
330
1F
100
AcDbEntity
  8
LAY-10
  6
CONTINUOUS
 62
     7
100
AcDb2dPolyline
 66
     1
 10
0.0
 20
0.0
 30
0.0
 70
   128
  0
VERTEX
  5
118
330
117
100
AcDbEntity
  8
LAY-10
  6
CONTINUOUS
 62
     7
100
AcDbVertex
100
AcDb2dVertex
 10
703.2201300000006
 20
637.7186710000002
 30
0.0
  0
VERTEX
  5
119
330
117
100
AcDbEntity
  8
LAY-10
  6
CONTINUOUS
 62
     7
100
AcDbVertex
100
AcDb2dVertex
 10
703.4743590000005
 20
638.609387
 30
0.0
  0
VERTEX
  5
11A
330
117
100
AcDbEntity
  8
LAY-10
  6
CONTINUOUS
 62
     7
100
AcDbVertex
100
AcDb2dVertex
 10
703.4559050000005
 20
639.5119710000001
 30
0.0
  0
VERTEX
  5
11B
330
117
100
AcDbEntity
  8
LAY-10
  6
CONTINUOUS
 62
     7
100
AcDbVertex
100
AcDb2dVertex
 10
703.1653320000005
 20
640.399
 30
0.0
  0
VERTEX
  5
11C
330
117
100
AcDbEntity
  8
LAY-10
  6
CONTINUOUS
 62
     7
100
AcDbVertex
100
AcDb2dVertex
 10
702.6114660000005
 20
641.2435200000001
 30
0.0
  0
VERTEX
  5
11D
330
117
100
AcDbEntity
  8
LAY-10
  6
CONTINUOUS
 62
     7
100
AcDbVertex
100
AcDb2dVertex
 10
701.8111380000007
 20
642.0198720000001
 30
0.0
  0
VERTEX
  5
11E
330
117
100
AcDbEntity
  8
LAY-10
  6
CONTINUOUS
 62
     7
100
AcDbVertex
100
AcDb2dVertex
 10
700.7886640000004
 20
642.7044670000001
 30
0.0
  0
VERTEX
  5
11F
330
117
100
AcDbEntity
  8
LAY-10
  6
CONTINUOUS
 62
     7
100
AcDbVertex
100
AcDb2dVertex
 10
699.5751130000006
 20
643.2765040000003
 30
0.0
  0
VERTEX
  5
120
330
117
100
AcDbEntity
  8
LAY-10
  6
CONTINUOUS
 62
     7
100
AcDbVertex
100
AcDb2dVertex
 10
698.2073570000005
 20
643.718601
 30
0.0
  0
VERTEX
  5
121
330
117
100
AcDbEntity
  8
LAY-10
  6
CONTINUOUS
 62
     7
100
AcDbVertex
100
AcDb2dVertex
 10
696.7269540000004
 20
644.0173260000003
 30
0.0
  0
VERTEX
  5
122
330
117
100
AcDbEntity
  8
LAY-10
  6
CONTINUOUS
 62
     7
100
AcDbVertex
100
AcDb2dVertex
 10
695.1788870000005
 20
644.163602
 30
0.0
  0
VERTEX
  5
123
330
117
100
AcDbEntity
  8
LAY-10
  6
CONTINUOUS
 62
     7
100
AcDbVertex
100
AcDb2dVertex
 10
693.6101920000003
 20
644.1529840000002
 30
0.0
  0
VERTEX
  5
124
330
117
100
AcDbEntity
  8
LAY-10
  6
CONTINUOUS
 62
     7
100
AcDbVertex
100
AcDb2dVertex
 10
692.0685340000005
 20
643.985796
 30
0.0
  0
VERTEX
  5
125
330
117
100
AcDbEntity
  8
LAY-10
  6
CONTINUOUS
 62
     7
100
AcDbVertex
100
AcDb2dVertex
 10
690.6007540000005
 20
643.6671170000001
 30
0.0
  0
VERTEX
  5
126
330
117
100
AcDbEntity
  8
LAY-10
  6
CONTINUOUS
 62
     7
100
AcDbVertex
100
AcDb2dVertex
 10
689.2514510000003
 20
643.20663
 30
0.0
  0
VERTEX
  5
127
330
117
100
AcDbEntity
  8
LAY-10
  6
CONTINUOUS
 62
     7
100
AcDbVertex
100
AcDb2dVertex
 10
688.0616230000003
 20
642.618326
 30
0.0
  0
VERTEX
  5
128
330
117
100
AcDbEntity
  8
LAY-10
  6
CONTINUOUS
 62
     7
100
AcDbVertex
100
AcDb2dVertex
 10
687.0674210000006
 20
641.920082
 30
0.0
  0
VERTEX
  5
129
330
117
100
AcDbEntity
  8
LAY-10
  6
CONTINUOUS
 62
     7
100
AcDbVertex
100
AcDb2dVertex
 10
686.2990540000003
 20
641.1331120000002
 30
0.0
  0
VERTEX
  5
12A
330
117
100
AcDbEntity
  8
LAY-10
  6
CONTINUOUS
 62
     7
100
AcDbVertex
100
AcDb2dVertex
 10
685.7798700000003
 20
640.281329
 30
0.0
  0
VERTEX
  5
12B
330
117
100
AcDbEntity
  8
LAY-10
  6
CONTINUOUS
 62
     7
100
AcDbVertex
100
AcDb2dVertex
 10
685.5256410000004
 20
639.3906130000003
 30
0.0
  0
VERTEX
  5
12C
330
117
100
AcDbEntity
  8
LAY-10
  6
CONTINUOUS
 62
     7
100
AcDbVertex
100
AcDb2dVertex
 10
685.5440950000004
 20
638.4880290000001
 30
0.0
  0
VERTEX
  5
12D
330
117
100
AcDbEntity
  8
LAY-10
  6
CONTINUOUS
 62
     7
100
AcDbVertex
100
AcDb2dVertex
 10
685.8346680000004
 20
637.6010000000002
 30
0.0
  0
VERTEX
  5
12E
330
117
100
AcDbEntity
  8
LAY-10
  6
CONTINUOUS
 62
     7
100
AcDbVertex
100
AcDb2dVertex
 10
686.2053410000005
 20
636.9904220000002
 30
0.0
  0
SEQEND
  5
12F
330
117
100
AcDbEntity
  8
LAY-10
  6
CONTINUOUS
 62
     7
  0
ARC
  5
130
330
1F
100
AcDbEntity
  8
LAY-10
  6
CONTINUOUS
 62
     7
100
AcDbCircle
 10
703.9915000000005
 20
639.0000000000001
 30
0.0
 40
1.5
100
AcDbArc
 50
175.3014999999973
 51
298.5781850000038
  0
ARC
  5
131
330
1F
100
AcDbEntity
  8
LAY-10
  6
CONTINUOUS
 62
     7
100
AcDbCircle
 10
704.0035920000007
 20
639.0001570000001
 30
0.0
 40
2.5
100
AcDbArc
 50
143.8476870000032
 51
298.5781779999966
  0
ARC
  5
132
330
1F
100
AcDbEntity
  8
LAY-10
  6
CONTINUOUS
 62
     7
100
AcDbCircle
 10
704.0035920000007
 20
639.0001570000001
 30
0.0
 40
2.5
100
AcDbArc
 50
71.42183900000371
 51
121.4153720000089
  0
ARC
  5
133
330
1F
100
AcDbEntity
  8
LAY-10
  6
CONTINUOUS
 62
     7
100
AcDbCircle
 10
744.9551510000003
 20
645.1535780000002
 30
0.0
 40
2.5
100
AcDbArc
 50
231.9093670000034
 51
313.5781780000075
  0
ARC
  5
134
330
1F
100
AcDbEntity
  8
LAY-10
  6
CONTINUOUS
 62
     7
100
AcDbCircle
 10
744.9551510000003
 20
645.1535780000002
 30
0.0
 40
1.5
100
AcDbArc
 50
86.42180900000348
 51
200.0000000000182
  0
ARC
  5
135
330
1F
100
AcDbEntity
  8
LAY-10
  6
CONTINUOUS
 62
     7
100
AcDbCircle
 10
744.9551510000003
 20
645.1535780000002
 30
0.0
 40
1.5
100
AcDbArc
 50
238.9695000000011
 51
313.5781849999852
  0
LINE
  5
136
330
1F
100
AcDbEntity
  8
LAY-10
  6
CONTINUOUS
 62
     7
100
AcDbLine
 10
742.4889730000004
 20
644.7437450000001
 30
0.0
 11
740.1249560000006
 21
644.97463
 31
0.0
  0
LINE
  5
137
330
1F
100
AcDbEntity
  8
LAY-10
  6
CONTINUOUS
 62
     7
100
AcDbLine
 10
744.7830350000004
 20
645.524451
 30
0.0
 11
743.5382890000003
 21
645.646021
 31
0.0
  0
LINE
  5
138
330
1F
100
AcDbEntity
  8
LAY-10
  6
CONTINUOUS
 62
     7
100
AcDbLine
 10
742.5260850000006
 20
645.7448790000001
 30
0.0
 11
740.2221600000007
 21
645.9698950000002
 31
0.0
  0
ARC
  5
139
330
1F
100
AcDbEntity
  8
LAY-10
  6
CONTINUOUS
 62
     7
100
AcDbCircle
 10
749.8384610000005
 20
647.0700800000001
 30
0.0
 40
2.5
100
AcDbArc
 50
91.42183900000107
 51
212.5577470000015
  0
ARC
  5
13A
330
1F
100
AcDbEntity
  8
LAY-10
  6
CONTINUOUS
 62
     7
100
AcDbCircle
 10
749.8384610000005
 20
647.0700800000001
 30
0.0
 40
2.5
100
AcDbArc
 50
235.6326180000009
 51
318.5781780000013
  0
ARC
  5
13B
330
1F
100
AcDbEntity
  8
LAY-10
  6
CONTINUOUS
 62
     7
100
AcDbCircle
 10
749.8384610000005
 20
647.0700800000001
 30
0.0
 40
1.5
100
AcDbArc
 50
91.42180899999356
 51
204.9999970000028
  0
LINE
  5
13C
330
1F
100
AcDbEntity
  8
LAY-10
  6
CONTINUOUS
 62
     7
100
AcDbLine
 10
724.7664500000005
 20
641.6951810000003
 30
0.0
 11
723.3447600000006
 21
642.1184160000003
 31
0.0
  0
LINE
  5
13D
330
1F
100
AcDbEntity
  8
LAY-10
  6
CONTINUOUS
 62
     7
100
AcDbLine
 10
722.3617030000007
 20
642.4110700000001
 30
0.0
 11
720.3743650000006
 21
643.0026970000002
 31
0.0
  0
ARC
  5
13E
330
1F
100
AcDbEntity
  8
LAY-10
  6
CONTINUOUS
 62
     7
100
AcDbCircle
 10
729.6316100000004
 20
641.8305390000003
 30
0.0
 40
2.5
100
AcDbArc
 50
73.42183500000282
 51
196.6916360000091
  0
ARC
  5
13F
330
1F
100
AcDbEntity
  8
LAY-10
  6
CONTINUOUS
 62
     7
100
AcDbCircle
 10
729.6316100000004
 20
641.8305390000003
 30
0.0
 40
2.5
100
AcDbArc
 50
219.7850730000083
 51
300.5781780000048
  0
ARC
  5
140
330
1F
100
AcDbEntity
  8
LAY-10
  6
CONTINUOUS
 62
     7
100
AcDbCircle
 10
729.6316100000004
 20
641.8305390000003
 30
0.0
 40
1.5
100
AcDbArc
 50
73.42180899999225
 51
186.999997000002
  0
ARC
  5
141
330
1F
100
AcDbEntity
  8
LAY-10
  6
CONTINUOUS
 62
     7
100
AcDbCircle
 10
729.6316100000004
 20
641.8305390000003
 30
0.0
 40
1.5
100
AcDbArc
 50
226.0441860000149
 51
300.5781849999991
  0
LINE
  5
142
330
1F
100
AcDbEntity
  8
LAY-10
  6
CONTINUOUS
 62
     7
100
AcDbLine
 10
728.3214420000004
 20
641.7532970000002
 30
0.0
 11
728.1317540000005
 21
641.8097670000002
 31
0.0
  0
LINE
  5
143
330
1F
100
AcDbEntity
  8
LAY-10
  6
CONTINUOUS
 62
     7
100
AcDbLine
 10
727.1465100000005
 20
642.1030720000001
 30
0.0
 11
725.0273780000007
 21
642.7339340000001
 31
0.0
  0
LINE
  5
144
330
1F
100
AcDbEntity
  8
LAY-10
  6
CONTINUOUS
 62
     7
100
AcDbLine
 10
729.7047860000005
 20
642.3848490000001
 30
0.0
 11
728.4524450000004
 21
642.7576690000002
 31
0.0
  0
LINE
  5
145
330
1F
100
AcDbEntity
  8
LAY-10
  6
CONTINUOUS
 62
     7
100
AcDbLine
 10
737.6223460000006
 20
644.315684
 30
0.0
 11
735.5104420000005
 21
644.9044710000002
 31
0.0
  0
ARC
  5
146
330
1F
100
AcDbEntity
  8
LAY-10
  6
CONTINUOUS
 62
     7
100
AcDbCircle
 10
744.9551510000003
 20
645.1535780000002
 30
0.0
 40
2.5
100
AcDbArc
 50
86.42183900000259
 51
208.8302450000039
  0
ARC
  5
147
330
1F
100
AcDbEntity
  8
LAY-10
  6
CONTINUOUS
 62
     7
100
AcDbCircle
 10
709.2393220000006
 20
639.3269910000002
 30
0.0
 40
1.5
100
AcDbArc
 50
71.42180900000587
 51
180.0
  0
LINE
  5
148
330
1F
100
AcDbEntity
  8
LAY-10
  6
CONTINUOUS
 62
     7
100
AcDbLine
 10
706.7610400000005
 20
639.6558040000002
 30
0.0
 11
704.4814890000005
 21
640.4219920000003
 31
0.0
  0
LINE
  5
149
330
1F
100
AcDbEntity
  8
LAY-10
  6
CONTINUOUS
 62
     7
100
AcDbLine
 10
709.1438650000005
 20
639.9098800000003
 30
0.0
 11
708.0727370000004
 21
640.2699010000002
 31
0.0
  0
LINE
  5
14A
330
1F
100
AcDbEntity
  8
LAY-10
  6
CONTINUOUS
 62
     7
100
AcDbLine
 10
707.0881920000006
 20
640.600819
 30
0.0
 11
704.8000880000006
 21
641.3698810000003
 31
0.0
  0
ARC
  5
14B
330
1F
100
AcDbEntity
  8
LAY-10
  6
CONTINUOUS
 62
     7
100
AcDbCircle
 10
714.4501900000005
 20
639.9668050000001
 30
0.0
 40
2.5
100
AcDbArc
 50
73.42183499999634
 51
198.6555659999966
  0
ARC
  5
14C
330
1F
100
AcDbEntity
  8
LAY-10
  6
CONTINUOUS
 62
     7
100
AcDbCircle
 10
714.4501900000005
 20
639.9668050000001
 30
0.0
 40
2.5
100
AcDbArc
 50
221.7388260000034
 51
300.578177999999
  0
ARC
  5
14D
330
1F
100
AcDbEntity
  8
LAY-10
  6
CONTINUOUS
 62
     7
100
AcDbCircle
 10
714.4501900000005
 20
639.9668050000001
 30
0.0
 40
1.5
100
AcDbArc
 50
73.42180900000308
 51
191.8879930000002
  0
ARC
  5
14E
330
1F
100
AcDbEntity
  8
LAY-10
  6
CONTINUOUS
 62
     7
100
AcDbCircle
 10
714.4501900000005
 20
639.9668050000001
 30
0.0
 40
1.5
100
AcDbArc
 50
230.8790490000012
 51
300.5781850000147
  0
ARC
  5
14F
330
1F
100
AcDbEntity
  8
LAY-10
  6
CONTINUOUS
 62
     7
100
AcDbCircle
 10
749.8384610000005
 20
647.0700800000001
 30
0.0
 40
1.5
100
AcDbArc
 50
243.9473870000034
 51
318.5781850000085
  0
LINE
  5
150
330
1F
100
AcDbEntity
  8
LAY-10
  6
CONTINUOUS
 62
     7
100
AcDbLine
 10
747.4035320000005
 20
646.503404
 30
0.0
 11
745.0487670000005
 21
646.650653
 31
0.0
  0
LINE
  5
151
330
1F
100
AcDbEntity
  8
LAY-10
  6
CONTINUOUS
 62
     7
100
AcDbLine
 10
749.6848200000004
 20
647.362704
 30
0.0
 11
748.3857960000005
 21
647.4439340000002
 31
0.0
  0
LINE
  5
152
330
1F
100
AcDbEntity
  8
LAY-10
  6
CONTINUOUS
 62
     7
100
AcDbLine
 10
747.3769400000006
 20
647.5070210000002
 30
0.0
 11
745.1111770000005
 21
647.6487040000003
 31
0.0
  0
LINE
  5
153
330
1F
100
AcDbEntity
  8
LAY-10
  6
CONTINUOUS
 62
     7
100
AcDbLine
 10
753.2371150000006
 20
648.6548990000001
 30
0.0
 11
753.2290190000006
 21
648.6546980000003
 31
0.0
  0
LINE
  5
154
330
1F
100
AcDbEntity
  8
LAY-10
  6
CONTINUOUS
 62
     7
100
AcDbLine
 10
752.1207230000007
 20
648.6271890000002
 30
0.0
 11
749.8012370000004
 21
648.5696180000002
 31
0.0
  0
LINE
  5
155
330
1F
100
AcDbEntity
  8
LAY-10
  6
CONTINUOUS
 62
     7
100
AcDbLine
 10
751.9601000000007
 20
649.623511
 30
0.0
 11
749.7764280000004
 21
649.5693110000001
 31
0.0
  0
LINE
  5
156
330
1F
100
AcDbEntity
  8
LAY-10
  6
CONTINUOUS
 62
     7
100
AcDbLine
 10
723.3831050000003
 20
641.063629
 30
0.0
 11
723.1069580000003
 21
641.1458380000001
 31
0.0
  0
LINE
  5
157
330
1F
100
AcDbEntity
  8
LAY-10
  6
CONTINUOUS
 62
     7
100
AcDbLine
 10
722.1037900000003
 20
641.4444790000002
 30
0.0
 11
720.0890420000003
 21
642.0442660000002
 31
0.0
  0
LINE
  5
158
330
1F
100
AcDbEntity
  8
LAY-10
  6
CONTINUOUS
 62
     7
100
AcDbLine
 10
749.9982860000005
 20
646.5014610000002
 30
0.0
 11
746.6785110000003
 21
643.3424910000001
 31
0.0
  0
LINE
  5
159
330
1F
100
AcDbEntity
  8
LAY-10
  6
CONTINUOUS
 62
     7
100
AcDbLine
 10
749.3089430000005
 20
647.2258950000003
 30
0.0
 11
745.9891670000006
 21
644.0669260000002
 31
0.0
  0
ARC
  5
15A
330
1F
100
AcDbEntity
  8
LAY-10
  6
CONTINUOUS
 62
     7
100
AcDbCircle
 10
744.7344330000003
 20
645.0268190000003
 30
0.0
 40
0.5
100
AcDbArc
 50
311.5781230000041
 51
131.5781850000141
  0
LINE
  5
15B
330
1F
100
AcDbEntity
  8
LAY-10
  6
CONTINUOUS
 62
     7
100
AcDbLine
 10
745.0662540000003
 20
644.6527930000002
 30
0.0
 11
741.6382540000004
 21
641.6116060000002
 31
0.0
  0
LINE
  5
15C
330
1F
100
AcDbEntity
  8
LAY-10
  6
CONTINUOUS
 62
     7
100
AcDbLine
 10
744.4026130000004
 20
645.400844
 30
0.0
 11
740.9746130000003
 21
642.359657
 31
0.0
  0
ARC
  5
15D
330
1F
100
AcDbEntity
  8
LAY-10
  6
CONTINUOUS
 62
     7
100
AcDbCircle
 10
739.7904010000004
 20
643.192175
 30
0.0
 40
0.5
100
AcDbArc
 50
301.5781230000177
 51
121.5781849999906
  0
LINE
  5
15E
330
1F
100
AcDbEntity
  8
LAY-10
  6
CONTINUOUS
 62
     7
100
AcDbLine
 10
740.0522320000007
 20
642.7662110000001
 30
0.0
 11
736.1482140000003
 21
640.3664930000002
 31
0.0
  0
LINE
  5
15F
330
1F
100
AcDbEntity
  8
LAY-10
  6
CONTINUOUS
 62
     7
100
AcDbLine
 10
739.5285700000004
 20
643.6181380000003
 30
0.0
 11
735.6245530000006
 21
641.218419
 31
0.0
  0
ARC
  5
160
330
1F
100
AcDbEntity
  8
LAY-10
  6
CONTINUOUS
 62
     7
100
AcDbCircle
 10
703.9915000000005
 20
639.0000000000001
 30
0.0
 40
1.5
100
AcDbArc
 50
71.42180900000999
 51
121.0273690000101
  0
LINE
  5
161
330
1F
100
AcDbEntity
  8
LAY-10
  6
CONTINUOUS
 62
     7
100
AcDbLine
 10
727.4522420000005
 20
643.0554280000001
 30
0.0
 11
725.3127010000003
 21
643.6923660000001
 31
0.0
  0
POLYLINE
  5
162
330
1F
100
AcDbEntity
  8
LAY-10
  6
CONTINUOUS
 62
     7
100
AcDb2dPolyline
 66
     1
 10
0.0
 20
0.0
 30
0.0
 70
   128
  0
VERTEX
  5
163
330
162
100
AcDbEntity
  8
LAY-10
  6
CONTINUOUS
 62
     7
100
AcDbVertex
100
AcDb2dVertex
 10
735.5104420000005
 20
644.9044720000002
 30
0.0
  0
VERTEX
  5
164
330
162
100
AcDbEntity
  8
LAY-10
  6
CONTINUOUS
 62
     7
100
AcDbVertex
100
AcDb2dVertex
 10
734.8642870000006
 20
644.9961820000002
 30
0.0
  0
VERTEX
  5
165
330
162
100
AcDbEntity
  8
LAY-10
  6
CONTINUOUS
 62
     7
100
AcDbVertex
100
AcDb2dVertex
 10
734.2164130000006
 20
644.9175300000003
 30
0.0
  0
VERTEX
  5
166
330
162
100
AcDbEntity
  8
LAY-10
  6
CONTINUOUS
 62
     7
100
AcDbVertex
100
AcDb2dVertex
 10
733.6109710000005
 20
644.6738760000002
 30
0.0
  0
VERTEX
  5
167
330
162
100
AcDbEntity
  8
LAY-10
  6
CONTINUOUS
 62
     7
100
AcDbVertex
100
AcDb2dVertex
 10
733.0892220000003
 20
644.2818240000003
 30
0.0
  0
VERTEX
  5
168
330
162
100
AcDbEntity
  8
LAY-10
  6
CONTINUOUS
 62
     7
100
AcDbVertex
100
AcDb2dVertex
 10
732.6867210000005
 20
643.7680920000003
 30
0.0
  0
VERTEX
  5
169
330
162
100
AcDbEntity
  8
LAY-10
  6
CONTINUOUS
 62
     7
100
AcDbVertex
100
AcDb2dVertex
 10
732.4308980000003
 20
643.1676910000001
 30
0.0
  0
VERTEX
  5
16A
330
162
100
AcDbEntity
  8
LAY-10
  6
CONTINUOUS
 62
     7
100
AcDbVertex
100
AcDb2dVertex
 10
732.3391880000004
 20
642.5215360000002
 30
0.0
  0
VERTEX
  5
16B
330
162
100
AcDbEntity
  8
LAY-10
  6
CONTINUOUS
 62
     7
100
AcDbVertex
100
AcDb2dVertex
 10
732.4178400000003
 20
641.8736610000002
 30
0.0
  0
VERTEX
  5
16C
330
162
100
AcDbEntity
  8
LAY-10
  6
CONTINUOUS
 62
     7
100
AcDbVertex
100
AcDb2dVertex
 10
732.4516340000005
 20
641.7545570000001
 30
0.0
  0
SEQEND
  5
16D
330
162
100
AcDbEntity
  8
LAY-10
  6
CONTINUOUS
 62
     7
  0
ARC
  5
16E
330
1F
100
AcDbEntity
  8
LAY-10
  6
CONTINUOUS
 62
     7
100
AcDbCircle
 10
734.8390610000004
 20
642.4963090000001
 30
0.0
 40
2.5
100
AcDbArc
 50
220.3447060000047
 51
301.5781780000053
  0
ARC
  5
16F
330
1F
100
AcDbEntity
  8
LAY-10
  6
CONTINUOUS
 62
     7
100
AcDbCircle
 10
734.8390610000004
 20
642.4963090000001
 30
0.0
 40
1.5
100
AcDbArc
 50
74.42180900000295
 51
188.0000000000005
  0
ARC
  5
170
330
1F
100
AcDbEntity
  8
LAY-10
  6
CONTINUOUS
 62
     7
100
AcDbCircle
 10
734.8390610000004
 20
642.4963090000001
 30
0.0
 40
1.5
100
AcDbArc
 50
227.0009670000005
 51
301.5781850000063
  0
LINE
  5
171
330
1F
100
AcDbEntity
  8
LAY-10
  6
CONTINUOUS
 62
     7
100
AcDbLine
 10
732.3407820000004
 20
642.5890810000002
 30
0.0
 11
730.0595950000004
 21
643.2681860000001
 31
0.0
  0
LINE
  5
172
330
1F
100
AcDbEntity
  8
LAY-10
  6
CONTINUOUS
 62
     7
100
AcDbLine
 10
734.7370030000006
 20
642.9191020000002
 30
0.0
 11
733.5546470000004
 21
643.271087
 31
0.0
  0
LINE
  5
173
330
1F
100
AcDbEntity
  8
LAY-10
  6
CONTINUOUS
 62
     7
100
AcDbLine
 10
732.5775610000005
 20
643.5619640000002
 30
0.0
 11
730.3449180000007
 21
644.2266180000001
 31
0.0
  0
ARC
  5
174
330
1F
100
AcDbEntity
  8
LAY-10
  6
CONTINUOUS
 62
     7
100
AcDbCircle
 10
739.9791510000007
 20
643.4817340000002
 30
0.0
 40
2.5
100
AcDbArc
 50
84.42183900000657
 51
203.4803809999989
  0
ARC
  5
175
330
1F
100
AcDbEntity
  8
LAY-10
  6
CONTINUOUS
 62
     7
100
AcDbCircle
 10
739.9791510000007
 20
643.4817340000002
 30
0.0
 40
2.5
100
AcDbArc
 50
226.5970289999911
 51
311.5781840000028
  0
ARC
  5
176
330
1F
100
AcDbEntity
  8
LAY-10
  6
CONTINUOUS
 62
     7
100
AcDbCircle
 10
739.9791510000007
 20
643.4817340000002
 30
0.0
 40
1.5
100
AcDbArc
 50
84.42179099999666
 51
197.9999969999982
  0
ARC
  5
177
330
1F
100
AcDbEntity
  8
LAY-10
  6
CONTINUOUS
 62
     7
100
AcDbCircle
 10
739.9791510000007
 20
643.4817340000002
 30
0.0
 40
1.5
100
AcDbArc
 50
237.1660410000035
 51
311.5782449999919
  0
LINE
  5
178
330
1F
100
AcDbEntity
  8
LAY-10
  6
CONTINUOUS
 62
     7
100
AcDbLine
 10
737.4846540000003
 20
643.315936
 30
0.0
 11
735.2418900000005
 21
643.9412060000001
 31
0.0
  0
LINE
  5
179
330
1F
100
AcDbEntity
  8
LAY-10
  6
CONTINUOUS
 62
     7
100
AcDbLine
 10
739.9246780000003
 20
643.6738070000002
 30
0.0
 11
738.5893640000004
 21
644.0460850000003
 31
0.0
  0
ARC
  5
17A
330
1F
100
AcDbEntity
  8
LAY-10
  6
CONTINUOUS
 62
     7
100
AcDbCircle
 10
709.2393220000006
 20
639.3269910000002
 30
0.0
 40
2.5
100
AcDbArc
 50
71.42183900000371
 51
191.8988780000057
  0
ARC
  5
17B
330
1F
100
AcDbEntity
  8
LAY-10
  6
CONTINUOUS
 62
     7
100
AcDbCircle
 10
709.2393220000006
 20
639.3269910000002
 30
0.0
 40
2.5
100
AcDbArc
 50
215.0656260000051
 51
298.5781779999966
  0
LINE
  5
17C
330
1F
100
AcDbEntity
  8
LAY-10
  6
CONTINUOUS
 62
     7
100
AcDbLine
 10
714.3795950000003
 20
640.2367150000001
 30
0.0
 11
713.1200120000003
 21
640.6600770000001
 31
0.0
  0
LINE
  5
17D
330
1F
100
AcDbEntity
  8
LAY-10
  6
CONTINUOUS
 62
     7
100
AcDbLine
 10
712.1651570000006
 20
640.9810160000002
 30
0.0
 11
710.0358180000005
 21
641.6967160000002
 31
0.0
  0
LINE
  5
17E
330
1F
100
AcDbEntity
  8
LAY-10
  6
CONTINUOUS
 62
     7
100
AcDbLine
 10
711.9503870000005
 20
639.9982290000003
 30
0.0
 11
709.7172200000007
 21
640.7488260000001
 31
0.0
  0
ARC
  5
17F
330
1F
100
AcDbEntity
  8
LAY-10
  6
CONTINUOUS
 62
     7
100
AcDbCircle
 10
719.6610570000007
 20
640.606619
 30
0.0
 40
2.5
100
AcDbArc
 50
73.42183500001033
 51
196.6916360000024
  0
ARC
  5
180
330
1F
100
AcDbEntity
  8
LAY-10
  6
CONTINUOUS
 62
     7
100
AcDbCircle
 10
719.6610570000007
 20
640.606619
 30
0.0
 40
2.5
100
AcDbArc
 50
219.7850729999916
 51
300.5781779999968
  0
ARC
  5
181
330
1F
100
AcDbEntity
  8
LAY-10
  6
CONTINUOUS
 62
     7
100
AcDbCircle
 10
719.6610570000007
 20
640.606619
 30
0.0
 40
1.5
100
AcDbArc
 50
73.4218090000114
 51
186.999997000002
  0
ARC
  5
182
330
1F
100
AcDbEntity
  8
LAY-10
  6
CONTINUOUS
 62
     7
100
AcDbCircle
 10
719.6610570000007
 20
640.606619
 30
0.0
 40
1.5
100
AcDbArc
 50
226.0441859999965
 51
300.5782019999947
  0
LINE
  5
183
330
1F
100
AcDbEntity
  8
LAY-10
  6
CONTINUOUS
 62
     7
100
AcDbLine
 10
717.1638150000003
 20
640.724021
 30
0.0
 11
714.8781750000003
 21
641.404452
 31
0.0
  0
ARC
  5
184
330
1F
100
AcDbEntity
  8
LAY-10
  6
CONTINUOUS
 62
     7
100
AcDbCircle
 10
709.2393220000006
 20
639.3269910000002
 30
0.0
 40
1.5
100
AcDbArc
 50
219.4323080000092
 51
298.5782479999781
  0
LINE
  5
185
330
1F
100
AcDbEntity
  8
LAY-10
  6
CONTINUOUS
 62
     7
100
AcDbLine
 10
719.5555820000006
 20
641.055367
 30
0.0
 11
718.3895980000004
 21
641.4024790000002
 31
0.0
  0
LINE
  5
186
330
1F
100
AcDbEntity
  8
LAY-10
  6
CONTINUOUS
 62
     7
100
AcDbLine
 10
717.4099770000007
 20
641.6941100000003
 30
0.0
 11
715.1634980000003
 21
642.362883
 31
0.0
  0
ARC
  5
187
330
1F
100
AcDbEntity
  8
LAY-10
  6
CONTINUOUS
 62
     7
100
AcDbCircle
 10
724.5993940000003
 20
641.2962870000002
 30
0.0
 40
2.5
100
AcDbArc
 50
73.42183500000282
 51
200.9429209999995
  0
ARC
  5
188
330
1F
100
AcDbEntity
  8
LAY-10
  6
CONTINUOUS
 62
     7
100
AcDbCircle
 10
724.5993940000003
 20
641.2962870000002
 30
0.0
 40
2.5
100
AcDbArc
 50
224.029817000008
 51
300.5781780000048
  0
ARC
  5
189
330
1F
100
AcDbEntity
  8
LAY-10
  6
CONTINUOUS
 62
     7
100
AcDbCircle
 10
724.5993940000003
 20
641.2962870000002
 30
0.0
 40
1.5
100
AcDbArc
 50
73.42180899999225
 51
194.3800880000051
  0
ARC
  5
18A
330
1F
100
AcDbEntity
  8
LAY-10
  6
CONTINUOUS
 62
     7
100
AcDbCircle
 10
724.5993940000003
 20
641.2962870000002
 30
0.0
 40
1.5
100
AcDbArc
 50
233.390111000007
 51
300.5782350000116
  0
ARC
  5
18B
330
1F
100
AcDbEntity
  8
LAY-10
  6
CONTINUOUS
 62
     7
100
AcDbCircle
 10
749.6536150000004
 20
646.863678
 30
0.0
 40
0.5
100
AcDbArc
 50
313.5781229999926
 51
133.578184999982
  0
LINE
  5
18C
330
1F
100
AcDbEntity
  8
LAY-10
  6
CONTINUOUS
 62
     7
100
AcDbLine
 10
734.8486980000007
 20
642.0094180000002
 30
0.0
 11
730.9033940000006
 21
639.6782000000003
 31
0.0
  0
LINE
  5
18D
330
1F
100
AcDbEntity
  8
LAY-10
  6
CONTINUOUS
 62
     7
100
AcDbLine
 10
734.3399840000006
 20
642.8703540000001
 30
0.0
 11
730.3946810000004
 21
640.5391360000002
 31
0.0
  0
ARC
  5
18E
330
1F
100
AcDbEntity
  8
LAY-10
  6
CONTINUOUS
 62
     7
100
AcDbCircle
 10
729.5621240000005
 20
641.9056340000003
 30
0.0
 40
0.5
100
AcDbArc
 50
300.5781229999725
 51
120.5781849999745
  0
LINE
  5
18F
330
1F
100
AcDbEntity
  8
LAY-10
  6
CONTINUOUS
 62
     7
100
AcDbLine
 10
729.8164810000003
 20
641.4751660000002
 30
0.0
 11
725.8711770000004
 21
639.1439480000003
 31
0.0
  0
LINE
  5
190
330
1F
100
AcDbEntity
  8
LAY-10
  6
CONTINUOUS
 62
     7
100
AcDbLine
 10
729.3077680000006
 20
642.3361020000001
 30
0.0
 11
725.3624640000005
 21
640.0048830000002
 31
0.0
  0
ARC
  5
191
330
1F
100
AcDbEntity
  8
LAY-10
  6
CONTINUOUS
 62
     7
100
AcDbCircle
 10
724.6237880000006
 20
641.2159660000001
 30
0.0
 40
0.5
100
AcDbArc
 50
300.5781229999839
 51
120.5781850000394
  0
LINE
  5
192
330
1F
100
AcDbEntity
  8
LAY-10
  6
CONTINUOUS
 62
     7
100
AcDbLine
 10
724.8781450000006
 20
640.7854980000003
 30
0.0
 11
720.9328410000005
 21
638.454279
 31
0.0
  0
LINE
  5
193
330
1F
100
AcDbEntity
  8
LAY-10
  6
CONTINUOUS
 62
     7
100
AcDbLine
 10
724.3694310000005
 20
641.6464340000002
 30
0.0
 11
720.4241270000005
 21
639.315215
 31
0.0
  0
ARC
  5
194
330
1F
100
AcDbEntity
  8
LAY-10
  6
CONTINUOUS
 62
     7
100
AcDbCircle
 10
719.4129210000003
 20
640.5761520000002
 30
0.0
 40
0.5
100
AcDbArc
 50
300.5781230000017
 51
120.5781850000394
  0
LINE
  5
195
330
1F
100
AcDbEntity
  8
LAY-10
  6
CONTINUOUS
 62
     7
100
AcDbLine
 10
719.6672770000007
 20
640.1456840000001
 30
0.0
 11
715.7219740000005
 21
637.8144650000002
 31
0.0
  0
LINE
  5
196
330
1F
100
AcDbEntity
  8
LAY-10
  6
CONTINUOUS
 62
     7
100
AcDbLine
 10
719.1585640000003
 20
641.00662
 30
0.0
 11
715.2132600000004
 21
638.6754010000001
 31
0.0
  0
ARC
  5
197
330
1F
100
AcDbEntity
  8
LAY-10
  6
CONTINUOUS
 62
     7
100
AcDbCircle
 10
714.2202960000004
 20
639.7627700000003
 30
0.0
 40
0.5
100
AcDbArc
 50
298.5781230000018
 51
118.5781850000058
  0
LINE
  5
198
330
1F
100
AcDbEntity
  8
LAY-10
  6
CONTINUOUS
 62
     7
100
AcDbLine
 10
714.4594750000006
 20
639.3236870000001
 30
0.0
 11
710.4352160000003
 21
637.1315780000002
 31
0.0
  0
LINE
  5
199
330
1F
100
AcDbEntity
  8
LAY-10
  6
CONTINUOUS
 62
     7
100
AcDbLine
 10
713.9811170000005
 20
640.2018520000001
 30
0.0
 11
709.9568590000003
 21
638.0097430000003
 31
0.0
  0
ARC
  5
19A
330
1F
100
AcDbEntity
  8
LAY-10
  6
CONTINUOUS
 62
     7
100
AcDbCircle
 10
708.9845660000005
 20
639.4359360000001
 30
0.0
 40
0.5
100
AcDbArc
 50
298.5781230000018
 51
118.5781850000288
  0
LINE
  5
19B
330
1F
100
AcDbEntity
  8
LAY-10
  6
CONTINUOUS
 62
     7
100
AcDbLine
 10
709.2237450000007
 20
638.9968530000002
 30
0.0
 11
705.1994860000004
 21
636.804744
 31
0.0
  0
LINE
  5
19C
330
1F
100
AcDbEntity
  8
LAY-10
  6
CONTINUOUS
 62
     7
100
AcDbLine
 10
708.7453870000004
 20
639.8750180000003
 30
0.0
 11
704.7211290000005
 21
637.6829090000001
 31
0.0
  0
ARC
  5
19D
330
1F
100
AcDbEntity
  8
LAY-10
  6
CONTINUOUS
 62
     7
100
AcDbCircle
 10
734.5943410000007
 20
642.439886
 30
0.0
 40
0.5
100
AcDbArc
 50
300.5781230000241
 51
120.5781850000281
  0
LINE
  5
19E
330
1F
100
AcDbEntity
  8
LAY-10
  6
CONTINUOUS
 62
     7
100
AcDbLine
 10
479.5000000000001
 20
515.0
 30
0.0
 11
270.5000000000001
 21
515.0
 31
0.0
  0
POLYLINE
  5
19F
330
1F
100
AcDbEntity
  8
LAY-10
  6
CONTINUOUS
 62
     7
100
AcDb2dPolyline
 66
     1
 10
0.0
 20
0.0
 30
0.0
 70
   128
  0
VERTEX
  5
1A0
330
19F
100
AcDbEntity
  8
LAY-10
  6
CONTINUOUS
 62
     7
100
AcDbVertex
100
AcDb2dVertex
 10
379.0000000000001
 20
317.4999129999999
 30
0.0
  0
VERTEX
  5
1A1
330
19F
100
AcDbEntity
  8
LAY-10
  6
CONTINUOUS
 62
     7
100
AcDbVertex
100
AcDb2dVertex
 10
378.6527040000003
 20
317.385972
 30
0.0
  0
VERTEX
  5
1A2
330
19F
100
AcDbEntity
  8
LAY-10
  6
CONTINUOUS
 62
     7
100
AcDbVertex
100
AcDb2dVertex
 10
378.3159600000002
 20
317.047608
 30
0.0
  0
VERTEX
  5
1A3
330
19F
100
AcDbEntity
  8
LAY-10
  6
CONTINUOUS
 62
     7
100
AcDbVertex
100
AcDb2dVertex
 10
378.0000000000002
 20
316.495104
 30
0.0
  0
VERTEX
  5
1A4
330
19F
100
AcDbEntity
  8
LAY-10
  6
CONTINUOUS
 62
     7
100
AcDbVertex
100
AcDb2dVertex
 10
377.7144250000002
 20
315.745247
 30
0.0
  0
VERTEX
  5
1A5
330
19F
100
AcDbEntity
  8
LAY-10
  6
CONTINUOUS
 62
     7
100
AcDbVertex
100
AcDb2dVertex
 10
377.4679110000001
 20
314.820821
 30
0.0
  0
VERTEX
  5
1A6
330
19F
100
AcDbEntity
  8
LAY-10
  6
CONTINUOUS
 62
     7
100
AcDbVertex
100
AcDb2dVertex
 10
377.2679490000002
 20
313.7499129999999
 30
0.0
  0
VERTEX
  5
1A7
330
19F
100
AcDbEntity
  8
LAY-10
  6
CONTINUOUS
 62
     7
100
AcDbVertex
100
AcDb2dVertex
 10
377.1206150000001
 20
312.5650649999999
 30
0.0
  0
VERTEX
  5
1A8
330
19F
100
AcDbEntity
  8
LAY-10
  6
CONTINUOUS
 62
     7
100
AcDbVertex
100
AcDb2dVertex
 10
377.0303850000001
 20
311.302275
 30
0.0
  0
VERTEX
  5
1A9
330
19F
100
AcDbEntity
  8
LAY-10
  6
CONTINUOUS
 62
     7
100
AcDbVertex
100
AcDb2dVertex
 10
377.0000000000001
 20
309.9999129999999
 30
0.0
  0
VERTEX
  5
1AA
330
19F
100
AcDbEntity
  8
LAY-10
  6
CONTINUOUS
 62
     7
100
AcDbVertex
100
AcDb2dVertex
 10
377.0303850000001
 20
308.697552
 30
0.0
  0
VERTEX
  5
1AB
330
19F
100
AcDbEntity
  8
LAY-10
  6
CONTINUOUS
 62
     7
100
AcDbVertex
100
AcDb2dVertex
 10
377.1206150000001
 20
307.4347619999999
 30
0.0
  0
VERTEX
  5
1AC
330
19F
100
AcDbEntity
  8
LAY-10
  6
CONTINUOUS
 62
     7
100
AcDbVertex
100
AcDb2dVertex
 10
377.2679490000002
 20
306.2499129999999
 30
0.0
  0
VERTEX
  5
1AD
330
19F
100
AcDbEntity
  8
LAY-10
  6
CONTINUOUS
 62
     7
100
AcDbVertex
100
AcDb2dVertex
 10
377.4679110000001
 20
305.179006
 30
0.0
  0
VERTEX
  5
1AE
330
19F
100
AcDbEntity
  8
LAY-10
  6
CONTINUOUS
 62
     7
100
AcDbVertex
100
AcDb2dVertex
 10
377.7144250000002
 20
304.25458
 30
0.0
  0
VERTEX
  5
1AF
330
19F
100
AcDbEntity
  8
LAY-10
  6
CONTINUOUS
 62
     7
100
AcDbVertex
100
AcDb2dVertex
 10
378.0000000000002
 20
303.504723
 30
0.0
  0
VERTEX
  5
1B0
330
19F
100
AcDbEntity
  8
LAY-10
  6
CONTINUOUS
 62
     7
100
AcDbVertex
100
AcDb2dVertex
 10
378.3159600000002
 20
302.952219
 30
0.0
  0
VERTEX
  5
1B1
330
19F
100
AcDbEntity
  8
LAY-10
  6
CONTINUOUS
 62
     7
100
AcDbVertex
100
AcDb2dVertex
 10
378.6527040000003
 20
302.6138549999999
 30
0.0
  0
VERTEX
  5
1B2
330
19F
100
AcDbEntity
  8
LAY-10
  6
CONTINUOUS
 62
     7
100
AcDbVertex
100
AcDb2dVertex
 10
379.0000000000001
 20
302.4999129999999
 30
0.0
  0
SEQEND
  5
1B3
330
19F
100
AcDbEntity
  8
LAY-10
  6
CONTINUOUS
 62
     7
  0
LINE
  5
1B4
330
1F
100
AcDbEntity
  8
LAY-10
  6
CONTINUOUS
 62
     7
100
AcDbLine
 10
489.5
 20
695.0000000000002
 30
0.0
 11
260.5000000000002
 21
695.0000000000002
 31
0.0
  0
LINE
  5
1B5
330
1F
100
AcDbEntity
  8
LAY-10
  6
CONTINUOUS
 62
     7
100
AcDbLine
 10
271.3786800000001
 20
684.12132
 30
0.0
 11
478.6213210000001
 21
684.12132
 31
0.0
  0
LINE
  5
1B6
330
1F
100
AcDbEntity
  8
LAY-10
  6
CONTINUOUS
 62
     7
100
AcDbLine
 10
270.5000000000001
 20
685.0000000000001
 30
0.0
 11
479.5000000000001
 21
685.0000000000001
 31
0.0
  0
LINE
  5
1B7
330
1F
100
AcDbEntity
  8
LAY-10
  6
CONTINUOUS
 62
     7
100
AcDbLine
 10
682.5000000000007
 20
626.5838020000001
 30
0.0
 11
682.5000000000007
 21
522.0000000000003
 31
0.0
  0
LINE
  5
1B8
330
1F
100
AcDbEntity
  8
LAY-10
  6
CONTINUOUS
 62
     7
100
AcDbLine
 10
492.5
 20
507.9999999999999
 30
0.0
 11
492.5
 21
692.0000000000002
 31
0.0
  0
LINE
  5
1B9
330
1F
100
AcDbEntity
  8
LAY-10
  6
CONTINUOUS
 62
     7
100
AcDbLine
 10
257.5000000000002
 20
692.0000000000002
 30
0.0
 11
257.5000000000002
 21
507.9999999999999
 31
0.0
  0
LINE
  5
1BA
330
1F
100
AcDbEntity
  8
LAY-10
  6
CONTINUOUS
 62
     7
100
AcDbLine
 10
481.6213210000001
 20
681.12132
 30
0.0
 11
481.6213210000001
 21
518.8786800000001
 31
0.0
  0
LINE
  5
1BB
330
1F
100
AcDbEntity
  8
LAY-10
  6
CONTINUOUS
 62
     7
100
AcDbLine
 10
268.3786800000001
 20
518.8786800000001
 30
0.0
 11
268.3786800000001
 21
681.12132
 31
0.0
  0
ARC
  5
1BC
330
1F
100
AcDbEntity
  8
LAY-10
  6
CONTINUOUS
 62
     7
100
AcDbCircle
 10
260.5000000000002
 20
507.9999999999999
 30
0.0
 40
3.0
100
AcDbArc
 50
180.0
 51
270.0
  0
ARC
  5
1BD
330
1F
100
AcDbEntity
  8
LAY-10
  6
CONTINUOUS
 62
     7
100
AcDbCircle
 10
270.5000000000001
 20
518.0
 30
0.0
 40
3.0
100
AcDbArc
 50
180.0
 51
270.0
  0
ARC
  5
1BE
330
1F
100
AcDbEntity
  8
LAY-10
  6
CONTINUOUS
 62
     7
100
AcDbCircle
 10
271.3786800000001
 20
518.8786800000001
 30
0.0
 40
3.0
100
AcDbArc
 50
180.0
 51
270.0
  0
LINE
  5
1BF
330
1F
100
AcDbEntity
  8
LAY-10
  6
CONTINUOUS
 62
     7
100
AcDbLine
 10
260.5000000000002
 20
504.9999999999999
 30
0.0
 11
489.5
 21
504.9999999999999
 31
0.0
  0
LINE
  5
1C0
330
1F
100
AcDbEntity
  8
LAY-10
  6
CONTINUOUS
 62
     7
100
AcDbLine
 10
478.6213210000001
 20
515.8786800000001
 30
0.0
 11
271.3786800000001
 21
515.8786800000001
 31
0.0
  0
LINE
  5
1C1
330
1F
100
AcDbEntity
  8
LAY-10
  6
CONTINUOUS
 62
     7
100
AcDbLine
 10
258.5003350000002
 20
360.0
 30
0.0
 11
491.5003350000001
 21
360.0
 31
0.0
  0
LINE
  5
1C2
330
1F
100
AcDbEntity
  8
LAY-10
  6
CONTINUOUS
 62
     7
100
AcDbLine
 10
379.0000000000001
 20
296.4999129999999
 30
0.0
 11
379.0000000000001
 21
303.4999129999999
 31
0.0
  0
LINE
  5
1C3
330
1F
100
AcDbEntity
  8
LAY-10
  6
CONTINUOUS
 62
     7
100
AcDbLine
 10
379.0000000000001
 20
323.4999129999999
 30
0.0
 11
379.0000000000001
 21
316.499913
 31
0.0
  0
ARC
  5
1C4
330
1F
100
AcDbEntity
  8
LAY-10
  6
CONTINUOUS
 62
     7
100
AcDbCircle
 10
489.5
 20
507.9999999999999
 30
0.0
 40
3.0
100
AcDbArc
 50
270.0
 51
0.0
  0
ARC
  5
1C5
330
1F
100
AcDbEntity
  8
LAY-10
  6
CONTINUOUS
 62
     7
100
AcDbCircle
 10
478.6213210000001
 20
518.8786800000001
 30
0.0
 40
3.0
100
AcDbArc
 50
270.0
 51
0.0
  0
ARC
  5
1C6
330
1F
100
AcDbEntity
  8
LAY-10
  6
CONTINUOUS
 62
     7
100
AcDbCircle
 10
479.5000000000001
 20
518.0
 30
0.0
 40
3.0
100
AcDbArc
 50
270.0
 51
0.0
  0
ARC
  5
1C7
330
1F
100
AcDbEntity
  8
LAY-10
  6
CONTINUOUS
 62
     7
100
AcDbCircle
 10
260.5000000000002
 20
692.0000000000002
 30
0.0
 40
3.0
100
AcDbArc
 50
90.0
 51
180.0
  0
ARC
  5
1C8
330
1F
100
AcDbEntity
  8
LAY-10
  6
CONTINUOUS
 62
     7
100
AcDbCircle
 10
270.5000000000001
 20
682.0000000000001
 30
0.0
 40
3.0
100
AcDbArc
 50
90.0
 51
180.0
  0
ARC
  5
1C9
330
1F
100
AcDbEntity
  8
LAY-10
  6
CONTINUOUS
 62
     7
100
AcDbCircle
 10
271.3786800000001
 20
681.12132
 30
0.0
 40
3.0
100
AcDbArc
 50
90.0
 51
180.0
  0
ARC
  5
1CA
330
1F
100
AcDbEntity
  8
LAY-10
  6
CONTINUOUS
 62
     7
100
AcDbCircle
 10
489.5
 20
692.0000000000002
 30
0.0
 40
3.0
100
AcDbArc
 50
0.0
 51
90.0
  0
ARC
  5
1CB
330
1F
100
AcDbEntity
  8
LAY-10
  6
CONTINUOUS
 62
     7
100
AcDbCircle
 10
478.6213210000001
 20
681.12132
 30
0.0
 40
3.0
100
AcDbArc
 50
0.0
 51
90.0
  0
ARC
  5
1CC
330
1F
100
AcDbEntity
  8
LAY-10
  6
CONTINUOUS
 62
     7
100
AcDbCircle
 10
479.5000000000001
 20
682.0000000000001
 30
0.0
 40
3.0
100
AcDbArc
 50
0.0
 51
90.0
  0
LINE
  5
1CD
330
1F
100
AcDbEntity
  8
LAY-10
  6
CONTINUOUS
 62
     7
100
AcDbLine
 10
675.0000000000007
 20
506.0000000000002
 30
0.0
 11
675.0000000000007
 21
514.0000000000002
 31
0.0
  0
LINE
  5
1CE
330
1F
100
AcDbEntity
  8
LAY-10
  6
CONTINUOUS
 62
     7
100
AcDbLine
 10
371.0000000000001
 20
302.4999129999999
 30
0.0
 11
379.0000000000001
 21
302.4999129999999
 31
0.0
  0
LINE
  5
1CF
330
1F
100
AcDbEntity
  8
LAY-10
  6
CONTINUOUS
 62
     7
100
AcDbLine
 10
371.0000000000001
 20
317.4999129999999
 30
0.0
 11
379.0000000000001
 21
317.4999129999999
 31
0.0
  0
LINE
  5
1D0
330
1F
100
AcDbEntity
  8
LAY-10
  6
CONTINUOUS
 62
     7
100
AcDbLine
 10
371.0000000000001
 20
323.4999129999999
 30
0.0
 11
371.0000000000001
 21
316.499913
 31
0.0
  0
LINE
  5
1D1
330
1F
100
AcDbEntity
  8
LAY-10
  6
CONTINUOUS
 62
     7
100
AcDbLine
 10
371.0000000000001
 20
296.4999129999999
 30
0.0
 11
371.0000000000001
 21
303.4999129999999
 31
0.0
  0
ARC
  5
1D2
330
1F
100
AcDbEntity
  8
LAY-10
  6
CONTINUOUS
 62
     7
100
AcDbCircle
 10
375.0000000000002
 20
323.4999129999999
 30
0.0
 40
4.0
100
AcDbArc
 50
0.0
 51
180.0
  0
ARC
  5
1D3
330
1F
100
AcDbEntity
  8
LAY-10
  6
CONTINUOUS
 62
     7
100
AcDbCircle
 10
375.0000000000002
 20
296.4999129999999
 30
0.0
 40
4.0
100
AcDbArc
 50
180.0
 51
254.5247646454478
  0
POLYLINE
  5
1D4
330
1F
100
AcDbEntity
  8
LAY-10
  6
CONTINUOUS
 62
     7
100
AcDb2dPolyline
 66
     1
 10
0.0
 20
0.0
 30
0.0
 70
   128
  0
VERTEX
  5
1D5
330
1D4
100
AcDbEntity
  8
LAY-10
  6
CONTINUOUS
 62
     7
100
AcDbVertex
100
AcDb2dVertex
 10
371.0000000000001
 20
317.4999129999999
 30
0.0
  0
VERTEX
  5
1D6
330
1D4
100
AcDbEntity
  8
LAY-10
  6
CONTINUOUS
 62
     7
100
AcDbVertex
100
AcDb2dVertex
 10
371.3472970000001
 20
317.385972
 30
0.0
  0
VERTEX
  5
1D7
330
1D4
100
AcDbEntity
  8
LAY-10
  6
CONTINUOUS
 62
     7
100
AcDbVertex
100
AcDb2dVertex
 10
371.6840400000002
 20
317.047608
 30
0.0
  0
VERTEX
  5
1D8
330
1D4
100
AcDbEntity
  8
LAY-10
  6
CONTINUOUS
 62
     7
100
AcDbVertex
100
AcDb2dVertex
 10
372.0000000000002
 20
316.495104
 30
0.0
  0
VERTEX
  5
1D9
330
1D4
100
AcDbEntity
  8
LAY-10
  6
CONTINUOUS
 62
     7
100
AcDbVertex
100
AcDb2dVertex
 10
372.2855750000002
 20
315.745247
 30
0.0
  0
VERTEX
  5
1DA
330
1D4
100
AcDbEntity
  8
LAY-10
  6
CONTINUOUS
 62
     7
100
AcDbVertex
100
AcDb2dVertex
 10
372.5320890000002
 20
314.820821
 30
0.0
  0
VERTEX
  5
1DB
330
1D4
100
AcDbEntity
  8
LAY-10
  6
CONTINUOUS
 62
     7
100
AcDbVertex
100
AcDb2dVertex
 10
372.7320510000001
 20
313.7499129999999
 30
0.0
  0
VERTEX
  5
1DC
330
1D4
100
AcDbEntity
  8
LAY-10
  6
CONTINUOUS
 62
     7
100
AcDbVertex
100
AcDb2dVertex
 10
372.8793850000002
 20
312.5650649999999
 30
0.0
  0
VERTEX
  5
1DD
330
1D4
100
AcDbEntity
  8
LAY-10
  6
CONTINUOUS
 62
     7
100
AcDbVertex
100
AcDb2dVertex
 10
372.9696160000003
 20
311.302275
 30
0.0
  0
VERTEX
  5
1DE
330
1D4
100
AcDbEntity
  8
LAY-10
  6
CONTINUOUS
 62
     7
100
AcDbVertex
100
AcDb2dVertex
 10
373.0000000000001
 20
309.9999129999999
 30
0.0
  0
VERTEX
  5
1DF
330
1D4
100
AcDbEntity
  8
LAY-10
  6
CONTINUOUS
 62
     7
100
AcDbVertex
100
AcDb2dVertex
 10
372.9696160000003
 20
308.697552
 30
0.0
  0
VERTEX
  5
1E0
330
1D4
100
AcDbEntity
  8
LAY-10
  6
CONTINUOUS
 62
     7
100
AcDbVertex
100
AcDb2dVertex
 10
372.8793850000002
 20
307.4347619999999
 30
0.0
  0
VERTEX
  5
1E1
330
1D4
100
AcDbEntity
  8
LAY-10
  6
CONTINUOUS
 62
     7
100
AcDbVertex
100
AcDb2dVertex
 10
372.7320510000001
 20
306.2499129999999
 30
0.0
  0
VERTEX
  5
1E2
330
1D4
100
AcDbEntity
  8
LAY-10
  6
CONTINUOUS
 62
     7
100
AcDbVertex
100
AcDb2dVertex
 10
372.5320890000002
 20
305.179006
 30
0.0
  0
VERTEX
  5
1E3
330
1D4
100
AcDbEntity
  8
LAY-10
  6
CONTINUOUS
 62
     7
100
AcDbVertex
100
AcDb2dVertex
 10
372.2855750000002
 20
304.25458
 30
0.0
  0
VERTEX
  5
1E4
330
1D4
100
AcDbEntity
  8
LAY-10
  6
CONTINUOUS
 62
     7
100
AcDbVertex
100
AcDb2dVertex
 10
372.0000000000002
 20
303.504723
 30
0.0
  0
VERTEX
  5
1E5
330
1D4
100
AcDbEntity
  8
LAY-10
  6
CONTINUOUS
 62
     7
100
AcDbVertex
100
AcDb2dVertex
 10
371.6840400000002
 20
302.952219
 30
0.0
  0
VERTEX
  5
1E6
330
1D4
100
AcDbEntity
  8
LAY-10
  6
CONTINUOUS
 62
     7
100
AcDbVertex
100
AcDb2dVertex
 10
371.3472970000001
 20
302.6138549999999
 30
0.0
  0
VERTEX
  5
1E7
330
1D4
100
AcDbEntity
  8
LAY-10
  6
CONTINUOUS
 62
     7
100
AcDbVertex
100
AcDb2dVertex
 10
371.0000000000001
 20
302.4999129999999
 30
0.0
  0
SEQEND
  5
1E8
330
1D4
100
AcDbEntity
  8
LAY-10
  6
CONTINUOUS
 62
     7
  0
LINE
  5
1E9
330
1F
100
AcDbEntity
  8
LAY-10
  6
CONTINUOUS
 62
     7
100
AcDbLine
 10
676.5000000000007
 20
516.0000000000003
 30
0.0
 11
679.5000000000007
 21
516.0000000000003
 31
0.0
  0
LINE
  5
1EA
330
1F
100
AcDbEntity
  8
LAY-10
  6
CONTINUOUS
 62
     7
100
AcDbLine
 10
681.5000000000003
 20
522.0000000000003
 30
0.0
 11
680.5000000000005
 21
522.0000000000003
 31
0.0
  0
LINE
  5
1EB
330
1F
100
AcDbEntity
  8
LAY-10
  6
CONTINUOUS
 62
     7
100
AcDbLine
 10
681.5000000000003
 20
518.0000000000002
 30
0.0
 11
681.5000000000003
 21
522.0000000000003
 31
0.0
  0
LINE
  5
1EC
330
1F
100
AcDbEntity
  8
LAY-10
  6
CONTINUOUS
 62
     7
100
AcDbLine
 10
682.5000000000007
 20
518.0000000000002
 30
0.0
 11
681.5000000000003
 21
518.0000000000002
 31
0.0
  0
LINE
  5
1ED
330
1F
100
AcDbEntity
  8
LAY-10
  6
CONTINUOUS
 62
     7
100
AcDbLine
 10
679.5000000000007
 20
514.0000000000002
 30
0.0
 11
676.0000000000005
 21
514.0000000000002
 31
0.0
  0
ARC
  5
1EE
330
1F
100
AcDbEntity
  8
LAY-10
  6
CONTINUOUS
 62
     7
100
AcDbCircle
 10
679.5000000000007
 20
515.0000000000002
 30
0.0
 40
1.0
100
AcDbArc
 50
270.0
 51
0.0
  0
LINE
  5
1EF
330
1F
100
AcDbEntity
  8
LAY-10
  6
CONTINUOUS
 62
     7
100
AcDbLine
 10
679.5000000000007
 20
515.0000000000002
 30
0.0
 11
679.5000000000007
 21
522.0000000000003
 31
0.0
  0
ARC
  5
1F0
330
1F
100
AcDbEntity
  8
LAY-10
  6
CONTINUOUS
 62
     7
100
AcDbCircle
 10
680.5000000000005
 20
522.0000000000003
 30
0.0
 40
1.0
100
AcDbArc
 50
90.0
 51
180.0
  0
LINE
  5
1F1
330
1F
100
AcDbEntity
  8
LAY-10
  6
CONTINUOUS
 62
     7
100
AcDbLine
 10
680.5000000000005
 20
523.0000000000002
 30
0.0
 11
681.5000000000003
 21
523.0000000000002
 31
0.0
  0
LINE
  5
1F2
330
1F
100
AcDbEntity
  8
LAY-10
  6
CONTINUOUS
 62
     7
100
AcDbLine
 10
682.5000000000007
 20
522.0000000000003
 30
0.0
 11
682.5000000000007
 21
518.0000000000002
 31
0.0
  0
ARC
  5
1F3
330
1F
100
AcDbEntity
  8
LAY-10
  6
CONTINUOUS
 62
     7
100
AcDbCircle
 10
681.5000000000003
 20
522.0000000000003
 30
0.0
 40
1.0
100
AcDbArc
 50
0.0
 51
90.0
  0
LINE
  5
1F4
330
1F
100
AcDbEntity
  8
LAY-10
  6
CONTINUOUS
 62
     7
100
AcDbLine
 10
676.0000000000005
 20
506.0000000000002
 30
0.0
 11
681.0000000000007
 21
506.0000000000002
 31
0.0
  0
LINE
  5
1F5
330
1F
100
AcDbEntity
  8
LAY-10
  6
CONTINUOUS
 62
     7
100
AcDbLine
 10
681.0000000000007
 20
506.0000000000002
 30
0.0
 11
681.0000000000007
 21
505.0000000000002
 31
0.0
  0
LINE
  5
1F6
330
1F
100
AcDbEntity
  8
LAY-10
  6
CONTINUOUS
 62
     7
100
AcDbLine
 10
676.0000000000005
 20
514.0000000000002
 30
0.0
 11
676.0000000000005
 21
506.0000000000002
 31
0.0
  0
LINE
  5
1F7
330
1F
100
AcDbEntity
  8
LAY-10
  6
CONTINUOUS
 62
     7
100
AcDbLine
 10
675.0000000000007
 20
694.0000000000002
 30
0.0
 11
675.0000000000007
 21
686.0
 31
0.0
  0
LINE
  5
1F8
330
1F
100
AcDbEntity
  8
LAY-10
  6
CONTINUOUS
 62
     7
100
AcDbLine
 10
676.0000000000005
 20
515.0000000000002
 30
0.0
 11
679.5000000000007
 21
515.0000000000002
 31
0.0
  0
ARC
  5
1F9
330
1F
100
AcDbEntity
  8
LAY-10
  6
CONTINUOUS
 62
     7
100
AcDbCircle
 10
676.0000000000005
 20
514.0000000000002
 30
0.0
 40
1.0
100
AcDbArc
 50
90.0
 51
180.0
  0
LINE
  5
1FA
330
1F
100
AcDbEntity
  8
LAY-10
  6
CONTINUOUS
 62
     7
100
AcDbLine
 10
681.0000000000007
 20
505.0000000000002
 30
0.0
 11
676.0000000000005
 21
505.0000000000002
 31
0.0
  0
ARC
  5
1FB
330
1F
100
AcDbEntity
  8
LAY-10
  6
CONTINUOUS
 62
     7
100
AcDbCircle
 10
676.0000000000005
 20
506.0000000000002
 30
0.0
 40
1.0
100
AcDbArc
 50
180.0
 51
270.0
  0
ARC
  5
1FC
330
1F
100
AcDbEntity
  8
LAY-10
  6
CONTINUOUS
 62
     7
100
AcDbCircle
 10
758.3394080000007
 20
666.023686
 30
0.0
 40
1.5
100
AcDbArc
 50
356.6851709999995
 51
61.07818500000775
  0
LINE
  5
1FD
330
1F
100
AcDbEntity
  8
LAY-10
  6
CONTINUOUS
 62
     7
100
AcDbLine
 10
759.0290460000003
 20
665.2051380000001
 30
0.0
 11
759.1723030000005
 21
664.776174
 31
0.0
  0
LINE
  5
1FE
330
1F
100
AcDbEntity
  8
LAY-10
  6
CONTINUOUS
 62
     7
100
AcDbLine
 10
759.4958840000004
 20
663.8072550000002
 30
0.0
 11
760.1177390000005
 21
661.9451920000002
 31
0.0
  0
LINE
  5
1FF
330
1F
100
AcDbEntity
  8
LAY-10
  6
CONTINUOUS
 62
     7
100
AcDbLine
 10
757.7176440000003
 20
665.9750230000001
 30
0.0
 11
758.2001700000003
 21
664.530162
 31
0.0
  0
LINE
  5
200
330
1F
100
AcDbEntity
  8
LAY-10
  6
CONTINUOUS
 62
     7
100
AcDbLine
 10
758.5337670000004
 20
663.5312520000002
 30
0.0
 11
759.1692340000004
 21
661.6284290000002
 31
0.0
  0
ARC
  5
201
330
1F
100
AcDbEntity
  8
LAY-10
  6
CONTINUOUS
 62
     7
100
AcDbCircle
 10
754.9074860000005
 20
669.962942
 30
0.0
 40
2.5
100
AcDbArc
 50
199.6036509999936
 51
324.4578859999983
  0
ARC
  5
202
330
1F
100
AcDbEntity
  8
LAY-10
  6
CONTINUOUS
 62
     7
100
AcDbCircle
 10
754.9074860000005
 20
669.962942
 30
0.0
 40
2.5
100
AcDbArc
 50
347.6197550000035
 51
66.7599970000015
  0
ARC
  5
203
330
1F
100
AcDbEntity
  8
LAY-10
  6
CONTINUOUS
 62
     7
100
AcDbCircle
 10
754.9074860000005
 20
669.962942
 30
0.0
 40
1.5
100
AcDbArc
 50
199.6036269999899
 51
319.9999969999994
  0
ARC
  5
204
330
1F
100
AcDbEntity
  8
LAY-10
  6
CONTINUOUS
 62
     7
100
AcDbCircle
 10
747.1100940000003
 20
676.8051320000002
 30
0.0
 40
1.5
100
AcDbArc
 50
22.15424299999123
 51
93.57818500000309
  0
LINE
  5
205
330
1F
100
AcDbEntity
  8
LAY-10
  6
CONTINUOUS
 62
     7
100
AcDbLine
 10
748.9799320000004
 20
675.1457030000003
 30
0.0
 11
749.8002510000006
 21
673.1026620000002
 31
0.0
  0
LINE
  5
206
330
1F
100
AcDbEntity
  8
LAY-10
  6
CONTINUOUS
 62
     7
100
AcDbLine
 10
747.1647700000003
 20
676.9826430000002
 30
0.0
 11
747.7757660000004
 21
675.4609290000001
 31
0.0
  0
LINE
  5
207
330
1F
100
AcDbEntity
  8
LAY-10
  6
CONTINUOUS
 62
     7
100
AcDbLine
 10
748.1490510000003
 20
674.5312440000001
 30
0.0
 11
748.8722610000004
 21
672.730057
 31
0.0
  0
ARC
  5
208
330
1F
100
AcDbEntity
  8
LAY-10
  6
CONTINUOUS
 62
     7
100
AcDbCircle
 10
758.3394080000007
 20
666.023686
 30
0.0
 40
2.5
100
AcDbArc
 50
193.921838999993
 51
324.9987779999979
  0
ARC
  5
209
330
1F
100
AcDbEntity
  8
LAY-10
  6
CONTINUOUS
 62
     7
100
AcDbCircle
 10
758.3394080000007
 20
666.023686
 30
0.0
 40
2.5
100
AcDbArc
 50
348.0756700000062
 51
61.07817800000429
  0
ARC
  5
20A
330
1F
100
AcDbEntity
  8
LAY-10
  6
CONTINUOUS
 62
     7
100
AcDbCircle
 10
754.9074860000005
 20
669.962942
 30
0.0
 40
1.5
100
AcDbArc
 50
359.406176000011
 51
66.76000300000355
  0
LINE
  5
20B
330
1F
100
AcDbEntity
  8
LAY-10
  6
CONTINUOUS
 62
     7
100
AcDbLine
 10
756.3275680000004
 20
667.905427
 30
0.0
 11
756.8834710000003
 21
665.6627880000002
 31
0.0
  0
LINE
  5
20C
330
1F
100
AcDbEntity
  8
LAY-10
  6
CONTINUOUS
 62
     7
100
AcDbLine
 10
754.8102890000007
 20
669.8701540000003
 30
0.0
 11
755.1540500000003
 21
668.483346
 31
0.0
  0
LINE
  5
20D
330
1F
100
AcDbEntity
  8
LAY-10
  6
CONTINUOUS
 62
     7
100
AcDbLine
 10
755.3950850000003
 20
667.5109540000001
 30
0.0
 11
755.9128460000004
 21
665.4221910000002
 31
0.0
  0
ARC
  5
20E
330
1F
100
AcDbEntity
  8
LAY-10
  6
CONTINUOUS
 62
     7
100
AcDbCircle
 10
751.1922360000003
 20
673.6615710000001
 30
0.0
 40
2.5
100
AcDbArc
 50
201.8763840000059
 51
326.7966560000006
  0
ARC
  5
20F
330
1F
100
AcDbEntity
  8
LAY-10
  6
CONTINUOUS
 62
     7
100
AcDbCircle
 10
751.1922360000003
 20
673.6615710000001
 30
0.0
 40
2.5
100
AcDbArc
 50
349.8794490000045
 51
69.03272400000029
  0
ARC
  5
210
330
1F
100
AcDbEntity
  8
LAY-10
  6
CONTINUOUS
 62
     7
100
AcDbCircle
 10
751.1922360000003
 20
673.6615710000001
 30
0.0
 40
1.5
100
AcDbArc
 50
201.876354999998
 51
319.9999969999994
  0
ARC
  5
211
330
1F
100
AcDbEntity
  8
LAY-10
  6
CONTINUOUS
 62
     7
100
AcDbCircle
 10
751.1922360000003
 20
673.6615710000001
 30
0.0
 40
1.5
100
AcDbArc
 50
358.9886199999983
 51
69.03272999999936
  0
LINE
  5
212
330
1F
100
AcDbEntity
  8
LAY-10
  6
CONTINUOUS
 62
     7
100
AcDbLine
 10
752.7064030000004
 20
671.6722750000001
 30
0.0
 11
753.4944320000006
 21
669.4596740000002
 31
0.0
  0
LINE
  5
213
330
1F
100
AcDbEntity
  8
LAY-10
  6
CONTINUOUS
 62
     7
100
AcDbLine
 10
751.0148900000004
 20
673.4411160000001
 30
0.0
 11
751.4619020000007
 21
672.1860100000001
 31
0.0
  0
LINE
  5
214
330
1F
100
AcDbEntity
  8
LAY-10
  6
CONTINUOUS
 62
     7
100
AcDbLine
 10
751.8000460000003
 20
671.2365830000002
 30
0.0
 11
752.5523960000005
 21
669.1241640000001
 31
0.0
  0
ARC
  5
215
330
1F
100
AcDbEntity
  8
LAY-10
  6
CONTINUOUS
 62
     7
100
AcDbCircle
 10
747.1100940000003
 20
676.8051320000002
 30
0.0
 40
2.5
100
AcDbArc
 50
226.4218389999981
 51
339.6130700000004
  0
ARC
  5
216
330
1F
100
AcDbEntity
  8
LAY-10
  6
CONTINUOUS
 62
     7
100
AcDbCircle
 10
758.3394080000007
 20
666.023686
 30
0.0
 40
1.5
100
AcDbArc
 50
193.9218089999937
 51
317.7272700000088
  0
LINE
  5
217
330
1F
100
AcDbEntity
  8
LAY-10
  6
CONTINUOUS
 62
     7
100
AcDbLine
 10
763.8308550000006
 20
657.774081
 30
0.0
 11
763.6504860000007
 21
656.4346030000003
 31
0.0
  0
LINE
  5
218
330
1F
100
AcDbEntity
  8
LAY-10
  6
CONTINUOUS
 62
     7
100
AcDbLine
 10
763.5162000000007
 20
655.437347
 30
0.0
 11
763.2193030000003
 21
653.232494
 31
0.0
  0
ARC
  5
219
330
1F
100
AcDbEntity
  8
LAY-10
  6
CONTINUOUS
 62
     7
100
AcDbCircle
 10
761.5404960000005
 20
662.4203360000001
 30
0.0
 40
2.5
100
AcDbArc
 50
198.4672679999959
 51
314.2070639999953
  0
ARC
  5
21A
330
1F
100
AcDbEntity
  8
LAY-10
  6
CONTINUOUS
 62
     7
100
AcDbCircle
 10
761.5404960000005
 20
662.4203360000001
 30
0.0
 40
2.5
100
AcDbArc
 50
337.5365210000029
 51
65.62363900000756
  0
ARC
  5
21B
330
1F
100
AcDbEntity
  8
LAY-10
  6
CONTINUOUS
 62
     7
100
AcDbCircle
 10
761.5404960000005
 20
662.4203360000001
 30
0.0
 40
1.5
100
AcDbArc
 50
198.4672569999917
 51
312.0454519999941
  0
ARC
  5
21C
330
1F
100
AcDbEntity
  8
LAY-10
  6
CONTINUOUS
 62
     7
100
AcDbCircle
 10
761.5404960000005
 20
662.4203360000001
 30
0.0
 40
1.5
100
AcDbArc
 50
352.3750520000056
 51
65.62365400000922
  0
LINE
  5
21D
330
1F
100
AcDbEntity
  8
LAY-10
  6
CONTINUOUS
 62
     7
100
AcDbLine
 10
762.5509190000005
 20
660.133626
 30
0.0
 11
762.5621990000004
 21
657.8695250000002
 31
0.0
  0
LINE
  5
21E
330
1F
100
AcDbEntity
  8
LAY-10
  6
CONTINUOUS
 62
     7
100
AcDbLine
 10
761.5393810000005
 20
662.4470630000002
 30
0.0
 11
761.5469870000004
 21
660.9203500000001
 31
0.0
  0
LINE
  5
21F
330
1F
100
AcDbEntity
  8
LAY-10
  6
CONTINUOUS
 62
     7
100
AcDbLine
 10
761.5519690000006
 20
659.9203630000003
 30
0.0
 11
761.5622120000005
 21
657.8645430000001
 31
0.0
  0
LINE
  5
220
330
1F
100
AcDbEntity
  8
LAY-10
  6
CONTINUOUS
 62
     7
100
AcDbLine
 10
742.4428360000004
 20
678.0162070000001
 30
0.0
 11
747.0164780000007
 21
678.3022080000001
 31
0.0
  0
ARC
  5
221
330
1F
100
AcDbEntity
  8
LAY-10
  6
CONTINUOUS
 62
     7
100
AcDbCircle
 10
747.6287650000004
 20
677.1689450000001
 30
0.0
 40
0.5
100
AcDbArc
 50
69.03266799997365
 51
249.0327310000168
  0
LINE
  5
222
330
1F
100
AcDbEntity
  8
LAY-10
  6
CONTINUOUS
 62
     7
100
AcDbLine
 10
747.8076820000003
 20
677.635838
 30
0.0
 11
752.0868220000007
 21
675.996033
 31
0.0
  0
LINE
  5
223
330
1F
100
AcDbEntity
  8
LAY-10
  6
CONTINUOUS
 62
     7
100
AcDbLine
 10
747.4498470000003
 20
676.7020530000002
 30
0.0
 11
751.7289880000003
 21
675.0622480000002
 31
0.0
  0
ARC
  5
224
330
1F
100
AcDbEntity
  8
LAY-10
  6
CONTINUOUS
 62
     7
100
AcDbCircle
 10
751.4859080000003
 20
673.6088710000001
 30
0.0
 40
0.5
100
AcDbArc
 50
66.75994099998334
 51
246.7600040000184
  0
ARC
  5
225
330
1F
100
AcDbEntity
  8
LAY-10
  6
CONTINUOUS
 62
     7
100
AcDbCircle
 10
765.6969420000005
 20
652.8988660000002
 30
0.0
 40
2.5
100
AcDbArc
 50
172.3309300000001
 51
304.2045910000004
  0
ARC
  5
226
330
1F
100
AcDbEntity
  8
LAY-10
  6
CONTINUOUS
 62
     7
100
AcDbCircle
 10
765.6969420000005
 20
652.8988660000002
 30
0.0
 40
2.5
100
AcDbArc
 50
327.6277179999987
 51
39.48726899999245
  0
ARC
  5
227
330
1F
100
AcDbEntity
  8
LAY-10
  6
CONTINUOUS
 62
     7
100
AcDbCircle
 10
765.6969420000005
 20
652.8988660000002
 30
0.0
 40
1.5
100
AcDbArc
 50
172.3309000000013
 51
302.9545420000047
  0
ARC
  5
228
330
1F
100
AcDbEntity
  8
LAY-10
  6
CONTINUOUS
 62
     7
100
AcDbCircle
 10
765.6969420000005
 20
652.8988660000002
 30
0.0
 40
1.5
100
AcDbArc
 50
343.8251829999958
 51
39.48727599999155
  0
LINE
  5
229
330
1F
100
AcDbEntity
  8
LAY-10
  6
CONTINUOUS
 62
     7
100
AcDbLine
 10
681.0000000000007
 20
695.0
 30
0.0
 11
676.0000000000005
 21
695.0
 31
0.0
  0
ARC
  5
22A
330
1F
100
AcDbEntity
  8
LAY-10
  6
CONTINUOUS
 62
     7
100
AcDbCircle
 10
676.0000000000005
 20
686.0
 30
0.0
 40
1.0
100
AcDbArc
 50
180.0
 51
270.0
  0
LINE
  5
22B
330
1F
100
AcDbEntity
  8
LAY-10
  6
CONTINUOUS
 62
     7
100
AcDbLine
 10
676.0000000000005
 20
685.0000000000002
 30
0.0
 11
679.5000000000007
 21
685.0000000000002
 31
0.0
  0
ARC
  5
22C
330
1F
100
AcDbEntity
  8
LAY-10
  6
CONTINUOUS
 62
     7
100
AcDbCircle
 10
742.4116310000004
 20
678.5152320000001
 30
0.0
 40
0.5
100
AcDbArc
 50
93.5781229999696
 51
273.5781850000124
  0
LINE
  5
22D
330
1F
100
AcDbEntity
  8
LAY-10
  6
CONTINUOUS
 62
     7
100
AcDbLine
 10
742.3804250000003
 20
679.014258
 30
0.0
 11
746.9540680000007
 21
679.300258
 31
0.0
  0
LINE
  5
22E
330
1F
100
AcDbEntity
  8
LAY-10
  6
CONTINUOUS
 62
     7
100
AcDbLine
 10
755.0537930000005
 20
669.552812
 30
0.0
 11
759.0648320000007
 21
667.3366060000003
 31
0.0
  0
ARC
  5
22F
330
1F
100
AcDbEntity
  8
LAY-10
  6
CONTINUOUS
 62
     7
100
AcDbCircle
 10
758.1918960000007
 20
666.1334050000003
 30
0.0
 40
0.5
100
AcDbArc
 50
65.62357700000797
 51
245.6236399999666
  0
LINE
  5
230
330
1F
100
AcDbEntity
  8
LAY-10
  6
CONTINUOUS
 62
     7
100
AcDbLine
 10
758.3982610000005
 20
666.5888320000001
 30
0.0
 11
762.5723180000005
 21
664.6974710000002
 31
0.0
  0
LINE
  5
231
330
1F
100
AcDbEntity
  8
LAY-10
  6
CONTINUOUS
 62
     7
100
AcDbLine
 10
757.9855320000006
 20
665.677978
 30
0.0
 11
762.1595890000006
 21
663.7866170000001
 31
0.0
  0
ARC
  5
232
330
1F
100
AcDbEntity
  8
LAY-10
  6
CONTINUOUS
 62
     7
100
AcDbCircle
 10
762.0393740000004
 20
662.449554
 30
0.0
 40
0.5
100
AcDbArc
 50
47.4417589999868
 51
227.4418219999653
  0
LINE
  5
233
330
1F
100
AcDbEntity
  8
LAY-10
  6
CONTINUOUS
 62
     7
100
AcDbLine
 10
762.3775440000004
 20
662.8178500000002
 30
0.0
 11
765.7530270000004
 21
659.7184770000001
 31
0.0
  0
LINE
  5
234
330
1F
100
AcDbEntity
  8
LAY-10
  6
CONTINUOUS
 62
     7
100
AcDbLine
 10
761.7012050000003
 20
662.0812590000002
 30
0.0
 11
765.0766890000004
 21
658.981886
 31
0.0
  0
ARC
  5
235
330
1F
100
AcDbEntity
  8
LAY-10
  6
CONTINUOUS
 62
     7
100
AcDbCircle
 10
764.3263830000005
 20
657.707356
 30
0.0
 40
0.5
100
AcDbArc
 50
39.48721400003225
 51
219.4872760000126
  0
LINE
  5
236
330
1F
100
AcDbEntity
  8
LAY-10
  6
CONTINUOUS
 62
     7
100
AcDbLine
 10
764.7122660000007
 20
658.0253090000001
 30
0.0
 11
767.6263570000003
 21
654.488633
 31
0.0
  0
LINE
  5
237
330
1F
100
AcDbEntity
  8
LAY-10
  6
CONTINUOUS
 62
     7
100
AcDbLine
 10
763.9405000000004
 20
657.3894020000002
 30
0.0
 11
766.8545910000007
 21
653.8527270000002
 31
0.0
  0
ARC
  5
238
330
1F
100
AcDbEntity
  8
LAY-10
  6
CONTINUOUS
 62
     7
100
AcDbCircle
 10
766.2423530000003
 20
652.860583
 30
0.0
 40
0.5
100
AcDbArc
 50
36.07812299998309
 51
216.0781849999939
  0
ARC
  5
239
330
1F
100
AcDbEntity
  8
LAY-10
  6
CONTINUOUS
 62
     7
100
AcDbCircle
 10
747.1100940000003
 20
676.8051320000002
 30
0.0
 40
2.5
100
AcDbArc
 50
3.245649000000835
 51
93.57817799999712
  0
ARC
  5
23A
330
1F
100
AcDbEntity
  8
LAY-10
  6
CONTINUOUS
 62
     7
100
AcDbCircle
 10
747.1100940000003
 20
676.8051320000002
 30
0.0
 40
1.5
100
AcDbArc
 50
226.4218090000026
 51
339.999997000004
  0
ARC
  5
23B
330
1F
100
AcDbEntity
  8
LAY-10
  6
CONTINUOUS
 62
     7
100
AcDbCircle
 10
764.0621810000005
 20
657.8770000000001
 30
0.0
 40
2.5
100
AcDbArc
 50
180.2854460000018
 51
300.1880560000027
  0
ARC
  5
23C
330
1F
100
AcDbEntity
  8
LAY-10
  6
CONTINUOUS
 62
     7
100
AcDbCircle
 10
764.0621810000005
 20
657.8770000000001
 30
0.0
 40
2.5
100
AcDbArc
 50
323.2799689999995
 51
47.44181499999578
  0
ARC
  5
23D
330
1F
100
AcDbEntity
  8
LAY-10
  6
CONTINUOUS
 62
     7
100
AcDbCircle
 10
764.0621810000005
 20
657.8770000000001
 30
0.0
 40
1.5
100
AcDbArc
 50
180.2854460000017
 51
293.8636330000185
  0
ARC
  5
23E
330
1F
100
AcDbEntity
  8
LAY-10
  6
CONTINUOUS
 62
     7
100
AcDbCircle
 10
764.0621810000005
 20
657.8770000000001
 30
0.0
 40
1.5
100
AcDbArc
 50
332.8998590000064
 51
47.44182099999583
  0
LINE
  5
23F
330
1F
100
AcDbEntity
  8
LAY-10
  6
CONTINUOUS
 62
     7
100
AcDbLine
 10
764.5228640000007
 20
655.419812
 30
0.0
 11
764.2103590000004
 21
653.0990430000003
 31
0.0
  0
LINE
  5
240
330
1F
100
AcDbEntity
  8
LAY-10
  6
CONTINUOUS
 62
     7
100
AcDbLine
 10
682.5000000000007
 20
682.0000000000002
 30
0.0
 11
681.5000000000005
 21
682.0000000000002
 31
0.0
  0
LINE
  5
241
330
1F
100
AcDbEntity
  8
LAY-10
  6
CONTINUOUS
 62
     7
100
AcDbLine
 10
681.5000000000005
 20
682.0000000000002
 30
0.0
 11
681.5000000000005
 21
678.0000000000001
 31
0.0
  0
LINE
  5
242
330
1F
100
AcDbEntity
  8
LAY-10
  6
CONTINUOUS
 62
     7
100
AcDbLine
 10
681.5000000000005
 20
678.0000000000001
 30
0.0
 11
680.5000000000005
 21
678.0000000000001
 31
0.0
  0
LINE
  5
243
330
1F
100
AcDbEntity
  8
LAY-10
  6
CONTINUOUS
 62
     7
100
AcDbLine
 10
676.0000000000005
 20
686.0
 30
0.0
 11
676.0000000000005
 21
694.0000000000002
 31
0.0
  0
LINE
  5
244
330
1F
100
AcDbEntity
  8
LAY-10
  6
CONTINUOUS
 62
     7
100
AcDbLine
 10
681.0000000000007
 20
694.0000000000002
 30
0.0
 11
681.0000000000007
 21
695.0
 31
0.0
  0
LINE
  5
245
330
1F
100
AcDbEntity
  8
LAY-10
  6
CONTINUOUS
 62
     7
100
AcDbLine
 10
676.0000000000005
 20
694.0000000000002
 30
0.0
 11
681.0000000000007
 21
694.0000000000002
 31
0.0
  0
LINE
  5
246
330
1F
100
AcDbEntity
  8
LAY-10
  6
CONTINUOUS
 62
     7
100
AcDbLine
 10
751.6831990000003
 20
674.0683010000001
 30
0.0
 11
755.8939450000007
 21
672.260093
 31
0.0
  0
LINE
  5
247
330
1F
100
AcDbEntity
  8
LAY-10
  6
CONTINUOUS
 62
     7
100
AcDbLine
 10
751.2886160000005
 20
673.1494410000001
 30
0.0
 11
755.4993620000007
 21
671.341232
 31
0.0
  0
ARC
  5
248
330
1F
100
AcDbEntity
  8
LAY-10
  6
CONTINUOUS
 62
     7
100
AcDbCircle
 10
755.2956010000005
 20
669.9904530000001
 30
0.0
 40
0.5
100
AcDbArc
 50
61.07812299996073
 51
241.0781849999973
  0
LINE
  5
249
330
1F
100
AcDbEntity
  8
LAY-10
  6
CONTINUOUS
 62
     7
100
AcDbLine
 10
755.5374090000005
 20
670.4280930000002
 30
0.0
 11
759.5484480000007
 21
668.2118870000002
 31
0.0
  0
ARC
  5
24A
330
1F
100
AcDbEntity
  8
LAY-10
  6
CONTINUOUS
 62
     7
100
AcDbCircle
 10
679.5000000000007
 20
685.0000000000002
 30
0.0
 40
1.0
100
AcDbArc
 50
0.0
 51
90.0
  0
LINE
  5
24B
330
1F
100
AcDbEntity
  8
LAY-10
  6
CONTINUOUS
 62
     7
100
AcDbLine
 10
679.5000000000007
 20
686.0
 30
0.0
 11
676.0000000000005
 21
686.0
 31
0.0
  0
ARC
  5
24C
330
1F
100
AcDbEntity
  8
LAY-10
  6
CONTINUOUS
 62
     7
100
AcDbCircle
 10
676.0000000000005
 20
694.0000000000002
 30
0.0
 40
1.0
100
AcDbArc
 50
90.0
 51
180.0
  0
LINE
  5
24D
330
1F
100
AcDbEntity
  8
LAY-10
  6
CONTINUOUS
 62
     7
100
AcDbLine
 10
756.3479580000003
 20
635.3371900000003
 30
0.0
 11
756.5338000000004
 21
637.6580560000001
 31
0.0
  0
ARC
  5
24E
330
1F
100
AcDbEntity
  8
LAY-10
  6
CONTINUOUS
 62
     7
100
AcDbCircle
 10
756.9866810000003
 20
632.9201610000001
 30
0.0
 40
1.5
100
AcDbArc
 50
158.1660439999975
 51
232.5781850000188
  0
LINE
  5
24F
330
1F
100
AcDbEntity
  8
LAY-10
  6
CONTINUOUS
 62
     7
100
AcDbLine
 10
752.2129160000004
 20
647.3273510000002
 30
0.0
 11
753.5127550000004
 21
648.6271890000002
 31
0.0
  0
LINE
  5
250
330
1F
100
AcDbEntity
  8
LAY-10
  6
CONTINUOUS
 62
     7
100
AcDbLine
 10
750.9632490000004
 20
646.0776840000002
 30
0.0
 11
751.4479810000007
 21
646.5624160000001
 31
0.0
  0
LINE
  5
251
330
1F
100
AcDbEntity
  8
LAY-10
  6
CONTINUOUS
 62
     7
100
AcDbLine
 10
751.7131080000004
 20
645.4160870000001
 30
0.0
 11
751.8625150000005
 21
645.5654930000001
 31
0.0
  0
LINE
  5
252
330
1F
100
AcDbEntity
  8
LAY-10
  6
CONTINUOUS
 62
     7
100
AcDbLine
 10
676.5000000000007
 20
684.0000000000001
 30
0.0
 11
679.5000000000007
 21
684.0000000000001
 31
0.0
  0
ARC
  5
253
330
1F
100
AcDbEntity
  8
LAY-10
  6
CONTINUOUS
 62
     7
100
AcDbCircle
 10
753.5241450000003
 20
648.0807670000002
 30
0.0
 40
2.5
100
AcDbArc
 50
94.61781499999256
 51
117.7379750000016
  0
LINE
  5
254
330
1F
100
AcDbEntity
  8
LAY-10
  6
CONTINUOUS
 62
     7
100
AcDbLine
 10
752.1207230000007
 20
648.6271890000002
 30
0.0
 11
753.5127550000004
 21
648.6271890000002
 31
0.0
  0
ARC
  5
255
330
1F
100
AcDbEntity
  8
LAY-10
  6
CONTINUOUS
 62
     7
100
AcDbCircle
 10
680.5000000000005
 20
678.0000000000001
 30
0.0
 40
1.0
100
AcDbArc
 50
180.0
 51
270.0
  0
LINE
  5
256
330
1F
100
AcDbEntity
  8
LAY-10
  6
CONTINUOUS
 62
     7
100
AcDbLine
 10
679.5000000000007
 20
685.0000000000002
 30
0.0
 11
679.5000000000007
 21
678.0000000000001
 31
0.0
  0
ARC
  5
257
330
1F
100
AcDbEntity
  8
LAY-10
  6
CONTINUOUS
 62
     7
100
AcDbCircle
 10
681.5000000000005
 20
678.0000000000001
 30
0.0
 40
1.0
100
AcDbArc
 50
270.0
 51
0.0
  0
LINE
  5
258
330
1F
100
AcDbEntity
  8
LAY-10
  6
CONTINUOUS
 62
     7
100
AcDbLine
 10
682.5000000000007
 20
678.0000000000001
 30
0.0
 11
682.5000000000007
 21
682.0000000000002
 31
0.0
  0
LINE
  5
259
330
1F
100
AcDbEntity
  8
LAY-10
  6
CONTINUOUS
 62
     7
100
AcDbLine
 10
680.5000000000005
 20
677.0
 30
0.0
 11
681.5000000000005
 21
677.0
 31
0.0
  0
LINE
  5
25A
330
1F
100
AcDbEntity
  8
LAY-10
  6
CONTINUOUS
 62
     7
100
AcDbLine
 10
755.2999500000003
 20
637.873025
 30
0.0
 11
755.5679730000004
 21
639.1812630000002
 31
0.0
  0
LINE
  5
25B
330
1F
100
AcDbEntity
  8
LAY-10
  6
CONTINUOUS
 62
     7
100
AcDbLine
 10
754.7688610000005
 20
640.2631920000001
 30
0.0
 11
755.2400430000005
 21
642.5630590000001
 31
0.0
  0
ARC
  5
25C
330
1F
100
AcDbEntity
  8
LAY-10
  6
CONTINUOUS
 62
     7
100
AcDbCircle
 10
755.0385860000004
 20
637.777785
 30
0.0
 40
1.5
100
AcDbArc
 50
147.9950899999963
 51
222.5781850000004
  0
ARC
  5
25D
330
1F
100
AcDbEntity
  8
LAY-10
  6
CONTINUOUS
 62
     7
100
AcDbCircle
 10
755.0385860000004
 20
637.777785
 30
0.0
 40
1.5
100
AcDbArc
 50
355.4218090000078
 51
108.9999970000039
  0
ARC
  5
25E
330
1F
100
AcDbEntity
  8
LAY-10
  6
CONTINUOUS
 62
     7
100
AcDbCircle
 10
755.0385860000004
 20
637.777785
 30
0.0
 40
2.5
100
AcDbArc
 50
138.8049619999996
 51
222.5781780000009
  0
ARC
  5
25F
330
1F
100
AcDbEntity
  8
LAY-10
  6
CONTINUOUS
 62
     7
100
AcDbCircle
 10
755.0385860000004
 20
637.777785
 30
0.0
 40
2.5
100
AcDbArc
 50
355.42184
 51
115.7209279999993
  0
LINE
  5
260
330
1F
100
AcDbEntity
  8
LAY-10
  6
CONTINUOUS
 62
     7
100
AcDbLine
 10
754.9059710000006
 20
645.0914140000002
 30
0.0
 11
755.7976310000004
 21
647.040931
 31
0.0
  0
LINE
  5
261
330
1F
100
AcDbEntity
  8
LAY-10
  6
CONTINUOUS
 62
     7
100
AcDbLine
 10
753.8915800000007
 20
642.8735610000002
 30
0.0
 11
754.4894100000004
 21
644.1806510000002
 31
0.0
  0
LINE
  5
262
330
1F
100
AcDbEntity
  8
LAY-10
  6
CONTINUOUS
 62
     7
100
AcDbLine
 10
753.9287730000005
 20
645.359105
 30
0.0
 11
754.8882360000007
 21
647.456865
 31
0.0
  0
LINE
  5
263
330
1F
100
AcDbEntity
  8
LAY-10
  6
CONTINUOUS
 62
     7
100
AcDbLine
 10
753.8985610000004
 20
643.2735
 30
0.0
 11
752.1391100000003
 21
647.5048510000003
 31
0.0
  0
LINE
  5
264
330
1F
100
AcDbEntity
  8
LAY-10
  6
CONTINUOUS
 62
     7
100
AcDbLine
 10
752.9752040000005
 20
642.8895560000001
 30
0.0
 11
751.2157530000004
 21
647.120907
 31
0.0
  0
ARC
  5
265
330
1F
100
AcDbEntity
  8
LAY-10
  6
CONTINUOUS
 62
     7
100
AcDbCircle
 10
753.4368820000007
 20
643.081528
 30
0.0
 40
0.5
100
AcDbArc
 50
202.5781229999989
 51
22.57818500004114
  0
LINE
  5
266
330
1F
100
AcDbEntity
  8
LAY-10
  6
CONTINUOUS
 62
     7
100
AcDbLine
 10
755.2167850000003
 20
638.2642850000002
 30
0.0
 11
752.5505820000003
 21
641.991396
 31
0.0
  0
LINE
  5
267
330
1F
100
AcDbEntity
  8
LAY-10
  6
CONTINUOUS
 62
     7
100
AcDbLine
 10
754.4034630000006
 20
637.6824720000002
 30
0.0
 11
751.7372590000004
 21
641.409583
 31
0.0
  0
ARC
  5
268
330
1F
100
AcDbEntity
  8
LAY-10
  6
CONTINUOUS
 62
     7
100
AcDbCircle
 10
754.8101240000003
 20
637.973378
 30
0.0
 40
0.5
100
AcDbArc
 50
215.5781230000007
 51
35.57818499997916
  0
ARC
  5
269
330
1F
100
AcDbEntity
  8
LAY-10
  6
CONTINUOUS
 62
     7
100
AcDbCircle
 10
759.7888060000005
 20
628.508272
 30
0.0
 40
2.5
100
AcDbArc
 50
158.8131429999929
 51
244.5781779999996
  0
ARC
  5
26A
330
1F
100
AcDbEntity
  8
LAY-10
  6
CONTINUOUS
 62
     7
100
AcDbCircle
 10
759.7888060000005
 20
628.508272
 30
0.0
 40
2.5
100
AcDbArc
 50
17.42183899999591
 51
135.6616669999974
  0
LINE
  5
26B
330
1F
100
AcDbEntity
  8
LAY-10
  6
CONTINUOUS
 62
     7
100
AcDbLine
 10
757.3556110000006
 20
635.3927890000001
 30
0.0
 11
757.5306100000005
 21
637.5782370000001
 31
0.0
  0
LINE
  5
26C
330
1F
100
AcDbEntity
  8
LAY-10
  6
CONTINUOUS
 62
     7
100
AcDbLine
 10
757.1648320000004
 20
633.0102820000001
 30
0.0
 11
757.2754800000007
 21
634.392097
 31
0.0
  0
LINE
  5
26D
330
1F
100
AcDbEntity
  8
LAY-10
  6
CONTINUOUS
 62
     7
100
AcDbLine
 10
759.1068900000005
 20
628.1499710000002
 30
0.0
 11
755.4674860000007
 21
630.934703
 31
0.0
  0
POLYLINE
  5
26E
330
1F
100
AcDbEntity
  8
LAY-10
  6
CONTINUOUS
 62
     7
100
AcDb2dPolyline
 66
     1
 10
0.0
 20
0.0
 30
0.0
 70
   128
  0
VERTEX
  5
26F
330
26E
100
AcDbEntity
  8
LAY-10
  6
CONTINUOUS
 62
     7
100
AcDbVertex
100
AcDb2dVertex
 10
759.1068900000005
 20
628.1499710000002
 30
0.0
  0
VERTEX
  5
270
330
26E
100
AcDbEntity
  8
LAY-10
  6
CONTINUOUS
 62
     7
100
AcDbVertex
100
AcDb2dVertex
 10
759.2819790000005
 20
628.0639230000002
 30
0.0
  0
VERTEX
  5
271
330
26E
100
AcDbEntity
  8
LAY-10
  6
CONTINUOUS
 62
     7
100
AcDbVertex
100
AcDb2dVertex
 10
759.4766680000005
 20
628.051429
 30
0.0
  0
VERTEX
  5
272
330
26E
100
AcDbEntity
  8
LAY-10
  6
CONTINUOUS
 62
     7
100
AcDbVertex
100
AcDb2dVertex
 10
759.6613200000004
 20
628.1143910000003
 30
0.0
  0
VERTEX
  5
273
330
26E
100
AcDbEntity
  8
LAY-10
  6
CONTINUOUS
 62
     7
100
AcDbVertex
100
AcDb2dVertex
 10
759.8078210000003
 20
628.2432230000001
 30
0.0
  0
VERTEX
  5
274
330
26E
100
AcDbEntity
  8
LAY-10
  6
CONTINUOUS
 62
     7
100
AcDbVertex
100
AcDb2dVertex
 10
759.8938680000003
 20
628.418311
 30
0.0
  0
VERTEX
  5
275
330
26E
100
AcDbEntity
  8
LAY-10
  6
CONTINUOUS
 62
     7
100
AcDbVertex
100
AcDb2dVertex
 10
759.9063630000005
 20
628.6130010000003
 30
0.0
  0
VERTEX
  5
276
330
26E
100
AcDbEntity
  8
LAY-10
  6
CONTINUOUS
 62
     7
100
AcDbVertex
100
AcDb2dVertex
 10
759.8434010000005
 20
628.797652
 30
0.0
  0
VERTEX
  5
277
330
26E
100
AcDbEntity
  8
LAY-10
  6
CONTINUOUS
 62
     7
100
AcDbVertex
100
AcDb2dVertex
 10
759.7145690000004
 20
628.9441540000001
 30
0.0
  0
SEQEND
  5
278
330
26E
100
AcDbEntity
  8
LAY-10
  6
CONTINUOUS
 62
     7
  0
LINE
  5
279
330
1F
100
AcDbEntity
  8
LAY-10
  6
CONTINUOUS
 62
     7
100
AcDbLine
 10
763.2837410000006
 20
625.1863100000002
 30
0.0
 11
759.1448870000004
 21
627.153515
 31
0.0
  0
LINE
  5
27A
330
1F
100
AcDbEntity
  8
LAY-10
  6
CONTINUOUS
 62
     7
100
AcDbLine
 10
762.8544620000005
 20
624.2831390000001
 30
0.0
 11
758.7156080000004
 21
626.2503430000003
 31
0.0
  0
ARC
  5
27B
330
1F
100
AcDbEntity
  8
LAY-10
  6
CONTINUOUS
 62
     7
100
AcDbCircle
 10
763.0691010000005
 20
624.7347240000001
 30
0.0
 40
0.5
100
AcDbArc
 50
244.5781229999844
 51
64.57818500002509
  0
ARC
  5
27C
330
1F
100
AcDbEntity
  8
LAY-10
  6
CONTINUOUS
 62
     7
100
AcDbCircle
 10
753.7705650000005
 20
642.8641160000002
 30
0.0
 40
2.5
100
AcDbArc
 50
129.427381000005
 51
215.578177999999
  0
ARC
  5
27D
330
1F
100
AcDbEntity
  8
LAY-10
  6
CONTINUOUS
 62
     7
100
AcDbCircle
 10
753.7705650000005
 20
642.8641160000002
 30
0.0
 40
2.5
100
AcDbArc
 50
348.4218390000008
 51
106.2544339999953
  0
ARC
  5
27E
330
1F
100
AcDbEntity
  8
LAY-10
  6
CONTINUOUS
 62
     7
100
AcDbCircle
 10
753.5241450000003
 20
648.0807670000002
 30
0.0
 40
1.5
100
AcDbArc
 50
335.4218090000077
 51
89.23321600000044
  0
ARC
  5
27F
330
1F
100
AcDbEntity
  8
LAY-10
  6
CONTINUOUS
 62
     7
100
AcDbCircle
 10
753.5241450000003
 20
648.0807670000002
 30
0.0
 40
2.5
100
AcDbArc
 50
335.4218410000042
 51
94.61781499999256
  0
LINE
  5
280
330
1F
100
AcDbEntity
  8
LAY-10
  6
CONTINUOUS
 62
     7
100
AcDbLine
 10
759.9084930000006
 20
628.5943060000001
 30
0.0
 11
759.7742970000004
 21
630.0082020000002
 31
0.0
  0
LINE
  5
281
330
1F
100
AcDbEntity
  8
LAY-10
  6
CONTINUOUS
 62
     7
100
AcDbLine
 10
758.6986330000007
 20
630.7580550000002
 30
0.0
 11
758.4799710000004
 21
633.0618920000001
 31
0.0
  0
ARC
  5
282
330
1F
100
AcDbEntity
  8
LAY-10
  6
CONTINUOUS
 62
     7
100
AcDbCircle
 10
759.7888060000005
 20
628.508272
 30
0.0
 40
1.5
100
AcDbArc
 50
170.3506630000024
 51
244.5781850000055
  0
ARC
  5
283
330
1F
100
AcDbEntity
  8
LAY-10
  6
CONTINUOUS
 62
     7
100
AcDbCircle
 10
759.7888060000005
 20
628.508272
 30
0.0
 40
1.5
100
AcDbArc
 50
17.42180900000695
 51
130.9999970000002
  0
ARC
  5
284
330
1F
100
AcDbEntity
  8
LAY-10
  6
CONTINUOUS
 62
     7
100
AcDbCircle
 10
756.9866810000003
 20
632.9201610000001
 30
0.0
 40
1.5
100
AcDbArc
 50
5.421808999996148
 51
118.9999999999927
  0
ARC
  5
285
330
1F
100
AcDbEntity
  8
LAY-10
  6
CONTINUOUS
 62
     7
100
AcDbCircle
 10
756.9866810000003
 20
632.9201610000001
 30
0.0
 40
2.5
100
AcDbArc
 50
147.5970300000018
 51
232.5781780000023
  0
ARC
  5
286
330
1F
100
AcDbEntity
  8
LAY-10
  6
CONTINUOUS
 62
     7
100
AcDbCircle
 10
756.9866810000003
 20
632.9201610000001
 30
0.0
 40
2.5
100
AcDbArc
 50
5.421838999997775
 51
124.4803819999987
  0
LINE
  5
287
330
1F
100
AcDbEntity
  8
LAY-10
  6
CONTINUOUS
 62
     7
100
AcDbLine
 10
755.7701990000007
 20
640.1683380000002
 30
0.0
 11
756.2196950000005
 21
642.362355
 31
0.0
  0
ARC
  5
288
330
1F
100
AcDbEntity
  8
LAY-10
  6
CONTINUOUS
 62
     7
100
AcDbCircle
 10
753.7705650000005
 20
642.8641160000002
 30
0.0
 40
1.5
100
AcDbArc
 50
141.4655650000114
 51
215.578185000013
  0
ARC
  5
289
330
1F
100
AcDbEntity
  8
LAY-10
  6
CONTINUOUS
 62
     7
100
AcDbCircle
 10
753.7705650000005
 20
642.8641160000002
 30
0.0
 40
1.5
100
AcDbArc
 50
348.4218090000046
 51
101.9999970000031
  0
LINE
  5
28A
330
1F
100
AcDbEntity
  8
LAY-10
  6
CONTINUOUS
 62
     7
100
AcDbLine
 10
759.6796040000004
 20
631.005886
 30
0.0
 11
759.4754960000007
 21
633.1563810000002
 31
0.0
  0
LINE
  5
28B
330
1F
100
AcDbEntity
  8
LAY-10
  6
CONTINUOUS
 62
     7
100
AcDbLine
 10
751.9601000000007
 20
649.623511
 30
0.0
 11
753.5442180000005
 21
649.5806320000002
 31
0.0
  0
LINE
  5
28C
330
1F
100
AcDbEntity
  8
LAY-10
  6
CONTINUOUS
 62
     7
100
AcDbLine
 10
752.6274500000006
 20
646.3304280000002
 30
0.0
 11
754.9219570000005
 21
648.624935
 31
0.0
  0
LINE
  5
28D
330
1F
100
AcDbEntity
  8
LAY-10
  6
CONTINUOUS
 62
     7
100
AcDbLine
 10
753.5127550000004
 20
648.6271890000002
 30
0.0
 11
754.2685720000004
 21
649.3830060000001
 31
0.0
  0
ARC
  5
28E
330
1F
100
AcDbEntity
  8
LAY-10
  6
CONTINUOUS
 62
     7
100
AcDbCircle
 10
753.5241450000003
 20
648.0807670000002
 30
0.0
 40
1.5
100
AcDbArc
 50
89.23321600000044
 51
90.0
  0
ARC
  5
28F
330
1F
100
AcDbEntity
  8
LAY-10
  6
CONTINUOUS
 62
     7
100
AcDbCircle
 10
753.5241450000003
 20
648.0807670000002
 30
0.0
 40
1.5
100
AcDbArc
 50
158.6366069999992
 51
202.5782000000018
  0
ARC
  5
290
330
1F
100
AcDbEntity
  8
LAY-10
  6
CONTINUOUS
 62
     7
100
AcDbCircle
 10
753.5241450000003
 20
648.0807670000002
 30
0.0
 40
2.5
100
AcDbArc
 50
167.9815840000022
 51
202.5781779999997
  0
ARC
  5
291
330
1F
100
AcDbEntity
  8
LAY-10
  6
CONTINUOUS
 62
     7
100
AcDbCircle
 10
753.5241450000003
 20
648.0807670000002
 30
0.0
 40
2.5
100
AcDbArc
 50
117.7379750000016
 51
142.192115000001
  0
LINE
  5
292
330
1F
100
AcDbEntity
  8
LAY-10
  6
CONTINUOUS
 62
     7
100
AcDbLine
 10
757.0346050000003
 20
633.3884900000002
 30
0.0
 11
753.9340540000005
 21
636.762892
 31
0.0
  0
LINE
  5
293
330
1F
100
AcDbEntity
  8
LAY-10
  6
CONTINUOUS
 62
     7
100
AcDbLine
 10
756.2982500000003
 20
632.711894
 30
0.0
 11
753.1976990000005
 21
636.0862960000002
 31
0.0
  0
POLYLINE
  5
294
330
1F
100
AcDbEntity
  8
LAY-10
  6
CONTINUOUS
 62
     7
100
AcDb2dPolyline
 66
     1
 10
0.0
 20
0.0
 30
0.0
 70
   128
  0
VERTEX
  5
295
330
294
100
AcDbEntity
  8
LAY-10
  6
CONTINUOUS
 62
     7
100
AcDbVertex
100
AcDb2dVertex
 10
756.2982490000004
 20
632.711895
 30
0.0
  0
VERTEX
  5
296
330
294
100
AcDbEntity
  8
LAY-10
  6
CONTINUOUS
 62
     7
100
AcDbVertex
100
AcDb2dVertex
 10
756.4557360000003
 20
632.5967500000002
 30
0.0
  0
VERTEX
  5
297
330
294
100
AcDbEntity
  8
LAY-10
  6
CONTINUOUS
 62
     7
100
AcDbVertex
100
AcDb2dVertex
 10
756.6452990000007
 20
632.5506390000003
 30
0.0
  0
VERTEX
  5
298
330
294
100
AcDbEntity
  8
LAY-10
  6
CONTINUOUS
 62
     7
100
AcDbVertex
100
AcDb2dVertex
 10
756.8380780000007
 20
632.5805790000001
 30
0.0
  0
VERTEX
  5
299
330
294
100
AcDbEntity
  8
LAY-10
  6
CONTINUOUS
 62
     7
100
AcDbVertex
100
AcDb2dVertex
 10
757.0047250000005
 20
632.6820140000001
 30
0.0
  0
VERTEX
  5
29A
330
294
100
AcDbEntity
  8
LAY-10
  6
CONTINUOUS
 62
     7
100
AcDbVertex
100
AcDb2dVertex
 10
757.1198690000003
 20
632.8395010000002
 30
0.0
  0
VERTEX
  5
29B
330
294
100
AcDbEntity
  8
LAY-10
  6
CONTINUOUS
 62
     7
100
AcDbVertex
100
AcDb2dVertex
 10
757.1659810000006
 20
633.0290630000001
 30
0.0
  0
VERTEX
  5
29C
330
294
100
AcDbEntity
  8
LAY-10
  6
CONTINUOUS
 62
     7
100
AcDbVertex
100
AcDb2dVertex
 10
757.1360400000003
 20
633.221843
 30
0.0
  0
VERTEX
  5
29D
330
294
100
AcDbEntity
  8
LAY-10
  6
CONTINUOUS
 62
     7
100
AcDbVertex
100
AcDb2dVertex
 10
757.0346050000003
 20
633.3884890000002
 30
0.0
  0
VERTEX
  5
29E
330
294
100
AcDbEntity
  8
LAY-10
  6
CONTINUOUS
 62
     7
100
AcDbVertex
100
AcDb2dVertex
 10
757.0346050000003
 20
633.3884900000002
 30
0.0
  0
SEQEND
  5
29F
330
294
100
AcDbEntity
  8
LAY-10
  6
CONTINUOUS
 62
     7
  0
LINE
  5
2A0
330
1F
100
AcDbEntity
  8
LAY-10
  6
CONTINUOUS
 62
     7
100
AcDbLine
 10
759.7145690000004
 20
628.9441540000001
 30
0.0
 11
756.0751640000005
 21
631.728886
 31
0.0
  0
LINE
  5
2A1
330
1F
100
AcDbEntity
  8
LAY-10
  6
CONTINUOUS
 62
     7
100
AcDbLine
 10
492.5003350000001
 20
354.0
 30
0.0
 11
492.5003350000001
 21
359.0000000000002
 31
0.0
  0
ARC
  5
2A2
330
1F
100
AcDbEntity
  8
LAY-10
  6
CONTINUOUS
 62
     7
100
AcDbCircle
 10
483.5003350000001
 20
359.0000000000002
 30
0.0
 40
1.0
100
AcDbArc
 50
90.0
 51
180.0
  0
LINE
  5
2A3
330
1F
100
AcDbEntity
  8
LAY-10
  6
CONTINUOUS
 62
     7
100
AcDbLine
 10
482.5003350000001
 20
359.0000000000002
 30
0.0
 11
482.5003350000001
 21
355.5
 31
0.0
  0
LINE
  5
2A4
330
1F
100
AcDbEntity
  8
LAY-10
  6
CONTINUOUS
 62
     7
100
AcDbLine
 10
479.5003350000001
 20
352.5
 30
0.0
 11
479.5003350000001
 21
353.5000000000003
 31
0.0
  0
LINE
  5
2A5
330
1F
100
AcDbEntity
  8
LAY-10
  6
CONTINUOUS
 62
     7
100
AcDbLine
 10
479.5003350000001
 20
353.5000000000003
 30
0.0
 11
475.5003350000002
 21
353.5000000000003
 31
0.0
  0
LINE
  5
2A6
330
1F
100
AcDbEntity
  8
LAY-10
  6
CONTINUOUS
 62
     7
100
AcDbLine
 10
475.5003350000002
 20
353.5000000000003
 30
0.0
 11
475.5003350000002
 21
354.5000000000002
 31
0.0
  0
LINE
  5
2A7
330
1F
100
AcDbEntity
  8
LAY-10
  6
CONTINUOUS
 62
     7
100
AcDbLine
 10
483.5003350000001
 20
359.0000000000002
 30
0.0
 11
491.5003350000001
 21
359.0000000000002
 31
0.0
  0
LINE
  5
2A8
330
1F
100
AcDbEntity
  8
LAY-10
  6
CONTINUOUS
 62
     7
100
AcDbLine
 10
491.5003350000001
 20
359.0000000000002
 30
0.0
 11
491.5003350000001
 21
354.0
 31
0.0
  0
ARC
  5
2A9
330
1F
100
AcDbEntity
  8
LAY-10
  6
CONTINUOUS
 62
     7
100
AcDbCircle
 10
482.5003350000001
 20
355.5
 30
0.0
 40
1.0
100
AcDbArc
 50
270.0
 51
0.0
  0
LINE
  5
2AA
330
1F
100
AcDbEntity
  8
LAY-10
  6
CONTINUOUS
 62
     7
100
AcDbLine
 10
483.5003350000001
 20
355.5
 30
0.0
 11
483.5003350000001
 21
359.0000000000002
 31
0.0
  0
ARC
  5
2AB
330
1F
100
AcDbEntity
  8
LAY-10
  6
CONTINUOUS
 62
     7
100
AcDbCircle
 10
491.5003350000001
 20
359.0000000000002
 30
0.0
 40
1.0
100
AcDbArc
 50
0.0
 51
90.0
  0
LINE
  5
2AC
330
1F
100
AcDbEntity
  8
LAY-10
  6
CONTINUOUS
 62
     7
100
AcDbLine
 10
481.5003350000002
 20
358.5
 30
0.0
 11
481.5003350000002
 21
355.5
 31
0.0
  0
ARC
  5
2AD
330
1F
100
AcDbEntity
  8
LAY-10
  6
CONTINUOUS
 62
     7
100
AcDbCircle
 10
475.5003350000002
 20
354.5000000000002
 30
0.0
 40
1.0
100
AcDbArc
 50
90.0
 51
180.0
  0
ARC
  5
2AE
330
1F
100
AcDbEntity
  8
LAY-10
  6
CONTINUOUS
 62
     7
100
AcDbCircle
 10
475.5003350000002
 20
353.5000000000003
 30
0.0
 40
1.0
100
AcDbArc
 50
180.0
 51
270.0
  0
LINE
  5
2AF
330
1F
100
AcDbEntity
  8
LAY-10
  6
CONTINUOUS
 62
     7
100
AcDbLine
 10
378.4285714285716
 20
352.5
 30
0.0
 11
479.5003350000001
 21
352.5
 31
0.0
  0
LINE
  5
2B0
330
1F
100
AcDbEntity
  8
LAY-10
  6
CONTINUOUS
 62
     7
100
AcDbLine
 10
474.5003350000001
 20
354.5000000000002
 30
0.0
 11
474.5003350000001
 21
353.5000000000003
 31
0.0
  0
LINE
  5
2B1
330
1F
100
AcDbEntity
  8
LAY-10
  6
CONTINUOUS
 62
     7
100
AcDbLine
 10
371.5714285714287
 20
352.5
 30
0.0
 11
270.5003350000002
 21
352.5
 31
0.0
  0
LINE
  5
2B2
330
1F
100
AcDbEntity
  8
LAY-10
  6
CONTINUOUS
 62
     7
100
AcDbLine
 10
268.5003350000003
 20
358.5
 30
0.0
 11
481.5003350000003
 21
358.5
 31
0.0
  0
LINE
  5
2B3
330
1F
100
AcDbEntity
  8
LAY-10
  6
CONTINUOUS
 62
     7
100
AcDbLine
 10
371.0000000000001
 20
355.5
 30
0.0
 11
371.0000000000001
 21
354.5
 31
0.0
  0
LINE
  5
2B4
330
1F
100
AcDbEntity
  8
LAY-10
  6
CONTINUOUS
 62
     7
100
AcDbLine
 10
371.0000000000001
 20
354.5
 30
0.0
 11
379.0000000000002
 21
354.5
 31
0.0
  0
LINE
  5
2B5
330
1F
100
AcDbEntity
  8
LAY-10
  6
CONTINUOUS
 62
     7
100
AcDbLine
 10
379.0000000000002
 20
354.5
 30
0.0
 11
379.0000000000002
 21
355.5
 31
0.0
  0
LINE
  5
2B6
330
1F
100
AcDbEntity
  8
LAY-10
  6
CONTINUOUS
 62
     7
100
AcDbLine
 10
377.0000000000001
 20
347.4999999999998
 30
0.0
 11
373.0000000000001
 21
347.4999999999998
 31
0.0
  0
LINE
  5
2B7
330
1F
100
AcDbEntity
  8
LAY-10
  6
CONTINUOUS
 62
     7
100
AcDbLine
 10
377.0000000000001
 20
347.4999999999998
 30
0.0
 11
379.0000000000002
 21
354.5
 31
0.0
  0
LINE
  5
2B8
330
1F
100
AcDbEntity
  8
LAY-10
  6
CONTINUOUS
 62
     7
100
AcDbLine
 10
371.0000000000002
 20
354.5
 30
0.0
 11
373.0000000000001
 21
347.4999999999998
 31
0.0
  0
ARC
  5
2B9
330
1F
100
AcDbEntity
  8
LAY-10
  6
CONTINUOUS
 62
     7
100
AcDbCircle
 10
375.0000000000002
 20
342.4151409051577
 30
0.0
 40
6.5
100
AcDbArc
 50
110.5881688522938
 51
224.0840056919187
  0
ARC
  5
2BA
330
1F
100
AcDbEntity
  8
LAY-10
  6
CONTINUOUS
 62
     7
100
AcDbCircle
 10
375.0000000000002
 20
342.4151409051577
 30
0.0
 40
7.5
100
AcDbArc
 50
109.9680344261044
 51
221.8158814523692
  0
ARC
  5
2BB
330
1F
100
AcDbEntity
  8
LAY-10
  6
CONTINUOUS
 62
     7
100
AcDbCircle
 10
371.0042500000001
 20
335.4942988908143
 30
0.0
 40
1.5
100
AcDbArc
 50
55.30149999999982
 51
178.5781850000027
  0
ARC
  5
2BC
330
1F
100
AcDbEntity
  8
LAY-10
  6
CONTINUOUS
 62
     7
100
AcDbCircle
 10
370.9983399659884
 20
335.4837484116316
 30
0.0
 40
2.5
100
AcDbArc
 50
14.51824124261198
 51
178.5781779999976
  0
ARC
  5
2BD
330
1F
100
AcDbEntity
  8
LAY-10
  6
CONTINUOUS
 62
     7
100
AcDbCircle
 10
370.9983399659884
 20
335.4837484116316
 30
0.0
 40
2.5
100
AcDbArc
 50
311.4218390000066
 51
350.566712755286
  0
ARC
  5
2BE
330
1F
100
AcDbEntity
  8
LAY-10
  6
CONTINUOUS
 62
     7
100
AcDbCircle
 10
355.8515793721691
 20
296.9419474930547
 30
0.0
 40
2.5
100
AcDbArc
 50
111.9093670000004
 51
193.5781780000088
  0
ARC
  5
2BF
330
1F
100
AcDbEntity
  8
LAY-10
  6
CONTINUOUS
 62
     7
100
AcDbCircle
 10
355.8515793721691
 20
296.9419474930547
 30
0.0
 40
1.5
100
AcDbArc
 50
351.693842574285
 51
80.00000000000782
  0
ARC
  5
2C0
330
1F
100
AcDbEntity
  8
LAY-10
  6
CONTINUOUS
 62
     7
100
AcDbCircle
 10
355.8515793721691
 20
296.9419474930547
 30
0.0
 40
1.5
100
AcDbArc
 50
118.9694999999994
 51
193.5781849999981
  0
LINE
  5
2C1
330
1F
100
AcDbEntity
  8
LAY-10
  6
CONTINUOUS
 62
     7
100
AcDbLine
 10
356.72974258286
 20
299.2826367913088
 30
0.0
 11
358.1117033582126
 21
301.214493068287
 31
0.0
  0
LINE
  5
2C2
330
1F
100
AcDbEntity
  8
LAY-10
  6
CONTINUOUS
 62
     7
100
AcDbLine
 10
356.2588228117469
 20
296.9055678214524
 30
0.0
 11
356.9864785200849
 21
297.9227644787115
 31
0.0
  0
LINE
  5
2C3
330
1F
100
AcDbEntity
  8
LAY-10
  6
CONTINUOUS
 62
     7
100
AcDbLine
 10
357.5781940594522
 20
298.7499298565234
 30
0.0
 11
358.9250261317101
 21
300.6326794349374
 31
0.0
  0
LINE
  5
2C4
330
1F
100
AcDbEntity
  8
LAY-10
  6
CONTINUOUS
 62
     7
100
AcDbLine
 10
362.9508702137973
 20
316.1550739284628
 30
0.0
 11
364.0282474755679
 21
317.1746760847689
 31
0.0
  0
LINE
  5
2C5
330
1F
100
AcDbEntity
  8
LAY-10
  6
CONTINUOUS
 62
     7
100
AcDbLine
 10
364.7732217740869
 20
317.8797014201371
 30
0.0
 11
366.2792547856517
 21
319.3049731140433
 31
0.0
  0
ARC
  5
2C6
330
1F
100
AcDbEntity
  8
LAY-10
  6
CONTINUOUS
 62
     7
100
AcDbCircle
 10
360.6355136804028
 20
311.874042774987
 30
0.0
 40
2.5
100
AcDbArc
 50
313.4218350000016
 51
76.69163600000601
  0
ARC
  5
2C7
330
1F
100
AcDbEntity
  8
LAY-10
  6
CONTINUOUS
 62
     7
100
AcDbCircle
 10
360.6355136804028
 20
311.874042774987
 30
0.0
 40
2.5
100
AcDbArc
 50
99.78507300000742
 51
180.5781780000066
  0
ARC
  5
2C8
330
1F
100
AcDbEntity
  8
LAY-10
  6
CONTINUOUS
 62
     7
100
AcDbCircle
 10
360.6355136804028
 20
311.874042774987
 30
0.0
 40
1.5
100
AcDbArc
 50
313.4218089999932
 51
66.9999970000013
  0
ARC
  5
2C9
330
1F
100
AcDbEntity
  8
LAY-10
  6
CONTINUOUS
 62
     7
100
AcDbCircle
 10
360.6355136804028
 20
311.874042774987
 30
0.0
 40
1.5
100
AcDbArc
 50
106.044186000003
 51
180.5781849999998
  0
LINE
  5
2CA
330
1F
100
AcDbEntity
  8
LAY-10
  6
CONTINUOUS
 62
     7
100
AcDbLine
 10
361.2237041461636
 20
313.0473025462125
 30
0.0
 11
361.3674526007152
 21
313.1833421730055
 31
0.0
  0
LINE
  5
2CB
330
1F
100
AcDbEntity
  8
LAY-10
  6
CONTINUOUS
 62
     7
100
AcDbLine
 10
362.1140841817723
 20
313.8899360059316
 30
0.0
 11
363.7199927000545
 21
315.409727151904
 31
0.0
  0
LINE
  5
2CC
330
1F
100
AcDbEntity
  8
LAY-10
  6
CONTINUOUS
 62
     7
100
AcDbLine
 10
361.0789722219745
 20
311.5335155000396
 30
0.0
 11
362.0280143130134
 21
312.4316646202406
 31
0.0
  0
LINE
  5
2CD
330
1F
100
AcDbEntity
  8
LAY-10
  6
CONTINUOUS
 62
     7
100
AcDbLine
 10
358.7923443824905
 20
303.711289904052
 30
0.0
 11
360.3582008819085
 21
305.245858918406
 31
0.0
  0
ARC
  5
2CE
330
1F
100
AcDbEntity
  8
LAY-10
  6
CONTINUOUS
 62
     7
100
AcDbCircle
 10
355.8515793721691
 20
296.9419474930547
 30
0.0
 40
2.5
100
AcDbArc
 50
8.166044754457198
 51
88.83024499999757
  0
ARC
  5
2CF
330
1F
100
AcDbEntity
  8
LAY-10
  6
CONTINUOUS
 62
     7
100
AcDbCircle
 10
368.6635215128089
 20
330.7860562242754
 30
0.0
 40
1.5
100
AcDbArc
 50
311.4218090000035
 51
59.99999999999945
  0
LINE
  5
2D0
330
1F
100
AcDbEntity
  8
LAY-10
  6
CONTINUOUS
 62
     7
100
AcDbLine
 10
370.1874229239035
 20
332.7679048940171
 30
0.0
 11
371.9907366959783
 21
334.3589599692394
 31
0.0
  0
LINE
  5
2D1
330
1F
100
AcDbEntity
  8
LAY-10
  6
CONTINUOUS
 62
     7
100
AcDbLine
 10
369.2160466943955
 20
330.5772799112445
 30
0.0
 11
370.0633980262915
 21
331.3248934699494
 31
0.0
  0
LINE
  5
2D2
330
1F
100
AcDbEntity
  8
LAY-10
  6
CONTINUOUS
 62
     7
100
AcDbLine
 10
370.8422539208607
 20
332.0120754511182
 30
0.0
 11
372.6523331499462
 21
333.6091006416189
 31
0.0
  0
ARC
  5
2D3
330
1F
100
AcDbEntity
  8
LAY-10
  6
CONTINUOUS
 62
     7
100
AcDbCircle
 10
366.612182690506
 20
325.9534051605081
 30
0.0
 40
2.5
100
AcDbArc
 50
313.4218349999951
 51
78.65556600000332
  0
ARC
  5
2D4
330
1F
100
AcDbEntity
  8
LAY-10
  6
CONTINUOUS
 62
     7
100
AcDbCircle
 10
366.612182690506
 20
325.9534051605081
 30
0.0
 40
2.5
100
AcDbArc
 50
101.7388260000027
 51
180.578178
  0
ARC
  5
2D5
330
1F
100
AcDbEntity
  8
LAY-10
  6
CONTINUOUS
 62
     7
100
AcDbCircle
 10
366.612182690506
 20
325.9534051605081
 30
0.0
 40
1.5
100
AcDbArc
 50
313.421809000007
 51
71.88799300000144
  0
ARC
  5
2D6
330
1F
100
AcDbEntity
  8
LAY-10
  6
CONTINUOUS
 62
     7
100
AcDbCircle
 10
366.612182690506
 20
325.9534051605081
 30
0.0
 40
1.5
100
AcDbArc
 50
110.8790490000049
 51
180.5781850000106
  0
LINE
  5
2D7
330
1F
100
AcDbEntity
  8
LAY-10
  6
CONTINUOUS
 62
     7
100
AcDbLine
 10
363.0956026379864
 20
317.6688618406612
 30
0.0
 11
363.3048712204063
 21
317.86690765784
 31
0.0
  0
LINE
  5
2D8
330
1F
100
AcDbEntity
  8
LAY-10
  6
CONTINUOUS
 62
     7
100
AcDbLine
 10
364.0650859130178
 20
318.5863561301036
 30
0.0
 11
365.5918906918774
 21
320.0312855803276
 31
0.0
  0
LINE
  5
2D9
330
1F
100
AcDbEntity
  8
LAY-10
  6
CONTINUOUS
 62
     7
100
AcDbLine
 10
353.8220114345414
 20
294.6965410541695
 30
0.0
 11
353.4214520217055
 21
296.3550174531886
 31
0.0
  0
LINE
  5
2DA
330
1F
100
AcDbEntity
  8
LAY-10
  6
CONTINUOUS
 62
     7
100
AcDbLine
 10
354.7248677290979
 20
295.2178053788711
 30
0.0
 11
354.3935031350958
 21
296.5897893691347
 31
0.0
  0
ARC
  5
2DB
330
1F
100
AcDbEntity
  8
LAY-10
  6
CONTINUOUS
 62
     7
100
AcDbCircle
 10
355.8521618580109
 20
297.1964743881272
 30
0.0
 40
0.5
100
AcDbArc
 50
191.5781230000185
 51
11.57818499999211
  0
LINE
  5
2DC
330
1F
100
AcDbEntity
  8
LAY-10
  6
CONTINUOUS
 62
     7
100
AcDbLine
 10
355.3623353403349
 20
297.0961219726179
 30
0.0
 11
354.4425901406759
 21
301.5854505567909
 31
0.0
  0
LINE
  5
2DD
330
1F
100
AcDbEntity
  8
LAY-10
  6
CONTINUOUS
 62
     7
100
AcDbLine
 10
356.3419870096612
 20
297.2968264376108
 30
0.0
 11
355.4222418100023
 21
301.7861550217839
 31
0.0
  0
ARC
  5
2DE
330
1F
100
AcDbEntity
  8
LAY-10
  6
CONTINUOUS
 62
     7
100
AcDbCircle
 10
356.7353295471101
 20
302.3954536972502
 30
0.0
 40
0.5
100
AcDbArc
 50
181.5781230000174
 51
1.578184999996121
  0
LINE
  5
2DF
330
1F
100
AcDbEntity
  8
LAY-10
  6
CONTINUOUS
 62
     7
100
AcDbLine
 10
356.2355184020124
 20
302.3816833997516
 30
0.0
 11
356.1093106520938
 21
306.9625211645838
 31
0.0
  0
LINE
  5
2E0
330
1F
100
AcDbEntity
  8
LAY-10
  6
CONTINUOUS
 62
     7
100
AcDbLine
 10
357.2351398261824
 20
302.4092244947486
 30
0.0
 11
357.1089307102381
 21
306.9900618935546
 31
0.0
  0
ARC
  5
2E1
330
1F
100
AcDbEntity
  8
LAY-10
  6
CONTINUOUS
 62
     7
100
AcDbCircle
 10
371.0042500000001
 20
335.4942988908143
 30
0.0
 40
1.5
100
AcDbArc
 50
311.4218090000095
 51
354.2953359083985
  0
LINE
  5
2E2
330
1F
100
AcDbEntity
  8
LAY-10
  6
CONTINUOUS
 62
     7
100
AcDbLine
 10
362.7859826712188
 20
313.1489863271817
 30
0.0
 11
364.4073576598546
 21
314.6834141856203
 31
0.0
  0
POLYLINE
  5
2E3
330
1F
100
AcDbEntity
  8
LAY-10
  6
CONTINUOUS
 62
     7
100
AcDb2dPolyline
 66
     1
 10
0.0
 20
0.0
 30
0.0
 70
   128
  0
VERTEX
  5
2E4
330
2E3
100
AcDbEntity
  8
LAY-10
  6
CONTINUOUS
 62
     7
100
AcDbVertex
100
AcDb2dVertex
 10
360.3582017479339
 20
305.245858418406
 30
0.0
  0
VERTEX
  5
2E5
330
2E3
100
AcDbEntity
  8
LAY-10
  6
CONTINUOUS
 62
     7
100
AcDbVertex
100
AcDb2dVertex
 10
360.7607024377149
 20
305.7595900631883
 30
0.0
  0
VERTEX
  5
2E6
330
2E3
100
AcDbEntity
  8
LAY-10
  6
CONTINUOUS
 62
     7
100
AcDbVertex
100
AcDb2dVertex
 10
361.0165248076565
 20
306.3599914056396
 30
0.0
  0
VERTEX
  5
2E7
330
2E3
100
AcDbEntity
  8
LAY-10
  6
CONTINUOUS
 62
     7
100
AcDbVertex
100
AcDb2dVertex
 10
361.1082352539228
 20
307.0061465581579
 30
0.0
  0
VERTEX
  5
2E8
330
2E3
100
AcDbEntity
  8
LAY-10
  6
CONTINUOUS
 62
     7
100
AcDbVertex
100
AcDb2dVertex
 10
361.0295827623185
 20
307.6540204465571
 30
0.0
  0
VERTEX
  5
2E9
330
2E3
100
AcDbEntity
  8
LAY-10
  6
CONTINUOUS
 62
     7
100
AcDbVertex
100
AcDb2dVertex
 10
360.7859282995814
 20
308.2594625376056
 30
0.0
  0
VERTEX
  5
2EA
330
2E3
100
AcDbEntity
  8
LAY-10
  6
CONTINUOUS
 62
     7
100
AcDbVertex
100
AcDb2dVertex
 10
360.393877281124
 20
308.7812122544781
 30
0.0
  0
VERTEX
  5
2EB
330
2E3
100
AcDbEntity
  8
LAY-10
  6
CONTINUOUS
 62
     7
100
AcDbVertex
100
AcDb2dVertex
 10
359.8801456363415
 20
309.1837129442591
 30
0.0
  0
VERTEX
  5
2EC
330
2E3
100
AcDbEntity
  8
LAY-10
  6
CONTINUOUS
 62
     7
100
AcDbVertex
100
AcDb2dVertex
 10
359.2797434278647
 20
309.4395358142007
 30
0.0
  0
VERTEX
  5
2ED
330
2E3
100
AcDbEntity
  8
LAY-10
  6
CONTINUOUS
 62
     7
100
AcDbVertex
100
AcDb2dVertex
 10
359.1596993381723
 20
309.4698213517051
 30
0.0
  0
SEQEND
  5
2EE
330
2E3
100
AcDbEntity
  8
LAY-10
  6
CONTINUOUS
 62
     7
  0
ARC
  5
2EF
330
1F
100
AcDbEntity
  8
LAY-10
  6
CONTINUOUS
 62
     7
100
AcDbCircle
 10
358.6083619134803
 20
307.0313729200244
 30
0.0
 40
2.5
100
AcDbArc
 50
100.3447060000006
 51
181.5781780000056
  0
ARC
  5
2F0
330
1F
100
AcDbEntity
  8
LAY-10
  6
CONTINUOUS
 62
     7
100
AcDbCircle
 10
358.6083619134803
 20
307.0313729200244
 30
0.0
 40
1.5
100
AcDbArc
 50
314.421808999999
 51
67.99999999999847
  0
ARC
  5
2F1
330
1F
100
AcDbEntity
  8
LAY-10
  6
CONTINUOUS
 62
     7
100
AcDbCircle
 10
358.6083619134803
 20
307.0313729200244
 30
0.0
 40
1.5
100
AcDbArc
 50
107.0009669999994
 51
181.578185000007
  0
LINE
  5
2F2
330
1F
100
AcDbEntity
  8
LAY-10
  6
CONTINUOUS
 62
     7
100
AcDbLine
 10
359.9378443222401
 20
309.1485599997654
 30
0.0
 11
361.6665600040772
 21
310.7845733925483
 31
0.0
  0
LINE
  5
2F3
330
1F
100
AcDbEntity
  8
LAY-10
  6
CONTINUOUS
 62
     7
100
AcDbLine
 10
359.0255403920223
 20
306.9083612406835
 30
0.0
 11
359.9215463437735
 21
307.7563190730007
 31
0.0
  0
LINE
  5
2F4
330
1F
100
AcDbEntity
  8
LAY-10
  6
CONTINUOUS
 62
     7
100
AcDbLine
 10
360.6619962151501
 20
308.4570618706827
 30
0.0
 11
362.3539249638771
 21
310.058260426264
 31
0.0
  0
ARC
  5
2F5
330
1F
100
AcDbEntity
  8
LAY-10
  6
CONTINUOUS
 62
     7
100
AcDbCircle
 10
356.8917199970043
 20
302.0872119022857
 30
0.0
 40
2.5
100
AcDbArc
 50
324.4218390000079
 51
83.48038099999643
  0
ARC
  5
2F6
330
1F
100
AcDbEntity
  8
LAY-10
  6
CONTINUOUS
 62
     7
100
AcDbCircle
 10
356.8917199970043
 20
302.0872119022857
 30
0.0
 40
2.5
100
AcDbArc
 50
106.5970289999876
 51
191.5781840000035
  0
ARC
  5
2F7
330
1F
100
AcDbEntity
  8
LAY-10
  6
CONTINUOUS
 62
     7
100
AcDbCircle
 10
356.8917199970043
 20
302.0872119022857
 30
0.0
 40
1.5
100
AcDbArc
 50
324.421791000001
 51
77.99999699999671
  0
ARC
  5
2F8
330
1F
100
AcDbEntity
  8
LAY-10
  6
CONTINUOUS
 62
     7
100
AcDbCircle
 10
356.8917199970043
 20
302.0872119022857
 30
0.0
 40
1.5
100
AcDbArc
 50
117.1660409999981
 51
191.5782449999972
  0
LINE
  5
2F9
330
1F
100
AcDbEntity
  8
LAY-10
  6
CONTINUOUS
 62
     7
100
AcDbLine
 10
357.9953832171079
 20
304.33040867395
 30
0.0
 11
359.6582649213322
 21
305.9600642726431
 31
0.0
  0
LINE
  5
2FA
330
1F
100
AcDbEntity
  8
LAY-10
  6
CONTINUOUS
 62
     7
100
AcDbLine
 10
357.0852965943857
 20
302.0383504041063
 30
0.0
 11
358.0753557996558
 21
303.0086272501353
 31
0.0
  0
ARC
  5
2FB
330
1F
100
AcDbEntity
  8
LAY-10
  6
CONTINUOUS
 62
     7
100
AcDbCircle
 10
368.6635215128089
 20
330.7860562242754
 30
0.0
 40
2.5
100
AcDbArc
 50
311.4218390000048
 51
71.89887800000254
  0
ARC
  5
2FC
330
1F
100
AcDbEntity
  8
LAY-10
  6
CONTINUOUS
 62
     7
100
AcDbCircle
 10
368.6635215128089
 20
330.7860562242754
 30
0.0
 40
2.5
100
AcDbArc
 50
95.06562600000059
 51
178.5781779999976
  0
LINE
  5
2FD
330
1F
100
AcDbEntity
  8
LAY-10
  6
CONTINUOUS
 62
     7
100
AcDbLine
 10
366.8812291072415
 20
325.8795872238883
 30
0.0
 11
367.8776628542385
 21
326.7587371000634
 31
0.0
  0
LINE
  5
2FE
330
1F
100
AcDbEntity
  8
LAY-10
  6
CONTINUOUS
 62
     7
100
AcDbLine
 10
368.6330316813035
 20
327.4251962869938
 30
0.0
 11
370.3175155627919
 21
328.9114079542628
 31
0.0
  0
LINE
  5
2FF
330
1F
100
AcDbEntity
  8
LAY-10
  6
CONTINUOUS
 62
     7
100
AcDbLine
 10
367.8892981727944
 20
328.1025860629645
 30
0.0
 11
369.6559177427987
 21
329.6612669158575
 31
0.0
  0
ARC
  5
300
330
1F
100
AcDbEntity
  8
LAY-10
  6
CONTINUOUS
 62
     7
100
AcDbCircle
 10
364.5608443682027
 20
321.1207549627659
 30
0.0
 40
2.5
100
AcDbArc
 50
313.421835000009
 51
76.69163600000189
  0
ARC
  5
301
330
1F
100
AcDbEntity
  8
LAY-10
  6
CONTINUOUS
 62
     7
100
AcDbCircle
 10
364.5608443682027
 20
321.1207549627659
 30
0.0
 40
2.5
100
AcDbArc
 50
99.78507299999161
 51
180.5781779999975
  0
ARC
  5
302
330
1F
100
AcDbEntity
  8
LAY-10
  6
CONTINUOUS
 62
     7
100
AcDbCircle
 10
364.5608443682027
 20
321.1207549627659
 30
0.0
 40
1.5
100
AcDbArc
 50
313.4218090000101
 51
66.9999970000061
  0
ARC
  5
303
330
1F
100
AcDbEntity
  8
LAY-10
  6
CONTINUOUS
 62
     7
100
AcDbCircle
 10
364.5608443682027
 20
321.1207549627659
 30
0.0
 40
1.5
100
AcDbArc
 50
106.044185999994
 51
180.5782019999947
  0
LINE
  5
304
330
1F
100
AcDbEntity
  8
LAY-10
  6
CONTINUOUS
 62
     7
100
AcDbLine
 10
365.911138482658
 20
323.2247289741637
 30
0.0
 11
367.6432290141805
 21
324.8639357780697
 31
0.0
  0
ARC
  5
305
330
1F
100
AcDbEntity
  8
LAY-10
  6
CONTINUOUS
 62
     7
100
AcDbCircle
 10
368.6635215128089
 20
330.7860562242754
 30
0.0
 40
1.5
100
AcDbArc
 50
99.43230800000012
 51
178.5782479999826
  0
LINE
  5
306
330
1F
100
AcDbEntity
  8
LAY-10
  6
CONTINUOUS
 62
     7
100
AcDbLine
 10
365.0022090361002
 20
320.9877249922301
 30
0.0
 11
365.8858088460587
 21
321.8239407566365
 31
0.0
  0
LINE
  5
307
330
1F
100
AcDbEntity
  8
LAY-10
  6
CONTINUOUS
 62
     7
100
AcDbLine
 10
366.6281792005897
 20
322.5265019287169
 30
0.0
 11
368.3305931079549
 21
324.1376233117855
 31
0.0
  0
ARC
  5
308
330
1F
100
AcDbEntity
  8
LAY-10
  6
CONTINUOUS
 62
     7
100
AcDbCircle
 10
362.6889458763801
 20
316.4991956683176
 30
0.0
 40
2.5
100
AcDbArc
 50
313.4218350000043
 51
80.94292099999909
  0
ARC
  5
309
330
1F
100
AcDbEntity
  8
LAY-10
  6
CONTINUOUS
 62
     7
100
AcDbCircle
 10
362.6889458763801
 20
316.4991956683176
 30
0.0
 40
2.5
100
AcDbArc
 50
104.029817000003
 51
180.5781780000079
  0
ARC
  5
30A
330
1F
100
AcDbEntity
  8
LAY-10
  6
CONTINUOUS
 62
     7
100
AcDbCircle
 10
362.6889458763801
 20
316.4991956683176
 30
0.0
 40
1.5
100
AcDbArc
 50
313.4218089999932
 51
74.38008800000613
  0
ARC
  5
30B
330
1F
100
AcDbEntity
  8
LAY-10
  6
CONTINUOUS
 62
     7
100
AcDbCircle
 10
362.6889458763801
 20
316.4991956683176
 30
0.0
 40
1.5
100
AcDbArc
 50
113.3901110000025
 51
180.5782350000149
  0
LINE
  5
30C
330
1F
100
AcDbEntity
  8
LAY-10
  6
CONTINUOUS
 62
     7
100
AcDbLine
 10
358.1818834386061
 20
307.2664725332077
 30
0.0
 11
358.1356414288467
 21
311.8488150228602
 31
0.0
  0
LINE
  5
30D
330
1F
100
AcDbEntity
  8
LAY-10
  6
CONTINUOUS
 62
     7
100
AcDbLine
 10
359.1818328856387
 20
307.2765637804685
 30
0.0
 11
359.1355903758793
 21
311.8589054040958
 31
0.0
  0
ARC
  5
30E
330
1F
100
AcDbEntity
  8
LAY-10
  6
CONTINUOUS
 62
     7
100
AcDbCircle
 10
360.7352908581
 20
311.8966719161942
 30
0.0
 40
0.5
100
AcDbArc
 50
180.5781229999785
 51
0.578184999984621
  0
LINE
  5
30F
330
1F
100
AcDbEntity
  8
LAY-10
  6
CONTINUOUS
 62
     7
100
AcDbLine
 10
360.2353161345836
 20
311.891626292564
 30
0.0
 11
360.1890741248241
 21
316.4739687822163
 31
0.0
  0
LINE
  5
310
330
1F
100
AcDbEntity
  8
LAY-10
  6
CONTINUOUS
 62
     7
100
AcDbLine
 10
361.2352650816161
 20
311.9017166737992
 30
0.0
 11
361.1890222058312
 21
316.4840596634517
 31
0.0
  0
ARC
  5
311
330
1F
100
AcDbEntity
  8
LAY-10
  6
CONTINUOUS
 62
     7
100
AcDbCircle
 10
362.6071888499227
 20
316.5182303446174
 30
0.0
 40
0.5
100
AcDbArc
 50
180.5781229999915
 51
0.5781850000432346
  0
LINE
  5
312
330
1F
100
AcDbEntity
  8
LAY-10
  6
CONTINUOUS
 62
     7
100
AcDbLine
 10
362.1072141264064
 20
316.513184720987
 30
0.0
 11
362.0609712506214
 21
321.0955277106394
 31
0.0
  0
LINE
  5
313
330
1F
100
AcDbEntity
  8
LAY-10
  6
CONTINUOUS
 62
     7
100
AcDbLine
 10
363.1071635734389
 20
316.5232759682478
 30
0.0
 11
363.0609206976539
 21
321.1056189579003
 31
0.0
  0
ARC
  5
314
330
1F
100
AcDbEntity
  8
LAY-10
  6
CONTINUOUS
 62
     7
100
AcDbCircle
 10
364.6585271722258
 20
321.3508805423597
 30
0.0
 40
0.5
100
AcDbArc
 50
180.5781230000045
 51
0.5781850000236968
  0
LINE
  5
315
330
1F
100
AcDbEntity
  8
LAY-10
  6
CONTINUOUS
 62
     7
100
AcDbLine
 10
364.1585529487093
 20
321.3458357847543
 30
0.0
 11
364.1123095729245
 21
325.9281779083815
 31
0.0
  0
LINE
  5
316
330
1F
100
AcDbEntity
  8
LAY-10
  6
CONTINUOUS
 62
     7
100
AcDbLine
 10
365.158501895742
 20
321.3559261659901
 30
0.0
 11
365.1122590199572
 21
325.9382691556423
 31
0.0
  0
ARC
  5
317
330
1F
100
AcDbEntity
  8
LAY-10
  6
CONTINUOUS
 62
     7
100
AcDbCircle
 10
366.5504301972448
 20
326.2545167046857
 30
0.0
 40
0.5
100
AcDbArc
 50
178.578123000009
 51
358.5781850000158
  0
LINE
  5
318
330
1F
100
AcDbEntity
  8
LAY-10
  6
CONTINUOUS
 62
     7
100
AcDbLine
 10
366.0505836648748
 20
326.2669231146339
 30
0.0
 11
366.1642910830104
 21
330.8480881400423
 31
0.0
  0
LINE
  5
319
330
1F
100
AcDbEntity
  8
LAY-10
  6
CONTINUOUS
 62
     7
100
AcDbLine
 10
367.0502758635893
 20
326.2421107947374
 30
0.0
 11
367.1639827817248
 21
330.8232749541202
 31
0.0
  0
ARC
  5
31A
330
1F
100
AcDbEntity
  8
LAY-10
  6
CONTINUOUS
 62
     7
100
AcDbCircle
 10
368.8852486504242
 20
330.9522088920419
 30
0.0
 40
0.5
100
AcDbArc
 50
178.5781230000024
 51
358.5781850000158
  0
LINE
  5
31B
330
1F
100
AcDbEntity
  8
LAY-10
  6
CONTINUOUS
 62
     7
100
AcDbLine
 10
368.3854021180542
 20
330.96461530199
 30
0.0
 11
368.4991095361898
 21
335.5457803273985
 31
0.0
  0
LINE
  5
31C
330
1F
100
AcDbEntity
  8
LAY-10
  6
CONTINUOUS
 62
     7
100
AcDbLine
 10
369.3850943167689
 20
330.9398029820938
 30
0.0
 11
369.4988012349042
 21
335.5209671414765
 31
0.0
  0
ARC
  5
31D
330
1F
100
AcDbEntity
  8
LAY-10
  6
CONTINUOUS
 62
     7
100
AcDbCircle
 10
358.6818581621224
 20
307.2715181568382
 30
0.0
 40
0.5
100
AcDbArc
 50
180.578123000011
 51
0.5781850000432346
  0
ARC
  5
31E
330
1F
100
AcDbEntity
  8
LAY-10
  6
CONTINUOUS
 62
     7
100
AcDbCircle
 10
375.0000000000002
 20
342.4151409051577
 30
0.0
 40
6.5
100
AcDbArc
 50
238.732305438704
 51
69.41183114770666
  0
ARC
  5
31F
330
1F
100
AcDbEntity
  8
LAY-10
  6
CONTINUOUS
 62
     7
100
AcDbCircle
 10
375.0000000000002
 20
342.4151409051577
 30
0.0
 40
7.5
100
AcDbArc
 50
229.4969798298636
 51
70.03196557389597
  0
LINE
  5
320
330
1F
100
AcDbEntity
  8
LAY-10
  6
CONTINUOUS
 62
     4
100
AcDbLine
 10
351.5822562775722
 20
293.4034178113745
 30
0.0
 11
360.207717431703
 21
298.3833301305965
 31
0.0
  0
ARC
  5
321
330
1F
100
AcDbEntity
  8
LAY-10
  6
CONTINUOUS
 62
     7
100
AcDbCircle
 10
361.4375000000005
 20
309.9999129999999
 30
0.0
 40
11.56249999999963
100
AcDbArc
 50
325.794542061894
 51
34.20545793810597
  0
ARC
  5
322
330
1F
100
AcDbEntity
  8
LAY-10
  6
CONTINUOUS
 62
     7
100
AcDbCircle
 10
388.5624999999998
 20
309.9999129999999
 30
0.0
 40
11.56249999999973
100
AcDbArc
 50
145.7945420618943
 51
214.2054579381055
  0
ARC
  5
323
330
1F
100
AcDbEntity
  8
LAY-10
  6
CONTINUOUS
 62
     7
100
AcDbCircle
 10
375.0000000000001
 20
298.3764376170201
 30
0.0
 40
6.5
100
AcDbArc
 50
127.9798724448524
 51
253.840547469033
  0
ARC
  5
324
330
1F
100
AcDbEntity
  8
LAY-10
  6
CONTINUOUS
 62
     7
100
AcDbCircle
 10
375.0000000000001
 20
298.3764376170201
 30
0.0
 40
7.5
100
AcDbArc
 50
113.7919674209938
 51
251.5374201984569
  0
ARC
  5
325
330
1F
100
AcDbEntity
  8
LAY-10
  6
CONTINUOUS
 62
     7
100
AcDbCircle
 10
374.9580381089884
 20
290.3770246653279
 30
0.0
 40
1.5
100
AcDbArc
 50
85.30150000000344
 51
208.5781850000028
  0
ARC
  5
326
330
1F
100
AcDbEntity
  8
LAY-10
  6
CONTINUOUS
 62
     7
100
AcDbCircle
 10
374.9581951089884
 20
290.3649326653277
 30
0.0
 40
2.5
100
AcDbArc
 50
44.41979446372723
 51
208.5781779999989
  0
ARC
  5
327
330
1F
100
AcDbEntity
  8
LAY-10
  6
CONTINUOUS
 62
     7
100
AcDbCircle
 10
374.9581951089884
 20
290.3649326653277
 30
0.0
 40
2.5
100
AcDbArc
 50
341.4218390000058
 51
20.44145875745719
  0
ARC
  5
328
330
1F
100
AcDbEntity
  8
LAY-10
  6
CONTINUOUS
 62
     7
100
AcDbCircle
 10
375.2850291089884
 20
285.1292026653279
 30
0.0
 40
1.5
100
AcDbArc
 50
341.4218090000046
 51
90.0
  0
LINE
  5
329
330
1F
100
AcDbEntity
  8
LAY-10
  6
CONTINUOUS
 62
     7
100
AcDbLine
 10
375.6138421089884
 20
287.6074846653279
 30
0.0
 11
376.3800301089884
 21
289.887035665328
 31
0.0
  0
LINE
  5
32A
330
1F
100
AcDbEntity
  8
LAY-10
  6
CONTINUOUS
 62
     7
100
AcDbLine
 10
375.8679181089884
 20
285.224659665328
 30
0.0
 11
376.2279391089884
 21
286.2957876653281
 31
0.0
  0
LINE
  5
32B
330
1F
100
AcDbEntity
  8
LAY-10
  6
CONTINUOUS
 62
     7
100
AcDbLine
 10
376.5588571089883
 20
287.2803326653278
 30
0.0
 11
377.3279191089885
 21
289.5684366653278
 31
0.0
  0
ARC
  5
32C
330
1F
100
AcDbEntity
  8
LAY-10
  6
CONTINUOUS
 62
     7
100
AcDbCircle
 10
375.9248431089885
 20
279.918334665328
 30
0.0
 40
2.5
100
AcDbArc
 50
343.4218349999964
 51
108.6555660000016
  0
ARC
  5
32D
330
1F
100
AcDbEntity
  8
LAY-10
  6
CONTINUOUS
 62
     7
100
AcDbCircle
 10
375.9248431089885
 20
279.918334665328
 30
0.0
 40
2.5
100
AcDbArc
 50
131.7388260000042
 51
210.5781779999994
  0
ARC
  5
32E
330
1F
100
AcDbEntity
  8
LAY-10
  6
CONTINUOUS
 62
     7
100
AcDbCircle
 10
375.9248431089885
 20
279.918334665328
 30
0.0
 40
1.5
100
AcDbArc
 50
343.4218090000019
 51
101.8879930000001
  0
ARC
  5
32F
330
1F
100
AcDbEntity
  8
LAY-10
  6
CONTINUOUS
 62
     7
100
AcDbCircle
 10
375.9248431089885
 20
279.918334665328
 30
0.0
 40
1.5
100
AcDbArc
 50
140.879049000007
 51
210.5781850000106
  0
LINE
  5
330
330
1F
100
AcDbEntity
  8
LAY-10
  6
CONTINUOUS
 62
     7
100
AcDbLine
 10
377.7419803634393
 20
273.4050276576378
 30
0.0
 11
378.0023041089884
 21
274.2794826653281
 31
0.0
  0
ARC
  5
331
330
1F
100
AcDbEntity
  8
LAY-10
  6
CONTINUOUS
 62
     7
100
AcDbCircle
 10
374.9580381089884
 20
290.3770246653279
 30
0.0
 40
1.5
100
AcDbArc
 50
341.4218090000094
 51
24.30529343872398
  0
ARC
  5
332
330
1F
100
AcDbEntity
  8
LAY-10
  6
CONTINUOUS
 62
     7
100
AcDbCircle
 10
375.2850291089884
 20
285.1292026653279
 30
0.0
 40
2.5
100
AcDbArc
 50
341.4218390000058
 51
101.8988780000016
  0
ARC
  5
333
330
1F
100
AcDbEntity
  8
LAY-10
  6
CONTINUOUS
 62
     7
100
AcDbCircle
 10
375.2850291089884
 20
285.1292026653279
 30
0.0
 40
2.5
100
AcDbArc
 50
125.0656260000012
 51
208.5781779999989
  0
LINE
  5
334
330
1F
100
AcDbEntity
  8
LAY-10
  6
CONTINUOUS
 62
     7
100
AcDbLine
 10
376.1947531089884
 20
279.9889296653281
 30
0.0
 11
376.6181151089884
 21
281.2485126653282
 31
0.0
  0
LINE
  5
335
330
1F
100
AcDbEntity
  8
LAY-10
  6
CONTINUOUS
 62
     7
100
AcDbLine
 10
376.9390541089883
 20
282.2033676653278
 30
0.0
 11
377.6547541089883
 21
284.3327066653279
 31
0.0
  0
LINE
  5
336
330
1F
100
AcDbEntity
  8
LAY-10
  6
CONTINUOUS
 62
     7
100
AcDbLine
 10
375.9562671089884
 20
282.4181376653279
 30
0.0
 11
376.7068641089884
 21
284.6513046653278
 31
0.0
  0
ARC
  5
337
330
1F
100
AcDbEntity
  8
LAY-10
  6
CONTINUOUS
 62
     7
100
AcDbCircle
 10
376.5646571089883
 20
274.7074676653277
 30
0.0
 40
2.5
100
AcDbArc
 50
346.6350346071507
 51
106.691636000002
  0
ARC
  5
338
330
1F
100
AcDbEntity
  8
LAY-10
  6
CONTINUOUS
 62
     7
100
AcDbCircle
 10
376.5646571089883
 20
274.7074676653277
 30
0.0
 40
2.5
100
AcDbArc
 50
129.7850729999943
 51
210.5781779999983
  0
ARC
  5
339
330
1F
100
AcDbEntity
  8
LAY-10
  6
CONTINUOUS
 62
     7
100
AcDbCircle
 10
376.5646571089883
 20
274.7074676653277
 30
0.0
 40
1.5
100
AcDbArc
 50
343.4218090000108
 51
96.99999700000201
  0
ARC
  5
33A
330
1F
100
AcDbEntity
  8
LAY-10
  6
CONTINUOUS
 62
     7
100
AcDbCircle
 10
376.5646571089883
 20
274.7074676653277
 30
0.0
 40
1.5
100
AcDbArc
 50
136.0441859999965
 51
210.5782019999965
  0
LINE
  5
33B
330
1F
100
AcDbEntity
  8
LAY-10
  6
CONTINUOUS
 62
     7
100
AcDbLine
 10
376.6820591089883
 20
277.2047096653282
 30
0.0
 11
377.3624901089883
 21
279.4903496653282
 31
0.0
  0
ARC
  5
33C
330
1F
100
AcDbEntity
  8
LAY-10
  6
CONTINUOUS
 62
     7
100
AcDbCircle
 10
375.2850291089884
 20
285.1292026653279
 30
0.0
 40
1.5
100
AcDbArc
 50
129.4323080000048
 51
208.5782479999838
  0
LINE
  5
33D
330
1F
100
AcDbEntity
  8
LAY-10
  6
CONTINUOUS
 62
     7
100
AcDbLine
 10
377.0134051089884
 20
274.8129426653278
 30
0.0
 11
377.3605171089883
 21
275.978926665328
 31
0.0
  0
LINE
  5
33E
330
1F
100
AcDbEntity
  8
LAY-10
  6
CONTINUOUS
 62
     7
100
AcDbLine
 10
377.6521481089884
 20
276.9585476653277
 30
0.0
 11
378.3209211089883
 21
279.2050266653281
 31
0.0
  0
LINE
  5
33F
330
1F
100
AcDbEntity
  8
LAY-10
  6
CONTINUOUS
 62
     7
100
AcDbLine
 10
375.2727892270577
 20
271.9794394903673
 30
0.0
 11
374.4123171089884
 21
273.4356836653279
 31
0.0
  0
LINE
  5
340
330
1F
100
AcDbEntity
  8
LAY-10
  6
CONTINUOUS
 62
     7
100
AcDbLine
 10
376.1388590434047
 20
272.4794651319722
 30
0.0
 11
375.2732531089883
 21
273.944397665328
 31
0.0
  0
ARC
  5
341
330
1F
100
AcDbEntity
  8
LAY-10
  6
CONTINUOUS
 62
     7
100
AcDbCircle
 10
376.5341901089884
 20
274.9556036653281
 30
0.0
 40
0.5
100
AcDbArc
 50
210.5781230000185
 51
30.5781850000225
  0
LINE
  5
342
330
1F
100
AcDbEntity
  8
LAY-10
  6
CONTINUOUS
 62
     7
100
AcDbLine
 10
376.1037221089884
 20
274.7012476653277
 30
0.0
 11
373.7725031089883
 21
278.646550665328
 31
0.0
  0
LINE
  5
343
330
1F
100
AcDbEntity
  8
LAY-10
  6
CONTINUOUS
 62
     7
100
AcDbLine
 10
376.9646581089883
 20
275.2099606653281
 30
0.0
 11
374.6334391089884
 21
279.155264665328
 31
0.0
  0
ARC
  5
344
330
1F
100
AcDbEntity
  8
LAY-10
  6
CONTINUOUS
 62
     7
100
AcDbCircle
 10
375.7208081089884
 20
280.148228665328
 30
0.0
 40
0.5
100
AcDbArc
 50
208.5781230000017
 51
28.57818500001159
  0
LINE
  5
345
330
1F
100
AcDbEntity
  8
LAY-10
  6
CONTINUOUS
 62
     7
100
AcDbLine
 10
375.2817251089884
 20
279.9090496653279
 30
0.0
 11
373.0896161089884
 21
283.9333086653281
 31
0.0
  0
LINE
  5
346
330
1F
100
AcDbEntity
  8
LAY-10
  6
CONTINUOUS
 62
     7
100
AcDbLine
 10
376.1598901089885
 20
280.387407665328
 30
0.0
 11
373.9677811089884
 21
284.4116656653281
 31
0.0
  0
ARC
  5
347
330
1F
100
AcDbEntity
  8
LAY-10
  6
CONTINUOUS
 62
     7
100
AcDbCircle
 10
375.3939741089884
 20
285.3839586653279
 30
0.0
 40
0.5
100
AcDbArc
 50
208.5781230000017
 51
28.57818500001159
  0
LINE
  5
348
330
1F
100
AcDbEntity
  8
LAY-10
  6
CONTINUOUS
 62
     7
100
AcDbLine
 10
374.9548911089884
 20
285.1447796653277
 30
0.0
 11
372.7627821089883
 21
289.169038665328
 31
0.0
  0
LINE
  5
349
330
1F
100
AcDbEntity
  8
LAY-10
  6
CONTINUOUS
 62
     7
100
AcDbLine
 10
375.8330561089884
 20
285.623137665328
 30
0.0
 11
373.6409471089884
 21
289.647395665328
 31
0.0
  0
LINE
  5
34A
330
1F
100
AcDbEntity
  8
LAY-10
  6
CONTINUOUS
 62
     4
100
AcDbLine
 10
372.6125448458693
 20
270.4435466807779
 30
0.0
 11
381.238006
 21
275.423459
 31
0.0
  0
TEXT
  5
34B
330
1F
100
AcDbEntity
  8
LAY-10
  6
CONTINUOUS
 62
     7
100
AcDbText
 10
324.0000057220461
 20
591.2125992000001
 30
0.0
 40
18.7086624
  1
散　水　栓
 41
0.9567440787027048
  7
EXCADSTD
100
AcDbText
  0
ARC
  5
34C
330
1F
100
AcDbEntity
  8
LAY-10
  6
CONTINUOUS
 62
     7
100
AcDbCircle
 10
375.0000000000001
 20
298.3764376170201
 30
0.0
 40
7.5
100
AcDbArc
 50
259.222571760555
 51
66.20803257900673
  0
ARC
  5
34D
330
1F
100
AcDbEntity
  8
LAY-10
  6
CONTINUOUS
 62
     7
100
AcDbCircle
 10
375.0000000000001
 20
298.3764376170201
 30
0.0
 40
6.5
100
AcDbArc
 50
269.398901589865
 51
52.02012755514796
  0
ARC
  5
34E
330
1F
100
AcDbEntity
  8
LAY-10
  6
CONTINUOUS
 62
     7
100
AcDbCircle
 10
375.0000000000002
 20
296.4999129999999
 30
0.0
 40
4.0
100
AcDbArc
 50
284.6943993565647
 51
0.0
  0
LINE
  5
34F
330
1F
100
AcDbEntity
  8
LAY-10
  6
CONTINUOUS
 62
     7
100
AcDbLine
 10
267.5003350000002
 20
355.5
 30
0.0
 11
482.5003350000001
 21
355.5
 31
0.0
  0
LINE
  5
350
330
1F
100
AcDbEntity
  8
LAY-10
  6
CONTINUOUS
 62
     7
100
AcDbLine
 10
486.5
 20
353.5000000000003
 30
0.0
 11
479.5003350000001
 21
353.5000000000003
 31
0.0
  0
LINE
  5
351
330
1F
100
AcDbEntity
  8
LAY-10
  6
CONTINUOUS
 62
     7
100
AcDbLine
 10
475.5003350000002
 20
354.5000000000002
 30
0.0
 11
486.5
 21
354.5000000000002
 31
0.0
  0
ARC
  5
352
330
1F
100
AcDbEntity
  8
LAY-10
  6
CONTINUOUS
 62
     7
100
AcDbCircle
 10
486.5
 20
353.5
 30
0.0
 40
1.000000000000966
100
AcDbArc
 50
0.0
 51
90.00000000000001
  0
LINE
  5
353
330
1F
100
AcDbEntity
  8
LAY-10
  6
CONTINUOUS
 62
     7
100
AcDbLine
 10
487.3660254037856
 20
354.0
 30
0.0
 11
492.5003350000001
 21
354.0
 31
0.0
  0
LINE
  5
354
330
1F
100
AcDbEntity
  8
LAY-10
  6
CONTINUOUS
 62
     7
100
AcDbLine
 10
257.4996650000005
 20
354.0000000000002
 30
0.0
 11
257.4996650000005
 21
359.0000000000005
 31
0.0
  0
ARC
  5
355
330
1F
100
AcDbEntity
  8
LAY-10
  6
CONTINUOUS
 62
     7
100
AcDbCircle
 10
266.4996650000005
 20
359.0000000000005
 30
0.0
 40
1.0
100
AcDbArc
 50
0.0
 51
90.00000000000001
  0
LINE
  5
356
330
1F
100
AcDbEntity
  8
LAY-10
  6
CONTINUOUS
 62
     7
100
AcDbLine
 10
267.4996650000004
 20
359.0000000000005
 30
0.0
 11
267.4996650000004
 21
355.5000000000002
 31
0.0
  0
LINE
  5
357
330
1F
100
AcDbEntity
  8
LAY-10
  6
CONTINUOUS
 62
     7
100
AcDbLine
 10
270.4996650000004
 20
352.5000000000002
 30
0.0
 11
270.4996650000004
 21
353.5000000000005
 31
0.0
  0
LINE
  5
358
330
1F
100
AcDbEntity
  8
LAY-10
  6
CONTINUOUS
 62
     7
100
AcDbLine
 10
270.4996650000004
 20
353.5000000000005
 30
0.0
 11
274.4996650000004
 21
353.5000000000005
 31
0.0
  0
LINE
  5
359
330
1F
100
AcDbEntity
  8
LAY-10
  6
CONTINUOUS
 62
     7
100
AcDbLine
 10
274.4996650000004
 20
353.5000000000005
 30
0.0
 11
274.4996650000004
 21
354.5000000000005
 31
0.0
  0
LINE
  5
35A
330
1F
100
AcDbEntity
  8
LAY-10
  6
CONTINUOUS
 62
     7
100
AcDbLine
 10
266.4996650000005
 20
359.0000000000005
 30
0.0
 11
258.4996650000004
 21
359.0000000000005
 31
0.0
  0
LINE
  5
35B
330
1F
100
AcDbEntity
  8
LAY-10
  6
CONTINUOUS
 62
     7
100
AcDbLine
 10
258.4996650000004
 20
359.0000000000005
 30
0.0
 11
258.4996650000004
 21
354.0000000000002
 31
0.0
  0
ARC
  5
35C
330
1F
100
AcDbEntity
  8
LAY-10
  6
CONTINUOUS
 62
     7
100
AcDbCircle
 10
267.4996650000004
 20
355.5000000000002
 30
0.0
 40
1.0
100
AcDbArc
 50
180.0
 51
269.9999999999968
  0
LINE
  5
35D
330
1F
100
AcDbEntity
  8
LAY-10
  6
CONTINUOUS
 62
     7
100
AcDbLine
 10
266.4996650000005
 20
355.5000000000002
 30
0.0
 11
266.4996650000005
 21
359.0000000000005
 31
0.0
  0
ARC
  5
35E
330
1F
100
AcDbEntity
  8
LAY-10
  6
CONTINUOUS
 62
     7
100
AcDbCircle
 10
258.4996650000004
 20
359.0000000000005
 30
0.0
 40
1.0
100
AcDbArc
 50
90.00000000000001
 51
180.0
  0
LINE
  5
35F
330
1F
100
AcDbEntity
  8
LAY-10
  6
CONTINUOUS
 62
     7
100
AcDbLine
 10
268.4996650000004
 20
358.5000000000002
 30
0.0
 11
268.4996650000004
 21
355.5000000000002
 31
0.0
  0
ARC
  5
360
330
1F
100
AcDbEntity
  8
LAY-10
  6
CONTINUOUS
 62
     7
100
AcDbCircle
 10
274.4996650000004
 20
354.5000000000005
 30
0.0
 40
1.0
100
AcDbArc
 50
0.0
 51
90.00000000000001
  0
ARC
  5
361
330
1F
100
AcDbEntity
  8
LAY-10
  6
CONTINUOUS
 62
     7
100
AcDbCircle
 10
274.4996650000004
 20
353.5000000000005
 30
0.0
 40
1.0
100
AcDbArc
 50
270.0
 51
0.0
  0
LINE
  5
362
330
1F
100
AcDbEntity
  8
LAY-10
  6
CONTINUOUS
 62
     7
100
AcDbLine
 10
275.4996650000005
 20
354.5000000000005
 30
0.0
 11
275.4996650000005
 21
353.5000000000005
 31
0.0
  0
LINE
  5
363
330
1F
100
AcDbEntity
  8
LAY-10
  6
CONTINUOUS
 62
     7
100
AcDbLine
 10
263.5000000000006
 20
353.5000000000005
 30
0.0
 11
270.4996650000004
 21
353.5000000000005
 31
0.0
  0
LINE
  5
364
330
1F
100
AcDbEntity
  8
LAY-10
  6
CONTINUOUS
 62
     7
100
AcDbLine
 10
274.4996650000004
 20
354.5000000000005
 30
0.0
 11
263.5000000000006
 21
354.5000000000005
 31
0.0
  0
ARC
  5
365
330
1F
100
AcDbEntity
  8
LAY-10
  6
CONTINUOUS
 62
     7
100
AcDbCircle
 10
263.5000000000006
 20
353.5000000000002
 30
0.0
 40
1.000000000000966
100
AcDbArc
 50
90.00000000000001
 51
180.0
  0
LINE
  5
366
330
1F
100
AcDbEntity
  8
LAY-10
  6
CONTINUOUS
 62
     7
100
AcDbLine
 10
262.633974596215
 20
354.0000000000002
 30
0.0
 11
257.4996650000005
 21
354.0000000000002
 31
0.0
  0
LINE
  5
367
330
1F
100
AcDbEntity
  8
LAY-10
  6
CONTINUOUS
 62
     7
100
AcDbLine
 10
492.5003349999802
 20
261.9999999999999
 30
0.0
 11
492.5003349999802
 21
263.0
 31
0.0
  0
LINE
  5
368
330
1F
100
AcDbEntity
  8
LAY-10
  6
CONTINUOUS
 62
     7
100
AcDbLine
 10
257.5003349999992
 20
261.9999999999999
 30
0.0
 11
492.5003349999802
 21
261.9999999999999
 31
0.0
  0
LINE
  5
369
330
1F
100
AcDbEntity
  8
LAY-10
  6
CONTINUOUS
 62
     7
100
AcDbLine
 10
486.5000000000002
 20
353.5000000000003
 30
0.0
 11
486.5000000000002
 21
261.9999999999999
 31
0.0
  0
LINE
  5
36A
330
1F
100
AcDbEntity
  8
LAY-10
  6
CONTINUOUS
 62
     7
100
AcDbLine
 10
487.5
 20
263.0
 30
0.0
 11
492.5003349999802
 21
263.0
 31
0.0
  0
LINE
  5
36B
330
1F
100
AcDbEntity
  8
LAY-10
  6
CONTINUOUS
 62
     7
100
AcDbLine
 10
487.5000000000001
 20
353.5
 30
0.0
 11
487.5000000000001
 21
263.0
 31
0.0
  0
LINE
  5
36C
330
1F
100
AcDbEntity
  8
LAY-10
  6
CONTINUOUS
 62
     7
100
AcDbLine
 10
257.4996650000202
 20
262.0000000000002
 30
0.0
 11
257.4996650000202
 21
263.0000000000002
 31
0.0
  0
LINE
  5
36D
330
1F
100
AcDbEntity
  8
LAY-10
  6
CONTINUOUS
 62
     7
100
AcDbLine
 10
263.5000000000003
 20
353.5000000000005
 30
0.0
 11
263.5000000000002
 21
262.0000000000002
 31
0.0
  0
LINE
  5
36E
330
1F
100
AcDbEntity
  8
LAY-10
  6
CONTINUOUS
 62
     7
100
AcDbLine
 10
262.5000000000003
 20
263.0000000000002
 30
0.0
 11
257.4996650000202
 21
263.0000000000002
 31
0.0
  0
LINE
  5
36F
330
1F
100
AcDbEntity
  8
LAY-10
  6
CONTINUOUS
 62
     7
100
AcDbLine
 10
262.5000000000005
 20
353.5000000000002
 30
0.0
 11
262.5000000000002
 21
263.0000000000002
 31
0.0
  0
LINE
  5
370
330
1F
100
AcDbEntity
  8
LAY-10
  6
CONTINUOUS
 62
     7
100
AcDbLine
 10
773.0000000000005
 20
684.0000000000001
 30
0.0
 11
773.0000000000005
 21
516.0000000000003
 31
0.0
  0
LINE
  5
371
330
1F
100
AcDbEntity
  8
LAY-10
  6
CONTINUOUS
 62
     7
100
AcDbLine
 10
765.7468250000006
 20
652.927308
 30
0.0
 11
765.5664560000007
 21
651.5878300000003
 31
0.0
  0
LINE
  5
372
330
1F
100
AcDbEntity
  8
LAY-10
  6
CONTINUOUS
 62
     7
100
AcDbLine
 10
765.4321700000007
 20
650.5905740000001
 30
0.0
 11
765.1352730000003
 21
648.385721
 31
0.0
  0
ARC
  5
373
330
1F
100
AcDbEntity
  8
LAY-10
  6
CONTINUOUS
 62
     7
100
AcDbCircle
 10
766.2423530000005
 20
652.860583
 30
0.0
 40
0.5
100
AcDbArc
 50
39.48721400003225
 51
219.4872760000126
  0
LINE
  5
374
330
1F
100
AcDbEntity
  8
LAY-10
  6
CONTINUOUS
 62
     7
100
AcDbLine
 10
766.6282360000007
 20
653.1785360000001
 30
0.0
 11
769.5423270000002
 21
649.6418600000001
 31
0.0
  0
LINE
  5
375
330
1F
100
AcDbEntity
  8
LAY-10
  6
CONTINUOUS
 62
     7
100
AcDbLine
 10
765.8564700000004
 20
652.5426290000003
 30
0.0
 11
768.7705610000006
 21
649.0059540000002
 31
0.0
  0
LINE
  5
376
330
1F
100
AcDbEntity
  8
LAY-10
  6
CONTINUOUS
 62
     7
100
AcDbLine
 10
766.4388340000007
 20
650.573039
 30
0.0
 11
766.1263290000004
 21
648.2522700000003
 31
0.0
  0
ARC
  5
377
330
1F
100
AcDbEntity
  8
LAY-10
  6
CONTINUOUS
 62
     7
100
AcDbCircle
 10
768.1800000000001
 20
647.8500000000001
 30
0.0
 40
0.5
100
AcDbArc
 50
46.98721400002149
 51
226.9872759999963
  0
LINE
  5
378
330
1F
100
AcDbEntity
  8
LAY-10
  6
CONTINUOUS
 62
     7
100
AcDbLine
 10
767.8389191964784
 20
647.4843990601752
 30
0.0
 11
771.1897088200351
 21
644.3583455106215
 31
0.0
  0
LINE
  5
379
330
1F
100
AcDbEntity
  8
LAY-10
  6
CONTINUOUS
 62
     7
100
AcDbLine
 10
768.5210798638291
 20
648.2156005978053
 30
0.0
 11
771.8718694873857
 21
645.0895470482519
 31
0.0
  0
ARC
  5
37A
330
1F
100
AcDbEntity
  8
LAY-10
  6
CONTINUOUS
 62
     7
100
AcDbCircle
 10
770.1664667514901
 20
643.2615417514533
 30
0.0
 40
1.5
100
AcDbArc
 50
332.3545220000107
 51
46.98727600001191
  0
ARC
  5
37B
330
1F
100
AcDbEntity
  8
LAY-10
  6
CONTINUOUS
 62
     7
100
AcDbCircle
 10
770.1664667514901
 20
643.2615417514533
 30
0.0
 40
2.5
100
AcDbArc
 50
324.7133840000045
 51
46.98726900000896
  0
LINE
  5
37C
330
1F
100
AcDbEntity
  8
LAY-10
  6
CONTINUOUS
 62
     7
100
AcDbLine
 10
769.7573256694703
 20
642.697995
 30
0.0
 11
771.8368646694704
 21
638.6144280000001
 31
0.0
  0
LINE
  5
37D
330
1F
100
AcDbEntity
  8
LAY-10
  6
CONTINUOUS
 62
     7
100
AcDbLine
 10
770.6484326694703
 20
643.1517870000002
 30
0.0
 11
772.7279716694705
 21
639.06822
 31
0.0
  0
ARC
  5
37E
330
1F
100
AcDbEntity
  8
LAY-10
  6
CONTINUOUS
 62
     7
100
AcDbCircle
 10
770.5002026694702
 20
637.9337390000001
 30
0.0
 40
1.5
100
AcDbArc
 50
312.3545220000107
 51
26.98727599999632
  0
ARC
  5
37F
330
1F
100
AcDbEntity
  8
LAY-10
  6
CONTINUOUS
 62
     7
100
AcDbCircle
 10
770.5002026694702
 20
637.9337390000001
 30
0.0
 40
2.5
100
AcDbArc
 50
304.7133840000044
 51
26.98726900000896
  0
LINE
  5
380
330
1F
100
AcDbEntity
  8
LAY-10
  6
CONTINUOUS
 62
     7
100
AcDbLine
 10
768.9782526694702
 20
641.0410530000003
 30
0.0
 11
768.1535046694702
 21
638.7957170000001
 31
0.0
  0
ARC
  5
381
330
1F
100
AcDbEntity
  8
LAY-10
  6
CONTINUOUS
 62
     7
100
AcDbCircle
 10
770.5002026694702
 20
637.9337390000001
 30
0.0
 40
1.5
100
AcDbArc
 50
159.8309000000017
 51
261.9961189999952
  0
ARC
  5
382
330
1F
100
AcDbEntity
  8
LAY-10
  6
CONTINUOUS
 62
     7
100
AcDbCircle
 10
770.5002026694702
 20
637.9337390000001
 30
0.0
 40
2.5
100
AcDbArc
 50
159.8309299999921
 51
276.8622370000072
  0
ARC
  5
383
330
1F
100
AcDbEntity
  8
LAY-10
  6
CONTINUOUS
 62
     7
100
AcDbCircle
 10
770.5002026694702
 20
637.9337390000001
 30
0.0
 40
1.5
100
AcDbArc
 50
303.056101999999
 51
312.3545220000107
  0
ARC
  5
384
330
1F
100
AcDbEntity
  8
LAY-10
  6
CONTINUOUS
 62
     7
100
AcDbCircle
 10
770.5002026694702
 20
637.9337390000001
 30
0.0
 40
2.5
100
AcDbArc
 50
300.4019799999998
 51
304.7133840000044
  0
ARC
  5
385
330
1F
100
AcDbEntity
  8
LAY-10
  6
CONTINUOUS
 62
     7
100
AcDbCircle
 10
770.2028796694702
 20
632.5228910000003
 30
0.0
 40
0.5
100
AcDbArc
 50
26.98721399997485
 51
206.9872759999963
  0
LINE
  5
386
330
1F
100
AcDbEntity
  8
LAY-10
  6
CONTINUOUS
 62
     7
100
AcDbLine
 10
769.7573256694703
 20
632.2959950000002
 30
0.0
 11
771.8368646694704
 21
628.2124280000003
 31
0.0
  0
LINE
  5
387
330
1F
100
AcDbEntity
  8
LAY-10
  6
CONTINUOUS
 62
     7
100
AcDbLine
 10
770.6484326694703
 20
632.7497870000001
 30
0.0
 11
772.7279716694705
 21
628.6662200000002
 31
0.0
  0
LINE
  5
388
330
1F
100
AcDbEntity
  8
LAY-10
  6
CONTINUOUS
 62
     7
100
AcDbLine
 10
769.9193506694702
 20
630.300848
 30
0.0
 11
769.0921846694704
 21
628.048926
 31
0.0
  0
LINE
  5
389
330
1F
100
AcDbEntity
  8
LAY-10
  6
CONTINUOUS
 62
     7
100
AcDbLine
 10
768.9782526694702
 20
630.6390530000001
 30
0.0
 11
768.1535046694702
 21
628.3937170000003
 31
0.0
  0
LINE
  5
38A
330
1F
100
AcDbEntity
  8
LAY-10
  6
CONTINUOUS
 62
     7
100
AcDbLine
 10
769.7335396694704
 20
632.6952870000002
 30
0.0
 11
769.3806186694702
 21
631.7344750000001
 31
0.0
  0
ARC
  5
38B
330
1F
100
AcDbEntity
  8
LAY-10
  6
CONTINUOUS
 62
     7
100
AcDbCircle
 10
770.2028796694702
 20
637.7238910000002
 30
0.0
 40
0.5
100
AcDbArc
 50
26.98721400002149
 51
206.9872759999963
  0
LINE
  5
38C
330
1F
100
AcDbEntity
  8
LAY-10
  6
CONTINUOUS
 62
     7
100
AcDbLine
 10
769.7573256694703
 20
637.4969950000001
 30
0.0
 11
771.8368646694704
 21
633.4134280000002
 31
0.0
  0
LINE
  5
38D
330
1F
100
AcDbEntity
  8
LAY-10
  6
CONTINUOUS
 62
     7
100
AcDbLine
 10
770.6484326694703
 20
637.950787
 30
0.0
 11
772.7279716694705
 21
633.8672200000001
 31
0.0
  0
ARC
  5
38E
330
1F
100
AcDbEntity
  8
LAY-10
  6
CONTINUOUS
 62
     7
100
AcDbCircle
 10
770.5002026694702
 20
632.7327390000002
 30
0.0
 40
1.5
100
AcDbArc
 50
312.3545220000107
 51
26.98727599999632
  0
ARC
  5
38F
330
1F
100
AcDbEntity
  8
LAY-10
  6
CONTINUOUS
 62
     7
100
AcDbCircle
 10
770.5002026694702
 20
632.7327390000002
 30
0.0
 40
2.5
100
AcDbArc
 50
304.7133840000022
 51
26.98726899999962
  0
LINE
  5
390
330
1F
100
AcDbEntity
  8
LAY-10
  6
CONTINUOUS
 62
     7
100
AcDbLine
 10
769.9193506694702
 20
635.5018480000002
 30
0.0
 11
769.0921846694704
 21
633.2499260000003
 31
0.0
  0
ARC
  5
391
330
1F
100
AcDbEntity
  8
LAY-10
  6
CONTINUOUS
 62
     7
100
AcDbCircle
 10
770.5002026694702
 20
632.7327390000002
 30
0.0
 40
1.5
100
AcDbArc
 50
159.8309000000017
 51
261.9961189999952
  0
ARC
  5
392
330
1F
100
AcDbEntity
  8
LAY-10
  6
CONTINUOUS
 62
     7
100
AcDbCircle
 10
770.5002026694702
 20
632.7327390000002
 30
0.0
 40
2.5
100
AcDbArc
 50
159.8309300000004
 51
276.8622370000072
  0
ARC
  5
393
330
1F
100
AcDbEntity
  8
LAY-10
  6
CONTINUOUS
 62
     7
100
AcDbCircle
 10
770.5002026694702
 20
632.7327390000002
 30
0.0
 40
1.5
100
AcDbArc
 50
303.056101999999
 51
312.3545220000107
  0
ARC
  5
394
330
1F
100
AcDbEntity
  8
LAY-10
  6
CONTINUOUS
 62
     7
100
AcDbCircle
 10
770.5002026694702
 20
632.7327390000002
 30
0.0
 40
2.5
100
AcDbArc
 50
300.4019799999998
 51
304.7133840000022
  0
LINE
  5
395
330
1F
100
AcDbEntity
  8
LAY-10
  6
CONTINUOUS
 62
     7
100
AcDbLine
 10
769.7335396694704
 20
637.8962870000001
 30
0.0
 11
769.3806186694702
 21
636.935475
 31
0.0
  0
LINE
  5
396
330
1F
100
AcDbEntity
  8
LAY-10
  6
CONTINUOUS
 62
     7
100
AcDbLine
 10
767.6800017607317
 20
647.8514755149849
 30
0.0
 11
767.676171749324
 21
646.5534275256146
 31
0.0
  0
ARC
  5
397
330
1F
100
AcDbEntity
  8
LAY-10
  6
CONTINUOUS
 62
     7
100
AcDbCircle
 10
767.6129120000005
 20
648.0520930000002
 30
0.0
 40
1.5
100
AcDbArc
 50
172.330900000002
 51
306.9696822883539
  0
ARC
  5
398
330
1F
100
AcDbEntity
  8
LAY-10
  6
CONTINUOUS
 62
     7
100
AcDbCircle
 10
767.6129120000005
 20
648.0520930000002
 30
0.0
 40
2.5
100
AcDbArc
 50
172.3309300000001
 51
310.9963847683129
  0
LINE
  5
399
330
1F
100
AcDbEntity
  8
LAY-10
  6
CONTINUOUS
 62
     7
100
AcDbLine
 10
767.6732185436981
 20
645.5528204816887
 30
0.0
 11
767.6664781185735
 21
643.268918131031
 31
0.0
  0
LINE
  5
39A
330
1F
100
AcDbEntity
  8
LAY-10
  6
CONTINUOUS
 62
     7
100
AcDbLine
 10
768.6739175433261
 20
645.7884085615167
 30
0.0
 11
768.6664742550904
 21
643.2659680407547
 31
0.0
  0
ARC
  5
39B
330
1F
100
AcDbEntity
  8
LAY-10
  6
CONTINUOUS
 62
     7
100
AcDbCircle
 10
767.6129120000005
 20
648.0520930000002
 30
0.0
 40
2.5
100
AcDbArc
 50
334.1825599310467
 51
39.48726899999245
  0
ARC
  5
39C
330
1F
100
AcDbEntity
  8
LAY-10
  6
CONTINUOUS
 62
     7
100
AcDbCircle
 10
767.6129120000005
 20
648.0520930000002
 30
0.0
 40
1.5
100
AcDbArc
 50
346.5065107241676
 51
39.48727599999162
  0
ARC
  5
39D
330
1F
100
AcDbEntity
  8
LAY-10
  6
CONTINUOUS
 62
     7
100
AcDbCircle
 10
770.1664667514901
 20
643.2615417514533
 30
0.0
 40
1.5
100
AcDbArc
 50
311.6493894028611
 51
332.3545220000111
  0
ARC
  5
39E
330
1F
100
AcDbEntity
  8
LAY-10
  6
CONTINUOUS
 62
     7
100
AcDbCircle
 10
770.1664667514901
 20
643.2615417514533
 30
0.0
 40
2.5
100
AcDbArc
 50
305.722643081901
 51
324.7133840000052
  0
ARC
  5
39F
330
1F
100
AcDbEntity
  8
LAY-10
  6
CONTINUOUS
 62
     7
100
AcDbCircle
 10
770.1664667514901
 20
643.2615410713232
 30
0.0
 40
2.5
100
AcDbArc
 50
179.8309299999919
 51
282.6204708352991
  0
ARC
  5
3A0
330
1F
100
AcDbEntity
  8
LAY-10
  6
CONTINUOUS
 62
     7
100
AcDbCircle
 10
770.1664667514901
 20
643.2615410195332
 30
0.0
 40
1.5
100
AcDbArc
 50
179.8308999999877
 51
272.5593796193719
  0
LINE
  5
3A1
330
1F
100
AcDbEntity
  8
LAY-10
  6
CONTINUOUS
 62
     7
100
AcDbLine
 10
769.0099840712364
 20
635.9264401858027
 30
0.0
 11
768.1535046694702
 21
633.5947170000002
 31
0.0
  0
ARC
  5
3A2
330
1F
100
AcDbEntity
  8
LAY-10
  6
CONTINUOUS
 62
     7
100
AcDbCircle
 10
770.2028796694702
 20
642.9248910000002
 30
0.0
 40
0.5
100
AcDbArc
 50
26.98721400002149
 51
206.9872759999963
  0
LINE
  5
3A3
330
1F
100
AcDbEntity
  8
LAY-10
  6
CONTINUOUS
 62
     7
100
AcDbLine
 10
769.7335396694704
 20
643.0972870000002
 30
0.0
 11
769.3352350965787
 21
642.012920206046
 31
0.0
  0
LINE
  5
3A4
330
1F
100
AcDbEntity
  8
LAY-10
  6
CONTINUOUS
 62
     7
100
AcDbLine
 10
769.9445350341276
 20
640.7714112930128
 30
0.0
 11
769.0921846694704
 21
638.4509260000002
 31
0.0
  0
LINE
  5
3A5
330
1F
100
AcDbEntity
  8
LAY-10
  6
CONTINUOUS
 62
     7
100
AcDbLine
 10
768.0174086116962
 20
623.3123033257573
 30
0.0
 11
763.4349562445005
 21
623.3460412528759
 31
0.0
  0
LINE
  5
3A6
330
1F
100
AcDbEntity
  8
LAY-10
  6
CONTINUOUS
 62
     7
100
AcDbLine
 10
768.0100462692593
 20
622.3123312706497
 30
0.0
 11
763.4275943246821
 21
622.3460682914609
 31
0.0
  0
LINE
  5
3A7
330
1F
100
AcDbEntity
  8
LAY-10
  6
CONTINUOUS
 62
     7
100
AcDbLine
 10
763.5461650000004
 20
624.8844260000001
 30
0.0
 11
763.1002022285523
 21
626.3055971708873
 31
0.0
  0
ARC
  5
3A8
330
1F
100
AcDbEntity
  8
LAY-10
  6
CONTINUOUS
 62
     7
100
AcDbCircle
 10
763.4460000000005
 20
624.8460000000002
 30
0.0
 40
1.5
100
AcDbArc
 50
42.42180900000853
 51
145.4601109247508
  0
ARC
  5
3A9
330
1F
100
AcDbEntity
  8
LAY-10
  6
CONTINUOUS
 62
     7
100
AcDbCircle
 10
763.4460000000005
 20
624.8460000000002
 30
0.0
 40
2.5
100
AcDbArc
 50
42.42183899999663
 51
149.1221562231683
  0
LINE
  5
3AA
330
1F
100
AcDbEntity
  8
LAY-10
  6
CONTINUOUS
 62
     7
100
AcDbLine
 10
761.8948977562626
 20
626.806633017541
 30
0.0
 11
761.2199960000007
 21
628.9573790000002
 31
0.0
  0
LINE
  5
3AB
330
1F
100
AcDbEntity
  8
LAY-10
  6
CONTINUOUS
 62
     7
100
AcDbLine
 10
762.8003384978402
 20
627.2611855466256
 30
0.0
 11
762.1741220000004
 21
629.256784
 31
0.0
  0
ARC
  5
3AC
330
1F
100
AcDbEntity
  8
LAY-10
  6
CONTINUOUS
 62
     7
100
AcDbCircle
 10
763.4460000000005
 20
624.8460000000002
 30
0.0
 40
2.5
100
AcDbArc
 50
172.3314170067717
 51
269.5781779999999
  0
ARC
  5
3AD
330
1F
100
AcDbEntity
  8
LAY-10
  6
CONTINUOUS
 62
     7
100
AcDbCircle
 10
763.4460000000005
 20
624.8460000000002
 30
0.0
 40
1.5
100
AcDbArc
 50
185.1219738731149
 51
269.5781850000044
  0
ARC
  5
3AE
330
1F
100
AcDbEntity
  8
LAY-10
  6
CONTINUOUS
 62
     7
100
AcDbCircle
 10
770.2028796694702
 20
627.3218909999999
 30
0.0
 40
0.5
100
AcDbArc
 50
351.9872140000215
 51
171.9872759999963
  0
LINE
  5
3AF
330
1F
100
AcDbEntity
  8
LAY-10
  6
CONTINUOUS
 62
     7
100
AcDbLine
 10
769.7077610004269
 20
627.391587953281
 30
0.0
 11
769.0689818159947
 21
622.8537511283666
 31
0.0
  0
LINE
  5
3B0
330
1F
100
AcDbEntity
  8
LAY-10
  6
CONTINUOUS
 62
     7
100
AcDbLine
 10
770.6979975193617
 20
627.2521946202955
 30
0.0
 11
770.0592183349299
 21
622.7143577953813
 31
0.0
  0
ARC
  5
3B1
330
1F
100
AcDbEntity
  8
LAY-10
  6
CONTINUOUS
 62
     7
100
AcDbCircle
 10
767.5836252352879
 20
623.0628411690576
 30
0.0
 40
1.5
100
AcDbArc
 50
277.3545219999982
 51
351.9872760000119
  0
ARC
  5
3B2
330
1F
100
AcDbEntity
  8
LAY-10
  6
CONTINUOUS
 62
     7
100
AcDbCircle
 10
767.5836252352879
 20
623.0628411690576
 30
0.0
 40
2.5
100
AcDbArc
 50
269.7133840000023
 51
351.987269000009
  0
ARC
  5
3B3
330
1F
100
AcDbEntity
  8
LAY-10
  6
CONTINUOUS
 62
     7
100
AcDbCircle
 10
767.5836252352879
 20
623.0628411690576
 30
0.0
 40
2.5
100
AcDbArc
 50
124.8309299999931
 51
125.7900939999905
  0
LINE
  5
3B4
330
1F
100
AcDbEntity
  8
LAY-10
  6
CONTINUOUS
 62
     7
100
AcDbLine
 10
769.9173011323248
 20
627.7323119004641
 30
0.0
 11
769.077106050739
 21
627.1476879559804
 31
0.0
  0
ARC
  5
3B5
330
1F
100
AcDbEntity
  8
LAY-10
  6
CONTINUOUS
 62
     7
100
AcDbCircle
 10
767.5836252352879
 20
623.0628411690576
 30
0.0
 40
1.5
100
AcDbArc
 50
238.4090879999965
 51
277.3545219999982
  0
ARC
  5
3B6
330
1F
100
AcDbEntity
  8
LAY-10
  6
CONTINUOUS
 62
     7
100
AcDbCircle
 10
767.5739550863614
 20
623.0303156972524
 30
0.0
 40
2.466309782990536
100
AcDbArc
 50
246.5455118206876
 51
270.0838044975645
  0
ARC
  5
3B7
330
1F
100
AcDbEntity
  8
LAY-10
  6
CONTINUOUS
 62
     7
100
AcDbCircle
 10
768.0137271986328
 20
622.8123166337405
 30
0.0
 40
0.5
100
AcDbArc
 50
269.5781229999845
 51
89.57818500002517
  0
ARC
  5
3B8
330
1F
100
AcDbEntity
  8
LAY-10
  6
CONTINUOUS
 62
     7
100
AcDbCircle
 10
767.5836252352879
 20
623.0628411690576
 30
0.0
 40
1.5
100
AcDbArc
 50
209.4613809423093
 51
238.4090879999984
  0
ARC
  5
3B9
330
1F
100
AcDbEntity
  8
LAY-10
  6
CONTINUOUS
 62
     7
100
AcDbCircle
 10
767.5836252352879
 20
623.0628411690576
 30
0.0
 40
2.5
100
AcDbArc
 50
196.9721374059181
 51
246.6388900000088
  0
LINE
  5
3BA
330
1F
100
AcDbEntity
  8
LAY-10
  6
CONTINUOUS
 62
     7
100
AcDbLine
 10
768.2049659558751
 20
626.5408361649227
 30
0.0
 11
766.1544568267219
 21
625.1140548731746
 31
0.0
  0
ARC
  5
3BB
330
1F
100
AcDbEntity
  8
LAY-10
  6
CONTINUOUS
 62
     7
100
AcDbCircle
 10
767.5836252352879
 20
623.0628411690576
 30
0.0
 40
2.5
100
AcDbArc
 50
124.830930000008
 51
173.7779818816837
  0
LINE
  5
3BC
330
1F
100
AcDbEntity
  8
LAY-10
  6
CONTINUOUS
 62
     7
100
AcDbLine
 10
768.776937460527
 20
625.7205634094937
 30
0.0
 11
766.72579750205
 21
624.293341709524
 31
0.0
  0
ARC
  5
3BD
330
1F
100
AcDbEntity
  8
LAY-10
  6
CONTINUOUS
 62
     7
100
AcDbCircle
 10
767.5836252352879
 20
623.0628411690576
 30
0.0
 40
1.5
100
AcDbArc
 50
124.8817882723696
 51
169.881468558409
  0
LINE
  5
3BE
330
1F
100
AcDbEntity
  8
LAY-10
  6
CONTINUOUS
 62
     7
100
AcDbLine
 10
766.8717944304111
 20
623.3207378155582
 30
0.0
 11
766.3404478523739
 21
623.9021921055621
 31
0.0
  0
LINE
  5
3BF
330
1F
100
AcDbEntity
  8
LAY-10
  6
CONTINUOUS
 62
     7
100
AcDbLine
 10
765.654442676807
 20
624.6528898022927
 30
0.0
 11
764.553297822054
 21
625.8578762013337
 31
0.0
  0
LINE
  5
3C0
330
1F
100
AcDbEntity
  8
LAY-10
  6
CONTINUOUS
 62
     7
100
AcDbLine
 10
768.3820723298784
 20
623.1504317979783
 30
0.0
 11
767.0998263008524
 21
624.5535979713449
 31
0.0
  0
LINE
  5
3C1
330
1F
100
AcDbEntity
  8
LAY-10
  6
CONTINUOUS
 62
     7
100
AcDbLine
 10
766.419279146989
 20
625.2983230272746
 30
0.0
 11
765.2914956250114
 21
626.5324603559128
 31
0.0
  0
ARC
  5
3C2
330
1F
100
AcDbEntity
  8
LAY-10
  6
CONTINUOUS
 62
     7
100
AcDbCircle
 10
770.5002026694702
 20
627.5317390000002
 30
0.0
 40
1.5
100
AcDbArc
 50
159.8309000000017
 51
231.3159358599805
  0
ARC
  5
3C3
330
1F
100
AcDbEntity
  8
LAY-10
  6
CONTINUOUS
 62
     7
100
AcDbCircle
 10
770.5002026694702
 20
627.5317390000002
 30
0.0
 40
2.5
100
AcDbArc
 50
159.8309300000004
 51
244.1648675141415
  0
ARC
  5
3C4
330
1F
100
AcDbEntity
  8
LAY-10
  6
CONTINUOUS
 62
     7
100
AcDbCircle
 10
770.5002026694702
 20
627.5317390000002
 30
0.0
 40
1.5
100
AcDbArc
 50
270.52717658322
 51
26.98727599999638
  0
ARC
  5
3C5
330
1F
100
AcDbEntity
  8
LAY-10
  6
CONTINUOUS
 62
     7
100
AcDbCircle
 10
770.5002026694702
 20
627.5317390000002
 30
0.0
 40
2.5
100
AcDbArc
 50
267.3771354066135
 51
26.98726899999962
  0
LINE
  5
3C6
330
1F
100
AcDbEntity
  8
LAY-10
  6
CONTINUOUS
 62
     7
100
AcDbLine
 10
772.0000000000005
 20
505.0000000000001
 30
0.0
 11
773.0000000000005
 21
505.0000000000001
 31
0.0
  0
LINE
  5
3C7
330
1F
100
AcDbEntity
  8
LAY-10
  6
CONTINUOUS
 62
     7
100
AcDbLine
 10
773.0000000000005
 20
505.0000000000001
 30
0.0
 11
773.0000000000005
 21
516.0000000000003
 31
0.0
  0
LINE
  5
3C8
330
1F
100
AcDbEntity
  8
LAY-10
  6
CONTINUOUS
 62
     7
100
AcDbLine
 10
773.0000000000005
 20
695.0000000000002
 30
0.0
 11
773.0000000000005
 21
684.0000000000001
 31
0.0
  0
LINE
  5
3C9
330
1F
100
AcDbEntity
  8
LAY-10
  6
CONTINUOUS
 62
     7
100
AcDbLine
 10
772.0000000000005
 20
695.0000000000002
 30
0.0
 11
773.0000000000005
 21
695.0000000000002
 31
0.0
  0
LINE
  5
3CA
330
1F
100
AcDbEntity
  8
LAY-10
  6
CONTINUOUS
 62
     7
100
AcDbLine
 10
773.0000000000005
 20
511.0000000000003
 30
0.0
 11
681.5000000000003
 21
511.0000000000003
 31
0.0
  0
LINE
  5
3CB
330
1F
100
AcDbEntity
  8
LAY-10
  6
CONTINUOUS
 62
     7
100
AcDbLine
 10
772.0000000000005
 20
510.0
 30
0.0
 11
772.0000000000005
 21
505.0000000000001
 31
0.0
  0
LINE
  5
3CC
330
1F
100
AcDbEntity
  8
LAY-10
  6
CONTINUOUS
 62
     7
100
AcDbLine
 10
681.5000000000003
 20
510.9999999999999
 30
0.0
 11
681.5000000000003
 21
518.0000000000002
 31
0.0
  0
LINE
  5
3CD
330
1F
100
AcDbEntity
  8
LAY-10
  6
CONTINUOUS
 62
     7
100
AcDbLine
 10
680.5000000000005
 20
522.0000000000003
 30
0.0
 11
680.5000000000005
 21
510.9999999999999
 31
0.0
  0
ARC
  5
3CE
330
1F
100
AcDbEntity
  8
LAY-10
  6
CONTINUOUS
 62
     7
100
AcDbCircle
 10
681.5
 20
510.9999999999999
 30
0.0
 40
1.0
100
AcDbArc
 50
180.0
 51
270.0
  0
LINE
  5
3CF
330
1F
100
AcDbEntity
  8
LAY-10
  6
CONTINUOUS
 62
     7
100
AcDbLine
 10
681.5
 20
510.0000000000002
 30
0.0
 11
772.0000000000005
 21
510.0000000000002
 31
0.0
  0
LINE
  5
3D0
330
1F
100
AcDbEntity
  8
LAY-10
  6
CONTINUOUS
 62
     7
100
AcDbLine
 10
681.0000000000007
 20
506.0000000000002
 30
0.0
 11
681.0000000000007
 21
510.1339745962151
 31
0.0
  0
LINE
  5
3D1
330
1F
100
AcDbEntity
  8
LAY-10
  6
CONTINUOUS
 62
     7
100
AcDbLine
 10
743.2500000000007
 20
689.0000000000001
 30
0.0
 11
743.2500000000007
 21
688.0
 31
0.0
  0
LINE
  5
3D2
330
1F
100
AcDbEntity
  8
LAY-10
  6
CONTINUOUS
 62
     7
100
AcDbLine
 10
708.2500000000005
 20
689.0000000000001
 30
0.0
 11
708.2500000000005
 21
688.0
 31
0.0
  0
LINE
  5
3D3
330
1F
100
AcDbEntity
  8
LAY-10
  6
CONTINUOUS
 62
     7
100
AcDbLine
 10
708.2500000000005
 20
688.0
 30
0.0
 11
717.8127460000005
 21
688.0
 31
0.0
  0
LINE
  5
3D4
330
1F
100
AcDbEntity
  8
LAY-10
  6
CONTINUOUS
 62
     7
100
AcDbLine
 10
743.2500000000007
 20
688.0
 30
0.0
 11
733.6872540000006
 21
688.0
 31
0.0
  0
LINE
  5
3D5
330
1F
100
AcDbEntity
  8
LAY-10
  6
CONTINUOUS
 62
     7
100
AcDbLine
 10
773.0000000000005
 20
689.0000000000001
 30
0.0
 11
681.5000000000005
 21
689.0000000000001
 31
0.0
  0
POLYLINE
  5
3D6
330
1F
100
AcDbEntity
  8
LAY-10
  6
CONTINUOUS
 62
     7
100
AcDb2dPolyline
 66
     1
 10
0.0
 20
0.0
 30
0.0
 70
   128
  0
VERTEX
  5
3D7
330
3D6
100
AcDbEntity
  8
LAY-10
  6
CONTINUOUS
 62
     7
100
AcDbVertex
100
AcDb2dVertex
 10
744.0201418651496
 20
679.1760002863444
 30
0.0
  0
VERTEX
  5
3D8
330
3D6
100
AcDbEntity
  8
LAY-10
  6
CONTINUOUS
 62
     7
100
AcDbVertex
100
AcDb2dVertex
 10
743.6137410005078
 20
680.1041242948559
 30
0.0
  0
VERTEX
  5
3D9
330
3D6
100
AcDbEntity
  8
LAY-10
  6
CONTINUOUS
 62
     7
100
AcDbVertex
100
AcDb2dVertex
 10
742.9334413125849
 20
681.0411170702504
 30
0.0
  0
VERTEX
  5
3DA
330
3D6
100
AcDbEntity
  8
LAY-10
  6
CONTINUOUS
 62
     7
100
AcDbVertex
100
AcDb2dVertex
 10
742.0053868928443
 20
681.950970235787
 30
0.0
  0
VERTEX
  5
3DB
330
3D6
100
AcDbEntity
  8
LAY-10
  6
CONTINUOUS
 62
     7
100
AcDbVertex
100
AcDb2dVertex
 10
740.8652397706131
 20
682.7987190256964
 30
0.0
  0
VERTEX
  5
3DC
330
3D6
100
AcDbEntity
  8
LAY-10
  6
CONTINUOUS
 62
     7
100
AcDbVertex
100
AcDb2dVertex
 10
739.5568180356456
 20
683.5517850535347
 30
0.0
  0
VERTEX
  5
3DD
330
3D6
100
AcDbEntity
  8
LAY-10
  6
CONTINUOUS
 62
     7
100
AcDbVertex
100
AcDb2dVertex
 10
738.1304015030354
 20
684.1812272496761
 30
0.0
  0
VERTEX
  5
3DE
330
3D6
100
AcDbEntity
  8
LAY-10
  6
CONTINUOUS
 62
     7
100
AcDbVertex
100
AcDb2dVertex
 10
736.6408075162541
 20
684.6628583052415
 30
0.0
  0
VERTEX
  5
3DF
330
3D6
100
AcDbEntity
  8
LAY-10
  6
CONTINUOUS
 62
     7
100
AcDbVertex
100
AcDb2dVertex
 10
735.1452805287541
 20
684.9781681715294
 30
0.0
  0
VERTEX
  5
3E0
330
3D6
100
AcDbEntity
  8
LAY-10
  6
CONTINUOUS
 62
     7
100
AcDbVertex
100
AcDb2dVertex
 10
734.6464571083213
 20
685.0450481877823
 30
0.0
  0
SEQEND
  5
3E1
330
3D6
100
AcDbEntity
  8
LAY-10
  6
CONTINUOUS
 62
     7
  0
POLYLINE
  5
3E2
330
1F
100
AcDbEntity
  8
LAY-10
  6
CONTINUOUS
 62
     7
100
AcDb2dPolyline
 66
     1
 10
0.0
 20
0.0
 30
0.0
 70
   128
  0
VERTEX
  5
3E3
330
3E2
100
AcDbEntity
  8
LAY-10
  6
CONTINUOUS
 62
     7
100
AcDbVertex
100
AcDb2dVertex
 10
744.9958464964652
 20
679.1778060836587
 30
0.0
  0
VERTEX
  5
3E4
330
3E2
100
AcDbEntity
  8
LAY-10
  6
CONTINUOUS
 62
     7
100
AcDbVertex
100
AcDb2dVertex
 10
744.8059761500265
 20
679.8511730303056
 30
0.0
  0
VERTEX
  5
3E5
330
3E2
100
AcDbEntity
  8
LAY-10
  6
CONTINUOUS
 62
     7
100
AcDbVertex
100
AcDb2dVertex
 10
744.2743288149056
 20
680.8548417586692
 30
0.0
  0
VERTEX
  5
3E6
330
3E2
100
AcDbEntity
  8
LAY-10
  6
CONTINUOUS
 62
     7
100
AcDbVertex
100
AcDb2dVertex
 10
743.5060493008565
 20
681.8427116737623
 30
0.0
  0
VERTEX
  5
3E7
330
3E2
100
AcDbEntity
  8
LAY-10
  6
CONTINUOUS
 62
     7
100
AcDbVertex
100
AcDb2dVertex
 10
742.5244819423561
 20
682.7847684581369
 30
0.0
  0
VERTEX
  5
3E8
330
3E2
100
AcDbEntity
  8
LAY-10
  6
CONTINUOUS
 62
     7
100
AcDbVertex
100
AcDb2dVertex
 10
741.3594511031982
 20
683.6523872906712
 30
0.0
  0
VERTEX
  5
3E9
330
3E2
100
AcDbEntity
  8
LAY-10
  6
CONTINUOUS
 62
     7
100
AcDbVertex
100
AcDb2dVertex
 10
740.0463549602553
 20
684.4192054129709
 30
0.0
  0
VERTEX
  5
3EA
330
3E2
100
AcDbEntity
  8
LAY-10
  6
CONTINUOUS
 62
     7
100
AcDbVertex
100
AcDb2dVertex
 10
738.6250922396373
 20
685.0619246022563
 30
0.0
  0
VERTEX
  5
3EB
330
3E2
100
AcDbEntity
  8
LAY-10
  6
CONTINUOUS
 62
     7
100
AcDbVertex
100
AcDb2dVertex
 10
737.1388467587583
 20
685.5610153496065
 30
0.0
  0
VERTEX
  5
3EC
330
3E2
100
AcDbEntity
  8
LAY-10
  6
CONTINUOUS
 62
     7
100
AcDbVertex
100
AcDb2dVertex
 10
735.6327776156953
 20
685.9013138441304
 30
0.0
  0
VERTEX
  5
3ED
330
3E2
100
AcDbEntity
  8
LAY-10
  6
CONTINUOUS
 62
     7
100
AcDbVertex
100
AcDb2dVertex
 10
735.278919339799
 20
685.9573105148238
 30
0.0
  0
SEQEND
  5
3EE
330
3E2
100
AcDbEntity
  8
LAY-10
  6
CONTINUOUS
 62
     7
  0
LINE
  5
3EF
330
1F
100
AcDbEntity
  8
LAY-10
  6
CONTINUOUS
 62
     7
100
AcDbLine
 10
743.5862460000003
 20
678.087707
 30
0.0
 11
744.0277268021812
 21
677.6676110855611
 31
0.0
  0
LINE
  5
3F0
330
1F
100
AcDbEntity
  8
LAY-10
  6
CONTINUOUS
 62
     7
100
AcDbLine
 10
742.0669590000005
 20
678.1530150000002
 30
0.0
 11
743.4782575718751
 21
676.8100780613089
 31
0.0
  0
LINE
  5
3F1
330
1F
100
AcDbEntity
  8
LAY-10
  6
CONTINUOUS
 62
     7
100
AcDbLine
 10
744.1934068327529
 20
676.1295709122421
 30
0.0
 11
745.3867350000005
 21
674.9940450000001
 31
0.0
  0
LINE
  5
3F2
330
1F
100
AcDbEntity
  8
LAY-10
  6
CONTINUOUS
 62
     7
100
AcDbLine
 10
744.7908543066695
 20
676.9414482011999
 30
0.0
 11
746.0760780000005
 21
675.7184800000002
 31
0.0
  0
POLYLINE
  5
3F3
330
1F
100
AcDbEntity
  8
LAY-10
  6
CONTINUOUS
 62
     7
100
AcDb2dPolyline
 66
     1
 10
0.0
 20
0.0
 30
0.0
 70
   128
  0
VERTEX
  5
3F4
330
3F3
100
AcDbEntity
  8
LAY-10
  6
CONTINUOUS
 62
     7
100
AcDbVertex
100
AcDb2dVertex
 10
732.0632166463016
 20
685.9762117175859
 30
0.0
  0
VERTEX
  5
3F5
330
3F3
100
AcDbEntity
  8
LAY-10
  6
CONTINUOUS
 62
     7
100
AcDbVertex
100
AcDb2dVertex
 10
731.4582618805508
 20
685.894119438427
 30
0.0
  0
VERTEX
  5
3F6
330
3F3
100
AcDbEntity
  8
LAY-10
  6
CONTINUOUS
 62
     7
100
AcDbVertex
100
AcDb2dVertex
 10
730.3144177968834
 20
685.549254239538
 30
0.0
  0
VERTEX
  5
3F7
330
3F3
100
AcDbEntity
  8
LAY-10
  6
CONTINUOUS
 62
     7
100
AcDbVertex
100
AcDb2dVertex
 10
729.3581073824109
 20
685.0459539426997
 30
0.0
  0
VERTEX
  5
3F8
330
3F3
100
AcDbEntity
  8
LAY-10
  6
CONTINUOUS
 62
     7
100
AcDbVertex
100
AcDb2dVertex
 10
728.618385955976
 20
684.3995102458218
 30
0.0
  0
VERTEX
  5
3F9
330
3F3
100
AcDbEntity
  8
LAY-10
  6
CONTINUOUS
 62
     7
100
AcDbVertex
100
AcDb2dVertex
 10
728.1177313087559
 20
683.6295658940229
 30
0.0
  0
VERTEX
  5
3FA
330
3F3
100
AcDbEntity
  8
LAY-10
  6
CONTINUOUS
 62
     7
100
AcDbVertex
100
AcDb2dVertex
 10
727.8713550860294
 20
682.75951503813
 30
0.0
  0
VERTEX
  5
3FB
330
3F3
100
AcDbEntity
  8
LAY-10
  6
CONTINUOUS
 62
     7
100
AcDbVertex
100
AcDb2dVertex
 10
727.8867424209815
 20
681.8157939117857
 30
0.0
  0
VERTEX
  5
3FC
330
3F3
100
AcDbEntity
  8
LAY-10
  6
CONTINUOUS
 62
     7
100
AcDbVertex
100
AcDb2dVertex
 10
728.1634271722513
 20
680.8270761782054
 30
0.0
  0
VERTEX
  5
3FD
330
3F3
100
AcDbEntity
  8
LAY-10
  6
CONTINUOUS
 62
     7
100
AcDbVertex
100
AcDb2dVertex
 10
728.6930014074975
 20
679.8234043019149
 30
0.0
  0
VERTEX
  5
3FE
330
3F3
100
AcDbEntity
  8
LAY-10
  6
CONTINUOUS
 62
     7
100
AcDbVertex
100
AcDb2dVertex
 10
729.4593738329448
 20
678.8352739428453
 30
0.0
  0
VERTEX
  5
3FF
330
3F3
100
AcDbEntity
  8
LAY-10
  6
CONTINUOUS
 62
     7
100
AcDbVertex
100
AcDb2dVertex
 10
730.4392601784299
 20
677.8927094821549
 30
0.0
  0
VERTEX
  5
400
330
3F3
100
AcDbEntity
  8
LAY-10
  6
CONTINUOUS
 62
     7
100
AcDbVertex
100
AcDb2dVertex
 10
731.6028858078525
 20
677.0243495668989
 30
0.0
  0
VERTEX
  5
401
330
3F3
100
AcDbEntity
  8
LAY-10
  6
CONTINUOUS
 62
     7
100
AcDbVertex
100
AcDb2dVertex
 10
732.9148945852102
 20
676.2565789000685
 30
0.0
  0
VERTEX
  5
402
330
3F3
100
AcDbEntity
  8
LAY-10
  6
CONTINUOUS
 62
     7
100
AcDbVertex
100
AcDb2dVertex
 10
734.3354224804551
 20
675.6127267073975
 30
0.0
  0
VERTEX
  5
403
330
3F3
100
AcDbEntity
  8
LAY-10
  6
CONTINUOUS
 62
     7
100
AcDbVertex
100
AcDb2dVertex
 10
735.8213071301736
 20
675.1123551279453
 30
0.0
  0
VERTEX
  5
404
330
3F3
100
AcDbEntity
  8
LAY-10
  6
CONTINUOUS
 62
     7
100
AcDbVertex
100
AcDb2dVertex
 10
737.327400982056
 20
674.7706684657536
 30
0.0
  0
VERTEX
  5
405
330
3F3
100
AcDbEntity
  8
LAY-10
  6
CONTINUOUS
 62
     7
100
AcDbVertex
100
AcDb2dVertex
 10
738.807941974761
 20
674.598048356862
 30
0.0
  0
VERTEX
  5
406
330
3F3
100
AcDbEntity
  8
LAY-10
  6
CONTINUOUS
 62
     7
100
AcDbVertex
100
AcDb2dVertex
 10
740.2179438269101
 20
674.5997392974988
 30
0.0
  0
VERTEX
  5
407
330
3F3
100
AcDbEntity
  8
LAY-10
  6
CONTINUOUS
 62
     7
100
AcDbVertex
100
AcDb2dVertex
 10
741.5145656113358
 20
674.7756906967056
 30
0.0
  0
VERTEX
  5
408
330
3F3
100
AcDbEntity
  8
LAY-10
  6
CONTINUOUS
 62
     7
100
AcDbVertex
100
AcDb2dVertex
 10
742.6584096950031
 20
675.1205558955946
 30
0.0
  0
VERTEX
  5
409
330
3F3
100
AcDbEntity
  8
LAY-10
  6
CONTINUOUS
 62
     7
100
AcDbVertex
100
AcDb2dVertex
 10
743.6147201094759
 20
675.6238561924328
 30
0.0
  0
VERTEX
  5
40A
330
3F3
100
AcDbEntity
  8
LAY-10
  6
CONTINUOUS
 62
     7
100
AcDbVertex
100
AcDb2dVertex
 10
744.3544411938904
 20
676.2702989496181
 30
0.0
  0
VERTEX
  5
40B
330
3F3
100
AcDbEntity
  8
LAY-10
  6
CONTINUOUS
 62
     7
100
AcDbVertex
100
AcDb2dVertex
 10
744.8550961831307
 20
677.0402442411093
 30
0.0
  0
VERTEX
  5
40C
330
3F3
100
AcDbEntity
  8
LAY-10
  6
CONTINUOUS
 62
     7
100
AcDbVertex
100
AcDb2dVertex
 10
745.1993037455666
 20
678.18857565756
 30
0.0
  0
SEQEND
  5
40D
330
3F3
100
AcDbEntity
  8
LAY-10
  6
CONTINUOUS
 62
     7
  0
POLYLINE
  5
40E
330
1F
100
AcDbEntity
  8
LAY-10
  6
CONTINUOUS
 62
     7
100
AcDb2dPolyline
 66
     1
 10
0.0
 20
0.0
 30
0.0
 70
   128
  0
VERTEX
  5
40F
330
40E
100
AcDbEntity
  8
LAY-10
  6
CONTINUOUS
 62
     7
100
AcDbVertex
100
AcDb2dVertex
 10
731.4027057485591
 20
684.871208685316
 30
0.0
  0
VERTEX
  5
410
330
40E
100
AcDbEntity
  8
LAY-10
  6
CONTINUOUS
 62
     7
100
AcDbVertex
100
AcDb2dVertex
 10
730.9370631744043
 20
684.7602225446412
 30
0.0
  0
VERTEX
  5
411
330
40E
100
AcDbEntity
  8
LAY-10
  6
CONTINUOUS
 62
     7
100
AcDbVertex
100
AcDb2dVertex
 10
730.015797214883
 20
684.3197460789034
 30
0.0
  0
VERTEX
  5
412
330
40E
100
AcDbEntity
  8
LAY-10
  6
CONTINUOUS
 62
     7
100
AcDbVertex
100
AcDb2dVertex
 10
729.343193900502
 20
683.7261337575175
 30
0.0
  0
VERTEX
  5
413
330
40E
100
AcDbEntity
  8
LAY-10
  6
CONTINUOUS
 62
     7
100
AcDbVertex
100
AcDb2dVertex
 10
728.945100689706
 20
683.0021990495725
 30
0.0
  0
VERTEX
  5
414
330
40E
100
AcDbEntity
  8
LAY-10
  6
CONTINUOUS
 62
     7
100
AcDbVertex
100
AcDb2dVertex
 10
728.8368156262823
 20
682.1757603717438
 30
0.0
  0
VERTEX
  5
415
330
40E
100
AcDbEntity
  8
LAY-10
  6
CONTINUOUS
 62
     7
100
AcDbVertex
100
AcDb2dVertex
 10
729.0225009370121
 20
681.2785796363196
 30
0.0
  0
VERTEX
  5
416
330
40E
100
AcDbEntity
  8
LAY-10
  6
CONTINUOUS
 62
     7
100
AcDbVertex
100
AcDb2dVertex
 10
729.4950191455373
 20
680.3451342457724
 30
0.0
  0
VERTEX
  5
417
330
40E
100
AcDbEntity
  8
LAY-10
  6
CONTINUOUS
 62
     7
100
AcDbVertex
100
AcDb2dVertex
 10
730.2362139371919
 20
679.4112953185922
 30
0.0
  0
VERTEX
  5
418
330
40E
100
AcDbEntity
  8
LAY-10
  6
CONTINUOUS
 62
     7
100
AcDbVertex
100
AcDb2dVertex
 10
731.2175998177319
 20
678.5129507739539
 30
0.0
  0
VERTEX
  5
419
330
40E
100
AcDbEntity
  8
LAY-10
  6
CONTINUOUS
 62
     7
100
AcDbVertex
100
AcDb2dVertex
 10
732.4014634852166
 20
677.6846222290513
 30
0.0
  0
VERTEX
  5
41A
330
40E
100
AcDbEntity
  8
LAY-10
  6
CONTINUOUS
 62
     7
100
AcDbVertex
100
AcDb2dVertex
 10
733.742308842584
 20
676.9581430525591
 30
0.0
  0
VERTEX
  5
41B
330
40E
100
AcDbEntity
  8
LAY-10
  6
CONTINUOUS
 62
     7
100
AcDbVertex
100
AcDb2dVertex
 10
735.188608581426
 20
676.3614302216105
 30
0.0
  0
VERTEX
  5
41C
330
40E
100
AcDbEntity
  8
LAY-10
  6
CONTINUOUS
 62
     7
100
AcDbVertex
100
AcDb2dVertex
 10
736.6847831574843
 20
675.917416047492
 30
0.0
  0
VERTEX
  5
41D
330
40E
100
AcDbEntity
  8
LAY-10
  6
CONTINUOUS
 62
     7
100
AcDbVertex
100
AcDb2dVertex
 10
738.173334117489
 20
675.6431642262179
 30
0.0
  0
VERTEX
  5
41E
330
40E
100
AcDbEntity
  8
LAY-10
  6
CONTINUOUS
 62
     7
100
AcDbVertex
100
AcDb2dVertex
 10
739.5970579734732
 20
675.5492130390668
 30
0.0
  0
VERTEX
  5
41F
330
40E
100
AcDbEntity
  8
LAY-10
  6
CONTINUOUS
 62
     7
100
AcDbVertex
100
AcDb2dVertex
 10
740.9012407580285
 20
675.6391724739221
 30
0.0
  0
VERTEX
  5
420
330
40E
100
AcDbEntity
  8
LAY-10
  6
CONTINUOUS
 62
     7
100
AcDbVertex
100
AcDb2dVertex
 10
742.0357643174825
 20
675.9095875904914
 30
0.0
  0
VERTEX
  5
421
330
40E
100
AcDbEntity
  8
LAY-10
  6
CONTINUOUS
 62
     7
100
AcDbVertex
100
AcDb2dVertex
 10
742.9570302770035
 20
676.3500640562291
 30
0.0
  0
VERTEX
  5
422
330
40E
100
AcDbEntity
  8
LAY-10
  6
CONTINUOUS
 62
     7
100
AcDbVertex
100
AcDb2dVertex
 10
743.6296335913847
 20
676.943676377615
 30
0.0
  0
VERTEX
  5
423
330
40E
100
AcDbEntity
  8
LAY-10
  6
CONTINUOUS
 62
     7
100
AcDbVertex
100
AcDb2dVertex
 10
744.0277268021805
 20
677.6676110855601
 30
0.0
  0
VERTEX
  5
424
330
40E
100
AcDbEntity
  8
LAY-10
  6
CONTINUOUS
 62
     7
100
AcDbVertex
100
AcDb2dVertex
 10
744.126723355763
 20
678.1215045872698
 30
0.0
  0
SEQEND
  5
425
330
40E
100
AcDbEntity
  8
LAY-10
  6
CONTINUOUS
 62
     7
  0
ARC
  5
426
330
1F
100
AcDbEntity
  8
LAY-10
  6
CONTINUOUS
 62
     7
100
AcDbCircle
 10
725.7500000000005
 20
689.0000000000001
 30
0.0
 40
6.999999999999999
100
AcDbArc
 50
296.8605339351894
 51
0.0
  0
ARC
  5
427
330
1F
100
AcDbEntity
  8
LAY-10
  6
CONTINUOUS
 62
     7
100
AcDbCircle
 10
725.7500000000005
 20
689.0000000000001
 30
0.0
 40
8.0
100
AcDbArc
 50
293.5203434067218
 51
352.8192440000011
  0
ARC
  5
428
330
1F
100
AcDbEntity
  8
LAY-10
  6
CONTINUOUS
 62
     7
100
AcDbCircle
 10
725.7500000000005
 20
689.0000000000001
 30
0.0
 40
6.999999999999999
100
AcDbArc
 50
180.0
 51
287.7008936555644
  0
ARC
  5
429
330
1F
100
AcDbEntity
  8
LAY-10
  6
CONTINUOUS
 62
     7
100
AcDbCircle
 10
725.7500000000005
 20
689.0000000000001
 30
0.0
 40
8.0
100
AcDbArc
 50
187.1807559999989
 51
286.5049755383363
  0
ARC
  5
42A
330
1F
100
AcDbEntity
  8
LAY-10
  6
CONTINUOUS
 62
     7
100
AcDbCircle
 10
733.7172781959258
 20
678.0525537941087
 30
0.0
 40
8.057536960875344
100
AcDbArc
 50
78.82471271305327
 51
93.65649611205185
  0
ARC
  5
42B
330
1F
100
AcDbEntity
  8
LAY-10
  6
CONTINUOUS
 62
     7
100
AcDbCircle
 10
733.7007759577114
 20
678.5789336311092
 30
0.0
 40
6.534902470473988
100
AcDbArc
 50
81.67937712036615
 51
98.81601999114173
  0
LINE
  5
42C
330
1F
100
AcDbEntity
  8
LAY-10
  6
CONTINUOUS
 62
     7
100
AcDbLine
 10
681.5000000000005
 20
689.0
 30
0.0
 11
681.5000000000005
 21
682.0000000000002
 31
0.0
  0
LINE
  5
42D
330
1F
100
AcDbEntity
  8
LAY-10
  6
CONTINUOUS
 62
     7
100
AcDbLine
 10
681.5
 20
690.0000000000002
 30
0.0
 11
772.0000000000005
 21
690.0000000000002
 31
0.0
  0
LINE
  5
42E
330
1F
100
AcDbEntity
  8
LAY-10
  6
CONTINUOUS
 62
     7
100
AcDbLine
 10
681.0000000000007
 20
694.0000000000002
 30
0.0
 11
681.0000000000007
 21
689.8660254037849
 31
0.0
  0
LINE
  5
42F
330
1F
100
AcDbEntity
  8
LAY-10
  6
CONTINUOUS
 62
     7
100
AcDbLine
 10
680.5000000000005
 20
678.0000000000001
 30
0.0
 11
680.5000000000005
 21
689.0
 31
0.0
  0
ARC
  5
430
330
1F
100
AcDbEntity
  8
LAY-10
  6
CONTINUOUS
 62
     7
100
AcDbCircle
 10
681.5
 20
689.0
 30
0.0
 40
1.0
100
AcDbArc
 50
90.00000000000001
 51
180.0
  0
LINE
  5
431
330
1F
100
AcDbEntity
  8
LAY-10
  6
CONTINUOUS
 62
     7
100
AcDbLine
 10
772.0000000000005
 20
690.0
 30
0.0
 11
772.0000000000005
 21
695.0000000000002
 31
0.0
  0
LINE
  5
432
330
1F
100
AcDbEntity
  8
LAY-10
  6
CENTER
 62
     2
100
AcDbLine
 10
375.0000000000001
 20
702.3389280000004
 30
0.0
 11
375.0000000000001
 21
498.338928
 31
0.0
  0
LINE
  5
433
330
1F
100
AcDbEntity
  8
LAY-10
  6
CENTER
 62
     2
100
AcDbLine
 10
358.8997400000001
 20
550.8789999999999
 30
0.0
 11
390.1040370000001
 21
550.8789999999999
 31
0.0
  0
LINE
  5
434
330
1F
100
AcDbEntity
  8
LAY-10
  6
CENTER
 62
     2
100
AcDbLine
 10
249.4176709999999
 20
600.0000000000001
 30
0.0
 11
504.4176709999999
 21
600.0000000000001
 31
0.0
  0
LINE
  5
435
330
1F
100
AcDbEntity
  8
LAY-10
  6
CENTER
 62
     2
100
AcDbLine
 10
375.0000000000002
 20
365.8334590000001
 30
0.0
 11
375.0000000000002
 21
255.733459
 31
0.0
  0
LINE
  5
436
330
1F
100
AcDbEntity
  8
LAY-10
  6
CENTER
 62
     2
100
AcDbLine
 10
669.1665410000004
 20
600.0000000000001
 30
0.0
 11
780.3
 21
600.0000000000001
 31
0.0
  0
DIMENSION
  5
438
330
1F
100
AcDbEntity
  8
LAY-20
  6
CONTINUOUS
 62
     4
100
AcDbDimension
  2
*D15
 10
492.5003350000001
 20
432.0
 30
0.0
 11
375.0003350000002
 21
439.5
 31
0.0
 70
   160
  3
ISO-25
100
AcDbAlignedDimension
 13
257.5003350000003
 23
359.0000000000003
 33
0.0
 14
492.5003350000001
 24
359.0000000000003
 34
0.0
100
AcDbRotatedDimension
1001
ACAD
1000
DSTYLE
1002
{
1070
   270
1070
     2
1070
     6
1000
EX_BNORM
1070
     7
1000
EX_BNORM
1070
    41
1040
7.5
1070
    42
1040
4.5
1070
    44
1040
4.5
1070
    73
1070
     0
1070
    74
1070
     0
1070
    75
1070
     0
1070
    76
1070
     0
1070
    77
1070
     1
1070
    78
1070
     8
1070
   140
1040
9.3543312
1070
   147
1040
0.0
1070
   173
1070
     1
1070
   176
1070
     4
1070
   177
1070
     4
1070
   178
1070
     7
1070
   271
1070
     1
1070
   277
1070
     2
1070
   279
1070
     2
1070
   280
1070
     0
1070
   287
1070
     5
1070
   340
1005
437
1002
}
  0
DIMENSION
  5
446
330
1F
100
AcDbEntity
  8
LAY-20
  6
CONTINUOUS
 62
     4
100
AcDbDimension
  2
*D16
 10
268.5003350000003
 20
411.0000000000001
 30
0.0
 11
375.0003350000003
 21
418.5000000000001
 31
0.0
 70
   160
  3
ISO-25
100
AcDbAlignedDimension
 13
481.5003350000002
 23
358.5
 33
0.0
 14
268.5003350000003
 24
358.5
 34
0.0
100
AcDbRotatedDimension
1001
ACAD
1000
DSTYLE
1002
{
1070
   270
1070
     2
1070
     6
1000
EX_BNORM
1070
     7
1000
EX_BNORM
1070
    41
1040
7.5
1070
    42
1040
4.5
1070
    44
1040
4.5
1070
    73
1070
     0
1070
    74
1070
     0
1070
    75
1070
     0
1070
    76
1070
     0
1070
    77
1070
     1
1070
    78
1070
     8
1070
   140
1040
9.3543312
1070
   147
1040
0.0
1070
   173
1070
     1
1070
   176
1070
     4
1070
   177
1070
     4
1070
   178
1070
     7
1070
   271
1070
     1
1070
   277
1070
     2
1070
   279
1070
     2
1070
   280
1070
     0
1070
   287
1070
     5
1070
   340
1005
437
1002
}
  0
DIMENSION
  5
453
330
1F
100
AcDbEntity
  8
LAY-20
  6
CONTINUOUS
 62
     4
100
AcDbDimension
  2
*D17
 10
486.5000000000002
 20
232.0000000000001
 30
0.0
 11
375.0000000000002
 21
239.5
 31
0.0
 70
   160
  3
ISO-25
100
AcDbAlignedDimension
 13
263.5000000000002
 23
261.9999999999999
 33
0.0
 14
486.5000000000002
 24
262.0
 34
0.0
100
AcDbRotatedDimension
1001
ACAD
1000
DSTYLE
1002
{
1070
   270
1070
     2
1070
     6
1000
EX_BNORM
1070
     7
1000
EX_BNORM
1070
    41
1040
7.5
1070
    42
1040
4.5
1070
    44
1040
4.5
1070
    73
1070
     0
1070
    74
1070
     0
1070
    75
1070
     0
1070
    76
1070
     0
1070
    77
1070
     1
1070
    78
1070
     8
1070
   140
1040
9.3543312
1070
   147
1040
0.0
1070
   173
1070
     1
1070
   176
1070
     4
1070
   177
1070
     4
1070
   178
1070
     7
1070
   271
1070
     1
1070
   277
1070
     2
1070
   279
1070
     2
1070
   280
1070
     0
1070
   287
1070
     5
1070
   340
1005
437
1002
}
  0
DIMENSION
  5
460
330
1F
100
AcDbEntity
  8
LAY-20
  6
CONTINUOUS
 62
     4
100
AcDbDimension
  2
*D18
 10
257.5003349999992
 20
210.9999999999999
 30
0.0
 11
375.0003349999897
 21
218.4999999999999
 31
0.0
 70
   160
  3
ISO-25
100
AcDbAlignedDimension
 13
492.5003349999802
 23
261.9999999999999
 33
0.0
 14
257.5003349999992
 24
261.9999999999999
 34
0.0
100
AcDbRotatedDimension
1001
ACAD
1000
DSTYLE
1002
{
1070
   270
1070
     2
1070
     6
1000
EX_BNORM
1070
     7
1000
EX_BNORM
1070
    41
1040
7.5
1070
    42
1040
4.5
1070
    44
1040
4.5
1070
    73
1070
     0
1070
    74
1070
     0
1070
    75
1070
     0
1070
    76
1070
     0
1070
    77
1070
     1
1070
    78
1070
     8
1070
   140
1040
9.3543312
1070
   147
1040
0.0
1070
   173
1070
     1
1070
   176
1070
     4
1070
   177
1070
     4
1070
   178
1070
     7
1070
   271
1070
     1
1070
   277
1070
     2
1070
   279
1070
     2
1070
   280
1070
     0
1070
   287
1070
     5
1070
   340
1005
437
1002
}
  0
DIMENSION
  5
46D
330
1F
100
AcDbEntity
  8
LAY-20
  6
CONTINUOUS
 62
     4
100
AcDbDimension
  2
*D19
 10
522.4999999999998
 20
261.9999999999999
 30
0.0
 11
514.9999999999998
 21
311.0
 31
0.0
 70
   160
  3
ISO-25
100
AcDbAlignedDimension
 13
491.5003350000001
 23
360.0
 33
0.0
 14
492.5003349999802
 24
261.9999999999999
 34
0.0
 50
90.0
100
AcDbRotatedDimension
1001
ACAD
1000
DSTYLE
1002
{
1070
   270
1070
     2
1070
     6
1000
EX_BNORM
1070
     7
1000
EX_BNORM
1070
    41
1040
7.5
1070
    42
1040
4.5
1070
    44
1040
4.5
1070
    73
1070
     0
1070
    74
1070
     0
1070
    75
1070
     0
1070
    76
1070
     0
1070
    77
1070
     1
1070
    78
1070
     8
1070
   140
1040
9.3543312
1070
   147
1040
0.0
1070
   173
1070
     1
1070
   176
1070
     4
1070
   177
1070
     4
1070
   178
1070
     7
1070
   271
1070
     1
1070
   277
1070
     2
1070
   279
1070
     2
1070
   280
1070
     0
1070
   287
1070
     5
1070
   340
1005
437
1002
}
  0
DIMENSION
  5
47A
330
1F
100
AcDbEntity
  8
LAY-20
  6
CONTINUOUS
 62
     4
100
AcDbDimension
  2
*D20
 10
624.0000000000007
 20
695.0
 30
0.0
 11
616.5000000000007
 21
600.0000000000001
 31
0.0
 70
   160
  3
ISO-25
100
AcDbAlignedDimension
 13
676.0000000000006
 23
505.0000000000002
 33
0.0
 14
676.0000000000006
 24
695.0
 34
0.0
 50
90.0
100
AcDbRotatedDimension
1001
ACAD
1000
DSTYLE
1002
{
1070
   270
1070
     2
1070
     6
1000
EX_BNORM
1070
     7
1000
EX_BNORM
1070
    41
1040
7.5
1070
    42
1040
4.5
1070
    44
1040
4.5
1070
    73
1070
     0
1070
    74
1070
     0
1070
    75
1070
     0
1070
    76
1070
     0
1070
    77
1070
     1
1070
    78
1070
     8
1070
   140
1040
9.3543312
1070
   147
1040
0.0
1070
   173
1070
     1
1070
   176
1070
     4
1070
   177
1070
     4
1070
   178
1070
     7
1070
   271
1070
     1
1070
   277
1070
     2
1070
   279
1070
     2
1070
   280
1070
     0
1070
   287
1070
     5
1070
   340
1005
437
1002
}
  0
DIMENSION
  5
487
330
1F
100
AcDbEntity
  8
LAY-20
  6
CONTINUOUS
 62
     4
100
AcDbDimension
  2
*D21
 10
645.0000000000008
 20
516.0000000000003
 30
0.0
 11
637.5000000000008
 21
600.0000000000002
 31
0.0
 70
   160
  3
ISO-25
100
AcDbAlignedDimension
 13
676.5000000000008
 23
684.0000000000001
 33
0.0
 14
676.5000000000008
 24
516.0000000000003
 34
0.0
 50
90.0
100
AcDbRotatedDimension
1001
ACAD
1000
DSTYLE
1002
{
1070
   270
1070
     2
1070
     6
1000
EX_BNORM
1070
     7
1000
EX_BNORM
1070
    41
1040
7.5
1070
    42
1040
4.5
1070
    44
1040
4.5
1070
    73
1070
     0
1070
    74
1070
     0
1070
    75
1070
     0
1070
    76
1070
     0
1070
    77
1070
     1
1070
    78
1070
     8
1070
   140
1040
9.3543312
1070
   147
1040
0.0
1070
   173
1070
     1
1070
   176
1070
     4
1070
   177
1070
     4
1070
   178
1070
     7
1070
   271
1070
     1
1070
   277
1070
     2
1070
   279
1070
     2
1070
   280
1070
     0
1070
   287
1070
     5
1070
   340
1005
437
1002
}
  0
DIMENSION
  5
494
330
1F
100
AcDbEntity
  8
LAY-20
  6
CONTINUOUS
 62
     4
100
AcDbDimension
  2
*D22
 10
803.0000000000002
 20
689.0000000000001
 30
0.0
 11
795.5000000000002
 21
600.0000000000002
 31
0.0
 70
   160
  3
ISO-25
100
AcDbAlignedDimension
 13
773.0000000000006
 23
511.0000000000004
 33
0.0
 14
773.0000000000006
 24
689.0000000000001
 34
0.0
 50
90.0
100
AcDbRotatedDimension
1001
ACAD
1000
DSTYLE
1002
{
1070
   270
1070
     2
1070
     6
1000
EX_BNORM
1070
     7
1000
EX_BNORM
1070
    41
1040
7.5
1070
    42
1040
4.5
1070
    44
1040
4.5
1070
    73
1070
     0
1070
    74
1070
     0
1070
    75
1070
     0
1070
    76
1070
     0
1070
    77
1070
     1
1070
    78
1070
     8
1070
   140
1040
9.3543312
1070
   147
1040
0.0
1070
   173
1070
     1
1070
   176
1070
     4
1070
   177
1070
     4
1070
   178
1070
     7
1070
   271
1070
     1
1070
   277
1070
     2
1070
   279
1070
     2
1070
   280
1070
     0
1070
   287
1070
     5
1070
   340
1005
437
1002
}
  0
DIMENSION
  5
4A1
330
1F
100
AcDbEntity
  8
LAY-20
  6
CONTINUOUS
 62
     4
100
AcDbDimension
  2
*D23
 10
824.0000000000002
 20
505.0000000000001
 30
0.0
 11
816.5000000000002
 21
600.0000000000002
 31
0.0
 70
   160
  3
ISO-25
100
AcDbAlignedDimension
 13
773.0000000000006
 23
695.0000000000002
 33
0.0
 14
773.0000000000006
 24
505.0000000000001
 34
0.0
 50
90.0
100
AcDbRotatedDimension
1001
ACAD
1000
DSTYLE
1002
{
1070
   270
1070
     2
1070
     6
1000
EX_BNORM
1070
     7
1000
EX_BNORM
1070
    41
1040
7.5
1070
    42
1040
4.5
1070
    44
1040
4.5
1070
    73
1070
     0
1070
    74
1070
     0
1070
    75
1070
     0
1070
    76
1070
     0
1070
    77
1070
     1
1070
    78
1070
     8
1070
   140
1040
9.3543312
1070
   147
1040
0.0
1070
   173
1070
     1
1070
   176
1070
     4
1070
   177
1070
     4
1070
   178
1070
     7
1070
   271
1070
     1
1070
   277
1070
     2
1070
   279
1070
     2
1070
   280
1070
     0
1070
   287
1070
     5
1070
   340
1005
437
1002
}
  0
DIMENSION
  5
4AE
330
1F
100
AcDbEntity
  8
LAY-20
  6
CONTINUOUS
 62
     4
100
AcDbDimension
  2
*D24
 10
482.5003350000001
 20
310.2500000000001
 30
0.0
 11
496.0003350000001
 21
317.7500000000001
 31
0.0
 70
   160
  3
ISO-25
100
AcDbAlignedDimension
 13
481.5003350000002
 23
310.2500000000001
 33
0.0
 14
482.5003350000001
 24
310.2500000000001
 34
0.0
100
AcDbRotatedDimension
1001
ACAD
1000
DSTYLE
1002
{
1070
   270
1070
     2
1070
     6
1000
EX_BNORM
1070
     7
1000
EX_BNORM
1070
    41
1040
7.5
1070
    42
1040
0.0
1070
    44
1040
0.0
1070
    73
1070
     1
1070
    74
1070
     1
1070
    75
1070
     1
1070
    76
1070
     1
1070
    77
1070
     1
1070
    78
1070
     8
1070
   140
1040
9.3543312
1070
   147
1040
0.0
1070
   173
1070
     1
1070
   176
1070
     4
1070
   177
1070
     4
1070
   178
1070
     7
1070
   271
1070
     1
1070
   277
1070
     2
1070
   279
1070
     2
1070
   280
1070
     0
1070
   287
1070
     5
1070
   340
1005
437
1002
}
  0
DIMENSION
  5
4BB
330
1F
100
AcDbEntity
  8
LAY-20
  6
CONTINUOUS
 62
     4
100
AcDbDimension
  2
*D25
 10
425.0000000000002
 20
358.5
 30
0.0
 11
434.4999999999999
 21
397.4999999999999
 31
0.0
 70
   160
  3
ISO-25
100
AcDbAlignedDimension
 13
425.0000000000002
 23
355.5
 33
0.0
 14
425.0000000000002
 24
358.5
 34
0.0
 50
90.0
100
AcDbRotatedDimension
1001
ACAD
1000
DSTYLE
1002
{
1070
   270
1070
     2
1070
     6
1000
EX_BNORM
1070
     7
1000
EX_BNORM
1070
    41
1040
7.5
1070
    42
1040
0.0
1070
    44
1040
0.0
1070
    73
1070
     1
1070
    74
1070
     1
1070
    75
1070
     1
1070
    76
1070
     1
1070
    77
1070
     1
1070
    78
1070
     8
1070
   140
1040
9.3543312
1070
   147
1040
0.0
1070
   173
1070
     1
1070
   176
1070
     4
1070
   177
1070
     4
1070
   178
1070
     7
1070
   271
1070
     1
1070
   277
1070
     2
1070
   279
1070
     2
1070
   280
1070
     0
1070
   287
1070
     5
1070
   340
1005
437
1002
}
  0
LINE
  5
4C8
330
1F
100
AcDbEntity
  8
LAY-20
  6
CONTINUOUS
 62
     4
100
AcDbLine
 10
425.0000000000002
 20
390.0
 30
0.0
 11
444.8
 21
390.0
 31
0.0
  0
LINE
  5
4C9
330
1F
100
AcDbEntity
  8
LAY-255
  6
CONTINUOUS
 62
     7
100
AcDbLine
 10
1155.0
 20
66.0
 30
0.0
 11
855.0
 21
66.0
 31
0.0
  0
LINE
  5
4CA
330
1F
100
AcDbEntity
  8
LAY-255
  6
CONTINUOUS
 62
     7
100
AcDbLine
 10
866.4000000000001
 20
48.0
 30
0.0
 11
890.4000000000001
 21
63.0
 31
0.0
  0
LINE
  5
4CB
330
1F
100
AcDbEntity
  8
LAY-255
  6
CONTINUOUS
 62
     7
100
AcDbLine
 10
890.4000000000001
 20
63.0
 30
0.0
 11
914.4000000000001
 21
48.0
 31
0.0
  0
LINE
  5
4CC
330
1F
100
AcDbEntity
  8
LAY-255
  6
CONTINUOUS
 62
     7
100
AcDbLine
 10
914.4000000000001
 20
48.0
 30
0.0
 11
890.4000000000001
 21
33.0
 31
0.0
  0
LINE
  5
4CD
330
1F
100
AcDbEntity
  8
LAY-255
  6
CONTINUOUS
 62
     7
100
AcDbLine
 10
890.4000000000001
 20
33.0
 30
0.0
 11
866.4000000000001
 21
48.0
 31
0.0
  0
LINE
  5
4CE
330
1F
100
AcDbEntity
  8
LAY-255
  6
CONTINUOUS
 62
     7
100
AcDbLine
 10
15.0
 20
30.0
 30
0.0
 11
1155.0
 21
30.0
 31
0.0
  0
LINE
  5
4CF
330
1F
100
AcDbEntity
  8
LAY-255
  6
CONTINUOUS
 62
     7
100
AcDbLine
 10
15.0
 20
840.0
 30
0.0
 11
1155.0
 21
840.0
 31
0.0
  0
LINE
  5
4D0
330
1F
100
AcDbEntity
  8
LAY-255
  6
CONTINUOUS
 62
     7
100
AcDbLine
 10
15.0
 20
30.0
 30
0.0
 11
15.0
 21
840.0
 31
0.0
  0
LINE
  5
4D1
330
1F
100
AcDbEntity
  8
LAY-255
  6
CONTINUOUS
 62
     7
100
AcDbLine
 10
1155.0
 20
30.0
 30
0.0
 11
1155.0
 21
840.0
 31
0.0
  0
LINE
  5
4D2
330
1F
100
AcDbEntity
  8
LAY-255
  6
CONTINUOUS
 62
     4
100
AcDbLine
 10
855.0
 20
84.0
 30
0.0
 11
1155.0
 21
84.0
 31
0.0
  0
LINE
  5
4D3
330
1F
100
AcDbEntity
  8
LAY-255
  6
CONTINUOUS
 62
     7
100
AcDbLine
 10
855.0
 20
30.0
 30
0.0
 11
855.0
 21
201.0
 31
0.0
  0
LINE
  5
4D4
330
1F
100
AcDbEntity
  8
LAY-255
  6
CONTINUOUS
 62
     4
100
AcDbLine
 10
1005.0
 20
84.0
 30
0.0
 11
1005.0
 21
66.0
 31
0.0
  0
LINE
  5
4D5
330
1F
100
AcDbEntity
  8
LAY-255
  6
CONTINUOUS
 62
     7
100
AcDbLine
 10
1155.0
 20
201.0
 30
0.0
 11
855.0
 21
201.0
 31
0.0
  0
LINE
  5
4D6
330
1F
100
AcDbEntity
  8
LAY-255
  6
CONTINUOUS
 62
     4
100
AcDbLine
 10
1149.0
 20
165.0
 30
0.0
 11
861.0
 21
165.0
 31
0.0
  0
LINE
  5
4D7
330
1F
100
AcDbEntity
  8
LAY-255
  6
CONTINUOUS
 62
     4
100
AcDbLine
 10
1149.0
 20
183.0
 30
0.0
 11
861.0
 21
183.0
 31
0.0
  0
POINT
  5
4D8
330
1F
100
AcDbEntity
  8
LAY-255
  6
CONTINUOUS
 62
     7
100
AcDbPoint
 10
867.0
 20
89.99999999999996
 30
0.0
  0
TEXT
  5
4D9
330
1F
100
AcDbEntity
  8
LAY-255
  6
CONTINUOUS
 62
     7
100
AcDbText
 10
882.1031250000001
 20
41.15625
 30
0.0
 40
15.46875
  1
S
 41
0.7582677563636363
  7
EXCADSTD
100
AcDbText
  0
TEXT
  5
4DA
330
1F
100
AcDbEntity
  8
LAY-255
  6
CONTINUOUS
 62
     7
100
AcDbText
 10
891.3140625000001
 20
41.24823113208
 30
0.0
 40
15.46875
  1
F
 41
0.7440945272727273
  7
EXCADSTD
100
AcDbText
  0
TEXT
  5
4DB
330
1F
100
AcDbEntity
  8
LAY-255
  6
CONTINUOUS
 62
     7
100
AcDbText
 10
924.4151318847657
 20
46.63125
 30
0.0
 40
15.46875
  1
福西鋳物株式会社
 41
1.342685605887664
  7
EXCADSTD
100
AcDbText
  0
TEXT
  5
4DC
330
1F
100
AcDbEntity
  8
LAY-255
  6
CONTINUOUS
 62
     7
100
AcDbText
 10
925.528125
 20
35.94375
 30
0.0
 40
5.15625
  1
ＦＵＫＵＮＩＳＨＩ
 41
1.204799226045263
  7
EXCADSTD
100
AcDbText
  0
TEXT
  5
4DD
330
1F
100
AcDbEntity
  8
LAY-255
  6
CONTINUOUS
 62
     7
100
AcDbText
 10
998.1123883928572
 20
35.94375
 30
0.0
 40
5.15625
  1
ＦＯＵＮＤＲＹ
 41
1.217206955080903
  7
EXCADSTD
100
AcDbText
  0
TEXT
  5
4DE
330
1F
100
AcDbEntity
  8
LAY-255
  6
CONTINUOUS
 62
     7
100
AcDbText
 10
1055.773445012019
 20
35.94375
 30
0.0
 40
5.15625
  1
ＣＯ.,ＬＴＤ.
 41
1.097167799789941
  7
EXCADSTD
100
AcDbText
  0
POINT
  5
4DF
330
1F
100
AcDbEntity
  8
LAY-255
  6
CONTINUOUS
 62
     7
100
AcDbPoint
 10
867.0
 20
150.0
 30
0.0
  0
TEXT
  5
4E0
330
1F
100
AcDbEntity
  8
LAY-255
  6
CONTINUOUS
 62
     7
100
AcDbText
 10
861.796875
 20
169.6875
 30
0.0
 40
10.3125
  1
型式
 41
1.056348480681818
  7
EXCADSTD
100
AcDbText
  0
TEXT
  5
4E1
330
1F
100
AcDbEntity
  8
LAY-255
  6
CONTINUOUS
 62
     7
100
AcDbText
 10
862.265625
 20
187.6875
 30
0.0
 40
10.3125
  1
品名
 41
0.978838634090909
  7
EXCADSTD
100
AcDbText
  0
POINT
  5
4E2
330
1F
100
AcDbEntity
  8
LAY-255
  6
CONTINUOUS
 62
     7
100
AcDbPoint
 10
900.0
 20
168.0
 30
0.0
  0
POINT
  5
4E3
330
1F
100
AcDbEntity
  8
LAY-255
  6
CONTINUOUS
 62
     7
100
AcDbPoint
 10
900.0
 20
186.0
 30
0.0
  0
POINT
  5
4E4
330
1F
100
AcDbEntity
  8
LAY-255
  6
CONTINUOUS
 62
     7
100
AcDbPoint
 10
867.0
 20
120.0
 30
0.0
  0
POINT
  5
4E5
330
1F
100
AcDbEntity
  8
LAY-255
  6
CONTINUOUS
 62
     7
100
AcDbPoint
 10
867.0
 20
135.0
 30
0.0
  0
POINT
  5
4E6
330
1F
100
AcDbEntity
  8
LAY-255
  6
CONTINUOUS
 62
     7
100
AcDbPoint
 10
867.0
 20
105.0
 30
0.0
  0
TEXT
  5
4E7
330
1F
100
AcDbEntity
  8
LAY-255
  6
CONTINUOUS
 62
     7
100
AcDbText
 10
902.25
 20
169.6875
 30
0.0
 40
10.3125
  1
ＳＦ－ＢＦＥ型
 41
1.002000827123696
  7
EXCADSTD
100
AcDbText
  0
TEXT
  5
4E8
330
1F
100
AcDbEntity
  8
LAY-255
  6
CONTINUOUS
 62
     7
100
AcDbText
 10
867.421875
 20
151.6875000000001
 30
0.0
 40
10.3125
  1
種別：散水栓ボックス
 41
1.016284949586777
  7
EXCADSTD
100
AcDbText
  0
TEXT
  5
4E9
330
1F
100
AcDbEntity
  8
LAY-255
  6
CONTINUOUS
 62
     7
100
AcDbText
 10
867.703125
 20
136.6875
 30
0.0
 40
10.3125
  1
用途：床埋設用
 41
1.015360838152012
  7
EXCADSTD
100
AcDbText
  0
TEXT
  5
4EA
330
1F
100
AcDbEntity
  8
LAY-255
  6
CONTINUOUS
 62
     7
100
AcDbText
 10
867.421875
 20
121.6875
 30
0.0
 40
10.3125
  1
材質：ステンレス鋼
 41
1.019934270655926
  7
EXCADSTD
100
AcDbText
  0
TEXT
  5
4EB
330
1F
100
AcDbEntity
  8
LAY-255
  6
CONTINUOUS
 62
     7
100
AcDbText
 10
900.796875
 20
187.6875
 30
0.0
 40
10.3125
  1
上水道用ボックス
 41
1.014398253506493
  7
EXCADSTD
100
AcDbText
  0
TEXT
  5
4EC
330
1F
100
AcDbEntity
  8
LAY-255
  6
CONTINUOUS
 62
     7
100
AcDbText
 10
867.703125
 20
106.6875
 30
0.0
 40
10.3125
  1
用途：使用バルブ１３～２０ｍｍ用
 41
1.011090216133163
  7
EXCADSTD
100
AcDbText
  0
TEXT
  5
4ED
330
1F
100
AcDbEntity
  8
LAY-255
  6
CONTINUOUS
 62
     7
100
AcDbText
 10
1011.31640625
 20
73.26562499999997
 30
0.0
 40
7.734375
  1
縮尺
 41
1.080708718181818
  7
EXCADSTD
100
AcDbText
  0
TEXT
  5
4EE
330
1F
100
AcDbEntity
  8
LAY-255
  6
CONTINUOUS
 62
     7
100
AcDbText
 10
861.45703125
 20
73.26562499999997
 30
0.0
 40
7.734375
  1
作成日
 41
1.000629973818182
  7
EXCADSTD
100
AcDbText
  0
TEXT
  5
4EF
330
1F
100
AcDbEntity
  8
LAY-255
  6
CONTINUOUS
 62
     7
100
AcDbText
 10
902.953125
 20
70.68749999999997
 30
0.0
 40
10.3125
  1
２０／０７／０８
 41
0.9739033132467532
  7
EXCADSTD
100
AcDbText
  0
TEXT
  5
4F0
330
1F
100
AcDbEntity
  8
LAY-255
  6
CONTINUOUS
 62
     7
100
AcDbText
 10
1044.84375
 20
70.68749999999997
 30
0.0
 40
10.3125
  1
１：３
 41
0.8844094952727272
  7
EXCADSTD
100
AcDbText
  0
ENDSEC
  0
SECTION
  2
OBJECTS
  0
DICTIONARY
  5
C
330
0
100
AcDbDictionary
  3
ACAD_GROUP
350
D
  3
ACAD_LAYOUT
350
1A
  3
ACAD_MATERIAL
350
43
  3
ACAD_MLEADERSTYLE
350
6B
  3
ACAD_MLINESTYLE
350
17
  3
ACAD_PLOTSETTINGS
350
19
  3
ACAD_SCALELIST
350
47
  3
ACAD_VISUALSTYLE
350
2A
  3
ACDBHEADERROUNDTRIPXREC
350
4F1
  3
ACDBVARIABLEDICTIONARY
350
512
  0
DICTIONARY
  5
51D
330
8
100
AcDbDictionary
280
     1
  3
ACAD_XREC_ROUNDTRIP
360
51E
  0
DICTIONARY
  5
D
102
{ACAD_REACTORS
330
C
102
}
330
C
100
AcDbDictionary
  0
DICTIONARY
  5
1A
102
{ACAD_REACTORS
330
C
102
}
330
C
100
AcDbDictionary
  0
DICTIONARY
  5
43
102
{ACAD_REACTORS
330
C
102
}
330
C
100
AcDbDictionary
  3
BYBLOCK
350
45
  3
BYLAYER
350
44
  3
GLOBAL
350
46
  0
DICTIONARY
  5
6B
102
{ACAD_REACTORS
330
C
102
}
330
C
100
AcDbDictionary
  3
STANDARD
350
6C
  0
DICTIONARY
  5
17
102
{ACAD_REACTORS
330
C
102
}
330
C
100
AcDbDictionary
  3
STANDARD
350
18
  0
DICTIONARY
  5
19
102
{ACAD_REACTORS
330
C
102
}
330
C
100
AcDbDictionary
  0
DICTIONARY
  5
47
102
{ACAD_REACTORS
330
C
102
}
330
C
100
AcDbDictionary
  3
A0
350
48
  3
A1
350
49
  3
A2
350
4A
  3
A3
350
4B
  3
A4
350
4C
  3
A5
350
4D
  3
A6
350
4E
  3
A7
350
4F
  3
A8
350
50
  3
A9
350
51
  3
B0
350
52
  3
B1
350
53
  3
B2
350
54
  3
B3
350
55
  3
B4
350
56
  3
B5
350
57
  3
B6
350
58
  3
B7
350
59
  3
B8
350
5A
  3
B9
350
5B
  3
C0
350
5C
  3
C1
350
5D
  3
C2
350
5E
  3
C3
350
5F
  3
C4
350
60
  3
C5
350
61
  3
C6
350
62
  3
C7
350
63
  3
C8
350
64
  3
C9
350
65
  3
D0
350
66
  3
D1
350
67
  3
D2
350
68
  0
DICTIONARY
  5
2A
102
{ACAD_REACTORS
330
C
102
}
330
C
100
AcDbDictionary
  3
2DWIREFRAME
350
2F
  3
BASIC
350
32
  3
BRIGHTEN
350
36
  3
COLORCHANGE
350
3A
  3
CONCEPTUAL
350
34
  3
DIM
350
35
  3
EDGECOLOROFF
350
3D
  3
FACEPATTERN
350
39
  3
FLAT
350
2B
  3
FLATWITHEDGES
350
2C
  3
GOURAUD
350
2D
  3
GOURAUDWITHEDGES
350
2E
  3
HIDDEN
350
31
  3
JITTEROFF
350
3B
  3
LINEPATTERN
350
38
  3
OVERHANGOFF
350
3C
  3
REALISTIC
350
33
  3
SHADED
350
42
  3
SHADED_WITH_EDGES
350
41
  3
SHADES_OF_GRAY
350
3E
  3
SKETCHY
350
3F
  3
THICKEN
350
37
  3
WIREFRAME
350
30
  3
X-RAY
350
40
  0
DICTIONARY
  5
4F1
102
{ACAD_REACTORS
330
C
102
}
330
C
100
AcDbDictionary
  3
CEPSNID
350
4FB
  3
CEPSNTYPE
350
4FA
  3
DIMSTYLEDATA
350
511
  3
FINGERPRINTGUID
350
4FC
  3
HYPERLINKBASE
350
4F4
  3
INSUNITS
350
4F9
  3
LAYOUTDICT
350
4F6
  3
LWETCUNION
350
4F8
  3
PLOTSETDICT
350
4F7
  3
PSVPSCALE
350
4FE
  3
PUCSBASE
350
501
  3
PUCSORGBACK
350
507
  3
PUCSORGBOTTOM
350
503
  3
PUCSORGFRONT
350
506
  3
PUCSORGLEFT
350
504
  3
PUCSORGRIGHT
350
505
  3
PUCSORGTOP
350
502
  3
PUCSORTHOREF
350
4FF
  3
PUCSORTHOVIEW
350
500
  3
STYLESHEET
350
4F5
  3
TSTACKALIGN
350
4F2
  3
TSTACKSIZE
350
4F3
  3
UCSBASE
350
50A
  3
UCSORGBACK
350
510
  3
UCSORGBOTTOM
350
50C
  3
UCSORGFRONT
350
50F
  3
UCSORGLEFT
350
50D
  3
UCSORGRIGHT
350
50E
  3
UCSORGTOP
350
50B
  3
UCSORTHOREF
350
508
  3
UCSORTHOVIEW
350
509
  3
VERSIONGUID
350
4FD
  0
DICTIONARY
  5
512
102
{ACAD_REACTORS
330
C
102
}
330
C
100
AcDbDictionary
  3
CANNOSCALE
350
51F
  3
CENTEREXE
350
519
  3
CENTERLTYPEFILE
350
51A
  3
CMLEADERSTYLE
350
514
  3
CTABLESTYLE
350
513
  3
DIMASSOC
350
51B
  3
HIDETEXT
350
51C
  3
MSLTSCALE
350
520
  3
PSOLHEIGHT
350
516
  3
PSOLWIDTH
350
515
  0
XRECORD
  5
51E
102
{ACAD_REACTORS
330
51D
102
}
330
51D
100
AcDbXrecord
102
VTR_0.000_0.000_1.000_1.000_VISUALSTYLE
340
2F
102
VTR_0.000_0.000_1.000_1.000_GRIDDISPLAY
 70
     3
102
VTR_0.000_0.000_1.000_1.000_GRIDMAJOR
 70
     5
102
VTR_0.000_0.000_1.000_1.000_DEFAULTLIGHTING
280
     1
102
VTR_0.000_0.000_1.000_1.000_DEFAULTLIGHTINGTYPE
 70
     1
102
VTR_0.000_0.000_1.000_1.000_BRIGHTNESS
141
0.0
102
VTR_0.000_0.000_1.000_1.000_CONTRAST
142
0.0
  0
MATERIAL
  5
45
102
{ACAD_REACTORS
330
43
102
}
102
{ACAD_XDICTIONARY
360
523
102
}
330
43
100
AcDbMaterial
  1
BYBLOCK
  0
MATERIAL
  5
44
102
{ACAD_REACTORS
330
43
102
}
102
{ACAD_XDICTIONARY
360
521
102
}
330
43
100
AcDbMaterial
  1
BYLAYER
  0
MATERIAL
  5
46
102
{ACAD_REACTORS
330
43
102
}
102
{ACAD_XDICTIONARY
360
525
102
}
330
43
100
AcDbMaterial
  1
GLOBAL
  0
ACAD_PROXY_OBJECT
  5
6C
102
{ACAD_REACTORS
330
6B
102
}
330
6B
100
AcDbProxyObject
 90
      499
 91
      505
 93
      610
310
40901902A4063FBFFFFFE0000000000000020400000000000020404214DD185B99185C990000000000000104090141901A00000000000004100000000000000041025764000000000000039000
340
14
340
0
340
11
340
0
 94
        0
1001
ACAD_MLEADERVER
1070
     2
  0
MLINESTYLE
  5
18
102
{ACAD_REACTORS
330
17
102
}
330
17
100
AcDbMlineStyle
  2
Standard
 70
     0
  3

 62
   256
 51
90.0
 52
90.0
 71
     2
 49
0.5
 62
   256
  6
BYLAYER
 49
-0.5
 62
   256
  6
BYLAYER
  0
ACAD_PROXY_OBJECT
  5
48
102
{ACAD_REACTORS
330
47
102
}
330
47
100
AcDbProxyObject
 90
      499
 91
      503
 93
       41
310
903313A31580
  0
ACAD_PROXY_OBJECT
  5
49
102
{ACAD_REACTORS
330
47
102
}
330
47
100
AcDbProxyObject
 90
      499
 91
      503
 93
      105
310
903313A324000000000000004000
  0
ACAD_PROXY_OBJECT
  5
4A
102
{ACAD_REACTORS
330
47
102
}
330
47
100
AcDbProxyObject
 90
      499
 91
      503
 93
      105
310
903313A344000000000000104000
  0
ACAD_PROXY_OBJECT
  5
4B
102
{ACAD_REACTORS
330
47
102
}
330
47
100
AcDbProxyObject
 90
      499
 91
      503
 93
      105
310
903313A354000000000000144000
  0
ACAD_PROXY_OBJECT
  5
4C
102
{ACAD_REACTORS
330
47
102
}
330
47
100
AcDbProxyObject
 90
      499
 91
      503
 93
      105
310
903313A384000000000000204000
  0
ACAD_PROXY_OBJECT
  5
4D
102
{ACAD_REACTORS
330
47
102
}
330
47
100
AcDbProxyObject
 90
      499
 91
      503
 93
      113
310
904313A31304000000000000244000
  0
ACAD_PROXY_OBJECT
  5
4E
102
{ACAD_REACTORS
330
47
102
}
330
47
100
AcDbProxyObject
 90
      499
 91
      503
 93
      113
310
904313A31364000000000000304000
  0
ACAD_PROXY_OBJECT
  5
4F
102
{ACAD_REACTORS
330
47
102
}
330
47
100
AcDbProxyObject
 90
      499
 91
      503
 93
      113
310
904313A32304000000000000344000
  0
ACAD_PROXY_OBJECT
  5
50
102
{ACAD_REACTORS
330
47
102
}
330
47
100
AcDbProxyObject
 90
      499
 91
      503
 93
      113
310
904313A333040000000000003E4000
  0
ACAD_PROXY_OBJECT
  5
51
102
{ACAD_REACTORS
330
47
102
}
330
47
100
AcDbProxyObject
 90
      499
 91
      503
 93
      113
310
904313A34304000000000000444000
  0
ACAD_PROXY_OBJECT
  5
52
102
{ACAD_REACTORS
330
47
102
}
330
47
100
AcDbProxyObject
 90
      499
 91
      503
 93
      113
310
904313A35304000000000000494000
  0
ACAD_PROXY_OBJECT
  5
53
102
{ACAD_REACTORS
330
47
102
}
330
47
100
AcDbProxyObject
 90
      499
 91
      503
 93
      121
310
905313A3130304000000000000594000
  0
ACAD_PROXY_OBJECT
  5
54
102
{ACAD_REACTORS
330
47
102
}
330
47
100
AcDbProxyObject
 90
      499
 91
      503
 93
      105
310
903323A310000000000000010100
  0
ACAD_PROXY_OBJECT
  5
55
102
{ACAD_REACTORS
330
47
102
}
330
47
100
AcDbProxyObject
 90
      499
 91
      503
 93
      105
310
903343A310000000000000410100
  0
ACAD_PROXY_OBJECT
  5
56
102
{ACAD_REACTORS
330
47
102
}
330
47
100
AcDbProxyObject
 90
      499
 91
      503
 93
      105
310
903383A310000000000000810100
  0
ACAD_PROXY_OBJECT
  5
57
102
{ACAD_REACTORS
330
47
102
}
330
47
100
AcDbProxyObject
 90
      499
 91
      503
 93
      113
310
90431303A310000000000000910100
  0
ACAD_PROXY_OBJECT
  5
58
102
{ACAD_REACTORS
330
47
102
}
330
47
100
AcDbProxyObject
 90
      499
 91
      503
 93
      121
310
9053130303A310000000000001650100
  0
ACAD_PROXY_OBJECT
  5
59
102
{ACAD_REACTORS
330
47
102
}
330
47
100
AcDbProxyObject
 90
      499
 91
      503
 93
      257
310
90E312F31323822203D2031272D3022000000000000200FC000000000000284000
  0
ACAD_PROXY_OBJECT
  5
5A
102
{ACAD_REACTORS
330
47
102
}
330
47
100
AcDbProxyObject
 90
      499
 91
      503
 93
      249
310
90D312F363422203D2031272D3022000000000000240FC000000000000284000
  0
ACAD_PROXY_OBJECT
  5
5B
102
{ACAD_REACTORS
330
47
102
}
330
47
100
AcDbProxyObject
 90
      499
 91
      503
 93
      249
310
90D312F333222203D2031272D3022000000000000280FC000000000000284000
  0
ACAD_PROXY_OBJECT
  5
5C
102
{ACAD_REACTORS
330
47
102
}
330
47
100
AcDbProxyObject
 90
      499
 91
      503
 93
      249
310
90D312F313622203D2031272D30220000000000002C0FC000000000000284000
  0
ACAD_PROXY_OBJECT
  5
5D
102
{ACAD_REACTORS
330
47
102
}
330
47
100
AcDbProxyObject
 90
      499
 91
      503
 93
      249
310
90D332F333222203D2031272D30220000000000002E0FC000000000000284000
  0
ACAD_PROXY_OBJECT
  5
5E
102
{ACAD_REACTORS
330
47
102
}
330
47
100
AcDbProxyObject
 90
      499
 91
      503
 93
      241
310
90C312F3822203D2031272D3022000000000000300FC000000000000284000
  0
ACAD_PROXY_OBJECT
  5
5F
102
{ACAD_REACTORS
330
47
102
}
330
47
100
AcDbProxyObject
 90
      499
 91
      503
 93
      249
310
90D332F313622203D2031272D3022000000000000320FC000000000000284000
  0
ACAD_PROXY_OBJECT
  5
60
102
{ACAD_REACTORS
330
47
102
}
330
47
100
AcDbProxyObject
 90
      499
 91
      503
 93
      241
310
90C312F3422203D2031272D3022000000000000340FC000000000000284000
  0
ACAD_PROXY_OBJECT
  5
61
102
{ACAD_REACTORS
330
47
102
}
330
47
100
AcDbProxyObject
 90
      499
 91
      503
 93
      241
310
90C332F3822203D2031272D3022000000000000360FC000000000000284000
  0
ACAD_PROXY_OBJECT
  5
62
102
{ACAD_REACTORS
330
47
102
}
330
47
100
AcDbProxyObject
 90
      499
 91
      503
 93
      241
310
90C312F3222203D2031272D3022000000000000380FC000000000000284000
  0
ACAD_PROXY_OBJECT
  5
63
102
{ACAD_REACTORS
330
47
102
}
330
47
100
AcDbProxyObject
 90
      499
 91
      503
 93
      241
310
90C332F3422203D2031272D30220000000000003A0FC000000000000284000
  0
ACAD_PROXY_OBJECT
  5
64
102
{ACAD_REACTORS
330
47
102
}
330
47
100
AcDbProxyObject
 90
      499
 91
      503
 93
      161
310
90A3122203D2031272D30224000000000000284000
  0
ACAD_PROXY_OBJECT
  5
65
102
{ACAD_REACTORS
330
47
102
}
330
47
100
AcDbProxyObject
 90
      499
 91
      503
 93
      257
310
90E312D312F3222203D2031272D30220000000000003E0FC000000000000284000
  0
ACAD_PROXY_OBJECT
  5
66
102
{ACAD_REACTORS
330
47
102
}
330
47
100
AcDbProxyObject
 90
      499
 91
      503
 93
      225
310
90A3322203D2031272D302200000000000002100000000000000284000
  0
ACAD_PROXY_OBJECT
  5
67
102
{ACAD_REACTORS
330
47
102
}
330
47
100
AcDbProxyObject
 90
      499
 91
      503
 93
      225
310
90A3622203D2031272D302200000000000006100000000000000284000
  0
ACAD_PROXY_OBJECT
  5
68
102
{ACAD_REACTORS
330
47
102
}
330
47
100
AcDbProxyObject
 90
      499
 91
      503
 93
      249
310
90D31272D3022203D2031272D30220000000000000A100000000000000284000
  0
ACAD_PROXY_OBJECT
  5
2F
102
{ACAD_REACTORS
330
2A
102
}
330
2A
100
AcDbProxyObject
 90
      499
 91
      501
 93
      436
310
42CC9915DA5C99599C985B595049028333333333333E33F0000000000000F90107901411070040501600405405064090741402480A0340
1001
ACAD
1000
AcDbSavedByObjectVersion
1070
     0
  0
ACAD_PROXY_OBJECT
  5
32
102
{ACAD_REACTORS
330
2A
102
}
330
2A
100
AcDbProxyObject
 90
      499
 91
      501
 93
      388
310
4150985CDA58D07406404333333333333E33F0000000000000F90107A41107004050150841D405064090741402480A0350
1001
ACAD
1000
AcDbSavedByObjectVersion
1070
     0
  0
ACAD_PROXY_OBJECT
  5
36
102
{ACAD_REACTORS
330
2A
102
}
330
2A
100
AcDbProxyObject
 90
      499
 91
      501
 93
      428
310
42109C9A59DA1D195B90C409028333333333333E33F0000000000000F9010790141107004050150841D405064090741402480A029950
1001
ACAD
1000
AcDbSavedByObjectVersion
1070
     0
  0
ACAD_PROXY_OBJECT
  5
3A
102
{ACAD_REACTORS
330
2A
102
}
330
2A
100
AcDbProxyObject
 90
      499
 91
      501
 93
      452
310
42D0DBDB1BDC90DA185B99D95104090240C333333333333E33F0000000000000F90108901411070040501508421405064090741402480A0350
1001
ACAD
1000
AcDbSavedByObjectVersion
1070
     0
  0
ACAD_PROXY_OBJECT
  5
34
102
{ACAD_REACTORS
330
2A
102
}
330
2A
100
AcDbProxyObject
 90
      499
 91
      501
 93
      500
310
4290DBDB98D95C1D1D585B10940D028333333333333E33F0000000000000F90107902409070040501000000000018199010841D405064090740C02480A0340
1001
ACAD
1000
AcDbSavedByObjectVersion
1070
     0
  0
ACAD_PROXY_OBJECT
  5
35
102
{ACAD_REACTORS
330
2A
102
}
330
2A
100
AcDbProxyObject
 90
      499
 91
      501
 93
      412
310
40D11A5B50B409028333333333333E33F0000000000000F9010790141107004050150841D405064090741402480A02677FFFFFD0
1001
ACAD
1000
AcDbSavedByObjectVersion
1070
     0
  0
ACAD_PROXY_OBJECT
  5
3D
102
{ACAD_REACTORS
330
2A
102
}
330
2A
100
AcDbProxyObject
 90
      499
 91
      501
 93
      452
310
43115919D950DBDB1BDC93D999916409028333333333333E33F0000000000000F9010790141107004050150841D405064090741402480A0350
1001
ACAD
1000
AcDbSavedByObjectVersion
1070
     0
  0
ACAD_PROXY_OBJECT
  5
39
102
{ACAD_REACTORS
330
2A
102
}
330
2A
100
AcDbProxyObject
 90
      499
 91
      501
 93
      444
310
42D19858D95C185D1D195C9B90F409028333333333333E33F0000000000000F9010790141107004050150841D405064090741402480A0350
1001
ACAD
1000
AcDbSavedByObjectVersion
1070
     0
  0
ACAD_PROXY_OBJECT
  5
2B
102
{ACAD_REACTORS
330
2A
102
}
330
2A
100
AcDbProxyObject
 90
      499
 91
      501
 93
      380
310
41119B185D240901404333333333333E33F0000000000000F9010740A907004050150841D405064090741402480A1B50
1001
ACAD
1000
AcDbSavedByObjectVersion
1070
     0
  0
ACAD_PROXY_OBJECT
  5
2C
102
{ACAD_REACTORS
330
2A
102
}
330
2A
100
AcDbProxyObject
 90
      499
 91
      501
 93
      468
310
43519B185D15DA5D1A115919D95CD0140901404333333333333E33F0000000000000F90107409019070040501600405405064090741402480A1B50
1001
ACAD
1000
AcDbSavedByObjectVersion
1070
     0
  0
ACAD_PROXY_OBJECT
  5
2D
102
{ACAD_REACTORS
330
2A
102
}
330
2A
100
AcDbProxyObject
 90
      499
 91
      501
 93
      404
310
41D1DBDD5C985D5910240902404333333333333E33F0000000000000F9010740A9070040501641D405064090741402480A1B50
1001
ACAD
1000
AcDbSavedByObjectVersion
1070
     0
  0
ACAD_PROXY_OBJECT
  5
2E
102
{ACAD_REACTORS
330
2A
102
}
330
2A
100
AcDbProxyObject
 90
      499
 91
      501
 93
      492
310
4411DBDD5C985D5915DA5D1A115919D95CD0340902404333333333333E33F0000000000000F90107409019070040501600405405064090741402480A1B50
1001
ACAD
1000
AcDbSavedByObjectVersion
1070
     0
  0
ACAD_PROXY_OBJECT
  5
31
102
{ACAD_REACTORS
330
2A
102
}
330
2A
100
AcDbProxyObject
 90
      499
 91
      501
 93
      476
310
41921A5919195B90640502408333333333333E33F0000000000000F901079024090700405020000000000001110200405405064090740C02480A0340
1001
ACAD
1000
AcDbSavedByObjectVersion
1070
     0
  0
ACAD_PROXY_OBJECT
  5
3B
102
{ACAD_REACTORS
330
2A
102
}
330
2A
100
AcDbProxyObject
 90
      499
 91
      501
 93
      428
310
42529A5D1D195C93D999914409028333333333333E33F0000000000000F9010790141107004050150A41D405064090741402480A0350
1001
ACAD
1000
AcDbSavedByObjectVersion
1070
     0
  0
ACAD_PROXY_OBJECT
  5
38
102
{ACAD_REACTORS
330
2A
102
}
330
2A
100
AcDbProxyObject
 90
      499
 91
      501
 93
      444
310
42D31A5B995C185D1D195C9B90E409028333333333333E33F0000000000000F9010790141107004050750841D405064090741402483A0350
1001
ACAD
1000
AcDbSavedByObjectVersion
1070
     0
  0
ACAD_PROXY_OBJECT
  5
3C
102
{ACAD_REACTORS
330
2A
102
}
330
2A
100
AcDbProxyObject
 90
      499
 91
      501
 93
      444
310
42D3DD995C9A185B99D3D999915409028333333333333E33F0000000000000F9010790141107004050150941D405064090741402480A0350
1001
ACAD
1000
AcDbSavedByObjectVersion
1070
     0
  0
ACAD_PROXY_OBJECT
  5
33
102
{ACAD_REACTORS
330
2A
102
}
330
2A
100
AcDbProxyObject
 90
      499
 91
      501
 93
      428
310
425499585B1A5CDD1A58D08409038333333333333E33F0000000000000F9010740A907004050150800405405064090740C02480A1B40
1001
ACAD
1000
AcDbSavedByObjectVersion
1070
     0
  0
ACAD_PROXY_OBJECT
  5
42
102
{ACAD_REACTORS
330
2A
102
}
330
2A
100
AcDbProxyObject
 90
      499
 91
      501
 93
      420
310
4194DA1859195911B40902404333333333333E33F0000000000000F9010740A41107004050150800405405064090840C02480A0B40
1001
ACAD
1000
AcDbSavedByObjectVersion
1070
     0
  0
ACAD_PROXY_OBJECT
  5
41
102
{ACAD_REACTORS
330
2A
102
}
330
2A
100
AcDbProxyObject
 90
      499
 91
      501
 93
      516
310
4454DA18591959081DDA5D1A08195919D95CD1A40902404333333333333E33F0000000000000F901074090142907004050250800405405064090740C02480A0B40
1001
ACAD
1000
AcDbSavedByObjectVersion
1070
     0
  0
ACAD_PROXY_OBJECT
  5
3E
102
{ACAD_REACTORS
330
2A
102
}
330
2A
100
AcDbProxyObject
 90
      499
 91
      501
 93
      532
310
4394DA1859195CC81BD98811DC985E5174090240C333333333333E33F0000000000000F901079024090741D01000000000000111010841D405064090740C02480A0340
1001
ACAD
1000
AcDbSavedByObjectVersion
1070
     0
  0
ACAD_PROXY_OBJECT
  5
3F
102
{ACAD_REACTORS
330
2A
102
}
330
2A
100
AcDbProxyObject
 90
      499
 91
      501
 93
      476
310
41D4DAD95D18DA1E51840502408333333333333E33F0000000000000F901079024090741D01000000000000111010B41D405064090741802480A0340
1001
ACAD
1000
AcDbSavedByObjectVersion
1070
     0
  0
ACAD_PROXY_OBJECT
  5
37
102
{ACAD_REACTORS
330
2A
102
}
330
2A
100
AcDbProxyObject
 90
      499
 91
      501
 93
      412
310
41D51A1A58DAD95B90D409028333333333333E33F0000000000000F9010790141107004050150C41D405064090741402480A0350
1001
ACAD
1000
AcDbSavedByObjectVersion
1070
     0
  0
ACAD_PROXY_OBJECT
  5
30
102
{ACAD_REACTORS
330
2A
102
}
330
2A
100
AcDbProxyObject
 90
      499
 91
      501
 93
      420
310
4255DA5C99599C985B595059028333333333333E33F0000000000000F90107901411070040501600405405064090740C02480A0340
1001
ACAD
1000
AcDbSavedByObjectVersion
1070
     0
  0
ACAD_PROXY_OBJECT
  5
40
102
{ACAD_REACTORS
330
2A
102
}
330
2A
100
AcDbProxyObject
 90
      499
 91
      501
 93
      404
310
41560B54985E51940902404000000000000E03F0000000000000F9010740501907004050150841D405064090740C02480A1B40
1001
ACAD
1000
AcDbSavedByObjectVersion
1070
     0
  0
XRECORD
  5
4FB
102
{ACAD_REACTORS
330
4F1
102
}
330
4F1
100
AcDbXrecord
340
0
  0
XRECORD
  5
4FA
102
{ACAD_REACTORS
330
4F1
102
}
330
4F1
100
AcDbXrecord
 90
        0
  0
XRECORD
  5
511
102
{ACAD_REACTORS
330
4F1
102
}
330
4F1
100
AcDbXrecord
1000
DSTYLE
1002
{
1070
   340
340
11
1002
}
  0
XRECORD
  5
4FC
102
{ACAD_REACTORS
330
4F1
102
}
330
4F1
100
AcDbXrecord
  1
{1c4c5677-971a-402b-b47d-845a04dc8ccc}
  0
XRECORD
  5
4F4
102
{ACAD_REACTORS
330
4F1
102
}
330
4F1
100
AcDbXrecord
  1

  0
XRECORD
  5
4F9
102
{ACAD_REACTORS
330
4F1
102
}
330
4F1
100
AcDbXrecord
 90
        4
  0
XRECORD
  5
4F6
102
{ACAD_REACTORS
330
4F1
102
}
330
4F1
100
AcDbXrecord
340
1A
  0
XRECORD
  5
4F8
102
{ACAD_REACTORS
330
4F1
102
}
330
4F1
100
AcDbXrecord
 90
    10781
  0
XRECORD
  5
4F7
102
{ACAD_REACTORS
330
4F1
102
}
330
4F1
100
AcDbXrecord
340
19
  0
XRECORD
  5
4FE
102
{ACAD_REACTORS
330
4F1
102
}
330
4F1
100
AcDbXrecord
 40
0.0
  0
XRECORD
  5
501
102
{ACAD_REACTORS
330
4F1
102
}
330
4F1
100
AcDbXrecord
340
0
  0
XRECORD
  5
507
102
{ACAD_REACTORS
330
4F1
102
}
330
4F1
100
AcDbXrecord
 10
0.0
 20
0.0
 30
0.0
  0
XRECORD
  5
503
102
{ACAD_REACTORS
330
4F1
102
}
330
4F1
100
AcDbXrecord
 10
0.0
 20
0.0
 30
0.0
  0
XRECORD
  5
506
102
{ACAD_REACTORS
330
4F1
102
}
330
4F1
100
AcDbXrecord
 10
0.0
 20
0.0
 30
0.0
  0
XRECORD
  5
504
102
{ACAD_REACTORS
330
4F1
102
}
330
4F1
100
AcDbXrecord
 10
0.0
 20
0.0
 30
0.0
  0
XRECORD
  5
505
102
{ACAD_REACTORS
330
4F1
102
}
330
4F1
100
AcDbXrecord
 10
0.0
 20
0.0
 30
0.0
  0
XRECORD
  5
502
102
{ACAD_REACTORS
330
4F1
102
}
330
4F1
100
AcDbXrecord
 10
0.0
 20
0.0
 30
0.0
  0
XRECORD
  5
4FF
102
{ACAD_REACTORS
330
4F1
102
}
330
4F1
100
AcDbXrecord
340
0
  0
XRECORD
  5
500
102
{ACAD_REACTORS
330
4F1
102
}
330
4F1
100
AcDbXrecord
 70
     0
  0
XRECORD
  5
4F5
102
{ACAD_REACTORS
330
4F1
102
}
330
4F1
100
AcDbXrecord
  1

  0
XRECORD
  5
4F2
102
{ACAD_REACTORS
330
4F1
102
}
330
4F1
100
AcDbXrecord
 90
        1
  0
XRECORD
  5
4F3
102
{ACAD_REACTORS
330
4F1
102
}
330
4F1
100
AcDbXrecord
 90
       70
  0
XRECORD
  5
50A
102
{ACAD_REACTORS
330
4F1
102
}
330
4F1
100
AcDbXrecord
340
0
  0
XRECORD
  5
510
102
{ACAD_REACTORS
330
4F1
102
}
330
4F1
100
AcDbXrecord
 10
0.0
 20
0.0
 30
0.0
  0
XRECORD
  5
50C
102
{ACAD_REACTORS
330
4F1
102
}
330
4F1
100
AcDbXrecord
 10
0.0
 20
0.0
 30
0.0
  0
XRECORD
  5
50F
102
{ACAD_REACTORS
330
4F1
102
}
330
4F1
100
AcDbXrecord
 10
0.0
 20
0.0
 30
0.0
  0
XRECORD
  5
50D
102
{ACAD_REACTORS
330
4F1
102
}
330
4F1
100
AcDbXrecord
 10
0.0
 20
0.0
 30
0.0
  0
XRECORD
  5
50E
102
{ACAD_REACTORS
330
4F1
102
}
330
4F1
100
AcDbXrecord
 10
0.0
 20
0.0
 30
0.0
  0
XRECORD
  5
50B
102
{ACAD_REACTORS
330
4F1
102
}
330
4F1
100
AcDbXrecord
 10
0.0
 20
0.0
 30
0.0
  0
XRECORD
  5
508
102
{ACAD_REACTORS
330
4F1
102
}
330
4F1
100
AcDbXrecord
340
0
  0
XRECORD
  5
509
102
{ACAD_REACTORS
330
4F1
102
}
330
4F1
100
AcDbXrecord
 70
     0
  0
XRECORD
  5
4FD
102
{ACAD_REACTORS
330
4F1
102
}
330
4F1
100
AcDbXrecord
  1
{FAEB1C32-E019-11D5-929B-00C0DF256EC4}
  0
DICTIONARYVAR
  5
51F
102
{ACAD_REACTORS
330
512
102
}
330
512
100
DictionaryVariables
280
     0
  1
1:1
  0
DICTIONARYVAR
  5
519
102
{ACAD_REACTORS
330
512
102
}
330
512
100
DictionaryVariables
280
     0
  1
3.500000
  0
DICTIONARYVAR
  5
51A
102
{ACAD_REACTORS
330
512
102
}
330
512
100
DictionaryVariables
280
     0
  1
acadiso.lin
  0
DICTIONARYVAR
  5
514
102
{ACAD_REACTORS
330
512
102
}
330
512
100
DictionaryVariables
280
     0
  1
Standard
  0
DICTIONARYVAR
  5
513
102
{ACAD_REACTORS
330
512
102
}
330
512
100
DictionaryVariables
280
     0
  1
Standard
  0
DICTIONARYVAR
  5
51B
102
{ACAD_REACTORS
330
512
102
}
330
512
100
DictionaryVariables
280
     0
  1
2
  0
DICTIONARYVAR
  5
51C
102
{ACAD_REACTORS
330
512
102
}
330
512
100
DictionaryVariables
280
     0
  1
1
  0
DICTIONARYVAR
  5
520
102
{ACAD_REACTORS
330
512
102
}
330
512
100
DictionaryVariables
280
     0
  1
1
  0
DICTIONARYVAR
  5
516
102
{ACAD_REACTORS
330
512
102
}
330
512
100
DictionaryVariables
280
     0
  1
80.000000
  0
DICTIONARYVAR
  5
515
102
{ACAD_REACTORS
330
512
102
}
330
512
100
DictionaryVariables
280
     0
  1
5.000000
  0
DICTIONARY
  5
523
330
45
100
AcDbDictionary
280
     1
  3
ACAD_XREC_ROUNDTRIP
360
524
  0
DICTIONARY
  5
521
330
44
100
AcDbDictionary
280
     1
  3
ACAD_XREC_ROUNDTRIP
360
522
  0
DICTIONARY
  5
525
330
46
100
AcDbDictionary
280
     1
  3
ACAD_XREC_ROUNDTRIP
360
526
  0
XRECORD
  5
524
102
{ACAD_REACTORS
330
523
102
}
330
523
100
AcDbXrecord
102
MATERIAL
148
0.0
149
0.0
149
0.0
 93
        0
 94
      127
282
     0
 72
     1
 77
     1
171
     1
175
     1
179
     1
273
     0
  0
XRECORD
  5
522
102
{ACAD_REACTORS
330
521
102
}
330
521
100
AcDbXrecord
102
MATERIAL
148
0.0
149
0.0
149
0.0
 93
        0
 94
      127
282
     0
 72
     1
 77
     1
171
     1
175
     1
179
     1
273
     0
  0
XRECORD
  5
526
102
{ACAD_REACTORS
330
525
102
}
330
525
100
AcDbXrecord
102
MATERIAL
148
0.0
149
0.0
149
0.0
 93
        0
 94
      127
282
     0
 72
     1
 77
     1
171
     1
175
     1
179
     1
273
     0
  0
ENDSEC
  0
EOF
