  0
SECTION
  2
HEADER
  9
$ACADVER
  1
AC1014
  9
$ACADMAINTVER
 70
     9
  9
$DWGCODEPAGE
  3
ANSI_932
  9
$INSBASE
 10
0.0
 20
0.0
 30
0.0
  9
$EXTMIN
 10
50.0
 20
100.0
 30
0.0
  9
$EXTMAX
 10
3850.0
 20
2800.0
 30
0.0
  9
$LIMMIN
 10
0.0
 20
0.0
  9
$LIMMAX
 10
420.0
 20
297.0
  9
$ORTHOMODE
 70
     0
  9
$REGENMODE
 70
     1
  9
$FILLMODE
 70
     1
  9
$QTEXTMODE
 70
     0
  9
$MIRRTEXT
 70
     1
  9
$DRAGMODE
 70
     2
  9
$LTSCALE
 40
0.2
  9
$OSMODE
 70
    37
  9
$ATTMODE
 70
     1
  9
$TEXTSIZE
 40
2.5
  9
$TRACEWID
 40
1.0
  9
$TEXTSTYLE
  7
STANDARD
  9
$CLAYER
  8
LAY-10
  9
$CELTYPE
  6
BYLAYER
  9
$CECOLOR
 62
   256
  9
$CELTSCALE
 40
1.0
  9
$DELOBJ
 70
     1
  9
$DISPSILH
 70
     0
  9
$DIMSCALE
 40
1.0
  9
$DIMASZ
 40
2.5
  9
$DIMEXO
 40
0.625
  9
$DIMDLI
 40
3.75
  9
$DIMRND
 40
0.0
  9
$DIMDLE
 40
0.0
  9
$DIMEXE
 40
1.25
  9
$DIMTP
 40
0.0
  9
$DIMTM
 40
0.0
  9
$DIMTXT
 40
2.5
  9
$DIMCEN
 40
2.5
  9
$DIMTSZ
 40
0.0
  9
$DIMTOL
 70
     0
  9
$DIMLIM
 70
     0
  9
$DIMTIH
 70
     0
  9
$DIMTOH
 70
     0
  9
$DIMSE1
 70
     0
  9
$DIMSE2
 70
     0
  9
$DIMTAD
 70
     1
  9
$DIMZIN
 70
     8
  9
$DIMBLK
  1

  9
$DIMASO
 70
     1
  9
$DIMSHO
 70
     1
  9
$DIMPOST
  1

  9
$DIMAPOST
  1

  9
$DIMALT
 70
     0
  9
$DIMALTD
 70
     3
  9
$DIMALTF
 40
0.03937007874016
  9
$DIMLFAC
 40
1.0
  9
$DIMTOFL
 70
     1
  9
$DIMTVP
 40
0.0
  9
$DIMTIX
 70
     0
  9
$DIMSOXD
 70
     0
  9
$DIMSAH
 70
     0
  9
$DIMBLK1
  1

  9
$DIMBLK2
  1

  9
$DIMSTYLE
  2
ISO-25
  9
$DIMCLRD
 70
     0
  9
$DIMCLRE
 70
     0
  9
$DIMCLRT
 70
     0
  9
$DIMTFAC
 40
1.0
  9
$DIMGAP
 40
0.625
  9
$DIMJUST
 70
     0
  9
$DIMSD1
 70
     0
  9
$DIMSD2
 70
     0
  9
$DIMTOLJ
 70
     0
  9
$DIMTZIN
 70
     8
  9
$DIMALTZ
 70
     0
  9
$DIMALTTZ
 70
     0
  9
$DIMFIT
 70
     3
  9
$DIMUPT
 70
     0
  9
$DIMUNIT
 70
     2
  9
$DIMDEC
 70
     2
  9
$DIMTDEC
 70
     2
  9
$DIMALTU
 70
     2
  9
$DIMALTTD
 70
     3
  9
$DIMTXSTY
  7
STANDARD
  9
$DIMAUNIT
 70
     0
  9
$LUNITS
 70
     2
  9
$LUPREC
 70
     4
  9
$SKETCHINC
 40
1.0
  9
$FILLETRAD
 40
10.0
  9
$AUNITS
 70
     0
  9
$AUPREC
 70
     0
  9
$MENU
  1
.
  9
$ELEVATION
 40
0.0
  9
$PELEVATION
 40
0.0
  9
$THICKNESS
 40
0.0
  9
$LIMCHECK
 70
     0
  9
$CHAMFERA
 40
0.0
  9
$CHAMFERB
 40
0.0
  9
$CHAMFERC
 40
0.0
  9
$CHAMFERD
 40
0.0
  9
$SKPOLY
 70
     0
  9
$TDCREATE
 40
2459229.332992975
  9
$TDUPDATE
 40
2459229.332993762
  9
$TDINDWG
 40
0.0000000116
  9
$TDUSRTIMER
 40
0.0000000116
  9
$USRTIMER
 70
     1
  9
$ANGBASE
 50
0.0
  9
$ANGDIR
 70
     0
  9
$PDMODE
 70
     0
  9
$PDSIZE
 40
0.0
  9
$PLINEWID
 40
0.0
  9
$COORDS
 70
     1
  9
$SPLFRAME
 70
     0
  9
$SPLINETYPE
 70
     6
  9
$SPLINESEGS
 70
     8
  9
$ATTDIA
 70
     0
  9
$ATTREQ
 70
     1
  9
$HANDLING
 70
     1
  9
$HANDSEED
  5
5E6
  9
$SURFTAB1
 70
     6
  9
$SURFTAB2
 70
     6
  9
$SURFTYPE
 70
     6
  9
$SURFU
 70
     6
  9
$SURFV
 70
     6
  9
$UCSNAME
  2

  9
$UCSORG
 10
0.0
 20
0.0
 30
0.0
  9
$UCSXDIR
 10
1.0
 20
0.0
 30
0.0
  9
$UCSYDIR
 10
0.0
 20
1.0
 30
0.0
  9
$PUCSNAME
  2

  9
$PUCSORG
 10
0.0
 20
0.0
 30
0.0
  9
$PUCSXDIR
 10
1.0
 20
0.0
 30
0.0
  9
$PUCSYDIR
 10
0.0
 20
1.0
 30
0.0
  9
$USERI1
 70
     0
  9
$USERI2
 70
     0
  9
$USERI3
 70
     0
  9
$USERI4
 70
     0
  9
$USERI5
 70
     0
  9
$USERR1
 40
0.0
  9
$USERR2
 40
0.0
  9
$USERR3
 40
0.0
  9
$USERR4
 40
0.0
  9
$USERR5
 40
0.0
  9
$WORLDVIEW
 70
     1
  9
$SHADEDGE
 70
     3
  9
$SHADEDIF
 70
    70
  9
$TILEMODE
 70
     1
  9
$MAXACTVP
 70
    64
  9
$PINSBASE
 10
0.0
 20
0.0
 30
0.0
  9
$PLIMCHECK
 70
     0
  9
$PEXTMIN
 10
1.000000000000000E+20
 20
1.000000000000000E+20
 30
1.000000000000000E+20
  9
$PEXTMAX
 10
-1.000000000000000E+20
 20
-1.000000000000000E+20
 30
-1.000000000000000E+20
  9
$PLIMMIN
 10
0.0
 20
0.0
  9
$PLIMMAX
 10
420.0
 20
297.0
  9
$UNITMODE
 70
     0
  9
$VISRETAIN
 70
     1
  9
$PLINEGEN
 70
     0
  9
$PSLTSCALE
 70
     1
  9
$TREEDEPTH
 70
  3020
  9
$PICKSTYLE
 70
     1
  9
$CMLSTYLE
  2
STANDARD
  9
$CMLJUST
 70
     0
  9
$CMLSCALE
 40
20.0
  9
$PROXYGRAPHICS
 70
     1
  9
$MEASUREMENT
 70
     1
  0
ENDSEC
  0
SECTION
  2
CLASSES
  0
CLASS
  1
ACDBDICTIONARYWDFLT
  2
AcDbDictionaryWithDefault
  3
ObjectDBX Classes
 90
        0
280
     0
281
     0
  0
CLASS
  1
VISUALSTYLE
  2
AcDbVisualStyle
  3
ObjectDBX Classes
 90
     4095
280
     0
281
     0
  0
CLASS
  1
MATERIAL
  2
AcDbMaterial
  3
ObjectDBX Classes
 90
     1153
280
     0
281
     0
  0
CLASS
  1
SCALE
  2
AcDbScale
  3
ObjectDBX Classes
 90
     1153
280
     0
281
     0
  0
CLASS
  1
TABLESTYLE
  2
AcDbTableStyle
  3
ObjectDBX Classes
 90
     4095
280
     0
281
     0
  0
CLASS
  1
MLEADERSTYLE
  2
AcDbMLeaderStyle
  3
ACDB_MLEADERSTYLE_CLASS
 90
     4095
280
     0
281
     0
  0
CLASS
  1
SUN
  2
AcDbSun
  3
SCENEOE
 90
     1153
280
     0
281
     0
  0
CLASS
  1
DICTIONARYVAR
  2
AcDbDictionaryVar
  3
ObjectDBX Classes
 90
        0
280
     0
281
     0
  0
CLASS
  1
XRECORD
  2
AcDbXrecord
  3
ObjectDBX Classes
 90
        0
280
     0
281
     0
  0
CLASS
  1
LWPOLYLINE
  2
AcDbPolyline
  3
ObjectDBX Classes
 90
        0
280
     0
281
     1
  0
CLASS
  1
HATCH
  2
AcDbHatch
  3
ObjectDBX Classes
 90
        0
280
     0
281
     1
  0
CLASS
  1
ACDBPLACEHOLDER
  2
AcDbPlaceHolder
  3
ObjectDBX Classes
 90
        0
280
     0
281
     0
  0
CLASS
  1
LAYOUT
  2
AcDbLayout
  3
ObjectDBX Classes
 90
        0
280
     0
281
     0
  0
ENDSEC
  0
SECTION
  2
TABLES
  0
TABLE
  2
VPORT
  5
8
102
{ACAD_XDICTIONARY
360
5DB
102
}
330
0
100
AcDbSymbolTable
 70
     1
  0
VPORT
  5
29
330
8
100
AcDbSymbolTableRecord
100
AcDbViewportTableRecord
  2
*ACTIVE
 70
     0
 10
0.0
 20
0.0
 11
1.0
 21
1.0
 12
1950.0
 22
1450.0
 13
0.0
 23
0.0
 14
10.0
 24
10.0
 15
10.0
 25
10.0
 16
0.0
 26
0.0
 36
1.0
 17
0.0
 27
0.0
 37
0.0
 40
2700.0
 41
1.407407407407408
 42
50.0
 43
0.0
 44
0.0
 50
0.0
 51
0.0
 71
     0
 72
  1000
 73
     1
 74
     3
 75
     0
 76
     0
 77
     0
 78
     0
  0
ENDTAB
  0
TABLE
  2
LTYPE
  5
5
330
0
100
AcDbSymbolTable
 70
     6
  0
LTYPE
  5
14
330
5
100
AcDbSymbolTableRecord
100
AcDbLinetypeTableRecord
  2
BYBLOCK
 70
     0
  3

 72
    65
 73
     0
 40
0.0
  0
LTYPE
  5
15
330
5
100
AcDbSymbolTableRecord
100
AcDbLinetypeTableRecord
  2
BYLAYER
 70
     0
  3

 72
    65
 73
     0
 40
0.0
  0
LTYPE
  5
16
330
5
100
AcDbSymbolTableRecord
100
AcDbLinetypeTableRecord
  2
CONTINUOUS
 70
     0
  3
Solid line
 72
    65
 73
     0
 40
0.0
  0
LTYPE
  5
6E
330
5
100
AcDbSymbolTableRecord
100
AcDbLinetypeTableRecord
  2
HIDDEN
 70
     0
  3
Hidden __ __ __ __ __ __ __ __ __ __ __ __ __ __
 72
    65
 73
     2
 40
9.524999999999999
 49
6.35
 74
     0
 49
-3.175
 74
     0
  0
LTYPE
  5
6F
330
5
100
AcDbSymbolTableRecord
100
AcDbLinetypeTableRecord
  2
CENTER
 70
     0
  3
Center ____ _ ____ _ ____ _ ____ _ ____ _ ____
 72
    65
 73
     4
 40
50.8
 49
31.75
 74
     0
 49
-6.35
 74
     0
 49
6.35
 74
     0
 49
-6.35
 74
     0
  0
LTYPE
  5
70
330
5
100
AcDbSymbolTableRecord
100
AcDbLinetypeTableRecord
  2
PHANTOM
 70
     0
  3
Phantom ______  __  __  ______  __  __  ______ 
 72
    65
 73
     6
 40
63.50000000000001
 49
31.75
 74
     0
 49
-6.35
 74
     0
 49
6.35
 74
     0
 49
-6.35
 74
     0
 49
6.35
 74
     0
 49
-6.35
 74
     0
  0
LTYPE
  5
71
330
5
100
AcDbSymbolTableRecord
100
AcDbLinetypeTableRecord
  2
ACAD_ISO06W100
 70
     0
  3
ISO long-dash triple-dot ____ ... ____ ... ____
 72
    65
 73
     8
 40
36.0
 49
24.0
 74
     0
 49
-3.0
 74
     0
 49
0.0
 74
     0
 49
-3.0
 74
     0
 49
0.0
 74
     0
 49
-3.0
 74
     0
 49
0.0
 74
     0
 49
-3.0
 74
     0
  0
LTYPE
  5
72
330
5
100
AcDbSymbolTableRecord
100
AcDbLinetypeTableRecord
  2
ACAD_ISO15W100
 70
     0
  3
ISO double-dash triple-dot __ __ . . . __ __ . .
 72
    65
 73
    10
 40
39.0
 49
12.0
 74
     0
 49
-3.0
 74
     0
 49
12.0
 74
     0
 49
-3.0
 74
     0
 49
0.0
 74
     0
 49
-3.0
 74
     0
 49
0.0
 74
     0
 49
-3.0
 74
     0
 49
0.0
 74
     0
 49
-3.0
 74
     0
  0
ENDTAB
  0
TABLE
  2
LAYER
  5
2
330
0
100
AcDbSymbolTable
 70
     6
  0
LAYER
  5
10
330
2
100
AcDbSymbolTableRecord
100
AcDbLayerTableRecord
  2
0
 70
     0
 62
     7
  6
CONTINUOUS
  0
LAYER
  5
75
330
2
100
AcDbSymbolTableRecord
100
AcDbLayerTableRecord
  2
LAY-10
 70
     0
 62
     7
  6
CONTINUOUS
  0
LAYER
  5
76
330
2
100
AcDbSymbolTableRecord
100
AcDbLayerTableRecord
  2
LAY-11
 70
     0
 62
     7
  6
CONTINUOUS
  0
LAYER
  5
77
330
2
100
AcDbSymbolTableRecord
100
AcDbLayerTableRecord
  2
LAY-20
 70
     0
 62
     7
  6
CONTINUOUS
  0
LAYER
  5
78
330
2
100
AcDbSymbolTableRecord
100
AcDbLayerTableRecord
  2
LAY-255
 70
     0
 62
     7
  6
CONTINUOUS
  0
LAYER
  5
502
330
2
100
AcDbSymbolTableRecord
100
AcDbLayerTableRecord
  2
DEFPOINTS
 70
     0
 62
     7
  6
CONTINUOUS
  0
ENDTAB
  0
TABLE
  2
STYLE
  5
3
330
0
100
AcDbSymbolTable
 70
     4
  0
STYLE
  5
11
330
3
100
AcDbSymbolTableRecord
100
AcDbTextStyleTableRecord
  2
STANDARD
 70
     0
 40
0.0
 41
1.0
 50
0.0
 71
     0
 42
2.5
  3
simplex
  4
bigfont
  0
STYLE
  5
73
330
3
100
AcDbSymbolTableRecord
100
AcDbTextStyleTableRecord
  2
EXCADSTD
 70
     0
 40
0.0
 41
1.0
 50
0.0
 71
     0
 42
2.5
  3
simplex
  4
bigfont
  0
STYLE
  5
74
330
3
100
AcDbSymbolTableRecord
100
AcDbTextStyleTableRecord
  2
EXCADVERT
 70
     4
 40
0.0
 41
1.0
 50
0.0
 71
     0
 42
2.5
  3
simplex
  4
bigfont
  0
STYLE
  5
500
330
3
100
AcDbSymbolTableRecord
100
AcDbTextStyleTableRecord
  2
EXCADDIM1
 70
     0
 40
0.0
 41
0.84
 50
0.0
 71
     0
 42
2.5
  3
simplex
  4
bigfont
  0
ENDTAB
  0
TABLE
  2
VIEW
  5
6
330
0
100
AcDbSymbolTable
 70
     0
  0
ENDTAB
  0
TABLE
  2
UCS
  5
7
330
0
100
AcDbSymbolTable
 70
     0
  0
ENDTAB
  0
TABLE
  2
APPID
  5
9
330
0
100
AcDbSymbolTable
 70
     2
  0
APPID
  5
12
330
9
100
AcDbSymbolTableRecord
100
AcDbRegAppTableRecord
  2
ACAD
 70
     0
  0
APPID
  5
5E5
330
9
100
AcDbSymbolTableRecord
100
AcDbRegAppTableRecord
  2
ACAD_MLEADERVER
 70
     0
  0
ENDTAB
  0
TABLE
  2
DIMSTYLE
  5
A
330
0
100
AcDbSymbolTable
 70
     1
  0
DIMSTYLE
105
27
102
{ACAD_REACTORS
330
501
330
50F
330
51C
330
529
330
536
330
543
330
550
330
55D
330
56A
330
577
102
}
330
A
100
AcDbSymbolTableRecord
100
AcDbDimStyleTableRecord
  2
ISO-25
 70
     0
  3

  4

  5

  6

  7

 40
1.0
 41
2.5
 42
0.625
 43
3.75
 44
1.25
 45
0.0
 46
0.0
 47
0.0
 48
0.0
140
2.5
141
2.5
142
0.0
143
0.03937007874016
144
1.0
145
0.0
146
1.0
147
0.625
 71
     0
 72
     0
 73
     0
 74
     0
 75
     0
 76
     0
 77
     1
 78
     8
170
     0
171
     3
172
     1
173
     0
174
     0
175
     0
176
     0
177
     0
178
     0
270
     2
271
     2
272
     2
273
     2
274
     3
340
11
275
     0
280
     0
281
     0
282
     0
283
     0
284
     8
285
     0
286
     0
287
     5
288
     0
  0
ENDTAB
  0
TABLE
  2
BLOCK_RECORD
  5
1
330
0
100
AcDbSymbolTable
 70
    24
  0
BLOCK_RECORD
  5
1F
330
1
100
AcDbSymbolTableRecord
100
AcDbBlockTableRecord
  2
*MODEL_SPACE
  0
BLOCK_RECORD
  5
1B
330
1
100
AcDbSymbolTableRecord
100
AcDbBlockTableRecord
  2
*PAPER_SPACE
  0
BLOCK_RECORD
  5
79
330
1
100
AcDbSymbolTableRecord
100
AcDbBlockTableRecord
  2
EX_NORM
  0
BLOCK_RECORD
  5
7C
330
1
100
AcDbSymbolTableRecord
100
AcDbBlockTableRecord
  2
EX_BNORM
  0
BLOCK_RECORD
  5
7F
330
1
100
AcDbSymbolTableRecord
100
AcDbBlockTableRecord
  2
EX_BCIR
  0
BLOCK_RECORD
  5
82
330
1
100
AcDbSymbolTableRecord
100
AcDbBlockTableRecord
  2
EX_RCIVIL
  0
BLOCK_RECORD
  5
85
330
1
100
AcDbSymbolTableRecord
100
AcDbBlockTableRecord
  2
EX_SLANT
  0
BLOCK_RECORD
  5
88
330
1
100
AcDbSymbolTableRecord
100
AcDbBlockTableRecord
  2
EX_NONE
  0
BLOCK_RECORD
  5
8B
330
1
100
AcDbSymbolTableRecord
100
AcDbBlockTableRecord
  2
EX_CIVIL
  0
BLOCK_RECORD
  5
8E
330
1
100
AcDbSymbolTableRecord
100
AcDbBlockTableRecord
  2
EX_WCIR
  0
BLOCK_RECORD
  5
91
330
1
100
AcDbSymbolTableRecord
100
AcDbBlockTableRecord
  2
EX_WCIR2
  0
BLOCK_RECORD
  5
94
330
1
100
AcDbSymbolTableRecord
100
AcDbBlockTableRecord
  2
EX_WNORM
  0
BLOCK_RECORD
  5
97
330
1
100
AcDbSymbolTableRecord
100
AcDbBlockTableRecord
  2
EX_NNORM
  0
BLOCK_RECORD
  5
9A
330
1
100
AcDbSymbolTableRecord
100
AcDbBlockTableRecord
  2
EX_BBOX
  0
BLOCK_RECORD
  5
9D
330
1
100
AcDbSymbolTableRecord
100
AcDbBlockTableRecord
  2
EX_WBOX
  0
BLOCK_RECORD
  5
A0
330
1
100
AcDbSymbolTableRecord
100
AcDbBlockTableRecord
  2
EX_INTEGRAL
  0
BLOCK_RECORD
  5
503
330
1
100
AcDbSymbolTableRecord
100
AcDbBlockTableRecord
  2
*D15
  0
BLOCK_RECORD
  5
510
330
1
100
AcDbSymbolTableRecord
100
AcDbBlockTableRecord
  2
*D16
  0
BLOCK_RECORD
  5
51D
330
1
100
AcDbSymbolTableRecord
100
AcDbBlockTableRecord
  2
*D17
  0
BLOCK_RECORD
  5
52A
330
1
100
AcDbSymbolTableRecord
100
AcDbBlockTableRecord
  2
*D18
  0
BLOCK_RECORD
  5
537
330
1
100
AcDbSymbolTableRecord
100
AcDbBlockTableRecord
  2
*D19
  0
BLOCK_RECORD
  5
544
330
1
100
AcDbSymbolTableRecord
100
AcDbBlockTableRecord
  2
*D20
  0
BLOCK_RECORD
  5
551
330
1
100
AcDbSymbolTableRecord
100
AcDbBlockTableRecord
  2
*D21
  0
BLOCK_RECORD
  5
55E
330
1
100
AcDbSymbolTableRecord
100
AcDbBlockTableRecord
  2
*D22
  0
BLOCK_RECORD
  5
56B
330
1
100
AcDbSymbolTableRecord
100
AcDbBlockTableRecord
  2
*D23
  0
BLOCK_RECORD
  5
578
330
1
100
AcDbSymbolTableRecord
100
AcDbBlockTableRecord
  2
*D24
  0
ENDTAB
  0
ENDSEC
  0
SECTION
  2
BLOCKS
  0
BLOCK
  5
20
330
1F
100
AcDbEntity
  8
0
100
AcDbBlockBegin
  2
*MODEL_SPACE
 70
     0
 10
0.0
 20
0.0
 30
0.0
  3
*MODEL_SPACE
  1

  0
ENDBLK
  5
21
330
1F
100
AcDbEntity
  8
0
100
AcDbBlockEnd
  0
BLOCK
  5
1C
330
1B
100
AcDbEntity
 67
     1
  8
0
100
AcDbBlockBegin
  2
*PAPER_SPACE
 70
     0
 10
0.0
 20
0.0
 30
0.0
  3
*PAPER_SPACE
  1

  0
ENDBLK
  5
1D
330
1B
100
AcDbEntity
 67
     1
  8
0
100
AcDbBlockEnd
  0
BLOCK
  5
7A
330
79
100
AcDbEntity
  8
0
100
AcDbBlockBegin
  2
EX_NORM
 70
     0
 10
0.0
 20
0.0
 30
0.0
  3
EX_NORM
  1

  0
LINE
  5
A3
330
79
100
AcDbEntity
  8
0
  6
CONTINUOUS
 62
     0
100
AcDbLine
 10
0.0
 20
0.0
 30
0.0
 11
-1.0
 21
0.0
 31
0.0
  0
LINE
  5
A4
330
79
100
AcDbEntity
  8
0
  6
CONTINUOUS
 62
     0
100
AcDbLine
 10
0.0
 20
0.0
 30
0.0
 11
-1.0
 21
0.166666667
 31
0.0
  0
LINE
  5
A5
330
79
100
AcDbEntity
  8
0
  6
CONTINUOUS
 62
     0
100
AcDbLine
 10
0.0
 20
0.0
 30
0.0
 11
-1.0
 21
-0.166666667
 31
0.0
  0
ENDBLK
  5
7B
330
79
100
AcDbEntity
  8
0
100
AcDbBlockEnd
  0
BLOCK
  5
7D
330
7C
100
AcDbEntity
  8
0
100
AcDbBlockBegin
  2
EX_BNORM
 70
     0
 10
0.0
 20
0.0
 30
0.0
  3
EX_BNORM
  1

  0
LINE
  5
A6
330
7C
100
AcDbEntity
  8
0
  6
CONTINUOUS
 62
     0
100
AcDbLine
 10
0.0
 20
0.0
 30
0.0
 11
-1.0
 21
0.0
 31
0.0
  0
LINE
  5
A7
330
7C
100
AcDbEntity
  8
0
  6
CONTINUOUS
 62
     0
100
AcDbLine
 10
0.0
 20
0.0
 30
0.0
 11
-1.0
 21
0.166666667
 31
0.0
  0
LINE
  5
A8
330
7C
100
AcDbEntity
  8
0
  6
CONTINUOUS
 62
     0
100
AcDbLine
 10
0.0
 20
0.0
 30
0.0
 11
-1.0
 21
-0.166666667
 31
0.0
  0
LINE
  5
A9
330
7C
100
AcDbEntity
  8
0
  6
CONTINUOUS
 62
     0
100
AcDbLine
 10
0.0
 20
0.0
 30
0.0
 11
-1.0
 21
0.083333333
 31
0.0
  0
LINE
  5
AA
330
7C
100
AcDbEntity
  8
0
  6
CONTINUOUS
 62
     0
100
AcDbLine
 10
0.0
 20
0.0
 30
0.0
 11
-1.0
 21
-0.083333333
 31
0.0
  0
LINE
  5
AB
330
7C
100
AcDbEntity
  8
0
  6
CONTINUOUS
 62
     0
100
AcDbLine
 10
-1.0
 20
0.166666667
 30
0.0
 11
-1.0
 21
-0.166666667
 31
0.0
  0
ENDBLK
  5
7E
330
7C
100
AcDbEntity
  8
0
100
AcDbBlockEnd
  0
BLOCK
  5
80
330
7F
100
AcDbEntity
  8
0
100
AcDbBlockBegin
  2
EX_BCIR
 70
     0
 10
0.0
 20
0.0
 30
0.0
  3
EX_BCIR
  1

  0
LINE
  5
AC
330
7F
100
AcDbEntity
  8
0
  6
CONTINUOUS
 62
     0
100
AcDbLine
 10
0.0
 20
0.0
 30
0.0
 11
-1.0
 21
0.0
 31
0.0
  0
CIRCLE
  5
AD
330
7F
100
AcDbEntity
  8
0
  6
CONTINUOUS
 62
     0
100
AcDbCircle
 10
0.0
 20
0.0
 30
0.0
 40
0.5
  0
CIRCLE
  5
AE
330
7F
100
AcDbEntity
  8
0
  6
CONTINUOUS
 62
     0
100
AcDbCircle
 10
0.0
 20
0.0
 30
0.0
 40
0.25
  0
ENDBLK
  5
81
330
7F
100
AcDbEntity
  8
0
100
AcDbBlockEnd
  0
BLOCK
  5
83
330
82
100
AcDbEntity
  8
0
100
AcDbBlockBegin
  2
EX_RCIVIL
 70
     0
 10
0.0
 20
0.0
 30
0.0
  3
EX_RCIVIL
  1

  0
LINE
  5
AF
330
82
100
AcDbEntity
  8
0
  6
CONTINUOUS
 62
     0
100
AcDbLine
 10
0.0
 20
0.0
 30
0.0
 11
-1.0
 21
0.0
 31
0.0
  0
LINE
  5
B0
330
82
100
AcDbEntity
  8
0
  6
CONTINUOUS
 62
     0
100
AcDbLine
 10
-1.0
 20
-0.25
 30
0.0
 11
0.0
 21
-0.25
 31
0.0
  0
LINE
  5
B1
330
82
100
AcDbEntity
  8
0
  6
CONTINUOUS
 62
     0
100
AcDbLine
 10
-1.0
 20
-0.125
 30
0.0
 11
0.0
 21
-0.125
 31
0.0
  0
ENDBLK
  5
84
330
82
100
AcDbEntity
  8
0
100
AcDbBlockEnd
  0
BLOCK
  5
86
330
85
100
AcDbEntity
  8
0
100
AcDbBlockBegin
  2
EX_SLANT
 70
     0
 10
0.0
 20
0.0
 30
0.0
  3
EX_SLANT
  1

  0
LINE
  5
B2
330
85
100
AcDbEntity
  8
0
  6
CONTINUOUS
 62
     0
100
AcDbLine
 10
0.0
 20
0.0
 30
0.0
 11
-1.0
 21
0.0
 31
0.0
  0
LINE
  5
B3
330
85
100
AcDbEntity
  8
0
  6
CONTINUOUS
 62
     0
100
AcDbLine
 10
0.707106781
 20
0.707106781
 30
0.0
 11
-0.707106781
 21
-0.707106781
 31
0.0
  0
ENDBLK
  5
87
330
85
100
AcDbEntity
  8
0
100
AcDbBlockEnd
  0
BLOCK
  5
89
330
88
100
AcDbEntity
  8
0
100
AcDbBlockBegin
  2
EX_NONE
 70
     0
 10
0.0
 20
0.0
 30
0.0
  3
EX_NONE
  1

  0
LINE
  5
B4
330
88
100
AcDbEntity
  8
0
  6
CONTINUOUS
 62
     0
100
AcDbLine
 10
0.0
 20
0.0
 30
0.0
 11
-1.0
 21
0.0
 31
0.0
  0
ENDBLK
  5
8A
330
88
100
AcDbEntity
  8
0
100
AcDbBlockEnd
  0
BLOCK
  5
8C
330
8B
100
AcDbEntity
  8
0
100
AcDbBlockBegin
  2
EX_CIVIL
 70
     0
 10
0.0
 20
0.0
 30
0.0
  3
EX_CIVIL
  1

  0
LINE
  5
B5
330
8B
100
AcDbEntity
  8
0
  6
CONTINUOUS
 62
     0
100
AcDbLine
 10
0.0
 20
0.0
 30
0.0
 11
-1.0
 21
0.0
 31
0.0
  0
LINE
  5
B6
330
8B
100
AcDbEntity
  8
0
  6
CONTINUOUS
 62
     0
100
AcDbLine
 10
-1.0
 20
0.25
 30
0.0
 11
0.0
 21
0.25
 31
0.0
  0
LINE
  5
B7
330
8B
100
AcDbEntity
  8
0
  6
CONTINUOUS
 62
     0
100
AcDbLine
 10
-1.0
 20
0.125
 30
0.0
 11
0.0
 21
0.125
 31
0.0
  0
ENDBLK
  5
8D
330
8B
100
AcDbEntity
  8
0
100
AcDbBlockEnd
  0
BLOCK
  5
8F
330
8E
100
AcDbEntity
  8
0
100
AcDbBlockBegin
  2
EX_WCIR
 70
     0
 10
0.0
 20
0.0
 30
0.0
  3
EX_WCIR
  1

  0
LINE
  5
B8
330
8E
100
AcDbEntity
  8
0
  6
CONTINUOUS
 62
     0
100
AcDbLine
 10
0.0
 20
0.0
 30
0.0
 11
-1.0
 21
0.0
 31
0.0
  0
CIRCLE
  5
B9
330
8E
100
AcDbEntity
  8
0
  6
CONTINUOUS
 62
     0
100
AcDbCircle
 10
0.0
 20
0.0
 30
0.0
 40
0.5
  0
ENDBLK
  5
90
330
8E
100
AcDbEntity
  8
0
100
AcDbBlockEnd
  0
BLOCK
  5
92
330
91
100
AcDbEntity
  8
0
100
AcDbBlockBegin
  2
EX_WCIR2
 70
     0
 10
0.0
 20
0.0
 30
0.0
  3
EX_WCIR2
  1

  0
LINE
  5
BA
330
91
100
AcDbEntity
  8
0
  6
CONTINUOUS
 62
     0
100
AcDbLine
 10
-0.5
 20
0.0
 30
0.0
 11
-1.0
 21
0.0
 31
0.0
  0
CIRCLE
  5
BB
330
91
100
AcDbEntity
  8
0
  6
CONTINUOUS
 62
     0
100
AcDbCircle
 10
0.0
 20
0.0
 30
0.0
 40
0.5
  0
ENDBLK
  5
93
330
91
100
AcDbEntity
  8
0
100
AcDbBlockEnd
  0
BLOCK
  5
95
330
94
100
AcDbEntity
  8
0
100
AcDbBlockBegin
  2
EX_WNORM
 70
     0
 10
0.0
 20
0.0
 30
0.0
  3
EX_WNORM
  1

  0
LINE
  5
BC
330
94
100
AcDbEntity
  8
0
  6
CONTINUOUS
 62
     0
100
AcDbLine
 10
-1.0
 20
0.0
 30
0.0
 11
-1.0
 21
0.0
 31
0.0
  0
LINE
  5
BD
330
94
100
AcDbEntity
  8
0
  6
CONTINUOUS
 62
     0
100
AcDbLine
 10
0.0
 20
0.0
 30
0.0
 11
-1.0
 21
0.166666667
 31
0.0
  0
LINE
  5
BE
330
94
100
AcDbEntity
  8
0
  6
CONTINUOUS
 62
     0
100
AcDbLine
 10
0.0
 20
0.0
 30
0.0
 11
-1.0
 21
-0.166666667
 31
0.0
  0
LINE
  5
BF
330
94
100
AcDbEntity
  8
0
  6
CONTINUOUS
 62
     0
100
AcDbLine
 10
-1.0
 20
0.166666667
 30
0.0
 11
-1.0
 21
-0.166666667
 31
0.0
  0
ENDBLK
  5
96
330
94
100
AcDbEntity
  8
0
100
AcDbBlockEnd
  0
BLOCK
  5
98
330
97
100
AcDbEntity
  8
0
100
AcDbBlockBegin
  2
EX_NNORM
 70
     0
 10
0.0
 20
0.0
 30
0.0
  3
EX_NNORM
  1

  0
LINE
  5
C0
330
97
100
AcDbEntity
  8
0
  6
CONTINUOUS
 62
     0
100
AcDbLine
 10
0.0
 20
0.0
 30
0.0
 11
-1.0
 21
0.0
 31
0.0
  0
LINE
  5
C1
330
97
100
AcDbEntity
  8
0
  6
CONTINUOUS
 62
     0
100
AcDbLine
 10
0.0
 20
0.0
 30
0.0
 11
-1.0
 21
0.166666667
 31
0.0
  0
LINE
  5
C2
330
97
100
AcDbEntity
  8
0
  6
CONTINUOUS
 62
     0
100
AcDbLine
 10
0.0
 20
0.0
 30
0.0
 11
-1.0
 21
-0.166666667
 31
0.0
  0
LINE
  5
C3
330
97
100
AcDbEntity
  8
0
  6
CONTINUOUS
 62
     0
100
AcDbLine
 10
-1.0
 20
0.166666667
 30
0.0
 11
-1.0
 21
-0.166666667
 31
0.0
  0
ENDBLK
  5
99
330
97
100
AcDbEntity
  8
0
100
AcDbBlockEnd
  0
BLOCK
  5
9B
330
9A
100
AcDbEntity
  8
0
100
AcDbBlockBegin
  2
EX_BBOX
 70
     0
 10
0.0
 20
0.0
 30
0.0
  3
EX_BBOX
  1

  0
LINE
  5
C4
330
9A
100
AcDbEntity
  8
0
  6
CONTINUOUS
 62
     0
100
AcDbLine
 10
0.0
 20
0.0
 30
0.0
 11
-1.0
 21
0.0
 31
0.0
  0
LINE
  5
C5
330
9A
100
AcDbEntity
  8
0
  6
CONTINUOUS
 62
     0
100
AcDbLine
 10
-0.5
 20
0.5
 30
0.0
 11
0.5
 21
0.5
 31
0.0
  0
LINE
  5
C6
330
9A
100
AcDbEntity
  8
0
  6
CONTINUOUS
 62
     0
100
AcDbLine
 10
0.5
 20
0.5
 30
0.0
 11
0.5
 21
-0.5
 31
0.0
  0
LINE
  5
C7
330
9A
100
AcDbEntity
  8
0
  6
CONTINUOUS
 62
     0
100
AcDbLine
 10
0.5
 20
-0.5
 30
0.0
 11
-0.5
 21
-0.5
 31
0.0
  0
LINE
  5
C8
330
9A
100
AcDbEntity
  8
0
  6
CONTINUOUS
 62
     0
100
AcDbLine
 10
-0.5
 20
-0.5
 30
0.0
 11
-0.5
 21
0.5
 31
0.0
  0
LINE
  5
C9
330
9A
100
AcDbEntity
  8
0
  6
CONTINUOUS
 62
     0
100
AcDbLine
 10
-0.25
 20
0.25
 30
0.0
 11
0.25
 21
0.25
 31
0.0
  0
LINE
  5
CA
330
9A
100
AcDbEntity
  8
0
  6
CONTINUOUS
 62
     0
100
AcDbLine
 10
0.25
 20
0.25
 30
0.0
 11
0.25
 21
-0.25
 31
0.0
  0
LINE
  5
CB
330
9A
100
AcDbEntity
  8
0
  6
CONTINUOUS
 62
     0
100
AcDbLine
 10
0.25
 20
-0.25
 30
0.0
 11
-0.25
 21
-0.25
 31
0.0
  0
LINE
  5
CC
330
9A
100
AcDbEntity
  8
0
  6
CONTINUOUS
 62
     0
100
AcDbLine
 10
-0.25
 20
-0.25
 30
0.0
 11
-0.25
 21
0.25
 31
0.0
  0
ENDBLK
  5
9C
330
9A
100
AcDbEntity
  8
0
100
AcDbBlockEnd
  0
BLOCK
  5
9E
330
9D
100
AcDbEntity
  8
0
100
AcDbBlockBegin
  2
EX_WBOX
 70
     0
 10
0.0
 20
0.0
 30
0.0
  3
EX_WBOX
  1

  0
LINE
  5
CD
330
9D
100
AcDbEntity
  8
0
  6
CONTINUOUS
 62
     0
100
AcDbLine
 10
-0.5
 20
0.0
 30
0.0
 11
-1.0
 21
0.0
 31
0.0
  0
LINE
  5
CE
330
9D
100
AcDbEntity
  8
0
  6
CONTINUOUS
 62
     0
100
AcDbLine
 10
-0.5
 20
0.5
 30
0.0
 11
0.5
 21
0.5
 31
0.0
  0
LINE
  5
CF
330
9D
100
AcDbEntity
  8
0
  6
CONTINUOUS
 62
     0
100
AcDbLine
 10
0.5
 20
0.5
 30
0.0
 11
0.5
 21
-0.5
 31
0.0
  0
LINE
  5
D0
330
9D
100
AcDbEntity
  8
0
  6
CONTINUOUS
 62
     0
100
AcDbLine
 10
0.5
 20
-0.5
 30
0.0
 11
-0.5
 21
-0.5
 31
0.0
  0
LINE
  5
D1
330
9D
100
AcDbEntity
  8
0
  6
CONTINUOUS
 62
     0
100
AcDbLine
 10
-0.5
 20
-0.5
 30
0.0
 11
-0.5
 21
0.5
 31
0.0
  0
ENDBLK
  5
9F
330
9D
100
AcDbEntity
  8
0
100
AcDbBlockEnd
  0
BLOCK
  5
A1
330
A0
100
AcDbEntity
  8
0
100
AcDbBlockBegin
  2
EX_INTEGRAL
 70
     0
 10
0.0
 20
0.0
 30
0.0
  3
EX_INTEGRAL
  1

  0
LINE
  5
D2
330
A0
100
AcDbEntity
  8
0
  6
CONTINUOUS
 62
     0
100
AcDbLine
 10
0.0
 20
0.0
 30
0.0
 11
-1.0
 21
0.0
 31
0.0
  0
ARC
  5
D3
330
A0
100
AcDbEntity
  8
0
  6
CONTINUOUS
 62
     0
100
AcDbCircle
 10
0.542115
 20
0.164992
 30
0.0
 40
0.56667
100
AcDbArc
 50
73.07249033629006
 51
196.9275130221199
  0
ARC
  5
D4
330
A0
100
AcDbEntity
  8
0
  6
CONTINUOUS
 62
     0
100
AcDbCircle
 10
-0.542115
 20
-0.164992
 30
0.0
 40
0.56667
100
AcDbArc
 50
253.0724869220464
 51
16.9275130559125
  0
ENDBLK
  5
A2
330
A0
100
AcDbEntity
  8
0
100
AcDbBlockEnd
  0
BLOCK
  5
504
330
503
100
AcDbEntity
  8
0
100
AcDbBlockBegin
  2
*D15
 70
     1
 10
0.0
 20
0.0
 30
0.0
  3
*D15
  1

  0
LINE
  5
506
330
503
100
AcDbEntity
  8
LAY-20
  6
CONTINUOUS
 62
     4
100
AcDbLine
 10
1667.8705301214
 20
538.7421327782004
 30
0.0
 11
1851.5690149312
 21
538.7421327782004
 31
0.0
  0
LINE
  5
507
330
503
100
AcDbEntity
  8
LAY-20
  6
CONTINUOUS
 62
     4
100
AcDbLine
 10
1722.6705301214
 20
683.7421327782001
 30
0.0
 11
1851.5690149312
 21
683.7421327782001
 31
0.0
  0
LINE
  5
508
330
503
100
AcDbEntity
  8
LAY-20
  6
CONTINUOUS
 62
     4
100
AcDbLine
 10
1836.5690149312
 20
563.7421327782004
 30
0.0
 11
1836.5690149312
 21
658.7421327782001
 31
0.0
  0
INSERT
  5
509
330
503
100
AcDbEntity
  8
LAY-20
 62
     4
100
AcDbBlockReference
  2
EX_BNORM
 10
1836.5690149312
 20
538.7421327782004
 30
0.0
 41
25.0
 42
25.0
 43
25.0
 50
270.0
  0
INSERT
  5
50A
330
503
100
AcDbEntity
  8
LAY-20
 62
     4
100
AcDbBlockReference
  2
EX_BNORM
 10
1836.5690149312
 20
683.7421327782001
 30
0.0
 41
25.0
 42
25.0
 43
25.0
 50
90.0
  0
MTEXT
  5
50B
330
503
100
AcDbEntity
  8
LAY-20
 62
     7
100
AcDbMText
 10
1811.5690149312
 20
611.2421327781999
 30
0.0
 40
31.181104
 41
0.0
 71
     5
 72
     1
  1
145
  7
EXCADDIM1
 11
0.0
 21
1.0
 31
0.0
  0
POINT
  5
50C
330
503
100
AcDbEntity
  8
DEFPOINTS
 62
     0
100
AcDbPoint
 10
1652.8705301214
 20
538.7421327782004
 30
0.0
  0
POINT
  5
50D
330
503
100
AcDbEntity
  8
DEFPOINTS
 62
     0
100
AcDbPoint
 10
1707.6705301214
 20
683.7421327782001
 30
0.0
  0
POINT
  5
50E
330
503
100
AcDbEntity
  8
DEFPOINTS
 62
     0
100
AcDbPoint
 10
1836.5690149312
 20
683.7421327782001
 30
0.0
  0
ENDBLK
  5
505
330
503
100
AcDbEntity
  8
0
100
AcDbBlockEnd
  0
BLOCK
  5
511
330
510
100
AcDbEntity
  8
0
100
AcDbBlockBegin
  2
*D16
 70
     1
 10
0.0
 20
0.0
 30
0.0
  3
*D16
  1

  0
LINE
  5
513
330
510
100
AcDbEntity
  8
LAY-20
  6
CONTINUOUS
 62
     4
100
AcDbLine
 10
2115.885681597951
 20
1106.960098720899
 30
0.0
 11
1945.885681598001
 21
1106.9600987209
 31
0.0
  0
LINE
  5
514
330
510
100
AcDbEntity
  8
LAY-20
  6
CONTINUOUS
 62
     4
100
AcDbLine
 10
2115.885681597991
 20
2308.960098720899
 30
0.0
 11
1945.885681598001
 21
2308.960098720899
 31
0.0
  0
LINE
  5
515
330
510
100
AcDbEntity
  8
LAY-20
  6
CONTINUOUS
 62
     4
100
AcDbLine
 10
1960.885681598001
 20
1131.9600987209
 30
0.0
 11
1960.885681598001
 21
2283.960098720899
 31
0.0
  0
INSERT
  5
516
330
510
100
AcDbEntity
  8
LAY-20
 62
     4
100
AcDbBlockReference
  2
EX_BNORM
 10
1960.885681598001
 20
1106.9600987209
 30
0.0
 41
25.0
 42
25.0
 43
25.0
 50
270.0
  0
INSERT
  5
517
330
510
100
AcDbEntity
  8
LAY-20
 62
     4
100
AcDbBlockReference
  2
EX_BNORM
 10
1960.885681598001
 20
2308.960098720899
 30
0.0
 41
25.0
 42
25.0
 43
25.0
 50
90.0
  0
MTEXT
  5
518
330
510
100
AcDbEntity
  8
LAY-20
 62
     7
100
AcDbMText
 10
1935.885681598001
 20
1707.960098720899
 30
0.0
 40
31.181104
 41
0.0
 71
     5
 72
     1
  1
1202
  7
EXCADDIM1
 11
0.0
 21
1.0
 31
0.0
  0
POINT
  5
519
330
510
100
AcDbEntity
  8
DEFPOINTS
 62
     0
100
AcDbPoint
 10
2130.885681597951
 20
1106.960098720899
 30
0.0
  0
POINT
  5
51A
330
510
100
AcDbEntity
  8
DEFPOINTS
 62
     0
100
AcDbPoint
 10
2130.885681597991
 20
2308.960098720899
 30
0.0
  0
POINT
  5
51B
330
510
100
AcDbEntity
  8
DEFPOINTS
 62
     0
100
AcDbPoint
 10
1960.885681598001
 20
2308.960098720899
 30
0.0
  0
ENDBLK
  5
512
330
510
100
AcDbEntity
  8
0
100
AcDbBlockEnd
  0
BLOCK
  5
51E
330
51D
100
AcDbEntity
  8
0
100
AcDbBlockBegin
  2
*D17
 70
     1
 10
0.0
 20
0.0
 30
0.0
  3
*D17
  1

  0
LINE
  5
520
330
51D
100
AcDbEntity
  8
LAY-20
  6
CONTINUOUS
 62
     4
100
AcDbLine
 10
2115.885681597992
 20
1122.960098720919
 30
0.0
 11
2015.885681598001
 21
1122.960098720919
 31
0.0
  0
LINE
  5
521
330
51D
100
AcDbEntity
  8
LAY-20
  6
CONTINUOUS
 62
     4
100
AcDbLine
 10
2115.885681597992
 20
2292.960098720915
 30
0.0
 11
2015.885681598001
 21
2292.960098720915
 31
0.0
  0
LINE
  5
522
330
51D
100
AcDbEntity
  8
LAY-20
  6
CONTINUOUS
 62
     4
100
AcDbLine
 10
2030.885681598001
 20
1147.960098720919
 30
0.0
 11
2030.885681598001
 21
2267.960098720915
 31
0.0
  0
INSERT
  5
523
330
51D
100
AcDbEntity
  8
LAY-20
 62
     4
100
AcDbBlockReference
  2
EX_BNORM
 10
2030.885681598001
 20
1122.960098720919
 30
0.0
 41
25.0
 42
25.0
 43
25.0
 50
270.0
  0
INSERT
  5
524
330
51D
100
AcDbEntity
  8
LAY-20
 62
     4
100
AcDbBlockReference
  2
EX_BNORM
 10
2030.885681598001
 20
2292.960098720915
 30
0.0
 41
25.0
 42
25.0
 43
25.0
 50
90.0
  0
MTEXT
  5
525
330
51D
100
AcDbEntity
  8
LAY-20
 62
     7
100
AcDbMText
 10
2005.885681598001
 20
1707.960098720917
 30
0.0
 40
31.181104
 41
0.0
 71
     5
 72
     1
  1
1170
  7
EXCADDIM1
 11
0.0
 21
1.0
 31
0.0
  0
POINT
  5
526
330
51D
100
AcDbEntity
  8
DEFPOINTS
 62
     0
100
AcDbPoint
 10
2130.885681597992
 20
1122.960098720919
 30
0.0
  0
POINT
  5
527
330
51D
100
AcDbEntity
  8
DEFPOINTS
 62
     0
100
AcDbPoint
 10
2130.885681597992
 20
2292.960098720915
 30
0.0
  0
POINT
  5
528
330
51D
100
AcDbEntity
  8
DEFPOINTS
 62
     0
100
AcDbPoint
 10
2030.885681598001
 20
2292.960098720915
 30
0.0
  0
ENDBLK
  5
51F
330
51D
100
AcDbEntity
  8
0
100
AcDbBlockEnd
  0
BLOCK
  5
52B
330
52A
100
AcDbEntity
  8
0
100
AcDbBlockBegin
  2
*D18
 70
     1
 10
0.0
 20
0.0
 30
0.0
  3
*D18
  1

  0
LINE
  5
52D
330
52A
100
AcDbEntity
  8
LAY-20
  6
CONTINUOUS
 62
     4
100
AcDbLine
 10
2290.885681597991
 20
2207.960098721
 30
0.0
 11
2390.885681598001
 21
2207.960098721
 31
0.0
  0
LINE
  5
52E
330
52A
100
AcDbEntity
  8
LAY-20
  6
CONTINUOUS
 62
     4
100
AcDbLine
 10
2290.885681597991
 20
1207.9600987209
 30
0.0
 11
2390.885681598001
 21
1207.9600987209
 31
0.0
  0
LINE
  5
52F
330
52A
100
AcDbEntity
  8
LAY-20
  6
CONTINUOUS
 62
     4
100
AcDbLine
 10
2375.885681598001
 20
2182.960098721
 30
0.0
 11
2375.885681598001
 21
1232.9600987209
 31
0.0
  0
INSERT
  5
530
330
52A
100
AcDbEntity
  8
LAY-20
 62
     4
100
AcDbBlockReference
  2
EX_BNORM
 10
2375.885681598001
 20
2207.960098721
 30
0.0
 41
25.0
 42
25.0
 43
25.0
 50
90.0
  0
INSERT
  5
531
330
52A
100
AcDbEntity
  8
LAY-20
 62
     4
100
AcDbBlockReference
  2
EX_BNORM
 10
2375.885681598001
 20
1207.9600987209
 30
0.0
 41
25.0
 42
25.0
 43
25.0
 50
270.0
  0
MTEXT
  5
532
330
52A
100
AcDbEntity
  8
LAY-20
 62
     7
100
AcDbMText
 10
2350.885681598001
 20
1707.96009872095
 30
0.0
 40
31.181104
 41
0.0
 71
     5
 72
     1
  1
1000
  7
EXCADDIM1
 11
0.0
 21
1.0
 31
0.0
  0
POINT
  5
533
330
52A
100
AcDbEntity
  8
DEFPOINTS
 62
     0
100
AcDbPoint
 10
2275.885681597991
 20
2207.960098721
 30
0.0
  0
POINT
  5
534
330
52A
100
AcDbEntity
  8
DEFPOINTS
 62
     0
100
AcDbPoint
 10
2275.885681597991
 20
1207.9600987209
 30
0.0
  0
POINT
  5
535
330
52A
100
AcDbEntity
  8
DEFPOINTS
 62
     0
100
AcDbPoint
 10
2375.885681598001
 20
1207.9600987209
 30
0.0
  0
ENDBLK
  5
52C
330
52A
100
AcDbEntity
  8
0
100
AcDbBlockEnd
  0
BLOCK
  5
538
330
537
100
AcDbEntity
  8
0
100
AcDbBlockBegin
  2
*D19
 70
     1
 10
0.0
 20
0.0
 30
0.0
  3
*D19
  1

  0
LINE
  5
53A
330
537
100
AcDbEntity
  8
LAY-20
  6
CONTINUOUS
 62
     4
100
AcDbLine
 10
2193.285681598
 20
2300.160098720799
 30
0.0
 11
2460.885681598001
 21
2300.160098720799
 31
0.0
  0
LINE
  5
53B
330
537
100
AcDbEntity
  8
LAY-20
  6
CONTINUOUS
 62
     4
100
AcDbLine
 10
2193.2856815979
 20
1115.7600987209
 30
0.0
 11
2460.885681598001
 21
1115.7600987209
 31
0.0
  0
LINE
  5
53C
330
537
100
AcDbEntity
  8
LAY-20
  6
CONTINUOUS
 62
     4
100
AcDbLine
 10
2445.885681598001
 20
2275.160098720799
 30
0.0
 11
2445.885681598001
 21
1140.7600987209
 31
0.0
  0
INSERT
  5
53D
330
537
100
AcDbEntity
  8
LAY-20
 62
     4
100
AcDbBlockReference
  2
EX_BNORM
 10
2445.885681598001
 20
2300.160098720799
 30
0.0
 41
25.0
 42
25.0
 43
25.0
 50
90.0
  0
INSERT
  5
53E
330
537
100
AcDbEntity
  8
LAY-20
 62
     4
100
AcDbBlockReference
  2
EX_BNORM
 10
2445.885681598001
 20
1115.7600987209
 30
0.0
 41
25.0
 42
25.0
 43
25.0
 50
270.0
  0
MTEXT
  5
53F
330
537
100
AcDbEntity
  8
LAY-20
 62
     7
100
AcDbMText
 10
2420.885681598001
 20
1707.96009872085
 30
0.0
 40
31.181104
 41
0.0
 71
     5
 72
     1
  1
1184
  7
EXCADDIM1
 11
0.0
 21
1.0
 31
0.0
  0
POINT
  5
540
330
537
100
AcDbEntity
  8
DEFPOINTS
 62
     0
100
AcDbPoint
 10
2178.285681598
 20
2300.160098720799
 30
0.0
  0
POINT
  5
541
330
537
100
AcDbEntity
  8
DEFPOINTS
 62
     0
100
AcDbPoint
 10
2178.2856815979
 20
1115.7600987209
 30
0.0
  0
POINT
  5
542
330
537
100
AcDbEntity
  8
DEFPOINTS
 62
     0
100
AcDbPoint
 10
2445.885681598001
 20
1115.7600987209
 30
0.0
  0
ENDBLK
  5
539
330
537
100
AcDbEntity
  8
0
100
AcDbBlockEnd
  0
BLOCK
  5
545
330
544
100
AcDbEntity
  8
0
100
AcDbBlockBegin
  2
*D20
 70
     1
 10
0.0
 20
0.0
 30
0.0
  3
*D20
  1

  0
LINE
  5
547
330
544
100
AcDbEntity
  8
LAY-20
  6
CONTINUOUS
 62
     4
100
AcDbLine
 10
1698.8705301211
 20
621.3421327781994
 30
0.0
 11
1698.8705301211
 21
353.7421327781992
 31
0.0
  0
LINE
  5
548
330
544
100
AcDbEntity
  8
LAY-20
  6
CONTINUOUS
 62
     4
100
AcDbLine
 10
514.4705301211998
 20
621.3421327782996
 30
0.0
 11
514.4705301211998
 21
353.7421327781992
 31
0.0
  0
LINE
  5
549
330
544
100
AcDbEntity
  8
LAY-20
  6
CONTINUOUS
 62
     4
100
AcDbLine
 10
1673.8705301211
 20
368.7421327781992
 30
0.0
 11
539.4705301211998
 21
368.7421327781992
 31
0.0
  0
INSERT
  5
54A
330
544
100
AcDbEntity
  8
LAY-20
 62
     4
100
AcDbBlockReference
  2
EX_BNORM
 10
1698.8705301211
 20
368.7421327781992
 30
0.0
 41
25.0
 42
25.0
 43
25.0
  0
INSERT
  5
54B
330
544
100
AcDbEntity
  8
LAY-20
 62
     4
100
AcDbBlockReference
  2
EX_BNORM
 10
514.4705301211998
 20
368.7421327781992
 30
0.0
 41
25.0
 42
25.0
 43
25.0
 50
180.0
  0
MTEXT
  5
54C
330
544
100
AcDbEntity
  8
LAY-20
 62
     7
100
AcDbMText
 10
1106.67053012115
 20
393.7421327781991
 30
0.0
 40
31.181104
 41
0.0
 71
     5
 72
     1
  1
1184
  7
EXCADDIM1
  0
POINT
  5
54D
330
544
100
AcDbEntity
  8
DEFPOINTS
 62
     0
100
AcDbPoint
 10
1698.8705301211
 20
636.3421327781994
 30
0.0
  0
POINT
  5
54E
330
544
100
AcDbEntity
  8
DEFPOINTS
 62
     0
100
AcDbPoint
 10
514.4705301211998
 20
636.3421327782996
 30
0.0
  0
POINT
  5
54F
330
544
100
AcDbEntity
  8
DEFPOINTS
 62
     0
100
AcDbPoint
 10
514.4705301211998
 20
368.7421327781992
 30
0.0
  0
ENDBLK
  5
546
330
544
100
AcDbEntity
  8
0
100
AcDbBlockEnd
  0
BLOCK
  5
552
330
551
100
AcDbEntity
  8
0
100
AcDbBlockBegin
  2
*D21
 70
     1
 10
0.0
 20
0.0
 30
0.0
  3
*D21
  1

  0
LINE
  5
554
330
551
100
AcDbEntity
  8
LAY-20
  6
CONTINUOUS
 62
     4
100
AcDbLine
 10
1606.6705301213
 20
523.742132778209
 30
0.0
 11
1606.6705301213
 21
423.7421327781992
 31
0.0
  0
LINE
  5
555
330
551
100
AcDbEntity
  8
LAY-20
  6
CONTINUOUS
 62
     4
100
AcDbLine
 10
606.6705301212005
 20
523.7421327782092
 30
0.0
 11
606.6705301212005
 21
423.7421327781992
 31
0.0
  0
LINE
  5
556
330
551
100
AcDbEntity
  8
LAY-20
  6
CONTINUOUS
 62
     4
100
AcDbLine
 10
1581.6705301213
 20
438.7421327781992
 30
0.0
 11
631.6705301212005
 21
438.7421327781992
 31
0.0
  0
INSERT
  5
557
330
551
100
AcDbEntity
  8
LAY-20
 62
     4
100
AcDbBlockReference
  2
EX_BNORM
 10
1606.6705301213
 20
438.7421327781992
 30
0.0
 41
25.0
 42
25.0
 43
25.0
  0
INSERT
  5
558
330
551
100
AcDbEntity
  8
LAY-20
 62
     4
100
AcDbBlockReference
  2
EX_BNORM
 10
606.6705301212005
 20
438.7421327781992
 30
0.0
 41
25.0
 42
25.0
 43
25.0
 50
180.0
  0
MTEXT
  5
559
330
551
100
AcDbEntity
  8
LAY-20
 62
     7
100
AcDbMText
 10
1106.67053012125
 20
463.7421327781987
 30
0.0
 40
31.181104
 41
0.0
 71
     5
 72
     1
  1
1000
  7
EXCADDIM1
  0
POINT
  5
55A
330
551
100
AcDbEntity
  8
DEFPOINTS
 62
     0
100
AcDbPoint
 10
1606.6705301213
 20
538.742132778209
 30
0.0
  0
POINT
  5
55B
330
551
100
AcDbEntity
  8
DEFPOINTS
 62
     0
100
AcDbPoint
 10
606.6705301212005
 20
538.7421327782092
 30
0.0
  0
POINT
  5
55C
330
551
100
AcDbEntity
  8
DEFPOINTS
 62
     0
100
AcDbPoint
 10
606.6705301212005
 20
438.7421327781992
 30
0.0
  0
ENDBLK
  5
553
330
551
100
AcDbEntity
  8
0
100
AcDbBlockEnd
  0
BLOCK
  5
55F
330
55E
100
AcDbEntity
  8
0
100
AcDbBlockBegin
  2
*D22
 70
     1
 10
0.0
 20
0.0
 30
0.0
  3
*D22
  1

  0
LINE
  5
561
330
55E
100
AcDbEntity
  8
LAY-20
  6
CONTINUOUS
 62
     4
100
AcDbLine
 10
505.6705301211996
 20
698.7421327782491
 30
0.0
 11
505.6705301211996
 21
868.742132778199
 31
0.0
  0
LINE
  5
562
330
55E
100
AcDbEntity
  8
LAY-20
  6
CONTINUOUS
 62
     4
100
AcDbLine
 10
1707.670530121199
 20
698.742132778209
 30
0.0
 11
1707.670530121199
 21
868.742132778199
 31
0.0
  0
LINE
  5
563
330
55E
100
AcDbEntity
  8
LAY-20
  6
CONTINUOUS
 62
     4
100
AcDbLine
 10
530.6705301211996
 20
853.742132778199
 30
0.0
 11
1682.670530121199
 21
853.742132778199
 31
0.0
  0
INSERT
  5
564
330
55E
100
AcDbEntity
  8
LAY-20
 62
     4
100
AcDbBlockReference
  2
EX_BNORM
 10
505.6705301211996
 20
853.742132778199
 30
0.0
 41
25.0
 42
25.0
 43
25.0
 50
180.0
  0
INSERT
  5
565
330
55E
100
AcDbEntity
  8
LAY-20
 62
     4
100
AcDbBlockReference
  2
EX_BNORM
 10
1707.670530121199
 20
853.742132778199
 30
0.0
 41
25.0
 42
25.0
 43
25.0
  0
MTEXT
  5
566
330
55E
100
AcDbEntity
  8
LAY-20
 62
     7
100
AcDbMText
 10
1106.670530121199
 20
878.7421327781989
 30
0.0
 40
31.181104
 41
0.0
 71
     5
 72
     1
  1
1202
  7
EXCADDIM1
  0
POINT
  5
567
330
55E
100
AcDbEntity
  8
DEFPOINTS
 62
     0
100
AcDbPoint
 10
505.6705301211996
 20
683.7421327782491
 30
0.0
  0
POINT
  5
568
330
55E
100
AcDbEntity
  8
DEFPOINTS
 62
     0
100
AcDbPoint
 10
1707.670530121199
 20
683.742132778209
 30
0.0
  0
POINT
  5
569
330
55E
100
AcDbEntity
  8
DEFPOINTS
 62
     0
100
AcDbPoint
 10
1707.670530121199
 20
853.742132778199
 30
0.0
  0
ENDBLK
  5
560
330
55E
100
AcDbEntity
  8
0
100
AcDbBlockEnd
  0
BLOCK
  5
56C
330
56B
100
AcDbEntity
  8
0
100
AcDbBlockBegin
  2
*D23
 70
     1
 10
0.0
 20
0.0
 30
0.0
  3
*D23
  1

  0
LINE
  5
56E
330
56B
100
AcDbEntity
  8
LAY-20
  6
CONTINUOUS
 62
     4
100
AcDbLine
 10
521.6705301212191
 20
698.7421327782082
 30
0.0
 11
521.6705301212191
 21
798.742132778199
 31
0.0
  0
LINE
  5
56F
330
56B
100
AcDbEntity
  8
LAY-20
  6
CONTINUOUS
 62
     4
100
AcDbLine
 10
910.6705301214351
 20
698.7421327782081
 30
0.0
 11
910.6705301214351
 21
798.742132778199
 31
0.0
  0
LINE
  5
570
330
56B
100
AcDbEntity
  8
LAY-20
  6
CONTINUOUS
 62
     4
100
AcDbLine
 10
546.6705301212191
 20
783.742132778199
 30
0.0
 11
885.6705301214351
 21
783.742132778199
 31
0.0
  0
INSERT
  5
571
330
56B
100
AcDbEntity
  8
LAY-20
 62
     4
100
AcDbBlockReference
  2
EX_BNORM
 10
521.6705301212191
 20
783.742132778199
 30
0.0
 41
25.0
 42
25.0
 43
25.0
 50
180.0
  0
INSERT
  5
572
330
56B
100
AcDbEntity
  8
LAY-20
 62
     4
100
AcDbBlockReference
  2
EX_BNORM
 10
910.6705301214351
 20
783.742132778199
 30
0.0
 41
25.0
 42
25.0
 43
25.0
  0
MTEXT
  5
573
330
56B
100
AcDbEntity
  8
LAY-20
 62
     7
100
AcDbMText
 10
716.1705301213274
 20
808.7421327781989
 30
0.0
 40
31.181104
 41
0.0
 71
     5
 72
     1
  1
389
  7
EXCADDIM1
  0
POINT
  5
574
330
56B
100
AcDbEntity
  8
DEFPOINTS
 62
     0
100
AcDbPoint
 10
521.6705301212191
 20
683.7421327782082
 30
0.0
  0
POINT
  5
575
330
56B
100
AcDbEntity
  8
DEFPOINTS
 62
     0
100
AcDbPoint
 10
910.6705301214351
 20
683.7421327782081
 30
0.0
  0
POINT
  5
576
330
56B
100
AcDbEntity
  8
DEFPOINTS
 62
     0
100
AcDbPoint
 10
910.6705301214351
 20
783.742132778199
 30
0.0
  0
ENDBLK
  5
56D
330
56B
100
AcDbEntity
  8
0
100
AcDbBlockEnd
  0
BLOCK
  5
579
330
578
100
AcDbEntity
  8
0
100
AcDbBlockBegin
  2
*D24
 70
     1
 10
0.0
 20
0.0
 30
0.0
  3
*D24
  1

  0
LINE
  5
57B
330
578
100
AcDbEntity
  8
LAY-20
  6
CONTINUOUS
 62
     4
100
AcDbLine
 10
1457.1705301213
 20
648.74213277819
 30
0.0
 11
1529.0
 21
648.74213277819
 31
0.0
  0
LINE
  5
57C
330
578
100
AcDbEntity
  8
LAY-20
  6
CONTINUOUS
 62
     4
100
AcDbLine
 10
1514.0
 20
648.74213277819
 30
0.0
 11
1514.0
 21
683.7421327782
 31
0.0
  0
LINE
  5
57D
330
578
100
AcDbEntity
  8
LAY-20
  6
CONTINUOUS
 62
     4
100
AcDbLine
 10
1514.0
 20
623.74213277819
 30
0.0
 11
1514.0
 21
598.74213277819
 31
0.0
  0
LINE
  5
57E
330
578
100
AcDbEntity
  8
LAY-20
  6
CONTINUOUS
 62
     4
100
AcDbLine
 10
1514.0
 20
708.7421327782
 30
0.0
 11
1514.0
 21
733.7421327782
 31
0.0
  0
INSERT
  5
57F
330
578
100
AcDbEntity
  8
LAY-20
 62
     4
100
AcDbBlockReference
  2
EX_BNORM
 10
1514.0
 20
648.74213277819
 30
0.0
 41
25.0
 42
25.0
 43
25.0
 50
90.0
  0
INSERT
  5
580
330
578
100
AcDbEntity
  8
LAY-20
 62
     4
100
AcDbBlockReference
  2
EX_BNORM
 10
1514.0
 20
683.7421327782
 30
0.0
 41
25.0
 42
25.0
 43
25.0
 50
270.0
  0
MTEXT
  5
581
330
578
100
AcDbEntity
  8
LAY-20
 62
     7
100
AcDbMText
 10
1489.0
 20
743.7421327781996
 30
0.0
 40
31.181104
 41
0.0
 71
     5
 72
     1
  1
35
  7
EXCADDIM1
 11
0.0
 21
1.0
 31
0.0
  0
POINT
  5
582
330
578
100
AcDbEntity
  8
DEFPOINTS
 62
     0
100
AcDbPoint
 10
1442.1705301213
 20
648.74213277819
 30
0.0
  0
POINT
  5
583
330
578
100
AcDbEntity
  8
DEFPOINTS
 62
     0
100
AcDbPoint
 10
1514.0
 20
683.7421327782
 30
0.0
  0
POINT
  5
584
330
578
100
AcDbEntity
  8
DEFPOINTS
 62
     0
100
AcDbPoint
 10
1514.0
 20
683.7421327782
 30
0.0
  0
ENDBLK
  5
57A
330
578
100
AcDbEntity
  8
0
100
AcDbBlockEnd
  0
ENDSEC
  0
SECTION
  2
ENTITIES
  0
LINE
  5
D5
330
1F
100
AcDbEntity
  8
LAY-10
  6
CONTINUOUS
 62
     7
100
AcDbLine
 10
529.6705301213544
 20
635.5167404803185
 30
0.0
 11
529.6959224192403
 21
635.5421327782044
 31
0.0
  0
LINE
  5
D6
330
1F
100
AcDbEntity
  8
LAY-10
  6
CONTINUOUS
 62
     7
100
AcDbLine
 10
529.6705301213441
 20
634.102526917935
 30
0.0
 11
531.1101359816133
 21
635.5421327782043
 31
0.0
  0
LINE
  5
D7
330
1F
100
AcDbEntity
  8
LAY-10
  6
CONTINUOUS
 62
     7
100
AcDbLine
 10
530.524349543981
 20
633.5421327781988
 30
0.0
 11
532.5243495439864
 21
635.5421327782043
 31
0.0
  0
LINE
  5
D8
330
1F
100
AcDbEntity
  8
LAY-10
  6
CONTINUOUS
 62
     7
100
AcDbLine
 10
531.9385631063541
 20
633.5421327781988
 30
0.0
 11
533.9385631063595
 21
635.5421327782043
 31
0.0
  0
LINE
  5
D9
330
1F
100
AcDbEntity
  8
LAY-10
  6
CONTINUOUS
 62
     7
100
AcDbLine
 10
533.3527766687272
 20
633.5421327781988
 30
0.0
 11
535.3527766687326
 21
635.5421327782043
 31
0.0
  0
LINE
  5
DA
330
1F
100
AcDbEntity
  8
LAY-10
  6
CONTINUOUS
 62
     7
100
AcDbLine
 10
534.7669902311003
 20
633.5421327781988
 30
0.0
 11
536.7669902311058
 21
635.5421327782043
 31
0.0
  0
LINE
  5
DB
330
1F
100
AcDbEntity
  8
LAY-10
  6
CONTINUOUS
 62
     7
100
AcDbLine
 10
536.1812037934734
 20
633.5421327781988
 30
0.0
 11
538.1812037934789
 21
635.5421327782043
 31
0.0
  0
LINE
  5
DC
330
1F
100
AcDbEntity
  8
LAY-10
  6
CONTINUOUS
 62
     7
100
AcDbLine
 10
537.5954173558464
 20
633.5421327781988
 30
0.0
 11
539.595417355852
 21
635.5421327782044
 31
0.0
  0
LINE
  5
DD
330
1F
100
AcDbEntity
  8
LAY-10
  6
CONTINUOUS
 62
     7
100
AcDbLine
 10
539.0096309182195
 20
633.5421327781988
 30
0.0
 11
541.0096309182251
 21
635.5421327782044
 31
0.0
  0
LINE
  5
DE
330
1F
100
AcDbEntity
  8
LAY-10
  6
CONTINUOUS
 62
     7
100
AcDbLine
 10
540.4238444805926
 20
633.5421327781988
 30
0.0
 11
542.4238444805982
 21
635.5421327782044
 31
0.0
  0
LINE
  5
DF
330
1F
100
AcDbEntity
  8
LAY-10
  6
CONTINUOUS
 62
     7
100
AcDbLine
 10
541.8380580429657
 20
633.5421327781988
 30
0.0
 11
543.8380580429713
 21
635.5421327782044
 31
0.0
  0
LINE
  5
E0
330
1F
100
AcDbEntity
  8
LAY-10
  6
CONTINUOUS
 62
     7
100
AcDbLine
 10
543.2522716053388
 20
633.5421327781988
 30
0.0
 11
545.2522716053444
 21
635.5421327782043
 31
0.0
  0
LINE
  5
E1
330
1F
100
AcDbEntity
  8
LAY-10
  6
CONTINUOUS
 62
     7
100
AcDbLine
 10
544.6664851677119
 20
633.5421327781988
 30
0.0
 11
546.6664851677174
 21
635.5421327782043
 31
0.0
  0
LINE
  5
E2
330
1F
100
AcDbEntity
  8
LAY-10
  6
CONTINUOUS
 62
     7
100
AcDbLine
 10
546.080698730085
 20
633.5421327781988
 30
0.0
 11
548.0806987300905
 21
635.5421327782043
 31
0.0
  0
LINE
  5
E3
330
1F
100
AcDbEntity
  8
LAY-10
  6
CONTINUOUS
 62
     7
100
AcDbLine
 10
547.4949122924581
 20
633.5421327781988
 30
0.0
 11
549.4949122924636
 21
635.5421327782043
 31
0.0
  0
LINE
  5
E4
330
1F
100
AcDbEntity
  8
LAY-10
  6
CONTINUOUS
 62
     7
100
AcDbLine
 10
548.9091258548312
 20
633.5421327781988
 30
0.0
 11
550.9091258548367
 21
635.5421327782043
 31
0.0
  0
LINE
  5
E5
330
1F
100
AcDbEntity
  8
LAY-10
  6
CONTINUOUS
 62
     7
100
AcDbLine
 10
550.3233394172044
 20
633.5421327781988
 30
0.0
 11
552.3233394172098
 21
635.5421327782043
 31
0.0
  0
LINE
  5
E6
330
1F
100
AcDbEntity
  8
LAY-10
  6
CONTINUOUS
 62
     7
100
AcDbLine
 10
551.7375529795775
 20
633.5421327781988
 30
0.0
 11
553.7375529795727
 21
635.5421327781941
 31
0.0
  0
LINE
  5
E7
330
1F
100
AcDbEntity
  8
LAY-10
  6
CONTINUOUS
 62
     7
100
AcDbLine
 10
553.1517665419506
 20
633.5421327781988
 30
0.0
 11
554.670530121356
 21
635.0608963576044
 31
0.0
  0
LINE
  5
E8
330
1F
100
AcDbEntity
  8
LAY-10
  6
CONTINUOUS
 62
     7
100
AcDbLine
 10
554.5659801043237
 20
633.5421327781988
 30
0.0
 11
554.670530121356
 21
633.6466827952313
 31
0.0
  0
LINE
  5
E9
330
1F
100
AcDbEntity
  8
LAY-10
  6
CONTINUOUS
 62
     7
100
AcDbLine
 10
1683.670530121339
 20
635.5167404803183
 30
0.0
 11
1683.645137823453
 21
635.5421327782042
 31
0.0
  0
LINE
  5
EA
330
1F
100
AcDbEntity
  8
LAY-10
  6
CONTINUOUS
 62
     7
100
AcDbLine
 10
1683.670530121349
 20
634.1025269179349
 30
0.0
 11
1682.23092426108
 21
635.5421327782042
 31
0.0
  0
LINE
  5
EB
330
1F
100
AcDbEntity
  8
LAY-10
  6
CONTINUOUS
 62
     7
100
AcDbLine
 10
1682.816710698713
 20
633.5421327781987
 30
0.0
 11
1680.816710698707
 21
635.5421327782042
 31
0.0
  0
LINE
  5
EC
330
1F
100
AcDbEntity
  8
LAY-10
  6
CONTINUOUS
 62
     7
100
AcDbLine
 10
1681.402497136339
 20
633.5421327781987
 30
0.0
 11
1679.402497136334
 21
635.5421327782042
 31
0.0
  0
LINE
  5
ED
330
1F
100
AcDbEntity
  8
LAY-10
  6
CONTINUOUS
 62
     7
100
AcDbLine
 10
1679.988283573966
 20
633.5421327781987
 30
0.0
 11
1677.988283573961
 21
635.5421327782042
 31
0.0
  0
LINE
  5
EE
330
1F
100
AcDbEntity
  8
LAY-10
  6
CONTINUOUS
 62
     7
100
AcDbLine
 10
1678.574070011593
 20
633.5421327781987
 30
0.0
 11
1676.574070011588
 21
635.5421327782042
 31
0.0
  0
LINE
  5
EF
330
1F
100
AcDbEntity
  8
LAY-10
  6
CONTINUOUS
 62
     7
100
AcDbLine
 10
1677.15985644922
 20
633.5421327781987
 30
0.0
 11
1675.159856449215
 21
635.5421327782042
 31
0.0
  0
LINE
  5
F0
330
1F
100
AcDbEntity
  8
LAY-10
  6
CONTINUOUS
 62
     7
100
AcDbLine
 10
1675.745642886847
 20
633.5421327781987
 30
0.0
 11
1673.745642886842
 21
635.5421327782042
 31
0.0
  0
LINE
  5
F1
330
1F
100
AcDbEntity
  8
LAY-10
  6
CONTINUOUS
 62
     7
100
AcDbLine
 10
1674.331429324474
 20
633.5421327781987
 30
0.0
 11
1672.331429324469
 21
635.5421327782042
 31
0.0
  0
LINE
  5
F2
330
1F
100
AcDbEntity
  8
LAY-10
  6
CONTINUOUS
 62
     7
100
AcDbLine
 10
1672.917215762101
 20
633.5421327781987
 30
0.0
 11
1670.917215762095
 21
635.5421327782042
 31
0.0
  0
LINE
  5
F3
330
1F
100
AcDbEntity
  8
LAY-10
  6
CONTINUOUS
 62
     7
100
AcDbLine
 10
1671.503002199728
 20
633.5421327781987
 30
0.0
 11
1669.503002199722
 21
635.5421327782042
 31
0.0
  0
LINE
  5
F4
330
1F
100
AcDbEntity
  8
LAY-10
  6
CONTINUOUS
 62
     7
100
AcDbLine
 10
1670.088788637355
 20
633.5421327781987
 30
0.0
 11
1668.088788637349
 21
635.5421327782042
 31
0.0
  0
LINE
  5
F5
330
1F
100
AcDbEntity
  8
LAY-10
  6
CONTINUOUS
 62
     7
100
AcDbLine
 10
1668.674575074981
 20
633.5421327781987
 30
0.0
 11
1666.674575074976
 21
635.5421327782042
 31
0.0
  0
LINE
  5
F6
330
1F
100
AcDbEntity
  8
LAY-10
  6
CONTINUOUS
 62
     7
100
AcDbLine
 10
1667.260361512608
 20
633.5421327781987
 30
0.0
 11
1665.260361512603
 21
635.5421327782042
 31
0.0
  0
LINE
  5
F7
330
1F
100
AcDbEntity
  8
LAY-10
  6
CONTINUOUS
 62
     7
100
AcDbLine
 10
1665.846147950235
 20
633.5421327781987
 30
0.0
 11
1663.84614795023
 21
635.5421327782042
 31
0.0
  0
LINE
  5
F8
330
1F
100
AcDbEntity
  8
LAY-10
  6
CONTINUOUS
 62
     7
100
AcDbLine
 10
1664.431934387862
 20
633.5421327781987
 30
0.0
 11
1662.431934387857
 21
635.5421327782042
 31
0.0
  0
LINE
  5
F9
330
1F
100
AcDbEntity
  8
LAY-10
  6
CONTINUOUS
 62
     7
100
AcDbLine
 10
1663.017720825489
 20
633.5421327781987
 30
0.0
 11
1661.017720825484
 21
635.5421327782042
 31
0.0
  0
LINE
  5
FA
330
1F
100
AcDbEntity
  8
LAY-10
  6
CONTINUOUS
 62
     7
100
AcDbLine
 10
1661.603507263116
 20
633.5421327781987
 30
0.0
 11
1659.603507263121
 21
635.542132778194
 31
0.0
  0
LINE
  5
FB
330
1F
100
AcDbEntity
  8
LAY-10
  6
CONTINUOUS
 62
     7
100
AcDbLine
 10
1660.189293700743
 20
633.5421327781987
 30
0.0
 11
1658.670530121337
 21
635.0608963576042
 31
0.0
  0
LINE
  5
FC
330
1F
100
AcDbEntity
  8
LAY-10
  6
CONTINUOUS
 62
     7
100
AcDbLine
 10
1658.77508013837
 20
633.5421327781987
 30
0.0
 11
1658.670530121337
 21
633.6466827952312
 31
0.0
  0
LINE
  5
FD
330
1F
100
AcDbEntity
  8
LAY-10
  6
CONTINUOUS
 62
     7
100
AcDbLine
 10
566.2705301213889
 20
579.5959518672181
 30
0.0
 11
579.0167110323298
 21
592.3421327781589
 31
0.0
  0
LINE
  5
FE
330
1F
100
AcDbEntity
  8
LAY-10
  6
CONTINUOUS
 62
     7
100
AcDbLine
 10
566.2705301213787
 20
565.4538162434769
 30
0.0
 11
593.1588466560607
 21
592.3421327781589
 31
0.0
  0
LINE
  5
FF
330
1F
100
AcDbEntity
  8
LAY-10
  6
CONTINUOUS
 62
     7
100
AcDbLine
 10
566.2705301213787
 20
551.3116806197459
 30
0.0
 11
607.3009822797917
 21
592.3421327781589
 31
0.0
  0
LINE
  5
100
330
1F
100
AcDbEntity
  8
LAY-10
  6
CONTINUOUS
 62
     7
100
AcDbLine
 10
574.6431179035137
 20
545.5421327781501
 30
0.0
 11
621.4431179035226
 21
592.3421327781589
 31
0.0
  0
LINE
  5
101
330
1F
100
AcDbEntity
  8
LAY-10
  6
CONTINUOUS
 62
     7
100
AcDbLine
 10
588.7852535272447
 20
545.5421327781501
 30
0.0
 11
635.5852535272536
 21
592.3421327781589
 31
0.0
  0
LINE
  5
102
330
1F
100
AcDbEntity
  8
LAY-10
  6
CONTINUOUS
 62
     7
100
AcDbLine
 10
602.9273891509756
 20
545.5421327781501
 30
0.0
 11
649.7273891509845
 21
592.3421327781589
 31
0.0
  0
LINE
  5
103
330
1F
100
AcDbEntity
  8
LAY-10
  6
CONTINUOUS
 62
     7
100
AcDbLine
 10
617.0695247747066
 20
545.54213277815
 30
0.0
 11
663.8695247747155
 21
592.3421327781589
 31
0.0
  0
LINE
  5
104
330
1F
100
AcDbEntity
  8
LAY-10
  6
CONTINUOUS
 62
     7
100
AcDbLine
 10
631.2116603984375
 20
545.54213277815
 30
0.0
 11
678.0116603984465
 21
592.3421327781589
 31
0.0
  0
LINE
  5
105
330
1F
100
AcDbEntity
  8
LAY-10
  6
CONTINUOUS
 62
     7
100
AcDbLine
 10
645.3537960221685
 20
545.54213277815
 30
0.0
 11
692.1537960221773
 21
592.3421327781589
 31
0.0
  0
LINE
  5
106
330
1F
100
AcDbEntity
  8
LAY-10
  6
CONTINUOUS
 62
     7
100
AcDbLine
 10
659.4959316458994
 20
545.54213277815
 30
0.0
 11
706.2959316459084
 21
592.3421327781589
 31
0.0
  0
LINE
  5
107
330
1F
100
AcDbEntity
  8
LAY-10
  6
CONTINUOUS
 62
     7
100
AcDbLine
 10
673.6380672696303
 20
545.54213277815
 30
0.0
 11
720.4380672696393
 21
592.3421327781589
 31
0.0
  0
LINE
  5
108
330
1F
100
AcDbEntity
  8
LAY-10
  6
CONTINUOUS
 62
     7
100
AcDbLine
 10
687.7802028933613
 20
545.54213277815
 30
0.0
 11
734.5802028933703
 21
592.3421327781589
 31
0.0
  0
LINE
  5
109
330
1F
100
AcDbEntity
  8
LAY-10
  6
CONTINUOUS
 62
     7
100
AcDbLine
 10
701.9223385170923
 20
545.54213277815
 30
0.0
 11
748.7223385171012
 21
592.3421327781589
 31
0.0
  0
LINE
  5
10A
330
1F
100
AcDbEntity
  8
LAY-10
  6
CONTINUOUS
 62
     7
100
AcDbLine
 10
716.0644741408232
 20
545.5421327781498
 30
0.0
 11
762.864474140832
 21
592.3421327781589
 31
0.0
  0
LINE
  5
10B
330
1F
100
AcDbEntity
  8
LAY-10
  6
CONTINUOUS
 62
     7
100
AcDbLine
 10
730.2066097645542
 20
545.5421327781498
 30
0.0
 11
777.0066097645631
 21
592.3421327781589
 31
0.0
  0
LINE
  5
10C
330
1F
100
AcDbEntity
  8
LAY-10
  6
CONTINUOUS
 62
     7
100
AcDbLine
 10
744.348745388285
 20
545.5421327781498
 30
0.0
 11
791.1487453882941
 21
592.3421327781589
 31
0.0
  0
LINE
  5
10D
330
1F
100
AcDbEntity
  8
LAY-10
  6
CONTINUOUS
 62
     7
100
AcDbLine
 10
758.4908810120161
 20
545.5421327781498
 30
0.0
 11
805.290881012025
 21
592.3421327781589
 31
0.0
  0
LINE
  5
10E
330
1F
100
AcDbEntity
  8
LAY-10
  6
CONTINUOUS
 62
     7
100
AcDbLine
 10
772.633016635747
 20
545.5421327781498
 30
0.0
 11
819.433016635756
 21
592.3421327781589
 31
0.0
  0
LINE
  5
10F
330
1F
100
AcDbEntity
  8
LAY-10
  6
CONTINUOUS
 62
     7
100
AcDbLine
 10
786.775152259478
 20
545.5421327781498
 30
0.0
 11
833.575152259487
 21
592.3421327781589
 31
0.0
  0
LINE
  5
110
330
1F
100
AcDbEntity
  8
LAY-10
  6
CONTINUOUS
 62
     7
100
AcDbLine
 10
800.9172878832089
 20
545.5421327781498
 30
0.0
 11
847.7172878832179
 21
592.3421327781589
 31
0.0
  0
LINE
  5
111
330
1F
100
AcDbEntity
  8
LAY-10
  6
CONTINUOUS
 62
     7
100
AcDbLine
 10
815.05942350694
 20
545.5421327781498
 30
0.0
 11
861.8594235069488
 21
592.3421327781589
 31
0.0
  0
LINE
  5
112
330
1F
100
AcDbEntity
  8
LAY-10
  6
CONTINUOUS
 62
     7
100
AcDbLine
 10
829.2015591306708
 20
545.5421327781498
 30
0.0
 11
876.0015591306798
 21
592.3421327781589
 31
0.0
  0
LINE
  5
113
330
1F
100
AcDbEntity
  8
LAY-10
  6
CONTINUOUS
 62
     7
100
AcDbLine
 10
843.3436947544018
 20
545.5421327781498
 30
0.0
 11
890.1436947544107
 21
592.3421327781589
 31
0.0
  0
LINE
  5
114
330
1F
100
AcDbEntity
  8
LAY-10
  6
CONTINUOUS
 62
     7
100
AcDbLine
 10
857.4858303781327
 20
545.5421327781498
 30
0.0
 11
904.2858303781418
 21
592.3421327781589
 31
0.0
  0
LINE
  5
115
330
1F
100
AcDbEntity
  8
LAY-10
  6
CONTINUOUS
 62
     7
100
AcDbLine
 10
871.6279660018637
 20
545.5421327781498
 30
0.0
 11
918.4279660018726
 21
592.3421327781589
 31
0.0
  0
LINE
  5
116
330
1F
100
AcDbEntity
  8
LAY-10
  6
CONTINUOUS
 62
     7
100
AcDbLine
 10
885.7701016255947
 20
545.5421327781498
 30
0.0
 11
932.5701016256036
 21
592.3421327781589
 31
0.0
  0
LINE
  5
117
330
1F
100
AcDbEntity
  8
LAY-10
  6
CONTINUOUS
 62
     7
100
AcDbLine
 10
899.9122372493256
 20
545.5421327781498
 30
0.0
 11
946.7122372493345
 21
592.3421327781589
 31
0.0
  0
LINE
  5
118
330
1F
100
AcDbEntity
  8
LAY-10
  6
CONTINUOUS
 62
     7
100
AcDbLine
 10
914.0543728730565
 20
545.54213277815
 30
0.0
 11
960.8543728730655
 21
592.3421327781589
 31
0.0
  0
LINE
  5
119
330
1F
100
AcDbEntity
  8
LAY-10
  6
CONTINUOUS
 62
     7
100
AcDbLine
 10
928.1965084967875
 20
545.5421327781498
 30
0.0
 11
974.9965084967965
 21
592.3421327781589
 31
0.0
  0
LINE
  5
11A
330
1F
100
AcDbEntity
  8
LAY-10
  6
CONTINUOUS
 62
     7
100
AcDbLine
 10
942.3386441205184
 20
545.54213277815
 30
0.0
 11
989.1386441205274
 21
592.3421327781589
 31
0.0
  0
LINE
  5
11B
330
1F
100
AcDbEntity
  8
LAY-10
  6
CONTINUOUS
 62
     7
100
AcDbLine
 10
956.4807797442495
 20
545.5421327781498
 30
0.0
 11
1003.280779744258
 21
592.3421327781588
 31
0.0
  0
LINE
  5
11C
330
1F
100
AcDbEntity
  8
LAY-10
  6
CONTINUOUS
 62
     7
100
AcDbLine
 10
970.6229153679803
 20
545.54213277815
 30
0.0
 11
1017.422915367989
 21
592.3421327781589
 31
0.0
  0
LINE
  5
11D
330
1F
100
AcDbEntity
  8
LAY-10
  6
CONTINUOUS
 62
     7
100
AcDbLine
 10
984.7650509917113
 20
545.5421327781498
 30
0.0
 11
1031.56505099172
 21
592.3421327781588
 31
0.0
  0
LINE
  5
11E
330
1F
100
AcDbEntity
  8
LAY-10
  6
CONTINUOUS
 62
     7
100
AcDbLine
 10
998.9071866154422
 20
545.54213277815
 30
0.0
 11
1045.707186615451
 21
592.3421327781589
 31
0.0
  0
LINE
  5
11F
330
1F
100
AcDbEntity
  8
LAY-10
  6
CONTINUOUS
 62
     7
100
AcDbLine
 10
1013.049322239173
 20
545.5421327781498
 30
0.0
 11
1059.849322239182
 21
592.3421327781588
 31
0.0
  0
LINE
  5
120
330
1F
100
AcDbEntity
  8
LAY-10
  6
CONTINUOUS
 62
     7
100
AcDbLine
 10
1027.191457862904
 20
545.54213277815
 30
0.0
 11
1073.991457862913
 21
592.3421327781588
 31
0.0
  0
LINE
  5
121
330
1F
100
AcDbEntity
  8
LAY-10
  6
CONTINUOUS
 62
     7
100
AcDbLine
 10
1041.333593486635
 20
545.5421327781498
 30
0.0
 11
1088.133593486644
 21
592.3421327781588
 31
0.0
  0
LINE
  5
122
330
1F
100
AcDbEntity
  8
LAY-10
  6
CONTINUOUS
 62
     7
100
AcDbLine
 10
1055.475729110366
 20
545.54213277815
 30
0.0
 11
1102.275729110375
 21
592.3421327781588
 31
0.0
  0
LINE
  5
123
330
1F
100
AcDbEntity
  8
LAY-10
  6
CONTINUOUS
 62
     7
100
AcDbLine
 10
1069.617864734097
 20
545.5421327781498
 30
0.0
 11
1116.417864734106
 21
592.3421327781588
 31
0.0
  0
LINE
  5
124
330
1F
100
AcDbEntity
  8
LAY-10
  6
CONTINUOUS
 62
     7
100
AcDbLine
 10
1083.760000357828
 20
545.5421327781498
 30
0.0
 11
1130.560000357837
 21
592.3421327781587
 31
0.0
  0
LINE
  5
125
330
1F
100
AcDbEntity
  8
LAY-10
  6
CONTINUOUS
 62
     7
100
AcDbLine
 10
1097.902135981559
 20
545.5421327781498
 30
0.0
 11
1144.702135981568
 21
592.3421327781588
 31
0.0
  0
LINE
  5
126
330
1F
100
AcDbEntity
  8
LAY-10
  6
CONTINUOUS
 62
     7
100
AcDbLine
 10
1112.04427160529
 20
545.5421327781498
 30
0.0
 11
1158.844271605299
 21
592.3421327781587
 31
0.0
  0
LINE
  5
127
330
1F
100
AcDbEntity
  8
LAY-10
  6
CONTINUOUS
 62
     7
100
AcDbLine
 10
1126.186407229021
 20
545.5421327781498
 30
0.0
 11
1172.98640722903
 21
592.3421327781588
 31
0.0
  0
LINE
  5
128
330
1F
100
AcDbEntity
  8
LAY-10
  6
CONTINUOUS
 62
     7
100
AcDbLine
 10
1140.328542852752
 20
545.5421327781498
 30
0.0
 11
1187.128542852761
 21
592.3421327781587
 31
0.0
  0
LINE
  5
129
330
1F
100
AcDbEntity
  8
LAY-10
  6
CONTINUOUS
 62
     7
100
AcDbLine
 10
1154.470678476483
 20
545.5421327781498
 30
0.0
 11
1201.270678476492
 21
592.3421327781588
 31
0.0
  0
LINE
  5
12A
330
1F
100
AcDbEntity
  8
LAY-10
  6
CONTINUOUS
 62
     7
100
AcDbLine
 10
1168.612814100214
 20
545.5421327781498
 30
0.0
 11
1215.412814100222
 21
592.3421327781587
 31
0.0
  0
LINE
  5
12B
330
1F
100
AcDbEntity
  8
LAY-10
  6
CONTINUOUS
 62
     7
100
AcDbLine
 10
1182.754949723945
 20
545.5421327781498
 30
0.0
 11
1229.554949723954
 21
592.3421327781588
 31
0.0
  0
LINE
  5
12C
330
1F
100
AcDbEntity
  8
LAY-10
  6
CONTINUOUS
 62
     7
100
AcDbLine
 10
1196.897085347676
 20
545.5421327781498
 30
0.0
 11
1243.697085347685
 21
592.3421327781587
 31
0.0
  0
LINE
  5
12D
330
1F
100
AcDbEntity
  8
LAY-10
  6
CONTINUOUS
 62
     7
100
AcDbLine
 10
1211.039220971406
 20
545.5421327781498
 30
0.0
 11
1257.839220971415
 21
592.3421327781588
 31
0.0
  0
LINE
  5
12E
330
1F
100
AcDbEntity
  8
LAY-10
  6
CONTINUOUS
 62
     7
100
AcDbLine
 10
1225.181356595137
 20
545.5421327781498
 30
0.0
 11
1271.981356595146
 21
592.3421327781587
 31
0.0
  0
LINE
  5
12F
330
1F
100
AcDbEntity
  8
LAY-10
  6
CONTINUOUS
 62
     7
100
AcDbLine
 10
1239.323492218869
 20
545.5421327781498
 30
0.0
 11
1286.123492218877
 21
592.3421327781588
 31
0.0
  0
LINE
  5
130
330
1F
100
AcDbEntity
  8
LAY-10
  6
CONTINUOUS
 62
     7
100
AcDbLine
 10
1253.465627842599
 20
545.5421327781498
 30
0.0
 11
1300.265627842608
 21
592.3421327781587
 31
0.0
  0
LINE
  5
131
330
1F
100
AcDbEntity
  8
LAY-10
  6
CONTINUOUS
 62
     7
100
AcDbLine
 10
1267.60776346633
 20
545.5421327781498
 30
0.0
 11
1314.407763466339
 21
592.3421327781588
 31
0.0
  0
LINE
  5
132
330
1F
100
AcDbEntity
  8
LAY-10
  6
CONTINUOUS
 62
     7
100
AcDbLine
 10
1281.749899090061
 20
545.5421327781498
 30
0.0
 11
1328.54989909007
 21
592.3421327781587
 31
0.0
  0
LINE
  5
133
330
1F
100
AcDbEntity
  8
LAY-10
  6
CONTINUOUS
 62
     7
100
AcDbLine
 10
1295.892034713803
 20
545.5421327781601
 30
0.0
 11
1342.692034713801
 21
592.3421327781588
 31
0.0
  0
LINE
  5
134
330
1F
100
AcDbEntity
  8
LAY-10
  6
CONTINUOUS
 62
     7
100
AcDbLine
 10
1310.034170337533
 20
545.5421327781601
 30
0.0
 11
1356.834170337532
 21
592.3421327781587
 31
0.0
  0
LINE
  5
135
330
1F
100
AcDbEntity
  8
LAY-10
  6
CONTINUOUS
 62
     7
100
AcDbLine
 10
1324.176305961264
 20
545.5421327781601
 30
0.0
 11
1370.976305961263
 21
592.3421327781588
 31
0.0
  0
LINE
  5
136
330
1F
100
AcDbEntity
  8
LAY-10
  6
CONTINUOUS
 62
     7
100
AcDbLine
 10
1338.318441584996
 20
545.5421327781601
 30
0.0
 11
1385.118441584994
 21
592.3421327781587
 31
0.0
  0
LINE
  5
137
330
1F
100
AcDbEntity
  8
LAY-10
  6
CONTINUOUS
 62
     7
100
AcDbLine
 10
1352.460577208726
 20
545.5421327781601
 30
0.0
 11
1399.260577208725
 21
592.3421327781588
 31
0.0
  0
LINE
  5
138
330
1F
100
AcDbEntity
  8
LAY-10
  6
CONTINUOUS
 62
     7
100
AcDbLine
 10
1366.602712832457
 20
545.5421327781601
 30
0.0
 11
1413.402712832456
 21
592.3421327781587
 31
0.0
  0
LINE
  5
139
330
1F
100
AcDbEntity
  8
LAY-10
  6
CONTINUOUS
 62
     7
100
AcDbLine
 10
1380.744848456188
 20
545.5421327781601
 30
0.0
 11
1427.544848456187
 21
592.3421327781588
 31
0.0
  0
LINE
  5
13A
330
1F
100
AcDbEntity
  8
LAY-10
  6
CONTINUOUS
 62
     7
100
AcDbLine
 10
1394.886984079919
 20
545.5421327781601
 30
0.0
 11
1441.686984079918
 21
592.3421327781587
 31
0.0
  0
LINE
  5
13B
330
1F
100
AcDbEntity
  8
LAY-10
  6
CONTINUOUS
 62
     7
100
AcDbLine
 10
1409.02911970365
 20
545.5421327781601
 30
0.0
 11
1455.829119703649
 21
592.3421327781588
 31
0.0
  0
LINE
  5
13C
330
1F
100
AcDbEntity
  8
LAY-10
  6
CONTINUOUS
 62
     7
100
AcDbLine
 10
1423.171255327381
 20
545.5421327781601
 30
0.0
 11
1469.97125532738
 21
592.3421327781587
 31
0.0
  0
LINE
  5
13D
330
1F
100
AcDbEntity
  8
LAY-10
  6
CONTINUOUS
 62
     7
100
AcDbLine
 10
1437.313390951112
 20
545.5421327781601
 30
0.0
 11
1484.11339095111
 21
592.3421327781587
 31
0.0
  0
LINE
  5
13E
330
1F
100
AcDbEntity
  8
LAY-10
  6
CONTINUOUS
 62
     7
100
AcDbLine
 10
1451.455526574843
 20
545.5421327781601
 30
0.0
 11
1498.255526574841
 21
592.3421327781587
 31
0.0
  0
LINE
  5
13F
330
1F
100
AcDbEntity
  8
LAY-10
  6
CONTINUOUS
 62
     7
100
AcDbLine
 10
1465.597662198574
 20
545.5421327781601
 30
0.0
 11
1512.397662198573
 21
592.3421327781587
 31
0.0
  0
LINE
  5
140
330
1F
100
AcDbEntity
  8
LAY-10
  6
CONTINUOUS
 62
     7
100
AcDbLine
 10
1479.739797822305
 20
545.5421327781601
 30
0.0
 11
1526.539797822304
 21
592.3421327781587
 31
0.0
  0
LINE
  5
141
330
1F
100
AcDbEntity
  8
LAY-10
  6
CONTINUOUS
 62
     7
100
AcDbLine
 10
1493.881933446036
 20
545.5421327781601
 30
0.0
 11
1540.681933446034
 21
592.3421327781587
 31
0.0
  0
LINE
  5
142
330
1F
100
AcDbEntity
  8
LAY-10
  6
CONTINUOUS
 62
     7
100
AcDbLine
 10
1508.024069069767
 20
545.5421327781601
 30
0.0
 11
1554.824069069766
 21
592.3421327781587
 31
0.0
  0
LINE
  5
143
330
1F
100
AcDbEntity
  8
LAY-10
  6
CONTINUOUS
 62
     7
100
AcDbLine
 10
1522.166204693498
 20
545.5421327781601
 30
0.0
 11
1568.966204693496
 21
592.3421327781587
 31
0.0
  0
LINE
  5
144
330
1F
100
AcDbEntity
  8
LAY-10
  6
CONTINUOUS
 62
     7
100
AcDbLine
 10
1536.308340317229
 20
545.5421327781601
 30
0.0
 11
1583.108340317227
 21
592.3421327781587
 31
0.0
  0
LINE
  5
145
330
1F
100
AcDbEntity
  8
LAY-10
  6
CONTINUOUS
 62
     7
100
AcDbLine
 10
1550.45047594096
 20
545.5421327781601
 30
0.0
 11
1597.250475940958
 21
592.3421327781587
 31
0.0
  0
LINE
  5
146
330
1F
100
AcDbEntity
  8
LAY-10
  6
CONTINUOUS
 62
     7
100
AcDbLine
 10
1564.592611564691
 20
545.5421327781601
 30
0.0
 11
1611.392611564689
 21
592.3421327781587
 31
0.0
  0
LINE
  5
147
330
1F
100
AcDbEntity
  8
LAY-10
  6
CONTINUOUS
 62
     7
100
AcDbLine
 10
1578.734747188422
 20
545.5421327781601
 30
0.0
 11
1625.53474718842
 21
592.3421327781587
 31
0.0
  0
LINE
  5
148
330
1F
100
AcDbEntity
  8
LAY-10
  6
CONTINUOUS
 62
     7
100
AcDbLine
 10
1592.876882812152
 20
545.5421327781601
 30
0.0
 11
1639.676882812151
 21
592.3421327781587
 31
0.0
  0
LINE
  5
149
330
1F
100
AcDbEntity
  8
LAY-10
  6
CONTINUOUS
 62
     7
100
AcDbLine
 10
1607.019018435883
 20
545.5421327781601
 30
0.0
 11
1647.07053012131
 21
585.5936444635868
 31
0.0
  0
LINE
  5
14A
330
1F
100
AcDbEntity
  8
LAY-10
  6
CONTINUOUS
 62
     7
100
AcDbLine
 10
1621.161154059614
 20
545.5421327781601
 30
0.0
 11
1647.07053012131
 21
571.4515088398558
 31
0.0
  0
LINE
  5
14B
330
1F
100
AcDbEntity
  8
LAY-10
  6
CONTINUOUS
 62
     7
100
AcDbLine
 10
1635.303289683345
 20
545.5421327781601
 30
0.0
 11
1647.07053012131
 21
557.3093732161249
 31
0.0
  0
LINE
  5
14C
330
1F
100
AcDbEntity
  8
LAY-10
  6
CONTINUOUS
 62
     7
100
AcDbLine
 10
577.9190726463313
 20
545.5421327781598
 30
0.0
 11
566.2705301213864
 21
557.1906753031049
 31
0.0
  0
LINE
  5
14D
330
1F
100
AcDbEntity
  8
LAY-10
  6
CONTINUOUS
 62
     7
100
AcDbLine
 10
592.0612082700623
 20
545.5421327781598
 30
0.0
 11
566.2705301213864
 21
571.3328109268358
 31
0.0
  0
LINE
  5
14E
330
1F
100
AcDbEntity
  8
LAY-10
  6
CONTINUOUS
 62
     7
100
AcDbLine
 10
606.2033438937932
 20
545.5421327781598
 30
0.0
 11
566.2705301213864
 21
585.4749465505668
 31
0.0
  0
LINE
  5
14F
330
1F
100
AcDbEntity
  8
LAY-10
  6
CONTINUOUS
 62
     7
100
AcDbLine
 10
620.3454795175242
 20
545.54213277816
 30
0.0
 11
573.5454795175256
 21
592.3421327781587
 31
0.0
  0
LINE
  5
150
330
1F
100
AcDbEntity
  8
LAY-10
  6
CONTINUOUS
 62
     7
100
AcDbLine
 10
634.4876151412552
 20
545.54213277816
 30
0.0
 11
587.6876151412565
 21
592.3421327781587
 31
0.0
  0
LINE
  5
151
330
1F
100
AcDbEntity
  8
LAY-10
  6
CONTINUOUS
 62
     7
100
AcDbLine
 10
648.629750764986
 20
545.54213277816
 30
0.0
 11
601.8297507649875
 21
592.3421327781587
 31
0.0
  0
LINE
  5
152
330
1F
100
AcDbEntity
  8
LAY-10
  6
CONTINUOUS
 62
     7
100
AcDbLine
 10
662.7718863887171
 20
545.54213277816
 30
0.0
 11
615.9718863887184
 21
592.3421327781587
 31
0.0
  0
LINE
  5
153
330
1F
100
AcDbEntity
  8
LAY-10
  6
CONTINUOUS
 62
     7
100
AcDbLine
 10
676.914022012448
 20
545.54213277816
 30
0.0
 11
630.1140220124494
 21
592.3421327781587
 31
0.0
  0
LINE
  5
154
330
1F
100
AcDbEntity
  8
LAY-10
  6
CONTINUOUS
 62
     7
100
AcDbLine
 10
691.056157636179
 20
545.54213277816
 30
0.0
 11
644.2561576361803
 21
592.3421327781587
 31
0.0
  0
LINE
  5
155
330
1F
100
AcDbEntity
  8
LAY-10
  6
CONTINUOUS
 62
     7
100
AcDbLine
 10
705.1982932599097
 20
545.54213277816
 30
0.0
 11
658.3982932599113
 21
592.3421327781587
 31
0.0
  0
LINE
  5
156
330
1F
100
AcDbEntity
  8
LAY-10
  6
CONTINUOUS
 62
     7
100
AcDbLine
 10
719.3404288836408
 20
545.54213277816
 30
0.0
 11
672.5404288836422
 21
592.3421327781587
 31
0.0
  0
LINE
  5
157
330
1F
100
AcDbEntity
  8
LAY-10
  6
CONTINUOUS
 62
     7
100
AcDbLine
 10
733.4825645073718
 20
545.54213277816
 30
0.0
 11
686.6825645073732
 21
592.3421327781587
 31
0.0
  0
LINE
  5
158
330
1F
100
AcDbEntity
  8
LAY-10
  6
CONTINUOUS
 62
     7
100
AcDbLine
 10
747.6247001311028
 20
545.54213277816
 30
0.0
 11
700.824700131104
 21
592.3421327781587
 31
0.0
  0
LINE
  5
159
330
1F
100
AcDbEntity
  8
LAY-10
  6
CONTINUOUS
 62
     7
100
AcDbLine
 10
761.7668357548337
 20
545.54213277816
 30
0.0
 11
714.9668357548351
 21
592.3421327781587
 31
0.0
  0
LINE
  5
15A
330
1F
100
AcDbEntity
  8
LAY-10
  6
CONTINUOUS
 62
     7
100
AcDbLine
 10
775.9089713785647
 20
545.54213277816
 30
0.0
 11
729.108971378566
 21
592.3421327781587
 31
0.0
  0
LINE
  5
15B
330
1F
100
AcDbEntity
  8
LAY-10
  6
CONTINUOUS
 62
     7
100
AcDbLine
 10
790.0511070022956
 20
545.54213277816
 30
0.0
 11
743.251107002297
 21
592.3421327781587
 31
0.0
  0
LINE
  5
15C
330
1F
100
AcDbEntity
  8
LAY-10
  6
CONTINUOUS
 62
     7
100
AcDbLine
 10
804.1932426260265
 20
545.54213277816
 30
0.0
 11
757.3932426260279
 21
592.3421327781587
 31
0.0
  0
LINE
  5
15D
330
1F
100
AcDbEntity
  8
LAY-10
  6
CONTINUOUS
 62
     7
100
AcDbLine
 10
818.3353782497575
 20
545.5421327781598
 30
0.0
 11
771.535378249759
 21
592.3421327781585
 31
0.0
  0
LINE
  5
15E
330
1F
100
AcDbEntity
  8
LAY-10
  6
CONTINUOUS
 62
     7
100
AcDbLine
 10
832.4775138734884
 20
545.5421327781598
 30
0.0
 11
785.6775138734898
 21
592.3421327781585
 31
0.0
  0
LINE
  5
15F
330
1F
100
AcDbEntity
  8
LAY-10
  6
CONTINUOUS
 62
     7
100
AcDbLine
 10
846.6196494972195
 20
545.5421327781598
 30
0.0
 11
799.8196494972208
 21
592.3421327781585
 31
0.0
  0
LINE
  5
160
330
1F
100
AcDbEntity
  8
LAY-10
  6
CONTINUOUS
 62
     7
100
AcDbLine
 10
860.7617851209503
 20
545.5421327781598
 30
0.0
 11
813.9617851209517
 21
592.3421327781585
 31
0.0
  0
LINE
  5
161
330
1F
100
AcDbEntity
  8
LAY-10
  6
CONTINUOUS
 62
     7
100
AcDbLine
 10
874.9039207446813
 20
545.5421327781598
 30
0.0
 11
828.1039207446827
 21
592.3421327781585
 31
0.0
  0
LINE
  5
162
330
1F
100
AcDbEntity
  8
LAY-10
  6
CONTINUOUS
 62
     7
100
AcDbLine
 10
889.0460563684122
 20
545.5421327781598
 30
0.0
 11
842.2460563684137
 21
592.3421327781585
 31
0.0
  0
LINE
  5
163
330
1F
100
AcDbEntity
  8
LAY-10
  6
CONTINUOUS
 62
     7
100
AcDbLine
 10
903.1881919921432
 20
545.5421327781598
 30
0.0
 11
856.3881919921446
 21
592.3421327781585
 31
0.0
  0
LINE
  5
164
330
1F
100
AcDbEntity
  8
LAY-10
  6
CONTINUOUS
 62
     7
100
AcDbLine
 10
917.3303276158742
 20
545.54213277816
 30
0.0
 11
870.5303276158754
 21
592.3421327781587
 31
0.0
  0
LINE
  5
165
330
1F
100
AcDbEntity
  8
LAY-10
  6
CONTINUOUS
 62
     7
100
AcDbLine
 10
931.4724632396051
 20
545.5421327781598
 30
0.0
 11
884.6724632396065
 21
592.3421327781585
 31
0.0
  0
LINE
  5
166
330
1F
100
AcDbEntity
  8
LAY-10
  6
CONTINUOUS
 62
     7
100
AcDbLine
 10
945.614598863336
 20
545.54213277816
 30
0.0
 11
898.8145988633374
 21
592.3421327781587
 31
0.0
  0
LINE
  5
167
330
1F
100
AcDbEntity
  8
LAY-10
  6
CONTINUOUS
 62
     7
100
AcDbLine
 10
959.756734487067
 20
545.54213277816
 30
0.0
 11
912.9567344870685
 21
592.3421327781585
 31
0.0
  0
LINE
  5
168
330
1F
100
AcDbEntity
  8
LAY-10
  6
CONTINUOUS
 62
     7
100
AcDbLine
 10
973.8988701107979
 20
545.54213277816
 30
0.0
 11
927.0988701107992
 21
592.3421327781587
 31
0.0
  0
LINE
  5
169
330
1F
100
AcDbEntity
  8
LAY-10
  6
CONTINUOUS
 62
     7
100
AcDbLine
 10
988.041005734529
 20
545.54213277816
 30
0.0
 11
941.2410057345303
 21
592.3421327781585
 31
0.0
  0
LINE
  5
16A
330
1F
100
AcDbEntity
  8
LAY-10
  6
CONTINUOUS
 62
     7
100
AcDbLine
 10
1002.18314135826
 20
545.54213277816
 30
0.0
 11
955.3831413582611
 21
592.3421327781587
 31
0.0
  0
LINE
  5
16B
330
1F
100
AcDbEntity
  8
LAY-10
  6
CONTINUOUS
 62
     7
100
AcDbLine
 10
1016.325276981991
 20
545.54213277816
 30
0.0
 11
969.5252769819922
 21
592.3421327781585
 31
0.0
  0
LINE
  5
16C
330
1F
100
AcDbEntity
  8
LAY-10
  6
CONTINUOUS
 62
     7
100
AcDbLine
 10
1030.467412605722
 20
545.54213277816
 30
0.0
 11
983.667412605723
 21
592.3421327781587
 31
0.0
  0
LINE
  5
16D
330
1F
100
AcDbEntity
  8
LAY-10
  6
CONTINUOUS
 62
     7
100
AcDbLine
 10
1044.609548229453
 20
545.54213277816
 30
0.0
 11
997.8095482294541
 21
592.3421327781585
 31
0.0
  0
LINE
  5
16E
330
1F
100
AcDbEntity
  8
LAY-10
  6
CONTINUOUS
 62
     7
100
AcDbLine
 10
1058.751683853184
 20
545.54213277816
 30
0.0
 11
1011.951683853185
 21
592.3421327781587
 31
0.0
  0
LINE
  5
16F
330
1F
100
AcDbEntity
  8
LAY-10
  6
CONTINUOUS
 62
     7
100
AcDbLine
 10
1072.893819476915
 20
545.54213277816
 30
0.0
 11
1026.093819476916
 21
592.3421327781585
 31
0.0
  0
LINE
  5
170
330
1F
100
AcDbEntity
  8
LAY-10
  6
CONTINUOUS
 62
     7
100
AcDbLine
 10
1087.035955100645
 20
545.54213277816
 30
0.0
 11
1040.235955100647
 21
592.3421327781587
 31
0.0
  0
LINE
  5
171
330
1F
100
AcDbEntity
  8
LAY-10
  6
CONTINUOUS
 62
     7
100
AcDbLine
 10
1101.178090724376
 20
545.54213277816
 30
0.0
 11
1054.378090724378
 21
592.3421327781585
 31
0.0
  0
LINE
  5
172
330
1F
100
AcDbEntity
  8
LAY-10
  6
CONTINUOUS
 62
     7
100
AcDbLine
 10
1115.320226348107
 20
545.54213277816
 30
0.0
 11
1068.520226348109
 21
592.3421327781587
 31
0.0
  0
LINE
  5
173
330
1F
100
AcDbEntity
  8
LAY-10
  6
CONTINUOUS
 62
     7
100
AcDbLine
 10
1129.462361971838
 20
545.54213277816
 30
0.0
 11
1082.66236197184
 21
592.3421327781585
 31
0.0
  0
LINE
  5
174
330
1F
100
AcDbEntity
  8
LAY-10
  6
CONTINUOUS
 62
     7
100
AcDbLine
 10
1143.604497595569
 20
545.54213277816
 30
0.0
 11
1096.804497595571
 21
592.3421327781587
 31
0.0
  0
LINE
  5
175
330
1F
100
AcDbEntity
  8
LAY-10
  6
CONTINUOUS
 62
     7
100
AcDbLine
 10
1157.7466332193
 20
545.5421327781598
 30
0.0
 11
1110.946633219302
 21
592.3421327781585
 31
0.0
  0
LINE
  5
176
330
1F
100
AcDbEntity
  8
LAY-10
  6
CONTINUOUS
 62
     7
100
AcDbLine
 10
1171.888768843031
 20
545.54213277816
 30
0.0
 11
1125.088768843033
 21
592.3421327781587
 31
0.0
  0
LINE
  5
177
330
1F
100
AcDbEntity
  8
LAY-10
  6
CONTINUOUS
 62
     7
100
AcDbLine
 10
1186.030904466762
 20
545.5421327781598
 30
0.0
 11
1139.230904466764
 21
592.3421327781585
 31
0.0
  0
LINE
  5
178
330
1F
100
AcDbEntity
  8
LAY-10
  6
CONTINUOUS
 62
     7
100
AcDbLine
 10
1200.173040090493
 20
545.54213277816
 30
0.0
 11
1153.373040090494
 21
592.3421327781587
 31
0.0
  0
LINE
  5
179
330
1F
100
AcDbEntity
  8
LAY-10
  6
CONTINUOUS
 62
     7
100
AcDbLine
 10
1214.315175714224
 20
545.5421327781598
 30
0.0
 11
1167.515175714226
 21
592.3421327781585
 31
0.0
  0
LINE
  5
17A
330
1F
100
AcDbEntity
  8
LAY-10
  6
CONTINUOUS
 62
     7
100
AcDbLine
 10
1228.457311337955
 20
545.54213277816
 30
0.0
 11
1181.657311337956
 21
592.3421327781587
 31
0.0
  0
LINE
  5
17B
330
1F
100
AcDbEntity
  8
LAY-10
  6
CONTINUOUS
 62
     7
100
AcDbLine
 10
1242.599446961686
 20
545.5421327781598
 30
0.0
 11
1195.799446961687
 21
592.3421327781585
 31
0.0
  0
LINE
  5
17C
330
1F
100
AcDbEntity
  8
LAY-10
  6
CONTINUOUS
 62
     7
100
AcDbLine
 10
1256.741582585417
 20
545.54213277816
 30
0.0
 11
1209.941582585418
 21
592.3421327781587
 31
0.0
  0
LINE
  5
17D
330
1F
100
AcDbEntity
  8
LAY-10
  6
CONTINUOUS
 62
     7
100
AcDbLine
 10
1270.883718209148
 20
545.5421327781598
 30
0.0
 11
1224.083718209149
 21
592.3421327781585
 31
0.0
  0
LINE
  5
17E
330
1F
100
AcDbEntity
  8
LAY-10
  6
CONTINUOUS
 62
     7
100
AcDbLine
 10
1285.025853832879
 20
545.5421327781598
 30
0.0
 11
1238.22585383288
 21
592.3421327781584
 31
0.0
  0
LINE
  5
17F
330
1F
100
AcDbEntity
  8
LAY-10
  6
CONTINUOUS
 62
     7
100
AcDbLine
 10
1299.16798945661
 20
545.5421327781598
 30
0.0
 11
1252.367989456611
 21
592.3421327781585
 31
0.0
  0
LINE
  5
180
330
1F
100
AcDbEntity
  8
LAY-10
  6
CONTINUOUS
 62
     7
100
AcDbLine
 10
1313.310125080341
 20
545.5421327781598
 30
0.0
 11
1266.510125080342
 21
592.3421327781584
 31
0.0
  0
LINE
  5
181
330
1F
100
AcDbEntity
  8
LAY-10
  6
CONTINUOUS
 62
     7
100
AcDbLine
 10
1327.452260704072
 20
545.5421327781598
 30
0.0
 11
1280.652260704073
 21
592.3421327781585
 31
0.0
  0
LINE
  5
182
330
1F
100
AcDbEntity
  8
LAY-10
  6
CONTINUOUS
 62
     7
100
AcDbLine
 10
1341.594396327803
 20
545.54213277816
 30
0.0
 11
1294.794396327804
 21
592.3421327781587
 31
0.0
  0
LINE
  5
183
330
1F
100
AcDbEntity
  8
LAY-10
  6
CONTINUOUS
 62
     7
100
AcDbLine
 10
1355.736531951534
 20
545.5421327781601
 30
0.0
 11
1308.936531951535
 21
592.3421327781587
 31
0.0
  0
LINE
  5
184
330
1F
100
AcDbEntity
  8
LAY-10
  6
CONTINUOUS
 62
     7
100
AcDbLine
 10
1369.878667575264
 20
545.54213277816
 30
0.0
 11
1323.078667575266
 21
592.3421327781587
 31
0.0
  0
LINE
  5
185
330
1F
100
AcDbEntity
  8
LAY-10
  6
CONTINUOUS
 62
     7
100
AcDbLine
 10
1384.020803198996
 20
545.5421327781601
 30
0.0
 11
1337.220803198997
 21
592.3421327781587
 31
0.0
  0
LINE
  5
186
330
1F
100
AcDbEntity
  8
LAY-10
  6
CONTINUOUS
 62
     7
100
AcDbLine
 10
1398.162938822727
 20
545.54213277816
 30
0.0
 11
1351.362938822728
 21
592.3421327781587
 31
0.0
  0
LINE
  5
187
330
1F
100
AcDbEntity
  8
LAY-10
  6
CONTINUOUS
 62
     7
100
AcDbLine
 10
1412.305074446458
 20
545.5421327781601
 30
0.0
 11
1365.505074446459
 21
592.3421327781587
 31
0.0
  0
LINE
  5
188
330
1F
100
AcDbEntity
  8
LAY-10
  6
CONTINUOUS
 62
     7
100
AcDbLine
 10
1426.447210070188
 20
545.54213277816
 30
0.0
 11
1379.64721007019
 21
592.3421327781587
 31
0.0
  0
LINE
  5
189
330
1F
100
AcDbEntity
  8
LAY-10
  6
CONTINUOUS
 62
     7
100
AcDbLine
 10
1440.589345693919
 20
545.5421327781601
 30
0.0
 11
1393.789345693921
 21
592.3421327781587
 31
0.0
  0
LINE
  5
18A
330
1F
100
AcDbEntity
  8
LAY-10
  6
CONTINUOUS
 62
     7
100
AcDbLine
 10
1454.73148131765
 20
545.54213277816
 30
0.0
 11
1407.931481317651
 21
592.3421327781587
 31
0.0
  0
LINE
  5
18B
330
1F
100
AcDbEntity
  8
LAY-10
  6
CONTINUOUS
 62
     7
100
AcDbLine
 10
1468.873616941381
 20
545.5421327781601
 30
0.0
 11
1422.073616941382
 21
592.3421327781587
 31
0.0
  0
LINE
  5
18C
330
1F
100
AcDbEntity
  8
LAY-10
  6
CONTINUOUS
 62
     7
100
AcDbLine
 10
1483.015752565112
 20
545.54213277816
 30
0.0
 11
1436.215752565113
 21
592.3421327781587
 31
0.0
  0
LINE
  5
18D
330
1F
100
AcDbEntity
  8
LAY-10
  6
CONTINUOUS
 62
     7
100
AcDbLine
 10
1497.157888188843
 20
545.5421327781601
 30
0.0
 11
1450.357888188845
 21
592.3421327781587
 31
0.0
  0
LINE
  5
18E
330
1F
100
AcDbEntity
  8
LAY-10
  6
CONTINUOUS
 62
     7
100
AcDbLine
 10
1511.300023812574
 20
545.54213277816
 30
0.0
 11
1464.500023812575
 21
592.3421327781587
 31
0.0
  0
LINE
  5
18F
330
1F
100
AcDbEntity
  8
LAY-10
  6
CONTINUOUS
 62
     7
100
AcDbLine
 10
1525.442159436305
 20
545.5421327781601
 30
0.0
 11
1478.642159436306
 21
592.3421327781587
 31
0.0
  0
LINE
  5
190
330
1F
100
AcDbEntity
  8
LAY-10
  6
CONTINUOUS
 62
     7
100
AcDbLine
 10
1539.584295060036
 20
545.54213277816
 30
0.0
 11
1492.784295060037
 21
592.3421327781587
 31
0.0
  0
LINE
  5
191
330
1F
100
AcDbEntity
  8
LAY-10
  6
CONTINUOUS
 62
     7
100
AcDbLine
 10
1553.726430683767
 20
545.5421327781601
 30
0.0
 11
1506.926430683768
 21
592.3421327781587
 31
0.0
  0
LINE
  5
192
330
1F
100
AcDbEntity
  8
LAY-10
  6
CONTINUOUS
 62
     7
100
AcDbLine
 10
1567.868566307498
 20
545.54213277816
 30
0.0
 11
1521.068566307499
 21
592.3421327781587
 31
0.0
  0
LINE
  5
193
330
1F
100
AcDbEntity
  8
LAY-10
  6
CONTINUOUS
 62
     7
100
AcDbLine
 10
1582.010701931229
 20
545.5421327781601
 30
0.0
 11
1535.21070193123
 21
592.3421327781587
 31
0.0
  0
LINE
  5
194
330
1F
100
AcDbEntity
  8
LAY-10
  6
CONTINUOUS
 62
     7
100
AcDbLine
 10
1596.15283755496
 20
545.54213277816
 30
0.0
 11
1549.352837554961
 21
592.3421327781587
 31
0.0
  0
LINE
  5
195
330
1F
100
AcDbEntity
  8
LAY-10
  6
CONTINUOUS
 62
     7
100
AcDbLine
 10
1610.294973178691
 20
545.5421327781601
 30
0.0
 11
1563.494973178692
 21
592.3421327781587
 31
0.0
  0
LINE
  5
196
330
1F
100
AcDbEntity
  8
LAY-10
  6
CONTINUOUS
 62
     7
100
AcDbLine
 10
1624.437108802422
 20
545.54213277816
 30
0.0
 11
1577.637108802423
 21
592.3421327781587
 31
0.0
  0
LINE
  5
197
330
1F
100
AcDbEntity
  8
LAY-10
  6
CONTINUOUS
 62
     7
100
AcDbLine
 10
1638.579244426153
 20
545.5421327781598
 30
0.0
 11
1591.779244426154
 21
592.3421327781585
 31
0.0
  0
LINE
  5
198
330
1F
100
AcDbEntity
  8
LAY-10
  6
CONTINUOUS
 62
     7
100
AcDbLine
 10
1647.070530121307
 20
551.192982706736
 30
0.0
 11
1605.921380049885
 21
592.3421327781587
 31
0.0
  0
LINE
  5
199
330
1F
100
AcDbEntity
  8
LAY-10
  6
CONTINUOUS
 62
     7
100
AcDbLine
 10
1647.070530121308
 20
565.3351183304669
 30
0.0
 11
1620.063515673616
 21
592.3421327781585
 31
0.0
  0
LINE
  5
19A
330
1F
100
AcDbEntity
  8
LAY-10
  6
CONTINUOUS
 62
     7
100
AcDbLine
 10
1647.070530121307
 20
579.4772539541979
 30
0.0
 11
1634.205651297347
 21
592.3421327781587
 31
0.0
  0
LINE
  5
19B
330
1F
100
AcDbEntity
  8
LAY-10
  6
CONTINUOUS
 62
     7
100
AcDbLine
 10
2179.085681597989
 20
2283.545885158464
 30
0.0
 11
2180.49989516034
 21
2284.960098720817
 31
0.0
  0
LINE
  5
19C
330
1F
100
AcDbEntity
  8
LAY-10
  6
CONTINUOUS
 62
     7
100
AcDbLine
 10
2179.085681597977
 20
2282.131671596079
 30
0.0
 11
2181.085681597992
 21
2284.131671596099
 31
0.0
  0
LINE
  5
19D
330
1F
100
AcDbEntity
  8
LAY-10
  6
CONTINUOUS
 62
     7
100
AcDbLine
 10
2179.085681597989
 20
2280.717458033721
 30
0.0
 11
2181.085681597984
 21
2282.717458033717
 31
0.0
  0
LINE
  5
19E
330
1F
100
AcDbEntity
  8
LAY-10
  6
CONTINUOUS
 62
     7
100
AcDbLine
 10
2179.085681597977
 20
2279.303244471336
 30
0.0
 11
2181.085681597996
 21
2281.303244471351
 31
0.0
  0
LINE
  5
19F
330
1F
100
AcDbEntity
  8
LAY-10
  6
CONTINUOUS
 62
     7
100
AcDbLine
 10
2179.085681597992
 20
2277.889030908974
 30
0.0
 11
2181.085681597989
 21
2279.88903090897
 31
0.0
  0
LINE
  5
1A0
330
1F
100
AcDbEntity
  8
LAY-10
  6
CONTINUOUS
 62
     7
100
AcDbLine
 10
2179.085681597981
 20
2276.474817346593
 30
0.0
 11
2181.085681597996
 21
2278.474817346608
 31
0.0
  0
LINE
  5
1A1
330
1F
100
AcDbEntity
  8
LAY-10
  6
CONTINUOUS
 62
     7
100
AcDbLine
 10
2179.085681597992
 20
2275.060603784227
 30
0.0
 11
2181.085681597989
 21
2277.060603784225
 31
0.0
  0
LINE
  5
1A2
330
1F
100
AcDbEntity
  8
LAY-10
  6
CONTINUOUS
 62
     7
100
AcDbLine
 10
2179.085681597983
 20
2273.646390221847
 30
0.0
 11
2181.085681597996
 21
2275.646390221861
 31
0.0
  0
LINE
  5
1A3
330
1F
100
AcDbEntity
  8
LAY-10
  6
CONTINUOUS
 62
     7
100
AcDbLine
 10
2179.085681597992
 20
2272.232176659484
 30
0.0
 11
2181.085681597989
 21
2274.232176659481
 31
0.0
  0
LINE
  5
1A4
330
1F
100
AcDbEntity
  8
LAY-10
  6
CONTINUOUS
 62
     7
100
AcDbLine
 10
2179.085681597983
 20
2270.817963097102
 30
0.0
 11
2181.085681597996
 21
2272.817963097118
 31
0.0
  0
LINE
  5
1A5
330
1F
100
AcDbEntity
  8
LAY-10
  6
CONTINUOUS
 62
     7
100
AcDbLine
 10
2179.085681597992
 20
2269.403749534739
 30
0.0
 11
2181.085681597989
 21
2271.403749534736
 31
0.0
  0
LINE
  5
1A6
330
1F
100
AcDbEntity
  8
LAY-10
  6
CONTINUOUS
 62
     7
100
AcDbLine
 10
2179.085681597985
 20
2267.989535972357
 30
0.0
 11
2181.085681598
 21
2269.989535972371
 31
0.0
  0
LINE
  5
1A7
330
1F
100
AcDbEntity
  8
LAY-10
  6
CONTINUOUS
 62
     7
100
AcDbLine
 10
2179.085681597974
 20
2266.575322409976
 30
0.0
 11
2181.085681597992
 21
2268.575322409991
 31
0.0
  0
LINE
  5
1A8
330
1F
100
AcDbEntity
  8
LAY-10
  6
CONTINUOUS
 62
     7
100
AcDbLine
 10
2179.085681597985
 20
2265.161108847612
 30
0.0
 11
2181.085681598
 21
2267.161108847628
 31
0.0
  0
LINE
  5
1A9
330
1F
100
AcDbEntity
  8
LAY-10
  6
CONTINUOUS
 62
     7
100
AcDbLine
 10
2179.085681597977
 20
2263.74689528523
 30
0.0
 11
2181.085681597992
 21
2265.746895285246
 31
0.0
  0
LINE
  5
1AA
330
1F
100
AcDbEntity
  8
LAY-10
  6
CONTINUOUS
 62
     7
100
AcDbLine
 10
2179.085681597989
 20
2262.332681722864
 30
0.0
 11
2181.085681597984
 21
2264.332681722862
 31
0.0
  0
LINE
  5
1AB
330
1F
100
AcDbEntity
  8
LAY-10
  6
CONTINUOUS
 62
     7
100
AcDbLine
 10
2179.085681597977
 20
2260.918468160485
 30
0.0
 11
2181.085681597992
 21
2262.918468160503
 31
0.0
  0
LINE
  5
1AC
330
1F
100
AcDbEntity
  8
LAY-10
  6
CONTINUOUS
 62
     7
100
AcDbLine
 10
2179.541525720675
 20
2259.96009872081
 30
0.0
 11
2181.085681597984
 21
2261.50425459812
 31
0.0
  0
LINE
  5
1AD
330
1F
100
AcDbEntity
  8
LAY-10
  6
CONTINUOUS
 62
     7
100
AcDbLine
 10
2180.955739283059
 20
2259.960098720817
 30
0.0
 11
2181.085681597996
 21
2260.090041035756
 31
0.0
  0
LINE
  5
1AE
330
1F
100
AcDbEntity
  8
LAY-10
  6
CONTINUOUS
 62
     7
100
AcDbLine
 10
2179.085681597985
 20
1155.001729281277
 30
0.0
 11
2180.044051037592
 21
1155.960098720882
 31
0.0
  0
LINE
  5
1AF
330
1F
100
AcDbEntity
  8
LAY-10
  6
CONTINUOUS
 62
     7
100
AcDbLine
 10
2179.085681597997
 20
1153.587515718913
 30
0.0
 11
2181.085681597992
 21
1155.587515718909
 31
0.0
  0
LINE
  5
1B0
330
1F
100
AcDbEntity
  8
LAY-10
  6
CONTINUOUS
 62
     7
100
AcDbLine
 10
2179.085681597985
 20
1152.17330215653
 30
0.0
 11
2181.085681597981
 21
1154.173302156527
 31
0.0
  0
LINE
  5
1B1
330
1F
100
AcDbEntity
  8
LAY-10
  6
CONTINUOUS
 62
     7
100
AcDbLine
 10
2179.085681597997
 20
1150.759088594167
 30
0.0
 11
2181.085681597971
 21
1152.759088594146
 31
0.0
  0
LINE
  5
1B2
330
1F
100
AcDbEntity
  8
LAY-10
  6
CONTINUOUS
 62
     7
100
AcDbLine
 10
2179.085681597985
 20
1149.344875031785
 30
0.0
 11
2181.085681597981
 21
1151.344875031781
 31
0.0
  0
LINE
  5
1B3
330
1F
100
AcDbEntity
  8
LAY-10
  6
CONTINUOUS
 62
     7
100
AcDbLine
 10
2179.085681597997
 20
1147.930661469423
 30
0.0
 11
2181.085681597974
 21
1149.930661469399
 31
0.0
  0
LINE
  5
1B4
330
1F
100
AcDbEntity
  8
LAY-10
  6
CONTINUOUS
 62
     7
100
AcDbLine
 10
2179.085681597985
 20
1146.51644790704
 30
0.0
 11
2181.085681597981
 21
1148.516447907037
 31
0.0
  0
LINE
  5
1B5
330
1F
100
AcDbEntity
  8
LAY-10
  6
CONTINUOUS
 62
     7
100
AcDbLine
 10
2179.085681597997
 20
1145.102234344679
 30
0.0
 11
2181.085681597974
 21
1147.102234344656
 31
0.0
  0
LINE
  5
1B6
330
1F
100
AcDbEntity
  8
LAY-10
  6
CONTINUOUS
 62
     7
100
AcDbLine
 10
2179.085681597989
 20
1143.688020782295
 30
0.0
 11
2181.085681597986
 21
1145.688020782293
 31
0.0
  0
LINE
  5
1B7
330
1F
100
AcDbEntity
  8
LAY-10
  6
CONTINUOUS
 62
     7
100
AcDbLine
 10
2179.085681598
 20
1142.273807219933
 30
0.0
 11
2181.085681597978
 21
1144.273807219911
 31
0.0
  0
LINE
  5
1B8
330
1F
100
AcDbEntity
  8
LAY-10
  6
CONTINUOUS
 62
     7
100
AcDbLine
 10
2179.085681597989
 20
1140.85959365755
 30
0.0
 11
2181.085681597986
 21
1142.859593657547
 31
0.0
  0
LINE
  5
1B9
330
1F
100
AcDbEntity
  8
LAY-10
  6
CONTINUOUS
 62
     7
100
AcDbLine
 10
2179.085681598
 20
1139.445380095189
 30
0.0
 11
2181.085681597978
 21
1141.445380095164
 31
0.0
  0
LINE
  5
1BA
330
1F
100
AcDbEntity
  8
LAY-10
  6
CONTINUOUS
 62
     7
100
AcDbLine
 10
2179.085681597992
 20
1138.031166532807
 30
0.0
 11
2181.085681597989
 21
1140.031166532803
 31
0.0
  0
LINE
  5
1BB
330
1F
100
AcDbEntity
  8
LAY-10
  6
CONTINUOUS
 62
     7
100
AcDbLine
 10
2179.085681598003
 20
1136.616952970443
 30
0.0
 11
2181.085681597978
 21
1138.616952970421
 31
0.0
  0
LINE
  5
1BC
330
1F
100
AcDbEntity
  8
LAY-10
  6
CONTINUOUS
 62
     7
100
AcDbLine
 10
2179.085681597992
 20
1135.202739408061
 30
0.0
 11
2181.085681597989
 21
1137.202739408057
 31
0.0
  0
LINE
  5
1BD
330
1F
100
AcDbEntity
  8
LAY-10
  6
CONTINUOUS
 62
     7
100
AcDbLine
 10
2179.085681598003
 20
1133.788525845698
 30
0.0
 11
2181.085681597981
 21
1135.788525845675
 31
0.0
  0
LINE
  5
1BE
330
1F
100
AcDbEntity
  8
LAY-10
  6
CONTINUOUS
 62
     7
100
AcDbLine
 10
2179.085681597997
 20
1132.374312283316
 30
0.0
 11
2181.085681597992
 21
1134.374312283312
 31
0.0
  0
LINE
  5
1BF
330
1F
100
AcDbEntity
  8
LAY-10
  6
CONTINUOUS
 62
     7
100
AcDbLine
 10
2179.085681597985
 20
1130.960098720934
 30
0.0
 11
2181.085681597981
 21
1132.96009872093
 31
0.0
  0
LINE
  5
1C0
330
1F
100
AcDbEntity
  8
LAY-10
  6
CONTINUOUS
 62
     7
100
AcDbLine
 10
2180.499895160347
 20
1130.960098720923
 30
0.0
 11
2181.085681597992
 21
1131.545885158567
 31
0.0
  0
LINE
  5
1C1
330
1F
100
AcDbEntity
  8
LAY-10
  6
CONTINUOUS
 62
     7
100
AcDbLine
 10
2222.285681597947
 20
2247.218393949229
 30
0.0
 11
2223.427386369638
 21
2248.36009872092
 31
0.0
  0
LINE
  5
1C2
330
1F
100
AcDbEntity
  8
LAY-10
  6
CONTINUOUS
 62
     7
100
AcDbLine
 10
2222.285681597932
 20
2233.076258325484
 30
0.0
 11
2237.569521993383
 21
2248.360098720934
 31
0.0
  0
LINE
  5
1C3
330
1F
100
AcDbEntity
  8
LAY-10
  6
CONTINUOUS
 62
     7
100
AcDbLine
 10
2222.285681597935
 20
2218.934122701755
 30
0.0
 11
2251.711657617112
 21
2248.360098720932
 31
0.0
  0
LINE
  5
1C4
330
1F
100
AcDbEntity
  8
LAY-10
  6
CONTINUOUS
 62
     7
100
AcDbLine
 10
2222.285681597938
 20
2204.791987078027
 30
0.0
 11
2265.85379324084
 21
2248.360098720929
 31
0.0
  0
LINE
  5
1C5
330
1F
100
AcDbEntity
  8
LAY-10
  6
CONTINUOUS
 62
     7
100
AcDbLine
 10
2222.28568159794
 20
2190.649851454298
 30
0.0
 11
2269.085681597941
 21
2237.449851454299
 31
0.0
  0
LINE
  5
1C6
330
1F
100
AcDbEntity
  8
LAY-10
  6
CONTINUOUS
 62
     7
100
AcDbLine
 10
2222.285681597943
 20
2176.507715830569
 30
0.0
 11
2269.085681597944
 21
2223.30771583057
 31
0.0
  0
LINE
  5
1C7
330
1F
100
AcDbEntity
  8
LAY-10
  6
CONTINUOUS
 62
     7
100
AcDbLine
 10
2222.285681597946
 20
2162.365580206842
 30
0.0
 11
2269.085681597947
 21
2209.165580206843
 31
0.0
  0
LINE
  5
1C8
330
1F
100
AcDbEntity
  8
LAY-10
  6
CONTINUOUS
 62
     7
100
AcDbLine
 10
2222.285681597931
 20
2148.223444583096
 30
0.0
 11
2269.085681597949
 21
2195.023444583114
 31
0.0
  0
LINE
  5
1C9
330
1F
100
AcDbEntity
  8
LAY-10
  6
CONTINUOUS
 62
     7
100
AcDbLine
 10
2222.285681597934
 20
2134.081308959368
 30
0.0
 11
2269.085681597935
 21
2180.881308959369
 31
0.0
  0
LINE
  5
1CA
330
1F
100
AcDbEntity
  8
LAY-10
  6
CONTINUOUS
 62
     7
100
AcDbLine
 10
2222.285681597937
 20
2119.93917333564
 30
0.0
 11
2269.085681597938
 21
2166.739173335641
 31
0.0
  0
LINE
  5
1CB
330
1F
100
AcDbEntity
  8
LAY-10
  6
CONTINUOUS
 62
     7
100
AcDbLine
 10
2222.285681597939
 20
2105.79703771191
 30
0.0
 11
2269.08568159794
 21
2152.597037711912
 31
0.0
  0
LINE
  5
1CC
330
1F
100
AcDbEntity
  8
LAY-10
  6
CONTINUOUS
 62
     7
100
AcDbLine
 10
2222.285681597941
 20
2091.654902088183
 30
0.0
 11
2269.085681597943
 21
2138.454902088184
 31
0.0
  0
LINE
  5
1CD
330
1F
100
AcDbEntity
  8
LAY-10
  6
CONTINUOUS
 62
     7
100
AcDbLine
 10
2222.285681597944
 20
2077.512766464454
 30
0.0
 11
2269.085681597946
 21
2124.312766464455
 31
0.0
  0
LINE
  5
1CE
330
1F
100
AcDbEntity
  8
LAY-10
  6
CONTINUOUS
 62
     7
100
AcDbLine
 10
2222.285681597948
 20
2063.370630840725
 30
0.0
 11
2269.085681597949
 21
2110.170630840727
 31
0.0
  0
LINE
  5
1CF
330
1F
100
AcDbEntity
  8
LAY-10
  6
CONTINUOUS
 62
     7
100
AcDbLine
 10
2222.285681597933
 20
2049.22849521698
 30
0.0
 11
2269.085681597934
 21
2096.028495216981
 31
0.0
  0
LINE
  5
1D0
330
1F
100
AcDbEntity
  8
LAY-10
  6
CONTINUOUS
 62
     7
100
AcDbLine
 10
2222.285681597936
 20
2035.086359593252
 30
0.0
 11
2269.085681597937
 21
2081.886359593253
 31
0.0
  0
LINE
  5
1D1
330
1F
100
AcDbEntity
  8
LAY-10
  6
CONTINUOUS
 62
     7
100
AcDbLine
 10
2222.285681597938
 20
2020.944223969524
 30
0.0
 11
2269.08568159794
 21
2067.744223969525
 31
0.0
  0
LINE
  5
1D2
330
1F
100
AcDbEntity
  8
LAY-10
  6
CONTINUOUS
 62
     7
100
AcDbLine
 10
2222.285681597941
 20
2006.802088345795
 30
0.0
 11
2269.085681597942
 21
2053.602088345797
 31
0.0
  0
LINE
  5
1D3
330
1F
100
AcDbEntity
  8
LAY-10
  6
CONTINUOUS
 62
     7
100
AcDbLine
 10
2222.285681597943
 20
1992.659952722066
 30
0.0
 11
2269.085681597944
 21
2039.459952722068
 31
0.0
  0
LINE
  5
1D4
330
1F
100
AcDbEntity
  8
LAY-10
  6
CONTINUOUS
 62
     7
100
AcDbLine
 10
2222.285681597946
 20
1978.517817098339
 30
0.0
 11
2269.085681597947
 21
2025.31781709834
 31
0.0
  0
LINE
  5
1D5
330
1F
100
AcDbEntity
  8
LAY-10
  6
CONTINUOUS
 62
     7
100
AcDbLine
 10
2222.285681597932
 20
1964.375681474593
 30
0.0
 11
2269.085681597933
 21
2011.175681474595
 31
0.0
  0
LINE
  5
1D6
330
1F
100
AcDbEntity
  8
LAY-10
  6
CONTINUOUS
 62
     7
100
AcDbLine
 10
2222.285681597934
 20
1950.233545850864
 30
0.0
 11
2269.085681597935
 21
1997.033545850866
 31
0.0
  0
LINE
  5
1D7
330
1F
100
AcDbEntity
  8
LAY-10
  6
CONTINUOUS
 62
     7
100
AcDbLine
 10
2222.285681597937
 20
1936.091410227136
 30
0.0
 11
2269.085681597938
 21
1982.891410227137
 31
0.0
  0
LINE
  5
1D8
330
1F
100
AcDbEntity
  8
LAY-10
  6
CONTINUOUS
 62
     7
100
AcDbLine
 10
2222.285681597939
 20
1921.949274603408
 30
0.0
 11
2269.08568159794
 21
1968.749274603409
 31
0.0
  0
LINE
  5
1D9
330
1F
100
AcDbEntity
  8
LAY-10
  6
CONTINUOUS
 62
     7
100
AcDbLine
 10
2222.285681597942
 20
1907.80713897968
 30
0.0
 11
2269.085681597943
 21
1954.607138979681
 31
0.0
  0
LINE
  5
1DA
330
1F
100
AcDbEntity
  8
LAY-10
  6
CONTINUOUS
 62
     7
100
AcDbLine
 10
2222.285681597945
 20
1893.665003355951
 30
0.0
 11
2269.085681597946
 21
1940.465003355952
 31
0.0
  0
LINE
  5
1DB
330
1F
100
AcDbEntity
  8
LAY-10
  6
CONTINUOUS
 62
     7
100
AcDbLine
 10
2222.28568159793
 20
1879.522867732206
 30
0.0
 11
2269.085681597932
 21
1926.322867732207
 31
0.0
  0
LINE
  5
1DC
330
1F
100
AcDbEntity
  8
LAY-10
  6
CONTINUOUS
 62
     7
100
AcDbLine
 10
2222.285681597934
 20
1865.380732108478
 30
0.0
 11
2269.085681597935
 21
1912.180732108479
 31
0.0
  0
LINE
  5
1DD
330
1F
100
AcDbEntity
  8
LAY-10
  6
CONTINUOUS
 62
     7
100
AcDbLine
 10
2222.285681597936
 20
1851.238596484749
 30
0.0
 11
2269.085681597938
 21
1898.038596484751
 31
0.0
  0
LINE
  5
1DE
330
1F
100
AcDbEntity
  8
LAY-10
  6
CONTINUOUS
 62
     7
100
AcDbLine
 10
2222.285681597938
 20
1837.09646086102
 30
0.0
 11
2269.08568159794
 21
1883.896460861022
 31
0.0
  0
LINE
  5
1DF
330
1F
100
AcDbEntity
  8
LAY-10
  6
CONTINUOUS
 62
     7
100
AcDbLine
 10
2222.285681597941
 20
1822.954325237292
 30
0.0
 11
2269.085681597942
 21
1869.754325237293
 31
0.0
  0
LINE
  5
1E0
330
1F
100
AcDbEntity
  8
LAY-10
  6
CONTINUOUS
 62
     7
100
AcDbLine
 10
2222.285681597944
 20
1808.812189613564
 30
0.0
 11
2269.085681597945
 21
1855.612189613565
 31
0.0
  0
LINE
  5
1E1
330
1F
100
AcDbEntity
  8
LAY-10
  6
CONTINUOUS
 62
     7
100
AcDbLine
 10
2222.285681597947
 20
1794.670053989835
 30
0.0
 11
2269.085681597948
 21
1841.470053989837
 31
0.0
  0
LINE
  5
1E2
330
1F
100
AcDbEntity
  8
LAY-10
  6
CONTINUOUS
 62
     7
100
AcDbLine
 10
2222.285681597932
 20
1780.52791836609
 30
0.0
 11
2269.085681597933
 21
1827.327918366091
 31
0.0
  0
LINE
  5
1E3
330
1F
100
AcDbEntity
  8
LAY-10
  6
CONTINUOUS
 62
     7
100
AcDbLine
 10
2222.285681597935
 20
1766.385782742362
 30
0.0
 11
2269.085681597936
 21
1813.185782742363
 31
0.0
  0
LINE
  5
1E4
330
1F
100
AcDbEntity
  8
LAY-10
  6
CONTINUOUS
 62
     7
100
AcDbLine
 10
2222.285681597938
 20
1752.243647118633
 30
0.0
 11
2269.085681597939
 21
1799.043647118635
 31
0.0
  0
LINE
  5
1E5
330
1F
100
AcDbEntity
  8
LAY-10
  6
CONTINUOUS
 62
     7
100
AcDbLine
 10
2222.28568159794
 20
1738.101511494905
 30
0.0
 11
2269.085681597941
 21
1784.901511494905
 31
0.0
  0
LINE
  5
1E6
330
1F
100
AcDbEntity
  8
LAY-10
  6
CONTINUOUS
 62
     7
100
AcDbLine
 10
2222.285681597943
 20
1723.959375871176
 30
0.0
 11
2269.085681597944
 21
1770.759375871178
 31
0.0
  0
LINE
  5
1E7
330
1F
100
AcDbEntity
  8
LAY-10
  6
CONTINUOUS
 62
     7
100
AcDbLine
 10
2222.285681597946
 20
1709.817240247448
 30
0.0
 11
2269.085681597947
 21
1756.617240247449
 31
0.0
  0
LINE
  5
1E8
330
1F
100
AcDbEntity
  8
LAY-10
  6
CONTINUOUS
 62
     7
100
AcDbLine
 10
2222.285681597931
 20
1695.675104623704
 30
0.0
 11
2269.085681597932
 21
1742.475104623704
 31
0.0
  0
LINE
  5
1E9
330
1F
100
AcDbEntity
  8
LAY-10
  6
CONTINUOUS
 62
     7
100
AcDbLine
 10
2222.285681597934
 20
1681.532968999975
 30
0.0
 11
2269.085681597935
 21
1728.332968999976
 31
0.0
  0
LINE
  5
1EA
330
1F
100
AcDbEntity
  8
LAY-10
  6
CONTINUOUS
 62
     7
100
AcDbLine
 10
2222.285681597937
 20
1667.390833376246
 30
0.0
 11
2269.085681597938
 21
1714.190833376247
 31
0.0
  0
LINE
  5
1EB
330
1F
100
AcDbEntity
  8
LAY-10
  6
CONTINUOUS
 62
     7
100
AcDbLine
 10
2222.285681597939
 20
1653.248697752518
 30
0.0
 11
2269.08568159794
 21
1700.048697752519
 31
0.0
  0
LINE
  5
1EC
330
1F
100
AcDbEntity
  8
LAY-10
  6
CONTINUOUS
 62
     7
100
AcDbLine
 10
2222.285681597941
 20
1639.106562128789
 30
0.0
 11
2269.085681597942
 21
1685.90656212879
 31
0.0
  0
LINE
  5
1ED
330
1F
100
AcDbEntity
  8
LAY-10
  6
CONTINUOUS
 62
     7
100
AcDbLine
 10
2222.285681597944
 20
1624.964426505061
 30
0.0
 11
2269.085681597946
 21
1671.764426505063
 31
0.0
  0
LINE
  5
1EE
330
1F
100
AcDbEntity
  8
LAY-10
  6
CONTINUOUS
 62
     7
100
AcDbLine
 10
2222.28568159793
 20
1610.822290881316
 30
0.0
 11
2269.085681597931
 21
1657.622290881317
 31
0.0
  0
LINE
  5
1EF
330
1F
100
AcDbEntity
  8
LAY-10
  6
CONTINUOUS
 62
     7
100
AcDbLine
 10
2222.285681597933
 20
1596.680155257587
 30
0.0
 11
2269.085681597934
 21
1643.480155257588
 31
0.0
  0
LINE
  5
1F0
330
1F
100
AcDbEntity
  8
LAY-10
  6
CONTINUOUS
 62
     7
100
AcDbLine
 10
2222.285681597936
 20
1582.53801963386
 30
0.0
 11
2269.085681597937
 21
1629.33801963386
 31
0.0
  0
LINE
  5
1F1
330
1F
100
AcDbEntity
  8
LAY-10
  6
CONTINUOUS
 62
     7
100
AcDbLine
 10
2222.285681597938
 20
1568.395884010131
 30
0.0
 11
2269.08568159794
 21
1615.195884010132
 31
0.0
  0
LINE
  5
1F2
330
1F
100
AcDbEntity
  8
LAY-10
  6
CONTINUOUS
 62
     7
100
AcDbLine
 10
2222.28568159794
 20
1554.253748386402
 30
0.0
 11
2269.085681597942
 21
1601.053748386403
 31
0.0
  0
LINE
  5
1F3
330
1F
100
AcDbEntity
  8
LAY-10
  6
CONTINUOUS
 62
     7
100
AcDbLine
 10
2222.285681597943
 20
1540.111612762674
 30
0.0
 11
2269.085681597944
 21
1586.911612762675
 31
0.0
  0
LINE
  5
1F4
330
1F
100
AcDbEntity
  8
LAY-10
  6
CONTINUOUS
 62
     7
100
AcDbLine
 10
2222.285681597929
 20
1525.969477138929
 30
0.0
 11
2269.08568159793
 21
1572.76947713893
 31
0.0
  0
LINE
  5
1F5
330
1F
100
AcDbEntity
  8
LAY-10
  6
CONTINUOUS
 62
     7
100
AcDbLine
 10
2222.285681597931
 20
1511.8273415152
 30
0.0
 11
2269.085681597933
 21
1558.627341515202
 31
0.0
  0
LINE
  5
1F6
330
1F
100
AcDbEntity
  8
LAY-10
  6
CONTINUOUS
 62
     7
100
AcDbLine
 10
2222.285681597934
 20
1497.685205891472
 30
0.0
 11
2269.085681597936
 21
1544.485205891473
 31
0.0
  0
LINE
  5
1F7
330
1F
100
AcDbEntity
  8
LAY-10
  6
CONTINUOUS
 62
     7
100
AcDbLine
 10
2222.285681597937
 20
1483.543070267743
 30
0.0
 11
2269.085681597939
 21
1530.343070267744
 31
0.0
  0
LINE
  5
1F8
330
1F
100
AcDbEntity
  8
LAY-10
  6
CONTINUOUS
 62
     7
100
AcDbLine
 10
2222.285681597939
 20
1469.400934644015
 30
0.0
 11
2269.08568159794
 21
1516.200934644016
 31
0.0
  0
LINE
  5
1F9
330
1F
100
AcDbEntity
  8
LAY-10
  6
CONTINUOUS
 62
     7
100
AcDbLine
 10
2222.285681597942
 20
1455.258799020286
 30
0.0
 11
2269.085681597943
 21
1502.058799020288
 31
0.0
  0
LINE
  5
1FA
330
1F
100
AcDbEntity
  8
LAY-10
  6
CONTINUOUS
 62
     7
100
AcDbLine
 10
2222.285681597945
 20
1441.116663396558
 30
0.0
 11
2269.085681597946
 21
1487.916663396559
 31
0.0
  0
LINE
  5
1FB
330
1F
100
AcDbEntity
  8
LAY-10
  6
CONTINUOUS
 62
     7
100
AcDbLine
 10
2222.28568159793
 20
1426.974527772813
 30
0.0
 11
2269.085681597932
 21
1473.774527772814
 31
0.0
  0
LINE
  5
1FC
330
1F
100
AcDbEntity
  8
LAY-10
  6
CONTINUOUS
 62
     7
100
AcDbLine
 10
2222.285681597933
 20
1412.832392149085
 30
0.0
 11
2269.085681597934
 21
1459.632392149086
 31
0.0
  0
LINE
  5
1FD
330
1F
100
AcDbEntity
  8
LAY-10
  6
CONTINUOUS
 62
     7
100
AcDbLine
 10
2222.285681597936
 20
1398.690256525356
 30
0.0
 11
2269.085681597937
 21
1445.490256525358
 31
0.0
  0
LINE
  5
1FE
330
1F
100
AcDbEntity
  8
LAY-10
  6
CONTINUOUS
 62
     7
100
AcDbLine
 10
2222.285681597938
 20
1384.548120901628
 30
0.0
 11
2269.08568159794
 21
1431.348120901629
 31
0.0
  0
LINE
  5
1FF
330
1F
100
AcDbEntity
  8
LAY-10
  6
CONTINUOUS
 62
     7
100
AcDbLine
 10
2222.285681597941
 20
1370.405985277899
 30
0.0
 11
2269.085681597942
 21
1417.2059852779
 31
0.0
  0
LINE
  5
200
330
1F
100
AcDbEntity
  8
LAY-10
  6
CONTINUOUS
 62
     7
100
AcDbLine
 10
2222.285681597944
 20
1356.263849654171
 30
0.0
 11
2269.085681597945
 21
1403.063849654172
 31
0.0
  0
LINE
  5
201
330
1F
100
AcDbEntity
  8
LAY-10
  6
CONTINUOUS
 62
     7
100
AcDbLine
 10
2222.285681597929
 20
1342.121714030426
 30
0.0
 11
2269.08568159793
 21
1388.921714030427
 31
0.0
  0
LINE
  5
202
330
1F
100
AcDbEntity
  8
LAY-10
  6
CONTINUOUS
 62
     7
100
AcDbLine
 10
2222.285681597932
 20
1327.979578406697
 30
0.0
 11
2269.085681597933
 21
1374.779578406698
 31
0.0
  0
LINE
  5
203
330
1F
100
AcDbEntity
  8
LAY-10
  6
CONTINUOUS
 62
     7
100
AcDbLine
 10
2222.285681597935
 20
1313.837442782969
 30
0.0
 11
2269.085681597936
 21
1360.63744278297
 31
0.0
  0
LINE
  5
204
330
1F
100
AcDbEntity
  8
LAY-10
  6
CONTINUOUS
 62
     7
100
AcDbLine
 10
2222.285681597938
 20
1299.69530715924
 30
0.0
 11
2269.085681597939
 21
1346.495307159242
 31
0.0
  0
LINE
  5
205
330
1F
100
AcDbEntity
  8
LAY-10
  6
CONTINUOUS
 62
     7
100
AcDbLine
 10
2222.28568159794
 20
1285.553171535512
 30
0.0
 11
2269.085681597941
 21
1332.353171535514
 31
0.0
  0
LINE
  5
206
330
1F
100
AcDbEntity
  8
LAY-10
  6
CONTINUOUS
 62
     7
100
AcDbLine
 10
2222.285681597943
 20
1271.411035911784
 30
0.0
 11
2269.085681597944
 21
1318.211035911785
 31
0.0
  0
LINE
  5
207
330
1F
100
AcDbEntity
  8
LAY-10
  6
CONTINUOUS
 62
     7
100
AcDbLine
 10
2222.285681597928
 20
1257.268900288039
 30
0.0
 11
2269.08568159793
 21
1304.06890028804
 31
0.0
  0
LINE
  5
208
330
1F
100
AcDbEntity
  8
LAY-10
  6
CONTINUOUS
 62
     7
100
AcDbLine
 10
2222.285681597931
 20
1243.12676466431
 30
0.0
 11
2269.085681597932
 21
1289.926764664311
 31
0.0
  0
LINE
  5
209
330
1F
100
AcDbEntity
  8
LAY-10
  6
CONTINUOUS
 62
     7
100
AcDbLine
 10
2222.285681597934
 20
1228.984629040582
 30
0.0
 11
2269.085681597935
 21
1275.784629040583
 31
0.0
  0
LINE
  5
20A
330
1F
100
AcDbEntity
  8
LAY-10
  6
CONTINUOUS
 62
     7
100
AcDbLine
 10
2222.285681597937
 20
1214.842493416853
 30
0.0
 11
2269.085681597938
 21
1261.642493416855
 31
0.0
  0
LINE
  5
20B
330
1F
100
AcDbEntity
  8
LAY-10
  6
CONTINUOUS
 62
     7
100
AcDbLine
 10
2222.285681597939
 20
1200.700357793125
 30
0.0
 11
2269.08568159794
 21
1247.500357793126
 31
0.0
  0
LINE
  5
20C
330
1F
100
AcDbEntity
  8
LAY-10
  6
CONTINUOUS
 62
     7
100
AcDbLine
 10
2222.285681597941
 20
1186.558222169396
 30
0.0
 11
2269.085681597942
 21
1233.358222169398
 31
0.0
  0
LINE
  5
20D
330
1F
100
AcDbEntity
  8
LAY-10
  6
CONTINUOUS
 62
     7
100
AcDbLine
 10
2222.285681597928
 20
1172.416086545651
 30
0.0
 11
2269.085681597929
 21
1219.216086545653
 31
0.0
  0
LINE
  5
20E
330
1F
100
AcDbEntity
  8
LAY-10
  6
CONTINUOUS
 62
     7
100
AcDbLine
 10
2231.571829396946
 20
1167.560098720938
 30
0.0
 11
2269.085681597931
 21
1205.073950921924
 31
0.0
  0
LINE
  5
20F
330
1F
100
AcDbEntity
  8
LAY-10
  6
CONTINUOUS
 62
     7
100
AcDbLine
 10
2245.713965020674
 20
1167.560098720936
 30
0.0
 11
2269.085681597934
 21
1190.931815298195
 31
0.0
  0
LINE
  5
210
330
1F
100
AcDbEntity
  8
LAY-10
  6
CONTINUOUS
 62
     7
100
AcDbLine
 10
2259.856100644402
 20
1167.560098720933
 30
0.0
 11
2269.085681597937
 21
1176.789679674467
 31
0.0
  0
LINE
  5
211
330
1F
100
AcDbEntity
  8
LAY-10
  6
CONTINUOUS
 62
     7
100
AcDbLine
 10
2235.745422526077
 20
1167.560098720931
 30
0.0
 11
2222.285681597946
 21
1181.019839649062
 31
0.0
  0
LINE
  5
212
330
1F
100
AcDbEntity
  8
LAY-10
  6
CONTINUOUS
 62
     7
100
AcDbLine
 10
2249.887558149805
 20
1167.560098720934
 30
0.0
 11
2222.285681597948
 21
1195.16197527279
 31
0.0
  0
LINE
  5
213
330
1F
100
AcDbEntity
  8
LAY-10
  6
CONTINUOUS
 62
     7
100
AcDbLine
 10
2264.029693773534
 20
1167.560098720936
 30
0.0
 11
2222.285681597951
 21
1209.304110896518
 31
0.0
  0
LINE
  5
214
330
1F
100
AcDbEntity
  8
LAY-10
  6
CONTINUOUS
 62
     7
100
AcDbLine
 10
2269.085681597955
 20
1176.646246520246
 30
0.0
 11
2222.285681597954
 21
1223.446246520247
 31
0.0
  0
LINE
  5
215
330
1F
100
AcDbEntity
  8
LAY-10
  6
CONTINUOUS
 62
     7
100
AcDbLine
 10
2269.085681597958
 20
1190.788382143974
 30
0.0
 11
2222.285681597957
 21
1237.588382143976
 31
0.0
  0
LINE
  5
216
330
1F
100
AcDbEntity
  8
LAY-10
  6
CONTINUOUS
 62
     7
100
AcDbLine
 10
2269.085681597944
 20
1204.93051776772
 30
0.0
 11
2222.285681597942
 21
1251.73051776772
 31
0.0
  0
LINE
  5
217
330
1F
100
AcDbEntity
  8
LAY-10
  6
CONTINUOUS
 62
     7
100
AcDbLine
 10
2269.085681597946
 20
1219.072653391448
 30
0.0
 11
2222.285681597945
 21
1265.872653391449
 31
0.0
  0
LINE
  5
218
330
1F
100
AcDbEntity
  8
LAY-10
  6
CONTINUOUS
 62
     7
100
AcDbLine
 10
2269.085681597949
 20
1233.214789015177
 30
0.0
 11
2222.285681597948
 21
1280.014789015178
 31
0.0
  0
LINE
  5
219
330
1F
100
AcDbEntity
  8
LAY-10
  6
CONTINUOUS
 62
     7
100
AcDbLine
 10
2269.085681597951
 20
1247.356924638905
 30
0.0
 11
2222.28568159795
 21
1294.156924638906
 31
0.0
  0
LINE
  5
21A
330
1F
100
AcDbEntity
  8
LAY-10
  6
CONTINUOUS
 62
     7
100
AcDbLine
 10
2269.085681597954
 20
1261.499060262633
 30
0.0
 11
2222.285681597953
 21
1308.299060262634
 31
0.0
  0
LINE
  5
21B
330
1F
100
AcDbEntity
  8
LAY-10
  6
CONTINUOUS
 62
     7
100
AcDbLine
 10
2269.085681597957
 20
1275.641195886362
 30
0.0
 11
2222.285681597956
 21
1322.441195886362
 31
0.0
  0
LINE
  5
21C
330
1F
100
AcDbEntity
  8
LAY-10
  6
CONTINUOUS
 62
     7
100
AcDbLine
 10
2269.085681597942
 20
1289.783331510107
 30
0.0
 11
2222.285681597941
 21
1336.583331510108
 31
0.0
  0
LINE
  5
21D
330
1F
100
AcDbEntity
  8
LAY-10
  6
CONTINUOUS
 62
     7
100
AcDbLine
 10
2269.085681597945
 20
1303.925467133835
 30
0.0
 11
2222.285681597944
 21
1350.725467133837
 31
0.0
  0
LINE
  5
21E
330
1F
100
AcDbEntity
  8
LAY-10
  6
CONTINUOUS
 62
     7
100
AcDbLine
 10
2269.085681597948
 20
1318.067602757564
 30
0.0
 11
2222.285681597947
 21
1364.867602757565
 31
0.0
  0
LINE
  5
21F
330
1F
100
AcDbEntity
  8
LAY-10
  6
CONTINUOUS
 62
     7
100
AcDbLine
 10
2269.08568159795
 20
1332.209738381292
 30
0.0
 11
2222.285681597949
 21
1379.009738381293
 31
0.0
  0
LINE
  5
220
330
1F
100
AcDbEntity
  8
LAY-10
  6
CONTINUOUS
 62
     7
100
AcDbLine
 10
2269.085681597953
 20
1346.351874005021
 30
0.0
 11
2222.285681597952
 21
1393.151874005022
 31
0.0
  0
LINE
  5
221
330
1F
100
AcDbEntity
  8
LAY-10
  6
CONTINUOUS
 62
     7
100
AcDbLine
 10
2269.085681597956
 20
1360.494009628749
 30
0.0
 11
2222.285681597955
 21
1407.29400962875
 31
0.0
  0
LINE
  5
222
330
1F
100
AcDbEntity
  8
LAY-10
  6
CONTINUOUS
 62
     7
100
AcDbLine
 10
2269.085681597941
 20
1374.636145252494
 30
0.0
 11
2222.285681597958
 21
1421.436145252479
 31
0.0
  0
LINE
  5
223
330
1F
100
AcDbEntity
  8
LAY-10
  6
CONTINUOUS
 62
     7
100
AcDbLine
 10
2269.085681597944
 20
1388.778280876222
 30
0.0
 11
2222.285681597943
 21
1435.578280876224
 31
0.0
  0
LINE
  5
224
330
1F
100
AcDbEntity
  8
LAY-10
  6
CONTINUOUS
 62
     7
100
AcDbLine
 10
2269.085681597947
 20
1402.920416499951
 30
0.0
 11
2222.285681597946
 21
1449.720416499952
 31
0.0
  0
LINE
  5
225
330
1F
100
AcDbEntity
  8
LAY-10
  6
CONTINUOUS
 62
     7
100
AcDbLine
 10
2269.08568159795
 20
1417.062552123679
 30
0.0
 11
2222.285681597948
 21
1463.862552123681
 31
0.0
  0
LINE
  5
226
330
1F
100
AcDbEntity
  8
LAY-10
  6
CONTINUOUS
 62
     7
100
AcDbLine
 10
2269.085681597952
 20
1431.204687747408
 30
0.0
 11
2222.285681597951
 21
1478.004687747409
 31
0.0
  0
LINE
  5
227
330
1F
100
AcDbEntity
  8
LAY-10
  6
CONTINUOUS
 62
     7
100
AcDbLine
 10
2269.085681597954
 20
1445.346823371136
 30
0.0
 11
2222.285681597953
 21
1492.146823371137
 31
0.0
  0
LINE
  5
228
330
1F
100
AcDbEntity
  8
LAY-10
  6
CONTINUOUS
 62
     7
100
AcDbLine
 10
2269.085681597958
 20
1459.488958994865
 30
0.0
 11
2222.285681597956
 21
1506.288958994866
 31
0.0
  0
LINE
  5
229
330
1F
100
AcDbEntity
  8
LAY-10
  6
CONTINUOUS
 62
     7
100
AcDbLine
 10
2269.085681597943
 20
1473.63109461861
 30
0.0
 11
2222.285681597942
 21
1520.431094618611
 31
0.0
  0
LINE
  5
22A
330
1F
100
AcDbEntity
  8
LAY-10
  6
CONTINUOUS
 62
     7
100
AcDbLine
 10
2269.085681597946
 20
1487.773230242338
 30
0.0
 11
2222.285681597945
 21
1534.573230242339
 31
0.0
  0
LINE
  5
22B
330
1F
100
AcDbEntity
  8
LAY-10
  6
CONTINUOUS
 62
     7
100
AcDbLine
 10
2269.085681597949
 20
1501.915365866066
 30
0.0
 11
2222.285681597948
 21
1548.715365866067
 31
0.0
  0
LINE
  5
22C
330
1F
100
AcDbEntity
  8
LAY-10
  6
CONTINUOUS
 62
     7
100
AcDbLine
 10
2269.085681597951
 20
1516.057501489795
 30
0.0
 11
2222.285681597949
 21
1562.857501489796
 31
0.0
  0
LINE
  5
22D
330
1F
100
AcDbEntity
  8
LAY-10
  6
CONTINUOUS
 62
     7
100
AcDbLine
 10
2269.085681597954
 20
1530.199637113523
 30
0.0
 11
2222.285681597952
 21
1576.999637113525
 31
0.0
  0
LINE
  5
22E
330
1F
100
AcDbEntity
  8
LAY-10
  6
CONTINUOUS
 62
     7
100
AcDbLine
 10
2269.085681597956
 20
1544.341772737252
 30
0.0
 11
2222.285681597955
 21
1591.141772737253
 31
0.0
  0
LINE
  5
22F
330
1F
100
AcDbEntity
  8
LAY-10
  6
CONTINUOUS
 62
     7
100
AcDbLine
 10
2269.085681597942
 20
1558.483908360997
 30
0.0
 11
2222.285681597941
 21
1605.283908360998
 31
0.0
  0
LINE
  5
230
330
1F
100
AcDbEntity
  8
LAY-10
  6
CONTINUOUS
 62
     7
100
AcDbLine
 10
2269.085681597945
 20
1572.626043984725
 30
0.0
 11
2222.285681597943
 21
1619.426043984727
 31
0.0
  0
LINE
  5
231
330
1F
100
AcDbEntity
  8
LAY-10
  6
CONTINUOUS
 62
     7
100
AcDbLine
 10
2269.085681597948
 20
1586.768179608454
 30
0.0
 11
2222.285681597946
 21
1633.568179608455
 31
0.0
  0
LINE
  5
232
330
1F
100
AcDbEntity
  8
LAY-10
  6
CONTINUOUS
 62
     7
100
AcDbLine
 10
2269.08568159795
 20
1600.910315232182
 30
0.0
 11
2222.285681597948
 21
1647.710315232184
 31
0.0
  0
LINE
  5
233
330
1F
100
AcDbEntity
  8
LAY-10
  6
CONTINUOUS
 62
     7
100
AcDbLine
 10
2269.085681597952
 20
1615.05245085591
 30
0.0
 11
2222.285681597951
 21
1661.852450855912
 31
0.0
  0
LINE
  5
234
330
1F
100
AcDbEntity
  8
LAY-10
  6
CONTINUOUS
 62
     7
100
AcDbLine
 10
2269.085681597955
 20
1629.194586479639
 30
0.0
 11
2222.285681597954
 21
1675.99458647964
 31
0.0
  0
LINE
  5
235
330
1F
100
AcDbEntity
  8
LAY-10
  6
CONTINUOUS
 62
     7
100
AcDbLine
 10
2269.085681597941
 20
1643.336722103384
 30
0.0
 11
2222.285681597957
 21
1690.136722103369
 31
0.0
  0
LINE
  5
236
330
1F
100
AcDbEntity
  8
LAY-10
  6
CONTINUOUS
 62
     7
100
AcDbLine
 10
2269.085681597943
 20
1657.478857727113
 30
0.0
 11
2222.285681597942
 21
1704.278857727114
 31
0.0
  0
LINE
  5
237
330
1F
100
AcDbEntity
  8
LAY-10
  6
CONTINUOUS
 62
     7
100
AcDbLine
 10
2269.085681597947
 20
1671.620993350841
 30
0.0
 11
2222.285681597945
 21
1718.420993350842
 31
0.0
  0
LINE
  5
238
330
1F
100
AcDbEntity
  8
LAY-10
  6
CONTINUOUS
 62
     7
100
AcDbLine
 10
2269.085681597949
 20
1685.763128974569
 30
0.0
 11
2222.285681597948
 21
1732.563128974571
 31
0.0
  0
LINE
  5
239
330
1F
100
AcDbEntity
  8
LAY-10
  6
CONTINUOUS
 62
     7
100
AcDbLine
 10
2269.085681597951
 20
1699.905264598298
 30
0.0
 11
2222.28568159795
 21
1746.705264598299
 31
0.0
  0
LINE
  5
23A
330
1F
100
AcDbEntity
  8
LAY-10
  6
CONTINUOUS
 62
     7
100
AcDbLine
 10
2269.085681597954
 20
1714.047400222026
 30
0.0
 11
2222.285681597953
 21
1760.847400222027
 31
0.0
  0
LINE
  5
23B
330
1F
100
AcDbEntity
  8
LAY-10
  6
CONTINUOUS
 62
     7
100
AcDbLine
 10
2269.08568159794
 20
1728.189535845771
 30
0.0
 11
2222.285681597956
 21
1774.989535845756
 31
0.0
  0
LINE
  5
23C
330
1F
100
AcDbEntity
  8
LAY-10
  6
CONTINUOUS
 62
     7
100
AcDbLine
 10
2269.085681597942
 20
1742.331671469499
 30
0.0
 11
2222.285681597941
 21
1789.131671469501
 31
0.0
  0
LINE
  5
23D
330
1F
100
AcDbEntity
  8
LAY-10
  6
CONTINUOUS
 62
     7
100
AcDbLine
 10
2269.085681597945
 20
1756.473807093228
 30
0.0
 11
2222.285681597944
 21
1803.273807093229
 31
0.0
  0
LINE
  5
23E
330
1F
100
AcDbEntity
  8
LAY-10
  6
CONTINUOUS
 62
     7
100
AcDbLine
 10
2269.085681597948
 20
1770.615942716957
 30
0.0
 11
2222.285681597947
 21
1817.415942716958
 31
0.0
  0
LINE
  5
23F
330
1F
100
AcDbEntity
  8
LAY-10
  6
CONTINUOUS
 62
     7
100
AcDbLine
 10
2269.08568159795
 20
1784.758078340685
 30
0.0
 11
2222.285681597949
 21
1831.558078340686
 31
0.0
  0
LINE
  5
240
330
1F
100
AcDbEntity
  8
LAY-10
  6
CONTINUOUS
 62
     7
100
AcDbLine
 10
2269.085681597953
 20
1798.900213964413
 30
0.0
 11
2222.285681597952
 21
1845.700213964415
 31
0.0
  0
LINE
  5
241
330
1F
100
AcDbEntity
  8
LAY-10
  6
CONTINUOUS
 62
     7
100
AcDbLine
 10
2269.085681597956
 20
1813.042349588142
 30
0.0
 11
2222.285681597955
 21
1859.842349588143
 31
0.0
  0
LINE
  5
242
330
1F
100
AcDbEntity
  8
LAY-10
  6
CONTINUOUS
 62
     7
100
AcDbLine
 10
2269.085681597941
 20
1827.184485211887
 30
0.0
 11
2222.28568159794
 21
1873.984485211887
 31
0.0
  0
LINE
  5
243
330
1F
100
AcDbEntity
  8
LAY-10
  6
CONTINUOUS
 62
     7
100
AcDbLine
 10
2269.085681597944
 20
1841.326620835615
 30
0.0
 11
2222.285681597943
 21
1888.126620835617
 31
0.0
  0
LINE
  5
244
330
1F
100
AcDbEntity
  8
LAY-10
  6
CONTINUOUS
 62
     7
100
AcDbLine
 10
2269.085681597947
 20
1855.468756459344
 30
0.0
 11
2222.285681597946
 21
1902.268756459345
 31
0.0
  0
LINE
  5
245
330
1F
100
AcDbEntity
  8
LAY-10
  6
CONTINUOUS
 62
     7
100
AcDbLine
 10
2269.08568159795
 20
1869.610892083072
 30
0.0
 11
2222.285681597948
 21
1916.410892083073
 31
0.0
  0
LINE
  5
246
330
1F
100
AcDbEntity
  8
LAY-10
  6
CONTINUOUS
 62
     7
100
AcDbLine
 10
2269.085681597951
 20
1883.753027706801
 30
0.0
 11
2222.285681597951
 21
1930.553027706802
 31
0.0
  0
LINE
  5
247
330
1F
100
AcDbEntity
  8
LAY-10
  6
CONTINUOUS
 62
     7
100
AcDbLine
 10
2269.085681597955
 20
1897.895163330529
 30
0.0
 11
2222.285681597953
 21
1944.69516333053
 31
0.0
  0
LINE
  5
248
330
1F
100
AcDbEntity
  8
LAY-10
  6
CONTINUOUS
 62
     7
100
AcDbLine
 10
2269.08568159794
 20
1912.037298954274
 30
0.0
 11
2222.285681597956
 21
1958.837298954259
 31
0.0
  0
LINE
  5
249
330
1F
100
AcDbEntity
  8
LAY-10
  6
CONTINUOUS
 62
     7
100
AcDbLine
 10
2269.085681597943
 20
1926.179434578003
 30
0.0
 11
2222.285681597942
 21
1972.979434578004
 31
0.0
  0
LINE
  5
24A
330
1F
100
AcDbEntity
  8
LAY-10
  6
CONTINUOUS
 62
     7
100
AcDbLine
 10
2269.085681597946
 20
1940.321570201731
 30
0.0
 11
2222.285681597945
 21
1987.121570201732
 31
0.0
  0
LINE
  5
24B
330
1F
100
AcDbEntity
  8
LAY-10
  6
CONTINUOUS
 62
     7
100
AcDbLine
 10
2269.085681597949
 20
1954.46370582546
 30
0.0
 11
2222.285681597948
 21
2001.263705825461
 31
0.0
  0
LINE
  5
24C
330
1F
100
AcDbEntity
  8
LAY-10
  6
CONTINUOUS
 62
     7
100
AcDbLine
 10
2269.08568159795
 20
1968.605841449187
 30
0.0
 11
2222.285681597949
 21
2015.405841449189
 31
0.0
  0
LINE
  5
24D
330
1F
100
AcDbEntity
  8
LAY-10
  6
CONTINUOUS
 62
     7
100
AcDbLine
 10
2269.085681597954
 20
1982.747977072916
 30
0.0
 11
2222.285681597952
 21
2029.547977072917
 31
0.0
  0
LINE
  5
24E
330
1F
100
AcDbEntity
  8
LAY-10
  6
CONTINUOUS
 62
     7
100
AcDbLine
 10
2269.08568159794
 20
1996.890112696661
 30
0.0
 11
2222.285681597955
 21
2043.690112696646
 31
0.0
  0
LINE
  5
24F
330
1F
100
AcDbEntity
  8
LAY-10
  6
CONTINUOUS
 62
     7
100
AcDbLine
 10
2269.085681597942
 20
2011.03224832039
 30
0.0
 11
2222.285681597941
 21
2057.832248320391
 31
0.0
  0
LINE
  5
250
330
1F
100
AcDbEntity
  8
LAY-10
  6
CONTINUOUS
 62
     7
100
AcDbLine
 10
2269.085681597945
 20
2025.174383944118
 30
0.0
 11
2222.285681597943
 21
2071.974383944119
 31
0.0
  0
LINE
  5
251
330
1F
100
AcDbEntity
  8
LAY-10
  6
CONTINUOUS
 62
     7
100
AcDbLine
 10
2269.085681597948
 20
2039.316519567847
 30
0.0
 11
2222.285681597946
 21
2086.116519567848
 31
0.0
  0
LINE
  5
252
330
1F
100
AcDbEntity
  8
LAY-10
  6
CONTINUOUS
 62
     7
100
AcDbLine
 10
2269.08568159795
 20
2053.458655191575
 30
0.0
 11
2222.285681597949
 21
2100.258655191577
 31
0.0
  0
LINE
  5
253
330
1F
100
AcDbEntity
  8
LAY-10
  6
CONTINUOUS
 62
     7
100
AcDbLine
 10
2269.085681597952
 20
2067.600790815303
 30
0.0
 11
2222.285681597951
 21
2114.400790815305
 31
0.0
  0
LINE
  5
254
330
1F
100
AcDbEntity
  8
LAY-10
  6
CONTINUOUS
 62
     7
100
AcDbLine
 10
2269.085681597939
 20
2081.742926439048
 30
0.0
 11
2222.285681597954
 21
2128.542926439033
 31
0.0
  0
LINE
  5
255
330
1F
100
AcDbEntity
  8
LAY-10
  6
CONTINUOUS
 62
     7
100
AcDbLine
 10
2269.085681597941
 20
2095.885062062777
 30
0.0
 11
2222.285681597957
 21
2142.685062062761
 31
0.0
  0
LINE
  5
256
330
1F
100
AcDbEntity
  8
LAY-10
  6
CONTINUOUS
 62
     7
100
AcDbLine
 10
2269.085681597944
 20
2110.027197686506
 30
0.0
 11
2222.285681597943
 21
2156.827197686507
 31
0.0
  0
LINE
  5
257
330
1F
100
AcDbEntity
  8
LAY-10
  6
CONTINUOUS
 62
     7
100
AcDbLine
 10
2269.085681597947
 20
2124.169333310234
 30
0.0
 11
2222.285681597945
 21
2170.969333310235
 31
0.0
  0
LINE
  5
258
330
1F
100
AcDbEntity
  8
LAY-10
  6
CONTINUOUS
 62
     7
100
AcDbLine
 10
2269.085681597949
 20
2138.311468933962
 30
0.0
 11
2222.285681597948
 21
2185.111468933963
 31
0.0
  0
LINE
  5
259
330
1F
100
AcDbEntity
  8
LAY-10
  6
CONTINUOUS
 62
     7
100
AcDbLine
 10
2269.085681597951
 20
2152.453604557691
 30
0.0
 11
2222.28568159795
 21
2199.253604557692
 31
0.0
  0
LINE
  5
25A
330
1F
100
AcDbEntity
  8
LAY-10
  6
CONTINUOUS
 62
     7
100
AcDbLine
 10
2269.085681597954
 20
2166.595740181419
 30
0.0
 11
2222.285681597953
 21
2213.39574018142
 31
0.0
  0
LINE
  5
25B
330
1F
100
AcDbEntity
  8
LAY-10
  6
CONTINUOUS
 62
     7
100
AcDbLine
 10
2269.08568159794
 20
2180.737875805164
 30
0.0
 11
2222.285681597956
 21
2227.537875805148
 31
0.0
  0
LINE
  5
25C
330
1F
100
AcDbEntity
  8
LAY-10
  6
CONTINUOUS
 62
     7
100
AcDbLine
 10
2269.085681597942
 20
2194.880011428892
 30
0.0
 11
2222.285681597941
 21
2241.680011428894
 31
0.0
  0
LINE
  5
25D
330
1F
100
AcDbEntity
  8
LAY-10
  6
CONTINUOUS
 62
     7
100
AcDbLine
 10
2269.085681597945
 20
2209.022147052621
 30
0.0
 11
2229.74772992964
 21
2248.360098720927
 31
0.0
  0
LINE
  5
25E
330
1F
100
AcDbEntity
  8
LAY-10
  6
CONTINUOUS
 62
     7
100
AcDbLine
 10
2269.085681597948
 20
2223.16428267635
 30
0.0
 11
2243.889865553368
 21
2248.36009872093
 31
0.0
  0
LINE
  5
25F
330
1F
100
AcDbEntity
  8
LAY-10
  6
CONTINUOUS
 62
     7
100
AcDbLine
 10
2269.08568159795
 20
2237.306418300078
 30
0.0
 11
2258.032001177096
 21
2248.360098720932
 31
0.0
  0
CIRCLE
  5
260
330
1F
100
AcDbEntity
  8
LAY-10
  6
CONTINUOUS
 62
     7
100
AcDbCircle
 10
552.6705301212496
 20
1153.960098720921
 30
0.0
 40
13.0
  0
LINE
  5
261
330
1F
100
AcDbEntity
  8
LAY-10
  6
CONTINUOUS
 62
     7
100
AcDbLine
 10
552.6705301212987
 20
1157.960098720943
 30
0.0
 11
559.1705301212996
 21
1153.960098720943
 31
0.0
  0
LINE
  5
262
330
1F
100
AcDbEntity
  8
LAY-10
  6
CONTINUOUS
 62
     7
100
AcDbLine
 10
546.1705301212987
 20
1153.960098720943
 30
0.0
 11
552.6705301212987
 21
1157.960098720943
 31
0.0
  0
LINE
  5
263
330
1F
100
AcDbEntity
  8
LAY-10
  6
CONTINUOUS
 62
     7
100
AcDbLine
 10
552.6705301212987
 20
1149.960098720943
 30
0.0
 11
546.1705301212987
 21
1153.960098720943
 31
0.0
  0
LINE
  5
264
330
1F
100
AcDbEntity
  8
LAY-10
  6
CONTINUOUS
 62
     7
100
AcDbLine
 10
559.1705301212996
 20
1153.960098720943
 30
0.0
 11
552.6705301212987
 21
1149.960098720943
 31
0.0
  0
ARC
  5
265
330
1F
100
AcDbEntity
  8
LAY-10
  6
CONTINUOUS
 62
     7
100
AcDbCircle
 10
552.6705301212987
 20
1153.960098720943
 30
0.0
 40
12.75000000000001
100
AcDbArc
 50
288.2838899404034
 51
251.7161100595966
  0
LINE
  5
266
330
1F
100
AcDbEntity
  8
LAY-10
  6
CONTINUOUS
 62
     7
100
AcDbLine
 10
548.6705301212996
 20
1143.460098720942
 30
0.0
 11
556.6705301212969
 21
1143.460098720942
 31
0.0
  0
LINE
  5
267
330
1F
100
AcDbEntity
  8
LAY-10
  6
CONTINUOUS
 62
     7
100
AcDbLine
 10
548.6705301212996
 20
1143.460098720942
 30
0.0
 11
548.6705301212996
 21
1141.853798708139
 31
0.0
  0
LINE
  5
268
330
1F
100
AcDbEntity
  8
LAY-10
  6
CONTINUOUS
 62
     7
100
AcDbLine
 10
556.6705301212969
 20
1143.460098720942
 30
0.0
 11
556.6705301212969
 21
1141.853798708139
 31
0.0
  0
LINE
  5
269
330
1F
100
AcDbEntity
  8
LAY-10
  6
CONTINUOUS
 62
     7
100
AcDbLine
 10
568.670530121298
 20
1169.960098720892
 30
0.0
 11
536.6705301212971
 21
1169.960098720892
 31
0.0
  0
LINE
  5
26A
330
1F
100
AcDbEntity
  8
LAY-10
  6
CONTINUOUS
 62
     7
100
AcDbLine
 10
568.6705301212955
 20
1169.960098720892
 30
0.0
 11
568.6705301212955
 21
1137.960098720893
 31
0.0
  0
LINE
  5
26B
330
1F
100
AcDbEntity
  8
LAY-10
  6
CONTINUOUS
 62
     7
100
AcDbLine
 10
521.6705301212987
 20
1122.960098720891
 30
0.0
 11
536.670530121299
 21
1137.960098720891
 31
0.0
  0
LINE
  5
26C
330
1F
100
AcDbEntity
  8
LAY-10
  6
CONTINUOUS
 62
     7
100
AcDbLine
 10
520.6705301212969
 20
1121.960098720893
 30
0.0
 11
505.6705301212972
 21
1106.960098720894
 31
0.0
  0
LINE
  5
26D
330
1F
100
AcDbEntity
  8
LAY-10
  6
CONTINUOUS
 62
     7
100
AcDbLine
 10
1692.6705301212
 20
1121.960098720893
 30
0.0
 11
1707.670530121202
 21
1106.960098720893
 31
0.0
  0
LINE
  5
26E
330
1F
100
AcDbEntity
  8
LAY-10
  6
CONTINUOUS
 62
     7
100
AcDbLine
 10
505.6705301212972
 20
1106.960098720894
 30
0.0
 11
1707.6705301212
 21
1106.960098720893
 31
0.0
  0
CIRCLE
  5
26F
330
1F
100
AcDbEntity
  8
LAY-10
  6
CONTINUOUS
 62
     7
100
AcDbCircle
 10
552.6705301212496
 20
2261.960098721065
 30
0.0
 40
13.0
  0
LINE
  5
270
330
1F
100
AcDbEntity
  8
LAY-10
  6
CONTINUOUS
 62
     7
100
AcDbLine
 10
552.6705301212987
 20
2257.960098721042
 30
0.0
 11
559.1705301212996
 21
2261.960098721042
 31
0.0
  0
LINE
  5
271
330
1F
100
AcDbEntity
  8
LAY-10
  6
CONTINUOUS
 62
     7
100
AcDbLine
 10
546.1705301212987
 20
2261.960098721042
 30
0.0
 11
552.6705301212987
 21
2257.960098721042
 31
0.0
  0
LINE
  5
272
330
1F
100
AcDbEntity
  8
LAY-10
  6
CONTINUOUS
 62
     7
100
AcDbLine
 10
552.6705301212987
 20
2265.960098721042
 30
0.0
 11
546.1705301212987
 21
2261.960098721042
 31
0.0
  0
LINE
  5
273
330
1F
100
AcDbEntity
  8
LAY-10
  6
CONTINUOUS
 62
     7
100
AcDbLine
 10
559.1705301212996
 20
2261.960098721042
 30
0.0
 11
552.6705301212987
 21
2265.960098721042
 31
0.0
  0
ARC
  5
274
330
1F
100
AcDbEntity
  8
LAY-10
  6
CONTINUOUS
 62
     7
100
AcDbCircle
 10
552.6705301212987
 20
2261.960098721042
 30
0.0
 40
12.75000000000001
100
AcDbArc
 50
108.283889940403
 51
71.71611005959704
  0
LINE
  5
275
330
1F
100
AcDbEntity
  8
LAY-10
  6
CONTINUOUS
 62
     7
100
AcDbLine
 10
548.6705301212996
 20
2272.460098721043
 30
0.0
 11
556.6705301212969
 21
2272.460098721043
 31
0.0
  0
LINE
  5
276
330
1F
100
AcDbEntity
  8
LAY-10
  6
CONTINUOUS
 62
     7
100
AcDbLine
 10
548.6705301212996
 20
2272.460098721043
 30
0.0
 11
548.6705301212996
 21
2274.066398733846
 31
0.0
  0
LINE
  5
277
330
1F
100
AcDbEntity
  8
LAY-10
  6
CONTINUOUS
 62
     7
100
AcDbLine
 10
556.6705301212969
 20
2272.460098721043
 30
0.0
 11
556.6705301212969
 21
2274.066398733846
 31
0.0
  0
LINE
  5
278
330
1F
100
AcDbEntity
  8
LAY-10
  6
CONTINUOUS
 62
     7
100
AcDbLine
 10
568.670530121298
 20
2245.960098721093
 30
0.0
 11
536.6705301212971
 21
2245.960098721093
 31
0.0
  0
LINE
  5
279
330
1F
100
AcDbEntity
  8
LAY-10
  6
CONTINUOUS
 62
     7
100
AcDbLine
 10
568.6705301212955
 20
2245.960098721093
 30
0.0
 11
568.6705301212955
 21
2277.960098721092
 31
0.0
  0
LINE
  5
27A
330
1F
100
AcDbEntity
  8
LAY-10
  6
CONTINUOUS
 62
     7
100
AcDbLine
 10
505.6705301212972
 20
1106.960098720894
 30
0.0
 11
505.6705301213008
 21
2308.960098720892
 31
0.0
  0
LINE
  5
27B
330
1F
100
AcDbEntity
  8
LAY-10
  6
CONTINUOUS
 62
     7
100
AcDbLine
 10
520.6705301212969
 20
1121.960098720893
 30
0.0
 11
520.6705301213008
 21
2293.960098720891
 31
0.0
  0
LINE
  5
27C
330
1F
100
AcDbEntity
  8
LAY-10
  6
CONTINUOUS
 62
     7
100
AcDbLine
 10
521.6705301212987
 20
2292.960098720891
 30
0.0
 11
521.6705301212987
 21
1122.960098720891
 31
0.0
  0
LINE
  5
27D
330
1F
100
AcDbEntity
  8
LAY-10
  6
CONTINUOUS
 62
     7
100
AcDbLine
 10
536.670530121299
 20
1137.960098720891
 30
0.0
 11
536.670530121299
 21
2277.96009872089
 31
0.0
  0
LINE
  5
27E
330
1F
100
AcDbEntity
  8
LAY-10
  6
CONTINUOUS
 62
     7
100
AcDbLine
 10
521.6705301212987
 20
2292.960098720891
 30
0.0
 11
536.670530121299
 21
2277.96009872089
 31
0.0
  0
LINE
  5
27F
330
1F
100
AcDbEntity
  8
LAY-10
  6
CONTINUOUS
 62
     7
100
AcDbLine
 10
505.6705301213008
 20
2308.960098720892
 30
0.0
 11
520.6705301213008
 21
2293.960098720891
 31
0.0
  0
LINE
  5
280
330
1F
100
AcDbEntity
  8
LAY-10
  6
CONTINUOUS
 62
     7
100
AcDbLine
 10
1692.670530121202
 20
2293.960098720891
 30
0.0
 11
1707.670530121202
 21
2308.960098720892
 31
0.0
  0
LINE
  5
281
330
1F
100
AcDbEntity
  8
LAY-10
  6
CONTINUOUS
 62
     7
100
AcDbLine
 10
1692.670530121202
 20
2293.960098720891
 30
0.0
 11
1692.6705301212
 21
1121.960098720893
 31
0.0
  0
LINE
  5
282
330
1F
100
AcDbEntity
  8
LAY-10
  6
CONTINUOUS
 62
     7
100
AcDbLine
 10
1707.6705301212
 20
1106.960098720894
 30
0.0
 11
1707.670530121202
 21
2308.960098720892
 31
0.0
  0
CIRCLE
  5
283
330
1F
100
AcDbEntity
  8
LAY-10
  6
CONTINUOUS
 62
     7
100
AcDbCircle
 10
879.6705301216002
 20
1153.960098720921
 30
0.0
 40
13.0
  0
LINE
  5
284
330
1F
100
AcDbEntity
  8
LAY-10
  6
CONTINUOUS
 62
     7
100
AcDbLine
 10
879.6705301215511
 20
1157.960098720943
 30
0.0
 11
873.1705301215502
 21
1153.960098720943
 31
0.0
  0
LINE
  5
285
330
1F
100
AcDbEntity
  8
LAY-10
  6
CONTINUOUS
 62
     7
100
AcDbLine
 10
886.1705301215511
 20
1153.960098720943
 30
0.0
 11
879.6705301215511
 21
1157.960098720943
 31
0.0
  0
LINE
  5
286
330
1F
100
AcDbEntity
  8
LAY-10
  6
CONTINUOUS
 62
     7
100
AcDbLine
 10
879.6705301215511
 20
1149.960098720943
 30
0.0
 11
886.1705301215511
 21
1153.960098720943
 31
0.0
  0
LINE
  5
287
330
1F
100
AcDbEntity
  8
LAY-10
  6
CONTINUOUS
 62
     7
100
AcDbLine
 10
873.1705301215502
 20
1153.960098720943
 30
0.0
 11
879.6705301215511
 21
1149.960098720943
 31
0.0
  0
ARC
  5
288
330
1F
100
AcDbEntity
  8
LAY-10
  6
CONTINUOUS
 62
     7
100
AcDbCircle
 10
879.6705301215511
 20
1153.960098720943
 30
0.0
 40
12.75000000000001
100
AcDbArc
 50
288.2838899404036
 51
251.7161100595966
  0
LINE
  5
289
330
1F
100
AcDbEntity
  8
LAY-10
  6
CONTINUOUS
 62
     7
100
AcDbLine
 10
883.6705301215502
 20
1143.460098720942
 30
0.0
 11
875.6705301215529
 21
1143.460098720942
 31
0.0
  0
LINE
  5
28A
330
1F
100
AcDbEntity
  8
LAY-10
  6
CONTINUOUS
 62
     7
100
AcDbLine
 10
883.6705301215502
 20
1143.460098720942
 30
0.0
 11
883.6705301215502
 21
1141.853798708139
 31
0.0
  0
LINE
  5
28B
330
1F
100
AcDbEntity
  8
LAY-10
  6
CONTINUOUS
 62
     7
100
AcDbLine
 10
875.6705301215529
 20
1143.460098720942
 30
0.0
 11
875.6705301215529
 21
1141.853798708139
 31
0.0
  0
LINE
  5
28C
330
1F
100
AcDbEntity
  8
LAY-10
  6
CONTINUOUS
 62
     7
100
AcDbLine
 10
863.670530121552
 20
1169.960098720892
 30
0.0
 11
895.6705301215529
 21
1169.960098720892
 31
0.0
  0
LINE
  5
28D
330
1F
100
AcDbEntity
  8
LAY-10
  6
CONTINUOUS
 62
     7
100
AcDbLine
 10
863.6705301215545
 20
1169.960098720892
 30
0.0
 11
863.6705301215545
 21
1137.960098720893
 31
0.0
  0
LINE
  5
28E
330
1F
100
AcDbEntity
  8
LAY-10
  6
CONTINUOUS
 62
     7
100
AcDbLine
 10
895.6705301214188
 20
1137.960098720893
 30
0.0
 11
536.670530121299
 21
1137.960098720891
 31
0.0
  0
CIRCLE
  5
28F
330
1F
100
AcDbEntity
  8
LAY-10
  6
CONTINUOUS
 62
     7
100
AcDbCircle
 10
879.6705301216002
 20
2261.960098721065
 30
0.0
 40
13.0
  0
LINE
  5
290
330
1F
100
AcDbEntity
  8
LAY-10
  6
CONTINUOUS
 62
     7
100
AcDbLine
 10
879.6705301215511
 20
2257.960098721042
 30
0.0
 11
873.1705301215502
 21
2261.960098721042
 31
0.0
  0
LINE
  5
291
330
1F
100
AcDbEntity
  8
LAY-10
  6
CONTINUOUS
 62
     7
100
AcDbLine
 10
886.1705301215511
 20
2261.960098721042
 30
0.0
 11
879.6705301215511
 21
2257.960098721042
 31
0.0
  0
LINE
  5
292
330
1F
100
AcDbEntity
  8
LAY-10
  6
CONTINUOUS
 62
     7
100
AcDbLine
 10
879.6705301215511
 20
2265.960098721042
 30
0.0
 11
886.1705301215511
 21
2261.960098721042
 31
0.0
  0
ARC
  5
293
330
1F
100
AcDbEntity
  8
LAY-10
  6
CONTINUOUS
 62
     7
100
AcDbCircle
 10
879.6705301215511
 20
2261.960098721042
 30
0.0
 40
12.75000000000001
100
AcDbArc
 50
108.283889940404
 51
71.71611005959691
  0
LINE
  5
294
330
1F
100
AcDbEntity
  8
LAY-10
  6
CONTINUOUS
 62
     7
100
AcDbLine
 10
883.6705301215502
 20
2272.460098721043
 30
0.0
 11
875.6705301215529
 21
2272.460098721043
 31
0.0
  0
LINE
  5
295
330
1F
100
AcDbEntity
  8
LAY-10
  6
CONTINUOUS
 62
     7
100
AcDbLine
 10
883.6705301215502
 20
2272.460098721043
 30
0.0
 11
883.6705301215502
 21
2274.066398733847
 31
0.0
  0
LINE
  5
296
330
1F
100
AcDbEntity
  8
LAY-10
  6
CONTINUOUS
 62
     7
100
AcDbLine
 10
875.6705301215529
 20
2272.460098721043
 30
0.0
 11
875.6705301215529
 21
2274.066398733847
 31
0.0
  0
LINE
  5
297
330
1F
100
AcDbEntity
  8
LAY-10
  6
CONTINUOUS
 62
     7
100
AcDbLine
 10
863.6705301215518
 20
2245.960098721093
 30
0.0
 11
895.6705301215527
 21
2245.960098721093
 31
0.0
  0
LINE
  5
298
330
1F
100
AcDbEntity
  8
LAY-10
  6
CONTINUOUS
 62
     7
100
AcDbLine
 10
863.6705301215543
 20
2245.960098721093
 30
0.0
 11
863.6705301215543
 21
2277.960098721092
 31
0.0
  0
LINE
  5
299
330
1F
100
AcDbEntity
  8
LAY-10
  6
CONTINUOUS
 62
     7
100
AcDbLine
 10
895.6705301214188
 20
2277.960098720893
 30
0.0
 11
536.670530121299
 21
2277.96009872089
 31
0.0
  0
LINE
  5
29A
330
1F
100
AcDbEntity
  8
LAY-10
  6
CONTINUOUS
 62
     7
100
AcDbLine
 10
895.6705301214188
 20
2277.960098720893
 30
0.0
 11
895.6705301214188
 21
1137.960098720893
 31
0.0
  0
LINE
  5
29B
330
1F
100
AcDbEntity
  8
LAY-10
  6
CONTINUOUS
 62
     7
100
AcDbLine
 10
873.1705301215502
 20
2261.960098721042
 30
0.0
 11
879.6705301215511
 21
2265.960098721042
 31
0.0
  0
LINE
  5
29C
330
1F
100
AcDbEntity
  8
LAY-10
  6
CONTINUOUS
 62
     7
100
AcDbLine
 10
505.6705301213008
 20
2308.960098720892
 30
0.0
 11
1707.670530121202
 21
2308.960098720892
 31
0.0
  0
LINE
  5
29D
330
1F
100
AcDbEntity
  8
LAY-10
  6
CONTINUOUS
 62
     7
100
AcDbLine
 10
521.6705301212987
 20
1122.960098720891
 30
0.0
 11
910.6705301214206
 21
1122.960098720893
 31
0.0
  0
LINE
  5
29E
330
1F
100
AcDbEntity
  8
LAY-10
  6
CONTINUOUS
 62
     7
100
AcDbLine
 10
895.6705301214188
 20
1137.960098720893
 30
0.0
 11
910.6705301214206
 21
1122.960098720893
 31
0.0
  0
LINE
  5
29F
330
1F
100
AcDbEntity
  8
LAY-10
  6
CONTINUOUS
 62
     7
100
AcDbLine
 10
1692.6705301212
 20
1121.960098720893
 30
0.0
 11
520.6705301212969
 21
1121.960098720893
 31
0.0
  0
LINE
  5
2A0
330
1F
100
AcDbEntity
  8
LAY-10
  6
CONTINUOUS
 62
     7
100
AcDbLine
 10
910.6705301214206
 20
1122.960098720893
 30
0.0
 11
910.6705301214188
 21
2292.960098720891
 31
0.0
  0
LINE
  5
2A1
330
1F
100
AcDbEntity
  8
LAY-10
  6
CONTINUOUS
 62
     7
100
AcDbLine
 10
521.6705301212987
 20
2292.960098720891
 30
0.0
 11
910.6705301214188
 21
2292.960098720891
 31
0.0
  0
LINE
  5
2A2
330
1F
100
AcDbEntity
  8
LAY-10
  6
CONTINUOUS
 62
     7
100
AcDbLine
 10
910.6705301214188
 20
2292.960098720891
 30
0.0
 11
895.6705301214188
 21
2277.960098720893
 31
0.0
  0
LINE
  5
2A3
330
1F
100
AcDbEntity
  8
LAY-10
  6
CONTINUOUS
 62
     7
100
AcDbLine
 10
1692.670530121202
 20
2293.960098720891
 30
0.0
 11
520.6705301213008
 21
2293.960098720891
 31
0.0
  0
LINE
  5
2A4
330
1F
100
AcDbEntity
  8
LAY-10
  6
CONTINUOUS
 62
     7
100
AcDbLine
 10
653.6705301214145
 20
1137.960098720893
 30
0.0
 11
653.6705301214199
 21
2277.960098720892
 31
0.0
  0
LINE
  5
2A5
330
1F
100
AcDbEntity
  8
LAY-10
  6
CONTINUOUS
 62
     7
100
AcDbLine
 10
661.1705301214145
 20
1137.960098720893
 30
0.0
 11
661.1705301214196
 21
2277.960098720892
 31
0.0
  0
LINE
  5
2A6
330
1F
100
AcDbEntity
  8
LAY-10
  6
CONTINUOUS
 62
     7
100
AcDbLine
 10
621.1705301214163
 20
1137.960098720893
 30
0.0
 11
621.1705301214195
 21
2277.960098720893
 31
0.0
  0
LINE
  5
2A7
330
1F
100
AcDbEntity
  8
LAY-10
  6
CONTINUOUS
 62
     7
100
AcDbLine
 10
628.670530121416
 20
1137.960098720893
 30
0.0
 11
628.6705301214197
 21
2277.960098720892
 31
0.0
  0
LINE
  5
2A8
330
1F
100
AcDbEntity
  8
LAY-10
  6
CONTINUOUS
 62
     7
100
AcDbLine
 10
771.1705301214195
 20
1137.960098720893
 30
0.0
 11
771.1705301214176
 21
2277.960098720892
 31
0.0
  0
LINE
  5
2A9
330
1F
100
AcDbEntity
  8
LAY-10
  6
CONTINUOUS
 62
     7
100
AcDbLine
 10
778.6705301214192
 20
1137.960098720893
 30
0.0
 11
778.6705301214176
 21
2277.960098720892
 31
0.0
  0
LINE
  5
2AA
330
1F
100
AcDbEntity
  8
LAY-10
  6
CONTINUOUS
 62
     7
100
AcDbLine
 10
803.6705301214195
 20
1137.960098720893
 30
0.0
 11
803.6705301214158
 21
2277.960098720892
 31
0.0
  0
LINE
  5
2AB
330
1F
100
AcDbEntity
  8
LAY-10
  6
CONTINUOUS
 62
     7
100
AcDbLine
 10
811.1705301214195
 20
1137.960098720893
 30
0.0
 11
811.1705301214158
 21
2277.960098720893
 31
0.0
  0
LINE
  5
2AC
330
1F
100
AcDbEntity
  8
LAY-10
  6
CONTINUOUS
 62
     7
100
AcDbLine
 10
505.6649011891774
 20
1212.460098720994
 30
0.0
 11
476.7664163793403
 21
1212.460098720995
 31
0.0
  0
LINE
  5
2AD
330
1F
100
AcDbEntity
  8
LAY-10
  6
CONTINUOUS
 62
     7
100
AcDbLine
 10
505.6649011891774
 20
1203.460098720994
 30
0.0
 11
476.7664163793403
 21
1203.460098720994
 31
0.0
  0
LINE
  5
2AE
330
1F
100
AcDbEntity
  8
LAY-10
  6
CONTINUOUS
 62
     7
100
AcDbLine
 10
476.7664163793403
 20
1212.460098720995
 30
0.0
 11
476.7664163793403
 21
1203.460098720994
 31
0.0
  0
LINE
  5
2AF
330
1F
100
AcDbEntity
  8
LAY-10
  6
CONTINUOUS
 62
     7
100
AcDbLine
 10
505.6649011891774
 20
1712.460098720994
 30
0.0
 11
476.7664163793404
 21
1712.460098720995
 31
0.0
  0
LINE
  5
2B0
330
1F
100
AcDbEntity
  8
LAY-10
  6
CONTINUOUS
 62
     7
100
AcDbLine
 10
505.6649011891774
 20
1703.460098720994
 30
0.0
 11
476.7664163793404
 21
1703.460098720994
 31
0.0
  0
LINE
  5
2B1
330
1F
100
AcDbEntity
  8
LAY-10
  6
CONTINUOUS
 62
     7
100
AcDbLine
 10
476.7664163793404
 20
1712.460098720995
 30
0.0
 11
476.7664163793404
 21
1703.460098720994
 31
0.0
  0
LINE
  5
2B2
330
1F
100
AcDbEntity
  8
LAY-10
  6
CONTINUOUS
 62
     7
100
AcDbLine
 10
505.6649011891793
 20
2203.460098721015
 30
0.0
 11
476.7664163793422
 21
2203.460098721014
 31
0.0
  0
LINE
  5
2B3
330
1F
100
AcDbEntity
  8
LAY-10
  6
CONTINUOUS
 62
     7
100
AcDbLine
 10
505.6649011891793
 20
2212.460098721016
 30
0.0
 11
476.7664163793422
 21
2212.460098721016
 31
0.0
  0
LINE
  5
2B4
330
1F
100
AcDbEntity
  8
LAY-10
  6
CONTINUOUS
 62
     7
100
AcDbLine
 10
476.7664163793422
 20
2203.460098721014
 30
0.0
 11
476.7664163793422
 21
2212.460098721016
 31
0.0
  0
LINE
  5
2B5
330
1F
100
AcDbEntity
  8
LAY-10
  6
CONTINUOUS
 62
     7
100
AcDbLine
 10
1707.670530121128
 20
1212.460098720992
 30
0.0
 11
1736.569014930965
 21
1212.460098720993
 31
0.0
  0
LINE
  5
2B6
330
1F
100
AcDbEntity
  8
LAY-10
  6
CONTINUOUS
 62
     7
100
AcDbLine
 10
1707.670530121128
 20
1203.460098720992
 30
0.0
 11
1736.569014930965
 21
1203.460098720991
 31
0.0
  0
LINE
  5
2B7
330
1F
100
AcDbEntity
  8
LAY-10
  6
CONTINUOUS
 62
     7
100
AcDbLine
 10
1736.569014930965
 20
1212.460098720993
 30
0.0
 11
1736.569014930965
 21
1203.460098720991
 31
0.0
  0
LINE
  5
2B8
330
1F
100
AcDbEntity
  8
LAY-10
  6
CONTINUOUS
 62
     7
100
AcDbLine
 10
1707.67053012113
 20
1712.460098720992
 30
0.0
 11
1736.569014930967
 21
1712.460098720993
 31
0.0
  0
LINE
  5
2B9
330
1F
100
AcDbEntity
  8
LAY-10
  6
CONTINUOUS
 62
     7
100
AcDbLine
 10
1707.67053012113
 20
1703.460098720991
 30
0.0
 11
1736.569014930967
 21
1703.460098720991
 31
0.0
  0
LINE
  5
2BA
330
1F
100
AcDbEntity
  8
LAY-10
  6
CONTINUOUS
 62
     7
100
AcDbLine
 10
1736.569014930967
 20
1712.460098720993
 30
0.0
 11
1736.569014930967
 21
1703.460098720991
 31
0.0
  0
LINE
  5
2BB
330
1F
100
AcDbEntity
  8
LAY-10
  6
CONTINUOUS
 62
     7
100
AcDbLine
 10
1707.67053012113
 20
2203.460098721013
 30
0.0
 11
1736.569014930967
 21
2203.460098721012
 31
0.0
  0
LINE
  5
2BC
330
1F
100
AcDbEntity
  8
LAY-10
  6
CONTINUOUS
 62
     7
100
AcDbLine
 10
1707.67053012113
 20
2212.460098721013
 30
0.0
 11
1736.569014930967
 21
2212.460098721013
 31
0.0
  0
LINE
  5
2BD
330
1F
100
AcDbEntity
  8
LAY-10
  6
CONTINUOUS
 62
     7
100
AcDbLine
 10
1736.569014930967
 20
2203.460098721012
 30
0.0
 11
1736.569014930967
 21
2212.460098721013
 31
0.0
  0
LINE
  5
2BE
330
1F
100
AcDbEntity
  8
LAY-10
  6
CONTINUOUS
 62
     7
100
AcDbLine
 10
568.6705301214181
 20
683.7421327782001
 30
0.0
 11
568.6705301214181
 21
638.7421327782101
 31
0.0
  0
LINE
  5
2BF
330
1F
100
AcDbEntity
  8
LAY-10
  6
CONTINUOUS
 62
     7
100
AcDbLine
 10
536.6705301214181
 20
683.7421327782042
 30
0.0
 11
536.6705301214181
 21
638.7421327782052
 31
0.0
  0
LINE
  5
2C0
330
1F
100
AcDbEntity
  8
LAY-10
  6
CONTINUOUS
 62
     7
100
AcDbLine
 10
514.4705301213216
 20
636.3421327782061
 30
0.0
 11
514.4705301213219
 21
680.7421327782047
 31
0.0
  0
ARC
  5
2C1
330
1F
100
AcDbEntity
  8
LAY-10
  6
CONTINUOUS
 62
     7
100
AcDbCircle
 10
520.670530121351
 20
636.5421327782036
 30
0.0
 40
3.000000000000003
100
AcDbArc
 50
180.0
 51
270.0
  0
ARC
  5
2C2
330
1F
100
AcDbEntity
  8
LAY-10
  6
CONTINUOUS
 62
     7
100
AcDbCircle
 10
520.4705301213512
 20
636.3421327782056
 30
0.0
 40
6.000000000000006
100
AcDbArc
 50
179.9999999999957
 51
270.0
  0
LINE
  5
2C3
330
1F
100
AcDbEntity
  8
LAY-10
  6
CONTINUOUS
 62
     7
100
AcDbLine
 10
520.6705301213171
 20
683.7421327782042
 30
0.0
 11
505.6705301213167
 21
683.7421327782048
 31
0.0
  0
ARC
  5
2C4
330
1F
100
AcDbEntity
  8
LAY-10
  6
CONTINUOUS
 62
     7
100
AcDbCircle
 10
554.4705301213125
 20
627.3421327782065
 30
0.0
 40
3.000000000000003
100
AcDbArc
 50
0.0
 51
90.00000000000001
  0
ARC
  5
2C5
330
1F
100
AcDbEntity
  8
LAY-10
  6
CONTINUOUS
 62
     7
100
AcDbCircle
 10
554.6705301213124
 20
627.5421327782063
 30
0.0
 40
6.000000000000006
100
AcDbArc
 50
0.0
 51
90.00000000000001
  0
LINE
  5
2C6
330
1F
100
AcDbEntity
  8
LAY-10
  6
CONTINUOUS
 62
     7
100
AcDbLine
 10
517.6705301213199
 20
680.7421327782043
 30
0.0
 11
517.6705301213196
 21
636.5421327782036
 31
0.0
  0
LINE
  5
2C7
330
1F
100
AcDbEntity
  8
LAY-10
  6
CONTINUOUS
 62
     7
100
AcDbLine
 10
547.7842386203065
 20
622.3421327781037
 30
0.0
 11
547.7842386203065
 21
630.3421327781056
 31
0.0
  0
LINE
  5
2C8
330
1F
100
AcDbEntity
  8
LAY-10
  6
CONTINUOUS
 62
     7
100
AcDbLine
 10
517.784238620304
 20
622.3421327781037
 30
0.0
 11
547.7842386203065
 21
622.3421327781037
 31
0.0
  0
ARC
  5
2C9
330
1F
100
AcDbEntity
  8
LAY-10
  6
CONTINUOUS
 62
     7
100
AcDbCircle
 10
517.784238620304
 20
622.3421327781037
 30
0.0
 40
8.0
100
AcDbArc
 50
89.99999999999837
 51
134.9999999999919
  0
LINE
  5
2CA
330
1F
100
AcDbEntity
  8
LAY-10
  6
CONTINUOUS
 62
     7
100
AcDbLine
 10
476.772045311485
 20
592.6436479682706
 30
0.0
 11
512.1273843708123
 21
627.9989870275984
 31
0.0
  0
LINE
  5
2CB
330
1F
100
AcDbEntity
  8
LAY-10
  6
CONTINUOUS
 62
     7
100
AcDbLine
 10
482.4288995609747
 20
586.98679371878
 30
0.0
 11
517.784238620304
 21
622.3421327781037
 31
0.0
  0
LINE
  5
2CC
330
1F
100
AcDbEntity
  8
LAY-10
  6
CONTINUOUS
 62
     7
100
AcDbLine
 10
476.772045311485
 20
592.6436479682706
 30
0.0
 11
482.4288995609747
 21
586.9867937187772
 31
0.0
  0
LINE
  5
2CD
330
1F
100
AcDbEntity
  8
LAY-10
  6
CONTINUOUS
 62
     7
100
AcDbLine
 10
554.4705301213125
 20
630.3421327782038
 30
0.0
 11
517.7842386203042
 21
630.3421327782038
 31
0.0
  0
LINE
  5
2CE
330
1F
100
AcDbEntity
  8
LAY-10
  6
CONTINUOUS
 62
     7
100
AcDbLine
 10
520.6705301213674
 20
633.5421327782018
 30
0.0
 11
554.6705301213183
 21
633.5421327782018
 31
0.0
  0
LINE
  5
2CF
330
1F
100
AcDbEntity
  8
LAY-10
  6
CONTINUOUS
 62
     7
100
AcDbLine
 10
520.6705301213171
 20
683.7421327782042
 30
0.0
 11
520.6705301213171
 21
668.7421327782042
 31
0.0
  0
LINE
  5
2D0
330
1F
100
AcDbEntity
  8
LAY-10
  6
CONTINUOUS
 62
     7
100
AcDbLine
 10
517.6705301213199
 20
680.7421327782043
 30
0.0
 11
505.6705301213167
 21
680.7421327782047
 31
0.0
  0
LINE
  5
2D1
330
1F
100
AcDbEntity
  8
LAY-10
  6
CONTINUOUS
 62
     7
100
AcDbLine
 10
520.6705301213171
 20
668.7421327782042
 30
0.0
 11
517.6705301213199
 21
668.7421327782042
 31
0.0
  0
LINE
  5
2D2
330
1F
100
AcDbEntity
  8
LAY-10
  6
CONTINUOUS
 62
     7
100
AcDbLine
 10
505.6705301213167
 20
683.7421327782048
 30
0.0
 11
505.6705301213167
 21
680.7421327782047
 31
0.0
  0
ARC
  5
2D3
330
1F
100
AcDbEntity
  8
LAY-10
  6
CONTINUOUS
 62
     7
100
AcDbCircle
 10
530.6705301214183
 20
641.5421327782045
 30
0.0
 40
6.000000000000006
100
AcDbArc
 50
180.0
 51
270.0
  0
ARC
  5
2D4
330
1F
100
AcDbEntity
  8
LAY-10
  6
CONTINUOUS
 62
     7
100
AcDbCircle
 10
530.8705301214163
 20
641.7421327782052
 30
0.0
 40
3.000000000000003
100
AcDbArc
 50
180.0
 51
270.0
  0
LINE
  5
2D5
330
1F
100
AcDbEntity
  8
LAY-10
  6
CONTINUOUS
 62
     7
100
AcDbLine
 10
527.8705301214179
 20
680.7421327782052
 30
0.0
 11
527.8705301214177
 21
641.7421327782052
 31
0.0
  0
LINE
  5
2D6
330
1F
100
AcDbEntity
  8
LAY-10
  6
CONTINUOUS
 62
     7
100
AcDbLine
 10
524.6705301214154
 20
680.7421327782052
 30
0.0
 11
524.6705301214151
 21
641.5421327782045
 31
0.0
  0
LINE
  5
2D7
330
1F
100
AcDbEntity
  8
LAY-10
  6
CONTINUOUS
 62
     7
100
AcDbLine
 10
521.6705301214186
 20
668.7421327782062
 30
0.0
 11
524.6705301214176
 21
668.7421327782062
 31
0.0
  0
LINE
  5
2D8
330
1F
100
AcDbEntity
  8
LAY-10
  6
CONTINUOUS
 62
     7
100
AcDbLine
 10
521.6705301214186
 20
683.7421327782042
 30
0.0
 11
521.6705301214186
 21
668.7421327782062
 31
0.0
  0
LINE
  5
2D9
330
1F
100
AcDbEntity
  8
LAY-10
  6
CONTINUOUS
 62
     7
100
AcDbLine
 10
524.6705301214463
 20
680.7421327782052
 30
0.0
 11
536.6705301214181
 21
680.7421327782052
 31
0.0
  0
LINE
  5
2DA
330
1F
100
AcDbEntity
  8
LAY-10
  6
CONTINUOUS
 62
     7
100
AcDbLine
 10
529.6705301213497
 20
633.5421327782045
 30
0.0
 11
529.6705301213497
 21
635.5421327782027
 31
0.0
  0
LINE
  5
2DB
330
1F
100
AcDbEntity
  8
LAY-10
  6
CONTINUOUS
 62
     7
100
AcDbLine
 10
554.6705301213528
 20
633.5421327782045
 30
0.0
 11
554.6705301213528
 21
635.5421327782027
 31
0.0
  0
LINE
  5
2DC
330
1F
100
AcDbEntity
  8
LAY-10
  6
CONTINUOUS
 62
     7
100
AcDbLine
 10
557.4705301213103
 20
627.3421327782065
 30
0.0
 11
557.47053012131
 21
541.7421327782062
 31
0.0
  0
ARC
  5
2DD
330
1F
100
AcDbEntity
  8
LAY-10
  6
CONTINUOUS
 62
     7
100
AcDbCircle
 10
560.4705301213114
 20
541.7421327782062
 30
0.0
 40
3.000000000000003
100
AcDbArc
 50
180.0
 51
270.0
  0
LINE
  5
2DE
330
1F
100
AcDbEntity
  8
LAY-10
  6
CONTINUOUS
 62
     7
100
AcDbLine
 10
560.6705301213146
 20
627.5421327782063
 30
0.0
 11
560.6705301213144
 21
541.9421327782014
 31
0.0
  0
LINE
  5
2DF
330
1F
100
AcDbEntity
  8
LAY-10
  6
CONTINUOUS
 62
     7
100
AcDbLine
 10
606.670530121318
 20
541.9421327782014
 30
0.0
 11
606.670530121318
 21
538.7421327782052
 31
0.0
  0
LINE
  5
2E0
330
1F
100
AcDbEntity
  8
LAY-10
  6
CONTINUOUS
 62
     7
100
AcDbLine
 10
560.6705301213144
 20
541.942132778206
 30
0.0
 11
606.670530121318
 21
541.9421327782069
 31
0.0
  0
LINE
  5
2E1
330
1F
100
AcDbEntity
  8
LAY-10
  6
CONTINUOUS
 62
     7
100
AcDbLine
 10
560.4705301213114
 20
538.7421327782052
 30
0.0
 11
606.670530121318
 21
538.7421327782052
 31
0.0
  0
LINE
  5
2E2
330
1F
100
AcDbEntity
  8
LAY-10
  6
CONTINUOUS
 62
     7
100
AcDbLine
 10
589.6705301213835
 20
541.9421327781569
 30
0.0
 11
589.6705301213835
 21
543.9421327781578
 31
0.0
  0
LINE
  5
2E3
330
1F
100
AcDbEntity
  8
LAY-10
  6
CONTINUOUS
 62
     7
100
AcDbLine
 10
649.9705301213883
 20
594.9421327781573
 30
0.0
 11
649.9705301213883
 21
596.9421327781573
 31
0.0
  0
ARC
  5
2E4
330
1F
100
AcDbEntity
  8
LAY-10
  6
CONTINUOUS
 62
     7
100
AcDbCircle
 10
652.9705301213864
 20
596.9421327781573
 30
0.0
 40
4.0
100
AcDbArc
 50
48.56057832087029
 51
180.0
  0
LINE
  5
2E5
330
1F
100
AcDbEntity
  8
LAY-10
  6
CONTINUOUS
 62
     7
100
AcDbLine
 10
696.7613975013061
 20
599.9407563155945
 30
0.0
 11
652.9696391204167
 21
599.9407563155945
 31
0.0
  0
LINE
  5
2E6
330
1F
100
AcDbEntity
  8
LAY-10
  6
CONTINUOUS
 62
     7
100
AcDbLine
 10
648.9705301213855
 20
594.9421327781573
 30
0.0
 11
639.9705301213842
 21
594.9421327781573
 31
0.0
  0
LINE
  5
2E7
330
1F
100
AcDbEntity
  8
LAY-10
  6
CONTINUOUS
 62
     7
100
AcDbLine
 10
648.9705301213855
 20
596.9421327781573
 30
0.0
 11
648.9705301213855
 21
594.9421327781573
 31
0.0
  0
ARC
  5
2E8
330
1F
100
AcDbEntity
  8
LAY-10
  6
CONTINUOUS
 62
     7
100
AcDbCircle
 10
648.9705301213855
 20
594.9421327781573
 30
0.0
 40
1.0
100
AcDbArc
 50
270.0
 51
0.0
  0
ARC
  5
2E9
330
1F
100
AcDbEntity
  8
LAY-10
  6
CONTINUOUS
 62
     7
100
AcDbCircle
 10
652.9696391204167
 20
596.9412417771881
 30
0.0
 40
2.999108999030569
100
AcDbArc
 50
90.00000000000001
 51
270.0
  0
LINE
  5
2EA
330
1F
100
AcDbEntity
  8
LAY-10
  6
CONTINUOUS
 62
     7
100
AcDbLine
 10
639.9705301213842
 20
594.9421327781573
 30
0.0
 11
639.9705301213842
 21
593.9421327781582
 31
0.0
  0
LINE
  5
2EB
330
1F
100
AcDbEntity
  8
LAY-10
  6
CONTINUOUS
 62
     7
100
AcDbLine
 10
566.2705301213844
 20
545.5421327781563
 30
0.0
 11
566.2705301213844
 21
592.3421327781574
 31
0.0
  0
LINE
  5
2EC
330
1F
100
AcDbEntity
  8
LAY-10
  6
CONTINUOUS
 62
     7
100
AcDbLine
 10
564.6705301213849
 20
593.9421327781587
 30
0.0
 11
564.6705301213849
 21
541.9421327781569
 31
0.0
  0
CIRCLE
  5
2ED
330
1F
100
AcDbEntity
  8
LAY-10
  6
CONTINUOUS
 62
     7
100
AcDbCircle
 10
696.6705301213894
 20
596.9421327781573
 30
0.0
 40
3.000000000000003
  0
LINE
  5
2EE
330
1F
100
AcDbEntity
  8
LAY-10
  6
CONTINUOUS
 62
     7
100
AcDbLine
 10
566.270530121386
 20
545.5421327781545
 30
0.0
 11
1647.070530121379
 21
545.5421327781545
 31
0.0
  0
LINE
  5
2EF
330
1F
100
AcDbEntity
  8
LAY-10
  6
CONTINUOUS
 62
     7
100
AcDbLine
 10
564.6705301213865
 20
543.942132778156
 30
0.0
 11
1648.670530121381
 21
543.942132778156
 31
0.0
  0
LINE
  5
2F0
330
1F
100
AcDbEntity
  8
LAY-10
  6
CONTINUOUS
 62
     7
100
AcDbLine
 10
1647.070530121379
 20
592.3421327781538
 30
0.0
 11
566.270530121386
 21
592.3421327781556
 31
0.0
  0
LINE
  5
2F1
330
1F
100
AcDbEntity
  8
LAY-10
  6
CONTINUOUS
 62
     7
100
AcDbLine
 10
1648.670530121381
 20
593.9421327781541
 30
0.0
 11
564.6705301213865
 21
593.9421327781569
 31
0.0
  0
LINE
  5
2F2
330
1F
100
AcDbEntity
  8
LAY-10
  6
CONTINUOUS
 62
     7
100
AcDbLine
 10
568.6705301214199
 20
680.742132778203
 30
0.0
 11
863.6705301214249
 21
680.7421327781942
 31
0.0
  0
LINE
  5
2F3
330
1F
100
AcDbEntity
  8
LAY-10
  6
CONTINUOUS
 62
     7
100
AcDbLine
 10
863.6705301214249
 20
683.7421327781951
 30
0.0
 11
863.6705301214249
 21
638.7421327781952
 31
0.0
  0
LINE
  5
2F4
330
1F
100
AcDbEntity
  8
LAY-10
  6
CONTINUOUS
 62
     7
100
AcDbLine
 10
895.6705301214249
 20
683.7421327781951
 30
0.0
 11
895.6705301214249
 21
638.7421327781952
 31
0.0
  0
LINE
  5
2F5
330
1F
100
AcDbEntity
  8
LAY-10
  6
CONTINUOUS
 62
     7
100
AcDbLine
 10
895.6705301214249
 20
680.7421327781933
 30
0.0
 11
907.6705301214267
 21
680.7421327781933
 31
0.0
  0
LINE
  5
2F6
330
1F
100
AcDbEntity
  8
LAY-10
  6
CONTINUOUS
 62
     7
100
AcDbLine
 10
907.6705301214267
 20
680.7421327781933
 30
0.0
 11
907.6705301214267
 21
641.5421327781936
 31
0.0
  0
LINE
  5
2F7
330
1F
100
AcDbEntity
  8
LAY-10
  6
CONTINUOUS
 62
     7
100
AcDbLine
 10
904.4705301214251
 20
680.7421327781933
 30
0.0
 11
904.4705301214251
 21
641.7421327781934
 31
0.0
  0
ARC
  5
2F8
330
1F
100
AcDbEntity
  8
LAY-10
  6
CONTINUOUS
 62
     7
100
AcDbCircle
 10
901.670530121425
 20
641.5421327781936
 30
0.0
 40
6.000000000000006
100
AcDbArc
 50
270.0000000000002
 51
0.0
  0
ARC
  5
2F9
330
1F
100
AcDbEntity
  8
LAY-10
  6
CONTINUOUS
 62
     7
100
AcDbCircle
 10
901.4705301214263
 20
641.7421327781934
 30
0.0
 40
3.000000000000003
100
AcDbArc
 50
270.0000000000002
 51
0.0
  0
LINE
  5
2FA
330
1F
100
AcDbEntity
  8
LAY-10
  6
CONTINUOUS
 62
     7
100
AcDbLine
 10
910.6705301214249
 20
683.7421327781951
 30
0.0
 11
910.6705301214249
 21
668.7421327781951
 31
0.0
  0
LINE
  5
2FB
330
1F
100
AcDbEntity
  8
LAY-10
  6
CONTINUOUS
 62
     7
100
AcDbLine
 10
521.6705301214229
 20
683.7421327782025
 30
0.0
 11
910.6705301214249
 21
683.7421327781951
 31
0.0
  0
LINE
  5
2FC
330
1F
100
AcDbEntity
  8
LAY-10
  6
CONTINUOUS
 62
     7
100
AcDbLine
 10
910.6705301214249
 20
668.7421327781951
 30
0.0
 11
907.6705301214267
 21
668.7421327781951
 31
0.0
  0
LINE
  5
2FD
330
1F
100
AcDbEntity
  8
LAY-10
  6
CONTINUOUS
 62
     7
100
AcDbLine
 10
655.6705301214329
 20
646.7421327782021
 30
0.0
 11
655.6705301214329
 21
640.7421327782012
 31
0.0
  0
ARC
  5
2FE
330
1F
100
AcDbEntity
  8
LAY-10
  6
CONTINUOUS
 62
     7
100
AcDbCircle
 10
655.6705301214188
 20
646.7421327782021
 30
0.0
 40
2.0
100
AcDbArc
 50
90.00000000000001
 51
180.0
  0
LINE
  5
2FF
330
1F
100
AcDbEntity
  8
LAY-10
  6
CONTINUOUS
 62
     7
100
AcDbLine
 10
661.1705301214172
 20
648.7421327782012
 30
0.0
 11
655.6705301214188
 21
648.7421327782012
 31
0.0
  0
LINE
  5
300
330
1F
100
AcDbEntity
  8
LAY-10
  6
CONTINUOUS
 62
     7
100
AcDbLine
 10
653.670530121417
 20
646.7421327782021
 30
0.0
 11
653.670530121417
 21
640.7421327782012
 31
0.0
  0
LINE
  5
301
330
1F
100
AcDbEntity
  8
LAY-10
  6
CONTINUOUS
 62
     7
100
AcDbLine
 10
661.1705301214172
 20
646.7421327782021
 30
0.0
 11
655.6705301214329
 21
646.7421327782021
 31
0.0
  0
LINE
  5
302
330
1F
100
AcDbEntity
  8
LAY-10
  6
CONTINUOUS
 62
     7
100
AcDbLine
 10
661.1705301214172
 20
648.7421327782012
 30
0.0
 11
661.1705301214172
 21
646.7421327782021
 31
0.0
  0
ARC
  5
303
330
1F
100
AcDbEntity
  8
LAY-10
  6
CONTINUOUS
 62
     7
100
AcDbCircle
 10
626.670530121414
 20
646.7421327782025
 30
0.0
 40
2.0
100
AcDbArc
 50
0.0
 51
90.00000000000001
  0
LINE
  5
304
330
1F
100
AcDbEntity
  8
LAY-10
  6
CONTINUOUS
 62
     7
100
AcDbLine
 10
621.1705301214151
 20
648.7421327782016
 30
0.0
 11
626.670530121414
 21
648.7421327782016
 31
0.0
  0
LINE
  5
305
330
1F
100
AcDbEntity
  8
LAY-10
  6
CONTINUOUS
 62
     7
100
AcDbLine
 10
628.6705301214154
 20
646.7421327782025
 30
0.0
 11
628.6705301214154
 21
640.7421327782016
 31
0.0
  0
LINE
  5
306
330
1F
100
AcDbEntity
  8
LAY-10
  6
CONTINUOUS
 62
     7
100
AcDbLine
 10
626.6705301213995
 20
646.7421327782025
 30
0.0
 11
626.6705301213995
 21
640.7421327782016
 31
0.0
  0
LINE
  5
307
330
1F
100
AcDbEntity
  8
LAY-10
  6
CONTINUOUS
 62
     7
100
AcDbLine
 10
621.1705301214151
 20
646.7421327782025
 30
0.0
 11
626.6705301213995
 21
646.7421327782025
 31
0.0
  0
LINE
  5
308
330
1F
100
AcDbEntity
  8
LAY-10
  6
CONTINUOUS
 62
     7
100
AcDbLine
 10
621.1705301214151
 20
648.7421327782016
 30
0.0
 11
621.1705301214151
 21
646.7421327782025
 31
0.0
  0
LINE
  5
309
330
1F
100
AcDbEntity
  8
LAY-10
  6
CONTINUOUS
 62
     7
100
AcDbLine
 10
628.6705301214154
 20
640.7421327782016
 30
0.0
 11
653.6705301214131
 21
640.7421327782012
 31
0.0
  0
ARC
  5
30A
330
1F
100
AcDbEntity
  8
LAY-10
  6
CONTINUOUS
 62
     7
100
AcDbCircle
 10
653.6705301214332
 20
640.7421327782012
 30
0.0
 40
2.0
100
AcDbArc
 50
270.0
 51
0.0
  0
ARC
  5
30B
330
1F
100
AcDbEntity
  8
LAY-10
  6
CONTINUOUS
 62
     7
100
AcDbCircle
 10
628.670530121399
 20
640.7421327782016
 30
0.0
 40
2.0
100
AcDbArc
 50
180.0
 51
270.0
  0
LINE
  5
30C
330
1F
100
AcDbEntity
  8
LAY-10
  6
CONTINUOUS
 62
     7
100
AcDbLine
 10
642.6705301214267
 20
635.5421327782022
 30
0.0
 11
642.6705301214267
 21
616.5421327782523
 31
0.0
  0
LINE
  5
30D
330
1F
100
AcDbEntity
  8
LAY-10
  6
CONTINUOUS
 62
     7
100
AcDbLine
 10
639.6705301214265
 20
635.5421327782027
 30
0.0
 11
639.6705301214265
 21
616.5421327782527
 31
0.0
  0
LINE
  5
30E
330
1F
100
AcDbEntity
  8
LAY-10
  6
CONTINUOUS
 62
     7
100
AcDbLine
 10
554.6705301213183
 20
633.5421327782018
 30
0.0
 11
639.6705301214265
 21
633.5421327782018
 31
0.0
  0
LINE
  5
30F
330
1F
100
AcDbEntity
  8
LAY-10
  6
CONTINUOUS
 62
     7
100
AcDbLine
 10
792.6705301214067
 20
635.5421327781909
 30
0.0
 11
792.6705301214067
 21
616.5421327782409
 31
0.0
  0
LINE
  5
310
330
1F
100
AcDbEntity
  8
LAY-10
  6
CONTINUOUS
 62
     7
100
AcDbLine
 10
789.6705301214067
 20
635.5421327781909
 30
0.0
 11
789.6705301214067
 21
616.5421327782409
 31
0.0
  0
ARC
  5
311
330
1F
100
AcDbEntity
  8
LAY-10
  6
CONTINUOUS
 62
     7
100
AcDbCircle
 10
803.670530121434
 20
640.7421327781907
 30
0.0
 40
2.0
100
AcDbArc
 50
270.0000000000002
 51
0.0
  0
ARC
  5
312
330
1F
100
AcDbEntity
  8
LAY-10
  6
CONTINUOUS
 62
     7
100
AcDbCircle
 10
778.6705301213995
 20
640.7421327781907
 30
0.0
 40
2.0
100
AcDbArc
 50
180.0
 51
270.0000000000002
  0
LINE
  5
313
330
1F
100
AcDbEntity
  8
LAY-10
  6
CONTINUOUS
 62
     7
100
AcDbLine
 10
803.6705301214176
 20
640.7421327781907
 30
0.0
 11
778.6705301214176
 21
640.7421327781907
 31
0.0
  0
LINE
  5
314
330
1F
100
AcDbEntity
  8
LAY-10
  6
CONTINUOUS
 62
     7
100
AcDbLine
 10
811.1705301214176
 20
648.7421327781906
 30
0.0
 11
811.1705301214176
 21
646.7421327781907
 31
0.0
  0
LINE
  5
315
330
1F
100
AcDbEntity
  8
LAY-10
  6
CONTINUOUS
 62
     7
100
AcDbLine
 10
811.1705301214176
 20
646.7421327781907
 30
0.0
 11
805.670530121434
 21
646.7421327781907
 31
0.0
  0
LINE
  5
316
330
1F
100
AcDbEntity
  8
LAY-10
  6
CONTINUOUS
 62
     7
100
AcDbLine
 10
805.670530121434
 20
646.7421327781907
 30
0.0
 11
805.670530121434
 21
640.7421327781907
 31
0.0
  0
LINE
  5
317
330
1F
100
AcDbEntity
  8
LAY-10
  6
CONTINUOUS
 62
     7
100
AcDbLine
 10
803.6705301214176
 20
646.7421327781907
 30
0.0
 11
803.6705301214176
 21
640.7421327781907
 31
0.0
  0
LINE
  5
318
330
1F
100
AcDbEntity
  8
LAY-10
  6
CONTINUOUS
 62
     7
100
AcDbLine
 10
811.1705301214176
 20
648.7421327781906
 30
0.0
 11
805.6705301214176
 21
648.7421327781906
 31
0.0
  0
ARC
  5
319
330
1F
100
AcDbEntity
  8
LAY-10
  6
CONTINUOUS
 62
     7
100
AcDbCircle
 10
805.6705301214176
 20
646.7421327781907
 30
0.0
 40
2.0
100
AcDbArc
 50
90.00000000000001
 51
180.0
  0
LINE
  5
31A
330
1F
100
AcDbEntity
  8
LAY-10
  6
CONTINUOUS
 62
     7
100
AcDbLine
 10
771.1705301214158
 20
648.7421327781906
 30
0.0
 11
771.1705301214158
 21
646.7421327781907
 31
0.0
  0
LINE
  5
31B
330
1F
100
AcDbEntity
  8
LAY-10
  6
CONTINUOUS
 62
     7
100
AcDbLine
 10
771.1705301214158
 20
646.7421327781907
 30
0.0
 11
776.6705301213995
 21
646.7421327781907
 31
0.0
  0
LINE
  5
31C
330
1F
100
AcDbEntity
  8
LAY-10
  6
CONTINUOUS
 62
     7
100
AcDbLine
 10
776.6705301213995
 20
646.7421327781907
 30
0.0
 11
776.6705301213995
 21
640.7421327781907
 31
0.0
  0
LINE
  5
31D
330
1F
100
AcDbEntity
  8
LAY-10
  6
CONTINUOUS
 62
     7
100
AcDbLine
 10
778.6705301214158
 20
646.7421327781907
 30
0.0
 11
778.6705301214158
 21
640.7421327781907
 31
0.0
  0
LINE
  5
31E
330
1F
100
AcDbEntity
  8
LAY-10
  6
CONTINUOUS
 62
     7
100
AcDbLine
 10
771.1705301214158
 20
648.7421327781906
 30
0.0
 11
776.6705301214122
 21
648.7421327781906
 31
0.0
  0
ARC
  5
31F
330
1F
100
AcDbEntity
  8
LAY-10
  6
CONTINUOUS
 62
     7
100
AcDbCircle
 10
776.6705301214122
 20
646.7421327781907
 30
0.0
 40
2.0
100
AcDbArc
 50
0.0
 51
90.00000000000001
  0
LINE
  5
320
330
1F
100
AcDbEntity
  8
LAY-10
  6
CONTINUOUS
 62
     7
100
AcDbLine
 10
530.8705301214179
 20
638.7421327782052
 30
0.0
 11
901.4705301214263
 21
638.7421327781952
 31
0.0
  0
LINE
  5
321
330
1F
100
AcDbEntity
  8
LAY-10
  6
CONTINUOUS
 62
     7
100
AcDbLine
 10
792.6705301214067
 20
616.5421327781927
 30
0.0
 11
639.670530121427
 21
616.5421327782027
 31
0.0
  0
LINE
  5
322
330
1F
100
AcDbEntity
  8
LAY-10
  6
CONTINUOUS
 62
     7
100
AcDbLine
 10
1644.670530121275
 20
683.7421327782
 30
0.0
 11
1644.670530121275
 21
638.74213277821
 31
0.0
  0
LINE
  5
323
330
1F
100
AcDbEntity
  8
LAY-10
  6
CONTINUOUS
 62
     7
100
AcDbLine
 10
1676.670530121276
 20
683.7421327782042
 30
0.0
 11
1676.670530121276
 21
638.7421327782051
 31
0.0
  0
LINE
  5
324
330
1F
100
AcDbEntity
  8
LAY-10
  6
CONTINUOUS
 62
     7
100
AcDbLine
 10
1698.870530121372
 20
636.342132778206
 30
0.0
 11
1698.870530121372
 21
680.7421327782047
 31
0.0
  0
ARC
  5
325
330
1F
100
AcDbEntity
  8
LAY-10
  6
CONTINUOUS
 62
     7
100
AcDbCircle
 10
1692.670530121342
 20
636.5421327782035
 30
0.0
 40
3.000000000000003
100
AcDbArc
 50
270.0
 51
0.0
  0
ARC
  5
326
330
1F
100
AcDbEntity
  8
LAY-10
  6
CONTINUOUS
 62
     7
100
AcDbCircle
 10
1692.870530121342
 20
636.3421327782055
 30
0.0
 40
6.000000000000006
100
AcDbArc
 50
270.0
 51
0.0000000000043545
  0
LINE
  5
327
330
1F
100
AcDbEntity
  8
LAY-10
  6
CONTINUOUS
 62
     7
100
AcDbLine
 10
1692.670530121376
 20
683.7421327782042
 30
0.0
 11
1707.670530121377
 21
683.7421327782047
 31
0.0
  0
ARC
  5
328
330
1F
100
AcDbEntity
  8
LAY-10
  6
CONTINUOUS
 62
     7
100
AcDbCircle
 10
1658.870530121381
 20
627.3421327782064
 30
0.0
 40
3.000000000000003
100
AcDbArc
 50
90.00000000000001
 51
180.0
  0
ARC
  5
329
330
1F
100
AcDbEntity
  8
LAY-10
  6
CONTINUOUS
 62
     7
100
AcDbCircle
 10
1658.670530121381
 20
627.5421327782062
 30
0.0
 40
6.000000000000006
100
AcDbArc
 50
90.00000000000001
 51
180.0
  0
LINE
  5
32A
330
1F
100
AcDbEntity
  8
LAY-10
  6
CONTINUOUS
 62
     7
100
AcDbLine
 10
1695.670530121374
 20
680.7421327782041
 30
0.0
 11
1695.670530121374
 21
636.5421327782035
 31
0.0
  0
LINE
  5
32B
330
1F
100
AcDbEntity
  8
LAY-10
  6
CONTINUOUS
 62
     7
100
AcDbLine
 10
1665.556821622387
 20
622.3421327781036
 30
0.0
 11
1665.556821622387
 21
630.3421327781055
 31
0.0
  0
LINE
  5
32C
330
1F
100
AcDbEntity
  8
LAY-10
  6
CONTINUOUS
 62
     7
100
AcDbLine
 10
1695.556821622389
 20
622.3421327781036
 30
0.0
 11
1665.556821622387
 21
622.3421327781036
 31
0.0
  0
ARC
  5
32D
330
1F
100
AcDbEntity
  8
LAY-10
  6
CONTINUOUS
 62
     7
100
AcDbCircle
 10
1695.556821622389
 20
622.3421327781036
 30
0.0
 40
8.0
100
AcDbArc
 50
45.00000000000806
 51
90.00000000000162
  0
LINE
  5
32E
330
1F
100
AcDbEntity
  8
LAY-10
  6
CONTINUOUS
 62
     7
100
AcDbLine
 10
1736.569014931208
 20
592.6436479682704
 30
0.0
 11
1701.213675871881
 21
627.9989870275983
 31
0.0
  0
LINE
  5
32F
330
1F
100
AcDbEntity
  8
LAY-10
  6
CONTINUOUS
 62
     7
100
AcDbLine
 10
1730.912160681719
 20
586.9867937187798
 30
0.0
 11
1695.556821622389
 21
622.3421327781036
 31
0.0
  0
LINE
  5
330
330
1F
100
AcDbEntity
  8
LAY-10
  6
CONTINUOUS
 62
     7
100
AcDbLine
 10
1736.569014931208
 20
592.6436479682704
 30
0.0
 11
1730.912160681719
 21
586.9867937187771
 31
0.0
  0
LINE
  5
331
330
1F
100
AcDbEntity
  8
LAY-10
  6
CONTINUOUS
 62
     7
100
AcDbLine
 10
1658.870530121381
 20
630.3421327782037
 30
0.0
 11
1695.556821622389
 21
630.3421327782037
 31
0.0
  0
LINE
  5
332
330
1F
100
AcDbEntity
  8
LAY-10
  6
CONTINUOUS
 62
     7
100
AcDbLine
 10
1692.670530121326
 20
633.5421327782017
 30
0.0
 11
1658.670530121375
 21
633.5421327782017
 31
0.0
  0
LINE
  5
333
330
1F
100
AcDbEntity
  8
LAY-10
  6
CONTINUOUS
 62
     7
100
AcDbLine
 10
1692.670530121376
 20
683.7421327782042
 30
0.0
 11
1692.670530121376
 21
668.7421327782042
 31
0.0
  0
LINE
  5
334
330
1F
100
AcDbEntity
  8
LAY-10
  6
CONTINUOUS
 62
     7
100
AcDbLine
 10
1695.670530121374
 20
680.7421327782041
 30
0.0
 11
1707.670530121377
 21
680.7421327782047
 31
0.0
  0
LINE
  5
335
330
1F
100
AcDbEntity
  8
LAY-10
  6
CONTINUOUS
 62
     7
100
AcDbLine
 10
1692.670530121376
 20
668.7421327782042
 30
0.0
 11
1695.670530121374
 21
668.7421327782042
 31
0.0
  0
LINE
  5
336
330
1F
100
AcDbEntity
  8
LAY-10
  6
CONTINUOUS
 62
     7
100
AcDbLine
 10
1707.670530121377
 20
683.7421327782047
 30
0.0
 11
1707.670530121377
 21
680.7421327782047
 31
0.0
  0
ARC
  5
337
330
1F
100
AcDbEntity
  8
LAY-10
  6
CONTINUOUS
 62
     7
100
AcDbCircle
 10
1682.670530121275
 20
641.5421327782044
 30
0.0
 40
6.000000000000006
100
AcDbArc
 50
270.0
 51
0.0
  0
ARC
  5
338
330
1F
100
AcDbEntity
  8
LAY-10
  6
CONTINUOUS
 62
     7
100
AcDbCircle
 10
1682.470530121277
 20
641.7421327782051
 30
0.0
 40
3.000000000000003
100
AcDbArc
 50
270.0
 51
0.0
  0
LINE
  5
339
330
1F
100
AcDbEntity
  8
LAY-10
  6
CONTINUOUS
 62
     7
100
AcDbLine
 10
1685.470530121275
 20
680.7421327782051
 30
0.0
 11
1685.470530121276
 21
641.7421327782051
 31
0.0
  0
LINE
  5
33A
330
1F
100
AcDbEntity
  8
LAY-10
  6
CONTINUOUS
 62
     7
100
AcDbLine
 10
1688.670530121278
 20
680.7421327782051
 30
0.0
 11
1688.670530121278
 21
641.5421327782044
 31
0.0
  0
LINE
  5
33B
330
1F
100
AcDbEntity
  8
LAY-10
  6
CONTINUOUS
 62
     7
100
AcDbLine
 10
1691.670530121275
 20
668.7421327782059
 30
0.0
 11
1688.670530121276
 21
668.7421327782059
 31
0.0
  0
LINE
  5
33C
330
1F
100
AcDbEntity
  8
LAY-10
  6
CONTINUOUS
 62
     7
100
AcDbLine
 10
1691.670530121275
 20
683.7421327782042
 30
0.0
 11
1691.670530121275
 21
668.7421327782059
 31
0.0
  0
LINE
  5
33D
330
1F
100
AcDbEntity
  8
LAY-10
  6
CONTINUOUS
 62
     7
100
AcDbLine
 10
1688.670530121247
 20
680.7421327782051
 30
0.0
 11
1676.670530121276
 21
680.7421327782051
 31
0.0
  0
LINE
  5
33E
330
1F
100
AcDbEntity
  8
LAY-10
  6
CONTINUOUS
 62
     7
100
AcDbLine
 10
1683.670530121344
 20
633.5421327782044
 30
0.0
 11
1683.670530121344
 21
635.5421327782026
 31
0.0
  0
LINE
  5
33F
330
1F
100
AcDbEntity
  8
LAY-10
  6
CONTINUOUS
 62
     7
100
AcDbLine
 10
1658.670530121341
 20
633.5421327782044
 30
0.0
 11
1658.670530121341
 21
635.5421327782026
 31
0.0
  0
LINE
  5
340
330
1F
100
AcDbEntity
  8
LAY-10
  6
CONTINUOUS
 62
     7
100
AcDbLine
 10
1655.870530121383
 20
627.3421327782064
 30
0.0
 11
1655.870530121383
 21
541.742132778206
 31
0.0
  0
ARC
  5
341
330
1F
100
AcDbEntity
  8
LAY-10
  6
CONTINUOUS
 62
     7
100
AcDbCircle
 10
1652.870530121382
 20
541.742132778206
 30
0.0
 40
3.000000000000003
100
AcDbArc
 50
270.0
 51
0.0
  0
LINE
  5
342
330
1F
100
AcDbEntity
  8
LAY-10
  6
CONTINUOUS
 62
     7
100
AcDbLine
 10
1652.670530121379
 20
627.5421327782062
 30
0.0
 11
1652.670530121379
 21
541.9421327782013
 31
0.0
  0
LINE
  5
343
330
1F
100
AcDbEntity
  8
LAY-10
  6
CONTINUOUS
 62
     7
100
AcDbLine
 10
1606.670530121376
 20
541.9421327782013
 30
0.0
 11
1606.670530121376
 21
538.7421327782051
 31
0.0
  0
LINE
  5
344
330
1F
100
AcDbEntity
  8
LAY-10
  6
CONTINUOUS
 62
     7
100
AcDbLine
 10
1652.670530121379
 20
541.9421327782059
 30
0.0
 11
1606.670530121376
 21
541.9421327782068
 31
0.0
  0
LINE
  5
345
330
1F
100
AcDbEntity
  8
LAY-10
  6
CONTINUOUS
 62
     7
100
AcDbLine
 10
1652.870530121382
 20
538.7421327782051
 30
0.0
 11
1606.670530121376
 21
538.7421327782051
 31
0.0
  0
LINE
  5
346
330
1F
100
AcDbEntity
  8
LAY-10
  6
CONTINUOUS
 62
     7
100
AcDbLine
 10
1623.67053012131
 20
541.9421327781567
 30
0.0
 11
1623.67053012131
 21
543.9421327781577
 31
0.0
  0
LINE
  5
347
330
1F
100
AcDbEntity
  8
LAY-10
  6
CONTINUOUS
 62
     7
100
AcDbLine
 10
1563.370530121305
 20
594.9421327781572
 30
0.0
 11
1563.370530121305
 21
596.9421327781572
 31
0.0
  0
ARC
  5
348
330
1F
100
AcDbEntity
  8
LAY-10
  6
CONTINUOUS
 62
     7
100
AcDbCircle
 10
1560.370530121307
 20
596.9421327781572
 30
0.0
 40
4.0
100
AcDbArc
 50
0.0
 51
131.4394216791311
  0
LINE
  5
349
330
1F
100
AcDbEntity
  8
LAY-10
  6
CONTINUOUS
 62
     7
100
AcDbLine
 10
1516.579662741387
 20
599.9407563155944
 30
0.0
 11
1560.371421122277
 21
599.9407563155944
 31
0.0
  0
LINE
  5
34A
330
1F
100
AcDbEntity
  8
LAY-10
  6
CONTINUOUS
 62
     7
100
AcDbLine
 10
1564.370530121308
 20
594.9421327781572
 30
0.0
 11
1573.370530121309
 21
594.9421327781572
 31
0.0
  0
LINE
  5
34B
330
1F
100
AcDbEntity
  8
LAY-10
  6
CONTINUOUS
 62
     7
100
AcDbLine
 10
1564.370530121308
 20
596.9421327781572
 30
0.0
 11
1564.370530121308
 21
594.9421327781572
 31
0.0
  0
ARC
  5
34C
330
1F
100
AcDbEntity
  8
LAY-10
  6
CONTINUOUS
 62
     7
100
AcDbCircle
 10
1564.370530121308
 20
594.9421327781572
 30
0.0
 40
1.0
100
AcDbArc
 50
180.0
 51
270.0
  0
ARC
  5
34D
330
1F
100
AcDbEntity
  8
LAY-10
  6
CONTINUOUS
 62
     7
100
AcDbCircle
 10
1560.371421122277
 20
596.941241777188
 30
0.0
 40
2.999108999030569
100
AcDbArc
 50
270.0
 51
90.00000000000001
  0
LINE
  5
34E
330
1F
100
AcDbEntity
  8
LAY-10
  6
CONTINUOUS
 62
     7
100
AcDbLine
 10
1573.370530121309
 20
594.9421327781572
 30
0.0
 11
1573.370530121309
 21
593.9421327781581
 31
0.0
  0
LINE
  5
34F
330
1F
100
AcDbEntity
  8
LAY-10
  6
CONTINUOUS
 62
     7
100
AcDbLine
 10
1647.070530121309
 20
545.5421327781562
 30
0.0
 11
1647.070530121309
 21
592.3421327781573
 31
0.0
  0
LINE
  5
350
330
1F
100
AcDbEntity
  8
LAY-10
  6
CONTINUOUS
 62
     7
100
AcDbLine
 10
1648.670530121309
 20
593.9421327781586
 30
0.0
 11
1648.670530121309
 21
541.9421327781567
 31
0.0
  0
CIRCLE
  5
351
330
1F
100
AcDbEntity
  8
LAY-10
  6
CONTINUOUS
 62
     7
100
AcDbCircle
 10
1516.670530121304
 20
596.9421327781572
 30
0.0
 40
3.000000000000003
  0
LINE
  5
352
330
1F
100
AcDbEntity
  8
LAY-10
  6
CONTINUOUS
 62
     7
100
AcDbLine
 10
1644.670530121273
 20
680.742132778203
 30
0.0
 11
1349.670530121268
 21
680.7421327781941
 31
0.0
  0
LINE
  5
353
330
1F
100
AcDbEntity
  8
LAY-10
  6
CONTINUOUS
 62
     7
100
AcDbLine
 10
1349.670530121268
 20
683.7421327781951
 30
0.0
 11
1349.670530121268
 21
638.7421327781951
 31
0.0
  0
LINE
  5
354
330
1F
100
AcDbEntity
  8
LAY-10
  6
CONTINUOUS
 62
     7
100
AcDbLine
 10
1317.670530121268
 20
683.7421327781951
 30
0.0
 11
1317.670530121268
 21
638.7421327781951
 31
0.0
  0
LINE
  5
355
330
1F
100
AcDbEntity
  8
LAY-10
  6
CONTINUOUS
 62
     7
100
AcDbLine
 10
1317.670530121268
 20
680.7421327781933
 30
0.0
 11
1305.670530121267
 21
680.7421327781933
 31
0.0
  0
LINE
  5
356
330
1F
100
AcDbEntity
  8
LAY-10
  6
CONTINUOUS
 62
     7
100
AcDbLine
 10
1305.670530121267
 20
680.7421327781933
 30
0.0
 11
1305.670530121267
 21
641.5421327781935
 31
0.0
  0
LINE
  5
357
330
1F
100
AcDbEntity
  8
LAY-10
  6
CONTINUOUS
 62
     7
100
AcDbLine
 10
1308.870530121268
 20
680.7421327781933
 30
0.0
 11
1308.870530121268
 21
641.7421327781933
 31
0.0
  0
ARC
  5
358
330
1F
100
AcDbEntity
  8
LAY-10
  6
CONTINUOUS
 62
     7
100
AcDbCircle
 10
1311.670530121268
 20
641.5421327781935
 30
0.0
 40
6.000000000000006
100
AcDbArc
 50
180.0
 51
270.0
  0
ARC
  5
359
330
1F
100
AcDbEntity
  8
LAY-10
  6
CONTINUOUS
 62
     7
100
AcDbCircle
 10
1311.870530121267
 20
641.7421327781933
 30
0.0
 40
3.000000000000003
100
AcDbArc
 50
180.0
 51
270.0
  0
LINE
  5
35A
330
1F
100
AcDbEntity
  8
LAY-10
  6
CONTINUOUS
 62
     7
100
AcDbLine
 10
1302.670530121268
 20
683.7421327781951
 30
0.0
 11
1302.670530121268
 21
668.7421327781951
 31
0.0
  0
LINE
  5
35B
330
1F
100
AcDbEntity
  8
LAY-10
  6
CONTINUOUS
 62
     7
100
AcDbLine
 10
1691.670530121271
 20
683.7421327782024
 30
0.0
 11
1302.670530121268
 21
683.7421327781951
 31
0.0
  0
LINE
  5
35C
330
1F
100
AcDbEntity
  8
LAY-10
  6
CONTINUOUS
 62
     7
100
AcDbLine
 10
1302.670530121268
 20
668.7421327781951
 30
0.0
 11
1305.670530121267
 21
668.7421327781951
 31
0.0
  0
LINE
  5
35D
330
1F
100
AcDbEntity
  8
LAY-10
  6
CONTINUOUS
 62
     7
100
AcDbLine
 10
1557.670530121261
 20
646.742132778202
 30
0.0
 11
1557.670530121261
 21
640.742132778201
 31
0.0
  0
ARC
  5
35E
330
1F
100
AcDbEntity
  8
LAY-10
  6
CONTINUOUS
 62
     7
100
AcDbCircle
 10
1557.670530121275
 20
646.742132778202
 30
0.0
 40
2.0
100
AcDbArc
 50
0.0
 51
90.00000000000001
  0
LINE
  5
35F
330
1F
100
AcDbEntity
  8
LAY-10
  6
CONTINUOUS
 62
     7
100
AcDbLine
 10
1552.170530121276
 20
648.742132778201
 30
0.0
 11
1557.670530121275
 21
648.742132778201
 31
0.0
  0
LINE
  5
360
330
1F
100
AcDbEntity
  8
LAY-10
  6
CONTINUOUS
 62
     7
100
AcDbLine
 10
1559.670530121276
 20
646.742132778202
 30
0.0
 11
1559.670530121276
 21
640.742132778201
 31
0.0
  0
LINE
  5
361
330
1F
100
AcDbEntity
  8
LAY-10
  6
CONTINUOUS
 62
     7
100
AcDbLine
 10
1552.170530121276
 20
646.742132778202
 30
0.0
 11
1557.670530121261
 21
646.742132778202
 31
0.0
  0
LINE
  5
362
330
1F
100
AcDbEntity
  8
LAY-10
  6
CONTINUOUS
 62
     7
100
AcDbLine
 10
1552.170530121276
 20
648.742132778201
 30
0.0
 11
1552.170530121276
 21
646.742132778202
 31
0.0
  0
ARC
  5
363
330
1F
100
AcDbEntity
  8
LAY-10
  6
CONTINUOUS
 62
     7
100
AcDbCircle
 10
1586.670530121279
 20
646.7421327782024
 30
0.0
 40
2.0
100
AcDbArc
 50
90.00000000000001
 51
180.0
  0
LINE
  5
364
330
1F
100
AcDbEntity
  8
LAY-10
  6
CONTINUOUS
 62
     7
100
AcDbLine
 10
1592.170530121278
 20
648.7421327782014
 30
0.0
 11
1586.670530121279
 21
648.7421327782014
 31
0.0
  0
LINE
  5
365
330
1F
100
AcDbEntity
  8
LAY-10
  6
CONTINUOUS
 62
     7
100
AcDbLine
 10
1584.670530121278
 20
646.7421327782024
 30
0.0
 11
1584.670530121278
 21
640.7421327782015
 31
0.0
  0
LINE
  5
366
330
1F
100
AcDbEntity
  8
LAY-10
  6
CONTINUOUS
 62
     7
100
AcDbLine
 10
1586.670530121294
 20
646.7421327782024
 30
0.0
 11
1586.670530121294
 21
640.7421327782015
 31
0.0
  0
LINE
  5
367
330
1F
100
AcDbEntity
  8
LAY-10
  6
CONTINUOUS
 62
     7
100
AcDbLine
 10
1592.170530121278
 20
646.7421327782024
 30
0.0
 11
1586.670530121294
 21
646.7421327782024
 31
0.0
  0
LINE
  5
368
330
1F
100
AcDbEntity
  8
LAY-10
  6
CONTINUOUS
 62
     7
100
AcDbLine
 10
1592.170530121278
 20
648.7421327782014
 30
0.0
 11
1592.170530121278
 21
646.7421327782024
 31
0.0
  0
LINE
  5
369
330
1F
100
AcDbEntity
  8
LAY-10
  6
CONTINUOUS
 62
     7
100
AcDbLine
 10
1584.670530121278
 20
640.7421327782015
 30
0.0
 11
1559.67053012128
 21
640.742132778201
 31
0.0
  0
ARC
  5
36A
330
1F
100
AcDbEntity
  8
LAY-10
  6
CONTINUOUS
 62
     7
100
AcDbCircle
 10
1559.67053012126
 20
640.742132778201
 30
0.0
 40
2.0
100
AcDbArc
 50
180.0
 51
270.0
  0
ARC
  5
36B
330
1F
100
AcDbEntity
  8
LAY-10
  6
CONTINUOUS
 62
     7
100
AcDbCircle
 10
1584.670530121294
 20
640.7421327782015
 30
0.0
 40
2.0
100
AcDbArc
 50
270.0
 51
0.0
  0
LINE
  5
36C
330
1F
100
AcDbEntity
  8
LAY-10
  6
CONTINUOUS
 62
     7
100
AcDbLine
 10
1570.670530121267
 20
635.5421327782021
 30
0.0
 11
1570.670530121267
 21
616.5421327782522
 31
0.0
  0
LINE
  5
36D
330
1F
100
AcDbEntity
  8
LAY-10
  6
CONTINUOUS
 62
     7
100
AcDbLine
 10
1573.670530121267
 20
635.5421327782026
 30
0.0
 11
1573.670530121267
 21
616.5421327782526
 31
0.0
  0
LINE
  5
36E
330
1F
100
AcDbEntity
  8
LAY-10
  6
CONTINUOUS
 62
     7
100
AcDbLine
 10
1658.670530121375
 20
633.5421327782017
 30
0.0
 11
1573.670530121267
 21
633.5421327782017
 31
0.0
  0
LINE
  5
36F
330
1F
100
AcDbEntity
  8
LAY-10
  6
CONTINUOUS
 62
     7
100
AcDbLine
 10
1420.670530121287
 20
635.5421327781908
 30
0.0
 11
1420.670530121287
 21
616.5421327782408
 31
0.0
  0
LINE
  5
370
330
1F
100
AcDbEntity
  8
LAY-10
  6
CONTINUOUS
 62
     7
100
AcDbLine
 10
1423.670530121287
 20
635.5421327781908
 30
0.0
 11
1423.670530121287
 21
616.5421327782408
 31
0.0
  0
ARC
  5
371
330
1F
100
AcDbEntity
  8
LAY-10
  6
CONTINUOUS
 62
     7
100
AcDbCircle
 10
1409.670530121259
 20
640.7421327781905
 30
0.0
 40
2.0
100
AcDbArc
 50
180.0
 51
270.0
  0
ARC
  5
372
330
1F
100
AcDbEntity
  8
LAY-10
  6
CONTINUOUS
 62
     7
100
AcDbCircle
 10
1434.670530121294
 20
640.7421327781905
 30
0.0
 40
2.0
100
AcDbArc
 50
270.0
 51
0.0
  0
LINE
  5
373
330
1F
100
AcDbEntity
  8
LAY-10
  6
CONTINUOUS
 62
     7
100
AcDbLine
 10
1409.670530121276
 20
640.7421327781905
 30
0.0
 11
1434.670530121276
 21
640.7421327781905
 31
0.0
  0
LINE
  5
374
330
1F
100
AcDbEntity
  8
LAY-10
  6
CONTINUOUS
 62
     7
100
AcDbLine
 10
1402.170530121276
 20
648.7421327781906
 30
0.0
 11
1402.170530121276
 21
646.7421327781906
 31
0.0
  0
LINE
  5
375
330
1F
100
AcDbEntity
  8
LAY-10
  6
CONTINUOUS
 62
     7
100
AcDbLine
 10
1402.170530121276
 20
646.7421327781906
 30
0.0
 11
1407.670530121259
 21
646.7421327781906
 31
0.0
  0
LINE
  5
376
330
1F
100
AcDbEntity
  8
LAY-10
  6
CONTINUOUS
 62
     7
100
AcDbLine
 10
1407.670530121259
 20
646.7421327781906
 30
0.0
 11
1407.670530121259
 21
640.7421327781905
 31
0.0
  0
LINE
  5
377
330
1F
100
AcDbEntity
  8
LAY-10
  6
CONTINUOUS
 62
     7
100
AcDbLine
 10
1409.670530121276
 20
646.7421327781906
 30
0.0
 11
1409.670530121276
 21
640.7421327781905
 31
0.0
  0
LINE
  5
378
330
1F
100
AcDbEntity
  8
LAY-10
  6
CONTINUOUS
 62
     7
100
AcDbLine
 10
1402.170530121276
 20
648.7421327781906
 30
0.0
 11
1407.670530121276
 21
648.7421327781906
 31
0.0
  0
ARC
  5
379
330
1F
100
AcDbEntity
  8
LAY-10
  6
CONTINUOUS
 62
     7
100
AcDbCircle
 10
1407.670530121276
 20
646.7421327781906
 30
0.0
 40
2.0
100
AcDbArc
 50
0.0
 51
90.00000000000001
  0
LINE
  5
37A
330
1F
100
AcDbEntity
  8
LAY-10
  6
CONTINUOUS
 62
     7
100
AcDbLine
 10
1442.170530121278
 20
648.7421327781906
 30
0.0
 11
1442.170530121278
 21
646.7421327781906
 31
0.0
  0
LINE
  5
37B
330
1F
100
AcDbEntity
  8
LAY-10
  6
CONTINUOUS
 62
     7
100
AcDbLine
 10
1442.170530121278
 20
646.7421327781906
 30
0.0
 11
1436.670530121294
 21
646.7421327781906
 31
0.0
  0
LINE
  5
37C
330
1F
100
AcDbEntity
  8
LAY-10
  6
CONTINUOUS
 62
     7
100
AcDbLine
 10
1436.670530121294
 20
646.7421327781906
 30
0.0
 11
1436.670530121294
 21
640.7421327781905
 31
0.0
  0
LINE
  5
37D
330
1F
100
AcDbEntity
  8
LAY-10
  6
CONTINUOUS
 62
     7
100
AcDbLine
 10
1434.670530121278
 20
646.7421327781906
 30
0.0
 11
1434.670530121278
 21
640.7421327781905
 31
0.0
  0
LINE
  5
37E
330
1F
100
AcDbEntity
  8
LAY-10
  6
CONTINUOUS
 62
     7
100
AcDbLine
 10
1442.170530121278
 20
648.7421327781906
 30
0.0
 11
1436.670530121281
 21
648.7421327781906
 31
0.0
  0
ARC
  5
37F
330
1F
100
AcDbEntity
  8
LAY-10
  6
CONTINUOUS
 62
     7
100
AcDbCircle
 10
1436.670530121281
 20
646.7421327781906
 30
0.0
 40
2.0
100
AcDbArc
 50
90.00000000000001
 51
180.0
  0
LINE
  5
380
330
1F
100
AcDbEntity
  8
LAY-10
  6
CONTINUOUS
 62
     7
100
AcDbLine
 10
1682.470530121275
 20
638.7421327782051
 30
0.0
 11
1311.870530121267
 21
638.7421327781951
 31
0.0
  0
LINE
  5
381
330
1F
100
AcDbEntity
  8
LAY-10
  6
CONTINUOUS
 62
     7
100
AcDbLine
 10
1420.670530121287
 20
616.5421327781926
 30
0.0
 11
1573.670530121266
 21
616.5421327782026
 31
0.0
  0
LINE
  5
382
330
1F
100
AcDbEntity
  8
LAY-10
  6
CONTINUOUS
 62
     7
100
AcDbLine
 10
959.1705301213481
 20
683.7421327782001
 30
0.0
 11
959.1705301213481
 21
638.7421327782101
 31
0.0
  0
LINE
  5
383
330
1F
100
AcDbEntity
  8
LAY-10
  6
CONTINUOUS
 62
     7
100
AcDbLine
 10
927.1705301213481
 20
683.7421327782042
 30
0.0
 11
927.1705301213481
 21
638.7421327782052
 31
0.0
  0
ARC
  5
384
330
1F
100
AcDbEntity
  8
LAY-10
  6
CONTINUOUS
 62
     7
100
AcDbCircle
 10
921.1705301213483
 20
641.5421327782045
 30
0.0
 40
6.000000000000006
100
AcDbArc
 50
180.0
 51
270.0
  0
ARC
  5
385
330
1F
100
AcDbEntity
  8
LAY-10
  6
CONTINUOUS
 62
     7
100
AcDbCircle
 10
921.3705301213463
 20
641.7421327782052
 30
0.0
 40
3.000000000000003
100
AcDbArc
 50
180.0
 51
270.0
  0
LINE
  5
386
330
1F
100
AcDbEntity
  8
LAY-10
  6
CONTINUOUS
 62
     7
100
AcDbLine
 10
918.3705301213479
 20
680.7421327782052
 30
0.0
 11
918.3705301213477
 21
641.7421327782052
 31
0.0
  0
LINE
  5
387
330
1F
100
AcDbEntity
  8
LAY-10
  6
CONTINUOUS
 62
     7
100
AcDbLine
 10
915.1705301213453
 20
680.7421327782052
 30
0.0
 11
915.1705301213451
 21
641.5421327782045
 31
0.0
  0
LINE
  5
388
330
1F
100
AcDbEntity
  8
LAY-10
  6
CONTINUOUS
 62
     7
100
AcDbLine
 10
912.1705301213485
 20
668.7421327782062
 30
0.0
 11
915.1705301213476
 21
668.7421327782062
 31
0.0
  0
LINE
  5
389
330
1F
100
AcDbEntity
  8
LAY-10
  6
CONTINUOUS
 62
     7
100
AcDbLine
 10
912.1705301213485
 20
683.7421327782042
 30
0.0
 11
912.1705301213485
 21
668.7421327782062
 31
0.0
  0
LINE
  5
38A
330
1F
100
AcDbEntity
  8
LAY-10
  6
CONTINUOUS
 62
     7
100
AcDbLine
 10
915.1705301213764
 20
680.7421327782052
 30
0.0
 11
927.1705301213481
 21
680.7421327782052
 31
0.0
  0
LINE
  5
38B
330
1F
100
AcDbEntity
  8
LAY-10
  6
CONTINUOUS
 62
     7
100
AcDbLine
 10
959.17053012135
 20
680.742132778203
 30
0.0
 11
1254.170530121355
 21
680.7421327781942
 31
0.0
  0
LINE
  5
38C
330
1F
100
AcDbEntity
  8
LAY-10
  6
CONTINUOUS
 62
     7
100
AcDbLine
 10
1254.170530121355
 20
683.7421327781951
 30
0.0
 11
1254.170530121355
 21
638.7421327781952
 31
0.0
  0
LINE
  5
38D
330
1F
100
AcDbEntity
  8
LAY-10
  6
CONTINUOUS
 62
     7
100
AcDbLine
 10
1286.170530121355
 20
683.7421327781951
 30
0.0
 11
1286.170530121355
 21
638.7421327781952
 31
0.0
  0
LINE
  5
38E
330
1F
100
AcDbEntity
  8
LAY-10
  6
CONTINUOUS
 62
     7
100
AcDbLine
 10
1286.170530121355
 20
680.7421327781933
 30
0.0
 11
1298.170530121357
 21
680.7421327781933
 31
0.0
  0
LINE
  5
38F
330
1F
100
AcDbEntity
  8
LAY-10
  6
CONTINUOUS
 62
     7
100
AcDbLine
 10
1298.170530121357
 20
680.7421327781933
 30
0.0
 11
1298.170530121357
 21
641.5421327781936
 31
0.0
  0
LINE
  5
390
330
1F
100
AcDbEntity
  8
LAY-10
  6
CONTINUOUS
 62
     7
100
AcDbLine
 10
1294.970530121355
 20
680.7421327781933
 30
0.0
 11
1294.970530121355
 21
641.7421327781934
 31
0.0
  0
ARC
  5
391
330
1F
100
AcDbEntity
  8
LAY-10
  6
CONTINUOUS
 62
     7
100
AcDbCircle
 10
1292.170530121355
 20
641.5421327781936
 30
0.0
 40
6.000000000000006
100
AcDbArc
 50
270.0000000000002
 51
0.0
  0
ARC
  5
392
330
1F
100
AcDbEntity
  8
LAY-10
  6
CONTINUOUS
 62
     7
100
AcDbCircle
 10
1291.970530121356
 20
641.7421327781934
 30
0.0
 40
3.000000000000003
100
AcDbArc
 50
270.0000000000002
 51
0.0
  0
LINE
  5
393
330
1F
100
AcDbEntity
  8
LAY-10
  6
CONTINUOUS
 62
     7
100
AcDbLine
 10
1301.170530121355
 20
683.7421327781951
 30
0.0
 11
1301.170530121355
 21
668.7421327781951
 31
0.0
  0
LINE
  5
394
330
1F
100
AcDbEntity
  8
LAY-10
  6
CONTINUOUS
 62
     7
100
AcDbLine
 10
912.170530121353
 20
683.7421327782025
 30
0.0
 11
1301.170530121355
 21
683.7421327781951
 31
0.0
  0
LINE
  5
395
330
1F
100
AcDbEntity
  8
LAY-10
  6
CONTINUOUS
 62
     7
100
AcDbLine
 10
1301.170530121355
 20
668.7421327781951
 30
0.0
 11
1298.170530121357
 21
668.7421327781951
 31
0.0
  0
LINE
  5
396
330
1F
100
AcDbEntity
  8
LAY-10
  6
CONTINUOUS
 62
     7
100
AcDbLine
 10
1046.170530121363
 20
646.7421327782021
 30
0.0
 11
1046.170530121363
 21
640.7421327782012
 31
0.0
  0
ARC
  5
397
330
1F
100
AcDbEntity
  8
LAY-10
  6
CONTINUOUS
 62
     7
100
AcDbCircle
 10
1046.170530121349
 20
646.7421327782021
 30
0.0
 40
2.0
100
AcDbArc
 50
90.00000000000001
 51
180.0
  0
LINE
  5
398
330
1F
100
AcDbEntity
  8
LAY-10
  6
CONTINUOUS
 62
     7
100
AcDbLine
 10
1051.670530121347
 20
648.7421327782012
 30
0.0
 11
1046.170530121349
 21
648.7421327782012
 31
0.0
  0
LINE
  5
399
330
1F
100
AcDbEntity
  8
LAY-10
  6
CONTINUOUS
 62
     7
100
AcDbLine
 10
1044.170530121347
 20
646.7421327782021
 30
0.0
 11
1044.170530121347
 21
640.7421327782012
 31
0.0
  0
LINE
  5
39A
330
1F
100
AcDbEntity
  8
LAY-10
  6
CONTINUOUS
 62
     7
100
AcDbLine
 10
1051.670530121347
 20
646.7421327782021
 30
0.0
 11
1046.170530121363
 21
646.7421327782021
 31
0.0
  0
LINE
  5
39B
330
1F
100
AcDbEntity
  8
LAY-10
  6
CONTINUOUS
 62
     7
100
AcDbLine
 10
1051.670530121347
 20
648.7421327782012
 30
0.0
 11
1051.670530121347
 21
646.7421327782021
 31
0.0
  0
ARC
  5
39C
330
1F
100
AcDbEntity
  8
LAY-10
  6
CONTINUOUS
 62
     7
100
AcDbCircle
 10
1017.170530121344
 20
646.7421327782025
 30
0.0
 40
2.0
100
AcDbArc
 50
0.0
 51
90.00000000000001
  0
LINE
  5
39D
330
1F
100
AcDbEntity
  8
LAY-10
  6
CONTINUOUS
 62
     7
100
AcDbLine
 10
1011.670530121345
 20
648.7421327782016
 30
0.0
 11
1017.170530121344
 21
648.7421327782016
 31
0.0
  0
LINE
  5
39E
330
1F
100
AcDbEntity
  8
LAY-10
  6
CONTINUOUS
 62
     7
100
AcDbLine
 10
1019.170530121345
 20
646.7421327782025
 30
0.0
 11
1019.170530121345
 21
640.7421327782016
 31
0.0
  0
LINE
  5
39F
330
1F
100
AcDbEntity
  8
LAY-10
  6
CONTINUOUS
 62
     7
100
AcDbLine
 10
1017.170530121329
 20
646.7421327782025
 30
0.0
 11
1017.170530121329
 21
640.7421327782016
 31
0.0
  0
LINE
  5
3A0
330
1F
100
AcDbEntity
  8
LAY-10
  6
CONTINUOUS
 62
     7
100
AcDbLine
 10
1011.670530121345
 20
646.7421327782025
 30
0.0
 11
1017.170530121329
 21
646.7421327782025
 31
0.0
  0
LINE
  5
3A1
330
1F
100
AcDbEntity
  8
LAY-10
  6
CONTINUOUS
 62
     7
100
AcDbLine
 10
1011.670530121345
 20
648.7421327782016
 30
0.0
 11
1011.670530121345
 21
646.7421327782025
 31
0.0
  0
LINE
  5
3A2
330
1F
100
AcDbEntity
  8
LAY-10
  6
CONTINUOUS
 62
     7
100
AcDbLine
 10
1019.170530121345
 20
640.7421327782016
 30
0.0
 11
1044.170530121343
 21
640.7421327782012
 31
0.0
  0
ARC
  5
3A3
330
1F
100
AcDbEntity
  8
LAY-10
  6
CONTINUOUS
 62
     7
100
AcDbCircle
 10
1044.170530121363
 20
640.7421327782012
 30
0.0
 40
2.0
100
AcDbArc
 50
270.0
 51
0.0
  0
ARC
  5
3A4
330
1F
100
AcDbEntity
  8
LAY-10
  6
CONTINUOUS
 62
     7
100
AcDbCircle
 10
1019.170530121329
 20
640.7421327782016
 30
0.0
 40
2.0
100
AcDbArc
 50
180.0
 51
270.0
  0
LINE
  5
3A5
330
1F
100
AcDbEntity
  8
LAY-10
  6
CONTINUOUS
 62
     7
100
AcDbLine
 10
1033.170530121357
 20
635.5421327782022
 30
0.0
 11
1033.170530121357
 21
616.5421327782523
 31
0.0
  0
LINE
  5
3A6
330
1F
100
AcDbEntity
  8
LAY-10
  6
CONTINUOUS
 62
     7
100
AcDbLine
 10
1030.170530121356
 20
635.5421327782027
 30
0.0
 11
1030.170530121356
 21
616.5421327782527
 31
0.0
  0
LINE
  5
3A7
330
1F
100
AcDbEntity
  8
LAY-10
  6
CONTINUOUS
 62
     7
100
AcDbLine
 10
1183.170530121336
 20
635.5421327781909
 30
0.0
 11
1183.170530121336
 21
616.5421327782409
 31
0.0
  0
LINE
  5
3A8
330
1F
100
AcDbEntity
  8
LAY-10
  6
CONTINUOUS
 62
     7
100
AcDbLine
 10
1180.170530121336
 20
635.5421327781909
 30
0.0
 11
1180.170530121336
 21
616.5421327782409
 31
0.0
  0
ARC
  5
3A9
330
1F
100
AcDbEntity
  8
LAY-10
  6
CONTINUOUS
 62
     7
100
AcDbCircle
 10
1194.170530121364
 20
640.7421327781907
 30
0.0
 40
2.0
100
AcDbArc
 50
270.0000000000002
 51
0.0
  0
ARC
  5
3AA
330
1F
100
AcDbEntity
  8
LAY-10
  6
CONTINUOUS
 62
     7
100
AcDbCircle
 10
1169.170530121329
 20
640.7421327781907
 30
0.0
 40
2.0
100
AcDbArc
 50
180.0
 51
270.0000000000002
  0
LINE
  5
3AB
330
1F
100
AcDbEntity
  8
LAY-10
  6
CONTINUOUS
 62
     7
100
AcDbLine
 10
1194.170530121347
 20
640.7421327781907
 30
0.0
 11
1169.170530121347
 21
640.7421327781907
 31
0.0
  0
LINE
  5
3AC
330
1F
100
AcDbEntity
  8
LAY-10
  6
CONTINUOUS
 62
     7
100
AcDbLine
 10
1201.670530121348
 20
648.7421327781906
 30
0.0
 11
1201.670530121348
 21
646.7421327781907
 31
0.0
  0
LINE
  5
3AD
330
1F
100
AcDbEntity
  8
LAY-10
  6
CONTINUOUS
 62
     7
100
AcDbLine
 10
1201.670530121348
 20
646.7421327781907
 30
0.0
 11
1196.170530121364
 21
646.7421327781907
 31
0.0
  0
LINE
  5
3AE
330
1F
100
AcDbEntity
  8
LAY-10
  6
CONTINUOUS
 62
     7
100
AcDbLine
 10
1196.170530121364
 20
646.7421327781907
 30
0.0
 11
1196.170530121364
 21
640.7421327781907
 31
0.0
  0
LINE
  5
3AF
330
1F
100
AcDbEntity
  8
LAY-10
  6
CONTINUOUS
 62
     7
100
AcDbLine
 10
1194.170530121347
 20
646.7421327781907
 30
0.0
 11
1194.170530121347
 21
640.7421327781907
 31
0.0
  0
LINE
  5
3B0
330
1F
100
AcDbEntity
  8
LAY-10
  6
CONTINUOUS
 62
     7
100
AcDbLine
 10
1201.670530121348
 20
648.7421327781906
 30
0.0
 11
1196.170530121348
 21
648.7421327781906
 31
0.0
  0
ARC
  5
3B1
330
1F
100
AcDbEntity
  8
LAY-10
  6
CONTINUOUS
 62
     7
100
AcDbCircle
 10
1196.170530121348
 20
646.7421327781907
 30
0.0
 40
2.0
100
AcDbArc
 50
90.00000000000001
 51
180.0
  0
LINE
  5
3B2
330
1F
100
AcDbEntity
  8
LAY-10
  6
CONTINUOUS
 62
     7
100
AcDbLine
 10
1161.670530121346
 20
648.7421327781906
 30
0.0
 11
1161.670530121346
 21
646.7421327781907
 31
0.0
  0
LINE
  5
3B3
330
1F
100
AcDbEntity
  8
LAY-10
  6
CONTINUOUS
 62
     7
100
AcDbLine
 10
1161.670530121346
 20
646.7421327781907
 30
0.0
 11
1167.170530121329
 21
646.7421327781907
 31
0.0
  0
LINE
  5
3B4
330
1F
100
AcDbEntity
  8
LAY-10
  6
CONTINUOUS
 62
     7
100
AcDbLine
 10
1167.170530121329
 20
646.7421327781907
 30
0.0
 11
1167.170530121329
 21
640.7421327781907
 31
0.0
  0
LINE
  5
3B5
330
1F
100
AcDbEntity
  8
LAY-10
  6
CONTINUOUS
 62
     7
100
AcDbLine
 10
1169.170530121346
 20
646.7421327781907
 30
0.0
 11
1169.170530121346
 21
640.7421327781907
 31
0.0
  0
LINE
  5
3B6
330
1F
100
AcDbEntity
  8
LAY-10
  6
CONTINUOUS
 62
     7
100
AcDbLine
 10
1161.670530121346
 20
648.7421327781906
 30
0.0
 11
1167.170530121342
 21
648.7421327781906
 31
0.0
  0
ARC
  5
3B7
330
1F
100
AcDbEntity
  8
LAY-10
  6
CONTINUOUS
 62
     7
100
AcDbCircle
 10
1167.170530121342
 20
646.7421327781907
 30
0.0
 40
2.0
100
AcDbArc
 50
0.0
 51
90.00000000000001
  0
LINE
  5
3B8
330
1F
100
AcDbEntity
  8
LAY-10
  6
CONTINUOUS
 62
     7
100
AcDbLine
 10
921.370530121348
 20
638.7421327782052
 30
0.0
 11
1291.970530121356
 21
638.7421327781952
 31
0.0
  0
LINE
  5
3B9
330
1F
100
AcDbEntity
  8
LAY-10
  6
CONTINUOUS
 62
     7
100
AcDbLine
 10
1183.170530121336
 20
616.5421327781927
 30
0.0
 11
1030.170530121357
 21
616.5421327782027
 31
0.0
  0
LINE
  5
3BA
330
1F
100
AcDbEntity
  8
LAY-10
  6
CONTINUOUS
 62
     7
100
AcDbLine
 10
529.6705301213497
 20
635.5421327782001
 30
0.0
 11
1683.6705301213
 21
635.5421327782003
 31
0.0
  0
LINE
  5
3BB
330
1F
100
AcDbEntity
  8
LAY-10
  6
CONTINUOUS
 62
     7
100
AcDbLine
 10
1183.170530121336
 20
633.5421327781984
 30
0.0
 11
1420.6705301213
 21
633.5421327782035
 31
0.0
  0
LINE
  5
3BC
330
1F
100
AcDbEntity
  8
LAY-10
  6
CONTINUOUS
 62
     7
100
AcDbLine
 10
792.6705301214067
 20
633.54213277819
 30
0.0
 11
1030.170530121356
 21
633.5421327781951
 31
0.0
  0
LINE
  5
3BD
330
1F
100
AcDbEntity
  8
LAY-10
  6
CONTINUOUS
 62
     7
100
AcDbLine
 10
2221.984166407827
 20
1078.061613911018
 30
0.0
 11
2227.641020657319
 21
1083.718468160512
 31
0.0
  0
LINE
  5
3BE
330
1F
100
AcDbEntity
  8
LAY-10
  6
CONTINUOUS
 62
     7
100
AcDbLine
 10
2221.984166407827
 20
1078.061613911018
 30
0.0
 11
2186.628827348496
 21
1113.416952970344
 31
0.0
  0
LINE
  5
3BF
330
1F
100
AcDbEntity
  8
LAY-10
  6
CONTINUOUS
 62
     7
100
AcDbLine
 10
2227.641020657315
 20
1083.718468160512
 30
0.0
 11
2192.285681597989
 21
1119.073807219838
 31
0.0
  0
LINE
  5
3C0
330
1F
100
AcDbEntity
  8
LAY-10
  6
CONTINUOUS
 62
     7
100
AcDbLine
 10
2165.885681597992
 20
1129.160098720918
 30
0.0
 11
2165.885681597992
 21
2286.760098720914
 31
0.0
  0
LINE
  5
3C1
330
1F
100
AcDbEntity
  8
LAY-10
  6
CONTINUOUS
 62
     7
100
AcDbLine
 10
2167.885681597992
 20
2286.760098720914
 30
0.0
 11
2167.885681597992
 21
1129.160098720918
 31
0.0
  0
LINE
  5
3C2
330
1F
100
AcDbEntity
  8
LAY-10
  6
CONTINUOUS
 62
     7
100
AcDbLine
 10
2133.88568159799
 20
2245.960098721017
 30
0.0
 11
2133.88568159799
 21
1169.960098720819
 31
0.0
  0
LINE
  5
3C3
330
1F
100
AcDbEntity
  8
LAY-10
  6
CONTINUOUS
 62
     7
100
AcDbLine
 10
2175.885681597952
 20
1132.160098720914
 30
0.0
 11
2175.885681597952
 21
2283.760098720916
 31
0.0
  0
LINE
  5
3C4
330
1F
100
AcDbEntity
  8
LAY-10
  6
CONTINUOUS
 62
     7
100
AcDbLine
 10
2179.085681597989
 20
2284.960098720799
 30
0.0
 11
2179.085681597989
 21
1130.960098720899
 31
0.0
  0
LINE
  5
3C5
330
1F
100
AcDbEntity
  8
LAY-10
  6
CONTINUOUS
 62
     7
100
AcDbLine
 10
2175.885681598
 20
1132.960098720903
 30
0.0
 11
2172.085681597996
 21
1129.160098720901
 31
0.0
  0
LINE
  5
3C6
330
1F
100
AcDbEntity
  8
LAY-10
  6
CONTINUOUS
 62
     7
100
AcDbLine
 10
2130.885681597992
 20
1137.960098720919
 30
0.0
 11
2165.885681597992
 21
1137.960098720919
 31
0.0
  0
LINE
  5
3C7
330
1F
100
AcDbEntity
  8
LAY-10
  6
CONTINUOUS
 62
     7
100
AcDbLine
 10
2145.885681597992
 20
1122.960098720919
 30
0.0
 11
2145.885681597992
 21
1125.960098720918
 31
0.0
  0
LINE
  5
3C8
330
1F
100
AcDbEntity
  8
LAY-10
  6
CONTINUOUS
 62
     7
100
AcDbLine
 10
2130.885681597992
 20
1122.960098720919
 30
0.0
 11
2145.885681597992
 21
1122.960098720919
 31
0.0
  0
LINE
  5
3C9
330
1F
100
AcDbEntity
  8
LAY-10
  6
CONTINUOUS
 62
     7
100
AcDbLine
 10
2130.885681597992
 20
1169.960098720819
 30
0.0
 11
2165.885681597992
 21
1169.960098720819
 31
0.0
  0
LINE
  5
3CA
330
1F
100
AcDbEntity
  8
LAY-10
  6
CONTINUOUS
 62
     7
100
AcDbLine
 10
2133.88568159799
 20
1129.160098720918
 30
0.0
 11
2172.885681597989
 21
1129.160098720918
 31
0.0
  0
ARC
  5
3CB
330
1F
100
AcDbEntity
  8
LAY-10
  6
CONTINUOUS
 62
     7
100
AcDbCircle
 10
2173.085681597989
 20
1131.960098720919
 30
0.0
 40
6.000000000000006
100
AcDbArc
 50
270.0000000000002
 51
0.0000000000000573
  0
LINE
  5
3CC
330
1F
100
AcDbEntity
  8
LAY-10
  6
CONTINUOUS
 62
     7
100
AcDbLine
 10
2133.88568159799
 20
1125.960098720918
 30
0.0
 11
2133.88568159799
 21
1137.960098720919
 31
0.0
  0
LINE
  5
3CD
330
1F
100
AcDbEntity
  8
LAY-10
  6
CONTINUOUS
 62
     7
100
AcDbLine
 10
2133.88568159799
 20
1125.960098720918
 30
0.0
 11
2173.085681597989
 21
1125.960098720918
 31
0.0
  0
ARC
  5
3CE
330
1F
100
AcDbEntity
  8
LAY-10
  6
CONTINUOUS
 62
     7
100
AcDbCircle
 10
2172.885681597989
 20
1132.160098720919
 30
0.0
 40
3.000000000000003
100
AcDbArc
 50
270.0000000000002
 51
0.0000000000000573
  0
LINE
  5
3CF
330
1F
100
AcDbEntity
  8
LAY-10
  6
CONTINUOUS
 62
     7
100
AcDbLine
 10
2145.885681597948
 20
1121.960098720853
 30
0.0
 11
2145.885681597948
 21
1118.960098720854
 31
0.0
  0
LINE
  5
3D0
330
1F
100
AcDbEntity
  8
LAY-10
  6
CONTINUOUS
 62
     7
100
AcDbLine
 10
2130.885681597948
 20
1121.960098720853
 30
0.0
 11
2145.885681597948
 21
1121.960098720853
 31
0.0
  0
LINE
  5
3D1
330
1F
100
AcDbEntity
  8
LAY-10
  6
CONTINUOUS
 62
     7
100
AcDbLine
 10
2133.885681597948
 20
1118.960098720854
 30
0.0
 11
2133.885681597948
 21
1106.960098720853
 31
0.0
  0
LINE
  5
3D2
330
1F
100
AcDbEntity
  8
LAY-10
  6
CONTINUOUS
 62
     7
100
AcDbLine
 10
2133.885681597948
 20
1115.760098720853
 30
0.0
 11
2178.285681597949
 21
1115.760098720853
 31
0.0
  0
LINE
  5
3D3
330
1F
100
AcDbEntity
  8
LAY-10
  6
CONTINUOUS
 62
     7
100
AcDbLine
 10
2130.885681597948
 20
1121.960098720853
 30
0.0
 11
2130.885681597948
 21
1106.960098720853
 31
0.0
  0
LINE
  5
3D4
330
1F
100
AcDbEntity
  8
LAY-10
  6
CONTINUOUS
 62
     7
100
AcDbLine
 10
2130.885681597948
 20
1106.960098720853
 30
0.0
 11
2133.885681597948
 21
1106.960098720853
 31
0.0
  0
LINE
  5
3D5
330
1F
100
AcDbEntity
  8
LAY-10
  6
CONTINUOUS
 62
     7
100
AcDbLine
 10
2181.085681597989
 20
1130.960098720918
 30
0.0
 11
2179.085681597989
 21
1130.960098720918
 31
0.0
  0
LINE
  5
3D6
330
1F
100
AcDbEntity
  8
LAY-10
  6
CONTINUOUS
 62
     7
100
AcDbLine
 10
2181.08568159795
 20
1155.960098720888
 30
0.0
 11
2179.085681597945
 21
1155.960098720888
 31
0.0
  0
LINE
  5
3D7
330
1F
100
AcDbEntity
  8
LAY-10
  6
CONTINUOUS
 62
     7
100
AcDbLine
 10
2133.885681597988
 20
1118.960098720854
 30
0.0
 11
2178.085681597989
 21
1118.960098720854
 31
0.0
  0
ARC
  5
3D8
330
1F
100
AcDbEntity
  8
LAY-10
  6
CONTINUOUS
 62
     7
100
AcDbCircle
 10
2187.285681597989
 20
1155.760098720853
 30
0.0
 40
3.000000000000003
100
AcDbArc
 50
90.00000000000009
 51
180.0000000000002
  0
ARC
  5
3D9
330
1F
100
AcDbEntity
  8
LAY-10
  6
CONTINUOUS
 62
     7
100
AcDbCircle
 10
2187.08568159799
 20
1155.960098720854
 30
0.0
 40
6.000000000000006
100
AcDbArc
 50
90.00000000000009
 51
180.0000000000002
  0
LINE
  5
3DA
330
1F
100
AcDbEntity
  8
LAY-10
  6
CONTINUOUS
 62
     7
100
AcDbLine
 10
2192.285681597989
 20
1119.073807219838
 30
0.0
 11
2192.285681597989
 21
1149.073807219838
 31
0.0
  0
LINE
  5
3DB
330
1F
100
AcDbEntity
  8
LAY-10
  6
CONTINUOUS
 62
     7
100
AcDbLine
 10
2192.285681597989
 20
1149.073807219838
 30
0.0
 11
2184.285681597989
 21
1149.073807219838
 31
0.0
  0
ARC
  5
3DC
330
1F
100
AcDbEntity
  8
LAY-10
  6
CONTINUOUS
 62
     7
100
AcDbCircle
 10
2192.285681597989
 20
1119.073807219838
 30
0.0
 40
8.0
100
AcDbArc
 50
180.0000000000002
 51
224.9999999999785
  0
LINE
  5
3DD
330
1F
100
AcDbEntity
  8
LAY-10
  6
CONTINUOUS
 62
     7
100
AcDbLine
 10
2184.285681597989
 20
1121.760098720855
 30
0.0
 11
2184.285681597989
 21
1119.073807219838
 31
0.0
  0
ARC
  5
3DE
330
1F
100
AcDbEntity
  8
LAY-10
  6
CONTINUOUS
 62
     7
100
AcDbCircle
 10
2178.285681597989
 20
1121.760098720855
 30
0.0
 40
6.000000000000006
100
AcDbArc
 50
270.0000000000002
 51
0.0000000000000573
  0
ARC
  5
3DF
330
1F
100
AcDbEntity
  8
LAY-10
  6
CONTINUOUS
 62
     7
100
AcDbCircle
 10
2178.085681597989
 20
1121.960098720853
 30
0.0
 40
3.000000000000003
100
AcDbArc
 50
270.0000000000002
 51
0.0000000000000573
  0
LINE
  5
3E0
330
1F
100
AcDbEntity
  8
LAY-10
  6
CONTINUOUS
 62
     7
100
AcDbLine
 10
2184.285681597989
 20
1121.760098720855
 30
0.0
 11
2184.285681597989
 21
1155.760098720853
 31
0.0
  0
LINE
  5
3E1
330
1F
100
AcDbEntity
  8
LAY-10
  6
CONTINUOUS
 62
     7
100
AcDbLine
 10
2175.885681597998
 20
2282.960098720902
 30
0.0
 11
2172.085681597996
 21
2286.760098720902
 31
0.0
  0
LINE
  5
3E2
330
1F
100
AcDbEntity
  8
LAY-10
  6
CONTINUOUS
 62
     7
100
AcDbLine
 10
2130.885681597992
 20
2277.960098720915
 30
0.0
 11
2165.885681597992
 21
2277.960098720915
 31
0.0
  0
LINE
  5
3E3
330
1F
100
AcDbEntity
  8
LAY-10
  6
CONTINUOUS
 62
     7
100
AcDbLine
 10
2145.885681597992
 20
2292.960098720915
 30
0.0
 11
2145.885681597992
 21
2289.960098720917
 31
0.0
  0
LINE
  5
3E4
330
1F
100
AcDbEntity
  8
LAY-10
  6
CONTINUOUS
 62
     7
100
AcDbLine
 10
2133.88568159799
 20
2289.960098720917
 30
0.0
 11
2133.88568159799
 21
2277.960098720915
 31
0.0
  0
LINE
  5
3E5
330
1F
100
AcDbEntity
  8
LAY-10
  6
CONTINUOUS
 62
     7
100
AcDbLine
 10
2130.885681597992
 20
2292.960098720915
 30
0.0
 11
2145.885681597992
 21
2292.960098720915
 31
0.0
  0
ARC
  5
3E6
330
1F
100
AcDbEntity
  8
LAY-10
  6
CONTINUOUS
 62
     7
100
AcDbCircle
 10
2172.885681597987
 20
2283.760098720916
 30
0.0
 40
3.000000000000003
100
AcDbArc
 50
0.0000000000000573
 51
90.00000000000009
  0
ARC
  5
3E7
330
1F
100
AcDbEntity
  8
LAY-10
  6
CONTINUOUS
 62
     7
100
AcDbCircle
 10
2173.085681597989
 20
2283.960098720917
 30
0.0
 40
6.000000000000006
100
AcDbArc
 50
0.0000000000000573
 51
90.00000000000009
  0
LINE
  5
3E8
330
1F
100
AcDbEntity
  8
LAY-10
  6
CONTINUOUS
 62
     7
100
AcDbLine
 10
2133.88568159799
 20
2286.760098720914
 30
0.0
 11
2172.885681597987
 21
2286.760098720914
 31
0.0
  0
LINE
  5
3E9
330
1F
100
AcDbEntity
  8
LAY-10
  6
CONTINUOUS
 62
     7
100
AcDbLine
 10
2133.88568159799
 20
2289.960098720917
 30
0.0
 11
2173.085681597989
 21
2289.960098720917
 31
0.0
  0
LINE
  5
3EA
330
1F
100
AcDbEntity
  8
LAY-10
  6
CONTINUOUS
 62
     7
100
AcDbLine
 10
2130.885681597992
 20
2245.960098721017
 30
0.0
 11
2165.885681597992
 21
2245.960098721017
 31
0.0
  0
LINE
  5
3EB
330
1F
100
AcDbEntity
  8
LAY-10
  6
CONTINUOUS
 62
     7
100
AcDbLine
 10
2181.085681597948
 20
2284.960098720819
 30
0.0
 11
2179.085681597947
 21
2284.960098720819
 31
0.0
  0
LINE
  5
3EC
330
1F
100
AcDbEntity
  8
LAY-10
  6
CONTINUOUS
 62
     7
100
AcDbLine
 10
2130.885681597992
 20
2293.960098720851
 30
0.0
 11
2130.885681597992
 21
2308.960098720851
 31
0.0
  0
LINE
  5
3ED
330
1F
100
AcDbEntity
  8
LAY-10
  6
CONTINUOUS
 62
     7
100
AcDbLine
 10
2130.885681597992
 20
2308.960098720851
 30
0.0
 11
2133.885681597988
 21
2308.960098720851
 31
0.0
  0
LINE
  5
3EE
330
1F
100
AcDbEntity
  8
LAY-10
  6
CONTINUOUS
 62
     7
100
AcDbLine
 10
2145.885681597992
 20
2293.960098720851
 30
0.0
 11
2145.885681597992
 21
2296.960098720851
 31
0.0
  0
LINE
  5
3EF
330
1F
100
AcDbEntity
  8
LAY-10
  6
CONTINUOUS
 62
     7
100
AcDbLine
 10
2133.885681597988
 20
2296.960098720851
 30
0.0
 11
2133.885681597988
 21
2308.960098720851
 31
0.0
  0
LINE
  5
3F0
330
1F
100
AcDbEntity
  8
LAY-10
  6
CONTINUOUS
 62
     7
100
AcDbLine
 10
2130.885681597992
 20
2293.960098720851
 30
0.0
 11
2145.885681597992
 21
2293.960098720851
 31
0.0
  0
LINE
  5
3F1
330
1F
100
AcDbEntity
  8
LAY-10
  6
CONTINUOUS
 62
     7
100
AcDbLine
 10
2133.885681597988
 20
2296.960098720851
 30
0.0
 11
2178.085681597989
 21
2296.960098720851
 31
0.0
  0
LINE
  5
3F2
330
1F
100
AcDbEntity
  8
LAY-10
  6
CONTINUOUS
 62
     7
100
AcDbLine
 10
2181.085681597948
 20
2259.960098720817
 30
0.0
 11
2179.085681597945
 21
2259.960098720817
 31
0.0
  0
ARC
  5
3F3
330
1F
100
AcDbEntity
  8
LAY-10
  6
CONTINUOUS
 62
     7
100
AcDbCircle
 10
2187.285681597989
 20
2260.160098720852
 30
0.0
 40
3.000000000000003
100
AcDbArc
 50
180.0000000000002
 51
270.0000000000002
  0
ARC
  5
3F4
330
1F
100
AcDbEntity
  8
LAY-10
  6
CONTINUOUS
 62
     7
100
AcDbCircle
 10
2187.085681597988
 20
2259.960098720851
 30
0.0
 40
6.000000000000006
100
AcDbArc
 50
180.0000000000002
 51
270.0000000000002
  0
LINE
  5
3F5
330
1F
100
AcDbEntity
  8
LAY-10
  6
CONTINUOUS
 62
     7
100
AcDbLine
 10
2178.285681597989
 20
2300.160098720849
 30
0.0
 11
2133.885681597988
 21
2300.160098720849
 31
0.0
  0
LINE
  5
3F6
330
1F
100
AcDbEntity
  8
LAY-10
  6
CONTINUOUS
 62
     7
100
AcDbLine
 10
2192.285681597989
 20
2296.846390221869
 30
0.0
 11
2192.285681597989
 21
2266.846390221869
 31
0.0
  0
LINE
  5
3F7
330
1F
100
AcDbEntity
  8
LAY-10
  6
CONTINUOUS
 62
     7
100
AcDbLine
 10
2192.285681597989
 20
2266.846390221869
 30
0.0
 11
2184.285681597989
 21
2266.846390221869
 31
0.0
  0
LINE
  5
3F8
330
1F
100
AcDbEntity
  8
LAY-10
  6
CONTINUOUS
 62
     7
100
AcDbLine
 10
2227.641020657315
 20
2332.201729281192
 30
0.0
 11
2192.285681597989
 21
2296.846390221869
 31
0.0
  0
ARC
  5
3F9
330
1F
100
AcDbEntity
  8
LAY-10
  6
CONTINUOUS
 62
     7
100
AcDbCircle
 10
2192.285681597989
 20
2296.846390221869
 30
0.0
 40
8.0
100
AcDbArc
 50
135.000000000015
 51
180.0000000000002
  0
LINE
  5
3FA
330
1F
100
AcDbEntity
  8
LAY-10
  6
CONTINUOUS
 62
     7
100
AcDbLine
 10
2221.984166407822
 20
2337.858583530689
 30
0.0
 11
2186.628827348496
 21
2302.503244471359
 31
0.0
  0
LINE
  5
3FB
330
1F
100
AcDbEntity
  8
LAY-10
  6
CONTINUOUS
 62
     7
100
AcDbLine
 10
2221.984166407822
 20
2337.858583530689
 30
0.0
 11
2227.641020657315
 21
2332.201729281192
 31
0.0
  0
LINE
  5
3FC
330
1F
100
AcDbEntity
  8
LAY-10
  6
CONTINUOUS
 62
     7
100
AcDbLine
 10
2184.285681597989
 20
2294.160098720852
 30
0.0
 11
2184.285681597989
 21
2296.846390221869
 31
0.0
  0
ARC
  5
3FD
330
1F
100
AcDbEntity
  8
LAY-10
  6
CONTINUOUS
 62
     7
100
AcDbCircle
 10
2178.285681597989
 20
2294.160098720852
 30
0.0
 40
6.000000000000006
100
AcDbArc
 50
0.0000000000000573
 51
90.00000000000009
  0
ARC
  5
3FE
330
1F
100
AcDbEntity
  8
LAY-10
  6
CONTINUOUS
 62
     7
100
AcDbCircle
 10
2178.085681597989
 20
2293.960098720851
 30
0.0
 40
3.000000000000003
100
AcDbArc
 50
0.0000000000000573
 51
90.00000000000009
  0
LINE
  5
3FF
330
1F
100
AcDbEntity
  8
LAY-10
  6
CONTINUOUS
 62
     7
100
AcDbLine
 10
2184.285681597989
 20
2294.160098720852
 30
0.0
 11
2184.285681597989
 21
2260.160098720852
 31
0.0
  0
LINE
  5
400
330
1F
100
AcDbEntity
  8
LAY-10
  6
CONTINUOUS
 62
     7
100
AcDbLine
 10
2198.085681597991
 20
1197.960098720913
 30
0.0
 11
2179.085681597989
 21
1197.960098720913
 31
0.0
  0
LINE
  5
401
330
1F
100
AcDbEntity
  8
LAY-10
  6
CONTINUOUS
 62
     7
100
AcDbLine
 10
2198.085681597991
 20
1200.960098720913
 30
0.0
 11
2179.085681597989
 21
1200.960098720913
 31
0.0
  0
LINE
  5
402
330
1F
100
AcDbEntity
  8
LAY-10
  6
CONTINUOUS
 62
     7
100
AcDbLine
 10
2181.085681597989
 20
1197.960098720899
 30
0.0
 11
2181.085681597989
 21
1121.960098720899
 31
0.0
  0
LINE
  5
403
330
1F
100
AcDbEntity
  8
LAY-10
  6
CONTINUOUS
 62
     7
100
AcDbLine
 10
2179.085681597991
 20
2217.960098720921
 30
0.0
 11
2198.085681597991
 21
2217.960098720921
 31
0.0
  0
LINE
  5
404
330
1F
100
AcDbEntity
  8
LAY-10
  6
CONTINUOUS
 62
     7
100
AcDbLine
 10
2179.085681597991
 20
2214.960098720921
 30
0.0
 11
2198.085681597991
 21
2214.960098720921
 31
0.0
  0
LINE
  5
405
330
1F
100
AcDbEntity
  8
LAY-10
  6
CONTINUOUS
 62
     7
100
AcDbLine
 10
2198.08568159799
 20
1197.960098720899
 30
0.0
 11
2198.085681597993
 21
2217.9600987209
 31
0.0
  0
LINE
  5
406
330
1F
100
AcDbEntity
  8
LAY-10
  6
CONTINUOUS
 62
     7
100
AcDbLine
 10
2181.085681597989
 20
2293.960098720851
 30
0.0
 11
2181.085681597989
 21
2217.9600987209
 31
0.0
  0
LINE
  5
407
330
1F
100
AcDbEntity
  8
LAY-10
  6
CONTINUOUS
 62
     7
100
AcDbLine
 10
2198.085681597991
 20
1709.460098720953
 30
0.0
 11
2179.085681597989
 21
1709.460098720953
 31
0.0
  0
LINE
  5
408
330
1F
100
AcDbEntity
  8
LAY-10
  6
CONTINUOUS
 62
     7
100
AcDbLine
 10
2198.085681597991
 20
1706.460098720952
 30
0.0
 11
2179.085681597991
 21
1706.460098720952
 31
0.0
  0
LINE
  5
409
330
1F
100
AcDbEntity
  8
LAY-10
  6
CONTINUOUS
 62
     7
100
AcDbLine
 10
2198.085681597991
 20
1416.960098720953
 30
0.0
 11
2179.085681597989
 21
1416.960098720953
 31
0.0
  0
LINE
  5
40A
330
1F
100
AcDbEntity
  8
LAY-10
  6
CONTINUOUS
 62
     7
100
AcDbLine
 10
2198.085681597991
 20
1413.960098720951
 30
0.0
 11
2179.085681597991
 21
1413.960098720951
 31
0.0
  0
LINE
  5
40B
330
1F
100
AcDbEntity
  8
LAY-10
  6
CONTINUOUS
 62
     7
100
AcDbLine
 10
2198.085681597991
 20
2001.960098720953
 30
0.0
 11
2179.085681597989
 21
2001.960098720953
 31
0.0
  0
LINE
  5
40C
330
1F
100
AcDbEntity
  8
LAY-10
  6
CONTINUOUS
 62
     7
100
AcDbLine
 10
2198.085681597991
 20
1998.960098720952
 30
0.0
 11
2179.085681597991
 21
1998.960098720952
 31
0.0
  0
LINE
  5
40D
330
1F
100
AcDbEntity
  8
LAY-10
  6
CONTINUOUS
 62
     7
100
AcDbLine
 10
2130.885681597992
 20
1122.960098720919
 30
0.0
 11
2130.885681597992
 21
2292.960098720915
 31
0.0
  0
LINE
  5
40E
330
1F
100
AcDbEntity
  8
LAY-10
  6
HIDDEN
 62
     7
100
AcDbLine
 10
2165.885681597992
 20
1137.960098720919
 30
0.0
 11
2175.885681597988
 21
1137.960098720919
 31
0.0
  0
LINE
  5
40F
330
1F
100
AcDbEntity
  8
LAY-10
  6
HIDDEN
 62
     7
100
AcDbLine
 10
2165.885681597992
 20
1169.960098720819
 30
0.0
 11
2175.885681597988
 21
1169.960098720819
 31
0.0
  0
LINE
  5
410
330
1F
100
AcDbEntity
  8
LAY-10
  6
HIDDEN
 62
     7
100
AcDbLine
 10
2165.885681597992
 20
2245.960098721019
 30
0.0
 11
2175.885681597988
 21
2245.960098721019
 31
0.0
  0
LINE
  5
411
330
1F
100
AcDbEntity
  8
LAY-10
  6
HIDDEN
 62
     7
100
AcDbLine
 10
2165.885681597992
 20
2277.960098720915
 30
0.0
 11
2175.885681597988
 21
2277.960098720915
 31
0.0
  0
LINE
  5
412
330
1F
100
AcDbEntity
  8
LAY-10
  6
CONTINUOUS
 62
     7
100
AcDbLine
 10
2219.685681597942
 20
2053.81009872112
 30
0.0
 11
2219.685681597942
 21
2033.810098721119
 31
0.0
  0
LINE
  5
413
330
1F
100
AcDbEntity
  8
LAY-10
  6
CONTINUOUS
 62
     7
100
AcDbLine
 10
2219.685681597942
 20
1923.810098721121
 30
0.0
 11
2219.685681597942
 21
1903.81009872112
 31
0.0
  0
ARC
  5
414
330
1F
100
AcDbEntity
  8
LAY-10
  6
CONTINUOUS
 62
     7
100
AcDbCircle
 10
2217.685681597948
 20
2025.810098721118
 30
0.0
 40
3.000000000000003
100
AcDbArc
 50
270.0
 51
0.0
  0
ARC
  5
415
330
1F
100
AcDbEntity
  8
LAY-10
  6
CONTINUOUS
 62
     7
100
AcDbCircle
 10
2217.685681597948
 20
2025.810098721118
 30
0.0
 40
3.000000000000003
100
AcDbArc
 50
180.0
 51
270.0
  0
ARC
  5
416
330
1F
100
AcDbEntity
  8
LAY-10
  6
CONTINUOUS
 62
     7
100
AcDbCircle
 10
2217.685681597948
 20
1931.810098721117
 30
0.0
 40
3.000000000000003
100
AcDbArc
 50
0.0
 51
90.00000000000001
  0
ARC
  5
417
330
1F
100
AcDbEntity
  8
LAY-10
  6
CONTINUOUS
 62
     7
100
AcDbCircle
 10
2217.685681597948
 20
1931.810098721117
 30
0.0
 40
3.000000000000003
100
AcDbArc
 50
90.00000000000001
 51
180.0
  0
LINE
  5
418
330
1F
100
AcDbEntity
  8
LAY-10
  6
CONTINUOUS
 62
     7
100
AcDbLine
 10
2212.685681597943
 20
1903.81009872112
 30
0.0
 11
2220.685681597949
 21
1903.81009872112
 31
0.0
  0
LINE
  5
419
330
1F
100
AcDbEntity
  8
LAY-10
  6
CONTINUOUS
 62
     7
100
AcDbLine
 10
2212.685681597943
 20
2053.81009872112
 30
0.0
 11
2220.685681597949
 21
2053.81009872112
 31
0.0
  0
LINE
  5
41A
330
1F
100
AcDbEntity
  8
LAY-10
  6
CONTINUOUS
 62
     7
100
AcDbLine
 10
2212.685681597943
 20
2033.810098721119
 30
0.0
 11
2220.685681597949
 21
2033.810098721119
 31
0.0
  0
LINE
  5
41B
330
1F
100
AcDbEntity
  8
LAY-10
  6
CONTINUOUS
 62
     7
100
AcDbLine
 10
2214.685681597942
 20
1923.810098721121
 30
0.0
 11
2214.685681597942
 21
2033.810098721119
 31
0.0
  0
LINE
  5
41C
330
1F
100
AcDbEntity
  8
LAY-10
  6
CONTINUOUS
 62
     7
100
AcDbLine
 10
2214.685681597942
 20
1893.81009872112
 30
0.0
 11
2214.685681597942
 21
1903.81009872112
 31
0.0
  0
LINE
  5
41D
330
1F
100
AcDbEntity
  8
LAY-10
  6
CONTINUOUS
 62
     7
100
AcDbLine
 10
2212.685681597943
 20
2033.810098721119
 30
0.0
 11
2212.685681597943
 21
2053.81009872112
 31
0.0
  0
LINE
  5
41E
330
1F
100
AcDbEntity
  8
LAY-10
  6
CONTINUOUS
 62
     7
100
AcDbLine
 10
2212.685681597943
 20
1903.81009872112
 30
0.0
 11
2212.685681597943
 21
1923.810098721121
 31
0.0
  0
LINE
  5
41F
330
1F
100
AcDbEntity
  8
LAY-10
  6
CONTINUOUS
 62
     7
100
AcDbLine
 10
2212.685681597943
 20
1923.810098721121
 30
0.0
 11
2220.685681597949
 21
1923.810098721121
 31
0.0
  0
LINE
  5
420
330
1F
100
AcDbEntity
  8
LAY-10
  6
CONTINUOUS
 62
     7
100
AcDbLine
 10
2214.685681597942
 20
1893.81009872112
 30
0.0
 11
2220.685681597949
 21
1893.81009872112
 31
0.0
  0
LINE
  5
421
330
1F
100
AcDbEntity
  8
LAY-10
  6
CONTINUOUS
 62
     7
100
AcDbLine
 10
2219.685681597942
 20
1362.110098720917
 30
0.0
 11
2219.685681597942
 21
1382.110098720918
 31
0.0
  0
LINE
  5
422
330
1F
100
AcDbEntity
  8
LAY-10
  6
CONTINUOUS
 62
     7
100
AcDbLine
 10
2219.685681597942
 20
1492.110098720916
 30
0.0
 11
2219.685681597942
 21
1512.110098720917
 31
0.0
  0
ARC
  5
423
330
1F
100
AcDbEntity
  8
LAY-10
  6
CONTINUOUS
 62
     7
100
AcDbCircle
 10
2217.685681597948
 20
1390.110098720918
 30
0.0
 40
3.000000000000003
100
AcDbArc
 50
0.0
 51
90.00000000000001
  0
ARC
  5
424
330
1F
100
AcDbEntity
  8
LAY-10
  6
CONTINUOUS
 62
     7
100
AcDbCircle
 10
2217.685681597948
 20
1390.110098720918
 30
0.0
 40
3.000000000000003
100
AcDbArc
 50
90.00000000000001
 51
180.0
  0
ARC
  5
425
330
1F
100
AcDbEntity
  8
LAY-10
  6
CONTINUOUS
 62
     7
100
AcDbCircle
 10
2217.685681597948
 20
1484.11009872092
 30
0.0
 40
3.000000000000003
100
AcDbArc
 50
270.0000000000002
 51
0.0
  0
ARC
  5
426
330
1F
100
AcDbEntity
  8
LAY-10
  6
CONTINUOUS
 62
     7
100
AcDbCircle
 10
2217.685681597948
 20
1484.11009872092
 30
0.0
 40
3.000000000000003
100
AcDbArc
 50
180.0
 51
270.0000000000002
  0
LINE
  5
427
330
1F
100
AcDbEntity
  8
LAY-10
  6
CONTINUOUS
 62
     7
100
AcDbLine
 10
2212.685681597943
 20
1512.110098720917
 30
0.0
 11
2220.685681597949
 21
1512.110098720917
 31
0.0
  0
LINE
  5
428
330
1F
100
AcDbEntity
  8
LAY-10
  6
CONTINUOUS
 62
     7
100
AcDbLine
 10
2212.685681597943
 20
1362.110098720917
 30
0.0
 11
2220.685681597949
 21
1362.110098720917
 31
0.0
  0
LINE
  5
429
330
1F
100
AcDbEntity
  8
LAY-10
  6
CONTINUOUS
 62
     7
100
AcDbLine
 10
2212.685681597943
 20
1382.110098720918
 30
0.0
 11
2220.685681597949
 21
1382.110098720918
 31
0.0
  0
LINE
  5
42A
330
1F
100
AcDbEntity
  8
LAY-10
  6
CONTINUOUS
 62
     7
100
AcDbLine
 10
2214.685681597942
 20
1492.110098720916
 30
0.0
 11
2214.685681597942
 21
1382.110098720918
 31
0.0
  0
LINE
  5
42B
330
1F
100
AcDbEntity
  8
LAY-10
  6
CONTINUOUS
 62
     7
100
AcDbLine
 10
2214.685681597942
 20
1522.110098720917
 30
0.0
 11
2214.685681597942
 21
1512.110098720917
 31
0.0
  0
LINE
  5
42C
330
1F
100
AcDbEntity
  8
LAY-10
  6
CONTINUOUS
 62
     7
100
AcDbLine
 10
2212.685681597943
 20
1382.110098720918
 30
0.0
 11
2212.685681597943
 21
1362.110098720917
 31
0.0
  0
LINE
  5
42D
330
1F
100
AcDbEntity
  8
LAY-10
  6
CONTINUOUS
 62
     7
100
AcDbLine
 10
2212.685681597943
 20
1512.110098720917
 30
0.0
 11
2212.685681597943
 21
1492.110098720916
 31
0.0
  0
LINE
  5
42E
330
1F
100
AcDbEntity
  8
LAY-10
  6
CONTINUOUS
 62
     7
100
AcDbLine
 10
2212.685681597943
 20
1492.110098720916
 30
0.0
 11
2220.685681597949
 21
1492.110098720916
 31
0.0
  0
LINE
  5
42F
330
1F
100
AcDbEntity
  8
LAY-10
  6
CONTINUOUS
 62
     7
100
AcDbLine
 10
2214.685681597942
 20
1522.110098720917
 30
0.0
 11
2220.685681597949
 21
1522.110098720917
 31
0.0
  0
LINE
  5
430
330
1F
100
AcDbEntity
  8
LAY-10
  6
CONTINUOUS
 62
     7
100
AcDbLine
 10
2269.085681597944
 20
1167.56009872094
 30
0.0
 11
2269.085681597944
 21
2248.36009872093
 31
0.0
  0
LINE
  5
431
330
1F
100
AcDbEntity
  8
LAY-10
  6
CONTINUOUS
 62
     7
100
AcDbLine
 10
2270.685681597943
 20
1165.960098720938
 30
0.0
 11
2270.685681597943
 21
2249.960098720932
 31
0.0
  0
LINE
  5
432
330
1F
100
AcDbEntity
  8
LAY-10
  6
CONTINUOUS
 62
     7
100
AcDbLine
 10
2222.285681597947
 20
2248.36009872093
 30
0.0
 11
2222.285681597944
 21
1167.56009872094
 31
0.0
  0
LINE
  5
433
330
1F
100
AcDbEntity
  8
LAY-10
  6
CONTINUOUS
 62
     7
100
AcDbLine
 10
2220.685681597945
 20
2249.960098720932
 30
0.0
 11
2220.685681597943
 21
1165.960098720938
 31
0.0
  0
LINE
  5
434
330
1F
100
AcDbEntity
  8
LAY-10
  6
CONTINUOUS
 62
     7
100
AcDbLine
 10
2272.685681597944
 20
1190.960098720939
 30
0.0
 11
2270.685681597943
 21
1190.960098720939
 31
0.0
  0
LINE
  5
435
330
1F
100
AcDbEntity
  8
LAY-10
  6
CONTINUOUS
 62
     7
100
AcDbLine
 10
2269.085681597944
 20
1167.56009872094
 30
0.0
 11
2222.285681597944
 21
1167.56009872094
 31
0.0
  0
LINE
  5
436
330
1F
100
AcDbEntity
  8
LAY-10
  6
CONTINUOUS
 62
     7
100
AcDbLine
 10
2220.685681597943
 20
1165.960098720938
 30
0.0
 11
2272.685681597944
 21
1165.960098720938
 31
0.0
  0
ARC
  5
437
330
1F
100
AcDbEntity
  8
LAY-10
  6
CONTINUOUS
 62
     7
100
AcDbCircle
 10
2272.885681597991
 20
1161.760098720853
 30
0.0
 40
3.000000000000003
100
AcDbArc
 50
270.0000000000002
 51
0.0000000000000573
  0
LINE
  5
438
330
1F
100
AcDbEntity
  8
LAY-10
  6
CONTINUOUS
 62
     7
100
AcDbLine
 10
2187.285681597989
 20
1158.760098720851
 30
0.0
 11
2272.885681597991
 21
1158.760098720852
 31
0.0
  0
LINE
  5
439
330
1F
100
AcDbEntity
  8
LAY-10
  6
CONTINUOUS
 62
     7
100
AcDbLine
 10
2272.685681597989
 20
1161.960098720854
 30
0.0
 11
2272.685681597989
 21
1207.9600987209
 31
0.0
  0
LINE
  5
43A
330
1F
100
AcDbEntity
  8
LAY-10
  6
CONTINUOUS
 62
     7
100
AcDbLine
 10
2272.68568159795
 20
1207.960098720857
 30
0.0
 11
2275.885681597989
 21
1207.960098720857
 31
0.0
  0
LINE
  5
43B
330
1F
100
AcDbEntity
  8
LAY-10
  6
CONTINUOUS
 62
     7
100
AcDbLine
 10
2187.08568159799
 20
1161.960098720854
 30
0.0
 11
2272.68568159795
 21
1161.960098720854
 31
0.0
  0
LINE
  5
43C
330
1F
100
AcDbEntity
  8
LAY-10
  6
CONTINUOUS
 62
     7
100
AcDbLine
 10
2269.085681597944
 20
2248.360098720934
 30
0.0
 11
2222.285681597944
 21
2248.360098720934
 31
0.0
  0
LINE
  5
43D
330
1F
100
AcDbEntity
  8
LAY-10
  6
CONTINUOUS
 62
     7
100
AcDbLine
 10
2220.685681597944
 20
2249.960098720932
 30
0.0
 11
2272.685681597944
 21
2249.960098720932
 31
0.0
  0
LINE
  5
43E
330
1F
100
AcDbEntity
  8
LAY-10
  6
CONTINUOUS
 62
     7
100
AcDbLine
 10
2272.685681597944
 20
2224.96009872093
 30
0.0
 11
2270.685681597943
 21
2224.96009872093
 31
0.0
  0
LINE
  5
43F
330
1F
100
AcDbEntity
  8
LAY-10
  6
CONTINUOUS
 62
     7
100
AcDbLine
 10
2187.285681597989
 20
2257.160098720852
 30
0.0
 11
2272.885681597989
 21
2257.160098720853
 31
0.0
  0
LINE
  5
440
330
1F
100
AcDbEntity
  8
LAY-10
  6
CONTINUOUS
 62
     7
100
AcDbLine
 10
2187.085681597988
 20
2253.96009872085
 30
0.0
 11
2272.685681597948
 21
2253.960098720851
 31
0.0
  0
ARC
  5
441
330
1F
100
AcDbEntity
  8
LAY-10
  6
CONTINUOUS
 62
     7
100
AcDbCircle
 10
2272.885681597989
 20
2254.160098720983
 30
0.0
 40
3.000000000000003
100
AcDbArc
 50
0.0000000000000573
 51
90.00000000000001
  0
LINE
  5
442
330
1F
100
AcDbEntity
  8
LAY-10
  6
CONTINUOUS
 62
     7
100
AcDbLine
 10
2272.685681597989
 20
2253.960098720982
 30
0.0
 11
2272.685681597989
 21
2207.960098720937
 31
0.0
  0
LINE
  5
443
330
1F
100
AcDbEntity
  8
LAY-10
  6
CONTINUOUS
 62
     7
100
AcDbLine
 10
2272.685681597948
 20
2207.960098720978
 30
0.0
 11
2275.885681597989
 21
2207.960098720978
 31
0.0
  0
LINE
  5
444
330
1F
100
AcDbEntity
  8
LAY-10
  6
CONTINUOUS
 62
     7
100
AcDbLine
 10
2214.685681597942
 20
1352.110098720911
 30
0.0
 11
2220.685681597943
 21
1352.110098720911
 31
0.0
  0
LINE
  5
445
330
1F
100
AcDbEntity
  8
LAY-10
  6
CONTINUOUS
 62
     7
100
AcDbLine
 10
2214.685681597942
 20
1362.110098720917
 30
0.0
 11
2214.685681597942
 21
1352.110098720911
 31
0.0
  0
LINE
  5
446
330
1F
100
AcDbEntity
  8
LAY-10
  6
CONTINUOUS
 62
     7
100
AcDbLine
 10
2214.685681597942
 20
2063.810098720998
 30
0.0
 11
2220.685681597944
 21
2063.810098720998
 31
0.0
  0
LINE
  5
447
330
1F
100
AcDbEntity
  8
LAY-10
  6
CONTINUOUS
 62
     7
100
AcDbLine
 10
2214.685681597942
 20
2053.81009872112
 30
0.0
 11
2214.685681597942
 21
2063.810098720998
 31
0.0
  0
LINE
  5
448
330
1F
100
AcDbEntity
  8
LAY-10
  6
CONTINUOUS
 62
     7
100
AcDbLine
 10
2275.885681597989
 20
1161.760098720853
 30
0.0
 11
2275.885681597989
 21
1207.960098720857
 31
0.0
  0
LINE
  5
449
330
1F
100
AcDbEntity
  8
LAY-10
  6
CONTINUOUS
 62
     7
100
AcDbLine
 10
2275.885681597989
 20
2207.960098720978
 30
0.0
 11
2275.885681597989
 21
2254.160098720983
 31
0.0
  0
LINE
  5
44A
330
1F
100
AcDbEntity
  8
LAY-10
  6
CONTINUOUS
 62
     7
100
AcDbLine
 10
1201.670530121359
 20
1137.960098720893
 30
0.0
 11
1201.670530121356
 21
2277.960098720893
 31
0.0
  0
LINE
  5
44B
330
1F
100
AcDbEntity
  8
LAY-10
  6
CONTINUOUS
 62
     7
100
AcDbLine
 10
1194.170530121359
 20
1137.960098720893
 30
0.0
 11
1194.170530121356
 21
2277.960098720892
 31
0.0
  0
LINE
  5
44C
330
1F
100
AcDbEntity
  8
LAY-10
  6
CONTINUOUS
 62
     7
100
AcDbLine
 10
1169.170530121359
 20
1137.960098720893
 30
0.0
 11
1169.170530121357
 21
2277.960098720892
 31
0.0
  0
LINE
  5
44D
330
1F
100
AcDbEntity
  8
LAY-10
  6
CONTINUOUS
 62
     7
100
AcDbLine
 10
1161.670530121359
 20
1137.960098720893
 30
0.0
 11
1161.670530121357
 21
2277.960098720892
 31
0.0
  0
LINE
  5
44E
330
1F
100
AcDbEntity
  8
LAY-10
  6
CONTINUOUS
 62
     7
100
AcDbLine
 10
1019.170530121356
 20
1137.960098720893
 30
0.0
 11
1019.170530121359
 21
2277.960098720892
 31
0.0
  0
LINE
  5
44F
330
1F
100
AcDbEntity
  8
LAY-10
  6
CONTINUOUS
 62
     7
100
AcDbLine
 10
1011.670530121356
 20
1137.960098720893
 30
0.0
 11
1011.670530121359
 21
2277.960098720893
 31
0.0
  0
LINE
  5
450
330
1F
100
AcDbEntity
  8
LAY-10
  6
CONTINUOUS
 62
     7
100
AcDbLine
 10
1051.670530121354
 20
1137.960098720893
 30
0.0
 11
1051.670530121359
 21
2277.960098720892
 31
0.0
  0
LINE
  5
451
330
1F
100
AcDbEntity
  8
LAY-10
  6
CONTINUOUS
 62
     7
100
AcDbLine
 10
1044.170530121354
 20
1137.960098720893
 30
0.0
 11
1044.17053012136
 21
2277.960098720892
 31
0.0
  0
LINE
  5
452
330
1F
100
AcDbEntity
  8
LAY-10
  6
CONTINUOUS
 62
     7
100
AcDbLine
 10
1301.170530121359
 20
2292.960098720891
 30
0.0
 11
1286.170530121359
 21
2277.960098720893
 31
0.0
  0
LINE
  5
453
330
1F
100
AcDbEntity
  8
LAY-10
  6
CONTINUOUS
 62
     7
100
AcDbLine
 10
912.1705301212385
 20
2292.960098720891
 30
0.0
 11
1301.170530121359
 21
2292.960098720891
 31
0.0
  0
LINE
  5
454
330
1F
100
AcDbEntity
  8
LAY-10
  6
CONTINUOUS
 62
     7
100
AcDbLine
 10
1301.17053012136
 20
1122.960098720893
 30
0.0
 11
1301.170530121359
 21
2292.960098720891
 31
0.0
  0
LINE
  5
455
330
1F
100
AcDbEntity
  8
LAY-10
  6
CONTINUOUS
 62
     7
100
AcDbLine
 10
1286.170530121359
 20
1137.960098720893
 30
0.0
 11
1301.17053012136
 21
1122.960098720893
 31
0.0
  0
LINE
  5
456
330
1F
100
AcDbEntity
  8
LAY-10
  6
CONTINUOUS
 62
     7
100
AcDbLine
 10
912.1705301212385
 20
1122.960098720891
 30
0.0
 11
1301.17053012136
 21
1122.960098720893
 31
0.0
  0
LINE
  5
457
330
1F
100
AcDbEntity
  8
LAY-10
  6
CONTINUOUS
 62
     7
100
AcDbLine
 10
1263.67053012149
 20
2261.960098721042
 30
0.0
 11
1270.170530121491
 21
2265.960098721042
 31
0.0
  0
LINE
  5
458
330
1F
100
AcDbEntity
  8
LAY-10
  6
CONTINUOUS
 62
     7
100
AcDbLine
 10
1286.170530121359
 20
2277.960098720893
 30
0.0
 11
1286.170530121359
 21
1137.960098720893
 31
0.0
  0
LINE
  5
459
330
1F
100
AcDbEntity
  8
LAY-10
  6
CONTINUOUS
 62
     7
100
AcDbLine
 10
1286.170530121359
 20
2277.960098720893
 30
0.0
 11
927.1705301212387
 21
2277.96009872089
 31
0.0
  0
LINE
  5
45A
330
1F
100
AcDbEntity
  8
LAY-10
  6
CONTINUOUS
 62
     7
100
AcDbLine
 10
1254.170530121494
 20
2245.960098721093
 30
0.0
 11
1254.170530121494
 21
2277.960098721092
 31
0.0
  0
LINE
  5
45B
330
1F
100
AcDbEntity
  8
LAY-10
  6
CONTINUOUS
 62
     7
100
AcDbLine
 10
1254.170530121492
 20
2245.960098721093
 30
0.0
 11
1286.170530121492
 21
2245.960098721093
 31
0.0
  0
LINE
  5
45C
330
1F
100
AcDbEntity
  8
LAY-10
  6
CONTINUOUS
 62
     7
100
AcDbLine
 10
1266.170530121493
 20
2272.460098721043
 30
0.0
 11
1266.170530121493
 21
2274.066398733847
 31
0.0
  0
LINE
  5
45D
330
1F
100
AcDbEntity
  8
LAY-10
  6
CONTINUOUS
 62
     7
100
AcDbLine
 10
1274.17053012149
 20
2272.460098721043
 30
0.0
 11
1274.17053012149
 21
2274.066398733847
 31
0.0
  0
LINE
  5
45E
330
1F
100
AcDbEntity
  8
LAY-10
  6
CONTINUOUS
 62
     7
100
AcDbLine
 10
1274.17053012149
 20
2272.460098721043
 30
0.0
 11
1266.170530121493
 21
2272.460098721043
 31
0.0
  0
ARC
  5
45F
330
1F
100
AcDbEntity
  8
LAY-10
  6
CONTINUOUS
 62
     7
100
AcDbCircle
 10
1270.170530121491
 20
2261.960098721042
 30
0.0
 40
12.75000000000001
100
AcDbArc
 50
108.283889940404
 51
71.71611005959691
  0
LINE
  5
460
330
1F
100
AcDbEntity
  8
LAY-10
  6
CONTINUOUS
 62
     7
100
AcDbLine
 10
1270.170530121491
 20
2265.960098721042
 30
0.0
 11
1276.670530121491
 21
2261.960098721042
 31
0.0
  0
LINE
  5
461
330
1F
100
AcDbEntity
  8
LAY-10
  6
CONTINUOUS
 62
     7
100
AcDbLine
 10
1276.670530121491
 20
2261.960098721042
 30
0.0
 11
1270.170530121491
 21
2257.960098721042
 31
0.0
  0
LINE
  5
462
330
1F
100
AcDbEntity
  8
LAY-10
  6
CONTINUOUS
 62
     7
100
AcDbLine
 10
1270.170530121491
 20
2257.960098721042
 30
0.0
 11
1263.67053012149
 21
2261.960098721042
 31
0.0
  0
CIRCLE
  5
463
330
1F
100
AcDbEntity
  8
LAY-10
  6
CONTINUOUS
 62
     7
100
AcDbCircle
 10
1270.17053012154
 20
2261.960098721065
 30
0.0
 40
13.0
  0
LINE
  5
464
330
1F
100
AcDbEntity
  8
LAY-10
  6
CONTINUOUS
 62
     7
100
AcDbLine
 10
1286.170530121359
 20
1137.960098720893
 30
0.0
 11
927.1705301212387
 21
1137.960098720891
 31
0.0
  0
LINE
  5
465
330
1F
100
AcDbEntity
  8
LAY-10
  6
CONTINUOUS
 62
     7
100
AcDbLine
 10
1254.170530121494
 20
1169.960098720892
 30
0.0
 11
1254.170530121494
 21
1137.960098720893
 31
0.0
  0
LINE
  5
466
330
1F
100
AcDbEntity
  8
LAY-10
  6
CONTINUOUS
 62
     7
100
AcDbLine
 10
1254.170530121492
 20
1169.960098720892
 30
0.0
 11
1286.170530121493
 21
1169.960098720892
 31
0.0
  0
LINE
  5
467
330
1F
100
AcDbEntity
  8
LAY-10
  6
CONTINUOUS
 62
     7
100
AcDbLine
 10
1266.170530121493
 20
1143.460098720942
 30
0.0
 11
1266.170530121493
 21
1141.853798708139
 31
0.0
  0
LINE
  5
468
330
1F
100
AcDbEntity
  8
LAY-10
  6
CONTINUOUS
 62
     7
100
AcDbLine
 10
1274.17053012149
 20
1143.460098720942
 30
0.0
 11
1274.17053012149
 21
1141.853798708139
 31
0.0
  0
LINE
  5
469
330
1F
100
AcDbEntity
  8
LAY-10
  6
CONTINUOUS
 62
     7
100
AcDbLine
 10
1274.17053012149
 20
1143.460098720942
 30
0.0
 11
1266.170530121493
 21
1143.460098720942
 31
0.0
  0
ARC
  5
46A
330
1F
100
AcDbEntity
  8
LAY-10
  6
CONTINUOUS
 62
     7
100
AcDbCircle
 10
1270.170530121491
 20
1153.960098720943
 30
0.0
 40
12.75000000000001
100
AcDbArc
 50
288.2838899404036
 51
251.7161100595966
  0
LINE
  5
46B
330
1F
100
AcDbEntity
  8
LAY-10
  6
CONTINUOUS
 62
     7
100
AcDbLine
 10
1263.67053012149
 20
1153.960098720943
 30
0.0
 11
1270.170530121491
 21
1149.960098720943
 31
0.0
  0
LINE
  5
46C
330
1F
100
AcDbEntity
  8
LAY-10
  6
CONTINUOUS
 62
     7
100
AcDbLine
 10
1270.170530121491
 20
1149.960098720943
 30
0.0
 11
1276.670530121491
 21
1153.960098720943
 31
0.0
  0
LINE
  5
46D
330
1F
100
AcDbEntity
  8
LAY-10
  6
CONTINUOUS
 62
     7
100
AcDbLine
 10
1276.670530121491
 20
1153.960098720943
 30
0.0
 11
1270.170530121491
 21
1157.960098720943
 31
0.0
  0
LINE
  5
46E
330
1F
100
AcDbEntity
  8
LAY-10
  6
CONTINUOUS
 62
     7
100
AcDbLine
 10
1270.170530121491
 20
1157.960098720943
 30
0.0
 11
1263.67053012149
 21
1153.960098720943
 31
0.0
  0
CIRCLE
  5
46F
330
1F
100
AcDbEntity
  8
LAY-10
  6
CONTINUOUS
 62
     7
100
AcDbCircle
 10
1270.17053012154
 20
1153.960098720921
 30
0.0
 40
13.0
  0
LINE
  5
470
330
1F
100
AcDbEntity
  8
LAY-10
  6
CONTINUOUS
 62
     7
100
AcDbLine
 10
912.1705301212385
 20
2292.960098720891
 30
0.0
 11
927.1705301212387
 21
2277.96009872089
 31
0.0
  0
LINE
  5
471
330
1F
100
AcDbEntity
  8
LAY-10
  6
CONTINUOUS
 62
     7
100
AcDbLine
 10
927.1705301212387
 20
1137.960098720891
 30
0.0
 11
927.1705301212387
 21
2277.96009872089
 31
0.0
  0
LINE
  5
472
330
1F
100
AcDbEntity
  8
LAY-10
  6
CONTINUOUS
 62
     7
100
AcDbLine
 10
912.1705301212385
 20
2292.960098720891
 30
0.0
 11
912.1705301212385
 21
1122.960098720891
 31
0.0
  0
LINE
  5
473
330
1F
100
AcDbEntity
  8
LAY-10
  6
CONTINUOUS
 62
     7
100
AcDbLine
 10
959.1705301212353
 20
2245.960098721093
 30
0.0
 11
959.1705301212353
 21
2277.960098721092
 31
0.0
  0
LINE
  5
474
330
1F
100
AcDbEntity
  8
LAY-10
  6
CONTINUOUS
 62
     7
100
AcDbLine
 10
959.1705301212378
 20
2245.960098721093
 30
0.0
 11
927.170530121237
 21
2245.960098721093
 31
0.0
  0
LINE
  5
475
330
1F
100
AcDbEntity
  8
LAY-10
  6
CONTINUOUS
 62
     7
100
AcDbLine
 10
947.1705301212367
 20
2272.460098721043
 30
0.0
 11
947.1705301212367
 21
2274.066398733846
 31
0.0
  0
LINE
  5
476
330
1F
100
AcDbEntity
  8
LAY-10
  6
CONTINUOUS
 62
     7
100
AcDbLine
 10
939.1705301212394
 20
2272.460098721043
 30
0.0
 11
939.1705301212394
 21
2274.066398733846
 31
0.0
  0
LINE
  5
477
330
1F
100
AcDbEntity
  8
LAY-10
  6
CONTINUOUS
 62
     7
100
AcDbLine
 10
939.1705301212394
 20
2272.460098721043
 30
0.0
 11
947.1705301212367
 21
2272.460098721043
 31
0.0
  0
ARC
  5
478
330
1F
100
AcDbEntity
  8
LAY-10
  6
CONTINUOUS
 62
     7
100
AcDbCircle
 10
943.1705301212385
 20
2261.960098721042
 30
0.0
 40
12.75000000000001
100
AcDbArc
 50
108.283889940403
 51
71.71611005959704
  0
LINE
  5
479
330
1F
100
AcDbEntity
  8
LAY-10
  6
CONTINUOUS
 62
     7
100
AcDbLine
 10
949.6705301212394
 20
2261.960098721042
 30
0.0
 11
943.1705301212385
 21
2265.960098721042
 31
0.0
  0
LINE
  5
47A
330
1F
100
AcDbEntity
  8
LAY-10
  6
CONTINUOUS
 62
     7
100
AcDbLine
 10
943.1705301212385
 20
2265.960098721042
 30
0.0
 11
936.6705301212386
 21
2261.960098721042
 31
0.0
  0
LINE
  5
47B
330
1F
100
AcDbEntity
  8
LAY-10
  6
CONTINUOUS
 62
     7
100
AcDbLine
 10
936.6705301212386
 20
2261.960098721042
 30
0.0
 11
943.1705301212385
 21
2257.960098721042
 31
0.0
  0
LINE
  5
47C
330
1F
100
AcDbEntity
  8
LAY-10
  6
CONTINUOUS
 62
     7
100
AcDbLine
 10
943.1705301212385
 20
2257.960098721042
 30
0.0
 11
949.6705301212394
 21
2261.960098721042
 31
0.0
  0
CIRCLE
  5
47D
330
1F
100
AcDbEntity
  8
LAY-10
  6
CONTINUOUS
 62
     7
100
AcDbCircle
 10
943.1705301211895
 20
2261.960098721065
 30
0.0
 40
13.0
  0
LINE
  5
47E
330
1F
100
AcDbEntity
  8
LAY-10
  6
CONTINUOUS
 62
     7
100
AcDbLine
 10
912.1705301212385
 20
1122.960098720891
 30
0.0
 11
927.1705301212387
 21
1137.960098720891
 31
0.0
  0
LINE
  5
47F
330
1F
100
AcDbEntity
  8
LAY-10
  6
CONTINUOUS
 62
     7
100
AcDbLine
 10
959.1705301212353
 20
1169.960098720892
 30
0.0
 11
959.1705301212353
 21
1137.960098720893
 31
0.0
  0
LINE
  5
480
330
1F
100
AcDbEntity
  8
LAY-10
  6
CONTINUOUS
 62
     7
100
AcDbLine
 10
959.1705301212378
 20
1169.960098720892
 30
0.0
 11
927.170530121237
 21
1169.960098720892
 31
0.0
  0
LINE
  5
481
330
1F
100
AcDbEntity
  8
LAY-10
  6
CONTINUOUS
 62
     7
100
AcDbLine
 10
947.1705301212367
 20
1143.460098720942
 30
0.0
 11
947.1705301212367
 21
1141.853798708139
 31
0.0
  0
LINE
  5
482
330
1F
100
AcDbEntity
  8
LAY-10
  6
CONTINUOUS
 62
     7
100
AcDbLine
 10
939.1705301212394
 20
1143.460098720942
 30
0.0
 11
939.1705301212394
 21
1141.853798708139
 31
0.0
  0
LINE
  5
483
330
1F
100
AcDbEntity
  8
LAY-10
  6
CONTINUOUS
 62
     7
100
AcDbLine
 10
939.1705301212394
 20
1143.460098720942
 30
0.0
 11
947.1705301212367
 21
1143.460098720942
 31
0.0
  0
ARC
  5
484
330
1F
100
AcDbEntity
  8
LAY-10
  6
CONTINUOUS
 62
     7
100
AcDbCircle
 10
943.1705301212385
 20
1153.960098720943
 30
0.0
 40
12.75000000000001
100
AcDbArc
 50
288.2838899404034
 51
251.7161100595966
  0
LINE
  5
485
330
1F
100
AcDbEntity
  8
LAY-10
  6
CONTINUOUS
 62
     7
100
AcDbLine
 10
949.6705301212394
 20
1153.960098720943
 30
0.0
 11
943.1705301212385
 21
1149.960098720943
 31
0.0
  0
LINE
  5
486
330
1F
100
AcDbEntity
  8
LAY-10
  6
CONTINUOUS
 62
     7
100
AcDbLine
 10
943.1705301212385
 20
1149.960098720943
 30
0.0
 11
936.6705301212386
 21
1153.960098720943
 31
0.0
  0
LINE
  5
487
330
1F
100
AcDbEntity
  8
LAY-10
  6
CONTINUOUS
 62
     7
100
AcDbLine
 10
936.6705301212386
 20
1153.960098720943
 30
0.0
 11
943.1705301212385
 21
1157.960098720943
 31
0.0
  0
LINE
  5
488
330
1F
100
AcDbEntity
  8
LAY-10
  6
CONTINUOUS
 62
     7
100
AcDbLine
 10
943.1705301212385
 20
1157.960098720943
 30
0.0
 11
949.6705301212394
 21
1153.960098720943
 31
0.0
  0
CIRCLE
  5
489
330
1F
100
AcDbEntity
  8
LAY-10
  6
CONTINUOUS
 62
     7
100
AcDbCircle
 10
943.1705301211895
 20
1153.960098720921
 30
0.0
 40
13.0
  0
CIRCLE
  5
48A
330
1F
100
AcDbEntity
  8
LAY-10
  6
CONTINUOUS
 62
     7
100
AcDbCircle
 10
1660.670530121256
 20
1153.960098720918
 30
0.0
 40
13.0
  0
LINE
  5
48B
330
1F
100
AcDbEntity
  8
LAY-10
  6
CONTINUOUS
 62
     7
100
AcDbLine
 10
1660.670530121207
 20
1157.960098720941
 30
0.0
 11
1654.170530121206
 21
1153.960098720941
 31
0.0
  0
LINE
  5
48C
330
1F
100
AcDbEntity
  8
LAY-10
  6
CONTINUOUS
 62
     7
100
AcDbLine
 10
1667.170530121207
 20
1153.960098720941
 30
0.0
 11
1660.670530121207
 21
1157.960098720941
 31
0.0
  0
LINE
  5
48D
330
1F
100
AcDbEntity
  8
LAY-10
  6
CONTINUOUS
 62
     7
100
AcDbLine
 10
1660.670530121207
 20
1149.960098720941
 30
0.0
 11
1667.170530121207
 21
1153.960098720941
 31
0.0
  0
LINE
  5
48E
330
1F
100
AcDbEntity
  8
LAY-10
  6
CONTINUOUS
 62
     7
100
AcDbLine
 10
1654.170530121206
 20
1153.960098720941
 30
0.0
 11
1660.670530121207
 21
1149.960098720941
 31
0.0
  0
ARC
  5
48F
330
1F
100
AcDbEntity
  8
LAY-10
  6
CONTINUOUS
 62
     7
100
AcDbCircle
 10
1660.670530121207
 20
1153.960098720941
 30
0.0
 40
12.75000000000001
100
AcDbArc
 50
288.2838899404031
 51
251.716110059597
  0
LINE
  5
490
330
1F
100
AcDbEntity
  8
LAY-10
  6
CONTINUOUS
 62
     7
100
AcDbLine
 10
1664.670530121206
 20
1143.46009872094
 30
0.0
 11
1656.670530121209
 21
1143.46009872094
 31
0.0
  0
LINE
  5
491
330
1F
100
AcDbEntity
  8
LAY-10
  6
CONTINUOUS
 62
     7
100
AcDbLine
 10
1664.670530121206
 20
1143.46009872094
 30
0.0
 11
1664.670530121206
 21
1141.853798708137
 31
0.0
  0
LINE
  5
492
330
1F
100
AcDbEntity
  8
LAY-10
  6
CONTINUOUS
 62
     7
100
AcDbLine
 10
1656.670530121209
 20
1143.46009872094
 30
0.0
 11
1656.670530121209
 21
1141.853798708137
 31
0.0
  0
LINE
  5
493
330
1F
100
AcDbEntity
  8
LAY-10
  6
CONTINUOUS
 62
     7
100
AcDbLine
 10
1644.670530121208
 20
1169.96009872089
 30
0.0
 11
1676.670530121209
 21
1169.96009872089
 31
0.0
  0
LINE
  5
494
330
1F
100
AcDbEntity
  8
LAY-10
  6
CONTINUOUS
 62
     7
100
AcDbLine
 10
1644.67053012121
 20
1169.96009872089
 30
0.0
 11
1644.67053012121
 21
1137.960098720891
 31
0.0
  0
LINE
  5
495
330
1F
100
AcDbEntity
  8
LAY-10
  6
CONTINUOUS
 62
     7
100
AcDbLine
 10
1691.670530121207
 20
1122.960098720888
 30
0.0
 11
1676.670530121207
 21
1137.960098720889
 31
0.0
  0
CIRCLE
  5
496
330
1F
100
AcDbEntity
  8
LAY-10
  6
CONTINUOUS
 62
     7
100
AcDbCircle
 10
1660.67053012126
 20
2261.960098721062
 30
0.0
 40
13.0
  0
LINE
  5
497
330
1F
100
AcDbEntity
  8
LAY-10
  6
CONTINUOUS
 62
     7
100
AcDbLine
 10
1660.670530121211
 20
2257.96009872104
 30
0.0
 11
1654.17053012121
 21
2261.96009872104
 31
0.0
  0
LINE
  5
498
330
1F
100
AcDbEntity
  8
LAY-10
  6
CONTINUOUS
 62
     7
100
AcDbLine
 10
1667.170530121211
 20
2261.96009872104
 30
0.0
 11
1660.670530121211
 21
2257.96009872104
 31
0.0
  0
LINE
  5
499
330
1F
100
AcDbEntity
  8
LAY-10
  6
CONTINUOUS
 62
     7
100
AcDbLine
 10
1660.670530121211
 20
2265.96009872104
 30
0.0
 11
1667.170530121211
 21
2261.96009872104
 31
0.0
  0
LINE
  5
49A
330
1F
100
AcDbEntity
  8
LAY-10
  6
CONTINUOUS
 62
     7
100
AcDbLine
 10
1654.17053012121
 20
2261.96009872104
 30
0.0
 11
1660.670530121211
 21
2265.96009872104
 31
0.0
  0
ARC
  5
49B
330
1F
100
AcDbEntity
  8
LAY-10
  6
CONTINUOUS
 62
     7
100
AcDbCircle
 10
1660.670530121211
 20
2261.96009872104
 30
0.0
 40
12.75000000000001
100
AcDbArc
 50
108.2838899404018
 51
71.71611005959629
  0
LINE
  5
49C
330
1F
100
AcDbEntity
  8
LAY-10
  6
CONTINUOUS
 62
     7
100
AcDbLine
 10
1664.67053012121
 20
2272.460098721041
 30
0.0
 11
1656.670530121213
 21
2272.460098721041
 31
0.0
  0
LINE
  5
49D
330
1F
100
AcDbEntity
  8
LAY-10
  6
CONTINUOUS
 62
     7
100
AcDbLine
 10
1664.67053012121
 20
2272.460098721041
 30
0.0
 11
1664.67053012121
 21
2274.066398733844
 31
0.0
  0
LINE
  5
49E
330
1F
100
AcDbEntity
  8
LAY-10
  6
CONTINUOUS
 62
     7
100
AcDbLine
 10
1656.670530121213
 20
2272.460098721041
 30
0.0
 11
1656.670530121213
 21
2274.066398733844
 31
0.0
  0
LINE
  5
49F
330
1F
100
AcDbEntity
  8
LAY-10
  6
CONTINUOUS
 62
     7
100
AcDbLine
 10
1644.670530121212
 20
2245.960098721092
 30
0.0
 11
1676.670530121213
 21
2245.960098721091
 31
0.0
  0
LINE
  5
4A0
330
1F
100
AcDbEntity
  8
LAY-10
  6
CONTINUOUS
 62
     7
100
AcDbLine
 10
1644.670530121214
 20
2245.960098721092
 30
0.0
 11
1644.670530121214
 21
2277.96009872109
 31
0.0
  0
LINE
  5
4A1
330
1F
100
AcDbEntity
  8
LAY-10
  6
CONTINUOUS
 62
     7
100
AcDbLine
 10
1691.670530121211
 20
2292.960098720889
 30
0.0
 11
1691.670530121207
 21
1122.960098720888
 31
0.0
  0
LINE
  5
4A2
330
1F
100
AcDbEntity
  8
LAY-10
  6
CONTINUOUS
 62
     7
100
AcDbLine
 10
1676.670530121207
 20
1137.960098720889
 30
0.0
 11
1676.670530121211
 21
2277.960098720888
 31
0.0
  0
LINE
  5
4A3
330
1F
100
AcDbEntity
  8
LAY-10
  6
CONTINUOUS
 62
     7
100
AcDbLine
 10
1691.670530121211
 20
2292.960098720889
 30
0.0
 11
1676.670530121211
 21
2277.960098720888
 31
0.0
  0
CIRCLE
  5
4A4
330
1F
100
AcDbEntity
  8
LAY-10
  6
CONTINUOUS
 62
     7
100
AcDbCircle
 10
1333.670530120905
 20
1153.96009872092
 30
0.0
 40
13.0
  0
LINE
  5
4A5
330
1F
100
AcDbEntity
  8
LAY-10
  6
CONTINUOUS
 62
     7
100
AcDbLine
 10
1333.670530120954
 20
1157.960098720942
 30
0.0
 11
1340.170530120955
 21
1153.960098720942
 31
0.0
  0
LINE
  5
4A6
330
1F
100
AcDbEntity
  8
LAY-10
  6
CONTINUOUS
 62
     7
100
AcDbLine
 10
1327.170530120954
 20
1153.960098720942
 30
0.0
 11
1333.670530120954
 21
1157.960098720942
 31
0.0
  0
LINE
  5
4A7
330
1F
100
AcDbEntity
  8
LAY-10
  6
CONTINUOUS
 62
     7
100
AcDbLine
 10
1333.670530120954
 20
1149.960098720942
 30
0.0
 11
1327.170530120954
 21
1153.960098720942
 31
0.0
  0
LINE
  5
4A8
330
1F
100
AcDbEntity
  8
LAY-10
  6
CONTINUOUS
 62
     7
100
AcDbLine
 10
1340.170530120955
 20
1153.960098720942
 30
0.0
 11
1333.670530120954
 21
1149.960098720942
 31
0.0
  0
ARC
  5
4A9
330
1F
100
AcDbEntity
  8
LAY-10
  6
CONTINUOUS
 62
     7
100
AcDbCircle
 10
1333.670530120954
 20
1153.960098720942
 30
0.0
 40
12.75000000000001
100
AcDbArc
 50
288.2838899404031
 51
251.7161100595961
  0
LINE
  5
4AA
330
1F
100
AcDbEntity
  8
LAY-10
  6
CONTINUOUS
 62
     7
100
AcDbLine
 10
1329.670530120955
 20
1143.460098720941
 30
0.0
 11
1337.670530120952
 21
1143.460098720941
 31
0.0
  0
LINE
  5
4AB
330
1F
100
AcDbEntity
  8
LAY-10
  6
CONTINUOUS
 62
     7
100
AcDbLine
 10
1329.670530120955
 20
1143.460098720941
 30
0.0
 11
1329.670530120955
 21
1141.853798708138
 31
0.0
  0
LINE
  5
4AC
330
1F
100
AcDbEntity
  8
LAY-10
  6
CONTINUOUS
 62
     7
100
AcDbLine
 10
1337.670530120952
 20
1143.460098720941
 30
0.0
 11
1337.670530120952
 21
1141.853798708138
 31
0.0
  0
LINE
  5
4AD
330
1F
100
AcDbEntity
  8
LAY-10
  6
CONTINUOUS
 62
     7
100
AcDbLine
 10
1349.670530120954
 20
1169.960098720891
 30
0.0
 11
1317.670530120952
 21
1169.960098720891
 31
0.0
  0
LINE
  5
4AE
330
1F
100
AcDbEntity
  8
LAY-10
  6
CONTINUOUS
 62
     7
100
AcDbLine
 10
1349.670530120951
 20
1169.960098720891
 30
0.0
 11
1349.670530120951
 21
1137.960098720892
 31
0.0
  0
LINE
  5
4AF
330
1F
100
AcDbEntity
  8
LAY-10
  6
CONTINUOUS
 62
     7
100
AcDbLine
 10
1317.670530121087
 20
1137.960098720892
 30
0.0
 11
1676.670530121207
 21
1137.960098720889
 31
0.0
  0
CIRCLE
  5
4B0
330
1F
100
AcDbEntity
  8
LAY-10
  6
CONTINUOUS
 62
     7
100
AcDbCircle
 10
1333.670530120909
 20
2261.960098721064
 30
0.0
 40
13.0
  0
LINE
  5
4B1
330
1F
100
AcDbEntity
  8
LAY-10
  6
CONTINUOUS
 62
     7
100
AcDbLine
 10
1333.670530120958
 20
2257.960098721041
 30
0.0
 11
1340.17053012096
 21
2261.960098721042
 31
0.0
  0
LINE
  5
4B2
330
1F
100
AcDbEntity
  8
LAY-10
  6
CONTINUOUS
 62
     7
100
AcDbLine
 10
1327.170530120959
 20
2261.960098721042
 30
0.0
 11
1333.670530120958
 21
2257.960098721041
 31
0.0
  0
LINE
  5
4B3
330
1F
100
AcDbEntity
  8
LAY-10
  6
CONTINUOUS
 62
     7
100
AcDbLine
 10
1333.670530120959
 20
2265.960098721041
 30
0.0
 11
1327.170530120959
 21
2261.960098721042
 31
0.0
  0
ARC
  5
4B4
330
1F
100
AcDbEntity
  8
LAY-10
  6
CONTINUOUS
 62
     7
100
AcDbCircle
 10
1333.670530120959
 20
2261.960098721042
 30
0.0
 40
12.75000000000001
100
AcDbArc
 50
108.2838899404028
 51
71.71611005959566
  0
LINE
  5
4B5
330
1F
100
AcDbEntity
  8
LAY-10
  6
CONTINUOUS
 62
     7
100
AcDbLine
 10
1329.67053012096
 20
2272.460098721042
 30
0.0
 11
1337.670530120957
 21
2272.460098721042
 31
0.0
  0
LINE
  5
4B6
330
1F
100
AcDbEntity
  8
LAY-10
  6
CONTINUOUS
 62
     7
100
AcDbLine
 10
1329.67053012096
 20
2272.460098721042
 30
0.0
 11
1329.67053012096
 21
2274.066398733846
 31
0.0
  0
LINE
  5
4B7
330
1F
100
AcDbEntity
  8
LAY-10
  6
CONTINUOUS
 62
     7
100
AcDbLine
 10
1337.670530120957
 20
2272.460098721042
 30
0.0
 11
1337.670530120957
 21
2274.066398733846
 31
0.0
  0
LINE
  5
4B8
330
1F
100
AcDbEntity
  8
LAY-10
  6
CONTINUOUS
 62
     7
100
AcDbLine
 10
1349.670530120958
 20
2245.960098721092
 30
0.0
 11
1317.670530120957
 21
2245.960098721092
 31
0.0
  0
LINE
  5
4B9
330
1F
100
AcDbEntity
  8
LAY-10
  6
CONTINUOUS
 62
     7
100
AcDbLine
 10
1349.670530120955
 20
2245.960098721092
 30
0.0
 11
1349.670530120956
 21
2277.960098721091
 31
0.0
  0
LINE
  5
4BA
330
1F
100
AcDbEntity
  8
LAY-10
  6
CONTINUOUS
 62
     7
100
AcDbLine
 10
1317.670530121091
 20
2277.960098720892
 30
0.0
 11
1676.670530121211
 21
2277.960098720888
 31
0.0
  0
LINE
  5
4BB
330
1F
100
AcDbEntity
  8
LAY-10
  6
CONTINUOUS
 62
     7
100
AcDbLine
 10
1317.670530121091
 20
2277.960098720892
 30
0.0
 11
1317.670530121087
 21
1137.960098720892
 31
0.0
  0
LINE
  5
4BC
330
1F
100
AcDbEntity
  8
LAY-10
  6
CONTINUOUS
 62
     7
100
AcDbLine
 10
1340.17053012096
 20
2261.960098721042
 30
0.0
 11
1333.670530120959
 21
2265.960098721041
 31
0.0
  0
LINE
  5
4BD
330
1F
100
AcDbEntity
  8
LAY-10
  6
CONTINUOUS
 62
     7
100
AcDbLine
 10
1691.670530121207
 20
1122.960098720888
 30
0.0
 11
1302.670530121085
 21
1122.960098720893
 31
0.0
  0
LINE
  5
4BE
330
1F
100
AcDbEntity
  8
LAY-10
  6
CONTINUOUS
 62
     7
100
AcDbLine
 10
1317.670530121087
 20
1137.960098720892
 30
0.0
 11
1302.670530121085
 21
1122.960098720893
 31
0.0
  0
LINE
  5
4BF
330
1F
100
AcDbEntity
  8
LAY-10
  6
CONTINUOUS
 62
     7
100
AcDbLine
 10
1302.670530121085
 20
1122.960098720893
 30
0.0
 11
1302.670530121091
 21
2292.960098720891
 31
0.0
  0
LINE
  5
4C0
330
1F
100
AcDbEntity
  8
LAY-10
  6
CONTINUOUS
 62
     7
100
AcDbLine
 10
1691.670530121211
 20
2292.960098720889
 30
0.0
 11
1302.670530121091
 21
2292.960098720891
 31
0.0
  0
LINE
  5
4C1
330
1F
100
AcDbEntity
  8
LAY-10
  6
CONTINUOUS
 62
     7
100
AcDbLine
 10
1302.670530121091
 20
2292.960098720891
 30
0.0
 11
1317.670530121091
 21
2277.960098720892
 31
0.0
  0
LINE
  5
4C2
330
1F
100
AcDbEntity
  8
LAY-10
  6
CONTINUOUS
 62
     7
100
AcDbLine
 10
1559.670530121091
 20
1137.960098720891
 30
0.0
 11
1559.67053012109
 21
2277.960098720891
 31
0.0
  0
LINE
  5
4C3
330
1F
100
AcDbEntity
  8
LAY-10
  6
CONTINUOUS
 62
     7
100
AcDbLine
 10
1552.170530121091
 20
1137.960098720892
 30
0.0
 11
1552.17053012109
 21
2277.960098720891
 31
0.0
  0
LINE
  5
4C4
330
1F
100
AcDbEntity
  8
LAY-10
  6
CONTINUOUS
 62
     7
100
AcDbLine
 10
1592.170530121089
 20
1137.960098720891
 30
0.0
 11
1592.17053012109
 21
2277.960098720891
 31
0.0
  0
LINE
  5
4C5
330
1F
100
AcDbEntity
  8
LAY-10
  6
CONTINUOUS
 62
     7
100
AcDbLine
 10
1584.67053012109
 20
1137.960098720891
 30
0.0
 11
1584.67053012109
 21
2277.960098720891
 31
0.0
  0
LINE
  5
4C6
330
1F
100
AcDbEntity
  8
LAY-10
  6
CONTINUOUS
 62
     7
100
AcDbLine
 10
1442.170530121086
 20
1137.960098720892
 30
0.0
 11
1442.170530121092
 21
2277.960098720891
 31
0.0
  0
LINE
  5
4C7
330
1F
100
AcDbEntity
  8
LAY-10
  6
CONTINUOUS
 62
     7
100
AcDbLine
 10
1434.670530121086
 20
1137.960098720892
 30
0.0
 11
1434.670530121092
 21
2277.960098720891
 31
0.0
  0
LINE
  5
4C8
330
1F
100
AcDbEntity
  8
LAY-10
  6
CONTINUOUS
 62
     7
100
AcDbLine
 10
1409.670530121086
 20
1137.960098720892
 30
0.0
 11
1409.670530121094
 21
2277.960098720891
 31
0.0
  0
LINE
  5
4C9
330
1F
100
AcDbEntity
  8
LAY-10
  6
CONTINUOUS
 62
     7
100
AcDbLine
 10
1402.170530121086
 20
1137.960098720892
 30
0.0
 11
1402.170530121094
 21
2277.960098720892
 31
0.0
  0
LINE
  5
4CA
330
1F
100
AcDbEntity
  8
LAY-10
  6
CONTINUOUS
 62
     7
100
AcDbLine
 10
1602.170530121308
 20
2308.960098720828
 30
0.0
 11
1602.170530121307
 21
2337.858583530665
 31
0.0
  0
LINE
  5
4CB
330
1F
100
AcDbEntity
  8
LAY-10
  6
CONTINUOUS
 62
     7
100
AcDbLine
 10
1611.170530121308
 20
2308.960098720828
 30
0.0
 11
1611.170530121309
 21
2337.858583530665
 31
0.0
  0
LINE
  5
4CC
330
1F
100
AcDbEntity
  8
LAY-10
  6
CONTINUOUS
 62
     7
100
AcDbLine
 10
1602.170530121307
 20
2337.858583530665
 30
0.0
 11
1611.170530121309
 21
2337.858583530665
 31
0.0
  0
LINE
  5
4CD
330
1F
100
AcDbEntity
  8
LAY-10
  6
CONTINUOUS
 62
     7
100
AcDbLine
 10
1102.170530121308
 20
2308.96009872083
 30
0.0
 11
1102.170530121307
 21
2337.858583530667
 31
0.0
  0
LINE
  5
4CE
330
1F
100
AcDbEntity
  8
LAY-10
  6
CONTINUOUS
 62
     7
100
AcDbLine
 10
1111.170530121309
 20
2308.96009872083
 30
0.0
 11
1111.170530121309
 21
2337.858583530667
 31
0.0
  0
LINE
  5
4CF
330
1F
100
AcDbEntity
  8
LAY-10
  6
CONTINUOUS
 62
     7
100
AcDbLine
 10
1102.170530121307
 20
2337.858583530667
 30
0.0
 11
1111.170530121309
 21
2337.858583530667
 31
0.0
  0
LINE
  5
4D0
330
1F
100
AcDbEntity
  8
LAY-10
  6
CONTINUOUS
 62
     7
100
AcDbLine
 10
611.1705301212867
 20
2308.96009872083
 30
0.0
 11
611.170530121288
 21
2337.858583530667
 31
0.0
  0
LINE
  5
4D1
330
1F
100
AcDbEntity
  8
LAY-10
  6
CONTINUOUS
 62
     7
100
AcDbLine
 10
602.1705301212867
 20
2308.96009872083
 30
0.0
 11
602.1705301212867
 21
2337.858583530667
 31
0.0
  0
LINE
  5
4D2
330
1F
100
AcDbEntity
  8
LAY-10
  6
CONTINUOUS
 62
     7
100
AcDbLine
 10
611.170530121288
 20
2337.858583530667
 30
0.0
 11
602.1705301212867
 21
2337.858583530667
 31
0.0
  0
LINE
  5
4D3
330
1F
100
AcDbEntity
  8
LAY-10
  6
CONTINUOUS
 62
     7
100
AcDbLine
 10
1602.170530121308
 20
1106.960098721158
 30
0.0
 11
1602.170530121307
 21
1078.061613911321
 31
0.0
  0
LINE
  5
4D4
330
1F
100
AcDbEntity
  8
LAY-10
  6
CONTINUOUS
 62
     7
100
AcDbLine
 10
1611.170530121308
 20
1106.960098721158
 30
0.0
 11
1611.170530121309
 21
1078.061613911321
 31
0.0
  0
LINE
  5
4D5
330
1F
100
AcDbEntity
  8
LAY-10
  6
CONTINUOUS
 62
     7
100
AcDbLine
 10
1602.170530121307
 20
1078.061613911321
 30
0.0
 11
1611.170530121309
 21
1078.061613911321
 31
0.0
  0
LINE
  5
4D6
330
1F
100
AcDbEntity
  8
LAY-10
  6
CONTINUOUS
 62
     7
100
AcDbLine
 10
1102.170530121308
 20
1106.960098721156
 30
0.0
 11
1102.170530121307
 21
1078.061613911319
 31
0.0
  0
LINE
  5
4D7
330
1F
100
AcDbEntity
  8
LAY-10
  6
CONTINUOUS
 62
     7
100
AcDbLine
 10
1111.170530121309
 20
1106.960098721156
 30
0.0
 11
1111.170530121309
 21
1078.061613911319
 31
0.0
  0
LINE
  5
4D8
330
1F
100
AcDbEntity
  8
LAY-10
  6
CONTINUOUS
 62
     7
100
AcDbLine
 10
1102.170530121307
 20
1078.061613911319
 30
0.0
 11
1111.170530121309
 21
1078.061613911319
 31
0.0
  0
LINE
  5
4D9
330
1F
100
AcDbEntity
  8
LAY-10
  6
CONTINUOUS
 62
     7
100
AcDbLine
 10
611.1705301212868
 20
1106.960098721156
 30
0.0
 11
611.1705301212882
 21
1078.061613911319
 31
0.0
  0
LINE
  5
4DA
330
1F
100
AcDbEntity
  8
LAY-10
  6
CONTINUOUS
 62
     7
100
AcDbLine
 10
602.1705301212868
 20
1106.960098721156
 30
0.0
 11
602.1705301212868
 21
1078.061613911319
 31
0.0
  0
LINE
  5
4DB
330
1F
100
AcDbEntity
  8
LAY-10
  6
CONTINUOUS
 62
     7
100
AcDbLine
 10
611.1705301212882
 20
1078.061613911319
 30
0.0
 11
602.1705301212868
 21
1078.061613911319
 31
0.0
  0
LINE
  5
4DC
330
1F
100
AcDbEntity
  8
LAY-10
  6
CENTER
 62
     2
100
AcDbLine
 10
552.6705301212971
 20
1135.360098720895
 30
0.0
 11
552.6705301212971
 21
1174.260098720894
 31
0.0
  0
LINE
  5
4DD
330
1F
100
AcDbEntity
  8
LAY-10
  6
CENTER
 62
     2
100
AcDbLine
 10
534.1455301212975
 20
1153.960098720893
 30
0.0
 11
571.6455301212975
 21
1153.960098720893
 31
0.0
  0
LINE
  5
4DE
330
1F
100
AcDbEntity
  8
LAY-10
  6
CENTER
 62
     2
100
AcDbLine
 10
534.1455301212975
 20
2261.960098721092
 30
0.0
 11
571.6455301212975
 21
2261.960098721092
 31
0.0
  0
LINE
  5
4DF
330
1F
100
AcDbEntity
  8
LAY-10
  6
CENTER
 62
     2
100
AcDbLine
 10
552.6705301212971
 20
2280.560098721091
 30
0.0
 11
552.6705301212971
 21
2241.660098721091
 31
0.0
  0
LINE
  5
4E0
330
1F
100
AcDbEntity
  8
LAY-10
  6
CENTER
 62
     2
100
AcDbLine
 10
898.1955301215527
 20
1153.960098720893
 30
0.0
 11
860.6955301215527
 21
1153.960098720893
 31
0.0
  0
LINE
  5
4E1
330
1F
100
AcDbEntity
  8
LAY-10
  6
CENTER
 62
     2
100
AcDbLine
 10
879.670530121553
 20
1135.360098720895
 30
0.0
 11
879.670530121553
 21
1174.260098720894
 31
0.0
  0
LINE
  5
4E2
330
1F
100
AcDbEntity
  8
LAY-10
  6
CENTER
 62
     2
100
AcDbLine
 10
898.1955301215523
 20
2261.960098721092
 30
0.0
 11
860.6955301215523
 21
2261.960098721092
 31
0.0
  0
LINE
  5
4E3
330
1F
100
AcDbEntity
  8
LAY-10
  6
CENTER
 62
     2
100
AcDbLine
 10
879.6705301215527
 20
2280.560098721091
 30
0.0
 11
879.6705301215527
 21
2241.660098721091
 31
0.0
  0
LINE
  5
4E4
330
1F
100
AcDbEntity
  8
LAY-10
  6
CENTER
 62
     2
100
AcDbLine
 10
464.3705301209468
 20
1707.960098720993
 30
0.0
 11
1749.470530121049
 21
1707.960098720993
 31
0.0
  0
LINE
  5
4E5
330
1F
100
AcDbEntity
  8
LAY-10
  6
CENTER
 62
     2
100
AcDbLine
 10
505.6649011891774
 20
1207.960098720995
 30
0.0
 11
469.1649011892238
 21
1207.960098720996
 31
0.0
  0
LINE
  5
4E6
330
1F
100
AcDbEntity
  8
LAY-10
  6
CENTER
 62
     2
100
AcDbLine
 10
505.6649011891793
 20
2207.960098721015
 30
0.0
 11
469.1649011892257
 21
2207.960098721014
 31
0.0
  0
LINE
  5
4E7
330
1F
100
AcDbEntity
  8
LAY-10
  6
CENTER
 62
     2
100
AcDbLine
 10
1707.670530121128
 20
1207.960098720993
 30
0.0
 11
1744.170530121082
 21
1207.960098720993
 31
0.0
  0
LINE
  5
4E8
330
1F
100
AcDbEntity
  8
LAY-10
  6
CENTER
 62
     2
100
AcDbLine
 10
1707.67053012113
 20
2207.960098721012
 30
0.0
 11
1744.170530121084
 21
2207.960098721011
 31
0.0
  0
LINE
  5
4E9
330
1F
100
AcDbEntity
  8
LAY-10
  6
CENTER
 62
     2
100
AcDbLine
 10
1106.670530121347
 20
697.3231402394007
 30
0.0
 11
1106.670530121347
 21
534.49786117286
 31
0.0
  0
LINE
  5
4EA
330
1F
100
AcDbEntity
  8
LAY-10
  6
CENTER
 62
     2
100
AcDbLine
 10
2111.587196788153
 20
1707.960098720952
 30
0.0
 11
2291.4018293971
 21
1707.960098720953
 31
0.0
  0
LINE
  5
4EB
330
1F
100
AcDbEntity
  8
LAY-10
  6
CENTER
 62
     2
100
AcDbLine
 10
1106.670530121255
 20
2345.460098720839
 30
0.0
 11
1106.670530121253
 21
1065.160098720939
 31
0.0
  0
LINE
  5
4EC
330
1F
100
AcDbEntity
  8
LAY-10
  6
CENTER
 62
     2
100
AcDbLine
 10
1270.170530121492
 20
2280.560098721091
 30
0.0
 11
1270.170530121492
 21
2241.660098721091
 31
0.0
  0
LINE
  5
4ED
330
1F
100
AcDbEntity
  8
LAY-10
  6
CENTER
 62
     2
100
AcDbLine
 10
1288.695530121492
 20
2261.960098721092
 30
0.0
 11
1251.195530121492
 21
2261.960098721092
 31
0.0
  0
LINE
  5
4EE
330
1F
100
AcDbEntity
  8
LAY-10
  6
CENTER
 62
     2
100
AcDbLine
 10
1270.170530121493
 20
1135.360098720895
 30
0.0
 11
1270.170530121493
 21
1174.260098720894
 31
0.0
  0
LINE
  5
4EF
330
1F
100
AcDbEntity
  8
LAY-10
  6
CENTER
 62
     2
100
AcDbLine
 10
1288.695530121492
 20
1153.960098720893
 30
0.0
 11
1251.195530121492
 21
1153.960098720893
 31
0.0
  0
LINE
  5
4F0
330
1F
100
AcDbEntity
  8
LAY-10
  6
CENTER
 62
     2
100
AcDbLine
 10
943.1705301212369
 20
2280.560098721091
 30
0.0
 11
943.1705301212369
 21
2241.660098721091
 31
0.0
  0
LINE
  5
4F1
330
1F
100
AcDbEntity
  8
LAY-10
  6
CENTER
 62
     2
100
AcDbLine
 10
924.6455301212372
 20
2261.960098721092
 30
0.0
 11
962.1455301212372
 21
2261.960098721092
 31
0.0
  0
LINE
  5
4F2
330
1F
100
AcDbEntity
  8
LAY-10
  6
CENTER
 62
     2
100
AcDbLine
 10
924.6455301212372
 20
1153.960098720893
 30
0.0
 11
962.1455301212372
 21
1153.960098720893
 31
0.0
  0
LINE
  5
4F3
330
1F
100
AcDbEntity
  8
LAY-10
  6
CENTER
 62
     2
100
AcDbLine
 10
943.1705301212369
 20
1135.360098720895
 30
0.0
 11
943.1705301212369
 21
1174.260098720894
 31
0.0
  0
LINE
  5
4F4
330
1F
100
AcDbEntity
  8
LAY-10
  6
CENTER
 62
     2
100
AcDbLine
 10
1660.670530121208
 20
1135.360098720893
 30
0.0
 11
1660.670530121209
 21
1174.260098720892
 31
0.0
  0
LINE
  5
4F5
330
1F
100
AcDbEntity
  8
LAY-10
  6
CENTER
 62
     2
100
AcDbLine
 10
1679.195530121208
 20
1153.960098720891
 30
0.0
 11
1641.695530121208
 21
1153.960098720891
 31
0.0
  0
LINE
  5
4F6
330
1F
100
AcDbEntity
  8
LAY-10
  6
CENTER
 62
     2
100
AcDbLine
 10
1679.195530121212
 20
2261.96009872109
 30
0.0
 11
1641.695530121212
 21
2261.96009872109
 31
0.0
  0
LINE
  5
4F7
330
1F
100
AcDbEntity
  8
LAY-10
  6
CENTER
 62
     2
100
AcDbLine
 10
1660.670530121213
 20
2280.560098721088
 30
0.0
 11
1660.670530121213
 21
2241.660098721089
 31
0.0
  0
LINE
  5
4F8
330
1F
100
AcDbEntity
  8
LAY-10
  6
CENTER
 62
     2
100
AcDbLine
 10
1315.145530120953
 20
1153.960098720893
 30
0.0
 11
1352.645530120953
 21
1153.960098720892
 31
0.0
  0
LINE
  5
4F9
330
1F
100
AcDbEntity
  8
LAY-10
  6
CENTER
 62
     2
100
AcDbLine
 10
1333.670530120953
 20
1135.360098720894
 30
0.0
 11
1333.670530120953
 21
1174.260098720893
 31
0.0
  0
LINE
  5
4FA
330
1F
100
AcDbEntity
  8
LAY-10
  6
CENTER
 62
     2
100
AcDbLine
 10
1315.145530120958
 20
2261.960098721091
 30
0.0
 11
1352.645530120958
 21
2261.960098721091
 31
0.0
  0
LINE
  5
4FB
330
1F
100
AcDbEntity
  8
LAY-10
  6
CENTER
 62
     2
100
AcDbLine
 10
1333.670530120957
 20
2280.56009872109
 30
0.0
 11
1333.670530120957
 21
2241.66009872109
 31
0.0
  0
LINE
  5
4FC
330
1F
100
AcDbEntity
  8
LAY-10
  6
CENTER
 62
     2
100
AcDbLine
 10
1606.670530121307
 20
2308.960098720828
 30
0.0
 11
1606.670530121307
 21
2345.460098720781
 31
0.0
  0
LINE
  5
4FD
330
1F
100
AcDbEntity
  8
LAY-10
  6
CENTER
 62
     2
100
AcDbLine
 10
606.6705301212876
 20
2308.96009872083
 30
0.0
 11
606.6705301212885
 21
2345.460098720783
 31
0.0
  0
LINE
  5
4FE
330
1F
100
AcDbEntity
  8
LAY-10
  6
CENTER
 62
     2
100
AcDbLine
 10
1606.670530121307
 20
1106.960098721158
 30
0.0
 11
1606.670530121307
 21
1070.460098721204
 31
0.0
  0
LINE
  5
4FF
330
1F
100
AcDbEntity
  8
LAY-10
  6
CENTER
 62
     2
100
AcDbLine
 10
606.6705301212877
 20
1106.960098721156
 30
0.0
 11
606.6705301212886
 21
1070.460098721202
 31
0.0
  0
DIMENSION
  5
501
330
1F
100
AcDbEntity
  8
LAY-20
  6
CONTINUOUS
 62
     4
100
AcDbDimension
  2
*D15
 10
1836.5690149312
 20
683.7421327782001
 30
0.0
 11
1811.5690149312
 21
611.2421327781999
 31
0.0
 70
   160
  3
ISO-25
100
AcDbAlignedDimension
 13
1652.8705301214
 23
538.7421327782004
 33
0.0
 14
1707.6705301214
 24
683.7421327782001
 34
0.0
 50
90.0
100
AcDbRotatedDimension
1001
ACAD
1000
DSTYLE
1002
{
1070
   270
1070
     2
1070
     6
1000
EX_BNORM
1070
     7
1000
EX_BNORM
1070
    41
1040
25.0
1070
    42
1040
15.0
1070
    44
1040
15.0
1070
    73
1070
     0
1070
    74
1070
     0
1070
    75
1070
     0
1070
    76
1070
     0
1070
    77
1070
     1
1070
    78
1070
     8
1070
   140
1040
31.181104
1070
   147
1040
0.0
1070
   173
1070
     1
1070
   176
1070
     4
1070
   177
1070
     4
1070
   178
1070
     7
1070
   271
1070
     1
1070
   277
1070
     2
1070
   279
1070
     2
1070
   280
1070
     0
1070
   287
1070
     5
1070
   340
1005
500
1002
}
  0
DIMENSION
  5
50F
330
1F
100
AcDbEntity
  8
LAY-20
  6
CONTINUOUS
 62
     4
100
AcDbDimension
  2
*D16
 10
1960.885681598001
 20
2308.960098720899
 30
0.0
 11
1935.885681598001
 21
1707.960098720899
 31
0.0
 70
   160
  3
ISO-25
100
AcDbAlignedDimension
 13
2130.885681597951
 23
1106.960098720899
 33
0.0
 14
2130.885681597991
 24
2308.960098720899
 34
0.0
 50
90.0
100
AcDbRotatedDimension
1001
ACAD
1000
DSTYLE
1002
{
1070
   270
1070
     2
1070
     6
1000
EX_BNORM
1070
     7
1000
EX_BNORM
1070
    41
1040
25.0
1070
    42
1040
15.0
1070
    44
1040
15.0
1070
    73
1070
     0
1070
    74
1070
     0
1070
    75
1070
     0
1070
    76
1070
     0
1070
    77
1070
     1
1070
    78
1070
     8
1070
   140
1040
31.181104
1070
   147
1040
0.0
1070
   173
1070
     1
1070
   176
1070
     4
1070
   177
1070
     4
1070
   178
1070
     7
1070
   271
1070
     1
1070
   277
1070
     2
1070
   279
1070
     2
1070
   280
1070
     0
1070
   287
1070
     5
1070
   340
1005
500
1002
}
  0
DIMENSION
  5
51C
330
1F
100
AcDbEntity
  8
LAY-20
  6
CONTINUOUS
 62
     4
100
AcDbDimension
  2
*D17
 10
2030.885681598001
 20
2292.960098720915
 30
0.0
 11
2005.885681598001
 21
1707.960098720917
 31
0.0
 70
   160
  3
ISO-25
100
AcDbAlignedDimension
 13
2130.885681597992
 23
1122.960098720919
 33
0.0
 14
2130.885681597992
 24
2292.960098720915
 34
0.0
 50
90.0
100
AcDbRotatedDimension
1001
ACAD
1000
DSTYLE
1002
{
1070
   270
1070
     2
1070
     6
1000
EX_BNORM
1070
     7
1000
EX_BNORM
1070
    41
1040
25.0
1070
    42
1040
15.0
1070
    44
1040
15.0
1070
    73
1070
     0
1070
    74
1070
     0
1070
    75
1070
     0
1070
    76
1070
     0
1070
    77
1070
     1
1070
    78
1070
     8
1070
   140
1040
31.181104
1070
   147
1040
0.0
1070
   173
1070
     1
1070
   176
1070
     4
1070
   177
1070
     4
1070
   178
1070
     7
1070
   271
1070
     1
1070
   277
1070
     2
1070
   279
1070
     2
1070
   280
1070
     0
1070
   287
1070
     5
1070
   340
1005
500
1002
}
  0
DIMENSION
  5
529
330
1F
100
AcDbEntity
  8
LAY-20
  6
CONTINUOUS
 62
     4
100
AcDbDimension
  2
*D18
 10
2375.885681598001
 20
1207.9600987209
 30
0.0
 11
2350.885681598001
 21
1707.96009872095
 31
0.0
 70
   160
  3
ISO-25
100
AcDbAlignedDimension
 13
2275.885681597991
 23
2207.960098721
 33
0.0
 14
2275.885681597991
 24
1207.9600987209
 34
0.0
 50
90.0
100
AcDbRotatedDimension
1001
ACAD
1000
DSTYLE
1002
{
1070
   270
1070
     2
1070
     6
1000
EX_BNORM
1070
     7
1000
EX_BNORM
1070
    41
1040
25.0
1070
    42
1040
15.0
1070
    44
1040
15.0
1070
    73
1070
     0
1070
    74
1070
     0
1070
    75
1070
     0
1070
    76
1070
     0
1070
    77
1070
     1
1070
    78
1070
     8
1070
   140
1040
31.181104
1070
   147
1040
0.0
1070
   173
1070
     1
1070
   176
1070
     4
1070
   177
1070
     4
1070
   178
1070
     7
1070
   271
1070
     1
1070
   277
1070
     2
1070
   279
1070
     2
1070
   280
1070
     0
1070
   287
1070
     5
1070
   340
1005
500
1002
}
  0
DIMENSION
  5
536
330
1F
100
AcDbEntity
  8
LAY-20
  6
CONTINUOUS
 62
     4
100
AcDbDimension
  2
*D19
 10
2445.885681598001
 20
1115.7600987209
 30
0.0
 11
2420.885681598001
 21
1707.96009872085
 31
0.0
 70
   160
  3
ISO-25
100
AcDbAlignedDimension
 13
2178.285681598
 23
2300.160098720799
 33
0.0
 14
2178.2856815979
 24
1115.7600987209
 34
0.0
 50
90.0
100
AcDbRotatedDimension
1001
ACAD
1000
DSTYLE
1002
{
1070
   270
1070
     2
1070
     6
1000
EX_BNORM
1070
     7
1000
EX_BNORM
1070
    41
1040
25.0
1070
    42
1040
15.0
1070
    44
1040
15.0
1070
    73
1070
     0
1070
    74
1070
     0
1070
    75
1070
     0
1070
    76
1070
     0
1070
    77
1070
     1
1070
    78
1070
     0
1070
   140
1040
31.181104
1070
   147
1040
0.0
1070
   173
1070
     1
1070
   176
1070
     4
1070
   177
1070
     4
1070
   178
1070
     7
1070
   271
1070
     0
1070
   277
1070
     2
1070
   279
1070
     2
1070
   280
1070
     0
1070
   287
1070
     5
1070
   340
1005
500
1002
}
  0
DIMENSION
  5
543
330
1F
100
AcDbEntity
  8
LAY-20
  6
CONTINUOUS
 62
     4
100
AcDbDimension
  2
*D20
 10
514.4705301211998
 20
368.7421327781992
 30
0.0
 11
1106.67053012115
 21
393.7421327781991
 31
0.0
 70
   160
  3
ISO-25
100
AcDbAlignedDimension
 13
1698.8705301211
 23
636.3421327781994
 33
0.0
 14
514.4705301211998
 24
636.3421327782996
 34
0.0
100
AcDbRotatedDimension
1001
ACAD
1000
DSTYLE
1002
{
1070
   270
1070
     2
1070
     6
1000
EX_BNORM
1070
     7
1000
EX_BNORM
1070
    41
1040
25.0
1070
    42
1040
15.0
1070
    44
1040
15.0
1070
    73
1070
     0
1070
    74
1070
     0
1070
    75
1070
     0
1070
    76
1070
     0
1070
    77
1070
     1
1070
    78
1070
     0
1070
   140
1040
31.181104
1070
   147
1040
0.0
1070
   173
1070
     1
1070
   176
1070
     4
1070
   177
1070
     4
1070
   178
1070
     7
1070
   271
1070
     0
1070
   277
1070
     2
1070
   279
1070
     2
1070
   280
1070
     0
1070
   287
1070
     5
1070
   340
1005
500
1002
}
  0
DIMENSION
  5
550
330
1F
100
AcDbEntity
  8
LAY-20
  6
CONTINUOUS
 62
     4
100
AcDbDimension
  2
*D21
 10
606.6705301212005
 20
438.7421327781992
 30
0.0
 11
1106.67053012125
 21
463.7421327781987
 31
0.0
 70
   160
  3
ISO-25
100
AcDbAlignedDimension
 13
1606.6705301213
 23
538.742132778209
 33
0.0
 14
606.6705301212005
 24
538.7421327782092
 34
0.0
100
AcDbRotatedDimension
1001
ACAD
1000
DSTYLE
1002
{
1070
   270
1070
     2
1070
     6
1000
EX_BNORM
1070
     7
1000
EX_BNORM
1070
    41
1040
25.0
1070
    42
1040
15.0
1070
    44
1040
15.0
1070
    73
1070
     0
1070
    74
1070
     0
1070
    75
1070
     0
1070
    76
1070
     0
1070
    77
1070
     1
1070
    78
1070
     8
1070
   140
1040
31.181104
1070
   147
1040
0.0
1070
   173
1070
     1
1070
   176
1070
     4
1070
   177
1070
     4
1070
   178
1070
     7
1070
   271
1070
     1
1070
   277
1070
     2
1070
   279
1070
     2
1070
   280
1070
     0
1070
   287
1070
     5
1070
   340
1005
500
1002
}
  0
DIMENSION
  5
55D
330
1F
100
AcDbEntity
  8
LAY-20
  6
CONTINUOUS
 62
     4
100
AcDbDimension
  2
*D22
 10
1707.670530121199
 20
853.742132778199
 30
0.0
 11
1106.670530121199
 21
878.7421327781989
 31
0.0
 70
   160
  3
ISO-25
100
AcDbAlignedDimension
 13
505.6705301211996
 23
683.7421327782491
 33
0.0
 14
1707.670530121199
 24
683.742132778209
 34
0.0
100
AcDbRotatedDimension
1001
ACAD
1000
DSTYLE
1002
{
1070
   270
1070
     2
1070
     6
1000
EX_BNORM
1070
     7
1000
EX_BNORM
1070
    41
1040
25.0
1070
    42
1040
15.0
1070
    44
1040
15.0
1070
    73
1070
     0
1070
    74
1070
     0
1070
    75
1070
     0
1070
    76
1070
     0
1070
    77
1070
     1
1070
    78
1070
     8
1070
   140
1040
31.181104
1070
   147
1040
0.0
1070
   173
1070
     1
1070
   176
1070
     4
1070
   177
1070
     4
1070
   178
1070
     7
1070
   271
1070
     1
1070
   277
1070
     2
1070
   279
1070
     2
1070
   280
1070
     0
1070
   287
1070
     5
1070
   340
1005
500
1002
}
  0
DIMENSION
  5
56A
330
1F
100
AcDbEntity
  8
LAY-20
  6
CONTINUOUS
 62
     4
100
AcDbDimension
  2
*D23
 10
910.6705301214351
 20
783.742132778199
 30
0.0
 11
716.1705301213274
 21
808.7421327781989
 31
0.0
 70
   160
  3
ISO-25
100
AcDbAlignedDimension
 13
521.6705301212191
 23
683.7421327782082
 33
0.0
 14
910.6705301214351
 24
683.7421327782081
 34
0.0
100
AcDbRotatedDimension
1001
ACAD
1000
DSTYLE
1002
{
1070
   270
1070
     2
1070
     6
1000
EX_BNORM
1070
     7
1000
EX_BNORM
1070
    41
1040
25.0
1070
    42
1040
15.0
1070
    44
1040
15.0
1070
    73
1070
     0
1070
    74
1070
     0
1070
    75
1070
     0
1070
    76
1070
     0
1070
    77
1070
     1
1070
    78
1070
     8
1070
   140
1040
31.181104
1070
   147
1040
0.0
1070
   173
1070
     1
1070
   176
1070
     4
1070
   177
1070
     4
1070
   178
1070
     7
1070
   271
1070
     1
1070
   277
1070
     2
1070
   279
1070
     2
1070
   280
1070
     0
1070
   287
1070
     5
1070
   340
1005
500
1002
}
  0
DIMENSION
  5
577
330
1F
100
AcDbEntity
  8
LAY-20
  6
CONTINUOUS
 62
     4
100
AcDbDimension
  2
*D24
 10
1514.0
 20
683.7421327782
 30
0.0
 11
1489.0
 21
743.7421327781996
 31
0.0
 70
   160
  3
ISO-25
100
AcDbAlignedDimension
 13
1442.1705301213
 23
648.74213277819
 33
0.0
 14
1514.0
 24
683.7421327782
 34
0.0
 50
90.0
100
AcDbRotatedDimension
1001
ACAD
1000
DSTYLE
1002
{
1070
   270
1070
     2
1070
     6
1000
EX_BNORM
1070
     7
1000
EX_BNORM
1070
    41
1040
25.0
1070
    42
1040
15.0
1070
    44
1040
15.0
1070
    73
1070
     0
1070
    74
1070
     0
1070
    75
1070
     0
1070
    76
1070
     1
1070
    77
1070
     1
1070
    78
1070
     8
1070
   140
1040
31.181104
1070
   147
1040
0.0
1070
   173
1070
     1
1070
   176
1070
     4
1070
   177
1070
     4
1070
   178
1070
     7
1070
   271
1070
     1
1070
   277
1070
     2
1070
   279
1070
     2
1070
   280
1070
     2
1070
   287
1070
     5
1070
   340
1005
500
1002
}
  0
LINE
  5
585
330
1F
100
AcDbEntity
  8
LAY-255
  6
CONTINUOUS
 62
     7
100
AcDbLine
 10
3850.0
 20
219.9999999999999
 30
0.0
 11
2850.0
 21
219.9999999999999
 31
0.0
  0
LINE
  5
586
330
1F
100
AcDbEntity
  8
LAY-255
  6
CONTINUOUS
 62
     7
100
AcDbLine
 10
2888.0
 20
160.0
 30
0.0
 11
2968.0
 21
210.0
 31
0.0
  0
LINE
  5
587
330
1F
100
AcDbEntity
  8
LAY-255
  6
CONTINUOUS
 62
     7
100
AcDbLine
 10
2968.0
 20
210.0
 30
0.0
 11
3048.0
 21
160.0
 31
0.0
  0
LINE
  5
588
330
1F
100
AcDbEntity
  8
LAY-255
  6
CONTINUOUS
 62
     7
100
AcDbLine
 10
3048.0
 20
160.0
 30
0.0
 11
2968.0
 21
110.0
 31
0.0
  0
LINE
  5
589
330
1F
100
AcDbEntity
  8
LAY-255
  6
CONTINUOUS
 62
     7
100
AcDbLine
 10
2968.0
 20
110.0
 30
0.0
 11
2888.0
 21
160.0
 31
0.0
  0
LINE
  5
58A
330
1F
100
AcDbEntity
  8
LAY-255
  6
CONTINUOUS
 62
     7
100
AcDbLine
 10
50.0
 20
100.0
 30
0.0
 11
3850.0
 21
100.0
 31
0.0
  0
LINE
  5
58B
330
1F
100
AcDbEntity
  8
LAY-255
  6
CONTINUOUS
 62
     7
100
AcDbLine
 10
50.0
 20
2800.0
 30
0.0
 11
3850.0
 21
2800.0
 31
0.0
  0
LINE
  5
58C
330
1F
100
AcDbEntity
  8
LAY-255
  6
CONTINUOUS
 62
     7
100
AcDbLine
 10
50.0
 20
100.0
 30
0.0
 11
50.0
 21
2800.0
 31
0.0
  0
LINE
  5
58D
330
1F
100
AcDbEntity
  8
LAY-255
  6
CONTINUOUS
 62
     7
100
AcDbLine
 10
3850.0
 20
100.0
 30
0.0
 11
3850.0
 21
2800.0
 31
0.0
  0
LINE
  5
58E
330
1F
100
AcDbEntity
  8
LAY-255
  6
CONTINUOUS
 62
     4
100
AcDbLine
 10
2850.0
 20
279.9999999999999
 30
0.0
 11
3850.0
 21
279.9999999999999
 31
0.0
  0
LINE
  5
58F
330
1F
100
AcDbEntity
  8
LAY-255
  6
CONTINUOUS
 62
     7
100
AcDbLine
 10
2850.0
 20
100.0
 30
0.0
 11
2850.0
 21
670.0
 31
0.0
  0
POINT
  5
590
330
1F
100
AcDbEntity
  8
LAY-255
  6
CONTINUOUS
 62
     7
100
AcDbPoint
 10
2890.0
 20
399.9999999999999
 30
0.0
  0
LINE
  5
591
330
1F
100
AcDbEntity
  8
LAY-255
  6
CONTINUOUS
 62
     4
100
AcDbLine
 10
3350.0
 20
279.9999999999999
 30
0.0
 11
3350.0
 21
220.0
 31
0.0
  0
LINE
  5
592
330
1F
100
AcDbEntity
  8
LAY-255
  6
CONTINUOUS
 62
     7
100
AcDbLine
 10
3850.0
 20
670.0
 30
0.0
 11
2850.0
 21
670.0
 31
0.0
  0
LINE
  5
593
330
1F
100
AcDbEntity
  8
LAY-255
  6
CONTINUOUS
 62
     4
100
AcDbLine
 10
3830.0
 20
549.9999999999999
 30
0.0
 11
2870.0
 21
549.9999999999999
 31
0.0
  0
LINE
  5
594
330
1F
100
AcDbEntity
  8
LAY-255
  6
CONTINUOUS
 62
     4
100
AcDbLine
 10
3830.0
 20
610.0
 30
0.0
 11
2870.0
 21
610.0
 31
0.0
  0
POINT
  5
595
330
1F
100
AcDbEntity
  8
LAY-255
  6
CONTINUOUS
 62
     7
100
AcDbPoint
 10
2890.0
 20
499.9999999999999
 30
0.0
  0
POINT
  5
596
330
1F
100
AcDbEntity
  8
LAY-255
  6
CONTINUOUS
 62
     7
100
AcDbPoint
 10
3000.0
 20
559.9999999999999
 30
0.0
  0
POINT
  5
597
330
1F
100
AcDbEntity
  8
LAY-255
  6
CONTINUOUS
 62
     7
100
AcDbPoint
 10
3000.0
 20
620.0
 30
0.0
  0
POINT
  5
598
330
1F
100
AcDbEntity
  8
LAY-255
  6
CONTINUOUS
 62
     7
100
AcDbPoint
 10
2890.0
 20
349.9999999999999
 30
0.0
  0
POINT
  5
599
330
1F
100
AcDbEntity
  8
LAY-255
  6
CONTINUOUS
 62
     7
100
AcDbPoint
 10
2890.0
 20
449.9999999999999
 30
0.0
  0
POINT
  5
59A
330
1F
100
AcDbEntity
  8
LAY-255
  6
CONTINUOUS
 62
     7
100
AcDbPoint
 10
2890.0
 20
299.9999999999998
 30
0.0
  0
POINT
  5
59B
330
1F
100
AcDbEntity
  8
LAY-255
  6
CONTINUOUS
 62
     7
100
AcDbPoint
 10
2890.0
 20
349.9999999999999
 30
0.0
  0
TEXT
  5
59C
330
1F
100
AcDbEntity
  8
LAY-255
  6
CONTINUOUS
 62
     7
100
AcDbText
 10
3081.3837890625
 20
155.4375
 30
0.0
 40
51.5625
  1
福西鋳物株式会社
 41
1.342691999659091
  7
EXCADSTD
100
AcDbText
  0
TEXT
  5
59D
330
1F
100
AcDbEntity
  8
LAY-255
  6
CONTINUOUS
 62
     7
100
AcDbText
 10
3085.09375
 20
119.8125
 30
0.0
 40
17.1875
  1
ＦＵＫＵＮＩＳＨＩ
 41
1.204799226045263
  7
EXCADSTD
100
AcDbText
  0
TEXT
  5
59E
330
1F
100
AcDbEntity
  8
LAY-255
  6
CONTINUOUS
 62
     7
100
AcDbText
 10
3327.191964285714
 20
119.8125
 30
0.0
 40
17.1875
  1
ＦＯＵＮＤＲＹ
 41
1.243252752978497
  7
EXCADSTD
100
AcDbText
  0
TEXT
  5
59F
330
1F
100
AcDbEntity
  8
LAY-255
  6
CONTINUOUS
 62
     7
100
AcDbText
 10
3519.945914381009
 20
119.8125
 30
0.0
 40
17.1875
  1
ＣＯ.,ＬＴＤ.
 41
1.243831036226633
  7
EXCADSTD
100
AcDbText
  0
TEXT
  5
5A0
330
1F
100
AcDbEntity
  8
LAY-255
  6
CONTINUOUS
 62
     7
100
AcDbText
 10
2940.34375
 20
137.1875
 30
0.0
 40
51.5625
  1
S
 41
0.7582677563636363
  7
EXCADSTD
100
AcDbText
  0
TEXT
  5
5A1
330
1F
100
AcDbEntity
  8
LAY-255
  6
CONTINUOUS
 62
     7
100
AcDbText
 10
2971.046875
 20
137.4941037736
 30
0.0
 40
51.5625
  1
F
 41
0.7440945272727272
  7
EXCADSTD
100
AcDbText
  0
TEXT
  5
5A2
330
1F
100
AcDbEntity
  8
LAY-255
  6
CONTINUOUS
 62
     7
100
AcDbText
 10
3371.0546875
 20
244.2187499999999
 30
0.0
 40
25.78125
  1
縮尺
 41
1.080708718181818
  7
EXCADSTD
100
AcDbText
  0
TEXT
  5
5A3
330
1F
100
AcDbEntity
  8
LAY-255
  6
CONTINUOUS
 62
     7
100
AcDbText
 10
2872.65625
 20
565.6249999999999
 30
0.0
 40
34.375
  1
型式
 41
1.056348480681818
  7
EXCADSTD
100
AcDbText
  0
TEXT
  5
5A4
330
1F
100
AcDbEntity
  8
LAY-255
  6
CONTINUOUS
 62
     7
100
AcDbText
 10
2874.21875
 20
625.625
 30
0.0
 40
34.375
  1
品名
 41
0.9788386340909091
  7
EXCADSTD
100
AcDbText
  0
TEXT
  5
5A5
330
1F
100
AcDbEntity
  8
LAY-255
  6
CONTINUOUS
 62
     7
100
AcDbText
 10
2871.5234375
 20
244.2187499999999
 30
0.0
 40
25.78125
  1
作成日
 41
1.000629973818182
  7
EXCADSTD
100
AcDbText
  0
TEXT
  5
5A6
330
1F
100
AcDbEntity
  8
LAY-255
  6
CONTINUOUS
 62
     7
100
AcDbText
 10
2891.40625
 20
505.6249999999999
 30
0.0
 40
34.375
  1
材質：スチール
 41
1.029301719225037
  7
EXCADSTD
100
AcDbText
  0
TEXT
  5
5A7
330
1F
100
AcDbEntity
  8
LAY-255
  6
CONTINUOUS
 62
     7
100
AcDbText
 10
2892.03125
 20
405.6249999999999
 30
0.0
 40
34.375
  1
適用荷重：歩行用
 41
1.015410627012987
  7
EXCADSTD
100
AcDbText
  0
TEXT
  5
5A8
330
1F
100
AcDbEntity
  8
LAY-255
  6
CONTINUOUS
 62
     7
100
AcDbText
 10
3002.5
 20
625.625
 30
0.0
 40
34.375
  1
化粧用マシンハッチ
 41
1.014552031760644
  7
EXCADSTD
100
AcDbText
  0
TEXT
  5
5A9
330
1F
100
AcDbEntity
  8
LAY-255
  6
CONTINUOUS
 62
     7
100
AcDbText
 10
2892.03125
 20
355.6249999999999
 30
0.0
 40
34.375
  1
貼代：３５
 41
0.99542213615222
  7
EXCADSTD
100
AcDbText
  0
TEXT
  5
5AA
330
1F
100
AcDbEntity
  8
LAY-255
  6
CONTINUOUS
 62
     7
100
AcDbText
 10
2897.8125
 20
455.6249999999999
 30
0.0
 40
34.375
  1
目地：ステンレス鋼
 41
1.00154495443038
  7
EXCADSTD
100
AcDbText
  0
TEXT
  5
5AB
330
1F
100
AcDbEntity
  8
LAY-255
  6
CONTINUOUS
 62
     7
100
AcDbText
 10
3007.5
 20
565.6249999999999
 30
0.0
 40
34.375
  1
ＳＦ－１００ＢＭ－１Ｆ型
 41
1.00449418439108
  7
EXCADSTD
100
AcDbText
  0
TEXT
  5
5AC
330
1F
100
AcDbEntity
  8
LAY-255
  6
CONTINUOUS
 62
     7
100
AcDbText
 10
3009.84375
 20
235.6249999999999
 30
0.0
 40
34.375
  1
２０／０２／１０
 41
0.9769404337662339
  7
EXCADSTD
100
AcDbText
  0
TEXT
  5
5AD
330
1F
100
AcDbEntity
  8
LAY-255
  6
CONTINUOUS
 62
     7
100
AcDbText
 10
2892.65625
 20
305.6249999999999
 30
0.0
 40
34.375
  1
耐火材中蓋付き
 41
1.014779968107303
  7
EXCADSTD
100
AcDbText
  0
TEXT
  5
5AE
330
1F
100
AcDbEntity
  8
LAY-255
  6
CONTINUOUS
 62
     7
100
AcDbText
 10
3482.8125
 20
235.6249999999999
 30
0.0
 40
34.375
  1
１：１０
 41
0.9243863385026738
  7
EXCADSTD
100
AcDbText
  0
ENDSEC
  0
SECTION
  2
OBJECTS
  0
DICTIONARY
  5
C
330
0
100
AcDbDictionary
  3
ACAD_GROUP
350
D
  3
ACAD_LAYOUT
350
1A
  3
ACAD_MATERIAL
350
43
  3
ACAD_MLEADERSTYLE
350
6B
  3
ACAD_MLINESTYLE
350
17
  3
ACAD_PLOTSETTINGS
350
19
  3
ACAD_SCALELIST
350
47
  3
ACAD_VISUALSTYLE
350
2A
  3
ACDBHEADERROUNDTRIPXREC
350
5AF
  3
ACDBVARIABLEDICTIONARY
350
5D0
  0
DICTIONARY
  5
5DB
330
8
100
AcDbDictionary
280
     1
  3
ACAD_XREC_ROUNDTRIP
360
5DC
  0
DICTIONARY
  5
D
102
{ACAD_REACTORS
330
C
102
}
330
C
100
AcDbDictionary
  0
DICTIONARY
  5
1A
102
{ACAD_REACTORS
330
C
102
}
330
C
100
AcDbDictionary
  0
DICTIONARY
  5
43
102
{ACAD_REACTORS
330
C
102
}
330
C
100
AcDbDictionary
  3
BYBLOCK
350
45
  3
BYLAYER
350
44
  3
GLOBAL
350
46
  0
DICTIONARY
  5
6B
102
{ACAD_REACTORS
330
C
102
}
330
C
100
AcDbDictionary
  3
STANDARD
350
6C
  0
DICTIONARY
  5
17
102
{ACAD_REACTORS
330
C
102
}
330
C
100
AcDbDictionary
  3
STANDARD
350
18
  0
DICTIONARY
  5
19
102
{ACAD_REACTORS
330
C
102
}
330
C
100
AcDbDictionary
  0
DICTIONARY
  5
47
102
{ACAD_REACTORS
330
C
102
}
330
C
100
AcDbDictionary
  3
A0
350
48
  3
A1
350
49
  3
A2
350
4A
  3
A3
350
4B
  3
A4
350
4C
  3
A5
350
4D
  3
A6
350
4E
  3
A7
350
4F
  3
A8
350
50
  3
A9
350
51
  3
B0
350
52
  3
B1
350
53
  3
B2
350
54
  3
B3
350
55
  3
B4
350
56
  3
B5
350
57
  3
B6
350
58
  3
B7
350
59
  3
B8
350
5A
  3
B9
350
5B
  3
C0
350
5C
  3
C1
350
5D
  3
C2
350
5E
  3
C3
350
5F
  3
C4
350
60
  3
C5
350
61
  3
C6
350
62
  3
C7
350
63
  3
C8
350
64
  3
C9
350
65
  3
D0
350
66
  3
D1
350
67
  3
D2
350
68
  0
DICTIONARY
  5
2A
102
{ACAD_REACTORS
330
C
102
}
330
C
100
AcDbDictionary
  3
2DWIREFRAME
350
2F
  3
BASIC
350
32
  3
BRIGHTEN
350
36
  3
COLORCHANGE
350
3A
  3
CONCEPTUAL
350
34
  3
DIM
350
35
  3
EDGECOLOROFF
350
3D
  3
FACEPATTERN
350
39
  3
FLAT
350
2B
  3
FLATWITHEDGES
350
2C
  3
GOURAUD
350
2D
  3
GOURAUDWITHEDGES
350
2E
  3
HIDDEN
350
31
  3
JITTEROFF
350
3B
  3
LINEPATTERN
350
38
  3
OVERHANGOFF
350
3C
  3
REALISTIC
350
33
  3
SHADED
350
42
  3
SHADED_WITH_EDGES
350
41
  3
SHADES_OF_GRAY
350
3E
  3
SKETCHY
350
3F
  3
THICKEN
350
37
  3
WIREFRAME
350
30
  3
X-RAY
350
40
  0
DICTIONARY
  5
5AF
102
{ACAD_REACTORS
330
C
102
}
330
C
100
AcDbDictionary
  3
CEPSNID
350
5B9
  3
CEPSNTYPE
350
5B8
  3
DIMSTYLEDATA
350
5CF
  3
FINGERPRINTGUID
350
5BA
  3
HYPERLINKBASE
350
5B2
  3
INSUNITS
350
5B7
  3
LAYOUTDICT
350
5B4
  3
LWETCUNION
350
5B6
  3
PLOTSETDICT
350
5B5
  3
PSVPSCALE
350
5BC
  3
PUCSBASE
350
5BF
  3
PUCSORGBACK
350
5C5
  3
PUCSORGBOTTOM
350
5C1
  3
PUCSORGFRONT
350
5C4
  3
PUCSORGLEFT
350
5C2
  3
PUCSORGRIGHT
350
5C3
  3
PUCSORGTOP
350
5C0
  3
PUCSORTHOREF
350
5BD
  3
PUCSORTHOVIEW
350
5BE
  3
STYLESHEET
350
5B3
  3
TSTACKALIGN
350
5B0
  3
TSTACKSIZE
350
5B1
  3
UCSBASE
350
5C8
  3
UCSORGBACK
350
5CE
  3
UCSORGBOTTOM
350
5CA
  3
UCSORGFRONT
350
5CD
  3
UCSORGLEFT
350
5CB
  3
UCSORGRIGHT
350
5CC
  3
UCSORGTOP
350
5C9
  3
UCSORTHOREF
350
5C6
  3
UCSORTHOVIEW
350
5C7
  3
VERSIONGUID
350
5BB
  0
DICTIONARY
  5
5D0
102
{ACAD_REACTORS
330
C
102
}
330
C
100
AcDbDictionary
  3
CANNOSCALE
350
5DD
  3
CENTEREXE
350
5D7
  3
CENTERLTYPEFILE
350
5D8
  3
CMLEADERSTYLE
350
5D2
  3
CTABLESTYLE
350
5D1
  3
DIMASSOC
350
5D9
  3
HIDETEXT
350
5DA
  3
MSLTSCALE
350
5DE
  3
PSOLHEIGHT
350
5D4
  3
PSOLWIDTH
350
5D3
  0
XRECORD
  5
5DC
102
{ACAD_REACTORS
330
5DB
102
}
330
5DB
100
AcDbXrecord
102
VTR_0.000_0.000_1.000_1.000_VISUALSTYLE
340
2F
102
VTR_0.000_0.000_1.000_1.000_GRIDDISPLAY
 70
     3
102
VTR_0.000_0.000_1.000_1.000_GRIDMAJOR
 70
     5
102
VTR_0.000_0.000_1.000_1.000_DEFAULTLIGHTING
280
     1
102
VTR_0.000_0.000_1.000_1.000_DEFAULTLIGHTINGTYPE
 70
     1
102
VTR_0.000_0.000_1.000_1.000_BRIGHTNESS
141
0.0
102
VTR_0.000_0.000_1.000_1.000_CONTRAST
142
0.0
  0
MATERIAL
  5
45
102
{ACAD_REACTORS
330
43
102
}
102
{ACAD_XDICTIONARY
360
5E1
102
}
330
43
100
AcDbMaterial
  1
BYBLOCK
  0
MATERIAL
  5
44
102
{ACAD_REACTORS
330
43
102
}
102
{ACAD_XDICTIONARY
360
5DF
102
}
330
43
100
AcDbMaterial
  1
BYLAYER
  0
MATERIAL
  5
46
102
{ACAD_REACTORS
330
43
102
}
102
{ACAD_XDICTIONARY
360
5E3
102
}
330
43
100
AcDbMaterial
  1
GLOBAL
  0
ACAD_PROXY_OBJECT
  5
6C
102
{ACAD_REACTORS
330
6B
102
}
330
6B
100
AcDbProxyObject
 90
      499
 91
      505
 93
      610
310
40901902A4063FBFFFFFE0000000000000020400000000000020404214DD185B99185C990000000000000104090141901A00000000000004100000000000000041025764000000000000039000
340
14
340
0
340
11
340
0
 94
        0
1001
ACAD_MLEADERVER
1070
     2
  0
MLINESTYLE
  5
18
102
{ACAD_REACTORS
330
17
102
}
330
17
100
AcDbMlineStyle
  2
Standard
 70
     0
  3

 62
   256
 51
90.0
 52
90.0
 71
     2
 49
0.5
 62
   256
  6
BYLAYER
 49
-0.5
 62
   256
  6
BYLAYER
  0
ACAD_PROXY_OBJECT
  5
48
102
{ACAD_REACTORS
330
47
102
}
330
47
100
AcDbProxyObject
 90
      499
 91
      503
 93
       41
310
903313A31580
  0
ACAD_PROXY_OBJECT
  5
49
102
{ACAD_REACTORS
330
47
102
}
330
47
100
AcDbProxyObject
 90
      499
 91
      503
 93
      105
310
903313A324000000000000004000
  0
ACAD_PROXY_OBJECT
  5
4A
102
{ACAD_REACTORS
330
47
102
}
330
47
100
AcDbProxyObject
 90
      499
 91
      503
 93
      105
310
903313A344000000000000104000
  0
ACAD_PROXY_OBJECT
  5
4B
102
{ACAD_REACTORS
330
47
102
}
330
47
100
AcDbProxyObject
 90
      499
 91
      503
 93
      105
310
903313A354000000000000144000
  0
ACAD_PROXY_OBJECT
  5
4C
102
{ACAD_REACTORS
330
47
102
}
330
47
100
AcDbProxyObject
 90
      499
 91
      503
 93
      105
310
903313A384000000000000204000
  0
ACAD_PROXY_OBJECT
  5
4D
102
{ACAD_REACTORS
330
47
102
}
330
47
100
AcDbProxyObject
 90
      499
 91
      503
 93
      113
310
904313A31304000000000000244000
  0
ACAD_PROXY_OBJECT
  5
4E
102
{ACAD_REACTORS
330
47
102
}
330
47
100
AcDbProxyObject
 90
      499
 91
      503
 93
      113
310
904313A31364000000000000304000
  0
ACAD_PROXY_OBJECT
  5
4F
102
{ACAD_REACTORS
330
47
102
}
330
47
100
AcDbProxyObject
 90
      499
 91
      503
 93
      113
310
904313A32304000000000000344000
  0
ACAD_PROXY_OBJECT
  5
50
102
{ACAD_REACTORS
330
47
102
}
330
47
100
AcDbProxyObject
 90
      499
 91
      503
 93
      113
310
904313A333040000000000003E4000
  0
ACAD_PROXY_OBJECT
  5
51
102
{ACAD_REACTORS
330
47
102
}
330
47
100
AcDbProxyObject
 90
      499
 91
      503
 93
      113
310
904313A34304000000000000444000
  0
ACAD_PROXY_OBJECT
  5
52
102
{ACAD_REACTORS
330
47
102
}
330
47
100
AcDbProxyObject
 90
      499
 91
      503
 93
      113
310
904313A35304000000000000494000
  0
ACAD_PROXY_OBJECT
  5
53
102
{ACAD_REACTORS
330
47
102
}
330
47
100
AcDbProxyObject
 90
      499
 91
      503
 93
      121
310
905313A3130304000000000000594000
  0
ACAD_PROXY_OBJECT
  5
54
102
{ACAD_REACTORS
330
47
102
}
330
47
100
AcDbProxyObject
 90
      499
 91
      503
 93
      105
310
903323A310000000000000010100
  0
ACAD_PROXY_OBJECT
  5
55
102
{ACAD_REACTORS
330
47
102
}
330
47
100
AcDbProxyObject
 90
      499
 91
      503
 93
      105
310
903343A310000000000000410100
  0
ACAD_PROXY_OBJECT
  5
56
102
{ACAD_REACTORS
330
47
102
}
330
47
100
AcDbProxyObject
 90
      499
 91
      503
 93
      105
310
903383A310000000000000810100
  0
ACAD_PROXY_OBJECT
  5
57
102
{ACAD_REACTORS
330
47
102
}
330
47
100
AcDbProxyObject
 90
      499
 91
      503
 93
      113
310
90431303A310000000000000910100
  0
ACAD_PROXY_OBJECT
  5
58
102
{ACAD_REACTORS
330
47
102
}
330
47
100
AcDbProxyObject
 90
      499
 91
      503
 93
      121
310
9053130303A310000000000001650100
  0
ACAD_PROXY_OBJECT
  5
59
102
{ACAD_REACTORS
330
47
102
}
330
47
100
AcDbProxyObject
 90
      499
 91
      503
 93
      257
310
90E312F31323822203D2031272D3022000000000000200FC000000000000284000
  0
ACAD_PROXY_OBJECT
  5
5A
102
{ACAD_REACTORS
330
47
102
}
330
47
100
AcDbProxyObject
 90
      499
 91
      503
 93
      249
310
90D312F363422203D2031272D3022000000000000240FC000000000000284000
  0
ACAD_PROXY_OBJECT
  5
5B
102
{ACAD_REACTORS
330
47
102
}
330
47
100
AcDbProxyObject
 90
      499
 91
      503
 93
      249
310
90D312F333222203D2031272D3022000000000000280FC000000000000284000
  0
ACAD_PROXY_OBJECT
  5
5C
102
{ACAD_REACTORS
330
47
102
}
330
47
100
AcDbProxyObject
 90
      499
 91
      503
 93
      249
310
90D312F313622203D2031272D30220000000000002C0FC000000000000284000
  0
ACAD_PROXY_OBJECT
  5
5D
102
{ACAD_REACTORS
330
47
102
}
330
47
100
AcDbProxyObject
 90
      499
 91
      503
 93
      249
310
90D332F333222203D2031272D30220000000000002E0FC000000000000284000
  0
ACAD_PROXY_OBJECT
  5
5E
102
{ACAD_REACTORS
330
47
102
}
330
47
100
AcDbProxyObject
 90
      499
 91
      503
 93
      241
310
90C312F3822203D2031272D3022000000000000300FC000000000000284000
  0
ACAD_PROXY_OBJECT
  5
5F
102
{ACAD_REACTORS
330
47
102
}
330
47
100
AcDbProxyObject
 90
      499
 91
      503
 93
      249
310
90D332F313622203D2031272D3022000000000000320FC000000000000284000
  0
ACAD_PROXY_OBJECT
  5
60
102
{ACAD_REACTORS
330
47
102
}
330
47
100
AcDbProxyObject
 90
      499
 91
      503
 93
      241
310
90C312F3422203D2031272D3022000000000000340FC000000000000284000
  0
ACAD_PROXY_OBJECT
  5
61
102
{ACAD_REACTORS
330
47
102
}
330
47
100
AcDbProxyObject
 90
      499
 91
      503
 93
      241
310
90C332F3822203D2031272D3022000000000000360FC000000000000284000
  0
ACAD_PROXY_OBJECT
  5
62
102
{ACAD_REACTORS
330
47
102
}
330
47
100
AcDbProxyObject
 90
      499
 91
      503
 93
      241
310
90C312F3222203D2031272D3022000000000000380FC000000000000284000
  0
ACAD_PROXY_OBJECT
  5
63
102
{ACAD_REACTORS
330
47
102
}
330
47
100
AcDbProxyObject
 90
      499
 91
      503
 93
      241
310
90C332F3422203D2031272D30220000000000003A0FC000000000000284000
  0
ACAD_PROXY_OBJECT
  5
64
102
{ACAD_REACTORS
330
47
102
}
330
47
100
AcDbProxyObject
 90
      499
 91
      503
 93
      161
310
90A3122203D2031272D30224000000000000284000
  0
ACAD_PROXY_OBJECT
  5
65
102
{ACAD_REACTORS
330
47
102
}
330
47
100
AcDbProxyObject
 90
      499
 91
      503
 93
      257
310
90E312D312F3222203D2031272D30220000000000003E0FC000000000000284000
  0
ACAD_PROXY_OBJECT
  5
66
102
{ACAD_REACTORS
330
47
102
}
330
47
100
AcDbProxyObject
 90
      499
 91
      503
 93
      225
310
90A3322203D2031272D302200000000000002100000000000000284000
  0
ACAD_PROXY_OBJECT
  5
67
102
{ACAD_REACTORS
330
47
102
}
330
47
100
AcDbProxyObject
 90
      499
 91
      503
 93
      225
310
90A3622203D2031272D302200000000000006100000000000000284000
  0
ACAD_PROXY_OBJECT
  5
68
102
{ACAD_REACTORS
330
47
102
}
330
47
100
AcDbProxyObject
 90
      499
 91
      503
 93
      249
310
90D31272D3022203D2031272D30220000000000000A100000000000000284000
  0
ACAD_PROXY_OBJECT
  5
2F
102
{ACAD_REACTORS
330
2A
102
}
330
2A
100
AcDbProxyObject
 90
      499
 91
      501
 93
      436
310
42CC9915DA5C99599C985B595049028333333333333E33F0000000000000F90107901411070040501600405405064090741402480A0340
1001
ACAD
1000
AcDbSavedByObjectVersion
1070
     0
  0
ACAD_PROXY_OBJECT
  5
32
102
{ACAD_REACTORS
330
2A
102
}
330
2A
100
AcDbProxyObject
 90
      499
 91
      501
 93
      388
310
4150985CDA58D07406404333333333333E33F0000000000000F90107A41107004050150841D405064090741402480A0350
1001
ACAD
1000
AcDbSavedByObjectVersion
1070
     0
  0
ACAD_PROXY_OBJECT
  5
36
102
{ACAD_REACTORS
330
2A
102
}
330
2A
100
AcDbProxyObject
 90
      499
 91
      501
 93
      428
310
42109C9A59DA1D195B90C409028333333333333E33F0000000000000F9010790141107004050150841D405064090741402480A029950
1001
ACAD
1000
AcDbSavedByObjectVersion
1070
     0
  0
ACAD_PROXY_OBJECT
  5
3A
102
{ACAD_REACTORS
330
2A
102
}
330
2A
100
AcDbProxyObject
 90
      499
 91
      501
 93
      452
310
42D0DBDB1BDC90DA185B99D95104090240C333333333333E33F0000000000000F90108901411070040501508421405064090741402480A0350
1001
ACAD
1000
AcDbSavedByObjectVersion
1070
     0
  0
ACAD_PROXY_OBJECT
  5
34
102
{ACAD_REACTORS
330
2A
102
}
330
2A
100
AcDbProxyObject
 90
      499
 91
      501
 93
      500
310
4290DBDB98D95C1D1D585B10940D028333333333333E33F0000000000000F90107902409070040501000000000018199010841D405064090740C02480A0340
1001
ACAD
1000
AcDbSavedByObjectVersion
1070
     0
  0
ACAD_PROXY_OBJECT
  5
35
102
{ACAD_REACTORS
330
2A
102
}
330
2A
100
AcDbProxyObject
 90
      499
 91
      501
 93
      412
310
40D11A5B50B409028333333333333E33F0000000000000F9010790141107004050150841D405064090741402480A02677FFFFFD0
1001
ACAD
1000
AcDbSavedByObjectVersion
1070
     0
  0
ACAD_PROXY_OBJECT
  5
3D
102
{ACAD_REACTORS
330
2A
102
}
330
2A
100
AcDbProxyObject
 90
      499
 91
      501
 93
      452
310
43115919D950DBDB1BDC93D999916409028333333333333E33F0000000000000F9010790141107004050150841D405064090741402480A0350
1001
ACAD
1000
AcDbSavedByObjectVersion
1070
     0
  0
ACAD_PROXY_OBJECT
  5
39
102
{ACAD_REACTORS
330
2A
102
}
330
2A
100
AcDbProxyObject
 90
      499
 91
      501
 93
      444
310
42D19858D95C185D1D195C9B90F409028333333333333E33F0000000000000F9010790141107004050150841D405064090741402480A0350
1001
ACAD
1000
AcDbSavedByObjectVersion
1070
     0
  0
ACAD_PROXY_OBJECT
  5
2B
102
{ACAD_REACTORS
330
2A
102
}
330
2A
100
AcDbProxyObject
 90
      499
 91
      501
 93
      380
310
41119B185D240901404333333333333E33F0000000000000F9010740A907004050150841D405064090741402480A1B50
1001
ACAD
1000
AcDbSavedByObjectVersion
1070
     0
  0
ACAD_PROXY_OBJECT
  5
2C
102
{ACAD_REACTORS
330
2A
102
}
330
2A
100
AcDbProxyObject
 90
      499
 91
      501
 93
      468
310
43519B185D15DA5D1A115919D95CD0140901404333333333333E33F0000000000000F90107409019070040501600405405064090741402480A1B50
1001
ACAD
1000
AcDbSavedByObjectVersion
1070
     0
  0
ACAD_PROXY_OBJECT
  5
2D
102
{ACAD_REACTORS
330
2A
102
}
330
2A
100
AcDbProxyObject
 90
      499
 91
      501
 93
      404
310
41D1DBDD5C985D5910240902404333333333333E33F0000000000000F9010740A9070040501641D405064090741402480A1B50
1001
ACAD
1000
AcDbSavedByObjectVersion
1070
     0
  0
ACAD_PROXY_OBJECT
  5
2E
102
{ACAD_REACTORS
330
2A
102
}
330
2A
100
AcDbProxyObject
 90
      499
 91
      501
 93
      492
310
4411DBDD5C985D5915DA5D1A115919D95CD0340902404333333333333E33F0000000000000F90107409019070040501600405405064090741402480A1B50
1001
ACAD
1000
AcDbSavedByObjectVersion
1070
     0
  0
ACAD_PROXY_OBJECT
  5
31
102
{ACAD_REACTORS
330
2A
102
}
330
2A
100
AcDbProxyObject
 90
      499
 91
      501
 93
      476
310
41921A5919195B90640502408333333333333E33F0000000000000F901079024090700405020000000000001110200405405064090740C02480A0340
1001
ACAD
1000
AcDbSavedByObjectVersion
1070
     0
  0
ACAD_PROXY_OBJECT
  5
3B
102
{ACAD_REACTORS
330
2A
102
}
330
2A
100
AcDbProxyObject
 90
      499
 91
      501
 93
      428
310
42529A5D1D195C93D999914409028333333333333E33F0000000000000F9010790141107004050150A41D405064090741402480A0350
1001
ACAD
1000
AcDbSavedByObjectVersion
1070
     0
  0
ACAD_PROXY_OBJECT
  5
38
102
{ACAD_REACTORS
330
2A
102
}
330
2A
100
AcDbProxyObject
 90
      499
 91
      501
 93
      444
310
42D31A5B995C185D1D195C9B90E409028333333333333E33F0000000000000F9010790141107004050750841D405064090741402483A0350
1001
ACAD
1000
AcDbSavedByObjectVersion
1070
     0
  0
ACAD_PROXY_OBJECT
  5
3C
102
{ACAD_REACTORS
330
2A
102
}
330
2A
100
AcDbProxyObject
 90
      499
 91
      501
 93
      444
310
42D3DD995C9A185B99D3D999915409028333333333333E33F0000000000000F9010790141107004050150941D405064090741402480A0350
1001
ACAD
1000
AcDbSavedByObjectVersion
1070
     0
  0
ACAD_PROXY_OBJECT
  5
33
102
{ACAD_REACTORS
330
2A
102
}
330
2A
100
AcDbProxyObject
 90
      499
 91
      501
 93
      428
310
425499585B1A5CDD1A58D08409038333333333333E33F0000000000000F9010740A907004050150800405405064090740C02480A1B40
1001
ACAD
1000
AcDbSavedByObjectVersion
1070
     0
  0
ACAD_PROXY_OBJECT
  5
42
102
{ACAD_REACTORS
330
2A
102
}
330
2A
100
AcDbProxyObject
 90
      499
 91
      501
 93
      420
310
4194DA1859195911B40902404333333333333E33F0000000000000F9010740A41107004050150800405405064090840C02480A0B40
1001
ACAD
1000
AcDbSavedByObjectVersion
1070
     0
  0
ACAD_PROXY_OBJECT
  5
41
102
{ACAD_REACTORS
330
2A
102
}
330
2A
100
AcDbProxyObject
 90
      499
 91
      501
 93
      516
310
4454DA18591959081DDA5D1A08195919D95CD1A40902404333333333333E33F0000000000000F901074090142907004050250800405405064090740C02480A0B40
1001
ACAD
1000
AcDbSavedByObjectVersion
1070
     0
  0
ACAD_PROXY_OBJECT
  5
3E
102
{ACAD_REACTORS
330
2A
102
}
330
2A
100
AcDbProxyObject
 90
      499
 91
      501
 93
      532
310
4394DA1859195CC81BD98811DC985E5174090240C333333333333E33F0000000000000F901079024090741D01000000000000111010841D405064090740C02480A0340
1001
ACAD
1000
AcDbSavedByObjectVersion
1070
     0
  0
ACAD_PROXY_OBJECT
  5
3F
102
{ACAD_REACTORS
330
2A
102
}
330
2A
100
AcDbProxyObject
 90
      499
 91
      501
 93
      476
310
41D4DAD95D18DA1E51840502408333333333333E33F0000000000000F901079024090741D01000000000000111010B41D405064090741802480A0340
1001
ACAD
1000
AcDbSavedByObjectVersion
1070
     0
  0
ACAD_PROXY_OBJECT
  5
37
102
{ACAD_REACTORS
330
2A
102
}
330
2A
100
AcDbProxyObject
 90
      499
 91
      501
 93
      412
310
41D51A1A58DAD95B90D409028333333333333E33F0000000000000F9010790141107004050150C41D405064090741402480A0350
1001
ACAD
1000
AcDbSavedByObjectVersion
1070
     0
  0
ACAD_PROXY_OBJECT
  5
30
102
{ACAD_REACTORS
330
2A
102
}
330
2A
100
AcDbProxyObject
 90
      499
 91
      501
 93
      420
310
4255DA5C99599C985B595059028333333333333E33F0000000000000F90107901411070040501600405405064090740C02480A0340
1001
ACAD
1000
AcDbSavedByObjectVersion
1070
     0
  0
ACAD_PROXY_OBJECT
  5
40
102
{ACAD_REACTORS
330
2A
102
}
330
2A
100
AcDbProxyObject
 90
      499
 91
      501
 93
      404
310
41560B54985E51940902404000000000000E03F0000000000000F9010740501907004050150841D405064090740C02480A1B40
1001
ACAD
1000
AcDbSavedByObjectVersion
1070
     0
  0
XRECORD
  5
5B9
102
{ACAD_REACTORS
330
5AF
102
}
330
5AF
100
AcDbXrecord
340
0
  0
XRECORD
  5
5B8
102
{ACAD_REACTORS
330
5AF
102
}
330
5AF
100
AcDbXrecord
 90
        0
  0
XRECORD
  5
5CF
102
{ACAD_REACTORS
330
5AF
102
}
330
5AF
100
AcDbXrecord
1000
DSTYLE
1002
{
1070
   340
340
11
1002
}
  0
XRECORD
  5
5BA
102
{ACAD_REACTORS
330
5AF
102
}
330
5AF
100
AcDbXrecord
  1
{c3690020-7682-47ce-bfd1-a0c8074be20c}
  0
XRECORD
  5
5B2
102
{ACAD_REACTORS
330
5AF
102
}
330
5AF
100
AcDbXrecord
  1

  0
XRECORD
  5
5B7
102
{ACAD_REACTORS
330
5AF
102
}
330
5AF
100
AcDbXrecord
 90
        4
  0
XRECORD
  5
5B4
102
{ACAD_REACTORS
330
5AF
102
}
330
5AF
100
AcDbXrecord
340
1A
  0
XRECORD
  5
5B6
102
{ACAD_REACTORS
330
5AF
102
}
330
5AF
100
AcDbXrecord
 90
    10781
  0
XRECORD
  5
5B5
102
{ACAD_REACTORS
330
5AF
102
}
330
5AF
100
AcDbXrecord
340
19
  0
XRECORD
  5
5BC
102
{ACAD_REACTORS
330
5AF
102
}
330
5AF
100
AcDbXrecord
 40
0.0
  0
XRECORD
  5
5BF
102
{ACAD_REACTORS
330
5AF
102
}
330
5AF
100
AcDbXrecord
340
0
  0
XRECORD
  5
5C5
102
{ACAD_REACTORS
330
5AF
102
}
330
5AF
100
AcDbXrecord
 10
0.0
 20
0.0
 30
0.0
  0
XRECORD
  5
5C1
102
{ACAD_REACTORS
330
5AF
102
}
330
5AF
100
AcDbXrecord
 10
0.0
 20
0.0
 30
0.0
  0
XRECORD
  5
5C4
102
{ACAD_REACTORS
330
5AF
102
}
330
5AF
100
AcDbXrecord
 10
0.0
 20
0.0
 30
0.0
  0
XRECORD
  5
5C2
102
{ACAD_REACTORS
330
5AF
102
}
330
5AF
100
AcDbXrecord
 10
0.0
 20
0.0
 30
0.0
  0
XRECORD
  5
5C3
102
{ACAD_REACTORS
330
5AF
102
}
330
5AF
100
AcDbXrecord
 10
0.0
 20
0.0
 30
0.0
  0
XRECORD
  5
5C0
102
{ACAD_REACTORS
330
5AF
102
}
330
5AF
100
AcDbXrecord
 10
0.0
 20
0.0
 30
0.0
  0
XRECORD
  5
5BD
102
{ACAD_REACTORS
330
5AF
102
}
330
5AF
100
AcDbXrecord
340
0
  0
XRECORD
  5
5BE
102
{ACAD_REACTORS
330
5AF
102
}
330
5AF
100
AcDbXrecord
 70
     0
  0
XRECORD
  5
5B3
102
{ACAD_REACTORS
330
5AF
102
}
330
5AF
100
AcDbXrecord
  1

  0
XRECORD
  5
5B0
102
{ACAD_REACTORS
330
5AF
102
}
330
5AF
100
AcDbXrecord
 90
        1
  0
XRECORD
  5
5B1
102
{ACAD_REACTORS
330
5AF
102
}
330
5AF
100
AcDbXrecord
 90
       70
  0
XRECORD
  5
5C8
102
{ACAD_REACTORS
330
5AF
102
}
330
5AF
100
AcDbXrecord
340
0
  0
XRECORD
  5
5CE
102
{ACAD_REACTORS
330
5AF
102
}
330
5AF
100
AcDbXrecord
 10
0.0
 20
0.0
 30
0.0
  0
XRECORD
  5
5CA
102
{ACAD_REACTORS
330
5AF
102
}
330
5AF
100
AcDbXrecord
 10
0.0
 20
0.0
 30
0.0
  0
XRECORD
  5
5CD
102
{ACAD_REACTORS
330
5AF
102
}
330
5AF
100
AcDbXrecord
 10
0.0
 20
0.0
 30
0.0
  0
XRECORD
  5
5CB
102
{ACAD_REACTORS
330
5AF
102
}
330
5AF
100
AcDbXrecord
 10
0.0
 20
0.0
 30
0.0
  0
XRECORD
  5
5CC
102
{ACAD_REACTORS
330
5AF
102
}
330
5AF
100
AcDbXrecord
 10
0.0
 20
0.0
 30
0.0
  0
XRECORD
  5
5C9
102
{ACAD_REACTORS
330
5AF
102
}
330
5AF
100
AcDbXrecord
 10
0.0
 20
0.0
 30
0.0
  0
XRECORD
  5
5C6
102
{ACAD_REACTORS
330
5AF
102
}
330
5AF
100
AcDbXrecord
340
0
  0
XRECORD
  5
5C7
102
{ACAD_REACTORS
330
5AF
102
}
330
5AF
100
AcDbXrecord
 70
     0
  0
XRECORD
  5
5BB
102
{ACAD_REACTORS
330
5AF
102
}
330
5AF
100
AcDbXrecord
  1
{FAEB1C32-E019-11D5-929B-00C0DF256EC4}
  0
DICTIONARYVAR
  5
5DD
102
{ACAD_REACTORS
330
5D0
102
}
330
5D0
100
DictionaryVariables
280
     0
  1
1:1
  0
DICTIONARYVAR
  5
5D7
102
{ACAD_REACTORS
330
5D0
102
}
330
5D0
100
DictionaryVariables
280
     0
  1
3.500000
  0
DICTIONARYVAR
  5
5D8
102
{ACAD_REACTORS
330
5D0
102
}
330
5D0
100
DictionaryVariables
280
     0
  1
acadiso.lin
  0
DICTIONARYVAR
  5
5D2
102
{ACAD_REACTORS
330
5D0
102
}
330
5D0
100
DictionaryVariables
280
     0
  1
Standard
  0
DICTIONARYVAR
  5
5D1
102
{ACAD_REACTORS
330
5D0
102
}
330
5D0
100
DictionaryVariables
280
     0
  1
Standard
  0
DICTIONARYVAR
  5
5D9
102
{ACAD_REACTORS
330
5D0
102
}
330
5D0
100
DictionaryVariables
280
     0
  1
2
  0
DICTIONARYVAR
  5
5DA
102
{ACAD_REACTORS
330
5D0
102
}
330
5D0
100
DictionaryVariables
280
     0
  1
1
  0
DICTIONARYVAR
  5
5DE
102
{ACAD_REACTORS
330
5D0
102
}
330
5D0
100
DictionaryVariables
280
     0
  1
1
  0
DICTIONARYVAR
  5
5D4
102
{ACAD_REACTORS
330
5D0
102
}
330
5D0
100
DictionaryVariables
280
     0
  1
80.000000
  0
DICTIONARYVAR
  5
5D3
102
{ACAD_REACTORS
330
5D0
102
}
330
5D0
100
DictionaryVariables
280
     0
  1
5.000000
  0
DICTIONARY
  5
5E1
330
45
100
AcDbDictionary
280
     1
  3
ACAD_XREC_ROUNDTRIP
360
5E2
  0
DICTIONARY
  5
5DF
330
44
100
AcDbDictionary
280
     1
  3
ACAD_XREC_ROUNDTRIP
360
5E0
  0
DICTIONARY
  5
5E3
330
46
100
AcDbDictionary
280
     1
  3
ACAD_XREC_ROUNDTRIP
360
5E4
  0
XRECORD
  5
5E2
102
{ACAD_REACTORS
330
5E1
102
}
330
5E1
100
AcDbXrecord
102
MATERIAL
148
0.0
149
0.0
149
0.0
 93
        0
 94
      127
282
     0
 72
     1
 77
     1
171
     1
175
     1
179
     1
273
     0
  0
XRECORD
  5
5E0
102
{ACAD_REACTORS
330
5DF
102
}
330
5DF
100
AcDbXrecord
102
MATERIAL
148
0.0
149
0.0
149
0.0
 93
        0
 94
      127
282
     0
 72
     1
 77
     1
171
     1
175
     1
179
     1
273
     0
  0
XRECORD
  5
5E4
102
{ACAD_REACTORS
330
5E3
102
}
330
5E3
100
AcDbXrecord
102
MATERIAL
148
0.0
149
0.0
149
0.0
 93
        0
 94
      127
282
     0
 72
     1
 77
     1
171
     1
175
     1
179
     1
273
     0
  0
ENDSEC
  0
EOF
