  0
SECTION
  2
HEADER
  9
$ACADVER
  1
AC1014
  9
$ACADMAINTVER
 70
     9
  9
$DWGCODEPAGE
  3
ANSI_932
  9
$INSBASE
 10
0.0
 20
0.0
 30
0.0
  9
$EXTMIN
 10
50.0
 20
100.0
 30
0.0
  9
$EXTMAX
 10
3850.0
 20
2800.0
 30
0.0
  9
$LIMMIN
 10
0.0
 20
0.0
  9
$LIMMAX
 10
420.0
 20
297.0
  9
$ORTHOMODE
 70
     0
  9
$REGENMODE
 70
     1
  9
$FILLMODE
 70
     1
  9
$QTEXTMODE
 70
     0
  9
$MIRRTEXT
 70
     1
  9
$DRAGMODE
 70
     2
  9
$LTSCALE
 40
0.2
  9
$OSMODE
 70
    37
  9
$ATTMODE
 70
     1
  9
$TEXTSIZE
 40
2.5
  9
$TRACEWID
 40
1.0
  9
$TEXTSTYLE
  7
STANDARD
  9
$CLAYER
  8
LAY-10
  9
$CELTYPE
  6
BYLAYER
  9
$CECOLOR
 62
   256
  9
$CELTSCALE
 40
1.0
  9
$DELOBJ
 70
     1
  9
$DISPSILH
 70
     0
  9
$DIMSCALE
 40
1.0
  9
$DIMASZ
 40
2.5
  9
$DIMEXO
 40
0.625
  9
$DIMDLI
 40
3.75
  9
$DIMRND
 40
0.0
  9
$DIMDLE
 40
0.0
  9
$DIMEXE
 40
1.25
  9
$DIMTP
 40
0.0
  9
$DIMTM
 40
0.0
  9
$DIMTXT
 40
2.5
  9
$DIMCEN
 40
2.5
  9
$DIMTSZ
 40
0.0
  9
$DIMTOL
 70
     0
  9
$DIMLIM
 70
     0
  9
$DIMTIH
 70
     0
  9
$DIMTOH
 70
     0
  9
$DIMSE1
 70
     0
  9
$DIMSE2
 70
     0
  9
$DIMTAD
 70
     1
  9
$DIMZIN
 70
     8
  9
$DIMBLK
  1

  9
$DIMASO
 70
     1
  9
$DIMSHO
 70
     1
  9
$DIMPOST
  1

  9
$DIMAPOST
  1

  9
$DIMALT
 70
     0
  9
$DIMALTD
 70
     3
  9
$DIMALTF
 40
0.03937007874016
  9
$DIMLFAC
 40
1.0
  9
$DIMTOFL
 70
     1
  9
$DIMTVP
 40
0.0
  9
$DIMTIX
 70
     0
  9
$DIMSOXD
 70
     0
  9
$DIMSAH
 70
     0
  9
$DIMBLK1
  1

  9
$DIMBLK2
  1

  9
$DIMSTYLE
  2
ISO-25
  9
$DIMCLRD
 70
     0
  9
$DIMCLRE
 70
     0
  9
$DIMCLRT
 70
     0
  9
$DIMTFAC
 40
1.0
  9
$DIMGAP
 40
0.625
  9
$DIMJUST
 70
     0
  9
$DIMSD1
 70
     0
  9
$DIMSD2
 70
     0
  9
$DIMTOLJ
 70
     0
  9
$DIMTZIN
 70
     8
  9
$DIMALTZ
 70
     0
  9
$DIMALTTZ
 70
     0
  9
$DIMFIT
 70
     3
  9
$DIMUPT
 70
     0
  9
$DIMUNIT
 70
     2
  9
$DIMDEC
 70
     2
  9
$DIMTDEC
 70
     2
  9
$DIMALTU
 70
     2
  9
$DIMALTTD
 70
     3
  9
$DIMTXSTY
  7
STANDARD
  9
$DIMAUNIT
 70
     0
  9
$LUNITS
 70
     2
  9
$LUPREC
 70
     4
  9
$SKETCHINC
 40
1.0
  9
$FILLETRAD
 40
10.0
  9
$AUNITS
 70
     0
  9
$AUPREC
 70
     0
  9
$MENU
  1
.
  9
$ELEVATION
 40
0.0
  9
$PELEVATION
 40
0.0
  9
$THICKNESS
 40
0.0
  9
$LIMCHECK
 70
     0
  9
$CHAMFERA
 40
0.0
  9
$CHAMFERB
 40
0.0
  9
$CHAMFERC
 40
0.0
  9
$CHAMFERD
 40
0.0
  9
$SKPOLY
 70
     0
  9
$TDCREATE
 40
2459229.333004421
  9
$TDUPDATE
 40
2459229.333005648
  9
$TDINDWG
 40
0.0000000116
  9
$TDUSRTIMER
 40
0.0000000116
  9
$USRTIMER
 70
     1
  9
$ANGBASE
 50
0.0
  9
$ANGDIR
 70
     0
  9
$PDMODE
 70
     0
  9
$PDSIZE
 40
0.0
  9
$PLINEWID
 40
0.0
  9
$COORDS
 70
     1
  9
$SPLFRAME
 70
     0
  9
$SPLINETYPE
 70
     6
  9
$SPLINESEGS
 70
     8
  9
$ATTDIA
 70
     0
  9
$ATTREQ
 70
     1
  9
$HANDLING
 70
     1
  9
$HANDSEED
  5
69F
  9
$SURFTAB1
 70
     6
  9
$SURFTAB2
 70
     6
  9
$SURFTYPE
 70
     6
  9
$SURFU
 70
     6
  9
$SURFV
 70
     6
  9
$UCSNAME
  2

  9
$UCSORG
 10
0.0
 20
0.0
 30
0.0
  9
$UCSXDIR
 10
1.0
 20
0.0
 30
0.0
  9
$UCSYDIR
 10
0.0
 20
1.0
 30
0.0
  9
$PUCSNAME
  2

  9
$PUCSORG
 10
0.0
 20
0.0
 30
0.0
  9
$PUCSXDIR
 10
1.0
 20
0.0
 30
0.0
  9
$PUCSYDIR
 10
0.0
 20
1.0
 30
0.0
  9
$USERI1
 70
     0
  9
$USERI2
 70
     0
  9
$USERI3
 70
     0
  9
$USERI4
 70
     0
  9
$USERI5
 70
     0
  9
$USERR1
 40
0.0
  9
$USERR2
 40
0.0
  9
$USERR3
 40
0.0
  9
$USERR4
 40
0.0
  9
$USERR5
 40
0.0
  9
$WORLDVIEW
 70
     1
  9
$SHADEDGE
 70
     3
  9
$SHADEDIF
 70
    70
  9
$TILEMODE
 70
     1
  9
$MAXACTVP
 70
    64
  9
$PINSBASE
 10
0.0
 20
0.0
 30
0.0
  9
$PLIMCHECK
 70
     0
  9
$PEXTMIN
 10
1.000000000000000E+20
 20
1.000000000000000E+20
 30
1.000000000000000E+20
  9
$PEXTMAX
 10
-1.000000000000000E+20
 20
-1.000000000000000E+20
 30
-1.000000000000000E+20
  9
$PLIMMIN
 10
0.0
 20
0.0
  9
$PLIMMAX
 10
420.0
 20
297.0
  9
$UNITMODE
 70
     0
  9
$VISRETAIN
 70
     1
  9
$PLINEGEN
 70
     0
  9
$PSLTSCALE
 70
     1
  9
$TREEDEPTH
 70
  3020
  9
$PICKSTYLE
 70
     1
  9
$CMLSTYLE
  2
STANDARD
  9
$CMLJUST
 70
     0
  9
$CMLSCALE
 40
20.0
  9
$PROXYGRAPHICS
 70
     1
  9
$MEASUREMENT
 70
     1
  0
ENDSEC
  0
SECTION
  2
CLASSES
  0
CLASS
  1
ACDBDICTIONARYWDFLT
  2
AcDbDictionaryWithDefault
  3
ObjectDBX Classes
 90
        0
280
     0
281
     0
  0
CLASS
  1
VISUALSTYLE
  2
AcDbVisualStyle
  3
ObjectDBX Classes
 90
     4095
280
     0
281
     0
  0
CLASS
  1
MATERIAL
  2
AcDbMaterial
  3
ObjectDBX Classes
 90
     1153
280
     0
281
     0
  0
CLASS
  1
SCALE
  2
AcDbScale
  3
ObjectDBX Classes
 90
     1153
280
     0
281
     0
  0
CLASS
  1
TABLESTYLE
  2
AcDbTableStyle
  3
ObjectDBX Classes
 90
     4095
280
     0
281
     0
  0
CLASS
  1
MLEADERSTYLE
  2
AcDbMLeaderStyle
  3
ACDB_MLEADERSTYLE_CLASS
 90
     4095
280
     0
281
     0
  0
CLASS
  1
SUN
  2
AcDbSun
  3
SCENEOE
 90
     1153
280
     0
281
     0
  0
CLASS
  1
DICTIONARYVAR
  2
AcDbDictionaryVar
  3
ObjectDBX Classes
 90
        0
280
     0
281
     0
  0
CLASS
  1
XRECORD
  2
AcDbXrecord
  3
ObjectDBX Classes
 90
        0
280
     0
281
     0
  0
CLASS
  1
LWPOLYLINE
  2
AcDbPolyline
  3
ObjectDBX Classes
 90
        0
280
     0
281
     1
  0
CLASS
  1
HATCH
  2
AcDbHatch
  3
ObjectDBX Classes
 90
        0
280
     0
281
     1
  0
CLASS
  1
ACDBPLACEHOLDER
  2
AcDbPlaceHolder
  3
ObjectDBX Classes
 90
        0
280
     0
281
     0
  0
CLASS
  1
LAYOUT
  2
AcDbLayout
  3
ObjectDBX Classes
 90
        0
280
     0
281
     0
  0
ENDSEC
  0
SECTION
  2
TABLES
  0
TABLE
  2
VPORT
  5
8
102
{ACAD_XDICTIONARY
360
694
102
}
330
0
100
AcDbSymbolTable
 70
     1
  0
VPORT
  5
29
330
8
100
AcDbSymbolTableRecord
100
AcDbViewportTableRecord
  2
*ACTIVE
 70
     0
 10
0.0
 20
0.0
 11
1.0
 21
1.0
 12
1950.0
 22
1450.0
 13
0.0
 23
0.0
 14
10.0
 24
10.0
 15
10.0
 25
10.0
 16
0.0
 26
0.0
 36
1.0
 17
0.0
 27
0.0
 37
0.0
 40
2700.0
 41
1.407407407407408
 42
50.0
 43
0.0
 44
0.0
 50
0.0
 51
0.0
 71
     0
 72
  1000
 73
     1
 74
     3
 75
     0
 76
     0
 77
     0
 78
     0
  0
ENDTAB
  0
TABLE
  2
LTYPE
  5
5
330
0
100
AcDbSymbolTable
 70
     6
  0
LTYPE
  5
14
330
5
100
AcDbSymbolTableRecord
100
AcDbLinetypeTableRecord
  2
BYBLOCK
 70
     0
  3

 72
    65
 73
     0
 40
0.0
  0
LTYPE
  5
15
330
5
100
AcDbSymbolTableRecord
100
AcDbLinetypeTableRecord
  2
BYLAYER
 70
     0
  3

 72
    65
 73
     0
 40
0.0
  0
LTYPE
  5
16
330
5
100
AcDbSymbolTableRecord
100
AcDbLinetypeTableRecord
  2
CONTINUOUS
 70
     0
  3
Solid line
 72
    65
 73
     0
 40
0.0
  0
LTYPE
  5
6E
330
5
100
AcDbSymbolTableRecord
100
AcDbLinetypeTableRecord
  2
HIDDEN
 70
     0
  3
Hidden __ __ __ __ __ __ __ __ __ __ __ __ __ __
 72
    65
 73
     2
 40
9.524999999999999
 49
6.35
 74
     0
 49
-3.175
 74
     0
  0
LTYPE
  5
6F
330
5
100
AcDbSymbolTableRecord
100
AcDbLinetypeTableRecord
  2
CENTER
 70
     0
  3
Center ____ _ ____ _ ____ _ ____ _ ____ _ ____
 72
    65
 73
     4
 40
50.8
 49
31.75
 74
     0
 49
-6.35
 74
     0
 49
6.35
 74
     0
 49
-6.35
 74
     0
  0
LTYPE
  5
70
330
5
100
AcDbSymbolTableRecord
100
AcDbLinetypeTableRecord
  2
PHANTOM
 70
     0
  3
Phantom ______  __  __  ______  __  __  ______ 
 72
    65
 73
     6
 40
63.50000000000001
 49
31.75
 74
     0
 49
-6.35
 74
     0
 49
6.35
 74
     0
 49
-6.35
 74
     0
 49
6.35
 74
     0
 49
-6.35
 74
     0
  0
LTYPE
  5
71
330
5
100
AcDbSymbolTableRecord
100
AcDbLinetypeTableRecord
  2
ACAD_ISO06W100
 70
     0
  3
ISO long-dash triple-dot ____ ... ____ ... ____
 72
    65
 73
     8
 40
36.0
 49
24.0
 74
     0
 49
-3.0
 74
     0
 49
0.0
 74
     0
 49
-3.0
 74
     0
 49
0.0
 74
     0
 49
-3.0
 74
     0
 49
0.0
 74
     0
 49
-3.0
 74
     0
  0
LTYPE
  5
72
330
5
100
AcDbSymbolTableRecord
100
AcDbLinetypeTableRecord
  2
ACAD_ISO15W100
 70
     0
  3
ISO double-dash triple-dot __ __ . . . __ __ . .
 72
    65
 73
    10
 40
39.0
 49
12.0
 74
     0
 49
-3.0
 74
     0
 49
12.0
 74
     0
 49
-3.0
 74
     0
 49
0.0
 74
     0
 49
-3.0
 74
     0
 49
0.0
 74
     0
 49
-3.0
 74
     0
 49
0.0
 74
     0
 49
-3.0
 74
     0
  0
ENDTAB
  0
TABLE
  2
LAYER
  5
2
330
0
100
AcDbSymbolTable
 70
     6
  0
LAYER
  5
10
330
2
100
AcDbSymbolTableRecord
100
AcDbLayerTableRecord
  2
0
 70
     0
 62
     7
  6
CONTINUOUS
  0
LAYER
  5
75
330
2
100
AcDbSymbolTableRecord
100
AcDbLayerTableRecord
  2
LAY-10
 70
     0
 62
     7
  6
CONTINUOUS
  0
LAYER
  5
76
330
2
100
AcDbSymbolTableRecord
100
AcDbLayerTableRecord
  2
LAY-11
 70
     0
 62
     7
  6
CONTINUOUS
  0
LAYER
  5
77
330
2
100
AcDbSymbolTableRecord
100
AcDbLayerTableRecord
  2
LAY-20
 70
     0
 62
     7
  6
CONTINUOUS
  0
LAYER
  5
78
330
2
100
AcDbSymbolTableRecord
100
AcDbLayerTableRecord
  2
LAY-255
 70
     0
 62
     7
  6
CONTINUOUS
  0
LAYER
  5
5BC
330
2
100
AcDbSymbolTableRecord
100
AcDbLayerTableRecord
  2
DEFPOINTS
 70
     0
 62
     7
  6
CONTINUOUS
  0
ENDTAB
  0
TABLE
  2
STYLE
  5
3
330
0
100
AcDbSymbolTable
 70
     4
  0
STYLE
  5
11
330
3
100
AcDbSymbolTableRecord
100
AcDbTextStyleTableRecord
  2
STANDARD
 70
     0
 40
0.0
 41
1.0
 50
0.0
 71
     0
 42
2.5
  3
simplex
  4
bigfont
  0
STYLE
  5
73
330
3
100
AcDbSymbolTableRecord
100
AcDbTextStyleTableRecord
  2
EXCADSTD
 70
     0
 40
0.0
 41
1.0
 50
0.0
 71
     0
 42
2.5
  3
simplex
  4
bigfont
  0
STYLE
  5
74
330
3
100
AcDbSymbolTableRecord
100
AcDbTextStyleTableRecord
  2
EXCADVERT
 70
     4
 40
0.0
 41
1.0
 50
0.0
 71
     0
 42
2.5
  3
simplex
  4
bigfont
  0
STYLE
  5
5BA
330
3
100
AcDbSymbolTableRecord
100
AcDbTextStyleTableRecord
  2
EXCADDIM1
 70
     0
 40
0.0
 41
0.84
 50
0.0
 71
     0
 42
2.5
  3
simplex
  4
bigfont
  0
ENDTAB
  0
TABLE
  2
VIEW
  5
6
330
0
100
AcDbSymbolTable
 70
     0
  0
ENDTAB
  0
TABLE
  2
UCS
  5
7
330
0
100
AcDbSymbolTable
 70
     0
  0
ENDTAB
  0
TABLE
  2
APPID
  5
9
330
0
100
AcDbSymbolTable
 70
     2
  0
APPID
  5
12
330
9
100
AcDbSymbolTableRecord
100
AcDbRegAppTableRecord
  2
ACAD
 70
     0
  0
APPID
  5
69E
330
9
100
AcDbSymbolTableRecord
100
AcDbRegAppTableRecord
  2
ACAD_MLEADERVER
 70
     0
  0
ENDTAB
  0
TABLE
  2
DIMSTYLE
  5
A
330
0
100
AcDbSymbolTable
 70
     1
  0
DIMSTYLE
105
27
102
{ACAD_REACTORS
330
5BB
330
5C9
330
5D6
330
5E3
330
5F0
330
5FD
330
60A
330
617
330
625
330
632
102
}
330
A
100
AcDbSymbolTableRecord
100
AcDbDimStyleTableRecord
  2
ISO-25
 70
     0
  3

  4

  5

  6

  7

 40
1.0
 41
2.5
 42
0.625
 43
3.75
 44
1.25
 45
0.0
 46
0.0
 47
0.0
 48
0.0
140
2.5
141
2.5
142
0.0
143
0.03937007874016
144
1.0
145
0.0
146
1.0
147
0.625
 71
     0
 72
     0
 73
     0
 74
     0
 75
     0
 76
     0
 77
     1
 78
     8
170
     0
171
     3
172
     1
173
     0
174
     0
175
     0
176
     0
177
     0
178
     0
270
     2
271
     2
272
     2
273
     2
274
     3
340
11
275
     0
280
     0
281
     0
282
     0
283
     0
284
     8
285
     0
286
     0
287
     5
288
     0
  0
ENDTAB
  0
TABLE
  2
BLOCK_RECORD
  5
1
330
0
100
AcDbSymbolTable
 70
    24
  0
BLOCK_RECORD
  5
1F
330
1
100
AcDbSymbolTableRecord
100
AcDbBlockTableRecord
  2
*MODEL_SPACE
  0
BLOCK_RECORD
  5
1B
330
1
100
AcDbSymbolTableRecord
100
AcDbBlockTableRecord
  2
*PAPER_SPACE
  0
BLOCK_RECORD
  5
79
330
1
100
AcDbSymbolTableRecord
100
AcDbBlockTableRecord
  2
EX_NORM
  0
BLOCK_RECORD
  5
7C
330
1
100
AcDbSymbolTableRecord
100
AcDbBlockTableRecord
  2
EX_BNORM
  0
BLOCK_RECORD
  5
7F
330
1
100
AcDbSymbolTableRecord
100
AcDbBlockTableRecord
  2
EX_BCIR
  0
BLOCK_RECORD
  5
82
330
1
100
AcDbSymbolTableRecord
100
AcDbBlockTableRecord
  2
EX_RCIVIL
  0
BLOCK_RECORD
  5
85
330
1
100
AcDbSymbolTableRecord
100
AcDbBlockTableRecord
  2
EX_SLANT
  0
BLOCK_RECORD
  5
88
330
1
100
AcDbSymbolTableRecord
100
AcDbBlockTableRecord
  2
EX_NONE
  0
BLOCK_RECORD
  5
8B
330
1
100
AcDbSymbolTableRecord
100
AcDbBlockTableRecord
  2
EX_CIVIL
  0
BLOCK_RECORD
  5
8E
330
1
100
AcDbSymbolTableRecord
100
AcDbBlockTableRecord
  2
EX_WCIR
  0
BLOCK_RECORD
  5
91
330
1
100
AcDbSymbolTableRecord
100
AcDbBlockTableRecord
  2
EX_WCIR2
  0
BLOCK_RECORD
  5
94
330
1
100
AcDbSymbolTableRecord
100
AcDbBlockTableRecord
  2
EX_WNORM
  0
BLOCK_RECORD
  5
97
330
1
100
AcDbSymbolTableRecord
100
AcDbBlockTableRecord
  2
EX_NNORM
  0
BLOCK_RECORD
  5
9A
330
1
100
AcDbSymbolTableRecord
100
AcDbBlockTableRecord
  2
EX_BBOX
  0
BLOCK_RECORD
  5
9D
330
1
100
AcDbSymbolTableRecord
100
AcDbBlockTableRecord
  2
EX_WBOX
  0
BLOCK_RECORD
  5
A0
330
1
100
AcDbSymbolTableRecord
100
AcDbBlockTableRecord
  2
EX_INTEGRAL
  0
BLOCK_RECORD
  5
5BD
330
1
100
AcDbSymbolTableRecord
100
AcDbBlockTableRecord
  2
*D15
  0
BLOCK_RECORD
  5
5CA
330
1
100
AcDbSymbolTableRecord
100
AcDbBlockTableRecord
  2
*D16
  0
BLOCK_RECORD
  5
5D7
330
1
100
AcDbSymbolTableRecord
100
AcDbBlockTableRecord
  2
*D17
  0
BLOCK_RECORD
  5
5E4
330
1
100
AcDbSymbolTableRecord
100
AcDbBlockTableRecord
  2
*D18
  0
BLOCK_RECORD
  5
5F1
330
1
100
AcDbSymbolTableRecord
100
AcDbBlockTableRecord
  2
*D19
  0
BLOCK_RECORD
  5
5FE
330
1
100
AcDbSymbolTableRecord
100
AcDbBlockTableRecord
  2
*D20
  0
BLOCK_RECORD
  5
60B
330
1
100
AcDbSymbolTableRecord
100
AcDbBlockTableRecord
  2
*D21
  0
BLOCK_RECORD
  5
618
330
1
100
AcDbSymbolTableRecord
100
AcDbBlockTableRecord
  2
*D22
  0
BLOCK_RECORD
  5
626
330
1
100
AcDbSymbolTableRecord
100
AcDbBlockTableRecord
  2
*D23
  0
BLOCK_RECORD
  5
633
330
1
100
AcDbSymbolTableRecord
100
AcDbBlockTableRecord
  2
*D24
  0
ENDTAB
  0
ENDSEC
  0
SECTION
  2
BLOCKS
  0
BLOCK
  5
20
330
1F
100
AcDbEntity
  8
0
100
AcDbBlockBegin
  2
*MODEL_SPACE
 70
     0
 10
0.0
 20
0.0
 30
0.0
  3
*MODEL_SPACE
  1

  0
ENDBLK
  5
21
330
1F
100
AcDbEntity
  8
0
100
AcDbBlockEnd
  0
BLOCK
  5
1C
330
1B
100
AcDbEntity
 67
     1
  8
0
100
AcDbBlockBegin
  2
*PAPER_SPACE
 70
     0
 10
0.0
 20
0.0
 30
0.0
  3
*PAPER_SPACE
  1

  0
ENDBLK
  5
1D
330
1B
100
AcDbEntity
 67
     1
  8
0
100
AcDbBlockEnd
  0
BLOCK
  5
7A
330
79
100
AcDbEntity
  8
0
100
AcDbBlockBegin
  2
EX_NORM
 70
     0
 10
0.0
 20
0.0
 30
0.0
  3
EX_NORM
  1

  0
LINE
  5
A3
330
79
100
AcDbEntity
  8
0
  6
CONTINUOUS
 62
     0
100
AcDbLine
 10
0.0
 20
0.0
 30
0.0
 11
-1.0
 21
0.0
 31
0.0
  0
LINE
  5
A4
330
79
100
AcDbEntity
  8
0
  6
CONTINUOUS
 62
     0
100
AcDbLine
 10
0.0
 20
0.0
 30
0.0
 11
-1.0
 21
0.166666667
 31
0.0
  0
LINE
  5
A5
330
79
100
AcDbEntity
  8
0
  6
CONTINUOUS
 62
     0
100
AcDbLine
 10
0.0
 20
0.0
 30
0.0
 11
-1.0
 21
-0.166666667
 31
0.0
  0
ENDBLK
  5
7B
330
79
100
AcDbEntity
  8
0
100
AcDbBlockEnd
  0
BLOCK
  5
7D
330
7C
100
AcDbEntity
  8
0
100
AcDbBlockBegin
  2
EX_BNORM
 70
     0
 10
0.0
 20
0.0
 30
0.0
  3
EX_BNORM
  1

  0
LINE
  5
A6
330
7C
100
AcDbEntity
  8
0
  6
CONTINUOUS
 62
     0
100
AcDbLine
 10
0.0
 20
0.0
 30
0.0
 11
-1.0
 21
0.0
 31
0.0
  0
LINE
  5
A7
330
7C
100
AcDbEntity
  8
0
  6
CONTINUOUS
 62
     0
100
AcDbLine
 10
0.0
 20
0.0
 30
0.0
 11
-1.0
 21
0.166666667
 31
0.0
  0
LINE
  5
A8
330
7C
100
AcDbEntity
  8
0
  6
CONTINUOUS
 62
     0
100
AcDbLine
 10
0.0
 20
0.0
 30
0.0
 11
-1.0
 21
-0.166666667
 31
0.0
  0
LINE
  5
A9
330
7C
100
AcDbEntity
  8
0
  6
CONTINUOUS
 62
     0
100
AcDbLine
 10
0.0
 20
0.0
 30
0.0
 11
-1.0
 21
0.083333333
 31
0.0
  0
LINE
  5
AA
330
7C
100
AcDbEntity
  8
0
  6
CONTINUOUS
 62
     0
100
AcDbLine
 10
0.0
 20
0.0
 30
0.0
 11
-1.0
 21
-0.083333333
 31
0.0
  0
LINE
  5
AB
330
7C
100
AcDbEntity
  8
0
  6
CONTINUOUS
 62
     0
100
AcDbLine
 10
-1.0
 20
0.166666667
 30
0.0
 11
-1.0
 21
-0.166666667
 31
0.0
  0
ENDBLK
  5
7E
330
7C
100
AcDbEntity
  8
0
100
AcDbBlockEnd
  0
BLOCK
  5
80
330
7F
100
AcDbEntity
  8
0
100
AcDbBlockBegin
  2
EX_BCIR
 70
     0
 10
0.0
 20
0.0
 30
0.0
  3
EX_BCIR
  1

  0
LINE
  5
AC
330
7F
100
AcDbEntity
  8
0
  6
CONTINUOUS
 62
     0
100
AcDbLine
 10
0.0
 20
0.0
 30
0.0
 11
-1.0
 21
0.0
 31
0.0
  0
CIRCLE
  5
AD
330
7F
100
AcDbEntity
  8
0
  6
CONTINUOUS
 62
     0
100
AcDbCircle
 10
0.0
 20
0.0
 30
0.0
 40
0.5
  0
CIRCLE
  5
AE
330
7F
100
AcDbEntity
  8
0
  6
CONTINUOUS
 62
     0
100
AcDbCircle
 10
0.0
 20
0.0
 30
0.0
 40
0.25
  0
ENDBLK
  5
81
330
7F
100
AcDbEntity
  8
0
100
AcDbBlockEnd
  0
BLOCK
  5
83
330
82
100
AcDbEntity
  8
0
100
AcDbBlockBegin
  2
EX_RCIVIL
 70
     0
 10
0.0
 20
0.0
 30
0.0
  3
EX_RCIVIL
  1

  0
LINE
  5
AF
330
82
100
AcDbEntity
  8
0
  6
CONTINUOUS
 62
     0
100
AcDbLine
 10
0.0
 20
0.0
 30
0.0
 11
-1.0
 21
0.0
 31
0.0
  0
LINE
  5
B0
330
82
100
AcDbEntity
  8
0
  6
CONTINUOUS
 62
     0
100
AcDbLine
 10
-1.0
 20
-0.25
 30
0.0
 11
0.0
 21
-0.25
 31
0.0
  0
LINE
  5
B1
330
82
100
AcDbEntity
  8
0
  6
CONTINUOUS
 62
     0
100
AcDbLine
 10
-1.0
 20
-0.125
 30
0.0
 11
0.0
 21
-0.125
 31
0.0
  0
ENDBLK
  5
84
330
82
100
AcDbEntity
  8
0
100
AcDbBlockEnd
  0
BLOCK
  5
86
330
85
100
AcDbEntity
  8
0
100
AcDbBlockBegin
  2
EX_SLANT
 70
     0
 10
0.0
 20
0.0
 30
0.0
  3
EX_SLANT
  1

  0
LINE
  5
B2
330
85
100
AcDbEntity
  8
0
  6
CONTINUOUS
 62
     0
100
AcDbLine
 10
0.0
 20
0.0
 30
0.0
 11
-1.0
 21
0.0
 31
0.0
  0
LINE
  5
B3
330
85
100
AcDbEntity
  8
0
  6
CONTINUOUS
 62
     0
100
AcDbLine
 10
0.707106781
 20
0.707106781
 30
0.0
 11
-0.707106781
 21
-0.707106781
 31
0.0
  0
ENDBLK
  5
87
330
85
100
AcDbEntity
  8
0
100
AcDbBlockEnd
  0
BLOCK
  5
89
330
88
100
AcDbEntity
  8
0
100
AcDbBlockBegin
  2
EX_NONE
 70
     0
 10
0.0
 20
0.0
 30
0.0
  3
EX_NONE
  1

  0
LINE
  5
B4
330
88
100
AcDbEntity
  8
0
  6
CONTINUOUS
 62
     0
100
AcDbLine
 10
0.0
 20
0.0
 30
0.0
 11
-1.0
 21
0.0
 31
0.0
  0
ENDBLK
  5
8A
330
88
100
AcDbEntity
  8
0
100
AcDbBlockEnd
  0
BLOCK
  5
8C
330
8B
100
AcDbEntity
  8
0
100
AcDbBlockBegin
  2
EX_CIVIL
 70
     0
 10
0.0
 20
0.0
 30
0.0
  3
EX_CIVIL
  1

  0
LINE
  5
B5
330
8B
100
AcDbEntity
  8
0
  6
CONTINUOUS
 62
     0
100
AcDbLine
 10
0.0
 20
0.0
 30
0.0
 11
-1.0
 21
0.0
 31
0.0
  0
LINE
  5
B6
330
8B
100
AcDbEntity
  8
0
  6
CONTINUOUS
 62
     0
100
AcDbLine
 10
-1.0
 20
0.25
 30
0.0
 11
0.0
 21
0.25
 31
0.0
  0
LINE
  5
B7
330
8B
100
AcDbEntity
  8
0
  6
CONTINUOUS
 62
     0
100
AcDbLine
 10
-1.0
 20
0.125
 30
0.0
 11
0.0
 21
0.125
 31
0.0
  0
ENDBLK
  5
8D
330
8B
100
AcDbEntity
  8
0
100
AcDbBlockEnd
  0
BLOCK
  5
8F
330
8E
100
AcDbEntity
  8
0
100
AcDbBlockBegin
  2
EX_WCIR
 70
     0
 10
0.0
 20
0.0
 30
0.0
  3
EX_WCIR
  1

  0
LINE
  5
B8
330
8E
100
AcDbEntity
  8
0
  6
CONTINUOUS
 62
     0
100
AcDbLine
 10
0.0
 20
0.0
 30
0.0
 11
-1.0
 21
0.0
 31
0.0
  0
CIRCLE
  5
B9
330
8E
100
AcDbEntity
  8
0
  6
CONTINUOUS
 62
     0
100
AcDbCircle
 10
0.0
 20
0.0
 30
0.0
 40
0.5
  0
ENDBLK
  5
90
330
8E
100
AcDbEntity
  8
0
100
AcDbBlockEnd
  0
BLOCK
  5
92
330
91
100
AcDbEntity
  8
0
100
AcDbBlockBegin
  2
EX_WCIR2
 70
     0
 10
0.0
 20
0.0
 30
0.0
  3
EX_WCIR2
  1

  0
LINE
  5
BA
330
91
100
AcDbEntity
  8
0
  6
CONTINUOUS
 62
     0
100
AcDbLine
 10
-0.5
 20
0.0
 30
0.0
 11
-1.0
 21
0.0
 31
0.0
  0
CIRCLE
  5
BB
330
91
100
AcDbEntity
  8
0
  6
CONTINUOUS
 62
     0
100
AcDbCircle
 10
0.0
 20
0.0
 30
0.0
 40
0.5
  0
ENDBLK
  5
93
330
91
100
AcDbEntity
  8
0
100
AcDbBlockEnd
  0
BLOCK
  5
95
330
94
100
AcDbEntity
  8
0
100
AcDbBlockBegin
  2
EX_WNORM
 70
     0
 10
0.0
 20
0.0
 30
0.0
  3
EX_WNORM
  1

  0
LINE
  5
BC
330
94
100
AcDbEntity
  8
0
  6
CONTINUOUS
 62
     0
100
AcDbLine
 10
-1.0
 20
0.0
 30
0.0
 11
-1.0
 21
0.0
 31
0.0
  0
LINE
  5
BD
330
94
100
AcDbEntity
  8
0
  6
CONTINUOUS
 62
     0
100
AcDbLine
 10
0.0
 20
0.0
 30
0.0
 11
-1.0
 21
0.166666667
 31
0.0
  0
LINE
  5
BE
330
94
100
AcDbEntity
  8
0
  6
CONTINUOUS
 62
     0
100
AcDbLine
 10
0.0
 20
0.0
 30
0.0
 11
-1.0
 21
-0.166666667
 31
0.0
  0
LINE
  5
BF
330
94
100
AcDbEntity
  8
0
  6
CONTINUOUS
 62
     0
100
AcDbLine
 10
-1.0
 20
0.166666667
 30
0.0
 11
-1.0
 21
-0.166666667
 31
0.0
  0
ENDBLK
  5
96
330
94
100
AcDbEntity
  8
0
100
AcDbBlockEnd
  0
BLOCK
  5
98
330
97
100
AcDbEntity
  8
0
100
AcDbBlockBegin
  2
EX_NNORM
 70
     0
 10
0.0
 20
0.0
 30
0.0
  3
EX_NNORM
  1

  0
LINE
  5
C0
330
97
100
AcDbEntity
  8
0
  6
CONTINUOUS
 62
     0
100
AcDbLine
 10
0.0
 20
0.0
 30
0.0
 11
-1.0
 21
0.0
 31
0.0
  0
LINE
  5
C1
330
97
100
AcDbEntity
  8
0
  6
CONTINUOUS
 62
     0
100
AcDbLine
 10
0.0
 20
0.0
 30
0.0
 11
-1.0
 21
0.166666667
 31
0.0
  0
LINE
  5
C2
330
97
100
AcDbEntity
  8
0
  6
CONTINUOUS
 62
     0
100
AcDbLine
 10
0.0
 20
0.0
 30
0.0
 11
-1.0
 21
-0.166666667
 31
0.0
  0
LINE
  5
C3
330
97
100
AcDbEntity
  8
0
  6
CONTINUOUS
 62
     0
100
AcDbLine
 10
-1.0
 20
0.166666667
 30
0.0
 11
-1.0
 21
-0.166666667
 31
0.0
  0
ENDBLK
  5
99
330
97
100
AcDbEntity
  8
0
100
AcDbBlockEnd
  0
BLOCK
  5
9B
330
9A
100
AcDbEntity
  8
0
100
AcDbBlockBegin
  2
EX_BBOX
 70
     0
 10
0.0
 20
0.0
 30
0.0
  3
EX_BBOX
  1

  0
LINE
  5
C4
330
9A
100
AcDbEntity
  8
0
  6
CONTINUOUS
 62
     0
100
AcDbLine
 10
0.0
 20
0.0
 30
0.0
 11
-1.0
 21
0.0
 31
0.0
  0
LINE
  5
C5
330
9A
100
AcDbEntity
  8
0
  6
CONTINUOUS
 62
     0
100
AcDbLine
 10
-0.5
 20
0.5
 30
0.0
 11
0.5
 21
0.5
 31
0.0
  0
LINE
  5
C6
330
9A
100
AcDbEntity
  8
0
  6
CONTINUOUS
 62
     0
100
AcDbLine
 10
0.5
 20
0.5
 30
0.0
 11
0.5
 21
-0.5
 31
0.0
  0
LINE
  5
C7
330
9A
100
AcDbEntity
  8
0
  6
CONTINUOUS
 62
     0
100
AcDbLine
 10
0.5
 20
-0.5
 30
0.0
 11
-0.5
 21
-0.5
 31
0.0
  0
LINE
  5
C8
330
9A
100
AcDbEntity
  8
0
  6
CONTINUOUS
 62
     0
100
AcDbLine
 10
-0.5
 20
-0.5
 30
0.0
 11
-0.5
 21
0.5
 31
0.0
  0
LINE
  5
C9
330
9A
100
AcDbEntity
  8
0
  6
CONTINUOUS
 62
     0
100
AcDbLine
 10
-0.25
 20
0.25
 30
0.0
 11
0.25
 21
0.25
 31
0.0
  0
LINE
  5
CA
330
9A
100
AcDbEntity
  8
0
  6
CONTINUOUS
 62
     0
100
AcDbLine
 10
0.25
 20
0.25
 30
0.0
 11
0.25
 21
-0.25
 31
0.0
  0
LINE
  5
CB
330
9A
100
AcDbEntity
  8
0
  6
CONTINUOUS
 62
     0
100
AcDbLine
 10
0.25
 20
-0.25
 30
0.0
 11
-0.25
 21
-0.25
 31
0.0
  0
LINE
  5
CC
330
9A
100
AcDbEntity
  8
0
  6
CONTINUOUS
 62
     0
100
AcDbLine
 10
-0.25
 20
-0.25
 30
0.0
 11
-0.25
 21
0.25
 31
0.0
  0
ENDBLK
  5
9C
330
9A
100
AcDbEntity
  8
0
100
AcDbBlockEnd
  0
BLOCK
  5
9E
330
9D
100
AcDbEntity
  8
0
100
AcDbBlockBegin
  2
EX_WBOX
 70
     0
 10
0.0
 20
0.0
 30
0.0
  3
EX_WBOX
  1

  0
LINE
  5
CD
330
9D
100
AcDbEntity
  8
0
  6
CONTINUOUS
 62
     0
100
AcDbLine
 10
-0.5
 20
0.0
 30
0.0
 11
-1.0
 21
0.0
 31
0.0
  0
LINE
  5
CE
330
9D
100
AcDbEntity
  8
0
  6
CONTINUOUS
 62
     0
100
AcDbLine
 10
-0.5
 20
0.5
 30
0.0
 11
0.5
 21
0.5
 31
0.0
  0
LINE
  5
CF
330
9D
100
AcDbEntity
  8
0
  6
CONTINUOUS
 62
     0
100
AcDbLine
 10
0.5
 20
0.5
 30
0.0
 11
0.5
 21
-0.5
 31
0.0
  0
LINE
  5
D0
330
9D
100
AcDbEntity
  8
0
  6
CONTINUOUS
 62
     0
100
AcDbLine
 10
0.5
 20
-0.5
 30
0.0
 11
-0.5
 21
-0.5
 31
0.0
  0
LINE
  5
D1
330
9D
100
AcDbEntity
  8
0
  6
CONTINUOUS
 62
     0
100
AcDbLine
 10
-0.5
 20
-0.5
 30
0.0
 11
-0.5
 21
0.5
 31
0.0
  0
ENDBLK
  5
9F
330
9D
100
AcDbEntity
  8
0
100
AcDbBlockEnd
  0
BLOCK
  5
A1
330
A0
100
AcDbEntity
  8
0
100
AcDbBlockBegin
  2
EX_INTEGRAL
 70
     0
 10
0.0
 20
0.0
 30
0.0
  3
EX_INTEGRAL
  1

  0
LINE
  5
D2
330
A0
100
AcDbEntity
  8
0
  6
CONTINUOUS
 62
     0
100
AcDbLine
 10
0.0
 20
0.0
 30
0.0
 11
-1.0
 21
0.0
 31
0.0
  0
ARC
  5
D3
330
A0
100
AcDbEntity
  8
0
  6
CONTINUOUS
 62
     0
100
AcDbCircle
 10
0.542115
 20
0.164992
 30
0.0
 40
0.56667
100
AcDbArc
 50
73.07249033629006
 51
196.9275130221199
  0
ARC
  5
D4
330
A0
100
AcDbEntity
  8
0
  6
CONTINUOUS
 62
     0
100
AcDbCircle
 10
-0.542115
 20
-0.164992
 30
0.0
 40
0.56667
100
AcDbArc
 50
253.0724869220464
 51
16.9275130559125
  0
ENDBLK
  5
A2
330
A0
100
AcDbEntity
  8
0
100
AcDbBlockEnd
  0
BLOCK
  5
5BE
330
5BD
100
AcDbEntity
  8
0
100
AcDbBlockBegin
  2
*D15
 70
     1
 10
0.0
 20
0.0
 30
0.0
  3
*D15
  1

  0
LINE
  5
5C0
330
5BD
100
AcDbEntity
  8
LAY-20
  6
CONTINUOUS
 62
     4
100
AcDbLine
 10
1940.7407257571
 20
821.2636940246
 30
0.0
 11
2124.4392105668
 21
821.2636940246
 31
0.0
  0
LINE
  5
5C1
330
5BD
100
AcDbEntity
  8
LAY-20
  6
CONTINUOUS
 62
     4
100
AcDbLine
 10
1995.5407257569
 20
966.2636940246
 30
0.0
 11
2124.4392105668
 21
966.2636940246
 31
0.0
  0
LINE
  5
5C2
330
5BD
100
AcDbEntity
  8
LAY-20
  6
CONTINUOUS
 62
     4
100
AcDbLine
 10
2109.4392105668
 20
846.2636940246
 30
0.0
 11
2109.4392105668
 21
941.2636940246
 31
0.0
  0
INSERT
  5
5C3
330
5BD
100
AcDbEntity
  8
LAY-20
 62
     4
100
AcDbBlockReference
  2
EX_BNORM
 10
2109.4392105668
 20
821.2636940246
 30
0.0
 41
25.0
 42
25.0
 43
25.0
 50
270.0
  0
INSERT
  5
5C4
330
5BD
100
AcDbEntity
  8
LAY-20
 62
     4
100
AcDbBlockReference
  2
EX_BNORM
 10
2109.4392105668
 20
966.2636940246
 30
0.0
 41
25.0
 42
25.0
 43
25.0
 50
90.0
  0
MTEXT
  5
5C5
330
5BD
100
AcDbEntity
  8
LAY-20
 62
     7
100
AcDbMText
 10
2084.4392105668
 20
893.7636940245997
 30
0.0
 40
31.181104
 41
0.0
 71
     5
 72
     1
  1
145
  7
EXCADDIM1
 11
0.0
 21
1.0
 31
0.0
  0
POINT
  5
5C6
330
5BD
100
AcDbEntity
  8
DEFPOINTS
 62
     0
100
AcDbPoint
 10
1925.7407257571
 20
821.2636940246
 30
0.0
  0
POINT
  5
5C7
330
5BD
100
AcDbEntity
  8
DEFPOINTS
 62
     0
100
AcDbPoint
 10
1980.5407257569
 20
966.2636940246
 30
0.0
  0
POINT
  5
5C8
330
5BD
100
AcDbEntity
  8
DEFPOINTS
 62
     0
100
AcDbPoint
 10
2109.4392105668
 20
966.2636940246
 30
0.0
  0
ENDBLK
  5
5BF
330
5BD
100
AcDbEntity
  8
0
100
AcDbBlockEnd
  0
BLOCK
  5
5CB
330
5CA
100
AcDbEntity
  8
0
100
AcDbBlockBegin
  2
*D16
 70
     1
 10
0.0
 20
0.0
 30
0.0
  3
*D16
  1

  0
LINE
  5
5CD
330
5CA
100
AcDbEntity
  8
LAY-20
  6
CONTINUOUS
 62
     4
100
AcDbLine
 10
278.540725757
 20
981.2636940246
 30
0.0
 11
278.540725757
 21
1151.2636940246
 31
0.0
  0
LINE
  5
5CE
330
5CA
100
AcDbEntity
  8
LAY-20
  6
CONTINUOUS
 62
     4
100
AcDbLine
 10
1980.5407257569
 20
981.2636940246
 30
0.0
 11
1980.5407257569
 21
1151.2636940246
 31
0.0
  0
LINE
  5
5CF
330
5CA
100
AcDbEntity
  8
LAY-20
  6
CONTINUOUS
 62
     4
100
AcDbLine
 10
303.540725757
 20
1136.2636940246
 30
0.0
 11
1955.5407257569
 21
1136.2636940246
 31
0.0
  0
INSERT
  5
5D0
330
5CA
100
AcDbEntity
  8
LAY-20
 62
     4
100
AcDbBlockReference
  2
EX_BNORM
 10
278.540725757
 20
1136.2636940246
 30
0.0
 41
25.0
 42
25.0
 43
25.0
 50
180.0
  0
INSERT
  5
5D1
330
5CA
100
AcDbEntity
  8
LAY-20
 62
     4
100
AcDbBlockReference
  2
EX_BNORM
 10
1980.5407257569
 20
1136.2636940246
 30
0.0
 41
25.0
 42
25.0
 43
25.0
  0
MTEXT
  5
5D2
330
5CA
100
AcDbEntity
  8
LAY-20
 62
     7
100
AcDbMText
 10
1129.54072575695
 20
1161.2636940246
 30
0.0
 40
31.181104
 41
0.0
 71
     5
 72
     1
  1
1702
  7
EXCADDIM1
  0
POINT
  5
5D3
330
5CA
100
AcDbEntity
  8
DEFPOINTS
 62
     0
100
AcDbPoint
 10
278.540725757
 20
966.2636940246
 30
0.0
  0
POINT
  5
5D4
330
5CA
100
AcDbEntity
  8
DEFPOINTS
 62
     0
100
AcDbPoint
 10
1980.5407257569
 20
966.2636940246
 30
0.0
  0
POINT
  5
5D5
330
5CA
100
AcDbEntity
  8
DEFPOINTS
 62
     0
100
AcDbPoint
 10
1980.5407257569
 20
1136.2636940246
 30
0.0
  0
ENDBLK
  5
5CC
330
5CA
100
AcDbEntity
  8
0
100
AcDbBlockEnd
  0
BLOCK
  5
5D8
330
5D7
100
AcDbEntity
  8
0
100
AcDbBlockBegin
  2
*D17
 70
     1
 10
0.0
 20
0.0
 30
0.0
  3
*D17
  1

  0
LINE
  5
5DA
330
5D7
100
AcDbEntity
  8
LAY-20
  6
CONTINUOUS
 62
     4
100
AcDbLine
 10
294.5407257570237
 20
981.263694024603
 30
0.0
 11
294.5407257570237
 21
1081.2636940246
 31
0.0
  0
LINE
  5
5DB
330
5D7
100
AcDbEntity
  8
LAY-20
  6
CONTINUOUS
 62
     4
100
AcDbLine
 10
710.540725757096
 20
981.2636940246051
 30
0.0
 11
710.540725757096
 21
1081.2636940246
 31
0.0
  0
LINE
  5
5DC
330
5D7
100
AcDbEntity
  8
LAY-20
  6
CONTINUOUS
 62
     4
100
AcDbLine
 10
319.5407257570237
 20
1066.2636940246
 30
0.0
 11
685.540725757096
 21
1066.2636940246
 31
0.0
  0
INSERT
  5
5DD
330
5D7
100
AcDbEntity
  8
LAY-20
 62
     4
100
AcDbBlockReference
  2
EX_BNORM
 10
294.5407257570237
 20
1066.2636940246
 30
0.0
 41
25.0
 42
25.0
 43
25.0
 50
180.0
  0
INSERT
  5
5DE
330
5D7
100
AcDbEntity
  8
LAY-20
 62
     4
100
AcDbBlockReference
  2
EX_BNORM
 10
710.540725757096
 20
1066.2636940246
 30
0.0
 41
25.0
 42
25.0
 43
25.0
  0
MTEXT
  5
5DF
330
5D7
100
AcDbEntity
  8
LAY-20
 62
     7
100
AcDbMText
 10
502.5407257570598
 20
1091.2636940246
 30
0.0
 40
31.181104
 41
0.0
 71
     5
 72
     1
  1
416
  7
EXCADDIM1
  0
POINT
  5
5E0
330
5D7
100
AcDbEntity
  8
DEFPOINTS
 62
     0
100
AcDbPoint
 10
294.5407257570237
 20
966.263694024603
 30
0.0
  0
POINT
  5
5E1
330
5D7
100
AcDbEntity
  8
DEFPOINTS
 62
     0
100
AcDbPoint
 10
710.540725757096
 20
966.2636940246051
 30
0.0
  0
POINT
  5
5E2
330
5D7
100
AcDbEntity
  8
DEFPOINTS
 62
     0
100
AcDbPoint
 10
710.540725757096
 20
1066.2636940246
 30
0.0
  0
ENDBLK
  5
5D9
330
5D7
100
AcDbEntity
  8
0
100
AcDbBlockEnd
  0
BLOCK
  5
5E5
330
5E4
100
AcDbEntity
  8
0
100
AcDbBlockBegin
  2
*D18
 70
     1
 10
0.0
 20
0.0
 30
0.0
  3
*D18
  1

  0
LINE
  5
5E7
330
5E4
100
AcDbEntity
  8
LAY-20
  6
CONTINUOUS
 62
     4
100
AcDbLine
 10
379.540725757
 20
807.8636940246002
 30
0.0
 11
379.540725757
 21
706.2636940246
 31
0.0
  0
LINE
  5
5E8
330
5E4
100
AcDbEntity
  8
LAY-20
  6
CONTINUOUS
 62
     4
100
AcDbLine
 10
1879.540725757
 20
807.8636940246002
 30
0.0
 11
1879.540725757
 21
706.2636940246
 31
0.0
  0
LINE
  5
5E9
330
5E4
100
AcDbEntity
  8
LAY-20
  6
CONTINUOUS
 62
     4
100
AcDbLine
 10
404.540725757
 20
721.2636940246
 30
0.0
 11
1854.540725757
 21
721.2636940246
 31
0.0
  0
INSERT
  5
5EA
330
5E4
100
AcDbEntity
  8
LAY-20
 62
     4
100
AcDbBlockReference
  2
EX_BNORM
 10
379.540725757
 20
721.2636940246
 30
0.0
 41
25.0
 42
25.0
 43
25.0
 50
180.0
  0
INSERT
  5
5EB
330
5E4
100
AcDbEntity
  8
LAY-20
 62
     4
100
AcDbBlockReference
  2
EX_BNORM
 10
1879.540725757
 20
721.2636940246
 30
0.0
 41
25.0
 42
25.0
 43
25.0
  0
MTEXT
  5
5EC
330
5E4
100
AcDbEntity
  8
LAY-20
 62
     7
100
AcDbMText
 10
1129.540725757
 20
746.2636940246
 30
0.0
 40
31.181104
 41
0.0
 71
     5
 72
     1
  1
1500
  7
EXCADDIM1
  0
POINT
  5
5ED
330
5E4
100
AcDbEntity
  8
DEFPOINTS
 62
     0
100
AcDbPoint
 10
379.540725757
 20
822.8636940246002
 30
0.0
  0
POINT
  5
5EE
330
5E4
100
AcDbEntity
  8
DEFPOINTS
 62
     0
100
AcDbPoint
 10
1879.540725757
 20
822.8636940246002
 30
0.0
  0
POINT
  5
5EF
330
5E4
100
AcDbEntity
  8
DEFPOINTS
 62
     0
100
AcDbPoint
 10
1879.540725757
 20
721.2636940246
 30
0.0
  0
ENDBLK
  5
5E6
330
5E4
100
AcDbEntity
  8
0
100
AcDbBlockEnd
  0
BLOCK
  5
5F2
330
5F1
100
AcDbEntity
  8
0
100
AcDbBlockBegin
  2
*D19
 70
     1
 10
0.0
 20
0.0
 30
0.0
  3
*D19
  1

  0
LINE
  5
5F4
330
5F1
100
AcDbEntity
  8
LAY-20
  6
CONTINUOUS
 62
     4
100
AcDbLine
 10
2365.15306276745
 20
1362.8795211402
 30
0.0
 11
2195.153062767501
 21
1362.8795211402
 31
0.0
  0
LINE
  5
5F5
330
5F1
100
AcDbEntity
  8
LAY-20
  6
CONTINUOUS
 62
     4
100
AcDbLine
 10
2365.15306276749
 20
2464.8795211402
 30
0.0
 11
2195.153062767501
 21
2464.8795211402
 31
0.0
  0
LINE
  5
5F6
330
5F1
100
AcDbEntity
  8
LAY-20
  6
CONTINUOUS
 62
     4
100
AcDbLine
 10
2210.153062767501
 20
1387.8795211402
 30
0.0
 11
2210.153062767501
 21
2439.8795211402
 31
0.0
  0
INSERT
  5
5F7
330
5F1
100
AcDbEntity
  8
LAY-20
 62
     4
100
AcDbBlockReference
  2
EX_BNORM
 10
2210.153062767501
 20
1362.8795211402
 30
0.0
 41
25.0
 42
25.0
 43
25.0
 50
270.0
  0
INSERT
  5
5F8
330
5F1
100
AcDbEntity
  8
LAY-20
 62
     4
100
AcDbBlockReference
  2
EX_BNORM
 10
2210.153062767501
 20
2464.8795211402
 30
0.0
 41
25.0
 42
25.0
 43
25.0
 50
90.0
  0
MTEXT
  5
5F9
330
5F1
100
AcDbEntity
  8
LAY-20
 62
     7
100
AcDbMText
 10
2185.153062767501
 20
1913.8795211402
 30
0.0
 40
31.181104
 41
0.0
 71
     5
 72
     1
  1
1102
  7
EXCADDIM1
 11
0.0
 21
1.0
 31
0.0
  0
POINT
  5
5FA
330
5F1
100
AcDbEntity
  8
DEFPOINTS
 62
     0
100
AcDbPoint
 10
2380.15306276745
 20
1362.8795211402
 30
0.0
  0
POINT
  5
5FB
330
5F1
100
AcDbEntity
  8
DEFPOINTS
 62
     0
100
AcDbPoint
 10
2380.15306276749
 20
2464.8795211402
 30
0.0
  0
POINT
  5
5FC
330
5F1
100
AcDbEntity
  8
DEFPOINTS
 62
     0
100
AcDbPoint
 10
2210.153062767501
 20
2464.8795211402
 30
0.0
  0
ENDBLK
  5
5F3
330
5F1
100
AcDbEntity
  8
0
100
AcDbBlockEnd
  0
BLOCK
  5
5FF
330
5FE
100
AcDbEntity
  8
0
100
AcDbBlockBegin
  2
*D20
 70
     1
 10
0.0
 20
0.0
 30
0.0
  3
*D20
  1

  0
LINE
  5
601
330
5FE
100
AcDbEntity
  8
LAY-20
  6
CONTINUOUS
 62
     4
100
AcDbLine
 10
2365.15306276749
 20
1378.879521140219
 30
0.0
 11
2265.153062767501
 21
1378.879521140219
 31
0.0
  0
LINE
  5
602
330
5FE
100
AcDbEntity
  8
LAY-20
  6
CONTINUOUS
 62
     4
100
AcDbLine
 10
2365.15306276749
 20
2448.879521140216
 30
0.0
 11
2265.153062767501
 21
2448.879521140216
 31
0.0
  0
LINE
  5
603
330
5FE
100
AcDbEntity
  8
LAY-20
  6
CONTINUOUS
 62
     4
100
AcDbLine
 10
2280.153062767501
 20
1403.879521140219
 30
0.0
 11
2280.153062767501
 21
2423.879521140216
 31
0.0
  0
INSERT
  5
604
330
5FE
100
AcDbEntity
  8
LAY-20
 62
     4
100
AcDbBlockReference
  2
EX_BNORM
 10
2280.153062767501
 20
1378.879521140219
 30
0.0
 41
25.0
 42
25.0
 43
25.0
 50
270.0
  0
INSERT
  5
605
330
5FE
100
AcDbEntity
  8
LAY-20
 62
     4
100
AcDbBlockReference
  2
EX_BNORM
 10
2280.153062767501
 20
2448.879521140216
 30
0.0
 41
25.0
 42
25.0
 43
25.0
 50
90.0
  0
MTEXT
  5
606
330
5FE
100
AcDbEntity
  8
LAY-20
 62
     7
100
AcDbMText
 10
2255.153062767501
 20
1913.879521140217
 30
0.0
 40
31.181104
 41
0.0
 71
     5
 72
     1
  1
1070
  7
EXCADDIM1
 11
0.0
 21
1.0
 31
0.0
  0
POINT
  5
607
330
5FE
100
AcDbEntity
  8
DEFPOINTS
 62
     0
100
AcDbPoint
 10
2380.15306276749
 20
1378.879521140219
 30
0.0
  0
POINT
  5
608
330
5FE
100
AcDbEntity
  8
DEFPOINTS
 62
     0
100
AcDbPoint
 10
2380.15306276749
 20
2448.879521140216
 30
0.0
  0
POINT
  5
609
330
5FE
100
AcDbEntity
  8
DEFPOINTS
 62
     0
100
AcDbPoint
 10
2280.153062767501
 20
2448.879521140216
 30
0.0
  0
ENDBLK
  5
600
330
5FE
100
AcDbEntity
  8
0
100
AcDbBlockEnd
  0
BLOCK
  5
60C
330
60B
100
AcDbEntity
  8
0
100
AcDbBlockBegin
  2
*D21
 70
     1
 10
0.0
 20
0.0
 30
0.0
  3
*D21
  1

  0
LINE
  5
60E
330
60B
100
AcDbEntity
  8
LAY-20
  6
CONTINUOUS
 62
     4
100
AcDbLine
 10
2540.153062767491
 20
2363.879521140299
 30
0.0
 11
2640.1530627675
 21
2363.879521140299
 31
0.0
  0
LINE
  5
60F
330
60B
100
AcDbEntity
  8
LAY-20
  6
CONTINUOUS
 62
     4
100
AcDbLine
 10
2540.153062767491
 20
1463.879521140199
 30
0.0
 11
2640.1530627675
 21
1463.879521140199
 31
0.0
  0
LINE
  5
610
330
60B
100
AcDbEntity
  8
LAY-20
  6
CONTINUOUS
 62
     4
100
AcDbLine
 10
2625.1530627675
 20
2338.879521140299
 30
0.0
 11
2625.1530627675
 21
1488.879521140199
 31
0.0
  0
INSERT
  5
611
330
60B
100
AcDbEntity
  8
LAY-20
 62
     4
100
AcDbBlockReference
  2
EX_BNORM
 10
2625.1530627675
 20
2363.879521140299
 30
0.0
 41
25.0
 42
25.0
 43
25.0
 50
90.0
  0
INSERT
  5
612
330
60B
100
AcDbEntity
  8
LAY-20
 62
     4
100
AcDbBlockReference
  2
EX_BNORM
 10
2625.1530627675
 20
1463.879521140199
 30
0.0
 41
25.0
 42
25.0
 43
25.0
 50
270.0
  0
MTEXT
  5
613
330
60B
100
AcDbEntity
  8
LAY-20
 62
     7
100
AcDbMText
 10
2600.1530627675
 20
1913.879521140249
 30
0.0
 40
31.181104
 41
0.0
 71
     5
 72
     1
  1
900
  7
EXCADDIM1
 11
0.0
 21
1.0
 31
0.0
  0
POINT
  5
614
330
60B
100
AcDbEntity
  8
DEFPOINTS
 62
     0
100
AcDbPoint
 10
2525.153062767491
 20
2363.879521140299
 30
0.0
  0
POINT
  5
615
330
60B
100
AcDbEntity
  8
DEFPOINTS
 62
     0
100
AcDbPoint
 10
2525.153062767491
 20
1463.879521140199
 30
0.0
  0
POINT
  5
616
330
60B
100
AcDbEntity
  8
DEFPOINTS
 62
     0
100
AcDbPoint
 10
2625.1530627675
 20
1463.879521140199
 30
0.0
  0
ENDBLK
  5
60D
330
60B
100
AcDbEntity
  8
0
100
AcDbBlockEnd
  0
BLOCK
  5
619
330
618
100
AcDbEntity
  8
0
100
AcDbBlockBegin
  2
*D22
 70
     1
 10
0.0
 20
0.0
 30
0.0
  3
*D22
  1

  0
LINE
  5
61B
330
618
100
AcDbEntity
  8
LAY-20
  6
CONTINUOUS
 62
     4
100
AcDbLine
 10
855.54072575707
 20
931.2636940246
 30
0.0
 11
955.5407257570602
 21
931.2636940245999
 31
0.0
  0
LINE
  5
61C
330
618
100
AcDbEntity
  8
LAY-20
  6
CONTINUOUS
 62
     4
100
AcDbLine
 10
940.5407257570602
 20
931.2636940245999
 30
0.0
 11
940.5407257570602
 21
966.2636940246
 31
0.0
  0
LINE
  5
61D
330
618
100
AcDbEntity
  8
LAY-20
  6
CONTINUOUS
 62
     4
100
AcDbLine
 10
940.5407257570602
 20
906.2636940245999
 30
0.0
 11
940.5407257570602
 21
881.2636940245999
 31
0.0
  0
LINE
  5
61E
330
618
100
AcDbEntity
  8
LAY-20
  6
CONTINUOUS
 62
     4
100
AcDbLine
 10
940.5407257570602
 20
991.2636940246
 30
0.0
 11
940.5407257570602
 21
1016.2636940246
 31
0.0
  0
INSERT
  5
61F
330
618
100
AcDbEntity
  8
LAY-20
 62
     4
100
AcDbBlockReference
  2
EX_BNORM
 10
940.5407257570602
 20
931.2636940245999
 30
0.0
 41
25.0
 42
25.0
 43
25.0
 50
90.0
  0
INSERT
  5
620
330
618
100
AcDbEntity
  8
LAY-20
 62
     4
100
AcDbBlockReference
  2
EX_BNORM
 10
940.5407257570602
 20
966.2636940246
 30
0.0
 41
25.0
 42
25.0
 43
25.0
 50
270.0
  0
MTEXT
  5
621
330
618
100
AcDbEntity
  8
LAY-20
 62
     7
100
AcDbMText
 10
915.5407257570603
 20
1026.2636940246
 30
0.0
 40
31.181104
 41
0.0
 71
     5
 72
     1
  1
35
  7
EXCADDIM1
 11
0.0
 21
1.0
 31
0.0
  0
POINT
  5
622
330
618
100
AcDbEntity
  8
DEFPOINTS
 62
     0
100
AcDbPoint
 10
840.54072575707
 20
931.2636940246
 30
0.0
  0
POINT
  5
623
330
618
100
AcDbEntity
  8
DEFPOINTS
 62
     0
100
AcDbPoint
 10
940.5407257570602
 20
966.2636940246
 30
0.0
  0
POINT
  5
624
330
618
100
AcDbEntity
  8
DEFPOINTS
 62
     0
100
AcDbPoint
 10
940.5407257570602
 20
966.2636940246
 30
0.0
  0
ENDBLK
  5
61A
330
618
100
AcDbEntity
  8
0
100
AcDbBlockEnd
  0
BLOCK
  5
627
330
626
100
AcDbEntity
  8
0
100
AcDbBlockBegin
  2
*D23
 70
     1
 10
0.0
 20
0.0
 30
0.0
  3
*D23
  1

  0
LINE
  5
629
330
626
100
AcDbEntity
  8
LAY-20
  6
CONTINUOUS
 62
     4
100
AcDbLine
 10
1971.7407257569
 20
903.8636940246
 30
0.0
 11
1971.7407257569
 21
636.2636940246
 31
0.0
  0
LINE
  5
62A
330
626
100
AcDbEntity
  8
LAY-20
  6
CONTINUOUS
 62
     4
100
AcDbLine
 10
287.34072575702
 20
903.8636940246
 30
0.0
 11
287.34072575702
 21
636.2636940246
 31
0.0
  0
LINE
  5
62B
330
626
100
AcDbEntity
  8
LAY-20
  6
CONTINUOUS
 62
     4
100
AcDbLine
 10
1946.7407257569
 20
651.2636940246
 30
0.0
 11
312.34072575702
 21
651.2636940246
 31
0.0
  0
INSERT
  5
62C
330
626
100
AcDbEntity
  8
LAY-20
 62
     4
100
AcDbBlockReference
  2
EX_BNORM
 10
1971.7407257569
 20
651.2636940246
 30
0.0
 41
25.0
 42
25.0
 43
25.0
  0
INSERT
  5
62D
330
626
100
AcDbEntity
  8
LAY-20
 62
     4
100
AcDbBlockReference
  2
EX_BNORM
 10
287.34072575702
 20
651.2636940246
 30
0.0
 41
25.0
 42
25.0
 43
25.0
 50
180.0
  0
MTEXT
  5
62E
330
626
100
AcDbEntity
  8
LAY-20
 62
     7
100
AcDbMText
 10
1129.54072575696
 20
676.2636940246
 30
0.0
 40
31.181104
 41
0.0
 71
     5
 72
     1
  1
1684
  7
EXCADDIM1
  0
POINT
  5
62F
330
626
100
AcDbEntity
  8
DEFPOINTS
 62
     0
100
AcDbPoint
 10
1971.7407257569
 20
918.8636940246
 30
0.0
  0
POINT
  5
630
330
626
100
AcDbEntity
  8
DEFPOINTS
 62
     0
100
AcDbPoint
 10
287.34072575702
 20
918.8636940246
 30
0.0
  0
POINT
  5
631
330
626
100
AcDbEntity
  8
DEFPOINTS
 62
     0
100
AcDbPoint
 10
287.34072575702
 20
651.2636940246
 30
0.0
  0
ENDBLK
  5
628
330
626
100
AcDbEntity
  8
0
100
AcDbBlockEnd
  0
BLOCK
  5
634
330
633
100
AcDbEntity
  8
0
100
AcDbBlockBegin
  2
*D24
 70
     1
 10
0.0
 20
0.0
 30
0.0
  3
*D24
  1

  0
LINE
  5
636
330
633
100
AcDbEntity
  8
LAY-20
  6
CONTINUOUS
 62
     4
100
AcDbLine
 10
2442.5530627675
 20
2456.0795211401
 30
0.0
 11
2710.1530627675
 21
2456.0795211401
 31
0.0
  0
LINE
  5
637
330
633
100
AcDbEntity
  8
LAY-20
  6
CONTINUOUS
 62
     4
100
AcDbLine
 10
2442.5530627675
 20
1371.6795211402
 30
0.0
 11
2710.1530627675
 21
1371.6795211402
 31
0.0
  0
LINE
  5
638
330
633
100
AcDbEntity
  8
LAY-20
  6
CONTINUOUS
 62
     4
100
AcDbLine
 10
2695.1530627675
 20
2431.0795211401
 30
0.0
 11
2695.1530627675
 21
1396.6795211402
 31
0.0
  0
INSERT
  5
639
330
633
100
AcDbEntity
  8
LAY-20
 62
     4
100
AcDbBlockReference
  2
EX_BNORM
 10
2695.1530627675
 20
2456.0795211401
 30
0.0
 41
25.0
 42
25.0
 43
25.0
 50
90.0
  0
INSERT
  5
63A
330
633
100
AcDbEntity
  8
LAY-20
 62
     4
100
AcDbBlockReference
  2
EX_BNORM
 10
2695.1530627675
 20
1371.6795211402
 30
0.0
 41
25.0
 42
25.0
 43
25.0
 50
270.0
  0
MTEXT
  5
63B
330
633
100
AcDbEntity
  8
LAY-20
 62
     7
100
AcDbMText
 10
2670.1530627675
 20
1913.87952114015
 30
0.0
 40
31.181104
 41
0.0
 71
     5
 72
     1
  1
1084
  7
EXCADDIM1
 11
0.0
 21
1.0
 31
0.0
  0
POINT
  5
63C
330
633
100
AcDbEntity
  8
DEFPOINTS
 62
     0
100
AcDbPoint
 10
2427.5530627675
 20
2456.0795211401
 30
0.0
  0
POINT
  5
63D
330
633
100
AcDbEntity
  8
DEFPOINTS
 62
     0
100
AcDbPoint
 10
2427.5530627675
 20
1371.6795211402
 30
0.0
  0
POINT
  5
63E
330
633
100
AcDbEntity
  8
DEFPOINTS
 62
     0
100
AcDbPoint
 10
2695.1530627675
 20
1371.6795211402
 30
0.0
  0
ENDBLK
  5
635
330
633
100
AcDbEntity
  8
0
100
AcDbBlockEnd
  0
ENDSEC
  0
SECTION
  2
ENTITIES
  0
LINE
  5
D5
330
1F
100
AcDbEntity
  8
LAY-10
  6
CONTINUOUS
 62
     7
100
AcDbLine
 10
2428.353062767487
 20
2439.465307577763
 30
0.0
 11
2429.767276329839
 21
2440.879521140117
 31
0.0
  0
LINE
  5
D6
330
1F
100
AcDbEntity
  8
LAY-10
  6
CONTINUOUS
 62
     7
100
AcDbLine
 10
2428.353062767477
 20
2438.05109401538
 30
0.0
 11
2430.353062767491
 21
2440.051094015399
 31
0.0
  0
LINE
  5
D7
330
1F
100
AcDbEntity
  8
LAY-10
  6
CONTINUOUS
 62
     7
100
AcDbLine
 10
2428.353062767487
 20
2436.63688045302
 30
0.0
 11
2430.353062767484
 21
2438.636880453017
 31
0.0
  0
LINE
  5
D8
330
1F
100
AcDbEntity
  8
LAY-10
  6
CONTINUOUS
 62
     7
100
AcDbLine
 10
2428.353062767477
 20
2435.222666890636
 30
0.0
 11
2430.353062767495
 21
2437.222666890651
 31
0.0
  0
LINE
  5
D9
330
1F
100
AcDbEntity
  8
LAY-10
  6
CONTINUOUS
 62
     7
100
AcDbLine
 10
2428.353062767491
 20
2433.808453328274
 30
0.0
 11
2430.353062767487
 21
2435.80845332827
 31
0.0
  0
LINE
  5
DA
330
1F
100
AcDbEntity
  8
LAY-10
  6
CONTINUOUS
 62
     7
100
AcDbLine
 10
2428.35306276748
 20
2432.394239765893
 30
0.0
 11
2430.353062767495
 21
2434.394239765908
 31
0.0
  0
LINE
  5
DB
330
1F
100
AcDbEntity
  8
LAY-10
  6
CONTINUOUS
 62
     7
100
AcDbLine
 10
2428.353062767491
 20
2430.980026203528
 30
0.0
 11
2430.353062767487
 21
2432.980026203525
 31
0.0
  0
LINE
  5
DC
330
1F
100
AcDbEntity
  8
LAY-10
  6
CONTINUOUS
 62
     7
100
AcDbLine
 10
2428.353062767482
 20
2429.565812641146
 30
0.0
 11
2430.353062767495
 21
2431.565812641162
 31
0.0
  0
LINE
  5
DD
330
1F
100
AcDbEntity
  8
LAY-10
  6
CONTINUOUS
 62
     7
100
AcDbLine
 10
2428.353062767491
 20
2428.151599078784
 30
0.0
 11
2430.353062767487
 21
2430.15159907878
 31
0.0
  0
LINE
  5
DE
330
1F
100
AcDbEntity
  8
LAY-10
  6
CONTINUOUS
 62
     7
100
AcDbLine
 10
2428.353062767482
 20
2426.737385516401
 30
0.0
 11
2430.353062767495
 21
2428.737385516418
 31
0.0
  0
LINE
  5
DF
330
1F
100
AcDbEntity
  8
LAY-10
  6
CONTINUOUS
 62
     7
100
AcDbLine
 10
2428.353062767491
 20
2425.323171954039
 30
0.0
 11
2430.353062767487
 21
2427.323171954036
 31
0.0
  0
LINE
  5
E0
330
1F
100
AcDbEntity
  8
LAY-10
  6
CONTINUOUS
 62
     7
100
AcDbLine
 10
2428.353062767484
 20
2423.908958391657
 30
0.0
 11
2430.353062767498
 21
2425.908958391672
 31
0.0
  0
LINE
  5
E1
330
1F
100
AcDbEntity
  8
LAY-10
  6
CONTINUOUS
 62
     7
100
AcDbLine
 10
2428.353062767473
 20
2422.494744829276
 30
0.0
 11
2430.353062767491
 21
2424.494744829291
 31
0.0
  0
LINE
  5
E2
330
1F
100
AcDbEntity
  8
LAY-10
  6
CONTINUOUS
 62
     7
100
AcDbLine
 10
2428.353062767484
 20
2421.080531266913
 30
0.0
 11
2430.353062767498
 21
2423.080531266928
 31
0.0
  0
LINE
  5
E3
330
1F
100
AcDbEntity
  8
LAY-10
  6
CONTINUOUS
 62
     7
100
AcDbLine
 10
2428.353062767477
 20
2419.666317704529
 30
0.0
 11
2430.353062767491
 21
2421.666317704546
 31
0.0
  0
LINE
  5
E4
330
1F
100
AcDbEntity
  8
LAY-10
  6
CONTINUOUS
 62
     7
100
AcDbLine
 10
2428.353062767487
 20
2418.252104142164
 30
0.0
 11
2430.353062767484
 21
2420.252104142162
 31
0.0
  0
LINE
  5
E5
330
1F
100
AcDbEntity
  8
LAY-10
  6
CONTINUOUS
 62
     7
100
AcDbLine
 10
2428.353062767477
 20
2416.837890579784
 30
0.0
 11
2430.353062767491
 21
2418.837890579803
 31
0.0
  0
LINE
  5
E6
330
1F
100
AcDbEntity
  8
LAY-10
  6
CONTINUOUS
 62
     7
100
AcDbLine
 10
2428.808906890175
 20
2415.87952114011
 30
0.0
 11
2430.353062767484
 21
2417.42367701742
 31
0.0
  0
LINE
  5
E7
330
1F
100
AcDbEntity
  8
LAY-10
  6
CONTINUOUS
 62
     7
100
AcDbLine
 10
2430.223120452559
 20
2415.879521140118
 30
0.0
 11
2430.353062767495
 21
2416.009463455056
 31
0.0
  0
LINE
  5
E8
330
1F
100
AcDbEntity
  8
LAY-10
  6
CONTINUOUS
 62
     7
100
AcDbLine
 10
2428.353062767484
 20
1410.921151700577
 30
0.0
 11
2429.31143220709
 21
1411.879521140182
 31
0.0
  0
LINE
  5
E9
330
1F
100
AcDbEntity
  8
LAY-10
  6
CONTINUOUS
 62
     7
100
AcDbLine
 10
2428.353062767495
 20
1409.506938138213
 30
0.0
 11
2430.353062767491
 21
1411.506938138209
 31
0.0
  0
LINE
  5
EA
330
1F
100
AcDbEntity
  8
LAY-10
  6
CONTINUOUS
 62
     7
100
AcDbLine
 10
2428.353062767484
 20
1408.09272457583
 30
0.0
 11
2430.35306276748
 21
1410.092724575827
 31
0.0
  0
LINE
  5
EB
330
1F
100
AcDbEntity
  8
LAY-10
  6
CONTINUOUS
 62
     7
100
AcDbLine
 10
2428.353062767495
 20
1406.678511013468
 30
0.0
 11
2430.353062767469
 21
1408.678511013446
 31
0.0
  0
LINE
  5
EC
330
1F
100
AcDbEntity
  8
LAY-10
  6
CONTINUOUS
 62
     7
100
AcDbLine
 10
2428.353062767484
 20
1405.264297451085
 30
0.0
 11
2430.35306276748
 21
1407.264297451082
 31
0.0
  0
LINE
  5
ED
330
1F
100
AcDbEntity
  8
LAY-10
  6
CONTINUOUS
 62
     7
100
AcDbLine
 10
2428.353062767495
 20
1403.850083888723
 30
0.0
 11
2430.353062767473
 21
1405.850083888699
 31
0.0
  0
LINE
  5
EE
330
1F
100
AcDbEntity
  8
LAY-10
  6
CONTINUOUS
 62
     7
100
AcDbLine
 10
2428.353062767484
 20
1402.43587032634
 30
0.0
 11
2430.35306276748
 21
1404.435870326337
 31
0.0
  0
LINE
  5
EF
330
1F
100
AcDbEntity
  8
LAY-10
  6
CONTINUOUS
 62
     7
100
AcDbLine
 10
2428.353062767495
 20
1401.021656763979
 30
0.0
 11
2430.353062767473
 21
1403.021656763956
 31
0.0
  0
LINE
  5
F0
330
1F
100
AcDbEntity
  8
LAY-10
  6
CONTINUOUS
 62
     7
100
AcDbLine
 10
2428.353062767487
 20
1399.607443201595
 30
0.0
 11
2430.353062767484
 21
1401.607443201593
 31
0.0
  0
LINE
  5
F1
330
1F
100
AcDbEntity
  8
LAY-10
  6
CONTINUOUS
 62
     7
100
AcDbLine
 10
2428.353062767498
 20
1398.193229639233
 30
0.0
 11
2430.353062767476
 21
1400.193229639211
 31
0.0
  0
LINE
  5
F2
330
1F
100
AcDbEntity
  8
LAY-10
  6
CONTINUOUS
 62
     7
100
AcDbLine
 10
2428.353062767487
 20
1396.779016076851
 30
0.0
 11
2430.353062767484
 21
1398.779016076847
 31
0.0
  0
LINE
  5
F3
330
1F
100
AcDbEntity
  8
LAY-10
  6
CONTINUOUS
 62
     7
100
AcDbLine
 10
2428.353062767498
 20
1395.364802514489
 30
0.0
 11
2430.353062767476
 21
1397.364802514465
 31
0.0
  0
LINE
  5
F4
330
1F
100
AcDbEntity
  8
LAY-10
  6
CONTINUOUS
 62
     7
100
AcDbLine
 10
2428.353062767491
 20
1393.950588952107
 30
0.0
 11
2430.353062767487
 21
1395.950588952103
 31
0.0
  0
LINE
  5
F5
330
1F
100
AcDbEntity
  8
LAY-10
  6
CONTINUOUS
 62
     7
100
AcDbLine
 10
2428.353062767502
 20
1392.536375389743
 30
0.0
 11
2430.353062767476
 21
1394.536375389722
 31
0.0
  0
LINE
  5
F6
330
1F
100
AcDbEntity
  8
LAY-10
  6
CONTINUOUS
 62
     7
100
AcDbLine
 10
2428.353062767491
 20
1391.122161827361
 30
0.0
 11
2430.353062767487
 21
1393.122161827357
 31
0.0
  0
LINE
  5
F7
330
1F
100
AcDbEntity
  8
LAY-10
  6
CONTINUOUS
 62
     7
100
AcDbLine
 10
2428.353062767502
 20
1389.707948264999
 30
0.0
 11
2430.35306276748
 21
1391.707948264975
 31
0.0
  0
LINE
  5
F8
330
1F
100
AcDbEntity
  8
LAY-10
  6
CONTINUOUS
 62
     7
100
AcDbLine
 10
2428.353062767495
 20
1388.293734702616
 30
0.0
 11
2430.353062767491
 21
1390.293734702612
 31
0.0
  0
LINE
  5
F9
330
1F
100
AcDbEntity
  8
LAY-10
  6
CONTINUOUS
 62
     7
100
AcDbLine
 10
2428.353062767484
 20
1386.879521140234
 30
0.0
 11
2430.35306276748
 21
1388.879521140231
 31
0.0
  0
LINE
  5
FA
330
1F
100
AcDbEntity
  8
LAY-10
  6
CONTINUOUS
 62
     7
100
AcDbLine
 10
2429.767276329846
 20
1386.879521140223
 30
0.0
 11
2430.353062767491
 21
1387.465307577867
 31
0.0
  0
LINE
  5
FB
330
1F
100
AcDbEntity
  8
LAY-10
  6
CONTINUOUS
 62
     7
100
AcDbLine
 10
1931.54072575688
 20
917.6923563172224
 30
0.0
 11
1931.912063464258
 21
918.0636940246012
 31
0.0
  0
LINE
  5
FC
330
1F
100
AcDbEntity
  8
LAY-10
  6
CONTINUOUS
 62
     7
100
AcDbLine
 10
1931.54072575689
 20
916.2781427548596
 30
0.0
 11
1933.326277026634
 21
918.0636940246036
 31
0.0
  0
LINE
  5
FD
330
1F
100
AcDbEntity
  8
LAY-10
  6
CONTINUOUS
 62
     7
100
AcDbLine
 10
1932.740490589007
 20
916.0636940246034
 30
0.0
 11
1934.74049058901
 21
918.0636940246063
 31
0.0
  0
LINE
  5
FE
330
1F
100
AcDbEntity
  8
LAY-10
  6
CONTINUOUS
 62
     7
100
AcDbLine
 10
1934.154704151382
 20
916.0636940246059
 30
0.0
 11
1936.154704151385
 21
918.0636940246088
 31
0.0
  0
LINE
  5
FF
330
1F
100
AcDbEntity
  8
LAY-10
  6
CONTINUOUS
 62
     7
100
AcDbLine
 10
1935.568917713758
 20
916.0636940246087
 30
0.0
 11
1937.568917713748
 21
918.0636940245989
 31
0.0
  0
LINE
  5
100
330
1F
100
AcDbEntity
  8
LAY-10
  6
CONTINUOUS
 62
     7
100
AcDbLine
 10
1936.983131276121
 20
916.0636940245985
 30
0.0
 11
1938.983131276124
 21
918.0636940246012
 31
0.0
  0
LINE
  5
101
330
1F
100
AcDbEntity
  8
LAY-10
  6
CONTINUOUS
 62
     7
100
AcDbLine
 10
1938.397344838496
 20
916.0636940246009
 30
0.0
 11
1940.397344838499
 21
918.0636940246038
 31
0.0
  0
LINE
  5
102
330
1F
100
AcDbEntity
  8
LAY-10
  6
CONTINUOUS
 62
     7
100
AcDbLine
 10
1939.811558400872
 20
916.0636940246036
 30
0.0
 11
1941.811558400875
 21
918.0636940246063
 31
0.0
  0
LINE
  5
103
330
1F
100
AcDbEntity
  8
LAY-10
  6
CONTINUOUS
 62
     7
100
AcDbLine
 10
1941.225771963248
 20
916.0636940246064
 30
0.0
 11
1943.225771963251
 21
918.0636940246092
 31
0.0
  0
LINE
  5
104
330
1F
100
AcDbEntity
  8
LAY-10
  6
CONTINUOUS
 62
     7
100
AcDbLine
 10
1942.63998552561
 20
916.0636940245959
 30
0.0
 11
1944.639985525626
 21
918.0636940246116
 31
0.0
  0
LINE
  5
105
330
1F
100
AcDbEntity
  8
LAY-10
  6
CONTINUOUS
 62
     7
100
AcDbLine
 10
1944.054199087986
 20
916.0636940245986
 30
0.0
 11
1946.054199087989
 21
918.0636940246013
 31
0.0
  0
LINE
  5
106
330
1F
100
AcDbEntity
  8
LAY-10
  6
CONTINUOUS
 62
     7
100
AcDbLine
 10
1945.468412650362
 20
916.0636940246011
 30
0.0
 11
1947.468412650364
 21
918.063694024604
 31
0.0
  0
LINE
  5
107
330
1F
100
AcDbEntity
  8
LAY-10
  6
CONTINUOUS
 62
     7
100
AcDbLine
 10
1946.882626212737
 20
916.0636940246036
 30
0.0
 11
1948.88262621274
 21
918.0636940246069
 31
0.0
  0
LINE
  5
108
330
1F
100
AcDbEntity
  8
LAY-10
  6
CONTINUOUS
 62
     7
100
AcDbLine
 10
1948.296839775113
 20
916.0636940246064
 30
0.0
 11
1950.296839775116
 21
918.0636940246093
 31
0.0
  0
LINE
  5
109
330
1F
100
AcDbEntity
  8
LAY-10
  6
CONTINUOUS
 62
     7
100
AcDbLine
 10
1949.711053337475
 20
916.0636940245962
 30
0.0
 11
1951.711053337491
 21
918.0636940246118
 31
0.0
  0
LINE
  5
10A
330
1F
100
AcDbEntity
  8
LAY-10
  6
CONTINUOUS
 62
     7
100
AcDbLine
 10
1951.125266899851
 20
916.0636940245986
 30
0.0
 11
1953.125266899867
 21
918.0636940246143
 31
0.0
  0
LINE
  5
10B
330
1F
100
AcDbEntity
  8
LAY-10
  6
CONTINUOUS
 62
     7
100
AcDbLine
 10
1952.539480462226
 20
916.0636940246013
 30
0.0
 11
1954.53948046223
 21
918.0636940246043
 31
0.0
  0
LINE
  5
10C
330
1F
100
AcDbEntity
  8
LAY-10
  6
CONTINUOUS
 62
     7
100
AcDbLine
 10
1953.953694024603
 20
916.0636940246038
 30
0.0
 11
1955.953694024605
 21
918.0636940246069
 31
0.0
  0
LINE
  5
10D
330
1F
100
AcDbEntity
  8
LAY-10
  6
CONTINUOUS
 62
     7
100
AcDbLine
 10
1955.367907586965
 20
916.0636940245939
 30
0.0
 11
1956.540725756888
 21
917.2365121945168
 31
0.0
  0
LINE
  5
10E
330
1F
100
AcDbEntity
  8
LAY-10
  6
CONTINUOUS
 62
     7
100
AcDbLine
 10
302.5407257570555
 20
917.3497011558957
 30
0.0
 11
303.2547186257552
 21
918.063694024595
 31
0.0
  0
LINE
  5
10F
330
1F
100
AcDbEntity
  8
LAY-10
  6
CONTINUOUS
 62
     7
100
AcDbLine
 10
302.6689321881404
 20
916.0636940246076
 30
0.0
 11
304.6689321881308
 21
918.0636940245972
 31
0.0
  0
LINE
  5
110
330
1F
100
AcDbEntity
  8
LAY-10
  6
CONTINUOUS
 62
     7
100
AcDbLine
 10
304.0831457505169
 20
916.0636940246098
 30
0.0
 11
306.0831457505064
 21
918.0636940245997
 31
0.0
  0
LINE
  5
111
330
1F
100
AcDbEntity
  8
LAY-10
  6
CONTINUOUS
 62
     7
100
AcDbLine
 10
305.4973593128793
 20
916.0636940245993
 30
0.0
 11
307.4973593128821
 21
918.0636940246023
 31
0.0
  0
LINE
  5
112
330
1F
100
AcDbEntity
  8
LAY-10
  6
CONTINUOUS
 62
     7
100
AcDbLine
 10
306.9115728752554
 20
916.0636940246019
 30
0.0
 11
308.9115728752586
 21
918.0636940246046
 31
0.0
  0
LINE
  5
113
330
1F
100
AcDbEntity
  8
LAY-10
  6
CONTINUOUS
 62
     7
100
AcDbLine
 10
308.325786437631
 20
916.0636940246043
 30
0.0
 11
310.325786437621
 21
918.0636940245944
 31
0.0
  0
LINE
  5
114
330
1F
100
AcDbEntity
  8
LAY-10
  6
CONTINUOUS
 62
     7
100
AcDbLine
 10
309.7400000000066
 20
916.0636940246065
 30
0.0
 11
311.7399999999971
 21
918.0636940245968
 31
0.0
  0
LINE
  5
115
330
1F
100
AcDbEntity
  8
LAY-10
  6
CONTINUOUS
 62
     7
100
AcDbLine
 10
311.1542135623822
 20
916.063694024609
 30
0.0
 11
313.1542135623727
 21
918.063694024599
 31
0.0
  0
LINE
  5
116
330
1F
100
AcDbEntity
  8
LAY-10
  6
CONTINUOUS
 62
     7
100
AcDbLine
 10
312.5684271247455
 20
916.0636940245986
 30
0.0
 11
314.5684271247487
 21
918.0636940246015
 31
0.0
  0
LINE
  5
117
330
1F
100
AcDbEntity
  8
LAY-10
  6
CONTINUOUS
 62
     7
100
AcDbLine
 10
313.9826406871211
 20
916.0636940246009
 30
0.0
 11
315.9826406871116
 21
918.0636940245911
 31
0.0
  0
LINE
  5
118
330
1F
100
AcDbEntity
  8
LAY-10
  6
CONTINUOUS
 62
     7
100
AcDbLine
 10
315.3968542494977
 20
916.0636940246034
 30
0.0
 11
317.3968542494872
 21
918.0636940245934
 31
0.0
  0
LINE
  5
119
330
1F
100
AcDbEntity
  8
LAY-10
  6
CONTINUOUS
 62
     7
100
AcDbLine
 10
316.8110678118733
 20
916.0636940246059
 30
0.0
 11
318.8110678118628
 21
918.0636940245959
 31
0.0
  0
LINE
  5
11A
330
1F
100
AcDbEntity
  8
LAY-10
  6
CONTINUOUS
 62
     7
100
AcDbLine
 10
318.2252813742489
 20
916.0636940246081
 30
0.0
 11
320.2252813742393
 21
918.0636940245984
 31
0.0
  0
LINE
  5
11B
330
1F
100
AcDbEntity
  8
LAY-10
  6
CONTINUOUS
 62
     7
100
AcDbLine
 10
319.6394949366118
 20
916.0636940245977
 30
0.0
 11
321.6394949366149
 21
918.0636940246006
 31
0.0
  0
LINE
  5
11C
330
1F
100
AcDbEntity
  8
LAY-10
  6
CONTINUOUS
 62
     7
100
AcDbLine
 10
321.0537084989878
 20
916.0636940246002
 30
0.0
 11
323.0537084989783
 21
918.0636940245902
 31
0.0
  0
LINE
  5
11D
330
1F
100
AcDbEntity
  8
LAY-10
  6
CONTINUOUS
 62
     7
100
AcDbLine
 10
322.4679220613639
 20
916.0636940246025
 30
0.0
 11
324.4679220613539
 21
918.0636940245927
 31
0.0
  0
LINE
  5
11E
330
1F
100
AcDbEntity
  8
LAY-10
  6
CONTINUOUS
 62
     7
100
AcDbLine
 10
323.8821356237395
 20
916.063694024605
 30
0.0
 11
325.8821356237295
 21
918.063694024595
 31
0.0
  0
LINE
  5
11F
330
1F
100
AcDbEntity
  8
LAY-10
  6
CONTINUOUS
 62
     7
100
AcDbLine
 10
325.2963491861155
 20
916.0636940246076
 30
0.0
 11
327.2963491861055
 21
918.0636940245975
 31
0.0
  0
LINE
  5
120
330
1F
100
AcDbEntity
  8
LAY-10
  6
CONTINUOUS
 62
     7
100
AcDbLine
 10
326.7105627484907
 20
916.0636940246098
 30
0.0
 11
327.5407257570555
 21
916.8938570331736
 31
0.0
  0
LINE
  5
121
330
1F
100
AcDbEntity
  8
LAY-10
  6
CONTINUOUS
 62
     7
100
AcDbLine
 10
339.1407257570809
 20
864.6638125470548
 30
0.0
 11
349.3406072345845
 21
874.8636940245583
 31
0.0
  0
LINE
  5
122
330
1F
100
AcDbEntity
  8
LAY-10
  6
CONTINUOUS
 62
     7
100
AcDbLine
 10
339.1407257570809
 20
850.5216769233238
 30
0.0
 11
363.4827428583152
 21
874.8636940245583
 31
0.0
  0
LINE
  5
123
330
1F
100
AcDbEntity
  8
LAY-10
  6
CONTINUOUS
 62
     7
100
AcDbLine
 10
339.1407257570809
 20
836.3795412995928
 30
0.0
 11
377.6248784820463
 21
874.8636940245583
 31
0.0
  0
LINE
  5
124
330
1F
100
AcDbEntity
  8
LAY-10
  6
CONTINUOUS
 62
     7
100
AcDbLine
 10
344.9670141057684
 20
828.0636940245492
 30
0.0
 11
391.7670141057772
 21
874.8636940245583
 31
0.0
  0
LINE
  5
125
330
1F
100
AcDbEntity
  8
LAY-10
  6
CONTINUOUS
 62
     7
100
AcDbLine
 10
359.1091497294992
 20
828.0636940245492
 30
0.0
 11
405.9091497295083
 21
874.8636940245583
 31
0.0
  0
LINE
  5
126
330
1F
100
AcDbEntity
  8
LAY-10
  6
CONTINUOUS
 62
     7
100
AcDbLine
 10
373.2512853532303
 20
828.0636940245495
 30
0.0
 11
420.0512853532391
 21
874.8636940245583
 31
0.0
  0
LINE
  5
127
330
1F
100
AcDbEntity
  8
LAY-10
  6
CONTINUOUS
 62
     7
100
AcDbLine
 10
387.3934209769614
 20
828.0636940245495
 30
0.0
 11
434.1934209769702
 21
874.8636940245583
 31
0.0
  0
LINE
  5
128
330
1F
100
AcDbEntity
  8
LAY-10
  6
CONTINUOUS
 62
     7
100
AcDbLine
 10
401.5355566006922
 20
828.0636940245492
 30
0.0
 11
448.335556600701
 21
874.8636940245583
 31
0.0
  0
LINE
  5
129
330
1F
100
AcDbEntity
  8
LAY-10
  6
CONTINUOUS
 62
     7
100
AcDbLine
 10
415.6776922244231
 20
828.0636940245492
 30
0.0
 11
462.4776922244321
 21
874.8636940245583
 31
0.0
  0
LINE
  5
12A
330
1F
100
AcDbEntity
  8
LAY-10
  6
CONTINUOUS
 62
     7
100
AcDbLine
 10
429.8198278481541
 20
828.0636940245492
 30
0.0
 11
476.6198278481629
 21
874.8636940245583
 31
0.0
  0
LINE
  5
12B
330
1F
100
AcDbEntity
  8
LAY-10
  6
CONTINUOUS
 62
     7
100
AcDbLine
 10
443.9619634718849
 20
828.0636940245492
 30
0.0
 11
490.761963471894
 21
874.8636940245583
 31
0.0
  0
LINE
  5
12C
330
1F
100
AcDbEntity
  8
LAY-10
  6
CONTINUOUS
 62
     7
100
AcDbLine
 10
458.1040990956158
 20
828.0636940245495
 30
0.0
 11
504.9040990956249
 21
874.8636940245583
 31
0.0
  0
LINE
  5
12D
330
1F
100
AcDbEntity
  8
LAY-10
  6
CONTINUOUS
 62
     7
100
AcDbLine
 10
472.2462347193468
 20
828.0636940245495
 30
0.0
 11
519.0462347193559
 21
874.8636940245583
 31
0.0
  0
LINE
  5
12E
330
1F
100
AcDbEntity
  8
LAY-10
  6
CONTINUOUS
 62
     7
100
AcDbLine
 10
486.3883703430779
 20
828.0636940245492
 30
0.0
 11
533.1883703430867
 21
874.8636940245583
 31
0.0
  0
LINE
  5
12F
330
1F
100
AcDbEntity
  8
LAY-10
  6
CONTINUOUS
 62
     7
100
AcDbLine
 10
500.5305059668087
 20
828.0636940245492
 30
0.0
 11
547.3305059668178
 21
874.8636940245581
 31
0.0
  0
LINE
  5
130
330
1F
100
AcDbEntity
  8
LAY-10
  6
CONTINUOUS
 62
     7
100
AcDbLine
 10
514.6726415905396
 20
828.0636940245492
 30
0.0
 11
561.4726415905488
 21
874.8636940245583
 31
0.0
  0
LINE
  5
131
330
1F
100
AcDbEntity
  8
LAY-10
  6
CONTINUOUS
 62
     7
100
AcDbLine
 10
528.8147772142706
 20
828.0636940245495
 30
0.0
 11
575.6147772142795
 21
874.8636940245583
 31
0.0
  0
LINE
  5
132
330
1F
100
AcDbEntity
  8
LAY-10
  6
CONTINUOUS
 62
     7
100
AcDbLine
 10
542.9569128380017
 20
828.0636940245492
 30
0.0
 11
589.7569128380105
 21
874.8636940245581
 31
0.0
  0
LINE
  5
133
330
1F
100
AcDbEntity
  8
LAY-10
  6
CONTINUOUS
 62
     7
100
AcDbLine
 10
557.0990484617325
 20
828.0636940245492
 30
0.0
 11
603.8990484617416
 21
874.8636940245583
 31
0.0
  0
LINE
  5
134
330
1F
100
AcDbEntity
  8
LAY-10
  6
CONTINUOUS
 62
     7
100
AcDbLine
 10
571.2411840854636
 20
828.0636940245492
 30
0.0
 11
618.0411840854727
 21
874.8636940245581
 31
0.0
  0
LINE
  5
135
330
1F
100
AcDbEntity
  8
LAY-10
  6
CONTINUOUS
 62
     7
100
AcDbLine
 10
585.3833197091944
 20
828.0636940245495
 30
0.0
 11
632.1833197092035
 21
874.8636940245583
 31
0.0
  0
LINE
  5
136
330
1F
100
AcDbEntity
  8
LAY-10
  6
CONTINUOUS
 62
     7
100
AcDbLine
 10
599.5254553329255
 20
828.0636940245492
 30
0.0
 11
646.3254553329343
 21
874.8636940245583
 31
0.0
  0
LINE
  5
137
330
1F
100
AcDbEntity
  8
LAY-10
  6
CONTINUOUS
 62
     7
100
AcDbLine
 10
613.6675909566563
 20
828.0636940245492
 30
0.0
 11
660.4675909566654
 21
874.8636940245581
 31
0.0
  0
LINE
  5
138
330
1F
100
AcDbEntity
  8
LAY-10
  6
CONTINUOUS
 62
     7
100
AcDbLine
 10
627.8097265803872
 20
828.0636940245492
 30
0.0
 11
674.6097265803962
 21
874.8636940245583
 31
0.0
  0
LINE
  5
139
330
1F
100
AcDbEntity
  8
LAY-10
  6
CONTINUOUS
 62
     7
100
AcDbLine
 10
641.9518622041182
 20
828.0636940245492
 30
0.0
 11
688.7518622041273
 21
874.8636940245581
 31
0.0
  0
LINE
  5
13A
330
1F
100
AcDbEntity
  8
LAY-10
  6
CONTINUOUS
 62
     7
100
AcDbLine
 10
656.0939978278493
 20
828.0636940245495
 30
0.0
 11
702.8939978278581
 21
874.8636940245583
 31
0.0
  0
LINE
  5
13B
330
1F
100
AcDbEntity
  8
LAY-10
  6
CONTINUOUS
 62
     7
100
AcDbLine
 10
670.2361334515804
 20
828.0636940245492
 30
0.0
 11
717.0361334515892
 21
874.8636940245583
 31
0.0
  0
LINE
  5
13C
330
1F
100
AcDbEntity
  8
LAY-10
  6
CONTINUOUS
 62
     7
100
AcDbLine
 10
684.378269075311
 20
828.0636940245492
 30
0.0
 11
731.1782690753203
 21
874.8636940245581
 31
0.0
  0
LINE
  5
13D
330
1F
100
AcDbEntity
  8
LAY-10
  6
CONTINUOUS
 62
     7
100
AcDbLine
 10
698.520404699042
 20
828.0636940245492
 30
0.0
 11
745.3204046990508
 21
874.8636940245583
 31
0.0
  0
LINE
  5
13E
330
1F
100
AcDbEntity
  8
LAY-10
  6
CONTINUOUS
 62
     7
100
AcDbLine
 10
712.6625403227731
 20
828.0636940245492
 30
0.0
 11
759.4625403227818
 21
874.8636940245581
 31
0.0
  0
LINE
  5
13F
330
1F
100
AcDbEntity
  8
LAY-10
  6
CONTINUOUS
 62
     7
100
AcDbLine
 10
726.804675946504
 20
828.0636940245495
 30
0.0
 11
773.6046759465131
 21
874.8636940245583
 31
0.0
  0
LINE
  5
140
330
1F
100
AcDbEntity
  8
LAY-10
  6
CONTINUOUS
 62
     7
100
AcDbLine
 10
740.946811570235
 20
828.0636940245492
 30
0.0
 11
787.7468115702438
 21
874.8636940245583
 31
0.0
  0
LINE
  5
141
330
1F
100
AcDbEntity
  8
LAY-10
  6
CONTINUOUS
 62
     7
100
AcDbLine
 10
755.0889471939659
 20
828.0636940245492
 30
0.0
 11
801.8889471939749
 21
874.8636940245581
 31
0.0
  0
LINE
  5
142
330
1F
100
AcDbEntity
  8
LAY-10
  6
CONTINUOUS
 62
     7
100
AcDbLine
 10
769.2310828176969
 20
828.0636940245492
 30
0.0
 11
816.0310828177057
 21
874.8636940245583
 31
0.0
  0
LINE
  5
143
330
1F
100
AcDbEntity
  8
LAY-10
  6
CONTINUOUS
 62
     7
100
AcDbLine
 10
783.373218441428
 20
828.0636940245492
 30
0.0
 11
830.1732184414368
 21
874.8636940245581
 31
0.0
  0
LINE
  5
144
330
1F
100
AcDbEntity
  8
LAY-10
  6
CONTINUOUS
 62
     7
100
AcDbLine
 10
797.5153540651587
 20
828.0636940245495
 30
0.0
 11
844.3153540651676
 21
874.8636940245583
 31
0.0
  0
LINE
  5
145
330
1F
100
AcDbEntity
  8
LAY-10
  6
CONTINUOUS
 62
     7
100
AcDbLine
 10
811.6574896888898
 20
828.0636940245492
 30
0.0
 11
858.4574896888985
 21
874.8636940245583
 31
0.0
  0
LINE
  5
146
330
1F
100
AcDbEntity
  8
LAY-10
  6
CONTINUOUS
 62
     7
100
AcDbLine
 10
825.7996253126208
 20
828.0636940245492
 30
0.0
 11
872.5996253126295
 21
874.8636940245581
 31
0.0
  0
LINE
  5
147
330
1F
100
AcDbEntity
  8
LAY-10
  6
CONTINUOUS
 62
     7
100
AcDbLine
 10
839.9417609363516
 20
828.0636940245492
 30
0.0
 11
886.7417609363606
 21
874.8636940245583
 31
0.0
  0
LINE
  5
148
330
1F
100
AcDbEntity
  8
LAY-10
  6
CONTINUOUS
 62
     7
100
AcDbLine
 10
854.0838965600826
 20
828.0636940245492
 30
0.0
 11
900.8838965600917
 21
874.8636940245581
 31
0.0
  0
LINE
  5
149
330
1F
100
AcDbEntity
  8
LAY-10
  6
CONTINUOUS
 62
     7
100
AcDbLine
 10
868.2260321838135
 20
828.0636940245492
 30
0.0
 11
915.0260321838223
 21
874.8636940245581
 31
0.0
  0
LINE
  5
14A
330
1F
100
AcDbEntity
  8
LAY-10
  6
CONTINUOUS
 62
     7
100
AcDbLine
 10
882.3681678075445
 20
828.0636940245492
 30
0.0
 11
929.1681678075533
 21
874.8636940245581
 31
0.0
  0
LINE
  5
14B
330
1F
100
AcDbEntity
  8
LAY-10
  6
CONTINUOUS
 62
     7
100
AcDbLine
 10
896.5103034312756
 20
828.0636940245492
 30
0.0
 11
943.3103034312844
 21
874.8636940245581
 31
0.0
  0
LINE
  5
14C
330
1F
100
AcDbEntity
  8
LAY-10
  6
CONTINUOUS
 62
     7
100
AcDbLine
 10
910.6524390550062
 20
828.0636940245492
 30
0.0
 11
957.4524390550155
 21
874.8636940245583
 31
0.0
  0
LINE
  5
14D
330
1F
100
AcDbEntity
  8
LAY-10
  6
CONTINUOUS
 62
     7
100
AcDbLine
 10
924.7945746787373
 20
828.0636940245492
 30
0.0
 11
971.5945746787463
 21
874.8636940245581
 31
0.0
  0
LINE
  5
14E
330
1F
100
AcDbEntity
  8
LAY-10
  6
CONTINUOUS
 62
     7
100
AcDbLine
 10
938.9367103024683
 20
828.0636940245492
 30
0.0
 11
985.7367103024771
 21
874.8636940245581
 31
0.0
  0
LINE
  5
14F
330
1F
100
AcDbEntity
  8
LAY-10
  6
CONTINUOUS
 62
     7
100
AcDbLine
 10
953.0788459261994
 20
828.0636940245492
 30
0.0
 11
999.8788459262082
 21
874.8636940245581
 31
0.0
  0
LINE
  5
150
330
1F
100
AcDbEntity
  8
LAY-10
  6
CONTINUOUS
 62
     7
100
AcDbLine
 10
967.2209815499305
 20
828.0636940245492
 30
0.0
 11
1014.020981549939
 21
874.8636940245581
 31
0.0
  0
LINE
  5
151
330
1F
100
AcDbEntity
  8
LAY-10
  6
CONTINUOUS
 62
     7
100
AcDbLine
 10
981.3631171736611
 20
828.0636940245492
 30
0.0
 11
1028.16311717367
 21
874.8636940245583
 31
0.0
  0
LINE
  5
152
330
1F
100
AcDbEntity
  8
LAY-10
  6
CONTINUOUS
 62
     7
100
AcDbLine
 10
995.5052527973921
 20
828.0636940245492
 30
0.0
 11
1042.305252797401
 21
874.8636940245581
 31
0.0
  0
LINE
  5
153
330
1F
100
AcDbEntity
  8
LAY-10
  6
CONTINUOUS
 62
     7
100
AcDbLine
 10
1009.647388421123
 20
828.063694024549
 30
0.0
 11
1056.447388421132
 21
874.8636940245581
 31
0.0
  0
LINE
  5
154
330
1F
100
AcDbEntity
  8
LAY-10
  6
CONTINUOUS
 62
     7
100
AcDbLine
 10
1023.789524044854
 20
828.0636940245492
 30
0.0
 11
1070.589524044863
 21
874.8636940245581
 31
0.0
  0
LINE
  5
155
330
1F
100
AcDbEntity
  8
LAY-10
  6
CONTINUOUS
 62
     7
100
AcDbLine
 10
1037.931659668585
 20
828.0636940245492
 30
0.0
 11
1084.731659668594
 21
874.8636940245581
 31
0.0
  0
LINE
  5
156
330
1F
100
AcDbEntity
  8
LAY-10
  6
CONTINUOUS
 62
     7
100
AcDbLine
 10
1052.073795292316
 20
828.0636940245492
 30
0.0
 11
1098.873795292325
 21
874.8636940245583
 31
0.0
  0
LINE
  5
157
330
1F
100
AcDbEntity
  8
LAY-10
  6
CONTINUOUS
 62
     7
100
AcDbLine
 10
1066.215930916047
 20
828.0636940245492
 30
0.0
 11
1113.015930916056
 21
874.8636940245581
 31
0.0
  0
LINE
  5
158
330
1F
100
AcDbEntity
  8
LAY-10
  6
CONTINUOUS
 62
     7
100
AcDbLine
 10
1080.358066539778
 20
828.063694024549
 30
0.0
 11
1127.158066539787
 21
874.8636940245581
 31
0.0
  0
LINE
  5
159
330
1F
100
AcDbEntity
  8
LAY-10
  6
CONTINUOUS
 62
     7
100
AcDbLine
 10
1094.500202163509
 20
828.0636940245492
 30
0.0
 11
1141.300202163518
 21
874.8636940245581
 31
0.0
  0
LINE
  5
15A
330
1F
100
AcDbEntity
  8
LAY-10
  6
CONTINUOUS
 62
     7
100
AcDbLine
 10
1108.64233778724
 20
828.0636940245492
 30
0.0
 11
1155.442337787249
 21
874.8636940245581
 31
0.0
  0
LINE
  5
15B
330
1F
100
AcDbEntity
  8
LAY-10
  6
CONTINUOUS
 62
     7
100
AcDbLine
 10
1122.784473410971
 20
828.0636940245492
 30
0.0
 11
1169.58447341098
 21
874.8636940245581
 31
0.0
  0
LINE
  5
15C
330
1F
100
AcDbEntity
  8
LAY-10
  6
CONTINUOUS
 62
     7
100
AcDbLine
 10
1136.926609034702
 20
828.0636940245492
 30
0.0
 11
1183.72660903471
 21
874.8636940245581
 31
0.0
  0
LINE
  5
15D
330
1F
100
AcDbEntity
  8
LAY-10
  6
CONTINUOUS
 62
     7
100
AcDbLine
 10
1151.068744658432
 20
828.063694024549
 30
0.0
 11
1197.868744658442
 21
874.8636940245581
 31
0.0
  0
LINE
  5
15E
330
1F
100
AcDbEntity
  8
LAY-10
  6
CONTINUOUS
 62
     7
100
AcDbLine
 10
1165.210880282164
 20
828.0636940245492
 30
0.0
 11
1212.010880282173
 21
874.8636940245581
 31
0.0
  0
LINE
  5
15F
330
1F
100
AcDbEntity
  8
LAY-10
  6
CONTINUOUS
 62
     7
100
AcDbLine
 10
1179.353015905895
 20
828.0636940245492
 30
0.0
 11
1226.153015905903
 21
874.8636940245581
 31
0.0
  0
LINE
  5
160
330
1F
100
AcDbEntity
  8
LAY-10
  6
CONTINUOUS
 62
     7
100
AcDbLine
 10
1193.495151529625
 20
828.0636940245492
 30
0.0
 11
1240.295151529634
 21
874.8636940245581
 31
0.0
  0
LINE
  5
161
330
1F
100
AcDbEntity
  8
LAY-10
  6
CONTINUOUS
 62
     7
100
AcDbLine
 10
1207.637287153356
 20
828.0636940245492
 30
0.0
 11
1254.437287153365
 21
874.8636940245581
 31
0.0
  0
LINE
  5
162
330
1F
100
AcDbEntity
  8
LAY-10
  6
CONTINUOUS
 62
     7
100
AcDbLine
 10
1221.779422777087
 20
828.063694024549
 30
0.0
 11
1268.579422777096
 21
874.8636940245581
 31
0.0
  0
LINE
  5
163
330
1F
100
AcDbEntity
  8
LAY-10
  6
CONTINUOUS
 62
     7
100
AcDbLine
 10
1235.921558400818
 20
828.0636940245492
 30
0.0
 11
1282.721558400827
 21
874.8636940245581
 31
0.0
  0
LINE
  5
164
330
1F
100
AcDbEntity
  8
LAY-10
  6
CONTINUOUS
 62
     7
100
AcDbLine
 10
1250.063694024549
 20
828.0636940245492
 30
0.0
 11
1296.863694024558
 21
874.8636940245581
 31
0.0
  0
LINE
  5
165
330
1F
100
AcDbEntity
  8
LAY-10
  6
CONTINUOUS
 62
     7
100
AcDbLine
 10
1264.20582964828
 20
828.0636940245492
 30
0.0
 11
1311.005829648289
 21
874.8636940245581
 31
0.0
  0
LINE
  5
166
330
1F
100
AcDbEntity
  8
LAY-10
  6
CONTINUOUS
 62
     7
100
AcDbLine
 10
1278.347965272011
 20
828.0636940245492
 30
0.0
 11
1325.14796527202
 21
874.8636940245581
 31
0.0
  0
LINE
  5
167
330
1F
100
AcDbEntity
  8
LAY-10
  6
CONTINUOUS
 62
     7
100
AcDbLine
 10
1292.490100895742
 20
828.063694024549
 30
0.0
 11
1339.290100895751
 21
874.8636940245581
 31
0.0
  0
LINE
  5
168
330
1F
100
AcDbEntity
  8
LAY-10
  6
CONTINUOUS
 62
     7
100
AcDbLine
 10
1306.632236519473
 20
828.0636940245492
 30
0.0
 11
1353.432236519482
 21
874.8636940245581
 31
0.0
  0
LINE
  5
169
330
1F
100
AcDbEntity
  8
LAY-10
  6
CONTINUOUS
 62
     7
100
AcDbLine
 10
1320.774372143204
 20
828.0636940245492
 30
0.0
 11
1367.574372143213
 21
874.8636940245581
 31
0.0
  0
LINE
  5
16A
330
1F
100
AcDbEntity
  8
LAY-10
  6
CONTINUOUS
 62
     7
100
AcDbLine
 10
1334.916507766935
 20
828.0636940245492
 30
0.0
 11
1381.716507766944
 21
874.8636940245581
 31
0.0
  0
LINE
  5
16B
330
1F
100
AcDbEntity
  8
LAY-10
  6
CONTINUOUS
 62
     7
100
AcDbLine
 10
1349.058643390666
 20
828.0636940245492
 30
0.0
 11
1395.858643390675
 21
874.8636940245581
 31
0.0
  0
LINE
  5
16C
330
1F
100
AcDbEntity
  8
LAY-10
  6
CONTINUOUS
 62
     7
100
AcDbLine
 10
1363.200779014397
 20
828.063694024549
 30
0.0
 11
1410.000779014406
 21
874.8636940245581
 31
0.0
  0
LINE
  5
16D
330
1F
100
AcDbEntity
  8
LAY-10
  6
CONTINUOUS
 62
     7
100
AcDbLine
 10
1377.342914638128
 20
828.0636940245492
 30
0.0
 11
1424.142914638137
 21
874.8636940245581
 31
0.0
  0
LINE
  5
16E
330
1F
100
AcDbEntity
  8
LAY-10
  6
CONTINUOUS
 62
     7
100
AcDbLine
 10
1391.485050261859
 20
828.0636940245492
 30
0.0
 11
1438.285050261868
 21
874.8636940245581
 31
0.0
  0
LINE
  5
16F
330
1F
100
AcDbEntity
  8
LAY-10
  6
CONTINUOUS
 62
     7
100
AcDbLine
 10
1405.62718588559
 20
828.0636940245492
 30
0.0
 11
1452.427185885586
 21
874.8636940245453
 31
0.0
  0
LINE
  5
170
330
1F
100
AcDbEntity
  8
LAY-10
  6
CONTINUOUS
 62
     7
100
AcDbLine
 10
1419.769321509321
 20
828.0636940245492
 30
0.0
 11
1466.569321509317
 21
874.8636940245453
 31
0.0
  0
LINE
  5
171
330
1F
100
AcDbEntity
  8
LAY-10
  6
CONTINUOUS
 62
     7
100
AcDbLine
 10
1433.911457133051
 20
828.063694024549
 30
0.0
 11
1480.711457133048
 21
874.8636940245451
 31
0.0
  0
LINE
  5
172
330
1F
100
AcDbEntity
  8
LAY-10
  6
CONTINUOUS
 62
     7
100
AcDbLine
 10
1448.053592756783
 20
828.0636940245492
 30
0.0
 11
1494.853592756779
 21
874.8636940245453
 31
0.0
  0
LINE
  5
173
330
1F
100
AcDbEntity
  8
LAY-10
  6
CONTINUOUS
 62
     7
100
AcDbLine
 10
1462.195728380514
 20
828.063694024549
 30
0.0
 11
1508.99572838051
 21
874.8636940245451
 31
0.0
  0
LINE
  5
174
330
1F
100
AcDbEntity
  8
LAY-10
  6
CONTINUOUS
 62
     7
100
AcDbLine
 10
1476.337864004245
 20
828.0636940245492
 30
0.0
 11
1523.13786400424
 21
874.8636940245453
 31
0.0
  0
LINE
  5
175
330
1F
100
AcDbEntity
  8
LAY-10
  6
CONTINUOUS
 62
     7
100
AcDbLine
 10
1490.479999627975
 20
828.0636940245492
 30
0.0
 11
1537.279999627971
 21
874.8636940245451
 31
0.0
  0
LINE
  5
176
330
1F
100
AcDbEntity
  8
LAY-10
  6
CONTINUOUS
 62
     7
100
AcDbLine
 10
1504.622135251706
 20
828.063694024549
 30
0.0
 11
1551.422135251702
 21
874.8636940245451
 31
0.0
  0
LINE
  5
177
330
1F
100
AcDbEntity
  8
LAY-10
  6
CONTINUOUS
 62
     7
100
AcDbLine
 10
1518.764270875437
 20
828.0636940245492
 30
0.0
 11
1565.564270875433
 21
874.8636940245453
 31
0.0
  0
LINE
  5
178
330
1F
100
AcDbEntity
  8
LAY-10
  6
CONTINUOUS
 62
     7
100
AcDbLine
 10
1532.906406499168
 20
828.063694024549
 30
0.0
 11
1579.706406499164
 21
874.8636940245451
 31
0.0
  0
LINE
  5
179
330
1F
100
AcDbEntity
  8
LAY-10
  6
CONTINUOUS
 62
     7
100
AcDbLine
 10
1547.048542122899
 20
828.0636940245492
 30
0.0
 11
1593.848542122895
 21
874.8636940245453
 31
0.0
  0
LINE
  5
17A
330
1F
100
AcDbEntity
  8
LAY-10
  6
CONTINUOUS
 62
     7
100
AcDbLine
 10
1561.19067774663
 20
828.0636940245492
 30
0.0
 11
1607.990677746626
 21
874.8636940245451
 31
0.0
  0
LINE
  5
17B
330
1F
100
AcDbEntity
  8
LAY-10
  6
CONTINUOUS
 62
     7
100
AcDbLine
 10
1575.332813370361
 20
828.063694024549
 30
0.0
 11
1622.132813370357
 21
874.8636940245451
 31
0.0
  0
LINE
  5
17C
330
1F
100
AcDbEntity
  8
LAY-10
  6
CONTINUOUS
 62
     7
100
AcDbLine
 10
1589.474948994092
 20
828.0636940245492
 30
0.0
 11
1636.274948994088
 21
874.8636940245453
 31
0.0
  0
LINE
  5
17D
330
1F
100
AcDbEntity
  8
LAY-10
  6
CONTINUOUS
 62
     7
100
AcDbLine
 10
1603.617084617823
 20
828.063694024549
 30
0.0
 11
1650.417084617819
 21
874.8636940245451
 31
0.0
  0
LINE
  5
17E
330
1F
100
AcDbEntity
  8
LAY-10
  6
CONTINUOUS
 62
     7
100
AcDbLine
 10
1617.759220241554
 20
828.063694024549
 30
0.0
 11
1664.55922024155
 21
874.8636940245451
 31
0.0
  0
LINE
  5
17F
330
1F
100
AcDbEntity
  8
LAY-10
  6
CONTINUOUS
 62
     7
100
AcDbLine
 10
1631.901355865285
 20
828.0636940245492
 30
0.0
 11
1678.701355865281
 21
874.8636940245451
 31
0.0
  0
LINE
  5
180
330
1F
100
AcDbEntity
  8
LAY-10
  6
CONTINUOUS
 62
     7
100
AcDbLine
 10
1646.043491489016
 20
828.063694024549
 30
0.0
 11
1692.843491489012
 21
874.8636940245451
 31
0.0
  0
LINE
  5
181
330
1F
100
AcDbEntity
  8
LAY-10
  6
CONTINUOUS
 62
     7
100
AcDbLine
 10
1660.185627112747
 20
828.0636940245492
 30
0.0
 11
1706.985627112743
 21
874.8636940245453
 31
0.0
  0
LINE
  5
182
330
1F
100
AcDbEntity
  8
LAY-10
  6
CONTINUOUS
 62
     7
100
AcDbLine
 10
1674.327762736478
 20
828.063694024549
 30
0.0
 11
1721.127762736474
 21
874.8636940245451
 31
0.0
  0
LINE
  5
183
330
1F
100
AcDbEntity
  8
LAY-10
  6
CONTINUOUS
 62
     7
100
AcDbLine
 10
1688.469898360209
 20
828.0636940245492
 30
0.0
 11
1735.269898360205
 21
874.8636940245453
 31
0.0
  0
LINE
  5
184
330
1F
100
AcDbEntity
  8
LAY-10
  6
CONTINUOUS
 62
     7
100
AcDbLine
 10
1702.612033983939
 20
828.0636940245492
 30
0.0
 11
1749.412033983936
 21
874.8636940245451
 31
0.0
  0
LINE
  5
185
330
1F
100
AcDbEntity
  8
LAY-10
  6
CONTINUOUS
 62
     7
100
AcDbLine
 10
1716.754169607671
 20
828.0636940245492
 30
0.0
 11
1763.554169607667
 21
874.8636940245453
 31
0.0
  0
LINE
  5
186
330
1F
100
AcDbEntity
  8
LAY-10
  6
CONTINUOUS
 62
     7
100
AcDbLine
 10
1730.896305231402
 20
828.0636940245492
 30
0.0
 11
1777.696305231398
 21
874.8636940245451
 31
0.0
  0
LINE
  5
187
330
1F
100
AcDbEntity
  8
LAY-10
  6
CONTINUOUS
 62
     7
100
AcDbLine
 10
1745.038440855133
 20
828.063694024549
 30
0.0
 11
1791.838440855129
 21
874.8636940245451
 31
0.0
  0
LINE
  5
188
330
1F
100
AcDbEntity
  8
LAY-10
  6
CONTINUOUS
 62
     7
100
AcDbLine
 10
1759.180576478863
 20
828.0636940245492
 30
0.0
 11
1805.980576478859
 21
874.8636940245453
 31
0.0
  0
LINE
  5
189
330
1F
100
AcDbEntity
  8
LAY-10
  6
CONTINUOUS
 62
     7
100
AcDbLine
 10
1773.322712102594
 20
828.0636940245492
 30
0.0
 11
1820.12271210259
 21
874.8636940245453
 31
0.0
  0
LINE
  5
18A
330
1F
100
AcDbEntity
  8
LAY-10
  6
CONTINUOUS
 62
     7
100
AcDbLine
 10
1787.464847726325
 20
828.063694024549
 30
0.0
 11
1834.264847726321
 21
874.8636940245451
 31
0.0
  0
LINE
  5
18B
330
1F
100
AcDbEntity
  8
LAY-10
  6
CONTINUOUS
 62
     7
100
AcDbLine
 10
1801.606983350056
 20
828.0636940245492
 30
0.0
 11
1848.406983350052
 21
874.8636940245451
 31
0.0
  0
LINE
  5
18C
330
1F
100
AcDbEntity
  8
LAY-10
  6
CONTINUOUS
 62
     7
100
AcDbLine
 10
1815.749118973787
 20
828.063694024549
 30
0.0
 11
1862.549118973783
 21
874.8636940245451
 31
0.0
  0
LINE
  5
18D
330
1F
100
AcDbEntity
  8
LAY-10
  6
CONTINUOUS
 62
     7
100
AcDbLine
 10
1829.891254597518
 20
828.0636940245492
 30
0.0
 11
1876.691254597514
 21
874.8636940245453
 31
0.0
  0
LINE
  5
18E
330
1F
100
AcDbEntity
  8
LAY-10
  6
CONTINUOUS
 62
     7
100
AcDbLine
 10
1844.033390221249
 20
828.0636940245492
 30
0.0
 11
1890.833390221245
 21
874.8636940245453
 31
0.0
  0
LINE
  5
18F
330
1F
100
AcDbEntity
  8
LAY-10
  6
CONTINUOUS
 62
     7
100
AcDbLine
 10
1858.17552584498
 20
828.0636940245492
 30
0.0
 11
1904.975525844976
 21
874.8636940245451
 31
0.0
  0
LINE
  5
190
330
1F
100
AcDbEntity
  8
LAY-10
  6
CONTINUOUS
 62
     7
100
AcDbLine
 10
1872.317661468711
 20
828.063694024549
 30
0.0
 11
1919.117661468707
 21
874.8636940245451
 31
0.0
  0
LINE
  5
191
330
1F
100
AcDbEntity
  8
LAY-10
  6
CONTINUOUS
 62
     7
100
AcDbLine
 10
1886.459797092442
 20
828.063694024549
 30
0.0
 11
1919.940725757084
 21
861.5446226891909
 31
0.0
  0
LINE
  5
192
330
1F
100
AcDbEntity
  8
LAY-10
  6
CONTINUOUS
 62
     7
100
AcDbLine
 10
1900.601932716173
 20
828.0636940245492
 30
0.0
 11
1919.940725757084
 21
847.40248706546
 31
0.0
  0
LINE
  5
193
330
1F
100
AcDbEntity
  8
LAY-10
  6
CONTINUOUS
 62
     7
100
AcDbLine
 10
1914.744068339904
 20
828.0636940245492
 30
0.0
 11
1919.940725757084
 21
833.260351441729
 31
0.0
  0
LINE
  5
194
330
1F
100
AcDbEntity
  8
LAY-10
  6
CONTINUOUS
 62
     7
100
AcDbLine
 10
348.2710835617308
 20
828.0636940245648
 30
0.0
 11
339.1407257570895
 21
837.194051829206
 31
0.0
  0
LINE
  5
195
330
1F
100
AcDbEntity
  8
LAY-10
  6
CONTINUOUS
 62
     7
100
AcDbLine
 10
362.4132191854617
 20
828.0636940245648
 30
0.0
 11
339.1407257570895
 21
851.3361874529369
 31
0.0
  0
LINE
  5
196
330
1F
100
AcDbEntity
  8
LAY-10
  6
CONTINUOUS
 62
     7
100
AcDbLine
 10
376.5553548091927
 20
828.0636940245648
 30
0.0
 11
339.1407257570895
 21
865.478323076668
 31
0.0
  0
LINE
  5
197
330
1F
100
AcDbEntity
  8
LAY-10
  6
CONTINUOUS
 62
     7
100
AcDbLine
 10
390.6974904329236
 20
828.0636940245648
 30
0.0
 11
343.8974904329405
 21
874.8636940245478
 31
0.0
  0
LINE
  5
198
330
1F
100
AcDbEntity
  8
LAY-10
  6
CONTINUOUS
 62
     7
100
AcDbLine
 10
404.8396260566547
 20
828.0636940245645
 30
0.0
 11
358.0396260566713
 21
874.8636940245478
 31
0.0
  0
LINE
  5
199
330
1F
100
AcDbEntity
  8
LAY-10
  6
CONTINUOUS
 62
     7
100
AcDbLine
 10
418.9817616803857
 20
828.0636940245648
 30
0.0
 11
372.1817616804024
 21
874.8636940245478
 31
0.0
  0
LINE
  5
19A
330
1F
100
AcDbEntity
  8
LAY-10
  6
CONTINUOUS
 62
     7
100
AcDbLine
 10
433.1238973041166
 20
828.0636940245648
 30
0.0
 11
386.3238973041334
 21
874.8636940245478
 31
0.0
  0
LINE
  5
19B
330
1F
100
AcDbEntity
  8
LAY-10
  6
CONTINUOUS
 62
     7
100
AcDbLine
 10
447.2660329278474
 20
828.0636940245648
 30
0.0
 11
400.4660329278643
 21
874.8636940245478
 31
0.0
  0
LINE
  5
19C
330
1F
100
AcDbEntity
  8
LAY-10
  6
CONTINUOUS
 62
     7
100
AcDbLine
 10
461.4081685515785
 20
828.0636940245645
 30
0.0
 11
414.6081685515951
 21
874.8636940245478
 31
0.0
  0
LINE
  5
19D
330
1F
100
AcDbEntity
  8
LAY-10
  6
CONTINUOUS
 62
     7
100
AcDbLine
 10
475.5503041753096
 20
828.0636940245645
 30
0.0
 11
428.7503041753262
 21
874.8636940245478
 31
0.0
  0
LINE
  5
19E
330
1F
100
AcDbEntity
  8
LAY-10
  6
CONTINUOUS
 62
     7
100
AcDbLine
 10
489.6924397990404
 20
828.0636940245645
 30
0.0
 11
442.8924397990572
 21
874.8636940245476
 31
0.0
  0
LINE
  5
19F
330
1F
100
AcDbEntity
  8
LAY-10
  6
CONTINUOUS
 62
     7
100
AcDbLine
 10
503.8345754227712
 20
828.0636940245648
 30
0.0
 11
457.0345754227881
 21
874.8636940245478
 31
0.0
  0
LINE
  5
1A0
330
1F
100
AcDbEntity
  8
LAY-10
  6
CONTINUOUS
 62
     7
100
AcDbLine
 10
517.9767110465023
 20
828.0636940245648
 30
0.0
 11
471.1767110465189
 21
874.8636940245478
 31
0.0
  0
LINE
  5
1A1
330
1F
100
AcDbEntity
  8
LAY-10
  6
CONTINUOUS
 62
     7
100
AcDbLine
 10
532.1188466702331
 20
828.0636940245645
 30
0.0
 11
485.31884667025
 21
874.8636940245478
 31
0.0
  0
LINE
  5
1A2
330
1F
100
AcDbEntity
  8
LAY-10
  6
CONTINUOUS
 62
     7
100
AcDbLine
 10
546.2609822939639
 20
828.0636940245648
 30
0.0
 11
499.4609822939808
 21
874.8636940245478
 31
0.0
  0
LINE
  5
1A3
330
1F
100
AcDbEntity
  8
LAY-10
  6
CONTINUOUS
 62
     7
100
AcDbLine
 10
560.403117917695
 20
828.0636940245645
 30
0.0
 11
513.6031179177119
 21
874.8636940245478
 31
0.0
  0
LINE
  5
1A4
330
1F
100
AcDbEntity
  8
LAY-10
  6
CONTINUOUS
 62
     7
100
AcDbLine
 10
574.5452535414261
 20
828.0636940245648
 30
0.0
 11
527.7452535414427
 21
874.8636940245478
 31
0.0
  0
LINE
  5
1A5
330
1F
100
AcDbEntity
  8
LAY-10
  6
CONTINUOUS
 62
     7
100
AcDbLine
 10
588.6873891651569
 20
828.0636940245645
 30
0.0
 11
541.8873891651738
 21
874.8636940245476
 31
0.0
  0
LINE
  5
1A6
330
1F
100
AcDbEntity
  8
LAY-10
  6
CONTINUOUS
 62
     7
100
AcDbLine
 10
602.829524788888
 20
828.0636940245645
 30
0.0
 11
556.0295247889048
 21
874.8636940245478
 31
0.0
  0
LINE
  5
1A7
330
1F
100
AcDbEntity
  8
LAY-10
  6
CONTINUOUS
 62
     7
100
AcDbLine
 10
616.9716604126188
 20
828.0636940245648
 30
0.0
 11
570.1716604126354
 21
874.8636940245478
 31
0.0
  0
LINE
  5
1A8
330
1F
100
AcDbEntity
  8
LAY-10
  6
CONTINUOUS
 62
     7
100
AcDbLine
 10
631.1137960363499
 20
828.0636940245645
 30
0.0
 11
584.3137960363665
 21
874.8636940245478
 31
0.0
  0
LINE
  5
1A9
330
1F
100
AcDbEntity
  8
LAY-10
  6
CONTINUOUS
 62
     7
100
AcDbLine
 10
645.2559316600807
 20
828.0636940245648
 30
0.0
 11
598.4559316600976
 21
874.8636940245478
 31
0.0
  0
LINE
  5
1AA
330
1F
100
AcDbEntity
  8
LAY-10
  6
CONTINUOUS
 62
     7
100
AcDbLine
 10
659.3980672838115
 20
828.0636940245645
 30
0.0
 11
612.5980672838286
 21
874.8636940245476
 31
0.0
  0
LINE
  5
1AB
330
1F
100
AcDbEntity
  8
LAY-10
  6
CONTINUOUS
 62
     7
100
AcDbLine
 10
673.5402029075426
 20
828.0636940245645
 30
0.0
 11
626.7402029075595
 21
874.8636940245478
 31
0.0
  0
LINE
  5
1AC
330
1F
100
AcDbEntity
  8
LAY-10
  6
CONTINUOUS
 62
     7
100
AcDbLine
 10
687.6823385312737
 20
828.0636940245648
 30
0.0
 11
640.8823385312903
 21
874.8636940245478
 31
0.0
  0
LINE
  5
1AD
330
1F
100
AcDbEntity
  8
LAY-10
  6
CONTINUOUS
 62
     7
100
AcDbLine
 10
701.8244741550047
 20
828.0636940245645
 30
0.0
 11
655.0244741550214
 21
874.8636940245478
 31
0.0
  0
LINE
  5
1AE
330
1F
100
AcDbEntity
  8
LAY-10
  6
CONTINUOUS
 62
     7
100
AcDbLine
 10
715.9666097787353
 20
828.0636940245648
 30
0.0
 11
669.1666097787524
 21
874.8636940245478
 31
0.0
  0
LINE
  5
1AF
330
1F
100
AcDbEntity
  8
LAY-10
  6
CONTINUOUS
 62
     7
100
AcDbLine
 10
730.1087454024664
 20
828.0636940245645
 30
0.0
 11
683.3087454024833
 21
874.8636940245476
 31
0.0
  0
LINE
  5
1B0
330
1F
100
AcDbEntity
  8
LAY-10
  6
CONTINUOUS
 62
     7
100
AcDbLine
 10
744.2508810261975
 20
828.0636940245645
 30
0.0
 11
697.450881026214
 21
874.8636940245478
 31
0.0
  0
LINE
  5
1B1
330
1F
100
AcDbEntity
  8
LAY-10
  6
CONTINUOUS
 62
     7
100
AcDbLine
 10
758.3930166499283
 20
828.0636940245648
 30
0.0
 11
711.5930166499451
 21
874.8636940245478
 31
0.0
  0
LINE
  5
1B2
330
1F
100
AcDbEntity
  8
LAY-10
  6
CONTINUOUS
 62
     7
100
AcDbLine
 10
772.5351522736594
 20
828.0636940245645
 30
0.0
 11
725.735152273676
 21
874.8636940245478
 31
0.0
  0
LINE
  5
1B3
330
1F
100
AcDbEntity
  8
LAY-10
  6
CONTINUOUS
 62
     7
100
AcDbLine
 10
786.6772878973902
 20
828.0636940245648
 30
0.0
 11
739.8772878974071
 21
874.8636940245478
 31
0.0
  0
LINE
  5
1B4
330
1F
100
AcDbEntity
  8
LAY-10
  6
CONTINUOUS
 62
     7
100
AcDbLine
 10
800.8194235211213
 20
828.0636940245645
 30
0.0
 11
754.0194235211379
 21
874.8636940245476
 31
0.0
  0
LINE
  5
1B5
330
1F
100
AcDbEntity
  8
LAY-10
  6
CONTINUOUS
 62
     7
100
AcDbLine
 10
814.9615591448523
 20
828.0636940245645
 30
0.0
 11
768.161559144869
 21
874.8636940245478
 31
0.0
  0
LINE
  5
1B6
330
1F
100
AcDbEntity
  8
LAY-10
  6
CONTINUOUS
 62
     7
100
AcDbLine
 10
829.1036947685831
 20
828.0636940245645
 30
0.0
 11
782.3036947685998
 21
874.8636940245476
 31
0.0
  0
LINE
  5
1B7
330
1F
100
AcDbEntity
  8
LAY-10
  6
CONTINUOUS
 62
     7
100
AcDbLine
 10
843.2458303923141
 20
828.0636940245645
 30
0.0
 11
796.4458303923307
 21
874.8636940245478
 31
0.0
  0
LINE
  5
1B8
330
1F
100
AcDbEntity
  8
LAY-10
  6
CONTINUOUS
 62
     7
100
AcDbLine
 10
857.3879660160452
 20
828.0636940245648
 30
0.0
 11
810.5879660160617
 21
874.8636940245478
 31
0.0
  0
LINE
  5
1B9
330
1F
100
AcDbEntity
  8
LAY-10
  6
CONTINUOUS
 62
     7
100
AcDbLine
 10
871.5301016397759
 20
828.0636940245645
 30
0.0
 11
824.7301016397928
 21
874.8636940245476
 31
0.0
  0
LINE
  5
1BA
330
1F
100
AcDbEntity
  8
LAY-10
  6
CONTINUOUS
 62
     7
100
AcDbLine
 10
885.672237263507
 20
828.0636940245645
 30
0.0
 11
838.8722372635239
 21
874.8636940245478
 31
0.0
  0
LINE
  5
1BB
330
1F
100
AcDbEntity
  8
LAY-10
  6
CONTINUOUS
 62
     7
100
AcDbLine
 10
899.8143728872378
 20
828.0636940245645
 30
0.0
 11
853.0143728872545
 21
874.8636940245476
 31
0.0
  0
LINE
  5
1BC
330
1F
100
AcDbEntity
  8
LAY-10
  6
CONTINUOUS
 62
     7
100
AcDbLine
 10
913.9565085109689
 20
828.0636940245645
 30
0.0
 11
867.1565085109855
 21
874.8636940245478
 31
0.0
  0
LINE
  5
1BD
330
1F
100
AcDbEntity
  8
LAY-10
  6
CONTINUOUS
 62
     7
100
AcDbLine
 10
928.0986441346997
 20
828.0636940245648
 30
0.0
 11
881.2986441347166
 21
874.8636940245478
 31
0.0
  0
LINE
  5
1BE
330
1F
100
AcDbEntity
  8
LAY-10
  6
CONTINUOUS
 62
     7
100
AcDbLine
 10
942.2407797584306
 20
828.0636940245645
 30
0.0
 11
895.4407797584477
 21
874.8636940245476
 31
0.0
  0
LINE
  5
1BF
330
1F
100
AcDbEntity
  8
LAY-10
  6
CONTINUOUS
 62
     7
100
AcDbLine
 10
956.3829153821616
 20
828.0636940245645
 30
0.0
 11
909.5829153821785
 21
874.8636940245478
 31
0.0
  0
LINE
  5
1C0
330
1F
100
AcDbEntity
  8
LAY-10
  6
CONTINUOUS
 62
     7
100
AcDbLine
 10
970.5250510058927
 20
828.0636940245645
 30
0.0
 11
923.7250510059093
 21
874.8636940245476
 31
0.0
  0
LINE
  5
1C1
330
1F
100
AcDbEntity
  8
LAY-10
  6
CONTINUOUS
 62
     7
100
AcDbLine
 10
984.6671866296238
 20
828.0636940245645
 30
0.0
 11
937.8671866296404
 21
874.8636940245478
 31
0.0
  0
LINE
  5
1C2
330
1F
100
AcDbEntity
  8
LAY-10
  6
CONTINUOUS
 62
     7
100
AcDbLine
 10
998.8093222533544
 20
828.0636940245648
 30
0.0
 11
952.0093222533715
 21
874.8636940245478
 31
0.0
  0
LINE
  5
1C3
330
1F
100
AcDbEntity
  8
LAY-10
  6
CONTINUOUS
 62
     7
100
AcDbLine
 10
1012.951457877085
 20
828.0636940245645
 30
0.0
 11
966.1514578771023
 21
874.8636940245476
 31
0.0
  0
LINE
  5
1C4
330
1F
100
AcDbEntity
  8
LAY-10
  6
CONTINUOUS
 62
     7
100
AcDbLine
 10
1027.093593500816
 20
828.0636940245645
 30
0.0
 11
980.2935935008333
 21
874.8636940245478
 31
0.0
  0
LINE
  5
1C5
330
1F
100
AcDbEntity
  8
LAY-10
  6
CONTINUOUS
 62
     7
100
AcDbLine
 10
1041.235729124547
 20
828.0636940245645
 30
0.0
 11
994.4357291245643
 21
874.8636940245476
 31
0.0
  0
LINE
  5
1C6
330
1F
100
AcDbEntity
  8
LAY-10
  6
CONTINUOUS
 62
     7
100
AcDbLine
 10
1055.377864748278
 20
828.0636940245645
 30
0.0
 11
1008.577864748295
 21
874.8636940245476
 31
0.0
  0
LINE
  5
1C7
330
1F
100
AcDbEntity
  8
LAY-10
  6
CONTINUOUS
 62
     7
100
AcDbLine
 10
1069.520000372009
 20
828.0636940245648
 30
0.0
 11
1022.720000372026
 21
874.8636940245478
 31
0.0
  0
LINE
  5
1C8
330
1F
100
AcDbEntity
  8
LAY-10
  6
CONTINUOUS
 62
     7
100
AcDbLine
 10
1083.66213599574
 20
828.0636940245648
 30
0.0
 11
1036.862135995757
 21
874.8636940245478
 31
0.0
  0
LINE
  5
1C9
330
1F
100
AcDbEntity
  8
LAY-10
  6
CONTINUOUS
 62
     7
100
AcDbLine
 10
1097.804271619471
 20
828.0636940245645
 30
0.0
 11
1051.004271619488
 21
874.8636940245478
 31
0.0
  0
LINE
  5
1CA
330
1F
100
AcDbEntity
  8
LAY-10
  6
CONTINUOUS
 62
     7
100
AcDbLine
 10
1111.946407243202
 20
828.0636940245648
 30
0.0
 11
1065.146407243219
 21
874.8636940245478
 31
0.0
  0
LINE
  5
1CB
330
1F
100
AcDbEntity
  8
LAY-10
  6
CONTINUOUS
 62
     7
100
AcDbLine
 10
1126.088542866933
 20
828.0636940245648
 30
0.0
 11
1079.28854286695
 21
874.8636940245478
 31
0.0
  0
LINE
  5
1CC
330
1F
100
AcDbEntity
  8
LAY-10
  6
CONTINUOUS
 62
     7
100
AcDbLine
 10
1140.230678490664
 20
828.0636940245648
 30
0.0
 11
1093.430678490681
 21
874.8636940245478
 31
0.0
  0
LINE
  5
1CD
330
1F
100
AcDbEntity
  8
LAY-10
  6
CONTINUOUS
 62
     7
100
AcDbLine
 10
1154.372814114395
 20
828.0636940245648
 30
0.0
 11
1107.572814114412
 21
874.8636940245478
 31
0.0
  0
LINE
  5
1CE
330
1F
100
AcDbEntity
  8
LAY-10
  6
CONTINUOUS
 62
     7
100
AcDbLine
 10
1168.514949738126
 20
828.0636940245645
 30
0.0
 11
1121.714949738143
 21
874.8636940245478
 31
0.0
  0
LINE
  5
1CF
330
1F
100
AcDbEntity
  8
LAY-10
  6
CONTINUOUS
 62
     7
100
AcDbLine
 10
1182.657085361857
 20
828.0636940245648
 30
0.0
 11
1135.857085361874
 21
874.8636940245478
 31
0.0
  0
LINE
  5
1D0
330
1F
100
AcDbEntity
  8
LAY-10
  6
CONTINUOUS
 62
     7
100
AcDbLine
 10
1196.799220985588
 20
828.0636940245648
 30
0.0
 11
1149.999220985605
 21
874.8636940245478
 31
0.0
  0
LINE
  5
1D1
330
1F
100
AcDbEntity
  8
LAY-10
  6
CONTINUOUS
 62
     7
100
AcDbLine
 10
1210.941356609319
 20
828.0636940245648
 30
0.0
 11
1164.141356609336
 21
874.8636940245478
 31
0.0
  0
LINE
  5
1D2
330
1F
100
AcDbEntity
  8
LAY-10
  6
CONTINUOUS
 62
     7
100
AcDbLine
 10
1225.08349223305
 20
828.0636940245648
 30
0.0
 11
1178.283492233067
 21
874.8636940245478
 31
0.0
  0
LINE
  5
1D3
330
1F
100
AcDbEntity
  8
LAY-10
  6
CONTINUOUS
 62
     7
100
AcDbLine
 10
1239.225627856781
 20
828.0636940245645
 30
0.0
 11
1192.425627856798
 21
874.8636940245478
 31
0.0
  0
LINE
  5
1D4
330
1F
100
AcDbEntity
  8
LAY-10
  6
CONTINUOUS
 62
     7
100
AcDbLine
 10
1253.367763480512
 20
828.0636940245648
 30
0.0
 11
1206.567763480529
 21
874.8636940245478
 31
0.0
  0
LINE
  5
1D5
330
1F
100
AcDbEntity
  8
LAY-10
  6
CONTINUOUS
 62
     7
100
AcDbLine
 10
1267.509899104243
 20
828.0636940245648
 30
0.0
 11
1220.709899104259
 21
874.8636940245478
 31
0.0
  0
LINE
  5
1D6
330
1F
100
AcDbEntity
  8
LAY-10
  6
CONTINUOUS
 62
     7
100
AcDbLine
 10
1281.652034727974
 20
828.0636940245648
 30
0.0
 11
1234.85203472799
 21
874.8636940245478
 31
0.0
  0
LINE
  5
1D7
330
1F
100
AcDbEntity
  8
LAY-10
  6
CONTINUOUS
 62
     7
100
AcDbLine
 10
1295.794170351704
 20
828.0636940245648
 30
0.0
 11
1248.994170351721
 21
874.8636940245478
 31
0.0
  0
LINE
  5
1D8
330
1F
100
AcDbEntity
  8
LAY-10
  6
CONTINUOUS
 62
     7
100
AcDbLine
 10
1309.936305975436
 20
828.0636940245645
 30
0.0
 11
1263.136305975452
 21
874.8636940245478
 31
0.0
  0
LINE
  5
1D9
330
1F
100
AcDbEntity
  8
LAY-10
  6
CONTINUOUS
 62
     7
100
AcDbLine
 10
1324.078441599166
 20
828.0636940245648
 30
0.0
 11
1277.278441599183
 21
874.8636940245478
 31
0.0
  0
LINE
  5
1DA
330
1F
100
AcDbEntity
  8
LAY-10
  6
CONTINUOUS
 62
     7
100
AcDbLine
 10
1338.220577222897
 20
828.0636940245648
 30
0.0
 11
1291.420577222914
 21
874.8636940245478
 31
0.0
  0
LINE
  5
1DB
330
1F
100
AcDbEntity
  8
LAY-10
  6
CONTINUOUS
 62
     7
100
AcDbLine
 10
1352.362712846628
 20
828.0636940245648
 30
0.0
 11
1305.562712846645
 21
874.8636940245478
 31
0.0
  0
LINE
  5
1DC
330
1F
100
AcDbEntity
  8
LAY-10
  6
CONTINUOUS
 62
     7
100
AcDbLine
 10
1366.504848470359
 20
828.0636940245648
 30
0.0
 11
1319.704848470376
 21
874.8636940245478
 31
0.0
  0
LINE
  5
1DD
330
1F
100
AcDbEntity
  8
LAY-10
  6
CONTINUOUS
 62
     7
100
AcDbLine
 10
1380.64698409409
 20
828.0636940245645
 30
0.0
 11
1333.846984094107
 21
874.8636940245478
 31
0.0
  0
LINE
  5
1DE
330
1F
100
AcDbEntity
  8
LAY-10
  6
CONTINUOUS
 62
     7
100
AcDbLine
 10
1394.789119717821
 20
828.0636940245648
 30
0.0
 11
1347.989119717838
 21
874.8636940245478
 31
0.0
  0
LINE
  5
1DF
330
1F
100
AcDbEntity
  8
LAY-10
  6
CONTINUOUS
 62
     7
100
AcDbLine
 10
1408.931255341552
 20
828.0636940245648
 30
0.0
 11
1362.131255341569
 21
874.8636940245478
 31
0.0
  0
LINE
  5
1E0
330
1F
100
AcDbEntity
  8
LAY-10
  6
CONTINUOUS
 62
     7
100
AcDbLine
 10
1423.073390965283
 20
828.0636940245648
 30
0.0
 11
1376.2733909653
 21
874.8636940245478
 31
0.0
  0
LINE
  5
1E1
330
1F
100
AcDbEntity
  8
LAY-10
  6
CONTINUOUS
 62
     7
100
AcDbLine
 10
1437.215526589014
 20
828.0636940245648
 30
0.0
 11
1390.415526589031
 21
874.8636940245478
 31
0.0
  0
LINE
  5
1E2
330
1F
100
AcDbEntity
  8
LAY-10
  6
CONTINUOUS
 62
     7
100
AcDbLine
 10
1451.357662212745
 20
828.0636940245648
 30
0.0
 11
1404.557662212762
 21
874.8636940245478
 31
0.0
  0
LINE
  5
1E3
330
1F
100
AcDbEntity
  8
LAY-10
  6
CONTINUOUS
 62
     7
100
AcDbLine
 10
1465.499797836476
 20
828.0636940245648
 30
0.0
 11
1418.699797836493
 21
874.8636940245478
 31
0.0
  0
LINE
  5
1E4
330
1F
100
AcDbEntity
  8
LAY-10
  6
CONTINUOUS
 62
     7
100
AcDbLine
 10
1479.641933460207
 20
828.0636940245645
 30
0.0
 11
1432.841933460224
 21
874.8636940245476
 31
0.0
  0
LINE
  5
1E5
330
1F
100
AcDbEntity
  8
LAY-10
  6
CONTINUOUS
 62
     7
100
AcDbLine
 10
1493.784069083938
 20
828.0636940245648
 30
0.0
 11
1446.984069083955
 21
874.8636940245478
 31
0.0
  0
LINE
  5
1E6
330
1F
100
AcDbEntity
  8
LAY-10
  6
CONTINUOUS
 62
     7
100
AcDbLine
 10
1507.926204707669
 20
828.0636940245648
 30
0.0
 11
1461.126204707686
 21
874.8636940245478
 31
0.0
  0
LINE
  5
1E7
330
1F
100
AcDbEntity
  8
LAY-10
  6
CONTINUOUS
 62
     7
100
AcDbLine
 10
1522.0683403314
 20
828.0636940245648
 30
0.0
 11
1475.268340331417
 21
874.8636940245476
 31
0.0
  0
LINE
  5
1E8
330
1F
100
AcDbEntity
  8
LAY-10
  6
CONTINUOUS
 62
     7
100
AcDbLine
 10
1536.210475955131
 20
828.0636940245648
 30
0.0
 11
1489.410475955148
 21
874.8636940245478
 31
0.0
  0
LINE
  5
1E9
330
1F
100
AcDbEntity
  8
LAY-10
  6
CONTINUOUS
 62
     7
100
AcDbLine
 10
1550.352611578862
 20
828.0636940245645
 30
0.0
 11
1503.552611578879
 21
874.8636940245476
 31
0.0
  0
LINE
  5
1EA
330
1F
100
AcDbEntity
  8
LAY-10
  6
CONTINUOUS
 62
     7
100
AcDbLine
 10
1564.494747202593
 20
828.0636940245648
 30
0.0
 11
1517.694747202609
 21
874.8636940245478
 31
0.0
  0
LINE
  5
1EB
330
1F
100
AcDbEntity
  8
LAY-10
  6
CONTINUOUS
 62
     7
100
AcDbLine
 10
1578.636882826323
 20
828.0636940245648
 30
0.0
 11
1531.83688282634
 21
874.8636940245478
 31
0.0
  0
LINE
  5
1EC
330
1F
100
AcDbEntity
  8
LAY-10
  6
CONTINUOUS
 62
     7
100
AcDbLine
 10
1592.779018450055
 20
828.0636940245648
 30
0.0
 11
1545.979018450071
 21
874.8636940245476
 31
0.0
  0
LINE
  5
1ED
330
1F
100
AcDbEntity
  8
LAY-10
  6
CONTINUOUS
 62
     7
100
AcDbLine
 10
1606.921154073785
 20
828.0636940245648
 30
0.0
 11
1560.121154073802
 21
874.8636940245478
 31
0.0
  0
LINE
  5
1EE
330
1F
100
AcDbEntity
  8
LAY-10
  6
CONTINUOUS
 62
     7
100
AcDbLine
 10
1621.063289697516
 20
828.0636940245645
 30
0.0
 11
1574.263289697533
 21
874.8636940245476
 31
0.0
  0
LINE
  5
1EF
330
1F
100
AcDbEntity
  8
LAY-10
  6
CONTINUOUS
 62
     7
100
AcDbLine
 10
1635.205425321248
 20
828.0636940245648
 30
0.0
 11
1588.405425321264
 21
874.8636940245478
 31
0.0
  0
LINE
  5
1F0
330
1F
100
AcDbEntity
  8
LAY-10
  6
CONTINUOUS
 62
     7
100
AcDbLine
 10
1649.347560944978
 20
828.0636940245648
 30
0.0
 11
1602.547560944995
 21
874.8636940245478
 31
0.0
  0
LINE
  5
1F1
330
1F
100
AcDbEntity
  8
LAY-10
  6
CONTINUOUS
 62
     7
100
AcDbLine
 10
1663.489696568709
 20
828.0636940245648
 30
0.0
 11
1616.689696568726
 21
874.8636940245476
 31
0.0
  0
LINE
  5
1F2
330
1F
100
AcDbEntity
  8
LAY-10
  6
CONTINUOUS
 62
     7
100
AcDbLine
 10
1677.63183219244
 20
828.0636940245648
 30
0.0
 11
1630.831832192457
 21
874.8636940245478
 31
0.0
  0
LINE
  5
1F3
330
1F
100
AcDbEntity
  8
LAY-10
  6
CONTINUOUS
 62
     7
100
AcDbLine
 10
1691.773967816171
 20
828.0636940245645
 30
0.0
 11
1644.973967816188
 21
874.8636940245476
 31
0.0
  0
LINE
  5
1F4
330
1F
100
AcDbEntity
  8
LAY-10
  6
CONTINUOUS
 62
     7
100
AcDbLine
 10
1705.916103439902
 20
828.0636940245648
 30
0.0
 11
1659.116103439919
 21
874.8636940245478
 31
0.0
  0
LINE
  5
1F5
330
1F
100
AcDbEntity
  8
LAY-10
  6
CONTINUOUS
 62
     7
100
AcDbLine
 10
1720.058239063633
 20
828.0636940245648
 30
0.0
 11
1673.25823906365
 21
874.8636940245478
 31
0.0
  0
LINE
  5
1F6
330
1F
100
AcDbEntity
  8
LAY-10
  6
CONTINUOUS
 62
     7
100
AcDbLine
 10
1734.200374687364
 20
828.0636940245648
 30
0.0
 11
1687.400374687381
 21
874.8636940245476
 31
0.0
  0
LINE
  5
1F7
330
1F
100
AcDbEntity
  8
LAY-10
  6
CONTINUOUS
 62
     7
100
AcDbLine
 10
1748.342510311095
 20
828.0636940245648
 30
0.0
 11
1701.542510311112
 21
874.8636940245478
 31
0.0
  0
LINE
  5
1F8
330
1F
100
AcDbEntity
  8
LAY-10
  6
CONTINUOUS
 62
     7
100
AcDbLine
 10
1762.484645934826
 20
828.0636940245645
 30
0.0
 11
1715.684645934843
 21
874.8636940245476
 31
0.0
  0
LINE
  5
1F9
330
1F
100
AcDbEntity
  8
LAY-10
  6
CONTINUOUS
 62
     7
100
AcDbLine
 10
1776.626781558557
 20
828.0636940245648
 30
0.0
 11
1729.826781558574
 21
874.8636940245478
 31
0.0
  0
LINE
  5
1FA
330
1F
100
AcDbEntity
  8
LAY-10
  6
CONTINUOUS
 62
     7
100
AcDbLine
 10
1790.768917182288
 20
828.0636940245648
 30
0.0
 11
1743.968917182304
 21
874.8636940245478
 31
0.0
  0
LINE
  5
1FB
330
1F
100
AcDbEntity
  8
LAY-10
  6
CONTINUOUS
 62
     7
100
AcDbLine
 10
1804.911052806019
 20
828.0636940245648
 30
0.0
 11
1758.111052806036
 21
874.8636940245476
 31
0.0
  0
LINE
  5
1FC
330
1F
100
AcDbEntity
  8
LAY-10
  6
CONTINUOUS
 62
     7
100
AcDbLine
 10
1819.05318842975
 20
828.0636940245648
 30
0.0
 11
1772.253188429767
 21
874.8636940245478
 31
0.0
  0
LINE
  5
1FD
330
1F
100
AcDbEntity
  8
LAY-10
  6
CONTINUOUS
 62
     7
100
AcDbLine
 10
1833.195324053481
 20
828.0636940245648
 30
0.0
 11
1786.395324053497
 21
874.8636940245478
 31
0.0
  0
LINE
  5
1FE
330
1F
100
AcDbEntity
  8
LAY-10
  6
CONTINUOUS
 62
     7
100
AcDbLine
 10
1847.337459677212
 20
828.0636940245643
 30
0.0
 11
1800.537459677228
 21
874.8636940245476
 31
0.0
  0
LINE
  5
1FF
330
1F
100
AcDbEntity
  8
LAY-10
  6
CONTINUOUS
 62
     7
100
AcDbLine
 10
1861.479595300942
 20
828.0636940245645
 30
0.0
 11
1814.679595300959
 21
874.8636940245476
 31
0.0
  0
LINE
  5
200
330
1F
100
AcDbEntity
  8
LAY-10
  6
CONTINUOUS
 62
     7
100
AcDbLine
 10
1875.621730924674
 20
828.0636940245648
 30
0.0
 11
1828.82173092469
 21
874.8636940245476
 31
0.0
  0
LINE
  5
201
330
1F
100
AcDbEntity
  8
LAY-10
  6
CONTINUOUS
 62
     7
100
AcDbLine
 10
1889.763866548405
 20
828.0636940245648
 30
0.0
 11
1842.963866548421
 21
874.8636940245478
 31
0.0
  0
LINE
  5
202
330
1F
100
AcDbEntity
  8
LAY-10
  6
CONTINUOUS
 62
     7
100
AcDbLine
 10
1903.906002172135
 20
828.0636940245648
 30
0.0
 11
1857.106002172152
 21
874.8636940245478
 31
0.0
  0
LINE
  5
203
330
1F
100
AcDbEntity
  8
LAY-10
  6
CONTINUOUS
 62
     7
100
AcDbLine
 10
1918.048137795867
 20
828.0636940245643
 30
0.0
 11
1871.248137795883
 21
874.8636940245476
 31
0.0
  0
LINE
  5
204
330
1F
100
AcDbEntity
  8
LAY-10
  6
CONTINUOUS
 62
     7
100
AcDbLine
 10
1919.940725757079
 20
840.3132416870822
 30
0.0
 11
1885.390273419614
 21
874.8636940245476
 31
0.0
  0
LINE
  5
205
330
1F
100
AcDbEntity
  8
LAY-10
  6
CONTINUOUS
 62
     7
100
AcDbLine
 10
1919.94072575708
 20
854.4553773108132
 30
0.0
 11
1899.532409043345
 21
874.8636940245476
 31
0.0
  0
LINE
  5
206
330
1F
100
AcDbEntity
  8
LAY-10
  6
CONTINUOUS
 62
     7
100
AcDbLine
 10
1919.94072575708
 20
868.5975129345443
 30
0.0
 11
1913.674544667076
 21
874.8636940245478
 31
0.0
  0
LINE
  5
207
330
1F
100
AcDbEntity
  8
LAY-10
  6
CONTINUOUS
 62
     7
100
AcDbLine
 10
2471.553062767454
 20
2402.611503994712
 30
0.0
 11
2473.221079912978
 21
2404.279521140234
 31
0.0
  0
LINE
  5
208
330
1F
100
AcDbEntity
  8
LAY-10
  6
CONTINUOUS
 62
     7
100
AcDbLine
 10
2471.553062767454
 20
2388.46936837098
 30
0.0
 11
2487.363215536709
 21
2404.279521140234
 31
0.0
  0
LINE
  5
209
330
1F
100
AcDbEntity
  8
LAY-10
  6
CONTINUOUS
 62
     7
100
AcDbLine
 10
2471.553062767454
 20
2374.32723274725
 30
0.0
 11
2501.505351160439
 21
2404.279521140234
 31
0.0
  0
LINE
  5
20A
330
1F
100
AcDbEntity
  8
LAY-10
  6
CONTINUOUS
 62
     7
100
AcDbLine
 10
2471.553062767454
 20
2360.185097123519
 30
0.0
 11
2515.64748678417
 21
2404.279521140234
 31
0.0
  0
LINE
  5
20B
330
1F
100
AcDbEntity
  8
LAY-10
  6
CONTINUOUS
 62
     7
100
AcDbLine
 10
2471.553062767454
 20
2346.042961499787
 30
0.0
 11
2518.353062767438
 21
2392.842961499771
 31
0.0
  0
LINE
  5
20C
330
1F
100
AcDbEntity
  8
LAY-10
  6
CONTINUOUS
 62
     7
100
AcDbLine
 10
2471.553062767454
 20
2331.900825876057
 30
0.0
 11
2518.353062767438
 21
2378.70082587604
 31
0.0
  0
LINE
  5
20D
330
1F
100
AcDbEntity
  8
LAY-10
  6
CONTINUOUS
 62
     7
100
AcDbLine
 10
2471.553062767454
 20
2317.758690252325
 30
0.0
 11
2518.353062767438
 21
2364.558690252309
 31
0.0
  0
LINE
  5
20E
330
1F
100
AcDbEntity
  8
LAY-10
  6
CONTINUOUS
 62
     7
100
AcDbLine
 10
2471.553062767454
 20
2303.616554628595
 30
0.0
 11
2518.353062767438
 21
2350.416554628579
 31
0.0
  0
LINE
  5
20F
330
1F
100
AcDbEntity
  8
LAY-10
  6
CONTINUOUS
 62
     7
100
AcDbLine
 10
2471.553062767454
 20
2289.474419004864
 30
0.0
 11
2518.353062767438
 21
2336.274419004847
 31
0.0
  0
LINE
  5
210
330
1F
100
AcDbEntity
  8
LAY-10
  6
CONTINUOUS
 62
     7
100
AcDbLine
 10
2471.553062767454
 20
2275.332283381133
 30
0.0
 11
2518.353062767438
 21
2322.132283381116
 31
0.0
  0
LINE
  5
211
330
1F
100
AcDbEntity
  8
LAY-10
  6
CONTINUOUS
 62
     7
100
AcDbLine
 10
2471.553062767454
 20
2261.190147757402
 30
0.0
 11
2518.353062767438
 21
2307.990147757386
 31
0.0
  0
LINE
  5
212
330
1F
100
AcDbEntity
  8
LAY-10
  6
CONTINUOUS
 62
     7
100
AcDbLine
 10
2471.553062767454
 20
2247.048012133671
 30
0.0
 11
2518.353062767438
 21
2293.848012133654
 31
0.0
  0
LINE
  5
213
330
1F
100
AcDbEntity
  8
LAY-10
  6
CONTINUOUS
 62
     7
100
AcDbLine
 10
2471.553062767454
 20
2232.90587650994
 30
0.0
 11
2518.353062767438
 21
2279.705876509924
 31
0.0
  0
LINE
  5
214
330
1F
100
AcDbEntity
  8
LAY-10
  6
CONTINUOUS
 62
     7
100
AcDbLine
 10
2471.553062767442
 20
2218.763740886197
 30
0.0
 11
2518.353062767438
 21
2265.563740886192
 31
0.0
  0
LINE
  5
215
330
1F
100
AcDbEntity
  8
LAY-10
  6
CONTINUOUS
 62
     7
100
AcDbLine
 10
2471.553062767442
 20
2204.621605262465
 30
0.0
 11
2518.353062767438
 21
2251.421605262462
 31
0.0
  0
LINE
  5
216
330
1F
100
AcDbEntity
  8
LAY-10
  6
CONTINUOUS
 62
     7
100
AcDbLine
 10
2471.553062767442
 20
2190.479469638734
 30
0.0
 11
2518.353062767438
 21
2237.279469638731
 31
0.0
  0
LINE
  5
217
330
1F
100
AcDbEntity
  8
LAY-10
  6
CONTINUOUS
 62
     7
100
AcDbLine
 10
2471.553062767442
 20
2176.337334015004
 30
0.0
 11
2518.353062767438
 21
2223.137334014999
 31
0.0
  0
LINE
  5
218
330
1F
100
AcDbEntity
  8
LAY-10
  6
CONTINUOUS
 62
     7
100
AcDbLine
 10
2471.553062767442
 20
2162.195198391272
 30
0.0
 11
2518.353062767438
 21
2208.995198391269
 31
0.0
  0
LINE
  5
219
330
1F
100
AcDbEntity
  8
LAY-10
  6
CONTINUOUS
 62
     7
100
AcDbLine
 10
2471.553062767442
 20
2148.053062767542
 30
0.0
 11
2518.353062767438
 21
2194.853062767537
 31
0.0
  0
LINE
  5
21A
330
1F
100
AcDbEntity
  8
LAY-10
  6
CONTINUOUS
 62
     7
100
AcDbLine
 10
2471.553062767442
 20
2133.91092714381
 30
0.0
 11
2518.353062767438
 21
2180.710927143807
 31
0.0
  0
LINE
  5
21B
330
1F
100
AcDbEntity
  8
LAY-10
  6
CONTINUOUS
 62
     7
100
AcDbLine
 10
2471.553062767442
 20
2119.76879152008
 30
0.0
 11
2518.353062767438
 21
2166.568791520076
 31
0.0
  0
LINE
  5
21C
330
1F
100
AcDbEntity
  8
LAY-10
  6
CONTINUOUS
 62
     7
100
AcDbLine
 10
2471.553062767442
 20
2105.626655896349
 30
0.0
 11
2518.353062767438
 21
2152.426655896345
 31
0.0
  0
LINE
  5
21D
330
1F
100
AcDbEntity
  8
LAY-10
  6
CONTINUOUS
 62
     7
100
AcDbLine
 10
2471.553062767442
 20
2091.484520272618
 30
0.0
 11
2518.353062767438
 21
2138.284520272614
 31
0.0
  0
LINE
  5
21E
330
1F
100
AcDbEntity
  8
LAY-10
  6
CONTINUOUS
 62
     7
100
AcDbLine
 10
2471.553062767442
 20
2077.342384648887
 30
0.0
 11
2518.353062767438
 21
2124.142384648883
 31
0.0
  0
LINE
  5
21F
330
1F
100
AcDbEntity
  8
LAY-10
  6
CONTINUOUS
 62
     7
100
AcDbLine
 10
2471.553062767442
 20
2063.200249025156
 30
0.0
 11
2518.353062767438
 21
2110.000249025152
 31
0.0
  0
LINE
  5
220
330
1F
100
AcDbEntity
  8
LAY-10
  6
CONTINUOUS
 62
     7
100
AcDbLine
 10
2471.553062767442
 20
2049.058113401425
 30
0.0
 11
2518.353062767438
 21
2095.858113401421
 31
0.0
  0
LINE
  5
221
330
1F
100
AcDbEntity
  8
LAY-10
  6
CONTINUOUS
 62
     7
100
AcDbLine
 10
2471.553062767442
 20
2034.915977777694
 30
0.0
 11
2518.353062767438
 21
2081.71597777769
 31
0.0
  0
LINE
  5
222
330
1F
100
AcDbEntity
  8
LAY-10
  6
CONTINUOUS
 62
     7
100
AcDbLine
 10
2471.553062767442
 20
2020.773842153963
 30
0.0
 11
2518.353062767438
 21
2067.573842153959
 31
0.0
  0
LINE
  5
223
330
1F
100
AcDbEntity
  8
LAY-10
  6
CONTINUOUS
 62
     7
100
AcDbLine
 10
2471.553062767442
 20
2006.631706530232
 30
0.0
 11
2518.353062767438
 21
2053.431706530228
 31
0.0
  0
LINE
  5
224
330
1F
100
AcDbEntity
  8
LAY-10
  6
CONTINUOUS
 62
     7
100
AcDbLine
 10
2471.553062767442
 20
1992.489570906501
 30
0.0
 11
2518.353062767438
 21
2039.289570906497
 31
0.0
  0
LINE
  5
225
330
1F
100
AcDbEntity
  8
LAY-10
  6
CONTINUOUS
 62
     7
100
AcDbLine
 10
2471.553062767442
 20
1978.34743528277
 30
0.0
 11
2518.353062767438
 21
2025.147435282767
 31
0.0
  0
LINE
  5
226
330
1F
100
AcDbEntity
  8
LAY-10
  6
CONTINUOUS
 62
     7
100
AcDbLine
 10
2471.553062767442
 20
1964.205299659039
 30
0.0
 11
2518.353062767438
 21
2011.005299659035
 31
0.0
  0
LINE
  5
227
330
1F
100
AcDbEntity
  8
LAY-10
  6
CONTINUOUS
 62
     7
100
AcDbLine
 10
2471.553062767442
 20
1950.063164035309
 30
0.0
 11
2518.353062767438
 21
1996.863164035305
 31
0.0
  0
LINE
  5
228
330
1F
100
AcDbEntity
  8
LAY-10
  6
CONTINUOUS
 62
     7
100
AcDbLine
 10
2471.553062767442
 20
1935.921028411577
 30
0.0
 11
2518.353062767438
 21
1982.721028411574
 31
0.0
  0
LINE
  5
229
330
1F
100
AcDbEntity
  8
LAY-10
  6
CONTINUOUS
 62
     7
100
AcDbLine
 10
2471.553062767442
 20
1921.778892787846
 30
0.0
 11
2518.353062767438
 21
1968.578892787843
 31
0.0
  0
LINE
  5
22A
330
1F
100
AcDbEntity
  8
LAY-10
  6
CONTINUOUS
 62
     7
100
AcDbLine
 10
2471.553062767442
 20
1907.636757164116
 30
0.0
 11
2518.353062767438
 21
1954.436757164112
 31
0.0
  0
LINE
  5
22B
330
1F
100
AcDbEntity
  8
LAY-10
  6
CONTINUOUS
 62
     7
100
AcDbLine
 10
2471.553062767442
 20
1893.494621540385
 30
0.0
 11
2518.353062767438
 21
1940.294621540381
 31
0.0
  0
LINE
  5
22C
330
1F
100
AcDbEntity
  8
LAY-10
  6
CONTINUOUS
 62
     7
100
AcDbLine
 10
2471.553062767442
 20
1879.352485916654
 30
0.0
 11
2518.353062767438
 21
1926.15248591665
 31
0.0
  0
LINE
  5
22D
330
1F
100
AcDbEntity
  8
LAY-10
  6
CONTINUOUS
 62
     7
100
AcDbLine
 10
2471.553062767442
 20
1865.210350292923
 30
0.0
 11
2518.353062767438
 21
1912.010350292919
 31
0.0
  0
LINE
  5
22E
330
1F
100
AcDbEntity
  8
LAY-10
  6
CONTINUOUS
 62
     7
100
AcDbLine
 10
2471.553062767442
 20
1851.068214669192
 30
0.0
 11
2518.353062767438
 21
1897.868214669188
 31
0.0
  0
LINE
  5
22F
330
1F
100
AcDbEntity
  8
LAY-10
  6
CONTINUOUS
 62
     7
100
AcDbLine
 10
2471.553062767442
 20
1836.926079045461
 30
0.0
 11
2518.353062767438
 21
1883.726079045457
 31
0.0
  0
LINE
  5
230
330
1F
100
AcDbEntity
  8
LAY-10
  6
CONTINUOUS
 62
     7
100
AcDbLine
 10
2471.553062767442
 20
1822.78394342173
 30
0.0
 11
2518.353062767438
 21
1869.583943421726
 31
0.0
  0
LINE
  5
231
330
1F
100
AcDbEntity
  8
LAY-10
  6
CONTINUOUS
 62
     7
100
AcDbLine
 10
2471.553062767442
 20
1808.641807797999
 30
0.0
 11
2518.353062767438
 21
1855.441807797995
 31
0.0
  0
LINE
  5
232
330
1F
100
AcDbEntity
  8
LAY-10
  6
CONTINUOUS
 62
     7
100
AcDbLine
 10
2471.553062767442
 20
1794.499672174268
 30
0.0
 11
2518.353062767438
 21
1841.299672174264
 31
0.0
  0
LINE
  5
233
330
1F
100
AcDbEntity
  8
LAY-10
  6
CONTINUOUS
 62
     7
100
AcDbLine
 10
2471.553062767442
 20
1780.357536550537
 30
0.0
 11
2518.353062767438
 21
1827.157536550533
 31
0.0
  0
LINE
  5
234
330
1F
100
AcDbEntity
  8
LAY-10
  6
CONTINUOUS
 62
     7
100
AcDbLine
 10
2471.553062767442
 20
1766.215400926806
 30
0.0
 11
2518.353062767438
 21
1813.015400926802
 31
0.0
  0
LINE
  5
235
330
1F
100
AcDbEntity
  8
LAY-10
  6
CONTINUOUS
 62
     7
100
AcDbLine
 10
2471.553062767442
 20
1752.073265303075
 30
0.0
 11
2518.353062767438
 21
1798.873265303071
 31
0.0
  0
LINE
  5
236
330
1F
100
AcDbEntity
  8
LAY-10
  6
CONTINUOUS
 62
     7
100
AcDbLine
 10
2471.553062767442
 20
1737.931129679344
 30
0.0
 11
2518.353062767438
 21
1784.73112967934
 31
0.0
  0
LINE
  5
237
330
1F
100
AcDbEntity
  8
LAY-10
  6
CONTINUOUS
 62
     7
100
AcDbLine
 10
2471.553062767442
 20
1723.788994055613
 30
0.0
 11
2518.353062767438
 21
1770.588994055609
 31
0.0
  0
LINE
  5
238
330
1F
100
AcDbEntity
  8
LAY-10
  6
CONTINUOUS
 62
     7
100
AcDbLine
 10
2471.553062767442
 20
1709.646858431882
 30
0.0
 11
2518.353062767438
 21
1756.446858431878
 31
0.0
  0
LINE
  5
239
330
1F
100
AcDbEntity
  8
LAY-10
  6
CONTINUOUS
 62
     7
100
AcDbLine
 10
2471.553062767442
 20
1695.504722808151
 30
0.0
 11
2518.353062767438
 21
1742.304722808148
 31
0.0
  0
LINE
  5
23A
330
1F
100
AcDbEntity
  8
LAY-10
  6
CONTINUOUS
 62
     7
100
AcDbLine
 10
2471.553062767442
 20
1681.36258718442
 30
0.0
 11
2518.353062767438
 21
1728.162587184416
 31
0.0
  0
LINE
  5
23B
330
1F
100
AcDbEntity
  8
LAY-10
  6
CONTINUOUS
 62
     7
100
AcDbLine
 10
2471.553062767442
 20
1667.220451560689
 30
0.0
 11
2518.353062767438
 21
1714.020451560685
 31
0.0
  0
LINE
  5
23C
330
1F
100
AcDbEntity
  8
LAY-10
  6
CONTINUOUS
 62
     7
100
AcDbLine
 10
2471.553062767442
 20
1653.078315936958
 30
0.0
 11
2518.353062767438
 21
1699.878315936955
 31
0.0
  0
LINE
  5
23D
330
1F
100
AcDbEntity
  8
LAY-10
  6
CONTINUOUS
 62
     7
100
AcDbLine
 10
2471.553062767442
 20
1638.936180313228
 30
0.0
 11
2518.353062767438
 21
1685.736180313223
 31
0.0
  0
LINE
  5
23E
330
1F
100
AcDbEntity
  8
LAY-10
  6
CONTINUOUS
 62
     7
100
AcDbLine
 10
2471.553062767442
 20
1624.794044689497
 30
0.0
 11
2518.353062767438
 21
1671.594044689493
 31
0.0
  0
LINE
  5
23F
330
1F
100
AcDbEntity
  8
LAY-10
  6
CONTINUOUS
 62
     7
100
AcDbLine
 10
2471.553062767442
 20
1610.651909065765
 30
0.0
 11
2518.353062767438
 21
1657.451909065762
 31
0.0
  0
LINE
  5
240
330
1F
100
AcDbEntity
  8
LAY-10
  6
CONTINUOUS
 62
     7
100
AcDbLine
 10
2471.553062767442
 20
1596.509773442034
 30
0.0
 11
2518.353062767438
 21
1643.309773442031
 31
0.0
  0
LINE
  5
241
330
1F
100
AcDbEntity
  8
LAY-10
  6
CONTINUOUS
 62
     7
100
AcDbLine
 10
2471.553062767442
 20
1582.367637818304
 30
0.0
 11
2518.353062767438
 21
1629.1676378183
 31
0.0
  0
LINE
  5
242
330
1F
100
AcDbEntity
  8
LAY-10
  6
CONTINUOUS
 62
     7
100
AcDbLine
 10
2471.553062767442
 20
1568.225502194573
 30
0.0
 11
2518.353062767438
 21
1615.025502194569
 31
0.0
  0
LINE
  5
243
330
1F
100
AcDbEntity
  8
LAY-10
  6
CONTINUOUS
 62
     7
100
AcDbLine
 10
2471.553062767442
 20
1554.083366570842
 30
0.0
 11
2518.353062767438
 21
1600.883366570838
 31
0.0
  0
LINE
  5
244
330
1F
100
AcDbEntity
  8
LAY-10
  6
CONTINUOUS
 62
     7
100
AcDbLine
 10
2471.553062767442
 20
1539.941230947111
 30
0.0
 11
2518.353062767438
 21
1586.741230947107
 31
0.0
  0
LINE
  5
245
330
1F
100
AcDbEntity
  8
LAY-10
  6
CONTINUOUS
 62
     7
100
AcDbLine
 10
2471.553062767442
 20
1525.799095323379
 30
0.0
 11
2518.353062767438
 21
1572.599095323376
 31
0.0
  0
LINE
  5
246
330
1F
100
AcDbEntity
  8
LAY-10
  6
CONTINUOUS
 62
     7
100
AcDbLine
 10
2471.553062767442
 20
1511.656959699649
 30
0.0
 11
2518.353062767438
 21
1558.456959699645
 31
0.0
  0
LINE
  5
247
330
1F
100
AcDbEntity
  8
LAY-10
  6
CONTINUOUS
 62
     7
100
AcDbLine
 10
2471.553062767442
 20
1497.514824075918
 30
0.0
 11
2518.353062767438
 21
1544.314824075914
 31
0.0
  0
LINE
  5
248
330
1F
100
AcDbEntity
  8
LAY-10
  6
CONTINUOUS
 62
     7
100
AcDbLine
 10
2471.553062767442
 20
1483.372688452187
 30
0.0
 11
2518.353062767438
 21
1530.172688452183
 31
0.0
  0
LINE
  5
249
330
1F
100
AcDbEntity
  8
LAY-10
  6
CONTINUOUS
 62
     7
100
AcDbLine
 10
2471.553062767442
 20
1469.230552828456
 30
0.0
 11
2518.353062767438
 21
1516.030552828452
 31
0.0
  0
LINE
  5
24A
330
1F
100
AcDbEntity
  8
LAY-10
  6
CONTINUOUS
 62
     7
100
AcDbLine
 10
2471.553062767442
 20
1455.088417204725
 30
0.0
 11
2518.353062767438
 21
1501.888417204721
 31
0.0
  0
LINE
  5
24B
330
1F
100
AcDbEntity
  8
LAY-10
  6
CONTINUOUS
 62
     7
100
AcDbLine
 10
2471.553062767442
 20
1440.946281580994
 30
0.0
 11
2518.353062767438
 21
1487.74628158099
 31
0.0
  0
LINE
  5
24C
330
1F
100
AcDbEntity
  8
LAY-10
  6
CONTINUOUS
 62
     7
100
AcDbLine
 10
2471.553062767442
 20
1426.804145957263
 30
0.0
 11
2518.353062767438
 21
1473.604145957259
 31
0.0
  0
LINE
  5
24D
330
1F
100
AcDbEntity
  8
LAY-10
  6
CONTINUOUS
 62
     7
100
AcDbLine
 10
2482.370573574139
 20
1423.47952114023
 30
0.0
 11
2518.353062767438
 21
1459.462010333528
 31
0.0
  0
LINE
  5
24E
330
1F
100
AcDbEntity
  8
LAY-10
  6
CONTINUOUS
 62
     7
100
AcDbLine
 10
2496.51270919787
 20
1423.47952114023
 30
0.0
 11
2518.353062767438
 21
1445.319874709797
 31
0.0
  0
LINE
  5
24F
330
1F
100
AcDbEntity
  8
LAY-10
  6
CONTINUOUS
 62
     7
100
AcDbLine
 10
2510.654844821614
 20
1423.479521140243
 30
0.0
 11
2518.353062767438
 21
1431.177739086066
 31
0.0
  0
LINE
  5
250
330
1F
100
AcDbEntity
  8
LAY-10
  6
CONTINUOUS
 62
     7
100
AcDbLine
 10
2481.20301955465
 20
1423.479521140246
 30
0.0
 11
2471.553062767442
 21
1433.129477927455
 31
0.0
  0
LINE
  5
251
330
1F
100
AcDbEntity
  8
LAY-10
  6
CONTINUOUS
 62
     7
100
AcDbLine
 10
2495.345155178381
 20
1423.479521140246
 30
0.0
 11
2471.553062767442
 21
1447.271613551186
 31
0.0
  0
LINE
  5
252
330
1F
100
AcDbEntity
  8
LAY-10
  6
CONTINUOUS
 62
     7
100
AcDbLine
 10
2509.487290802125
 20
1423.479521140234
 30
0.0
 11
2471.553062767442
 21
1461.413749174917
 31
0.0
  0
LINE
  5
253
330
1F
100
AcDbEntity
  8
LAY-10
  6
CONTINUOUS
 62
     7
100
AcDbLine
 10
2518.353062767438
 20
1428.755884798652
 30
0.0
 11
2471.553062767442
 21
1475.555884798648
 31
0.0
  0
LINE
  5
254
330
1F
100
AcDbEntity
  8
LAY-10
  6
CONTINUOUS
 62
     7
100
AcDbLine
 10
2518.353062767438
 20
1442.898020422383
 30
0.0
 11
2471.553062767442
 21
1489.698020422379
 31
0.0
  0
LINE
  5
255
330
1F
100
AcDbEntity
  8
LAY-10
  6
CONTINUOUS
 62
     7
100
AcDbLine
 10
2518.353062767438
 20
1457.040156046114
 30
0.0
 11
2471.553062767442
 21
1503.84015604611
 31
0.0
  0
LINE
  5
256
330
1F
100
AcDbEntity
  8
LAY-10
  6
CONTINUOUS
 62
     7
100
AcDbLine
 10
2518.353062767438
 20
1471.182291669845
 30
0.0
 11
2471.553062767442
 21
1517.982291669841
 31
0.0
  0
LINE
  5
257
330
1F
100
AcDbEntity
  8
LAY-10
  6
CONTINUOUS
 62
     7
100
AcDbLine
 10
2518.353062767438
 20
1485.324427293576
 30
0.0
 11
2471.553062767442
 21
1532.124427293572
 31
0.0
  0
LINE
  5
258
330
1F
100
AcDbEntity
  8
LAY-10
  6
CONTINUOUS
 62
     7
100
AcDbLine
 10
2518.353062767438
 20
1499.466562917307
 30
0.0
 11
2471.553062767442
 21
1546.266562917303
 31
0.0
  0
LINE
  5
259
330
1F
100
AcDbEntity
  8
LAY-10
  6
CONTINUOUS
 62
     7
100
AcDbLine
 10
2518.353062767438
 20
1513.608698541038
 30
0.0
 11
2471.553062767442
 21
1560.408698541034
 31
0.0
  0
LINE
  5
25A
330
1F
100
AcDbEntity
  8
LAY-10
  6
CONTINUOUS
 62
     7
100
AcDbLine
 10
2518.353062767438
 20
1527.750834164769
 30
0.0
 11
2471.553062767442
 21
1574.550834164765
 31
0.0
  0
LINE
  5
25B
330
1F
100
AcDbEntity
  8
LAY-10
  6
CONTINUOUS
 62
     7
100
AcDbLine
 10
2518.353062767438
 20
1541.8929697885
 30
0.0
 11
2471.553062767442
 21
1588.692969788496
 31
0.0
  0
LINE
  5
25C
330
1F
100
AcDbEntity
  8
LAY-10
  6
CONTINUOUS
 62
     7
100
AcDbLine
 10
2518.353062767438
 20
1556.035105412231
 30
0.0
 11
2471.553062767442
 21
1602.835105412227
 31
0.0
  0
LINE
  5
25D
330
1F
100
AcDbEntity
  8
LAY-10
  6
CONTINUOUS
 62
     7
100
AcDbLine
 10
2518.353062767438
 20
1570.177241035962
 30
0.0
 11
2471.553062767442
 21
1616.977241035958
 31
0.0
  0
LINE
  5
25E
330
1F
100
AcDbEntity
  8
LAY-10
  6
CONTINUOUS
 62
     7
100
AcDbLine
 10
2518.353062767438
 20
1584.319376659693
 30
0.0
 11
2471.553062767442
 21
1631.119376659689
 31
0.0
  0
LINE
  5
25F
330
1F
100
AcDbEntity
  8
LAY-10
  6
CONTINUOUS
 62
     7
100
AcDbLine
 10
2518.353062767438
 20
1598.461512283424
 30
0.0
 11
2471.553062767442
 21
1645.26151228342
 31
0.0
  0
LINE
  5
260
330
1F
100
AcDbEntity
  8
LAY-10
  6
CONTINUOUS
 62
     7
100
AcDbLine
 10
2518.353062767438
 20
1612.603647907155
 30
0.0
 11
2471.553062767442
 21
1659.403647907151
 31
0.0
  0
LINE
  5
261
330
1F
100
AcDbEntity
  8
LAY-10
  6
CONTINUOUS
 62
     7
100
AcDbLine
 10
2518.353062767438
 20
1626.745783530886
 30
0.0
 11
2471.553062767442
 21
1673.545783530881
 31
0.0
  0
LINE
  5
262
330
1F
100
AcDbEntity
  8
LAY-10
  6
CONTINUOUS
 62
     7
100
AcDbLine
 10
2518.353062767438
 20
1640.887919154616
 30
0.0
 11
2471.553062767442
 21
1687.687919154612
 31
0.0
  0
LINE
  5
263
330
1F
100
AcDbEntity
  8
LAY-10
  6
CONTINUOUS
 62
     7
100
AcDbLine
 10
2518.353062767438
 20
1655.030054778347
 30
0.0
 11
2471.553062767442
 21
1701.830054778343
 31
0.0
  0
LINE
  5
264
330
1F
100
AcDbEntity
  8
LAY-10
  6
CONTINUOUS
 62
     7
100
AcDbLine
 10
2518.353062767438
 20
1669.172190402078
 30
0.0
 11
2471.553062767442
 21
1715.972190402074
 31
0.0
  0
LINE
  5
265
330
1F
100
AcDbEntity
  8
LAY-10
  6
CONTINUOUS
 62
     7
100
AcDbLine
 10
2518.353062767438
 20
1683.314326025809
 30
0.0
 11
2471.553062767442
 21
1730.114326025805
 31
0.0
  0
LINE
  5
266
330
1F
100
AcDbEntity
  8
LAY-10
  6
CONTINUOUS
 62
     7
100
AcDbLine
 10
2518.353062767438
 20
1697.45646164954
 30
0.0
 11
2471.553062767442
 21
1744.256461649536
 31
0.0
  0
LINE
  5
267
330
1F
100
AcDbEntity
  8
LAY-10
  6
CONTINUOUS
 62
     7
100
AcDbLine
 10
2518.353062767438
 20
1711.598597273271
 30
0.0
 11
2471.553062767442
 21
1758.398597273267
 31
0.0
  0
LINE
  5
268
330
1F
100
AcDbEntity
  8
LAY-10
  6
CONTINUOUS
 62
     7
100
AcDbLine
 10
2518.353062767438
 20
1725.740732897002
 30
0.0
 11
2471.553062767442
 21
1772.540732896998
 31
0.0
  0
LINE
  5
269
330
1F
100
AcDbEntity
  8
LAY-10
  6
CONTINUOUS
 62
     7
100
AcDbLine
 10
2518.353062767438
 20
1739.882868520733
 30
0.0
 11
2471.553062767442
 21
1786.682868520729
 31
0.0
  0
LINE
  5
26A
330
1F
100
AcDbEntity
  8
LAY-10
  6
CONTINUOUS
 62
     7
100
AcDbLine
 10
2518.353062767438
 20
1754.025004144464
 30
0.0
 11
2471.553062767442
 21
1800.82500414446
 31
0.0
  0
LINE
  5
26B
330
1F
100
AcDbEntity
  8
LAY-10
  6
CONTINUOUS
 62
     7
100
AcDbLine
 10
2518.353062767438
 20
1768.167139768195
 30
0.0
 11
2471.553062767442
 21
1814.967139768191
 31
0.0
  0
LINE
  5
26C
330
1F
100
AcDbEntity
  8
LAY-10
  6
CONTINUOUS
 62
     7
100
AcDbLine
 10
2518.353062767438
 20
1782.309275391926
 30
0.0
 11
2471.553062767442
 21
1829.109275391922
 31
0.0
  0
LINE
  5
26D
330
1F
100
AcDbEntity
  8
LAY-10
  6
CONTINUOUS
 62
     7
100
AcDbLine
 10
2518.353062767438
 20
1796.451411015657
 30
0.0
 11
2471.553062767442
 21
1843.251411015653
 31
0.0
  0
LINE
  5
26E
330
1F
100
AcDbEntity
  8
LAY-10
  6
CONTINUOUS
 62
     7
100
AcDbLine
 10
2518.353062767438
 20
1810.593546639388
 30
0.0
 11
2471.553062767442
 21
1857.393546639384
 31
0.0
  0
LINE
  5
26F
330
1F
100
AcDbEntity
  8
LAY-10
  6
CONTINUOUS
 62
     7
100
AcDbLine
 10
2518.353062767438
 20
1824.735682263119
 30
0.0
 11
2471.553062767442
 21
1871.535682263115
 31
0.0
  0
LINE
  5
270
330
1F
100
AcDbEntity
  8
LAY-10
  6
CONTINUOUS
 62
     7
100
AcDbLine
 10
2518.353062767438
 20
1838.87781788685
 30
0.0
 11
2471.553062767442
 21
1885.677817886846
 31
0.0
  0
LINE
  5
271
330
1F
100
AcDbEntity
  8
LAY-10
  6
CONTINUOUS
 62
     7
100
AcDbLine
 10
2518.353062767438
 20
1853.019953510581
 30
0.0
 11
2471.553062767442
 21
1899.819953510577
 31
0.0
  0
LINE
  5
272
330
1F
100
AcDbEntity
  8
LAY-10
  6
CONTINUOUS
 62
     7
100
AcDbLine
 10
2518.353062767438
 20
1867.162089134312
 30
0.0
 11
2471.553062767442
 21
1913.962089134308
 31
0.0
  0
LINE
  5
273
330
1F
100
AcDbEntity
  8
LAY-10
  6
CONTINUOUS
 62
     7
100
AcDbLine
 10
2518.353062767438
 20
1881.304224758043
 30
0.0
 11
2471.553062767442
 21
1928.104224758039
 31
0.0
  0
LINE
  5
274
330
1F
100
AcDbEntity
  8
LAY-10
  6
CONTINUOUS
 62
     7
100
AcDbLine
 10
2518.353062767438
 20
1895.446360381774
 30
0.0
 11
2471.553062767442
 21
1942.24636038177
 31
0.0
  0
LINE
  5
275
330
1F
100
AcDbEntity
  8
LAY-10
  6
CONTINUOUS
 62
     7
100
AcDbLine
 10
2518.353062767438
 20
1909.588496005505
 30
0.0
 11
2471.553062767442
 21
1956.388496005501
 31
0.0
  0
LINE
  5
276
330
1F
100
AcDbEntity
  8
LAY-10
  6
CONTINUOUS
 62
     7
100
AcDbLine
 10
2518.353062767438
 20
1923.730631629235
 30
0.0
 11
2471.553062767442
 21
1970.530631629231
 31
0.0
  0
LINE
  5
277
330
1F
100
AcDbEntity
  8
LAY-10
  6
CONTINUOUS
 62
     7
100
AcDbLine
 10
2518.353062767438
 20
1937.872767252966
 30
0.0
 11
2471.553062767442
 21
1984.672767252962
 31
0.0
  0
LINE
  5
278
330
1F
100
AcDbEntity
  8
LAY-10
  6
CONTINUOUS
 62
     7
100
AcDbLine
 10
2518.353062767438
 20
1952.014902876697
 30
0.0
 11
2471.553062767442
 21
1998.814902876693
 31
0.0
  0
LINE
  5
279
330
1F
100
AcDbEntity
  8
LAY-10
  6
CONTINUOUS
 62
     7
100
AcDbLine
 10
2518.353062767438
 20
1966.157038500428
 30
0.0
 11
2471.553062767442
 21
2012.957038500424
 31
0.0
  0
LINE
  5
27A
330
1F
100
AcDbEntity
  8
LAY-10
  6
CONTINUOUS
 62
     7
100
AcDbLine
 10
2518.353062767438
 20
1980.299174124159
 30
0.0
 11
2471.553062767442
 21
2027.099174124156
 31
0.0
  0
LINE
  5
27B
330
1F
100
AcDbEntity
  8
LAY-10
  6
CONTINUOUS
 62
     7
100
AcDbLine
 10
2518.353062767438
 20
1994.44130974789
 30
0.0
 11
2471.553062767442
 21
2041.241309747886
 31
0.0
  0
LINE
  5
27C
330
1F
100
AcDbEntity
  8
LAY-10
  6
CONTINUOUS
 62
     7
100
AcDbLine
 10
2518.353062767438
 20
2008.583445371621
 30
0.0
 11
2471.553062767442
 21
2055.383445371617
 31
0.0
  0
LINE
  5
27D
330
1F
100
AcDbEntity
  8
LAY-10
  6
CONTINUOUS
 62
     7
100
AcDbLine
 10
2518.353062767438
 20
2022.725580995352
 30
0.0
 11
2471.553062767442
 21
2069.525580995348
 31
0.0
  0
LINE
  5
27E
330
1F
100
AcDbEntity
  8
LAY-10
  6
CONTINUOUS
 62
     7
100
AcDbLine
 10
2518.353062767438
 20
2036.867716619083
 30
0.0
 11
2471.553062767442
 21
2083.667716619079
 31
0.0
  0
LINE
  5
27F
330
1F
100
AcDbEntity
  8
LAY-10
  6
CONTINUOUS
 62
     7
100
AcDbLine
 10
2518.353062767438
 20
2051.009852242814
 30
0.0
 11
2471.553062767442
 21
2097.80985224281
 31
0.0
  0
LINE
  5
280
330
1F
100
AcDbEntity
  8
LAY-10
  6
CONTINUOUS
 62
     7
100
AcDbLine
 10
2518.353062767438
 20
2065.151987866545
 30
0.0
 11
2471.553062767442
 21
2111.951987866541
 31
0.0
  0
LINE
  5
281
330
1F
100
AcDbEntity
  8
LAY-10
  6
CONTINUOUS
 62
     7
100
AcDbLine
 10
2518.353062767438
 20
2079.294123490276
 30
0.0
 11
2471.553062767442
 21
2126.094123490272
 31
0.0
  0
LINE
  5
282
330
1F
100
AcDbEntity
  8
LAY-10
  6
CONTINUOUS
 62
     7
100
AcDbLine
 10
2518.353062767438
 20
2093.436259114007
 30
0.0
 11
2471.553062767442
 21
2140.236259114003
 31
0.0
  0
LINE
  5
283
330
1F
100
AcDbEntity
  8
LAY-10
  6
CONTINUOUS
 62
     7
100
AcDbLine
 10
2518.353062767438
 20
2107.578394737738
 30
0.0
 11
2471.553062767442
 21
2154.378394737734
 31
0.0
  0
LINE
  5
284
330
1F
100
AcDbEntity
  8
LAY-10
  6
CONTINUOUS
 62
     7
100
AcDbLine
 10
2518.353062767438
 20
2121.720530361469
 30
0.0
 11
2471.553062767442
 21
2168.520530361465
 31
0.0
  0
LINE
  5
285
330
1F
100
AcDbEntity
  8
LAY-10
  6
CONTINUOUS
 62
     7
100
AcDbLine
 10
2518.353062767438
 20
2135.8626659852
 30
0.0
 11
2471.553062767442
 21
2182.662665985195
 31
0.0
  0
LINE
  5
286
330
1F
100
AcDbEntity
  8
LAY-10
  6
CONTINUOUS
 62
     7
100
AcDbLine
 10
2518.353062767438
 20
2150.00480160893
 30
0.0
 11
2471.553062767442
 21
2196.804801608927
 31
0.0
  0
LINE
  5
287
330
1F
100
AcDbEntity
  8
LAY-10
  6
CONTINUOUS
 62
     7
100
AcDbLine
 10
2518.353062767438
 20
2164.146937232662
 30
0.0
 11
2471.553062767442
 21
2210.946937232658
 31
0.0
  0
LINE
  5
288
330
1F
100
AcDbEntity
  8
LAY-10
  6
CONTINUOUS
 62
     7
100
AcDbLine
 10
2518.353062767438
 20
2178.289072856393
 30
0.0
 11
2471.553062767442
 21
2225.089072856389
 31
0.0
  0
LINE
  5
289
330
1F
100
AcDbEntity
  8
LAY-10
  6
CONTINUOUS
 62
     7
100
AcDbLine
 10
2518.353062767438
 20
2192.431208480124
 30
0.0
 11
2471.553062767442
 21
2239.23120848012
 31
0.0
  0
LINE
  5
28A
330
1F
100
AcDbEntity
  8
LAY-10
  6
CONTINUOUS
 62
     7
100
AcDbLine
 10
2518.353062767438
 20
2206.573344103855
 30
0.0
 11
2471.553062767442
 21
2253.37334410385
 31
0.0
  0
LINE
  5
28B
330
1F
100
AcDbEntity
  8
LAY-10
  6
CONTINUOUS
 62
     7
100
AcDbLine
 10
2518.353062767438
 20
2220.715479727585
 30
0.0
 11
2471.553062767442
 21
2267.515479727581
 31
0.0
  0
LINE
  5
28C
330
1F
100
AcDbEntity
  8
LAY-10
  6
CONTINUOUS
 62
     7
100
AcDbLine
 10
2518.353062767438
 20
2234.857615351316
 30
0.0
 11
2471.553062767442
 21
2281.657615351312
 31
0.0
  0
LINE
  5
28D
330
1F
100
AcDbEntity
  8
LAY-10
  6
CONTINUOUS
 62
     7
100
AcDbLine
 10
2518.353062767438
 20
2248.999750975047
 30
0.0
 11
2471.553062767442
 21
2295.799750975043
 31
0.0
  0
LINE
  5
28E
330
1F
100
AcDbEntity
  8
LAY-10
  6
CONTINUOUS
 62
     7
100
AcDbLine
 10
2518.353062767438
 20
2263.141886598778
 30
0.0
 11
2471.553062767442
 21
2309.941886598775
 31
0.0
  0
LINE
  5
28F
330
1F
100
AcDbEntity
  8
LAY-10
  6
CONTINUOUS
 62
     7
100
AcDbLine
 10
2518.353062767438
 20
2277.28402222251
 30
0.0
 11
2471.553062767442
 21
2324.084022222505
 31
0.0
  0
LINE
  5
290
330
1F
100
AcDbEntity
  8
LAY-10
  6
CONTINUOUS
 62
     7
100
AcDbLine
 10
2518.353062767438
 20
2291.42615784624
 30
0.0
 11
2471.553062767442
 21
2338.226157846236
 31
0.0
  0
LINE
  5
291
330
1F
100
AcDbEntity
  8
LAY-10
  6
CONTINUOUS
 62
     7
100
AcDbLine
 10
2518.353062767438
 20
2305.568293469971
 30
0.0
 11
2471.553062767442
 21
2352.368293469967
 31
0.0
  0
LINE
  5
292
330
1F
100
AcDbEntity
  8
LAY-10
  6
CONTINUOUS
 62
     7
100
AcDbLine
 10
2518.353062767438
 20
2319.710429093702
 30
0.0
 11
2471.553062767442
 21
2366.510429093698
 31
0.0
  0
LINE
  5
293
330
1F
100
AcDbEntity
  8
LAY-10
  6
CONTINUOUS
 62
     7
100
AcDbLine
 10
2518.353062767438
 20
2333.852564717433
 30
0.0
 11
2471.553062767442
 21
2380.652564717429
 31
0.0
  0
LINE
  5
294
330
1F
100
AcDbEntity
  8
LAY-10
  6
CONTINUOUS
 62
     7
100
AcDbLine
 10
2518.353062767438
 20
2347.994700341163
 30
0.0
 11
2471.553062767442
 21
2394.79470034116
 31
0.0
  0
LINE
  5
295
330
1F
100
AcDbEntity
  8
LAY-10
  6
CONTINUOUS
 62
     7
100
AcDbLine
 10
2518.353062767438
 20
2362.136835964895
 30
0.0
 11
2476.210377592094
 21
2404.279521140238
 31
0.0
  0
LINE
  5
296
330
1F
100
AcDbEntity
  8
LAY-10
  6
CONTINUOUS
 62
     7
100
AcDbLine
 10
2518.353062767438
 20
2376.278971588626
 30
0.0
 11
2490.352513215825
 21
2404.279521140238
 31
0.0
  0
LINE
  5
297
330
1F
100
AcDbEntity
  8
LAY-10
  6
CONTINUOUS
 62
     7
100
AcDbLine
 10
2518.353062767438
 20
2390.421107212357
 30
0.0
 11
2504.494648839556
 21
2404.279521140238
 31
0.0
  0
LINE
  5
298
330
1F
100
AcDbEntity
  8
LAY-10
  6
CONTINUOUS
 62
     7
100
AcDbLine
 10
1965.5407257569
 20
1377.879521140154
 30
0.0
 11
1980.5407257569
 21
1362.879521140156
 31
0.0
  0
LINE
  5
299
330
1F
100
AcDbEntity
  8
LAY-10
  6
CONTINUOUS
 62
     7
100
AcDbLine
 10
293.5407257569977
 20
1377.879521140154
 30
0.0
 11
278.5407257569977
 21
1362.879521140154
 31
0.0
  0
LINE
  5
29A
330
1F
100
AcDbEntity
  8
LAY-10
  6
CONTINUOUS
 62
     7
100
AcDbLine
 10
278.5407257569977
 20
1362.879521140154
 30
0.0
 11
1980.5407257569
 21
1362.879521140153
 31
0.0
  0
LINE
  5
29B
330
1F
100
AcDbEntity
  8
LAY-10
  6
CONTINUOUS
 62
     7
100
AcDbLine
 10
294.5407257569996
 20
1378.879521140152
 30
0.0
 11
309.5407257569996
 21
1393.879521140152
 31
0.0
  0
LINE
  5
29C
330
1F
100
AcDbEntity
  8
LAY-10
  6
CONTINUOUS
 62
     7
100
AcDbLine
 10
1965.5407257569
 20
1377.879521140153
 30
0.0
 11
293.5407257569977
 21
1377.879521140154
 31
0.0
  0
LINE
  5
29D
330
1F
100
AcDbEntity
  8
LAY-10
  6
CONTINUOUS
 62
     7
100
AcDbLine
 10
695.5407257569996
 20
1393.879521140153
 30
0.0
 11
710.5407257570014
 21
1378.879521140153
 31
0.0
  0
LINE
  5
29E
330
1F
100
AcDbEntity
  8
LAY-10
  6
CONTINUOUS
 62
     7
100
AcDbLine
 10
294.5407257569996
 20
1378.879521140152
 30
0.0
 11
710.5407257570014
 21
1378.879521140153
 31
0.0
  0
LINE
  5
29F
330
1F
100
AcDbEntity
  8
LAY-10
  6
CONTINUOUS
 62
     7
100
AcDbLine
 10
695.5407257569996
 20
1393.879521140153
 30
0.0
 11
309.5407257569996
 21
1393.879521140152
 31
0.0
  0
LINE
  5
2A0
330
1F
100
AcDbEntity
  8
LAY-10
  6
CONTINUOUS
 62
     7
100
AcDbLine
 10
712.5407257569996
 20
1378.879521140152
 30
0.0
 11
727.5407257569996
 21
1393.879521140152
 31
0.0
  0
LINE
  5
2A1
330
1F
100
AcDbEntity
  8
LAY-10
  6
CONTINUOUS
 62
     7
100
AcDbLine
 10
1113.540725757
 20
1393.879521140153
 30
0.0
 11
1128.540725757002
 21
1378.879521140153
 31
0.0
  0
LINE
  5
2A2
330
1F
100
AcDbEntity
  8
LAY-10
  6
CONTINUOUS
 62
     7
100
AcDbLine
 10
712.5407257569996
 20
1378.879521140152
 30
0.0
 11
1128.540725757002
 21
1378.879521140153
 31
0.0
  0
LINE
  5
2A3
330
1F
100
AcDbEntity
  8
LAY-10
  6
CONTINUOUS
 62
     7
100
AcDbLine
 10
1113.540725757
 20
1393.879521140153
 30
0.0
 11
727.5407257569996
 21
1393.879521140152
 31
0.0
  0
LINE
  5
2A4
330
1F
100
AcDbEntity
  8
LAY-10
  6
CONTINUOUS
 62
     7
100
AcDbLine
 10
341.5407257569759
 20
1425.879521140203
 30
0.0
 11
341.5407257569759
 21
1393.879521140204
 31
0.0
  0
LINE
  5
2A5
330
1F
100
AcDbEntity
  8
LAY-10
  6
CONTINUOUS
 62
     7
100
AcDbLine
 10
341.5407257569777
 20
1425.879521140203
 30
0.0
 11
309.5407257569777
 21
1425.879521140203
 31
0.0
  0
LINE
  5
2A6
330
1F
100
AcDbEntity
  8
LAY-10
  6
CONTINUOUS
 62
     7
100
AcDbLine
 10
663.5407257569776
 20
1425.879521140203
 30
0.0
 11
663.5407257569776
 21
1393.879521140204
 31
0.0
  0
LINE
  5
2A7
330
1F
100
AcDbEntity
  8
LAY-10
  6
CONTINUOUS
 62
     7
100
AcDbLine
 10
695.5407257569777
 20
1425.879521140203
 30
0.0
 11
663.5407257569776
 21
1425.879521140203
 31
0.0
  0
LINE
  5
2A8
330
1F
100
AcDbEntity
  8
LAY-10
  6
CONTINUOUS
 62
     7
100
AcDbLine
 10
1081.540725756979
 20
1425.879521140203
 30
0.0
 11
1081.540725756979
 21
1393.879521140204
 31
0.0
  0
LINE
  5
2A9
330
1F
100
AcDbEntity
  8
LAY-10
  6
CONTINUOUS
 62
     7
100
AcDbLine
 10
1113.540725756978
 20
1425.879521140203
 30
0.0
 11
1081.540725756979
 21
1425.879521140203
 31
0.0
  0
LINE
  5
2AA
330
1F
100
AcDbEntity
  8
LAY-10
  6
CONTINUOUS
 62
     7
100
AcDbLine
 10
759.5407257569759
 20
1425.879521140203
 30
0.0
 11
759.5407257569759
 21
1393.879521140204
 31
0.0
  0
LINE
  5
2AB
330
1F
100
AcDbEntity
  8
LAY-10
  6
CONTINUOUS
 62
     7
100
AcDbLine
 10
759.5407257569777
 20
1425.879521140203
 30
0.0
 11
727.5407257569777
 21
1425.879521140203
 31
0.0
  0
LINE
  5
2AC
330
1F
100
AcDbEntity
  8
LAY-10
  6
CONTINUOUS
 62
     7
100
AcDbLine
 10
800.540725757067
 20
1393.879521140153
 30
0.0
 11
800.5407257570705
 21
2433.879521140155
 31
0.0
  0
LINE
  5
2AD
330
1F
100
AcDbEntity
  8
LAY-10
  6
CONTINUOUS
 62
     7
100
AcDbLine
 10
808.040725757067
 20
1393.879521140153
 30
0.0
 11
808.0407257570705
 21
2433.879521140153
 31
0.0
  0
LINE
  5
2AE
330
1F
100
AcDbEntity
  8
LAY-10
  6
CONTINUOUS
 62
     7
100
AcDbLine
 10
833.040725757065
 20
1393.879521140153
 30
0.0
 11
833.0407257570705
 21
2433.879521140153
 31
0.0
  0
LINE
  5
2AF
330
1F
100
AcDbEntity
  8
LAY-10
  6
CONTINUOUS
 62
     7
100
AcDbLine
 10
840.540725757065
 20
1393.879521140153
 30
0.0
 11
840.5407257570705
 21
2433.879521140153
 31
0.0
  0
LINE
  5
2B0
330
1F
100
AcDbEntity
  8
LAY-10
  6
CONTINUOUS
 62
     7
100
AcDbLine
 10
1000.540725757091
 20
1393.879521140153
 30
0.0
 11
1000.540725757089
 21
2433.879521140153
 31
0.0
  0
LINE
  5
2B1
330
1F
100
AcDbEntity
  8
LAY-10
  6
CONTINUOUS
 62
     7
100
AcDbLine
 10
1008.040725757091
 20
1393.879521140153
 30
0.0
 11
1008.040725757089
 21
2433.879521140153
 31
0.0
  0
LINE
  5
2B2
330
1F
100
AcDbEntity
  8
LAY-10
  6
CONTINUOUS
 62
     7
100
AcDbLine
 10
1033.040725757091
 20
1393.879521140153
 30
0.0
 11
1033.040725757087
 21
2433.879521140153
 31
0.0
  0
LINE
  5
2B3
330
1F
100
AcDbEntity
  8
LAY-10
  6
CONTINUOUS
 62
     7
100
AcDbLine
 10
1040.540725757091
 20
1393.879521140153
 30
0.0
 11
1040.540725757087
 21
2433.879521140155
 31
0.0
  0
LINE
  5
2B4
330
1F
100
AcDbEntity
  8
LAY-10
  6
CONTINUOUS
 62
     7
100
AcDbLine
 10
1113.540725757
 20
2433.879521140153
 30
0.0
 11
1113.540725757
 21
1393.879521140153
 31
0.0
  0
LINE
  5
2B5
330
1F
100
AcDbEntity
  8
LAY-10
  6
CONTINUOUS
 62
     7
100
AcDbLine
 10
1128.540725757002
 20
1378.879521140153
 30
0.0
 11
1128.540725757
 21
2448.879521140153
 31
0.0
  0
LINE
  5
2B6
330
1F
100
AcDbEntity
  8
LAY-10
  6
CONTINUOUS
 62
     7
100
AcDbLine
 10
727.5407257569996
 20
1393.879521140152
 30
0.0
 11
727.5407257569996
 21
2433.879521140152
 31
0.0
  0
LINE
  5
2B7
330
1F
100
AcDbEntity
  8
LAY-10
  6
CONTINUOUS
 62
     7
100
AcDbLine
 10
712.5407257569996
 20
2448.879521140152
 30
0.0
 11
712.5407257569996
 21
1378.879521140152
 31
0.0
  0
LINE
  5
2B8
330
1F
100
AcDbEntity
  8
LAY-10
  6
CONTINUOUS
 62
     7
100
AcDbLine
 10
415.040725757065
 20
1393.879521140153
 30
0.0
 11
415.0407257570706
 21
2433.879521140153
 31
0.0
  0
LINE
  5
2B9
330
1F
100
AcDbEntity
  8
LAY-10
  6
CONTINUOUS
 62
     7
100
AcDbLine
 10
422.540725757065
 20
1393.879521140153
 30
0.0
 11
422.5407257570706
 21
2433.879521140153
 31
0.0
  0
LINE
  5
2BA
330
1F
100
AcDbEntity
  8
LAY-10
  6
CONTINUOUS
 62
     7
100
AcDbLine
 10
582.5407257570905
 20
1393.879521140153
 30
0.0
 11
582.5407257570887
 21
2433.879521140153
 31
0.0
  0
LINE
  5
2BB
330
1F
100
AcDbEntity
  8
LAY-10
  6
CONTINUOUS
 62
     7
100
AcDbLine
 10
590.0407257570905
 20
1393.879521140153
 30
0.0
 11
590.0407257570887
 21
2433.879521140153
 31
0.0
  0
LINE
  5
2BC
330
1F
100
AcDbEntity
  8
LAY-10
  6
CONTINUOUS
 62
     7
100
AcDbLine
 10
615.0407257570905
 20
1393.879521140153
 30
0.0
 11
615.0407257570869
 21
2433.879521140153
 31
0.0
  0
LINE
  5
2BD
330
1F
100
AcDbEntity
  8
LAY-10
  6
CONTINUOUS
 62
     7
100
AcDbLine
 10
622.5407257570905
 20
1393.879521140153
 30
0.0
 11
622.5407257570869
 21
2433.879521140155
 31
0.0
  0
LINE
  5
2BE
330
1F
100
AcDbEntity
  8
LAY-10
  6
CONTINUOUS
 62
     7
100
AcDbLine
 10
695.5407257569996
 20
2433.879521140153
 30
0.0
 11
695.5407257569996
 21
1393.879521140153
 31
0.0
  0
LINE
  5
2BF
330
1F
100
AcDbEntity
  8
LAY-10
  6
CONTINUOUS
 62
     7
100
AcDbLine
 10
710.5407257570014
 20
1378.879521140153
 30
0.0
 11
710.5407257569996
 21
2448.879521140153
 31
0.0
  0
LINE
  5
2C0
330
1F
100
AcDbEntity
  8
LAY-10
  6
CONTINUOUS
 62
     7
100
AcDbLine
 10
1980.5407257569
 20
1362.879521140154
 30
0.0
 11
1980.540725756902
 21
2464.879521140153
 31
0.0
  0
LINE
  5
2C1
330
1F
100
AcDbEntity
  8
LAY-10
  6
CONTINUOUS
 62
     7
100
AcDbLine
 10
1965.540725756902
 20
2449.879521140153
 30
0.0
 11
1965.5407257569
 21
1377.879521140153
 31
0.0
  0
LINE
  5
2C2
330
1F
100
AcDbEntity
  8
LAY-10
  6
CONTINUOUS
 62
     7
100
AcDbLine
 10
249.6366120150842
 20
2159.379521140276
 30
0.0
 11
249.6366120150842
 21
2168.379521140277
 31
0.0
  0
LINE
  5
2C3
330
1F
100
AcDbEntity
  8
LAY-10
  6
CONTINUOUS
 62
     7
100
AcDbLine
 10
278.5350968249213
 20
2168.379521140277
 30
0.0
 11
249.6366120150842
 21
2168.379521140277
 31
0.0
  0
LINE
  5
2C4
330
1F
100
AcDbEntity
  8
LAY-10
  6
CONTINUOUS
 62
     7
100
AcDbLine
 10
278.5350968249213
 20
2159.379521140276
 30
0.0
 11
249.6366120150842
 21
2159.379521140276
 31
0.0
  0
LINE
  5
2C5
330
1F
100
AcDbEntity
  8
LAY-10
  6
CONTINUOUS
 62
     7
100
AcDbLine
 10
382.5407257570669
 20
1393.879521140153
 30
0.0
 11
382.5407257570704
 21
2433.879521140155
 31
0.0
  0
LINE
  5
2C6
330
1F
100
AcDbEntity
  8
LAY-10
  6
CONTINUOUS
 62
     7
100
AcDbLine
 10
390.0407257570669
 20
1393.879521140153
 30
0.0
 11
390.0407257570706
 21
2433.879521140153
 31
0.0
  0
LINE
  5
2C7
330
1F
100
AcDbEntity
  8
LAY-10
  6
CONTINUOUS
 62
     7
100
AcDbLine
 10
278.5350968249177
 20
1668.379521140314
 30
0.0
 11
249.6366120150806
 21
1668.379521140315
 31
0.0
  0
LINE
  5
2C8
330
1F
100
AcDbEntity
  8
LAY-10
  6
CONTINUOUS
 62
     7
100
AcDbLine
 10
278.5350968249177
 20
1659.379521140313
 30
0.0
 11
249.6366120150806
 21
1659.379521140314
 31
0.0
  0
LINE
  5
2C9
330
1F
100
AcDbEntity
  8
LAY-10
  6
CONTINUOUS
 62
     7
100
AcDbLine
 10
249.6366120150806
 20
1668.379521140315
 30
0.0
 11
249.6366120150806
 21
1659.379521140314
 31
0.0
  0
LINE
  5
2CA
330
1F
100
AcDbEntity
  8
LAY-10
  6
CONTINUOUS
 62
     7
100
AcDbLine
 10
309.5407257569996
 20
1393.879521140152
 30
0.0
 11
309.5407257569996
 21
2433.879521140152
 31
0.0
  0
LINE
  5
2CB
330
1F
100
AcDbEntity
  8
LAY-10
  6
CONTINUOUS
 62
     7
100
AcDbLine
 10
294.5407257569996
 20
2448.879521140152
 30
0.0
 11
294.5407257569996
 21
1378.879521140152
 31
0.0
  0
LINE
  5
2CC
330
1F
100
AcDbEntity
  8
LAY-10
  6
CONTINUOUS
 62
     7
100
AcDbLine
 10
278.5407257569977
 20
1362.879521140154
 30
0.0
 11
278.5407257570014
 21
2464.879521140153
 31
0.0
  0
LINE
  5
2CD
330
1F
100
AcDbEntity
  8
LAY-10
  6
CONTINUOUS
 62
     7
100
AcDbLine
 10
293.5407257569977
 20
1377.879521140154
 30
0.0
 11
293.5407257570014
 21
2449.879521140153
 31
0.0
  0
LINE
  5
2CE
330
1F
100
AcDbEntity
  8
LAY-10
  6
CONTINUOUS
 62
     7
100
AcDbLine
 10
2009.439210566626
 20
2159.379521140273
 30
0.0
 11
2009.439210566626
 21
2168.379521140274
 31
0.0
  0
LINE
  5
2CF
330
1F
100
AcDbEntity
  8
LAY-10
  6
CONTINUOUS
 62
     7
100
AcDbLine
 10
1980.540725756789
 20
2168.379521140274
 30
0.0
 11
2009.439210566626
 21
2168.379521140274
 31
0.0
  0
LINE
  5
2D0
330
1F
100
AcDbEntity
  8
LAY-10
  6
CONTINUOUS
 62
     7
100
AcDbLine
 10
1980.540725756789
 20
2159.379521140273
 30
0.0
 11
2009.439210566626
 21
2159.379521140273
 31
0.0
  0
LINE
  5
2D1
330
1F
100
AcDbEntity
  8
LAY-10
  6
CONTINUOUS
 62
     7
100
AcDbLine
 10
1980.54072575679
 20
1668.379521140311
 30
0.0
 11
2009.439210566627
 21
1668.379521140312
 31
0.0
  0
LINE
  5
2D2
330
1F
100
AcDbEntity
  8
LAY-10
  6
CONTINUOUS
 62
     7
100
AcDbLine
 10
1980.54072575679
 20
1659.37952114031
 30
0.0
 11
2009.439210566627
 21
1659.379521140311
 31
0.0
  0
LINE
  5
2D3
330
1F
100
AcDbEntity
  8
LAY-10
  6
CONTINUOUS
 62
     7
100
AcDbLine
 10
2009.439210566627
 20
1668.379521140312
 30
0.0
 11
2009.439210566627
 21
1659.379521140311
 31
0.0
  0
LINE
  5
2D4
330
1F
100
AcDbEntity
  8
LAY-10
  6
CONTINUOUS
 62
     7
100
AcDbLine
 10
329.540725757028
 20
1399.379521140202
 30
0.0
 11
329.540725757028
 21
1397.773221127399
 31
0.0
  0
LINE
  5
2D5
330
1F
100
AcDbEntity
  8
LAY-10
  6
CONTINUOUS
 62
     7
100
AcDbLine
 10
321.5407257570303
 20
1399.379521140202
 30
0.0
 11
321.5407257570303
 21
1397.773221127399
 31
0.0
  0
LINE
  5
2D6
330
1F
100
AcDbEntity
  8
LAY-10
  6
CONTINUOUS
 62
     7
100
AcDbLine
 10
321.5407257570303
 20
1399.379521140202
 30
0.0
 11
329.540725757028
 21
1399.379521140202
 31
0.0
  0
ARC
  5
2D7
330
1F
100
AcDbEntity
  8
LAY-10
  6
CONTINUOUS
 62
     7
100
AcDbCircle
 10
325.5407257570293
 20
1409.879521140202
 30
0.0
 40
12.75000000000001
100
AcDbArc
 50
288.2838899404034
 51
251.7161100595966
  0
LINE
  5
2D8
330
1F
100
AcDbEntity
  8
LAY-10
  6
CONTINUOUS
 62
     7
100
AcDbLine
 10
332.0407257570294
 20
1409.879521140202
 30
0.0
 11
325.5407257570293
 21
1405.879521140202
 31
0.0
  0
LINE
  5
2D9
330
1F
100
AcDbEntity
  8
LAY-10
  6
CONTINUOUS
 62
     7
100
AcDbLine
 10
325.5407257570293
 20
1405.879521140202
 30
0.0
 11
319.040725757029
 21
1409.879521140202
 31
0.0
  0
LINE
  5
2DA
330
1F
100
AcDbEntity
  8
LAY-10
  6
CONTINUOUS
 62
     7
100
AcDbLine
 10
319.040725757029
 20
1409.879521140202
 30
0.0
 11
325.5407257570293
 21
1413.879521140202
 31
0.0
  0
LINE
  5
2DB
330
1F
100
AcDbEntity
  8
LAY-10
  6
CONTINUOUS
 62
     7
100
AcDbLine
 10
325.5407257570293
 20
1413.879521140202
 30
0.0
 11
332.0407257570294
 21
1409.879521140202
 31
0.0
  0
CIRCLE
  5
2DC
330
1F
100
AcDbEntity
  8
LAY-10
  6
CONTINUOUS
 62
     7
100
AcDbCircle
 10
325.5407257569801
 20
1409.8795211402
 30
0.0
 40
13.0
  0
LINE
  5
2DD
330
1F
100
AcDbEntity
  8
LAY-10
  6
CONTINUOUS
 62
     7
100
AcDbLine
 10
683.5407257569782
 20
1399.379521140202
 30
0.0
 11
683.5407257569782
 21
1397.773221127399
 31
0.0
  0
LINE
  5
2DE
330
1F
100
AcDbEntity
  8
LAY-10
  6
CONTINUOUS
 62
     7
100
AcDbLine
 10
675.5407257569804
 20
1399.379521140202
 30
0.0
 11
675.5407257569804
 21
1397.773221127399
 31
0.0
  0
LINE
  5
2DF
330
1F
100
AcDbEntity
  8
LAY-10
  6
CONTINUOUS
 62
     7
100
AcDbLine
 10
675.5407257569804
 20
1399.379521140202
 30
0.0
 11
683.5407257569782
 21
1399.379521140202
 31
0.0
  0
ARC
  5
2E0
330
1F
100
AcDbEntity
  8
LAY-10
  6
CONTINUOUS
 62
     7
100
AcDbCircle
 10
679.5407257569796
 20
1409.879521140202
 30
0.0
 40
12.75000000000001
100
AcDbArc
 50
288.2838899404034
 51
251.7161100595966
  0
LINE
  5
2E1
330
1F
100
AcDbEntity
  8
LAY-10
  6
CONTINUOUS
 62
     7
100
AcDbLine
 10
686.0407257569796
 20
1409.879521140202
 30
0.0
 11
679.5407257569796
 21
1405.879521140202
 31
0.0
  0
LINE
  5
2E2
330
1F
100
AcDbEntity
  8
LAY-10
  6
CONTINUOUS
 62
     7
100
AcDbLine
 10
679.5407257569796
 20
1405.879521140202
 30
0.0
 11
673.0407257569791
 21
1409.879521140202
 31
0.0
  0
LINE
  5
2E3
330
1F
100
AcDbEntity
  8
LAY-10
  6
CONTINUOUS
 62
     7
100
AcDbLine
 10
673.0407257569791
 20
1409.879521140202
 30
0.0
 11
679.5407257569796
 21
1413.879521140202
 31
0.0
  0
LINE
  5
2E4
330
1F
100
AcDbEntity
  8
LAY-10
  6
CONTINUOUS
 62
     7
100
AcDbLine
 10
679.5407257569796
 20
1413.879521140202
 30
0.0
 11
686.0407257569796
 21
1409.879521140202
 31
0.0
  0
CIRCLE
  5
2E5
330
1F
100
AcDbEntity
  8
LAY-10
  6
CONTINUOUS
 62
     7
100
AcDbCircle
 10
679.5407257569301
 20
1409.8795211402
 30
0.0
 40
13.0
  0
LINE
  5
2E6
330
1F
100
AcDbEntity
  8
LAY-10
  6
CONTINUOUS
 62
     7
100
AcDbLine
 10
747.5407257569782
 20
1399.379521140202
 30
0.0
 11
747.5407257569782
 21
1397.773221127399
 31
0.0
  0
LINE
  5
2E7
330
1F
100
AcDbEntity
  8
LAY-10
  6
CONTINUOUS
 62
     7
100
AcDbLine
 10
739.5407257569805
 20
1399.379521140202
 30
0.0
 11
739.5407257569805
 21
1397.773221127399
 31
0.0
  0
LINE
  5
2E8
330
1F
100
AcDbEntity
  8
LAY-10
  6
CONTINUOUS
 62
     7
100
AcDbLine
 10
739.5407257569805
 20
1399.379521140202
 30
0.0
 11
747.5407257569782
 21
1399.379521140202
 31
0.0
  0
ARC
  5
2E9
330
1F
100
AcDbEntity
  8
LAY-10
  6
CONTINUOUS
 62
     7
100
AcDbCircle
 10
743.5407257569796
 20
1409.879521140202
 30
0.0
 40
12.75000000000001
100
AcDbArc
 50
288.2838899404034
 51
251.7161100595966
  0
LINE
  5
2EA
330
1F
100
AcDbEntity
  8
LAY-10
  6
CONTINUOUS
 62
     7
100
AcDbLine
 10
750.0407257569796
 20
1409.879521140202
 30
0.0
 11
743.5407257569796
 21
1405.879521140202
 31
0.0
  0
LINE
  5
2EB
330
1F
100
AcDbEntity
  8
LAY-10
  6
CONTINUOUS
 62
     7
100
AcDbLine
 10
743.5407257569796
 20
1405.879521140202
 30
0.0
 11
737.040725756979
 21
1409.879521140202
 31
0.0
  0
LINE
  5
2EC
330
1F
100
AcDbEntity
  8
LAY-10
  6
CONTINUOUS
 62
     7
100
AcDbLine
 10
737.040725756979
 20
1409.879521140202
 30
0.0
 11
743.5407257569796
 21
1413.879521140202
 31
0.0
  0
LINE
  5
2ED
330
1F
100
AcDbEntity
  8
LAY-10
  6
CONTINUOUS
 62
     7
100
AcDbLine
 10
743.5407257569796
 20
1413.879521140202
 30
0.0
 11
750.0407257569796
 21
1409.879521140202
 31
0.0
  0
CIRCLE
  5
2EE
330
1F
100
AcDbEntity
  8
LAY-10
  6
CONTINUOUS
 62
     7
100
AcDbCircle
 10
743.5407257569302
 20
1409.8795211402
 30
0.0
 40
13.0
  0
LINE
  5
2EF
330
1F
100
AcDbEntity
  8
LAY-10
  6
CONTINUOUS
 62
     7
100
AcDbLine
 10
1101.540725756998
 20
1399.379521140202
 30
0.0
 11
1101.540725756998
 21
1397.773221127399
 31
0.0
  0
LINE
  5
2F0
330
1F
100
AcDbEntity
  8
LAY-10
  6
CONTINUOUS
 62
     7
100
AcDbLine
 10
1093.540725757
 20
1399.379521140202
 30
0.0
 11
1093.540725757
 21
1397.773221127399
 31
0.0
  0
LINE
  5
2F1
330
1F
100
AcDbEntity
  8
LAY-10
  6
CONTINUOUS
 62
     7
100
AcDbLine
 10
1093.540725757
 20
1399.379521140202
 30
0.0
 11
1101.540725756998
 21
1399.379521140202
 31
0.0
  0
ARC
  5
2F2
330
1F
100
AcDbEntity
  8
LAY-10
  6
CONTINUOUS
 62
     7
100
AcDbCircle
 10
1097.540725757
 20
1409.879521140202
 30
0.0
 40
12.75000000000001
100
AcDbArc
 50
288.2838899404034
 51
251.7161100595966
  0
LINE
  5
2F3
330
1F
100
AcDbEntity
  8
LAY-10
  6
CONTINUOUS
 62
     7
100
AcDbLine
 10
1104.040725757
 20
1409.879521140202
 30
0.0
 11
1097.540725757
 21
1405.879521140202
 31
0.0
  0
LINE
  5
2F4
330
1F
100
AcDbEntity
  8
LAY-10
  6
CONTINUOUS
 62
     7
100
AcDbLine
 10
1097.540725757
 20
1405.879521140202
 30
0.0
 11
1091.040725756999
 21
1409.879521140202
 31
0.0
  0
LINE
  5
2F5
330
1F
100
AcDbEntity
  8
LAY-10
  6
CONTINUOUS
 62
     7
100
AcDbLine
 10
1091.040725756999
 20
1409.879521140202
 30
0.0
 11
1097.540725757
 21
1413.879521140202
 31
0.0
  0
LINE
  5
2F6
330
1F
100
AcDbEntity
  8
LAY-10
  6
CONTINUOUS
 62
     7
100
AcDbLine
 10
1097.540725757
 20
1413.879521140202
 30
0.0
 11
1104.040725757
 21
1409.879521140202
 31
0.0
  0
CIRCLE
  5
2F7
330
1F
100
AcDbEntity
  8
LAY-10
  6
CONTINUOUS
 62
     7
100
AcDbCircle
 10
1097.54072575695
 20
1409.8795211402
 30
0.0
 40
13.0
  0
LINE
  5
2F8
330
1F
100
AcDbEntity
  8
LAY-10
  6
CONTINUOUS
 62
     7
100
AcDbLine
 10
1965.540725756899
 20
2449.879521140353
 30
0.0
 11
1980.540725756899
 21
2464.879521140351
 31
0.0
  0
LINE
  5
2F9
330
1F
100
AcDbEntity
  8
LAY-10
  6
CONTINUOUS
 62
     7
100
AcDbLine
 10
293.5407257569972
 20
2449.879521140351
 30
0.0
 11
278.5407257569972
 21
2464.879521140351
 31
0.0
  0
LINE
  5
2FA
330
1F
100
AcDbEntity
  8
LAY-10
  6
CONTINUOUS
 62
     7
100
AcDbLine
 10
278.5407257569972
 20
2464.879521140351
 30
0.0
 11
1980.540725756899
 21
2464.879521140354
 31
0.0
  0
LINE
  5
2FB
330
1F
100
AcDbEntity
  8
LAY-10
  6
CONTINUOUS
 62
     7
100
AcDbLine
 10
294.540725756999
 20
2448.879521140354
 30
0.0
 11
309.5407257569991
 21
2433.879521140354
 31
0.0
  0
LINE
  5
2FC
330
1F
100
AcDbEntity
  8
LAY-10
  6
CONTINUOUS
 62
     7
100
AcDbLine
 10
1965.540725756899
 20
2449.879521140354
 30
0.0
 11
293.5407257569972
 21
2449.879521140351
 31
0.0
  0
LINE
  5
2FD
330
1F
100
AcDbEntity
  8
LAY-10
  6
CONTINUOUS
 62
     7
100
AcDbLine
 10
695.5407257569991
 20
2433.879521140353
 30
0.0
 11
710.5407257570008
 21
2448.879521140353
 31
0.0
  0
LINE
  5
2FE
330
1F
100
AcDbEntity
  8
LAY-10
  6
CONTINUOUS
 62
     7
100
AcDbLine
 10
294.540725756999
 20
2448.879521140354
 30
0.0
 11
710.5407257570008
 21
2448.879521140353
 31
0.0
  0
LINE
  5
2FF
330
1F
100
AcDbEntity
  8
LAY-10
  6
CONTINUOUS
 62
     7
100
AcDbLine
 10
695.5407257569991
 20
2433.879521140353
 30
0.0
 11
309.5407257569991
 21
2433.879521140354
 31
0.0
  0
LINE
  5
300
330
1F
100
AcDbEntity
  8
LAY-10
  6
CONTINUOUS
 62
     7
100
AcDbLine
 10
712.540725756999
 20
2448.879521140354
 30
0.0
 11
727.540725756999
 21
2433.879521140354
 31
0.0
  0
LINE
  5
301
330
1F
100
AcDbEntity
  8
LAY-10
  6
CONTINUOUS
 62
     7
100
AcDbLine
 10
1113.540725756999
 20
2433.879521140353
 30
0.0
 11
1128.540725757001
 21
2448.879521140353
 31
0.0
  0
LINE
  5
302
330
1F
100
AcDbEntity
  8
LAY-10
  6
CONTINUOUS
 62
     7
100
AcDbLine
 10
712.540725756999
 20
2448.879521140354
 30
0.0
 11
1128.540725757001
 21
2448.879521140353
 31
0.0
  0
LINE
  5
303
330
1F
100
AcDbEntity
  8
LAY-10
  6
CONTINUOUS
 62
     7
100
AcDbLine
 10
1113.540725756999
 20
2433.879521140353
 30
0.0
 11
727.540725756999
 21
2433.879521140354
 31
0.0
  0
LINE
  5
304
330
1F
100
AcDbEntity
  8
LAY-10
  6
CONTINUOUS
 62
     7
100
AcDbLine
 10
341.5407257569754
 20
2401.879521140303
 30
0.0
 11
341.5407257569754
 21
2433.879521140301
 31
0.0
  0
LINE
  5
305
330
1F
100
AcDbEntity
  8
LAY-10
  6
CONTINUOUS
 62
     7
100
AcDbLine
 10
341.5407257569772
 20
2401.879521140303
 30
0.0
 11
309.5407257569772
 21
2401.879521140303
 31
0.0
  0
LINE
  5
306
330
1F
100
AcDbEntity
  8
LAY-10
  6
CONTINUOUS
 62
     7
100
AcDbLine
 10
663.5407257569773
 20
2401.879521140303
 30
0.0
 11
663.5407257569773
 21
2433.879521140301
 31
0.0
  0
LINE
  5
307
330
1F
100
AcDbEntity
  8
LAY-10
  6
CONTINUOUS
 62
     7
100
AcDbLine
 10
695.5407257569773
 20
2401.879521140303
 30
0.0
 11
663.5407257569773
 21
2401.879521140303
 31
0.0
  0
LINE
  5
308
330
1F
100
AcDbEntity
  8
LAY-10
  6
CONTINUOUS
 62
     7
100
AcDbLine
 10
1081.540725756978
 20
2401.879521140303
 30
0.0
 11
1081.540725756978
 21
2433.879521140302
 31
0.0
  0
LINE
  5
309
330
1F
100
AcDbEntity
  8
LAY-10
  6
CONTINUOUS
 62
     7
100
AcDbLine
 10
1113.540725756978
 20
2401.879521140303
 30
0.0
 11
1081.540725756978
 21
2401.879521140303
 31
0.0
  0
LINE
  5
30A
330
1F
100
AcDbEntity
  8
LAY-10
  6
CONTINUOUS
 62
     7
100
AcDbLine
 10
759.5407257569755
 20
2401.879521140303
 30
0.0
 11
759.5407257569753
 21
2433.879521140301
 31
0.0
  0
LINE
  5
30B
330
1F
100
AcDbEntity
  8
LAY-10
  6
CONTINUOUS
 62
     7
100
AcDbLine
 10
759.5407257569773
 20
2401.879521140303
 30
0.0
 11
727.5407257569773
 21
2401.879521140303
 31
0.0
  0
LINE
  5
30C
330
1F
100
AcDbEntity
  8
LAY-10
  6
CONTINUOUS
 62
     7
100
AcDbLine
 10
329.5407257570275
 20
2428.379521140303
 30
0.0
 11
329.5407257570275
 21
2429.985821153107
 31
0.0
  0
LINE
  5
30D
330
1F
100
AcDbEntity
  8
LAY-10
  6
CONTINUOUS
 62
     7
100
AcDbLine
 10
321.5407257570298
 20
2428.379521140303
 30
0.0
 11
321.5407257570298
 21
2429.985821153107
 31
0.0
  0
LINE
  5
30E
330
1F
100
AcDbEntity
  8
LAY-10
  6
CONTINUOUS
 62
     7
100
AcDbLine
 10
321.5407257570298
 20
2428.379521140303
 30
0.0
 11
329.5407257570275
 21
2428.379521140303
 31
0.0
  0
ARC
  5
30F
330
1F
100
AcDbEntity
  8
LAY-10
  6
CONTINUOUS
 62
     7
100
AcDbCircle
 10
325.5407257570289
 20
2417.879521140303
 30
0.0
 40
12.75000000000001
100
AcDbArc
 50
108.2838899404037
 51
71.71611005959635
  0
LINE
  5
310
330
1F
100
AcDbEntity
  8
LAY-10
  6
CONTINUOUS
 62
     7
100
AcDbLine
 10
332.0407257570288
 20
2417.879521140303
 30
0.0
 11
325.5407257570289
 21
2421.879521140303
 31
0.0
  0
LINE
  5
311
330
1F
100
AcDbEntity
  8
LAY-10
  6
CONTINUOUS
 62
     7
100
AcDbLine
 10
325.5407257570289
 20
2421.879521140303
 30
0.0
 11
319.0407257570284
 21
2417.879521140303
 31
0.0
  0
LINE
  5
312
330
1F
100
AcDbEntity
  8
LAY-10
  6
CONTINUOUS
 62
     7
100
AcDbLine
 10
319.0407257570284
 20
2417.879521140303
 30
0.0
 11
325.5407257570289
 21
2413.879521140303
 31
0.0
  0
LINE
  5
313
330
1F
100
AcDbEntity
  8
LAY-10
  6
CONTINUOUS
 62
     7
100
AcDbLine
 10
325.5407257570289
 20
2413.879521140303
 30
0.0
 11
332.0407257570288
 21
2417.879521140303
 31
0.0
  0
CIRCLE
  5
314
330
1F
100
AcDbEntity
  8
LAY-10
  6
CONTINUOUS
 62
     7
100
AcDbCircle
 10
325.5407257569796
 20
2417.879521140305
 30
0.0
 40
13.0
  0
LINE
  5
315
330
1F
100
AcDbEntity
  8
LAY-10
  6
CONTINUOUS
 62
     7
100
AcDbLine
 10
683.5407257569776
 20
2428.379521140303
 30
0.0
 11
683.5407257569776
 21
2429.985821153107
 31
0.0
  0
LINE
  5
316
330
1F
100
AcDbEntity
  8
LAY-10
  6
CONTINUOUS
 62
     7
100
AcDbLine
 10
675.54072575698
 20
2428.379521140303
 30
0.0
 11
675.54072575698
 21
2429.985821153107
 31
0.0
  0
LINE
  5
317
330
1F
100
AcDbEntity
  8
LAY-10
  6
CONTINUOUS
 62
     7
100
AcDbLine
 10
675.54072575698
 20
2428.379521140303
 30
0.0
 11
683.5407257569776
 21
2428.379521140303
 31
0.0
  0
ARC
  5
318
330
1F
100
AcDbEntity
  8
LAY-10
  6
CONTINUOUS
 62
     7
100
AcDbCircle
 10
679.540725756979
 20
2417.879521140303
 30
0.0
 40
12.75000000000001
100
AcDbArc
 50
108.2838899404038
 51
71.71611005959727
  0
LINE
  5
319
330
1F
100
AcDbEntity
  8
LAY-10
  6
CONTINUOUS
 62
     7
100
AcDbLine
 10
686.0407257569791
 20
2417.879521140303
 30
0.0
 11
679.540725756979
 21
2421.879521140303
 31
0.0
  0
LINE
  5
31A
330
1F
100
AcDbEntity
  8
LAY-10
  6
CONTINUOUS
 62
     7
100
AcDbLine
 10
679.540725756979
 20
2421.879521140303
 30
0.0
 11
673.0407257569786
 21
2417.879521140303
 31
0.0
  0
LINE
  5
31B
330
1F
100
AcDbEntity
  8
LAY-10
  6
CONTINUOUS
 62
     7
100
AcDbLine
 10
673.0407257569786
 20
2417.879521140303
 30
0.0
 11
679.540725756979
 21
2413.879521140303
 31
0.0
  0
LINE
  5
31C
330
1F
100
AcDbEntity
  8
LAY-10
  6
CONTINUOUS
 62
     7
100
AcDbLine
 10
679.540725756979
 20
2413.879521140303
 30
0.0
 11
686.0407257569791
 21
2417.879521140303
 31
0.0
  0
CIRCLE
  5
31D
330
1F
100
AcDbEntity
  8
LAY-10
  6
CONTINUOUS
 62
     7
100
AcDbCircle
 10
679.5407257569298
 20
2417.879521140306
 30
0.0
 40
13.0
  0
LINE
  5
31E
330
1F
100
AcDbEntity
  8
LAY-10
  6
CONTINUOUS
 62
     7
100
AcDbLine
 10
747.5407257569777
 20
2428.379521140303
 30
0.0
 11
747.5407257569777
 21
2429.985821153107
 31
0.0
  0
LINE
  5
31F
330
1F
100
AcDbEntity
  8
LAY-10
  6
CONTINUOUS
 62
     7
100
AcDbLine
 10
739.54072575698
 20
2428.379521140303
 30
0.0
 11
739.54072575698
 21
2429.985821153107
 31
0.0
  0
LINE
  5
320
330
1F
100
AcDbEntity
  8
LAY-10
  6
CONTINUOUS
 62
     7
100
AcDbLine
 10
739.54072575698
 20
2428.379521140303
 30
0.0
 11
747.5407257569777
 21
2428.379521140303
 31
0.0
  0
ARC
  5
321
330
1F
100
AcDbEntity
  8
LAY-10
  6
CONTINUOUS
 62
     7
100
AcDbCircle
 10
743.5407257569791
 20
2417.879521140303
 30
0.0
 40
12.75000000000001
100
AcDbArc
 50
108.2838899404044
 51
71.71611005959663
  0
LINE
  5
322
330
1F
100
AcDbEntity
  8
LAY-10
  6
CONTINUOUS
 62
     7
100
AcDbLine
 10
750.0407257569791
 20
2417.879521140303
 30
0.0
 11
743.5407257569791
 21
2421.879521140303
 31
0.0
  0
LINE
  5
323
330
1F
100
AcDbEntity
  8
LAY-10
  6
CONTINUOUS
 62
     7
100
AcDbLine
 10
743.5407257569791
 20
2421.879521140303
 30
0.0
 11
737.0407257569786
 21
2417.879521140303
 31
0.0
  0
LINE
  5
324
330
1F
100
AcDbEntity
  8
LAY-10
  6
CONTINUOUS
 62
     7
100
AcDbLine
 10
737.0407257569786
 20
2417.879521140303
 30
0.0
 11
743.5407257569791
 21
2413.879521140303
 31
0.0
  0
LINE
  5
325
330
1F
100
AcDbEntity
  8
LAY-10
  6
CONTINUOUS
 62
     7
100
AcDbLine
 10
743.5407257569791
 20
2413.879521140303
 30
0.0
 11
750.0407257569791
 21
2417.879521140303
 31
0.0
  0
CIRCLE
  5
326
330
1F
100
AcDbEntity
  8
LAY-10
  6
CONTINUOUS
 62
     7
100
AcDbCircle
 10
743.5407257569298
 20
2417.879521140306
 30
0.0
 40
13.0
  0
LINE
  5
327
330
1F
100
AcDbEntity
  8
LAY-10
  6
CONTINUOUS
 62
     7
100
AcDbLine
 10
1101.540725756998
 20
2428.379521140304
 30
0.0
 11
1101.540725756998
 21
2429.985821153107
 31
0.0
  0
LINE
  5
328
330
1F
100
AcDbEntity
  8
LAY-10
  6
CONTINUOUS
 62
     7
100
AcDbLine
 10
1093.540725757
 20
2428.379521140304
 30
0.0
 11
1093.540725757
 21
2429.985821153107
 31
0.0
  0
LINE
  5
329
330
1F
100
AcDbEntity
  8
LAY-10
  6
CONTINUOUS
 62
     7
100
AcDbLine
 10
1093.540725757
 20
2428.379521140304
 30
0.0
 11
1101.540725756998
 21
2428.379521140304
 31
0.0
  0
ARC
  5
32A
330
1F
100
AcDbEntity
  8
LAY-10
  6
CONTINUOUS
 62
     7
100
AcDbCircle
 10
1097.540725756999
 20
2417.879521140303
 30
0.0
 40
12.75000000000001
100
AcDbArc
 50
108.2838899404028
 51
71.71611005959727
  0
LINE
  5
32B
330
1F
100
AcDbEntity
  8
LAY-10
  6
CONTINUOUS
 62
     7
100
AcDbLine
 10
1104.040725756999
 20
2417.879521140303
 30
0.0
 11
1097.540725756999
 21
2421.879521140303
 31
0.0
  0
LINE
  5
32C
330
1F
100
AcDbEntity
  8
LAY-10
  6
CONTINUOUS
 62
     7
100
AcDbLine
 10
1097.540725756999
 20
2421.879521140303
 30
0.0
 11
1091.040725756999
 21
2417.879521140303
 31
0.0
  0
LINE
  5
32D
330
1F
100
AcDbEntity
  8
LAY-10
  6
CONTINUOUS
 62
     7
100
AcDbLine
 10
1091.040725756999
 20
2417.879521140303
 30
0.0
 11
1097.540725756999
 21
2413.879521140303
 31
0.0
  0
LINE
  5
32E
330
1F
100
AcDbEntity
  8
LAY-10
  6
CONTINUOUS
 62
     7
100
AcDbLine
 10
1097.540725756999
 20
2413.879521140303
 30
0.0
 11
1104.040725756999
 21
2417.879521140303
 31
0.0
  0
CIRCLE
  5
32F
330
1F
100
AcDbEntity
  8
LAY-10
  6
CONTINUOUS
 62
     7
100
AcDbCircle
 10
1097.54072575695
 20
2417.879521140306
 30
0.0
 40
13.0
  0
LINE
  5
330
330
1F
100
AcDbEntity
  8
LAY-10
  6
CONTINUOUS
 62
     7
100
AcDbLine
 10
1971.74072575692
 20
918.8636940246029
 30
0.0
 11
1971.74072575692
 21
963.2636940246034
 31
0.0
  0
ARC
  5
331
330
1F
100
AcDbEntity
  8
LAY-10
  6
CONTINUOUS
 62
     7
100
AcDbCircle
 10
1965.540725756886
 20
919.0636940246027
 30
0.0
 40
3.000000000000003
100
AcDbArc
 50
270.0000000000002
 51
0.0
  0
ARC
  5
332
330
1F
100
AcDbEntity
  8
LAY-10
  6
CONTINUOUS
 62
     7
100
AcDbCircle
 10
1965.740725756888
 20
918.8636940246029
 30
0.0
 40
6.000000000000006
100
AcDbArc
 50
270.0000000000002
 51
0.0
  0
ARC
  5
333
330
1F
100
AcDbEntity
  8
LAY-10
  6
CONTINUOUS
 62
     7
100
AcDbCircle
 10
1931.740725756926
 20
909.8636940246042
 30
0.0
 40
3.000000000000003
100
AcDbArc
 50
90.00000000000001
 51
180.0
  0
ARC
  5
334
330
1F
100
AcDbEntity
  8
LAY-10
  6
CONTINUOUS
 62
     7
100
AcDbCircle
 10
1931.540725756925
 20
910.063694024604
 30
0.0
 40
6.000000000000006
100
AcDbArc
 50
90.00000000000001
 51
180.0
  0
LINE
  5
335
330
1F
100
AcDbEntity
  8
LAY-10
  6
CONTINUOUS
 62
     7
100
AcDbLine
 10
1968.540725756922
 20
963.2636940246034
 30
0.0
 11
1968.540725756922
 21
919.0636940246027
 31
0.0
  0
LINE
  5
336
330
1F
100
AcDbEntity
  8
LAY-10
  6
CONTINUOUS
 62
     7
100
AcDbLine
 10
1965.540725756918
 20
966.263694024603
 30
0.0
 11
1965.540725756918
 21
951.263694024603
 31
0.0
  0
LINE
  5
337
330
1F
100
AcDbEntity
  8
LAY-10
  6
CONTINUOUS
 62
     7
100
AcDbLine
 10
1965.540725756918
 20
966.263694024603
 30
0.0
 11
1980.540725756921
 21
966.263694024603
 31
0.0
  0
LINE
  5
338
330
1F
100
AcDbEntity
  8
LAY-10
  6
CONTINUOUS
 62
     7
100
AcDbLine
 10
1968.540725756922
 20
963.2636940246034
 30
0.0
 11
1980.540725756921
 21
963.2636940246034
 31
0.0
  0
LINE
  5
339
330
1F
100
AcDbEntity
  8
LAY-10
  6
CONTINUOUS
 62
     7
100
AcDbLine
 10
1965.540725756918
 20
951.263694024603
 30
0.0
 11
1968.540725756922
 21
951.263694024603
 31
0.0
  0
LINE
  5
33A
330
1F
100
AcDbEntity
  8
LAY-10
  6
CONTINUOUS
 62
     7
100
AcDbLine
 10
1980.540725756921
 20
966.263694024603
 30
0.0
 11
1980.540725756921
 21
963.2636940246034
 31
0.0
  0
LINE
  5
33B
330
1F
100
AcDbEntity
  8
LAY-10
  6
CONTINUOUS
 62
     7
100
AcDbLine
 10
1956.540725756885
 20
916.0636940246022
 30
0.0
 11
1956.540725756885
 21
918.0636940246023
 31
0.0
  0
LINE
  5
33C
330
1F
100
AcDbEntity
  8
LAY-10
  6
CONTINUOUS
 62
     7
100
AcDbLine
 10
1931.540725756885
 20
916.0636940246031
 30
0.0
 11
1931.540725756885
 21
918.0636940246027
 31
0.0
  0
LINE
  5
33D
330
1F
100
AcDbEntity
  8
LAY-10
  6
CONTINUOUS
 62
     7
100
AcDbLine
 10
1968.427017257931
 20
912.8636940246033
 30
0.0
 11
1931.740725756926
 21
912.8636940246033
 31
0.0
  0
ARC
  5
33E
330
1F
100
AcDbEntity
  8
LAY-10
  6
CONTINUOUS
 62
     7
100
AcDbCircle
 10
1968.427017257931
 20
904.8636940245029
 30
0.0
 40
8.0
100
AcDbArc
 50
45.00000000000463
 51
90.00000000000001
  0
LINE
  5
33F
330
1F
100
AcDbEntity
  8
LAY-10
  6
CONTINUOUS
 62
     7
100
AcDbLine
 10
1938.427017257931
 20
904.8636940245029
 30
0.0
 11
1938.427017257931
 21
912.8636940245033
 31
0.0
  0
LINE
  5
340
330
1F
100
AcDbEntity
  8
LAY-10
  6
CONTINUOUS
 62
     7
100
AcDbLine
 10
1968.427017257931
 20
904.8636940245029
 30
0.0
 11
1938.427017257931
 21
904.8636940245029
 31
0.0
  0
LINE
  5
341
330
1F
100
AcDbEntity
  8
LAY-10
  6
CONTINUOUS
 62
     7
100
AcDbLine
 10
2009.439210566755
 20
875.1652092146692
 30
0.0
 11
2003.782356317262
 21
869.5083549651754
 31
0.0
  0
LINE
  5
342
330
1F
100
AcDbEntity
  8
LAY-10
  6
CONTINUOUS
 62
     7
100
AcDbLine
 10
2009.439210566755
 20
875.1652092146692
 30
0.0
 11
1974.083871507427
 21
910.5205482739957
 31
0.0
  0
LINE
  5
343
330
1F
100
AcDbEntity
  8
LAY-10
  6
CONTINUOUS
 62
     7
100
AcDbLine
 10
2003.782356317262
 20
869.5083549651767
 30
0.0
 11
1968.427017257931
 21
904.8636940245029
 31
0.0
  0
LINE
  5
344
330
1F
100
AcDbEntity
  8
LAY-10
  6
CONTINUOUS
 62
     7
100
AcDbLine
 10
287.3407257570225
 20
918.8636940246029
 30
0.0
 11
287.3407257570225
 21
963.2636940246025
 31
0.0
  0
ARC
  5
345
330
1F
100
AcDbEntity
  8
LAY-10
  6
CONTINUOUS
 62
     7
100
AcDbCircle
 10
293.5407257570523
 20
919.0636940246018
 30
0.0
 40
3.000000000000003
100
AcDbArc
 50
180.0
 51
270.0000000000002
  0
ARC
  5
346
330
1F
100
AcDbEntity
  8
LAY-10
  6
CONTINUOUS
 62
     7
100
AcDbCircle
 10
293.3407257570534
 20
918.8636940246029
 30
0.0
 40
6.000000000000006
100
AcDbArc
 50
180.0
 51
270.0000000000002
  0
LINE
  5
347
330
1F
100
AcDbEntity
  8
LAY-10
  6
CONTINUOUS
 62
     7
100
AcDbLine
 10
293.5407257570196
 20
966.263694024602
 30
0.0
 11
278.5407257570196
 21
966.263694024602
 31
0.0
  0
ARC
  5
348
330
1F
100
AcDbEntity
  8
LAY-10
  6
CONTINUOUS
 62
     7
100
AcDbCircle
 10
327.3407257570134
 20
909.8636940246038
 30
0.0
 40
3.000000000000003
100
AcDbArc
 50
0.0
 51
90.00000000000001
  0
ARC
  5
349
330
1F
100
AcDbEntity
  8
LAY-10
  6
CONTINUOUS
 62
     7
100
AcDbCircle
 10
327.5407257570141
 20
910.0636940246036
 30
0.0
 40
6.000000000000006
100
AcDbArc
 50
0.0
 51
90.00000000000001
  0
LINE
  5
34A
330
1F
100
AcDbEntity
  8
LAY-10
  6
CONTINUOUS
 62
     7
100
AcDbLine
 10
290.5407257570214
 20
963.2636940246025
 30
0.0
 11
290.5407257570214
 21
919.0636940246018
 31
0.0
  0
LINE
  5
34B
330
1F
100
AcDbEntity
  8
LAY-10
  6
CONTINUOUS
 62
     7
100
AcDbLine
 10
320.6544342560073
 20
904.8636940245019
 30
0.0
 11
320.6544342560073
 21
912.8636940245025
 31
0.0
  0
LINE
  5
34C
330
1F
100
AcDbEntity
  8
LAY-10
  6
CONTINUOUS
 62
     7
100
AcDbLine
 10
290.6544342560055
 20
904.8636940245019
 30
0.0
 11
320.6544342560073
 21
904.8636940245019
 31
0.0
  0
ARC
  5
34D
330
1F
100
AcDbEntity
  8
LAY-10
  6
CONTINUOUS
 62
     7
100
AcDbCircle
 10
290.6544342560055
 20
904.8636940245019
 30
0.0
 40
8.0
100
AcDbArc
 50
90.00000000000001
 51
134.9999999999946
  0
LINE
  5
34E
330
1F
100
AcDbEntity
  8
LAY-10
  6
CONTINUOUS
 62
     7
100
AcDbLine
 10
249.6422409471861
 20
875.1652092146683
 30
0.0
 11
284.997580006514
 21
910.5205482739952
 31
0.0
  0
LINE
  5
34F
330
1F
100
AcDbEntity
  8
LAY-10
  6
CONTINUOUS
 62
     7
100
AcDbLine
 10
255.2990951966776
 20
869.5083549651767
 30
0.0
 11
290.6544342560055
 21
904.8636940245019
 31
0.0
  0
LINE
  5
350
330
1F
100
AcDbEntity
  8
LAY-10
  6
CONTINUOUS
 62
     7
100
AcDbLine
 10
249.6422409471861
 20
875.1652092146683
 30
0.0
 11
255.2990951966776
 21
869.5083549651749
 31
0.0
  0
LINE
  5
351
330
1F
100
AcDbEntity
  8
LAY-10
  6
CONTINUOUS
 62
     7
100
AcDbLine
 10
327.3407257570134
 20
912.8636940246025
 30
0.0
 11
290.6544342560055
 21
912.8636940246025
 31
0.0
  0
LINE
  5
352
330
1F
100
AcDbEntity
  8
LAY-10
  6
CONTINUOUS
 62
     7
100
AcDbLine
 10
293.5407257570687
 20
916.0636940245996
 30
0.0
 11
327.5407257570196
 21
916.0636940245996
 31
0.0
  0
LINE
  5
353
330
1F
100
AcDbEntity
  8
LAY-10
  6
CONTINUOUS
 62
     7
100
AcDbLine
 10
293.5407257570196
 20
966.263694024602
 30
0.0
 11
293.5407257570196
 21
951.263694024602
 31
0.0
  0
LINE
  5
354
330
1F
100
AcDbEntity
  8
LAY-10
  6
CONTINUOUS
 62
     7
100
AcDbLine
 10
290.5407257570214
 20
963.2636940246025
 30
0.0
 11
278.5407257570196
 21
963.2636940246025
 31
0.0
  0
LINE
  5
355
330
1F
100
AcDbEntity
  8
LAY-10
  6
CONTINUOUS
 62
     7
100
AcDbLine
 10
293.5407257570196
 20
951.263694024602
 30
0.0
 11
290.5407257570214
 21
951.263694024602
 31
0.0
  0
LINE
  5
356
330
1F
100
AcDbEntity
  8
LAY-10
  6
CONTINUOUS
 62
     7
100
AcDbLine
 10
278.5407257570196
 20
966.263694024602
 30
0.0
 11
278.5407257570196
 21
963.2636940246025
 31
0.0
  0
LINE
  5
357
330
1F
100
AcDbEntity
  8
LAY-10
  6
CONTINUOUS
 62
     7
100
AcDbLine
 10
327.5407257570541
 20
916.0636940246022
 30
0.0
 11
327.5407257570541
 21
918.0636940246004
 31
0.0
  0
LINE
  5
358
330
1F
100
AcDbEntity
  8
LAY-10
  6
CONTINUOUS
 62
     7
100
AcDbLine
 10
302.5407257570505
 20
916.0636940246022
 30
0.0
 11
302.5407257570505
 21
918.0636940246004
 31
0.0
  0
ARC
  5
359
330
1F
100
AcDbEntity
  8
LAY-10
  6
CONTINUOUS
 62
     7
100
AcDbCircle
 10
303.5407257570196
 20
924.0636940246027
 30
0.0
 40
6.000000000000006
100
AcDbArc
 50
180.0
 51
270.0000000000002
  0
ARC
  5
35A
330
1F
100
AcDbEntity
  8
LAY-10
  6
CONTINUOUS
 62
     7
100
AcDbCircle
 10
303.7407257570185
 20
924.2636940246025
 30
0.0
 40
3.000000000000003
100
AcDbArc
 50
180.0
 51
270.0000000000002
  0
LINE
  5
35B
330
1F
100
AcDbEntity
  8
LAY-10
  6
CONTINUOUS
 62
     7
100
AcDbLine
 10
300.7407257570185
 20
963.263694024603
 30
0.0
 11
300.7407257570185
 21
924.2636940246025
 31
0.0
  0
LINE
  5
35C
330
1F
100
AcDbEntity
  8
LAY-10
  6
CONTINUOUS
 62
     7
100
AcDbLine
 10
297.5407257570159
 20
963.263694024603
 30
0.0
 11
297.5407257570159
 21
924.0636940246027
 31
0.0
  0
LINE
  5
35D
330
1F
100
AcDbEntity
  8
LAY-10
  6
CONTINUOUS
 62
     7
100
AcDbLine
 10
294.5407257570196
 20
951.263694024604
 30
0.0
 11
297.5407257570178
 21
951.263694024604
 31
0.0
  0
LINE
  5
35E
330
1F
100
AcDbEntity
  8
LAY-10
  6
CONTINUOUS
 62
     7
100
AcDbLine
 10
294.5407257570196
 20
966.263694024603
 30
0.0
 11
294.5407257570196
 21
951.263694024604
 31
0.0
  0
LINE
  5
35F
330
1F
100
AcDbEntity
  8
LAY-10
  6
CONTINUOUS
 62
     7
100
AcDbLine
 10
417.0407257570851
 20
929.2636940245998
 30
0.0
 11
417.0407257570851
 21
923.2636940245989
 31
0.0
  0
ARC
  5
360
330
1F
100
AcDbEntity
  8
LAY-10
  6
CONTINUOUS
 62
     7
100
AcDbCircle
 10
417.0407257570705
 20
929.2636940245998
 30
0.0
 40
2.0
100
AcDbArc
 50
90.00000000000001
 51
180.0
  0
LINE
  5
361
330
1F
100
AcDbEntity
  8
LAY-10
  6
CONTINUOUS
 62
     7
100
AcDbLine
 10
422.5407257570687
 20
931.2636940245994
 30
0.0
 11
417.0407257570705
 21
931.2636940245994
 31
0.0
  0
LINE
  5
362
330
1F
100
AcDbEntity
  8
LAY-10
  6
CONTINUOUS
 62
     7
100
AcDbLine
 10
415.0407257570687
 20
929.2636940245998
 30
0.0
 11
415.0407257570687
 21
923.2636940245989
 31
0.0
  0
LINE
  5
363
330
1F
100
AcDbEntity
  8
LAY-10
  6
CONTINUOUS
 62
     7
100
AcDbLine
 10
422.5407257570687
 20
929.2636940245998
 30
0.0
 11
417.0407257570851
 21
929.2636940245998
 31
0.0
  0
LINE
  5
364
330
1F
100
AcDbEntity
  8
LAY-10
  6
CONTINUOUS
 62
     7
100
AcDbLine
 10
422.5407257570687
 20
931.2636940245994
 30
0.0
 11
422.5407257570687
 21
929.2636940245998
 31
0.0
  0
ARC
  5
365
330
1F
100
AcDbEntity
  8
LAY-10
  6
CONTINUOUS
 62
     7
100
AcDbCircle
 10
388.040725757065
 20
929.2636940245998
 30
0.0
 40
2.0
100
AcDbArc
 50
0.0
 51
90.00000000000001
  0
LINE
  5
366
330
1F
100
AcDbEntity
  8
LAY-10
  6
CONTINUOUS
 62
     7
100
AcDbLine
 10
382.5407257570669
 20
931.2636940245994
 30
0.0
 11
388.040725757065
 21
931.2636940245994
 31
0.0
  0
LINE
  5
367
330
1F
100
AcDbEntity
  8
LAY-10
  6
CONTINUOUS
 62
     7
100
AcDbLine
 10
390.0407257570669
 20
929.2636940245998
 30
0.0
 11
390.0407257570669
 21
923.2636940245989
 31
0.0
  0
LINE
  5
368
330
1F
100
AcDbEntity
  8
LAY-10
  6
CONTINUOUS
 62
     7
100
AcDbLine
 10
388.0407257570505
 20
929.2636940245998
 30
0.0
 11
388.0407257570505
 21
923.2636940245989
 31
0.0
  0
LINE
  5
369
330
1F
100
AcDbEntity
  8
LAY-10
  6
CONTINUOUS
 62
     7
100
AcDbLine
 10
382.5407257570669
 20
929.2636940245998
 30
0.0
 11
388.0407257570505
 21
929.2636940245998
 31
0.0
  0
LINE
  5
36A
330
1F
100
AcDbEntity
  8
LAY-10
  6
CONTINUOUS
 62
     7
100
AcDbLine
 10
382.5407257570669
 20
931.2636940245994
 30
0.0
 11
382.5407257570669
 21
929.2636940245998
 31
0.0
  0
LINE
  5
36B
330
1F
100
AcDbEntity
  8
LAY-10
  6
CONTINUOUS
 62
     7
100
AcDbLine
 10
390.0407257570669
 20
923.2636940245989
 30
0.0
 11
415.040725757065
 21
923.2636940245989
 31
0.0
  0
ARC
  5
36C
330
1F
100
AcDbEntity
  8
LAY-10
  6
CONTINUOUS
 62
     7
100
AcDbCircle
 10
415.0407257570851
 20
923.2636940245989
 30
0.0
 40
2.0
100
AcDbArc
 50
270.0000000000002
 51
0.0
  0
ARC
  5
36D
330
1F
100
AcDbEntity
  8
LAY-10
  6
CONTINUOUS
 62
     7
100
AcDbCircle
 10
390.0407257570505
 20
923.2636940245989
 30
0.0
 40
2.0
100
AcDbArc
 50
180.0
 51
270.0000000000002
  0
LINE
  5
36E
330
1F
100
AcDbEntity
  8
LAY-10
  6
CONTINUOUS
 62
     7
100
AcDbLine
 10
404.0407257570778
 20
918.0636940246004
 30
0.0
 11
404.0407257570778
 21
899.0636940246504
 31
0.0
  0
LINE
  5
36F
330
1F
100
AcDbEntity
  8
LAY-10
  6
CONTINUOUS
 62
     7
100
AcDbLine
 10
401.0407257570778
 20
918.0636940246004
 30
0.0
 11
401.0407257570778
 21
899.0636940246504
 31
0.0
  0
ARC
  5
370
330
1F
100
AcDbEntity
  8
LAY-10
  6
CONTINUOUS
 62
     7
100
AcDbCircle
 10
588.0407257570832
 20
929.2636940246002
 30
0.0
 40
2.0
100
AcDbArc
 50
0.0
 51
90.00000000000001
  0
LINE
  5
371
330
1F
100
AcDbEntity
  8
LAY-10
  6
CONTINUOUS
 62
     7
100
AcDbLine
 10
582.5407257570869
 20
931.2636940246002
 30
0.0
 11
588.0407257570832
 21
931.2636940246002
 31
0.0
  0
LINE
  5
372
330
1F
100
AcDbEntity
  8
LAY-10
  6
CONTINUOUS
 62
     7
100
AcDbLine
 10
590.0407257570869
 20
929.2636940246002
 30
0.0
 11
590.0407257570869
 21
923.2636940246002
 31
0.0
  0
LINE
  5
373
330
1F
100
AcDbEntity
  8
LAY-10
  6
CONTINUOUS
 62
     7
100
AcDbLine
 10
588.0407257570705
 20
929.2636940246002
 30
0.0
 11
588.0407257570705
 21
923.2636940246002
 31
0.0
  0
LINE
  5
374
330
1F
100
AcDbEntity
  8
LAY-10
  6
CONTINUOUS
 62
     7
100
AcDbLine
 10
582.5407257570869
 20
929.2636940246002
 30
0.0
 11
588.0407257570705
 21
929.2636940246002
 31
0.0
  0
LINE
  5
375
330
1F
100
AcDbEntity
  8
LAY-10
  6
CONTINUOUS
 62
     7
100
AcDbLine
 10
582.5407257570869
 20
931.2636940246002
 30
0.0
 11
582.5407257570869
 21
929.2636940246002
 31
0.0
  0
ARC
  5
376
330
1F
100
AcDbEntity
  8
LAY-10
  6
CONTINUOUS
 62
     7
100
AcDbCircle
 10
617.0407257570887
 20
929.2636940246002
 30
0.0
 40
2.0
100
AcDbArc
 50
90.00000000000001
 51
180.0
  0
LINE
  5
377
330
1F
100
AcDbEntity
  8
LAY-10
  6
CONTINUOUS
 62
     7
100
AcDbLine
 10
622.5407257570887
 20
931.2636940246002
 30
0.0
 11
617.0407257570887
 21
931.2636940246002
 31
0.0
  0
LINE
  5
378
330
1F
100
AcDbEntity
  8
LAY-10
  6
CONTINUOUS
 62
     7
100
AcDbLine
 10
615.0407257570887
 20
929.2636940246002
 30
0.0
 11
615.0407257570887
 21
923.2636940246002
 31
0.0
  0
LINE
  5
379
330
1F
100
AcDbEntity
  8
LAY-10
  6
CONTINUOUS
 62
     7
100
AcDbLine
 10
617.0407257571051
 20
929.2636940246002
 30
0.0
 11
617.0407257571051
 21
923.2636940246002
 31
0.0
  0
LINE
  5
37A
330
1F
100
AcDbEntity
  8
LAY-10
  6
CONTINUOUS
 62
     7
100
AcDbLine
 10
622.5407257570887
 20
929.2636940246002
 30
0.0
 11
617.0407257571051
 21
929.2636940246002
 31
0.0
  0
LINE
  5
37B
330
1F
100
AcDbEntity
  8
LAY-10
  6
CONTINUOUS
 62
     7
100
AcDbLine
 10
622.5407257570887
 20
931.2636940246002
 30
0.0
 11
622.5407257570887
 21
929.2636940246002
 31
0.0
  0
LINE
  5
37C
330
1F
100
AcDbEntity
  8
LAY-10
  6
CONTINUOUS
 62
     7
100
AcDbLine
 10
615.0407257570887
 20
923.2636940246002
 30
0.0
 11
590.0407257570887
 21
923.2636940246002
 31
0.0
  0
ARC
  5
37D
330
1F
100
AcDbEntity
  8
LAY-10
  6
CONTINUOUS
 62
     7
100
AcDbCircle
 10
590.0407257570705
 20
923.2636940246002
 30
0.0
 40
2.0
100
AcDbArc
 50
180.0
 51
270.0000000000002
  0
ARC
  5
37E
330
1F
100
AcDbEntity
  8
LAY-10
  6
CONTINUOUS
 62
     7
100
AcDbCircle
 10
615.0407257571051
 20
923.2636940246002
 30
0.0
 40
2.0
100
AcDbArc
 50
270.0000000000002
 51
0.0
  0
LINE
  5
37F
330
1F
100
AcDbEntity
  8
LAY-10
  6
CONTINUOUS
 62
     7
100
AcDbLine
 10
601.0407257570778
 20
918.0636940246004
 30
0.0
 11
601.0407257570778
 21
899.0636940246504
 31
0.0
  0
LINE
  5
380
330
1F
100
AcDbEntity
  8
LAY-10
  6
CONTINUOUS
 62
     7
100
AcDbLine
 10
604.0407257570778
 20
918.0636940246004
 30
0.0
 11
604.0407257570778
 21
899.0636940246504
 31
0.0
  0
LINE
  5
381
330
1F
100
AcDbEntity
  8
LAY-10
  6
CONTINUOUS
 62
     7
100
AcDbLine
 10
604.0407257570778
 20
899.0636940246027
 30
0.0
 11
401.0407257570778
 21
899.0636940246027
 31
0.0
  0
ARC
  5
382
330
1F
100
AcDbEntity
  8
LAY-10
  6
CONTINUOUS
 62
     7
100
AcDbCircle
 10
701.3407257570971
 20
924.2636940246035
 30
0.0
 40
3.000000000000003
100
AcDbArc
 50
270.0000000000002
 51
0.0
  0
ARC
  5
383
330
1F
100
AcDbEntity
  8
LAY-10
  6
CONTINUOUS
 62
     7
100
AcDbCircle
 10
701.540725757096
 20
924.0636940246037
 30
0.0
 40
6.000000000000006
100
AcDbArc
 50
270.0000000000002
 51
0.0
  0
LINE
  5
384
330
1F
100
AcDbEntity
  8
LAY-10
  6
CONTINUOUS
 62
     7
100
AcDbLine
 10
704.3407257570971
 20
963.2636940246034
 30
0.0
 11
704.3407257570971
 21
924.2636940246035
 31
0.0
  0
LINE
  5
385
330
1F
100
AcDbEntity
  8
LAY-10
  6
CONTINUOUS
 62
     7
100
AcDbLine
 10
707.5407257570978
 20
963.2636940246034
 30
0.0
 11
707.5407257570978
 21
924.0636940246037
 31
0.0
  0
LINE
  5
386
330
1F
100
AcDbEntity
  8
LAY-10
  6
CONTINUOUS
 62
     7
100
AcDbLine
 10
710.540725757096
 20
966.2636940246048
 30
0.0
 11
710.540725757096
 21
951.2636940246048
 31
0.0
  0
LINE
  5
387
330
1F
100
AcDbEntity
  8
LAY-10
  6
CONTINUOUS
 62
     7
100
AcDbLine
 10
710.540725757096
 20
951.2636940246048
 30
0.0
 11
707.5407257570978
 21
951.2636940246048
 31
0.0
  0
LINE
  5
388
330
1F
100
AcDbEntity
  8
LAY-10
  6
CONTINUOUS
 62
     7
100
AcDbLine
 10
303.7407257570185
 20
921.263694024604
 30
0.0
 11
701.3407257570971
 21
921.2636940246048
 31
0.0
  0
LINE
  5
389
330
1F
100
AcDbEntity
  8
LAY-10
  6
CONTINUOUS
 62
     7
100
AcDbLine
 10
294.5407257570232
 20
966.263694024603
 30
0.0
 11
710.540725757096
 21
966.2636940246048
 31
0.0
  0
ARC
  5
38A
330
1F
100
AcDbEntity
  8
LAY-10
  6
CONTINUOUS
 62
     7
100
AcDbCircle
 10
721.5407257570196
 20
924.0636940246027
 30
0.0
 40
6.000000000000006
100
AcDbArc
 50
180.0
 51
270.0000000000002
  0
ARC
  5
38B
330
1F
100
AcDbEntity
  8
LAY-10
  6
CONTINUOUS
 62
     7
100
AcDbCircle
 10
721.7407257570185
 20
924.2636940246025
 30
0.0
 40
3.000000000000003
100
AcDbArc
 50
180.0
 51
270.0000000000002
  0
LINE
  5
38C
330
1F
100
AcDbEntity
  8
LAY-10
  6
CONTINUOUS
 62
     7
100
AcDbLine
 10
718.7407257570184
 20
963.263694024603
 30
0.0
 11
718.7407257570184
 21
924.2636940246025
 31
0.0
  0
LINE
  5
38D
330
1F
100
AcDbEntity
  8
LAY-10
  6
CONTINUOUS
 62
     7
100
AcDbLine
 10
715.5407257570159
 20
963.263694024603
 30
0.0
 11
715.5407257570159
 21
924.0636940246027
 31
0.0
  0
LINE
  5
38E
330
1F
100
AcDbEntity
  8
LAY-10
  6
CONTINUOUS
 62
     7
100
AcDbLine
 10
712.5407257570195
 20
951.263694024604
 30
0.0
 11
715.5407257570178
 21
951.263694024604
 31
0.0
  0
LINE
  5
38F
330
1F
100
AcDbEntity
  8
LAY-10
  6
CONTINUOUS
 62
     7
100
AcDbLine
 10
712.5407257570195
 20
966.263694024603
 30
0.0
 11
712.5407257570195
 21
951.263694024604
 31
0.0
  0
LINE
  5
390
330
1F
100
AcDbEntity
  8
LAY-10
  6
CONTINUOUS
 62
     7
100
AcDbLine
 10
835.040725757085
 20
929.2636940245998
 30
0.0
 11
835.040725757085
 21
923.2636940245989
 31
0.0
  0
ARC
  5
391
330
1F
100
AcDbEntity
  8
LAY-10
  6
CONTINUOUS
 62
     7
100
AcDbCircle
 10
835.0407257570705
 20
929.2636940245998
 30
0.0
 40
2.0
100
AcDbArc
 50
90.00000000000001
 51
180.0
  0
LINE
  5
392
330
1F
100
AcDbEntity
  8
LAY-10
  6
CONTINUOUS
 62
     7
100
AcDbLine
 10
840.5407257570687
 20
931.2636940245994
 30
0.0
 11
835.0407257570705
 21
931.2636940245994
 31
0.0
  0
LINE
  5
393
330
1F
100
AcDbEntity
  8
LAY-10
  6
CONTINUOUS
 62
     7
100
AcDbLine
 10
833.0407257570687
 20
929.2636940245998
 30
0.0
 11
833.0407257570687
 21
923.2636940245989
 31
0.0
  0
LINE
  5
394
330
1F
100
AcDbEntity
  8
LAY-10
  6
CONTINUOUS
 62
     7
100
AcDbLine
 10
840.5407257570687
 20
929.2636940245998
 30
0.0
 11
835.040725757085
 21
929.2636940245998
 31
0.0
  0
LINE
  5
395
330
1F
100
AcDbEntity
  8
LAY-10
  6
CONTINUOUS
 62
     7
100
AcDbLine
 10
840.5407257570687
 20
931.2636940245994
 30
0.0
 11
840.5407257570687
 21
929.2636940245998
 31
0.0
  0
ARC
  5
396
330
1F
100
AcDbEntity
  8
LAY-10
  6
CONTINUOUS
 62
     7
100
AcDbCircle
 10
806.040725757065
 20
929.2636940245998
 30
0.0
 40
2.0
100
AcDbArc
 50
0.0
 51
90.00000000000001
  0
LINE
  5
397
330
1F
100
AcDbEntity
  8
LAY-10
  6
CONTINUOUS
 62
     7
100
AcDbLine
 10
800.540725757067
 20
931.2636940245994
 30
0.0
 11
806.040725757065
 21
931.2636940245994
 31
0.0
  0
LINE
  5
398
330
1F
100
AcDbEntity
  8
LAY-10
  6
CONTINUOUS
 62
     7
100
AcDbLine
 10
808.040725757067
 20
929.2636940245998
 30
0.0
 11
808.040725757067
 21
923.2636940245989
 31
0.0
  0
LINE
  5
399
330
1F
100
AcDbEntity
  8
LAY-10
  6
CONTINUOUS
 62
     7
100
AcDbLine
 10
806.0407257570506
 20
929.2636940245998
 30
0.0
 11
806.0407257570506
 21
923.2636940245989
 31
0.0
  0
LINE
  5
39A
330
1F
100
AcDbEntity
  8
LAY-10
  6
CONTINUOUS
 62
     7
100
AcDbLine
 10
800.540725757067
 20
929.2636940245998
 30
0.0
 11
806.0407257570506
 21
929.2636940245998
 31
0.0
  0
LINE
  5
39B
330
1F
100
AcDbEntity
  8
LAY-10
  6
CONTINUOUS
 62
     7
100
AcDbLine
 10
800.540725757067
 20
931.2636940245994
 30
0.0
 11
800.540725757067
 21
929.2636940245998
 31
0.0
  0
LINE
  5
39C
330
1F
100
AcDbEntity
  8
LAY-10
  6
CONTINUOUS
 62
     7
100
AcDbLine
 10
808.040725757067
 20
923.2636940245989
 30
0.0
 11
833.040725757065
 21
923.2636940245989
 31
0.0
  0
ARC
  5
39D
330
1F
100
AcDbEntity
  8
LAY-10
  6
CONTINUOUS
 62
     7
100
AcDbCircle
 10
833.0407257570852
 20
923.2636940245989
 30
0.0
 40
2.0
100
AcDbArc
 50
270.0000000000002
 51
0.0
  0
ARC
  5
39E
330
1F
100
AcDbEntity
  8
LAY-10
  6
CONTINUOUS
 62
     7
100
AcDbCircle
 10
808.0407257570505
 20
923.2636940245989
 30
0.0
 40
2.0
100
AcDbArc
 50
180.0
 51
270.0000000000002
  0
LINE
  5
39F
330
1F
100
AcDbEntity
  8
LAY-10
  6
CONTINUOUS
 62
     7
100
AcDbLine
 10
822.0407257570778
 20
918.0636940246004
 30
0.0
 11
822.0407257570778
 21
899.0636940246504
 31
0.0
  0
LINE
  5
3A0
330
1F
100
AcDbEntity
  8
LAY-10
  6
CONTINUOUS
 62
     7
100
AcDbLine
 10
819.0407257570778
 20
918.0636940246004
 30
0.0
 11
819.0407257570778
 21
899.0636940246504
 31
0.0
  0
ARC
  5
3A1
330
1F
100
AcDbEntity
  8
LAY-10
  6
CONTINUOUS
 62
     7
100
AcDbCircle
 10
1006.040725757083
 20
929.2636940246002
 30
0.0
 40
2.0
100
AcDbArc
 50
0.0
 51
90.00000000000001
  0
LINE
  5
3A2
330
1F
100
AcDbEntity
  8
LAY-10
  6
CONTINUOUS
 62
     7
100
AcDbLine
 10
1000.540725757087
 20
931.2636940246002
 30
0.0
 11
1006.040725757083
 21
931.2636940246002
 31
0.0
  0
LINE
  5
3A3
330
1F
100
AcDbEntity
  8
LAY-10
  6
CONTINUOUS
 62
     7
100
AcDbLine
 10
1008.040725757087
 20
929.2636940246002
 30
0.0
 11
1008.040725757087
 21
923.2636940246002
 31
0.0
  0
LINE
  5
3A4
330
1F
100
AcDbEntity
  8
LAY-10
  6
CONTINUOUS
 62
     7
100
AcDbLine
 10
1006.040725757071
 20
929.2636940246002
 30
0.0
 11
1006.040725757071
 21
923.2636940246002
 31
0.0
  0
LINE
  5
3A5
330
1F
100
AcDbEntity
  8
LAY-10
  6
CONTINUOUS
 62
     7
100
AcDbLine
 10
1000.540725757087
 20
929.2636940246002
 30
0.0
 11
1006.040725757071
 21
929.2636940246002
 31
0.0
  0
LINE
  5
3A6
330
1F
100
AcDbEntity
  8
LAY-10
  6
CONTINUOUS
 62
     7
100
AcDbLine
 10
1000.540725757087
 20
931.2636940246002
 30
0.0
 11
1000.540725757087
 21
929.2636940246002
 31
0.0
  0
ARC
  5
3A7
330
1F
100
AcDbEntity
  8
LAY-10
  6
CONTINUOUS
 62
     7
100
AcDbCircle
 10
1035.040725757089
 20
929.2636940246002
 30
0.0
 40
2.0
100
AcDbArc
 50
90.00000000000001
 51
180.0
  0
LINE
  5
3A8
330
1F
100
AcDbEntity
  8
LAY-10
  6
CONTINUOUS
 62
     7
100
AcDbLine
 10
1040.540725757089
 20
931.2636940246002
 30
0.0
 11
1035.040725757089
 21
931.2636940246002
 31
0.0
  0
LINE
  5
3A9
330
1F
100
AcDbEntity
  8
LAY-10
  6
CONTINUOUS
 62
     7
100
AcDbLine
 10
1033.040725757089
 20
929.2636940246002
 30
0.0
 11
1033.040725757089
 21
923.2636940246002
 31
0.0
  0
LINE
  5
3AA
330
1F
100
AcDbEntity
  8
LAY-10
  6
CONTINUOUS
 62
     7
100
AcDbLine
 10
1035.040725757105
 20
929.2636940246002
 30
0.0
 11
1035.040725757105
 21
923.2636940246002
 31
0.0
  0
LINE
  5
3AB
330
1F
100
AcDbEntity
  8
LAY-10
  6
CONTINUOUS
 62
     7
100
AcDbLine
 10
1040.540725757089
 20
929.2636940246002
 30
0.0
 11
1035.040725757105
 21
929.2636940246002
 31
0.0
  0
LINE
  5
3AC
330
1F
100
AcDbEntity
  8
LAY-10
  6
CONTINUOUS
 62
     7
100
AcDbLine
 10
1040.540725757089
 20
931.2636940246002
 30
0.0
 11
1040.540725757089
 21
929.2636940246002
 31
0.0
  0
LINE
  5
3AD
330
1F
100
AcDbEntity
  8
LAY-10
  6
CONTINUOUS
 62
     7
100
AcDbLine
 10
1033.040725757089
 20
923.2636940246002
 30
0.0
 11
1008.040725757089
 21
923.2636940246002
 31
0.0
  0
ARC
  5
3AE
330
1F
100
AcDbEntity
  8
LAY-10
  6
CONTINUOUS
 62
     7
100
AcDbCircle
 10
1008.040725757071
 20
923.2636940246002
 30
0.0
 40
2.0
100
AcDbArc
 50
180.0
 51
270.0000000000002
  0
ARC
  5
3AF
330
1F
100
AcDbEntity
  8
LAY-10
  6
CONTINUOUS
 62
     7
100
AcDbCircle
 10
1033.040725757105
 20
923.2636940246002
 30
0.0
 40
2.0
100
AcDbArc
 50
270.0000000000002
 51
0.0
  0
LINE
  5
3B0
330
1F
100
AcDbEntity
  8
LAY-10
  6
CONTINUOUS
 62
     7
100
AcDbLine
 10
1019.040725757078
 20
918.0636940246004
 30
0.0
 11
1019.040725757078
 21
899.0636940246504
 31
0.0
  0
LINE
  5
3B1
330
1F
100
AcDbEntity
  8
LAY-10
  6
CONTINUOUS
 62
     7
100
AcDbLine
 10
1022.040725757078
 20
918.0636940246004
 30
0.0
 11
1022.040725757078
 21
899.0636940246504
 31
0.0
  0
LINE
  5
3B2
330
1F
100
AcDbEntity
  8
LAY-10
  6
CONTINUOUS
 62
     7
100
AcDbLine
 10
1022.040725757078
 20
899.0636940246027
 30
0.0
 11
819.0407257570778
 21
899.0636940246027
 31
0.0
  0
ARC
  5
3B3
330
1F
100
AcDbEntity
  8
LAY-10
  6
CONTINUOUS
 62
     7
100
AcDbCircle
 10
1119.340725757097
 20
924.2636940246035
 30
0.0
 40
3.000000000000003
100
AcDbArc
 50
270.0000000000002
 51
0.0
  0
ARC
  5
3B4
330
1F
100
AcDbEntity
  8
LAY-10
  6
CONTINUOUS
 62
     7
100
AcDbCircle
 10
1119.540725757096
 20
924.0636940246037
 30
0.0
 40
6.000000000000006
100
AcDbArc
 50
270.0000000000002
 51
0.0
  0
LINE
  5
3B5
330
1F
100
AcDbEntity
  8
LAY-10
  6
CONTINUOUS
 62
     7
100
AcDbLine
 10
1122.340725757097
 20
963.2636940246034
 30
0.0
 11
1122.340725757097
 21
924.2636940246035
 31
0.0
  0
LINE
  5
3B6
330
1F
100
AcDbEntity
  8
LAY-10
  6
CONTINUOUS
 62
     7
100
AcDbLine
 10
1125.540725757098
 20
963.2636940246034
 30
0.0
 11
1125.540725757098
 21
924.0636940246037
 31
0.0
  0
LINE
  5
3B7
330
1F
100
AcDbEntity
  8
LAY-10
  6
CONTINUOUS
 62
     7
100
AcDbLine
 10
1128.540725757096
 20
966.2636940246048
 30
0.0
 11
1128.540725757096
 21
951.2636940246048
 31
0.0
  0
LINE
  5
3B8
330
1F
100
AcDbEntity
  8
LAY-10
  6
CONTINUOUS
 62
     7
100
AcDbLine
 10
1128.540725757096
 20
951.2636940246048
 30
0.0
 11
1125.540725757098
 21
951.2636940246048
 31
0.0
  0
LINE
  5
3B9
330
1F
100
AcDbEntity
  8
LAY-10
  6
CONTINUOUS
 62
     7
100
AcDbLine
 10
721.7407257570185
 20
921.263694024604
 30
0.0
 11
1119.340725757097
 21
921.2636940246048
 31
0.0
  0
LINE
  5
3BA
330
1F
100
AcDbEntity
  8
LAY-10
  6
CONTINUOUS
 62
     7
100
AcDbLine
 10
712.5407257570232
 20
966.263694024603
 30
0.0
 11
1128.540725757096
 21
966.2636940246048
 31
0.0
  0
LINE
  5
3BB
330
1F
100
AcDbEntity
  8
LAY-10
  6
CONTINUOUS
 62
     7
100
AcDbLine
 10
327.5407257570196
 20
916.0636940245996
 30
0.0
 11
401.0407257570778
 21
916.0636940245996
 31
0.0
  0
ARC
  5
3BC
330
1F
100
AcDbEntity
  8
LAY-10
  6
CONTINUOUS
 62
     7
100
AcDbCircle
 10
1537.540725757076
 20
924.0636940246027
 30
0.0
 40
6.000000000000006
100
AcDbArc
 50
270.0000000000002
 51
0.0
  0
ARC
  5
3BD
330
1F
100
AcDbEntity
  8
LAY-10
  6
CONTINUOUS
 62
     7
100
AcDbCircle
 10
1537.340725757077
 20
924.2636940246025
 30
0.0
 40
3.000000000000003
100
AcDbArc
 50
270.0000000000002
 51
0.0
  0
LINE
  5
3BE
330
1F
100
AcDbEntity
  8
LAY-10
  6
CONTINUOUS
 62
     7
100
AcDbLine
 10
1540.340725757077
 20
963.263694024603
 30
0.0
 11
1540.340725757077
 21
924.2636940246025
 31
0.0
  0
LINE
  5
3BF
330
1F
100
AcDbEntity
  8
LAY-10
  6
CONTINUOUS
 62
     7
100
AcDbLine
 10
1543.54072575708
 20
963.263694024603
 30
0.0
 11
1543.54072575708
 21
924.0636940246027
 31
0.0
  0
LINE
  5
3C0
330
1F
100
AcDbEntity
  8
LAY-10
  6
CONTINUOUS
 62
     7
100
AcDbLine
 10
1546.540725757076
 20
951.263694024604
 30
0.0
 11
1543.540725757078
 21
951.263694024604
 31
0.0
  0
LINE
  5
3C1
330
1F
100
AcDbEntity
  8
LAY-10
  6
CONTINUOUS
 62
     7
100
AcDbLine
 10
1546.540725757076
 20
966.263694024603
 30
0.0
 11
1546.540725757076
 21
951.263694024604
 31
0.0
  0
LINE
  5
3C2
330
1F
100
AcDbEntity
  8
LAY-10
  6
CONTINUOUS
 62
     7
100
AcDbLine
 10
1424.04072575701
 20
929.2636940245998
 30
0.0
 11
1424.04072575701
 21
923.2636940245989
 31
0.0
  0
ARC
  5
3C3
330
1F
100
AcDbEntity
  8
LAY-10
  6
CONTINUOUS
 62
     7
100
AcDbCircle
 10
1424.040725757025
 20
929.2636940245998
 30
0.0
 40
2.0
100
AcDbArc
 50
0.0
 51
90.00000000000001
  0
LINE
  5
3C4
330
1F
100
AcDbEntity
  8
LAY-10
  6
CONTINUOUS
 62
     7
100
AcDbLine
 10
1418.540725757025
 20
931.2636940245994
 30
0.0
 11
1424.040725757025
 21
931.2636940245994
 31
0.0
  0
LINE
  5
3C5
330
1F
100
AcDbEntity
  8
LAY-10
  6
CONTINUOUS
 62
     7
100
AcDbLine
 10
1426.040725757025
 20
929.2636940245998
 30
0.0
 11
1426.040725757025
 21
923.2636940245989
 31
0.0
  0
LINE
  5
3C6
330
1F
100
AcDbEntity
  8
LAY-10
  6
CONTINUOUS
 62
     7
100
AcDbLine
 10
1418.540725757025
 20
929.2636940245998
 30
0.0
 11
1424.04072575701
 21
929.2636940245998
 31
0.0
  0
LINE
  5
3C7
330
1F
100
AcDbEntity
  8
LAY-10
  6
CONTINUOUS
 62
     7
100
AcDbLine
 10
1418.540725757025
 20
931.2636940245994
 30
0.0
 11
1418.540725757025
 21
929.2636940245998
 31
0.0
  0
ARC
  5
3C8
330
1F
100
AcDbEntity
  8
LAY-10
  6
CONTINUOUS
 62
     7
100
AcDbCircle
 10
1453.04072575703
 20
929.2636940245998
 30
0.0
 40
2.0
100
AcDbArc
 50
90.00000000000001
 51
180.0
  0
LINE
  5
3C9
330
1F
100
AcDbEntity
  8
LAY-10
  6
CONTINUOUS
 62
     7
100
AcDbLine
 10
1458.540725757029
 20
931.2636940245994
 30
0.0
 11
1453.04072575703
 21
931.2636940245994
 31
0.0
  0
LINE
  5
3CA
330
1F
100
AcDbEntity
  8
LAY-10
  6
CONTINUOUS
 62
     7
100
AcDbLine
 10
1451.040725757029
 20
929.2636940245998
 30
0.0
 11
1451.040725757029
 21
923.2636940245989
 31
0.0
  0
LINE
  5
3CB
330
1F
100
AcDbEntity
  8
LAY-10
  6
CONTINUOUS
 62
     7
100
AcDbLine
 10
1453.040725757045
 20
929.2636940245998
 30
0.0
 11
1453.040725757045
 21
923.2636940245989
 31
0.0
  0
LINE
  5
3CC
330
1F
100
AcDbEntity
  8
LAY-10
  6
CONTINUOUS
 62
     7
100
AcDbLine
 10
1458.540725757029
 20
929.2636940245998
 30
0.0
 11
1453.040725757045
 21
929.2636940245998
 31
0.0
  0
LINE
  5
3CD
330
1F
100
AcDbEntity
  8
LAY-10
  6
CONTINUOUS
 62
     7
100
AcDbLine
 10
1458.540725757029
 20
931.2636940245994
 30
0.0
 11
1458.540725757029
 21
929.2636940245998
 31
0.0
  0
LINE
  5
3CE
330
1F
100
AcDbEntity
  8
LAY-10
  6
CONTINUOUS
 62
     7
100
AcDbLine
 10
1451.040725757029
 20
923.2636940245989
 30
0.0
 11
1426.04072575703
 21
923.2636940245989
 31
0.0
  0
ARC
  5
3CF
330
1F
100
AcDbEntity
  8
LAY-10
  6
CONTINUOUS
 62
     7
100
AcDbCircle
 10
1426.04072575701
 20
923.2636940245989
 30
0.0
 40
2.0
100
AcDbArc
 50
180.0
 51
270.0000000000002
  0
ARC
  5
3D0
330
1F
100
AcDbEntity
  8
LAY-10
  6
CONTINUOUS
 62
     7
100
AcDbCircle
 10
1451.040725757043
 20
923.2636940245989
 30
0.0
 40
2.0
100
AcDbArc
 50
270.0000000000002
 51
0.0
  0
LINE
  5
3D1
330
1F
100
AcDbEntity
  8
LAY-10
  6
CONTINUOUS
 62
     7
100
AcDbLine
 10
1437.040725757018
 20
918.0636940246004
 30
0.0
 11
1437.040725757018
 21
899.0636940246504
 31
0.0
  0
LINE
  5
3D2
330
1F
100
AcDbEntity
  8
LAY-10
  6
CONTINUOUS
 62
     7
100
AcDbLine
 10
1440.040725757018
 20
918.0636940246004
 30
0.0
 11
1440.040725757018
 21
899.0636940246504
 31
0.0
  0
ARC
  5
3D3
330
1F
100
AcDbEntity
  8
LAY-10
  6
CONTINUOUS
 62
     7
100
AcDbCircle
 10
1253.04072575701
 20
929.2636940246002
 30
0.0
 40
2.0
100
AcDbArc
 50
90.00000000000001
 51
180.0
  0
LINE
  5
3D4
330
1F
100
AcDbEntity
  8
LAY-10
  6
CONTINUOUS
 62
     7
100
AcDbLine
 10
1258.540725757011
 20
931.2636940246002
 30
0.0
 11
1253.04072575701
 21
931.2636940246002
 31
0.0
  0
LINE
  5
3D5
330
1F
100
AcDbEntity
  8
LAY-10
  6
CONTINUOUS
 62
     7
100
AcDbLine
 10
1251.040725757011
 20
929.2636940246002
 30
0.0
 11
1251.040725757011
 21
923.2636940246002
 31
0.0
  0
LINE
  5
3D6
330
1F
100
AcDbEntity
  8
LAY-10
  6
CONTINUOUS
 62
     7
100
AcDbLine
 10
1253.040725757025
 20
929.2636940246002
 30
0.0
 11
1253.040725757025
 21
923.2636940246002
 31
0.0
  0
LINE
  5
3D7
330
1F
100
AcDbEntity
  8
LAY-10
  6
CONTINUOUS
 62
     7
100
AcDbLine
 10
1258.540725757011
 20
929.2636940246002
 30
0.0
 11
1253.040725757025
 21
929.2636940246002
 31
0.0
  0
LINE
  5
3D8
330
1F
100
AcDbEntity
  8
LAY-10
  6
CONTINUOUS
 62
     7
100
AcDbLine
 10
1258.540725757011
 20
931.2636940246002
 30
0.0
 11
1258.540725757011
 21
929.2636940246002
 31
0.0
  0
ARC
  5
3D9
330
1F
100
AcDbEntity
  8
LAY-10
  6
CONTINUOUS
 62
     7
100
AcDbCircle
 10
1224.040725757007
 20
929.2636940246002
 30
0.0
 40
2.0
100
AcDbArc
 50
0.0
 51
90.00000000000001
  0
LINE
  5
3DA
330
1F
100
AcDbEntity
  8
LAY-10
  6
CONTINUOUS
 62
     7
100
AcDbLine
 10
1218.540725757007
 20
931.2636940246002
 30
0.0
 11
1224.040725757007
 21
931.2636940246002
 31
0.0
  0
LINE
  5
3DB
330
1F
100
AcDbEntity
  8
LAY-10
  6
CONTINUOUS
 62
     7
100
AcDbLine
 10
1226.040725757007
 20
929.2636940246002
 30
0.0
 11
1226.040725757007
 21
923.2636940246002
 31
0.0
  0
LINE
  5
3DC
330
1F
100
AcDbEntity
  8
LAY-10
  6
CONTINUOUS
 62
     7
100
AcDbLine
 10
1224.040725756992
 20
929.2636940246002
 30
0.0
 11
1224.040725756992
 21
923.2636940246002
 31
0.0
  0
LINE
  5
3DD
330
1F
100
AcDbEntity
  8
LAY-10
  6
CONTINUOUS
 62
     7
100
AcDbLine
 10
1218.540725757007
 20
929.2636940246002
 30
0.0
 11
1224.040725756992
 21
929.2636940246002
 31
0.0
  0
LINE
  5
3DE
330
1F
100
AcDbEntity
  8
LAY-10
  6
CONTINUOUS
 62
     7
100
AcDbLine
 10
1218.540725757007
 20
931.2636940246002
 30
0.0
 11
1218.540725757007
 21
929.2636940246002
 31
0.0
  0
LINE
  5
3DF
330
1F
100
AcDbEntity
  8
LAY-10
  6
CONTINUOUS
 62
     7
100
AcDbLine
 10
1226.040725757007
 20
923.2636940246002
 30
0.0
 11
1251.040725757007
 21
923.2636940246002
 31
0.0
  0
ARC
  5
3E0
330
1F
100
AcDbEntity
  8
LAY-10
  6
CONTINUOUS
 62
     7
100
AcDbCircle
 10
1251.040725757025
 20
923.2636940246002
 30
0.0
 40
2.0
100
AcDbArc
 50
270.0000000000002
 51
0.0
  0
ARC
  5
3E1
330
1F
100
AcDbEntity
  8
LAY-10
  6
CONTINUOUS
 62
     7
100
AcDbCircle
 10
1226.040725756993
 20
923.2636940246002
 30
0.0
 40
2.0
100
AcDbArc
 50
180.0
 51
270.0000000000002
  0
LINE
  5
3E2
330
1F
100
AcDbEntity
  8
LAY-10
  6
CONTINUOUS
 62
     7
100
AcDbLine
 10
1240.040725757018
 20
918.0636940246004
 30
0.0
 11
1240.040725757018
 21
899.0636940246504
 31
0.0
  0
LINE
  5
3E3
330
1F
100
AcDbEntity
  8
LAY-10
  6
CONTINUOUS
 62
     7
100
AcDbLine
 10
1237.040725757018
 20
918.0636940246004
 30
0.0
 11
1237.040725757018
 21
899.0636940246504
 31
0.0
  0
LINE
  5
3E4
330
1F
100
AcDbEntity
  8
LAY-10
  6
CONTINUOUS
 62
     7
100
AcDbLine
 10
1237.040725757018
 20
899.0636940246027
 30
0.0
 11
1440.040725757018
 21
899.0636940246027
 31
0.0
  0
ARC
  5
3E5
330
1F
100
AcDbEntity
  8
LAY-10
  6
CONTINUOUS
 62
     7
100
AcDbCircle
 10
1139.740725756998
 20
924.2636940246035
 30
0.0
 40
3.000000000000003
100
AcDbArc
 50
180.0
 51
270.0000000000002
  0
ARC
  5
3E6
330
1F
100
AcDbEntity
  8
LAY-10
  6
CONTINUOUS
 62
     7
100
AcDbCircle
 10
1139.540725757
 20
924.0636940246037
 30
0.0
 40
6.000000000000006
100
AcDbArc
 50
180.0
 51
270.0000000000002
  0
LINE
  5
3E7
330
1F
100
AcDbEntity
  8
LAY-10
  6
CONTINUOUS
 62
     7
100
AcDbLine
 10
1136.740725756997
 20
963.2636940246034
 30
0.0
 11
1136.740725756997
 21
924.2636940246035
 31
0.0
  0
LINE
  5
3E8
330
1F
100
AcDbEntity
  8
LAY-10
  6
CONTINUOUS
 62
     7
100
AcDbLine
 10
1133.540725757
 20
963.2636940246034
 30
0.0
 11
1133.540725757
 21
924.0636940246037
 31
0.0
  0
LINE
  5
3E9
330
1F
100
AcDbEntity
  8
LAY-10
  6
CONTINUOUS
 62
     7
100
AcDbLine
 10
1130.540725757
 20
966.2636940246048
 30
0.0
 11
1130.540725757
 21
951.2636940246048
 31
0.0
  0
LINE
  5
3EA
330
1F
100
AcDbEntity
  8
LAY-10
  6
CONTINUOUS
 62
     7
100
AcDbLine
 10
1130.540725757
 20
951.2636940246048
 30
0.0
 11
1133.540725757
 21
951.2636940246048
 31
0.0
  0
LINE
  5
3EB
330
1F
100
AcDbEntity
  8
LAY-10
  6
CONTINUOUS
 62
     7
100
AcDbLine
 10
1537.340725757077
 20
921.263694024604
 30
0.0
 11
1139.740725756998
 21
921.2636940246048
 31
0.0
  0
LINE
  5
3EC
330
1F
100
AcDbEntity
  8
LAY-10
  6
CONTINUOUS
 62
     7
100
AcDbLine
 10
1546.540725757072
 20
966.263694024603
 30
0.0
 11
1130.540725757
 21
966.2636940246048
 31
0.0
  0
ARC
  5
3ED
330
1F
100
AcDbEntity
  8
LAY-10
  6
CONTINUOUS
 62
     7
100
AcDbCircle
 10
1955.540725757076
 20
924.0636940246027
 30
0.0
 40
6.000000000000006
100
AcDbArc
 50
270.0000000000002
 51
0.0
  0
ARC
  5
3EE
330
1F
100
AcDbEntity
  8
LAY-10
  6
CONTINUOUS
 62
     7
100
AcDbCircle
 10
1955.340725757077
 20
924.2636940246025
 30
0.0
 40
3.000000000000003
100
AcDbArc
 50
270.0000000000002
 51
0.0
  0
LINE
  5
3EF
330
1F
100
AcDbEntity
  8
LAY-10
  6
CONTINUOUS
 62
     7
100
AcDbLine
 10
1958.340725757077
 20
963.263694024603
 30
0.0
 11
1958.340725757077
 21
924.2636940246025
 31
0.0
  0
LINE
  5
3F0
330
1F
100
AcDbEntity
  8
LAY-10
  6
CONTINUOUS
 62
     7
100
AcDbLine
 10
1961.54072575708
 20
963.263694024603
 30
0.0
 11
1961.54072575708
 21
924.0636940246027
 31
0.0
  0
LINE
  5
3F1
330
1F
100
AcDbEntity
  8
LAY-10
  6
CONTINUOUS
 62
     7
100
AcDbLine
 10
1964.540725757076
 20
951.263694024604
 30
0.0
 11
1961.540725757078
 21
951.263694024604
 31
0.0
  0
LINE
  5
3F2
330
1F
100
AcDbEntity
  8
LAY-10
  6
CONTINUOUS
 62
     7
100
AcDbLine
 10
1964.540725757076
 20
966.263694024603
 30
0.0
 11
1964.540725757076
 21
951.263694024604
 31
0.0
  0
LINE
  5
3F3
330
1F
100
AcDbEntity
  8
LAY-10
  6
CONTINUOUS
 62
     7
100
AcDbLine
 10
1842.04072575701
 20
929.2636940245998
 30
0.0
 11
1842.04072575701
 21
923.2636940245989
 31
0.0
  0
ARC
  5
3F4
330
1F
100
AcDbEntity
  8
LAY-10
  6
CONTINUOUS
 62
     7
100
AcDbCircle
 10
1842.040725757025
 20
929.2636940245998
 30
0.0
 40
2.0
100
AcDbArc
 50
0.0
 51
90.00000000000001
  0
LINE
  5
3F5
330
1F
100
AcDbEntity
  8
LAY-10
  6
CONTINUOUS
 62
     7
100
AcDbLine
 10
1836.540725757025
 20
931.2636940245994
 30
0.0
 11
1842.040725757025
 21
931.2636940245994
 31
0.0
  0
LINE
  5
3F6
330
1F
100
AcDbEntity
  8
LAY-10
  6
CONTINUOUS
 62
     7
100
AcDbLine
 10
1844.040725757025
 20
929.2636940245998
 30
0.0
 11
1844.040725757025
 21
923.2636940245989
 31
0.0
  0
LINE
  5
3F7
330
1F
100
AcDbEntity
  8
LAY-10
  6
CONTINUOUS
 62
     7
100
AcDbLine
 10
1836.540725757025
 20
929.2636940245998
 30
0.0
 11
1842.04072575701
 21
929.2636940245998
 31
0.0
  0
LINE
  5
3F8
330
1F
100
AcDbEntity
  8
LAY-10
  6
CONTINUOUS
 62
     7
100
AcDbLine
 10
1836.540725757025
 20
931.2636940245994
 30
0.0
 11
1836.540725757025
 21
929.2636940245998
 31
0.0
  0
ARC
  5
3F9
330
1F
100
AcDbEntity
  8
LAY-10
  6
CONTINUOUS
 62
     7
100
AcDbCircle
 10
1871.040725757031
 20
929.2636940245998
 30
0.0
 40
2.0
100
AcDbArc
 50
90.00000000000001
 51
180.0
  0
LINE
  5
3FA
330
1F
100
AcDbEntity
  8
LAY-10
  6
CONTINUOUS
 62
     7
100
AcDbLine
 10
1876.540725757029
 20
931.2636940245994
 30
0.0
 11
1871.040725757031
 21
931.2636940245994
 31
0.0
  0
LINE
  5
3FB
330
1F
100
AcDbEntity
  8
LAY-10
  6
CONTINUOUS
 62
     7
100
AcDbLine
 10
1869.040725757029
 20
929.2636940245998
 30
0.0
 11
1869.040725757029
 21
923.2636940245989
 31
0.0
  0
LINE
  5
3FC
330
1F
100
AcDbEntity
  8
LAY-10
  6
CONTINUOUS
 62
     7
100
AcDbLine
 10
1871.040725757045
 20
929.2636940245998
 30
0.0
 11
1871.040725757045
 21
923.2636940245989
 31
0.0
  0
LINE
  5
3FD
330
1F
100
AcDbEntity
  8
LAY-10
  6
CONTINUOUS
 62
     7
100
AcDbLine
 10
1876.540725757029
 20
929.2636940245998
 30
0.0
 11
1871.040725757045
 21
929.2636940245998
 31
0.0
  0
LINE
  5
3FE
330
1F
100
AcDbEntity
  8
LAY-10
  6
CONTINUOUS
 62
     7
100
AcDbLine
 10
1876.540725757029
 20
931.2636940245994
 30
0.0
 11
1876.540725757029
 21
929.2636940245998
 31
0.0
  0
LINE
  5
3FF
330
1F
100
AcDbEntity
  8
LAY-10
  6
CONTINUOUS
 62
     7
100
AcDbLine
 10
1869.040725757029
 20
923.2636940245989
 30
0.0
 11
1844.04072575703
 21
923.2636940245989
 31
0.0
  0
ARC
  5
400
330
1F
100
AcDbEntity
  8
LAY-10
  6
CONTINUOUS
 62
     7
100
AcDbCircle
 10
1844.04072575701
 20
923.2636940245989
 30
0.0
 40
2.0
100
AcDbArc
 50
180.0
 51
270.0000000000002
  0
ARC
  5
401
330
1F
100
AcDbEntity
  8
LAY-10
  6
CONTINUOUS
 62
     7
100
AcDbCircle
 10
1869.040725757043
 20
923.2636940245989
 30
0.0
 40
2.0
100
AcDbArc
 50
270.0000000000002
 51
0.0
  0
LINE
  5
402
330
1F
100
AcDbEntity
  8
LAY-10
  6
CONTINUOUS
 62
     7
100
AcDbLine
 10
1855.040725757018
 20
918.0636940246004
 30
0.0
 11
1855.040725757018
 21
899.0636940246504
 31
0.0
  0
LINE
  5
403
330
1F
100
AcDbEntity
  8
LAY-10
  6
CONTINUOUS
 62
     7
100
AcDbLine
 10
1858.040725757018
 20
918.0636940246004
 30
0.0
 11
1858.040725757018
 21
899.0636940246504
 31
0.0
  0
ARC
  5
404
330
1F
100
AcDbEntity
  8
LAY-10
  6
CONTINUOUS
 62
     7
100
AcDbCircle
 10
1671.04072575701
 20
929.2636940246002
 30
0.0
 40
2.0
100
AcDbArc
 50
90.00000000000001
 51
180.0
  0
LINE
  5
405
330
1F
100
AcDbEntity
  8
LAY-10
  6
CONTINUOUS
 62
     7
100
AcDbLine
 10
1676.54072575701
 20
931.2636940246002
 30
0.0
 11
1671.04072575701
 21
931.2636940246002
 31
0.0
  0
LINE
  5
406
330
1F
100
AcDbEntity
  8
LAY-10
  6
CONTINUOUS
 62
     7
100
AcDbLine
 10
1669.04072575701
 20
929.2636940246002
 30
0.0
 11
1669.04072575701
 21
923.2636940246002
 31
0.0
  0
LINE
  5
407
330
1F
100
AcDbEntity
  8
LAY-10
  6
CONTINUOUS
 62
     7
100
AcDbLine
 10
1671.040725757025
 20
929.2636940246002
 30
0.0
 11
1671.040725757025
 21
923.2636940246002
 31
0.0
  0
LINE
  5
408
330
1F
100
AcDbEntity
  8
LAY-10
  6
CONTINUOUS
 62
     7
100
AcDbLine
 10
1676.54072575701
 20
929.2636940246002
 30
0.0
 11
1671.040725757025
 21
929.2636940246002
 31
0.0
  0
LINE
  5
409
330
1F
100
AcDbEntity
  8
LAY-10
  6
CONTINUOUS
 62
     7
100
AcDbLine
 10
1676.54072575701
 20
931.2636940246002
 30
0.0
 11
1676.54072575701
 21
929.2636940246002
 31
0.0
  0
ARC
  5
40A
330
1F
100
AcDbEntity
  8
LAY-10
  6
CONTINUOUS
 62
     7
100
AcDbCircle
 10
1642.040725757007
 20
929.2636940246002
 30
0.0
 40
2.0
100
AcDbArc
 50
0.0
 51
90.00000000000001
  0
LINE
  5
40B
330
1F
100
AcDbEntity
  8
LAY-10
  6
CONTINUOUS
 62
     7
100
AcDbLine
 10
1636.540725757007
 20
931.2636940246002
 30
0.0
 11
1642.040725757007
 21
931.2636940246002
 31
0.0
  0
LINE
  5
40C
330
1F
100
AcDbEntity
  8
LAY-10
  6
CONTINUOUS
 62
     7
100
AcDbLine
 10
1644.040725757007
 20
929.2636940246002
 30
0.0
 11
1644.040725757007
 21
923.2636940246002
 31
0.0
  0
LINE
  5
40D
330
1F
100
AcDbEntity
  8
LAY-10
  6
CONTINUOUS
 62
     7
100
AcDbLine
 10
1642.040725756992
 20
929.2636940246002
 30
0.0
 11
1642.040725756992
 21
923.2636940246002
 31
0.0
  0
LINE
  5
40E
330
1F
100
AcDbEntity
  8
LAY-10
  6
CONTINUOUS
 62
     7
100
AcDbLine
 10
1636.540725757007
 20
929.2636940246002
 30
0.0
 11
1642.040725756992
 21
929.2636940246002
 31
0.0
  0
LINE
  5
40F
330
1F
100
AcDbEntity
  8
LAY-10
  6
CONTINUOUS
 62
     7
100
AcDbLine
 10
1636.540725757007
 20
931.2636940246002
 30
0.0
 11
1636.540725757007
 21
929.2636940246002
 31
0.0
  0
LINE
  5
410
330
1F
100
AcDbEntity
  8
LAY-10
  6
CONTINUOUS
 62
     7
100
AcDbLine
 10
1644.040725757007
 20
923.2636940246002
 30
0.0
 11
1669.040725757007
 21
923.2636940246002
 31
0.0
  0
ARC
  5
411
330
1F
100
AcDbEntity
  8
LAY-10
  6
CONTINUOUS
 62
     7
100
AcDbCircle
 10
1669.040725757025
 20
923.2636940246002
 30
0.0
 40
2.0
100
AcDbArc
 50
270.0000000000002
 51
0.0
  0
ARC
  5
412
330
1F
100
AcDbEntity
  8
LAY-10
  6
CONTINUOUS
 62
     7
100
AcDbCircle
 10
1644.040725756992
 20
923.2636940246002
 30
0.0
 40
2.0
100
AcDbArc
 50
180.0
 51
270.0000000000002
  0
LINE
  5
413
330
1F
100
AcDbEntity
  8
LAY-10
  6
CONTINUOUS
 62
     7
100
AcDbLine
 10
1658.040725757018
 20
918.0636940246004
 30
0.0
 11
1658.040725757018
 21
899.0636940246504
 31
0.0
  0
LINE
  5
414
330
1F
100
AcDbEntity
  8
LAY-10
  6
CONTINUOUS
 62
     7
100
AcDbLine
 10
1655.040725757018
 20
918.0636940246004
 30
0.0
 11
1655.040725757018
 21
899.0636940246504
 31
0.0
  0
LINE
  5
415
330
1F
100
AcDbEntity
  8
LAY-10
  6
CONTINUOUS
 62
     7
100
AcDbLine
 10
1655.040725757018
 20
899.0636940246027
 30
0.0
 11
1858.040725757018
 21
899.0636940246027
 31
0.0
  0
ARC
  5
416
330
1F
100
AcDbEntity
  8
LAY-10
  6
CONTINUOUS
 62
     7
100
AcDbCircle
 10
1557.740725756998
 20
924.2636940246035
 30
0.0
 40
3.000000000000003
100
AcDbArc
 50
180.0
 51
270.0000000000002
  0
ARC
  5
417
330
1F
100
AcDbEntity
  8
LAY-10
  6
CONTINUOUS
 62
     7
100
AcDbCircle
 10
1557.540725757
 20
924.0636940246037
 30
0.0
 40
6.000000000000006
100
AcDbArc
 50
180.0
 51
270.0000000000002
  0
LINE
  5
418
330
1F
100
AcDbEntity
  8
LAY-10
  6
CONTINUOUS
 62
     7
100
AcDbLine
 10
1554.740725756997
 20
963.2636940246034
 30
0.0
 11
1554.740725756997
 21
924.2636940246035
 31
0.0
  0
LINE
  5
419
330
1F
100
AcDbEntity
  8
LAY-10
  6
CONTINUOUS
 62
     7
100
AcDbLine
 10
1551.540725757
 20
963.2636940246034
 30
0.0
 11
1551.540725757
 21
924.0636940246037
 31
0.0
  0
LINE
  5
41A
330
1F
100
AcDbEntity
  8
LAY-10
  6
CONTINUOUS
 62
     7
100
AcDbLine
 10
1548.540725757
 20
966.2636940246048
 30
0.0
 11
1548.540725757
 21
951.2636940246048
 31
0.0
  0
LINE
  5
41B
330
1F
100
AcDbEntity
  8
LAY-10
  6
CONTINUOUS
 62
     7
100
AcDbLine
 10
1548.540725757
 20
951.2636940246048
 30
0.0
 11
1551.540725757
 21
951.2636940246048
 31
0.0
  0
LINE
  5
41C
330
1F
100
AcDbEntity
  8
LAY-10
  6
CONTINUOUS
 62
     7
100
AcDbLine
 10
1955.340725757077
 20
921.263694024604
 30
0.0
 11
1557.740725756998
 21
921.2636940246048
 31
0.0
  0
LINE
  5
41D
330
1F
100
AcDbEntity
  8
LAY-10
  6
CONTINUOUS
 62
     7
100
AcDbLine
 10
1964.540725757072
 20
966.263694024603
 30
0.0
 11
1548.540725757
 21
966.2636940246048
 31
0.0
  0
LINE
  5
41E
330
1F
100
AcDbEntity
  8
LAY-10
  6
CONTINUOUS
 62
     7
100
AcDbLine
 10
604.0407257570778
 20
916.0636940245996
 30
0.0
 11
819.0407257570778
 21
916.0636940245996
 31
0.0
  0
LINE
  5
41F
330
1F
100
AcDbEntity
  8
LAY-10
  6
CONTINUOUS
 62
     7
100
AcDbLine
 10
1022.040725757078
 20
916.0636940244996
 30
0.0
 11
1237.040725757078
 21
916.0636940244996
 31
0.0
  0
LINE
  5
420
330
1F
100
AcDbEntity
  8
LAY-10
  6
CONTINUOUS
 62
     7
100
AcDbLine
 10
1440.040725757078
 20
916.0636940244996
 30
0.0
 11
1655.040725757078
 21
916.0636940244996
 31
0.0
  0
LINE
  5
421
330
1F
100
AcDbEntity
  8
LAY-10
  6
CONTINUOUS
 62
     7
100
AcDbLine
 10
1858.040725757018
 20
916.0636940246004
 30
0.0
 11
1965.540725756847
 21
916.0636940246004
 31
0.0
  0
LINE
  5
422
330
1F
100
AcDbEntity
  8
LAY-10
  6
CONTINUOUS
 62
     7
100
AcDbLine
 10
297.5407257570469
 20
963.263694024603
 30
0.0
 11
309.5407257570196
 21
963.263694024603
 31
0.0
  0
LINE
  5
423
330
1F
100
AcDbEntity
  8
LAY-10
  6
CONTINUOUS
 62
     7
100
AcDbLine
 10
309.5407257570196
 20
966.263694024603
 30
0.0
 11
309.5407257570196
 21
921.263694024604
 31
0.0
  0
LINE
  5
424
330
1F
100
AcDbEntity
  8
LAY-10
  6
CONTINUOUS
 62
     7
100
AcDbLine
 10
341.5407257570255
 20
966.263694024603
 30
0.0
 11
341.5407257570255
 21
921.263694024604
 31
0.0
  0
LINE
  5
425
330
1F
100
AcDbEntity
  8
LAY-10
  6
CONTINUOUS
 62
     7
100
AcDbLine
 10
695.540725757096
 20
966.2636940246048
 30
0.0
 11
695.540725757096
 21
921.2636940246048
 31
0.0
  0
LINE
  5
426
330
1F
100
AcDbEntity
  8
LAY-10
  6
CONTINUOUS
 62
     7
100
AcDbLine
 10
663.5407257570964
 20
966.2636940246048
 30
0.0
 11
663.5407257570964
 21
921.2636940246048
 31
0.0
  0
LINE
  5
427
330
1F
100
AcDbEntity
  8
LAY-10
  6
CONTINUOUS
 62
     7
100
AcDbLine
 10
341.5407257570255
 20
963.2636940246025
 30
0.0
 11
663.5407257570964
 21
963.2636940246034
 31
0.0
  0
LINE
  5
428
330
1F
100
AcDbEntity
  8
LAY-10
  6
CONTINUOUS
 62
     7
100
AcDbLine
 10
695.540725757096
 20
963.2636940246034
 30
0.0
 11
707.5407257570978
 21
963.2636940246034
 31
0.0
  0
LINE
  5
429
330
1F
100
AcDbEntity
  8
LAY-10
  6
CONTINUOUS
 62
     7
100
AcDbLine
 10
727.5407257570195
 20
966.263694024603
 30
0.0
 11
727.5407257570195
 21
921.263694024604
 31
0.0
  0
LINE
  5
42A
330
1F
100
AcDbEntity
  8
LAY-10
  6
CONTINUOUS
 62
     7
100
AcDbLine
 10
759.5407257570578
 20
966.263694024603
 30
0.0
 11
759.5407257570578
 21
921.263694024604
 31
0.0
  0
LINE
  5
42B
330
1F
100
AcDbEntity
  8
LAY-10
  6
CONTINUOUS
 62
     7
100
AcDbLine
 10
715.5407257570469
 20
963.263694024603
 30
0.0
 11
727.5407257570195
 21
963.263694024603
 31
0.0
  0
LINE
  5
42C
330
1F
100
AcDbEntity
  8
LAY-10
  6
CONTINUOUS
 62
     7
100
AcDbLine
 10
1113.540725757096
 20
966.2636940246048
 30
0.0
 11
1113.540725757096
 21
921.2636940246048
 31
0.0
  0
LINE
  5
42D
330
1F
100
AcDbEntity
  8
LAY-10
  6
CONTINUOUS
 62
     7
100
AcDbLine
 10
1081.540725757099
 20
966.2636940246048
 30
0.0
 11
1081.540725757099
 21
921.2636940246048
 31
0.0
  0
LINE
  5
42E
330
1F
100
AcDbEntity
  8
LAY-10
  6
CONTINUOUS
 62
     7
100
AcDbLine
 10
759.5407257571001
 20
963.2636940246025
 30
0.0
 11
1081.540725757099
 21
963.2636940246034
 31
0.0
  0
LINE
  5
42F
330
1F
100
AcDbEntity
  8
LAY-10
  6
CONTINUOUS
 62
     7
100
AcDbLine
 10
1113.540725757096
 20
963.2636940246034
 30
0.0
 11
1125.540725757098
 21
963.2636940246034
 31
0.0
  0
LINE
  5
430
330
1F
100
AcDbEntity
  8
LAY-10
  6
CONTINUOUS
 62
     7
100
AcDbLine
 10
1145.540725756999
 20
966.2636940246048
 30
0.0
 11
1145.540725756999
 21
921.2636940246048
 31
0.0
  0
LINE
  5
431
330
1F
100
AcDbEntity
  8
LAY-10
  6
CONTINUOUS
 62
     7
100
AcDbLine
 10
1177.540725756996
 20
966.2636940246048
 30
0.0
 11
1177.540725756996
 21
921.2636940246048
 31
0.0
  0
LINE
  5
432
330
1F
100
AcDbEntity
  8
LAY-10
  6
CONTINUOUS
 62
     7
100
AcDbLine
 10
1499.540725757038
 20
966.263694024603
 30
0.0
 11
1499.540725757038
 21
921.263694024604
 31
0.0
  0
LINE
  5
433
330
1F
100
AcDbEntity
  8
LAY-10
  6
CONTINUOUS
 62
     7
100
AcDbLine
 10
1531.540725757075
 20
966.263694024603
 30
0.0
 11
1531.540725757075
 21
921.263694024604
 31
0.0
  0
LINE
  5
434
330
1F
100
AcDbEntity
  8
LAY-10
  6
CONTINUOUS
 62
     7
100
AcDbLine
 10
1563.540725756999
 20
966.2636940246048
 30
0.0
 11
1563.540725756999
 21
921.2636940246048
 31
0.0
  0
LINE
  5
435
330
1F
100
AcDbEntity
  8
LAY-10
  6
CONTINUOUS
 62
     7
100
AcDbLine
 10
1595.540725756999
 20
966.2636940246048
 30
0.0
 11
1595.540725756999
 21
921.2636940246048
 31
0.0
  0
LINE
  5
436
330
1F
100
AcDbEntity
  8
LAY-10
  6
CONTINUOUS
 62
     7
100
AcDbLine
 10
1949.540725757076
 20
966.263694024603
 30
0.0
 11
1949.540725757076
 21
921.263694024604
 31
0.0
  0
LINE
  5
437
330
1F
100
AcDbEntity
  8
LAY-10
  6
CONTINUOUS
 62
     7
100
AcDbLine
 10
1917.54072575707
 20
966.263694024603
 30
0.0
 11
1917.54072575707
 21
921.263694024604
 31
0.0
  0
LINE
  5
438
330
1F
100
AcDbEntity
  8
LAY-10
  6
CONTINUOUS
 62
     7
100
AcDbLine
 10
1145.540725757
 20
963.2636940246034
 30
0.0
 11
1133.540725757
 21
963.2636940246034
 31
0.0
  0
LINE
  5
439
330
1F
100
AcDbEntity
  8
LAY-10
  6
CONTINUOUS
 62
     7
100
AcDbLine
 10
1543.540725757047
 20
963.263694024603
 30
0.0
 11
1531.540725757075
 21
963.263694024603
 31
0.0
  0
LINE
  5
43A
330
1F
100
AcDbEntity
  8
LAY-10
  6
CONTINUOUS
 62
     7
100
AcDbLine
 10
1499.540725757038
 20
963.263694024603
 30
0.0
 11
1177.540725757
 21
963.263694024603
 31
0.0
  0
LINE
  5
43B
330
1F
100
AcDbEntity
  8
LAY-10
  6
CONTINUOUS
 62
     7
100
AcDbLine
 10
1563.540725757
 20
963.2636940246034
 30
0.0
 11
1551.540725757
 21
963.2636940246034
 31
0.0
  0
LINE
  5
43C
330
1F
100
AcDbEntity
  8
LAY-10
  6
CONTINUOUS
 62
     7
100
AcDbLine
 10
1961.540725757047
 20
963.263694024603
 30
0.0
 11
1949.540725757076
 21
963.263694024603
 31
0.0
  0
LINE
  5
43D
330
1F
100
AcDbEntity
  8
LAY-10
  6
CONTINUOUS
 62
     7
100
AcDbLine
 10
1917.54072575707
 20
963.263694024603
 30
0.0
 11
1595.540725757
 21
963.263694024603
 31
0.0
  0
LINE
  5
43E
330
1F
100
AcDbEntity
  8
LAY-10
  6
CONTINUOUS
 62
     7
100
AcDbLine
 10
302.5407257570469
 20
918.0636940246004
 30
0.0
 11
1956.5407257569
 21
918.0636940246069
 31
0.0
  0
ARC
  5
43F
330
1F
100
AcDbEntity
  8
LAY-10
  6
CONTINUOUS
 62
     7
100
AcDbCircle
 10
1925.74072575708
 20
824.2636940246035
 30
0.0
 40
3.000000000000003
100
AcDbArc
 50
270.0000000000002
 51
0.0
  0
LINE
  5
440
330
1F
100
AcDbEntity
  8
LAY-10
  6
CONTINUOUS
 62
     7
100
AcDbLine
 10
1879.540725757076
 20
824.4636940245996
 30
0.0
 11
1879.540725757076
 21
821.2636940246034
 31
0.0
  0
LINE
  5
441
330
1F
100
AcDbEntity
  8
LAY-10
  6
CONTINUOUS
 62
     7
100
AcDbLine
 10
1925.54072575708
 20
824.4636940246041
 30
0.0
 11
1879.540725757076
 21
824.4636940246041
 31
0.0
  0
LINE
  5
442
330
1F
100
AcDbEntity
  8
LAY-10
  6
CONTINUOUS
 62
     7
100
AcDbLine
 10
1879.540725757047
 20
821.2636940246043
 30
0.0
 11
1925.740725757048
 21
821.2636940246052
 31
0.0
  0
LINE
  5
443
330
1F
100
AcDbEntity
  8
LAY-10
  6
CONTINUOUS
 62
     7
100
AcDbLine
 10
1928.740725756924
 20
909.8636940246042
 30
0.0
 11
1928.740725756924
 21
824.2636940245998
 31
0.0
  0
LINE
  5
444
330
1F
100
AcDbEntity
  8
LAY-10
  6
CONTINUOUS
 62
     7
100
AcDbLine
 10
1925.540725757047
 20
824.4636940245996
 30
0.0
 11
1925.540725757047
 21
910.0636940246005
 31
0.0
  0
ARC
  5
445
330
1F
100
AcDbEntity
  8
LAY-10
  6
CONTINUOUS
 62
     7
100
AcDbCircle
 10
1833.241616758044
 20
879.4628030235867
 30
0.0
 40
2.999108999030569
100
AcDbArc
 50
270.0000000000002
 51
89.99999999917904
  0
LINE
  5
446
330
1F
100
AcDbEntity
  8
LAY-10
  6
CONTINUOUS
 62
     7
100
AcDbLine
 10
1789.449858377156
 20
882.4623175619922
 30
0.0
 11
1833.241616758044
 21
882.4623175619922
 31
0.0
  0
LINE
  5
447
330
1F
100
AcDbEntity
  8
LAY-10
  6
CONTINUOUS
 62
     7
100
AcDbLine
 10
1836.240725757077
 20
877.4636940245559
 30
0.0
 11
1836.240725757077
 21
879.4636940245559
 31
0.0
  0
ARC
  5
448
330
1F
100
AcDbEntity
  8
LAY-10
  6
CONTINUOUS
 62
     7
100
AcDbCircle
 10
1833.240725757077
 20
879.4636940245559
 30
0.0
 40
4.0
100
AcDbArc
 50
0.0
 51
131.4394216791277
  0
LINE
  5
449
330
1F
100
AcDbEntity
  8
LAY-10
  6
CONTINUOUS
 62
     7
100
AcDbLine
 10
1837.240725757077
 20
877.4636940245559
 30
0.0
 11
1846.240725757077
 21
877.4636940245559
 31
0.0
  0
LINE
  5
44A
330
1F
100
AcDbEntity
  8
LAY-10
  6
CONTINUOUS
 62
     7
100
AcDbLine
 10
1837.240725757077
 20
879.4636940245559
 30
0.0
 11
1837.240725757077
 21
877.4636940245559
 31
0.0
  0
ARC
  5
44B
330
1F
100
AcDbEntity
  8
LAY-10
  6
CONTINUOUS
 62
     7
100
AcDbCircle
 10
1837.240725757077
 20
877.4636940245559
 30
0.0
 40
1.0
100
AcDbArc
 50
180.0
 51
270.0000000000002
  0
CIRCLE
  5
44C
330
1F
100
AcDbEntity
  8
LAY-10
  6
CONTINUOUS
 62
     7
100
AcDbCircle
 10
1789.540725757076
 20
879.4636940245559
 30
0.0
 40
3.000000000000003
  0
LINE
  5
44D
330
1F
100
AcDbEntity
  8
LAY-10
  6
CONTINUOUS
 62
     7
100
AcDbLine
 10
1846.240725757077
 20
877.4636940245559
 30
0.0
 11
1846.240725757077
 21
876.4636940245541
 31
0.0
  0
LINE
  5
44E
330
1F
100
AcDbEntity
  8
LAY-10
  6
CONTINUOUS
 62
     7
100
AcDbLine
 10
1919.940725757081
 20
828.0636940245546
 30
0.0
 11
1919.940725757081
 21
874.8636940245556
 31
0.0
  0
LINE
  5
44F
330
1F
100
AcDbEntity
  8
LAY-10
  6
CONTINUOUS
 62
     7
100
AcDbLine
 10
1921.54072575708
 20
876.463694024556
 30
0.0
 11
1921.54072575708
 21
824.4636940245541
 31
0.0
  0
LINE
  5
450
330
1F
100
AcDbEntity
  8
LAY-10
  6
CONTINUOUS
 62
     7
100
AcDbLine
 10
1896.54072575708
 20
824.4636940245541
 30
0.0
 11
1896.54072575708
 21
826.463694024556
 31
0.0
  0
LINE
  5
451
330
1F
100
AcDbEntity
  8
LAY-10
  6
CONTINUOUS
 62
     7
100
AcDbLine
 10
330.3407257570133
 20
909.8636940246041
 30
0.0
 11
330.3407257570133
 21
824.2636940246035
 31
0.0
  0
ARC
  5
452
330
1F
100
AcDbEntity
  8
LAY-10
  6
CONTINUOUS
 62
     7
100
AcDbCircle
 10
333.3407257570134
 20
824.2636940246035
 30
0.0
 40
3.000000000000003
100
AcDbArc
 50
180.0
 51
270.0000000000002
  0
LINE
  5
453
330
1F
100
AcDbEntity
  8
LAY-10
  6
CONTINUOUS
 62
     7
100
AcDbLine
 10
333.5407257570159
 20
910.0636940246039
 30
0.0
 11
333.5407257570159
 21
824.4636940245996
 31
0.0
  0
LINE
  5
454
330
1F
100
AcDbEntity
  8
LAY-10
  6
CONTINUOUS
 62
     7
100
AcDbLine
 10
379.5407257570196
 20
824.4636940245996
 30
0.0
 11
379.5407257570196
 21
821.2636940246034
 31
0.0
  0
LINE
  5
455
330
1F
100
AcDbEntity
  8
LAY-10
  6
CONTINUOUS
 62
     7
100
AcDbLine
 10
333.5407257570159
 20
824.4636940246041
 30
0.0
 11
379.5407257570196
 21
824.4636940246046
 31
0.0
  0
LINE
  5
456
330
1F
100
AcDbEntity
  8
LAY-10
  6
CONTINUOUS
 62
     7
100
AcDbLine
 10
333.3407257570134
 20
821.2636940246034
 30
0.0
 11
379.5407257570196
 21
821.2636940246034
 31
0.0
  0
LINE
  5
457
330
1F
100
AcDbEntity
  8
LAY-10
  6
CONTINUOUS
 62
     7
100
AcDbLine
 10
362.5407257570851
 20
824.4636940245541
 30
0.0
 11
362.5407257570851
 21
826.463694024556
 31
0.0
  0
LINE
  5
458
330
1F
100
AcDbEntity
  8
LAY-10
  6
CONTINUOUS
 62
     7
100
AcDbLine
 10
422.8407257570898
 20
877.4636940245559
 30
0.0
 11
422.8407257570898
 21
879.4636940245559
 31
0.0
  0
ARC
  5
459
330
1F
100
AcDbEntity
  8
LAY-10
  6
CONTINUOUS
 62
     7
100
AcDbCircle
 10
425.840725757088
 20
879.4636940245559
 30
0.0
 40
4.0
100
AcDbArc
 50
48.56057832087367
 51
180.0
  0
LINE
  5
45A
330
1F
100
AcDbEntity
  8
LAY-10
  6
CONTINUOUS
 62
     7
100
AcDbLine
 10
469.6315931370091
 20
882.4623175619922
 30
0.0
 11
425.8398347561188
 21
882.4623175619922
 31
0.0
  0
LINE
  5
45B
330
1F
100
AcDbEntity
  8
LAY-10
  6
CONTINUOUS
 62
     7
100
AcDbLine
 10
421.840725757088
 20
877.4636940245559
 30
0.0
 11
412.8407257570862
 21
877.4636940245559
 31
0.0
  0
LINE
  5
45C
330
1F
100
AcDbEntity
  8
LAY-10
  6
CONTINUOUS
 62
     7
100
AcDbLine
 10
421.840725757088
 20
879.4636940245559
 30
0.0
 11
421.840725757088
 21
877.4636940245559
 31
0.0
  0
ARC
  5
45D
330
1F
100
AcDbEntity
  8
LAY-10
  6
CONTINUOUS
 62
     7
100
AcDbCircle
 10
421.840725757088
 20
877.4636940245559
 30
0.0
 40
1.0
100
AcDbArc
 50
270.0000000000002
 51
0.0
  0
ARC
  5
45E
330
1F
100
AcDbEntity
  8
LAY-10
  6
CONTINUOUS
 62
     7
100
AcDbCircle
 10
425.8398347561188
 20
879.4628030235867
 30
0.0
 40
2.999108999030569
100
AcDbArc
 50
90.00000000000001
 51
270.0000000000002
  0
CIRCLE
  5
45F
330
1F
100
AcDbEntity
  8
LAY-10
  6
CONTINUOUS
 62
     7
100
AcDbCircle
 10
469.5407257570905
 20
879.4636940245559
 30
0.0
 40
3.000000000000003
  0
LINE
  5
460
330
1F
100
AcDbEntity
  8
LAY-10
  6
CONTINUOUS
 62
     7
100
AcDbLine
 10
412.8407257570862
 20
877.4636940245559
 30
0.0
 11
412.8407257570862
 21
876.463694024556
 31
0.0
  0
LINE
  5
461
330
1F
100
AcDbEntity
  8
LAY-10
  6
CONTINUOUS
 62
     7
100
AcDbLine
 10
339.1407257570872
 20
828.0636940245546
 30
0.0
 11
339.1407257570872
 21
874.8636940245556
 31
0.0
  0
LINE
  5
462
330
1F
100
AcDbEntity
  8
LAY-10
  6
CONTINUOUS
 62
     7
100
AcDbLine
 10
337.5407257570869
 20
876.463694024556
 30
0.0
 11
337.5407257570869
 21
824.4636940245541
 31
0.0
  0
LINE
  5
463
330
1F
100
AcDbEntity
  8
LAY-10
  6
CONTINUOUS
 62
     7
100
AcDbLine
 10
339.1407257570872
 20
828.0636940245546
 30
0.0
 11
1919.940725757077
 21
828.0636940245546
 31
0.0
  0
LINE
  5
464
330
1F
100
AcDbEntity
  8
LAY-10
  6
CONTINUOUS
 62
     7
100
AcDbLine
 10
337.5407257570869
 20
826.463694024556
 30
0.0
 11
1921.54072575708
 21
826.463694024556
 31
0.0
  0
LINE
  5
465
330
1F
100
AcDbEntity
  8
LAY-10
  6
CONTINUOUS
 62
     7
100
AcDbLine
 10
1919.940725757077
 20
874.8636940245538
 30
0.0
 11
339.1407257570872
 21
874.8636940245556
 31
0.0
  0
LINE
  5
466
330
1F
100
AcDbEntity
  8
LAY-10
  6
CONTINUOUS
 62
     7
100
AcDbLine
 10
1921.54072575708
 20
876.4636940245541
 30
0.0
 11
337.5407257570869
 21
876.463694024556
 31
0.0
  0
LINE
  5
467
330
1F
100
AcDbEntity
  8
LAY-10
  6
CONTINUOUS
 62
     7
100
AcDbLine
 10
2433.553062767488
 20
2450.079521140152
 30
0.0
 11
2433.553062767488
 21
2416.079521140152
 31
0.0
  0
ARC
  5
468
330
1F
100
AcDbEntity
  8
LAY-10
  6
CONTINUOUS
 62
     7
100
AcDbCircle
 10
2427.353062767487
 20
2449.879521140151
 30
0.0
 40
3.000000000000003
100
AcDbArc
 50
0.0000000000000573
 51
90.00000000000009
  0
ARC
  5
469
330
1F
100
AcDbEntity
  8
LAY-10
  6
CONTINUOUS
 62
     7
100
AcDbCircle
 10
2427.553062767488
 20
2450.079521140152
 30
0.0
 40
6.000000000000006
100
AcDbArc
 50
0.0000000000000573
 51
90.00000000000009
  0
LINE
  5
46A
330
1F
100
AcDbEntity
  8
LAY-10
  6
CONTINUOUS
 62
     7
100
AcDbLine
 10
2433.553062767488
 20
2450.079521140152
 30
0.0
 11
2433.553062767488
 21
2452.76581264117
 31
0.0
  0
LINE
  5
46B
330
1F
100
AcDbEntity
  8
LAY-10
  6
CONTINUOUS
 62
     7
100
AcDbLine
 10
2471.251547577321
 20
2493.778005949988
 30
0.0
 11
2476.908401826814
 21
2488.121151700491
 31
0.0
  0
LINE
  5
46C
330
1F
100
AcDbEntity
  8
LAY-10
  6
CONTINUOUS
 62
     7
100
AcDbLine
 10
2471.251547577321
 20
2493.778005949988
 30
0.0
 11
2435.896208517995
 21
2458.422666890659
 31
0.0
  0
ARC
  5
46D
330
1F
100
AcDbEntity
  8
LAY-10
  6
CONTINUOUS
 62
     7
100
AcDbCircle
 10
2441.553062767488
 20
2452.76581264117
 30
0.0
 40
8.0
100
AcDbArc
 50
135.000000000015
 51
180.0000000000002
  0
LINE
  5
46E
330
1F
100
AcDbEntity
  8
LAY-10
  6
CONTINUOUS
 62
     7
100
AcDbLine
 10
2476.908401826814
 20
2488.121151700491
 30
0.0
 11
2441.553062767488
 21
2452.76581264117
 31
0.0
  0
LINE
  5
46F
330
1F
100
AcDbEntity
  8
LAY-10
  6
CONTINUOUS
 62
     7
100
AcDbLine
 10
2441.553062767488
 20
2422.76581264117
 30
0.0
 11
2433.553062767488
 21
2422.76581264117
 31
0.0
  0
LINE
  5
470
330
1F
100
AcDbEntity
  8
LAY-10
  6
CONTINUOUS
 62
     7
100
AcDbLine
 10
2441.553062767488
 20
2452.76581264117
 30
0.0
 11
2441.553062767488
 21
2422.76581264117
 31
0.0
  0
LINE
  5
471
330
1F
100
AcDbEntity
  8
LAY-10
  6
CONTINUOUS
 62
     7
100
AcDbLine
 10
2427.553062767488
 20
2456.079521140149
 30
0.0
 11
2383.153062767487
 21
2456.079521140149
 31
0.0
  0
ARC
  5
472
330
1F
100
AcDbEntity
  8
LAY-10
  6
CONTINUOUS
 62
     7
100
AcDbCircle
 10
2436.353062767488
 20
2415.879521140151
 30
0.0
 40
6.000000000000006
100
AcDbArc
 50
180.0000000000002
 51
270.0000000000002
  0
ARC
  5
473
330
1F
100
AcDbEntity
  8
LAY-10
  6
CONTINUOUS
 62
     7
100
AcDbCircle
 10
2436.553062767488
 20
2416.079521140152
 30
0.0
 40
3.000000000000003
100
AcDbArc
 50
180.0000000000002
 51
270.0000000000002
  0
LINE
  5
474
330
1F
100
AcDbEntity
  8
LAY-10
  6
CONTINUOUS
 62
     7
100
AcDbLine
 10
2430.353062767448
 20
2415.879521140118
 30
0.0
 11
2428.353062767444
 21
2415.879521140118
 31
0.0
  0
LINE
  5
475
330
1F
100
AcDbEntity
  8
LAY-10
  6
CONTINUOUS
 62
     7
100
AcDbLine
 10
2383.153062767487
 20
2452.879521140151
 30
0.0
 11
2427.353062767487
 21
2452.879521140151
 31
0.0
  0
LINE
  5
476
330
1F
100
AcDbEntity
  8
LAY-10
  6
CONTINUOUS
 62
     7
100
AcDbLine
 10
2380.15306276749
 20
2449.879521140151
 30
0.0
 11
2395.15306276749
 21
2449.879521140151
 31
0.0
  0
LINE
  5
477
330
1F
100
AcDbEntity
  8
LAY-10
  6
CONTINUOUS
 62
     7
100
AcDbLine
 10
2383.153062767487
 20
2452.879521140151
 30
0.0
 11
2383.153062767487
 21
2464.879521140151
 31
0.0
  0
LINE
  5
478
330
1F
100
AcDbEntity
  8
LAY-10
  6
CONTINUOUS
 62
     7
100
AcDbLine
 10
2395.15306276749
 20
2449.879521140151
 30
0.0
 11
2395.15306276749
 21
2452.879521140151
 31
0.0
  0
LINE
  5
479
330
1F
100
AcDbEntity
  8
LAY-10
  6
CONTINUOUS
 62
     7
100
AcDbLine
 10
2380.15306276749
 20
2464.879521140151
 30
0.0
 11
2383.153062767487
 21
2464.879521140151
 31
0.0
  0
LINE
  5
47A
330
1F
100
AcDbEntity
  8
LAY-10
  6
CONTINUOUS
 62
     7
100
AcDbLine
 10
2380.15306276749
 20
2449.879521140151
 30
0.0
 11
2380.15306276749
 21
2464.879521140151
 31
0.0
  0
LINE
  5
47B
330
1F
100
AcDbEntity
  8
LAY-10
  6
CONTINUOUS
 62
     7
100
AcDbLine
 10
2430.353062767448
 20
2440.879521140118
 30
0.0
 11
2428.353062767445
 21
2440.879521140118
 31
0.0
  0
LINE
  5
47C
330
1F
100
AcDbEntity
  8
LAY-10
  6
CONTINUOUS
 62
     7
100
AcDbLine
 10
2380.15306276749
 20
2401.879521140317
 30
0.0
 11
2415.15306276749
 21
2401.879521140317
 31
0.0
  0
LINE
  5
47D
330
1F
100
AcDbEntity
  8
LAY-10
  6
CONTINUOUS
 62
     7
100
AcDbLine
 10
2383.153062767488
 20
2445.879521140217
 30
0.0
 11
2422.353062767487
 21
2445.879521140217
 31
0.0
  0
LINE
  5
47E
330
1F
100
AcDbEntity
  8
LAY-10
  6
CONTINUOUS
 62
     7
100
AcDbLine
 10
2383.153062767488
 20
2442.679521140215
 30
0.0
 11
2422.153062767487
 21
2442.679521140215
 31
0.0
  0
ARC
  5
47F
330
1F
100
AcDbEntity
  8
LAY-10
  6
CONTINUOUS
 62
     7
100
AcDbCircle
 10
2422.353062767487
 20
2439.879521140217
 30
0.0
 40
6.000000000000006
100
AcDbArc
 50
0.0000000000000573
 51
90.00000000000009
  0
ARC
  5
480
330
1F
100
AcDbEntity
  8
LAY-10
  6
CONTINUOUS
 62
     7
100
AcDbCircle
 10
2422.153062767487
 20
2439.679521140216
 30
0.0
 40
3.000000000000003
100
AcDbArc
 50
0.0000000000000573
 51
90.00000000000009
  0
LINE
  5
481
330
1F
100
AcDbEntity
  8
LAY-10
  6
CONTINUOUS
 62
     7
100
AcDbLine
 10
2380.15306276749
 20
2448.879521140216
 30
0.0
 11
2395.15306276749
 21
2448.879521140216
 31
0.0
  0
LINE
  5
482
330
1F
100
AcDbEntity
  8
LAY-10
  6
CONTINUOUS
 62
     7
100
AcDbLine
 10
2383.153062767488
 20
2445.879521140217
 30
0.0
 11
2383.153062767488
 21
2433.879521140216
 31
0.0
  0
LINE
  5
483
330
1F
100
AcDbEntity
  8
LAY-10
  6
CONTINUOUS
 62
     7
100
AcDbLine
 10
2395.15306276749
 20
2448.879521140216
 30
0.0
 11
2395.15306276749
 21
2445.879521140217
 31
0.0
  0
LINE
  5
484
330
1F
100
AcDbEntity
  8
LAY-10
  6
CONTINUOUS
 62
     7
100
AcDbLine
 10
2380.15306276749
 20
2433.879521140216
 30
0.0
 11
2415.15306276749
 21
2433.879521140216
 31
0.0
  0
LINE
  5
485
330
1F
100
AcDbEntity
  8
LAY-10
  6
CONTINUOUS
 62
     7
100
AcDbLine
 10
2425.153062767498
 20
2438.879521140202
 30
0.0
 11
2421.353062767495
 21
2442.679521140202
 31
0.0
  0
LINE
  5
486
330
1F
100
AcDbEntity
  8
LAY-10
  6
CONTINUOUS
 62
     7
100
AcDbLine
 10
2433.553062767488
 20
1377.679521140155
 30
0.0
 11
2433.553062767488
 21
1411.679521140153
 31
0.0
  0
ARC
  5
487
330
1F
100
AcDbEntity
  8
LAY-10
  6
CONTINUOUS
 62
     7
100
AcDbCircle
 10
2427.353062767487
 20
1377.879521140154
 30
0.0
 40
3.000000000000003
100
AcDbArc
 50
270.0000000000002
 51
0.0000000000000573
  0
ARC
  5
488
330
1F
100
AcDbEntity
  8
LAY-10
  6
CONTINUOUS
 62
     7
100
AcDbCircle
 10
2427.553062767488
 20
1377.679521140155
 30
0.0
 40
6.000000000000006
100
AcDbArc
 50
270.0000000000002
 51
0.0000000000000573
  0
LINE
  5
489
330
1F
100
AcDbEntity
  8
LAY-10
  6
CONTINUOUS
 62
     7
100
AcDbLine
 10
2433.553062767488
 20
1377.679521140155
 30
0.0
 11
2433.553062767488
 21
1374.993229639138
 31
0.0
  0
LINE
  5
48A
330
1F
100
AcDbEntity
  8
LAY-10
  6
CONTINUOUS
 62
     7
100
AcDbLine
 10
2471.251547577325
 20
1333.981036330318
 30
0.0
 11
2476.908401826818
 21
1339.637890579812
 31
0.0
  0
LINE
  5
48B
330
1F
100
AcDbEntity
  8
LAY-10
  6
CONTINUOUS
 62
     7
100
AcDbLine
 10
2471.251547577325
 20
1333.981036330318
 30
0.0
 11
2435.896208517995
 21
1369.336375389644
 31
0.0
  0
ARC
  5
48C
330
1F
100
AcDbEntity
  8
LAY-10
  6
CONTINUOUS
 62
     7
100
AcDbCircle
 10
2441.553062767488
 20
1374.993229639138
 30
0.0
 40
8.0
100
AcDbArc
 50
180.0000000000002
 51
224.9999999999785
  0
LINE
  5
48D
330
1F
100
AcDbEntity
  8
LAY-10
  6
CONTINUOUS
 62
     7
100
AcDbLine
 10
2476.908401826814
 20
1339.637890579812
 30
0.0
 11
2441.553062767488
 21
1374.993229639138
 31
0.0
  0
LINE
  5
48E
330
1F
100
AcDbEntity
  8
LAY-10
  6
CONTINUOUS
 62
     7
100
AcDbLine
 10
2441.553062767488
 20
1404.993229639138
 30
0.0
 11
2433.553062767488
 21
1404.993229639138
 31
0.0
  0
LINE
  5
48F
330
1F
100
AcDbEntity
  8
LAY-10
  6
CONTINUOUS
 62
     7
100
AcDbLine
 10
2441.553062767488
 20
1374.993229639138
 30
0.0
 11
2441.553062767488
 21
1404.993229639138
 31
0.0
  0
ARC
  5
490
330
1F
100
AcDbEntity
  8
LAY-10
  6
CONTINUOUS
 62
     7
100
AcDbCircle
 10
2436.353062767488
 20
1411.879521140155
 30
0.0
 40
6.000000000000006
100
AcDbArc
 50
90.00000000000009
 51
180.0000000000002
  0
ARC
  5
491
330
1F
100
AcDbEntity
  8
LAY-10
  6
CONTINUOUS
 62
     7
100
AcDbCircle
 10
2436.553062767488
 20
1411.679521140153
 30
0.0
 40
3.000000000000003
100
AcDbArc
 50
90.00000000000009
 51
180.0000000000002
  0
LINE
  5
492
330
1F
100
AcDbEntity
  8
LAY-10
  6
CONTINUOUS
 62
     7
100
AcDbLine
 10
2383.153062767487
 20
1374.879521140155
 30
0.0
 11
2427.353062767487
 21
1374.879521140155
 31
0.0
  0
LINE
  5
493
330
1F
100
AcDbEntity
  8
LAY-10
  6
CONTINUOUS
 62
     7
100
AcDbLine
 10
2430.353062767448
 20
1411.879521140188
 30
0.0
 11
2428.353062767444
 21
1411.879521140188
 31
0.0
  0
LINE
  5
494
330
1F
100
AcDbEntity
  8
LAY-10
  6
CONTINUOUS
 62
     7
100
AcDbLine
 10
2430.353062767487
 20
1386.879521140218
 30
0.0
 11
2428.353062767487
 21
1386.879521140218
 31
0.0
  0
LINE
  5
495
330
1F
100
AcDbEntity
  8
LAY-10
  6
CONTINUOUS
 62
     7
100
AcDbLine
 10
2380.153062767446
 20
1362.879521140154
 30
0.0
 11
2383.153062767446
 21
1362.879521140154
 31
0.0
  0
LINE
  5
496
330
1F
100
AcDbEntity
  8
LAY-10
  6
CONTINUOUS
 62
     7
100
AcDbLine
 10
2380.153062767446
 20
1377.879521140154
 30
0.0
 11
2380.153062767446
 21
1362.879521140154
 31
0.0
  0
LINE
  5
497
330
1F
100
AcDbEntity
  8
LAY-10
  6
CONTINUOUS
 62
     7
100
AcDbLine
 10
2383.153062767446
 20
1371.679521140153
 30
0.0
 11
2427.553062767448
 21
1371.679521140153
 31
0.0
  0
LINE
  5
498
330
1F
100
AcDbEntity
  8
LAY-10
  6
CONTINUOUS
 62
     7
100
AcDbLine
 10
2383.153062767446
 20
1374.879521140155
 30
0.0
 11
2383.153062767446
 21
1362.879521140154
 31
0.0
  0
LINE
  5
499
330
1F
100
AcDbEntity
  8
LAY-10
  6
CONTINUOUS
 62
     7
100
AcDbLine
 10
2380.153062767446
 20
1377.879521140154
 30
0.0
 11
2395.153062767446
 21
1377.879521140154
 31
0.0
  0
LINE
  5
49A
330
1F
100
AcDbEntity
  8
LAY-10
  6
CONTINUOUS
 62
     7
100
AcDbLine
 10
2395.153062767446
 20
1377.879521140154
 30
0.0
 11
2395.153062767446
 21
1374.879521140155
 31
0.0
  0
ARC
  5
49B
330
1F
100
AcDbEntity
  8
LAY-10
  6
CONTINUOUS
 62
     7
100
AcDbCircle
 10
2422.153062767487
 20
1388.079521140219
 30
0.0
 40
3.000000000000003
100
AcDbArc
 50
270.0000000000002
 51
0.0000000000000573
  0
LINE
  5
49C
330
1F
100
AcDbEntity
  8
LAY-10
  6
CONTINUOUS
 62
     7
100
AcDbLine
 10
2383.153062767488
 20
1381.879521140218
 30
0.0
 11
2422.353062767487
 21
1381.879521140218
 31
0.0
  0
LINE
  5
49D
330
1F
100
AcDbEntity
  8
LAY-10
  6
CONTINUOUS
 62
     7
100
AcDbLine
 10
2383.153062767488
 20
1381.879521140218
 30
0.0
 11
2383.153062767488
 21
1393.879521140219
 31
0.0
  0
ARC
  5
49E
330
1F
100
AcDbEntity
  8
LAY-10
  6
CONTINUOUS
 62
     7
100
AcDbCircle
 10
2422.353062767487
 20
1387.879521140219
 30
0.0
 40
6.000000000000006
100
AcDbArc
 50
270.0000000000002
 51
0.0000000000000573
  0
LINE
  5
49F
330
1F
100
AcDbEntity
  8
LAY-10
  6
CONTINUOUS
 62
     7
100
AcDbLine
 10
2383.153062767488
 20
1385.079521140218
 30
0.0
 11
2422.153062767487
 21
1385.079521140218
 31
0.0
  0
LINE
  5
4A0
330
1F
100
AcDbEntity
  8
LAY-10
  6
CONTINUOUS
 62
     7
100
AcDbLine
 10
2380.15306276749
 20
1425.879521140119
 30
0.0
 11
2415.15306276749
 21
1425.879521140119
 31
0.0
  0
LINE
  5
4A1
330
1F
100
AcDbEntity
  8
LAY-10
  6
CONTINUOUS
 62
     7
100
AcDbLine
 10
2380.15306276749
 20
1378.879521140219
 30
0.0
 11
2395.15306276749
 21
1378.879521140219
 31
0.0
  0
LINE
  5
4A2
330
1F
100
AcDbEntity
  8
LAY-10
  6
CONTINUOUS
 62
     7
100
AcDbLine
 10
2395.15306276749
 20
1378.879521140219
 30
0.0
 11
2395.15306276749
 21
1381.879521140218
 31
0.0
  0
LINE
  5
4A3
330
1F
100
AcDbEntity
  8
LAY-10
  6
CONTINUOUS
 62
     7
100
AcDbLine
 10
2380.15306276749
 20
1393.879521140219
 30
0.0
 11
2415.15306276749
 21
1393.879521140219
 31
0.0
  0
LINE
  5
4A4
330
1F
100
AcDbEntity
  8
LAY-10
  6
CONTINUOUS
 62
     7
100
AcDbLine
 10
2425.153062767498
 20
1388.879521140203
 30
0.0
 11
2421.353062767495
 21
1385.079521140202
 31
0.0
  0
LINE
  5
4A5
330
1F
100
AcDbEntity
  8
LAY-10
  6
CONTINUOUS
 62
     7
100
AcDbLine
 10
2428.353062767487
 20
2440.879521140098
 30
0.0
 11
2428.353062767487
 21
1386.879521140199
 31
0.0
  0
LINE
  5
4A6
330
1F
100
AcDbEntity
  8
LAY-10
  6
CONTINUOUS
 62
     7
100
AcDbLine
 10
2425.15306276745
 20
1388.079521140214
 30
0.0
 11
2425.15306276745
 21
2439.679521140216
 31
0.0
  0
LINE
  5
4A7
330
1F
100
AcDbEntity
  8
LAY-10
  6
CONTINUOUS
 62
     7
100
AcDbLine
 10
2383.153062767488
 20
2401.879521140317
 30
0.0
 11
2383.153062767488
 21
1425.879521140119
 31
0.0
  0
LINE
  5
4A8
330
1F
100
AcDbEntity
  8
LAY-10
  6
CONTINUOUS
 62
     7
100
AcDbLine
 10
2380.15306276749
 20
1378.879521140219
 30
0.0
 11
2380.15306276749
 21
2448.879521140216
 31
0.0
  0
LINE
  5
4A9
330
1F
100
AcDbEntity
  8
LAY-10
  6
CONTINUOUS
 62
     7
100
AcDbLine
 10
2417.15306276749
 20
2442.679521140215
 30
0.0
 11
2417.15306276749
 21
1385.079521140218
 31
0.0
  0
LINE
  5
4AA
330
1F
100
AcDbEntity
  8
LAY-10
  6
CONTINUOUS
 62
     7
100
AcDbLine
 10
2415.15306276749
 20
1385.079521140218
 30
0.0
 11
2415.15306276749
 21
2442.679521140215
 31
0.0
  0
LINE
  5
4AB
330
1F
100
AcDbEntity
  8
LAY-10
  6
HIDDEN
 62
     7
100
AcDbLine
 10
2415.15306276749
 20
1393.879521140219
 30
0.0
 11
2425.153062767487
 21
1393.879521140219
 31
0.0
  0
LINE
  5
4AC
330
1F
100
AcDbEntity
  8
LAY-10
  6
HIDDEN
 62
     7
100
AcDbLine
 10
2415.15306276749
 20
1425.879521140119
 30
0.0
 11
2425.153062767487
 21
1425.879521140119
 31
0.0
  0
LINE
  5
4AD
330
1F
100
AcDbEntity
  8
LAY-10
  6
HIDDEN
 62
     7
100
AcDbLine
 10
2415.15306276749
 20
2401.879521140319
 30
0.0
 11
2425.153062767487
 21
2401.879521140319
 31
0.0
  0
LINE
  5
4AE
330
1F
100
AcDbEntity
  8
LAY-10
  6
HIDDEN
 62
     7
100
AcDbLine
 10
2415.15306276749
 20
2433.879521140216
 30
0.0
 11
2425.153062767487
 21
2433.879521140216
 31
0.0
  0
LINE
  5
4AF
330
1F
100
AcDbEntity
  8
LAY-10
  6
CONTINUOUS
 62
     7
100
AcDbLine
 10
2447.35306276749
 20
1453.879521140218
 30
0.0
 11
2428.353062767487
 21
1453.879521140218
 31
0.0
  0
LINE
  5
4B0
330
1F
100
AcDbEntity
  8
LAY-10
  6
CONTINUOUS
 62
     7
100
AcDbLine
 10
2447.35306276749
 20
1456.879521140218
 30
0.0
 11
2428.353062767487
 21
1456.879521140218
 31
0.0
  0
LINE
  5
4B1
330
1F
100
AcDbEntity
  8
LAY-10
  6
CONTINUOUS
 62
     7
100
AcDbLine
 10
2430.353062767487
 20
1453.879521140199
 30
0.0
 11
2430.353062767487
 21
1377.879521140199
 31
0.0
  0
LINE
  5
4B2
330
1F
100
AcDbEntity
  8
LAY-10
  6
CONTINUOUS
 62
     7
100
AcDbLine
 10
2447.35306276749
 20
2373.879521140215
 30
0.0
 11
2428.35306276749
 21
2373.879521140215
 31
0.0
  0
LINE
  5
4B3
330
1F
100
AcDbEntity
  8
LAY-10
  6
CONTINUOUS
 62
     7
100
AcDbLine
 10
2447.35306276749
 20
2370.879521140215
 30
0.0
 11
2428.35306276749
 21
2370.879521140215
 31
0.0
  0
LINE
  5
4B4
330
1F
100
AcDbEntity
  8
LAY-10
  6
CONTINUOUS
 62
     7
100
AcDbLine
 10
2447.353062767487
 20
1453.879521140199
 30
0.0
 11
2447.353062767491
 21
2373.8795211402
 31
0.0
  0
LINE
  5
4B5
330
1F
100
AcDbEntity
  8
LAY-10
  6
CONTINUOUS
 62
     7
100
AcDbLine
 10
2430.353062767487
 20
2449.879521140151
 30
0.0
 11
2430.353062767487
 21
2373.8795211402
 31
0.0
  0
LINE
  5
4B6
330
1F
100
AcDbEntity
  8
LAY-10
  6
CONTINUOUS
 62
     7
100
AcDbLine
 10
2447.353062767488
 20
1734.046187806882
 30
0.0
 11
2428.353062767487
 21
1734.046187806882
 31
0.0
  0
LINE
  5
4B7
330
1F
100
AcDbEntity
  8
LAY-10
  6
CONTINUOUS
 62
     7
100
AcDbLine
 10
2447.35306276749
 20
1737.046187806881
 30
0.0
 11
2428.35306276749
 21
1737.046187806881
 31
0.0
  0
LINE
  5
4B8
330
1F
100
AcDbEntity
  8
LAY-10
  6
CONTINUOUS
 62
     7
100
AcDbLine
 10
2447.353062767488
 20
2093.712854473624
 30
0.0
 11
2428.353062767487
 21
2093.712854473624
 31
0.0
  0
LINE
  5
4B9
330
1F
100
AcDbEntity
  8
LAY-10
  6
CONTINUOUS
 62
     7
100
AcDbLine
 10
2447.35306276749
 20
2090.712854473624
 30
0.0
 11
2428.35306276749
 21
2090.712854473624
 31
0.0
  0
LINE
  5
4BA
330
1F
100
AcDbEntity
  8
LAY-10
  6
CONTINUOUS
 62
     7
100
AcDbLine
 10
2463.95306276744
 20
1728.029521140217
 30
0.0
 11
2469.953062767448
 21
1728.029521140217
 31
0.0
  0
LINE
  5
4BB
330
1F
100
AcDbEntity
  8
LAY-10
  6
CONTINUOUS
 62
     7
100
AcDbLine
 10
2463.95306276744
 20
1557.729521140217
 30
0.0
 11
2469.953062767448
 21
1557.729521140217
 31
0.0
  0
LINE
  5
4BC
330
1F
100
AcDbEntity
  8
LAY-10
  6
CONTINUOUS
 62
     7
100
AcDbLine
 10
2461.95306276744
 20
1698.029521140216
 30
0.0
 11
2469.953062767448
 21
1698.029521140216
 31
0.0
  0
LINE
  5
4BD
330
1F
100
AcDbEntity
  8
LAY-10
  6
CONTINUOUS
 62
     7
100
AcDbLine
 10
2461.95306276744
 20
1718.029521140217
 30
0.0
 11
2461.95306276744
 21
1698.029521140216
 31
0.0
  0
LINE
  5
4BE
330
1F
100
AcDbEntity
  8
LAY-10
  6
CONTINUOUS
 62
     7
100
AcDbLine
 10
2461.95306276744
 20
1588.029521140218
 30
0.0
 11
2461.95306276744
 21
1568.029521140217
 31
0.0
  0
LINE
  5
4BF
330
1F
100
AcDbEntity
  8
LAY-10
  6
CONTINUOUS
 62
     7
100
AcDbLine
 10
2463.95306276744
 20
1728.029521140217
 30
0.0
 11
2463.95306276744
 21
1718.029521140217
 31
0.0
  0
LINE
  5
4C0
330
1F
100
AcDbEntity
  8
LAY-10
  6
CONTINUOUS
 62
     7
100
AcDbLine
 10
2463.95306276744
 20
1698.029521140216
 30
0.0
 11
2463.95306276744
 21
1588.029521140218
 31
0.0
  0
LINE
  5
4C1
330
1F
100
AcDbEntity
  8
LAY-10
  6
CONTINUOUS
 62
     7
100
AcDbLine
 10
2463.95306276744
 20
1568.029521140217
 30
0.0
 11
2463.95306276744
 21
1557.729521140217
 31
0.0
  0
LINE
  5
4C2
330
1F
100
AcDbEntity
  8
LAY-10
  6
CONTINUOUS
 62
     7
100
AcDbLine
 10
2461.95306276744
 20
1588.029521140218
 30
0.0
 11
2469.953062767448
 21
1588.029521140218
 31
0.0
  0
LINE
  5
4C3
330
1F
100
AcDbEntity
  8
LAY-10
  6
CONTINUOUS
 62
     7
100
AcDbLine
 10
2461.95306276744
 20
1568.029521140217
 30
0.0
 11
2469.953062767448
 21
1568.029521140217
 31
0.0
  0
LINE
  5
4C4
330
1F
100
AcDbEntity
  8
LAY-10
  6
CONTINUOUS
 62
     7
100
AcDbLine
 10
2461.95306276744
 20
1718.029521140217
 30
0.0
 11
2469.953062767448
 21
1718.029521140217
 31
0.0
  0
ARC
  5
4C5
330
1F
100
AcDbEntity
  8
LAY-10
  6
CONTINUOUS
 62
     7
100
AcDbCircle
 10
2466.953062767447
 20
1690.029521140219
 30
0.0
 40
3.000000000000003
100
AcDbArc
 50
180.0
 51
270.0000000000002
  0
ARC
  5
4C6
330
1F
100
AcDbEntity
  8
LAY-10
  6
CONTINUOUS
 62
     7
100
AcDbCircle
 10
2466.953062767447
 20
1690.029521140219
 30
0.0
 40
3.000000000000003
100
AcDbArc
 50
270.0000000000002
 51
0.0
  0
ARC
  5
4C7
330
1F
100
AcDbEntity
  8
LAY-10
  6
CONTINUOUS
 62
     7
100
AcDbCircle
 10
2466.953062767447
 20
1596.029521140217
 30
0.0
 40
3.000000000000003
100
AcDbArc
 50
90.00000000000001
 51
180.0
  0
ARC
  5
4C8
330
1F
100
AcDbEntity
  8
LAY-10
  6
CONTINUOUS
 62
     7
100
AcDbCircle
 10
2466.953062767447
 20
1596.029521140217
 30
0.0
 40
3.000000000000003
100
AcDbArc
 50
0.0
 51
90.00000000000001
  0
LINE
  5
4C9
330
1F
100
AcDbEntity
  8
LAY-10
  6
CONTINUOUS
 62
     7
100
AcDbLine
 10
2468.95306276744
 20
1698.029521140216
 30
0.0
 11
2468.95306276744
 21
1718.029521140217
 31
0.0
  0
LINE
  5
4CA
330
1F
100
AcDbEntity
  8
LAY-10
  6
CONTINUOUS
 62
     7
100
AcDbLine
 10
2468.95306276744
 20
1568.029521140217
 30
0.0
 11
2468.95306276744
 21
1588.029521140218
 31
0.0
  0
LINE
  5
4CB
330
1F
100
AcDbEntity
  8
LAY-10
  6
CONTINUOUS
 62
     7
100
AcDbLine
 10
2463.95306276744
 20
2099.729521140419
 30
0.0
 11
2469.953062767448
 21
2099.729521140419
 31
0.0
  0
LINE
  5
4CC
330
1F
100
AcDbEntity
  8
LAY-10
  6
CONTINUOUS
 62
     7
100
AcDbLine
 10
2463.95306276744
 20
2270.029521140418
 30
0.0
 11
2469.953062767448
 21
2270.029521140418
 31
0.0
  0
LINE
  5
4CD
330
1F
100
AcDbEntity
  8
LAY-10
  6
CONTINUOUS
 62
     7
100
AcDbLine
 10
2461.95306276744
 20
2129.72952114042
 30
0.0
 11
2469.953062767448
 21
2129.72952114042
 31
0.0
  0
LINE
  5
4CE
330
1F
100
AcDbEntity
  8
LAY-10
  6
CONTINUOUS
 62
     7
100
AcDbLine
 10
2461.95306276744
 20
2109.729521140419
 30
0.0
 11
2461.95306276744
 21
2129.72952114042
 31
0.0
  0
LINE
  5
4CF
330
1F
100
AcDbEntity
  8
LAY-10
  6
CONTINUOUS
 62
     7
100
AcDbLine
 10
2461.95306276744
 20
2239.729521140418
 30
0.0
 11
2461.95306276744
 21
2259.729521140419
 31
0.0
  0
LINE
  5
4D0
330
1F
100
AcDbEntity
  8
LAY-10
  6
CONTINUOUS
 62
     7
100
AcDbLine
 10
2463.95306276744
 20
2099.729521140419
 30
0.0
 11
2463.95306276744
 21
2109.729521140419
 31
0.0
  0
LINE
  5
4D1
330
1F
100
AcDbEntity
  8
LAY-10
  6
CONTINUOUS
 62
     7
100
AcDbLine
 10
2463.95306276744
 20
2129.72952114042
 30
0.0
 11
2463.95306276744
 21
2239.729521140418
 31
0.0
  0
LINE
  5
4D2
330
1F
100
AcDbEntity
  8
LAY-10
  6
CONTINUOUS
 62
     7
100
AcDbLine
 10
2463.95306276744
 20
2259.729521140419
 30
0.0
 11
2463.95306276744
 21
2270.029521140418
 31
0.0
  0
LINE
  5
4D3
330
1F
100
AcDbEntity
  8
LAY-10
  6
CONTINUOUS
 62
     7
100
AcDbLine
 10
2461.95306276744
 20
2239.729521140418
 30
0.0
 11
2469.953062767448
 21
2239.729521140418
 31
0.0
  0
LINE
  5
4D4
330
1F
100
AcDbEntity
  8
LAY-10
  6
CONTINUOUS
 62
     7
100
AcDbLine
 10
2461.95306276744
 20
2259.729521140419
 30
0.0
 11
2469.953062767448
 21
2259.729521140419
 31
0.0
  0
LINE
  5
4D5
330
1F
100
AcDbEntity
  8
LAY-10
  6
CONTINUOUS
 62
     7
100
AcDbLine
 10
2461.95306276744
 20
2109.729521140419
 30
0.0
 11
2469.953062767448
 21
2109.729521140419
 31
0.0
  0
ARC
  5
4D6
330
1F
100
AcDbEntity
  8
LAY-10
  6
CONTINUOUS
 62
     7
100
AcDbCircle
 10
2466.953062767447
 20
2137.729521140417
 30
0.0
 40
3.000000000000003
100
AcDbArc
 50
90.00000000000001
 51
180.0
  0
ARC
  5
4D7
330
1F
100
AcDbEntity
  8
LAY-10
  6
CONTINUOUS
 62
     7
100
AcDbCircle
 10
2466.953062767447
 20
2137.729521140417
 30
0.0
 40
3.000000000000003
100
AcDbArc
 50
0.0
 51
90.00000000000001
  0
ARC
  5
4D8
330
1F
100
AcDbEntity
  8
LAY-10
  6
CONTINUOUS
 62
     7
100
AcDbCircle
 10
2466.953062767447
 20
2231.729521140418
 30
0.0
 40
3.000000000000003
100
AcDbArc
 50
180.0
 51
270.0
  0
ARC
  5
4D9
330
1F
100
AcDbEntity
  8
LAY-10
  6
CONTINUOUS
 62
     7
100
AcDbCircle
 10
2466.953062767447
 20
2231.729521140418
 30
0.0
 40
3.000000000000003
100
AcDbArc
 50
270.0
 51
0.0
  0
LINE
  5
4DA
330
1F
100
AcDbEntity
  8
LAY-10
  6
CONTINUOUS
 62
     7
100
AcDbLine
 10
2468.95306276744
 20
2129.72952114042
 30
0.0
 11
2468.95306276744
 21
2109.729521140419
 31
0.0
  0
LINE
  5
4DB
330
1F
100
AcDbEntity
  8
LAY-10
  6
CONTINUOUS
 62
     7
100
AcDbLine
 10
2468.95306276744
 20
2259.729521140419
 30
0.0
 11
2468.95306276744
 21
2239.729521140418
 31
0.0
  0
LINE
  5
4DC
330
1F
100
AcDbEntity
  8
LAY-10
  6
CONTINUOUS
 62
     7
100
AcDbLine
 10
2521.953062767448
 20
2363.879521140278
 30
0.0
 11
2525.153062767488
 21
2363.879521140278
 31
0.0
  0
LINE
  5
4DD
330
1F
100
AcDbEntity
  8
LAY-10
  6
CONTINUOUS
 62
     7
100
AcDbLine
 10
2521.953062767488
 20
2409.879521140282
 30
0.0
 11
2521.953062767488
 21
2363.879521140237
 31
0.0
  0
ARC
  5
4DE
330
1F
100
AcDbEntity
  8
LAY-10
  6
CONTINUOUS
 62
     7
100
AcDbCircle
 10
2522.153062767489
 20
2410.079521140283
 30
0.0
 40
3.000000000000003
100
AcDbArc
 50
0.0000000000000573
 51
90.00000000000001
  0
LINE
  5
4DF
330
1F
100
AcDbEntity
  8
LAY-10
  6
CONTINUOUS
 62
     7
100
AcDbLine
 10
2436.353062767488
 20
2409.87952114015
 30
0.0
 11
2521.953062767448
 21
2409.87952114015
 31
0.0
  0
LINE
  5
4E0
330
1F
100
AcDbEntity
  8
LAY-10
  6
CONTINUOUS
 62
     7
100
AcDbLine
 10
2436.553062767488
 20
2413.079521140152
 30
0.0
 11
2522.153062767489
 21
2413.079521140152
 31
0.0
  0
LINE
  5
4E1
330
1F
100
AcDbEntity
  8
LAY-10
  6
CONTINUOUS
 62
     7
100
AcDbLine
 10
2521.953062767444
 20
2380.87952114023
 30
0.0
 11
2519.953062767442
 21
2380.87952114023
 31
0.0
  0
LINE
  5
4E2
330
1F
100
AcDbEntity
  8
LAY-10
  6
CONTINUOUS
 62
     7
100
AcDbLine
 10
2469.953062767442
 20
2405.879521140231
 30
0.0
 11
2521.953062767444
 21
2405.879521140231
 31
0.0
  0
LINE
  5
4E3
330
1F
100
AcDbEntity
  8
LAY-10
  6
CONTINUOUS
 62
     7
100
AcDbLine
 10
2518.353062767443
 20
2404.279521140233
 30
0.0
 11
2471.553062767442
 21
2404.279521140233
 31
0.0
  0
LINE
  5
4E4
330
1F
100
AcDbEntity
  8
LAY-10
  6
CONTINUOUS
 62
     7
100
AcDbLine
 10
2436.353062767488
 20
1417.879521140154
 30
0.0
 11
2521.953062767448
 21
1417.879521140154
 31
0.0
  0
LINE
  5
4E5
330
1F
100
AcDbEntity
  8
LAY-10
  6
CONTINUOUS
 62
     7
100
AcDbLine
 10
2521.953062767448
 20
1463.879521140156
 30
0.0
 11
2525.153062767488
 21
1463.879521140156
 31
0.0
  0
LINE
  5
4E6
330
1F
100
AcDbEntity
  8
LAY-10
  6
CONTINUOUS
 62
     7
100
AcDbLine
 10
2521.953062767488
 20
1417.879521140154
 30
0.0
 11
2521.953062767488
 21
1463.879521140199
 31
0.0
  0
LINE
  5
4E7
330
1F
100
AcDbEntity
  8
LAY-10
  6
CONTINUOUS
 62
     7
100
AcDbLine
 10
2436.553062767488
 20
1414.679521140152
 30
0.0
 11
2522.153062767489
 21
1414.679521140152
 31
0.0
  0
ARC
  5
4E8
330
1F
100
AcDbEntity
  8
LAY-10
  6
CONTINUOUS
 62
     7
100
AcDbCircle
 10
2522.153062767489
 20
1417.679521140153
 30
0.0
 40
3.000000000000003
100
AcDbArc
 50
270.0000000000002
 51
0.0000000000000573
  0
LINE
  5
4E9
330
1F
100
AcDbEntity
  8
LAY-10
  6
CONTINUOUS
 62
     7
100
AcDbLine
 10
2469.953062767441
 20
1421.879521140238
 30
0.0
 11
2521.953062767444
 21
1421.879521140238
 31
0.0
  0
LINE
  5
4EA
330
1F
100
AcDbEntity
  8
LAY-10
  6
CONTINUOUS
 62
     7
100
AcDbLine
 10
2518.353062767442
 20
1423.47952114024
 30
0.0
 11
2471.553062767442
 21
1423.47952114024
 31
0.0
  0
LINE
  5
4EB
330
1F
100
AcDbEntity
  8
LAY-10
  6
CONTINUOUS
 62
     7
100
AcDbLine
 10
2521.953062767444
 20
1446.879521140238
 30
0.0
 11
2519.953062767441
 21
1446.879521140238
 31
0.0
  0
LINE
  5
4EC
330
1F
100
AcDbEntity
  8
LAY-10
  6
CONTINUOUS
 62
     7
100
AcDbLine
 10
2469.953062767444
 20
2405.879521140231
 30
0.0
 11
2469.953062767441
 21
1421.879521140238
 31
0.0
  0
LINE
  5
4ED
330
1F
100
AcDbEntity
  8
LAY-10
  6
CONTINUOUS
 62
     7
100
AcDbLine
 10
2471.553062767444
 20
2404.27952114023
 30
0.0
 11
2471.553062767442
 21
1423.47952114024
 31
0.0
  0
LINE
  5
4EE
330
1F
100
AcDbEntity
  8
LAY-10
  6
CONTINUOUS
 62
     7
100
AcDbLine
 10
2519.953062767441
 20
1421.879521140238
 30
0.0
 11
2519.953062767442
 21
2405.879521140231
 31
0.0
  0
LINE
  5
4EF
330
1F
100
AcDbEntity
  8
LAY-10
  6
CONTINUOUS
 62
     7
100
AcDbLine
 10
2518.353062767442
 20
1423.47952114024
 30
0.0
 11
2518.353062767443
 21
2404.27952114023
 31
0.0
  0
LINE
  5
4F0
330
1F
100
AcDbEntity
  8
LAY-10
  6
CONTINUOUS
 62
     7
100
AcDbLine
 10
384.0407257569584
 20
2464.879521140148
 30
0.0
 11
384.0407257569584
 21
2493.778005949986
 31
0.0
  0
LINE
  5
4F1
330
1F
100
AcDbEntity
  8
LAY-10
  6
CONTINUOUS
 62
     7
100
AcDbLine
 10
375.0407257569561
 20
2464.879521140148
 30
0.0
 11
375.0407257569561
 21
2493.778005949986
 31
0.0
  0
LINE
  5
4F2
330
1F
100
AcDbEntity
  8
LAY-10
  6
CONTINUOUS
 62
     7
100
AcDbLine
 10
384.0407257569584
 20
2493.778005949986
 30
0.0
 11
375.0407257569561
 21
2493.778005949986
 31
0.0
  0
LINE
  5
4F3
330
1F
100
AcDbEntity
  8
LAY-10
  6
CONTINUOUS
 62
     7
100
AcDbLine
 10
884.0407257569583
 20
2464.879521140148
 30
0.0
 11
884.0407257569583
 21
2493.778005949986
 31
0.0
  0
LINE
  5
4F4
330
1F
100
AcDbEntity
  8
LAY-10
  6
CONTINUOUS
 62
     7
100
AcDbLine
 10
875.040725756956
 20
2464.879521140148
 30
0.0
 11
875.040725756956
 21
2493.778005949986
 31
0.0
  0
LINE
  5
4F5
330
1F
100
AcDbEntity
  8
LAY-10
  6
CONTINUOUS
 62
     7
100
AcDbLine
 10
884.0407257569583
 20
2493.778005949986
 30
0.0
 11
875.040725756956
 21
2493.778005949986
 31
0.0
  0
LINE
  5
4F6
330
1F
100
AcDbEntity
  8
LAY-10
  6
CONTINUOUS
 62
     7
100
AcDbLine
 10
1875.040725756952
 20
2464.879521140145
 30
0.0
 11
1875.040725756952
 21
2493.778005949983
 31
0.0
  0
LINE
  5
4F7
330
1F
100
AcDbEntity
  8
LAY-10
  6
CONTINUOUS
 62
     7
100
AcDbLine
 10
1884.040725756955
 20
2464.879521140145
 30
0.0
 11
1884.040725756955
 21
2493.778005949983
 31
0.0
  0
LINE
  5
4F8
330
1F
100
AcDbEntity
  8
LAY-10
  6
CONTINUOUS
 62
     7
100
AcDbLine
 10
1875.040725756952
 20
2493.778005949983
 30
0.0
 11
1884.040725756955
 21
2493.778005949983
 31
0.0
  0
LINE
  5
4F9
330
1F
100
AcDbEntity
  8
LAY-10
  6
CONTINUOUS
 62
     7
100
AcDbLine
 10
1375.040725756952
 20
2464.879521140147
 30
0.0
 11
1375.040725756952
 21
2493.778005949985
 31
0.0
  0
LINE
  5
4FA
330
1F
100
AcDbEntity
  8
LAY-10
  6
CONTINUOUS
 62
     7
100
AcDbLine
 10
1384.040725756955
 20
2464.879521140147
 30
0.0
 11
1384.040725756955
 21
2493.778005949985
 31
0.0
  0
LINE
  5
4FB
330
1F
100
AcDbEntity
  8
LAY-10
  6
CONTINUOUS
 62
     7
100
AcDbLine
 10
1375.040725756952
 20
2493.778005949985
 30
0.0
 11
1384.040725756955
 21
2493.778005949985
 31
0.0
  0
LINE
  5
4FC
330
1F
100
AcDbEntity
  8
LAY-10
  6
CONTINUOUS
 62
     7
100
AcDbLine
 10
384.0407257569589
 20
1362.879521140358
 30
0.0
 11
384.040725756959
 21
1333.98103633052
 31
0.0
  0
LINE
  5
4FD
330
1F
100
AcDbEntity
  8
LAY-10
  6
CONTINUOUS
 62
     7
100
AcDbLine
 10
375.0407257569566
 20
1362.879521140358
 30
0.0
 11
375.0407257569567
 21
1333.98103633052
 31
0.0
  0
LINE
  5
4FE
330
1F
100
AcDbEntity
  8
LAY-10
  6
CONTINUOUS
 62
     7
100
AcDbLine
 10
384.040725756959
 20
1333.98103633052
 30
0.0
 11
375.0407257569567
 21
1333.98103633052
 31
0.0
  0
LINE
  5
4FF
330
1F
100
AcDbEntity
  8
LAY-10
  6
CONTINUOUS
 62
     7
100
AcDbLine
 10
884.0407257569589
 20
1362.879521140358
 30
0.0
 11
884.0407257569589
 21
1333.98103633052
 31
0.0
  0
LINE
  5
500
330
1F
100
AcDbEntity
  8
LAY-10
  6
CONTINUOUS
 62
     7
100
AcDbLine
 10
875.0407257569566
 20
1362.879521140358
 30
0.0
 11
875.0407257569566
 21
1333.98103633052
 31
0.0
  0
LINE
  5
501
330
1F
100
AcDbEntity
  8
LAY-10
  6
CONTINUOUS
 62
     7
100
AcDbLine
 10
884.0407257569589
 20
1333.98103633052
 30
0.0
 11
875.0407257569566
 21
1333.98103633052
 31
0.0
  0
LINE
  5
502
330
1F
100
AcDbEntity
  8
LAY-10
  6
CONTINUOUS
 62
     7
100
AcDbLine
 10
1875.040725756953
 20
1362.879521140362
 30
0.0
 11
1875.040725756953
 21
1333.981036330524
 31
0.0
  0
LINE
  5
503
330
1F
100
AcDbEntity
  8
LAY-10
  6
CONTINUOUS
 62
     7
100
AcDbLine
 10
1884.040725756955
 20
1362.879521140362
 30
0.0
 11
1884.040725756955
 21
1333.981036330524
 31
0.0
  0
LINE
  5
504
330
1F
100
AcDbEntity
  8
LAY-10
  6
CONTINUOUS
 62
     7
100
AcDbLine
 10
1875.040725756953
 20
1333.981036330524
 30
0.0
 11
1884.040725756955
 21
1333.981036330524
 31
0.0
  0
LINE
  5
505
330
1F
100
AcDbEntity
  8
LAY-10
  6
CONTINUOUS
 62
     7
100
AcDbLine
 10
1375.040725756953
 20
1362.879521140359
 30
0.0
 11
1375.040725756953
 21
1333.981036330521
 31
0.0
  0
LINE
  5
506
330
1F
100
AcDbEntity
  8
LAY-10
  6
CONTINUOUS
 62
     7
100
AcDbLine
 10
1384.040725756955
 20
1362.879521140359
 30
0.0
 11
1384.040725756955
 21
1333.981036330521
 31
0.0
  0
LINE
  5
507
330
1F
100
AcDbEntity
  8
LAY-10
  6
CONTINUOUS
 62
     7
100
AcDbLine
 10
1375.040725756953
 20
1333.981036330521
 30
0.0
 11
1384.040725756955
 21
1333.981036330521
 31
0.0
  0
LINE
  5
508
330
1F
100
AcDbEntity
  8
LAY-10
  6
CONTINUOUS
 62
     7
100
AcDbLine
 10
1130.5407257569
 20
1378.879521140152
 30
0.0
 11
1145.5407257569
 21
1393.879521140152
 31
0.0
  0
LINE
  5
509
330
1F
100
AcDbEntity
  8
LAY-10
  6
CONTINUOUS
 62
     7
100
AcDbLine
 10
1531.5407257569
 20
1393.879521140153
 30
0.0
 11
1546.540725756901
 21
1378.879521140153
 31
0.0
  0
LINE
  5
50A
330
1F
100
AcDbEntity
  8
LAY-10
  6
CONTINUOUS
 62
     7
100
AcDbLine
 10
1130.5407257569
 20
1378.879521140152
 30
0.0
 11
1546.540725756901
 21
1378.879521140153
 31
0.0
  0
LINE
  5
50B
330
1F
100
AcDbEntity
  8
LAY-10
  6
CONTINUOUS
 62
     7
100
AcDbLine
 10
1531.5407257569
 20
1393.879521140153
 30
0.0
 11
1145.5407257569
 21
1393.879521140152
 31
0.0
  0
LINE
  5
50C
330
1F
100
AcDbEntity
  8
LAY-10
  6
CONTINUOUS
 62
     7
100
AcDbLine
 10
1548.5407257569
 20
1378.879521140152
 30
0.0
 11
1563.5407257569
 21
1393.879521140152
 31
0.0
  0
LINE
  5
50D
330
1F
100
AcDbEntity
  8
LAY-10
  6
CONTINUOUS
 62
     7
100
AcDbLine
 10
1949.5407257569
 20
1393.879521140153
 30
0.0
 11
1964.540725756902
 21
1378.879521140153
 31
0.0
  0
LINE
  5
50E
330
1F
100
AcDbEntity
  8
LAY-10
  6
CONTINUOUS
 62
     7
100
AcDbLine
 10
1548.5407257569
 20
1378.879521140152
 30
0.0
 11
1964.540725756902
 21
1378.879521140153
 31
0.0
  0
LINE
  5
50F
330
1F
100
AcDbEntity
  8
LAY-10
  6
CONTINUOUS
 62
     7
100
AcDbLine
 10
1949.5407257569
 20
1393.879521140153
 30
0.0
 11
1563.5407257569
 21
1393.879521140152
 31
0.0
  0
LINE
  5
510
330
1F
100
AcDbEntity
  8
LAY-10
  6
CONTINUOUS
 62
     7
100
AcDbLine
 10
1177.540725756876
 20
1425.879521140203
 30
0.0
 11
1177.540725756876
 21
1393.879521140204
 31
0.0
  0
LINE
  5
511
330
1F
100
AcDbEntity
  8
LAY-10
  6
CONTINUOUS
 62
     7
100
AcDbLine
 10
1177.540725756878
 20
1425.879521140203
 30
0.0
 11
1145.540725756878
 21
1425.879521140203
 31
0.0
  0
LINE
  5
512
330
1F
100
AcDbEntity
  8
LAY-10
  6
CONTINUOUS
 62
     7
100
AcDbLine
 10
1499.540725756878
 20
1425.879521140203
 30
0.0
 11
1499.540725756878
 21
1393.879521140204
 31
0.0
  0
LINE
  5
513
330
1F
100
AcDbEntity
  8
LAY-10
  6
CONTINUOUS
 62
     7
100
AcDbLine
 10
1531.540725756877
 20
1425.879521140203
 30
0.0
 11
1499.540725756878
 21
1425.879521140203
 31
0.0
  0
LINE
  5
514
330
1F
100
AcDbEntity
  8
LAY-10
  6
CONTINUOUS
 62
     7
100
AcDbLine
 10
1917.540725756879
 20
1425.879521140203
 30
0.0
 11
1917.540725756879
 21
1393.879521140204
 31
0.0
  0
LINE
  5
515
330
1F
100
AcDbEntity
  8
LAY-10
  6
CONTINUOUS
 62
     7
100
AcDbLine
 10
1949.540725756878
 20
1425.879521140203
 30
0.0
 11
1917.540725756879
 21
1425.879521140203
 31
0.0
  0
LINE
  5
516
330
1F
100
AcDbEntity
  8
LAY-10
  6
CONTINUOUS
 62
     7
100
AcDbLine
 10
1595.540725756876
 20
1425.879521140203
 30
0.0
 11
1595.540725756876
 21
1393.879521140204
 31
0.0
  0
LINE
  5
517
330
1F
100
AcDbEntity
  8
LAY-10
  6
CONTINUOUS
 62
     7
100
AcDbLine
 10
1595.540725756878
 20
1425.879521140203
 30
0.0
 11
1563.540725756878
 21
1425.879521140203
 31
0.0
  0
LINE
  5
518
330
1F
100
AcDbEntity
  8
LAY-10
  6
CONTINUOUS
 62
     7
100
AcDbLine
 10
1636.540725756967
 20
1393.879521140153
 30
0.0
 11
1636.54072575697
 21
2433.879521140155
 31
0.0
  0
LINE
  5
519
330
1F
100
AcDbEntity
  8
LAY-10
  6
CONTINUOUS
 62
     7
100
AcDbLine
 10
1644.040725756967
 20
1393.879521140153
 30
0.0
 11
1644.04072575697
 21
2433.879521140153
 31
0.0
  0
LINE
  5
51A
330
1F
100
AcDbEntity
  8
LAY-10
  6
CONTINUOUS
 62
     7
100
AcDbLine
 10
1669.040725756965
 20
1393.879521140153
 30
0.0
 11
1669.04072575697
 21
2433.879521140153
 31
0.0
  0
LINE
  5
51B
330
1F
100
AcDbEntity
  8
LAY-10
  6
CONTINUOUS
 62
     7
100
AcDbLine
 10
1676.540725756965
 20
1393.879521140153
 30
0.0
 11
1676.54072575697
 21
2433.879521140153
 31
0.0
  0
LINE
  5
51C
330
1F
100
AcDbEntity
  8
LAY-10
  6
CONTINUOUS
 62
     7
100
AcDbLine
 10
1836.54072575699
 20
1393.879521140153
 30
0.0
 11
1836.540725756989
 21
2433.879521140153
 31
0.0
  0
LINE
  5
51D
330
1F
100
AcDbEntity
  8
LAY-10
  6
CONTINUOUS
 62
     7
100
AcDbLine
 10
1844.04072575699
 20
1393.879521140153
 30
0.0
 11
1844.040725756989
 21
2433.879521140153
 31
0.0
  0
LINE
  5
51E
330
1F
100
AcDbEntity
  8
LAY-10
  6
CONTINUOUS
 62
     7
100
AcDbLine
 10
1869.04072575699
 20
1393.879521140153
 30
0.0
 11
1869.040725756987
 21
2433.879521140153
 31
0.0
  0
LINE
  5
51F
330
1F
100
AcDbEntity
  8
LAY-10
  6
CONTINUOUS
 62
     7
100
AcDbLine
 10
1876.54072575699
 20
1393.879521140153
 30
0.0
 11
1876.540725756987
 21
2433.879521140155
 31
0.0
  0
LINE
  5
520
330
1F
100
AcDbEntity
  8
LAY-10
  6
CONTINUOUS
 62
     7
100
AcDbLine
 10
1949.5407257569
 20
2433.879521140153
 30
0.0
 11
1949.5407257569
 21
1393.879521140153
 31
0.0
  0
LINE
  5
521
330
1F
100
AcDbEntity
  8
LAY-10
  6
CONTINUOUS
 62
     7
100
AcDbLine
 10
1964.540725756902
 20
1378.879521140153
 30
0.0
 11
1964.5407257569
 21
2448.879521140153
 31
0.0
  0
LINE
  5
522
330
1F
100
AcDbEntity
  8
LAY-10
  6
CONTINUOUS
 62
     7
100
AcDbLine
 10
1563.5407257569
 20
1393.879521140152
 30
0.0
 11
1563.5407257569
 21
2433.879521140152
 31
0.0
  0
LINE
  5
523
330
1F
100
AcDbEntity
  8
LAY-10
  6
CONTINUOUS
 62
     7
100
AcDbLine
 10
1548.5407257569
 20
2448.879521140152
 30
0.0
 11
1548.5407257569
 21
1378.879521140152
 31
0.0
  0
LINE
  5
524
330
1F
100
AcDbEntity
  8
LAY-10
  6
CONTINUOUS
 62
     7
100
AcDbLine
 10
1251.040725756965
 20
1393.879521140153
 30
0.0
 11
1251.04072575697
 21
2433.879521140153
 31
0.0
  0
LINE
  5
525
330
1F
100
AcDbEntity
  8
LAY-10
  6
CONTINUOUS
 62
     7
100
AcDbLine
 10
1258.540725756965
 20
1393.879521140153
 30
0.0
 11
1258.54072575697
 21
2433.879521140153
 31
0.0
  0
LINE
  5
526
330
1F
100
AcDbEntity
  8
LAY-10
  6
CONTINUOUS
 62
     7
100
AcDbLine
 10
1418.54072575699
 20
1393.879521140153
 30
0.0
 11
1418.540725756989
 21
2433.879521140153
 31
0.0
  0
LINE
  5
527
330
1F
100
AcDbEntity
  8
LAY-10
  6
CONTINUOUS
 62
     7
100
AcDbLine
 10
1426.04072575699
 20
1393.879521140153
 30
0.0
 11
1426.040725756989
 21
2433.879521140153
 31
0.0
  0
LINE
  5
528
330
1F
100
AcDbEntity
  8
LAY-10
  6
CONTINUOUS
 62
     7
100
AcDbLine
 10
1451.04072575699
 20
1393.879521140153
 30
0.0
 11
1451.040725756987
 21
2433.879521140153
 31
0.0
  0
LINE
  5
529
330
1F
100
AcDbEntity
  8
LAY-10
  6
CONTINUOUS
 62
     7
100
AcDbLine
 10
1458.54072575699
 20
1393.879521140153
 30
0.0
 11
1458.540725756987
 21
2433.879521140155
 31
0.0
  0
LINE
  5
52A
330
1F
100
AcDbEntity
  8
LAY-10
  6
CONTINUOUS
 62
     7
100
AcDbLine
 10
1531.5407257569
 20
2433.879521140153
 30
0.0
 11
1531.5407257569
 21
1393.879521140153
 31
0.0
  0
LINE
  5
52B
330
1F
100
AcDbEntity
  8
LAY-10
  6
CONTINUOUS
 62
     7
100
AcDbLine
 10
1546.540725756901
 20
1378.879521140153
 30
0.0
 11
1546.5407257569
 21
2448.879521140153
 31
0.0
  0
LINE
  5
52C
330
1F
100
AcDbEntity
  8
LAY-10
  6
CONTINUOUS
 62
     7
100
AcDbLine
 10
1218.540725756967
 20
1393.879521140153
 30
0.0
 11
1218.54072575697
 21
2433.879521140155
 31
0.0
  0
LINE
  5
52D
330
1F
100
AcDbEntity
  8
LAY-10
  6
CONTINUOUS
 62
     7
100
AcDbLine
 10
1226.040725756967
 20
1393.879521140153
 30
0.0
 11
1226.04072575697
 21
2433.879521140153
 31
0.0
  0
LINE
  5
52E
330
1F
100
AcDbEntity
  8
LAY-10
  6
CONTINUOUS
 62
     7
100
AcDbLine
 10
1145.5407257569
 20
1393.879521140152
 30
0.0
 11
1145.5407257569
 21
2433.879521140152
 31
0.0
  0
LINE
  5
52F
330
1F
100
AcDbEntity
  8
LAY-10
  6
CONTINUOUS
 62
     7
100
AcDbLine
 10
1130.5407257569
 20
2448.879521140152
 30
0.0
 11
1130.5407257569
 21
1378.879521140152
 31
0.0
  0
LINE
  5
530
330
1F
100
AcDbEntity
  8
LAY-10
  6
CONTINUOUS
 62
     7
100
AcDbLine
 10
1165.540725756928
 20
1399.379521140202
 30
0.0
 11
1165.540725756928
 21
1397.773221127399
 31
0.0
  0
LINE
  5
531
330
1F
100
AcDbEntity
  8
LAY-10
  6
CONTINUOUS
 62
     7
100
AcDbLine
 10
1157.54072575693
 20
1399.379521140202
 30
0.0
 11
1157.54072575693
 21
1397.773221127399
 31
0.0
  0
LINE
  5
532
330
1F
100
AcDbEntity
  8
LAY-10
  6
CONTINUOUS
 62
     7
100
AcDbLine
 10
1157.54072575693
 20
1399.379521140202
 30
0.0
 11
1165.540725756928
 21
1399.379521140202
 31
0.0
  0
ARC
  5
533
330
1F
100
AcDbEntity
  8
LAY-10
  6
CONTINUOUS
 62
     7
100
AcDbCircle
 10
1161.540725756929
 20
1409.879521140202
 30
0.0
 40
12.75000000000001
100
AcDbArc
 50
288.2838899404034
 51
251.7161100595966
  0
LINE
  5
534
330
1F
100
AcDbEntity
  8
LAY-10
  6
CONTINUOUS
 62
     7
100
AcDbLine
 10
1168.040725756929
 20
1409.879521140202
 30
0.0
 11
1161.540725756929
 21
1405.879521140202
 31
0.0
  0
LINE
  5
535
330
1F
100
AcDbEntity
  8
LAY-10
  6
CONTINUOUS
 62
     7
100
AcDbLine
 10
1161.540725756929
 20
1405.879521140202
 30
0.0
 11
1155.040725756929
 21
1409.879521140202
 31
0.0
  0
LINE
  5
536
330
1F
100
AcDbEntity
  8
LAY-10
  6
CONTINUOUS
 62
     7
100
AcDbLine
 10
1155.040725756929
 20
1409.879521140202
 30
0.0
 11
1161.540725756929
 21
1413.879521140202
 31
0.0
  0
LINE
  5
537
330
1F
100
AcDbEntity
  8
LAY-10
  6
CONTINUOUS
 62
     7
100
AcDbLine
 10
1161.540725756929
 20
1413.879521140202
 30
0.0
 11
1168.040725756929
 21
1409.879521140202
 31
0.0
  0
CIRCLE
  5
538
330
1F
100
AcDbEntity
  8
LAY-10
  6
CONTINUOUS
 62
     7
100
AcDbCircle
 10
1161.54072575688
 20
1409.8795211402
 30
0.0
 40
13.0
  0
LINE
  5
539
330
1F
100
AcDbEntity
  8
LAY-10
  6
CONTINUOUS
 62
     7
100
AcDbLine
 10
1519.540725756878
 20
1399.379521140202
 30
0.0
 11
1519.540725756878
 21
1397.773221127399
 31
0.0
  0
LINE
  5
53A
330
1F
100
AcDbEntity
  8
LAY-10
  6
CONTINUOUS
 62
     7
100
AcDbLine
 10
1511.54072575688
 20
1399.379521140202
 30
0.0
 11
1511.54072575688
 21
1397.773221127399
 31
0.0
  0
LINE
  5
53B
330
1F
100
AcDbEntity
  8
LAY-10
  6
CONTINUOUS
 62
     7
100
AcDbLine
 10
1511.54072575688
 20
1399.379521140202
 30
0.0
 11
1519.540725756878
 21
1399.379521140202
 31
0.0
  0
ARC
  5
53C
330
1F
100
AcDbEntity
  8
LAY-10
  6
CONTINUOUS
 62
     7
100
AcDbCircle
 10
1515.54072575688
 20
1409.879521140202
 30
0.0
 40
12.75000000000001
100
AcDbArc
 50
288.2838899404034
 51
251.7161100595966
  0
LINE
  5
53D
330
1F
100
AcDbEntity
  8
LAY-10
  6
CONTINUOUS
 62
     7
100
AcDbLine
 10
1522.040725756879
 20
1409.879521140202
 30
0.0
 11
1515.54072575688
 21
1405.879521140202
 31
0.0
  0
LINE
  5
53E
330
1F
100
AcDbEntity
  8
LAY-10
  6
CONTINUOUS
 62
     7
100
AcDbLine
 10
1515.54072575688
 20
1405.879521140202
 30
0.0
 11
1509.040725756879
 21
1409.879521140202
 31
0.0
  0
LINE
  5
53F
330
1F
100
AcDbEntity
  8
LAY-10
  6
CONTINUOUS
 62
     7
100
AcDbLine
 10
1509.040725756879
 20
1409.879521140202
 30
0.0
 11
1515.54072575688
 21
1413.879521140202
 31
0.0
  0
LINE
  5
540
330
1F
100
AcDbEntity
  8
LAY-10
  6
CONTINUOUS
 62
     7
100
AcDbLine
 10
1515.54072575688
 20
1413.879521140202
 30
0.0
 11
1522.040725756879
 21
1409.879521140202
 31
0.0
  0
CIRCLE
  5
541
330
1F
100
AcDbEntity
  8
LAY-10
  6
CONTINUOUS
 62
     7
100
AcDbCircle
 10
1515.54072575683
 20
1409.8795211402
 30
0.0
 40
13.0
  0
LINE
  5
542
330
1F
100
AcDbEntity
  8
LAY-10
  6
CONTINUOUS
 62
     7
100
AcDbLine
 10
1583.540725756878
 20
1399.379521140202
 30
0.0
 11
1583.540725756878
 21
1397.773221127399
 31
0.0
  0
LINE
  5
543
330
1F
100
AcDbEntity
  8
LAY-10
  6
CONTINUOUS
 62
     7
100
AcDbLine
 10
1575.54072575688
 20
1399.379521140202
 30
0.0
 11
1575.54072575688
 21
1397.773221127399
 31
0.0
  0
LINE
  5
544
330
1F
100
AcDbEntity
  8
LAY-10
  6
CONTINUOUS
 62
     7
100
AcDbLine
 10
1575.54072575688
 20
1399.379521140202
 30
0.0
 11
1583.540725756878
 21
1399.379521140202
 31
0.0
  0
ARC
  5
545
330
1F
100
AcDbEntity
  8
LAY-10
  6
CONTINUOUS
 62
     7
100
AcDbCircle
 10
1579.54072575688
 20
1409.879521140202
 30
0.0
 40
12.75000000000001
100
AcDbArc
 50
288.2838899404034
 51
251.7161100595966
  0
LINE
  5
546
330
1F
100
AcDbEntity
  8
LAY-10
  6
CONTINUOUS
 62
     7
100
AcDbLine
 10
1586.04072575688
 20
1409.879521140202
 30
0.0
 11
1579.54072575688
 21
1405.879521140202
 31
0.0
  0
LINE
  5
547
330
1F
100
AcDbEntity
  8
LAY-10
  6
CONTINUOUS
 62
     7
100
AcDbLine
 10
1579.54072575688
 20
1405.879521140202
 30
0.0
 11
1573.040725756879
 21
1409.879521140202
 31
0.0
  0
LINE
  5
548
330
1F
100
AcDbEntity
  8
LAY-10
  6
CONTINUOUS
 62
     7
100
AcDbLine
 10
1573.040725756879
 20
1409.879521140202
 30
0.0
 11
1579.54072575688
 21
1413.879521140202
 31
0.0
  0
LINE
  5
549
330
1F
100
AcDbEntity
  8
LAY-10
  6
CONTINUOUS
 62
     7
100
AcDbLine
 10
1579.54072575688
 20
1413.879521140202
 30
0.0
 11
1586.04072575688
 21
1409.879521140202
 31
0.0
  0
CIRCLE
  5
54A
330
1F
100
AcDbEntity
  8
LAY-10
  6
CONTINUOUS
 62
     7
100
AcDbCircle
 10
1579.54072575683
 20
1409.8795211402
 30
0.0
 40
13.0
  0
LINE
  5
54B
330
1F
100
AcDbEntity
  8
LAY-10
  6
CONTINUOUS
 62
     7
100
AcDbLine
 10
1937.540725756898
 20
1399.379521140202
 30
0.0
 11
1937.540725756898
 21
1397.773221127399
 31
0.0
  0
LINE
  5
54C
330
1F
100
AcDbEntity
  8
LAY-10
  6
CONTINUOUS
 62
     7
100
AcDbLine
 10
1929.5407257569
 20
1399.379521140202
 30
0.0
 11
1929.5407257569
 21
1397.773221127399
 31
0.0
  0
LINE
  5
54D
330
1F
100
AcDbEntity
  8
LAY-10
  6
CONTINUOUS
 62
     7
100
AcDbLine
 10
1929.5407257569
 20
1399.379521140202
 30
0.0
 11
1937.540725756898
 21
1399.379521140202
 31
0.0
  0
ARC
  5
54E
330
1F
100
AcDbEntity
  8
LAY-10
  6
CONTINUOUS
 62
     7
100
AcDbCircle
 10
1933.5407257569
 20
1409.879521140202
 30
0.0
 40
12.75000000000001
100
AcDbArc
 50
288.2838899404034
 51
251.7161100595966
  0
LINE
  5
54F
330
1F
100
AcDbEntity
  8
LAY-10
  6
CONTINUOUS
 62
     7
100
AcDbLine
 10
1940.0407257569
 20
1409.879521140202
 30
0.0
 11
1933.5407257569
 21
1405.879521140202
 31
0.0
  0
LINE
  5
550
330
1F
100
AcDbEntity
  8
LAY-10
  6
CONTINUOUS
 62
     7
100
AcDbLine
 10
1933.5407257569
 20
1405.879521140202
 30
0.0
 11
1927.040725756899
 21
1409.879521140202
 31
0.0
  0
LINE
  5
551
330
1F
100
AcDbEntity
  8
LAY-10
  6
CONTINUOUS
 62
     7
100
AcDbLine
 10
1927.040725756899
 20
1409.879521140202
 30
0.0
 11
1933.5407257569
 21
1413.879521140202
 31
0.0
  0
LINE
  5
552
330
1F
100
AcDbEntity
  8
LAY-10
  6
CONTINUOUS
 62
     7
100
AcDbLine
 10
1933.5407257569
 20
1413.879521140202
 30
0.0
 11
1940.0407257569
 21
1409.879521140202
 31
0.0
  0
CIRCLE
  5
553
330
1F
100
AcDbEntity
  8
LAY-10
  6
CONTINUOUS
 62
     7
100
AcDbCircle
 10
1933.54072575685
 20
1409.8795211402
 30
0.0
 40
13.0
  0
LINE
  5
554
330
1F
100
AcDbEntity
  8
LAY-10
  6
CONTINUOUS
 62
     7
100
AcDbLine
 10
1130.540725756899
 20
2448.879521140354
 30
0.0
 11
1145.540725756899
 21
2433.879521140354
 31
0.0
  0
LINE
  5
555
330
1F
100
AcDbEntity
  8
LAY-10
  6
CONTINUOUS
 62
     7
100
AcDbLine
 10
1531.540725756899
 20
2433.879521140353
 30
0.0
 11
1546.540725756901
 21
2448.879521140353
 31
0.0
  0
LINE
  5
556
330
1F
100
AcDbEntity
  8
LAY-10
  6
CONTINUOUS
 62
     7
100
AcDbLine
 10
1130.540725756899
 20
2448.879521140354
 30
0.0
 11
1546.540725756901
 21
2448.879521140353
 31
0.0
  0
LINE
  5
557
330
1F
100
AcDbEntity
  8
LAY-10
  6
CONTINUOUS
 62
     7
100
AcDbLine
 10
1531.540725756899
 20
2433.879521140353
 30
0.0
 11
1145.540725756899
 21
2433.879521140354
 31
0.0
  0
LINE
  5
558
330
1F
100
AcDbEntity
  8
LAY-10
  6
CONTINUOUS
 62
     7
100
AcDbLine
 10
1548.540725756899
 20
2448.879521140354
 30
0.0
 11
1563.540725756899
 21
2433.879521140354
 31
0.0
  0
LINE
  5
559
330
1F
100
AcDbEntity
  8
LAY-10
  6
CONTINUOUS
 62
     7
100
AcDbLine
 10
1949.540725756899
 20
2433.879521140353
 30
0.0
 11
1964.540725756901
 21
2448.879521140353
 31
0.0
  0
LINE
  5
55A
330
1F
100
AcDbEntity
  8
LAY-10
  6
CONTINUOUS
 62
     7
100
AcDbLine
 10
1548.540725756899
 20
2448.879521140354
 30
0.0
 11
1964.540725756901
 21
2448.879521140353
 31
0.0
  0
LINE
  5
55B
330
1F
100
AcDbEntity
  8
LAY-10
  6
CONTINUOUS
 62
     7
100
AcDbLine
 10
1949.540725756899
 20
2433.879521140353
 30
0.0
 11
1563.540725756899
 21
2433.879521140354
 31
0.0
  0
LINE
  5
55C
330
1F
100
AcDbEntity
  8
LAY-10
  6
CONTINUOUS
 62
     7
100
AcDbLine
 10
1177.540725756875
 20
2401.879521140303
 30
0.0
 11
1177.540725756875
 21
2433.879521140301
 31
0.0
  0
LINE
  5
55D
330
1F
100
AcDbEntity
  8
LAY-10
  6
CONTINUOUS
 62
     7
100
AcDbLine
 10
1177.540725756877
 20
2401.879521140303
 30
0.0
 11
1145.540725756877
 21
2401.879521140303
 31
0.0
  0
LINE
  5
55E
330
1F
100
AcDbEntity
  8
LAY-10
  6
CONTINUOUS
 62
     7
100
AcDbLine
 10
1499.540725756877
 20
2401.879521140303
 30
0.0
 11
1499.540725756877
 21
2433.879521140301
 31
0.0
  0
LINE
  5
55F
330
1F
100
AcDbEntity
  8
LAY-10
  6
CONTINUOUS
 62
     7
100
AcDbLine
 10
1531.540725756877
 20
2401.879521140303
 30
0.0
 11
1499.540725756877
 21
2401.879521140303
 31
0.0
  0
LINE
  5
560
330
1F
100
AcDbEntity
  8
LAY-10
  6
CONTINUOUS
 62
     7
100
AcDbLine
 10
1917.540725756878
 20
2401.879521140303
 30
0.0
 11
1917.540725756878
 21
2433.879521140302
 31
0.0
  0
LINE
  5
561
330
1F
100
AcDbEntity
  8
LAY-10
  6
CONTINUOUS
 62
     7
100
AcDbLine
 10
1949.540725756878
 20
2401.879521140303
 30
0.0
 11
1917.540725756878
 21
2401.879521140303
 31
0.0
  0
LINE
  5
562
330
1F
100
AcDbEntity
  8
LAY-10
  6
CONTINUOUS
 62
     7
100
AcDbLine
 10
1595.540725756875
 20
2401.879521140303
 30
0.0
 11
1595.540725756875
 21
2433.879521140301
 31
0.0
  0
LINE
  5
563
330
1F
100
AcDbEntity
  8
LAY-10
  6
CONTINUOUS
 62
     7
100
AcDbLine
 10
1595.540725756877
 20
2401.879521140303
 30
0.0
 11
1563.540725756877
 21
2401.879521140303
 31
0.0
  0
LINE
  5
564
330
1F
100
AcDbEntity
  8
LAY-10
  6
CONTINUOUS
 62
     7
100
AcDbLine
 10
1165.540725756927
 20
2428.379521140303
 30
0.0
 11
1165.540725756927
 21
2429.985821153107
 31
0.0
  0
LINE
  5
565
330
1F
100
AcDbEntity
  8
LAY-10
  6
CONTINUOUS
 62
     7
100
AcDbLine
 10
1157.54072575693
 20
2428.379521140303
 30
0.0
 11
1157.54072575693
 21
2429.985821153107
 31
0.0
  0
LINE
  5
566
330
1F
100
AcDbEntity
  8
LAY-10
  6
CONTINUOUS
 62
     7
100
AcDbLine
 10
1157.54072575693
 20
2428.379521140303
 30
0.0
 11
1165.540725756927
 21
2428.379521140303
 31
0.0
  0
ARC
  5
567
330
1F
100
AcDbEntity
  8
LAY-10
  6
CONTINUOUS
 62
     7
100
AcDbCircle
 10
1161.540725756929
 20
2417.879521140303
 30
0.0
 40
12.75000000000001
100
AcDbArc
 50
108.2838899404037
 51
71.71611005959635
  0
LINE
  5
568
330
1F
100
AcDbEntity
  8
LAY-10
  6
CONTINUOUS
 62
     7
100
AcDbLine
 10
1168.040725756929
 20
2417.879521140303
 30
0.0
 11
1161.540725756929
 21
2421.879521140303
 31
0.0
  0
LINE
  5
569
330
1F
100
AcDbEntity
  8
LAY-10
  6
CONTINUOUS
 62
     7
100
AcDbLine
 10
1161.540725756929
 20
2421.879521140303
 30
0.0
 11
1155.040725756928
 21
2417.879521140303
 31
0.0
  0
LINE
  5
56A
330
1F
100
AcDbEntity
  8
LAY-10
  6
CONTINUOUS
 62
     7
100
AcDbLine
 10
1155.040725756928
 20
2417.879521140303
 30
0.0
 11
1161.540725756929
 21
2413.879521140303
 31
0.0
  0
LINE
  5
56B
330
1F
100
AcDbEntity
  8
LAY-10
  6
CONTINUOUS
 62
     7
100
AcDbLine
 10
1161.540725756929
 20
2413.879521140303
 30
0.0
 11
1168.040725756929
 21
2417.879521140303
 31
0.0
  0
CIRCLE
  5
56C
330
1F
100
AcDbEntity
  8
LAY-10
  6
CONTINUOUS
 62
     7
100
AcDbCircle
 10
1161.54072575688
 20
2417.879521140305
 30
0.0
 40
13.0
  0
LINE
  5
56D
330
1F
100
AcDbEntity
  8
LAY-10
  6
CONTINUOUS
 62
     7
100
AcDbLine
 10
1519.540725756878
 20
2428.379521140303
 30
0.0
 11
1519.540725756878
 21
2429.985821153107
 31
0.0
  0
LINE
  5
56E
330
1F
100
AcDbEntity
  8
LAY-10
  6
CONTINUOUS
 62
     7
100
AcDbLine
 10
1511.54072575688
 20
2428.379521140303
 30
0.0
 11
1511.54072575688
 21
2429.985821153107
 31
0.0
  0
LINE
  5
56F
330
1F
100
AcDbEntity
  8
LAY-10
  6
CONTINUOUS
 62
     7
100
AcDbLine
 10
1511.54072575688
 20
2428.379521140303
 30
0.0
 11
1519.540725756878
 21
2428.379521140303
 31
0.0
  0
ARC
  5
570
330
1F
100
AcDbEntity
  8
LAY-10
  6
CONTINUOUS
 62
     7
100
AcDbCircle
 10
1515.540725756879
 20
2417.879521140303
 30
0.0
 40
12.75000000000001
100
AcDbArc
 50
108.2838899404038
 51
71.71611005959727
  0
LINE
  5
571
330
1F
100
AcDbEntity
  8
LAY-10
  6
CONTINUOUS
 62
     7
100
AcDbLine
 10
1522.040725756879
 20
2417.879521140303
 30
0.0
 11
1515.540725756879
 21
2421.879521140303
 31
0.0
  0
LINE
  5
572
330
1F
100
AcDbEntity
  8
LAY-10
  6
CONTINUOUS
 62
     7
100
AcDbLine
 10
1515.540725756879
 20
2421.879521140303
 30
0.0
 11
1509.040725756879
 21
2417.879521140303
 31
0.0
  0
LINE
  5
573
330
1F
100
AcDbEntity
  8
LAY-10
  6
CONTINUOUS
 62
     7
100
AcDbLine
 10
1509.040725756879
 20
2417.879521140303
 30
0.0
 11
1515.540725756879
 21
2413.879521140303
 31
0.0
  0
LINE
  5
574
330
1F
100
AcDbEntity
  8
LAY-10
  6
CONTINUOUS
 62
     7
100
AcDbLine
 10
1515.540725756879
 20
2413.879521140303
 30
0.0
 11
1522.040725756879
 21
2417.879521140303
 31
0.0
  0
CIRCLE
  5
575
330
1F
100
AcDbEntity
  8
LAY-10
  6
CONTINUOUS
 62
     7
100
AcDbCircle
 10
1515.540725756829
 20
2417.879521140306
 30
0.0
 40
13.0
  0
LINE
  5
576
330
1F
100
AcDbEntity
  8
LAY-10
  6
CONTINUOUS
 62
     7
100
AcDbLine
 10
1583.540725756878
 20
2428.379521140303
 30
0.0
 11
1583.540725756878
 21
2429.985821153107
 31
0.0
  0
LINE
  5
577
330
1F
100
AcDbEntity
  8
LAY-10
  6
CONTINUOUS
 62
     7
100
AcDbLine
 10
1575.54072575688
 20
2428.379521140303
 30
0.0
 11
1575.54072575688
 21
2429.985821153107
 31
0.0
  0
LINE
  5
578
330
1F
100
AcDbEntity
  8
LAY-10
  6
CONTINUOUS
 62
     7
100
AcDbLine
 10
1575.54072575688
 20
2428.379521140303
 30
0.0
 11
1583.540725756878
 21
2428.379521140303
 31
0.0
  0
ARC
  5
579
330
1F
100
AcDbEntity
  8
LAY-10
  6
CONTINUOUS
 62
     7
100
AcDbCircle
 10
1579.540725756879
 20
2417.879521140303
 30
0.0
 40
12.75000000000001
100
AcDbArc
 50
108.2838899404044
 51
71.71611005959663
  0
LINE
  5
57A
330
1F
100
AcDbEntity
  8
LAY-10
  6
CONTINUOUS
 62
     7
100
AcDbLine
 10
1586.040725756879
 20
2417.879521140303
 30
0.0
 11
1579.540725756879
 21
2421.879521140303
 31
0.0
  0
LINE
  5
57B
330
1F
100
AcDbEntity
  8
LAY-10
  6
CONTINUOUS
 62
     7
100
AcDbLine
 10
1579.540725756879
 20
2421.879521140303
 30
0.0
 11
1573.040725756879
 21
2417.879521140303
 31
0.0
  0
LINE
  5
57C
330
1F
100
AcDbEntity
  8
LAY-10
  6
CONTINUOUS
 62
     7
100
AcDbLine
 10
1573.040725756879
 20
2417.879521140303
 30
0.0
 11
1579.540725756879
 21
2413.879521140303
 31
0.0
  0
LINE
  5
57D
330
1F
100
AcDbEntity
  8
LAY-10
  6
CONTINUOUS
 62
     7
100
AcDbLine
 10
1579.540725756879
 20
2413.879521140303
 30
0.0
 11
1586.040725756879
 21
2417.879521140303
 31
0.0
  0
CIRCLE
  5
57E
330
1F
100
AcDbEntity
  8
LAY-10
  6
CONTINUOUS
 62
     7
100
AcDbCircle
 10
1579.54072575683
 20
2417.879521140306
 30
0.0
 40
13.0
  0
LINE
  5
57F
330
1F
100
AcDbEntity
  8
LAY-10
  6
CONTINUOUS
 62
     7
100
AcDbLine
 10
1937.540725756898
 20
2428.379521140304
 30
0.0
 11
1937.540725756898
 21
2429.985821153107
 31
0.0
  0
LINE
  5
580
330
1F
100
AcDbEntity
  8
LAY-10
  6
CONTINUOUS
 62
     7
100
AcDbLine
 10
1929.5407257569
 20
2428.379521140304
 30
0.0
 11
1929.5407257569
 21
2429.985821153107
 31
0.0
  0
LINE
  5
581
330
1F
100
AcDbEntity
  8
LAY-10
  6
CONTINUOUS
 62
     7
100
AcDbLine
 10
1929.5407257569
 20
2428.379521140304
 30
0.0
 11
1937.540725756898
 21
2428.379521140304
 31
0.0
  0
ARC
  5
582
330
1F
100
AcDbEntity
  8
LAY-10
  6
CONTINUOUS
 62
     7
100
AcDbCircle
 10
1933.540725756899
 20
2417.879521140303
 30
0.0
 40
12.75000000000001
100
AcDbArc
 50
108.2838899404028
 51
71.71611005959727
  0
LINE
  5
583
330
1F
100
AcDbEntity
  8
LAY-10
  6
CONTINUOUS
 62
     7
100
AcDbLine
 10
1940.040725756899
 20
2417.879521140303
 30
0.0
 11
1933.540725756899
 21
2421.879521140303
 31
0.0
  0
LINE
  5
584
330
1F
100
AcDbEntity
  8
LAY-10
  6
CONTINUOUS
 62
     7
100
AcDbLine
 10
1933.540725756899
 20
2421.879521140303
 30
0.0
 11
1927.040725756899
 21
2417.879521140303
 31
0.0
  0
LINE
  5
585
330
1F
100
AcDbEntity
  8
LAY-10
  6
CONTINUOUS
 62
     7
100
AcDbLine
 10
1927.040725756899
 20
2417.879521140303
 30
0.0
 11
1933.540725756899
 21
2413.879521140303
 31
0.0
  0
LINE
  5
586
330
1F
100
AcDbEntity
  8
LAY-10
  6
CONTINUOUS
 62
     7
100
AcDbLine
 10
1933.540725756899
 20
2413.879521140303
 30
0.0
 11
1940.040725756899
 21
2417.879521140303
 31
0.0
  0
CIRCLE
  5
587
330
1F
100
AcDbEntity
  8
LAY-10
  6
CONTINUOUS
 62
     7
100
AcDbCircle
 10
1933.54072575685
 20
2417.879521140306
 30
0.0
 40
13.0
  0
LINE
  5
588
330
1F
100
AcDbEntity
  8
LAY-10
  6
CENTER
 62
     2
100
AcDbLine
 10
237.2407257566474
 20
1913.879521140253
 30
0.0
 11
2022.340725756748
 21
1913.879521140253
 31
0.0
  0
LINE
  5
589
330
1F
100
AcDbEntity
  8
LAY-10
  6
CENTER
 62
     2
100
AcDbLine
 10
307.0157257569781
 20
1409.879521140204
 30
0.0
 11
344.5157257569781
 21
1409.879521140204
 31
0.0
  0
LINE
  5
58A
330
1F
100
AcDbEntity
  8
LAY-10
  6
CENTER
 62
     2
100
AcDbLine
 10
325.5407257569777
 20
1391.279521140204
 30
0.0
 11
325.5407257569777
 21
1430.179521140204
 31
0.0
  0
LINE
  5
58B
330
1F
100
AcDbEntity
  8
LAY-10
  6
CENTER
 62
     2
100
AcDbLine
 10
661.0157257569781
 20
1409.879521140204
 30
0.0
 11
698.5157257569781
 21
1409.879521140204
 31
0.0
  0
LINE
  5
58C
330
1F
100
AcDbEntity
  8
LAY-10
  6
CENTER
 62
     2
100
AcDbLine
 10
679.5407257569777
 20
1391.279521140204
 30
0.0
 11
679.5407257569777
 21
1430.179521140204
 31
0.0
  0
LINE
  5
58D
330
1F
100
AcDbEntity
  8
LAY-10
  6
CENTER
 62
     2
100
AcDbLine
 10
1079.015725756979
 20
1409.879521140204
 30
0.0
 11
1116.515725756979
 21
1409.879521140204
 31
0.0
  0
LINE
  5
58E
330
1F
100
AcDbEntity
  8
LAY-10
  6
CENTER
 62
     2
100
AcDbLine
 10
1097.540725756978
 20
1391.279521140204
 30
0.0
 11
1097.540725756978
 21
1430.179521140204
 31
0.0
  0
LINE
  5
58F
330
1F
100
AcDbEntity
  8
LAY-10
  6
CENTER
 62
     2
100
AcDbLine
 10
725.015725756978
 20
1409.879521140204
 30
0.0
 11
762.515725756978
 21
1409.879521140204
 31
0.0
  0
LINE
  5
590
330
1F
100
AcDbEntity
  8
LAY-10
  6
CENTER
 62
     2
100
AcDbLine
 10
743.5407257569776
 20
1391.279521140204
 30
0.0
 11
743.5407257569776
 21
1430.179521140204
 31
0.0
  0
LINE
  5
591
330
1F
100
AcDbEntity
  8
LAY-10
  6
CENTER
 62
     2
100
AcDbLine
 10
278.5350968249213
 20
2163.879521140276
 30
0.0
 11
236.735096824922
 21
2163.879521140277
 31
0.0
  0
LINE
  5
592
330
1F
100
AcDbEntity
  8
LAY-10
  6
CENTER
 62
     2
100
AcDbLine
 10
278.5350968249177
 20
1663.879521140315
 30
0.0
 11
242.035096824965
 21
1663.879521140315
 31
0.0
  0
LINE
  5
593
330
1F
100
AcDbEntity
  8
LAY-10
  6
CENTER
 62
     2
100
AcDbLine
 10
1980.540725756789
 20
2163.879521140273
 30
0.0
 11
2022.340725756788
 21
2163.879521140273
 31
0.0
  0
LINE
  5
594
330
1F
100
AcDbEntity
  8
LAY-10
  6
CENTER
 62
     2
100
AcDbLine
 10
1980.54072575679
 20
1663.879521140311
 30
0.0
 11
2017.040725756743
 21
1663.879521140312
 31
0.0
  0
LINE
  5
595
330
1F
100
AcDbEntity
  8
LAY-10
  6
CENTER
 62
     2
100
AcDbLine
 10
307.0157257569776
 20
2417.879521140301
 30
0.0
 11
344.5157257569776
 21
2417.879521140301
 31
0.0
  0
LINE
  5
596
330
1F
100
AcDbEntity
  8
LAY-10
  6
CENTER
 62
     2
100
AcDbLine
 10
325.5407257569772
 20
2436.479521140301
 30
0.0
 11
325.5407257569773
 21
2397.579521140301
 31
0.0
  0
LINE
  5
597
330
1F
100
AcDbEntity
  8
LAY-10
  6
CENTER
 62
     2
100
AcDbLine
 10
661.0157257569776
 20
2417.879521140302
 30
0.0
 11
698.5157257569776
 21
2417.879521140302
 31
0.0
  0
LINE
  5
598
330
1F
100
AcDbEntity
  8
LAY-10
  6
CENTER
 62
     2
100
AcDbLine
 10
679.5407257569773
 20
2436.479521140301
 30
0.0
 11
679.5407257569773
 21
2397.579521140301
 31
0.0
  0
LINE
  5
599
330
1F
100
AcDbEntity
  8
LAY-10
  6
CENTER
 62
     2
100
AcDbLine
 10
1079.015725756978
 20
2417.879521140302
 30
0.0
 11
1116.515725756978
 21
2417.879521140302
 31
0.0
  0
LINE
  5
59A
330
1F
100
AcDbEntity
  8
LAY-10
  6
CENTER
 62
     2
100
AcDbLine
 10
1097.540725756978
 20
2436.479521140302
 30
0.0
 11
1097.540725756978
 21
2397.579521140302
 31
0.0
  0
LINE
  5
59B
330
1F
100
AcDbEntity
  8
LAY-10
  6
CENTER
 62
     2
100
AcDbLine
 10
725.0157257569776
 20
2417.879521140302
 30
0.0
 11
762.5157257569776
 21
2417.879521140302
 31
0.0
  0
LINE
  5
59C
330
1F
100
AcDbEntity
  8
LAY-10
  6
CENTER
 62
     2
100
AcDbLine
 10
743.5407257569773
 20
2436.479521140301
 30
0.0
 11
743.5407257569773
 21
2397.579521140301
 31
0.0
  0
LINE
  5
59D
330
1F
100
AcDbEntity
  8
LAY-10
  6
CENTER
 62
     2
100
AcDbLine
 10
1129.540725757047
 20
979.8447014858002
 30
0.0
 11
1129.540725757047
 21
814.0
 31
0.0
  0
LINE
  5
59E
330
1F
100
AcDbEntity
  8
LAY-10
  6
CENTER
 62
     2
100
AcDbLine
 10
2360.854577957652
 20
1913.879521140253
 30
0.0
 11
2538.7
 21
1913.879521140253
 31
0.0
  0
LINE
  5
59F
330
1F
100
AcDbEntity
  8
LAY-10
  6
CENTER
 62
     2
100
AcDbLine
 10
1129.540725756955
 20
2501.3795211401
 30
0.0
 11
1129.540725756954
 21
1321.079521140198
 31
0.0
  0
LINE
  5
5A0
330
1F
100
AcDbEntity
  8
LAY-10
  6
CENTER
 62
     2
100
AcDbLine
 10
379.5407257569584
 20
2464.879521140148
 30
0.0
 11
379.5407257569584
 21
2501.3795211401
 31
0.0
  0
LINE
  5
5A1
330
1F
100
AcDbEntity
  8
LAY-10
  6
CENTER
 62
     2
100
AcDbLine
 10
879.5407257569583
 20
2464.879521140148
 30
0.0
 11
879.5407257569583
 21
2501.3795211401
 31
0.0
  0
LINE
  5
5A2
330
1F
100
AcDbEntity
  8
LAY-10
  6
CENTER
 62
     2
100
AcDbLine
 10
1879.540725756952
 20
2464.879521140145
 30
0.0
 11
1879.540725756952
 21
2501.379521140097
 31
0.0
  0
LINE
  5
5A3
330
1F
100
AcDbEntity
  8
LAY-10
  6
CENTER
 62
     2
100
AcDbLine
 10
1379.540725756952
 20
2464.879521140147
 30
0.0
 11
1379.540725756953
 21
2501.379521140099
 31
0.0
  0
LINE
  5
5A4
330
1F
100
AcDbEntity
  8
LAY-10
  6
CENTER
 62
     2
100
AcDbLine
 10
379.5407257569589
 20
1362.879521140358
 30
0.0
 11
379.5407257569589
 21
1326.379521140405
 31
0.0
  0
LINE
  5
5A5
330
1F
100
AcDbEntity
  8
LAY-10
  6
CENTER
 62
     2
100
AcDbLine
 10
879.5407257569589
 20
1362.879521140358
 30
0.0
 11
879.5407257569589
 21
1326.379521140406
 31
0.0
  0
LINE
  5
5A6
330
1F
100
AcDbEntity
  8
LAY-10
  6
CENTER
 62
     2
100
AcDbLine
 10
1879.540725756953
 20
1362.879521140362
 30
0.0
 11
1879.540725756953
 21
1326.379521140409
 31
0.0
  0
LINE
  5
5A7
330
1F
100
AcDbEntity
  8
LAY-10
  6
CENTER
 62
     2
100
AcDbLine
 10
1379.540725756953
 20
1362.879521140359
 30
0.0
 11
1379.540725756953
 21
1326.379521140407
 31
0.0
  0
LINE
  5
5A8
330
1F
100
AcDbEntity
  8
LAY-10
  6
CENTER
 62
     2
100
AcDbLine
 10
1143.015725756878
 20
1409.879521140204
 30
0.0
 11
1180.515725756878
 21
1409.879521140204
 31
0.0
  0
LINE
  5
5A9
330
1F
100
AcDbEntity
  8
LAY-10
  6
CENTER
 62
     2
100
AcDbLine
 10
1161.540725756878
 20
1391.279521140204
 30
0.0
 11
1161.540725756878
 21
1430.179521140204
 31
0.0
  0
LINE
  5
5AA
330
1F
100
AcDbEntity
  8
LAY-10
  6
CENTER
 62
     2
100
AcDbLine
 10
1497.015725756878
 20
1409.879521140204
 30
0.0
 11
1534.515725756878
 21
1409.879521140204
 31
0.0
  0
LINE
  5
5AB
330
1F
100
AcDbEntity
  8
LAY-10
  6
CENTER
 62
     2
100
AcDbLine
 10
1515.540725756878
 20
1391.279521140204
 30
0.0
 11
1515.540725756878
 21
1430.179521140204
 31
0.0
  0
LINE
  5
5AC
330
1F
100
AcDbEntity
  8
LAY-10
  6
CENTER
 62
     2
100
AcDbLine
 10
1915.015725756879
 20
1409.879521140204
 30
0.0
 11
1952.515725756879
 21
1409.879521140204
 31
0.0
  0
LINE
  5
5AD
330
1F
100
AcDbEntity
  8
LAY-10
  6
CENTER
 62
     2
100
AcDbLine
 10
1933.540725756878
 20
1391.279521140204
 30
0.0
 11
1933.540725756878
 21
1430.179521140204
 31
0.0
  0
LINE
  5
5AE
330
1F
100
AcDbEntity
  8
LAY-10
  6
CENTER
 62
     2
100
AcDbLine
 10
1561.015725756878
 20
1409.879521140204
 30
0.0
 11
1598.515725756878
 21
1409.879521140204
 31
0.0
  0
LINE
  5
5AF
330
1F
100
AcDbEntity
  8
LAY-10
  6
CENTER
 62
     2
100
AcDbLine
 10
1579.540725756878
 20
1391.279521140204
 30
0.0
 11
1579.540725756878
 21
1430.179521140204
 31
0.0
  0
LINE
  5
5B0
330
1F
100
AcDbEntity
  8
LAY-10
  6
CENTER
 62
     2
100
AcDbLine
 10
1143.015725756878
 20
2417.879521140301
 30
0.0
 11
1180.515725756878
 21
2417.879521140301
 31
0.0
  0
LINE
  5
5B1
330
1F
100
AcDbEntity
  8
LAY-10
  6
CENTER
 62
     2
100
AcDbLine
 10
1161.540725756877
 20
2436.479521140301
 30
0.0
 11
1161.540725756877
 21
2397.579521140301
 31
0.0
  0
LINE
  5
5B2
330
1F
100
AcDbEntity
  8
LAY-10
  6
CENTER
 62
     2
100
AcDbLine
 10
1497.015725756878
 20
2417.879521140302
 30
0.0
 11
1534.515725756878
 21
2417.879521140302
 31
0.0
  0
LINE
  5
5B3
330
1F
100
AcDbEntity
  8
LAY-10
  6
CENTER
 62
     2
100
AcDbLine
 10
1515.540725756877
 20
2436.479521140301
 30
0.0
 11
1515.540725756877
 21
2397.579521140301
 31
0.0
  0
LINE
  5
5B4
330
1F
100
AcDbEntity
  8
LAY-10
  6
CENTER
 62
     2
100
AcDbLine
 10
1915.015725756878
 20
2417.879521140302
 30
0.0
 11
1952.515725756878
 21
2417.879521140302
 31
0.0
  0
LINE
  5
5B5
330
1F
100
AcDbEntity
  8
LAY-10
  6
CENTER
 62
     2
100
AcDbLine
 10
1933.540725756878
 20
2436.479521140302
 30
0.0
 11
1933.540725756878
 21
2397.579521140302
 31
0.0
  0
LINE
  5
5B6
330
1F
100
AcDbEntity
  8
LAY-10
  6
CENTER
 62
     2
100
AcDbLine
 10
1561.015725756878
 20
2417.879521140302
 30
0.0
 11
1598.515725756878
 21
2417.879521140302
 31
0.0
  0
LINE
  5
5B7
330
1F
100
AcDbEntity
  8
LAY-10
  6
CENTER
 62
     2
100
AcDbLine
 10
1579.540725756877
 20
2436.479521140301
 30
0.0
 11
1579.540725756877
 21
2397.579521140301
 31
0.0
  0
LINE
  5
5B8
330
1F
100
AcDbEntity
  8
LAY-10
  6
CONTINUOUS
 62
     7
100
AcDbLine
 10
2525.153062767488
 20
1417.679521140153
 30
0.0
 11
2525.153062767488
 21
1463.879521140156
 31
0.0
  0
LINE
  5
5B9
330
1F
100
AcDbEntity
  8
LAY-10
  6
CONTINUOUS
 62
     7
100
AcDbLine
 10
2525.153062767488
 20
2363.879521140278
 30
0.0
 11
2525.153062767488
 21
2410.079521140283
 31
0.0
  0
DIMENSION
  5
5BB
330
1F
100
AcDbEntity
  8
LAY-20
  6
CONTINUOUS
 62
     4
100
AcDbDimension
  2
*D15
 10
2109.4392105668
 20
966.2636940246
 30
0.0
 11
2084.4392105668
 21
893.7636940245997
 31
0.0
 70
   160
  3
ISO-25
100
AcDbAlignedDimension
 13
1925.7407257571
 23
821.2636940246
 33
0.0
 14
1980.5407257569
 24
966.2636940246
 34
0.0
 50
90.0
100
AcDbRotatedDimension
1001
ACAD
1000
DSTYLE
1002
{
1070
   270
1070
     2
1070
     6
1000
EX_BNORM
1070
     7
1000
EX_BNORM
1070
    41
1040
25.0
1070
    42
1040
15.0
1070
    44
1040
15.0
1070
    73
1070
     0
1070
    74
1070
     0
1070
    75
1070
     0
1070
    76
1070
     0
1070
    77
1070
     1
1070
    78
1070
     8
1070
   140
1040
31.181104
1070
   147
1040
0.0
1070
   173
1070
     1
1070
   176
1070
     4
1070
   177
1070
     4
1070
   178
1070
     7
1070
   271
1070
     1
1070
   277
1070
     2
1070
   279
1070
     2
1070
   280
1070
     0
1070
   287
1070
     5
1070
   340
1005
5BA
1002
}
  0
DIMENSION
  5
5C9
330
1F
100
AcDbEntity
  8
LAY-20
  6
CONTINUOUS
 62
     4
100
AcDbDimension
  2
*D16
 10
1980.5407257569
 20
1136.2636940246
 30
0.0
 11
1129.54072575695
 21
1161.2636940246
 31
0.0
 70
   160
  3
ISO-25
100
AcDbAlignedDimension
 13
278.540725757
 23
966.2636940246
 33
0.0
 14
1980.5407257569
 24
966.2636940246
 34
0.0
100
AcDbRotatedDimension
1001
ACAD
1000
DSTYLE
1002
{
1070
   270
1070
     2
1070
     6
1000
EX_BNORM
1070
     7
1000
EX_BNORM
1070
    41
1040
25.0
1070
    42
1040
15.0
1070
    44
1040
15.0
1070
    73
1070
     0
1070
    74
1070
     0
1070
    75
1070
     0
1070
    76
1070
     0
1070
    77
1070
     1
1070
    78
1070
     8
1070
   140
1040
31.181104
1070
   147
1040
0.0
1070
   173
1070
     1
1070
   176
1070
     4
1070
   177
1070
     4
1070
   178
1070
     7
1070
   271
1070
     1
1070
   277
1070
     2
1070
   279
1070
     2
1070
   280
1070
     0
1070
   287
1070
     5
1070
   340
1005
5BA
1002
}
  0
DIMENSION
  5
5D6
330
1F
100
AcDbEntity
  8
LAY-20
  6
CONTINUOUS
 62
     4
100
AcDbDimension
  2
*D17
 10
710.540725757096
 20
1066.2636940246
 30
0.0
 11
502.5407257570598
 21
1091.2636940246
 31
0.0
 70
   160
  3
ISO-25
100
AcDbAlignedDimension
 13
294.5407257570237
 23
966.263694024603
 33
0.0
 14
710.540725757096
 24
966.2636940246051
 34
0.0
100
AcDbRotatedDimension
1001
ACAD
1000
DSTYLE
1002
{
1070
   270
1070
     2
1070
     6
1000
EX_BNORM
1070
     7
1000
EX_BNORM
1070
    41
1040
25.0
1070
    42
1040
15.0
1070
    44
1040
15.0
1070
    73
1070
     0
1070
    74
1070
     0
1070
    75
1070
     0
1070
    76
1070
     0
1070
    77
1070
     1
1070
    78
1070
     8
1070
   140
1040
31.181104
1070
   147
1040
0.0
1070
   173
1070
     1
1070
   176
1070
     4
1070
   177
1070
     4
1070
   178
1070
     7
1070
   271
1070
     1
1070
   277
1070
     2
1070
   279
1070
     2
1070
   280
1070
     0
1070
   287
1070
     5
1070
   340
1005
5BA
1002
}
  0
DIMENSION
  5
5E3
330
1F
100
AcDbEntity
  8
LAY-20
  6
CONTINUOUS
 62
     4
100
AcDbDimension
  2
*D18
 10
1879.540725757
 20
721.2636940246
 30
0.0
 11
1129.540725757
 21
746.2636940246
 31
0.0
 70
   160
  3
ISO-25
100
AcDbAlignedDimension
 13
379.540725757
 23
822.8636940246002
 33
0.0
 14
1879.540725757
 24
822.8636940246002
 34
0.0
100
AcDbRotatedDimension
1001
ACAD
1000
DSTYLE
1002
{
1070
   270
1070
     2
1070
     6
1000
EX_BNORM
1070
     7
1000
EX_BNORM
1070
    41
1040
25.0
1070
    42
1040
15.0
1070
    44
1040
15.0
1070
    73
1070
     0
1070
    74
1070
     0
1070
    75
1070
     0
1070
    76
1070
     0
1070
    77
1070
     1
1070
    78
1070
     8
1070
   140
1040
31.181104
1070
   147
1040
0.0
1070
   173
1070
     1
1070
   176
1070
     4
1070
   177
1070
     4
1070
   178
1070
     7
1070
   271
1070
     1
1070
   277
1070
     2
1070
   279
1070
     2
1070
   280
1070
     0
1070
   287
1070
     5
1070
   340
1005
5BA
1002
}
  0
DIMENSION
  5
5F0
330
1F
100
AcDbEntity
  8
LAY-20
  6
CONTINUOUS
 62
     4
100
AcDbDimension
  2
*D19
 10
2210.153062767501
 20
2464.8795211402
 30
0.0
 11
2185.153062767501
 21
1913.8795211402
 31
0.0
 70
   160
  3
ISO-25
100
AcDbAlignedDimension
 13
2380.15306276745
 23
1362.8795211402
 33
0.0
 14
2380.15306276749
 24
2464.8795211402
 34
0.0
 50
90.0
100
AcDbRotatedDimension
1001
ACAD
1000
DSTYLE
1002
{
1070
   270
1070
     2
1070
     6
1000
EX_BNORM
1070
     7
1000
EX_BNORM
1070
    41
1040
25.0
1070
    42
1040
15.0
1070
    44
1040
15.0
1070
    73
1070
     0
1070
    74
1070
     0
1070
    75
1070
     0
1070
    76
1070
     0
1070
    77
1070
     1
1070
    78
1070
     8
1070
   140
1040
31.181104
1070
   147
1040
0.0
1070
   173
1070
     1
1070
   176
1070
     4
1070
   177
1070
     4
1070
   178
1070
     7
1070
   271
1070
     1
1070
   277
1070
     2
1070
   279
1070
     2
1070
   280
1070
     0
1070
   287
1070
     5
1070
   340
1005
5BA
1002
}
  0
DIMENSION
  5
5FD
330
1F
100
AcDbEntity
  8
LAY-20
  6
CONTINUOUS
 62
     4
100
AcDbDimension
  2
*D20
 10
2280.153062767501
 20
2448.879521140216
 30
0.0
 11
2255.153062767501
 21
1913.879521140217
 31
0.0
 70
   160
  3
ISO-25
100
AcDbAlignedDimension
 13
2380.15306276749
 23
1378.879521140219
 33
0.0
 14
2380.15306276749
 24
2448.879521140216
 34
0.0
 50
90.0
100
AcDbRotatedDimension
1001
ACAD
1000
DSTYLE
1002
{
1070
   270
1070
     2
1070
     6
1000
EX_BNORM
1070
     7
1000
EX_BNORM
1070
    41
1040
25.0
1070
    42
1040
15.0
1070
    44
1040
15.0
1070
    73
1070
     0
1070
    74
1070
     0
1070
    75
1070
     0
1070
    76
1070
     0
1070
    77
1070
     1
1070
    78
1070
     8
1070
   140
1040
31.181104
1070
   147
1040
0.0
1070
   173
1070
     1
1070
   176
1070
     4
1070
   177
1070
     4
1070
   178
1070
     7
1070
   271
1070
     1
1070
   277
1070
     2
1070
   279
1070
     2
1070
   280
1070
     0
1070
   287
1070
     5
1070
   340
1005
5BA
1002
}
  0
DIMENSION
  5
60A
330
1F
100
AcDbEntity
  8
LAY-20
  6
CONTINUOUS
 62
     4
100
AcDbDimension
  2
*D21
 10
2625.1530627675
 20
1463.879521140199
 30
0.0
 11
2600.1530627675
 21
1913.879521140249
 31
0.0
 70
   160
  3
ISO-25
100
AcDbAlignedDimension
 13
2525.153062767491
 23
2363.879521140299
 33
0.0
 14
2525.153062767491
 24
1463.879521140199
 34
0.0
 50
90.0
100
AcDbRotatedDimension
1001
ACAD
1000
DSTYLE
1002
{
1070
   270
1070
     2
1070
     6
1000
EX_BNORM
1070
     7
1000
EX_BNORM
1070
    41
1040
25.0
1070
    42
1040
15.0
1070
    44
1040
15.0
1070
    73
1070
     0
1070
    74
1070
     0
1070
    75
1070
     0
1070
    76
1070
     0
1070
    77
1070
     1
1070
    78
1070
     8
1070
   140
1040
31.181104
1070
   147
1040
0.0
1070
   173
1070
     1
1070
   176
1070
     4
1070
   177
1070
     4
1070
   178
1070
     7
1070
   271
1070
     1
1070
   277
1070
     2
1070
   279
1070
     2
1070
   280
1070
     0
1070
   287
1070
     5
1070
   340
1005
5BA
1002
}
  0
DIMENSION
  5
617
330
1F
100
AcDbEntity
  8
LAY-20
  6
CONTINUOUS
 62
     4
100
AcDbDimension
  2
*D22
 10
940.5407257570602
 20
966.2636940246
 30
0.0
 11
915.5407257570603
 21
1026.2636940246
 31
0.0
 70
   160
  3
ISO-25
100
AcDbAlignedDimension
 13
840.54072575707
 23
931.2636940246
 33
0.0
 14
940.5407257570602
 24
966.2636940246
 34
0.0
 50
90.0
100
AcDbRotatedDimension
1001
ACAD
1000
DSTYLE
1002
{
1070
   270
1070
     2
1070
     6
1000
EX_BNORM
1070
     7
1000
EX_BNORM
1070
    41
1040
25.0
1070
    42
1040
15.0
1070
    44
1040
15.0
1070
    73
1070
     0
1070
    74
1070
     0
1070
    75
1070
     0
1070
    76
1070
     1
1070
    77
1070
     1
1070
    78
1070
     8
1070
   140
1040
31.181104
1070
   147
1040
0.0
1070
   173
1070
     1
1070
   176
1070
     4
1070
   177
1070
     4
1070
   178
1070
     7
1070
   271
1070
     1
1070
   277
1070
     2
1070
   279
1070
     2
1070
   280
1070
     2
1070
   287
1070
     5
1070
   340
1005
5BA
1002
}
  0
DIMENSION
  5
625
330
1F
100
AcDbEntity
  8
LAY-20
  6
CONTINUOUS
 62
     4
100
AcDbDimension
  2
*D23
 10
287.34072575702
 20
651.2636940246
 30
0.0
 11
1129.54072575696
 21
676.2636940246
 31
0.0
 70
   160
  3
ISO-25
100
AcDbAlignedDimension
 13
1971.7407257569
 23
918.8636940246
 33
0.0
 14
287.34072575702
 24
918.8636940246
 34
0.0
100
AcDbRotatedDimension
1001
ACAD
1000
DSTYLE
1002
{
1070
   270
1070
     2
1070
     6
1000
EX_BNORM
1070
     7
1000
EX_BNORM
1070
    41
1040
25.0
1070
    42
1040
15.0
1070
    44
1040
15.0
1070
    73
1070
     0
1070
    74
1070
     0
1070
    75
1070
     0
1070
    76
1070
     0
1070
    77
1070
     1
1070
    78
1070
     0
1070
   140
1040
31.181104
1070
   147
1040
0.0
1070
   173
1070
     1
1070
   176
1070
     4
1070
   177
1070
     4
1070
   178
1070
     7
1070
   271
1070
     0
1070
   277
1070
     2
1070
   279
1070
     2
1070
   280
1070
     0
1070
   287
1070
     5
1070
   340
1005
5BA
1002
}
  0
DIMENSION
  5
632
330
1F
100
AcDbEntity
  8
LAY-20
  6
CONTINUOUS
 62
     4
100
AcDbDimension
  2
*D24
 10
2695.1530627675
 20
1371.6795211402
 30
0.0
 11
2670.1530627675
 21
1913.87952114015
 31
0.0
 70
   160
  3
ISO-25
100
AcDbAlignedDimension
 13
2427.5530627675
 23
2456.0795211401
 33
0.0
 14
2427.5530627675
 24
1371.6795211402
 34
0.0
 50
90.0
100
AcDbRotatedDimension
1001
ACAD
1000
DSTYLE
1002
{
1070
   270
1070
     2
1070
     6
1000
EX_BNORM
1070
     7
1000
EX_BNORM
1070
    41
1040
25.0
1070
    42
1040
15.0
1070
    44
1040
15.0
1070
    73
1070
     0
1070
    74
1070
     0
1070
    75
1070
     0
1070
    76
1070
     0
1070
    77
1070
     1
1070
    78
1070
     0
1070
   140
1040
31.181104
1070
   147
1040
0.0
1070
   173
1070
     1
1070
   176
1070
     4
1070
   177
1070
     4
1070
   178
1070
     7
1070
   271
1070
     0
1070
   277
1070
     2
1070
   279
1070
     2
1070
   280
1070
     0
1070
   287
1070
     5
1070
   340
1005
5BA
1002
}
  0
LINE
  5
63F
330
1F
100
AcDbEntity
  8
LAY-255
  6
CONTINUOUS
 62
     7
100
AcDbLine
 10
3850.0
 20
219.9999999999999
 30
0.0
 11
2850.0
 21
219.9999999999999
 31
0.0
  0
LINE
  5
640
330
1F
100
AcDbEntity
  8
LAY-255
  6
CONTINUOUS
 62
     7
100
AcDbLine
 10
2888.0
 20
160.0
 30
0.0
 11
2968.0
 21
210.0
 31
0.0
  0
LINE
  5
641
330
1F
100
AcDbEntity
  8
LAY-255
  6
CONTINUOUS
 62
     7
100
AcDbLine
 10
2968.0
 20
210.0
 30
0.0
 11
3048.0
 21
160.0
 31
0.0
  0
LINE
  5
642
330
1F
100
AcDbEntity
  8
LAY-255
  6
CONTINUOUS
 62
     7
100
AcDbLine
 10
3048.0
 20
160.0
 30
0.0
 11
2968.0
 21
110.0
 31
0.0
  0
LINE
  5
643
330
1F
100
AcDbEntity
  8
LAY-255
  6
CONTINUOUS
 62
     7
100
AcDbLine
 10
2968.0
 20
110.0
 30
0.0
 11
2888.0
 21
160.0
 31
0.0
  0
LINE
  5
644
330
1F
100
AcDbEntity
  8
LAY-255
  6
CONTINUOUS
 62
     7
100
AcDbLine
 10
50.0
 20
100.0
 30
0.0
 11
3850.0
 21
100.0
 31
0.0
  0
LINE
  5
645
330
1F
100
AcDbEntity
  8
LAY-255
  6
CONTINUOUS
 62
     7
100
AcDbLine
 10
50.0
 20
2800.0
 30
0.0
 11
3850.0
 21
2800.0
 31
0.0
  0
LINE
  5
646
330
1F
100
AcDbEntity
  8
LAY-255
  6
CONTINUOUS
 62
     7
100
AcDbLine
 10
50.0
 20
100.0
 30
0.0
 11
50.0
 21
2800.0
 31
0.0
  0
LINE
  5
647
330
1F
100
AcDbEntity
  8
LAY-255
  6
CONTINUOUS
 62
     7
100
AcDbLine
 10
3850.0
 20
100.0
 30
0.0
 11
3850.0
 21
2800.0
 31
0.0
  0
LINE
  5
648
330
1F
100
AcDbEntity
  8
LAY-255
  6
CONTINUOUS
 62
     4
100
AcDbLine
 10
2850.0
 20
279.9999999999999
 30
0.0
 11
3850.0
 21
279.9999999999999
 31
0.0
  0
LINE
  5
649
330
1F
100
AcDbEntity
  8
LAY-255
  6
CONTINUOUS
 62
     7
100
AcDbLine
 10
2850.0
 20
100.0
 30
0.0
 11
2850.0
 21
670.0
 31
0.0
  0
POINT
  5
64A
330
1F
100
AcDbEntity
  8
LAY-255
  6
CONTINUOUS
 62
     7
100
AcDbPoint
 10
2890.0
 20
399.9999999999999
 30
0.0
  0
LINE
  5
64B
330
1F
100
AcDbEntity
  8
LAY-255
  6
CONTINUOUS
 62
     4
100
AcDbLine
 10
3350.0
 20
279.9999999999999
 30
0.0
 11
3350.0
 21
220.0
 31
0.0
  0
LINE
  5
64C
330
1F
100
AcDbEntity
  8
LAY-255
  6
CONTINUOUS
 62
     7
100
AcDbLine
 10
3850.0
 20
670.0
 30
0.0
 11
2850.0
 21
670.0
 31
0.0
  0
LINE
  5
64D
330
1F
100
AcDbEntity
  8
LAY-255
  6
CONTINUOUS
 62
     4
100
AcDbLine
 10
3830.0
 20
549.9999999999999
 30
0.0
 11
2870.0
 21
549.9999999999999
 31
0.0
  0
LINE
  5
64E
330
1F
100
AcDbEntity
  8
LAY-255
  6
CONTINUOUS
 62
     4
100
AcDbLine
 10
3830.0
 20
610.0
 30
0.0
 11
2870.0
 21
610.0
 31
0.0
  0
POINT
  5
64F
330
1F
100
AcDbEntity
  8
LAY-255
  6
CONTINUOUS
 62
     7
100
AcDbPoint
 10
2890.0
 20
499.9999999999999
 30
0.0
  0
POINT
  5
650
330
1F
100
AcDbEntity
  8
LAY-255
  6
CONTINUOUS
 62
     7
100
AcDbPoint
 10
3000.0
 20
559.9999999999999
 30
0.0
  0
POINT
  5
651
330
1F
100
AcDbEntity
  8
LAY-255
  6
CONTINUOUS
 62
     7
100
AcDbPoint
 10
3000.0
 20
620.0
 30
0.0
  0
POINT
  5
652
330
1F
100
AcDbEntity
  8
LAY-255
  6
CONTINUOUS
 62
     7
100
AcDbPoint
 10
2890.0
 20
449.9999999999999
 30
0.0
  0
POINT
  5
653
330
1F
100
AcDbEntity
  8
LAY-255
  6
CONTINUOUS
 62
     7
100
AcDbPoint
 10
2890.0
 20
299.9999999999998
 30
0.0
  0
POINT
  5
654
330
1F
100
AcDbEntity
  8
LAY-255
  6
CONTINUOUS
 62
     7
100
AcDbPoint
 10
2890.0
 20
349.9999999999999
 30
0.0
  0
TEXT
  5
655
330
1F
100
AcDbEntity
  8
LAY-255
  6
CONTINUOUS
 62
     7
100
AcDbText
 10
3081.3837890625
 20
155.4375
 30
0.0
 40
51.5625
  1
福西鋳物株式会社
 41
1.342691999659091
  7
EXCADSTD
100
AcDbText
  0
TEXT
  5
656
330
1F
100
AcDbEntity
  8
LAY-255
  6
CONTINUOUS
 62
     7
100
AcDbText
 10
3085.09375
 20
119.8125
 30
0.0
 40
17.1875
  1
ＦＵＫＵＮＩＳＨＩ
 41
1.204799226045263
  7
EXCADSTD
100
AcDbText
  0
TEXT
  5
657
330
1F
100
AcDbEntity
  8
LAY-255
  6
CONTINUOUS
 62
     7
100
AcDbText
 10
3327.191964285714
 20
119.8125
 30
0.0
 40
17.1875
  1
ＦＯＵＮＤＲＹ
 41
1.243252752978497
  7
EXCADSTD
100
AcDbText
  0
TEXT
  5
658
330
1F
100
AcDbEntity
  8
LAY-255
  6
CONTINUOUS
 62
     7
100
AcDbText
 10
3519.945914381009
 20
119.8125
 30
0.0
 40
17.1875
  1
ＣＯ.,ＬＴＤ.
 41
1.243831036226633
  7
EXCADSTD
100
AcDbText
  0
TEXT
  5
659
330
1F
100
AcDbEntity
  8
LAY-255
  6
CONTINUOUS
 62
     7
100
AcDbText
 10
2940.34375
 20
137.1875
 30
0.0
 40
51.5625
  1
S
 41
0.7582677563636363
  7
EXCADSTD
100
AcDbText
  0
TEXT
  5
65A
330
1F
100
AcDbEntity
  8
LAY-255
  6
CONTINUOUS
 62
     7
100
AcDbText
 10
2971.046875
 20
137.4941037736
 30
0.0
 40
51.5625
  1
F
 41
0.7440945272727272
  7
EXCADSTD
100
AcDbText
  0
TEXT
  5
65B
330
1F
100
AcDbEntity
  8
LAY-255
  6
CONTINUOUS
 62
     7
100
AcDbText
 10
3371.0546875
 20
244.2187499999999
 30
0.0
 40
25.78125
  1
縮尺
 41
1.080708718181818
  7
EXCADSTD
100
AcDbText
  0
TEXT
  5
65C
330
1F
100
AcDbEntity
  8
LAY-255
  6
CONTINUOUS
 62
     7
100
AcDbText
 10
2872.65625
 20
565.6249999999999
 30
0.0
 40
34.375
  1
型式
 41
1.056348480681818
  7
EXCADSTD
100
AcDbText
  0
TEXT
  5
65D
330
1F
100
AcDbEntity
  8
LAY-255
  6
CONTINUOUS
 62
     7
100
AcDbText
 10
2874.21875
 20
625.625
 30
0.0
 40
34.375
  1
品名
 41
0.9788386340909091
  7
EXCADSTD
100
AcDbText
  0
TEXT
  5
65E
330
1F
100
AcDbEntity
  8
LAY-255
  6
CONTINUOUS
 62
     7
100
AcDbText
 10
2871.5234375
 20
244.2187499999999
 30
0.0
 40
25.78125
  1
作成日
 41
1.000629973818182
  7
EXCADSTD
100
AcDbText
  0
TEXT
  5
65F
330
1F
100
AcDbEntity
  8
LAY-255
  6
CONTINUOUS
 62
     7
100
AcDbText
 10
2891.40625
 20
505.6249999999999
 30
0.0
 40
34.375
  1
材質：スチール
 41
1.029301719225037
  7
EXCADSTD
100
AcDbText
  0
TEXT
  5
660
330
1F
100
AcDbEntity
  8
LAY-255
  6
CONTINUOUS
 62
     7
100
AcDbText
 10
3002.5
 20
625.625
 30
0.0
 40
34.375
  1
化粧用マシンハッチ
 41
1.014552031760644
  7
EXCADSTD
100
AcDbText
  0
TEXT
  5
661
330
1F
100
AcDbEntity
  8
LAY-255
  6
CONTINUOUS
 62
     7
100
AcDbText
 10
2892.03125
 20
355.6249999999999
 30
0.0
 40
34.375
  1
貼代：３５
 41
0.99542213615222
  7
EXCADSTD
100
AcDbText
  0
TEXT
  5
662
330
1F
100
AcDbEntity
  8
LAY-255
  6
CONTINUOUS
 62
     7
100
AcDbText
 10
2897.8125
 20
455.6249999999999
 30
0.0
 40
34.375
  1
目地：ステンレス鋼
 41
1.00154495443038
  7
EXCADSTD
100
AcDbText
  0
TEXT
  5
663
330
1F
100
AcDbEntity
  8
LAY-255
  6
CONTINUOUS
 62
     7
100
AcDbText
 10
3482.8125
 20
235.6249999999999
 30
0.0
 40
34.375
  1
１：１０
 41
0.9243863385026738
  7
EXCADSTD
100
AcDbText
  0
TEXT
  5
664
330
1F
100
AcDbEntity
  8
LAY-255
  6
CONTINUOUS
 62
     7
100
AcDbText
 10
2892.03125
 20
405.6249999999999
 30
0.0
 40
34.375
  1
適用荷重：歩行用
 41
1.015410627012987
  7
EXCADSTD
100
AcDbText
  0
TEXT
  5
665
330
1F
100
AcDbEntity
  8
LAY-255
  6
CONTINUOUS
 62
     7
100
AcDbText
 10
3007.5
 20
565.6249999999999
 30
0.0
 40
34.375
  1
ＳＦ－９０×１５０ＢＭ－１Ｆ型
 41
1.005180326315789
  7
EXCADSTD
100
AcDbText
  0
TEXT
  5
666
330
1F
100
AcDbEntity
  8
LAY-255
  6
CONTINUOUS
 62
     7
100
AcDbText
 10
2892.65625
 20
305.6249999999999
 30
0.0
 40
34.375
  1
耐火材中蓋付き
 41
1.014779968107303
  7
EXCADSTD
100
AcDbText
  0
TEXT
  5
667
330
1F
100
AcDbEntity
  8
LAY-255
  6
CONTINUOUS
 62
     7
100
AcDbText
 10
3009.84375
 20
235.6249999999999
 30
0.0
 40
34.375
  1
２０／０２／１０
 41
0.9769404337662339
  7
EXCADSTD
100
AcDbText
  0
ENDSEC
  0
SECTION
  2
OBJECTS
  0
DICTIONARY
  5
C
330
0
100
AcDbDictionary
  3
ACAD_GROUP
350
D
  3
ACAD_LAYOUT
350
1A
  3
ACAD_MATERIAL
350
43
  3
ACAD_MLEADERSTYLE
350
6B
  3
ACAD_MLINESTYLE
350
17
  3
ACAD_PLOTSETTINGS
350
19
  3
ACAD_SCALELIST
350
47
  3
ACAD_VISUALSTYLE
350
2A
  3
ACDBHEADERROUNDTRIPXREC
350
668
  3
ACDBVARIABLEDICTIONARY
350
689
  0
DICTIONARY
  5
694
330
8
100
AcDbDictionary
280
     1
  3
ACAD_XREC_ROUNDTRIP
360
695
  0
DICTIONARY
  5
D
102
{ACAD_REACTORS
330
C
102
}
330
C
100
AcDbDictionary
  0
DICTIONARY
  5
1A
102
{ACAD_REACTORS
330
C
102
}
330
C
100
AcDbDictionary
  0
DICTIONARY
  5
43
102
{ACAD_REACTORS
330
C
102
}
330
C
100
AcDbDictionary
  3
BYBLOCK
350
45
  3
BYLAYER
350
44
  3
GLOBAL
350
46
  0
DICTIONARY
  5
6B
102
{ACAD_REACTORS
330
C
102
}
330
C
100
AcDbDictionary
  3
STANDARD
350
6C
  0
DICTIONARY
  5
17
102
{ACAD_REACTORS
330
C
102
}
330
C
100
AcDbDictionary
  3
STANDARD
350
18
  0
DICTIONARY
  5
19
102
{ACAD_REACTORS
330
C
102
}
330
C
100
AcDbDictionary
  0
DICTIONARY
  5
47
102
{ACAD_REACTORS
330
C
102
}
330
C
100
AcDbDictionary
  3
A0
350
48
  3
A1
350
49
  3
A2
350
4A
  3
A3
350
4B
  3
A4
350
4C
  3
A5
350
4D
  3
A6
350
4E
  3
A7
350
4F
  3
A8
350
50
  3
A9
350
51
  3
B0
350
52
  3
B1
350
53
  3
B2
350
54
  3
B3
350
55
  3
B4
350
56
  3
B5
350
57
  3
B6
350
58
  3
B7
350
59
  3
B8
350
5A
  3
B9
350
5B
  3
C0
350
5C
  3
C1
350
5D
  3
C2
350
5E
  3
C3
350
5F
  3
C4
350
60
  3
C5
350
61
  3
C6
350
62
  3
C7
350
63
  3
C8
350
64
  3
C9
350
65
  3
D0
350
66
  3
D1
350
67
  3
D2
350
68
  0
DICTIONARY
  5
2A
102
{ACAD_REACTORS
330
C
102
}
330
C
100
AcDbDictionary
  3
2DWIREFRAME
350
2F
  3
BASIC
350
32
  3
BRIGHTEN
350
36
  3
COLORCHANGE
350
3A
  3
CONCEPTUAL
350
34
  3
DIM
350
35
  3
EDGECOLOROFF
350
3D
  3
FACEPATTERN
350
39
  3
FLAT
350
2B
  3
FLATWITHEDGES
350
2C
  3
GOURAUD
350
2D
  3
GOURAUDWITHEDGES
350
2E
  3
HIDDEN
350
31
  3
JITTEROFF
350
3B
  3
LINEPATTERN
350
38
  3
OVERHANGOFF
350
3C
  3
REALISTIC
350
33
  3
SHADED
350
42
  3
SHADED_WITH_EDGES
350
41
  3
SHADES_OF_GRAY
350
3E
  3
SKETCHY
350
3F
  3
THICKEN
350
37
  3
WIREFRAME
350
30
  3
X-RAY
350
40
  0
DICTIONARY
  5
668
102
{ACAD_REACTORS
330
C
102
}
330
C
100
AcDbDictionary
  3
CEPSNID
350
672
  3
CEPSNTYPE
350
671
  3
DIMSTYLEDATA
350
688
  3
FINGERPRINTGUID
350
673
  3
HYPERLINKBASE
350
66B
  3
INSUNITS
350
670
  3
LAYOUTDICT
350
66D
  3
LWETCUNION
350
66F
  3
PLOTSETDICT
350
66E
  3
PSVPSCALE
350
675
  3
PUCSBASE
350
678
  3
PUCSORGBACK
350
67E
  3
PUCSORGBOTTOM
350
67A
  3
PUCSORGFRONT
350
67D
  3
PUCSORGLEFT
350
67B
  3
PUCSORGRIGHT
350
67C
  3
PUCSORGTOP
350
679
  3
PUCSORTHOREF
350
676
  3
PUCSORTHOVIEW
350
677
  3
STYLESHEET
350
66C
  3
TSTACKALIGN
350
669
  3
TSTACKSIZE
350
66A
  3
UCSBASE
350
681
  3
UCSORGBACK
350
687
  3
UCSORGBOTTOM
350
683
  3
UCSORGFRONT
350
686
  3
UCSORGLEFT
350
684
  3
UCSORGRIGHT
350
685
  3
UCSORGTOP
350
682
  3
UCSORTHOREF
350
67F
  3
UCSORTHOVIEW
350
680
  3
VERSIONGUID
350
674
  0
DICTIONARY
  5
689
102
{ACAD_REACTORS
330
C
102
}
330
C
100
AcDbDictionary
  3
CANNOSCALE
350
696
  3
CENTEREXE
350
690
  3
CENTERLTYPEFILE
350
691
  3
CMLEADERSTYLE
350
68B
  3
CTABLESTYLE
350
68A
  3
DIMASSOC
350
692
  3
HIDETEXT
350
693
  3
MSLTSCALE
350
697
  3
PSOLHEIGHT
350
68D
  3
PSOLWIDTH
350
68C
  0
XRECORD
  5
695
102
{ACAD_REACTORS
330
694
102
}
330
694
100
AcDbXrecord
102
VTR_0.000_0.000_1.000_1.000_VISUALSTYLE
340
2F
102
VTR_0.000_0.000_1.000_1.000_GRIDDISPLAY
 70
     3
102
VTR_0.000_0.000_1.000_1.000_GRIDMAJOR
 70
     5
102
VTR_0.000_0.000_1.000_1.000_DEFAULTLIGHTING
280
     1
102
VTR_0.000_0.000_1.000_1.000_DEFAULTLIGHTINGTYPE
 70
     1
102
VTR_0.000_0.000_1.000_1.000_BRIGHTNESS
141
0.0
102
VTR_0.000_0.000_1.000_1.000_CONTRAST
142
0.0
  0
MATERIAL
  5
45
102
{ACAD_REACTORS
330
43
102
}
102
{ACAD_XDICTIONARY
360
69A
102
}
330
43
100
AcDbMaterial
  1
BYBLOCK
  0
MATERIAL
  5
44
102
{ACAD_REACTORS
330
43
102
}
102
{ACAD_XDICTIONARY
360
698
102
}
330
43
100
AcDbMaterial
  1
BYLAYER
  0
MATERIAL
  5
46
102
{ACAD_REACTORS
330
43
102
}
102
{ACAD_XDICTIONARY
360
69C
102
}
330
43
100
AcDbMaterial
  1
GLOBAL
  0
ACAD_PROXY_OBJECT
  5
6C
102
{ACAD_REACTORS
330
6B
102
}
330
6B
100
AcDbProxyObject
 90
      499
 91
      505
 93
      610
310
40901902A4063FBFFFFFE0000000000000020400000000000020404214DD185B99185C990000000000000104090141901A00000000000004100000000000000041025764000000000000039000
340
14
340
0
340
11
340
0
 94
        0
1001
ACAD_MLEADERVER
1070
     2
  0
MLINESTYLE
  5
18
102
{ACAD_REACTORS
330
17
102
}
330
17
100
AcDbMlineStyle
  2
Standard
 70
     0
  3

 62
   256
 51
90.0
 52
90.0
 71
     2
 49
0.5
 62
   256
  6
BYLAYER
 49
-0.5
 62
   256
  6
BYLAYER
  0
ACAD_PROXY_OBJECT
  5
48
102
{ACAD_REACTORS
330
47
102
}
330
47
100
AcDbProxyObject
 90
      499
 91
      503
 93
       41
310
903313A31580
  0
ACAD_PROXY_OBJECT
  5
49
102
{ACAD_REACTORS
330
47
102
}
330
47
100
AcDbProxyObject
 90
      499
 91
      503
 93
      105
310
903313A324000000000000004000
  0
ACAD_PROXY_OBJECT
  5
4A
102
{ACAD_REACTORS
330
47
102
}
330
47
100
AcDbProxyObject
 90
      499
 91
      503
 93
      105
310
903313A344000000000000104000
  0
ACAD_PROXY_OBJECT
  5
4B
102
{ACAD_REACTORS
330
47
102
}
330
47
100
AcDbProxyObject
 90
      499
 91
      503
 93
      105
310
903313A354000000000000144000
  0
ACAD_PROXY_OBJECT
  5
4C
102
{ACAD_REACTORS
330
47
102
}
330
47
100
AcDbProxyObject
 90
      499
 91
      503
 93
      105
310
903313A384000000000000204000
  0
ACAD_PROXY_OBJECT
  5
4D
102
{ACAD_REACTORS
330
47
102
}
330
47
100
AcDbProxyObject
 90
      499
 91
      503
 93
      113
310
904313A31304000000000000244000
  0
ACAD_PROXY_OBJECT
  5
4E
102
{ACAD_REACTORS
330
47
102
}
330
47
100
AcDbProxyObject
 90
      499
 91
      503
 93
      113
310
904313A31364000000000000304000
  0
ACAD_PROXY_OBJECT
  5
4F
102
{ACAD_REACTORS
330
47
102
}
330
47
100
AcDbProxyObject
 90
      499
 91
      503
 93
      113
310
904313A32304000000000000344000
  0
ACAD_PROXY_OBJECT
  5
50
102
{ACAD_REACTORS
330
47
102
}
330
47
100
AcDbProxyObject
 90
      499
 91
      503
 93
      113
310
904313A333040000000000003E4000
  0
ACAD_PROXY_OBJECT
  5
51
102
{ACAD_REACTORS
330
47
102
}
330
47
100
AcDbProxyObject
 90
      499
 91
      503
 93
      113
310
904313A34304000000000000444000
  0
ACAD_PROXY_OBJECT
  5
52
102
{ACAD_REACTORS
330
47
102
}
330
47
100
AcDbProxyObject
 90
      499
 91
      503
 93
      113
310
904313A35304000000000000494000
  0
ACAD_PROXY_OBJECT
  5
53
102
{ACAD_REACTORS
330
47
102
}
330
47
100
AcDbProxyObject
 90
      499
 91
      503
 93
      121
310
905313A3130304000000000000594000
  0
ACAD_PROXY_OBJECT
  5
54
102
{ACAD_REACTORS
330
47
102
}
330
47
100
AcDbProxyObject
 90
      499
 91
      503
 93
      105
310
903323A310000000000000010100
  0
ACAD_PROXY_OBJECT
  5
55
102
{ACAD_REACTORS
330
47
102
}
330
47
100
AcDbProxyObject
 90
      499
 91
      503
 93
      105
310
903343A310000000000000410100
  0
ACAD_PROXY_OBJECT
  5
56
102
{ACAD_REACTORS
330
47
102
}
330
47
100
AcDbProxyObject
 90
      499
 91
      503
 93
      105
310
903383A310000000000000810100
  0
ACAD_PROXY_OBJECT
  5
57
102
{ACAD_REACTORS
330
47
102
}
330
47
100
AcDbProxyObject
 90
      499
 91
      503
 93
      113
310
90431303A310000000000000910100
  0
ACAD_PROXY_OBJECT
  5
58
102
{ACAD_REACTORS
330
47
102
}
330
47
100
AcDbProxyObject
 90
      499
 91
      503
 93
      121
310
9053130303A310000000000001650100
  0
ACAD_PROXY_OBJECT
  5
59
102
{ACAD_REACTORS
330
47
102
}
330
47
100
AcDbProxyObject
 90
      499
 91
      503
 93
      257
310
90E312F31323822203D2031272D3022000000000000200FC000000000000284000
  0
ACAD_PROXY_OBJECT
  5
5A
102
{ACAD_REACTORS
330
47
102
}
330
47
100
AcDbProxyObject
 90
      499
 91
      503
 93
      249
310
90D312F363422203D2031272D3022000000000000240FC000000000000284000
  0
ACAD_PROXY_OBJECT
  5
5B
102
{ACAD_REACTORS
330
47
102
}
330
47
100
AcDbProxyObject
 90
      499
 91
      503
 93
      249
310
90D312F333222203D2031272D3022000000000000280FC000000000000284000
  0
ACAD_PROXY_OBJECT
  5
5C
102
{ACAD_REACTORS
330
47
102
}
330
47
100
AcDbProxyObject
 90
      499
 91
      503
 93
      249
310
90D312F313622203D2031272D30220000000000002C0FC000000000000284000
  0
ACAD_PROXY_OBJECT
  5
5D
102
{ACAD_REACTORS
330
47
102
}
330
47
100
AcDbProxyObject
 90
      499
 91
      503
 93
      249
310
90D332F333222203D2031272D30220000000000002E0FC000000000000284000
  0
ACAD_PROXY_OBJECT
  5
5E
102
{ACAD_REACTORS
330
47
102
}
330
47
100
AcDbProxyObject
 90
      499
 91
      503
 93
      241
310
90C312F3822203D2031272D3022000000000000300FC000000000000284000
  0
ACAD_PROXY_OBJECT
  5
5F
102
{ACAD_REACTORS
330
47
102
}
330
47
100
AcDbProxyObject
 90
      499
 91
      503
 93
      249
310
90D332F313622203D2031272D3022000000000000320FC000000000000284000
  0
ACAD_PROXY_OBJECT
  5
60
102
{ACAD_REACTORS
330
47
102
}
330
47
100
AcDbProxyObject
 90
      499
 91
      503
 93
      241
310
90C312F3422203D2031272D3022000000000000340FC000000000000284000
  0
ACAD_PROXY_OBJECT
  5
61
102
{ACAD_REACTORS
330
47
102
}
330
47
100
AcDbProxyObject
 90
      499
 91
      503
 93
      241
310
90C332F3822203D2031272D3022000000000000360FC000000000000284000
  0
ACAD_PROXY_OBJECT
  5
62
102
{ACAD_REACTORS
330
47
102
}
330
47
100
AcDbProxyObject
 90
      499
 91
      503
 93
      241
310
90C312F3222203D2031272D3022000000000000380FC000000000000284000
  0
ACAD_PROXY_OBJECT
  5
63
102
{ACAD_REACTORS
330
47
102
}
330
47
100
AcDbProxyObject
 90
      499
 91
      503
 93
      241
310
90C332F3422203D2031272D30220000000000003A0FC000000000000284000
  0
ACAD_PROXY_OBJECT
  5
64
102
{ACAD_REACTORS
330
47
102
}
330
47
100
AcDbProxyObject
 90
      499
 91
      503
 93
      161
310
90A3122203D2031272D30224000000000000284000
  0
ACAD_PROXY_OBJECT
  5
65
102
{ACAD_REACTORS
330
47
102
}
330
47
100
AcDbProxyObject
 90
      499
 91
      503
 93
      257
310
90E312D312F3222203D2031272D30220000000000003E0FC000000000000284000
  0
ACAD_PROXY_OBJECT
  5
66
102
{ACAD_REACTORS
330
47
102
}
330
47
100
AcDbProxyObject
 90
      499
 91
      503
 93
      225
310
90A3322203D2031272D302200000000000002100000000000000284000
  0
ACAD_PROXY_OBJECT
  5
67
102
{ACAD_REACTORS
330
47
102
}
330
47
100
AcDbProxyObject
 90
      499
 91
      503
 93
      225
310
90A3622203D2031272D302200000000000006100000000000000284000
  0
ACAD_PROXY_OBJECT
  5
68
102
{ACAD_REACTORS
330
47
102
}
330
47
100
AcDbProxyObject
 90
      499
 91
      503
 93
      249
310
90D31272D3022203D2031272D30220000000000000A100000000000000284000
  0
ACAD_PROXY_OBJECT
  5
2F
102
{ACAD_REACTORS
330
2A
102
}
330
2A
100
AcDbProxyObject
 90
      499
 91
      501
 93
      436
310
42CC9915DA5C99599C985B595049028333333333333E33F0000000000000F90107901411070040501600405405064090741402480A0340
1001
ACAD
1000
AcDbSavedByObjectVersion
1070
     0
  0
ACAD_PROXY_OBJECT
  5
32
102
{ACAD_REACTORS
330
2A
102
}
330
2A
100
AcDbProxyObject
 90
      499
 91
      501
 93
      388
310
4150985CDA58D07406404333333333333E33F0000000000000F90107A41107004050150841D405064090741402480A0350
1001
ACAD
1000
AcDbSavedByObjectVersion
1070
     0
  0
ACAD_PROXY_OBJECT
  5
36
102
{ACAD_REACTORS
330
2A
102
}
330
2A
100
AcDbProxyObject
 90
      499
 91
      501
 93
      428
310
42109C9A59DA1D195B90C409028333333333333E33F0000000000000F9010790141107004050150841D405064090741402480A029950
1001
ACAD
1000
AcDbSavedByObjectVersion
1070
     0
  0
ACAD_PROXY_OBJECT
  5
3A
102
{ACAD_REACTORS
330
2A
102
}
330
2A
100
AcDbProxyObject
 90
      499
 91
      501
 93
      452
310
42D0DBDB1BDC90DA185B99D95104090240C333333333333E33F0000000000000F90108901411070040501508421405064090741402480A0350
1001
ACAD
1000
AcDbSavedByObjectVersion
1070
     0
  0
ACAD_PROXY_OBJECT
  5
34
102
{ACAD_REACTORS
330
2A
102
}
330
2A
100
AcDbProxyObject
 90
      499
 91
      501
 93
      500
310
4290DBDB98D95C1D1D585B10940D028333333333333E33F0000000000000F90107902409070040501000000000018199010841D405064090740C02480A0340
1001
ACAD
1000
AcDbSavedByObjectVersion
1070
     0
  0
ACAD_PROXY_OBJECT
  5
35
102
{ACAD_REACTORS
330
2A
102
}
330
2A
100
AcDbProxyObject
 90
      499
 91
      501
 93
      412
310
40D11A5B50B409028333333333333E33F0000000000000F9010790141107004050150841D405064090741402480A02677FFFFFD0
1001
ACAD
1000
AcDbSavedByObjectVersion
1070
     0
  0
ACAD_PROXY_OBJECT
  5
3D
102
{ACAD_REACTORS
330
2A
102
}
330
2A
100
AcDbProxyObject
 90
      499
 91
      501
 93
      452
310
43115919D950DBDB1BDC93D999916409028333333333333E33F0000000000000F9010790141107004050150841D405064090741402480A0350
1001
ACAD
1000
AcDbSavedByObjectVersion
1070
     0
  0
ACAD_PROXY_OBJECT
  5
39
102
{ACAD_REACTORS
330
2A
102
}
330
2A
100
AcDbProxyObject
 90
      499
 91
      501
 93
      444
310
42D19858D95C185D1D195C9B90F409028333333333333E33F0000000000000F9010790141107004050150841D405064090741402480A0350
1001
ACAD
1000
AcDbSavedByObjectVersion
1070
     0
  0
ACAD_PROXY_OBJECT
  5
2B
102
{ACAD_REACTORS
330
2A
102
}
330
2A
100
AcDbProxyObject
 90
      499
 91
      501
 93
      380
310
41119B185D240901404333333333333E33F0000000000000F9010740A907004050150841D405064090741402480A1B50
1001
ACAD
1000
AcDbSavedByObjectVersion
1070
     0
  0
ACAD_PROXY_OBJECT
  5
2C
102
{ACAD_REACTORS
330
2A
102
}
330
2A
100
AcDbProxyObject
 90
      499
 91
      501
 93
      468
310
43519B185D15DA5D1A115919D95CD0140901404333333333333E33F0000000000000F90107409019070040501600405405064090741402480A1B50
1001
ACAD
1000
AcDbSavedByObjectVersion
1070
     0
  0
ACAD_PROXY_OBJECT
  5
2D
102
{ACAD_REACTORS
330
2A
102
}
330
2A
100
AcDbProxyObject
 90
      499
 91
      501
 93
      404
310
41D1DBDD5C985D5910240902404333333333333E33F0000000000000F9010740A9070040501641D405064090741402480A1B50
1001
ACAD
1000
AcDbSavedByObjectVersion
1070
     0
  0
ACAD_PROXY_OBJECT
  5
2E
102
{ACAD_REACTORS
330
2A
102
}
330
2A
100
AcDbProxyObject
 90
      499
 91
      501
 93
      492
310
4411DBDD5C985D5915DA5D1A115919D95CD0340902404333333333333E33F0000000000000F90107409019070040501600405405064090741402480A1B50
1001
ACAD
1000
AcDbSavedByObjectVersion
1070
     0
  0
ACAD_PROXY_OBJECT
  5
31
102
{ACAD_REACTORS
330
2A
102
}
330
2A
100
AcDbProxyObject
 90
      499
 91
      501
 93
      476
310
41921A5919195B90640502408333333333333E33F0000000000000F901079024090700405020000000000001110200405405064090740C02480A0340
1001
ACAD
1000
AcDbSavedByObjectVersion
1070
     0
  0
ACAD_PROXY_OBJECT
  5
3B
102
{ACAD_REACTORS
330
2A
102
}
330
2A
100
AcDbProxyObject
 90
      499
 91
      501
 93
      428
310
42529A5D1D195C93D999914409028333333333333E33F0000000000000F9010790141107004050150A41D405064090741402480A0350
1001
ACAD
1000
AcDbSavedByObjectVersion
1070
     0
  0
ACAD_PROXY_OBJECT
  5
38
102
{ACAD_REACTORS
330
2A
102
}
330
2A
100
AcDbProxyObject
 90
      499
 91
      501
 93
      444
310
42D31A5B995C185D1D195C9B90E409028333333333333E33F0000000000000F9010790141107004050750841D405064090741402483A0350
1001
ACAD
1000
AcDbSavedByObjectVersion
1070
     0
  0
ACAD_PROXY_OBJECT
  5
3C
102
{ACAD_REACTORS
330
2A
102
}
330
2A
100
AcDbProxyObject
 90
      499
 91
      501
 93
      444
310
42D3DD995C9A185B99D3D999915409028333333333333E33F0000000000000F9010790141107004050150941D405064090741402480A0350
1001
ACAD
1000
AcDbSavedByObjectVersion
1070
     0
  0
ACAD_PROXY_OBJECT
  5
33
102
{ACAD_REACTORS
330
2A
102
}
330
2A
100
AcDbProxyObject
 90
      499
 91
      501
 93
      428
310
425499585B1A5CDD1A58D08409038333333333333E33F0000000000000F9010740A907004050150800405405064090740C02480A1B40
1001
ACAD
1000
AcDbSavedByObjectVersion
1070
     0
  0
ACAD_PROXY_OBJECT
  5
42
102
{ACAD_REACTORS
330
2A
102
}
330
2A
100
AcDbProxyObject
 90
      499
 91
      501
 93
      420
310
4194DA1859195911B40902404333333333333E33F0000000000000F9010740A41107004050150800405405064090840C02480A0B40
1001
ACAD
1000
AcDbSavedByObjectVersion
1070
     0
  0
ACAD_PROXY_OBJECT
  5
41
102
{ACAD_REACTORS
330
2A
102
}
330
2A
100
AcDbProxyObject
 90
      499
 91
      501
 93
      516
310
4454DA18591959081DDA5D1A08195919D95CD1A40902404333333333333E33F0000000000000F901074090142907004050250800405405064090740C02480A0B40
1001
ACAD
1000
AcDbSavedByObjectVersion
1070
     0
  0
ACAD_PROXY_OBJECT
  5
3E
102
{ACAD_REACTORS
330
2A
102
}
330
2A
100
AcDbProxyObject
 90
      499
 91
      501
 93
      532
310
4394DA1859195CC81BD98811DC985E5174090240C333333333333E33F0000000000000F901079024090741D01000000000000111010841D405064090740C02480A0340
1001
ACAD
1000
AcDbSavedByObjectVersion
1070
     0
  0
ACAD_PROXY_OBJECT
  5
3F
102
{ACAD_REACTORS
330
2A
102
}
330
2A
100
AcDbProxyObject
 90
      499
 91
      501
 93
      476
310
41D4DAD95D18DA1E51840502408333333333333E33F0000000000000F901079024090741D01000000000000111010B41D405064090741802480A0340
1001
ACAD
1000
AcDbSavedByObjectVersion
1070
     0
  0
ACAD_PROXY_OBJECT
  5
37
102
{ACAD_REACTORS
330
2A
102
}
330
2A
100
AcDbProxyObject
 90
      499
 91
      501
 93
      412
310
41D51A1A58DAD95B90D409028333333333333E33F0000000000000F9010790141107004050150C41D405064090741402480A0350
1001
ACAD
1000
AcDbSavedByObjectVersion
1070
     0
  0
ACAD_PROXY_OBJECT
  5
30
102
{ACAD_REACTORS
330
2A
102
}
330
2A
100
AcDbProxyObject
 90
      499
 91
      501
 93
      420
310
4255DA5C99599C985B595059028333333333333E33F0000000000000F90107901411070040501600405405064090740C02480A0340
1001
ACAD
1000
AcDbSavedByObjectVersion
1070
     0
  0
ACAD_PROXY_OBJECT
  5
40
102
{ACAD_REACTORS
330
2A
102
}
330
2A
100
AcDbProxyObject
 90
      499
 91
      501
 93
      404
310
41560B54985E51940902404000000000000E03F0000000000000F9010740501907004050150841D405064090740C02480A1B40
1001
ACAD
1000
AcDbSavedByObjectVersion
1070
     0
  0
XRECORD
  5
672
102
{ACAD_REACTORS
330
668
102
}
330
668
100
AcDbXrecord
340
0
  0
XRECORD
  5
671
102
{ACAD_REACTORS
330
668
102
}
330
668
100
AcDbXrecord
 90
        0
  0
XRECORD
  5
688
102
{ACAD_REACTORS
330
668
102
}
330
668
100
AcDbXrecord
1000
DSTYLE
1002
{
1070
   340
340
11
1002
}
  0
XRECORD
  5
673
102
{ACAD_REACTORS
330
668
102
}
330
668
100
AcDbXrecord
  1
{93dbae78-3b1e-4dfc-8d99-f8f00b8bcf63}
  0
XRECORD
  5
66B
102
{ACAD_REACTORS
330
668
102
}
330
668
100
AcDbXrecord
  1

  0
XRECORD
  5
670
102
{ACAD_REACTORS
330
668
102
}
330
668
100
AcDbXrecord
 90
        4
  0
XRECORD
  5
66D
102
{ACAD_REACTORS
330
668
102
}
330
668
100
AcDbXrecord
340
1A
  0
XRECORD
  5
66F
102
{ACAD_REACTORS
330
668
102
}
330
668
100
AcDbXrecord
 90
    10781
  0
XRECORD
  5
66E
102
{ACAD_REACTORS
330
668
102
}
330
668
100
AcDbXrecord
340
19
  0
XRECORD
  5
675
102
{ACAD_REACTORS
330
668
102
}
330
668
100
AcDbXrecord
 40
0.0
  0
XRECORD
  5
678
102
{ACAD_REACTORS
330
668
102
}
330
668
100
AcDbXrecord
340
0
  0
XRECORD
  5
67E
102
{ACAD_REACTORS
330
668
102
}
330
668
100
AcDbXrecord
 10
0.0
 20
0.0
 30
0.0
  0
XRECORD
  5
67A
102
{ACAD_REACTORS
330
668
102
}
330
668
100
AcDbXrecord
 10
0.0
 20
0.0
 30
0.0
  0
XRECORD
  5
67D
102
{ACAD_REACTORS
330
668
102
}
330
668
100
AcDbXrecord
 10
0.0
 20
0.0
 30
0.0
  0
XRECORD
  5
67B
102
{ACAD_REACTORS
330
668
102
}
330
668
100
AcDbXrecord
 10
0.0
 20
0.0
 30
0.0
  0
XRECORD
  5
67C
102
{ACAD_REACTORS
330
668
102
}
330
668
100
AcDbXrecord
 10
0.0
 20
0.0
 30
0.0
  0
XRECORD
  5
679
102
{ACAD_REACTORS
330
668
102
}
330
668
100
AcDbXrecord
 10
0.0
 20
0.0
 30
0.0
  0
XRECORD
  5
676
102
{ACAD_REACTORS
330
668
102
}
330
668
100
AcDbXrecord
340
0
  0
XRECORD
  5
677
102
{ACAD_REACTORS
330
668
102
}
330
668
100
AcDbXrecord
 70
     0
  0
XRECORD
  5
66C
102
{ACAD_REACTORS
330
668
102
}
330
668
100
AcDbXrecord
  1

  0
XRECORD
  5
669
102
{ACAD_REACTORS
330
668
102
}
330
668
100
AcDbXrecord
 90
        1
  0
XRECORD
  5
66A
102
{ACAD_REACTORS
330
668
102
}
330
668
100
AcDbXrecord
 90
       70
  0
XRECORD
  5
681
102
{ACAD_REACTORS
330
668
102
}
330
668
100
AcDbXrecord
340
0
  0
XRECORD
  5
687
102
{ACAD_REACTORS
330
668
102
}
330
668
100
AcDbXrecord
 10
0.0
 20
0.0
 30
0.0
  0
XRECORD
  5
683
102
{ACAD_REACTORS
330
668
102
}
330
668
100
AcDbXrecord
 10
0.0
 20
0.0
 30
0.0
  0
XRECORD
  5
686
102
{ACAD_REACTORS
330
668
102
}
330
668
100
AcDbXrecord
 10
0.0
 20
0.0
 30
0.0
  0
XRECORD
  5
684
102
{ACAD_REACTORS
330
668
102
}
330
668
100
AcDbXrecord
 10
0.0
 20
0.0
 30
0.0
  0
XRECORD
  5
685
102
{ACAD_REACTORS
330
668
102
}
330
668
100
AcDbXrecord
 10
0.0
 20
0.0
 30
0.0
  0
XRECORD
  5
682
102
{ACAD_REACTORS
330
668
102
}
330
668
100
AcDbXrecord
 10
0.0
 20
0.0
 30
0.0
  0
XRECORD
  5
67F
102
{ACAD_REACTORS
330
668
102
}
330
668
100
AcDbXrecord
340
0
  0
XRECORD
  5
680
102
{ACAD_REACTORS
330
668
102
}
330
668
100
AcDbXrecord
 70
     0
  0
XRECORD
  5
674
102
{ACAD_REACTORS
330
668
102
}
330
668
100
AcDbXrecord
  1
{FAEB1C32-E019-11D5-929B-00C0DF256EC4}
  0
DICTIONARYVAR
  5
696
102
{ACAD_REACTORS
330
689
102
}
330
689
100
DictionaryVariables
280
     0
  1
1:1
  0
DICTIONARYVAR
  5
690
102
{ACAD_REACTORS
330
689
102
}
330
689
100
DictionaryVariables
280
     0
  1
3.500000
  0
DICTIONARYVAR
  5
691
102
{ACAD_REACTORS
330
689
102
}
330
689
100
DictionaryVariables
280
     0
  1
acadiso.lin
  0
DICTIONARYVAR
  5
68B
102
{ACAD_REACTORS
330
689
102
}
330
689
100
DictionaryVariables
280
     0
  1
Standard
  0
DICTIONARYVAR
  5
68A
102
{ACAD_REACTORS
330
689
102
}
330
689
100
DictionaryVariables
280
     0
  1
Standard
  0
DICTIONARYVAR
  5
692
102
{ACAD_REACTORS
330
689
102
}
330
689
100
DictionaryVariables
280
     0
  1
2
  0
DICTIONARYVAR
  5
693
102
{ACAD_REACTORS
330
689
102
}
330
689
100
DictionaryVariables
280
     0
  1
1
  0
DICTIONARYVAR
  5
697
102
{ACAD_REACTORS
330
689
102
}
330
689
100
DictionaryVariables
280
     0
  1
1
  0
DICTIONARYVAR
  5
68D
102
{ACAD_REACTORS
330
689
102
}
330
689
100
DictionaryVariables
280
     0
  1
80.000000
  0
DICTIONARYVAR
  5
68C
102
{ACAD_REACTORS
330
689
102
}
330
689
100
DictionaryVariables
280
     0
  1
5.000000
  0
DICTIONARY
  5
69A
330
45
100
AcDbDictionary
280
     1
  3
ACAD_XREC_ROUNDTRIP
360
69B
  0
DICTIONARY
  5
698
330
44
100
AcDbDictionary
280
     1
  3
ACAD_XREC_ROUNDTRIP
360
699
  0
DICTIONARY
  5
69C
330
46
100
AcDbDictionary
280
     1
  3
ACAD_XREC_ROUNDTRIP
360
69D
  0
XRECORD
  5
69B
102
{ACAD_REACTORS
330
69A
102
}
330
69A
100
AcDbXrecord
102
MATERIAL
148
0.0
149
0.0
149
0.0
 93
        0
 94
      127
282
     0
 72
     1
 77
     1
171
     1
175
     1
179
     1
273
     0
  0
XRECORD
  5
699
102
{ACAD_REACTORS
330
698
102
}
330
698
100
AcDbXrecord
102
MATERIAL
148
0.0
149
0.0
149
0.0
 93
        0
 94
      127
282
     0
 72
     1
 77
     1
171
     1
175
     1
179
     1
273
     0
  0
XRECORD
  5
69D
102
{ACAD_REACTORS
330
69C
102
}
330
69C
100
AcDbXrecord
102
MATERIAL
148
0.0
149
0.0
149
0.0
 93
        0
 94
      127
282
     0
 72
     1
 77
     1
171
     1
175
     1
179
     1
273
     0
  0
ENDSEC
  0
EOF
