  0
SECTION
  2
HEADER
  9
$ACADVER
  1
AC1014
  9
$ACADMAINTVER
 70
     9
  9
$DWGCODEPAGE
  3
ANSI_932
  9
$INSBASE
 10
0.0
 20
0.0
 30
0.0
  9
$EXTMIN
 10
50.0
 20
100.0
 30
0.0
  9
$EXTMAX
 10
3850.0
 20
2800.0
 30
0.0
  9
$LIMMIN
 10
0.0
 20
0.0
  9
$LIMMAX
 10
420.0
 20
297.0
  9
$ORTHOMODE
 70
     0
  9
$REGENMODE
 70
     1
  9
$FILLMODE
 70
     1
  9
$QTEXTMODE
 70
     0
  9
$MIRRTEXT
 70
     1
  9
$DRAGMODE
 70
     2
  9
$LTSCALE
 40
0.2
  9
$OSMODE
 70
    37
  9
$ATTMODE
 70
     1
  9
$TEXTSIZE
 40
2.5
  9
$TRACEWID
 40
1.0
  9
$TEXTSTYLE
  7
STANDARD
  9
$CLAYER
  8
LAY-10
  9
$CELTYPE
  6
BYLAYER
  9
$CECOLOR
 62
   256
  9
$CELTSCALE
 40
1.0
  9
$DELOBJ
 70
     1
  9
$DISPSILH
 70
     0
  9
$DIMSCALE
 40
1.0
  9
$DIMASZ
 40
2.5
  9
$DIMEXO
 40
0.625
  9
$DIMDLI
 40
3.75
  9
$DIMRND
 40
0.0
  9
$DIMDLE
 40
0.0
  9
$DIMEXE
 40
1.25
  9
$DIMTP
 40
0.0
  9
$DIMTM
 40
0.0
  9
$DIMTXT
 40
2.5
  9
$DIMCEN
 40
2.5
  9
$DIMTSZ
 40
0.0
  9
$DIMTOL
 70
     0
  9
$DIMLIM
 70
     0
  9
$DIMTIH
 70
     0
  9
$DIMTOH
 70
     0
  9
$DIMSE1
 70
     0
  9
$DIMSE2
 70
     0
  9
$DIMTAD
 70
     1
  9
$DIMZIN
 70
     8
  9
$DIMBLK
  1

  9
$DIMASO
 70
     1
  9
$DIMSHO
 70
     1
  9
$DIMPOST
  1

  9
$DIMAPOST
  1

  9
$DIMALT
 70
     0
  9
$DIMALTD
 70
     3
  9
$DIMALTF
 40
0.03937007874016
  9
$DIMLFAC
 40
1.0
  9
$DIMTOFL
 70
     1
  9
$DIMTVP
 40
0.0
  9
$DIMTIX
 70
     0
  9
$DIMSOXD
 70
     0
  9
$DIMSAH
 70
     0
  9
$DIMBLK1
  1

  9
$DIMBLK2
  1

  9
$DIMSTYLE
  2
ISO-25
  9
$DIMCLRD
 70
     0
  9
$DIMCLRE
 70
     0
  9
$DIMCLRT
 70
     0
  9
$DIMTFAC
 40
1.0
  9
$DIMGAP
 40
0.625
  9
$DIMJUST
 70
     0
  9
$DIMSD1
 70
     0
  9
$DIMSD2
 70
     0
  9
$DIMTOLJ
 70
     0
  9
$DIMTZIN
 70
     8
  9
$DIMALTZ
 70
     0
  9
$DIMALTTZ
 70
     0
  9
$DIMFIT
 70
     3
  9
$DIMUPT
 70
     0
  9
$DIMUNIT
 70
     2
  9
$DIMDEC
 70
     2
  9
$DIMTDEC
 70
     2
  9
$DIMALTU
 70
     2
  9
$DIMALTTD
 70
     3
  9
$DIMTXSTY
  7
STANDARD
  9
$DIMAUNIT
 70
     0
  9
$LUNITS
 70
     2
  9
$LUPREC
 70
     4
  9
$SKETCHINC
 40
1.0
  9
$FILLETRAD
 40
10.0
  9
$AUNITS
 70
     0
  9
$AUPREC
 70
     0
  9
$MENU
  1
.
  9
$ELEVATION
 40
0.0
  9
$PELEVATION
 40
0.0
  9
$THICKNESS
 40
0.0
  9
$LIMCHECK
 70
     0
  9
$CHAMFERA
 40
0.0
  9
$CHAMFERB
 40
0.0
  9
$CHAMFERC
 40
0.0
  9
$CHAMFERD
 40
0.0
  9
$SKPOLY
 70
     0
  9
$TDCREATE
 40
2459229.333046447
  9
$TDUPDATE
 40
2459229.3330475
  9
$TDINDWG
 40
0.0000000116
  9
$TDUSRTIMER
 40
0.0000000116
  9
$USRTIMER
 70
     1
  9
$ANGBASE
 50
0.0
  9
$ANGDIR
 70
     0
  9
$PDMODE
 70
     0
  9
$PDSIZE
 40
0.0
  9
$PLINEWID
 40
0.0
  9
$COORDS
 70
     1
  9
$SPLFRAME
 70
     0
  9
$SPLINETYPE
 70
     6
  9
$SPLINESEGS
 70
     8
  9
$ATTDIA
 70
     0
  9
$ATTREQ
 70
     1
  9
$HANDLING
 70
     1
  9
$HANDSEED
  5
4DE
  9
$SURFTAB1
 70
     6
  9
$SURFTAB2
 70
     6
  9
$SURFTYPE
 70
     6
  9
$SURFU
 70
     6
  9
$SURFV
 70
     6
  9
$UCSNAME
  2

  9
$UCSORG
 10
0.0
 20
0.0
 30
0.0
  9
$UCSXDIR
 10
1.0
 20
0.0
 30
0.0
  9
$UCSYDIR
 10
0.0
 20
1.0
 30
0.0
  9
$PUCSNAME
  2

  9
$PUCSORG
 10
0.0
 20
0.0
 30
0.0
  9
$PUCSXDIR
 10
1.0
 20
0.0
 30
0.0
  9
$PUCSYDIR
 10
0.0
 20
1.0
 30
0.0
  9
$USERI1
 70
     0
  9
$USERI2
 70
     0
  9
$USERI3
 70
     0
  9
$USERI4
 70
     0
  9
$USERI5
 70
     0
  9
$USERR1
 40
0.0
  9
$USERR2
 40
0.0
  9
$USERR3
 40
0.0
  9
$USERR4
 40
0.0
  9
$USERR5
 40
0.0
  9
$WORLDVIEW
 70
     1
  9
$SHADEDGE
 70
     3
  9
$SHADEDIF
 70
    70
  9
$TILEMODE
 70
     1
  9
$MAXACTVP
 70
    64
  9
$PINSBASE
 10
0.0
 20
0.0
 30
0.0
  9
$PLIMCHECK
 70
     0
  9
$PEXTMIN
 10
1.000000000000000E+20
 20
1.000000000000000E+20
 30
1.000000000000000E+20
  9
$PEXTMAX
 10
-1.000000000000000E+20
 20
-1.000000000000000E+20
 30
-1.000000000000000E+20
  9
$PLIMMIN
 10
0.0
 20
0.0
  9
$PLIMMAX
 10
420.0
 20
297.0
  9
$UNITMODE
 70
     0
  9
$VISRETAIN
 70
     1
  9
$PLINEGEN
 70
     0
  9
$PSLTSCALE
 70
     1
  9
$TREEDEPTH
 70
  3020
  9
$PICKSTYLE
 70
     1
  9
$CMLSTYLE
  2
STANDARD
  9
$CMLJUST
 70
     0
  9
$CMLSCALE
 40
20.0
  9
$PROXYGRAPHICS
 70
     1
  9
$MEASUREMENT
 70
     1
  0
ENDSEC
  0
SECTION
  2
CLASSES
  0
CLASS
  1
ACDBDICTIONARYWDFLT
  2
AcDbDictionaryWithDefault
  3
ObjectDBX Classes
 90
        0
280
     0
281
     0
  0
CLASS
  1
VISUALSTYLE
  2
AcDbVisualStyle
  3
ObjectDBX Classes
 90
     4095
280
     0
281
     0
  0
CLASS
  1
MATERIAL
  2
AcDbMaterial
  3
ObjectDBX Classes
 90
     1153
280
     0
281
     0
  0
CLASS
  1
SCALE
  2
AcDbScale
  3
ObjectDBX Classes
 90
     1153
280
     0
281
     0
  0
CLASS
  1
TABLESTYLE
  2
AcDbTableStyle
  3
ObjectDBX Classes
 90
     4095
280
     0
281
     0
  0
CLASS
  1
MLEADERSTYLE
  2
AcDbMLeaderStyle
  3
ACDB_MLEADERSTYLE_CLASS
 90
     4095
280
     0
281
     0
  0
CLASS
  1
SUN
  2
AcDbSun
  3
SCENEOE
 90
     1153
280
     0
281
     0
  0
CLASS
  1
DICTIONARYVAR
  2
AcDbDictionaryVar
  3
ObjectDBX Classes
 90
        0
280
     0
281
     0
  0
CLASS
  1
XRECORD
  2
AcDbXrecord
  3
ObjectDBX Classes
 90
        0
280
     0
281
     0
  0
CLASS
  1
LWPOLYLINE
  2
AcDbPolyline
  3
ObjectDBX Classes
 90
        0
280
     0
281
     1
  0
CLASS
  1
HATCH
  2
AcDbHatch
  3
ObjectDBX Classes
 90
        0
280
     0
281
     1
  0
CLASS
  1
ACDBPLACEHOLDER
  2
AcDbPlaceHolder
  3
ObjectDBX Classes
 90
        0
280
     0
281
     0
  0
CLASS
  1
LAYOUT
  2
AcDbLayout
  3
ObjectDBX Classes
 90
        0
280
     0
281
     0
  0
ENDSEC
  0
SECTION
  2
TABLES
  0
TABLE
  2
VPORT
  5
8
102
{ACAD_XDICTIONARY
360
4D3
102
}
330
0
100
AcDbSymbolTable
 70
     1
  0
VPORT
  5
29
330
8
100
AcDbSymbolTableRecord
100
AcDbViewportTableRecord
  2
*ACTIVE
 70
     0
 10
0.0
 20
0.0
 11
1.0
 21
1.0
 12
1950.0
 22
1450.0
 13
0.0
 23
0.0
 14
10.0
 24
10.0
 15
10.0
 25
10.0
 16
0.0
 26
0.0
 36
1.0
 17
0.0
 27
0.0
 37
0.0
 40
2700.0
 41
1.407407407407408
 42
50.0
 43
0.0
 44
0.0
 50
0.0
 51
0.0
 71
     0
 72
  1000
 73
     1
 74
     3
 75
     0
 76
     0
 77
     0
 78
     0
  0
ENDTAB
  0
TABLE
  2
LTYPE
  5
5
330
0
100
AcDbSymbolTable
 70
     6
  0
LTYPE
  5
14
330
5
100
AcDbSymbolTableRecord
100
AcDbLinetypeTableRecord
  2
BYBLOCK
 70
     0
  3

 72
    65
 73
     0
 40
0.0
  0
LTYPE
  5
15
330
5
100
AcDbSymbolTableRecord
100
AcDbLinetypeTableRecord
  2
BYLAYER
 70
     0
  3

 72
    65
 73
     0
 40
0.0
  0
LTYPE
  5
16
330
5
100
AcDbSymbolTableRecord
100
AcDbLinetypeTableRecord
  2
CONTINUOUS
 70
     0
  3
Solid line
 72
    65
 73
     0
 40
0.0
  0
LTYPE
  5
6E
330
5
100
AcDbSymbolTableRecord
100
AcDbLinetypeTableRecord
  2
HIDDEN
 70
     0
  3
Hidden __ __ __ __ __ __ __ __ __ __ __ __ __ __
 72
    65
 73
     2
 40
9.524999999999999
 49
6.35
 74
     0
 49
-3.175
 74
     0
  0
LTYPE
  5
6F
330
5
100
AcDbSymbolTableRecord
100
AcDbLinetypeTableRecord
  2
CENTER
 70
     0
  3
Center ____ _ ____ _ ____ _ ____ _ ____ _ ____
 72
    65
 73
     4
 40
50.8
 49
31.75
 74
     0
 49
-6.35
 74
     0
 49
6.35
 74
     0
 49
-6.35
 74
     0
  0
LTYPE
  5
70
330
5
100
AcDbSymbolTableRecord
100
AcDbLinetypeTableRecord
  2
PHANTOM
 70
     0
  3
Phantom ______  __  __  ______  __  __  ______ 
 72
    65
 73
     6
 40
63.50000000000001
 49
31.75
 74
     0
 49
-6.35
 74
     0
 49
6.35
 74
     0
 49
-6.35
 74
     0
 49
6.35
 74
     0
 49
-6.35
 74
     0
  0
LTYPE
  5
71
330
5
100
AcDbSymbolTableRecord
100
AcDbLinetypeTableRecord
  2
ACAD_ISO06W100
 70
     0
  3
ISO long-dash triple-dot ____ ... ____ ... ____
 72
    65
 73
     8
 40
36.0
 49
24.0
 74
     0
 49
-3.0
 74
     0
 49
0.0
 74
     0
 49
-3.0
 74
     0
 49
0.0
 74
     0
 49
-3.0
 74
     0
 49
0.0
 74
     0
 49
-3.0
 74
     0
  0
LTYPE
  5
72
330
5
100
AcDbSymbolTableRecord
100
AcDbLinetypeTableRecord
  2
ACAD_ISO15W100
 70
     0
  3
ISO double-dash triple-dot __ __ . . . __ __ . .
 72
    65
 73
    10
 40
39.0
 49
12.0
 74
     0
 49
-3.0
 74
     0
 49
12.0
 74
     0
 49
-3.0
 74
     0
 49
0.0
 74
     0
 49
-3.0
 74
     0
 49
0.0
 74
     0
 49
-3.0
 74
     0
 49
0.0
 74
     0
 49
-3.0
 74
     0
  0
ENDTAB
  0
TABLE
  2
LAYER
  5
2
330
0
100
AcDbSymbolTable
 70
     6
  0
LAYER
  5
10
330
2
100
AcDbSymbolTableRecord
100
AcDbLayerTableRecord
  2
0
 70
     0
 62
     7
  6
CONTINUOUS
  0
LAYER
  5
75
330
2
100
AcDbSymbolTableRecord
100
AcDbLayerTableRecord
  2
LAY-10
 70
     0
 62
     7
  6
CONTINUOUS
  0
LAYER
  5
76
330
2
100
AcDbSymbolTableRecord
100
AcDbLayerTableRecord
  2
LAY-11
 70
     0
 62
     7
  6
CONTINUOUS
  0
LAYER
  5
77
330
2
100
AcDbSymbolTableRecord
100
AcDbLayerTableRecord
  2
LAY-20
 70
     0
 62
     7
  6
CONTINUOUS
  0
LAYER
  5
78
330
2
100
AcDbSymbolTableRecord
100
AcDbLayerTableRecord
  2
LAY-255
 70
     0
 62
     7
  6
CONTINUOUS
  0
LAYER
  5
3FB
330
2
100
AcDbSymbolTableRecord
100
AcDbLayerTableRecord
  2
DEFPOINTS
 70
     0
 62
     7
  6
CONTINUOUS
  0
ENDTAB
  0
TABLE
  2
STYLE
  5
3
330
0
100
AcDbSymbolTable
 70
     4
  0
STYLE
  5
11
330
3
100
AcDbSymbolTableRecord
100
AcDbTextStyleTableRecord
  2
STANDARD
 70
     0
 40
0.0
 41
1.0
 50
0.0
 71
     0
 42
2.5
  3
simplex
  4
bigfont
  0
STYLE
  5
73
330
3
100
AcDbSymbolTableRecord
100
AcDbTextStyleTableRecord
  2
EXCADSTD
 70
     0
 40
0.0
 41
1.0
 50
0.0
 71
     0
 42
2.5
  3
simplex
  4
bigfont
  0
STYLE
  5
74
330
3
100
AcDbSymbolTableRecord
100
AcDbTextStyleTableRecord
  2
EXCADVERT
 70
     4
 40
0.0
 41
1.0
 50
0.0
 71
     0
 42
2.5
  3
simplex
  4
bigfont
  0
STYLE
  5
3F9
330
3
100
AcDbSymbolTableRecord
100
AcDbTextStyleTableRecord
  2
EXCADDIM1
 70
     0
 40
0.0
 41
0.84
 50
0.0
 71
     0
 42
2.5
  3
simplex
  4
bigfont
  0
ENDTAB
  0
TABLE
  2
VIEW
  5
6
330
0
100
AcDbSymbolTable
 70
     0
  0
ENDTAB
  0
TABLE
  2
UCS
  5
7
330
0
100
AcDbSymbolTable
 70
     0
  0
ENDTAB
  0
TABLE
  2
APPID
  5
9
330
0
100
AcDbSymbolTable
 70
     2
  0
APPID
  5
12
330
9
100
AcDbSymbolTableRecord
100
AcDbRegAppTableRecord
  2
ACAD
 70
     0
  0
APPID
  5
4DD
330
9
100
AcDbSymbolTableRecord
100
AcDbRegAppTableRecord
  2
ACAD_MLEADERVER
 70
     0
  0
ENDTAB
  0
TABLE
  2
DIMSTYLE
  5
A
330
0
100
AcDbSymbolTable
 70
     1
  0
DIMSTYLE
105
27
102
{ACAD_REACTORS
330
3FA
330
408
330
415
330
422
330
42F
330
43C
330
449
330
456
330
463
330
470
102
}
330
A
100
AcDbSymbolTableRecord
100
AcDbDimStyleTableRecord
  2
ISO-25
 70
     0
  3

  4

  5

  6

  7

 40
1.0
 41
2.5
 42
0.625
 43
3.75
 44
1.25
 45
0.0
 46
0.0
 47
0.0
 48
0.0
140
2.5
141
2.5
142
0.0
143
0.03937007874016
144
1.0
145
0.0
146
1.0
147
0.625
 71
     0
 72
     0
 73
     0
 74
     0
 75
     0
 76
     0
 77
     1
 78
     8
170
     0
171
     3
172
     1
173
     0
174
     0
175
     0
176
     0
177
     0
178
     0
270
     2
271
     2
272
     2
273
     2
274
     3
340
11
275
     0
280
     0
281
     0
282
     0
283
     0
284
     8
285
     0
286
     0
287
     5
288
     0
  0
ENDTAB
  0
TABLE
  2
BLOCK_RECORD
  5
1
330
0
100
AcDbSymbolTable
 70
    24
  0
BLOCK_RECORD
  5
1F
330
1
100
AcDbSymbolTableRecord
100
AcDbBlockTableRecord
  2
*MODEL_SPACE
  0
BLOCK_RECORD
  5
1B
330
1
100
AcDbSymbolTableRecord
100
AcDbBlockTableRecord
  2
*PAPER_SPACE
  0
BLOCK_RECORD
  5
79
330
1
100
AcDbSymbolTableRecord
100
AcDbBlockTableRecord
  2
EX_NORM
  0
BLOCK_RECORD
  5
7C
330
1
100
AcDbSymbolTableRecord
100
AcDbBlockTableRecord
  2
EX_BNORM
  0
BLOCK_RECORD
  5
7F
330
1
100
AcDbSymbolTableRecord
100
AcDbBlockTableRecord
  2
EX_BCIR
  0
BLOCK_RECORD
  5
82
330
1
100
AcDbSymbolTableRecord
100
AcDbBlockTableRecord
  2
EX_RCIVIL
  0
BLOCK_RECORD
  5
85
330
1
100
AcDbSymbolTableRecord
100
AcDbBlockTableRecord
  2
EX_SLANT
  0
BLOCK_RECORD
  5
88
330
1
100
AcDbSymbolTableRecord
100
AcDbBlockTableRecord
  2
EX_NONE
  0
BLOCK_RECORD
  5
8B
330
1
100
AcDbSymbolTableRecord
100
AcDbBlockTableRecord
  2
EX_CIVIL
  0
BLOCK_RECORD
  5
8E
330
1
100
AcDbSymbolTableRecord
100
AcDbBlockTableRecord
  2
EX_WCIR
  0
BLOCK_RECORD
  5
91
330
1
100
AcDbSymbolTableRecord
100
AcDbBlockTableRecord
  2
EX_WCIR2
  0
BLOCK_RECORD
  5
94
330
1
100
AcDbSymbolTableRecord
100
AcDbBlockTableRecord
  2
EX_WNORM
  0
BLOCK_RECORD
  5
97
330
1
100
AcDbSymbolTableRecord
100
AcDbBlockTableRecord
  2
EX_NNORM
  0
BLOCK_RECORD
  5
9A
330
1
100
AcDbSymbolTableRecord
100
AcDbBlockTableRecord
  2
EX_BBOX
  0
BLOCK_RECORD
  5
9D
330
1
100
AcDbSymbolTableRecord
100
AcDbBlockTableRecord
  2
EX_WBOX
  0
BLOCK_RECORD
  5
A0
330
1
100
AcDbSymbolTableRecord
100
AcDbBlockTableRecord
  2
EX_INTEGRAL
  0
BLOCK_RECORD
  5
3FC
330
1
100
AcDbSymbolTableRecord
100
AcDbBlockTableRecord
  2
*D15
  0
BLOCK_RECORD
  5
409
330
1
100
AcDbSymbolTableRecord
100
AcDbBlockTableRecord
  2
*D16
  0
BLOCK_RECORD
  5
416
330
1
100
AcDbSymbolTableRecord
100
AcDbBlockTableRecord
  2
*D17
  0
BLOCK_RECORD
  5
423
330
1
100
AcDbSymbolTableRecord
100
AcDbBlockTableRecord
  2
*D18
  0
BLOCK_RECORD
  5
430
330
1
100
AcDbSymbolTableRecord
100
AcDbBlockTableRecord
  2
*D19
  0
BLOCK_RECORD
  5
43D
330
1
100
AcDbSymbolTableRecord
100
AcDbBlockTableRecord
  2
*D20
  0
BLOCK_RECORD
  5
44A
330
1
100
AcDbSymbolTableRecord
100
AcDbBlockTableRecord
  2
*D21
  0
BLOCK_RECORD
  5
457
330
1
100
AcDbSymbolTableRecord
100
AcDbBlockTableRecord
  2
*D22
  0
BLOCK_RECORD
  5
464
330
1
100
AcDbSymbolTableRecord
100
AcDbBlockTableRecord
  2
*D23
  0
BLOCK_RECORD
  5
471
330
1
100
AcDbSymbolTableRecord
100
AcDbBlockTableRecord
  2
*D24
  0
ENDTAB
  0
ENDSEC
  0
SECTION
  2
BLOCKS
  0
BLOCK
  5
20
330
1F
100
AcDbEntity
  8
0
100
AcDbBlockBegin
  2
*MODEL_SPACE
 70
     0
 10
0.0
 20
0.0
 30
0.0
  3
*MODEL_SPACE
  1

  0
ENDBLK
  5
21
330
1F
100
AcDbEntity
  8
0
100
AcDbBlockEnd
  0
BLOCK
  5
1C
330
1B
100
AcDbEntity
 67
     1
  8
0
100
AcDbBlockBegin
  2
*PAPER_SPACE
 70
     0
 10
0.0
 20
0.0
 30
0.0
  3
*PAPER_SPACE
  1

  0
ENDBLK
  5
1D
330
1B
100
AcDbEntity
 67
     1
  8
0
100
AcDbBlockEnd
  0
BLOCK
  5
7A
330
79
100
AcDbEntity
  8
0
100
AcDbBlockBegin
  2
EX_NORM
 70
     0
 10
0.0
 20
0.0
 30
0.0
  3
EX_NORM
  1

  0
LINE
  5
A3
330
79
100
AcDbEntity
  8
0
  6
CONTINUOUS
 62
     0
100
AcDbLine
 10
0.0
 20
0.0
 30
0.0
 11
-1.0
 21
0.0
 31
0.0
  0
LINE
  5
A4
330
79
100
AcDbEntity
  8
0
  6
CONTINUOUS
 62
     0
100
AcDbLine
 10
0.0
 20
0.0
 30
0.0
 11
-1.0
 21
0.166666667
 31
0.0
  0
LINE
  5
A5
330
79
100
AcDbEntity
  8
0
  6
CONTINUOUS
 62
     0
100
AcDbLine
 10
0.0
 20
0.0
 30
0.0
 11
-1.0
 21
-0.166666667
 31
0.0
  0
ENDBLK
  5
7B
330
79
100
AcDbEntity
  8
0
100
AcDbBlockEnd
  0
BLOCK
  5
7D
330
7C
100
AcDbEntity
  8
0
100
AcDbBlockBegin
  2
EX_BNORM
 70
     0
 10
0.0
 20
0.0
 30
0.0
  3
EX_BNORM
  1

  0
LINE
  5
A6
330
7C
100
AcDbEntity
  8
0
  6
CONTINUOUS
 62
     0
100
AcDbLine
 10
0.0
 20
0.0
 30
0.0
 11
-1.0
 21
0.0
 31
0.0
  0
LINE
  5
A7
330
7C
100
AcDbEntity
  8
0
  6
CONTINUOUS
 62
     0
100
AcDbLine
 10
0.0
 20
0.0
 30
0.0
 11
-1.0
 21
0.166666667
 31
0.0
  0
LINE
  5
A8
330
7C
100
AcDbEntity
  8
0
  6
CONTINUOUS
 62
     0
100
AcDbLine
 10
0.0
 20
0.0
 30
0.0
 11
-1.0
 21
-0.166666667
 31
0.0
  0
LINE
  5
A9
330
7C
100
AcDbEntity
  8
0
  6
CONTINUOUS
 62
     0
100
AcDbLine
 10
0.0
 20
0.0
 30
0.0
 11
-1.0
 21
0.083333333
 31
0.0
  0
LINE
  5
AA
330
7C
100
AcDbEntity
  8
0
  6
CONTINUOUS
 62
     0
100
AcDbLine
 10
0.0
 20
0.0
 30
0.0
 11
-1.0
 21
-0.083333333
 31
0.0
  0
LINE
  5
AB
330
7C
100
AcDbEntity
  8
0
  6
CONTINUOUS
 62
     0
100
AcDbLine
 10
-1.0
 20
0.166666667
 30
0.0
 11
-1.0
 21
-0.166666667
 31
0.0
  0
ENDBLK
  5
7E
330
7C
100
AcDbEntity
  8
0
100
AcDbBlockEnd
  0
BLOCK
  5
80
330
7F
100
AcDbEntity
  8
0
100
AcDbBlockBegin
  2
EX_BCIR
 70
     0
 10
0.0
 20
0.0
 30
0.0
  3
EX_BCIR
  1

  0
LINE
  5
AC
330
7F
100
AcDbEntity
  8
0
  6
CONTINUOUS
 62
     0
100
AcDbLine
 10
0.0
 20
0.0
 30
0.0
 11
-1.0
 21
0.0
 31
0.0
  0
CIRCLE
  5
AD
330
7F
100
AcDbEntity
  8
0
  6
CONTINUOUS
 62
     0
100
AcDbCircle
 10
0.0
 20
0.0
 30
0.0
 40
0.5
  0
CIRCLE
  5
AE
330
7F
100
AcDbEntity
  8
0
  6
CONTINUOUS
 62
     0
100
AcDbCircle
 10
0.0
 20
0.0
 30
0.0
 40
0.25
  0
ENDBLK
  5
81
330
7F
100
AcDbEntity
  8
0
100
AcDbBlockEnd
  0
BLOCK
  5
83
330
82
100
AcDbEntity
  8
0
100
AcDbBlockBegin
  2
EX_RCIVIL
 70
     0
 10
0.0
 20
0.0
 30
0.0
  3
EX_RCIVIL
  1

  0
LINE
  5
AF
330
82
100
AcDbEntity
  8
0
  6
CONTINUOUS
 62
     0
100
AcDbLine
 10
0.0
 20
0.0
 30
0.0
 11
-1.0
 21
0.0
 31
0.0
  0
LINE
  5
B0
330
82
100
AcDbEntity
  8
0
  6
CONTINUOUS
 62
     0
100
AcDbLine
 10
-1.0
 20
-0.25
 30
0.0
 11
0.0
 21
-0.25
 31
0.0
  0
LINE
  5
B1
330
82
100
AcDbEntity
  8
0
  6
CONTINUOUS
 62
     0
100
AcDbLine
 10
-1.0
 20
-0.125
 30
0.0
 11
0.0
 21
-0.125
 31
0.0
  0
ENDBLK
  5
84
330
82
100
AcDbEntity
  8
0
100
AcDbBlockEnd
  0
BLOCK
  5
86
330
85
100
AcDbEntity
  8
0
100
AcDbBlockBegin
  2
EX_SLANT
 70
     0
 10
0.0
 20
0.0
 30
0.0
  3
EX_SLANT
  1

  0
LINE
  5
B2
330
85
100
AcDbEntity
  8
0
  6
CONTINUOUS
 62
     0
100
AcDbLine
 10
0.0
 20
0.0
 30
0.0
 11
-1.0
 21
0.0
 31
0.0
  0
LINE
  5
B3
330
85
100
AcDbEntity
  8
0
  6
CONTINUOUS
 62
     0
100
AcDbLine
 10
0.707106781
 20
0.707106781
 30
0.0
 11
-0.707106781
 21
-0.707106781
 31
0.0
  0
ENDBLK
  5
87
330
85
100
AcDbEntity
  8
0
100
AcDbBlockEnd
  0
BLOCK
  5
89
330
88
100
AcDbEntity
  8
0
100
AcDbBlockBegin
  2
EX_NONE
 70
     0
 10
0.0
 20
0.0
 30
0.0
  3
EX_NONE
  1

  0
LINE
  5
B4
330
88
100
AcDbEntity
  8
0
  6
CONTINUOUS
 62
     0
100
AcDbLine
 10
0.0
 20
0.0
 30
0.0
 11
-1.0
 21
0.0
 31
0.0
  0
ENDBLK
  5
8A
330
88
100
AcDbEntity
  8
0
100
AcDbBlockEnd
  0
BLOCK
  5
8C
330
8B
100
AcDbEntity
  8
0
100
AcDbBlockBegin
  2
EX_CIVIL
 70
     0
 10
0.0
 20
0.0
 30
0.0
  3
EX_CIVIL
  1

  0
LINE
  5
B5
330
8B
100
AcDbEntity
  8
0
  6
CONTINUOUS
 62
     0
100
AcDbLine
 10
0.0
 20
0.0
 30
0.0
 11
-1.0
 21
0.0
 31
0.0
  0
LINE
  5
B6
330
8B
100
AcDbEntity
  8
0
  6
CONTINUOUS
 62
     0
100
AcDbLine
 10
-1.0
 20
0.25
 30
0.0
 11
0.0
 21
0.25
 31
0.0
  0
LINE
  5
B7
330
8B
100
AcDbEntity
  8
0
  6
CONTINUOUS
 62
     0
100
AcDbLine
 10
-1.0
 20
0.125
 30
0.0
 11
0.0
 21
0.125
 31
0.0
  0
ENDBLK
  5
8D
330
8B
100
AcDbEntity
  8
0
100
AcDbBlockEnd
  0
BLOCK
  5
8F
330
8E
100
AcDbEntity
  8
0
100
AcDbBlockBegin
  2
EX_WCIR
 70
     0
 10
0.0
 20
0.0
 30
0.0
  3
EX_WCIR
  1

  0
LINE
  5
B8
330
8E
100
AcDbEntity
  8
0
  6
CONTINUOUS
 62
     0
100
AcDbLine
 10
0.0
 20
0.0
 30
0.0
 11
-1.0
 21
0.0
 31
0.0
  0
CIRCLE
  5
B9
330
8E
100
AcDbEntity
  8
0
  6
CONTINUOUS
 62
     0
100
AcDbCircle
 10
0.0
 20
0.0
 30
0.0
 40
0.5
  0
ENDBLK
  5
90
330
8E
100
AcDbEntity
  8
0
100
AcDbBlockEnd
  0
BLOCK
  5
92
330
91
100
AcDbEntity
  8
0
100
AcDbBlockBegin
  2
EX_WCIR2
 70
     0
 10
0.0
 20
0.0
 30
0.0
  3
EX_WCIR2
  1

  0
LINE
  5
BA
330
91
100
AcDbEntity
  8
0
  6
CONTINUOUS
 62
     0
100
AcDbLine
 10
-0.5
 20
0.0
 30
0.0
 11
-1.0
 21
0.0
 31
0.0
  0
CIRCLE
  5
BB
330
91
100
AcDbEntity
  8
0
  6
CONTINUOUS
 62
     0
100
AcDbCircle
 10
0.0
 20
0.0
 30
0.0
 40
0.5
  0
ENDBLK
  5
93
330
91
100
AcDbEntity
  8
0
100
AcDbBlockEnd
  0
BLOCK
  5
95
330
94
100
AcDbEntity
  8
0
100
AcDbBlockBegin
  2
EX_WNORM
 70
     0
 10
0.0
 20
0.0
 30
0.0
  3
EX_WNORM
  1

  0
LINE
  5
BC
330
94
100
AcDbEntity
  8
0
  6
CONTINUOUS
 62
     0
100
AcDbLine
 10
-1.0
 20
0.0
 30
0.0
 11
-1.0
 21
0.0
 31
0.0
  0
LINE
  5
BD
330
94
100
AcDbEntity
  8
0
  6
CONTINUOUS
 62
     0
100
AcDbLine
 10
0.0
 20
0.0
 30
0.0
 11
-1.0
 21
0.166666667
 31
0.0
  0
LINE
  5
BE
330
94
100
AcDbEntity
  8
0
  6
CONTINUOUS
 62
     0
100
AcDbLine
 10
0.0
 20
0.0
 30
0.0
 11
-1.0
 21
-0.166666667
 31
0.0
  0
LINE
  5
BF
330
94
100
AcDbEntity
  8
0
  6
CONTINUOUS
 62
     0
100
AcDbLine
 10
-1.0
 20
0.166666667
 30
0.0
 11
-1.0
 21
-0.166666667
 31
0.0
  0
ENDBLK
  5
96
330
94
100
AcDbEntity
  8
0
100
AcDbBlockEnd
  0
BLOCK
  5
98
330
97
100
AcDbEntity
  8
0
100
AcDbBlockBegin
  2
EX_NNORM
 70
     0
 10
0.0
 20
0.0
 30
0.0
  3
EX_NNORM
  1

  0
LINE
  5
C0
330
97
100
AcDbEntity
  8
0
  6
CONTINUOUS
 62
     0
100
AcDbLine
 10
0.0
 20
0.0
 30
0.0
 11
-1.0
 21
0.0
 31
0.0
  0
LINE
  5
C1
330
97
100
AcDbEntity
  8
0
  6
CONTINUOUS
 62
     0
100
AcDbLine
 10
0.0
 20
0.0
 30
0.0
 11
-1.0
 21
0.166666667
 31
0.0
  0
LINE
  5
C2
330
97
100
AcDbEntity
  8
0
  6
CONTINUOUS
 62
     0
100
AcDbLine
 10
0.0
 20
0.0
 30
0.0
 11
-1.0
 21
-0.166666667
 31
0.0
  0
LINE
  5
C3
330
97
100
AcDbEntity
  8
0
  6
CONTINUOUS
 62
     0
100
AcDbLine
 10
-1.0
 20
0.166666667
 30
0.0
 11
-1.0
 21
-0.166666667
 31
0.0
  0
ENDBLK
  5
99
330
97
100
AcDbEntity
  8
0
100
AcDbBlockEnd
  0
BLOCK
  5
9B
330
9A
100
AcDbEntity
  8
0
100
AcDbBlockBegin
  2
EX_BBOX
 70
     0
 10
0.0
 20
0.0
 30
0.0
  3
EX_BBOX
  1

  0
LINE
  5
C4
330
9A
100
AcDbEntity
  8
0
  6
CONTINUOUS
 62
     0
100
AcDbLine
 10
0.0
 20
0.0
 30
0.0
 11
-1.0
 21
0.0
 31
0.0
  0
LINE
  5
C5
330
9A
100
AcDbEntity
  8
0
  6
CONTINUOUS
 62
     0
100
AcDbLine
 10
-0.5
 20
0.5
 30
0.0
 11
0.5
 21
0.5
 31
0.0
  0
LINE
  5
C6
330
9A
100
AcDbEntity
  8
0
  6
CONTINUOUS
 62
     0
100
AcDbLine
 10
0.5
 20
0.5
 30
0.0
 11
0.5
 21
-0.5
 31
0.0
  0
LINE
  5
C7
330
9A
100
AcDbEntity
  8
0
  6
CONTINUOUS
 62
     0
100
AcDbLine
 10
0.5
 20
-0.5
 30
0.0
 11
-0.5
 21
-0.5
 31
0.0
  0
LINE
  5
C8
330
9A
100
AcDbEntity
  8
0
  6
CONTINUOUS
 62
     0
100
AcDbLine
 10
-0.5
 20
-0.5
 30
0.0
 11
-0.5
 21
0.5
 31
0.0
  0
LINE
  5
C9
330
9A
100
AcDbEntity
  8
0
  6
CONTINUOUS
 62
     0
100
AcDbLine
 10
-0.25
 20
0.25
 30
0.0
 11
0.25
 21
0.25
 31
0.0
  0
LINE
  5
CA
330
9A
100
AcDbEntity
  8
0
  6
CONTINUOUS
 62
     0
100
AcDbLine
 10
0.25
 20
0.25
 30
0.0
 11
0.25
 21
-0.25
 31
0.0
  0
LINE
  5
CB
330
9A
100
AcDbEntity
  8
0
  6
CONTINUOUS
 62
     0
100
AcDbLine
 10
0.25
 20
-0.25
 30
0.0
 11
-0.25
 21
-0.25
 31
0.0
  0
LINE
  5
CC
330
9A
100
AcDbEntity
  8
0
  6
CONTINUOUS
 62
     0
100
AcDbLine
 10
-0.25
 20
-0.25
 30
0.0
 11
-0.25
 21
0.25
 31
0.0
  0
ENDBLK
  5
9C
330
9A
100
AcDbEntity
  8
0
100
AcDbBlockEnd
  0
BLOCK
  5
9E
330
9D
100
AcDbEntity
  8
0
100
AcDbBlockBegin
  2
EX_WBOX
 70
     0
 10
0.0
 20
0.0
 30
0.0
  3
EX_WBOX
  1

  0
LINE
  5
CD
330
9D
100
AcDbEntity
  8
0
  6
CONTINUOUS
 62
     0
100
AcDbLine
 10
-0.5
 20
0.0
 30
0.0
 11
-1.0
 21
0.0
 31
0.0
  0
LINE
  5
CE
330
9D
100
AcDbEntity
  8
0
  6
CONTINUOUS
 62
     0
100
AcDbLine
 10
-0.5
 20
0.5
 30
0.0
 11
0.5
 21
0.5
 31
0.0
  0
LINE
  5
CF
330
9D
100
AcDbEntity
  8
0
  6
CONTINUOUS
 62
     0
100
AcDbLine
 10
0.5
 20
0.5
 30
0.0
 11
0.5
 21
-0.5
 31
0.0
  0
LINE
  5
D0
330
9D
100
AcDbEntity
  8
0
  6
CONTINUOUS
 62
     0
100
AcDbLine
 10
0.5
 20
-0.5
 30
0.0
 11
-0.5
 21
-0.5
 31
0.0
  0
LINE
  5
D1
330
9D
100
AcDbEntity
  8
0
  6
CONTINUOUS
 62
     0
100
AcDbLine
 10
-0.5
 20
-0.5
 30
0.0
 11
-0.5
 21
0.5
 31
0.0
  0
ENDBLK
  5
9F
330
9D
100
AcDbEntity
  8
0
100
AcDbBlockEnd
  0
BLOCK
  5
A1
330
A0
100
AcDbEntity
  8
0
100
AcDbBlockBegin
  2
EX_INTEGRAL
 70
     0
 10
0.0
 20
0.0
 30
0.0
  3
EX_INTEGRAL
  1

  0
LINE
  5
D2
330
A0
100
AcDbEntity
  8
0
  6
CONTINUOUS
 62
     0
100
AcDbLine
 10
0.0
 20
0.0
 30
0.0
 11
-1.0
 21
0.0
 31
0.0
  0
ARC
  5
D3
330
A0
100
AcDbEntity
  8
0
  6
CONTINUOUS
 62
     0
100
AcDbCircle
 10
0.542115
 20
0.164992
 30
0.0
 40
0.56667
100
AcDbArc
 50
73.07249033629006
 51
196.9275130221199
  0
ARC
  5
D4
330
A0
100
AcDbEntity
  8
0
  6
CONTINUOUS
 62
     0
100
AcDbCircle
 10
-0.542115
 20
-0.164992
 30
0.0
 40
0.56667
100
AcDbArc
 50
253.0724869220464
 51
16.9275130559125
  0
ENDBLK
  5
A2
330
A0
100
AcDbEntity
  8
0
100
AcDbBlockEnd
  0
BLOCK
  5
3FD
330
3FC
100
AcDbEntity
  8
0
100
AcDbBlockBegin
  2
*D15
 70
     1
 10
0.0
 20
0.0
 30
0.0
  3
*D15
  1

  0
LINE
  5
3FF
330
3FC
100
AcDbEntity
  8
LAY-20
  6
CONTINUOUS
 62
     4
100
AcDbLine
 10
567.8076841561203
 20
973.7520497555903
 30
0.0
 11
567.8076841561203
 21
1143.7520497556
 31
0.0
  0
LINE
  5
400
330
3FC
100
AcDbEntity
  8
LAY-20
  6
CONTINUOUS
 62
     4
100
AcDbLine
 10
1469.8076841562
 20
973.7520497555903
 30
0.0
 11
1469.8076841562
 21
1143.7520497556
 31
0.0
  0
LINE
  5
401
330
3FC
100
AcDbEntity
  8
LAY-20
  6
CONTINUOUS
 62
     4
100
AcDbLine
 10
592.8076841561203
 20
1128.7520497556
 30
0.0
 11
1444.8076841562
 21
1128.7520497556
 31
0.0
  0
INSERT
  5
402
330
3FC
100
AcDbEntity
  8
LAY-20
 62
     4
100
AcDbBlockReference
  2
EX_BNORM
 10
567.8076841561203
 20
1128.7520497556
 30
0.0
 41
25.0
 42
25.0
 43
25.0
 50
180.0
  0
INSERT
  5
403
330
3FC
100
AcDbEntity
  8
LAY-20
 62
     4
100
AcDbBlockReference
  2
EX_BNORM
 10
1469.8076841562
 20
1128.7520497556
 30
0.0
 41
25.0
 42
25.0
 43
25.0
  0
MTEXT
  5
404
330
3FC
100
AcDbEntity
  8
LAY-20
 62
     7
100
AcDbMText
 10
1018.80768415616
 20
1153.7520497556
 30
0.0
 40
31.181104
 41
0.0
 71
     5
 72
     1
  1
902
  7
EXCADDIM1
  0
POINT
  5
405
330
3FC
100
AcDbEntity
  8
DEFPOINTS
 62
     0
100
AcDbPoint
 10
567.8076841561203
 20
958.7520497555903
 30
0.0
  0
POINT
  5
406
330
3FC
100
AcDbEntity
  8
DEFPOINTS
 62
     0
100
AcDbPoint
 10
1469.8076841562
 20
958.7520497555903
 30
0.0
  0
POINT
  5
407
330
3FC
100
AcDbEntity
  8
DEFPOINTS
 62
     0
100
AcDbPoint
 10
1469.8076841562
 20
1128.7520497556
 30
0.0
  0
ENDBLK
  5
3FE
330
3FC
100
AcDbEntity
  8
0
100
AcDbBlockEnd
  0
BLOCK
  5
40A
330
409
100
AcDbEntity
  8
0
100
AcDbBlockBegin
  2
*D16
 70
     1
 10
0.0
 20
0.0
 30
0.0
  3
*D16
  1

  0
LINE
  5
40C
330
409
100
AcDbEntity
  8
LAY-20
  6
CONTINUOUS
 62
     4
100
AcDbLine
 10
583.8076841562424
 20
973.7520497555934
 30
0.0
 11
583.8076841562424
 21
1073.7520497556
 31
0.0
  0
LINE
  5
40D
330
409
100
AcDbEntity
  8
LAY-20
  6
CONTINUOUS
 62
     4
100
AcDbLine
 10
1017.807684156115
 20
973.7520497555956
 30
0.0
 11
1017.807684156115
 21
1073.7520497556
 31
0.0
  0
LINE
  5
40E
330
409
100
AcDbEntity
  8
LAY-20
  6
CONTINUOUS
 62
     4
100
AcDbLine
 10
608.8076841562424
 20
1058.7520497556
 30
0.0
 11
992.8076841561151
 21
1058.7520497556
 31
0.0
  0
INSERT
  5
40F
330
409
100
AcDbEntity
  8
LAY-20
 62
     4
100
AcDbBlockReference
  2
EX_BNORM
 10
583.8076841562424
 20
1058.7520497556
 30
0.0
 41
25.0
 42
25.0
 43
25.0
 50
180.0
  0
INSERT
  5
410
330
409
100
AcDbEntity
  8
LAY-20
 62
     4
100
AcDbBlockReference
  2
EX_BNORM
 10
1017.807684156115
 20
1058.7520497556
 30
0.0
 41
25.0
 42
25.0
 43
25.0
  0
MTEXT
  5
411
330
409
100
AcDbEntity
  8
LAY-20
 62
     7
100
AcDbMText
 10
800.8076841561788
 20
1083.7520497556
 30
0.0
 40
31.181104
 41
0.0
 71
     5
 72
     1
  1
434
  7
EXCADDIM1
  0
POINT
  5
412
330
409
100
AcDbEntity
  8
DEFPOINTS
 62
     0
100
AcDbPoint
 10
583.8076841562424
 20
958.7520497555934
 30
0.0
  0
POINT
  5
413
330
409
100
AcDbEntity
  8
DEFPOINTS
 62
     0
100
AcDbPoint
 10
1017.807684156115
 20
958.7520497555956
 30
0.0
  0
POINT
  5
414
330
409
100
AcDbEntity
  8
DEFPOINTS
 62
     0
100
AcDbPoint
 10
1017.807684156115
 20
1058.7520497556
 30
0.0
  0
ENDBLK
  5
40B
330
409
100
AcDbEntity
  8
0
100
AcDbBlockEnd
  0
BLOCK
  5
417
330
416
100
AcDbEntity
  8
0
100
AcDbBlockBegin
  2
*D17
 70
     1
 10
0.0
 20
0.0
 30
0.0
  3
*D17
  1

  0
LINE
  5
419
330
416
100
AcDbEntity
  8
LAY-20
  6
CONTINUOUS
 62
     4
100
AcDbLine
 10
1368.8076841562
 20
763.7520497555901
 30
0.0
 11
1368.8076841562
 21
663.7520497555902
 31
0.0
  0
LINE
  5
41A
330
416
100
AcDbEntity
  8
LAY-20
  6
CONTINUOUS
 62
     4
100
AcDbLine
 10
668.8076841561201
 20
763.7520497555901
 30
0.0
 11
668.8076841561201
 21
663.7520497555902
 31
0.0
  0
LINE
  5
41B
330
416
100
AcDbEntity
  8
LAY-20
  6
CONTINUOUS
 62
     4
100
AcDbLine
 10
1343.8076841562
 20
678.75204975559
 30
0.0
 11
693.8076841561201
 21
678.75204975559
 31
0.0
  0
INSERT
  5
41C
330
416
100
AcDbEntity
  8
LAY-20
 62
     4
100
AcDbBlockReference
  2
EX_BNORM
 10
1368.8076841562
 20
678.75204975559
 30
0.0
 41
25.0
 42
25.0
 43
25.0
  0
INSERT
  5
41D
330
416
100
AcDbEntity
  8
LAY-20
 62
     4
100
AcDbBlockReference
  2
EX_BNORM
 10
668.8076841561201
 20
678.75204975559
 30
0.0
 41
25.0
 42
25.0
 43
25.0
 50
180.0
  0
MTEXT
  5
41E
330
416
100
AcDbEntity
  8
LAY-20
 62
     7
100
AcDbMText
 10
1018.80768415616
 20
703.7520497555898
 30
0.0
 40
31.181104
 41
0.0
 71
     5
 72
     1
  1
700
  7
EXCADDIM1
  0
POINT
  5
41F
330
416
100
AcDbEntity
  8
DEFPOINTS
 62
     0
100
AcDbPoint
 10
1368.8076841562
 20
778.7520497555901
 30
0.0
  0
POINT
  5
420
330
416
100
AcDbEntity
  8
DEFPOINTS
 62
     0
100
AcDbPoint
 10
668.8076841561201
 20
778.7520497555901
 30
0.0
  0
POINT
  5
421
330
416
100
AcDbEntity
  8
DEFPOINTS
 62
     0
100
AcDbPoint
 10
668.8076841561201
 20
678.75204975559
 30
0.0
  0
ENDBLK
  5
418
330
416
100
AcDbEntity
  8
0
100
AcDbBlockEnd
  0
BLOCK
  5
424
330
423
100
AcDbEntity
  8
0
100
AcDbBlockBegin
  2
*D18
 70
     1
 10
0.0
 20
0.0
 30
0.0
  3
*D18
  1

  0
LINE
  5
426
330
423
100
AcDbEntity
  8
LAY-20
  6
CONTINUOUS
 62
     4
100
AcDbLine
 10
1430.0076841562
 20
778.7520497555901
 30
0.0
 11
1613.706168965999
 21
778.7520497555901
 31
0.0
  0
LINE
  5
427
330
423
100
AcDbEntity
  8
LAY-20
  6
CONTINUOUS
 62
     4
100
AcDbLine
 10
1484.8076841562
 20
958.7520497555903
 30
0.0
 11
1613.706168965999
 21
958.7520497555903
 31
0.0
  0
LINE
  5
428
330
423
100
AcDbEntity
  8
LAY-20
  6
CONTINUOUS
 62
     4
100
AcDbLine
 10
1598.706168966
 20
803.7520497555901
 30
0.0
 11
1598.706168966
 21
933.7520497555903
 31
0.0
  0
INSERT
  5
429
330
423
100
AcDbEntity
  8
LAY-20
 62
     4
100
AcDbBlockReference
  2
EX_BNORM
 10
1598.706168966
 20
778.7520497555901
 30
0.0
 41
25.0
 42
25.0
 43
25.0
 50
270.0
  0
INSERT
  5
42A
330
423
100
AcDbEntity
  8
LAY-20
 62
     4
100
AcDbBlockReference
  2
EX_BNORM
 10
1598.706168966
 20
958.7520497555903
 30
0.0
 41
25.0
 42
25.0
 43
25.0
 50
90.0
  0
MTEXT
  5
42B
330
423
100
AcDbEntity
  8
LAY-20
 62
     7
100
AcDbMText
 10
1573.706168966
 20
868.75204975559
 30
0.0
 40
31.181104
 41
0.0
 71
     5
 72
     1
  1
180
  7
EXCADDIM1
 11
0.0
 21
1.0
 31
0.0
  0
POINT
  5
42C
330
423
100
AcDbEntity
  8
DEFPOINTS
 62
     0
100
AcDbPoint
 10
1415.0076841562
 20
778.7520497555901
 30
0.0
  0
POINT
  5
42D
330
423
100
AcDbEntity
  8
DEFPOINTS
 62
     0
100
AcDbPoint
 10
1469.8076841562
 20
958.7520497555903
 30
0.0
  0
POINT
  5
42E
330
423
100
AcDbEntity
  8
DEFPOINTS
 62
     0
100
AcDbPoint
 10
1598.706168966
 20
958.7520497555903
 30
0.0
  0
ENDBLK
  5
425
330
423
100
AcDbEntity
  8
0
100
AcDbBlockEnd
  0
BLOCK
  5
431
330
430
100
AcDbEntity
  8
0
100
AcDbBlockBegin
  2
*D19
 70
     1
 10
0.0
 20
0.0
 30
0.0
  3
*D19
  1

  0
LINE
  5
433
330
430
100
AcDbEntity
  8
LAY-20
  6
CONTINUOUS
 62
     4
100
AcDbLine
 10
1871.12002116657
 20
1313.46787687104
 30
0.0
 11
1701.1200211666
 21
1313.46787687104
 31
0.0
  0
LINE
  5
434
330
430
100
AcDbEntity
  8
LAY-20
  6
CONTINUOUS
 62
     4
100
AcDbLine
 10
1871.12002116661
 20
2215.46787687109
 30
0.0
 11
1701.1200211666
 21
2215.46787687109
 31
0.0
  0
LINE
  5
435
330
430
100
AcDbEntity
  8
LAY-20
  6
CONTINUOUS
 62
     4
100
AcDbLine
 10
1716.1200211666
 20
1338.46787687104
 30
0.0
 11
1716.1200211666
 21
2190.46787687109
 31
0.0
  0
INSERT
  5
436
330
430
100
AcDbEntity
  8
LAY-20
 62
     4
100
AcDbBlockReference
  2
EX_BNORM
 10
1716.1200211666
 20
1313.46787687104
 30
0.0
 41
25.0
 42
25.0
 43
25.0
 50
270.0
  0
INSERT
  5
437
330
430
100
AcDbEntity
  8
LAY-20
 62
     4
100
AcDbBlockReference
  2
EX_BNORM
 10
1716.1200211666
 20
2215.46787687109
 30
0.0
 41
25.0
 42
25.0
 43
25.0
 50
90.0
  0
MTEXT
  5
438
330
430
100
AcDbEntity
  8
LAY-20
 62
     7
100
AcDbMText
 10
1691.120021166601
 20
1764.467876871065
 30
0.0
 40
31.181104
 41
0.0
 71
     5
 72
     1
  1
902
  7
EXCADDIM1
 11
0.0
 21
1.0
 31
0.0
  0
POINT
  5
439
330
430
100
AcDbEntity
  8
DEFPOINTS
 62
     0
100
AcDbPoint
 10
1886.12002116657
 20
1313.46787687104
 30
0.0
  0
POINT
  5
43A
330
430
100
AcDbEntity
  8
DEFPOINTS
 62
     0
100
AcDbPoint
 10
1886.12002116661
 20
2215.46787687109
 30
0.0
  0
POINT
  5
43B
330
430
100
AcDbEntity
  8
DEFPOINTS
 62
     0
100
AcDbPoint
 10
1716.1200211666
 20
2215.46787687109
 30
0.0
  0
ENDBLK
  5
432
330
430
100
AcDbEntity
  8
0
100
AcDbBlockEnd
  0
BLOCK
  5
43E
330
43D
100
AcDbEntity
  8
0
100
AcDbBlockBegin
  2
*D20
 70
     1
 10
0.0
 20
0.0
 30
0.0
  3
*D20
  1

  0
LINE
  5
440
330
43D
100
AcDbEntity
  8
LAY-20
  6
CONTINUOUS
 62
     4
100
AcDbLine
 10
1871.120021166611
 20
1329.467876871109
 30
0.0
 11
1771.1200211666
 21
1329.467876871109
 31
0.0
  0
LINE
  5
441
330
43D
100
AcDbEntity
  8
LAY-20
  6
CONTINUOUS
 62
     4
100
AcDbLine
 10
1871.120021166611
 20
2199.467876871106
 30
0.0
 11
1771.1200211666
 21
2199.467876871106
 31
0.0
  0
LINE
  5
442
330
43D
100
AcDbEntity
  8
LAY-20
  6
CONTINUOUS
 62
     4
100
AcDbLine
 10
1786.1200211666
 20
1354.467876871109
 30
0.0
 11
1786.1200211666
 21
2174.467876871106
 31
0.0
  0
INSERT
  5
443
330
43D
100
AcDbEntity
  8
LAY-20
 62
     4
100
AcDbBlockReference
  2
EX_BNORM
 10
1786.1200211666
 20
1329.467876871109
 30
0.0
 41
25.0
 42
25.0
 43
25.0
 50
270.0
  0
INSERT
  5
444
330
43D
100
AcDbEntity
  8
LAY-20
 62
     4
100
AcDbBlockReference
  2
EX_BNORM
 10
1786.1200211666
 20
2199.467876871106
 30
0.0
 41
25.0
 42
25.0
 43
25.0
 50
90.0
  0
MTEXT
  5
445
330
43D
100
AcDbEntity
  8
LAY-20
 62
     7
100
AcDbMText
 10
1761.120021166601
 20
1764.467876871108
 30
0.0
 40
31.181104
 41
0.0
 71
     5
 72
     1
  1
870
  7
EXCADDIM1
 11
0.0
 21
1.0
 31
0.0
  0
POINT
  5
446
330
43D
100
AcDbEntity
  8
DEFPOINTS
 62
     0
100
AcDbPoint
 10
1886.120021166611
 20
1329.467876871109
 30
0.0
  0
POINT
  5
447
330
43D
100
AcDbEntity
  8
DEFPOINTS
 62
     0
100
AcDbPoint
 10
1886.120021166611
 20
2199.467876871106
 30
0.0
  0
POINT
  5
448
330
43D
100
AcDbEntity
  8
DEFPOINTS
 62
     0
100
AcDbPoint
 10
1786.1200211666
 20
2199.467876871106
 30
0.0
  0
ENDBLK
  5
43F
330
43D
100
AcDbEntity
  8
0
100
AcDbBlockEnd
  0
BLOCK
  5
44B
330
44A
100
AcDbEntity
  8
0
100
AcDbBlockBegin
  2
*D21
 70
     1
 10
0.0
 20
0.0
 30
0.0
  3
*D21
  1

  0
LINE
  5
44D
330
44A
100
AcDbEntity
  8
LAY-20
  6
CONTINUOUS
 62
     4
100
AcDbLine
 10
2081.12002116661
 20
2114.46787687119
 30
0.0
 11
2181.1200211666
 21
2114.46787687119
 31
0.0
  0
LINE
  5
44E
330
44A
100
AcDbEntity
  8
LAY-20
  6
CONTINUOUS
 62
     4
100
AcDbLine
 10
2081.12002116661
 20
1414.46787687105
 30
0.0
 11
2181.1200211666
 21
1414.46787687105
 31
0.0
  0
LINE
  5
44F
330
44A
100
AcDbEntity
  8
LAY-20
  6
CONTINUOUS
 62
     4
100
AcDbLine
 10
2166.1200211666
 20
2089.46787687119
 30
0.0
 11
2166.1200211666
 21
1439.46787687105
 31
0.0
  0
INSERT
  5
450
330
44A
100
AcDbEntity
  8
LAY-20
 62
     4
100
AcDbBlockReference
  2
EX_BNORM
 10
2166.1200211666
 20
2114.46787687119
 30
0.0
 41
25.0
 42
25.0
 43
25.0
 50
90.0
  0
INSERT
  5
451
330
44A
100
AcDbEntity
  8
LAY-20
 62
     4
100
AcDbBlockReference
  2
EX_BNORM
 10
2166.1200211666
 20
1414.46787687105
 30
0.0
 41
25.0
 42
25.0
 43
25.0
 50
270.0
  0
MTEXT
  5
452
330
44A
100
AcDbEntity
  8
LAY-20
 62
     7
100
AcDbMText
 10
2141.120021166601
 20
1764.46787687112
 30
0.0
 40
31.181104
 41
0.0
 71
     5
 72
     1
  1
700
  7
EXCADDIM1
 11
0.0
 21
1.0
 31
0.0
  0
POINT
  5
453
330
44A
100
AcDbEntity
  8
DEFPOINTS
 62
     0
100
AcDbPoint
 10
2066.12002116661
 20
2114.46787687119
 30
0.0
  0
POINT
  5
454
330
44A
100
AcDbEntity
  8
DEFPOINTS
 62
     0
100
AcDbPoint
 10
2066.12002116661
 20
1414.46787687105
 30
0.0
  0
POINT
  5
455
330
44A
100
AcDbEntity
  8
DEFPOINTS
 62
     0
100
AcDbPoint
 10
2166.1200211666
 20
1414.46787687105
 30
0.0
  0
ENDBLK
  5
44C
330
44A
100
AcDbEntity
  8
0
100
AcDbBlockEnd
  0
BLOCK
  5
458
330
457
100
AcDbEntity
  8
0
100
AcDbBlockBegin
  2
*D22
 70
     1
 10
0.0
 20
0.0
 30
0.0
  3
*D22
  1

  0
LINE
  5
45A
330
457
100
AcDbEntity
  8
LAY-20
  6
CONTINUOUS
 62
     4
100
AcDbLine
 10
1998.5200211666
 20
2206.667876871
 30
0.0
 11
2251.1200211666
 21
2206.667876871
 31
0.0
  0
LINE
  5
45B
330
457
100
AcDbEntity
  8
LAY-20
  6
CONTINUOUS
 62
     4
100
AcDbLine
 10
1998.5200211666
 20
1322.267876871
 30
0.0
 11
2251.1200211666
 21
1322.267876871
 31
0.0
  0
LINE
  5
45C
330
457
100
AcDbEntity
  8
LAY-20
  6
CONTINUOUS
 62
     4
100
AcDbLine
 10
2236.1200211666
 20
2181.667876871
 30
0.0
 11
2236.1200211666
 21
1347.267876871
 31
0.0
  0
INSERT
  5
45D
330
457
100
AcDbEntity
  8
LAY-20
 62
     4
100
AcDbBlockReference
  2
EX_BNORM
 10
2236.1200211666
 20
2206.667876871
 30
0.0
 41
25.0
 42
25.0
 43
25.0
 50
90.0
  0
INSERT
  5
45E
330
457
100
AcDbEntity
  8
LAY-20
 62
     4
100
AcDbBlockReference
  2
EX_BNORM
 10
2236.1200211666
 20
1322.267876871
 30
0.0
 41
25.0
 42
25.0
 43
25.0
 50
270.0
  0
MTEXT
  5
45F
330
457
100
AcDbEntity
  8
LAY-20
 62
     7
100
AcDbMText
 10
2211.1200211666
 20
1764.467876871
 30
0.0
 40
31.181104
 41
0.0
 71
     5
 72
     1
  1
884
  7
EXCADDIM1
 11
0.0
 21
1.0
 31
0.0
  0
POINT
  5
460
330
457
100
AcDbEntity
  8
DEFPOINTS
 62
     0
100
AcDbPoint
 10
1983.5200211666
 20
2206.667876871
 30
0.0
  0
POINT
  5
461
330
457
100
AcDbEntity
  8
DEFPOINTS
 62
     0
100
AcDbPoint
 10
1983.5200211666
 20
1322.267876871
 30
0.0
  0
POINT
  5
462
330
457
100
AcDbEntity
  8
DEFPOINTS
 62
     0
100
AcDbPoint
 10
2236.1200211666
 20
1322.267876871
 30
0.0
  0
ENDBLK
  5
459
330
457
100
AcDbEntity
  8
0
100
AcDbBlockEnd
  0
BLOCK
  5
465
330
464
100
AcDbEntity
  8
0
100
AcDbBlockBegin
  2
*D23
 70
     1
 10
0.0
 20
0.0
 30
0.0
  3
*D23
  1

  0
LINE
  5
467
330
464
100
AcDbEntity
  8
LAY-20
  6
CONTINUOUS
 62
     4
100
AcDbLine
 10
1461.0076841562
 20
846.35204975559
 30
0.0
 11
1461.0076841562
 21
593.75204975559
 31
0.0
  0
LINE
  5
468
330
464
100
AcDbEntity
  8
LAY-20
  6
CONTINUOUS
 62
     4
100
AcDbLine
 10
576.6076841561401
 20
846.35204975559
 30
0.0
 11
576.6076841561401
 21
593.75204975559
 31
0.0
  0
LINE
  5
469
330
464
100
AcDbEntity
  8
LAY-20
  6
CONTINUOUS
 62
     4
100
AcDbLine
 10
1436.0076841562
 20
608.75204975559
 30
0.0
 11
601.6076841561401
 21
608.75204975559
 31
0.0
  0
INSERT
  5
46A
330
464
100
AcDbEntity
  8
LAY-20
 62
     4
100
AcDbBlockReference
  2
EX_BNORM
 10
1461.0076841562
 20
608.75204975559
 30
0.0
 41
25.0
 42
25.0
 43
25.0
  0
INSERT
  5
46B
330
464
100
AcDbEntity
  8
LAY-20
 62
     4
100
AcDbBlockReference
  2
EX_BNORM
 10
576.6076841561401
 20
608.75204975559
 30
0.0
 41
25.0
 42
25.0
 43
25.0
 50
180.0
  0
MTEXT
  5
46C
330
464
100
AcDbEntity
  8
LAY-20
 62
     7
100
AcDbMText
 10
1018.80768415617
 20
633.75204975559
 30
0.0
 40
31.181104
 41
0.0
 71
     5
 72
     1
  1
884
  7
EXCADDIM1
  0
POINT
  5
46D
330
464
100
AcDbEntity
  8
DEFPOINTS
 62
     0
100
AcDbPoint
 10
1461.0076841562
 20
861.35204975559
 30
0.0
  0
POINT
  5
46E
330
464
100
AcDbEntity
  8
DEFPOINTS
 62
     0
100
AcDbPoint
 10
576.6076841561401
 20
861.35204975559
 30
0.0
  0
POINT
  5
46F
330
464
100
AcDbEntity
  8
DEFPOINTS
 62
     0
100
AcDbPoint
 10
576.6076841561401
 20
608.75204975559
 30
0.0
  0
ENDBLK
  5
466
330
464
100
AcDbEntity
  8
0
100
AcDbBlockEnd
  0
BLOCK
  5
472
330
471
100
AcDbEntity
  8
0
100
AcDbBlockBegin
  2
*D24
 70
     1
 10
0.0
 20
0.0
 30
0.0
  3
*D24
  1

  0
LINE
  5
474
330
471
100
AcDbEntity
  8
LAY-20
  6
CONTINUOUS
 62
     4
100
AcDbLine
 10
1171.807684156
 20
923.75204975559
 30
0.0
 11
1218.0
 21
923.75204975559
 31
0.0
  0
LINE
  5
475
330
471
100
AcDbEntity
  8
LAY-20
  6
CONTINUOUS
 62
     4
100
AcDbLine
 10
1203.0
 20
923.75204975559
 30
0.0
 11
1203.0
 21
958.75204975559
 31
0.0
  0
LINE
  5
476
330
471
100
AcDbEntity
  8
LAY-20
  6
CONTINUOUS
 62
     4
100
AcDbLine
 10
1203.0
 20
898.75204975559
 30
0.0
 11
1203.0
 21
873.75204975559
 31
0.0
  0
LINE
  5
477
330
471
100
AcDbEntity
  8
LAY-20
  6
CONTINUOUS
 62
     4
100
AcDbLine
 10
1203.0
 20
983.75204975559
 30
0.0
 11
1203.0
 21
1008.75204975559
 31
0.0
  0
INSERT
  5
478
330
471
100
AcDbEntity
  8
LAY-20
 62
     4
100
AcDbBlockReference
  2
EX_BNORM
 10
1203.0
 20
923.75204975559
 30
0.0
 41
25.0
 42
25.0
 43
25.0
 50
90.0
  0
INSERT
  5
479
330
471
100
AcDbEntity
  8
LAY-20
 62
     4
100
AcDbBlockReference
  2
EX_BNORM
 10
1203.0
 20
958.75204975559
 30
0.0
 41
25.0
 42
25.0
 43
25.0
 50
270.0
  0
MTEXT
  5
47A
330
471
100
AcDbEntity
  8
LAY-20
 62
     7
100
AcDbMText
 10
1178.0
 20
1018.752049755589
 30
0.0
 40
31.181104
 41
0.0
 71
     5
 72
     1
  1
35
  7
EXCADDIM1
 11
0.0
 21
1.0
 31
0.0
  0
POINT
  5
47B
330
471
100
AcDbEntity
  8
DEFPOINTS
 62
     0
100
AcDbPoint
 10
1156.807684156
 20
923.75204975559
 30
0.0
  0
POINT
  5
47C
330
471
100
AcDbEntity
  8
DEFPOINTS
 62
     0
100
AcDbPoint
 10
1203.0
 20
958.75204975559
 30
0.0
  0
POINT
  5
47D
330
471
100
AcDbEntity
  8
DEFPOINTS
 62
     0
100
AcDbPoint
 10
1203.0
 20
958.75204975559
 30
0.0
  0
ENDBLK
  5
473
330
471
100
AcDbEntity
  8
0
100
AcDbBlockEnd
  0
ENDSEC
  0
SECTION
  2
ENTITIES
  0
LINE
  5
D5
330
1F
100
AcDbEntity
  8
LAY-10
  6
CONTINUOUS
 62
     7
100
AcDbLine
 10
1984.320021166608
 20
2190.053663308652
 30
0.0
 11
1985.73423472896
 21
2191.467876871006
 31
0.0
  0
LINE
  5
D6
330
1F
100
AcDbEntity
  8
LAY-10
  6
CONTINUOUS
 62
     7
100
AcDbLine
 10
1984.320021166599
 20
2188.63944974627
 30
0.0
 11
1986.320021166612
 21
2190.639449746288
 31
0.0
  0
LINE
  5
D7
330
1F
100
AcDbEntity
  8
LAY-10
  6
CONTINUOUS
 62
     7
100
AcDbLine
 10
1984.320021166608
 20
2187.225236183909
 30
0.0
 11
1986.320021166605
 21
2189.225236183906
 31
0.0
  0
LINE
  5
D8
330
1F
100
AcDbEntity
  8
LAY-10
  6
CONTINUOUS
 62
     7
100
AcDbLine
 10
1984.320021166599
 20
2185.811022621525
 30
0.0
 11
1986.320021166615
 21
2187.81102262154
 31
0.0
  0
LINE
  5
D9
330
1F
100
AcDbEntity
  8
LAY-10
  6
CONTINUOUS
 62
     7
100
AcDbLine
 10
1984.320021166612
 20
2184.396809059162
 30
0.0
 11
1986.320021166609
 21
2186.396809059159
 31
0.0
  0
LINE
  5
DA
330
1F
100
AcDbEntity
  8
LAY-10
  6
CONTINUOUS
 62
     7
100
AcDbLine
 10
1984.320021166601
 20
2182.982595496782
 30
0.0
 11
1986.320021166615
 21
2184.982595496797
 31
0.0
  0
LINE
  5
DB
330
1F
100
AcDbEntity
  8
LAY-10
  6
CONTINUOUS
 62
     7
100
AcDbLine
 10
1984.320021166612
 20
2181.568381934417
 30
0.0
 11
1986.320021166609
 21
2183.568381934415
 31
0.0
  0
LINE
  5
DC
330
1F
100
AcDbEntity
  8
LAY-10
  6
CONTINUOUS
 62
     7
100
AcDbLine
 10
1984.320021166603
 20
2180.154168372037
 30
0.0
 11
1986.320021166615
 21
2182.154168372051
 31
0.0
  0
LINE
  5
DD
330
1F
100
AcDbEntity
  8
LAY-10
  6
CONTINUOUS
 62
     7
100
AcDbLine
 10
1984.320021166612
 20
2178.739954809673
 30
0.0
 11
1986.320021166609
 21
2180.73995480967
 31
0.0
  0
LINE
  5
DE
330
1F
100
AcDbEntity
  8
LAY-10
  6
CONTINUOUS
 62
     7
100
AcDbLine
 10
1984.320021166603
 20
2177.325741247291
 30
0.0
 11
1986.320021166615
 21
2179.325741247308
 31
0.0
  0
LINE
  5
DF
330
1F
100
AcDbEntity
  8
LAY-10
  6
CONTINUOUS
 62
     7
100
AcDbLine
 10
1984.320021166612
 20
2175.911527684929
 30
0.0
 11
1986.320021166609
 21
2177.911527684926
 31
0.0
  0
LINE
  5
E0
330
1F
100
AcDbEntity
  8
LAY-10
  6
CONTINUOUS
 62
     7
100
AcDbLine
 10
1984.320021166604
 20
2174.497314122546
 30
0.0
 11
1986.320021166619
 21
2176.497314122562
 31
0.0
  0
LINE
  5
E1
330
1F
100
AcDbEntity
  8
LAY-10
  6
CONTINUOUS
 62
     7
100
AcDbLine
 10
1984.320021166594
 20
2173.083100560166
 30
0.0
 11
1986.320021166612
 21
2175.083100560179
 31
0.0
  0
LINE
  5
E2
330
1F
100
AcDbEntity
  8
LAY-10
  6
CONTINUOUS
 62
     7
100
AcDbLine
 10
1984.320021166604
 20
2171.668886997802
 30
0.0
 11
1986.320021166619
 21
2173.668886997817
 31
0.0
  0
LINE
  5
E3
330
1F
100
AcDbEntity
  8
LAY-10
  6
CONTINUOUS
 62
     7
100
AcDbLine
 10
1984.320021166599
 20
2170.25467343542
 30
0.0
 11
1986.320021166612
 21
2172.254673435436
 31
0.0
  0
LINE
  5
E4
330
1F
100
AcDbEntity
  8
LAY-10
  6
CONTINUOUS
 62
     7
100
AcDbLine
 10
1984.320021166608
 20
2168.840459873054
 30
0.0
 11
1986.320021166605
 21
2170.840459873052
 31
0.0
  0
LINE
  5
E5
330
1F
100
AcDbEntity
  8
LAY-10
  6
CONTINUOUS
 62
     7
100
AcDbLine
 10
1984.320021166599
 20
2167.426246310674
 30
0.0
 11
1986.320021166612
 21
2169.426246310692
 31
0.0
  0
LINE
  5
E6
330
1F
100
AcDbEntity
  8
LAY-10
  6
CONTINUOUS
 62
     7
100
AcDbLine
 10
1984.775865289296
 20
2166.467876871
 30
0.0
 11
1986.320021166605
 21
2168.012032748311
 31
0.0
  0
LINE
  5
E7
330
1F
100
AcDbEntity
  8
LAY-10
  6
CONTINUOUS
 62
     7
100
AcDbLine
 10
1986.19007885168
 20
2166.467876871006
 30
0.0
 11
1986.320021166615
 21
2166.597819185945
 31
0.0
  0
LINE
  5
E8
330
1F
100
AcDbEntity
  8
LAY-10
  6
CONTINUOUS
 62
     7
100
AcDbLine
 10
1984.320021166604
 20
1361.509507431467
 30
0.0
 11
1985.278390606211
 21
1362.467876871072
 31
0.0
  0
LINE
  5
E9
330
1F
100
AcDbEntity
  8
LAY-10
  6
CONTINUOUS
 62
     7
100
AcDbLine
 10
1984.320021166616
 20
1360.095293869103
 30
0.0
 11
1986.320021166612
 21
1362.095293869099
 31
0.0
  0
LINE
  5
EA
330
1F
100
AcDbEntity
  8
LAY-10
  6
CONTINUOUS
 62
     7
100
AcDbLine
 10
1984.320021166604
 20
1358.68108030672
 30
0.0
 11
1986.320021166601
 21
1360.681080306717
 31
0.0
  0
LINE
  5
EB
330
1F
100
AcDbEntity
  8
LAY-10
  6
CONTINUOUS
 62
     7
100
AcDbLine
 10
1984.320021166616
 20
1357.266866744358
 30
0.0
 11
1986.32002116659
 21
1359.266866744336
 31
0.0
  0
LINE
  5
EC
330
1F
100
AcDbEntity
  8
LAY-10
  6
CONTINUOUS
 62
     7
100
AcDbLine
 10
1984.320021166604
 20
1355.852653181975
 30
0.0
 11
1986.320021166601
 21
1357.852653181972
 31
0.0
  0
LINE
  5
ED
330
1F
100
AcDbEntity
  8
LAY-10
  6
CONTINUOUS
 62
     7
100
AcDbLine
 10
1984.320021166616
 20
1354.438439619613
 30
0.0
 11
1986.320021166594
 21
1356.438439619589
 31
0.0
  0
LINE
  5
EE
330
1F
100
AcDbEntity
  8
LAY-10
  6
CONTINUOUS
 62
     7
100
AcDbLine
 10
1984.320021166604
 20
1353.02422605723
 30
0.0
 11
1986.320021166601
 21
1355.024226057227
 31
0.0
  0
LINE
  5
EF
330
1F
100
AcDbEntity
  8
LAY-10
  6
CONTINUOUS
 62
     7
100
AcDbLine
 10
1984.320021166616
 20
1351.610012494869
 30
0.0
 11
1986.320021166594
 21
1353.610012494847
 31
0.0
  0
LINE
  5
F0
330
1F
100
AcDbEntity
  8
LAY-10
  6
CONTINUOUS
 62
     7
100
AcDbLine
 10
1984.320021166608
 20
1350.195798932485
 30
0.0
 11
1986.320021166605
 21
1352.195798932483
 31
0.0
  0
LINE
  5
F1
330
1F
100
AcDbEntity
  8
LAY-10
  6
CONTINUOUS
 62
     7
100
AcDbLine
 10
1984.320021166619
 20
1348.781585370123
 30
0.0
 11
1986.320021166598
 21
1350.781585370102
 31
0.0
  0
LINE
  5
F2
330
1F
100
AcDbEntity
  8
LAY-10
  6
CONTINUOUS
 62
     7
100
AcDbLine
 10
1984.320021166608
 20
1347.367371807741
 30
0.0
 11
1986.320021166605
 21
1349.367371807737
 31
0.0
  0
LINE
  5
F3
330
1F
100
AcDbEntity
  8
LAY-10
  6
CONTINUOUS
 62
     7
100
AcDbLine
 10
1984.320021166619
 20
1345.95315824538
 30
0.0
 11
1986.320021166598
 21
1347.953158245355
 31
0.0
  0
LINE
  5
F4
330
1F
100
AcDbEntity
  8
LAY-10
  6
CONTINUOUS
 62
     7
100
AcDbLine
 10
1984.320021166612
 20
1344.538944682997
 30
0.0
 11
1986.320021166609
 21
1346.538944682994
 31
0.0
  0
LINE
  5
F5
330
1F
100
AcDbEntity
  8
LAY-10
  6
CONTINUOUS
 62
     7
100
AcDbLine
 10
1984.320021166623
 20
1343.124731120634
 30
0.0
 11
1986.320021166598
 21
1345.124731120612
 31
0.0
  0
LINE
  5
F6
330
1F
100
AcDbEntity
  8
LAY-10
  6
CONTINUOUS
 62
     7
100
AcDbLine
 10
1984.320021166612
 20
1341.710517558251
 30
0.0
 11
1986.320021166609
 21
1343.710517558248
 31
0.0
  0
LINE
  5
F7
330
1F
100
AcDbEntity
  8
LAY-10
  6
CONTINUOUS
 62
     7
100
AcDbLine
 10
1984.320021166623
 20
1340.296303995889
 30
0.0
 11
1986.320021166601
 21
1342.296303995865
 31
0.0
  0
LINE
  5
F8
330
1F
100
AcDbEntity
  8
LAY-10
  6
CONTINUOUS
 62
     7
100
AcDbLine
 10
1984.320021166616
 20
1338.882090433506
 30
0.0
 11
1986.320021166612
 21
1340.882090433503
 31
0.0
  0
LINE
  5
F9
330
1F
100
AcDbEntity
  8
LAY-10
  6
CONTINUOUS
 62
     7
100
AcDbLine
 10
1984.320021166604
 20
1337.467876871124
 30
0.0
 11
1986.320021166601
 21
1339.46787687112
 31
0.0
  0
LINE
  5
FA
330
1F
100
AcDbEntity
  8
LAY-10
  6
CONTINUOUS
 62
     7
100
AcDbLine
 10
1985.734234728967
 20
1337.467876871113
 30
0.0
 11
1986.320021166612
 21
1338.053663308757
 31
0.0
  0
LINE
  5
FB
330
1F
100
AcDbEntity
  8
LAY-10
  6
CONTINUOUS
 62
     7
100
AcDbLine
 10
2012.520021166569
 20
2152.509960993364
 30
0.0
 11
2014.877937044329
 21
2154.867876871122
 31
0.0
  0
LINE
  5
FC
330
1F
100
AcDbEntity
  8
LAY-10
  6
CONTINUOUS
 62
     7
100
AcDbLine
 10
2012.520021166564
 20
2138.367825369627
 30
0.0
 11
2029.020072668065
 21
2154.867876871128
 31
0.0
  0
LINE
  5
FD
330
1F
100
AcDbEntity
  8
LAY-10
  6
CONTINUOUS
 62
     7
100
AcDbLine
 10
2012.520021166566
 20
2124.225689745899
 30
0.0
 11
2043.162208291793
 21
2154.867876871125
 31
0.0
  0
LINE
  5
FE
330
1F
100
AcDbEntity
  8
LAY-10
  6
CONTINUOUS
 62
     7
100
AcDbLine
 10
2012.520021166569
 20
2110.08355412217
 30
0.0
 11
2057.304343915521
 21
2154.867876871122
 31
0.0
  0
LINE
  5
FF
330
1F
100
AcDbEntity
  8
LAY-10
  6
CONTINUOUS
 62
     7
100
AcDbLine
 10
2012.520021166564
 20
2095.941418498434
 30
0.0
 11
2059.32002116657
 21
2142.741418498441
 31
0.0
  0
LINE
  5
100
330
1F
100
AcDbEntity
  8
LAY-10
  6
CONTINUOUS
 62
     7
100
AcDbLine
 10
2012.520021166566
 20
2081.799282874706
 30
0.0
 11
2059.320021166565
 21
2128.599282874705
 31
0.0
  0
LINE
  5
101
330
1F
100
AcDbEntity
  8
LAY-10
  6
CONTINUOUS
 62
     7
100
AcDbLine
 10
2012.520021166569
 20
2067.657147250978
 30
0.0
 11
2059.320021166568
 21
2114.457147250977
 31
0.0
  0
LINE
  5
102
330
1F
100
AcDbEntity
  8
LAY-10
  6
CONTINUOUS
 62
     7
100
AcDbLine
 10
2012.520021166564
 20
2053.515011627242
 30
0.0
 11
2059.32002116657
 21
2100.315011627248
 31
0.0
  0
LINE
  5
103
330
1F
100
AcDbEntity
  8
LAY-10
  6
CONTINUOUS
 62
     7
100
AcDbLine
 10
2012.520021166566
 20
2039.372876003513
 30
0.0
 11
2059.320021166565
 21
2086.172876003512
 31
0.0
  0
LINE
  5
104
330
1F
100
AcDbEntity
  8
LAY-10
  6
CONTINUOUS
 62
     7
100
AcDbLine
 10
2012.520021166569
 20
2025.230740379786
 30
0.0
 11
2059.320021166568
 21
2072.030740379784
 31
0.0
  0
LINE
  5
105
330
1F
100
AcDbEntity
  8
LAY-10
  6
CONTINUOUS
 62
     7
100
AcDbLine
 10
2012.520021166564
 20
2011.08860475605
 30
0.0
 11
2059.32002116657
 21
2057.888604756055
 31
0.0
  0
LINE
  5
106
330
1F
100
AcDbEntity
  8
LAY-10
  6
CONTINUOUS
 62
     7
100
AcDbLine
 10
2012.520021166566
 20
1996.946469132321
 30
0.0
 11
2059.320021166565
 21
2043.74646913232
 31
0.0
  0
LINE
  5
107
330
1F
100
AcDbEntity
  8
LAY-10
  6
CONTINUOUS
 62
     7
100
AcDbLine
 10
2012.520021166569
 20
1982.804333508592
 30
0.0
 11
2059.320021166568
 21
2029.604333508591
 31
0.0
  0
LINE
  5
108
330
1F
100
AcDbEntity
  8
LAY-10
  6
CONTINUOUS
 62
     7
100
AcDbLine
 10
2012.520021166563
 20
1968.662197884856
 30
0.0
 11
2059.32002116657
 21
2015.462197884863
 31
0.0
  0
LINE
  5
109
330
1F
100
AcDbEntity
  8
LAY-10
  6
CONTINUOUS
 62
     7
100
AcDbLine
 10
2012.520021166566
 20
1954.520062261128
 30
0.0
 11
2059.320021166564
 21
2001.320062261127
 31
0.0
  0
LINE
  5
10A
330
1F
100
AcDbEntity
  8
LAY-10
  6
CONTINUOUS
 62
     7
100
AcDbLine
 10
2012.520021166569
 20
1940.3779266374
 30
0.0
 11
2059.320021166567
 21
1987.177926637398
 31
0.0
  0
LINE
  5
10B
330
1F
100
AcDbEntity
  8
LAY-10
  6
CONTINUOUS
 62
     7
100
AcDbLine
 10
2012.520021166563
 20
1926.235791013664
 30
0.0
 11
2059.32002116657
 21
1973.03579101367
 31
0.0
  0
LINE
  5
10C
330
1F
100
AcDbEntity
  8
LAY-10
  6
CONTINUOUS
 62
     7
100
AcDbLine
 10
2012.520021166566
 20
1912.093655389935
 30
0.0
 11
2059.320021166564
 21
1958.893655389934
 31
0.0
  0
LINE
  5
10D
330
1F
100
AcDbEntity
  8
LAY-10
  6
CONTINUOUS
 62
     7
100
AcDbLine
 10
2012.520021166569
 20
1897.951519766207
 30
0.0
 11
2059.320021166567
 21
1944.751519766206
 31
0.0
  0
LINE
  5
10E
330
1F
100
AcDbEntity
  8
LAY-10
  6
CONTINUOUS
 62
     7
100
AcDbLine
 10
2012.520021166563
 20
1883.809384142471
 30
0.0
 11
2059.32002116657
 21
1930.609384142477
 31
0.0
  0
LINE
  5
10F
330
1F
100
AcDbEntity
  8
LAY-10
  6
CONTINUOUS
 62
     7
100
AcDbLine
 10
2012.520021166566
 20
1869.667248518743
 30
0.0
 11
2059.320021166564
 21
1916.467248518741
 31
0.0
  0
LINE
  5
110
330
1F
100
AcDbEntity
  8
LAY-10
  6
CONTINUOUS
 62
     7
100
AcDbLine
 10
2012.520021166569
 20
1855.525112895014
 30
0.0
 11
2059.320021166567
 21
1902.325112895013
 31
0.0
  0
LINE
  5
111
330
1F
100
AcDbEntity
  8
LAY-10
  6
CONTINUOUS
 62
     7
100
AcDbLine
 10
2012.520021166563
 20
1841.382977271278
 30
0.0
 11
2059.320021166562
 21
1888.182977271277
 31
0.0
  0
LINE
  5
112
330
1F
100
AcDbEntity
  8
LAY-10
  6
CONTINUOUS
 62
     7
100
AcDbLine
 10
2012.520021166566
 20
1827.24084164755
 30
0.0
 11
2059.320021166564
 21
1874.040841647549
 31
0.0
  0
LINE
  5
113
330
1F
100
AcDbEntity
  8
LAY-10
  6
CONTINUOUS
 62
     7
100
AcDbLine
 10
2012.520021166569
 20
1813.098706023822
 30
0.0
 11
2059.320021166567
 21
1859.89870602382
 31
0.0
  0
LINE
  5
114
330
1F
100
AcDbEntity
  8
LAY-10
  6
CONTINUOUS
 62
     7
100
AcDbLine
 10
2012.520021166563
 20
1798.956570400086
 30
0.0
 11
2059.320021166562
 21
1845.756570400084
 31
0.0
  0
LINE
  5
115
330
1F
100
AcDbEntity
  8
LAY-10
  6
CONTINUOUS
 62
     7
100
AcDbLine
 10
2012.520021166566
 20
1784.814434776357
 30
0.0
 11
2059.320021166564
 21
1831.614434776356
 31
0.0
  0
LINE
  5
116
330
1F
100
AcDbEntity
  8
LAY-10
  6
CONTINUOUS
 62
     7
100
AcDbLine
 10
2012.520021166568
 20
1770.672299152629
 30
0.0
 11
2059.320021166567
 21
1817.472299152627
 31
0.0
  0
LINE
  5
117
330
1F
100
AcDbEntity
  8
LAY-10
  6
CONTINUOUS
 62
     7
100
AcDbLine
 10
2012.520021166563
 20
1756.530163528893
 30
0.0
 11
2059.320021166562
 21
1803.330163528891
 31
0.0
  0
LINE
  5
118
330
1F
100
AcDbEntity
  8
LAY-10
  6
CONTINUOUS
 62
     7
100
AcDbLine
 10
2012.520021166566
 20
1742.388027905165
 30
0.0
 11
2059.320021166564
 21
1789.188027905163
 31
0.0
  0
LINE
  5
119
330
1F
100
AcDbEntity
  8
LAY-10
  6
CONTINUOUS
 62
     7
100
AcDbLine
 10
2012.520021166568
 20
1728.245892281436
 30
0.0
 11
2059.320021166567
 21
1775.045892281435
 31
0.0
  0
LINE
  5
11A
330
1F
100
AcDbEntity
  8
LAY-10
  6
CONTINUOUS
 62
     7
100
AcDbLine
 10
2012.520021166563
 20
1714.1037566577
 30
0.0
 11
2059.320021166561
 21
1760.903756657699
 31
0.0
  0
LINE
  5
11B
330
1F
100
AcDbEntity
  8
LAY-10
  6
CONTINUOUS
 62
     7
100
AcDbLine
 10
2012.520021166565
 20
1699.961621033971
 30
0.0
 11
2059.320021166564
 21
1746.76162103397
 31
0.0
  0
LINE
  5
11C
330
1F
100
AcDbEntity
  8
LAY-10
  6
CONTINUOUS
 62
     7
100
AcDbLine
 10
2012.520021166568
 20
1685.819485410243
 30
0.0
 11
2059.320021166566
 21
1732.619485410242
 31
0.0
  0
LINE
  5
11D
330
1F
100
AcDbEntity
  8
LAY-10
  6
CONTINUOUS
 62
     7
100
AcDbLine
 10
2012.520021166562
 20
1671.677349786507
 30
0.0
 11
2059.320021166561
 21
1718.477349786506
 31
0.0
  0
LINE
  5
11E
330
1F
100
AcDbEntity
  8
LAY-10
  6
CONTINUOUS
 62
     7
100
AcDbLine
 10
2012.520021166565
 20
1657.535214162779
 30
0.0
 11
2059.320021166564
 21
1704.335214162777
 31
0.0
  0
LINE
  5
11F
330
1F
100
AcDbEntity
  8
LAY-10
  6
CONTINUOUS
 62
     7
100
AcDbLine
 10
2012.520021166568
 20
1643.393078539051
 30
0.0
 11
2059.320021166566
 21
1690.193078539049
 31
0.0
  0
LINE
  5
120
330
1F
100
AcDbEntity
  8
LAY-10
  6
CONTINUOUS
 62
     7
100
AcDbLine
 10
2012.520021166562
 20
1629.250942915315
 30
0.0
 11
2059.320021166561
 21
1676.050942915313
 31
0.0
  0
LINE
  5
121
330
1F
100
AcDbEntity
  8
LAY-10
  6
CONTINUOUS
 62
     7
100
AcDbLine
 10
2012.520021166565
 20
1615.108807291587
 30
0.0
 11
2059.320021166563
 21
1661.908807291585
 31
0.0
  0
LINE
  5
122
330
1F
100
AcDbEntity
  8
LAY-10
  6
CONTINUOUS
 62
     7
100
AcDbLine
 10
2012.520021166567
 20
1600.966671667858
 30
0.0
 11
2059.320021166566
 21
1647.766671667857
 31
0.0
  0
LINE
  5
123
330
1F
100
AcDbEntity
  8
LAY-10
  6
CONTINUOUS
 62
     7
100
AcDbLine
 10
2012.520021166562
 20
1586.824536044122
 30
0.0
 11
2059.320021166561
 21
1633.624536044121
 31
0.0
  0
LINE
  5
124
330
1F
100
AcDbEntity
  8
LAY-10
  6
CONTINUOUS
 62
     7
100
AcDbLine
 10
2012.520021166565
 20
1572.682400420393
 30
0.0
 11
2059.320021166563
 21
1619.482400420392
 31
0.0
  0
LINE
  5
125
330
1F
100
AcDbEntity
  8
LAY-10
  6
CONTINUOUS
 62
     7
100
AcDbLine
 10
2012.520021166567
 20
1558.540264796665
 30
0.0
 11
2059.320021166566
 21
1605.340264796664
 31
0.0
  0
LINE
  5
126
330
1F
100
AcDbEntity
  8
LAY-10
  6
CONTINUOUS
 62
     7
100
AcDbLine
 10
2012.520021166562
 20
1544.398129172929
 30
0.0
 11
2059.320021166561
 21
1591.198129172928
 31
0.0
  0
LINE
  5
127
330
1F
100
AcDbEntity
  8
LAY-10
  6
CONTINUOUS
 62
     7
100
AcDbLine
 10
2012.520021166565
 20
1530.255993549201
 30
0.0
 11
2059.320021166563
 21
1577.055993549199
 31
0.0
  0
LINE
  5
128
330
1F
100
AcDbEntity
  8
LAY-10
  6
CONTINUOUS
 62
     7
100
AcDbLine
 10
2012.52002116656
 20
1516.113857925465
 30
0.0
 11
2059.320021166566
 21
1562.913857925471
 31
0.0
  0
LINE
  5
129
330
1F
100
AcDbEntity
  8
LAY-10
  6
CONTINUOUS
 62
     7
100
AcDbLine
 10
2012.520021166562
 20
1501.971722301736
 30
0.0
 11
2059.320021166561
 21
1548.771722301735
 31
0.0
  0
LINE
  5
12A
330
1F
100
AcDbEntity
  8
LAY-10
  6
CONTINUOUS
 62
     7
100
AcDbLine
 10
2012.520021166565
 20
1487.829586678008
 30
0.0
 11
2059.320021166563
 21
1534.629586678006
 31
0.0
  0
LINE
  5
12B
330
1F
100
AcDbEntity
  8
LAY-10
  6
CONTINUOUS
 62
     7
100
AcDbLine
 10
2012.520021166559
 20
1473.687451054272
 30
0.0
 11
2059.320021166566
 21
1520.487451054278
 31
0.0
  0
LINE
  5
12C
330
1F
100
AcDbEntity
  8
LAY-10
  6
CONTINUOUS
 62
     7
100
AcDbLine
 10
2012.520021166562
 20
1459.545315430544
 30
0.0
 11
2059.320021166561
 21
1506.345315430542
 31
0.0
  0
LINE
  5
12D
330
1F
100
AcDbEntity
  8
LAY-10
  6
CONTINUOUS
 62
     7
100
AcDbLine
 10
2012.520021166565
 20
1445.403179806815
 30
0.0
 11
2059.320021166563
 21
1492.203179806814
 31
0.0
  0
LINE
  5
12E
330
1F
100
AcDbEntity
  8
LAY-10
  6
CONTINUOUS
 62
     7
100
AcDbLine
 10
2012.520021166559
 20
1431.261044183079
 30
0.0
 11
2059.320021166566
 21
1478.061044183085
 31
0.0
  0
LINE
  5
12F
330
1F
100
AcDbEntity
  8
LAY-10
  6
CONTINUOUS
 62
     7
100
AcDbLine
 10
2012.520021166562
 20
1417.118908559351
 30
0.0
 11
2059.32002116656
 21
1463.918908559349
 31
0.0
  0
LINE
  5
130
330
1F
100
AcDbEntity
  8
LAY-10
  6
CONTINUOUS
 62
     7
100
AcDbLine
 10
2012.520021166564
 20
1402.976772935622
 30
0.0
 11
2059.320021166563
 21
1449.776772935621
 31
0.0
  0
LINE
  5
131
330
1F
100
AcDbEntity
  8
LAY-10
  6
CONTINUOUS
 62
     7
100
AcDbLine
 10
2012.520021166559
 20
1388.834637311886
 30
0.0
 11
2059.320021166566
 21
1435.634637311892
 31
0.0
  0
LINE
  5
132
330
1F
100
AcDbEntity
  8
LAY-10
  6
CONTINUOUS
 62
     7
100
AcDbLine
 10
2012.520021166562
 20
1374.692501688158
 30
0.0
 11
2059.32002116656
 21
1421.492501688156
 31
0.0
  0
LINE
  5
133
330
1F
100
AcDbEntity
  8
LAY-10
  6
CONTINUOUS
 62
     7
100
AcDbLine
 10
2026.037531973263
 20
1374.067876871128
 30
0.0
 11
2059.320021166563
 21
1407.350366064428
 31
0.0
  0
LINE
  5
134
330
1F
100
AcDbEntity
  8
LAY-10
  6
CONTINUOUS
 62
     7
100
AcDbLine
 10
2040.179667596991
 20
1374.067876871125
 30
0.0
 11
2059.320021166566
 21
1393.2082304407
 31
0.0
  0
LINE
  5
135
330
1F
100
AcDbEntity
  8
LAY-10
  6
CONTINUOUS
 62
     7
100
AcDbLine
 10
2054.321803220727
 20
1374.06787687113
 30
0.0
 11
2059.320021166561
 21
1379.066094816964
 31
0.0
  0
LINE
  5
136
330
1F
100
AcDbEntity
  8
LAY-10
  6
CONTINUOUS
 62
     7
100
AcDbLine
 10
2014.869977953781
 20
1374.067876871126
 30
0.0
 11
2012.520021166563
 21
1376.417833658345
 31
0.0
  0
LINE
  5
137
330
1F
100
AcDbEntity
  8
LAY-10
  6
CONTINUOUS
 62
     7
100
AcDbLine
 10
2029.012113577509
 20
1374.067876871129
 30
0.0
 11
2012.520021166565
 21
1390.559969282073
 31
0.0
  0
LINE
  5
138
330
1F
100
AcDbEntity
  8
LAY-10
  6
CONTINUOUS
 62
     7
100
AcDbLine
 10
2043.154249201237
 20
1374.067876871131
 30
0.0
 11
2012.520021166568
 21
1404.702104905801
 31
0.0
  0
LINE
  5
139
330
1F
100
AcDbEntity
  8
LAY-10
  6
CONTINUOUS
 62
     7
100
AcDbLine
 10
2057.296384824973
 20
1374.067876871126
 30
0.0
 11
2012.520021166563
 21
1418.844240529537
 31
0.0
  0
LINE
  5
13A
330
1F
100
AcDbEntity
  8
LAY-10
  6
CONTINUOUS
 62
     7
100
AcDbLine
 10
2059.320021166564
 20
1386.186376153267
 30
0.0
 11
2012.520021166565
 21
1432.986376153265
 31
0.0
  0
LINE
  5
13B
330
1F
100
AcDbEntity
  8
LAY-10
  6
CONTINUOUS
 62
     7
100
AcDbLine
 10
2059.320021166567
 20
1400.328511776995
 30
0.0
 11
2012.520021166568
 21
1447.128511776994
 31
0.0
  0
LINE
  5
13C
330
1F
100
AcDbEntity
  8
LAY-10
  6
CONTINUOUS
 62
     7
100
AcDbLine
 10
2059.320021166561
 20
1414.470647400731
 30
0.0
 11
2012.520021166563
 21
1461.27064740073
 31
0.0
  0
LINE
  5
13D
330
1F
100
AcDbEntity
  8
LAY-10
  6
CONTINUOUS
 62
     7
100
AcDbLine
 10
2059.320021166564
 20
1428.61278302446
 30
0.0
 11
2012.520021166565
 21
1475.412783024458
 31
0.0
  0
LINE
  5
13E
330
1F
100
AcDbEntity
  8
LAY-10
  6
CONTINUOUS
 62
     7
100
AcDbLine
 10
2059.320021166567
 20
1442.754918648188
 30
0.0
 11
2012.520021166568
 21
1489.554918648187
 31
0.0
  0
LINE
  5
13F
330
1F
100
AcDbEntity
  8
LAY-10
  6
CONTINUOUS
 62
     7
100
AcDbLine
 10
2059.320021166561
 20
1456.897054271924
 30
0.0
 11
2012.520021166563
 21
1503.697054271923
 31
0.0
  0
LINE
  5
140
330
1F
100
AcDbEntity
  8
LAY-10
  6
CONTINUOUS
 62
     7
100
AcDbLine
 10
2059.320021166564
 20
1471.039189895653
 30
0.0
 11
2012.520021166565
 21
1517.839189895651
 31
0.0
  0
LINE
  5
141
330
1F
100
AcDbEntity
  8
LAY-10
  6
CONTINUOUS
 62
     7
100
AcDbLine
 10
2059.320021166567
 20
1485.181325519381
 30
0.0
 11
2012.520021166568
 21
1531.98132551938
 31
0.0
  0
LINE
  5
142
330
1F
100
AcDbEntity
  8
LAY-10
  6
CONTINUOUS
 62
     7
100
AcDbLine
 10
2059.320021166561
 20
1499.323461143117
 30
0.0
 11
2012.520021166563
 21
1546.123461143116
 31
0.0
  0
LINE
  5
143
330
1F
100
AcDbEntity
  8
LAY-10
  6
CONTINUOUS
 62
     7
100
AcDbLine
 10
2059.320021166564
 20
1513.465596766845
 30
0.0
 11
2012.520021166565
 21
1560.265596766844
 31
0.0
  0
LINE
  5
144
330
1F
100
AcDbEntity
  8
LAY-10
  6
CONTINUOUS
 62
     7
100
AcDbLine
 10
2059.320021166566
 20
1527.607732390574
 30
0.0
 11
2012.520021166568
 21
1574.407732390573
 31
0.0
  0
LINE
  5
145
330
1F
100
AcDbEntity
  8
LAY-10
  6
CONTINUOUS
 62
     7
100
AcDbLine
 10
2059.320021166561
 20
1541.74986801431
 30
0.0
 11
2012.520021166562
 21
1588.549868014309
 31
0.0
  0
LINE
  5
146
330
1F
100
AcDbEntity
  8
LAY-10
  6
CONTINUOUS
 62
     7
100
AcDbLine
 10
2059.320021166564
 20
1555.892003638038
 30
0.0
 11
2012.520021166565
 21
1602.692003638037
 31
0.0
  0
LINE
  5
147
330
1F
100
AcDbEntity
  8
LAY-10
  6
CONTINUOUS
 62
     7
100
AcDbLine
 10
2059.320021166566
 20
1570.034139261767
 30
0.0
 11
2012.520021166568
 21
1616.834139261766
 31
0.0
  0
LINE
  5
148
330
1F
100
AcDbEntity
  8
LAY-10
  6
CONTINUOUS
 62
     7
100
AcDbLine
 10
2059.320021166569
 20
1584.176274885495
 30
0.0
 11
2012.520021166562
 21
1630.976274885501
 31
0.0
  0
LINE
  5
149
330
1F
100
AcDbEntity
  8
LAY-10
  6
CONTINUOUS
 62
     7
100
AcDbLine
 10
2059.320021166564
 20
1598.318410509231
 30
0.0
 11
2012.520021166565
 21
1645.11841050923
 31
0.0
  0
LINE
  5
14A
330
1F
100
AcDbEntity
  8
LAY-10
  6
CONTINUOUS
 62
     7
100
AcDbLine
 10
2059.320021166566
 20
1612.460546132959
 30
0.0
 11
2012.52002116656
 21
1659.260546132966
 31
0.0
  0
LINE
  5
14B
330
1F
100
AcDbEntity
  8
LAY-10
  6
CONTINUOUS
 62
     7
100
AcDbLine
 10
2059.320021166569
 20
1626.602681756688
 30
0.0
 11
2012.520021166562
 21
1673.402681756694
 31
0.0
  0
LINE
  5
14C
330
1F
100
AcDbEntity
  8
LAY-10
  6
CONTINUOUS
 62
     7
100
AcDbLine
 10
2059.320021166564
 20
1640.744817380424
 30
0.0
 11
2012.520021166565
 21
1687.544817380423
 31
0.0
  0
LINE
  5
14D
330
1F
100
AcDbEntity
  8
LAY-10
  6
CONTINUOUS
 62
     7
100
AcDbLine
 10
2059.320021166566
 20
1654.886953004152
 30
0.0
 11
2012.52002116656
 21
1701.686953004159
 31
0.0
  0
LINE
  5
14E
330
1F
100
AcDbEntity
  8
LAY-10
  6
CONTINUOUS
 62
     7
100
AcDbLine
 10
2059.320021166569
 20
1669.029088627881
 30
0.0
 11
2012.520021166562
 21
1715.829088627887
 31
0.0
  0
LINE
  5
14F
330
1F
100
AcDbEntity
  8
LAY-10
  6
CONTINUOUS
 62
     7
100
AcDbLine
 10
2059.320021166564
 20
1683.171224251617
 30
0.0
 11
2012.520021166565
 21
1729.971224251615
 31
0.0
  0
LINE
  5
150
330
1F
100
AcDbEntity
  8
LAY-10
  6
CONTINUOUS
 62
     7
100
AcDbLine
 10
2059.320021166566
 20
1697.313359875345
 30
0.0
 11
2012.52002116656
 21
1744.113359875352
 31
0.0
  0
LINE
  5
151
330
1F
100
AcDbEntity
  8
LAY-10
  6
CONTINUOUS
 62
     7
100
AcDbLine
 10
2059.320021166569
 20
1711.455495499074
 30
0.0
 11
2012.520021166562
 21
1758.25549549908
 31
0.0
  0
LINE
  5
152
330
1F
100
AcDbEntity
  8
LAY-10
  6
CONTINUOUS
 62
     7
100
AcDbLine
 10
2059.320021166564
 20
1725.59763112281
 30
0.0
 11
2012.520021166565
 21
1772.397631122808
 31
0.0
  0
LINE
  5
153
330
1F
100
AcDbEntity
  8
LAY-10
  6
CONTINUOUS
 62
     7
100
AcDbLine
 10
2059.320021166566
 20
1739.739766746538
 30
0.0
 11
2012.52002116656
 21
1786.539766746545
 31
0.0
  0
LINE
  5
154
330
1F
100
AcDbEntity
  8
LAY-10
  6
CONTINUOUS
 62
     7
100
AcDbLine
 10
2059.320021166569
 20
1753.881902370267
 30
0.0
 11
2012.520021166562
 21
1800.681902370273
 31
0.0
  0
LINE
  5
155
330
1F
100
AcDbEntity
  8
LAY-10
  6
CONTINUOUS
 62
     7
100
AcDbLine
 10
2059.320021166564
 20
1768.024037994002
 30
0.0
 11
2012.520021166565
 21
1814.824037994001
 31
0.0
  0
LINE
  5
156
330
1F
100
AcDbEntity
  8
LAY-10
  6
CONTINUOUS
 62
     7
100
AcDbLine
 10
2059.320021166566
 20
1782.166173617731
 30
0.0
 11
2012.52002116656
 21
1828.966173617737
 31
0.0
  0
LINE
  5
157
330
1F
100
AcDbEntity
  8
LAY-10
  6
CONTINUOUS
 62
     7
100
AcDbLine
 10
2059.320021166569
 20
1796.30830924146
 30
0.0
 11
2012.520021166563
 21
1843.108309241466
 31
0.0
  0
LINE
  5
158
330
1F
100
AcDbEntity
  8
LAY-10
  6
CONTINUOUS
 62
     7
100
AcDbLine
 10
2059.320021166564
 20
1810.450444865196
 30
0.0
 11
2012.520021166565
 21
1857.250444865194
 31
0.0
  0
LINE
  5
159
330
1F
100
AcDbEntity
  8
LAY-10
  6
CONTINUOUS
 62
     7
100
AcDbLine
 10
2059.320021166566
 20
1824.592580488924
 30
0.0
 11
2012.52002116656
 21
1871.39258048893
 31
0.0
  0
LINE
  5
15A
330
1F
100
AcDbEntity
  8
LAY-10
  6
CONTINUOUS
 62
     7
100
AcDbLine
 10
2059.320021166569
 20
1838.734716112652
 30
0.0
 11
2012.520021166563
 21
1885.534716112658
 31
0.0
  0
LINE
  5
15B
330
1F
100
AcDbEntity
  8
LAY-10
  6
CONTINUOUS
 62
     7
100
AcDbLine
 10
2059.320021166564
 20
1852.876851736389
 30
0.0
 11
2012.520021166565
 21
1899.676851736387
 31
0.0
  0
LINE
  5
15C
330
1F
100
AcDbEntity
  8
LAY-10
  6
CONTINUOUS
 62
     7
100
AcDbLine
 10
2059.320021166567
 20
1867.018987360117
 30
0.0
 11
2012.52002116656
 21
1913.818987360123
 31
0.0
  0
LINE
  5
15D
330
1F
100
AcDbEntity
  8
LAY-10
  6
CONTINUOUS
 62
     7
100
AcDbLine
 10
2059.320021166569
 20
1881.161122983845
 30
0.0
 11
2012.520021166563
 21
1927.961122983852
 31
0.0
  0
LINE
  5
15E
330
1F
100
AcDbEntity
  8
LAY-10
  6
CONTINUOUS
 62
     7
100
AcDbLine
 10
2059.320021166564
 20
1895.303258607581
 30
0.0
 11
2012.520021166565
 21
1942.10325860758
 31
0.0
  0
LINE
  5
15F
330
1F
100
AcDbEntity
  8
LAY-10
  6
CONTINUOUS
 62
     7
100
AcDbLine
 10
2059.320021166567
 20
1909.44539423131
 30
0.0
 11
2012.52002116656
 21
1956.245394231316
 31
0.0
  0
LINE
  5
160
330
1F
100
AcDbEntity
  8
LAY-10
  6
CONTINUOUS
 62
     7
100
AcDbLine
 10
2059.320021166569
 20
1923.587529855038
 30
0.0
 11
2012.520021166563
 21
1970.387529855044
 31
0.0
  0
LINE
  5
161
330
1F
100
AcDbEntity
  8
LAY-10
  6
CONTINUOUS
 62
     7
100
AcDbLine
 10
2059.320021166564
 20
1937.729665478774
 30
0.0
 11
2012.520021166566
 21
1984.529665478773
 31
0.0
  0
LINE
  5
162
330
1F
100
AcDbEntity
  8
LAY-10
  6
CONTINUOUS
 62
     7
100
AcDbLine
 10
2059.320021166567
 20
1951.871801102503
 30
0.0
 11
2012.520021166561
 21
1998.671801102509
 31
0.0
  0
LINE
  5
163
330
1F
100
AcDbEntity
  8
LAY-10
  6
CONTINUOUS
 62
     7
100
AcDbLine
 10
2059.320021166569
 20
1966.013936726231
 30
0.0
 11
2012.520021166563
 21
2012.813936726238
 31
0.0
  0
LINE
  5
164
330
1F
100
AcDbEntity
  8
LAY-10
  6
CONTINUOUS
 62
     7
100
AcDbLine
 10
2059.320021166564
 20
1980.156072349967
 30
0.0
 11
2012.520021166566
 21
2026.956072349966
 31
0.0
  0
LINE
  5
165
330
1F
100
AcDbEntity
  8
LAY-10
  6
CONTINUOUS
 62
     7
100
AcDbLine
 10
2059.320021166567
 20
1994.298207973695
 30
0.0
 11
2012.520021166561
 21
2041.098207973702
 31
0.0
  0
LINE
  5
166
330
1F
100
AcDbEntity
  8
LAY-10
  6
CONTINUOUS
 62
     7
100
AcDbLine
 10
2059.320021166569
 20
2008.440343597424
 30
0.0
 11
2012.520021166563
 21
2055.24034359743
 31
0.0
  0
LINE
  5
167
330
1F
100
AcDbEntity
  8
LAY-10
  6
CONTINUOUS
 62
     7
100
AcDbLine
 10
2059.320021166564
 20
2022.58247922116
 30
0.0
 11
2012.520021166566
 21
2069.382479221159
 31
0.0
  0
LINE
  5
168
330
1F
100
AcDbEntity
  8
LAY-10
  6
CONTINUOUS
 62
     7
100
AcDbLine
 10
2059.320021166567
 20
2036.724614844888
 30
0.0
 11
2012.520021166561
 21
2083.524614844895
 31
0.0
  0
LINE
  5
169
330
1F
100
AcDbEntity
  8
LAY-10
  6
CONTINUOUS
 62
     7
100
AcDbLine
 10
2059.320021166569
 20
2050.866750468617
 30
0.0
 11
2012.520021166563
 21
2097.666750468623
 31
0.0
  0
LINE
  5
16A
330
1F
100
AcDbEntity
  8
LAY-10
  6
CONTINUOUS
 62
     7
100
AcDbLine
 10
2059.320021166564
 20
2065.008886092353
 30
0.0
 11
2012.520021166566
 21
2111.808886092352
 31
0.0
  0
LINE
  5
16B
330
1F
100
AcDbEntity
  8
LAY-10
  6
CONTINUOUS
 62
     7
100
AcDbLine
 10
2059.320021166567
 20
2079.151021716081
 30
0.0
 11
2012.520021166561
 21
2125.951021716088
 31
0.0
  0
LINE
  5
16C
330
1F
100
AcDbEntity
  8
LAY-10
  6
CONTINUOUS
 62
     7
100
AcDbLine
 10
2059.320021166569
 20
2093.29315733981
 30
0.0
 11
2012.520021166563
 21
2140.093157339816
 31
0.0
  0
LINE
  5
16D
330
1F
100
AcDbEntity
  8
LAY-10
  6
CONTINUOUS
 62
     7
100
AcDbLine
 10
2059.320021166564
 20
2107.435292963546
 30
0.0
 11
2012.520021166566
 21
2154.235292963544
 31
0.0
  0
LINE
  5
16E
330
1F
100
AcDbEntity
  8
LAY-10
  6
CONTINUOUS
 62
     7
100
AcDbLine
 10
2059.320021166567
 20
2121.577428587274
 30
0.0
 11
2026.029572882718
 21
2154.867876871123
 31
0.0
  0
LINE
  5
16F
330
1F
100
AcDbEntity
  8
LAY-10
  6
CONTINUOUS
 62
     7
100
AcDbLine
 10
2059.320021166569
 20
2135.719564211003
 30
0.0
 11
2040.171708506446
 21
2154.867876871126
 31
0.0
  0
LINE
  5
170
330
1F
100
AcDbEntity
  8
LAY-10
  6
CONTINUOUS
 62
     7
100
AcDbLine
 10
2059.320021166564
 20
2149.861699834739
 30
0.0
 11
2054.313844130175
 21
2154.867876871128
 31
0.0
  0
LINE
  5
171
330
1F
100
AcDbEntity
  8
LAY-10
  6
CONTINUOUS
 62
     7
100
AcDbLine
 10
628.4076841562044
 20
823.6459639423892
 30
0.0
 11
637.1137699693509
 21
832.3520497555354
 31
0.0
  0
LINE
  5
172
330
1F
100
AcDbEntity
  8
LAY-10
  6
CONTINUOUS
 62
     7
100
AcDbLine
 10
628.4076841561996
 20
809.503828318653
 30
0.0
 11
651.2559055930868
 21
832.3520497555405
 31
0.0
  0
LINE
  5
173
330
1F
100
AcDbEntity
  8
LAY-10
  6
CONTINUOUS
 62
     7
100
AcDbLine
 10
628.4076841562019
 20
795.3616926949246
 30
0.0
 11
665.398041216815
 21
832.3520497555381
 31
0.0
  0
LINE
  5
174
330
1F
100
AcDbEntity
  8
LAY-10
  6
CONTINUOUS
 62
     7
100
AcDbLine
 10
632.740176840545
 20
785.5520497555367
 30
0.0
 11
679.5401768405433
 21
832.3520497555354
 31
0.0
  0
LINE
  5
175
330
1F
100
AcDbEntity
  8
LAY-10
  6
CONTINUOUS
 62
     7
100
AcDbLine
 10
646.8823124642811
 20
785.552049755542
 30
0.0
 11
693.6823124642794
 21
832.3520497555407
 31
0.0
  0
LINE
  5
176
330
1F
100
AcDbEntity
  8
LAY-10
  6
CONTINUOUS
 62
     7
100
AcDbLine
 10
661.0244480880092
 20
785.5520497555394
 30
0.0
 11
707.824448088008
 21
832.3520497555381
 31
0.0
  0
LINE
  5
177
330
1F
100
AcDbEntity
  8
LAY-10
  6
CONTINUOUS
 62
     7
100
AcDbLine
 10
675.1665837117375
 20
785.5520497555369
 30
0.0
 11
721.9665837117361
 21
832.3520497555355
 31
0.0
  0
LINE
  5
178
330
1F
100
AcDbEntity
  8
LAY-10
  6
CONTINUOUS
 62
     7
100
AcDbLine
 10
689.3087193354736
 20
785.552049755542
 30
0.0
 11
736.1087193354721
 21
832.3520497555407
 31
0.0
  0
LINE
  5
179
330
1F
100
AcDbEntity
  8
LAY-10
  6
CONTINUOUS
 62
     7
100
AcDbLine
 10
703.4508549592022
 20
785.5520497555394
 30
0.0
 11
750.2508549592005
 21
832.3520497555381
 31
0.0
  0
LINE
  5
17A
330
1F
100
AcDbEntity
  8
LAY-10
  6
CONTINUOUS
 62
     7
100
AcDbLine
 10
717.5929905829302
 20
785.552049755537
 30
0.0
 11
764.3929905829365
 21
832.3520497555435
 31
0.0
  0
LINE
  5
17B
330
1F
100
AcDbEntity
  8
LAY-10
  6
CONTINUOUS
 62
     7
100
AcDbLine
 10
731.7351262066663
 20
785.5520497555422
 30
0.0
 11
778.5351262066652
 21
832.352049755541
 31
0.0
  0
LINE
  5
17C
330
1F
100
AcDbEntity
  8
LAY-10
  6
CONTINUOUS
 62
     7
100
AcDbLine
 10
745.8772618303946
 20
785.5520497555398
 30
0.0
 11
792.6772618303933
 21
832.3520497555382
 31
0.0
  0
LINE
  5
17D
330
1F
100
AcDbEntity
  8
LAY-10
  6
CONTINUOUS
 62
     7
100
AcDbLine
 10
760.0193974541232
 20
785.552049755537
 30
0.0
 11
806.8193974541293
 21
832.3520497555435
 31
0.0
  0
LINE
  5
17E
330
1F
100
AcDbEntity
  8
LAY-10
  6
CONTINUOUS
 62
     7
100
AcDbLine
 10
774.1615330778593
 20
785.5520497555424
 30
0.0
 11
820.9615330778577
 21
832.352049755541
 31
0.0
  0
LINE
  5
17F
330
1F
100
AcDbEntity
  8
LAY-10
  6
CONTINUOUS
 62
     7
100
AcDbLine
 10
788.3036687015874
 20
785.5520497555398
 30
0.0
 11
835.1036687015863
 21
832.3520497555384
 31
0.0
  0
LINE
  5
180
330
1F
100
AcDbEntity
  8
LAY-10
  6
CONTINUOUS
 62
     7
100
AcDbLine
 10
802.4458043253157
 20
785.5520497555372
 30
0.0
 11
849.245804325322
 21
832.3520497555436
 31
0.0
  0
LINE
  5
181
330
1F
100
AcDbEntity
  8
LAY-10
  6
CONTINUOUS
 62
     7
100
AcDbLine
 10
816.5879399490518
 20
785.5520497555424
 30
0.0
 11
863.3879399490504
 21
832.352049755541
 31
0.0
  0
LINE
  5
182
330
1F
100
AcDbEntity
  8
LAY-10
  6
CONTINUOUS
 62
     7
100
AcDbLine
 10
830.7300755727802
 20
785.5520497555398
 30
0.0
 11
877.5300755727787
 21
832.3520497555384
 31
0.0
  0
LINE
  5
183
330
1F
100
AcDbEntity
  8
LAY-10
  6
CONTINUOUS
 62
     7
100
AcDbLine
 10
844.8722111965085
 20
785.5520497555375
 30
0.0
 11
891.6722111965148
 21
832.3520497555438
 31
0.0
  0
LINE
  5
184
330
1F
100
AcDbEntity
  8
LAY-10
  6
CONTINUOUS
 62
     7
100
AcDbLine
 10
859.0143468202444
 20
785.5520497555426
 30
0.0
 11
905.8143468202429
 21
832.3520497555412
 31
0.0
  0
LINE
  5
185
330
1F
100
AcDbEntity
  8
LAY-10
  6
CONTINUOUS
 62
     7
100
AcDbLine
 10
873.1564824439729
 20
785.5520497555399
 30
0.0
 11
919.9564824439716
 21
832.3520497555387
 31
0.0
  0
LINE
  5
186
330
1F
100
AcDbEntity
  8
LAY-10
  6
CONTINUOUS
 62
     7
100
AcDbLine
 10
887.298618067701
 20
785.5520497555375
 30
0.0
 11
934.0986180677075
 21
832.3520497555438
 31
0.0
  0
LINE
  5
187
330
1F
100
AcDbEntity
  8
LAY-10
  6
CONTINUOUS
 62
     7
100
AcDbLine
 10
901.4407536914373
 20
785.5520497555426
 30
0.0
 11
948.240753691436
 21
832.3520497555413
 31
0.0
  0
LINE
  5
188
330
1F
100
AcDbEntity
  8
LAY-10
  6
CONTINUOUS
 62
     7
100
AcDbLine
 10
915.5828893151656
 20
785.5520497555401
 30
0.0
 11
962.3828893151642
 21
832.3520497555387
 31
0.0
  0
LINE
  5
189
330
1F
100
AcDbEntity
  8
LAY-10
  6
CONTINUOUS
 62
     7
100
AcDbLine
 10
929.7250249388941
 20
785.5520497555376
 30
0.0
 11
976.5250249389004
 21
832.3520497555439
 31
0.0
  0
LINE
  5
18A
330
1F
100
AcDbEntity
  8
LAY-10
  6
CONTINUOUS
 62
     7
100
AcDbLine
 10
943.86716056263
 20
785.5520497555427
 30
0.0
 11
990.6671605626286
 21
832.3520497555415
 31
0.0
  0
LINE
  5
18B
330
1F
100
AcDbEntity
  8
LAY-10
  6
CONTINUOUS
 62
     7
100
AcDbLine
 10
958.0092961863585
 20
785.5520497555403
 30
0.0
 11
1004.809296186357
 21
832.3520497555388
 31
0.0
  0
LINE
  5
18C
330
1F
100
AcDbEntity
  8
LAY-10
  6
CONTINUOUS
 62
     7
100
AcDbLine
 10
972.1514318100942
 20
785.5520497555455
 30
0.0
 11
1018.951431810093
 21
832.3520497555442
 31
0.0
  0
LINE
  5
18D
330
1F
100
AcDbEntity
  8
LAY-10
  6
CONTINUOUS
 62
     7
100
AcDbLine
 10
986.2935674338229
 20
785.5520497555428
 30
0.0
 11
1033.093567433822
 21
832.3520497555415
 31
0.0
  0
LINE
  5
18E
330
1F
100
AcDbEntity
  8
LAY-10
  6
CONTINUOUS
 62
     7
100
AcDbLine
 10
1000.435703057551
 20
785.5520497555403
 30
0.0
 11
1047.23570305755
 21
832.3520497555389
 31
0.0
  0
LINE
  5
18F
330
1F
100
AcDbEntity
  8
LAY-10
  6
CONTINUOUS
 62
     7
100
AcDbLine
 10
1014.577838681287
 20
785.5520497555455
 30
0.0
 11
1061.377838681286
 21
832.3520497555442
 31
0.0
  0
LINE
  5
190
330
1F
100
AcDbEntity
  8
LAY-10
  6
CONTINUOUS
 62
     7
100
AcDbLine
 10
1028.719974305016
 20
785.552049755543
 30
0.0
 11
1075.519974305014
 21
832.3520497555415
 31
0.0
  0
LINE
  5
191
330
1F
100
AcDbEntity
  8
LAY-10
  6
CONTINUOUS
 62
     7
100
AcDbLine
 10
1042.862109928744
 20
785.5520497555405
 30
0.0
 11
1089.662109928743
 21
832.352049755539
 31
0.0
  0
LINE
  5
192
330
1F
100
AcDbEntity
  8
LAY-10
  6
CONTINUOUS
 62
     7
100
AcDbLine
 10
1057.00424555248
 20
785.5520497555456
 30
0.0
 11
1103.804245552478
 21
832.3520497555444
 31
0.0
  0
LINE
  5
193
330
1F
100
AcDbEntity
  8
LAY-10
  6
CONTINUOUS
 62
     7
100
AcDbLine
 10
1071.146381176208
 20
785.5520497555432
 30
0.0
 11
1117.946381176207
 21
832.3520497555417
 31
0.0
  0
LINE
  5
194
330
1F
100
AcDbEntity
  8
LAY-10
  6
CONTINUOUS
 62
     7
100
AcDbLine
 10
1085.288516799937
 20
785.5520497555406
 30
0.0
 11
1132.088516799935
 21
832.3520497555393
 31
0.0
  0
LINE
  5
195
330
1F
100
AcDbEntity
  8
LAY-10
  6
CONTINUOUS
 62
     7
100
AcDbLine
 10
1099.430652423673
 20
785.5520497555458
 30
0.0
 11
1146.230652423671
 21
832.3520497555444
 31
0.0
  0
LINE
  5
196
330
1F
100
AcDbEntity
  8
LAY-10
  6
CONTINUOUS
 62
     7
100
AcDbLine
 10
1113.572788047401
 20
785.5520497555432
 30
0.0
 11
1160.372788047399
 21
832.3520497555418
 31
0.0
  0
LINE
  5
197
330
1F
100
AcDbEntity
  8
LAY-10
  6
CONTINUOUS
 62
     7
100
AcDbLine
 10
1127.714923671129
 20
785.5520497555407
 30
0.0
 11
1174.514923671128
 21
832.3520497555394
 31
0.0
  0
LINE
  5
198
330
1F
100
AcDbEntity
  8
LAY-10
  6
CONTINUOUS
 62
     7
100
AcDbLine
 10
1141.857059294865
 20
785.5520497555458
 30
0.0
 11
1188.657059294864
 21
832.3520497555445
 31
0.0
  0
LINE
  5
199
330
1F
100
AcDbEntity
  8
LAY-10
  6
CONTINUOUS
 62
     7
100
AcDbLine
 10
1155.999194918594
 20
785.5520497555433
 30
0.0
 11
1202.799194918593
 21
832.3520497555419
 31
0.0
  0
LINE
  5
19A
330
1F
100
AcDbEntity
  8
LAY-10
  6
CONTINUOUS
 62
     7
100
AcDbLine
 10
1170.141330542322
 20
785.5520497555409
 30
0.0
 11
1216.94133054232
 21
832.3520497555394
 31
0.0
  0
LINE
  5
19B
330
1F
100
AcDbEntity
  8
LAY-10
  6
CONTINUOUS
 62
     7
100
AcDbLine
 10
1184.283466166058
 20
785.552049755546
 30
0.0
 11
1231.083466166057
 21
832.3520497555446
 31
0.0
  0
LINE
  5
19C
330
1F
100
AcDbEntity
  8
LAY-10
  6
CONTINUOUS
 62
     7
100
AcDbLine
 10
1198.425601789786
 20
785.5520497555434
 30
0.0
 11
1245.225601789785
 21
832.3520497555421
 31
0.0
  0
LINE
  5
19D
330
1F
100
AcDbEntity
  8
LAY-10
  6
CONTINUOUS
 62
     7
100
AcDbLine
 10
1212.567737413515
 20
785.5520497555409
 30
0.0
 11
1259.367737413514
 21
832.3520497555395
 31
0.0
  0
LINE
  5
19E
330
1F
100
AcDbEntity
  8
LAY-10
  6
CONTINUOUS
 62
     7
100
AcDbLine
 10
1226.709873037251
 20
785.552049755546
 30
0.0
 11
1273.50987303725
 21
832.3520497555447
 31
0.0
  0
LINE
  5
19F
330
1F
100
AcDbEntity
  8
LAY-10
  6
CONTINUOUS
 62
     7
100
AcDbLine
 10
1240.852008660979
 20
785.5520497555435
 30
0.0
 11
1287.652008660978
 21
832.3520497555421
 31
0.0
  0
LINE
  5
1A0
330
1F
100
AcDbEntity
  8
LAY-10
  6
CONTINUOUS
 62
     7
100
AcDbLine
 10
1254.994144284708
 20
785.552049755541
 30
0.0
 11
1301.794144284706
 21
832.3520497555396
 31
0.0
  0
LINE
  5
1A1
330
1F
100
AcDbEntity
  8
LAY-10
  6
CONTINUOUS
 62
     7
100
AcDbLine
 10
1269.136279908444
 20
785.5520497555461
 30
0.0
 11
1315.936279908442
 21
832.352049755545
 31
0.0
  0
LINE
  5
1A2
330
1F
100
AcDbEntity
  8
LAY-10
  6
CONTINUOUS
 62
     7
100
AcDbLine
 10
1283.278415532172
 20
785.5520497555437
 30
0.0
 11
1330.078415532171
 21
832.3520497555423
 31
0.0
  0
LINE
  5
1A3
330
1F
100
AcDbEntity
  8
LAY-10
  6
CONTINUOUS
 62
     7
100
AcDbLine
 10
1297.4205511559
 20
785.5520497555411
 30
0.0
 11
1344.220551155907
 21
832.3520497555476
 31
0.0
  0
LINE
  5
1A4
330
1F
100
AcDbEntity
  8
LAY-10
  6
CONTINUOUS
 62
     7
100
AcDbLine
 10
1311.562686779636
 20
785.5520497555462
 30
0.0
 11
1358.362686779635
 21
832.352049755545
 31
0.0
  0
LINE
  5
1A5
330
1F
100
AcDbEntity
  8
LAY-10
  6
CONTINUOUS
 62
     7
100
AcDbLine
 10
1325.704822403365
 20
785.5520497555437
 30
0.0
 11
1372.504822403364
 21
832.3520497555423
 31
0.0
  0
LINE
  5
1A6
330
1F
100
AcDbEntity
  8
LAY-10
  6
CONTINUOUS
 62
     7
100
AcDbLine
 10
1339.846958027093
 20
785.5520497555411
 30
0.0
 11
1386.6469580271
 21
832.3520497555476
 31
0.0
  0
LINE
  5
1A7
330
1F
100
AcDbEntity
  8
LAY-10
  6
CONTINUOUS
 62
     7
100
AcDbLine
 10
1353.989093650829
 20
785.5520497555462
 30
0.0
 11
1400.789093650828
 21
832.352049755545
 31
0.0
  0
LINE
  5
1A8
330
1F
100
AcDbEntity
  8
LAY-10
  6
CONTINUOUS
 62
     7
100
AcDbLine
 10
1368.131229274557
 20
785.5520497555437
 30
0.0
 11
1409.207684156135
 21
826.6285046371208
 31
0.0
  0
LINE
  5
1A9
330
1F
100
AcDbEntity
  8
LAY-10
  6
CONTINUOUS
 62
     7
100
AcDbLine
 10
1382.273364898294
 20
785.5520497555489
 30
0.0
 11
1409.20768415613
 21
812.4863690133848
 31
0.0
  0
LINE
  5
1AA
330
1F
100
AcDbEntity
  8
LAY-10
  6
CONTINUOUS
 62
     7
100
AcDbLine
 10
1396.415500522022
 20
785.5520497555461
 30
0.0
 11
1409.207684156132
 21
798.3442333896563
 31
0.0
  0
LINE
  5
1AB
330
1F
100
AcDbEntity
  8
LAY-10
  6
CONTINUOUS
 62
     7
100
AcDbLine
 10
637.1863819202486
 20
785.5520497555467
 30
0.0
 11
628.4076841562078
 21
794.3307475195879
 31
0.0
  0
LINE
  5
1AC
330
1F
100
AcDbEntity
  8
LAY-10
  6
CONTINUOUS
 62
     7
100
AcDbLine
 10
651.3285175439848
 20
785.5520497555417
 30
0.0
 11
628.4076841562025
 21
808.472883143324
 31
0.0
  0
LINE
  5
1AD
330
1F
100
AcDbEntity
  8
LAY-10
  6
CONTINUOUS
 62
     7
100
AcDbLine
 10
665.4706531677132
 20
785.5520497555443
 30
0.0
 11
628.407684156205
 21
822.6150187670523
 31
0.0
  0
LINE
  5
1AE
330
1F
100
AcDbEntity
  8
LAY-10
  6
CONTINUOUS
 62
     7
100
AcDbLine
 10
679.6127887914417
 20
785.5520497555466
 30
0.0
 11
632.8127887914429
 21
832.3520497555453
 31
0.0
  0
LINE
  5
1AF
330
1F
100
AcDbEntity
  8
LAY-10
  6
CONTINUOUS
 62
     7
100
AcDbLine
 10
693.7549244151774
 20
785.5520497555415
 30
0.0
 11
646.9549244151788
 21
832.3520497555402
 31
0.0
  0
LINE
  5
1B0
330
1F
100
AcDbEntity
  8
LAY-10
  6
CONTINUOUS
 62
     7
100
AcDbLine
 10
707.8970600389057
 20
785.552049755544
 30
0.0
 11
661.0970600389073
 21
832.3520497555428
 31
0.0
  0
LINE
  5
1B1
330
1F
100
AcDbEntity
  8
LAY-10
  6
CONTINUOUS
 62
     7
100
AcDbLine
 10
722.0391956626341
 20
785.5520497555466
 30
0.0
 11
675.2391956626358
 21
832.3520497555453
 31
0.0
  0
LINE
  5
1B2
330
1F
100
AcDbEntity
  8
LAY-10
  6
CONTINUOUS
 62
     7
100
AcDbLine
 10
736.1813312863703
 20
785.5520497555415
 30
0.0
 11
689.381331286372
 21
832.3520497555402
 31
0.0
  0
LINE
  5
1B3
330
1F
100
AcDbEntity
  8
LAY-10
  6
CONTINUOUS
 62
     7
100
AcDbLine
 10
750.3234669100989
 20
785.5520497555439
 30
0.0
 11
703.5234669101001
 21
832.3520497555427
 31
0.0
  0
LINE
  5
1B4
330
1F
100
AcDbEntity
  8
LAY-10
  6
CONTINUOUS
 62
     7
100
AcDbLine
 10
764.4656025338268
 20
785.5520497555466
 30
0.0
 11
717.6656025338284
 21
832.3520497555451
 31
0.0
  0
LINE
  5
1B5
330
1F
100
AcDbEntity
  8
LAY-10
  6
CONTINUOUS
 62
     7
100
AcDbLine
 10
778.6077381575628
 20
785.5520497555412
 30
0.0
 11
731.8077381575645
 21
832.3520497555401
 31
0.0
  0
LINE
  5
1B6
330
1F
100
AcDbEntity
  8
LAY-10
  6
CONTINUOUS
 62
     7
100
AcDbLine
 10
792.7498737812914
 20
785.5520497555437
 30
0.0
 11
745.949873781293
 21
832.3520497555425
 31
0.0
  0
LINE
  5
1B7
330
1F
100
AcDbEntity
  8
LAY-10
  6
CONTINUOUS
 62
     7
100
AcDbLine
 10
806.8920094050196
 20
785.5520497555464
 30
0.0
 11
760.092009405021
 21
832.3520497555451
 31
0.0
  0
LINE
  5
1B8
330
1F
100
AcDbEntity
  8
LAY-10
  6
CONTINUOUS
 62
     7
100
AcDbLine
 10
821.0341450287556
 20
785.5520497555411
 30
0.0
 11
774.2341450287572
 21
832.3520497555398
 31
0.0
  0
LINE
  5
1B9
330
1F
100
AcDbEntity
  8
LAY-10
  6
CONTINUOUS
 62
     7
100
AcDbLine
 10
835.176280652484
 20
785.5520497555437
 30
0.0
 11
788.3762806524857
 21
832.3520497555423
 31
0.0
  0
LINE
  5
1BA
330
1F
100
AcDbEntity
  8
LAY-10
  6
CONTINUOUS
 62
     7
100
AcDbLine
 10
849.3184162762125
 20
785.5520497555461
 30
0.0
 11
802.5184162762141
 21
832.352049755545
 31
0.0
  0
LINE
  5
1BB
330
1F
100
AcDbEntity
  8
LAY-10
  6
CONTINUOUS
 62
     7
100
AcDbLine
 10
863.4605518999485
 20
785.552049755541
 30
0.0
 11
816.6605518999497
 21
832.3520497555398
 31
0.0
  0
LINE
  5
1BC
330
1F
100
AcDbEntity
  8
LAY-10
  6
CONTINUOUS
 62
     7
100
AcDbLine
 10
877.6026875236769
 20
785.5520497555437
 30
0.0
 11
830.8026875236783
 21
832.3520497555422
 31
0.0
  0
LINE
  5
1BD
330
1F
100
AcDbEntity
  8
LAY-10
  6
CONTINUOUS
 62
     7
100
AcDbLine
 10
891.744823147405
 20
785.5520497555461
 30
0.0
 11
844.9448231474066
 21
832.352049755545
 31
0.0
  0
LINE
  5
1BE
330
1F
100
AcDbEntity
  8
LAY-10
  6
CONTINUOUS
 62
     7
100
AcDbLine
 10
905.8869587711413
 20
785.552049755541
 30
0.0
 11
859.0869587711427
 21
832.3520497555396
 31
0.0
  0
LINE
  5
1BF
330
1F
100
AcDbEntity
  8
LAY-10
  6
CONTINUOUS
 62
     7
100
AcDbLine
 10
920.0290943948696
 20
785.5520497555435
 30
0.0
 11
873.2290943948709
 21
832.3520497555421
 31
0.0
  0
LINE
  5
1C0
330
1F
100
AcDbEntity
  8
LAY-10
  6
CONTINUOUS
 62
     7
100
AcDbLine
 10
934.1712300185977
 20
785.552049755546
 30
0.0
 11
887.3712300185994
 21
832.3520497555446
 31
0.0
  0
LINE
  5
1C1
330
1F
100
AcDbEntity
  8
LAY-10
  6
CONTINUOUS
 62
     7
100
AcDbLine
 10
948.313365642334
 20
785.5520497555409
 30
0.0
 11
901.5133656423354
 21
832.3520497555395
 31
0.0
  0
LINE
  5
1C2
330
1F
100
AcDbEntity
  8
LAY-10
  6
CONTINUOUS
 62
     7
100
AcDbLine
 10
962.4555012660625
 20
785.5520497555433
 30
0.0
 11
915.6555012660638
 21
832.3520497555421
 31
0.0
  0
LINE
  5
1C3
330
1F
100
AcDbEntity
  8
LAY-10
  6
CONTINUOUS
 62
     7
100
AcDbLine
 10
976.5976368897907
 20
785.552049755546
 30
0.0
 11
929.7976368897919
 21
832.3520497555445
 31
0.0
  0
LINE
  5
1C4
330
1F
100
AcDbEntity
  8
LAY-10
  6
CONTINUOUS
 62
     7
100
AcDbLine
 10
990.7397725135269
 20
785.5520497555407
 30
0.0
 11
943.9397725135279
 21
832.3520497555394
 31
0.0
  0
LINE
  5
1C5
330
1F
100
AcDbEntity
  8
LAY-10
  6
CONTINUOUS
 62
     7
100
AcDbLine
 10
1004.881908137255
 20
785.5520497555433
 30
0.0
 11
958.0819081372563
 21
832.3520497555419
 31
0.0
  0
LINE
  5
1C6
330
1F
100
AcDbEntity
  8
LAY-10
  6
CONTINUOUS
 62
     7
100
AcDbLine
 10
1019.024043760983
 20
785.5520497555458
 30
0.0
 11
972.224043760985
 21
832.3520497555444
 31
0.0
  0
LINE
  5
1C7
330
1F
100
AcDbEntity
  8
LAY-10
  6
CONTINUOUS
 62
     7
100
AcDbLine
 10
1033.16617938472
 20
785.5520497555406
 30
0.0
 11
986.3661793847209
 21
832.3520497555393
 31
0.0
  0
LINE
  5
1C8
330
1F
100
AcDbEntity
  8
LAY-10
  6
CONTINUOUS
 62
     7
100
AcDbLine
 10
1047.308315008448
 20
785.5520497555432
 30
0.0
 11
1000.508315008449
 21
832.3520497555417
 31
0.0
  0
LINE
  5
1C9
330
1F
100
AcDbEntity
  8
LAY-10
  6
CONTINUOUS
 62
     7
100
AcDbLine
 10
1061.450450632176
 20
785.5520497555457
 30
0.0
 11
1014.650450632177
 21
832.3520497555444
 31
0.0
  0
LINE
  5
1CA
330
1F
100
AcDbEntity
  8
LAY-10
  6
CONTINUOUS
 62
     7
100
AcDbLine
 10
1075.592586255912
 20
785.5520497555405
 30
0.0
 11
1028.792586255906
 21
832.3520497555468
 31
0.0
  0
LINE
  5
1CB
330
1F
100
AcDbEntity
  8
LAY-10
  6
CONTINUOUS
 62
     7
100
AcDbLine
 10
1089.734721879641
 20
785.5520497555432
 30
0.0
 11
1042.934721879642
 21
832.3520497555417
 31
0.0
  0
LINE
  5
1CC
330
1F
100
AcDbEntity
  8
LAY-10
  6
CONTINUOUS
 62
     7
100
AcDbLine
 10
1103.876857503369
 20
785.5520497555455
 30
0.0
 11
1057.07685750337
 21
832.3520497555442
 31
0.0
  0
LINE
  5
1CD
330
1F
100
AcDbEntity
  8
LAY-10
  6
CONTINUOUS
 62
     7
100
AcDbLine
 10
1118.018993127105
 20
785.5520497555403
 30
0.0
 11
1071.218993127099
 21
832.3520497555467
 31
0.0
  0
LINE
  5
1CE
330
1F
100
AcDbEntity
  8
LAY-10
  6
CONTINUOUS
 62
     7
100
AcDbLine
 10
1132.161128750833
 20
785.552049755543
 30
0.0
 11
1085.361128750835
 21
832.3520497555415
 31
0.0
  0
LINE
  5
1CF
330
1F
100
AcDbEntity
  8
LAY-10
  6
CONTINUOUS
 62
     7
100
AcDbLine
 10
1146.303264374561
 20
785.5520497555455
 30
0.0
 11
1099.503264374563
 21
832.352049755544
 31
0.0
  0
LINE
  5
1D0
330
1F
100
AcDbEntity
  8
LAY-10
  6
CONTINUOUS
 62
     7
100
AcDbLine
 10
1160.445399998298
 20
785.5520497555403
 30
0.0
 11
1113.645399998291
 21
832.3520497555467
 31
0.0
  0
LINE
  5
1D1
330
1F
100
AcDbEntity
  8
LAY-10
  6
CONTINUOUS
 62
     7
100
AcDbLine
 10
1174.587535622026
 20
785.5520497555427
 30
0.0
 11
1127.787535622027
 21
832.3520497555415
 31
0.0
  0
LINE
  5
1D2
330
1F
100
AcDbEntity
  8
LAY-10
  6
CONTINUOUS
 62
     7
100
AcDbLine
 10
1188.729671245754
 20
785.5520497555455
 30
0.0
 11
1141.929671245756
 21
832.3520497555439
 31
0.0
  0
LINE
  5
1D3
330
1F
100
AcDbEntity
  8
LAY-10
  6
CONTINUOUS
 62
     7
100
AcDbLine
 10
1202.87180686949
 20
785.55204975554
 30
0.0
 11
1156.071806869484
 21
832.3520497555464
 31
0.0
  0
LINE
  5
1D4
330
1F
100
AcDbEntity
  8
LAY-10
  6
CONTINUOUS
 62
     7
100
AcDbLine
 10
1217.013942493219
 20
785.5520497555426
 30
0.0
 11
1170.21394249322
 21
832.3520497555413
 31
0.0
  0
LINE
  5
1D5
330
1F
100
AcDbEntity
  8
LAY-10
  6
CONTINUOUS
 62
     7
100
AcDbLine
 10
1231.156078116947
 20
785.5520497555452
 30
0.0
 11
1184.356078116949
 21
832.3520497555438
 31
0.0
  0
LINE
  5
1D6
330
1F
100
AcDbEntity
  8
LAY-10
  6
CONTINUOUS
 62
     7
100
AcDbLine
 10
1245.298213740676
 20
785.5520497555478
 30
0.0
 11
1198.498213740677
 21
832.3520497555464
 31
0.0
  0
LINE
  5
1D7
330
1F
100
AcDbEntity
  8
LAY-10
  6
CONTINUOUS
 62
     7
100
AcDbLine
 10
1259.440349364412
 20
785.5520497555426
 30
0.0
 11
1212.640349364413
 21
832.3520497555413
 31
0.0
  0
LINE
  5
1D8
330
1F
100
AcDbEntity
  8
LAY-10
  6
CONTINUOUS
 62
     7
100
AcDbLine
 10
1273.58248498814
 20
785.5520497555455
 30
0.0
 11
1226.782484988141
 21
832.3520497555439
 31
0.0
  0
LINE
  5
1D9
330
1F
100
AcDbEntity
  8
LAY-10
  6
CONTINUOUS
 62
     7
100
AcDbLine
 10
1287.724620611868
 20
785.5520497555478
 30
0.0
 11
1240.92462061187
 21
832.3520497555464
 31
0.0
  0
LINE
  5
1DA
330
1F
100
AcDbEntity
  8
LAY-10
  6
CONTINUOUS
 62
     7
100
AcDbLine
 10
1301.866756235604
 20
785.5520497555427
 30
0.0
 11
1255.066756235606
 21
832.3520497555415
 31
0.0
  0
LINE
  5
1DB
330
1F
100
AcDbEntity
  8
LAY-10
  6
CONTINUOUS
 62
     7
100
AcDbLine
 10
1316.008891859333
 20
785.5520497555455
 30
0.0
 11
1269.208891859334
 21
832.3520497555439
 31
0.0
  0
LINE
  5
1DC
330
1F
100
AcDbEntity
  8
LAY-10
  6
CONTINUOUS
 62
     7
100
AcDbLine
 10
1330.151027483062
 20
785.5520497555478
 30
0.0
 11
1283.351027483063
 21
832.3520497555464
 31
0.0
  0
LINE
  5
1DD
330
1F
100
AcDbEntity
  8
LAY-10
  6
CONTINUOUS
 62
     7
100
AcDbLine
 10
1344.293163106798
 20
785.5520497555428
 30
0.0
 11
1297.493163106799
 21
832.3520497555415
 31
0.0
  0
LINE
  5
1DE
330
1F
100
AcDbEntity
  8
LAY-10
  6
CONTINUOUS
 62
     7
100
AcDbLine
 10
1358.435298730526
 20
785.5520497555455
 30
0.0
 11
1311.635298730527
 21
832.352049755544
 31
0.0
  0
LINE
  5
1DF
330
1F
100
AcDbEntity
  8
LAY-10
  6
CONTINUOUS
 62
     7
100
AcDbLine
 10
1372.577434354254
 20
785.552049755548
 30
0.0
 11
1325.777434354256
 21
832.3520497555467
 31
0.0
  0
LINE
  5
1E0
330
1F
100
AcDbEntity
  8
LAY-10
  6
CONTINUOUS
 62
     7
100
AcDbLine
 10
1386.71956997799
 20
785.5520497555428
 30
0.0
 11
1339.919569977992
 21
832.3520497555415
 31
0.0
  0
LINE
  5
1E1
330
1F
100
AcDbEntity
  8
LAY-10
  6
CONTINUOUS
 62
     7
100
AcDbLine
 10
1400.861705601719
 20
785.5520497555455
 30
0.0
 11
1354.06170560172
 21
832.3520497555442
 31
0.0
  0
LINE
  5
1E2
330
1F
100
AcDbEntity
  8
LAY-10
  6
CONTINUOUS
 62
     7
100
AcDbLine
 10
1409.207684156131
 20
791.3482068248643
 30
0.0
 11
1368.203841225449
 21
832.3520497555467
 31
0.0
  0
LINE
  5
1E3
330
1F
100
AcDbEntity
  8
LAY-10
  6
CONTINUOUS
 62
     7
100
AcDbLine
 10
1409.207684156126
 20
805.4903424486004
 30
0.0
 11
1382.345976849185
 21
832.3520497555415
 31
0.0
  0
LINE
  5
1E4
330
1F
100
AcDbEntity
  8
LAY-10
  6
CONTINUOUS
 62
     7
100
AcDbLine
 10
1409.207684156128
 20
819.6324780723288
 30
0.0
 11
1396.488112472913
 21
832.3520497555442
 31
0.0
  0
LINE
  5
1E5
330
1F
100
AcDbEntity
  8
LAY-10
  6
CONTINUOUS
 62
     7
100
AcDbLine
 10
615.8493147165369
 20
860.5520497555759
 30
0.0
 11
616.8076841561425
 21
859.5936803159691
 31
0.0
  0
LINE
  5
1E6
330
1F
100
AcDbEntity
  8
LAY-10
  6
CONTINUOUS
 62
     7
100
AcDbLine
 10
614.4351011541736
 20
860.5520497555642
 30
0.0
 11
616.435101154169
 21
858.5520497555683
 31
0.0
  0
LINE
  5
1E7
330
1F
100
AcDbEntity
  8
LAY-10
  6
CONTINUOUS
 62
     7
100
AcDbLine
 10
613.0208875917907
 20
860.5520497555759
 30
0.0
 11
615.0208875917875
 21
858.5520497555797
 31
0.0
  0
LINE
  5
1E8
330
1F
100
AcDbEntity
  8
LAY-10
  6
CONTINUOUS
 62
     7
100
AcDbLine
 10
611.6066740294283
 20
860.5520497555642
 30
0.0
 11
613.6066740294065
 21
858.5520497555905
 31
0.0
  0
LINE
  5
1E9
330
1F
100
AcDbEntity
  8
LAY-10
  6
CONTINUOUS
 62
     7
100
AcDbLine
 10
610.1924604670454
 20
860.5520497555759
 30
0.0
 11
612.1924604670422
 21
858.5520497555797
 31
0.0
  0
LINE
  5
1EA
330
1F
100
AcDbEntity
  8
LAY-10
  6
CONTINUOUS
 62
     7
100
AcDbLine
 10
608.7782469046834
 20
860.5520497555642
 30
0.0
 11
610.7782469046593
 21
858.5520497555865
 31
0.0
  0
LINE
  5
1EB
330
1F
100
AcDbEntity
  8
LAY-10
  6
CONTINUOUS
 62
     7
100
AcDbLine
 10
607.3640333423006
 20
860.5520497555759
 30
0.0
 11
609.3640333422974
 21
858.5520497555797
 31
0.0
  0
LINE
  5
1EC
330
1F
100
AcDbEntity
  8
LAY-10
  6
CONTINUOUS
 62
     7
100
AcDbLine
 10
605.9498197799395
 20
860.5520497555642
 30
0.0
 11
607.9498197799168
 21
858.5520497555865
 31
0.0
  0
LINE
  5
1ED
330
1F
100
AcDbEntity
  8
LAY-10
  6
CONTINUOUS
 62
     7
100
AcDbLine
 10
604.5356062175553
 20
860.5520497555723
 30
0.0
 11
606.5356062175534
 21
858.5520497555751
 31
0.0
  0
LINE
  5
1EE
330
1F
100
AcDbEntity
  8
LAY-10
  6
CONTINUOUS
 62
     7
100
AcDbLine
 10
603.1213926551937
 20
860.5520497555614
 30
0.0
 11
605.1213926551719
 21
858.5520497555827
 31
0.0
  0
LINE
  5
1EF
330
1F
100
AcDbEntity
  8
LAY-10
  6
CONTINUOUS
 62
     7
100
AcDbLine
 10
601.7071790928109
 20
860.5520497555723
 30
0.0
 11
603.7071790928077
 21
858.5520497555751
 31
0.0
  0
LINE
  5
1F0
330
1F
100
AcDbEntity
  8
LAY-10
  6
CONTINUOUS
 62
     7
100
AcDbLine
 10
600.2929655304498
 20
860.5520497555614
 30
0.0
 11
602.2929655304248
 21
858.5520497555827
 31
0.0
  0
LINE
  5
1F1
330
1F
100
AcDbEntity
  8
LAY-10
  6
CONTINUOUS
 62
     7
100
AcDbLine
 10
598.8787519680669
 20
860.5520497555682
 30
0.0
 11
600.8787519680637
 21
858.5520497555718
 31
0.0
  0
LINE
  5
1F2
330
1F
100
AcDbEntity
  8
LAY-10
  6
CONTINUOUS
 62
     7
100
AcDbLine
 10
597.464538405704
 20
860.5520497555574
 30
0.0
 11
599.4645384056822
 21
858.5520497555827
 31
0.0
  0
LINE
  5
1F3
330
1F
100
AcDbEntity
  8
LAY-10
  6
CONTINUOUS
 62
     7
100
AcDbLine
 10
596.0503248433212
 20
860.5520497555682
 30
0.0
 11
598.050324843318
 21
858.5520497555718
 31
0.0
  0
LINE
  5
1F4
330
1F
100
AcDbEntity
  8
LAY-10
  6
CONTINUOUS
 62
     7
100
AcDbLine
 10
594.6361112809592
 20
860.5520497555574
 30
0.0
 11
596.6361112809351
 21
858.5520497555797
 31
0.0
  0
LINE
  5
1F5
330
1F
100
AcDbEntity
  8
LAY-10
  6
CONTINUOUS
 62
     7
100
AcDbLine
 10
593.2218977185768
 20
860.5520497555642
 30
0.0
 11
595.2218977185731
 21
858.5520497555683
 31
0.0
  0
LINE
  5
1F6
330
1F
100
AcDbEntity
  8
LAY-10
  6
CONTINUOUS
 62
     7
100
AcDbLine
 10
591.8076841561943
 20
860.5520497555759
 30
0.0
 11
593.8076841561907
 21
858.5520497555797
 31
0.0
  0
LINE
  5
1F7
330
1F
100
AcDbEntity
  8
LAY-10
  6
CONTINUOUS
 62
     7
100
AcDbLine
 10
591.807684156183
 20
859.137836193213
 30
0.0
 11
592.3934705938269
 21
858.5520497555683
 31
0.0
  0
LINE
  5
1F8
330
1F
100
AcDbEntity
  8
LAY-10
  6
CONTINUOUS
 62
     7
100
AcDbLine
 10
1444.849314716567
 20
860.5520497555859
 30
0.0
 11
1445.807684156172
 21
859.593680315979
 31
0.0
  0
LINE
  5
1F9
330
1F
100
AcDbEntity
  8
LAY-10
  6
CONTINUOUS
 62
     7
100
AcDbLine
 10
1443.435101154203
 20
860.5520497555741
 30
0.0
 11
1445.435101154199
 21
858.5520497555782
 31
0.0
  0
LINE
  5
1FA
330
1F
100
AcDbEntity
  8
LAY-10
  6
CONTINUOUS
 62
     7
100
AcDbLine
 10
1442.02088759182
 20
860.5520497555859
 30
0.0
 11
1444.020887591817
 21
858.5520497555896
 31
0.0
  0
LINE
  5
1FB
330
1F
100
AcDbEntity
  8
LAY-10
  6
CONTINUOUS
 62
     7
100
AcDbLine
 10
1440.606674029458
 20
860.5520497555741
 30
0.0
 11
1442.606674029436
 21
858.5520497556005
 31
0.0
  0
LINE
  5
1FC
330
1F
100
AcDbEntity
  8
LAY-10
  6
CONTINUOUS
 62
     7
100
AcDbLine
 10
1439.192460467075
 20
860.5520497555859
 30
0.0
 11
1441.192460467072
 21
858.5520497555896
 31
0.0
  0
LINE
  5
1FD
330
1F
100
AcDbEntity
  8
LAY-10
  6
CONTINUOUS
 62
     7
100
AcDbLine
 10
1437.778246904713
 20
860.5520497555741
 30
0.0
 11
1439.778246904689
 21
858.5520497555964
 31
0.0
  0
LINE
  5
1FE
330
1F
100
AcDbEntity
  8
LAY-10
  6
CONTINUOUS
 62
     7
100
AcDbLine
 10
1436.36403334233
 20
860.5520497555859
 30
0.0
 11
1438.364033342327
 21
858.5520497555896
 31
0.0
  0
LINE
  5
1FF
330
1F
100
AcDbEntity
  8
LAY-10
  6
CONTINUOUS
 62
     7
100
AcDbLine
 10
1434.949819779969
 20
860.5520497555741
 30
0.0
 11
1436.949819779946
 21
858.5520497555964
 31
0.0
  0
LINE
  5
200
330
1F
100
AcDbEntity
  8
LAY-10
  6
CONTINUOUS
 62
     7
100
AcDbLine
 10
1433.535606217585
 20
860.5520497555824
 30
0.0
 11
1435.535606217583
 21
858.552049755585
 31
0.0
  0
LINE
  5
201
330
1F
100
AcDbEntity
  8
LAY-10
  6
CONTINUOUS
 62
     7
100
AcDbLine
 10
1432.121392655223
 20
860.5520497555714
 30
0.0
 11
1434.121392655201
 21
858.5520497555927
 31
0.0
  0
LINE
  5
202
330
1F
100
AcDbEntity
  8
LAY-10
  6
CONTINUOUS
 62
     7
100
AcDbLine
 10
1430.707179092841
 20
860.5520497555824
 30
0.0
 11
1432.707179092837
 21
858.552049755585
 31
0.0
  0
LINE
  5
203
330
1F
100
AcDbEntity
  8
LAY-10
  6
CONTINUOUS
 62
     7
100
AcDbLine
 10
1429.292965530479
 20
860.5520497555714
 30
0.0
 11
1431.292965530454
 21
858.5520497555927
 31
0.0
  0
LINE
  5
204
330
1F
100
AcDbEntity
  8
LAY-10
  6
CONTINUOUS
 62
     7
100
AcDbLine
 10
1427.878751968097
 20
860.5520497555782
 30
0.0
 11
1429.878751968093
 21
858.552049755582
 31
0.0
  0
LINE
  5
205
330
1F
100
AcDbEntity
  8
LAY-10
  6
CONTINUOUS
 62
     7
100
AcDbLine
 10
1426.464538405734
 20
860.5520497555673
 30
0.0
 11
1428.464538405712
 21
858.5520497555927
 31
0.0
  0
LINE
  5
206
330
1F
100
AcDbEntity
  8
LAY-10
  6
CONTINUOUS
 62
     7
100
AcDbLine
 10
1425.050324843351
 20
860.5520497555782
 30
0.0
 11
1427.050324843348
 21
858.552049755582
 31
0.0
  0
LINE
  5
207
330
1F
100
AcDbEntity
  8
LAY-10
  6
CONTINUOUS
 62
     7
100
AcDbLine
 10
1423.636111280989
 20
860.5520497555673
 30
0.0
 11
1425.636111280965
 21
858.5520497555896
 31
0.0
  0
LINE
  5
208
330
1F
100
AcDbEntity
  8
LAY-10
  6
CONTINUOUS
 62
     7
100
AcDbLine
 10
1422.221897718606
 20
860.5520497555741
 30
0.0
 11
1424.221897718603
 21
858.5520497555782
 31
0.0
  0
LINE
  5
209
330
1F
100
AcDbEntity
  8
LAY-10
  6
CONTINUOUS
 62
     7
100
AcDbLine
 10
1420.807684156224
 20
860.5520497555859
 30
0.0
 11
1422.80768415622
 21
858.5520497555896
 31
0.0
  0
LINE
  5
20A
330
1F
100
AcDbEntity
  8
LAY-10
  6
CONTINUOUS
 62
     7
100
AcDbLine
 10
1420.807684156213
 20
859.1378361932232
 30
0.0
 11
1421.393470593857
 21
858.5520497555782
 31
0.0
  0
LINE
  5
20B
330
1F
100
AcDbEntity
  8
LAY-10
  6
CONTINUOUS
 62
     7
100
AcDbLine
 10
1984.320021166634
 20
1340.467876871202
 30
0.0
 11
1934.320021166635
 21
1340.467876871202
 31
0.0
  0
ARC
  5
20C
330
1F
100
AcDbEntity
  8
LAY-10
  6
CONTINUOUS
 62
     7
100
AcDbCircle
 10
1983.320021166634
 20
1387.467876871202
 30
0.0
 40
3.000000000000003
100
AcDbArc
 50
90.00000000000001
 51
180.0
  0
ARC
  5
20D
330
1F
100
AcDbEntity
  8
LAY-10
  6
CONTINUOUS
 62
     7
100
AcDbCircle
 10
1937.320021166636
 20
1341.467876871202
 30
0.0
 40
3.000000000000003
100
AcDbArc
 50
90.00000000000001
 51
180.0
  0
ARC
  5
20E
330
1F
100
AcDbEntity
  8
LAY-10
  6
CONTINUOUS
 62
     7
100
AcDbCircle
 10
1973.820021166634
 20
1350.967876871202
 30
0.0
 40
6.500000000000004
100
AcDbArc
 50
270.0000000000002
 51
0.0
  0
LINE
  5
20F
330
1F
100
AcDbEntity
  8
LAY-10
  6
CONTINUOUS
 62
     7
100
AcDbLine
 10
1973.820021166634
 20
1344.467876871202
 30
0.0
 11
1934.320021166635
 21
1344.467876871202
 31
0.0
  0
LINE
  5
210
330
1F
100
AcDbEntity
  8
LAY-10
  6
CONTINUOUS
 62
     7
100
AcDbLine
 10
1980.320021166635
 20
1350.9678768712
 30
0.0
 11
1980.320021166635
 21
2177.967876871203
 31
0.0
  0
LINE
  5
211
330
1F
100
AcDbEntity
  8
LAY-10
  6
CONTINUOUS
 62
     7
100
AcDbLine
 10
1984.320021166636
 20
2188.467876871204
 30
0.0
 11
1934.320021166637
 21
2188.467876871204
 31
0.0
  0
ARC
  5
212
330
1F
100
AcDbEntity
  8
LAY-10
  6
CONTINUOUS
 62
     7
100
AcDbCircle
 10
1983.320021166637
 20
2141.467876871204
 30
0.0
 40
3.000000000000003
100
AcDbArc
 50
180.0
 51
270.0000000000002
  0
ARC
  5
213
330
1F
100
AcDbEntity
  8
LAY-10
  6
CONTINUOUS
 62
     7
100
AcDbCircle
 10
1937.320021166637
 20
2187.467876871203
 30
0.0
 40
3.000000000000003
100
AcDbArc
 50
180.0
 51
270.0000000000002
  0
ARC
  5
214
330
1F
100
AcDbEntity
  8
LAY-10
  6
CONTINUOUS
 62
     7
100
AcDbCircle
 10
1973.820021166636
 20
2177.967876871203
 30
0.0
 40
6.500000000000004
100
AcDbArc
 50
0.0
 51
90.00000000000001
  0
LINE
  5
215
330
1F
100
AcDbEntity
  8
LAY-10
  6
CONTINUOUS
 62
     7
100
AcDbLine
 10
1973.820021166636
 20
2184.467876871203
 30
0.0
 11
1934.32002116664
 21
2184.467876871203
 31
0.0
  0
LINE
  5
216
330
1F
100
AcDbEntity
  8
LAY-10
  6
CONTINUOUS
 62
     7
100
AcDbLine
 10
582.8076841561376
 20
958.7520497555922
 30
0.0
 11
567.8076841561376
 21
958.7520497555922
 31
0.0
  0
LINE
  5
217
330
1F
100
AcDbEntity
  8
LAY-10
  6
CONTINUOUS
 62
     7
100
AcDbLine
 10
582.8076841561376
 20
958.7520497555922
 30
0.0
 11
582.8076841561376
 21
943.7520497555922
 31
0.0
  0
LINE
  5
218
330
1F
100
AcDbEntity
  8
LAY-10
  6
CONTINUOUS
 62
     7
100
AcDbLine
 10
579.8076841561403
 20
955.7520497555925
 30
0.0
 11
567.8076841561376
 21
955.7520497555925
 31
0.0
  0
LINE
  5
219
330
1F
100
AcDbEntity
  8
LAY-10
  6
CONTINUOUS
 62
     7
100
AcDbLine
 10
582.8076841561376
 20
943.7520497555922
 30
0.0
 11
579.8076841561403
 21
943.7520497555922
 31
0.0
  0
LINE
  5
21A
330
1F
100
AcDbEntity
  8
LAY-10
  6
CONTINUOUS
 62
     7
100
AcDbLine
 10
567.8076841561376
 20
958.7520497555922
 30
0.0
 11
567.8076841561376
 21
955.7520497555925
 31
0.0
  0
ARC
  5
21B
330
1F
100
AcDbEntity
  8
LAY-10
  6
CONTINUOUS
 62
     7
100
AcDbCircle
 10
592.8076841562388
 20
916.5520497555931
 30
0.0
 40
6.000000000000006
100
AcDbArc
 50
180.0
 51
270.0000000000002
  0
ARC
  5
21C
330
1F
100
AcDbEntity
  8
LAY-10
  6
CONTINUOUS
 62
     7
100
AcDbCircle
 10
593.0076841562375
 20
916.7520497555929
 30
0.0
 40
3.000000000000003
100
AcDbArc
 50
180.0
 51
270.0000000000002
  0
LINE
  5
21D
330
1F
100
AcDbEntity
  8
LAY-10
  6
CONTINUOUS
 62
     7
100
AcDbLine
 10
590.0076841562377
 20
955.752049755593
 30
0.0
 11
590.0076841562377
 21
916.7520497555929
 31
0.0
  0
LINE
  5
21E
330
1F
100
AcDbEntity
  8
LAY-10
  6
CONTINUOUS
 62
     7
100
AcDbLine
 10
586.8076841562352
 20
955.752049755593
 30
0.0
 11
586.8076841562352
 21
916.5520497555931
 31
0.0
  0
LINE
  5
21F
330
1F
100
AcDbEntity
  8
LAY-10
  6
CONTINUOUS
 62
     7
100
AcDbLine
 10
583.8076841562388
 20
943.7520497555945
 30
0.0
 11
586.8076841562379
 21
943.7520497555945
 31
0.0
  0
LINE
  5
220
330
1F
100
AcDbEntity
  8
LAY-10
  6
CONTINUOUS
 62
     7
100
AcDbLine
 10
583.8076841562388
 20
958.7520497555931
 30
0.0
 11
583.8076841562388
 21
943.7520497555945
 31
0.0
  0
LINE
  5
221
330
1F
100
AcDbEntity
  8
LAY-10
  6
CONTINUOUS
 62
     7
100
AcDbLine
 10
598.8076841562388
 20
958.7520497555931
 30
0.0
 11
598.8076841562388
 21
955.752049755593
 31
0.0
  0
ARC
  5
222
330
1F
100
AcDbEntity
  8
LAY-10
  6
CONTINUOUS
 62
     7
100
AcDbCircle
 10
1008.607684156116
 20
916.7520497555934
 30
0.0
 40
3.000000000000003
100
AcDbArc
 50
270.0000000000002
 51
0.0
  0
ARC
  5
223
330
1F
100
AcDbEntity
  8
LAY-10
  6
CONTINUOUS
 62
     7
100
AcDbCircle
 10
1008.807684156115
 20
916.5520497555935
 30
0.0
 40
6.000000000000006
100
AcDbArc
 50
270.0000000000002
 51
0.0
  0
LINE
  5
224
330
1F
100
AcDbEntity
  8
LAY-10
  6
CONTINUOUS
 62
     7
100
AcDbLine
 10
1011.607684156115
 20
955.7520497555934
 30
0.0
 11
1011.607684156115
 21
916.7520497555934
 31
0.0
  0
LINE
  5
225
330
1F
100
AcDbEntity
  8
LAY-10
  6
CONTINUOUS
 62
     7
100
AcDbLine
 10
1014.807684156117
 20
955.7520497555934
 30
0.0
 11
1014.807684156117
 21
916.5520497555935
 31
0.0
  0
LINE
  5
226
330
1F
100
AcDbEntity
  8
LAY-10
  6
CONTINUOUS
 62
     7
100
AcDbLine
 10
1017.807684156115
 20
958.7520497555954
 30
0.0
 11
1017.807684156115
 21
943.7520497555954
 31
0.0
  0
LINE
  5
227
330
1F
100
AcDbEntity
  8
LAY-10
  6
CONTINUOUS
 62
     7
100
AcDbLine
 10
1017.807684156115
 20
943.7520497555954
 30
0.0
 11
1014.807684156117
 21
943.7520497555954
 31
0.0
  0
LINE
  5
228
330
1F
100
AcDbEntity
  8
LAY-10
  6
CONTINUOUS
 62
     7
100
AcDbLine
 10
1002.807684156115
 20
958.7520497555954
 30
0.0
 11
1002.807684156115
 21
955.7520497555934
 31
0.0
  0
LINE
  5
229
330
1F
100
AcDbEntity
  8
LAY-10
  6
CONTINUOUS
 62
     7
100
AcDbLine
 10
715.307684156304
 20
921.75204975559
 30
0.0
 11
715.307684156304
 21
915.752049755589
 31
0.0
  0
ARC
  5
22A
330
1F
100
AcDbEntity
  8
LAY-10
  6
CONTINUOUS
 62
     7
100
AcDbCircle
 10
715.3076841562895
 20
921.75204975559
 30
0.0
 40
2.0
100
AcDbArc
 50
90.00000000000001
 51
180.0
  0
LINE
  5
22B
330
1F
100
AcDbEntity
  8
LAY-10
  6
CONTINUOUS
 62
     7
100
AcDbLine
 10
720.8076841562877
 20
923.7520497555895
 30
0.0
 11
715.3076841562895
 21
923.7520497555895
 31
0.0
  0
LINE
  5
22C
330
1F
100
AcDbEntity
  8
LAY-10
  6
CONTINUOUS
 62
     7
100
AcDbLine
 10
713.3076841562877
 20
921.75204975559
 30
0.0
 11
713.3076841562877
 21
915.752049755589
 31
0.0
  0
LINE
  5
22D
330
1F
100
AcDbEntity
  8
LAY-10
  6
CONTINUOUS
 62
     7
100
AcDbLine
 10
720.8076841562877
 20
921.75204975559
 30
0.0
 11
715.307684156304
 21
921.75204975559
 31
0.0
  0
LINE
  5
22E
330
1F
100
AcDbEntity
  8
LAY-10
  6
CONTINUOUS
 62
     7
100
AcDbLine
 10
720.8076841562877
 20
923.7520497555895
 30
0.0
 11
720.8076841562877
 21
921.75204975559
 31
0.0
  0
ARC
  5
22F
330
1F
100
AcDbEntity
  8
LAY-10
  6
CONTINUOUS
 62
     7
100
AcDbCircle
 10
686.3076841562842
 20
921.75204975559
 30
0.0
 40
2.0
100
AcDbArc
 50
0.0
 51
90.00000000000001
  0
LINE
  5
230
330
1F
100
AcDbEntity
  8
LAY-10
  6
CONTINUOUS
 62
     7
100
AcDbLine
 10
680.8076841562857
 20
923.7520497555895
 30
0.0
 11
686.3076841562842
 21
923.7520497555895
 31
0.0
  0
LINE
  5
231
330
1F
100
AcDbEntity
  8
LAY-10
  6
CONTINUOUS
 62
     7
100
AcDbLine
 10
688.3076841562857
 20
921.75204975559
 30
0.0
 11
688.3076841562857
 21
915.752049755589
 31
0.0
  0
LINE
  5
232
330
1F
100
AcDbEntity
  8
LAY-10
  6
CONTINUOUS
 62
     7
100
AcDbLine
 10
686.3076841562697
 20
921.75204975559
 30
0.0
 11
686.3076841562697
 21
915.752049755589
 31
0.0
  0
LINE
  5
233
330
1F
100
AcDbEntity
  8
LAY-10
  6
CONTINUOUS
 62
     7
100
AcDbLine
 10
680.8076841562857
 20
921.75204975559
 30
0.0
 11
686.3076841562697
 21
921.75204975559
 31
0.0
  0
LINE
  5
234
330
1F
100
AcDbEntity
  8
LAY-10
  6
CONTINUOUS
 62
     7
100
AcDbLine
 10
680.8076841562857
 20
923.7520497555895
 30
0.0
 11
680.8076841562857
 21
921.75204975559
 31
0.0
  0
LINE
  5
235
330
1F
100
AcDbEntity
  8
LAY-10
  6
CONTINUOUS
 62
     7
100
AcDbLine
 10
688.3076841562857
 20
915.752049755589
 30
0.0
 11
713.307684156284
 21
915.752049755589
 31
0.0
  0
ARC
  5
236
330
1F
100
AcDbEntity
  8
LAY-10
  6
CONTINUOUS
 62
     7
100
AcDbCircle
 10
713.3076841563039
 20
915.752049755589
 30
0.0
 40
2.0
100
AcDbArc
 50
270.0000000000002
 51
0.0
  0
ARC
  5
237
330
1F
100
AcDbEntity
  8
LAY-10
  6
CONTINUOUS
 62
     7
100
AcDbCircle
 10
688.3076841562695
 20
915.752049755589
 30
0.0
 40
2.0
100
AcDbArc
 50
180.0
 51
270.0000000000002
  0
ARC
  5
238
330
1F
100
AcDbEntity
  8
LAY-10
  6
CONTINUOUS
 62
     7
100
AcDbCircle
 10
886.3076841563022
 20
921.7520497555904
 30
0.0
 40
2.0
100
AcDbArc
 50
0.0
 51
90.00000000000001
  0
LINE
  5
239
330
1F
100
AcDbEntity
  8
LAY-10
  6
CONTINUOUS
 62
     7
100
AcDbLine
 10
880.8076841563059
 20
923.7520497555903
 30
0.0
 11
886.3076841563022
 21
923.7520497555903
 31
0.0
  0
LINE
  5
23A
330
1F
100
AcDbEntity
  8
LAY-10
  6
CONTINUOUS
 62
     7
100
AcDbLine
 10
888.3076841563059
 20
921.7520497555904
 30
0.0
 11
888.3076841563059
 21
915.7520497555904
 31
0.0
  0
LINE
  5
23B
330
1F
100
AcDbEntity
  8
LAY-10
  6
CONTINUOUS
 62
     7
100
AcDbLine
 10
886.3076841562895
 20
921.7520497555904
 30
0.0
 11
886.3076841562895
 21
915.7520497555904
 31
0.0
  0
LINE
  5
23C
330
1F
100
AcDbEntity
  8
LAY-10
  6
CONTINUOUS
 62
     7
100
AcDbLine
 10
880.8076841563059
 20
921.7520497555904
 30
0.0
 11
886.3076841562895
 21
921.7520497555904
 31
0.0
  0
LINE
  5
23D
330
1F
100
AcDbEntity
  8
LAY-10
  6
CONTINUOUS
 62
     7
100
AcDbLine
 10
880.8076841563059
 20
923.7520497555903
 30
0.0
 11
880.8076841563059
 21
921.7520497555904
 31
0.0
  0
ARC
  5
23E
330
1F
100
AcDbEntity
  8
LAY-10
  6
CONTINUOUS
 62
     7
100
AcDbCircle
 10
915.3076841563077
 20
921.7520497555904
 30
0.0
 40
2.0
100
AcDbArc
 50
90.00000000000001
 51
180.0
  0
LINE
  5
23F
330
1F
100
AcDbEntity
  8
LAY-10
  6
CONTINUOUS
 62
     7
100
AcDbLine
 10
920.8076841563077
 20
923.7520497555903
 30
0.0
 11
915.3076841563077
 21
923.7520497555903
 31
0.0
  0
LINE
  5
240
330
1F
100
AcDbEntity
  8
LAY-10
  6
CONTINUOUS
 62
     7
100
AcDbLine
 10
913.3076841563077
 20
921.7520497555904
 30
0.0
 11
913.3076841563077
 21
915.7520497555904
 31
0.0
  0
LINE
  5
241
330
1F
100
AcDbEntity
  8
LAY-10
  6
CONTINUOUS
 62
     7
100
AcDbLine
 10
915.3076841563241
 20
921.7520497555904
 30
0.0
 11
915.3076841563241
 21
915.7520497555904
 31
0.0
  0
LINE
  5
242
330
1F
100
AcDbEntity
  8
LAY-10
  6
CONTINUOUS
 62
     7
100
AcDbLine
 10
920.8076841563077
 20
921.7520497555904
 30
0.0
 11
915.3076841563241
 21
921.7520497555904
 31
0.0
  0
LINE
  5
243
330
1F
100
AcDbEntity
  8
LAY-10
  6
CONTINUOUS
 62
     7
100
AcDbLine
 10
920.8076841563077
 20
923.7520497555903
 30
0.0
 11
920.8076841563077
 21
921.7520497555904
 31
0.0
  0
LINE
  5
244
330
1F
100
AcDbEntity
  8
LAY-10
  6
CONTINUOUS
 62
     7
100
AcDbLine
 10
913.3076841563077
 20
915.7520497555904
 30
0.0
 11
888.3076841563077
 21
915.7520497555904
 31
0.0
  0
ARC
  5
245
330
1F
100
AcDbEntity
  8
LAY-10
  6
CONTINUOUS
 62
     7
100
AcDbCircle
 10
888.3076841562895
 20
915.7520497555904
 30
0.0
 40
2.0
100
AcDbArc
 50
180.0
 51
270.0000000000002
  0
ARC
  5
246
330
1F
100
AcDbEntity
  8
LAY-10
  6
CONTINUOUS
 62
     7
100
AcDbCircle
 10
913.3076841563241
 20
915.7520497555904
 30
0.0
 40
2.0
100
AcDbArc
 50
270.0000000000002
 51
0.0
  0
LINE
  5
247
330
1F
100
AcDbEntity
  8
LAY-10
  6
CONTINUOUS
 62
     7
100
AcDbLine
 10
816.8076841562449
 20
958.7520497555931
 30
0.0
 11
816.8076841562449
 21
913.7520497555945
 31
0.0
  0
LINE
  5
248
330
1F
100
AcDbEntity
  8
LAY-10
  6
CONTINUOUS
 62
     7
100
AcDbLine
 10
784.807684156194
 20
958.7520497555931
 30
0.0
 11
784.807684156194
 21
913.7520497555945
 31
0.0
  0
LINE
  5
249
330
1F
100
AcDbEntity
  8
LAY-10
  6
CONTINUOUS
 62
     7
100
AcDbLine
 10
593.0076841562375
 20
913.7520497555945
 30
0.0
 11
1008.607684156116
 21
913.7520497555954
 31
0.0
  0
LINE
  5
24A
330
1F
100
AcDbEntity
  8
LAY-10
  6
CONTINUOUS
 62
     7
100
AcDbLine
 10
583.8076841562424
 20
958.7520497555931
 30
0.0
 11
1017.807684156115
 21
958.7520497555954
 31
0.0
  0
LINE
  5
24B
330
1F
100
AcDbEntity
  8
LAY-10
  6
CONTINUOUS
 62
     7
100
AcDbLine
 10
1454.807684156197
 20
958.7520497555922
 30
0.0
 11
1469.807684156197
 21
958.7520497555922
 31
0.0
  0
LINE
  5
24C
330
1F
100
AcDbEntity
  8
LAY-10
  6
CONTINUOUS
 62
     7
100
AcDbLine
 10
1454.807684156197
 20
958.7520497555922
 30
0.0
 11
1454.807684156197
 21
943.7520497555922
 31
0.0
  0
LINE
  5
24D
330
1F
100
AcDbEntity
  8
LAY-10
  6
CONTINUOUS
 62
     7
100
AcDbLine
 10
1457.807684156194
 20
955.7520497555925
 30
0.0
 11
1469.807684156197
 21
955.7520497555925
 31
0.0
  0
LINE
  5
24E
330
1F
100
AcDbEntity
  8
LAY-10
  6
CONTINUOUS
 62
     7
100
AcDbLine
 10
1454.807684156197
 20
943.7520497555922
 30
0.0
 11
1457.807684156194
 21
943.7520497555922
 31
0.0
  0
LINE
  5
24F
330
1F
100
AcDbEntity
  8
LAY-10
  6
CONTINUOUS
 62
     7
100
AcDbLine
 10
1469.807684156197
 20
958.7520497555922
 30
0.0
 11
1469.807684156197
 21
955.7520497555925
 31
0.0
  0
ARC
  5
250
330
1F
100
AcDbEntity
  8
LAY-10
  6
CONTINUOUS
 62
     7
100
AcDbCircle
 10
1444.807684156096
 20
916.5520497555931
 30
0.0
 40
6.000000000000006
100
AcDbArc
 50
270.0
 51
0.0
  0
ARC
  5
251
330
1F
100
AcDbEntity
  8
LAY-10
  6
CONTINUOUS
 62
     7
100
AcDbCircle
 10
1444.607684156097
 20
916.7520497555929
 30
0.0
 40
3.000000000000003
100
AcDbArc
 50
270.0
 51
0.0
  0
LINE
  5
252
330
1F
100
AcDbEntity
  8
LAY-10
  6
CONTINUOUS
 62
     7
100
AcDbLine
 10
1447.607684156097
 20
955.752049755593
 30
0.0
 11
1447.607684156097
 21
916.7520497555929
 31
0.0
  0
LINE
  5
253
330
1F
100
AcDbEntity
  8
LAY-10
  6
CONTINUOUS
 62
     7
100
AcDbLine
 10
1450.8076841561
 20
955.752049755593
 30
0.0
 11
1450.8076841561
 21
916.5520497555931
 31
0.0
  0
LINE
  5
254
330
1F
100
AcDbEntity
  8
LAY-10
  6
CONTINUOUS
 62
     7
100
AcDbLine
 10
1453.807684156096
 20
943.7520497555945
 30
0.0
 11
1450.807684156097
 21
943.7520497555945
 31
0.0
  0
LINE
  5
255
330
1F
100
AcDbEntity
  8
LAY-10
  6
CONTINUOUS
 62
     7
100
AcDbLine
 10
1453.807684156096
 20
958.7520497555931
 30
0.0
 11
1453.807684156096
 21
943.7520497555945
 31
0.0
  0
LINE
  5
256
330
1F
100
AcDbEntity
  8
LAY-10
  6
CONTINUOUS
 62
     7
100
AcDbLine
 10
1438.807684156096
 20
958.7520497555931
 30
0.0
 11
1438.807684156096
 21
955.752049755593
 31
0.0
  0
ARC
  5
257
330
1F
100
AcDbEntity
  8
LAY-10
  6
CONTINUOUS
 62
     7
100
AcDbCircle
 10
1029.007684156219
 20
916.7520497555934
 30
0.0
 40
3.000000000000003
100
AcDbArc
 50
180.0
 51
270.0
  0
ARC
  5
258
330
1F
100
AcDbEntity
  8
LAY-10
  6
CONTINUOUS
 62
     7
100
AcDbCircle
 10
1028.80768415622
 20
916.5520497555935
 30
0.0
 40
6.000000000000006
100
AcDbArc
 50
180.0
 51
270.0
  0
LINE
  5
259
330
1F
100
AcDbEntity
  8
LAY-10
  6
CONTINUOUS
 62
     7
100
AcDbLine
 10
1026.00768415622
 20
955.7520497555934
 30
0.0
 11
1026.00768415622
 21
916.7520497555934
 31
0.0
  0
LINE
  5
25A
330
1F
100
AcDbEntity
  8
LAY-10
  6
CONTINUOUS
 62
     7
100
AcDbLine
 10
1022.807684156218
 20
955.7520497555934
 30
0.0
 11
1022.807684156218
 21
916.5520497555935
 31
0.0
  0
LINE
  5
25B
330
1F
100
AcDbEntity
  8
LAY-10
  6
CONTINUOUS
 62
     7
100
AcDbLine
 10
1019.80768415622
 20
958.7520497555954
 30
0.0
 11
1019.80768415622
 21
943.7520497555954
 31
0.0
  0
LINE
  5
25C
330
1F
100
AcDbEntity
  8
LAY-10
  6
CONTINUOUS
 62
     7
100
AcDbLine
 10
1019.80768415622
 20
943.7520497555954
 30
0.0
 11
1022.807684156218
 21
943.7520497555954
 31
0.0
  0
LINE
  5
25D
330
1F
100
AcDbEntity
  8
LAY-10
  6
CONTINUOUS
 62
     7
100
AcDbLine
 10
1034.80768415622
 20
958.7520497555954
 30
0.0
 11
1034.80768415622
 21
955.7520497555934
 31
0.0
  0
LINE
  5
25E
330
1F
100
AcDbEntity
  8
LAY-10
  6
CONTINUOUS
 62
     7
100
AcDbLine
 10
1322.307684156031
 20
921.75204975559
 30
0.0
 11
1322.307684156031
 21
915.752049755589
 31
0.0
  0
ARC
  5
25F
330
1F
100
AcDbEntity
  8
LAY-10
  6
CONTINUOUS
 62
     7
100
AcDbCircle
 10
1322.307684156046
 20
921.75204975559
 30
0.0
 40
2.0
100
AcDbArc
 50
0.0
 51
90.00000000000001
  0
LINE
  5
260
330
1F
100
AcDbEntity
  8
LAY-10
  6
CONTINUOUS
 62
     7
100
AcDbLine
 10
1316.807684156047
 20
923.7520497555895
 30
0.0
 11
1322.307684156046
 21
923.7520497555895
 31
0.0
  0
LINE
  5
261
330
1F
100
AcDbEntity
  8
LAY-10
  6
CONTINUOUS
 62
     7
100
AcDbLine
 10
1324.307684156047
 20
921.75204975559
 30
0.0
 11
1324.307684156047
 21
915.752049755589
 31
0.0
  0
LINE
  5
262
330
1F
100
AcDbEntity
  8
LAY-10
  6
CONTINUOUS
 62
     7
100
AcDbLine
 10
1316.807684156047
 20
921.75204975559
 30
0.0
 11
1322.307684156031
 21
921.75204975559
 31
0.0
  0
LINE
  5
263
330
1F
100
AcDbEntity
  8
LAY-10
  6
CONTINUOUS
 62
     7
100
AcDbLine
 10
1316.807684156047
 20
923.7520497555895
 30
0.0
 11
1316.807684156047
 21
921.75204975559
 31
0.0
  0
ARC
  5
264
330
1F
100
AcDbEntity
  8
LAY-10
  6
CONTINUOUS
 62
     7
100
AcDbCircle
 10
1351.30768415605
 20
921.75204975559
 30
0.0
 40
2.0
100
AcDbArc
 50
90.00000000000001
 51
180.0
  0
LINE
  5
265
330
1F
100
AcDbEntity
  8
LAY-10
  6
CONTINUOUS
 62
     7
100
AcDbLine
 10
1356.807684156049
 20
923.7520497555895
 30
0.0
 11
1351.30768415605
 21
923.7520497555895
 31
0.0
  0
LINE
  5
266
330
1F
100
AcDbEntity
  8
LAY-10
  6
CONTINUOUS
 62
     7
100
AcDbLine
 10
1349.307684156049
 20
921.75204975559
 30
0.0
 11
1349.307684156049
 21
915.752049755589
 31
0.0
  0
LINE
  5
267
330
1F
100
AcDbEntity
  8
LAY-10
  6
CONTINUOUS
 62
     7
100
AcDbLine
 10
1351.307684156065
 20
921.75204975559
 30
0.0
 11
1351.307684156065
 21
915.752049755589
 31
0.0
  0
LINE
  5
268
330
1F
100
AcDbEntity
  8
LAY-10
  6
CONTINUOUS
 62
     7
100
AcDbLine
 10
1356.807684156049
 20
921.75204975559
 30
0.0
 11
1351.307684156065
 21
921.75204975559
 31
0.0
  0
LINE
  5
269
330
1F
100
AcDbEntity
  8
LAY-10
  6
CONTINUOUS
 62
     7
100
AcDbLine
 10
1356.807684156049
 20
923.7520497555895
 30
0.0
 11
1356.807684156049
 21
921.75204975559
 31
0.0
  0
LINE
  5
26A
330
1F
100
AcDbEntity
  8
LAY-10
  6
CONTINUOUS
 62
     7
100
AcDbLine
 10
1349.307684156049
 20
915.752049755589
 30
0.0
 11
1324.307684156051
 21
915.752049755589
 31
0.0
  0
ARC
  5
26B
330
1F
100
AcDbEntity
  8
LAY-10
  6
CONTINUOUS
 62
     7
100
AcDbCircle
 10
1324.307684156031
 20
915.752049755589
 30
0.0
 40
2.0
100
AcDbArc
 50
180.0
 51
270.0
  0
ARC
  5
26C
330
1F
100
AcDbEntity
  8
LAY-10
  6
CONTINUOUS
 62
     7
100
AcDbCircle
 10
1349.307684156066
 20
915.752049755589
 30
0.0
 40
2.0
100
AcDbArc
 50
270.0
 51
0.0
  0
ARC
  5
26D
330
1F
100
AcDbEntity
  8
LAY-10
  6
CONTINUOUS
 62
     7
100
AcDbCircle
 10
1151.307684156033
 20
921.7520497555904
 30
0.0
 40
2.0
100
AcDbArc
 50
90.00000000000001
 51
180.0
  0
LINE
  5
26E
330
1F
100
AcDbEntity
  8
LAY-10
  6
CONTINUOUS
 62
     7
100
AcDbLine
 10
1156.807684156029
 20
923.7520497555903
 30
0.0
 11
1151.307684156033
 21
923.7520497555903
 31
0.0
  0
LINE
  5
26F
330
1F
100
AcDbEntity
  8
LAY-10
  6
CONTINUOUS
 62
     7
100
AcDbLine
 10
1149.307684156029
 20
921.7520497555904
 30
0.0
 11
1149.307684156029
 21
915.7520497555904
 31
0.0
  0
LINE
  5
270
330
1F
100
AcDbEntity
  8
LAY-10
  6
CONTINUOUS
 62
     7
100
AcDbLine
 10
1151.307684156046
 20
921.7520497555904
 30
0.0
 11
1151.307684156046
 21
915.7520497555904
 31
0.0
  0
LINE
  5
271
330
1F
100
AcDbEntity
  8
LAY-10
  6
CONTINUOUS
 62
     7
100
AcDbLine
 10
1156.807684156029
 20
921.7520497555904
 30
0.0
 11
1151.307684156046
 21
921.7520497555904
 31
0.0
  0
LINE
  5
272
330
1F
100
AcDbEntity
  8
LAY-10
  6
CONTINUOUS
 62
     7
100
AcDbLine
 10
1156.807684156029
 20
923.7520497555903
 30
0.0
 11
1156.807684156029
 21
921.7520497555904
 31
0.0
  0
ARC
  5
273
330
1F
100
AcDbEntity
  8
LAY-10
  6
CONTINUOUS
 62
     7
100
AcDbCircle
 10
1122.307684156027
 20
921.7520497555904
 30
0.0
 40
2.0
100
AcDbArc
 50
0.0
 51
90.00000000000001
  0
LINE
  5
274
330
1F
100
AcDbEntity
  8
LAY-10
  6
CONTINUOUS
 62
     7
100
AcDbLine
 10
1116.807684156027
 20
923.7520497555903
 30
0.0
 11
1122.307684156027
 21
923.7520497555903
 31
0.0
  0
LINE
  5
275
330
1F
100
AcDbEntity
  8
LAY-10
  6
CONTINUOUS
 62
     7
100
AcDbLine
 10
1124.307684156027
 20
921.7520497555904
 30
0.0
 11
1124.307684156027
 21
915.7520497555904
 31
0.0
  0
LINE
  5
276
330
1F
100
AcDbEntity
  8
LAY-10
  6
CONTINUOUS
 62
     7
100
AcDbLine
 10
1122.307684156011
 20
921.7520497555904
 30
0.0
 11
1122.307684156011
 21
915.7520497555904
 31
0.0
  0
LINE
  5
277
330
1F
100
AcDbEntity
  8
LAY-10
  6
CONTINUOUS
 62
     7
100
AcDbLine
 10
1116.807684156027
 20
921.7520497555904
 30
0.0
 11
1122.307684156011
 21
921.7520497555904
 31
0.0
  0
LINE
  5
278
330
1F
100
AcDbEntity
  8
LAY-10
  6
CONTINUOUS
 62
     7
100
AcDbLine
 10
1116.807684156027
 20
923.7520497555903
 30
0.0
 11
1116.807684156027
 21
921.7520497555904
 31
0.0
  0
LINE
  5
279
330
1F
100
AcDbEntity
  8
LAY-10
  6
CONTINUOUS
 62
     7
100
AcDbLine
 10
1124.307684156027
 20
915.7520497555904
 30
0.0
 11
1149.307684156027
 21
915.7520497555904
 31
0.0
  0
ARC
  5
27A
330
1F
100
AcDbEntity
  8
LAY-10
  6
CONTINUOUS
 62
     7
100
AcDbCircle
 10
1149.307684156046
 20
915.7520497555904
 30
0.0
 40
2.0
100
AcDbArc
 50
270.0
 51
0.0
  0
ARC
  5
27B
330
1F
100
AcDbEntity
  8
LAY-10
  6
CONTINUOUS
 62
     7
100
AcDbCircle
 10
1124.307684156011
 20
915.7520497555904
 30
0.0
 40
2.0
100
AcDbArc
 50
180.0
 51
270.0
  0
LINE
  5
27C
330
1F
100
AcDbEntity
  8
LAY-10
  6
CONTINUOUS
 62
     7
100
AcDbLine
 10
1220.80768415609
 20
958.7520497555931
 30
0.0
 11
1220.80768415609
 21
913.7520497555945
 31
0.0
  0
LINE
  5
27D
330
1F
100
AcDbEntity
  8
LAY-10
  6
CONTINUOUS
 62
     7
100
AcDbLine
 10
1252.807684156141
 20
958.7520497555931
 30
0.0
 11
1252.807684156141
 21
913.7520497555945
 31
0.0
  0
LINE
  5
27E
330
1F
100
AcDbEntity
  8
LAY-10
  6
CONTINUOUS
 62
     7
100
AcDbLine
 10
1453.807684156092
 20
958.7520497555931
 30
0.0
 11
1019.80768415622
 21
958.7520497555954
 31
0.0
  0
LINE
  5
27F
330
1F
100
AcDbEntity
  8
LAY-10
  6
CONTINUOUS
 62
     7
100
AcDbLine
 10
591.807684156166
 20
910.552049755591
 30
0.0
 11
1445.807684156006
 21
910.5520497555915
 31
0.0
  0
LINE
  5
280
330
1F
100
AcDbEntity
  8
LAY-10
  6
CONTINUOUS
 62
     7
100
AcDbLine
 10
586.807684156267
 20
955.752049755593
 30
0.0
 11
784.8076841562204
 21
955.752049755593
 31
0.0
  0
LINE
  5
281
330
1F
100
AcDbEntity
  8
LAY-10
  6
CONTINUOUS
 62
     7
100
AcDbLine
 10
816.8076841562203
 20
955.7520497555934
 30
0.0
 11
1014.807684156117
 21
955.7520497555934
 31
0.0
  0
LINE
  5
282
330
1F
100
AcDbEntity
  8
LAY-10
  6
CONTINUOUS
 62
     7
100
AcDbLine
 10
1220.80768415612
 20
955.7520497555934
 30
0.0
 11
1022.807684156218
 21
955.7520497555934
 31
0.0
  0
LINE
  5
283
330
1F
100
AcDbEntity
  8
LAY-10
  6
CONTINUOUS
 62
     7
100
AcDbLine
 10
1450.807684156068
 20
955.752049755593
 30
0.0
 11
1252.80768415612
 21
955.752049755593
 31
0.0
  0
LINE
  5
284
330
1F
100
AcDbEntity
  8
LAY-10
  6
CONTINUOUS
 62
     7
100
AcDbLine
 10
1444.607684156097
 20
913.7520497555945
 30
0.0
 11
1029.007684156219
 21
913.7520497555954
 31
0.0
  0
LINE
  5
285
330
1F
100
AcDbEntity
  8
LAY-10
  6
CONTINUOUS
 62
     7
100
AcDbLine
 10
576.6076841561417
 20
861.352049755593
 30
0.0
 11
576.6076841561417
 21
955.7520497555925
 31
0.0
  0
LINE
  5
286
330
1F
100
AcDbEntity
  8
LAY-10
  6
CONTINUOUS
 62
     7
100
AcDbLine
 10
579.8076841561403
 20
955.7520497555925
 30
0.0
 11
579.8076841561403
 21
861.5520497555917
 31
0.0
  0
LINE
  5
287
330
1F
100
AcDbEntity
  8
LAY-10
  6
CONTINUOUS
 62
     7
100
AcDbLine
 10
1461.007684156193
 20
861.352049755593
 30
0.0
 11
1461.007684156193
 21
955.7520497555925
 31
0.0
  0
LINE
  5
288
330
1F
100
AcDbEntity
  8
LAY-10
  6
CONTINUOUS
 62
     7
100
AcDbLine
 10
1457.807684156194
 20
955.7520497555925
 30
0.0
 11
1457.807684156194
 21
861.5520497555917
 31
0.0
  0
LINE
  5
289
330
1F
100
AcDbEntity
  8
LAY-10
  6
CONTINUOUS
 62
     7
100
AcDbLine
 10
1421.007684156202
 20
855.3520497555926
 30
0.0
 11
1457.69397565721
 21
855.3520497555926
 31
0.0
  0
LINE
  5
28A
330
1F
100
AcDbEntity
  8
LAY-10
  6
CONTINUOUS
 62
     7
100
AcDbLine
 10
1498.70616896603
 20
817.6535649456582
 30
0.0
 11
1493.049314716539
 21
811.996710696165
 31
0.0
  0
LINE
  5
28B
330
1F
100
AcDbEntity
  8
LAY-10
  6
CONTINUOUS
 62
     7
100
AcDbLine
 10
1493.049314716539
 20
811.9967106961674
 30
0.0
 11
1457.69397565721
 21
847.3520497554919
 31
0.0
  0
LINE
  5
28C
330
1F
100
AcDbEntity
  8
LAY-10
  6
CONTINUOUS
 62
     7
100
AcDbLine
 10
1498.70616896603
 20
817.6535649456582
 30
0.0
 11
1463.350829906702
 21
853.0089040049854
 31
0.0
  0
ARC
  5
28D
330
1F
100
AcDbEntity
  8
LAY-10
  6
CONTINUOUS
 62
     7
100
AcDbCircle
 10
1457.69397565721
 20
847.3520497554919
 30
0.0
 40
8.0
100
AcDbArc
 50
45.00000000000463
 51
90.00000000000001
  0
LINE
  5
28E
330
1F
100
AcDbEntity
  8
LAY-10
  6
CONTINUOUS
 62
     7
100
AcDbLine
 10
1457.69397565721
 20
847.3520497554919
 30
0.0
 11
1427.693975657208
 21
847.3520497554919
 31
0.0
  0
LINE
  5
28F
330
1F
100
AcDbEntity
  8
LAY-10
  6
CONTINUOUS
 62
     7
100
AcDbLine
 10
1427.693975657208
 20
847.3520497554919
 30
0.0
 11
1427.693975657208
 21
855.352049755493
 31
0.0
  0
ARC
  5
290
330
1F
100
AcDbEntity
  8
LAY-10
  6
CONTINUOUS
 62
     7
100
AcDbCircle
 10
1420.807684156202
 20
852.5520497555938
 30
0.0
 40
6.000000000000006
100
AcDbArc
 50
90.00000000000001
 51
180.0
  0
ARC
  5
291
330
1F
100
AcDbEntity
  8
LAY-10
  6
CONTINUOUS
 62
     7
100
AcDbCircle
 10
1421.007684156202
 20
852.352049755594
 30
0.0
 40
3.000000000000003
100
AcDbArc
 50
90.00000000000001
 51
180.0
  0
ARC
  5
292
330
1F
100
AcDbEntity
  8
LAY-10
  6
CONTINUOUS
 62
     7
100
AcDbCircle
 10
1455.007684156163
 20
861.352049755593
 30
0.0
 40
6.000000000000006
100
AcDbArc
 50
270.0
 51
0.0
  0
ARC
  5
293
330
1F
100
AcDbEntity
  8
LAY-10
  6
CONTINUOUS
 62
     7
100
AcDbCircle
 10
1454.807684156163
 20
861.5520497555917
 30
0.0
 40
3.000000000000003
100
AcDbArc
 50
270.0
 51
0.0
  0
LINE
  5
294
330
1F
100
AcDbEntity
  8
LAY-10
  6
CONTINUOUS
 62
     7
100
AcDbLine
 10
616.6076841561326
 20
855.3520497555926
 30
0.0
 11
579.9213926551247
 21
855.3520497555926
 31
0.0
  0
LINE
  5
295
330
1F
100
AcDbEntity
  8
LAY-10
  6
CONTINUOUS
 62
     7
100
AcDbLine
 10
538.9091993463054
 20
817.6535649456582
 30
0.0
 11
544.5660535957958
 21
811.996710696165
 31
0.0
  0
LINE
  5
296
330
1F
100
AcDbEntity
  8
LAY-10
  6
CONTINUOUS
 62
     7
100
AcDbLine
 10
544.5660535957958
 20
811.9967106961674
 30
0.0
 11
579.9213926551247
 21
847.3520497554919
 31
0.0
  0
LINE
  5
297
330
1F
100
AcDbEntity
  8
LAY-10
  6
CONTINUOUS
 62
     7
100
AcDbLine
 10
538.9091993463054
 20
817.6535649456582
 30
0.0
 11
574.264538405633
 21
853.0089040049854
 31
0.0
  0
ARC
  5
298
330
1F
100
AcDbEntity
  8
LAY-10
  6
CONTINUOUS
 62
     7
100
AcDbCircle
 10
579.9213926551247
 20
847.3520497554919
 30
0.0
 40
8.0
100
AcDbArc
 50
90.00000000000001
 51
134.9999999999946
  0
LINE
  5
299
330
1F
100
AcDbEntity
  8
LAY-10
  6
CONTINUOUS
 62
     7
100
AcDbLine
 10
579.9213926551247
 20
847.3520497554919
 30
0.0
 11
609.9213926551265
 21
847.3520497554919
 31
0.0
  0
LINE
  5
29A
330
1F
100
AcDbEntity
  8
LAY-10
  6
CONTINUOUS
 62
     7
100
AcDbLine
 10
609.9213926551265
 20
847.3520497554919
 30
0.0
 11
609.9213926551265
 21
855.352049755493
 31
0.0
  0
ARC
  5
29B
330
1F
100
AcDbEntity
  8
LAY-10
  6
CONTINUOUS
 62
     7
100
AcDbCircle
 10
616.8076841561331
 20
852.5520497555938
 30
0.0
 40
6.000000000000006
100
AcDbArc
 50
0.0
 51
90.00000000000001
  0
ARC
  5
29C
330
1F
100
AcDbEntity
  8
LAY-10
  6
CONTINUOUS
 62
     7
100
AcDbCircle
 10
616.6076841561326
 20
852.352049755594
 30
0.0
 40
3.000000000000003
100
AcDbArc
 50
0.0
 51
90.00000000000001
  0
ARC
  5
29D
330
1F
100
AcDbEntity
  8
LAY-10
  6
CONTINUOUS
 62
     7
100
AcDbCircle
 10
582.6076841561724
 20
861.352049755593
 30
0.0
 40
6.000000000000006
100
AcDbArc
 50
180.0
 51
270.0000000000002
  0
ARC
  5
29E
330
1F
100
AcDbEntity
  8
LAY-10
  6
CONTINUOUS
 62
     7
100
AcDbCircle
 10
582.8076841561715
 20
861.5520497555917
 30
0.0
 40
3.000000000000003
100
AcDbArc
 50
180.0
 51
270.0000000000002
  0
LINE
  5
29F
330
1F
100
AcDbEntity
  8
LAY-10
  6
CONTINUOUS
 62
     7
100
AcDbLine
 10
582.8076841561879
 20
858.5520497555897
 30
0.0
 11
1454.8076841562
 21
858.5520497555899
 31
0.0
  0
LINE
  5
2A0
330
1F
100
AcDbEntity
  8
LAY-10
  6
CONTINUOUS
 62
     7
100
AcDbLine
 10
616.8076841561731
 20
858.5520497555827
 30
0.0
 11
616.8076841561731
 21
860.5520497555809
 31
0.0
  0
LINE
  5
2A1
330
1F
100
AcDbEntity
  8
LAY-10
  6
CONTINUOUS
 62
     7
100
AcDbLine
 10
591.8076841561694
 20
858.5520497555827
 30
0.0
 11
591.8076841561694
 21
860.5520497555809
 31
0.0
  0
LINE
  5
2A2
330
1F
100
AcDbEntity
  8
LAY-10
  6
CONTINUOUS
 62
     7
100
AcDbLine
 10
1420.807684156161
 20
858.5520497555827
 30
0.0
 11
1420.807684156161
 21
860.5520497555809
 31
0.0
  0
LINE
  5
2A3
330
1F
100
AcDbEntity
  8
LAY-10
  6
CONTINUOUS
 62
     7
100
AcDbLine
 10
1445.807684156165
 20
858.5520497555827
 30
0.0
 11
1445.807684156165
 21
860.5520497555809
 31
0.0
  0
LINE
  5
2A4
330
1F
100
AcDbEntity
  8
LAY-10
  6
CONTINUOUS
 62
     7
100
AcDbLine
 10
902.3076841562968
 20
858.55204975558
 30
0.0
 11
1135.30768415602
 21
858.55204975558
 31
0.0
  0
LINE
  5
2A5
330
1F
100
AcDbEntity
  8
LAY-10
  6
CONTINUOUS
 62
     7
100
AcDbLine
 10
591.8076841561658
 20
860.5520497555809
 30
0.0
 11
1445.807684156006
 21
860.5520497555818
 31
0.0
  0
LINE
  5
2A6
330
1F
100
AcDbEntity
  8
LAY-10
  6
CONTINUOUS
 62
     7
100
AcDbLine
 10
1410.807684156201
 20
833.952049755541
 30
0.0
 11
626.8076841562058
 21
833.9520497555435
 31
0.0
  0
LINE
  5
2A7
330
1F
100
AcDbEntity
  8
LAY-10
  6
CONTINUOUS
 62
     7
100
AcDbLine
 10
1414.8076841562
 20
781.952049755591
 30
0.0
 11
1368.807684156196
 21
781.9520497555915
 31
0.0
  0
LINE
  5
2A8
330
1F
100
AcDbEntity
  8
LAY-10
  6
CONTINUOUS
 62
     7
100
AcDbLine
 10
626.8076841562058
 20
783.952049755543
 30
0.0
 11
1410.807684156201
 21
783.952049755543
 31
0.0
  0
LINE
  5
2A9
330
1F
100
AcDbEntity
  8
LAY-10
  6
CONTINUOUS
 62
     7
100
AcDbLine
 10
622.8076841561351
 20
781.952049755591
 30
0.0
 11
668.807684156139
 21
781.9520497555915
 31
0.0
  0
LINE
  5
2AA
330
1F
100
AcDbEntity
  8
LAY-10
  6
CONTINUOUS
 62
     7
100
AcDbLine
 10
1410.807684156129
 20
833.9520497555435
 30
0.0
 11
1410.807684156129
 21
781.9520497555417
 31
0.0
  0
LINE
  5
2AB
330
1F
100
AcDbEntity
  8
LAY-10
  6
CONTINUOUS
 62
     7
100
AcDbLine
 10
1409.20768415613
 20
785.5520497555416
 30
0.0
 11
1409.20768415613
 21
832.3520497555425
 31
0.0
  0
LINE
  5
2AC
330
1F
100
AcDbEntity
  8
LAY-10
  6
CONTINUOUS
 62
     7
100
AcDbLine
 10
1335.507684156129
 20
834.9520497555428
 30
0.0
 11
1335.507684156129
 21
833.9520497555435
 31
0.0
  0
CIRCLE
  5
2AD
330
1F
100
AcDbEntity
  8
LAY-10
  6
CONTINUOUS
 62
     7
100
AcDbCircle
 10
1278.807684156124
 20
836.9520497555428
 30
0.0
 40
3.000000000000003
  0
ARC
  5
2AE
330
1F
100
AcDbEntity
  8
LAY-10
  6
CONTINUOUS
 62
     7
100
AcDbCircle
 10
1322.508575157097
 20
836.9511587545743
 30
0.0
 40
2.999108999030569
100
AcDbArc
 50
270.0
 51
90.00000000000001
  0
ARC
  5
2AF
330
1F
100
AcDbEntity
  8
LAY-10
  6
CONTINUOUS
 62
     7
100
AcDbCircle
 10
1326.507684156129
 20
834.9520497555428
 30
0.0
 40
1.0
100
AcDbArc
 50
180.0
 51
270.0
  0
LINE
  5
2B0
330
1F
100
AcDbEntity
  8
LAY-10
  6
CONTINUOUS
 62
     7
100
AcDbLine
 10
1326.507684156129
 20
836.952049755543
 30
0.0
 11
1326.507684156129
 21
834.9520497555428
 31
0.0
  0
LINE
  5
2B1
330
1F
100
AcDbEntity
  8
LAY-10
  6
CONTINUOUS
 62
     7
100
AcDbLine
 10
1326.507684156129
 20
834.9520497555428
 30
0.0
 11
1335.507684156129
 21
834.9520497555428
 31
0.0
  0
LINE
  5
2B2
330
1F
100
AcDbEntity
  8
LAY-10
  6
CONTINUOUS
 62
     7
100
AcDbLine
 10
1278.716816776207
 20
839.9506732929798
 30
0.0
 11
1322.508575157097
 21
839.9506732929798
 31
0.0
  0
ARC
  5
2B3
330
1F
100
AcDbEntity
  8
LAY-10
  6
CONTINUOUS
 62
     7
100
AcDbCircle
 10
1322.507684156128
 20
836.952049755543
 30
0.0
 40
4.0
100
AcDbArc
 50
0.0
 51
131.4394216791276
  0
LINE
  5
2B4
330
1F
100
AcDbEntity
  8
LAY-10
  6
CONTINUOUS
 62
     7
100
AcDbLine
 10
1325.507684156126
 20
834.9520497555428
 30
0.0
 11
1325.507684156126
 21
836.952049755543
 31
0.0
  0
LINE
  5
2B5
330
1F
100
AcDbEntity
  8
LAY-10
  6
CONTINUOUS
 62
     7
100
AcDbLine
 10
1385.807684156131
 20
781.9520497555417
 30
0.0
 11
1385.807684156131
 21
783.952049755543
 31
0.0
  0
LINE
  5
2B6
330
1F
100
AcDbEntity
  8
LAY-10
  6
CONTINUOUS
 62
     7
100
AcDbLine
 10
1415.007684156202
 20
778.7520497555903
 30
0.0
 11
1368.807684156196
 21
778.7520497555903
 31
0.0
  0
LINE
  5
2B7
330
1F
100
AcDbEntity
  8
LAY-10
  6
CONTINUOUS
 62
     7
100
AcDbLine
 10
1368.807684156196
 20
781.9520497555868
 30
0.0
 11
1368.807684156196
 21
778.7520497555903
 31
0.0
  0
LINE
  5
2B8
330
1F
100
AcDbEntity
  8
LAY-10
  6
CONTINUOUS
 62
     7
100
AcDbLine
 10
1414.8076841562
 20
852.5520497555938
 30
0.0
 11
1414.8076841562
 21
781.9520497555868
 31
0.0
  0
ARC
  5
2B9
330
1F
100
AcDbEntity
  8
LAY-10
  6
CONTINUOUS
 62
     7
100
AcDbCircle
 10
1415.007684156202
 20
781.7520497555907
 30
0.0
 40
3.000000000000003
100
AcDbArc
 50
270.0
 51
0.0
  0
LINE
  5
2BA
330
1F
100
AcDbEntity
  8
LAY-10
  6
CONTINUOUS
 62
     7
100
AcDbLine
 10
1418.007684156203
 20
852.352049755594
 30
0.0
 11
1418.007684156203
 21
781.7520497555907
 31
0.0
  0
LINE
  5
2BB
330
1F
100
AcDbEntity
  8
LAY-10
  6
CONTINUOUS
 62
     7
100
AcDbLine
 10
1409.207684156198
 20
832.352049755541
 30
0.0
 11
628.4076841562053
 21
832.3520497555425
 31
0.0
  0
LINE
  5
2BC
330
1F
100
AcDbEntity
  8
LAY-10
  6
CONTINUOUS
 62
     7
100
AcDbLine
 10
628.4076841562053
 20
785.5520497555416
 30
0.0
 11
1409.207684156198
 21
785.5520497555416
 31
0.0
  0
LINE
  5
2BD
330
1F
100
AcDbEntity
  8
LAY-10
  6
CONTINUOUS
 62
     7
100
AcDbLine
 10
626.8076841562058
 20
833.9520497555435
 30
0.0
 11
626.8076841562058
 21
781.9520497555417
 31
0.0
  0
LINE
  5
2BE
330
1F
100
AcDbEntity
  8
LAY-10
  6
CONTINUOUS
 62
     7
100
AcDbLine
 10
628.4076841562053
 20
785.5520497555416
 30
0.0
 11
628.4076841562053
 21
832.3520497555425
 31
0.0
  0
LINE
  5
2BF
330
1F
100
AcDbEntity
  8
LAY-10
  6
CONTINUOUS
 62
     7
100
AcDbLine
 10
702.1076841562056
 20
834.9520497555428
 30
0.0
 11
702.1076841562056
 21
833.9520497555435
 31
0.0
  0
CIRCLE
  5
2C0
330
1F
100
AcDbEntity
  8
LAY-10
  6
CONTINUOUS
 62
     7
100
AcDbCircle
 10
758.8076841562106
 20
836.9520497555428
 30
0.0
 40
3.000000000000003
  0
ARC
  5
2C1
330
1F
100
AcDbEntity
  8
LAY-10
  6
CONTINUOUS
 62
     7
100
AcDbCircle
 10
715.1067931552379
 20
836.9511587545743
 30
0.0
 40
2.999108999030569
100
AcDbArc
 50
90.00000000000001
 51
270.0000000000002
  0
ARC
  5
2C2
330
1F
100
AcDbEntity
  8
LAY-10
  6
CONTINUOUS
 62
     7
100
AcDbCircle
 10
711.1076841562062
 20
834.9520497555428
 30
0.0
 40
1.0
100
AcDbArc
 50
270.0000000000002
 51
0.0
  0
LINE
  5
2C3
330
1F
100
AcDbEntity
  8
LAY-10
  6
CONTINUOUS
 62
     7
100
AcDbLine
 10
711.1076841562062
 20
836.952049755543
 30
0.0
 11
711.1076841562062
 21
834.9520497555428
 31
0.0
  0
LINE
  5
2C4
330
1F
100
AcDbEntity
  8
LAY-10
  6
CONTINUOUS
 62
     7
100
AcDbLine
 10
711.1076841562062
 20
834.9520497555428
 30
0.0
 11
702.1076841562056
 21
834.9520497555428
 31
0.0
  0
LINE
  5
2C5
330
1F
100
AcDbEntity
  8
LAY-10
  6
CONTINUOUS
 62
     7
100
AcDbLine
 10
758.8985515361276
 20
839.9506732929798
 30
0.0
 11
715.1067931552379
 21
839.9506732929798
 31
0.0
  0
ARC
  5
2C6
330
1F
100
AcDbEntity
  8
LAY-10
  6
CONTINUOUS
 62
     7
100
AcDbCircle
 10
715.1076841562074
 20
836.952049755543
 30
0.0
 40
4.0
100
AcDbArc
 50
48.56057832087367
 51
180.0
  0
LINE
  5
2C7
330
1F
100
AcDbEntity
  8
LAY-10
  6
CONTINUOUS
 62
     7
100
AcDbLine
 10
712.107684156209
 20
834.9520497555428
 30
0.0
 11
712.107684156209
 21
836.952049755543
 31
0.0
  0
LINE
  5
2C8
330
1F
100
AcDbEntity
  8
LAY-10
  6
CONTINUOUS
 62
     7
100
AcDbLine
 10
651.8076841562041
 20
781.9520497555417
 30
0.0
 11
651.8076841562041
 21
783.952049755543
 31
0.0
  0
LINE
  5
2C9
330
1F
100
AcDbEntity
  8
LAY-10
  6
CONTINUOUS
 62
     7
100
AcDbLine
 10
622.6076841561326
 20
778.7520497555903
 30
0.0
 11
668.807684156139
 21
778.7520497555903
 31
0.0
  0
LINE
  5
2CA
330
1F
100
AcDbEntity
  8
LAY-10
  6
CONTINUOUS
 62
     7
100
AcDbLine
 10
668.807684156139
 20
781.9520497555868
 30
0.0
 11
668.807684156139
 21
778.7520497555903
 31
0.0
  0
LINE
  5
2CB
330
1F
100
AcDbEntity
  8
LAY-10
  6
CONTINUOUS
 62
     7
100
AcDbLine
 10
622.8076841561351
 20
852.5520497555938
 30
0.0
 11
622.8076841561351
 21
781.9520497555868
 31
0.0
  0
ARC
  5
2CC
330
1F
100
AcDbEntity
  8
LAY-10
  6
CONTINUOUS
 62
     7
100
AcDbCircle
 10
622.6076841561326
 20
781.7520497555907
 30
0.0
 40
3.000000000000003
100
AcDbArc
 50
180.0
 51
270.0000000000002
  0
LINE
  5
2CD
330
1F
100
AcDbEntity
  8
LAY-10
  6
CONTINUOUS
 62
     7
100
AcDbLine
 10
619.6076841561314
 20
852.352049755594
 30
0.0
 11
619.6076841561314
 21
781.7520497555907
 31
0.0
  0
LINE
  5
2CE
330
1F
100
AcDbEntity
  8
LAY-10
  6
CONTINUOUS
 62
     7
100
AcDbLine
 10
1006.807684156243
 20
860.5520497555929
 30
0.0
 11
1006.807684156243
 21
910.5520497555929
 31
0.0
  0
ARC
  5
2CF
330
1F
100
AcDbEntity
  8
LAY-10
  6
CONTINUOUS
 62
     7
100
AcDbCircle
 10
959.8076841562427
 20
861.5520497555929
 30
0.0
 40
3.000000000000003
100
AcDbArc
 50
90.00000000000001
 51
180.0
  0
ARC
  5
2D0
330
1F
100
AcDbEntity
  8
LAY-10
  6
CONTINUOUS
 62
     7
100
AcDbCircle
 10
1005.807684156243
 20
907.5520497555929
 30
0.0
 40
3.000000000000003
100
AcDbArc
 50
90.00000000000001
 51
180.0
  0
ARC
  5
2D1
330
1F
100
AcDbEntity
  8
LAY-10
  6
CONTINUOUS
 62
     7
100
AcDbCircle
 10
996.3076841562436
 20
871.0520497555929
 30
0.0
 40
6.500000000000004
100
AcDbArc
 50
270.0000000000002
 51
0.0
  0
LINE
  5
2D2
330
1F
100
AcDbEntity
  8
LAY-10
  6
CONTINUOUS
 62
     7
100
AcDbLine
 10
956.8076841562399
 20
860.552049755591
 30
0.0
 11
956.8076841562399
 21
861.5520497555929
 31
0.0
  0
LINE
  5
2D3
330
1F
100
AcDbEntity
  8
LAY-10
  6
CONTINUOUS
 62
     7
100
AcDbLine
 10
1002.807684156243
 20
871.0520497555929
 30
0.0
 11
1002.807684156243
 21
910.5520497555929
 31
0.0
  0
LINE
  5
2D4
330
1F
100
AcDbEntity
  8
LAY-10
  6
CONTINUOUS
 62
     7
100
AcDbLine
 10
594.807684156241
 20
860.5520497555929
 30
0.0
 11
594.807684156241
 21
910.5520497555929
 31
0.0
  0
ARC
  5
2D5
330
1F
100
AcDbEntity
  8
LAY-10
  6
CONTINUOUS
 62
     7
100
AcDbCircle
 10
641.8076841562408
 20
861.5520497555929
 30
0.0
 40
3.000000000000003
100
AcDbArc
 50
0.0
 51
90.00000000000001
  0
ARC
  5
2D6
330
1F
100
AcDbEntity
  8
LAY-10
  6
CONTINUOUS
 62
     7
100
AcDbCircle
 10
595.8076841562399
 20
907.5520497555929
 30
0.0
 40
3.000000000000003
100
AcDbArc
 50
0.0
 51
90.00000000000001
  0
ARC
  5
2D7
330
1F
100
AcDbEntity
  8
LAY-10
  6
CONTINUOUS
 62
     7
100
AcDbCircle
 10
605.3076841562408
 20
871.0520497555929
 30
0.0
 40
6.500000000000004
100
AcDbArc
 50
180.0
 51
270.0000000000002
  0
LINE
  5
2D8
330
1F
100
AcDbEntity
  8
LAY-10
  6
CONTINUOUS
 62
     7
100
AcDbLine
 10
644.8076841562399
 20
860.552049755591
 30
0.0
 11
644.8076841562399
 21
861.5520497555929
 31
0.0
  0
LINE
  5
2D9
330
1F
100
AcDbEntity
  8
LAY-10
  6
CONTINUOUS
 62
     7
100
AcDbLine
 10
598.8076841562399
 20
871.0520497555929
 30
0.0
 11
598.8076841562399
 21
910.5520497555929
 31
0.0
  0
LINE
  5
2DA
330
1F
100
AcDbEntity
  8
LAY-10
  6
CONTINUOUS
 62
     7
100
AcDbLine
 10
898.5576841562399
 20
910.5520497555929
 30
0.0
 11
898.5576841562399
 21
866.5520497555929
 31
0.0
  0
LINE
  5
2DB
330
1F
100
AcDbEntity
  8
LAY-10
  6
CONTINUOUS
 62
     7
100
AcDbLine
 10
903.0576841562399
 20
910.5520497555929
 30
0.0
 11
903.0576841562399
 21
866.5520497555929
 31
0.0
  0
LINE
  5
2DC
330
1F
100
AcDbEntity
  8
LAY-10
  6
CONTINUOUS
 62
     7
100
AcDbLine
 10
698.5576841562298
 20
910.5520497555929
 30
0.0
 11
698.5576841562298
 21
866.5520497555929
 31
0.0
  0
LINE
  5
2DD
330
1F
100
AcDbEntity
  8
LAY-10
  6
CONTINUOUS
 62
     7
100
AcDbLine
 10
703.0576841562299
 20
910.5520497555929
 30
0.0
 11
703.0576841562299
 21
866.5520497555929
 31
0.0
  0
LINE
  5
2DE
330
1F
100
AcDbEntity
  8
LAY-10
  6
CONTINUOUS
 62
     7
100
AcDbLine
 10
600.6172683964171
 20
866.5520497555929
 30
0.0
 11
1000.998099916066
 21
866.5520497555929
 31
0.0
  0
LINE
  5
2DF
330
1F
100
AcDbEntity
  8
LAY-10
  6
CONTINUOUS
 62
     7
100
AcDbLine
 10
605.3076841562408
 20
864.552049755593
 30
0.0
 11
996.30768415624
 21
864.552049755593
 31
0.0
  0
LINE
  5
2E0
330
1F
100
AcDbEntity
  8
LAY-10
  6
CONTINUOUS
 62
     7
100
AcDbLine
 10
1442.807684156202
 20
860.5520497556029
 30
0.0
 11
1442.807684156202
 21
910.5520497556029
 31
0.0
  0
ARC
  5
2E1
330
1F
100
AcDbEntity
  8
LAY-10
  6
CONTINUOUS
 62
     7
100
AcDbCircle
 10
1395.807684156203
 20
861.5520497556029
 30
0.0
 40
3.000000000000003
100
AcDbArc
 50
90.00000000000001
 51
180.0
  0
ARC
  5
2E2
330
1F
100
AcDbEntity
  8
LAY-10
  6
CONTINUOUS
 62
     7
100
AcDbCircle
 10
1441.807684156203
 20
907.5520497556029
 30
0.0
 40
3.000000000000003
100
AcDbArc
 50
90.00000000000001
 51
180.0
  0
ARC
  5
2E3
330
1F
100
AcDbEntity
  8
LAY-10
  6
CONTINUOUS
 62
     7
100
AcDbCircle
 10
1432.307684156204
 20
871.052049755603
 30
0.0
 40
6.500000000000004
100
AcDbArc
 50
270.0000000000002
 51
0.0
  0
LINE
  5
2E4
330
1F
100
AcDbEntity
  8
LAY-10
  6
CONTINUOUS
 62
     7
100
AcDbLine
 10
1392.8076841562
 20
860.5520497556012
 30
0.0
 11
1392.8076841562
 21
861.5520497556029
 31
0.0
  0
LINE
  5
2E5
330
1F
100
AcDbEntity
  8
LAY-10
  6
CONTINUOUS
 62
     7
100
AcDbLine
 10
1438.807684156203
 20
871.052049755603
 30
0.0
 11
1438.807684156203
 21
910.5520497556029
 31
0.0
  0
LINE
  5
2E6
330
1F
100
AcDbEntity
  8
LAY-10
  6
CONTINUOUS
 62
     7
100
AcDbLine
 10
1030.807684156201
 20
860.5520497556029
 30
0.0
 11
1030.807684156201
 21
910.5520497556029
 31
0.0
  0
ARC
  5
2E7
330
1F
100
AcDbEntity
  8
LAY-10
  6
CONTINUOUS
 62
     7
100
AcDbCircle
 10
1077.807684156201
 20
861.5520497556029
 30
0.0
 40
3.000000000000003
100
AcDbArc
 50
0.0
 51
90.00000000000001
  0
ARC
  5
2E8
330
1F
100
AcDbEntity
  8
LAY-10
  6
CONTINUOUS
 62
     7
100
AcDbCircle
 10
1031.8076841562
 20
907.5520497556029
 30
0.0
 40
3.000000000000003
100
AcDbArc
 50
0.0
 51
90.00000000000001
  0
ARC
  5
2E9
330
1F
100
AcDbEntity
  8
LAY-10
  6
CONTINUOUS
 62
     7
100
AcDbCircle
 10
1041.307684156201
 20
871.052049755603
 30
0.0
 40
6.500000000000004
100
AcDbArc
 50
180.0
 51
270.0000000000002
  0
LINE
  5
2EA
330
1F
100
AcDbEntity
  8
LAY-10
  6
CONTINUOUS
 62
     7
100
AcDbLine
 10
1080.8076841562
 20
860.5520497556012
 30
0.0
 11
1080.8076841562
 21
861.5520497556029
 31
0.0
  0
LINE
  5
2EB
330
1F
100
AcDbEntity
  8
LAY-10
  6
CONTINUOUS
 62
     7
100
AcDbLine
 10
1034.8076841562
 20
871.052049755603
 30
0.0
 11
1034.8076841562
 21
910.5520497556029
 31
0.0
  0
LINE
  5
2EC
330
1F
100
AcDbEntity
  8
LAY-10
  6
CONTINUOUS
 62
     7
100
AcDbLine
 10
1334.5576841562
 20
910.5520497556029
 30
0.0
 11
1334.5576841562
 21
866.5520497556029
 31
0.0
  0
LINE
  5
2ED
330
1F
100
AcDbEntity
  8
LAY-10
  6
CONTINUOUS
 62
     7
100
AcDbLine
 10
1339.0576841562
 20
910.5520497556029
 30
0.0
 11
1339.0576841562
 21
866.5520497556029
 31
0.0
  0
LINE
  5
2EE
330
1F
100
AcDbEntity
  8
LAY-10
  6
CONTINUOUS
 62
     7
100
AcDbLine
 10
1134.55768415619
 20
910.5520497556029
 30
0.0
 11
1134.55768415619
 21
866.5520497556029
 31
0.0
  0
LINE
  5
2EF
330
1F
100
AcDbEntity
  8
LAY-10
  6
CONTINUOUS
 62
     7
100
AcDbLine
 10
1139.05768415619
 20
910.5520497556029
 30
0.0
 11
1139.05768415619
 21
866.5520497556029
 31
0.0
  0
LINE
  5
2F0
330
1F
100
AcDbEntity
  8
LAY-10
  6
CONTINUOUS
 62
     7
100
AcDbLine
 10
1036.617268396377
 20
866.5520497556029
 30
0.0
 11
1436.998099916026
 21
866.5520497556029
 31
0.0
  0
LINE
  5
2F1
330
1F
100
AcDbEntity
  8
LAY-10
  6
CONTINUOUS
 62
     7
100
AcDbLine
 10
1041.307684156201
 20
864.5520497556029
 30
0.0
 11
1432.3076841562
 21
864.5520497556029
 31
0.0
  0
LINE
  5
2F2
330
1F
100
AcDbEntity
  8
LAY-10
  6
CONTINUOUS
 62
     7
100
AcDbLine
 10
1886.120021166611
 20
2200.46787687104
 30
0.0
 11
1901.120021166611
 21
2200.46787687104
 31
0.0
  0
LINE
  5
2F3
330
1F
100
AcDbEntity
  8
LAY-10
  6
CONTINUOUS
 62
     7
100
AcDbLine
 10
1889.120021166607
 20
2203.467876871041
 30
0.0
 11
1889.120021166607
 21
2215.46787687104
 31
0.0
  0
LINE
  5
2F4
330
1F
100
AcDbEntity
  8
LAY-10
  6
CONTINUOUS
 62
     7
100
AcDbLine
 10
1901.120021166611
 20
2200.46787687104
 30
0.0
 11
1901.120021166611
 21
2203.467876871041
 31
0.0
  0
LINE
  5
2F5
330
1F
100
AcDbEntity
  8
LAY-10
  6
CONTINUOUS
 62
     7
100
AcDbLine
 10
1886.120021166611
 20
2215.46787687104
 30
0.0
 11
1889.120021166607
 21
2215.46787687104
 31
0.0
  0
LINE
  5
2F6
330
1F
100
AcDbEntity
  8
LAY-10
  6
CONTINUOUS
 62
     7
100
AcDbLine
 10
1886.120021166611
 20
2200.46787687104
 30
0.0
 11
1886.120021166611
 21
2215.46787687104
 31
0.0
  0
LINE
  5
2F7
330
1F
100
AcDbEntity
  8
LAY-10
  6
CONTINUOUS
 62
     7
100
AcDbLine
 10
1889.12002116661
 20
2196.467876871106
 30
0.0
 11
1928.320021166608
 21
2196.467876871106
 31
0.0
  0
LINE
  5
2F8
330
1F
100
AcDbEntity
  8
LAY-10
  6
CONTINUOUS
 62
     7
100
AcDbLine
 10
1889.12002116661
 20
2193.267876871105
 30
0.0
 11
1928.120021166608
 21
2193.267876871105
 31
0.0
  0
ARC
  5
2F9
330
1F
100
AcDbEntity
  8
LAY-10
  6
CONTINUOUS
 62
     7
100
AcDbCircle
 10
1928.120021166608
 20
2190.267876871105
 30
0.0
 40
3.000000000000003
100
AcDbArc
 50
0.0000000000000573
 51
90.00000000000009
  0
LINE
  5
2FA
330
1F
100
AcDbEntity
  8
LAY-10
  6
CONTINUOUS
 62
     7
100
AcDbLine
 10
1886.120021166611
 20
2199.467876871106
 30
0.0
 11
1901.120021166611
 21
2199.467876871106
 31
0.0
  0
LINE
  5
2FB
330
1F
100
AcDbEntity
  8
LAY-10
  6
CONTINUOUS
 62
     7
100
AcDbLine
 10
1889.12002116661
 20
2196.467876871106
 30
0.0
 11
1889.12002116661
 21
2184.467876871106
 31
0.0
  0
LINE
  5
2FC
330
1F
100
AcDbEntity
  8
LAY-10
  6
CONTINUOUS
 62
     7
100
AcDbLine
 10
1901.120021166611
 20
2199.467876871106
 30
0.0
 11
1901.120021166611
 21
2196.467876871106
 31
0.0
  0
LINE
  5
2FD
330
1F
100
AcDbEntity
  8
LAY-10
  6
CONTINUOUS
 62
     7
100
AcDbLine
 10
1931.120021166619
 20
2189.467876871091
 30
0.0
 11
1927.320021166616
 21
2193.267876871091
 31
0.0
  0
LINE
  5
2FE
330
1F
100
AcDbEntity
  8
LAY-10
  6
CONTINUOUS
 62
     7
100
AcDbLine
 10
1886.120021166568
 20
1313.467876871044
 30
0.0
 11
1889.120021166567
 21
1313.467876871044
 31
0.0
  0
LINE
  5
2FF
330
1F
100
AcDbEntity
  8
LAY-10
  6
CONTINUOUS
 62
     7
100
AcDbLine
 10
1886.120021166568
 20
1328.467876871044
 30
0.0
 11
1886.120021166568
 21
1313.467876871044
 31
0.0
  0
LINE
  5
300
330
1F
100
AcDbEntity
  8
LAY-10
  6
CONTINUOUS
 62
     7
100
AcDbLine
 10
1889.120021166567
 20
1325.467876871044
 30
0.0
 11
1889.120021166567
 21
1313.467876871044
 31
0.0
  0
LINE
  5
301
330
1F
100
AcDbEntity
  8
LAY-10
  6
CONTINUOUS
 62
     7
100
AcDbLine
 10
1886.120021166568
 20
1328.467876871044
 30
0.0
 11
1901.120021166568
 21
1328.467876871044
 31
0.0
  0
LINE
  5
302
330
1F
100
AcDbEntity
  8
LAY-10
  6
CONTINUOUS
 62
     7
100
AcDbLine
 10
1901.120021166568
 20
1328.467876871044
 30
0.0
 11
1901.120021166568
 21
1325.467876871044
 31
0.0
  0
ARC
  5
303
330
1F
100
AcDbEntity
  8
LAY-10
  6
CONTINUOUS
 62
     7
100
AcDbCircle
 10
1928.120021166608
 20
1338.667876871109
 30
0.0
 40
3.000000000000003
100
AcDbArc
 50
270.0000000000002
 51
0.0000000000000573
  0
LINE
  5
304
330
1F
100
AcDbEntity
  8
LAY-10
  6
CONTINUOUS
 62
     7
100
AcDbLine
 10
1889.12002116661
 20
1332.467876871109
 30
0.0
 11
1928.320021166608
 21
1332.467876871109
 31
0.0
  0
LINE
  5
305
330
1F
100
AcDbEntity
  8
LAY-10
  6
CONTINUOUS
 62
     7
100
AcDbLine
 10
1889.12002116661
 20
1332.467876871109
 30
0.0
 11
1889.12002116661
 21
1344.467876871109
 31
0.0
  0
LINE
  5
306
330
1F
100
AcDbEntity
  8
LAY-10
  6
CONTINUOUS
 62
     7
100
AcDbLine
 10
1889.12002116661
 20
1335.667876871109
 30
0.0
 11
1928.120021166608
 21
1335.667876871109
 31
0.0
  0
LINE
  5
307
330
1F
100
AcDbEntity
  8
LAY-10
  6
CONTINUOUS
 62
     7
100
AcDbLine
 10
1886.120021166611
 20
1329.467876871109
 30
0.0
 11
1901.120021166611
 21
1329.467876871109
 31
0.0
  0
LINE
  5
308
330
1F
100
AcDbEntity
  8
LAY-10
  6
CONTINUOUS
 62
     7
100
AcDbLine
 10
1901.120021166611
 20
1329.467876871109
 30
0.0
 11
1901.120021166611
 21
1332.467876871109
 31
0.0
  0
LINE
  5
309
330
1F
100
AcDbEntity
  8
LAY-10
  6
CONTINUOUS
 62
     7
100
AcDbLine
 10
1931.120021166619
 20
1339.467876871093
 30
0.0
 11
1927.320021166616
 21
1335.667876871092
 31
0.0
  0
LINE
  5
30A
330
1F
100
AcDbEntity
  8
LAY-10
  6
CONTINUOUS
 62
     7
100
AcDbLine
 10
1931.120021166571
 20
1338.667876871104
 30
0.0
 11
1931.120021166571
 21
2190.267876871105
 31
0.0
  0
LINE
  5
30B
330
1F
100
AcDbEntity
  8
LAY-10
  6
CONTINUOUS
 62
     7
100
AcDbLine
 10
1889.12002116661
 20
2152.467876871206
 30
0.0
 11
1889.12002116661
 21
1376.467876871009
 31
0.0
  0
LINE
  5
30C
330
1F
100
AcDbEntity
  8
LAY-10
  6
CONTINUOUS
 62
     7
100
AcDbLine
 10
1886.120021166611
 20
1329.467876871109
 30
0.0
 11
1886.120021166611
 21
2199.467876871106
 31
0.0
  0
LINE
  5
30D
330
1F
100
AcDbEntity
  8
LAY-10
  6
CONTINUOUS
 62
     7
100
AcDbLine
 10
1886.120021166611
 20
2152.467876871206
 30
0.0
 11
1931.120021166571
 21
2152.467876871206
 31
0.0
  0
LINE
  5
30E
330
1F
100
AcDbEntity
  8
LAY-10
  6
CONTINUOUS
 62
     7
100
AcDbLine
 10
1886.120021166611
 20
2184.467876871106
 30
0.0
 11
1931.120021166571
 21
2184.467876871106
 31
0.0
  0
LINE
  5
30F
330
1F
100
AcDbEntity
  8
LAY-10
  6
CONTINUOUS
 62
     7
100
AcDbLine
 10
1923.120021166611
 20
2193.267876871105
 30
0.0
 11
1923.120021166611
 21
2184.467876871106
 31
0.0
  0
LINE
  5
310
330
1F
100
AcDbEntity
  8
LAY-10
  6
CONTINUOUS
 62
     7
100
AcDbLine
 10
1921.120021166611
 20
2184.467876871106
 30
0.0
 11
1921.120021166611
 21
2193.267876871105
 31
0.0
  0
LINE
  5
311
330
1F
100
AcDbEntity
  8
LAY-10
  6
CONTINUOUS
 62
     7
100
AcDbLine
 10
1886.120021166611
 20
1376.467876871009
 30
0.0
 11
1931.120021166571
 21
1376.467876871009
 31
0.0
  0
LINE
  5
312
330
1F
100
AcDbEntity
  8
LAY-10
  6
CONTINUOUS
 62
     7
100
AcDbLine
 10
1886.120021166611
 20
1344.467876871109
 30
0.0
 11
1931.120021166571
 21
1344.467876871109
 31
0.0
  0
LINE
  5
313
330
1F
100
AcDbEntity
  8
LAY-10
  6
CONTINUOUS
 62
     7
100
AcDbLine
 10
1923.120021166611
 20
2152.467876871206
 30
0.0
 11
1923.120021166611
 21
1376.467876871009
 31
0.0
  0
LINE
  5
314
330
1F
100
AcDbEntity
  8
LAY-10
  6
CONTINUOUS
 62
     7
100
AcDbLine
 10
1923.120021166611
 20
1344.467876871109
 30
0.0
 11
1923.120021166611
 21
1335.667876871109
 31
0.0
  0
LINE
  5
315
330
1F
100
AcDbEntity
  8
LAY-10
  6
CONTINUOUS
 62
     7
100
AcDbLine
 10
1921.120021166611
 20
1335.667876871109
 30
0.0
 11
1921.120021166611
 21
1344.467876871109
 31
0.0
  0
LINE
  5
316
330
1F
100
AcDbEntity
  8
LAY-10
  6
CONTINUOUS
 62
     7
100
AcDbLine
 10
1921.120021166611
 20
1376.467876871009
 30
0.0
 11
1921.120021166611
 21
2152.467876871206
 31
0.0
  0
LINE
  5
317
330
1F
100
AcDbEntity
  8
LAY-10
  6
CONTINUOUS
 62
     7
100
AcDbLine
 10
1889.120021166607
 20
1325.467876871044
 30
0.0
 11
1983.320021166608
 21
1325.467876871044
 31
0.0
  0
LINE
  5
318
330
1F
100
AcDbEntity
  8
LAY-10
  6
CONTINUOUS
 62
     7
100
AcDbLine
 10
1889.120021166567
 20
1322.267876871043
 30
0.0
 11
1983.520021166569
 21
1322.267876871043
 31
0.0
  0
LINE
  5
319
330
1F
100
AcDbEntity
  8
LAY-10
  6
CONTINUOUS
 62
     7
100
AcDbLine
 10
1984.320021166608
 20
2191.467876870988
 30
0.0
 11
1984.320021166608
 21
1337.467876871089
 31
0.0
  0
LINE
  5
31A
330
1F
100
AcDbEntity
  8
LAY-10
  6
CONTINUOUS
 62
     7
100
AcDbLine
 10
1986.320021166609
 20
1337.467876871109
 30
0.0
 11
1984.320021166608
 21
1337.467876871109
 31
0.0
  0
LINE
  5
31B
330
1F
100
AcDbEntity
  8
LAY-10
  6
CONTINUOUS
 62
     7
100
AcDbLine
 10
1986.32002116657
 20
1362.467876871079
 30
0.0
 11
1984.320021166565
 21
1362.467876871079
 31
0.0
  0
ARC
  5
31C
330
1F
100
AcDbEntity
  8
LAY-10
  6
CONTINUOUS
 62
     7
100
AcDbCircle
 10
1992.520021166609
 20
1362.267876871043
 30
0.0
 40
3.000000000000003
100
AcDbArc
 50
90.00000000000009
 51
180.0000000000002
  0
ARC
  5
31D
330
1F
100
AcDbEntity
  8
LAY-10
  6
CONTINUOUS
 62
     7
100
AcDbCircle
 10
1992.320021166609
 20
1362.467876871045
 30
0.0
 40
6.000000000000006
100
AcDbArc
 50
90.00000000000009
 51
180.0000000000002
  0
LINE
  5
31E
330
1F
100
AcDbEntity
  8
LAY-10
  6
CONTINUOUS
 62
     7
100
AcDbLine
 10
1997.520021166609
 20
1325.581585370028
 30
0.0
 11
1997.520021166609
 21
1355.581585370028
 31
0.0
  0
LINE
  5
31F
330
1F
100
AcDbEntity
  8
LAY-10
  6
CONTINUOUS
 62
     7
100
AcDbLine
 10
1997.520021166609
 20
1355.581585370028
 30
0.0
 11
1989.520021166609
 21
1355.581585370028
 31
0.0
  0
LINE
  5
320
330
1F
100
AcDbEntity
  8
LAY-10
  6
CONTINUOUS
 62
     7
100
AcDbLine
 10
2032.875360225935
 20
1290.226246310702
 30
0.0
 11
1997.520021166609
 21
1325.581585370028
 31
0.0
  0
ARC
  5
321
330
1F
100
AcDbEntity
  8
LAY-10
  6
CONTINUOUS
 62
     7
100
AcDbCircle
 10
1997.520021166609
 20
1325.581585370028
 30
0.0
 40
8.0
100
AcDbArc
 50
180.0000000000002
 51
224.9999999999785
  0
LINE
  5
322
330
1F
100
AcDbEntity
  8
LAY-10
  6
CONTINUOUS
 62
     7
100
AcDbLine
 10
2027.218505976446
 20
1284.569392061209
 30
0.0
 11
1991.863166917116
 21
1319.924731120534
 31
0.0
  0
LINE
  5
323
330
1F
100
AcDbEntity
  8
LAY-10
  6
CONTINUOUS
 62
     7
100
AcDbLine
 10
2027.218505976446
 20
1284.569392061209
 30
0.0
 11
2032.875360225938
 21
1290.226246310702
 31
0.0
  0
LINE
  5
324
330
1F
100
AcDbEntity
  8
LAY-10
  6
CONTINUOUS
 62
     7
100
AcDbLine
 10
1989.520021166609
 20
1328.267876871045
 30
0.0
 11
1989.520021166609
 21
1325.581585370028
 31
0.0
  0
ARC
  5
325
330
1F
100
AcDbEntity
  8
LAY-10
  6
CONTINUOUS
 62
     7
100
AcDbCircle
 10
1983.520021166609
 20
1328.267876871045
 30
0.0
 40
6.000000000000006
100
AcDbArc
 50
270.0000000000002
 51
0.0000000000000573
  0
ARC
  5
326
330
1F
100
AcDbEntity
  8
LAY-10
  6
CONTINUOUS
 62
     7
100
AcDbCircle
 10
1983.320021166608
 20
1328.467876871044
 30
0.0
 40
3.000000000000003
100
AcDbArc
 50
270.0000000000002
 51
0.0000000000000573
  0
LINE
  5
327
330
1F
100
AcDbEntity
  8
LAY-10
  6
CONTINUOUS
 62
     7
100
AcDbLine
 10
1989.520021166609
 20
1328.267876871045
 30
0.0
 11
1989.520021166609
 21
1362.267876871043
 31
0.0
  0
LINE
  5
328
330
1F
100
AcDbEntity
  8
LAY-10
  6
CONTINUOUS
 62
     7
100
AcDbLine
 10
1986.32002116657
 20
2191.467876871007
 30
0.0
 11
1984.320021166566
 21
2191.467876871007
 31
0.0
  0
LINE
  5
329
330
1F
100
AcDbEntity
  8
LAY-10
  6
CONTINUOUS
 62
     7
100
AcDbLine
 10
1889.120021166607
 20
2203.467876871041
 30
0.0
 11
1983.320021166608
 21
2203.467876871041
 31
0.0
  0
LINE
  5
32A
330
1F
100
AcDbEntity
  8
LAY-10
  6
CONTINUOUS
 62
     7
100
AcDbLine
 10
1986.32002116657
 20
2166.467876871006
 30
0.0
 11
1984.320021166565
 21
2166.467876871006
 31
0.0
  0
ARC
  5
32B
330
1F
100
AcDbEntity
  8
LAY-10
  6
CONTINUOUS
 62
     7
100
AcDbCircle
 10
1992.520021166609
 20
2166.667876871042
 30
0.0
 40
3.000000000000003
100
AcDbArc
 50
180.0000000000002
 51
270.0000000000002
  0
ARC
  5
32C
330
1F
100
AcDbEntity
  8
LAY-10
  6
CONTINUOUS
 62
     7
100
AcDbCircle
 10
1992.320021166609
 20
2166.467876871041
 30
0.0
 40
6.000000000000006
100
AcDbArc
 50
180.0000000000002
 51
270.0000000000002
  0
LINE
  5
32D
330
1F
100
AcDbEntity
  8
LAY-10
  6
CONTINUOUS
 62
     7
100
AcDbLine
 10
1983.520021166609
 20
2206.667876871038
 30
0.0
 11
1889.120021166607
 21
2206.667876871038
 31
0.0
  0
LINE
  5
32E
330
1F
100
AcDbEntity
  8
LAY-10
  6
CONTINUOUS
 62
     7
100
AcDbLine
 10
1997.520021166609
 20
2203.354168372059
 30
0.0
 11
1997.520021166609
 21
2173.354168372059
 31
0.0
  0
LINE
  5
32F
330
1F
100
AcDbEntity
  8
LAY-10
  6
CONTINUOUS
 62
     7
100
AcDbLine
 10
1997.520021166609
 20
2173.354168372059
 30
0.0
 11
1989.520021166609
 21
2173.354168372059
 31
0.0
  0
LINE
  5
330
330
1F
100
AcDbEntity
  8
LAY-10
  6
CONTINUOUS
 62
     7
100
AcDbLine
 10
2032.875360225935
 20
2238.709507431381
 30
0.0
 11
1997.520021166609
 21
2203.354168372059
 31
0.0
  0
ARC
  5
331
330
1F
100
AcDbEntity
  8
LAY-10
  6
CONTINUOUS
 62
     7
100
AcDbCircle
 10
1997.520021166609
 20
2203.354168372059
 30
0.0
 40
8.0
100
AcDbArc
 50
135.000000000015
 51
180.0000000000002
  0
LINE
  5
332
330
1F
100
AcDbEntity
  8
LAY-10
  6
CONTINUOUS
 62
     7
100
AcDbLine
 10
2027.218505976442
 20
2244.366361680878
 30
0.0
 11
1991.863166917116
 21
2209.011022621548
 31
0.0
  0
LINE
  5
333
330
1F
100
AcDbEntity
  8
LAY-10
  6
CONTINUOUS
 62
     7
100
AcDbLine
 10
2027.218505976442
 20
2244.366361680878
 30
0.0
 11
2032.875360225935
 21
2238.709507431381
 31
0.0
  0
LINE
  5
334
330
1F
100
AcDbEntity
  8
LAY-10
  6
CONTINUOUS
 62
     7
100
AcDbLine
 10
1989.520021166609
 20
2200.667876871041
 30
0.0
 11
1989.520021166609
 21
2203.354168372059
 31
0.0
  0
ARC
  5
335
330
1F
100
AcDbEntity
  8
LAY-10
  6
CONTINUOUS
 62
     7
100
AcDbCircle
 10
1983.520021166609
 20
2200.667876871041
 30
0.0
 40
6.000000000000006
100
AcDbArc
 50
0.0000000000000573
 51
90.00000000000009
  0
ARC
  5
336
330
1F
100
AcDbEntity
  8
LAY-10
  6
CONTINUOUS
 62
     7
100
AcDbCircle
 10
1983.320021166608
 20
2200.46787687104
 30
0.0
 40
3.000000000000003
100
AcDbArc
 50
0.0000000000000573
 51
90.00000000000009
  0
LINE
  5
337
330
1F
100
AcDbEntity
  8
LAY-10
  6
CONTINUOUS
 62
     7
100
AcDbLine
 10
1989.520021166609
 20
2200.667876871041
 30
0.0
 11
1989.520021166609
 21
2166.667876871042
 31
0.0
  0
LINE
  5
338
330
1F
100
AcDbEntity
  8
LAY-10
  6
CONTINUOUS
 62
     7
100
AcDbLine
 10
2066.120021166609
 20
2114.467876871167
 30
0.0
 11
2066.120021166609
 21
2160.667876871172
 31
0.0
  0
LINE
  5
339
330
1F
100
AcDbEntity
  8
LAY-10
  6
CONTINUOUS
 62
     7
100
AcDbLine
 10
2066.120021166609
 20
1368.267876871043
 30
0.0
 11
2066.120021166609
 21
1414.467876871046
 31
0.0
  0
LINE
  5
33A
330
1F
100
AcDbEntity
  8
LAY-10
  6
CONTINUOUS
 62
     7
100
AcDbLine
 10
2059.320021166564
 20
1374.06787687113
 30
0.0
 11
2059.320021166564
 21
2154.867876871119
 31
0.0
  0
LINE
  5
33B
330
1F
100
AcDbEntity
  8
LAY-10
  6
CONTINUOUS
 62
     7
100
AcDbLine
 10
2060.920021166562
 20
1372.467876871128
 30
0.0
 11
2060.920021166562
 21
2156.467876871121
 31
0.0
  0
LINE
  5
33C
330
1F
100
AcDbEntity
  8
LAY-10
  6
CONTINUOUS
 62
     7
100
AcDbLine
 10
2012.520021166565
 20
2154.867876871119
 30
0.0
 11
2012.520021166563
 21
1374.06787687113
 31
0.0
  0
LINE
  5
33D
330
1F
100
AcDbEntity
  8
LAY-10
  6
CONTINUOUS
 62
     7
100
AcDbLine
 10
2010.920021166565
 20
2156.467876871121
 30
0.0
 11
2010.920021166562
 21
1372.467876871128
 31
0.0
  0
LINE
  5
33E
330
1F
100
AcDbEntity
  8
LAY-10
  6
CONTINUOUS
 62
     7
100
AcDbLine
 10
2062.920021166564
 20
1397.467876871128
 30
0.0
 11
2060.920021166562
 21
1397.467876871128
 31
0.0
  0
LINE
  5
33F
330
1F
100
AcDbEntity
  8
LAY-10
  6
CONTINUOUS
 62
     7
100
AcDbLine
 10
2059.320021166564
 20
1374.06787687113
 30
0.0
 11
2012.520021166563
 21
1374.06787687113
 31
0.0
  0
LINE
  5
340
330
1F
100
AcDbEntity
  8
LAY-10
  6
CONTINUOUS
 62
     7
100
AcDbLine
 10
2010.920021166562
 20
1372.467876871128
 30
0.0
 11
2062.920021166564
 21
1372.467876871128
 31
0.0
  0
ARC
  5
341
330
1F
100
AcDbEntity
  8
LAY-10
  6
CONTINUOUS
 62
     7
100
AcDbCircle
 10
2063.12002116661
 20
1368.267876871043
 30
0.0
 40
3.000000000000003
100
AcDbArc
 50
270.0000000000002
 51
0.0000000000000573
  0
LINE
  5
342
330
1F
100
AcDbEntity
  8
LAY-10
  6
CONTINUOUS
 62
     7
100
AcDbLine
 10
1992.520021166609
 20
1365.267876871042
 30
0.0
 11
2063.12002116661
 21
1365.267876871042
 31
0.0
  0
LINE
  5
343
330
1F
100
AcDbEntity
  8
LAY-10
  6
CONTINUOUS
 62
     7
100
AcDbLine
 10
2062.920021166608
 20
1368.467876871044
 30
0.0
 11
2062.920021166608
 21
1414.46787687109
 31
0.0
  0
LINE
  5
344
330
1F
100
AcDbEntity
  8
LAY-10
  6
CONTINUOUS
 62
     7
100
AcDbLine
 10
2062.920021166569
 20
1414.467876871046
 30
0.0
 11
2066.120021166609
 21
1414.467876871046
 31
0.0
  0
LINE
  5
345
330
1F
100
AcDbEntity
  8
LAY-10
  6
CONTINUOUS
 62
     7
100
AcDbLine
 10
1992.320021166609
 20
1368.467876871044
 30
0.0
 11
2062.920021166569
 21
1368.467876871044
 31
0.0
  0
LINE
  5
346
330
1F
100
AcDbEntity
  8
LAY-10
  6
CONTINUOUS
 62
     7
100
AcDbLine
 10
2059.320021166564
 20
2154.867876871122
 30
0.0
 11
2012.520021166563
 21
2154.867876871122
 31
0.0
  0
LINE
  5
347
330
1F
100
AcDbEntity
  8
LAY-10
  6
CONTINUOUS
 62
     7
100
AcDbLine
 10
2010.920021166563
 20
2156.467876871121
 30
0.0
 11
2062.920021166564
 21
2156.467876871121
 31
0.0
  0
LINE
  5
348
330
1F
100
AcDbEntity
  8
LAY-10
  6
CONTINUOUS
 62
     7
100
AcDbLine
 10
2062.920021166564
 20
2131.46787687112
 30
0.0
 11
2060.920021166562
 21
2131.46787687112
 31
0.0
  0
LINE
  5
349
330
1F
100
AcDbEntity
  8
LAY-10
  6
CONTINUOUS
 62
     7
100
AcDbLine
 10
1992.520021166609
 20
2163.667876871041
 30
0.0
 11
2063.12002116661
 21
2163.667876871041
 31
0.0
  0
LINE
  5
34A
330
1F
100
AcDbEntity
  8
LAY-10
  6
CONTINUOUS
 62
     7
100
AcDbLine
 10
1992.320021166609
 20
2160.467876871039
 30
0.0
 11
2062.920021166569
 21
2160.467876871039
 31
0.0
  0
ARC
  5
34B
330
1F
100
AcDbEntity
  8
LAY-10
  6
CONTINUOUS
 62
     7
100
AcDbCircle
 10
2063.12002116661
 20
2160.667876871172
 30
0.0
 40
3.000000000000003
100
AcDbArc
 50
0.0000000000000573
 51
90.00000000000001
  0
LINE
  5
34C
330
1F
100
AcDbEntity
  8
LAY-10
  6
CONTINUOUS
 62
     7
100
AcDbLine
 10
2062.920021166608
 20
2160.467876871172
 30
0.0
 11
2062.920021166608
 21
2114.467876871126
 31
0.0
  0
LINE
  5
34D
330
1F
100
AcDbEntity
  8
LAY-10
  6
CONTINUOUS
 62
     7
100
AcDbLine
 10
2062.920021166569
 20
2114.467876871167
 30
0.0
 11
2066.120021166609
 21
2114.467876871167
 31
0.0
  0
LINE
  5
34E
330
1F
100
AcDbEntity
  8
LAY-10
  6
CONTINUOUS
 62
     7
100
AcDbLine
 10
2009.920021166561
 20
1839.317876871209
 30
0.0
 11
2009.920021166561
 21
1819.317876871208
 31
0.0
  0
LINE
  5
34F
330
1F
100
AcDbEntity
  8
LAY-10
  6
CONTINUOUS
 62
     7
100
AcDbLine
 10
2009.920021166561
 20
1709.317876871209
 30
0.0
 11
2009.920021166561
 21
1689.317876871209
 31
0.0
  0
ARC
  5
350
330
1F
100
AcDbEntity
  8
LAY-10
  6
CONTINUOUS
 62
     7
100
AcDbCircle
 10
2007.920021166568
 20
1811.317876871208
 30
0.0
 40
3.000000000000003
100
AcDbArc
 50
270.0
 51
0.0
  0
ARC
  5
351
330
1F
100
AcDbEntity
  8
LAY-10
  6
CONTINUOUS
 62
     7
100
AcDbCircle
 10
2007.920021166568
 20
1811.317876871208
 30
0.0
 40
3.000000000000003
100
AcDbArc
 50
180.0
 51
270.0
  0
ARC
  5
352
330
1F
100
AcDbEntity
  8
LAY-10
  6
CONTINUOUS
 62
     7
100
AcDbCircle
 10
2007.920021166568
 20
1717.317876871207
 30
0.0
 40
3.000000000000003
100
AcDbArc
 50
0.0
 51
90.00000000000001
  0
ARC
  5
353
330
1F
100
AcDbEntity
  8
LAY-10
  6
CONTINUOUS
 62
     7
100
AcDbCircle
 10
2007.920021166568
 20
1717.317876871207
 30
0.0
 40
3.000000000000003
100
AcDbArc
 50
90.00000000000001
 51
180.0
  0
LINE
  5
354
330
1F
100
AcDbEntity
  8
LAY-10
  6
CONTINUOUS
 62
     7
100
AcDbLine
 10
2002.920021166561
 20
1689.317876871209
 30
0.0
 11
2010.920021166568
 21
1689.317876871209
 31
0.0
  0
LINE
  5
355
330
1F
100
AcDbEntity
  8
LAY-10
  6
CONTINUOUS
 62
     7
100
AcDbLine
 10
2002.920021166561
 20
1839.317876871209
 30
0.0
 11
2010.920021166568
 21
1839.317876871209
 31
0.0
  0
LINE
  5
356
330
1F
100
AcDbEntity
  8
LAY-10
  6
CONTINUOUS
 62
     7
100
AcDbLine
 10
2002.920021166561
 20
1819.317876871208
 30
0.0
 11
2010.920021166568
 21
1819.317876871208
 31
0.0
  0
LINE
  5
357
330
1F
100
AcDbEntity
  8
LAY-10
  6
CONTINUOUS
 62
     7
100
AcDbLine
 10
2004.920021166561
 20
1839.317876871209
 30
0.0
 11
2004.920021166561
 21
1849.617876871208
 31
0.0
  0
LINE
  5
358
330
1F
100
AcDbEntity
  8
LAY-10
  6
CONTINUOUS
 62
     7
100
AcDbLine
 10
2004.920021166561
 20
1709.317876871209
 30
0.0
 11
2004.920021166561
 21
1819.317876871208
 31
0.0
  0
LINE
  5
359
330
1F
100
AcDbEntity
  8
LAY-10
  6
CONTINUOUS
 62
     7
100
AcDbLine
 10
2004.920021166561
 20
1679.317876871209
 30
0.0
 11
2004.920021166561
 21
1689.317876871209
 31
0.0
  0
LINE
  5
35A
330
1F
100
AcDbEntity
  8
LAY-10
  6
CONTINUOUS
 62
     7
100
AcDbLine
 10
2002.920021166561
 20
1819.317876871208
 30
0.0
 11
2002.920021166561
 21
1839.317876871209
 31
0.0
  0
LINE
  5
35B
330
1F
100
AcDbEntity
  8
LAY-10
  6
CONTINUOUS
 62
     7
100
AcDbLine
 10
2002.920021166561
 20
1689.317876871209
 30
0.0
 11
2002.920021166561
 21
1709.317876871209
 31
0.0
  0
LINE
  5
35C
330
1F
100
AcDbEntity
  8
LAY-10
  6
CONTINUOUS
 62
     7
100
AcDbLine
 10
2002.920021166561
 20
1709.317876871209
 30
0.0
 11
2010.920021166568
 21
1709.317876871209
 31
0.0
  0
LINE
  5
35D
330
1F
100
AcDbEntity
  8
LAY-10
  6
CONTINUOUS
 62
     7
100
AcDbLine
 10
2004.920021166561
 20
1849.617876871208
 30
0.0
 11
2010.920021166568
 21
1849.617876871208
 31
0.0
  0
LINE
  5
35E
330
1F
100
AcDbEntity
  8
LAY-10
  6
CONTINUOUS
 62
     7
100
AcDbLine
 10
2004.920021166561
 20
1679.317876871209
 30
0.0
 11
2010.920021166568
 21
1679.317876871209
 31
0.0
  0
ARC
  5
35F
330
1F
100
AcDbEntity
  8
LAY-10
  6
CONTINUOUS
 62
     7
100
AcDbCircle
 10
1928.320021166608
 20
1338.46787687111
 30
0.0
 40
6.000000000000006
100
AcDbArc
 50
270.0
 51
0.0
  0
ARC
  5
360
330
1F
100
AcDbEntity
  8
LAY-10
  6
CONTINUOUS
 62
     7
100
AcDbCircle
 10
1928.320021166608
 20
2190.467876871105
 30
0.0
 40
6.000000000000006
100
AcDbArc
 50
0.0
 51
90.00000000000001
  0
LINE
  5
361
330
1F
100
AcDbEntity
  8
LAY-10
  6
CONTINUOUS
 62
     7
100
AcDbLine
 10
1934.320021166572
 20
2190.4678768711
 30
0.0
 11
1934.320021166572
 21
1338.46787687111
 31
0.0
  0
LINE
  5
362
330
1F
100
AcDbEntity
  8
LAY-10
  6
CONTINUOUS
 62
     7
100
AcDbLine
 10
1986.320021166609
 20
2200.46787687104
 30
0.0
 11
1986.320021166609
 21
1328.467876871089
 31
0.0
  0
LINE
  5
363
330
1F
100
AcDbEntity
  8
LAY-10
  6
CONTINUOUS
 62
     7
100
AcDbLine
 10
1978.320021166637
 20
1766.717876871211
 30
0.0
 11
1934.320021166638
 21
1766.717876871211
 31
0.0
  0
LINE
  5
364
330
1F
100
AcDbEntity
  8
LAY-10
  6
CONTINUOUS
 62
     7
100
AcDbLine
 10
1978.320021166637
 20
1762.217876871195
 30
0.0
 11
1934.320021166638
 21
1762.217876871195
 31
0.0
  0
LINE
  5
365
330
1F
100
AcDbEntity
  8
LAY-10
  6
CONTINUOUS
 62
     7
100
AcDbLine
 10
1984.320021166599
 20
1390.4678768712
 30
0.0
 11
1983.320021166634
 21
1390.4678768712
 31
0.0
  0
LINE
  5
366
330
1F
100
AcDbEntity
  8
LAY-10
  6
CONTINUOUS
 62
     7
100
AcDbLine
 10
1984.320021166599
 20
2138.4678768712
 30
0.0
 11
1983.320021166637
 21
2138.4678768712
 31
0.0
  0
LINE
  5
367
330
1F
100
AcDbEntity
  8
LAY-10
  6
CONTINUOUS
 62
     7
100
AcDbLine
 10
1978.320021166635
 20
1346.277461111379
 30
0.0
 11
1978.32002116664
 21
2182.658292631023
 31
0.0
  0
LINE
  5
368
330
1F
100
AcDbEntity
  8
LAY-10
  6
CONTINUOUS
 62
     7
100
AcDbLine
 10
567.8076841562511
 20
2215.467876871142
 30
0.0
 11
582.8076841562511
 21
2200.467876871142
 31
0.0
  0
LINE
  5
369
330
1F
100
AcDbEntity
  8
LAY-10
  6
CONTINUOUS
 62
     7
100
AcDbLine
 10
583.8076841562493
 20
2199.467876871141
 30
0.0
 11
598.8076841562493
 21
2184.467876871141
 31
0.0
  0
LINE
  5
36A
330
1F
100
AcDbEntity
  8
LAY-10
  6
CONTINUOUS
 62
     7
100
AcDbLine
 10
1454.807684156153
 20
2200.467876871142
 30
0.0
 11
1469.807684156153
 21
2215.467876871142
 31
0.0
  0
LINE
  5
36B
330
1F
100
AcDbEntity
  8
LAY-10
  6
CONTINUOUS
 62
     7
100
AcDbLine
 10
567.8076841562511
 20
2215.467876871142
 30
0.0
 11
1469.807684156153
 21
2215.467876871142
 31
0.0
  0
LINE
  5
36C
330
1F
100
AcDbEntity
  8
LAY-10
  6
CONTINUOUS
 62
     7
100
AcDbLine
 10
582.8076841562474
 20
1328.467876871144
 30
0.0
 11
567.8076841562474
 21
1313.467876871144
 31
0.0
  0
LINE
  5
36D
330
1F
100
AcDbEntity
  8
LAY-10
  6
CONTINUOUS
 62
     7
100
AcDbLine
 10
583.8076841562493
 20
1329.467876871141
 30
0.0
 11
598.8076841562493
 21
1344.467876871141
 31
0.0
  0
LINE
  5
36E
330
1F
100
AcDbEntity
  8
LAY-10
  6
CONTINUOUS
 62
     7
100
AcDbLine
 10
1454.807684156151
 20
1328.467876871144
 30
0.0
 11
1469.807684156151
 21
1313.467876871146
 31
0.0
  0
LINE
  5
36F
330
1F
100
AcDbEntity
  8
LAY-10
  6
CONTINUOUS
 62
     7
100
AcDbLine
 10
567.8076841562474
 20
1313.467876871144
 30
0.0
 11
1469.807684156151
 21
1313.467876871143
 31
0.0
  0
LINE
  5
370
330
1F
100
AcDbEntity
  8
LAY-10
  6
CONTINUOUS
 62
     7
100
AcDbLine
 10
1017.807684156249
 20
2199.467876871143
 30
0.0
 11
1002.807684156249
 21
2184.467876871143
 31
0.0
  0
LINE
  5
371
330
1F
100
AcDbEntity
  8
LAY-10
  6
CONTINUOUS
 62
     7
100
AcDbLine
 10
1002.807684156249
 20
2184.467876871143
 30
0.0
 11
598.8076841562493
 21
2184.467876871141
 31
0.0
  0
LINE
  5
372
330
1F
100
AcDbEntity
  8
LAY-10
  6
CONTINUOUS
 62
     7
100
AcDbLine
 10
583.8076841562493
 20
2199.467876871141
 30
0.0
 11
1017.807684156249
 21
2199.467876871143
 31
0.0
  0
LINE
  5
373
330
1F
100
AcDbEntity
  8
LAY-10
  6
CONTINUOUS
 62
     7
100
AcDbLine
 10
1454.807684156153
 20
2200.467876871142
 30
0.0
 11
582.8076841562511
 21
2200.467876871142
 31
0.0
  0
LINE
  5
374
330
1F
100
AcDbEntity
  8
LAY-10
  6
CONTINUOUS
 62
     7
100
AcDbLine
 10
1002.807684156249
 20
1344.467876871143
 30
0.0
 11
1017.807684156251
 21
1329.467876871143
 31
0.0
  0
LINE
  5
375
330
1F
100
AcDbEntity
  8
LAY-10
  6
CONTINUOUS
 62
     7
100
AcDbLine
 10
583.8076841562493
 20
1329.467876871141
 30
0.0
 11
1017.807684156251
 21
1329.467876871143
 31
0.0
  0
LINE
  5
376
330
1F
100
AcDbEntity
  8
LAY-10
  6
CONTINUOUS
 62
     7
100
AcDbLine
 10
1002.807684156249
 20
1344.467876871143
 30
0.0
 11
598.8076841562493
 21
1344.467876871141
 31
0.0
  0
LINE
  5
377
330
1F
100
AcDbEntity
  8
LAY-10
  6
CONTINUOUS
 62
     7
100
AcDbLine
 10
1454.807684156151
 20
1328.467876871143
 30
0.0
 11
582.8076841562474
 21
1328.467876871144
 31
0.0
  0
LINE
  5
378
330
1F
100
AcDbEntity
  8
LAY-10
  6
CONTINUOUS
 62
     7
100
AcDbLine
 10
816.8076841563256
 20
1376.467876871192
 30
0.0
 11
816.8076841563256
 21
1344.467876871194
 31
0.0
  0
LINE
  5
379
330
1F
100
AcDbEntity
  8
LAY-10
  6
CONTINUOUS
 62
     7
100
AcDbLine
 10
784.8076841563275
 20
1376.467876871192
 30
0.0
 11
784.8076841563275
 21
1344.467876871194
 31
0.0
  0
LINE
  5
37A
330
1F
100
AcDbEntity
  8
LAY-10
  6
CONTINUOUS
 62
     7
100
AcDbLine
 10
816.8076841563284
 20
1376.467876871192
 30
0.0
 11
784.8076841563275
 21
1376.467876871192
 31
0.0
  0
LINE
  5
37B
330
1F
100
AcDbEntity
  8
LAY-10
  6
CONTINUOUS
 62
     7
100
AcDbLine
 10
538.9035704143312
 20
2009.967876871166
 30
0.0
 11
538.9035704143312
 21
2018.967876871166
 31
0.0
  0
LINE
  5
37C
330
1F
100
AcDbEntity
  8
LAY-10
  6
CONTINUOUS
 62
     7
100
AcDbLine
 10
567.8020552241683
 20
2018.967876871166
 30
0.0
 11
538.9035704143312
 21
2018.967876871166
 31
0.0
  0
LINE
  5
37D
330
1F
100
AcDbEntity
  8
LAY-10
  6
CONTINUOUS
 62
     7
100
AcDbLine
 10
567.8020552241683
 20
2009.967876871166
 30
0.0
 11
538.9035704143312
 21
2009.967876871166
 31
0.0
  0
LINE
  5
37E
330
1F
100
AcDbEntity
  8
LAY-10
  6
CONTINUOUS
 62
     7
100
AcDbLine
 10
1498.706168965879
 20
2009.967876871162
 30
0.0
 11
1498.706168965879
 21
2018.967876871163
 31
0.0
  0
LINE
  5
37F
330
1F
100
AcDbEntity
  8
LAY-10
  6
CONTINUOUS
 62
     7
100
AcDbLine
 10
1469.807684156041
 20
2018.967876871163
 30
0.0
 11
1498.706168965879
 21
2018.967876871163
 31
0.0
  0
LINE
  5
380
330
1F
100
AcDbEntity
  8
LAY-10
  6
CONTINUOUS
 62
     7
100
AcDbLine
 10
1469.807684156041
 20
2009.967876871162
 30
0.0
 11
1498.706168965879
 21
2009.967876871162
 31
0.0
  0
LINE
  5
381
330
1F
100
AcDbEntity
  8
LAY-10
  6
CONTINUOUS
 62
     7
100
AcDbLine
 10
688.3076841564165
 20
1344.467876871143
 30
0.0
 11
688.3076841564199
 21
2184.467876871143
 31
0.0
  0
LINE
  5
382
330
1F
100
AcDbEntity
  8
LAY-10
  6
CONTINUOUS
 62
     7
100
AcDbLine
 10
680.8076841564165
 20
1344.467876871143
 30
0.0
 11
680.8076841564199
 21
2184.467876871144
 31
0.0
  0
LINE
  5
383
330
1F
100
AcDbEntity
  8
LAY-10
  6
CONTINUOUS
 62
     7
100
AcDbLine
 10
920.8076841564402
 20
1344.467876871143
 30
0.0
 11
920.8076841564366
 21
2184.467876871144
 31
0.0
  0
LINE
  5
384
330
1F
100
AcDbEntity
  8
LAY-10
  6
CONTINUOUS
 62
     7
100
AcDbLine
 10
913.3076841564402
 20
1344.467876871143
 30
0.0
 11
913.3076841564366
 21
2184.467876871143
 31
0.0
  0
LINE
  5
385
330
1F
100
AcDbEntity
  8
LAY-10
  6
CONTINUOUS
 62
     7
100
AcDbLine
 10
888.30768415644
 20
1344.467876871143
 30
0.0
 11
888.3076841564384
 21
2184.467876871143
 31
0.0
  0
LINE
  5
386
330
1F
100
AcDbEntity
  8
LAY-10
  6
CONTINUOUS
 62
     7
100
AcDbLine
 10
880.80768415644
 20
1344.467876871143
 30
0.0
 11
880.8076841564384
 21
2184.467876871143
 31
0.0
  0
LINE
  5
387
330
1F
100
AcDbEntity
  8
LAY-10
  6
CONTINUOUS
 62
     7
100
AcDbLine
 10
720.8076841564148
 20
1344.467876871143
 30
0.0
 11
720.8076841564202
 21
2184.467876871143
 31
0.0
  0
LINE
  5
388
330
1F
100
AcDbEntity
  8
LAY-10
  6
CONTINUOUS
 62
     7
100
AcDbLine
 10
713.3076841564148
 20
1344.467876871143
 30
0.0
 11
713.3076841564202
 21
2184.467876871143
 31
0.0
  0
LINE
  5
389
330
1F
100
AcDbEntity
  8
LAY-10
  6
CONTINUOUS
 62
     7
100
AcDbLine
 10
1017.807684156251
 20
1329.467876871143
 30
0.0
 11
1017.807684156249
 21
2199.467876871143
 31
0.0
  0
LINE
  5
38A
330
1F
100
AcDbEntity
  8
LAY-10
  6
CONTINUOUS
 62
     7
100
AcDbLine
 10
1002.807684156249
 20
2184.467876871143
 30
0.0
 11
1002.807684156249
 21
1344.467876871143
 31
0.0
  0
LINE
  5
38B
330
1F
100
AcDbEntity
  8
LAY-10
  6
CONTINUOUS
 62
     7
100
AcDbLine
 10
1454.807684156153
 20
2200.467876871142
 30
0.0
 11
1454.807684156151
 21
1328.467876871143
 31
0.0
  0
LINE
  5
38C
330
1F
100
AcDbEntity
  8
LAY-10
  6
CONTINUOUS
 62
     7
100
AcDbLine
 10
1469.807684156151
 20
1313.467876871144
 30
0.0
 11
1469.807684156153
 21
2215.467876871142
 31
0.0
  0
LINE
  5
38D
330
1F
100
AcDbEntity
  8
LAY-10
  6
CONTINUOUS
 62
     7
100
AcDbLine
 10
598.8076841562493
 20
1344.467876871141
 30
0.0
 11
598.8076841562493
 21
2184.467876871141
 31
0.0
  0
LINE
  5
38E
330
1F
100
AcDbEntity
  8
LAY-10
  6
CONTINUOUS
 62
     7
100
AcDbLine
 10
583.8076841562493
 20
2199.467876871141
 30
0.0
 11
583.8076841562493
 21
1329.467876871141
 31
0.0
  0
LINE
  5
38F
330
1F
100
AcDbEntity
  8
LAY-10
  6
CONTINUOUS
 62
     7
100
AcDbLine
 10
582.8076841562474
 20
1328.467876871144
 30
0.0
 11
582.8076841562511
 21
2200.467876871142
 31
0.0
  0
LINE
  5
390
330
1F
100
AcDbEntity
  8
LAY-10
  6
CONTINUOUS
 62
     7
100
AcDbLine
 10
567.8076841562474
 20
1313.467876871144
 30
0.0
 11
567.8076841562511
 21
2215.467876871142
 31
0.0
  0
LINE
  5
391
330
1F
100
AcDbEntity
  8
LAY-10
  6
CONTINUOUS
 62
     7
100
AcDbLine
 10
1498.706168965876
 20
1518.967876871201
 30
0.0
 11
1498.706168965876
 21
1509.967876871201
 31
0.0
  0
LINE
  5
392
330
1F
100
AcDbEntity
  8
LAY-10
  6
CONTINUOUS
 62
     7
100
AcDbLine
 10
1469.807684156039
 20
1509.9678768712
 30
0.0
 11
1498.706168965876
 21
1509.967876871201
 31
0.0
  0
LINE
  5
393
330
1F
100
AcDbEntity
  8
LAY-10
  6
CONTINUOUS
 62
     7
100
AcDbLine
 10
1469.807684156039
 20
1518.967876871201
 30
0.0
 11
1498.706168965876
 21
1518.967876871201
 31
0.0
  0
LINE
  5
394
330
1F
100
AcDbEntity
  8
LAY-10
  6
CONTINUOUS
 62
     7
100
AcDbLine
 10
538.9035704143312
 20
1518.967876871205
 30
0.0
 11
538.9035704143312
 21
1509.967876871204
 31
0.0
  0
LINE
  5
395
330
1F
100
AcDbEntity
  8
LAY-10
  6
CONTINUOUS
 62
     7
100
AcDbLine
 10
567.8020552241683
 20
1509.967876871204
 30
0.0
 11
538.9035704143312
 21
1509.967876871204
 31
0.0
  0
LINE
  5
396
330
1F
100
AcDbEntity
  8
LAY-10
  6
CONTINUOUS
 62
     7
100
AcDbLine
 10
567.8020552241683
 20
1518.967876871204
 30
0.0
 11
538.9035704143312
 21
1518.967876871205
 31
0.0
  0
LINE
  5
397
330
1F
100
AcDbEntity
  8
LAY-10
  6
CONTINUOUS
 62
     7
100
AcDbLine
 10
804.807684156346
 20
1349.96787687122
 30
0.0
 11
804.807684156346
 21
1348.361576858417
 31
0.0
  0
LINE
  5
398
330
1F
100
AcDbEntity
  8
LAY-10
  6
CONTINUOUS
 62
     7
100
AcDbLine
 10
796.8076841563487
 20
1349.96787687122
 30
0.0
 11
796.8076841563487
 21
1348.361576858417
 31
0.0
  0
LINE
  5
399
330
1F
100
AcDbEntity
  8
LAY-10
  6
CONTINUOUS
 62
     7
100
AcDbLine
 10
796.8076841563487
 20
1349.96787687122
 30
0.0
 11
804.807684156346
 21
1349.96787687122
 31
0.0
  0
ARC
  5
39A
330
1F
100
AcDbEntity
  8
LAY-10
  6
CONTINUOUS
 62
     7
100
AcDbCircle
 10
800.8076841563477
 20
1360.467876871221
 30
0.0
 40
12.75000000000001
100
AcDbArc
 50
288.2838899404034
 51
251.7161100595966
  0
LINE
  5
39B
330
1F
100
AcDbEntity
  8
LAY-10
  6
CONTINUOUS
 62
     7
100
AcDbLine
 10
807.3076841563472
 20
1360.467876871221
 30
0.0
 11
800.8076841563477
 21
1356.467876871221
 31
0.0
  0
LINE
  5
39C
330
1F
100
AcDbEntity
  8
LAY-10
  6
CONTINUOUS
 62
     7
100
AcDbLine
 10
800.8076841563477
 20
1356.467876871221
 30
0.0
 11
794.3076841563472
 21
1360.467876871221
 31
0.0
  0
LINE
  5
39D
330
1F
100
AcDbEntity
  8
LAY-10
  6
CONTINUOUS
 62
     7
100
AcDbLine
 10
794.3076841563472
 20
1360.467876871221
 30
0.0
 11
800.8076841563477
 21
1364.467876871221
 31
0.0
  0
LINE
  5
39E
330
1F
100
AcDbEntity
  8
LAY-10
  6
CONTINUOUS
 62
     7
100
AcDbLine
 10
800.8076841563477
 20
1364.467876871221
 30
0.0
 11
807.3076841563472
 21
1360.467876871221
 31
0.0
  0
CIRCLE
  5
39F
330
1F
100
AcDbEntity
  8
LAY-10
  6
CONTINUOUS
 62
     7
100
AcDbCircle
 10
800.8076841562981
 20
1360.467876871198
 30
0.0
 40
13.0
  0
LINE
  5
3A0
330
1F
100
AcDbEntity
  8
LAY-10
  6
CONTINUOUS
 62
     7
100
AcDbLine
 10
816.8076841563252
 20
2152.467876871293
 30
0.0
 11
816.8076841563252
 21
2184.467876871292
 31
0.0
  0
LINE
  5
3A1
330
1F
100
AcDbEntity
  8
LAY-10
  6
CONTINUOUS
 62
     7
100
AcDbLine
 10
784.807684156327
 20
2152.467876871293
 30
0.0
 11
784.807684156327
 21
2184.467876871292
 31
0.0
  0
LINE
  5
3A2
330
1F
100
AcDbEntity
  8
LAY-10
  6
CONTINUOUS
 62
     7
100
AcDbLine
 10
816.8076841563279
 20
2152.467876871293
 30
0.0
 11
784.807684156327
 21
2152.467876871293
 31
0.0
  0
LINE
  5
3A3
330
1F
100
AcDbEntity
  8
LAY-10
  6
CONTINUOUS
 62
     7
100
AcDbLine
 10
804.8076841563457
 20
2178.967876871265
 30
0.0
 11
804.8076841563457
 21
2180.574176884068
 31
0.0
  0
LINE
  5
3A4
330
1F
100
AcDbEntity
  8
LAY-10
  6
CONTINUOUS
 62
     7
100
AcDbLine
 10
796.8076841563484
 20
2178.967876871265
 30
0.0
 11
796.8076841563484
 21
2180.574176884068
 31
0.0
  0
LINE
  5
3A5
330
1F
100
AcDbEntity
  8
LAY-10
  6
CONTINUOUS
 62
     7
100
AcDbLine
 10
796.8076841563484
 20
2178.967876871265
 30
0.0
 11
804.8076841563457
 21
2178.967876871265
 31
0.0
  0
ARC
  5
3A6
330
1F
100
AcDbEntity
  8
LAY-10
  6
CONTINUOUS
 62
     7
100
AcDbCircle
 10
800.8076841563475
 20
2168.467876871264
 30
0.0
 40
12.75000000000001
100
AcDbArc
 50
108.2838899404031
 51
71.71611005959646
  0
LINE
  5
3A7
330
1F
100
AcDbEntity
  8
LAY-10
  6
CONTINUOUS
 62
     7
100
AcDbLine
 10
807.3076841563471
 20
2168.467876871264
 30
0.0
 11
800.8076841563475
 21
2172.467876871264
 31
0.0
  0
LINE
  5
3A8
330
1F
100
AcDbEntity
  8
LAY-10
  6
CONTINUOUS
 62
     7
100
AcDbLine
 10
800.8076841563475
 20
2172.467876871264
 30
0.0
 11
794.307684156347
 21
2168.467876871264
 31
0.0
  0
LINE
  5
3A9
330
1F
100
AcDbEntity
  8
LAY-10
  6
CONTINUOUS
 62
     7
100
AcDbLine
 10
794.307684156347
 20
2168.467876871264
 30
0.0
 11
800.8076841563475
 21
2164.467876871264
 31
0.0
  0
LINE
  5
3AA
330
1F
100
AcDbEntity
  8
LAY-10
  6
CONTINUOUS
 62
     7
100
AcDbLine
 10
800.8076841563475
 20
2164.467876871264
 30
0.0
 11
807.3076841563471
 21
2168.467876871264
 31
0.0
  0
CIRCLE
  5
3AB
330
1F
100
AcDbEntity
  8
LAY-10
  6
CONTINUOUS
 62
     7
100
AcDbCircle
 10
800.8076841562979
 20
2168.467876871287
 30
0.0
 40
13.0
  0
LINE
  5
3AC
330
1F
100
AcDbEntity
  8
LAY-10
  6
CONTINUOUS
 62
     7
100
AcDbLine
 10
1453.807684156262
 20
2199.467876871139
 30
0.0
 11
1438.807684156262
 21
2184.467876871139
 31
0.0
  0
LINE
  5
3AD
330
1F
100
AcDbEntity
  8
LAY-10
  6
CONTINUOUS
 62
     7
100
AcDbLine
 10
1453.807684156259
 20
1329.46787687114
 30
0.0
 11
1438.807684156259
 21
1344.46787687114
 31
0.0
  0
LINE
  5
3AE
330
1F
100
AcDbEntity
  8
LAY-10
  6
CONTINUOUS
 62
     7
100
AcDbLine
 10
1019.807684156262
 20
2199.467876871143
 30
0.0
 11
1034.807684156262
 21
2184.467876871143
 31
0.0
  0
LINE
  5
3AF
330
1F
100
AcDbEntity
  8
LAY-10
  6
CONTINUOUS
 62
     7
100
AcDbLine
 10
1034.807684156262
 20
2184.467876871143
 30
0.0
 11
1438.807684156262
 21
2184.467876871139
 31
0.0
  0
LINE
  5
3B0
330
1F
100
AcDbEntity
  8
LAY-10
  6
CONTINUOUS
 62
     7
100
AcDbLine
 10
1453.807684156262
 20
2199.467876871139
 30
0.0
 11
1019.807684156262
 21
2199.467876871143
 31
0.0
  0
LINE
  5
3B1
330
1F
100
AcDbEntity
  8
LAY-10
  6
CONTINUOUS
 62
     7
100
AcDbLine
 10
1034.807684156259
 20
1344.467876871143
 30
0.0
 11
1019.807684156257
 21
1329.467876871143
 31
0.0
  0
LINE
  5
3B2
330
1F
100
AcDbEntity
  8
LAY-10
  6
CONTINUOUS
 62
     7
100
AcDbLine
 10
1453.807684156259
 20
1329.46787687114
 30
0.0
 11
1019.807684156257
 21
1329.467876871143
 31
0.0
  0
LINE
  5
3B3
330
1F
100
AcDbEntity
  8
LAY-10
  6
CONTINUOUS
 62
     7
100
AcDbLine
 10
1034.807684156259
 20
1344.467876871143
 30
0.0
 11
1438.807684156259
 21
1344.46787687114
 31
0.0
  0
LINE
  5
3B4
330
1F
100
AcDbEntity
  8
LAY-10
  6
CONTINUOUS
 62
     7
100
AcDbLine
 10
1220.807684156183
 20
1376.467876871191
 30
0.0
 11
1220.807684156183
 21
1344.467876871193
 31
0.0
  0
LINE
  5
3B5
330
1F
100
AcDbEntity
  8
LAY-10
  6
CONTINUOUS
 62
     7
100
AcDbLine
 10
1252.807684156181
 20
1376.467876871191
 30
0.0
 11
1252.807684156181
 21
1344.467876871193
 31
0.0
  0
LINE
  5
3B6
330
1F
100
AcDbEntity
  8
LAY-10
  6
CONTINUOUS
 62
     7
100
AcDbLine
 10
1220.80768415618
 20
1376.467876871191
 30
0.0
 11
1252.807684156181
 21
1376.467876871191
 31
0.0
  0
LINE
  5
3B7
330
1F
100
AcDbEntity
  8
LAY-10
  6
CONTINUOUS
 62
     7
100
AcDbLine
 10
1349.307684156092
 20
1344.467876871141
 30
0.0
 11
1349.307684156091
 21
2184.467876871141
 31
0.0
  0
LINE
  5
3B8
330
1F
100
AcDbEntity
  8
LAY-10
  6
CONTINUOUS
 62
     7
100
AcDbLine
 10
1356.807684156092
 20
1344.467876871141
 30
0.0
 11
1356.807684156091
 21
2184.467876871143
 31
0.0
  0
LINE
  5
3B9
330
1F
100
AcDbEntity
  8
LAY-10
  6
CONTINUOUS
 62
     7
100
AcDbLine
 10
1116.807684156068
 20
1344.467876871142
 30
0.0
 11
1116.807684156075
 21
2184.467876871144
 31
0.0
  0
LINE
  5
3BA
330
1F
100
AcDbEntity
  8
LAY-10
  6
CONTINUOUS
 62
     7
100
AcDbLine
 10
1124.307684156068
 20
1344.467876871142
 30
0.0
 11
1124.307684156075
 21
2184.467876871142
 31
0.0
  0
LINE
  5
3BB
330
1F
100
AcDbEntity
  8
LAY-10
  6
CONTINUOUS
 62
     7
100
AcDbLine
 10
1149.307684156068
 20
1344.467876871142
 30
0.0
 11
1149.307684156073
 21
2184.467876871142
 31
0.0
  0
LINE
  5
3BC
330
1F
100
AcDbEntity
  8
LAY-10
  6
CONTINUOUS
 62
     7
100
AcDbLine
 10
1156.807684156068
 20
1344.467876871142
 30
0.0
 11
1156.807684156073
 21
2184.467876871142
 31
0.0
  0
LINE
  5
3BD
330
1F
100
AcDbEntity
  8
LAY-10
  6
CONTINUOUS
 62
     7
100
AcDbLine
 10
1316.807684156094
 20
1344.467876871142
 30
0.0
 11
1316.807684156091
 21
2184.467876871142
 31
0.0
  0
LINE
  5
3BE
330
1F
100
AcDbEntity
  8
LAY-10
  6
CONTINUOUS
 62
     7
100
AcDbLine
 10
1324.307684156094
 20
1344.467876871142
 30
0.0
 11
1324.307684156091
 21
2184.467876871141
 31
0.0
  0
LINE
  5
3BF
330
1F
100
AcDbEntity
  8
LAY-10
  6
CONTINUOUS
 62
     7
100
AcDbLine
 10
1019.807684156257
 20
1329.467876871143
 30
0.0
 11
1019.807684156262
 21
2199.467876871143
 31
0.0
  0
LINE
  5
3C0
330
1F
100
AcDbEntity
  8
LAY-10
  6
CONTINUOUS
 62
     7
100
AcDbLine
 10
1034.807684156262
 20
2184.467876871143
 30
0.0
 11
1034.807684156259
 21
1344.467876871143
 31
0.0
  0
LINE
  5
3C1
330
1F
100
AcDbEntity
  8
LAY-10
  6
CONTINUOUS
 62
     7
100
AcDbLine
 10
1438.807684156259
 20
1344.46787687114
 30
0.0
 11
1438.807684156262
 21
2184.467876871139
 31
0.0
  0
LINE
  5
3C2
330
1F
100
AcDbEntity
  8
LAY-10
  6
CONTINUOUS
 62
     7
100
AcDbLine
 10
1453.807684156262
 20
2199.467876871139
 30
0.0
 11
1453.807684156259
 21
1329.46787687114
 31
0.0
  0
LINE
  5
3C3
330
1F
100
AcDbEntity
  8
LAY-10
  6
CONTINUOUS
 62
     7
100
AcDbLine
 10
1232.807684156094
 20
1349.96787687123
 30
0.0
 11
1232.807684156094
 21
1348.361576858426
 31
0.0
  0
LINE
  5
3C4
330
1F
100
AcDbEntity
  8
LAY-10
  6
CONTINUOUS
 62
     7
100
AcDbLine
 10
1240.807684156091
 20
1349.96787687123
 30
0.0
 11
1240.807684156091
 21
1348.361576858426
 31
0.0
  0
LINE
  5
3C5
330
1F
100
AcDbEntity
  8
LAY-10
  6
CONTINUOUS
 62
     7
100
AcDbLine
 10
1240.807684156091
 20
1349.96787687123
 30
0.0
 11
1232.807684156094
 21
1349.96787687123
 31
0.0
  0
ARC
  5
3C6
330
1F
100
AcDbEntity
  8
LAY-10
  6
CONTINUOUS
 62
     7
100
AcDbCircle
 10
1236.807684156092
 20
1360.467876871231
 30
0.0
 40
12.75000000000001
100
AcDbArc
 50
288.2838899404031
 51
251.716110059597
  0
LINE
  5
3C7
330
1F
100
AcDbEntity
  8
LAY-10
  6
CONTINUOUS
 62
     7
100
AcDbLine
 10
1230.307684156092
 20
1360.467876871231
 30
0.0
 11
1236.807684156092
 21
1356.467876871231
 31
0.0
  0
LINE
  5
3C8
330
1F
100
AcDbEntity
  8
LAY-10
  6
CONTINUOUS
 62
     7
100
AcDbLine
 10
1236.807684156092
 20
1356.467876871231
 30
0.0
 11
1243.307684156092
 21
1360.467876871231
 31
0.0
  0
LINE
  5
3C9
330
1F
100
AcDbEntity
  8
LAY-10
  6
CONTINUOUS
 62
     7
100
AcDbLine
 10
1243.307684156092
 20
1360.467876871231
 30
0.0
 11
1236.807684156092
 21
1364.467876871231
 31
0.0
  0
LINE
  5
3CA
330
1F
100
AcDbEntity
  8
LAY-10
  6
CONTINUOUS
 62
     7
100
AcDbLine
 10
1236.807684156092
 20
1364.467876871231
 30
0.0
 11
1230.307684156092
 21
1360.467876871231
 31
0.0
  0
CIRCLE
  5
3CB
330
1F
100
AcDbEntity
  8
LAY-10
  6
CONTINUOUS
 62
     7
100
AcDbCircle
 10
1236.807684156141
 20
1360.467876871207
 30
0.0
 40
13.0
  0
LINE
  5
3CC
330
1F
100
AcDbEntity
  8
LAY-10
  6
CONTINUOUS
 62
     7
100
AcDbLine
 10
1220.807684156182
 20
2152.467876871295
 30
0.0
 11
1220.807684156182
 21
2184.467876871293
 31
0.0
  0
LINE
  5
3CD
330
1F
100
AcDbEntity
  8
LAY-10
  6
CONTINUOUS
 62
     7
100
AcDbLine
 10
1252.807684156181
 20
2152.467876871295
 30
0.0
 11
1252.807684156181
 21
2184.467876871293
 31
0.0
  0
LINE
  5
3CE
330
1F
100
AcDbEntity
  8
LAY-10
  6
CONTINUOUS
 62
     7
100
AcDbLine
 10
1220.80768415618
 20
2152.467876871295
 30
0.0
 11
1252.807684156181
 21
2152.467876871295
 31
0.0
  0
LINE
  5
3CF
330
1F
100
AcDbEntity
  8
LAY-10
  6
CONTINUOUS
 62
     7
100
AcDbLine
 10
1232.807684156093
 20
2178.967876871256
 30
0.0
 11
1232.807684156093
 21
2180.574176884059
 31
0.0
  0
LINE
  5
3D0
330
1F
100
AcDbEntity
  8
LAY-10
  6
CONTINUOUS
 62
     7
100
AcDbLine
 10
1240.807684156091
 20
2178.967876871256
 30
0.0
 11
1240.807684156091
 21
2180.574176884059
 31
0.0
  0
LINE
  5
3D1
330
1F
100
AcDbEntity
  8
LAY-10
  6
CONTINUOUS
 62
     7
100
AcDbLine
 10
1240.807684156091
 20
2178.967876871256
 30
0.0
 11
1232.807684156093
 21
2178.967876871256
 31
0.0
  0
ARC
  5
3D2
330
1F
100
AcDbEntity
  8
LAY-10
  6
CONTINUOUS
 62
     7
100
AcDbCircle
 10
1236.807684156091
 20
2168.467876871255
 30
0.0
 40
12.75000000000001
100
AcDbArc
 50
108.2838899404031
 51
71.71611005959691
  0
LINE
  5
3D3
330
1F
100
AcDbEntity
  8
LAY-10
  6
CONTINUOUS
 62
     7
100
AcDbLine
 10
1230.307684156092
 20
2168.467876871255
 30
0.0
 11
1236.807684156091
 21
2172.467876871255
 31
0.0
  0
LINE
  5
3D4
330
1F
100
AcDbEntity
  8
LAY-10
  6
CONTINUOUS
 62
     7
100
AcDbLine
 10
1236.807684156091
 20
2172.467876871255
 30
0.0
 11
1243.307684156092
 21
2168.467876871255
 31
0.0
  0
LINE
  5
3D5
330
1F
100
AcDbEntity
  8
LAY-10
  6
CONTINUOUS
 62
     7
100
AcDbLine
 10
1243.307684156092
 20
2168.467876871255
 30
0.0
 11
1236.807684156091
 21
2164.467876871255
 31
0.0
  0
LINE
  5
3D6
330
1F
100
AcDbEntity
  8
LAY-10
  6
CONTINUOUS
 62
     7
100
AcDbLine
 10
1236.807684156091
 20
2164.467876871255
 30
0.0
 11
1230.307684156092
 21
2168.467876871255
 31
0.0
  0
CIRCLE
  5
3D7
330
1F
100
AcDbEntity
  8
LAY-10
  6
CONTINUOUS
 62
     7
100
AcDbCircle
 10
1236.807684156141
 20
2168.467876871278
 30
0.0
 40
13.0
  0
LINE
  5
3D8
330
1F
100
AcDbEntity
  8
LAY-10
  6
CONTINUOUS
 62
     7
100
AcDbLine
 10
773.3076841562468
 20
1284.569392061276
 30
0.0
 11
764.3076841562454
 21
1284.569392061276
 31
0.0
  0
LINE
  5
3D9
330
1F
100
AcDbEntity
  8
LAY-10
  6
CONTINUOUS
 62
     7
100
AcDbLine
 10
764.3076841562454
 20
1313.467876871113
 30
0.0
 11
764.3076841562454
 21
1284.569392061276
 31
0.0
  0
LINE
  5
3DA
330
1F
100
AcDbEntity
  8
LAY-10
  6
CONTINUOUS
 62
     7
100
AcDbLine
 10
773.3076841562458
 20
1313.467876871113
 30
0.0
 11
773.3076841562468
 21
1284.569392061276
 31
0.0
  0
LINE
  5
3DB
330
1F
100
AcDbEntity
  8
LAY-10
  6
CONTINUOUS
 62
     7
100
AcDbLine
 10
773.3076841562463
 20
2244.366361681209
 30
0.0
 11
764.3076841562449
 21
2244.366361681209
 31
0.0
  0
LINE
  5
3DC
330
1F
100
AcDbEntity
  8
LAY-10
  6
CONTINUOUS
 62
     7
100
AcDbLine
 10
764.3076841562449
 20
2215.467876871372
 30
0.0
 11
764.3076841562449
 21
2244.366361681209
 31
0.0
  0
LINE
  5
3DD
330
1F
100
AcDbEntity
  8
LAY-10
  6
CONTINUOUS
 62
     7
100
AcDbLine
 10
773.3076841562454
 20
2215.467876871372
 30
0.0
 11
773.3076841562463
 21
2244.366361681209
 31
0.0
  0
LINE
  5
3DE
330
1F
100
AcDbEntity
  8
LAY-10
  6
CONTINUOUS
 62
     7
100
AcDbLine
 10
1264.307684156257
 20
2244.366361681207
 30
0.0
 11
1273.307684156259
 21
2244.366361681207
 31
0.0
  0
LINE
  5
3DF
330
1F
100
AcDbEntity
  8
LAY-10
  6
CONTINUOUS
 62
     7
100
AcDbLine
 10
1273.307684156258
 20
2215.46787687137
 30
0.0
 11
1273.307684156259
 21
2244.366361681207
 31
0.0
  0
LINE
  5
3E0
330
1F
100
AcDbEntity
  8
LAY-10
  6
CONTINUOUS
 62
     7
100
AcDbLine
 10
1264.307684156258
 20
2215.46787687137
 30
0.0
 11
1264.307684156257
 21
2244.366361681207
 31
0.0
  0
LINE
  5
3E1
330
1F
100
AcDbEntity
  8
LAY-10
  6
CONTINUOUS
 62
     7
100
AcDbLine
 10
1264.307684156248
 20
1284.569392061273
 30
0.0
 11
1273.307684156249
 21
1284.569392061273
 31
0.0
  0
LINE
  5
3E2
330
1F
100
AcDbEntity
  8
LAY-10
  6
CONTINUOUS
 62
     7
100
AcDbLine
 10
1273.307684156249
 20
1313.467876871111
 30
0.0
 11
1273.307684156249
 21
1284.569392061273
 31
0.0
  0
LINE
  5
3E3
330
1F
100
AcDbEntity
  8
LAY-10
  6
CONTINUOUS
 62
     7
100
AcDbLine
 10
1264.307684156249
 20
1313.467876871111
 30
0.0
 11
1264.307684156248
 21
1284.569392061273
 31
0.0
  0
LINE
  5
3E4
330
1F
100
AcDbEntity
  8
LAY-10
  6
CENTER
 62
     2
100
AcDbLine
 10
1018.807684156167
 20
972.3330572167904
 30
0.0
 11
1018.807684156167
 21
771.5
 31
0.0
  0
LINE
  5
3E5
330
1F
100
AcDbEntity
  8
LAY-10
  6
CENTER
 62
     2
100
AcDbLine
 10
1866.821536356772
 20
1764.467876871208
 30
0.0
 11
2080.06695839912
 21
1764.467876871207
 31
0.0
  0
LINE
  5
3E6
330
1F
100
AcDbEntity
  8
LAY-10
  6
CENTER
 62
     2
100
AcDbLine
 10
800.8076841563275
 20
1341.867876871194
 30
0.0
 11
800.8076841563275
 21
1380.767876871194
 31
0.0
  0
LINE
  5
3E7
330
1F
100
AcDbEntity
  8
LAY-10
  6
CENTER
 62
     2
100
AcDbLine
 10
782.2826841563278
 20
1360.467876871193
 30
0.0
 11
819.7826841563278
 21
1360.467876871193
 31
0.0
  0
LINE
  5
3E8
330
1F
100
AcDbEntity
  8
LAY-10
  6
CENTER
 62
     2
100
AcDbLine
 10
567.8020552241683
 20
1514.467876871204
 30
0.0
 11
531.3020552242147
 21
1514.467876871206
 31
0.0
  0
LINE
  5
3E9
330
1F
100
AcDbEntity
  8
LAY-10
  6
CENTER
 62
     2
100
AcDbLine
 10
567.8020552241683
 20
2014.467876871165
 30
0.0
 11
526.002055224169
 21
2014.467876871166
 31
0.0
  0
LINE
  5
3EA
330
1F
100
AcDbEntity
  8
LAY-10
  6
CENTER
 62
     2
100
AcDbLine
 10
526.5076841558971
 20
1764.467876871242
 30
0.0
 11
1511.607684156
 21
1764.467876871243
 31
0.0
  0
LINE
  5
3EB
330
1F
100
AcDbEntity
  8
LAY-10
  6
CENTER
 62
     2
100
AcDbLine
 10
1268.804869690026
 20
2215.473505803272
 30
0.0
 11
1268.804869690027
 21
2257.273505803272
 31
0.0
  0
LINE
  5
3EC
330
1F
100
AcDbEntity
  8
LAY-10
  6
CENTER
 62
     2
100
AcDbLine
 10
1469.807684156041
 20
2014.467876871161
 30
0.0
 11
1511.607684156041
 21
2014.467876871162
 31
0.0
  0
LINE
  5
3ED
330
1F
100
AcDbEntity
  8
LAY-10
  6
CENTER
 62
     2
100
AcDbLine
 10
1469.807684156039
 20
1514.467876871201
 30
0.0
 11
1506.307684155993
 21
1514.467876871201
 31
0.0
  0
LINE
  5
3EE
330
1F
100
AcDbEntity
  8
LAY-10
  6
CENTER
 62
     2
100
AcDbLine
 10
800.807684156327
 20
2187.067876871291
 30
0.0
 11
800.807684156327
 21
2148.167876871291
 31
0.0
  0
LINE
  5
3EF
330
1F
100
AcDbEntity
  8
LAY-10
  6
CENTER
 62
     2
100
AcDbLine
 10
782.2826841563274
 20
2168.467876871292
 30
0.0
 11
819.7826841563274
 21
2168.467876871292
 31
0.0
  0
LINE
  5
3F0
330
1F
100
AcDbEntity
  8
LAY-10
  6
CENTER
 62
     2
100
AcDbLine
 10
1236.807684156181
 20
1341.867876871193
 30
0.0
 11
1236.807684156181
 21
1380.767876871193
 31
0.0
  0
LINE
  5
3F1
330
1F
100
AcDbEntity
  8
LAY-10
  6
CENTER
 62
     2
100
AcDbLine
 10
1255.332684156181
 20
1360.467876871192
 30
0.0
 11
1217.832684156181
 21
1360.467876871192
 31
0.0
  0
LINE
  5
3F2
330
1F
100
AcDbEntity
  8
LAY-10
  6
CENTER
 62
     2
100
AcDbLine
 10
1236.807684156181
 20
2187.067876871292
 30
0.0
 11
1236.807684156181
 21
2148.167876871293
 31
0.0
  0
LINE
  5
3F3
330
1F
100
AcDbEntity
  8
LAY-10
  6
CENTER
 62
     2
100
AcDbLine
 10
1255.33268415618
 20
2168.467876871293
 30
0.0
 11
1217.83268415618
 21
2168.467876871293
 31
0.0
  0
LINE
  5
3F4
330
1F
100
AcDbEntity
  8
LAY-10
  6
CENTER
 62
     2
100
AcDbLine
 10
1018.807684156206
 20
2251.96787687109
 30
0.0
 11
1018.807684156204
 21
1271.667876871189
 31
0.0
  0
LINE
  5
3F5
330
1F
100
AcDbEntity
  8
LAY-10
  6
CENTER
 62
     2
100
AcDbLine
 10
768.8076841562463
 20
1313.467876871113
 30
0.0
 11
768.8076841562472
 21
1276.967876871159
 31
0.0
  0
LINE
  5
3F6
330
1F
100
AcDbEntity
  8
LAY-10
  6
CENTER
 62
     2
100
AcDbLine
 10
768.8076841562458
 20
2215.467876871372
 30
0.0
 11
768.8076841562469
 21
2251.967876871326
 31
0.0
  0
LINE
  5
3F7
330
1F
100
AcDbEntity
  8
LAY-10
  6
CENTER
 62
     2
100
AcDbLine
 10
1268.807684156257
 20
2215.46787687137
 30
0.0
 11
1268.807684156257
 21
2251.967876871323
 31
0.0
  0
LINE
  5
3F8
330
1F
100
AcDbEntity
  8
LAY-10
  6
CENTER
 62
     2
100
AcDbLine
 10
1268.807684156249
 20
1313.467876871111
 30
0.0
 11
1268.807684156247
 21
1276.967876871157
 31
0.0
  0
DIMENSION
  5
3FA
330
1F
100
AcDbEntity
  8
LAY-20
  6
CONTINUOUS
 62
     4
100
AcDbDimension
  2
*D15
 10
1469.8076841562
 20
1128.7520497556
 30
0.0
 11
1018.80768415616
 21
1153.7520497556
 31
0.0
 70
   160
  3
ISO-25
100
AcDbAlignedDimension
 13
567.8076841561203
 23
958.7520497555903
 33
0.0
 14
1469.8076841562
 24
958.7520497555903
 34
0.0
100
AcDbRotatedDimension
1001
ACAD
1000
DSTYLE
1002
{
1070
   270
1070
     2
1070
     6
1000
EX_BNORM
1070
     7
1000
EX_BNORM
1070
    41
1040
25.0
1070
    42
1040
15.0
1070
    44
1040
15.0
1070
    73
1070
     0
1070
    74
1070
     0
1070
    75
1070
     0
1070
    76
1070
     0
1070
    77
1070
     1
1070
    78
1070
     8
1070
   140
1040
31.181104
1070
   147
1040
0.0
1070
   173
1070
     1
1070
   176
1070
     4
1070
   177
1070
     4
1070
   178
1070
     7
1070
   271
1070
     1
1070
   277
1070
     2
1070
   279
1070
     2
1070
   280
1070
     0
1070
   287
1070
     5
1070
   340
1005
3F9
1002
}
  0
DIMENSION
  5
408
330
1F
100
AcDbEntity
  8
LAY-20
  6
CONTINUOUS
 62
     4
100
AcDbDimension
  2
*D16
 10
1017.807684156115
 20
1058.7520497556
 30
0.0
 11
800.8076841561788
 21
1083.7520497556
 31
0.0
 70
   160
  3
ISO-25
100
AcDbAlignedDimension
 13
583.8076841562424
 23
958.7520497555934
 33
0.0
 14
1017.807684156115
 24
958.7520497555956
 34
0.0
100
AcDbRotatedDimension
1001
ACAD
1000
DSTYLE
1002
{
1070
   270
1070
     2
1070
     6
1000
EX_BNORM
1070
     7
1000
EX_BNORM
1070
    41
1040
25.0
1070
    42
1040
15.0
1070
    44
1040
15.0
1070
    73
1070
     0
1070
    74
1070
     0
1070
    75
1070
     0
1070
    76
1070
     0
1070
    77
1070
     1
1070
    78
1070
     8
1070
   140
1040
31.181104
1070
   147
1040
0.0
1070
   173
1070
     1
1070
   176
1070
     4
1070
   177
1070
     4
1070
   178
1070
     7
1070
   271
1070
     1
1070
   277
1070
     2
1070
   279
1070
     2
1070
   280
1070
     0
1070
   287
1070
     5
1070
   340
1005
3F9
1002
}
  0
DIMENSION
  5
415
330
1F
100
AcDbEntity
  8
LAY-20
  6
CONTINUOUS
 62
     4
100
AcDbDimension
  2
*D17
 10
668.8076841561201
 20
678.75204975559
 30
0.0
 11
1018.80768415616
 21
703.7520497555898
 31
0.0
 70
   160
  3
ISO-25
100
AcDbAlignedDimension
 13
1368.8076841562
 23
778.7520497555901
 33
0.0
 14
668.8076841561201
 24
778.7520497555901
 34
0.0
100
AcDbRotatedDimension
1001
ACAD
1000
DSTYLE
1002
{
1070
   270
1070
     2
1070
     6
1000
EX_BNORM
1070
     7
1000
EX_BNORM
1070
    41
1040
25.0
1070
    42
1040
15.0
1070
    44
1040
14.99999999999977
1070
    73
1070
     0
1070
    74
1070
     0
1070
    75
1070
     0
1070
    76
1070
     0
1070
    77
1070
     1
1070
    78
1070
     8
1070
   140
1040
31.181104
1070
   147
1040
0.0
1070
   173
1070
     1
1070
   176
1070
     4
1070
   177
1070
     4
1070
   178
1070
     7
1070
   271
1070
     1
1070
   277
1070
     2
1070
   279
1070
     2
1070
   280
1070
     0
1070
   287
1070
     5
1070
   340
1005
3F9
1002
}
  0
DIMENSION
  5
422
330
1F
100
AcDbEntity
  8
LAY-20
  6
CONTINUOUS
 62
     4
100
AcDbDimension
  2
*D18
 10
1598.706168966
 20
958.7520497555903
 30
0.0
 11
1573.706168966
 21
868.75204975559
 31
0.0
 70
   160
  3
ISO-25
100
AcDbAlignedDimension
 13
1415.0076841562
 23
778.7520497555901
 33
0.0
 14
1469.8076841562
 24
958.7520497555903
 34
0.0
 50
90.0
100
AcDbRotatedDimension
1001
ACAD
1000
DSTYLE
1002
{
1070
   270
1070
     2
1070
     6
1000
EX_BNORM
1070
     7
1000
EX_BNORM
1070
    41
1040
25.0
1070
    42
1040
15.0
1070
    44
1040
14.99999999999955
1070
    73
1070
     0
1070
    74
1070
     0
1070
    75
1070
     0
1070
    76
1070
     0
1070
    77
1070
     1
1070
    78
1070
     8
1070
   140
1040
31.181104
1070
   147
1040
0.0
1070
   173
1070
     1
1070
   176
1070
     4
1070
   177
1070
     4
1070
   178
1070
     7
1070
   271
1070
     1
1070
   277
1070
     2
1070
   279
1070
     2
1070
   280
1070
     0
1070
   287
1070
     5
1070
   340
1005
3F9
1002
}
  0
DIMENSION
  5
42F
330
1F
100
AcDbEntity
  8
LAY-20
  6
CONTINUOUS
 62
     4
100
AcDbDimension
  2
*D19
 10
1716.1200211666
 20
2215.46787687109
 30
0.0
 11
1691.120021166601
 21
1764.467876871065
 31
0.0
 70
   160
  3
ISO-25
100
AcDbAlignedDimension
 13
1886.12002116657
 23
1313.46787687104
 33
0.0
 14
1886.12002116661
 24
2215.46787687109
 34
0.0
 50
90.0
100
AcDbRotatedDimension
1001
ACAD
1000
DSTYLE
1002
{
1070
   270
1070
     2
1070
     6
1000
EX_BNORM
1070
     7
1000
EX_BNORM
1070
    41
1040
25.0
1070
    42
1040
15.0
1070
    44
1040
15.0
1070
    73
1070
     0
1070
    74
1070
     0
1070
    75
1070
     0
1070
    76
1070
     0
1070
    77
1070
     1
1070
    78
1070
     8
1070
   140
1040
31.181104
1070
   147
1040
0.0
1070
   173
1070
     1
1070
   176
1070
     4
1070
   177
1070
     4
1070
   178
1070
     7
1070
   271
1070
     1
1070
   277
1070
     2
1070
   279
1070
     2
1070
   280
1070
     0
1070
   287
1070
     5
1070
   340
1005
3F9
1002
}
  0
DIMENSION
  5
43C
330
1F
100
AcDbEntity
  8
LAY-20
  6
CONTINUOUS
 62
     4
100
AcDbDimension
  2
*D20
 10
1786.1200211666
 20
2199.467876871106
 30
0.0
 11
1761.120021166601
 21
1764.467876871108
 31
0.0
 70
   160
  3
ISO-25
100
AcDbAlignedDimension
 13
1886.120021166611
 23
1329.467876871109
 33
0.0
 14
1886.120021166611
 24
2199.467876871106
 34
0.0
 50
90.0
100
AcDbRotatedDimension
1001
ACAD
1000
DSTYLE
1002
{
1070
   270
1070
     2
1070
     6
1000
EX_BNORM
1070
     7
1000
EX_BNORM
1070
    41
1040
25.0
1070
    42
1040
15.0
1070
    44
1040
15.0
1070
    73
1070
     0
1070
    74
1070
     0
1070
    75
1070
     0
1070
    76
1070
     0
1070
    77
1070
     1
1070
    78
1070
     8
1070
   140
1040
31.181104
1070
   147
1040
0.0
1070
   173
1070
     1
1070
   176
1070
     4
1070
   177
1070
     4
1070
   178
1070
     7
1070
   271
1070
     1
1070
   277
1070
     2
1070
   279
1070
     2
1070
   280
1070
     0
1070
   287
1070
     5
1070
   340
1005
3F9
1002
}
  0
DIMENSION
  5
449
330
1F
100
AcDbEntity
  8
LAY-20
  6
CONTINUOUS
 62
     4
100
AcDbDimension
  2
*D21
 10
2166.1200211666
 20
1414.46787687105
 30
0.0
 11
2141.120021166601
 21
1764.46787687112
 31
0.0
 70
   160
  3
ISO-25
100
AcDbAlignedDimension
 13
2066.12002116661
 23
2114.46787687119
 33
0.0
 14
2066.12002116661
 24
1414.46787687105
 34
0.0
 50
90.0
100
AcDbRotatedDimension
1001
ACAD
1000
DSTYLE
1002
{
1070
   270
1070
     2
1070
     6
1000
EX_BNORM
1070
     7
1000
EX_BNORM
1070
    41
1040
25.0
1070
    42
1040
15.0
1070
    44
1040
15.0
1070
    73
1070
     0
1070
    74
1070
     0
1070
    75
1070
     0
1070
    76
1070
     0
1070
    77
1070
     1
1070
    78
1070
     8
1070
   140
1040
31.181104
1070
   147
1040
0.0
1070
   173
1070
     1
1070
   176
1070
     4
1070
   177
1070
     4
1070
   178
1070
     7
1070
   271
1070
     1
1070
   277
1070
     2
1070
   279
1070
     2
1070
   280
1070
     0
1070
   287
1070
     5
1070
   340
1005
3F9
1002
}
  0
DIMENSION
  5
456
330
1F
100
AcDbEntity
  8
LAY-20
  6
CONTINUOUS
 62
     4
100
AcDbDimension
  2
*D22
 10
2236.1200211666
 20
1322.267876871
 30
0.0
 11
2211.1200211666
 21
1764.467876871
 31
0.0
 70
   160
  3
ISO-25
100
AcDbAlignedDimension
 13
1983.5200211666
 23
2206.667876871
 33
0.0
 14
1983.5200211666
 24
1322.267876871
 34
0.0
 50
90.0
100
AcDbRotatedDimension
1001
ACAD
1000
DSTYLE
1002
{
1070
   270
1070
     2
1070
     6
1000
EX_BNORM
1070
     7
1000
EX_BNORM
1070
    41
1040
25.0
1070
    42
1040
15.0
1070
    44
1040
15.0
1070
    73
1070
     0
1070
    74
1070
     0
1070
    75
1070
     0
1070
    76
1070
     0
1070
    77
1070
     1
1070
    78
1070
     0
1070
   140
1040
31.181104
1070
   147
1040
0.0
1070
   173
1070
     1
1070
   176
1070
     4
1070
   177
1070
     4
1070
   178
1070
     7
1070
   271
1070
     0
1070
   277
1070
     2
1070
   279
1070
     2
1070
   280
1070
     0
1070
   287
1070
     5
1070
   340
1005
3F9
1002
}
  0
DIMENSION
  5
463
330
1F
100
AcDbEntity
  8
LAY-20
  6
CONTINUOUS
 62
     4
100
AcDbDimension
  2
*D23
 10
576.6076841561401
 20
608.75204975559
 30
0.0
 11
1018.80768415617
 21
633.75204975559
 31
0.0
 70
   160
  3
ISO-25
100
AcDbAlignedDimension
 13
1461.0076841562
 23
861.35204975559
 33
0.0
 14
576.6076841561401
 24
861.35204975559
 34
0.0
100
AcDbRotatedDimension
1001
ACAD
1000
DSTYLE
1002
{
1070
   270
1070
     2
1070
     6
1000
EX_BNORM
1070
     7
1000
EX_BNORM
1070
    41
1040
25.0
1070
    42
1040
15.0
1070
    44
1040
15.0
1070
    73
1070
     0
1070
    74
1070
     0
1070
    75
1070
     0
1070
    76
1070
     0
1070
    77
1070
     1
1070
    78
1070
     0
1070
   140
1040
31.181104
1070
   147
1040
0.0
1070
   173
1070
     1
1070
   176
1070
     4
1070
   177
1070
     4
1070
   178
1070
     7
1070
   271
1070
     0
1070
   277
1070
     2
1070
   279
1070
     2
1070
   280
1070
     0
1070
   287
1070
     5
1070
   340
1005
3F9
1002
}
  0
DIMENSION
  5
470
330
1F
100
AcDbEntity
  8
LAY-20
  6
CONTINUOUS
 62
     4
100
AcDbDimension
  2
*D24
 10
1203.0
 20
958.75204975559
 30
0.0
 11
1178.0
 21
1018.752049755589
 31
0.0
 70
   160
  3
ISO-25
100
AcDbAlignedDimension
 13
1156.807684156
 23
923.75204975559
 33
0.0
 14
1203.0
 24
958.75204975559
 34
0.0
 50
90.0
100
AcDbRotatedDimension
1001
ACAD
1000
DSTYLE
1002
{
1070
   270
1070
     2
1070
     6
1000
EX_BNORM
1070
     7
1000
EX_BNORM
1070
    41
1040
25.0
1070
    42
1040
15.0
1070
    44
1040
15.0
1070
    73
1070
     0
1070
    74
1070
     0
1070
    75
1070
     0
1070
    76
1070
     1
1070
    77
1070
     1
1070
    78
1070
     8
1070
   140
1040
31.181104
1070
   147
1040
0.0
1070
   173
1070
     1
1070
   176
1070
     4
1070
   177
1070
     4
1070
   178
1070
     7
1070
   271
1070
     1
1070
   277
1070
     2
1070
   279
1070
     2
1070
   280
1070
     2
1070
   287
1070
     5
1070
   340
1005
3F9
1002
}
  0
LINE
  5
47E
330
1F
100
AcDbEntity
  8
LAY-255
  6
CONTINUOUS
 62
     7
100
AcDbLine
 10
3850.0
 20
219.9999999999999
 30
0.0
 11
2850.0
 21
219.9999999999999
 31
0.0
  0
LINE
  5
47F
330
1F
100
AcDbEntity
  8
LAY-255
  6
CONTINUOUS
 62
     7
100
AcDbLine
 10
2888.0
 20
160.0
 30
0.0
 11
2968.0
 21
210.0
 31
0.0
  0
LINE
  5
480
330
1F
100
AcDbEntity
  8
LAY-255
  6
CONTINUOUS
 62
     7
100
AcDbLine
 10
2968.0
 20
210.0
 30
0.0
 11
3048.0
 21
160.0
 31
0.0
  0
LINE
  5
481
330
1F
100
AcDbEntity
  8
LAY-255
  6
CONTINUOUS
 62
     7
100
AcDbLine
 10
3048.0
 20
160.0
 30
0.0
 11
2968.0
 21
110.0
 31
0.0
  0
LINE
  5
482
330
1F
100
AcDbEntity
  8
LAY-255
  6
CONTINUOUS
 62
     7
100
AcDbLine
 10
2968.0
 20
110.0
 30
0.0
 11
2888.0
 21
160.0
 31
0.0
  0
LINE
  5
483
330
1F
100
AcDbEntity
  8
LAY-255
  6
CONTINUOUS
 62
     7
100
AcDbLine
 10
50.0
 20
100.0
 30
0.0
 11
3850.0
 21
100.0
 31
0.0
  0
LINE
  5
484
330
1F
100
AcDbEntity
  8
LAY-255
  6
CONTINUOUS
 62
     7
100
AcDbLine
 10
50.0
 20
2800.0
 30
0.0
 11
3850.0
 21
2800.0
 31
0.0
  0
LINE
  5
485
330
1F
100
AcDbEntity
  8
LAY-255
  6
CONTINUOUS
 62
     7
100
AcDbLine
 10
50.0
 20
100.0
 30
0.0
 11
50.0
 21
2800.0
 31
0.0
  0
LINE
  5
486
330
1F
100
AcDbEntity
  8
LAY-255
  6
CONTINUOUS
 62
     7
100
AcDbLine
 10
3850.0
 20
100.0
 30
0.0
 11
3850.0
 21
2800.0
 31
0.0
  0
LINE
  5
487
330
1F
100
AcDbEntity
  8
LAY-255
  6
CONTINUOUS
 62
     4
100
AcDbLine
 10
2850.0
 20
279.9999999999999
 30
0.0
 11
3850.0
 21
279.9999999999999
 31
0.0
  0
LINE
  5
488
330
1F
100
AcDbEntity
  8
LAY-255
  6
CONTINUOUS
 62
     7
100
AcDbLine
 10
2850.0
 20
100.0
 30
0.0
 11
2850.0
 21
670.0
 31
0.0
  0
POINT
  5
489
330
1F
100
AcDbEntity
  8
LAY-255
  6
CONTINUOUS
 62
     7
100
AcDbPoint
 10
2890.0
 20
399.9999999999999
 30
0.0
  0
LINE
  5
48A
330
1F
100
AcDbEntity
  8
LAY-255
  6
CONTINUOUS
 62
     4
100
AcDbLine
 10
3350.0
 20
279.9999999999999
 30
0.0
 11
3350.0
 21
220.0
 31
0.0
  0
LINE
  5
48B
330
1F
100
AcDbEntity
  8
LAY-255
  6
CONTINUOUS
 62
     7
100
AcDbLine
 10
3850.0
 20
670.0
 30
0.0
 11
2850.0
 21
670.0
 31
0.0
  0
LINE
  5
48C
330
1F
100
AcDbEntity
  8
LAY-255
  6
CONTINUOUS
 62
     4
100
AcDbLine
 10
3830.0
 20
549.9999999999999
 30
0.0
 11
2870.0
 21
549.9999999999999
 31
0.0
  0
LINE
  5
48D
330
1F
100
AcDbEntity
  8
LAY-255
  6
CONTINUOUS
 62
     4
100
AcDbLine
 10
3830.0
 20
610.0
 30
0.0
 11
2870.0
 21
610.0
 31
0.0
  0
POINT
  5
48E
330
1F
100
AcDbEntity
  8
LAY-255
  6
CONTINUOUS
 62
     7
100
AcDbPoint
 10
2890.0
 20
499.9999999999999
 30
0.0
  0
POINT
  5
48F
330
1F
100
AcDbEntity
  8
LAY-255
  6
CONTINUOUS
 62
     7
100
AcDbPoint
 10
3000.0
 20
559.9999999999999
 30
0.0
  0
POINT
  5
490
330
1F
100
AcDbEntity
  8
LAY-255
  6
CONTINUOUS
 62
     7
100
AcDbPoint
 10
3000.0
 20
620.0
 30
0.0
  0
POINT
  5
491
330
1F
100
AcDbEntity
  8
LAY-255
  6
CONTINUOUS
 62
     7
100
AcDbPoint
 10
2890.0
 20
349.9999999999999
 30
0.0
  0
POINT
  5
492
330
1F
100
AcDbEntity
  8
LAY-255
  6
CONTINUOUS
 62
     7
100
AcDbPoint
 10
2890.0
 20
449.9999999999999
 30
0.0
  0
POINT
  5
493
330
1F
100
AcDbEntity
  8
LAY-255
  6
CONTINUOUS
 62
     7
100
AcDbPoint
 10
2890.0
 20
299.9999999999998
 30
0.0
  0
TEXT
  5
494
330
1F
100
AcDbEntity
  8
LAY-255
  6
CONTINUOUS
 62
     7
100
AcDbText
 10
3081.3837890625
 20
155.4375
 30
0.0
 40
51.5625
  1
福西鋳物株式会社
 41
1.342691999659091
  7
EXCADSTD
100
AcDbText
  0
TEXT
  5
495
330
1F
100
AcDbEntity
  8
LAY-255
  6
CONTINUOUS
 62
     7
100
AcDbText
 10
3085.09375
 20
119.8125
 30
0.0
 40
17.1875
  1
ＦＵＫＵＮＩＳＨＩ
 41
1.204799226045263
  7
EXCADSTD
100
AcDbText
  0
TEXT
  5
496
330
1F
100
AcDbEntity
  8
LAY-255
  6
CONTINUOUS
 62
     7
100
AcDbText
 10
3327.191964285714
 20
119.8125
 30
0.0
 40
17.1875
  1
ＦＯＵＮＤＲＹ
 41
1.243252752978497
  7
EXCADSTD
100
AcDbText
  0
TEXT
  5
497
330
1F
100
AcDbEntity
  8
LAY-255
  6
CONTINUOUS
 62
     7
100
AcDbText
 10
3519.945914381009
 20
119.8125
 30
0.0
 40
17.1875
  1
ＣＯ.,ＬＴＤ.
 41
1.243831036226633
  7
EXCADSTD
100
AcDbText
  0
TEXT
  5
498
330
1F
100
AcDbEntity
  8
LAY-255
  6
CONTINUOUS
 62
     7
100
AcDbText
 10
2940.34375
 20
137.1875
 30
0.0
 40
51.5625
  1
S
 41
0.7582677563636363
  7
EXCADSTD
100
AcDbText
  0
TEXT
  5
499
330
1F
100
AcDbEntity
  8
LAY-255
  6
CONTINUOUS
 62
     7
100
AcDbText
 10
2971.046875
 20
137.4941037736
 30
0.0
 40
51.5625
  1
F
 41
0.7440945272727272
  7
EXCADSTD
100
AcDbText
  0
TEXT
  5
49A
330
1F
100
AcDbEntity
  8
LAY-255
  6
CONTINUOUS
 62
     7
100
AcDbText
 10
3371.0546875
 20
244.2187499999999
 30
0.0
 40
25.78125
  1
縮尺
 41
1.080708718181818
  7
EXCADSTD
100
AcDbText
  0
TEXT
  5
49B
330
1F
100
AcDbEntity
  8
LAY-255
  6
CONTINUOUS
 62
     7
100
AcDbText
 10
2872.65625
 20
565.6249999999999
 30
0.0
 40
34.375
  1
型式
 41
1.056348480681818
  7
EXCADSTD
100
AcDbText
  0
TEXT
  5
49C
330
1F
100
AcDbEntity
  8
LAY-255
  6
CONTINUOUS
 62
     7
100
AcDbText
 10
2874.21875
 20
625.625
 30
0.0
 40
34.375
  1
品名
 41
0.9788386340909091
  7
EXCADSTD
100
AcDbText
  0
TEXT
  5
49D
330
1F
100
AcDbEntity
  8
LAY-255
  6
CONTINUOUS
 62
     7
100
AcDbText
 10
2871.5234375
 20
244.2187499999999
 30
0.0
 40
25.78125
  1
作成日
 41
1.000629973818182
  7
EXCADSTD
100
AcDbText
  0
TEXT
  5
49E
330
1F
100
AcDbEntity
  8
LAY-255
  6
CONTINUOUS
 62
     7
100
AcDbText
 10
2891.40625
 20
505.6249999999999
 30
0.0
 40
34.375
  1
材質：スチール
 41
1.029301719225037
  7
EXCADSTD
100
AcDbText
  0
TEXT
  5
49F
330
1F
100
AcDbEntity
  8
LAY-255
  6
CONTINUOUS
 62
     7
100
AcDbText
 10
2892.03125
 20
355.6249999999999
 30
0.0
 40
34.375
  1
貼代：３５
 41
0.99542213615222
  7
EXCADSTD
100
AcDbText
  0
TEXT
  5
4A0
330
1F
100
AcDbEntity
  8
LAY-255
  6
CONTINUOUS
 62
     7
100
AcDbText
 10
2897.8125
 20
455.6249999999999
 30
0.0
 40
34.375
  1
目地：ステンレス鋼
 41
1.00154495443038
  7
EXCADSTD
100
AcDbText
  0
TEXT
  5
4A1
330
1F
100
AcDbEntity
  8
LAY-255
  6
CONTINUOUS
 62
     7
100
AcDbText
 10
2892.65625
 20
305.6249999999999
 30
0.0
 40
34.375
  1
耐火材中蓋付き
 41
1.014779968107303
  7
EXCADSTD
100
AcDbText
  0
TEXT
  5
4A2
330
1F
100
AcDbEntity
  8
LAY-255
  6
CONTINUOUS
 62
     7
100
AcDbText
 10
3482.8125
 20
235.6249999999999
 30
0.0
 40
34.375
  1
１：１０
 41
0.9243863385026738
  7
EXCADSTD
100
AcDbText
  0
TEXT
  5
4A3
330
1F
100
AcDbEntity
  8
LAY-255
  6
CONTINUOUS
 62
     7
100
AcDbText
 10
3002.5
 20
625.625
 30
0.0
 40
34.375
  1
化粧用マシンハッチ
 41
1.014552031760644
  7
EXCADSTD
100
AcDbText
  0
TEXT
  5
4A4
330
1F
100
AcDbEntity
  8
LAY-255
  6
CONTINUOUS
 62
     7
100
AcDbText
 10
3007.5
 20
565.6249999999999
 30
0.0
 40
34.375
  1
ＳＦ－７０ＢＭ－２Ｆ型
 41
1.0041805868791
  7
EXCADSTD
100
AcDbText
  0
TEXT
  5
4A5
330
1F
100
AcDbEntity
  8
LAY-255
  6
CONTINUOUS
 62
     7
100
AcDbText
 10
3009.84375
 20
235.6249999999999
 30
0.0
 40
34.375
  1
２０／０８／０３
 41
0.9733971264935065
  7
EXCADSTD
100
AcDbText
  0
TEXT
  5
4A6
330
1F
100
AcDbEntity
  8
LAY-255
  6
CONTINUOUS
 62
     7
100
AcDbText
 10
2892.03125
 20
405.6249999999999
 30
0.0
 40
34.375
  1
適用荷重：Ｔ－２
 41
1.000225024415584
  7
EXCADSTD
100
AcDbText
  0
ENDSEC
  0
SECTION
  2
OBJECTS
  0
DICTIONARY
  5
C
330
0
100
AcDbDictionary
  3
ACAD_GROUP
350
D
  3
ACAD_LAYOUT
350
1A
  3
ACAD_MATERIAL
350
43
  3
ACAD_MLEADERSTYLE
350
6B
  3
ACAD_MLINESTYLE
350
17
  3
ACAD_PLOTSETTINGS
350
19
  3
ACAD_SCALELIST
350
47
  3
ACAD_VISUALSTYLE
350
2A
  3
ACDBHEADERROUNDTRIPXREC
350
4A7
  3
ACDBVARIABLEDICTIONARY
350
4C8
  0
DICTIONARY
  5
4D3
330
8
100
AcDbDictionary
280
     1
  3
ACAD_XREC_ROUNDTRIP
360
4D4
  0
DICTIONARY
  5
D
102
{ACAD_REACTORS
330
C
102
}
330
C
100
AcDbDictionary
  0
DICTIONARY
  5
1A
102
{ACAD_REACTORS
330
C
102
}
330
C
100
AcDbDictionary
  0
DICTIONARY
  5
43
102
{ACAD_REACTORS
330
C
102
}
330
C
100
AcDbDictionary
  3
BYBLOCK
350
45
  3
BYLAYER
350
44
  3
GLOBAL
350
46
  0
DICTIONARY
  5
6B
102
{ACAD_REACTORS
330
C
102
}
330
C
100
AcDbDictionary
  3
STANDARD
350
6C
  0
DICTIONARY
  5
17
102
{ACAD_REACTORS
330
C
102
}
330
C
100
AcDbDictionary
  3
STANDARD
350
18
  0
DICTIONARY
  5
19
102
{ACAD_REACTORS
330
C
102
}
330
C
100
AcDbDictionary
  0
DICTIONARY
  5
47
102
{ACAD_REACTORS
330
C
102
}
330
C
100
AcDbDictionary
  3
A0
350
48
  3
A1
350
49
  3
A2
350
4A
  3
A3
350
4B
  3
A4
350
4C
  3
A5
350
4D
  3
A6
350
4E
  3
A7
350
4F
  3
A8
350
50
  3
A9
350
51
  3
B0
350
52
  3
B1
350
53
  3
B2
350
54
  3
B3
350
55
  3
B4
350
56
  3
B5
350
57
  3
B6
350
58
  3
B7
350
59
  3
B8
350
5A
  3
B9
350
5B
  3
C0
350
5C
  3
C1
350
5D
  3
C2
350
5E
  3
C3
350
5F
  3
C4
350
60
  3
C5
350
61
  3
C6
350
62
  3
C7
350
63
  3
C8
350
64
  3
C9
350
65
  3
D0
350
66
  3
D1
350
67
  3
D2
350
68
  0
DICTIONARY
  5
2A
102
{ACAD_REACTORS
330
C
102
}
330
C
100
AcDbDictionary
  3
2DWIREFRAME
350
2F
  3
BASIC
350
32
  3
BRIGHTEN
350
36
  3
COLORCHANGE
350
3A
  3
CONCEPTUAL
350
34
  3
DIM
350
35
  3
EDGECOLOROFF
350
3D
  3
FACEPATTERN
350
39
  3
FLAT
350
2B
  3
FLATWITHEDGES
350
2C
  3
GOURAUD
350
2D
  3
GOURAUDWITHEDGES
350
2E
  3
HIDDEN
350
31
  3
JITTEROFF
350
3B
  3
LINEPATTERN
350
38
  3
OVERHANGOFF
350
3C
  3
REALISTIC
350
33
  3
SHADED
350
42
  3
SHADED_WITH_EDGES
350
41
  3
SHADES_OF_GRAY
350
3E
  3
SKETCHY
350
3F
  3
THICKEN
350
37
  3
WIREFRAME
350
30
  3
X-RAY
350
40
  0
DICTIONARY
  5
4A7
102
{ACAD_REACTORS
330
C
102
}
330
C
100
AcDbDictionary
  3
CEPSNID
350
4B1
  3
CEPSNTYPE
350
4B0
  3
DIMSTYLEDATA
350
4C7
  3
FINGERPRINTGUID
350
4B2
  3
HYPERLINKBASE
350
4AA
  3
INSUNITS
350
4AF
  3
LAYOUTDICT
350
4AC
  3
LWETCUNION
350
4AE
  3
PLOTSETDICT
350
4AD
  3
PSVPSCALE
350
4B4
  3
PUCSBASE
350
4B7
  3
PUCSORGBACK
350
4BD
  3
PUCSORGBOTTOM
350
4B9
  3
PUCSORGFRONT
350
4BC
  3
PUCSORGLEFT
350
4BA
  3
PUCSORGRIGHT
350
4BB
  3
PUCSORGTOP
350
4B8
  3
PUCSORTHOREF
350
4B5
  3
PUCSORTHOVIEW
350
4B6
  3
STYLESHEET
350
4AB
  3
TSTACKALIGN
350
4A8
  3
TSTACKSIZE
350
4A9
  3
UCSBASE
350
4C0
  3
UCSORGBACK
350
4C6
  3
UCSORGBOTTOM
350
4C2
  3
UCSORGFRONT
350
4C5
  3
UCSORGLEFT
350
4C3
  3
UCSORGRIGHT
350
4C4
  3
UCSORGTOP
350
4C1
  3
UCSORTHOREF
350
4BE
  3
UCSORTHOVIEW
350
4BF
  3
VERSIONGUID
350
4B3
  0
DICTIONARY
  5
4C8
102
{ACAD_REACTORS
330
C
102
}
330
C
100
AcDbDictionary
  3
CANNOSCALE
350
4D5
  3
CENTEREXE
350
4CF
  3
CENTERLTYPEFILE
350
4D0
  3
CMLEADERSTYLE
350
4CA
  3
CTABLESTYLE
350
4C9
  3
DIMASSOC
350
4D1
  3
HIDETEXT
350
4D2
  3
MSLTSCALE
350
4D6
  3
PSOLHEIGHT
350
4CC
  3
PSOLWIDTH
350
4CB
  0
XRECORD
  5
4D4
102
{ACAD_REACTORS
330
4D3
102
}
330
4D3
100
AcDbXrecord
102
VTR_0.000_0.000_1.000_1.000_VISUALSTYLE
340
2F
102
VTR_0.000_0.000_1.000_1.000_GRIDDISPLAY
 70
     3
102
VTR_0.000_0.000_1.000_1.000_GRIDMAJOR
 70
     5
102
VTR_0.000_0.000_1.000_1.000_DEFAULTLIGHTING
280
     1
102
VTR_0.000_0.000_1.000_1.000_DEFAULTLIGHTINGTYPE
 70
     1
102
VTR_0.000_0.000_1.000_1.000_BRIGHTNESS
141
0.0
102
VTR_0.000_0.000_1.000_1.000_CONTRAST
142
0.0
  0
MATERIAL
  5
45
102
{ACAD_REACTORS
330
43
102
}
102
{ACAD_XDICTIONARY
360
4D9
102
}
330
43
100
AcDbMaterial
  1
BYBLOCK
  0
MATERIAL
  5
44
102
{ACAD_REACTORS
330
43
102
}
102
{ACAD_XDICTIONARY
360
4D7
102
}
330
43
100
AcDbMaterial
  1
BYLAYER
  0
MATERIAL
  5
46
102
{ACAD_REACTORS
330
43
102
}
102
{ACAD_XDICTIONARY
360
4DB
102
}
330
43
100
AcDbMaterial
  1
GLOBAL
  0
ACAD_PROXY_OBJECT
  5
6C
102
{ACAD_REACTORS
330
6B
102
}
330
6B
100
AcDbProxyObject
 90
      499
 91
      505
 93
      610
310
40901902A4063FBFFFFFE0000000000000020400000000000020404214DD185B99185C990000000000000104090141901A00000000000004100000000000000041025764000000000000039000
340
14
340
0
340
11
340
0
 94
        0
1001
ACAD_MLEADERVER
1070
     2
  0
MLINESTYLE
  5
18
102
{ACAD_REACTORS
330
17
102
}
330
17
100
AcDbMlineStyle
  2
Standard
 70
     0
  3

 62
   256
 51
90.0
 52
90.0
 71
     2
 49
0.5
 62
   256
  6
BYLAYER
 49
-0.5
 62
   256
  6
BYLAYER
  0
ACAD_PROXY_OBJECT
  5
48
102
{ACAD_REACTORS
330
47
102
}
330
47
100
AcDbProxyObject
 90
      499
 91
      503
 93
       41
310
903313A31580
  0
ACAD_PROXY_OBJECT
  5
49
102
{ACAD_REACTORS
330
47
102
}
330
47
100
AcDbProxyObject
 90
      499
 91
      503
 93
      105
310
903313A324000000000000004000
  0
ACAD_PROXY_OBJECT
  5
4A
102
{ACAD_REACTORS
330
47
102
}
330
47
100
AcDbProxyObject
 90
      499
 91
      503
 93
      105
310
903313A344000000000000104000
  0
ACAD_PROXY_OBJECT
  5
4B
102
{ACAD_REACTORS
330
47
102
}
330
47
100
AcDbProxyObject
 90
      499
 91
      503
 93
      105
310
903313A354000000000000144000
  0
ACAD_PROXY_OBJECT
  5
4C
102
{ACAD_REACTORS
330
47
102
}
330
47
100
AcDbProxyObject
 90
      499
 91
      503
 93
      105
310
903313A384000000000000204000
  0
ACAD_PROXY_OBJECT
  5
4D
102
{ACAD_REACTORS
330
47
102
}
330
47
100
AcDbProxyObject
 90
      499
 91
      503
 93
      113
310
904313A31304000000000000244000
  0
ACAD_PROXY_OBJECT
  5
4E
102
{ACAD_REACTORS
330
47
102
}
330
47
100
AcDbProxyObject
 90
      499
 91
      503
 93
      113
310
904313A31364000000000000304000
  0
ACAD_PROXY_OBJECT
  5
4F
102
{ACAD_REACTORS
330
47
102
}
330
47
100
AcDbProxyObject
 90
      499
 91
      503
 93
      113
310
904313A32304000000000000344000
  0
ACAD_PROXY_OBJECT
  5
50
102
{ACAD_REACTORS
330
47
102
}
330
47
100
AcDbProxyObject
 90
      499
 91
      503
 93
      113
310
904313A333040000000000003E4000
  0
ACAD_PROXY_OBJECT
  5
51
102
{ACAD_REACTORS
330
47
102
}
330
47
100
AcDbProxyObject
 90
      499
 91
      503
 93
      113
310
904313A34304000000000000444000
  0
ACAD_PROXY_OBJECT
  5
52
102
{ACAD_REACTORS
330
47
102
}
330
47
100
AcDbProxyObject
 90
      499
 91
      503
 93
      113
310
904313A35304000000000000494000
  0
ACAD_PROXY_OBJECT
  5
53
102
{ACAD_REACTORS
330
47
102
}
330
47
100
AcDbProxyObject
 90
      499
 91
      503
 93
      121
310
905313A3130304000000000000594000
  0
ACAD_PROXY_OBJECT
  5
54
102
{ACAD_REACTORS
330
47
102
}
330
47
100
AcDbProxyObject
 90
      499
 91
      503
 93
      105
310
903323A310000000000000010100
  0
ACAD_PROXY_OBJECT
  5
55
102
{ACAD_REACTORS
330
47
102
}
330
47
100
AcDbProxyObject
 90
      499
 91
      503
 93
      105
310
903343A310000000000000410100
  0
ACAD_PROXY_OBJECT
  5
56
102
{ACAD_REACTORS
330
47
102
}
330
47
100
AcDbProxyObject
 90
      499
 91
      503
 93
      105
310
903383A310000000000000810100
  0
ACAD_PROXY_OBJECT
  5
57
102
{ACAD_REACTORS
330
47
102
}
330
47
100
AcDbProxyObject
 90
      499
 91
      503
 93
      113
310
90431303A310000000000000910100
  0
ACAD_PROXY_OBJECT
  5
58
102
{ACAD_REACTORS
330
47
102
}
330
47
100
AcDbProxyObject
 90
      499
 91
      503
 93
      121
310
9053130303A310000000000001650100
  0
ACAD_PROXY_OBJECT
  5
59
102
{ACAD_REACTORS
330
47
102
}
330
47
100
AcDbProxyObject
 90
      499
 91
      503
 93
      257
310
90E312F31323822203D2031272D3022000000000000200FC000000000000284000
  0
ACAD_PROXY_OBJECT
  5
5A
102
{ACAD_REACTORS
330
47
102
}
330
47
100
AcDbProxyObject
 90
      499
 91
      503
 93
      249
310
90D312F363422203D2031272D3022000000000000240FC000000000000284000
  0
ACAD_PROXY_OBJECT
  5
5B
102
{ACAD_REACTORS
330
47
102
}
330
47
100
AcDbProxyObject
 90
      499
 91
      503
 93
      249
310
90D312F333222203D2031272D3022000000000000280FC000000000000284000
  0
ACAD_PROXY_OBJECT
  5
5C
102
{ACAD_REACTORS
330
47
102
}
330
47
100
AcDbProxyObject
 90
      499
 91
      503
 93
      249
310
90D312F313622203D2031272D30220000000000002C0FC000000000000284000
  0
ACAD_PROXY_OBJECT
  5
5D
102
{ACAD_REACTORS
330
47
102
}
330
47
100
AcDbProxyObject
 90
      499
 91
      503
 93
      249
310
90D332F333222203D2031272D30220000000000002E0FC000000000000284000
  0
ACAD_PROXY_OBJECT
  5
5E
102
{ACAD_REACTORS
330
47
102
}
330
47
100
AcDbProxyObject
 90
      499
 91
      503
 93
      241
310
90C312F3822203D2031272D3022000000000000300FC000000000000284000
  0
ACAD_PROXY_OBJECT
  5
5F
102
{ACAD_REACTORS
330
47
102
}
330
47
100
AcDbProxyObject
 90
      499
 91
      503
 93
      249
310
90D332F313622203D2031272D3022000000000000320FC000000000000284000
  0
ACAD_PROXY_OBJECT
  5
60
102
{ACAD_REACTORS
330
47
102
}
330
47
100
AcDbProxyObject
 90
      499
 91
      503
 93
      241
310
90C312F3422203D2031272D3022000000000000340FC000000000000284000
  0
ACAD_PROXY_OBJECT
  5
61
102
{ACAD_REACTORS
330
47
102
}
330
47
100
AcDbProxyObject
 90
      499
 91
      503
 93
      241
310
90C332F3822203D2031272D3022000000000000360FC000000000000284000
  0
ACAD_PROXY_OBJECT
  5
62
102
{ACAD_REACTORS
330
47
102
}
330
47
100
AcDbProxyObject
 90
      499
 91
      503
 93
      241
310
90C312F3222203D2031272D3022000000000000380FC000000000000284000
  0
ACAD_PROXY_OBJECT
  5
63
102
{ACAD_REACTORS
330
47
102
}
330
47
100
AcDbProxyObject
 90
      499
 91
      503
 93
      241
310
90C332F3422203D2031272D30220000000000003A0FC000000000000284000
  0
ACAD_PROXY_OBJECT
  5
64
102
{ACAD_REACTORS
330
47
102
}
330
47
100
AcDbProxyObject
 90
      499
 91
      503
 93
      161
310
90A3122203D2031272D30224000000000000284000
  0
ACAD_PROXY_OBJECT
  5
65
102
{ACAD_REACTORS
330
47
102
}
330
47
100
AcDbProxyObject
 90
      499
 91
      503
 93
      257
310
90E312D312F3222203D2031272D30220000000000003E0FC000000000000284000
  0
ACAD_PROXY_OBJECT
  5
66
102
{ACAD_REACTORS
330
47
102
}
330
47
100
AcDbProxyObject
 90
      499
 91
      503
 93
      225
310
90A3322203D2031272D302200000000000002100000000000000284000
  0
ACAD_PROXY_OBJECT
  5
67
102
{ACAD_REACTORS
330
47
102
}
330
47
100
AcDbProxyObject
 90
      499
 91
      503
 93
      225
310
90A3622203D2031272D302200000000000006100000000000000284000
  0
ACAD_PROXY_OBJECT
  5
68
102
{ACAD_REACTORS
330
47
102
}
330
47
100
AcDbProxyObject
 90
      499
 91
      503
 93
      249
310
90D31272D3022203D2031272D30220000000000000A100000000000000284000
  0
ACAD_PROXY_OBJECT
  5
2F
102
{ACAD_REACTORS
330
2A
102
}
330
2A
100
AcDbProxyObject
 90
      499
 91
      501
 93
      436
310
42CC9915DA5C99599C985B595049028333333333333E33F0000000000000F90107901411070040501600405405064090741402480A0340
1001
ACAD
1000
AcDbSavedByObjectVersion
1070
     0
  0
ACAD_PROXY_OBJECT
  5
32
102
{ACAD_REACTORS
330
2A
102
}
330
2A
100
AcDbProxyObject
 90
      499
 91
      501
 93
      388
310
4150985CDA58D07406404333333333333E33F0000000000000F90107A41107004050150841D405064090741402480A0350
1001
ACAD
1000
AcDbSavedByObjectVersion
1070
     0
  0
ACAD_PROXY_OBJECT
  5
36
102
{ACAD_REACTORS
330
2A
102
}
330
2A
100
AcDbProxyObject
 90
      499
 91
      501
 93
      428
310
42109C9A59DA1D195B90C409028333333333333E33F0000000000000F9010790141107004050150841D405064090741402480A029950
1001
ACAD
1000
AcDbSavedByObjectVersion
1070
     0
  0
ACAD_PROXY_OBJECT
  5
3A
102
{ACAD_REACTORS
330
2A
102
}
330
2A
100
AcDbProxyObject
 90
      499
 91
      501
 93
      452
310
42D0DBDB1BDC90DA185B99D95104090240C333333333333E33F0000000000000F90108901411070040501508421405064090741402480A0350
1001
ACAD
1000
AcDbSavedByObjectVersion
1070
     0
  0
ACAD_PROXY_OBJECT
  5
34
102
{ACAD_REACTORS
330
2A
102
}
330
2A
100
AcDbProxyObject
 90
      499
 91
      501
 93
      500
310
4290DBDB98D95C1D1D585B10940D028333333333333E33F0000000000000F90107902409070040501000000000018199010841D405064090740C02480A0340
1001
ACAD
1000
AcDbSavedByObjectVersion
1070
     0
  0
ACAD_PROXY_OBJECT
  5
35
102
{ACAD_REACTORS
330
2A
102
}
330
2A
100
AcDbProxyObject
 90
      499
 91
      501
 93
      412
310
40D11A5B50B409028333333333333E33F0000000000000F9010790141107004050150841D405064090741402480A02677FFFFFD0
1001
ACAD
1000
AcDbSavedByObjectVersion
1070
     0
  0
ACAD_PROXY_OBJECT
  5
3D
102
{ACAD_REACTORS
330
2A
102
}
330
2A
100
AcDbProxyObject
 90
      499
 91
      501
 93
      452
310
43115919D950DBDB1BDC93D999916409028333333333333E33F0000000000000F9010790141107004050150841D405064090741402480A0350
1001
ACAD
1000
AcDbSavedByObjectVersion
1070
     0
  0
ACAD_PROXY_OBJECT
  5
39
102
{ACAD_REACTORS
330
2A
102
}
330
2A
100
AcDbProxyObject
 90
      499
 91
      501
 93
      444
310
42D19858D95C185D1D195C9B90F409028333333333333E33F0000000000000F9010790141107004050150841D405064090741402480A0350
1001
ACAD
1000
AcDbSavedByObjectVersion
1070
     0
  0
ACAD_PROXY_OBJECT
  5
2B
102
{ACAD_REACTORS
330
2A
102
}
330
2A
100
AcDbProxyObject
 90
      499
 91
      501
 93
      380
310
41119B185D240901404333333333333E33F0000000000000F9010740A907004050150841D405064090741402480A1B50
1001
ACAD
1000
AcDbSavedByObjectVersion
1070
     0
  0
ACAD_PROXY_OBJECT
  5
2C
102
{ACAD_REACTORS
330
2A
102
}
330
2A
100
AcDbProxyObject
 90
      499
 91
      501
 93
      468
310
43519B185D15DA5D1A115919D95CD0140901404333333333333E33F0000000000000F90107409019070040501600405405064090741402480A1B50
1001
ACAD
1000
AcDbSavedByObjectVersion
1070
     0
  0
ACAD_PROXY_OBJECT
  5
2D
102
{ACAD_REACTORS
330
2A
102
}
330
2A
100
AcDbProxyObject
 90
      499
 91
      501
 93
      404
310
41D1DBDD5C985D5910240902404333333333333E33F0000000000000F9010740A9070040501641D405064090741402480A1B50
1001
ACAD
1000
AcDbSavedByObjectVersion
1070
     0
  0
ACAD_PROXY_OBJECT
  5
2E
102
{ACAD_REACTORS
330
2A
102
}
330
2A
100
AcDbProxyObject
 90
      499
 91
      501
 93
      492
310
4411DBDD5C985D5915DA5D1A115919D95CD0340902404333333333333E33F0000000000000F90107409019070040501600405405064090741402480A1B50
1001
ACAD
1000
AcDbSavedByObjectVersion
1070
     0
  0
ACAD_PROXY_OBJECT
  5
31
102
{ACAD_REACTORS
330
2A
102
}
330
2A
100
AcDbProxyObject
 90
      499
 91
      501
 93
      476
310
41921A5919195B90640502408333333333333E33F0000000000000F901079024090700405020000000000001110200405405064090740C02480A0340
1001
ACAD
1000
AcDbSavedByObjectVersion
1070
     0
  0
ACAD_PROXY_OBJECT
  5
3B
102
{ACAD_REACTORS
330
2A
102
}
330
2A
100
AcDbProxyObject
 90
      499
 91
      501
 93
      428
310
42529A5D1D195C93D999914409028333333333333E33F0000000000000F9010790141107004050150A41D405064090741402480A0350
1001
ACAD
1000
AcDbSavedByObjectVersion
1070
     0
  0
ACAD_PROXY_OBJECT
  5
38
102
{ACAD_REACTORS
330
2A
102
}
330
2A
100
AcDbProxyObject
 90
      499
 91
      501
 93
      444
310
42D31A5B995C185D1D195C9B90E409028333333333333E33F0000000000000F9010790141107004050750841D405064090741402483A0350
1001
ACAD
1000
AcDbSavedByObjectVersion
1070
     0
  0
ACAD_PROXY_OBJECT
  5
3C
102
{ACAD_REACTORS
330
2A
102
}
330
2A
100
AcDbProxyObject
 90
      499
 91
      501
 93
      444
310
42D3DD995C9A185B99D3D999915409028333333333333E33F0000000000000F9010790141107004050150941D405064090741402480A0350
1001
ACAD
1000
AcDbSavedByObjectVersion
1070
     0
  0
ACAD_PROXY_OBJECT
  5
33
102
{ACAD_REACTORS
330
2A
102
}
330
2A
100
AcDbProxyObject
 90
      499
 91
      501
 93
      428
310
425499585B1A5CDD1A58D08409038333333333333E33F0000000000000F9010740A907004050150800405405064090740C02480A1B40
1001
ACAD
1000
AcDbSavedByObjectVersion
1070
     0
  0
ACAD_PROXY_OBJECT
  5
42
102
{ACAD_REACTORS
330
2A
102
}
330
2A
100
AcDbProxyObject
 90
      499
 91
      501
 93
      420
310
4194DA1859195911B40902404333333333333E33F0000000000000F9010740A41107004050150800405405064090840C02480A0B40
1001
ACAD
1000
AcDbSavedByObjectVersion
1070
     0
  0
ACAD_PROXY_OBJECT
  5
41
102
{ACAD_REACTORS
330
2A
102
}
330
2A
100
AcDbProxyObject
 90
      499
 91
      501
 93
      516
310
4454DA18591959081DDA5D1A08195919D95CD1A40902404333333333333E33F0000000000000F901074090142907004050250800405405064090740C02480A0B40
1001
ACAD
1000
AcDbSavedByObjectVersion
1070
     0
  0
ACAD_PROXY_OBJECT
  5
3E
102
{ACAD_REACTORS
330
2A
102
}
330
2A
100
AcDbProxyObject
 90
      499
 91
      501
 93
      532
310
4394DA1859195CC81BD98811DC985E5174090240C333333333333E33F0000000000000F901079024090741D01000000000000111010841D405064090740C02480A0340
1001
ACAD
1000
AcDbSavedByObjectVersion
1070
     0
  0
ACAD_PROXY_OBJECT
  5
3F
102
{ACAD_REACTORS
330
2A
102
}
330
2A
100
AcDbProxyObject
 90
      499
 91
      501
 93
      476
310
41D4DAD95D18DA1E51840502408333333333333E33F0000000000000F901079024090741D01000000000000111010B41D405064090741802480A0340
1001
ACAD
1000
AcDbSavedByObjectVersion
1070
     0
  0
ACAD_PROXY_OBJECT
  5
37
102
{ACAD_REACTORS
330
2A
102
}
330
2A
100
AcDbProxyObject
 90
      499
 91
      501
 93
      412
310
41D51A1A58DAD95B90D409028333333333333E33F0000000000000F9010790141107004050150C41D405064090741402480A0350
1001
ACAD
1000
AcDbSavedByObjectVersion
1070
     0
  0
ACAD_PROXY_OBJECT
  5
30
102
{ACAD_REACTORS
330
2A
102
}
330
2A
100
AcDbProxyObject
 90
      499
 91
      501
 93
      420
310
4255DA5C99599C985B595059028333333333333E33F0000000000000F90107901411070040501600405405064090740C02480A0340
1001
ACAD
1000
AcDbSavedByObjectVersion
1070
     0
  0
ACAD_PROXY_OBJECT
  5
40
102
{ACAD_REACTORS
330
2A
102
}
330
2A
100
AcDbProxyObject
 90
      499
 91
      501
 93
      404
310
41560B54985E51940902404000000000000E03F0000000000000F9010740501907004050150841D405064090740C02480A1B40
1001
ACAD
1000
AcDbSavedByObjectVersion
1070
     0
  0
XRECORD
  5
4B1
102
{ACAD_REACTORS
330
4A7
102
}
330
4A7
100
AcDbXrecord
340
0
  0
XRECORD
  5
4B0
102
{ACAD_REACTORS
330
4A7
102
}
330
4A7
100
AcDbXrecord
 90
        0
  0
XRECORD
  5
4C7
102
{ACAD_REACTORS
330
4A7
102
}
330
4A7
100
AcDbXrecord
1000
DSTYLE
1002
{
1070
   340
340
11
1002
}
  0
XRECORD
  5
4B2
102
{ACAD_REACTORS
330
4A7
102
}
330
4A7
100
AcDbXrecord
  1
{b37a4ea8-f651-4eda-af34-2b8aca99fe74}
  0
XRECORD
  5
4AA
102
{ACAD_REACTORS
330
4A7
102
}
330
4A7
100
AcDbXrecord
  1

  0
XRECORD
  5
4AF
102
{ACAD_REACTORS
330
4A7
102
}
330
4A7
100
AcDbXrecord
 90
        4
  0
XRECORD
  5
4AC
102
{ACAD_REACTORS
330
4A7
102
}
330
4A7
100
AcDbXrecord
340
1A
  0
XRECORD
  5
4AE
102
{ACAD_REACTORS
330
4A7
102
}
330
4A7
100
AcDbXrecord
 90
    10781
  0
XRECORD
  5
4AD
102
{ACAD_REACTORS
330
4A7
102
}
330
4A7
100
AcDbXrecord
340
19
  0
XRECORD
  5
4B4
102
{ACAD_REACTORS
330
4A7
102
}
330
4A7
100
AcDbXrecord
 40
0.0
  0
XRECORD
  5
4B7
102
{ACAD_REACTORS
330
4A7
102
}
330
4A7
100
AcDbXrecord
340
0
  0
XRECORD
  5
4BD
102
{ACAD_REACTORS
330
4A7
102
}
330
4A7
100
AcDbXrecord
 10
0.0
 20
0.0
 30
0.0
  0
XRECORD
  5
4B9
102
{ACAD_REACTORS
330
4A7
102
}
330
4A7
100
AcDbXrecord
 10
0.0
 20
0.0
 30
0.0
  0
XRECORD
  5
4BC
102
{ACAD_REACTORS
330
4A7
102
}
330
4A7
100
AcDbXrecord
 10
0.0
 20
0.0
 30
0.0
  0
XRECORD
  5
4BA
102
{ACAD_REACTORS
330
4A7
102
}
330
4A7
100
AcDbXrecord
 10
0.0
 20
0.0
 30
0.0
  0
XRECORD
  5
4BB
102
{ACAD_REACTORS
330
4A7
102
}
330
4A7
100
AcDbXrecord
 10
0.0
 20
0.0
 30
0.0
  0
XRECORD
  5
4B8
102
{ACAD_REACTORS
330
4A7
102
}
330
4A7
100
AcDbXrecord
 10
0.0
 20
0.0
 30
0.0
  0
XRECORD
  5
4B5
102
{ACAD_REACTORS
330
4A7
102
}
330
4A7
100
AcDbXrecord
340
0
  0
XRECORD
  5
4B6
102
{ACAD_REACTORS
330
4A7
102
}
330
4A7
100
AcDbXrecord
 70
     0
  0
XRECORD
  5
4AB
102
{ACAD_REACTORS
330
4A7
102
}
330
4A7
100
AcDbXrecord
  1

  0
XRECORD
  5
4A8
102
{ACAD_REACTORS
330
4A7
102
}
330
4A7
100
AcDbXrecord
 90
        1
  0
XRECORD
  5
4A9
102
{ACAD_REACTORS
330
4A7
102
}
330
4A7
100
AcDbXrecord
 90
       70
  0
XRECORD
  5
4C0
102
{ACAD_REACTORS
330
4A7
102
}
330
4A7
100
AcDbXrecord
340
0
  0
XRECORD
  5
4C6
102
{ACAD_REACTORS
330
4A7
102
}
330
4A7
100
AcDbXrecord
 10
0.0
 20
0.0
 30
0.0
  0
XRECORD
  5
4C2
102
{ACAD_REACTORS
330
4A7
102
}
330
4A7
100
AcDbXrecord
 10
0.0
 20
0.0
 30
0.0
  0
XRECORD
  5
4C5
102
{ACAD_REACTORS
330
4A7
102
}
330
4A7
100
AcDbXrecord
 10
0.0
 20
0.0
 30
0.0
  0
XRECORD
  5
4C3
102
{ACAD_REACTORS
330
4A7
102
}
330
4A7
100
AcDbXrecord
 10
0.0
 20
0.0
 30
0.0
  0
XRECORD
  5
4C4
102
{ACAD_REACTORS
330
4A7
102
}
330
4A7
100
AcDbXrecord
 10
0.0
 20
0.0
 30
0.0
  0
XRECORD
  5
4C1
102
{ACAD_REACTORS
330
4A7
102
}
330
4A7
100
AcDbXrecord
 10
0.0
 20
0.0
 30
0.0
  0
XRECORD
  5
4BE
102
{ACAD_REACTORS
330
4A7
102
}
330
4A7
100
AcDbXrecord
340
0
  0
XRECORD
  5
4BF
102
{ACAD_REACTORS
330
4A7
102
}
330
4A7
100
AcDbXrecord
 70
     0
  0
XRECORD
  5
4B3
102
{ACAD_REACTORS
330
4A7
102
}
330
4A7
100
AcDbXrecord
  1
{FAEB1C32-E019-11D5-929B-00C0DF256EC4}
  0
DICTIONARYVAR
  5
4D5
102
{ACAD_REACTORS
330
4C8
102
}
330
4C8
100
DictionaryVariables
280
     0
  1
1:1
  0
DICTIONARYVAR
  5
4CF
102
{ACAD_REACTORS
330
4C8
102
}
330
4C8
100
DictionaryVariables
280
     0
  1
3.500000
  0
DICTIONARYVAR
  5
4D0
102
{ACAD_REACTORS
330
4C8
102
}
330
4C8
100
DictionaryVariables
280
     0
  1
acadiso.lin
  0
DICTIONARYVAR
  5
4CA
102
{ACAD_REACTORS
330
4C8
102
}
330
4C8
100
DictionaryVariables
280
     0
  1
Standard
  0
DICTIONARYVAR
  5
4C9
102
{ACAD_REACTORS
330
4C8
102
}
330
4C8
100
DictionaryVariables
280
     0
  1
Standard
  0
DICTIONARYVAR
  5
4D1
102
{ACAD_REACTORS
330
4C8
102
}
330
4C8
100
DictionaryVariables
280
     0
  1
2
  0
DICTIONARYVAR
  5
4D2
102
{ACAD_REACTORS
330
4C8
102
}
330
4C8
100
DictionaryVariables
280
     0
  1
1
  0
DICTIONARYVAR
  5
4D6
102
{ACAD_REACTORS
330
4C8
102
}
330
4C8
100
DictionaryVariables
280
     0
  1
1
  0
DICTIONARYVAR
  5
4CC
102
{ACAD_REACTORS
330
4C8
102
}
330
4C8
100
DictionaryVariables
280
     0
  1
80.000000
  0
DICTIONARYVAR
  5
4CB
102
{ACAD_REACTORS
330
4C8
102
}
330
4C8
100
DictionaryVariables
280
     0
  1
5.000000
  0
DICTIONARY
  5
4D9
330
45
100
AcDbDictionary
280
     1
  3
ACAD_XREC_ROUNDTRIP
360
4DA
  0
DICTIONARY
  5
4D7
330
44
100
AcDbDictionary
280
     1
  3
ACAD_XREC_ROUNDTRIP
360
4D8
  0
DICTIONARY
  5
4DB
330
46
100
AcDbDictionary
280
     1
  3
ACAD_XREC_ROUNDTRIP
360
4DC
  0
XRECORD
  5
4DA
102
{ACAD_REACTORS
330
4D9
102
}
330
4D9
100
AcDbXrecord
102
MATERIAL
148
0.0
149
0.0
149
0.0
 93
        0
 94
      127
282
     0
 72
     1
 77
     1
171
     1
175
     1
179
     1
273
     0
  0
XRECORD
  5
4D8
102
{ACAD_REACTORS
330
4D7
102
}
330
4D7
100
AcDbXrecord
102
MATERIAL
148
0.0
149
0.0
149
0.0
 93
        0
 94
      127
282
     0
 72
     1
 77
     1
171
     1
175
     1
179
     1
273
     0
  0
XRECORD
  5
4DC
102
{ACAD_REACTORS
330
4DB
102
}
330
4DB
100
AcDbXrecord
102
MATERIAL
148
0.0
149
0.0
149
0.0
 93
        0
 94
      127
282
     0
 72
     1
 77
     1
171
     1
175
     1
179
     1
273
     0
  0
ENDSEC
  0
EOF
