  0
SECTION
  2
HEADER
  9
$ACADVER
  1
AC1014
  9
$ACADMAINTVER
 70
     9
  9
$DWGCODEPAGE
  3
ANSI_932
  9
$INSBASE
 10
0.0
 20
0.0
 30
0.0
  9
$EXTMIN
 10
50.0
 20
100.0
 30
0.0
  9
$EXTMAX
 10
3850.0
 20
2800.0
 30
0.0
  9
$LIMMIN
 10
0.0
 20
0.0
  9
$LIMMAX
 10
420.0
 20
297.0
  9
$ORTHOMODE
 70
     0
  9
$REGENMODE
 70
     1
  9
$FILLMODE
 70
     1
  9
$QTEXTMODE
 70
     0
  9
$MIRRTEXT
 70
     1
  9
$DRAGMODE
 70
     2
  9
$LTSCALE
 40
0.2
  9
$OSMODE
 70
    37
  9
$ATTMODE
 70
     1
  9
$TEXTSIZE
 40
2.5
  9
$TRACEWID
 40
1.0
  9
$TEXTSTYLE
  7
STANDARD
  9
$CLAYER
  8
LAY-10
  9
$CELTYPE
  6
BYLAYER
  9
$CECOLOR
 62
   256
  9
$CELTSCALE
 40
1.0
  9
$DELOBJ
 70
     1
  9
$DISPSILH
 70
     0
  9
$DIMSCALE
 40
1.0
  9
$DIMASZ
 40
2.5
  9
$DIMEXO
 40
0.625
  9
$DIMDLI
 40
3.75
  9
$DIMRND
 40
0.0
  9
$DIMDLE
 40
0.0
  9
$DIMEXE
 40
1.25
  9
$DIMTP
 40
0.0
  9
$DIMTM
 40
0.0
  9
$DIMTXT
 40
2.5
  9
$DIMCEN
 40
2.5
  9
$DIMTSZ
 40
0.0
  9
$DIMTOL
 70
     0
  9
$DIMLIM
 70
     0
  9
$DIMTIH
 70
     0
  9
$DIMTOH
 70
     0
  9
$DIMSE1
 70
     0
  9
$DIMSE2
 70
     0
  9
$DIMTAD
 70
     1
  9
$DIMZIN
 70
     8
  9
$DIMBLK
  1

  9
$DIMASO
 70
     1
  9
$DIMSHO
 70
     1
  9
$DIMPOST
  1

  9
$DIMAPOST
  1

  9
$DIMALT
 70
     0
  9
$DIMALTD
 70
     3
  9
$DIMALTF
 40
0.03937007874016
  9
$DIMLFAC
 40
1.0
  9
$DIMTOFL
 70
     1
  9
$DIMTVP
 40
0.0
  9
$DIMTIX
 70
     0
  9
$DIMSOXD
 70
     0
  9
$DIMSAH
 70
     0
  9
$DIMBLK1
  1

  9
$DIMBLK2
  1

  9
$DIMSTYLE
  2
ISO-25
  9
$DIMCLRD
 70
     0
  9
$DIMCLRE
 70
     0
  9
$DIMCLRT
 70
     0
  9
$DIMTFAC
 40
1.0
  9
$DIMGAP
 40
0.625
  9
$DIMJUST
 70
     0
  9
$DIMSD1
 70
     0
  9
$DIMSD2
 70
     0
  9
$DIMTOLJ
 70
     0
  9
$DIMTZIN
 70
     8
  9
$DIMALTZ
 70
     0
  9
$DIMALTTZ
 70
     0
  9
$DIMFIT
 70
     3
  9
$DIMUPT
 70
     0
  9
$DIMUNIT
 70
     2
  9
$DIMDEC
 70
     2
  9
$DIMTDEC
 70
     2
  9
$DIMALTU
 70
     2
  9
$DIMALTTD
 70
     3
  9
$DIMTXSTY
  7
STANDARD
  9
$DIMAUNIT
 70
     0
  9
$LUNITS
 70
     2
  9
$LUPREC
 70
     4
  9
$SKETCHINC
 40
1.0
  9
$FILLETRAD
 40
10.0
  9
$AUNITS
 70
     0
  9
$AUPREC
 70
     0
  9
$MENU
  1
.
  9
$ELEVATION
 40
0.0
  9
$PELEVATION
 40
0.0
  9
$THICKNESS
 40
0.0
  9
$LIMCHECK
 70
     0
  9
$CHAMFERA
 40
0.0
  9
$CHAMFERB
 40
0.0
  9
$CHAMFERC
 40
0.0
  9
$CHAMFERD
 40
0.0
  9
$SKPOLY
 70
     0
  9
$TDCREATE
 40
2459229.3330925
  9
$TDUPDATE
 40
2459229.333093322
  9
$TDINDWG
 40
0.0000000116
  9
$TDUSRTIMER
 40
0.0000000116
  9
$USRTIMER
 70
     1
  9
$ANGBASE
 50
0.0
  9
$ANGDIR
 70
     0
  9
$PDMODE
 70
     0
  9
$PDSIZE
 40
0.0
  9
$PLINEWID
 40
0.0
  9
$COORDS
 70
     1
  9
$SPLFRAME
 70
     0
  9
$SPLINETYPE
 70
     6
  9
$SPLINESEGS
 70
     8
  9
$ATTDIA
 70
     0
  9
$ATTREQ
 70
     1
  9
$HANDLING
 70
     1
  9
$HANDSEED
  5
6D5
  9
$SURFTAB1
 70
     6
  9
$SURFTAB2
 70
     6
  9
$SURFTYPE
 70
     6
  9
$SURFU
 70
     6
  9
$SURFV
 70
     6
  9
$UCSNAME
  2

  9
$UCSORG
 10
0.0
 20
0.0
 30
0.0
  9
$UCSXDIR
 10
1.0
 20
0.0
 30
0.0
  9
$UCSYDIR
 10
0.0
 20
1.0
 30
0.0
  9
$PUCSNAME
  2

  9
$PUCSORG
 10
0.0
 20
0.0
 30
0.0
  9
$PUCSXDIR
 10
1.0
 20
0.0
 30
0.0
  9
$PUCSYDIR
 10
0.0
 20
1.0
 30
0.0
  9
$USERI1
 70
     0
  9
$USERI2
 70
     0
  9
$USERI3
 70
     0
  9
$USERI4
 70
     0
  9
$USERI5
 70
     0
  9
$USERR1
 40
0.0
  9
$USERR2
 40
0.0
  9
$USERR3
 40
0.0
  9
$USERR4
 40
0.0
  9
$USERR5
 40
0.0
  9
$WORLDVIEW
 70
     1
  9
$SHADEDGE
 70
     3
  9
$SHADEDIF
 70
    70
  9
$TILEMODE
 70
     1
  9
$MAXACTVP
 70
    64
  9
$PINSBASE
 10
0.0
 20
0.0
 30
0.0
  9
$PLIMCHECK
 70
     0
  9
$PEXTMIN
 10
1.000000000000000E+20
 20
1.000000000000000E+20
 30
1.000000000000000E+20
  9
$PEXTMAX
 10
-1.000000000000000E+20
 20
-1.000000000000000E+20
 30
-1.000000000000000E+20
  9
$PLIMMIN
 10
0.0
 20
0.0
  9
$PLIMMAX
 10
420.0
 20
297.0
  9
$UNITMODE
 70
     0
  9
$VISRETAIN
 70
     1
  9
$PLINEGEN
 70
     0
  9
$PSLTSCALE
 70
     1
  9
$TREEDEPTH
 70
  3020
  9
$PICKSTYLE
 70
     1
  9
$CMLSTYLE
  2
STANDARD
  9
$CMLJUST
 70
     0
  9
$CMLSCALE
 40
20.0
  9
$PROXYGRAPHICS
 70
     1
  9
$MEASUREMENT
 70
     1
  0
ENDSEC
  0
SECTION
  2
CLASSES
  0
CLASS
  1
ACDBDICTIONARYWDFLT
  2
AcDbDictionaryWithDefault
  3
ObjectDBX Classes
 90
        0
280
     0
281
     0
  0
CLASS
  1
VISUALSTYLE
  2
AcDbVisualStyle
  3
ObjectDBX Classes
 90
     4095
280
     0
281
     0
  0
CLASS
  1
MATERIAL
  2
AcDbMaterial
  3
ObjectDBX Classes
 90
     1153
280
     0
281
     0
  0
CLASS
  1
SCALE
  2
AcDbScale
  3
ObjectDBX Classes
 90
     1153
280
     0
281
     0
  0
CLASS
  1
TABLESTYLE
  2
AcDbTableStyle
  3
ObjectDBX Classes
 90
     4095
280
     0
281
     0
  0
CLASS
  1
MLEADERSTYLE
  2
AcDbMLeaderStyle
  3
ACDB_MLEADERSTYLE_CLASS
 90
     4095
280
     0
281
     0
  0
CLASS
  1
SUN
  2
AcDbSun
  3
SCENEOE
 90
     1153
280
     0
281
     0
  0
CLASS
  1
DICTIONARYVAR
  2
AcDbDictionaryVar
  3
ObjectDBX Classes
 90
        0
280
     0
281
     0
  0
CLASS
  1
XRECORD
  2
AcDbXrecord
  3
ObjectDBX Classes
 90
        0
280
     0
281
     0
  0
CLASS
  1
LWPOLYLINE
  2
AcDbPolyline
  3
ObjectDBX Classes
 90
        0
280
     0
281
     1
  0
CLASS
  1
HATCH
  2
AcDbHatch
  3
ObjectDBX Classes
 90
        0
280
     0
281
     1
  0
CLASS
  1
ACDBPLACEHOLDER
  2
AcDbPlaceHolder
  3
ObjectDBX Classes
 90
        0
280
     0
281
     0
  0
CLASS
  1
LAYOUT
  2
AcDbLayout
  3
ObjectDBX Classes
 90
        0
280
     0
281
     0
  0
ENDSEC
  0
SECTION
  2
TABLES
  0
TABLE
  2
VPORT
  5
8
102
{ACAD_XDICTIONARY
360
6CA
102
}
330
0
100
AcDbSymbolTable
 70
     1
  0
VPORT
  5
29
330
8
100
AcDbSymbolTableRecord
100
AcDbViewportTableRecord
  2
*ACTIVE
 70
     0
 10
0.0
 20
0.0
 11
1.0
 21
1.0
 12
1950.0
 22
1450.0
 13
0.0
 23
0.0
 14
10.0
 24
10.0
 15
10.0
 25
10.0
 16
0.0
 26
0.0
 36
1.0
 17
0.0
 27
0.0
 37
0.0
 40
2700.0
 41
1.407407407407408
 42
50.0
 43
0.0
 44
0.0
 50
0.0
 51
0.0
 71
     0
 72
  1000
 73
     1
 74
     3
 75
     0
 76
     0
 77
     0
 78
     0
  0
ENDTAB
  0
TABLE
  2
LTYPE
  5
5
330
0
100
AcDbSymbolTable
 70
     6
  0
LTYPE
  5
14
330
5
100
AcDbSymbolTableRecord
100
AcDbLinetypeTableRecord
  2
BYBLOCK
 70
     0
  3

 72
    65
 73
     0
 40
0.0
  0
LTYPE
  5
15
330
5
100
AcDbSymbolTableRecord
100
AcDbLinetypeTableRecord
  2
BYLAYER
 70
     0
  3

 72
    65
 73
     0
 40
0.0
  0
LTYPE
  5
16
330
5
100
AcDbSymbolTableRecord
100
AcDbLinetypeTableRecord
  2
CONTINUOUS
 70
     0
  3
Solid line
 72
    65
 73
     0
 40
0.0
  0
LTYPE
  5
6E
330
5
100
AcDbSymbolTableRecord
100
AcDbLinetypeTableRecord
  2
HIDDEN
 70
     0
  3
Hidden __ __ __ __ __ __ __ __ __ __ __ __ __ __
 72
    65
 73
     2
 40
9.524999999999999
 49
6.35
 74
     0
 49
-3.175
 74
     0
  0
LTYPE
  5
6F
330
5
100
AcDbSymbolTableRecord
100
AcDbLinetypeTableRecord
  2
CENTER
 70
     0
  3
Center ____ _ ____ _ ____ _ ____ _ ____ _ ____
 72
    65
 73
     4
 40
50.8
 49
31.75
 74
     0
 49
-6.35
 74
     0
 49
6.35
 74
     0
 49
-6.35
 74
     0
  0
LTYPE
  5
70
330
5
100
AcDbSymbolTableRecord
100
AcDbLinetypeTableRecord
  2
PHANTOM
 70
     0
  3
Phantom ______  __  __  ______  __  __  ______ 
 72
    65
 73
     6
 40
63.50000000000001
 49
31.75
 74
     0
 49
-6.35
 74
     0
 49
6.35
 74
     0
 49
-6.35
 74
     0
 49
6.35
 74
     0
 49
-6.35
 74
     0
  0
LTYPE
  5
71
330
5
100
AcDbSymbolTableRecord
100
AcDbLinetypeTableRecord
  2
ACAD_ISO06W100
 70
     0
  3
ISO long-dash triple-dot ____ ... ____ ... ____
 72
    65
 73
     8
 40
36.0
 49
24.0
 74
     0
 49
-3.0
 74
     0
 49
0.0
 74
     0
 49
-3.0
 74
     0
 49
0.0
 74
     0
 49
-3.0
 74
     0
 49
0.0
 74
     0
 49
-3.0
 74
     0
  0
LTYPE
  5
72
330
5
100
AcDbSymbolTableRecord
100
AcDbLinetypeTableRecord
  2
ACAD_ISO15W100
 70
     0
  3
ISO double-dash triple-dot __ __ . . . __ __ . .
 72
    65
 73
    10
 40
39.0
 49
12.0
 74
     0
 49
-3.0
 74
     0
 49
12.0
 74
     0
 49
-3.0
 74
     0
 49
0.0
 74
     0
 49
-3.0
 74
     0
 49
0.0
 74
     0
 49
-3.0
 74
     0
 49
0.0
 74
     0
 49
-3.0
 74
     0
  0
ENDTAB
  0
TABLE
  2
LAYER
  5
2
330
0
100
AcDbSymbolTable
 70
     6
  0
LAYER
  5
10
330
2
100
AcDbSymbolTableRecord
100
AcDbLayerTableRecord
  2
0
 70
     0
 62
     7
  6
CONTINUOUS
  0
LAYER
  5
75
330
2
100
AcDbSymbolTableRecord
100
AcDbLayerTableRecord
  2
LAY-10
 70
     0
 62
     7
  6
CONTINUOUS
  0
LAYER
  5
76
330
2
100
AcDbSymbolTableRecord
100
AcDbLayerTableRecord
  2
LAY-11
 70
     0
 62
     7
  6
CONTINUOUS
  0
LAYER
  5
77
330
2
100
AcDbSymbolTableRecord
100
AcDbLayerTableRecord
  2
LAY-20
 70
     0
 62
     7
  6
CONTINUOUS
  0
LAYER
  5
78
330
2
100
AcDbSymbolTableRecord
100
AcDbLayerTableRecord
  2
LAY-255
 70
     0
 62
     7
  6
CONTINUOUS
  0
LAYER
  5
5F2
330
2
100
AcDbSymbolTableRecord
100
AcDbLayerTableRecord
  2
DEFPOINTS
 70
     0
 62
     7
  6
CONTINUOUS
  0
ENDTAB
  0
TABLE
  2
STYLE
  5
3
330
0
100
AcDbSymbolTable
 70
     4
  0
STYLE
  5
11
330
3
100
AcDbSymbolTableRecord
100
AcDbTextStyleTableRecord
  2
STANDARD
 70
     0
 40
0.0
 41
1.0
 50
0.0
 71
     0
 42
2.5
  3
simplex
  4
bigfont
  0
STYLE
  5
73
330
3
100
AcDbSymbolTableRecord
100
AcDbTextStyleTableRecord
  2
EXCADSTD
 70
     0
 40
0.0
 41
1.0
 50
0.0
 71
     0
 42
2.5
  3
simplex
  4
bigfont
  0
STYLE
  5
74
330
3
100
AcDbSymbolTableRecord
100
AcDbTextStyleTableRecord
  2
EXCADVERT
 70
     4
 40
0.0
 41
1.0
 50
0.0
 71
     0
 42
2.5
  3
simplex
  4
bigfont
  0
STYLE
  5
5F0
330
3
100
AcDbSymbolTableRecord
100
AcDbTextStyleTableRecord
  2
EXCADDIM1
 70
     0
 40
0.0
 41
0.84
 50
0.0
 71
     0
 42
2.5
  3
simplex
  4
bigfont
  0
ENDTAB
  0
TABLE
  2
VIEW
  5
6
330
0
100
AcDbSymbolTable
 70
     0
  0
ENDTAB
  0
TABLE
  2
UCS
  5
7
330
0
100
AcDbSymbolTable
 70
     0
  0
ENDTAB
  0
TABLE
  2
APPID
  5
9
330
0
100
AcDbSymbolTable
 70
     2
  0
APPID
  5
12
330
9
100
AcDbSymbolTableRecord
100
AcDbRegAppTableRecord
  2
ACAD
 70
     0
  0
APPID
  5
6D4
330
9
100
AcDbSymbolTableRecord
100
AcDbRegAppTableRecord
  2
ACAD_MLEADERVER
 70
     0
  0
ENDTAB
  0
TABLE
  2
DIMSTYLE
  5
A
330
0
100
AcDbSymbolTable
 70
     1
  0
DIMSTYLE
105
27
102
{ACAD_REACTORS
330
5F1
330
5FF
330
60C
330
619
330
626
330
634
330
641
330
64E
330
65B
330
668
102
}
330
A
100
AcDbSymbolTableRecord
100
AcDbDimStyleTableRecord
  2
ISO-25
 70
     0
  3

  4

  5

  6

  7

 40
1.0
 41
2.5
 42
0.625
 43
3.75
 44
1.25
 45
0.0
 46
0.0
 47
0.0
 48
0.0
140
2.5
141
2.5
142
0.0
143
0.03937007874016
144
1.0
145
0.0
146
1.0
147
0.625
 71
     0
 72
     0
 73
     0
 74
     0
 75
     0
 76
     0
 77
     1
 78
     8
170
     0
171
     3
172
     1
173
     0
174
     0
175
     0
176
     0
177
     0
178
     0
270
     2
271
     2
272
     2
273
     2
274
     3
340
11
275
     0
280
     0
281
     0
282
     0
283
     0
284
     8
285
     0
286
     0
287
     5
288
     0
  0
ENDTAB
  0
TABLE
  2
BLOCK_RECORD
  5
1
330
0
100
AcDbSymbolTable
 70
    24
  0
BLOCK_RECORD
  5
1F
330
1
100
AcDbSymbolTableRecord
100
AcDbBlockTableRecord
  2
*MODEL_SPACE
  0
BLOCK_RECORD
  5
1B
330
1
100
AcDbSymbolTableRecord
100
AcDbBlockTableRecord
  2
*PAPER_SPACE
  0
BLOCK_RECORD
  5
79
330
1
100
AcDbSymbolTableRecord
100
AcDbBlockTableRecord
  2
EX_NORM
  0
BLOCK_RECORD
  5
7C
330
1
100
AcDbSymbolTableRecord
100
AcDbBlockTableRecord
  2
EX_BNORM
  0
BLOCK_RECORD
  5
7F
330
1
100
AcDbSymbolTableRecord
100
AcDbBlockTableRecord
  2
EX_BCIR
  0
BLOCK_RECORD
  5
82
330
1
100
AcDbSymbolTableRecord
100
AcDbBlockTableRecord
  2
EX_RCIVIL
  0
BLOCK_RECORD
  5
85
330
1
100
AcDbSymbolTableRecord
100
AcDbBlockTableRecord
  2
EX_SLANT
  0
BLOCK_RECORD
  5
88
330
1
100
AcDbSymbolTableRecord
100
AcDbBlockTableRecord
  2
EX_NONE
  0
BLOCK_RECORD
  5
8B
330
1
100
AcDbSymbolTableRecord
100
AcDbBlockTableRecord
  2
EX_CIVIL
  0
BLOCK_RECORD
  5
8E
330
1
100
AcDbSymbolTableRecord
100
AcDbBlockTableRecord
  2
EX_WCIR
  0
BLOCK_RECORD
  5
91
330
1
100
AcDbSymbolTableRecord
100
AcDbBlockTableRecord
  2
EX_WCIR2
  0
BLOCK_RECORD
  5
94
330
1
100
AcDbSymbolTableRecord
100
AcDbBlockTableRecord
  2
EX_WNORM
  0
BLOCK_RECORD
  5
97
330
1
100
AcDbSymbolTableRecord
100
AcDbBlockTableRecord
  2
EX_NNORM
  0
BLOCK_RECORD
  5
9A
330
1
100
AcDbSymbolTableRecord
100
AcDbBlockTableRecord
  2
EX_BBOX
  0
BLOCK_RECORD
  5
9D
330
1
100
AcDbSymbolTableRecord
100
AcDbBlockTableRecord
  2
EX_WBOX
  0
BLOCK_RECORD
  5
A0
330
1
100
AcDbSymbolTableRecord
100
AcDbBlockTableRecord
  2
EX_INTEGRAL
  0
BLOCK_RECORD
  5
5F3
330
1
100
AcDbSymbolTableRecord
100
AcDbBlockTableRecord
  2
*D15
  0
BLOCK_RECORD
  5
600
330
1
100
AcDbSymbolTableRecord
100
AcDbBlockTableRecord
  2
*D16
  0
BLOCK_RECORD
  5
60D
330
1
100
AcDbSymbolTableRecord
100
AcDbBlockTableRecord
  2
*D17
  0
BLOCK_RECORD
  5
61A
330
1
100
AcDbSymbolTableRecord
100
AcDbBlockTableRecord
  2
*D18
  0
BLOCK_RECORD
  5
627
330
1
100
AcDbSymbolTableRecord
100
AcDbBlockTableRecord
  2
*D19
  0
BLOCK_RECORD
  5
635
330
1
100
AcDbSymbolTableRecord
100
AcDbBlockTableRecord
  2
*D20
  0
BLOCK_RECORD
  5
642
330
1
100
AcDbSymbolTableRecord
100
AcDbBlockTableRecord
  2
*D21
  0
BLOCK_RECORD
  5
64F
330
1
100
AcDbSymbolTableRecord
100
AcDbBlockTableRecord
  2
*D22
  0
BLOCK_RECORD
  5
65C
330
1
100
AcDbSymbolTableRecord
100
AcDbBlockTableRecord
  2
*D23
  0
BLOCK_RECORD
  5
669
330
1
100
AcDbSymbolTableRecord
100
AcDbBlockTableRecord
  2
*D24
  0
ENDTAB
  0
ENDSEC
  0
SECTION
  2
BLOCKS
  0
BLOCK
  5
20
330
1F
100
AcDbEntity
  8
0
100
AcDbBlockBegin
  2
*MODEL_SPACE
 70
     0
 10
0.0
 20
0.0
 30
0.0
  3
*MODEL_SPACE
  1

  0
ENDBLK
  5
21
330
1F
100
AcDbEntity
  8
0
100
AcDbBlockEnd
  0
BLOCK
  5
1C
330
1B
100
AcDbEntity
 67
     1
  8
0
100
AcDbBlockBegin
  2
*PAPER_SPACE
 70
     0
 10
0.0
 20
0.0
 30
0.0
  3
*PAPER_SPACE
  1

  0
ENDBLK
  5
1D
330
1B
100
AcDbEntity
 67
     1
  8
0
100
AcDbBlockEnd
  0
BLOCK
  5
7A
330
79
100
AcDbEntity
  8
0
100
AcDbBlockBegin
  2
EX_NORM
 70
     0
 10
0.0
 20
0.0
 30
0.0
  3
EX_NORM
  1

  0
LINE
  5
A3
330
79
100
AcDbEntity
  8
0
  6
CONTINUOUS
 62
     0
100
AcDbLine
 10
0.0
 20
0.0
 30
0.0
 11
-1.0
 21
0.0
 31
0.0
  0
LINE
  5
A4
330
79
100
AcDbEntity
  8
0
  6
CONTINUOUS
 62
     0
100
AcDbLine
 10
0.0
 20
0.0
 30
0.0
 11
-1.0
 21
0.166666667
 31
0.0
  0
LINE
  5
A5
330
79
100
AcDbEntity
  8
0
  6
CONTINUOUS
 62
     0
100
AcDbLine
 10
0.0
 20
0.0
 30
0.0
 11
-1.0
 21
-0.166666667
 31
0.0
  0
ENDBLK
  5
7B
330
79
100
AcDbEntity
  8
0
100
AcDbBlockEnd
  0
BLOCK
  5
7D
330
7C
100
AcDbEntity
  8
0
100
AcDbBlockBegin
  2
EX_BNORM
 70
     0
 10
0.0
 20
0.0
 30
0.0
  3
EX_BNORM
  1

  0
LINE
  5
A6
330
7C
100
AcDbEntity
  8
0
  6
CONTINUOUS
 62
     0
100
AcDbLine
 10
0.0
 20
0.0
 30
0.0
 11
-1.0
 21
0.0
 31
0.0
  0
LINE
  5
A7
330
7C
100
AcDbEntity
  8
0
  6
CONTINUOUS
 62
     0
100
AcDbLine
 10
0.0
 20
0.0
 30
0.0
 11
-1.0
 21
0.166666667
 31
0.0
  0
LINE
  5
A8
330
7C
100
AcDbEntity
  8
0
  6
CONTINUOUS
 62
     0
100
AcDbLine
 10
0.0
 20
0.0
 30
0.0
 11
-1.0
 21
-0.166666667
 31
0.0
  0
LINE
  5
A9
330
7C
100
AcDbEntity
  8
0
  6
CONTINUOUS
 62
     0
100
AcDbLine
 10
0.0
 20
0.0
 30
0.0
 11
-1.0
 21
0.083333333
 31
0.0
  0
LINE
  5
AA
330
7C
100
AcDbEntity
  8
0
  6
CONTINUOUS
 62
     0
100
AcDbLine
 10
0.0
 20
0.0
 30
0.0
 11
-1.0
 21
-0.083333333
 31
0.0
  0
LINE
  5
AB
330
7C
100
AcDbEntity
  8
0
  6
CONTINUOUS
 62
     0
100
AcDbLine
 10
-1.0
 20
0.166666667
 30
0.0
 11
-1.0
 21
-0.166666667
 31
0.0
  0
ENDBLK
  5
7E
330
7C
100
AcDbEntity
  8
0
100
AcDbBlockEnd
  0
BLOCK
  5
80
330
7F
100
AcDbEntity
  8
0
100
AcDbBlockBegin
  2
EX_BCIR
 70
     0
 10
0.0
 20
0.0
 30
0.0
  3
EX_BCIR
  1

  0
LINE
  5
AC
330
7F
100
AcDbEntity
  8
0
  6
CONTINUOUS
 62
     0
100
AcDbLine
 10
0.0
 20
0.0
 30
0.0
 11
-1.0
 21
0.0
 31
0.0
  0
CIRCLE
  5
AD
330
7F
100
AcDbEntity
  8
0
  6
CONTINUOUS
 62
     0
100
AcDbCircle
 10
0.0
 20
0.0
 30
0.0
 40
0.5
  0
CIRCLE
  5
AE
330
7F
100
AcDbEntity
  8
0
  6
CONTINUOUS
 62
     0
100
AcDbCircle
 10
0.0
 20
0.0
 30
0.0
 40
0.25
  0
ENDBLK
  5
81
330
7F
100
AcDbEntity
  8
0
100
AcDbBlockEnd
  0
BLOCK
  5
83
330
82
100
AcDbEntity
  8
0
100
AcDbBlockBegin
  2
EX_RCIVIL
 70
     0
 10
0.0
 20
0.0
 30
0.0
  3
EX_RCIVIL
  1

  0
LINE
  5
AF
330
82
100
AcDbEntity
  8
0
  6
CONTINUOUS
 62
     0
100
AcDbLine
 10
0.0
 20
0.0
 30
0.0
 11
-1.0
 21
0.0
 31
0.0
  0
LINE
  5
B0
330
82
100
AcDbEntity
  8
0
  6
CONTINUOUS
 62
     0
100
AcDbLine
 10
-1.0
 20
-0.25
 30
0.0
 11
0.0
 21
-0.25
 31
0.0
  0
LINE
  5
B1
330
82
100
AcDbEntity
  8
0
  6
CONTINUOUS
 62
     0
100
AcDbLine
 10
-1.0
 20
-0.125
 30
0.0
 11
0.0
 21
-0.125
 31
0.0
  0
ENDBLK
  5
84
330
82
100
AcDbEntity
  8
0
100
AcDbBlockEnd
  0
BLOCK
  5
86
330
85
100
AcDbEntity
  8
0
100
AcDbBlockBegin
  2
EX_SLANT
 70
     0
 10
0.0
 20
0.0
 30
0.0
  3
EX_SLANT
  1

  0
LINE
  5
B2
330
85
100
AcDbEntity
  8
0
  6
CONTINUOUS
 62
     0
100
AcDbLine
 10
0.0
 20
0.0
 30
0.0
 11
-1.0
 21
0.0
 31
0.0
  0
LINE
  5
B3
330
85
100
AcDbEntity
  8
0
  6
CONTINUOUS
 62
     0
100
AcDbLine
 10
0.707106781
 20
0.707106781
 30
0.0
 11
-0.707106781
 21
-0.707106781
 31
0.0
  0
ENDBLK
  5
87
330
85
100
AcDbEntity
  8
0
100
AcDbBlockEnd
  0
BLOCK
  5
89
330
88
100
AcDbEntity
  8
0
100
AcDbBlockBegin
  2
EX_NONE
 70
     0
 10
0.0
 20
0.0
 30
0.0
  3
EX_NONE
  1

  0
LINE
  5
B4
330
88
100
AcDbEntity
  8
0
  6
CONTINUOUS
 62
     0
100
AcDbLine
 10
0.0
 20
0.0
 30
0.0
 11
-1.0
 21
0.0
 31
0.0
  0
ENDBLK
  5
8A
330
88
100
AcDbEntity
  8
0
100
AcDbBlockEnd
  0
BLOCK
  5
8C
330
8B
100
AcDbEntity
  8
0
100
AcDbBlockBegin
  2
EX_CIVIL
 70
     0
 10
0.0
 20
0.0
 30
0.0
  3
EX_CIVIL
  1

  0
LINE
  5
B5
330
8B
100
AcDbEntity
  8
0
  6
CONTINUOUS
 62
     0
100
AcDbLine
 10
0.0
 20
0.0
 30
0.0
 11
-1.0
 21
0.0
 31
0.0
  0
LINE
  5
B6
330
8B
100
AcDbEntity
  8
0
  6
CONTINUOUS
 62
     0
100
AcDbLine
 10
-1.0
 20
0.25
 30
0.0
 11
0.0
 21
0.25
 31
0.0
  0
LINE
  5
B7
330
8B
100
AcDbEntity
  8
0
  6
CONTINUOUS
 62
     0
100
AcDbLine
 10
-1.0
 20
0.125
 30
0.0
 11
0.0
 21
0.125
 31
0.0
  0
ENDBLK
  5
8D
330
8B
100
AcDbEntity
  8
0
100
AcDbBlockEnd
  0
BLOCK
  5
8F
330
8E
100
AcDbEntity
  8
0
100
AcDbBlockBegin
  2
EX_WCIR
 70
     0
 10
0.0
 20
0.0
 30
0.0
  3
EX_WCIR
  1

  0
LINE
  5
B8
330
8E
100
AcDbEntity
  8
0
  6
CONTINUOUS
 62
     0
100
AcDbLine
 10
0.0
 20
0.0
 30
0.0
 11
-1.0
 21
0.0
 31
0.0
  0
CIRCLE
  5
B9
330
8E
100
AcDbEntity
  8
0
  6
CONTINUOUS
 62
     0
100
AcDbCircle
 10
0.0
 20
0.0
 30
0.0
 40
0.5
  0
ENDBLK
  5
90
330
8E
100
AcDbEntity
  8
0
100
AcDbBlockEnd
  0
BLOCK
  5
92
330
91
100
AcDbEntity
  8
0
100
AcDbBlockBegin
  2
EX_WCIR2
 70
     0
 10
0.0
 20
0.0
 30
0.0
  3
EX_WCIR2
  1

  0
LINE
  5
BA
330
91
100
AcDbEntity
  8
0
  6
CONTINUOUS
 62
     0
100
AcDbLine
 10
-0.5
 20
0.0
 30
0.0
 11
-1.0
 21
0.0
 31
0.0
  0
CIRCLE
  5
BB
330
91
100
AcDbEntity
  8
0
  6
CONTINUOUS
 62
     0
100
AcDbCircle
 10
0.0
 20
0.0
 30
0.0
 40
0.5
  0
ENDBLK
  5
93
330
91
100
AcDbEntity
  8
0
100
AcDbBlockEnd
  0
BLOCK
  5
95
330
94
100
AcDbEntity
  8
0
100
AcDbBlockBegin
  2
EX_WNORM
 70
     0
 10
0.0
 20
0.0
 30
0.0
  3
EX_WNORM
  1

  0
LINE
  5
BC
330
94
100
AcDbEntity
  8
0
  6
CONTINUOUS
 62
     0
100
AcDbLine
 10
-1.0
 20
0.0
 30
0.0
 11
-1.0
 21
0.0
 31
0.0
  0
LINE
  5
BD
330
94
100
AcDbEntity
  8
0
  6
CONTINUOUS
 62
     0
100
AcDbLine
 10
0.0
 20
0.0
 30
0.0
 11
-1.0
 21
0.166666667
 31
0.0
  0
LINE
  5
BE
330
94
100
AcDbEntity
  8
0
  6
CONTINUOUS
 62
     0
100
AcDbLine
 10
0.0
 20
0.0
 30
0.0
 11
-1.0
 21
-0.166666667
 31
0.0
  0
LINE
  5
BF
330
94
100
AcDbEntity
  8
0
  6
CONTINUOUS
 62
     0
100
AcDbLine
 10
-1.0
 20
0.166666667
 30
0.0
 11
-1.0
 21
-0.166666667
 31
0.0
  0
ENDBLK
  5
96
330
94
100
AcDbEntity
  8
0
100
AcDbBlockEnd
  0
BLOCK
  5
98
330
97
100
AcDbEntity
  8
0
100
AcDbBlockBegin
  2
EX_NNORM
 70
     0
 10
0.0
 20
0.0
 30
0.0
  3
EX_NNORM
  1

  0
LINE
  5
C0
330
97
100
AcDbEntity
  8
0
  6
CONTINUOUS
 62
     0
100
AcDbLine
 10
0.0
 20
0.0
 30
0.0
 11
-1.0
 21
0.0
 31
0.0
  0
LINE
  5
C1
330
97
100
AcDbEntity
  8
0
  6
CONTINUOUS
 62
     0
100
AcDbLine
 10
0.0
 20
0.0
 30
0.0
 11
-1.0
 21
0.166666667
 31
0.0
  0
LINE
  5
C2
330
97
100
AcDbEntity
  8
0
  6
CONTINUOUS
 62
     0
100
AcDbLine
 10
0.0
 20
0.0
 30
0.0
 11
-1.0
 21
-0.166666667
 31
0.0
  0
LINE
  5
C3
330
97
100
AcDbEntity
  8
0
  6
CONTINUOUS
 62
     0
100
AcDbLine
 10
-1.0
 20
0.166666667
 30
0.0
 11
-1.0
 21
-0.166666667
 31
0.0
  0
ENDBLK
  5
99
330
97
100
AcDbEntity
  8
0
100
AcDbBlockEnd
  0
BLOCK
  5
9B
330
9A
100
AcDbEntity
  8
0
100
AcDbBlockBegin
  2
EX_BBOX
 70
     0
 10
0.0
 20
0.0
 30
0.0
  3
EX_BBOX
  1

  0
LINE
  5
C4
330
9A
100
AcDbEntity
  8
0
  6
CONTINUOUS
 62
     0
100
AcDbLine
 10
0.0
 20
0.0
 30
0.0
 11
-1.0
 21
0.0
 31
0.0
  0
LINE
  5
C5
330
9A
100
AcDbEntity
  8
0
  6
CONTINUOUS
 62
     0
100
AcDbLine
 10
-0.5
 20
0.5
 30
0.0
 11
0.5
 21
0.5
 31
0.0
  0
LINE
  5
C6
330
9A
100
AcDbEntity
  8
0
  6
CONTINUOUS
 62
     0
100
AcDbLine
 10
0.5
 20
0.5
 30
0.0
 11
0.5
 21
-0.5
 31
0.0
  0
LINE
  5
C7
330
9A
100
AcDbEntity
  8
0
  6
CONTINUOUS
 62
     0
100
AcDbLine
 10
0.5
 20
-0.5
 30
0.0
 11
-0.5
 21
-0.5
 31
0.0
  0
LINE
  5
C8
330
9A
100
AcDbEntity
  8
0
  6
CONTINUOUS
 62
     0
100
AcDbLine
 10
-0.5
 20
-0.5
 30
0.0
 11
-0.5
 21
0.5
 31
0.0
  0
LINE
  5
C9
330
9A
100
AcDbEntity
  8
0
  6
CONTINUOUS
 62
     0
100
AcDbLine
 10
-0.25
 20
0.25
 30
0.0
 11
0.25
 21
0.25
 31
0.0
  0
LINE
  5
CA
330
9A
100
AcDbEntity
  8
0
  6
CONTINUOUS
 62
     0
100
AcDbLine
 10
0.25
 20
0.25
 30
0.0
 11
0.25
 21
-0.25
 31
0.0
  0
LINE
  5
CB
330
9A
100
AcDbEntity
  8
0
  6
CONTINUOUS
 62
     0
100
AcDbLine
 10
0.25
 20
-0.25
 30
0.0
 11
-0.25
 21
-0.25
 31
0.0
  0
LINE
  5
CC
330
9A
100
AcDbEntity
  8
0
  6
CONTINUOUS
 62
     0
100
AcDbLine
 10
-0.25
 20
-0.25
 30
0.0
 11
-0.25
 21
0.25
 31
0.0
  0
ENDBLK
  5
9C
330
9A
100
AcDbEntity
  8
0
100
AcDbBlockEnd
  0
BLOCK
  5
9E
330
9D
100
AcDbEntity
  8
0
100
AcDbBlockBegin
  2
EX_WBOX
 70
     0
 10
0.0
 20
0.0
 30
0.0
  3
EX_WBOX
  1

  0
LINE
  5
CD
330
9D
100
AcDbEntity
  8
0
  6
CONTINUOUS
 62
     0
100
AcDbLine
 10
-0.5
 20
0.0
 30
0.0
 11
-1.0
 21
0.0
 31
0.0
  0
LINE
  5
CE
330
9D
100
AcDbEntity
  8
0
  6
CONTINUOUS
 62
     0
100
AcDbLine
 10
-0.5
 20
0.5
 30
0.0
 11
0.5
 21
0.5
 31
0.0
  0
LINE
  5
CF
330
9D
100
AcDbEntity
  8
0
  6
CONTINUOUS
 62
     0
100
AcDbLine
 10
0.5
 20
0.5
 30
0.0
 11
0.5
 21
-0.5
 31
0.0
  0
LINE
  5
D0
330
9D
100
AcDbEntity
  8
0
  6
CONTINUOUS
 62
     0
100
AcDbLine
 10
0.5
 20
-0.5
 30
0.0
 11
-0.5
 21
-0.5
 31
0.0
  0
LINE
  5
D1
330
9D
100
AcDbEntity
  8
0
  6
CONTINUOUS
 62
     0
100
AcDbLine
 10
-0.5
 20
-0.5
 30
0.0
 11
-0.5
 21
0.5
 31
0.0
  0
ENDBLK
  5
9F
330
9D
100
AcDbEntity
  8
0
100
AcDbBlockEnd
  0
BLOCK
  5
A1
330
A0
100
AcDbEntity
  8
0
100
AcDbBlockBegin
  2
EX_INTEGRAL
 70
     0
 10
0.0
 20
0.0
 30
0.0
  3
EX_INTEGRAL
  1

  0
LINE
  5
D2
330
A0
100
AcDbEntity
  8
0
  6
CONTINUOUS
 62
     0
100
AcDbLine
 10
0.0
 20
0.0
 30
0.0
 11
-1.0
 21
0.0
 31
0.0
  0
ARC
  5
D3
330
A0
100
AcDbEntity
  8
0
  6
CONTINUOUS
 62
     0
100
AcDbCircle
 10
0.542115
 20
0.164992
 30
0.0
 40
0.56667
100
AcDbArc
 50
73.07249033629006
 51
196.9275130221199
  0
ARC
  5
D4
330
A0
100
AcDbEntity
  8
0
  6
CONTINUOUS
 62
     0
100
AcDbCircle
 10
-0.542115
 20
-0.164992
 30
0.0
 40
0.56667
100
AcDbArc
 50
253.0724869220464
 51
16.9275130559125
  0
ENDBLK
  5
A2
330
A0
100
AcDbEntity
  8
0
100
AcDbBlockEnd
  0
BLOCK
  5
5F4
330
5F3
100
AcDbEntity
  8
0
100
AcDbBlockBegin
  2
*D15
 70
     1
 10
0.0
 20
0.0
 30
0.0
  3
*D15
  1

  0
LINE
  5
5F6
330
5F3
100
AcDbEntity
  8
LAY-20
  6
CONTINUOUS
 62
     4
100
AcDbLine
 10
1940.7407257571
 20
771.2636940246
 30
0.0
 11
2124.4392105668
 21
771.2636940246
 31
0.0
  0
LINE
  5
5F7
330
5F3
100
AcDbEntity
  8
LAY-20
  6
CONTINUOUS
 62
     4
100
AcDbLine
 10
1995.5407257569
 20
966.2636940246
 30
0.0
 11
2124.4392105668
 21
966.2636940246
 31
0.0
  0
LINE
  5
5F8
330
5F3
100
AcDbEntity
  8
LAY-20
  6
CONTINUOUS
 62
     4
100
AcDbLine
 10
2109.4392105668
 20
796.2636940246
 30
0.0
 11
2109.4392105668
 21
941.2636940246
 31
0.0
  0
INSERT
  5
5F9
330
5F3
100
AcDbEntity
  8
LAY-20
 62
     4
100
AcDbBlockReference
  2
EX_BNORM
 10
2109.4392105668
 20
771.2636940246
 30
0.0
 41
25.0
 42
25.0
 43
25.0
 50
270.0
  0
INSERT
  5
5FA
330
5F3
100
AcDbEntity
  8
LAY-20
 62
     4
100
AcDbBlockReference
  2
EX_BNORM
 10
2109.4392105668
 20
966.2636940246
 30
0.0
 41
25.0
 42
25.0
 43
25.0
 50
90.0
  0
MTEXT
  5
5FB
330
5F3
100
AcDbEntity
  8
LAY-20
 62
     7
100
AcDbMText
 10
2084.4392105668
 20
868.7636940245997
 30
0.0
 40
31.181104
 41
0.0
 71
     5
 72
     1
  1
195
  7
EXCADDIM1
 11
0.0
 21
1.0
 31
0.0
  0
POINT
  5
5FC
330
5F3
100
AcDbEntity
  8
DEFPOINTS
 62
     0
100
AcDbPoint
 10
1925.7407257571
 20
771.2636940246
 30
0.0
  0
POINT
  5
5FD
330
5F3
100
AcDbEntity
  8
DEFPOINTS
 62
     0
100
AcDbPoint
 10
1980.5407257569
 20
966.2636940246
 30
0.0
  0
POINT
  5
5FE
330
5F3
100
AcDbEntity
  8
DEFPOINTS
 62
     0
100
AcDbPoint
 10
2109.4392105668
 20
966.2636940246
 30
0.0
  0
ENDBLK
  5
5F5
330
5F3
100
AcDbEntity
  8
0
100
AcDbBlockEnd
  0
BLOCK
  5
601
330
600
100
AcDbEntity
  8
0
100
AcDbBlockBegin
  2
*D16
 70
     1
 10
0.0
 20
0.0
 30
0.0
  3
*D16
  1

  0
LINE
  5
603
330
600
100
AcDbEntity
  8
LAY-20
  6
CONTINUOUS
 62
     4
100
AcDbLine
 10
278.540725757
 20
981.2636940246
 30
0.0
 11
278.540725757
 21
1151.2636940246
 31
0.0
  0
LINE
  5
604
330
600
100
AcDbEntity
  8
LAY-20
  6
CONTINUOUS
 62
     4
100
AcDbLine
 10
1980.5407257569
 20
981.2636940246
 30
0.0
 11
1980.5407257569
 21
1151.2636940246
 31
0.0
  0
LINE
  5
605
330
600
100
AcDbEntity
  8
LAY-20
  6
CONTINUOUS
 62
     4
100
AcDbLine
 10
303.540725757
 20
1136.2636940246
 30
0.0
 11
1955.5407257569
 21
1136.2636940246
 31
0.0
  0
INSERT
  5
606
330
600
100
AcDbEntity
  8
LAY-20
 62
     4
100
AcDbBlockReference
  2
EX_BNORM
 10
278.540725757
 20
1136.2636940246
 30
0.0
 41
25.0
 42
25.0
 43
25.0
 50
180.0
  0
INSERT
  5
607
330
600
100
AcDbEntity
  8
LAY-20
 62
     4
100
AcDbBlockReference
  2
EX_BNORM
 10
1980.5407257569
 20
1136.2636940246
 30
0.0
 41
25.0
 42
25.0
 43
25.0
  0
MTEXT
  5
608
330
600
100
AcDbEntity
  8
LAY-20
 62
     7
100
AcDbMText
 10
1129.54072575695
 20
1161.2636940246
 30
0.0
 40
31.181104
 41
0.0
 71
     5
 72
     1
  1
1702
  7
EXCADDIM1
  0
POINT
  5
609
330
600
100
AcDbEntity
  8
DEFPOINTS
 62
     0
100
AcDbPoint
 10
278.540725757
 20
966.2636940246
 30
0.0
  0
POINT
  5
60A
330
600
100
AcDbEntity
  8
DEFPOINTS
 62
     0
100
AcDbPoint
 10
1980.5407257569
 20
966.2636940246
 30
0.0
  0
POINT
  5
60B
330
600
100
AcDbEntity
  8
DEFPOINTS
 62
     0
100
AcDbPoint
 10
1980.5407257569
 20
1136.2636940246
 30
0.0
  0
ENDBLK
  5
602
330
600
100
AcDbEntity
  8
0
100
AcDbBlockEnd
  0
BLOCK
  5
60E
330
60D
100
AcDbEntity
  8
0
100
AcDbBlockBegin
  2
*D17
 70
     1
 10
0.0
 20
0.0
 30
0.0
  3
*D17
  1

  0
LINE
  5
610
330
60D
100
AcDbEntity
  8
LAY-20
  6
CONTINUOUS
 62
     4
100
AcDbLine
 10
294.5407257570237
 20
981.263694024603
 30
0.0
 11
294.5407257570237
 21
1081.2636940246
 31
0.0
  0
LINE
  5
611
330
60D
100
AcDbEntity
  8
LAY-20
  6
CONTINUOUS
 62
     4
100
AcDbLine
 10
710.540725757096
 20
981.2636940246051
 30
0.0
 11
710.540725757096
 21
1081.2636940246
 31
0.0
  0
LINE
  5
612
330
60D
100
AcDbEntity
  8
LAY-20
  6
CONTINUOUS
 62
     4
100
AcDbLine
 10
319.5407257570237
 20
1066.2636940246
 30
0.0
 11
685.540725757096
 21
1066.2636940246
 31
0.0
  0
INSERT
  5
613
330
60D
100
AcDbEntity
  8
LAY-20
 62
     4
100
AcDbBlockReference
  2
EX_BNORM
 10
294.5407257570237
 20
1066.2636940246
 30
0.0
 41
25.0
 42
25.0
 43
25.0
 50
180.0
  0
INSERT
  5
614
330
60D
100
AcDbEntity
  8
LAY-20
 62
     4
100
AcDbBlockReference
  2
EX_BNORM
 10
710.540725757096
 20
1066.2636940246
 30
0.0
 41
25.0
 42
25.0
 43
25.0
  0
MTEXT
  5
615
330
60D
100
AcDbEntity
  8
LAY-20
 62
     7
100
AcDbMText
 10
502.5407257570598
 20
1091.2636940246
 30
0.0
 40
31.181104
 41
0.0
 71
     5
 72
     1
  1
416
  7
EXCADDIM1
  0
POINT
  5
616
330
60D
100
AcDbEntity
  8
DEFPOINTS
 62
     0
100
AcDbPoint
 10
294.5407257570237
 20
966.263694024603
 30
0.0
  0
POINT
  5
617
330
60D
100
AcDbEntity
  8
DEFPOINTS
 62
     0
100
AcDbPoint
 10
710.540725757096
 20
966.2636940246051
 30
0.0
  0
POINT
  5
618
330
60D
100
AcDbEntity
  8
DEFPOINTS
 62
     0
100
AcDbPoint
 10
710.540725757096
 20
1066.2636940246
 30
0.0
  0
ENDBLK
  5
60F
330
60D
100
AcDbEntity
  8
0
100
AcDbBlockEnd
  0
BLOCK
  5
61B
330
61A
100
AcDbEntity
  8
0
100
AcDbBlockBegin
  2
*D18
 70
     1
 10
0.0
 20
0.0
 30
0.0
  3
*D18
  1

  0
LINE
  5
61D
330
61A
100
AcDbEntity
  8
LAY-20
  6
CONTINUOUS
 62
     4
100
AcDbLine
 10
379.540725757
 20
757.8636940246002
 30
0.0
 11
379.540725757
 21
656.2636940246
 31
0.0
  0
LINE
  5
61E
330
61A
100
AcDbEntity
  8
LAY-20
  6
CONTINUOUS
 62
     4
100
AcDbLine
 10
1879.540725757
 20
757.8636940246002
 30
0.0
 11
1879.540725757
 21
656.2636940246
 31
0.0
  0
LINE
  5
61F
330
61A
100
AcDbEntity
  8
LAY-20
  6
CONTINUOUS
 62
     4
100
AcDbLine
 10
404.540725757
 20
671.2636940246
 30
0.0
 11
1854.540725757
 21
671.2636940246
 31
0.0
  0
INSERT
  5
620
330
61A
100
AcDbEntity
  8
LAY-20
 62
     4
100
AcDbBlockReference
  2
EX_BNORM
 10
379.540725757
 20
671.2636940246
 30
0.0
 41
25.0
 42
25.0
 43
25.0
 50
180.0
  0
INSERT
  5
621
330
61A
100
AcDbEntity
  8
LAY-20
 62
     4
100
AcDbBlockReference
  2
EX_BNORM
 10
1879.540725757
 20
671.2636940246
 30
0.0
 41
25.0
 42
25.0
 43
25.0
  0
MTEXT
  5
622
330
61A
100
AcDbEntity
  8
LAY-20
 62
     7
100
AcDbMText
 10
1129.540725757
 20
696.2636940246
 30
0.0
 40
31.181104
 41
0.0
 71
     5
 72
     1
  1
1500
  7
EXCADDIM1
  0
POINT
  5
623
330
61A
100
AcDbEntity
  8
DEFPOINTS
 62
     0
100
AcDbPoint
 10
379.540725757
 20
772.8636940246002
 30
0.0
  0
POINT
  5
624
330
61A
100
AcDbEntity
  8
DEFPOINTS
 62
     0
100
AcDbPoint
 10
1879.540725757
 20
772.8636940246002
 30
0.0
  0
POINT
  5
625
330
61A
100
AcDbEntity
  8
DEFPOINTS
 62
     0
100
AcDbPoint
 10
1879.540725757
 20
671.2636940246
 30
0.0
  0
ENDBLK
  5
61C
330
61A
100
AcDbEntity
  8
0
100
AcDbBlockEnd
  0
BLOCK
  5
628
330
627
100
AcDbEntity
  8
0
100
AcDbBlockBegin
  2
*D19
 70
     1
 10
0.0
 20
0.0
 30
0.0
  3
*D19
  1

  0
LINE
  5
62A
330
627
100
AcDbEntity
  8
LAY-20
  6
CONTINUOUS
 62
     4
100
AcDbLine
 10
855.54072575707
 20
931.2636940246
 30
0.0
 11
955.5407257570602
 21
931.2636940245999
 31
0.0
  0
LINE
  5
62B
330
627
100
AcDbEntity
  8
LAY-20
  6
CONTINUOUS
 62
     4
100
AcDbLine
 10
940.5407257570602
 20
931.2636940245999
 30
0.0
 11
940.5407257570602
 21
966.2636940246
 31
0.0
  0
LINE
  5
62C
330
627
100
AcDbEntity
  8
LAY-20
  6
CONTINUOUS
 62
     4
100
AcDbLine
 10
940.5407257570602
 20
906.2636940245999
 30
0.0
 11
940.5407257570602
 21
881.2636940245999
 31
0.0
  0
LINE
  5
62D
330
627
100
AcDbEntity
  8
LAY-20
  6
CONTINUOUS
 62
     4
100
AcDbLine
 10
940.5407257570602
 20
991.2636940246
 30
0.0
 11
940.5407257570602
 21
1016.2636940246
 31
0.0
  0
INSERT
  5
62E
330
627
100
AcDbEntity
  8
LAY-20
 62
     4
100
AcDbBlockReference
  2
EX_BNORM
 10
940.5407257570602
 20
931.2636940245999
 30
0.0
 41
25.0
 42
25.0
 43
25.0
 50
90.0
  0
INSERT
  5
62F
330
627
100
AcDbEntity
  8
LAY-20
 62
     4
100
AcDbBlockReference
  2
EX_BNORM
 10
940.5407257570602
 20
966.2636940246
 30
0.0
 41
25.0
 42
25.0
 43
25.0
 50
270.0
  0
MTEXT
  5
630
330
627
100
AcDbEntity
  8
LAY-20
 62
     7
100
AcDbMText
 10
915.5407257570603
 20
1026.2636940246
 30
0.0
 40
31.181104
 41
0.0
 71
     5
 72
     1
  1
35
  7
EXCADDIM1
 11
0.0
 21
1.0
 31
0.0
  0
POINT
  5
631
330
627
100
AcDbEntity
  8
DEFPOINTS
 62
     0
100
AcDbPoint
 10
840.54072575707
 20
931.2636940246
 30
0.0
  0
POINT
  5
632
330
627
100
AcDbEntity
  8
DEFPOINTS
 62
     0
100
AcDbPoint
 10
940.5407257570602
 20
966.2636940246
 30
0.0
  0
POINT
  5
633
330
627
100
AcDbEntity
  8
DEFPOINTS
 62
     0
100
AcDbPoint
 10
940.5407257570602
 20
966.2636940246
 30
0.0
  0
ENDBLK
  5
629
330
627
100
AcDbEntity
  8
0
100
AcDbBlockEnd
  0
BLOCK
  5
636
330
635
100
AcDbEntity
  8
0
100
AcDbBlockBegin
  2
*D20
 70
     1
 10
0.0
 20
0.0
 30
0.0
  3
*D20
  1

  0
LINE
  5
638
330
635
100
AcDbEntity
  8
LAY-20
  6
CONTINUOUS
 62
     4
100
AcDbLine
 10
1971.7407257569
 20
838.8636940246
 30
0.0
 11
1971.7407257569
 21
586.2636940246
 31
0.0
  0
LINE
  5
639
330
635
100
AcDbEntity
  8
LAY-20
  6
CONTINUOUS
 62
     4
100
AcDbLine
 10
287.34072575702
 20
838.8636940246
 30
0.0
 11
287.34072575702
 21
586.2636940246
 31
0.0
  0
LINE
  5
63A
330
635
100
AcDbEntity
  8
LAY-20
  6
CONTINUOUS
 62
     4
100
AcDbLine
 10
1946.7407257569
 20
601.2636940246
 30
0.0
 11
312.34072575702
 21
601.2636940246
 31
0.0
  0
INSERT
  5
63B
330
635
100
AcDbEntity
  8
LAY-20
 62
     4
100
AcDbBlockReference
  2
EX_BNORM
 10
1971.7407257569
 20
601.2636940246
 30
0.0
 41
25.0
 42
25.0
 43
25.0
  0
INSERT
  5
63C
330
635
100
AcDbEntity
  8
LAY-20
 62
     4
100
AcDbBlockReference
  2
EX_BNORM
 10
287.34072575702
 20
601.2636940246
 30
0.0
 41
25.0
 42
25.0
 43
25.0
 50
180.0
  0
MTEXT
  5
63D
330
635
100
AcDbEntity
  8
LAY-20
 62
     7
100
AcDbMText
 10
1129.54072575696
 20
626.2636940246
 30
0.0
 40
31.181104
 41
0.0
 71
     5
 72
     1
  1
1684
  7
EXCADDIM1
  0
POINT
  5
63E
330
635
100
AcDbEntity
  8
DEFPOINTS
 62
     0
100
AcDbPoint
 10
1971.7407257569
 20
853.8636940246
 30
0.0
  0
POINT
  5
63F
330
635
100
AcDbEntity
  8
DEFPOINTS
 62
     0
100
AcDbPoint
 10
287.34072575702
 20
853.8636940246
 30
0.0
  0
POINT
  5
640
330
635
100
AcDbEntity
  8
DEFPOINTS
 62
     0
100
AcDbPoint
 10
287.34072575702
 20
601.2636940246
 30
0.0
  0
ENDBLK
  5
637
330
635
100
AcDbEntity
  8
0
100
AcDbBlockEnd
  0
BLOCK
  5
643
330
642
100
AcDbEntity
  8
0
100
AcDbBlockBegin
  2
*D21
 70
     1
 10
0.0
 20
0.0
 30
0.0
  3
*D21
  1

  0
LINE
  5
645
330
642
100
AcDbEntity
  8
LAY-20
  6
CONTINUOUS
 62
     4
100
AcDbLine
 10
2365.15306276745
 20
1362.3795211401
 30
0.0
 11
2195.1530627675
 21
1362.3795211401
 31
0.0
  0
LINE
  5
646
330
642
100
AcDbEntity
  8
LAY-20
  6
CONTINUOUS
 62
     4
100
AcDbLine
 10
2365.15306276749
 20
2464.3795211401
 30
0.0
 11
2195.1530627675
 21
2464.3795211401
 31
0.0
  0
LINE
  5
647
330
642
100
AcDbEntity
  8
LAY-20
  6
CONTINUOUS
 62
     4
100
AcDbLine
 10
2210.1530627675
 20
1387.3795211401
 30
0.0
 11
2210.1530627675
 21
2439.3795211401
 31
0.0
  0
INSERT
  5
648
330
642
100
AcDbEntity
  8
LAY-20
 62
     4
100
AcDbBlockReference
  2
EX_BNORM
 10
2210.1530627675
 20
1362.3795211401
 30
0.0
 41
25.0
 42
25.0
 43
25.0
 50
270.0
  0
INSERT
  5
649
330
642
100
AcDbEntity
  8
LAY-20
 62
     4
100
AcDbBlockReference
  2
EX_BNORM
 10
2210.1530627675
 20
2464.3795211401
 30
0.0
 41
25.0
 42
25.0
 43
25.0
 50
90.0
  0
MTEXT
  5
64A
330
642
100
AcDbEntity
  8
LAY-20
 62
     7
100
AcDbMText
 10
2185.1530627675
 20
1913.3795211401
 30
0.0
 40
31.181104
 41
0.0
 71
     5
 72
     1
  1
1102
  7
EXCADDIM1
 11
0.0
 21
1.0
 31
0.0
  0
POINT
  5
64B
330
642
100
AcDbEntity
  8
DEFPOINTS
 62
     0
100
AcDbPoint
 10
2380.15306276745
 20
1362.3795211401
 30
0.0
  0
POINT
  5
64C
330
642
100
AcDbEntity
  8
DEFPOINTS
 62
     0
100
AcDbPoint
 10
2380.15306276749
 20
2464.3795211401
 30
0.0
  0
POINT
  5
64D
330
642
100
AcDbEntity
  8
DEFPOINTS
 62
     0
100
AcDbPoint
 10
2210.1530627675
 20
2464.3795211401
 30
0.0
  0
ENDBLK
  5
644
330
642
100
AcDbEntity
  8
0
100
AcDbBlockEnd
  0
BLOCK
  5
650
330
64F
100
AcDbEntity
  8
0
100
AcDbBlockBegin
  2
*D22
 70
     1
 10
0.0
 20
0.0
 30
0.0
  3
*D22
  1

  0
LINE
  5
652
330
64F
100
AcDbEntity
  8
LAY-20
  6
CONTINUOUS
 62
     4
100
AcDbLine
 10
2365.15306276749
 20
1378.379521140119
 30
0.0
 11
2265.1530627675
 21
1378.379521140119
 31
0.0
  0
LINE
  5
653
330
64F
100
AcDbEntity
  8
LAY-20
  6
CONTINUOUS
 62
     4
100
AcDbLine
 10
2365.15306276749
 20
2448.379521140116
 30
0.0
 11
2265.1530627675
 21
2448.379521140116
 31
0.0
  0
LINE
  5
654
330
64F
100
AcDbEntity
  8
LAY-20
  6
CONTINUOUS
 62
     4
100
AcDbLine
 10
2280.1530627675
 20
1403.379521140119
 30
0.0
 11
2280.1530627675
 21
2423.379521140116
 31
0.0
  0
INSERT
  5
655
330
64F
100
AcDbEntity
  8
LAY-20
 62
     4
100
AcDbBlockReference
  2
EX_BNORM
 10
2280.1530627675
 20
1378.379521140119
 30
0.0
 41
25.0
 42
25.0
 43
25.0
 50
270.0
  0
INSERT
  5
656
330
64F
100
AcDbEntity
  8
LAY-20
 62
     4
100
AcDbBlockReference
  2
EX_BNORM
 10
2280.1530627675
 20
2448.379521140116
 30
0.0
 41
25.0
 42
25.0
 43
25.0
 50
90.0
  0
MTEXT
  5
657
330
64F
100
AcDbEntity
  8
LAY-20
 62
     7
100
AcDbMText
 10
2255.1530627675
 20
1913.379521140117
 30
0.0
 40
31.181104
 41
0.0
 71
     5
 72
     1
  1
1070
  7
EXCADDIM1
 11
0.0
 21
1.0
 31
0.0
  0
POINT
  5
658
330
64F
100
AcDbEntity
  8
DEFPOINTS
 62
     0
100
AcDbPoint
 10
2380.15306276749
 20
1378.379521140119
 30
0.0
  0
POINT
  5
659
330
64F
100
AcDbEntity
  8
DEFPOINTS
 62
     0
100
AcDbPoint
 10
2380.15306276749
 20
2448.379521140116
 30
0.0
  0
POINT
  5
65A
330
64F
100
AcDbEntity
  8
DEFPOINTS
 62
     0
100
AcDbPoint
 10
2280.1530627675
 20
2448.379521140116
 30
0.0
  0
ENDBLK
  5
651
330
64F
100
AcDbEntity
  8
0
100
AcDbBlockEnd
  0
BLOCK
  5
65D
330
65C
100
AcDbEntity
  8
0
100
AcDbBlockBegin
  2
*D23
 70
     1
 10
0.0
 20
0.0
 30
0.0
  3
*D23
  1

  0
LINE
  5
65F
330
65C
100
AcDbEntity
  8
LAY-20
  6
CONTINUOUS
 62
     4
100
AcDbLine
 10
2590.153062767491
 20
2363.379521140199
 30
0.0
 11
2690.1530627675
 21
2363.379521140199
 31
0.0
  0
LINE
  5
660
330
65C
100
AcDbEntity
  8
LAY-20
  6
CONTINUOUS
 62
     4
100
AcDbLine
 10
2590.153062767491
 20
1463.3795211401
 30
0.0
 11
2690.1530627675
 21
1463.3795211401
 31
0.0
  0
LINE
  5
661
330
65C
100
AcDbEntity
  8
LAY-20
  6
CONTINUOUS
 62
     4
100
AcDbLine
 10
2675.1530627675
 20
2338.379521140199
 30
0.0
 11
2675.1530627675
 21
1488.3795211401
 31
0.0
  0
INSERT
  5
662
330
65C
100
AcDbEntity
  8
LAY-20
 62
     4
100
AcDbBlockReference
  2
EX_BNORM
 10
2675.1530627675
 20
2363.379521140199
 30
0.0
 41
25.0
 42
25.0
 43
25.0
 50
90.0
  0
INSERT
  5
663
330
65C
100
AcDbEntity
  8
LAY-20
 62
     4
100
AcDbBlockReference
  2
EX_BNORM
 10
2675.1530627675
 20
1463.3795211401
 30
0.0
 41
25.0
 42
25.0
 43
25.0
 50
270.0
  0
MTEXT
  5
664
330
65C
100
AcDbEntity
  8
LAY-20
 62
     7
100
AcDbMText
 10
2650.1530627675
 20
1913.379521140149
 30
0.0
 40
31.181104
 41
0.0
 71
     5
 72
     1
  1
900
  7
EXCADDIM1
 11
0.0
 21
1.0
 31
0.0
  0
POINT
  5
665
330
65C
100
AcDbEntity
  8
DEFPOINTS
 62
     0
100
AcDbPoint
 10
2575.153062767491
 20
2363.379521140199
 30
0.0
  0
POINT
  5
666
330
65C
100
AcDbEntity
  8
DEFPOINTS
 62
     0
100
AcDbPoint
 10
2575.153062767491
 20
1463.3795211401
 30
0.0
  0
POINT
  5
667
330
65C
100
AcDbEntity
  8
DEFPOINTS
 62
     0
100
AcDbPoint
 10
2675.1530627675
 20
1463.3795211401
 30
0.0
  0
ENDBLK
  5
65E
330
65C
100
AcDbEntity
  8
0
100
AcDbBlockEnd
  0
BLOCK
  5
66A
330
669
100
AcDbEntity
  8
0
100
AcDbBlockBegin
  2
*D24
 70
     1
 10
0.0
 20
0.0
 30
0.0
  3
*D24
  1

  0
LINE
  5
66C
330
669
100
AcDbEntity
  8
LAY-20
  6
CONTINUOUS
 62
     4
100
AcDbLine
 10
2507.5530627675
 20
2455.57952114
 30
0.0
 11
2760.1530627675
 21
2455.57952114
 31
0.0
  0
LINE
  5
66D
330
669
100
AcDbEntity
  8
LAY-20
  6
CONTINUOUS
 62
     4
100
AcDbLine
 10
2507.5530627675
 20
1371.179521140099
 30
0.0
 11
2760.1530627675
 21
1371.179521140099
 31
0.0
  0
LINE
  5
66E
330
669
100
AcDbEntity
  8
LAY-20
  6
CONTINUOUS
 62
     4
100
AcDbLine
 10
2745.1530627675
 20
2430.57952114
 30
0.0
 11
2745.1530627675
 21
1396.179521140099
 31
0.0
  0
INSERT
  5
66F
330
669
100
AcDbEntity
  8
LAY-20
 62
     4
100
AcDbBlockReference
  2
EX_BNORM
 10
2745.1530627675
 20
2455.57952114
 30
0.0
 41
25.0
 42
25.0
 43
25.0
 50
90.0
  0
INSERT
  5
670
330
669
100
AcDbEntity
  8
LAY-20
 62
     4
100
AcDbBlockReference
  2
EX_BNORM
 10
2745.1530627675
 20
1371.179521140099
 30
0.0
 41
25.0
 42
25.0
 43
25.0
 50
270.0
  0
MTEXT
  5
671
330
669
100
AcDbEntity
  8
LAY-20
 62
     7
100
AcDbMText
 10
2720.1530627675
 20
1913.37952114005
 30
0.0
 40
31.181104
 41
0.0
 71
     5
 72
     1
  1
1084
  7
EXCADDIM1
 11
0.0
 21
1.0
 31
0.0
  0
POINT
  5
672
330
669
100
AcDbEntity
  8
DEFPOINTS
 62
     0
100
AcDbPoint
 10
2492.5530627675
 20
2455.57952114
 30
0.0
  0
POINT
  5
673
330
669
100
AcDbEntity
  8
DEFPOINTS
 62
     0
100
AcDbPoint
 10
2492.5530627675
 20
1371.179521140099
 30
0.0
  0
POINT
  5
674
330
669
100
AcDbEntity
  8
DEFPOINTS
 62
     0
100
AcDbPoint
 10
2745.1530627675
 20
1371.179521140099
 30
0.0
  0
ENDBLK
  5
66B
330
669
100
AcDbEntity
  8
0
100
AcDbBlockEnd
  0
ENDSEC
  0
SECTION
  2
ENTITIES
  0
LINE
  5
D5
330
1F
100
AcDbEntity
  8
LAY-10
  6
CONTINUOUS
 62
     7
100
AcDbLine
 10
1931.54072575688
 20
852.6923563172224
 30
0.0
 11
1931.912063464258
 21
853.0636940246012
 31
0.0
  0
LINE
  5
D6
330
1F
100
AcDbEntity
  8
LAY-10
  6
CONTINUOUS
 62
     7
100
AcDbLine
 10
1931.54072575689
 20
851.2781427548596
 30
0.0
 11
1933.326277026634
 21
853.0636940246036
 31
0.0
  0
LINE
  5
D7
330
1F
100
AcDbEntity
  8
LAY-10
  6
CONTINUOUS
 62
     7
100
AcDbLine
 10
1932.740490589007
 20
851.0636940246034
 30
0.0
 11
1934.74049058901
 21
853.0636940246063
 31
0.0
  0
LINE
  5
D8
330
1F
100
AcDbEntity
  8
LAY-10
  6
CONTINUOUS
 62
     7
100
AcDbLine
 10
1934.154704151382
 20
851.0636940246059
 30
0.0
 11
1936.154704151385
 21
853.0636940246088
 31
0.0
  0
LINE
  5
D9
330
1F
100
AcDbEntity
  8
LAY-10
  6
CONTINUOUS
 62
     7
100
AcDbLine
 10
1935.568917713758
 20
851.0636940246087
 30
0.0
 11
1937.568917713748
 21
853.0636940245989
 31
0.0
  0
LINE
  5
DA
330
1F
100
AcDbEntity
  8
LAY-10
  6
CONTINUOUS
 62
     7
100
AcDbLine
 10
1936.983131276121
 20
851.0636940245985
 30
0.0
 11
1938.983131276124
 21
853.0636940246012
 31
0.0
  0
LINE
  5
DB
330
1F
100
AcDbEntity
  8
LAY-10
  6
CONTINUOUS
 62
     7
100
AcDbLine
 10
1938.397344838496
 20
851.0636940246009
 30
0.0
 11
1940.397344838499
 21
853.0636940246038
 31
0.0
  0
LINE
  5
DC
330
1F
100
AcDbEntity
  8
LAY-10
  6
CONTINUOUS
 62
     7
100
AcDbLine
 10
1939.811558400872
 20
851.0636940246036
 30
0.0
 11
1941.811558400875
 21
853.0636940246063
 31
0.0
  0
LINE
  5
DD
330
1F
100
AcDbEntity
  8
LAY-10
  6
CONTINUOUS
 62
     7
100
AcDbLine
 10
1941.225771963248
 20
851.0636940246064
 30
0.0
 11
1943.225771963251
 21
853.0636940246092
 31
0.0
  0
LINE
  5
DE
330
1F
100
AcDbEntity
  8
LAY-10
  6
CONTINUOUS
 62
     7
100
AcDbLine
 10
1942.63998552561
 20
851.0636940245959
 30
0.0
 11
1944.639985525626
 21
853.0636940246116
 31
0.0
  0
LINE
  5
DF
330
1F
100
AcDbEntity
  8
LAY-10
  6
CONTINUOUS
 62
     7
100
AcDbLine
 10
1944.054199087986
 20
851.0636940245986
 30
0.0
 11
1946.054199087989
 21
853.0636940246013
 31
0.0
  0
LINE
  5
E0
330
1F
100
AcDbEntity
  8
LAY-10
  6
CONTINUOUS
 62
     7
100
AcDbLine
 10
1945.468412650362
 20
851.0636940246011
 30
0.0
 11
1947.468412650364
 21
853.063694024604
 31
0.0
  0
LINE
  5
E1
330
1F
100
AcDbEntity
  8
LAY-10
  6
CONTINUOUS
 62
     7
100
AcDbLine
 10
1946.882626212737
 20
851.0636940246036
 30
0.0
 11
1948.88262621274
 21
853.0636940246069
 31
0.0
  0
LINE
  5
E2
330
1F
100
AcDbEntity
  8
LAY-10
  6
CONTINUOUS
 62
     7
100
AcDbLine
 10
1948.296839775113
 20
851.0636940246064
 30
0.0
 11
1950.296839775116
 21
853.0636940246093
 31
0.0
  0
LINE
  5
E3
330
1F
100
AcDbEntity
  8
LAY-10
  6
CONTINUOUS
 62
     7
100
AcDbLine
 10
1949.711053337475
 20
851.0636940245962
 30
0.0
 11
1951.711053337491
 21
853.0636940246118
 31
0.0
  0
LINE
  5
E4
330
1F
100
AcDbEntity
  8
LAY-10
  6
CONTINUOUS
 62
     7
100
AcDbLine
 10
1951.125266899851
 20
851.0636940245986
 30
0.0
 11
1953.125266899867
 21
853.0636940246143
 31
0.0
  0
LINE
  5
E5
330
1F
100
AcDbEntity
  8
LAY-10
  6
CONTINUOUS
 62
     7
100
AcDbLine
 10
1952.539480462226
 20
851.0636940246013
 30
0.0
 11
1954.53948046223
 21
853.0636940246043
 31
0.0
  0
LINE
  5
E6
330
1F
100
AcDbEntity
  8
LAY-10
  6
CONTINUOUS
 62
     7
100
AcDbLine
 10
1953.953694024603
 20
851.0636940246038
 30
0.0
 11
1955.953694024605
 21
853.0636940246069
 31
0.0
  0
LINE
  5
E7
330
1F
100
AcDbEntity
  8
LAY-10
  6
CONTINUOUS
 62
     7
100
AcDbLine
 10
1955.367907586965
 20
851.0636940245939
 30
0.0
 11
1956.540725756888
 21
852.2365121945168
 31
0.0
  0
LINE
  5
E8
330
1F
100
AcDbEntity
  8
LAY-10
  6
CONTINUOUS
 62
     7
100
AcDbLine
 10
302.5407257570555
 20
852.3497011558957
 30
0.0
 11
303.2547186257552
 21
853.063694024595
 31
0.0
  0
LINE
  5
E9
330
1F
100
AcDbEntity
  8
LAY-10
  6
CONTINUOUS
 62
     7
100
AcDbLine
 10
302.6689321881404
 20
851.0636940246076
 30
0.0
 11
304.6689321881308
 21
853.0636940245972
 31
0.0
  0
LINE
  5
EA
330
1F
100
AcDbEntity
  8
LAY-10
  6
CONTINUOUS
 62
     7
100
AcDbLine
 10
304.0831457505169
 20
851.0636940246098
 30
0.0
 11
306.0831457505064
 21
853.0636940245997
 31
0.0
  0
LINE
  5
EB
330
1F
100
AcDbEntity
  8
LAY-10
  6
CONTINUOUS
 62
     7
100
AcDbLine
 10
305.4973593128793
 20
851.0636940245993
 30
0.0
 11
307.4973593128821
 21
853.0636940246023
 31
0.0
  0
LINE
  5
EC
330
1F
100
AcDbEntity
  8
LAY-10
  6
CONTINUOUS
 62
     7
100
AcDbLine
 10
306.9115728752554
 20
851.0636940246019
 30
0.0
 11
308.9115728752586
 21
853.0636940246046
 31
0.0
  0
LINE
  5
ED
330
1F
100
AcDbEntity
  8
LAY-10
  6
CONTINUOUS
 62
     7
100
AcDbLine
 10
308.325786437631
 20
851.0636940246043
 30
0.0
 11
310.325786437621
 21
853.0636940245944
 31
0.0
  0
LINE
  5
EE
330
1F
100
AcDbEntity
  8
LAY-10
  6
CONTINUOUS
 62
     7
100
AcDbLine
 10
309.7400000000066
 20
851.0636940246065
 30
0.0
 11
311.7399999999971
 21
853.0636940245968
 31
0.0
  0
LINE
  5
EF
330
1F
100
AcDbEntity
  8
LAY-10
  6
CONTINUOUS
 62
     7
100
AcDbLine
 10
311.1542135623822
 20
851.063694024609
 30
0.0
 11
313.1542135623727
 21
853.063694024599
 31
0.0
  0
LINE
  5
F0
330
1F
100
AcDbEntity
  8
LAY-10
  6
CONTINUOUS
 62
     7
100
AcDbLine
 10
312.5684271247455
 20
851.0636940245986
 30
0.0
 11
314.5684271247487
 21
853.0636940246015
 31
0.0
  0
LINE
  5
F1
330
1F
100
AcDbEntity
  8
LAY-10
  6
CONTINUOUS
 62
     7
100
AcDbLine
 10
313.9826406871211
 20
851.0636940246009
 30
0.0
 11
315.9826406871116
 21
853.0636940245911
 31
0.0
  0
LINE
  5
F2
330
1F
100
AcDbEntity
  8
LAY-10
  6
CONTINUOUS
 62
     7
100
AcDbLine
 10
315.3968542494977
 20
851.0636940246034
 30
0.0
 11
317.3968542494872
 21
853.0636940245934
 31
0.0
  0
LINE
  5
F3
330
1F
100
AcDbEntity
  8
LAY-10
  6
CONTINUOUS
 62
     7
100
AcDbLine
 10
316.8110678118733
 20
851.0636940246059
 30
0.0
 11
318.8110678118628
 21
853.0636940245959
 31
0.0
  0
LINE
  5
F4
330
1F
100
AcDbEntity
  8
LAY-10
  6
CONTINUOUS
 62
     7
100
AcDbLine
 10
318.2252813742489
 20
851.0636940246081
 30
0.0
 11
320.2252813742393
 21
853.0636940245984
 31
0.0
  0
LINE
  5
F5
330
1F
100
AcDbEntity
  8
LAY-10
  6
CONTINUOUS
 62
     7
100
AcDbLine
 10
319.6394949366118
 20
851.0636940245977
 30
0.0
 11
321.6394949366149
 21
853.0636940246006
 31
0.0
  0
LINE
  5
F6
330
1F
100
AcDbEntity
  8
LAY-10
  6
CONTINUOUS
 62
     7
100
AcDbLine
 10
321.0537084989878
 20
851.0636940246002
 30
0.0
 11
323.0537084989783
 21
853.0636940245902
 31
0.0
  0
LINE
  5
F7
330
1F
100
AcDbEntity
  8
LAY-10
  6
CONTINUOUS
 62
     7
100
AcDbLine
 10
322.4679220613639
 20
851.0636940246025
 30
0.0
 11
324.4679220613539
 21
853.0636940245927
 31
0.0
  0
LINE
  5
F8
330
1F
100
AcDbEntity
  8
LAY-10
  6
CONTINUOUS
 62
     7
100
AcDbLine
 10
323.8821356237395
 20
851.063694024605
 30
0.0
 11
325.8821356237295
 21
853.063694024595
 31
0.0
  0
LINE
  5
F9
330
1F
100
AcDbEntity
  8
LAY-10
  6
CONTINUOUS
 62
     7
100
AcDbLine
 10
325.2963491861155
 20
851.0636940246076
 30
0.0
 11
327.2963491861055
 21
853.0636940245975
 31
0.0
  0
LINE
  5
FA
330
1F
100
AcDbEntity
  8
LAY-10
  6
CONTINUOUS
 62
     7
100
AcDbLine
 10
326.7105627484907
 20
851.0636940246098
 30
0.0
 11
327.5407257570555
 21
851.8938570331736
 31
0.0
  0
LINE
  5
FB
330
1F
100
AcDbEntity
  8
LAY-10
  6
CONTINUOUS
 62
     7
100
AcDbLine
 10
339.1407257570809
 20
814.6638125470548
 30
0.0
 11
349.3406072345845
 21
824.8636940245583
 31
0.0
  0
LINE
  5
FC
330
1F
100
AcDbEntity
  8
LAY-10
  6
CONTINUOUS
 62
     7
100
AcDbLine
 10
339.1407257570809
 20
800.5216769233238
 30
0.0
 11
363.4827428583152
 21
824.8636940245583
 31
0.0
  0
LINE
  5
FD
330
1F
100
AcDbEntity
  8
LAY-10
  6
CONTINUOUS
 62
     7
100
AcDbLine
 10
339.1407257570809
 20
786.3795412995928
 30
0.0
 11
377.6248784820463
 21
824.8636940245583
 31
0.0
  0
LINE
  5
FE
330
1F
100
AcDbEntity
  8
LAY-10
  6
CONTINUOUS
 62
     7
100
AcDbLine
 10
344.9670141057684
 20
778.0636940245492
 30
0.0
 11
391.7670141057772
 21
824.8636940245583
 31
0.0
  0
LINE
  5
FF
330
1F
100
AcDbEntity
  8
LAY-10
  6
CONTINUOUS
 62
     7
100
AcDbLine
 10
359.1091497294992
 20
778.0636940245492
 30
0.0
 11
405.9091497295083
 21
824.8636940245583
 31
0.0
  0
LINE
  5
100
330
1F
100
AcDbEntity
  8
LAY-10
  6
CONTINUOUS
 62
     7
100
AcDbLine
 10
373.2512853532303
 20
778.0636940245495
 30
0.0
 11
420.0512853532391
 21
824.8636940245583
 31
0.0
  0
LINE
  5
101
330
1F
100
AcDbEntity
  8
LAY-10
  6
CONTINUOUS
 62
     7
100
AcDbLine
 10
387.3934209769614
 20
778.0636940245495
 30
0.0
 11
434.1934209769702
 21
824.8636940245583
 31
0.0
  0
LINE
  5
102
330
1F
100
AcDbEntity
  8
LAY-10
  6
CONTINUOUS
 62
     7
100
AcDbLine
 10
401.5355566006922
 20
778.0636940245492
 30
0.0
 11
448.335556600701
 21
824.8636940245583
 31
0.0
  0
LINE
  5
103
330
1F
100
AcDbEntity
  8
LAY-10
  6
CONTINUOUS
 62
     7
100
AcDbLine
 10
415.6776922244231
 20
778.0636940245492
 30
0.0
 11
462.4776922244321
 21
824.8636940245583
 31
0.0
  0
LINE
  5
104
330
1F
100
AcDbEntity
  8
LAY-10
  6
CONTINUOUS
 62
     7
100
AcDbLine
 10
429.8198278481541
 20
778.0636940245492
 30
0.0
 11
476.6198278481629
 21
824.8636940245583
 31
0.0
  0
LINE
  5
105
330
1F
100
AcDbEntity
  8
LAY-10
  6
CONTINUOUS
 62
     7
100
AcDbLine
 10
443.9619634718849
 20
778.0636940245492
 30
0.0
 11
490.761963471894
 21
824.8636940245583
 31
0.0
  0
LINE
  5
106
330
1F
100
AcDbEntity
  8
LAY-10
  6
CONTINUOUS
 62
     7
100
AcDbLine
 10
458.1040990956158
 20
778.0636940245495
 30
0.0
 11
504.9040990956249
 21
824.8636940245583
 31
0.0
  0
LINE
  5
107
330
1F
100
AcDbEntity
  8
LAY-10
  6
CONTINUOUS
 62
     7
100
AcDbLine
 10
472.2462347193468
 20
778.0636940245495
 30
0.0
 11
519.0462347193559
 21
824.8636940245583
 31
0.0
  0
LINE
  5
108
330
1F
100
AcDbEntity
  8
LAY-10
  6
CONTINUOUS
 62
     7
100
AcDbLine
 10
486.3883703430779
 20
778.0636940245492
 30
0.0
 11
533.1883703430867
 21
824.8636940245583
 31
0.0
  0
LINE
  5
109
330
1F
100
AcDbEntity
  8
LAY-10
  6
CONTINUOUS
 62
     7
100
AcDbLine
 10
500.5305059668087
 20
778.0636940245492
 30
0.0
 11
547.3305059668178
 21
824.8636940245581
 31
0.0
  0
LINE
  5
10A
330
1F
100
AcDbEntity
  8
LAY-10
  6
CONTINUOUS
 62
     7
100
AcDbLine
 10
514.6726415905396
 20
778.0636940245492
 30
0.0
 11
561.4726415905488
 21
824.8636940245583
 31
0.0
  0
LINE
  5
10B
330
1F
100
AcDbEntity
  8
LAY-10
  6
CONTINUOUS
 62
     7
100
AcDbLine
 10
528.8147772142706
 20
778.0636940245495
 30
0.0
 11
575.6147772142795
 21
824.8636940245583
 31
0.0
  0
LINE
  5
10C
330
1F
100
AcDbEntity
  8
LAY-10
  6
CONTINUOUS
 62
     7
100
AcDbLine
 10
542.9569128380017
 20
778.0636940245492
 30
0.0
 11
589.7569128380105
 21
824.8636940245581
 31
0.0
  0
LINE
  5
10D
330
1F
100
AcDbEntity
  8
LAY-10
  6
CONTINUOUS
 62
     7
100
AcDbLine
 10
557.0990484617325
 20
778.0636940245492
 30
0.0
 11
603.8990484617416
 21
824.8636940245583
 31
0.0
  0
LINE
  5
10E
330
1F
100
AcDbEntity
  8
LAY-10
  6
CONTINUOUS
 62
     7
100
AcDbLine
 10
571.2411840854636
 20
778.0636940245492
 30
0.0
 11
618.0411840854727
 21
824.8636940245581
 31
0.0
  0
LINE
  5
10F
330
1F
100
AcDbEntity
  8
LAY-10
  6
CONTINUOUS
 62
     7
100
AcDbLine
 10
585.3833197091944
 20
778.0636940245495
 30
0.0
 11
632.1833197092035
 21
824.8636940245583
 31
0.0
  0
LINE
  5
110
330
1F
100
AcDbEntity
  8
LAY-10
  6
CONTINUOUS
 62
     7
100
AcDbLine
 10
599.5254553329255
 20
778.0636940245492
 30
0.0
 11
646.3254553329343
 21
824.8636940245583
 31
0.0
  0
LINE
  5
111
330
1F
100
AcDbEntity
  8
LAY-10
  6
CONTINUOUS
 62
     7
100
AcDbLine
 10
613.6675909566563
 20
778.0636940245492
 30
0.0
 11
660.4675909566654
 21
824.8636940245581
 31
0.0
  0
LINE
  5
112
330
1F
100
AcDbEntity
  8
LAY-10
  6
CONTINUOUS
 62
     7
100
AcDbLine
 10
627.8097265803872
 20
778.0636940245492
 30
0.0
 11
674.6097265803962
 21
824.8636940245583
 31
0.0
  0
LINE
  5
113
330
1F
100
AcDbEntity
  8
LAY-10
  6
CONTINUOUS
 62
     7
100
AcDbLine
 10
641.9518622041182
 20
778.0636940245492
 30
0.0
 11
688.7518622041273
 21
824.8636940245581
 31
0.0
  0
LINE
  5
114
330
1F
100
AcDbEntity
  8
LAY-10
  6
CONTINUOUS
 62
     7
100
AcDbLine
 10
656.0939978278493
 20
778.0636940245495
 30
0.0
 11
702.8939978278581
 21
824.8636940245583
 31
0.0
  0
LINE
  5
115
330
1F
100
AcDbEntity
  8
LAY-10
  6
CONTINUOUS
 62
     7
100
AcDbLine
 10
670.2361334515804
 20
778.0636940245492
 30
0.0
 11
717.0361334515892
 21
824.8636940245583
 31
0.0
  0
LINE
  5
116
330
1F
100
AcDbEntity
  8
LAY-10
  6
CONTINUOUS
 62
     7
100
AcDbLine
 10
684.378269075311
 20
778.0636940245492
 30
0.0
 11
731.1782690753203
 21
824.8636940245581
 31
0.0
  0
LINE
  5
117
330
1F
100
AcDbEntity
  8
LAY-10
  6
CONTINUOUS
 62
     7
100
AcDbLine
 10
698.520404699042
 20
778.0636940245492
 30
0.0
 11
745.3204046990508
 21
824.8636940245583
 31
0.0
  0
LINE
  5
118
330
1F
100
AcDbEntity
  8
LAY-10
  6
CONTINUOUS
 62
     7
100
AcDbLine
 10
712.6625403227731
 20
778.0636940245492
 30
0.0
 11
759.4625403227818
 21
824.8636940245581
 31
0.0
  0
LINE
  5
119
330
1F
100
AcDbEntity
  8
LAY-10
  6
CONTINUOUS
 62
     7
100
AcDbLine
 10
726.804675946504
 20
778.0636940245495
 30
0.0
 11
773.6046759465131
 21
824.8636940245583
 31
0.0
  0
LINE
  5
11A
330
1F
100
AcDbEntity
  8
LAY-10
  6
CONTINUOUS
 62
     7
100
AcDbLine
 10
740.946811570235
 20
778.0636940245492
 30
0.0
 11
787.7468115702438
 21
824.8636940245583
 31
0.0
  0
LINE
  5
11B
330
1F
100
AcDbEntity
  8
LAY-10
  6
CONTINUOUS
 62
     7
100
AcDbLine
 10
755.0889471939659
 20
778.0636940245492
 30
0.0
 11
801.8889471939749
 21
824.8636940245581
 31
0.0
  0
LINE
  5
11C
330
1F
100
AcDbEntity
  8
LAY-10
  6
CONTINUOUS
 62
     7
100
AcDbLine
 10
769.2310828176969
 20
778.0636940245492
 30
0.0
 11
816.0310828177057
 21
824.8636940245583
 31
0.0
  0
LINE
  5
11D
330
1F
100
AcDbEntity
  8
LAY-10
  6
CONTINUOUS
 62
     7
100
AcDbLine
 10
783.373218441428
 20
778.0636940245492
 30
0.0
 11
830.1732184414368
 21
824.8636940245581
 31
0.0
  0
LINE
  5
11E
330
1F
100
AcDbEntity
  8
LAY-10
  6
CONTINUOUS
 62
     7
100
AcDbLine
 10
797.5153540651587
 20
778.0636940245495
 30
0.0
 11
844.3153540651676
 21
824.8636940245583
 31
0.0
  0
LINE
  5
11F
330
1F
100
AcDbEntity
  8
LAY-10
  6
CONTINUOUS
 62
     7
100
AcDbLine
 10
811.6574896888898
 20
778.0636940245492
 30
0.0
 11
858.4574896888985
 21
824.8636940245583
 31
0.0
  0
LINE
  5
120
330
1F
100
AcDbEntity
  8
LAY-10
  6
CONTINUOUS
 62
     7
100
AcDbLine
 10
825.7996253126208
 20
778.0636940245492
 30
0.0
 11
872.5996253126295
 21
824.8636940245581
 31
0.0
  0
LINE
  5
121
330
1F
100
AcDbEntity
  8
LAY-10
  6
CONTINUOUS
 62
     7
100
AcDbLine
 10
839.9417609363516
 20
778.0636940245492
 30
0.0
 11
886.7417609363606
 21
824.8636940245583
 31
0.0
  0
LINE
  5
122
330
1F
100
AcDbEntity
  8
LAY-10
  6
CONTINUOUS
 62
     7
100
AcDbLine
 10
854.0838965600826
 20
778.0636940245492
 30
0.0
 11
900.8838965600917
 21
824.8636940245581
 31
0.0
  0
LINE
  5
123
330
1F
100
AcDbEntity
  8
LAY-10
  6
CONTINUOUS
 62
     7
100
AcDbLine
 10
868.2260321838135
 20
778.0636940245492
 30
0.0
 11
915.0260321838223
 21
824.8636940245581
 31
0.0
  0
LINE
  5
124
330
1F
100
AcDbEntity
  8
LAY-10
  6
CONTINUOUS
 62
     7
100
AcDbLine
 10
882.3681678075445
 20
778.0636940245492
 30
0.0
 11
929.1681678075533
 21
824.8636940245581
 31
0.0
  0
LINE
  5
125
330
1F
100
AcDbEntity
  8
LAY-10
  6
CONTINUOUS
 62
     7
100
AcDbLine
 10
896.5103034312756
 20
778.0636940245492
 30
0.0
 11
943.3103034312844
 21
824.8636940245581
 31
0.0
  0
LINE
  5
126
330
1F
100
AcDbEntity
  8
LAY-10
  6
CONTINUOUS
 62
     7
100
AcDbLine
 10
910.6524390550062
 20
778.0636940245492
 30
0.0
 11
957.4524390550155
 21
824.8636940245583
 31
0.0
  0
LINE
  5
127
330
1F
100
AcDbEntity
  8
LAY-10
  6
CONTINUOUS
 62
     7
100
AcDbLine
 10
924.7945746787373
 20
778.0636940245492
 30
0.0
 11
971.5945746787463
 21
824.8636940245581
 31
0.0
  0
LINE
  5
128
330
1F
100
AcDbEntity
  8
LAY-10
  6
CONTINUOUS
 62
     7
100
AcDbLine
 10
938.9367103024683
 20
778.0636940245492
 30
0.0
 11
985.7367103024771
 21
824.8636940245581
 31
0.0
  0
LINE
  5
129
330
1F
100
AcDbEntity
  8
LAY-10
  6
CONTINUOUS
 62
     7
100
AcDbLine
 10
953.0788459261994
 20
778.0636940245492
 30
0.0
 11
999.8788459262082
 21
824.8636940245581
 31
0.0
  0
LINE
  5
12A
330
1F
100
AcDbEntity
  8
LAY-10
  6
CONTINUOUS
 62
     7
100
AcDbLine
 10
967.2209815499305
 20
778.0636940245492
 30
0.0
 11
1014.020981549939
 21
824.8636940245581
 31
0.0
  0
LINE
  5
12B
330
1F
100
AcDbEntity
  8
LAY-10
  6
CONTINUOUS
 62
     7
100
AcDbLine
 10
981.3631171736611
 20
778.0636940245492
 30
0.0
 11
1028.16311717367
 21
824.8636940245583
 31
0.0
  0
LINE
  5
12C
330
1F
100
AcDbEntity
  8
LAY-10
  6
CONTINUOUS
 62
     7
100
AcDbLine
 10
995.5052527973921
 20
778.0636940245492
 30
0.0
 11
1042.305252797401
 21
824.8636940245581
 31
0.0
  0
LINE
  5
12D
330
1F
100
AcDbEntity
  8
LAY-10
  6
CONTINUOUS
 62
     7
100
AcDbLine
 10
1009.647388421123
 20
778.063694024549
 30
0.0
 11
1056.447388421132
 21
824.8636940245581
 31
0.0
  0
LINE
  5
12E
330
1F
100
AcDbEntity
  8
LAY-10
  6
CONTINUOUS
 62
     7
100
AcDbLine
 10
1023.789524044854
 20
778.0636940245492
 30
0.0
 11
1070.589524044863
 21
824.8636940245581
 31
0.0
  0
LINE
  5
12F
330
1F
100
AcDbEntity
  8
LAY-10
  6
CONTINUOUS
 62
     7
100
AcDbLine
 10
1037.931659668585
 20
778.0636940245492
 30
0.0
 11
1084.731659668594
 21
824.8636940245581
 31
0.0
  0
LINE
  5
130
330
1F
100
AcDbEntity
  8
LAY-10
  6
CONTINUOUS
 62
     7
100
AcDbLine
 10
1052.073795292316
 20
778.0636940245492
 30
0.0
 11
1098.873795292325
 21
824.8636940245583
 31
0.0
  0
LINE
  5
131
330
1F
100
AcDbEntity
  8
LAY-10
  6
CONTINUOUS
 62
     7
100
AcDbLine
 10
1066.215930916047
 20
778.0636940245492
 30
0.0
 11
1113.015930916056
 21
824.8636940245581
 31
0.0
  0
LINE
  5
132
330
1F
100
AcDbEntity
  8
LAY-10
  6
CONTINUOUS
 62
     7
100
AcDbLine
 10
1080.358066539778
 20
778.063694024549
 30
0.0
 11
1127.158066539787
 21
824.8636940245581
 31
0.0
  0
LINE
  5
133
330
1F
100
AcDbEntity
  8
LAY-10
  6
CONTINUOUS
 62
     7
100
AcDbLine
 10
1094.500202163509
 20
778.0636940245492
 30
0.0
 11
1141.300202163518
 21
824.8636940245581
 31
0.0
  0
LINE
  5
134
330
1F
100
AcDbEntity
  8
LAY-10
  6
CONTINUOUS
 62
     7
100
AcDbLine
 10
1108.64233778724
 20
778.0636940245492
 30
0.0
 11
1155.442337787249
 21
824.8636940245581
 31
0.0
  0
LINE
  5
135
330
1F
100
AcDbEntity
  8
LAY-10
  6
CONTINUOUS
 62
     7
100
AcDbLine
 10
1122.784473410971
 20
778.0636940245492
 30
0.0
 11
1169.58447341098
 21
824.8636940245581
 31
0.0
  0
LINE
  5
136
330
1F
100
AcDbEntity
  8
LAY-10
  6
CONTINUOUS
 62
     7
100
AcDbLine
 10
1136.926609034702
 20
778.0636940245492
 30
0.0
 11
1183.72660903471
 21
824.8636940245581
 31
0.0
  0
LINE
  5
137
330
1F
100
AcDbEntity
  8
LAY-10
  6
CONTINUOUS
 62
     7
100
AcDbLine
 10
1151.068744658432
 20
778.063694024549
 30
0.0
 11
1197.868744658442
 21
824.8636940245581
 31
0.0
  0
LINE
  5
138
330
1F
100
AcDbEntity
  8
LAY-10
  6
CONTINUOUS
 62
     7
100
AcDbLine
 10
1165.210880282164
 20
778.0636940245492
 30
0.0
 11
1212.010880282173
 21
824.8636940245581
 31
0.0
  0
LINE
  5
139
330
1F
100
AcDbEntity
  8
LAY-10
  6
CONTINUOUS
 62
     7
100
AcDbLine
 10
1179.353015905895
 20
778.0636940245492
 30
0.0
 11
1226.153015905903
 21
824.8636940245581
 31
0.0
  0
LINE
  5
13A
330
1F
100
AcDbEntity
  8
LAY-10
  6
CONTINUOUS
 62
     7
100
AcDbLine
 10
1193.495151529625
 20
778.0636940245492
 30
0.0
 11
1240.295151529634
 21
824.8636940245581
 31
0.0
  0
LINE
  5
13B
330
1F
100
AcDbEntity
  8
LAY-10
  6
CONTINUOUS
 62
     7
100
AcDbLine
 10
1207.637287153356
 20
778.0636940245492
 30
0.0
 11
1254.437287153365
 21
824.8636940245581
 31
0.0
  0
LINE
  5
13C
330
1F
100
AcDbEntity
  8
LAY-10
  6
CONTINUOUS
 62
     7
100
AcDbLine
 10
1221.779422777087
 20
778.063694024549
 30
0.0
 11
1268.579422777096
 21
824.8636940245581
 31
0.0
  0
LINE
  5
13D
330
1F
100
AcDbEntity
  8
LAY-10
  6
CONTINUOUS
 62
     7
100
AcDbLine
 10
1235.921558400818
 20
778.0636940245492
 30
0.0
 11
1282.721558400827
 21
824.8636940245581
 31
0.0
  0
LINE
  5
13E
330
1F
100
AcDbEntity
  8
LAY-10
  6
CONTINUOUS
 62
     7
100
AcDbLine
 10
1250.063694024549
 20
778.0636940245492
 30
0.0
 11
1296.863694024558
 21
824.8636940245581
 31
0.0
  0
LINE
  5
13F
330
1F
100
AcDbEntity
  8
LAY-10
  6
CONTINUOUS
 62
     7
100
AcDbLine
 10
1264.20582964828
 20
778.0636940245492
 30
0.0
 11
1311.005829648289
 21
824.8636940245581
 31
0.0
  0
LINE
  5
140
330
1F
100
AcDbEntity
  8
LAY-10
  6
CONTINUOUS
 62
     7
100
AcDbLine
 10
1278.347965272011
 20
778.0636940245492
 30
0.0
 11
1325.14796527202
 21
824.8636940245581
 31
0.0
  0
LINE
  5
141
330
1F
100
AcDbEntity
  8
LAY-10
  6
CONTINUOUS
 62
     7
100
AcDbLine
 10
1292.490100895742
 20
778.063694024549
 30
0.0
 11
1339.290100895751
 21
824.8636940245581
 31
0.0
  0
LINE
  5
142
330
1F
100
AcDbEntity
  8
LAY-10
  6
CONTINUOUS
 62
     7
100
AcDbLine
 10
1306.632236519473
 20
778.0636940245492
 30
0.0
 11
1353.432236519482
 21
824.8636940245581
 31
0.0
  0
LINE
  5
143
330
1F
100
AcDbEntity
  8
LAY-10
  6
CONTINUOUS
 62
     7
100
AcDbLine
 10
1320.774372143204
 20
778.0636940245492
 30
0.0
 11
1367.574372143213
 21
824.8636940245581
 31
0.0
  0
LINE
  5
144
330
1F
100
AcDbEntity
  8
LAY-10
  6
CONTINUOUS
 62
     7
100
AcDbLine
 10
1334.916507766935
 20
778.0636940245492
 30
0.0
 11
1381.716507766944
 21
824.8636940245581
 31
0.0
  0
LINE
  5
145
330
1F
100
AcDbEntity
  8
LAY-10
  6
CONTINUOUS
 62
     7
100
AcDbLine
 10
1349.058643390666
 20
778.0636940245492
 30
0.0
 11
1395.858643390675
 21
824.8636940245581
 31
0.0
  0
LINE
  5
146
330
1F
100
AcDbEntity
  8
LAY-10
  6
CONTINUOUS
 62
     7
100
AcDbLine
 10
1363.200779014397
 20
778.063694024549
 30
0.0
 11
1410.000779014406
 21
824.8636940245581
 31
0.0
  0
LINE
  5
147
330
1F
100
AcDbEntity
  8
LAY-10
  6
CONTINUOUS
 62
     7
100
AcDbLine
 10
1377.342914638128
 20
778.0636940245492
 30
0.0
 11
1424.142914638137
 21
824.8636940245581
 31
0.0
  0
LINE
  5
148
330
1F
100
AcDbEntity
  8
LAY-10
  6
CONTINUOUS
 62
     7
100
AcDbLine
 10
1391.485050261859
 20
778.0636940245492
 30
0.0
 11
1438.285050261868
 21
824.8636940245581
 31
0.0
  0
LINE
  5
149
330
1F
100
AcDbEntity
  8
LAY-10
  6
CONTINUOUS
 62
     7
100
AcDbLine
 10
1405.62718588559
 20
778.0636940245492
 30
0.0
 11
1452.427185885586
 21
824.8636940245453
 31
0.0
  0
LINE
  5
14A
330
1F
100
AcDbEntity
  8
LAY-10
  6
CONTINUOUS
 62
     7
100
AcDbLine
 10
1419.769321509321
 20
778.0636940245492
 30
0.0
 11
1466.569321509317
 21
824.8636940245453
 31
0.0
  0
LINE
  5
14B
330
1F
100
AcDbEntity
  8
LAY-10
  6
CONTINUOUS
 62
     7
100
AcDbLine
 10
1433.911457133051
 20
778.063694024549
 30
0.0
 11
1480.711457133048
 21
824.8636940245451
 31
0.0
  0
LINE
  5
14C
330
1F
100
AcDbEntity
  8
LAY-10
  6
CONTINUOUS
 62
     7
100
AcDbLine
 10
1448.053592756783
 20
778.0636940245492
 30
0.0
 11
1494.853592756779
 21
824.8636940245453
 31
0.0
  0
LINE
  5
14D
330
1F
100
AcDbEntity
  8
LAY-10
  6
CONTINUOUS
 62
     7
100
AcDbLine
 10
1462.195728380514
 20
778.063694024549
 30
0.0
 11
1508.99572838051
 21
824.8636940245451
 31
0.0
  0
LINE
  5
14E
330
1F
100
AcDbEntity
  8
LAY-10
  6
CONTINUOUS
 62
     7
100
AcDbLine
 10
1476.337864004245
 20
778.0636940245492
 30
0.0
 11
1523.13786400424
 21
824.8636940245453
 31
0.0
  0
LINE
  5
14F
330
1F
100
AcDbEntity
  8
LAY-10
  6
CONTINUOUS
 62
     7
100
AcDbLine
 10
1490.479999627975
 20
778.0636940245492
 30
0.0
 11
1537.279999627971
 21
824.8636940245451
 31
0.0
  0
LINE
  5
150
330
1F
100
AcDbEntity
  8
LAY-10
  6
CONTINUOUS
 62
     7
100
AcDbLine
 10
1504.622135251706
 20
778.063694024549
 30
0.0
 11
1551.422135251702
 21
824.8636940245451
 31
0.0
  0
LINE
  5
151
330
1F
100
AcDbEntity
  8
LAY-10
  6
CONTINUOUS
 62
     7
100
AcDbLine
 10
1518.764270875437
 20
778.0636940245492
 30
0.0
 11
1565.564270875433
 21
824.8636940245453
 31
0.0
  0
LINE
  5
152
330
1F
100
AcDbEntity
  8
LAY-10
  6
CONTINUOUS
 62
     7
100
AcDbLine
 10
1532.906406499168
 20
778.063694024549
 30
0.0
 11
1579.706406499164
 21
824.8636940245451
 31
0.0
  0
LINE
  5
153
330
1F
100
AcDbEntity
  8
LAY-10
  6
CONTINUOUS
 62
     7
100
AcDbLine
 10
1547.048542122899
 20
778.0636940245492
 30
0.0
 11
1593.848542122895
 21
824.8636940245453
 31
0.0
  0
LINE
  5
154
330
1F
100
AcDbEntity
  8
LAY-10
  6
CONTINUOUS
 62
     7
100
AcDbLine
 10
1561.19067774663
 20
778.0636940245492
 30
0.0
 11
1607.990677746626
 21
824.8636940245451
 31
0.0
  0
LINE
  5
155
330
1F
100
AcDbEntity
  8
LAY-10
  6
CONTINUOUS
 62
     7
100
AcDbLine
 10
1575.332813370361
 20
778.063694024549
 30
0.0
 11
1622.132813370357
 21
824.8636940245451
 31
0.0
  0
LINE
  5
156
330
1F
100
AcDbEntity
  8
LAY-10
  6
CONTINUOUS
 62
     7
100
AcDbLine
 10
1589.474948994092
 20
778.0636940245492
 30
0.0
 11
1636.274948994088
 21
824.8636940245453
 31
0.0
  0
LINE
  5
157
330
1F
100
AcDbEntity
  8
LAY-10
  6
CONTINUOUS
 62
     7
100
AcDbLine
 10
1603.617084617823
 20
778.063694024549
 30
0.0
 11
1650.417084617819
 21
824.8636940245451
 31
0.0
  0
LINE
  5
158
330
1F
100
AcDbEntity
  8
LAY-10
  6
CONTINUOUS
 62
     7
100
AcDbLine
 10
1617.759220241554
 20
778.063694024549
 30
0.0
 11
1664.55922024155
 21
824.8636940245451
 31
0.0
  0
LINE
  5
159
330
1F
100
AcDbEntity
  8
LAY-10
  6
CONTINUOUS
 62
     7
100
AcDbLine
 10
1631.901355865285
 20
778.0636940245492
 30
0.0
 11
1678.701355865281
 21
824.8636940245451
 31
0.0
  0
LINE
  5
15A
330
1F
100
AcDbEntity
  8
LAY-10
  6
CONTINUOUS
 62
     7
100
AcDbLine
 10
1646.043491489016
 20
778.063694024549
 30
0.0
 11
1692.843491489012
 21
824.8636940245451
 31
0.0
  0
LINE
  5
15B
330
1F
100
AcDbEntity
  8
LAY-10
  6
CONTINUOUS
 62
     7
100
AcDbLine
 10
1660.185627112747
 20
778.0636940245492
 30
0.0
 11
1706.985627112743
 21
824.8636940245453
 31
0.0
  0
LINE
  5
15C
330
1F
100
AcDbEntity
  8
LAY-10
  6
CONTINUOUS
 62
     7
100
AcDbLine
 10
1674.327762736478
 20
778.063694024549
 30
0.0
 11
1721.127762736474
 21
824.8636940245451
 31
0.0
  0
LINE
  5
15D
330
1F
100
AcDbEntity
  8
LAY-10
  6
CONTINUOUS
 62
     7
100
AcDbLine
 10
1688.469898360209
 20
778.0636940245492
 30
0.0
 11
1735.269898360205
 21
824.8636940245453
 31
0.0
  0
LINE
  5
15E
330
1F
100
AcDbEntity
  8
LAY-10
  6
CONTINUOUS
 62
     7
100
AcDbLine
 10
1702.612033983939
 20
778.0636940245492
 30
0.0
 11
1749.412033983936
 21
824.8636940245451
 31
0.0
  0
LINE
  5
15F
330
1F
100
AcDbEntity
  8
LAY-10
  6
CONTINUOUS
 62
     7
100
AcDbLine
 10
1716.754169607671
 20
778.0636940245492
 30
0.0
 11
1763.554169607667
 21
824.8636940245453
 31
0.0
  0
LINE
  5
160
330
1F
100
AcDbEntity
  8
LAY-10
  6
CONTINUOUS
 62
     7
100
AcDbLine
 10
1730.896305231402
 20
778.0636940245492
 30
0.0
 11
1777.696305231398
 21
824.8636940245451
 31
0.0
  0
LINE
  5
161
330
1F
100
AcDbEntity
  8
LAY-10
  6
CONTINUOUS
 62
     7
100
AcDbLine
 10
1745.038440855133
 20
778.063694024549
 30
0.0
 11
1791.838440855129
 21
824.8636940245451
 31
0.0
  0
LINE
  5
162
330
1F
100
AcDbEntity
  8
LAY-10
  6
CONTINUOUS
 62
     7
100
AcDbLine
 10
1759.180576478863
 20
778.0636940245492
 30
0.0
 11
1805.980576478859
 21
824.8636940245453
 31
0.0
  0
LINE
  5
163
330
1F
100
AcDbEntity
  8
LAY-10
  6
CONTINUOUS
 62
     7
100
AcDbLine
 10
1773.322712102594
 20
778.0636940245492
 30
0.0
 11
1820.12271210259
 21
824.8636940245453
 31
0.0
  0
LINE
  5
164
330
1F
100
AcDbEntity
  8
LAY-10
  6
CONTINUOUS
 62
     7
100
AcDbLine
 10
1787.464847726325
 20
778.063694024549
 30
0.0
 11
1834.264847726321
 21
824.8636940245451
 31
0.0
  0
LINE
  5
165
330
1F
100
AcDbEntity
  8
LAY-10
  6
CONTINUOUS
 62
     7
100
AcDbLine
 10
1801.606983350056
 20
778.0636940245492
 30
0.0
 11
1848.406983350052
 21
824.8636940245451
 31
0.0
  0
LINE
  5
166
330
1F
100
AcDbEntity
  8
LAY-10
  6
CONTINUOUS
 62
     7
100
AcDbLine
 10
1815.749118973787
 20
778.063694024549
 30
0.0
 11
1862.549118973783
 21
824.8636940245451
 31
0.0
  0
LINE
  5
167
330
1F
100
AcDbEntity
  8
LAY-10
  6
CONTINUOUS
 62
     7
100
AcDbLine
 10
1829.891254597518
 20
778.0636940245492
 30
0.0
 11
1876.691254597514
 21
824.8636940245453
 31
0.0
  0
LINE
  5
168
330
1F
100
AcDbEntity
  8
LAY-10
  6
CONTINUOUS
 62
     7
100
AcDbLine
 10
1844.033390221249
 20
778.0636940245492
 30
0.0
 11
1890.833390221245
 21
824.8636940245453
 31
0.0
  0
LINE
  5
169
330
1F
100
AcDbEntity
  8
LAY-10
  6
CONTINUOUS
 62
     7
100
AcDbLine
 10
1858.17552584498
 20
778.0636940245492
 30
0.0
 11
1904.975525844976
 21
824.8636940245451
 31
0.0
  0
LINE
  5
16A
330
1F
100
AcDbEntity
  8
LAY-10
  6
CONTINUOUS
 62
     7
100
AcDbLine
 10
1872.317661468711
 20
778.063694024549
 30
0.0
 11
1919.117661468707
 21
824.8636940245451
 31
0.0
  0
LINE
  5
16B
330
1F
100
AcDbEntity
  8
LAY-10
  6
CONTINUOUS
 62
     7
100
AcDbLine
 10
1886.459797092442
 20
778.063694024549
 30
0.0
 11
1919.940725757084
 21
811.5446226891909
 31
0.0
  0
LINE
  5
16C
330
1F
100
AcDbEntity
  8
LAY-10
  6
CONTINUOUS
 62
     7
100
AcDbLine
 10
1900.601932716173
 20
778.0636940245492
 30
0.0
 11
1919.940725757084
 21
797.40248706546
 31
0.0
  0
LINE
  5
16D
330
1F
100
AcDbEntity
  8
LAY-10
  6
CONTINUOUS
 62
     7
100
AcDbLine
 10
1914.744068339904
 20
778.0636940245492
 30
0.0
 11
1919.940725757084
 21
783.260351441729
 31
0.0
  0
LINE
  5
16E
330
1F
100
AcDbEntity
  8
LAY-10
  6
CONTINUOUS
 62
     7
100
AcDbLine
 10
348.2710835617308
 20
778.0636940245648
 30
0.0
 11
339.1407257570895
 21
787.194051829206
 31
0.0
  0
LINE
  5
16F
330
1F
100
AcDbEntity
  8
LAY-10
  6
CONTINUOUS
 62
     7
100
AcDbLine
 10
362.4132191854617
 20
778.0636940245648
 30
0.0
 11
339.1407257570895
 21
801.3361874529369
 31
0.0
  0
LINE
  5
170
330
1F
100
AcDbEntity
  8
LAY-10
  6
CONTINUOUS
 62
     7
100
AcDbLine
 10
376.5553548091927
 20
778.0636940245648
 30
0.0
 11
339.1407257570895
 21
815.478323076668
 31
0.0
  0
LINE
  5
171
330
1F
100
AcDbEntity
  8
LAY-10
  6
CONTINUOUS
 62
     7
100
AcDbLine
 10
390.6974904329236
 20
778.0636940245648
 30
0.0
 11
343.8974904329405
 21
824.8636940245478
 31
0.0
  0
LINE
  5
172
330
1F
100
AcDbEntity
  8
LAY-10
  6
CONTINUOUS
 62
     7
100
AcDbLine
 10
404.8396260566547
 20
778.0636940245645
 30
0.0
 11
358.0396260566713
 21
824.8636940245478
 31
0.0
  0
LINE
  5
173
330
1F
100
AcDbEntity
  8
LAY-10
  6
CONTINUOUS
 62
     7
100
AcDbLine
 10
418.9817616803857
 20
778.0636940245648
 30
0.0
 11
372.1817616804024
 21
824.8636940245478
 31
0.0
  0
LINE
  5
174
330
1F
100
AcDbEntity
  8
LAY-10
  6
CONTINUOUS
 62
     7
100
AcDbLine
 10
433.1238973041166
 20
778.0636940245648
 30
0.0
 11
386.3238973041334
 21
824.8636940245478
 31
0.0
  0
LINE
  5
175
330
1F
100
AcDbEntity
  8
LAY-10
  6
CONTINUOUS
 62
     7
100
AcDbLine
 10
447.2660329278474
 20
778.0636940245648
 30
0.0
 11
400.4660329278643
 21
824.8636940245478
 31
0.0
  0
LINE
  5
176
330
1F
100
AcDbEntity
  8
LAY-10
  6
CONTINUOUS
 62
     7
100
AcDbLine
 10
461.4081685515785
 20
778.0636940245645
 30
0.0
 11
414.6081685515951
 21
824.8636940245478
 31
0.0
  0
LINE
  5
177
330
1F
100
AcDbEntity
  8
LAY-10
  6
CONTINUOUS
 62
     7
100
AcDbLine
 10
475.5503041753096
 20
778.0636940245645
 30
0.0
 11
428.7503041753262
 21
824.8636940245478
 31
0.0
  0
LINE
  5
178
330
1F
100
AcDbEntity
  8
LAY-10
  6
CONTINUOUS
 62
     7
100
AcDbLine
 10
489.6924397990404
 20
778.0636940245645
 30
0.0
 11
442.8924397990572
 21
824.8636940245476
 31
0.0
  0
LINE
  5
179
330
1F
100
AcDbEntity
  8
LAY-10
  6
CONTINUOUS
 62
     7
100
AcDbLine
 10
503.8345754227712
 20
778.0636940245648
 30
0.0
 11
457.0345754227881
 21
824.8636940245478
 31
0.0
  0
LINE
  5
17A
330
1F
100
AcDbEntity
  8
LAY-10
  6
CONTINUOUS
 62
     7
100
AcDbLine
 10
517.9767110465023
 20
778.0636940245648
 30
0.0
 11
471.1767110465189
 21
824.8636940245478
 31
0.0
  0
LINE
  5
17B
330
1F
100
AcDbEntity
  8
LAY-10
  6
CONTINUOUS
 62
     7
100
AcDbLine
 10
532.1188466702331
 20
778.0636940245645
 30
0.0
 11
485.31884667025
 21
824.8636940245478
 31
0.0
  0
LINE
  5
17C
330
1F
100
AcDbEntity
  8
LAY-10
  6
CONTINUOUS
 62
     7
100
AcDbLine
 10
546.2609822939639
 20
778.0636940245648
 30
0.0
 11
499.4609822939808
 21
824.8636940245478
 31
0.0
  0
LINE
  5
17D
330
1F
100
AcDbEntity
  8
LAY-10
  6
CONTINUOUS
 62
     7
100
AcDbLine
 10
560.403117917695
 20
778.0636940245645
 30
0.0
 11
513.6031179177119
 21
824.8636940245478
 31
0.0
  0
LINE
  5
17E
330
1F
100
AcDbEntity
  8
LAY-10
  6
CONTINUOUS
 62
     7
100
AcDbLine
 10
574.5452535414261
 20
778.0636940245648
 30
0.0
 11
527.7452535414427
 21
824.8636940245478
 31
0.0
  0
LINE
  5
17F
330
1F
100
AcDbEntity
  8
LAY-10
  6
CONTINUOUS
 62
     7
100
AcDbLine
 10
588.6873891651569
 20
778.0636940245645
 30
0.0
 11
541.8873891651738
 21
824.8636940245476
 31
0.0
  0
LINE
  5
180
330
1F
100
AcDbEntity
  8
LAY-10
  6
CONTINUOUS
 62
     7
100
AcDbLine
 10
602.829524788888
 20
778.0636940245645
 30
0.0
 11
556.0295247889048
 21
824.8636940245478
 31
0.0
  0
LINE
  5
181
330
1F
100
AcDbEntity
  8
LAY-10
  6
CONTINUOUS
 62
     7
100
AcDbLine
 10
616.9716604126188
 20
778.0636940245648
 30
0.0
 11
570.1716604126354
 21
824.8636940245478
 31
0.0
  0
LINE
  5
182
330
1F
100
AcDbEntity
  8
LAY-10
  6
CONTINUOUS
 62
     7
100
AcDbLine
 10
631.1137960363499
 20
778.0636940245645
 30
0.0
 11
584.3137960363665
 21
824.8636940245478
 31
0.0
  0
LINE
  5
183
330
1F
100
AcDbEntity
  8
LAY-10
  6
CONTINUOUS
 62
     7
100
AcDbLine
 10
645.2559316600807
 20
778.0636940245648
 30
0.0
 11
598.4559316600976
 21
824.8636940245478
 31
0.0
  0
LINE
  5
184
330
1F
100
AcDbEntity
  8
LAY-10
  6
CONTINUOUS
 62
     7
100
AcDbLine
 10
659.3980672838115
 20
778.0636940245645
 30
0.0
 11
612.5980672838286
 21
824.8636940245476
 31
0.0
  0
LINE
  5
185
330
1F
100
AcDbEntity
  8
LAY-10
  6
CONTINUOUS
 62
     7
100
AcDbLine
 10
673.5402029075426
 20
778.0636940245645
 30
0.0
 11
626.7402029075595
 21
824.8636940245478
 31
0.0
  0
LINE
  5
186
330
1F
100
AcDbEntity
  8
LAY-10
  6
CONTINUOUS
 62
     7
100
AcDbLine
 10
687.6823385312737
 20
778.0636940245648
 30
0.0
 11
640.8823385312903
 21
824.8636940245478
 31
0.0
  0
LINE
  5
187
330
1F
100
AcDbEntity
  8
LAY-10
  6
CONTINUOUS
 62
     7
100
AcDbLine
 10
701.8244741550047
 20
778.0636940245645
 30
0.0
 11
655.0244741550214
 21
824.8636940245478
 31
0.0
  0
LINE
  5
188
330
1F
100
AcDbEntity
  8
LAY-10
  6
CONTINUOUS
 62
     7
100
AcDbLine
 10
715.9666097787353
 20
778.0636940245648
 30
0.0
 11
669.1666097787524
 21
824.8636940245478
 31
0.0
  0
LINE
  5
189
330
1F
100
AcDbEntity
  8
LAY-10
  6
CONTINUOUS
 62
     7
100
AcDbLine
 10
730.1087454024664
 20
778.0636940245645
 30
0.0
 11
683.3087454024833
 21
824.8636940245476
 31
0.0
  0
LINE
  5
18A
330
1F
100
AcDbEntity
  8
LAY-10
  6
CONTINUOUS
 62
     7
100
AcDbLine
 10
744.2508810261975
 20
778.0636940245645
 30
0.0
 11
697.450881026214
 21
824.8636940245478
 31
0.0
  0
LINE
  5
18B
330
1F
100
AcDbEntity
  8
LAY-10
  6
CONTINUOUS
 62
     7
100
AcDbLine
 10
758.3930166499283
 20
778.0636940245648
 30
0.0
 11
711.5930166499451
 21
824.8636940245478
 31
0.0
  0
LINE
  5
18C
330
1F
100
AcDbEntity
  8
LAY-10
  6
CONTINUOUS
 62
     7
100
AcDbLine
 10
772.5351522736594
 20
778.0636940245645
 30
0.0
 11
725.735152273676
 21
824.8636940245478
 31
0.0
  0
LINE
  5
18D
330
1F
100
AcDbEntity
  8
LAY-10
  6
CONTINUOUS
 62
     7
100
AcDbLine
 10
786.6772878973902
 20
778.0636940245648
 30
0.0
 11
739.8772878974071
 21
824.8636940245478
 31
0.0
  0
LINE
  5
18E
330
1F
100
AcDbEntity
  8
LAY-10
  6
CONTINUOUS
 62
     7
100
AcDbLine
 10
800.8194235211213
 20
778.0636940245645
 30
0.0
 11
754.0194235211379
 21
824.8636940245476
 31
0.0
  0
LINE
  5
18F
330
1F
100
AcDbEntity
  8
LAY-10
  6
CONTINUOUS
 62
     7
100
AcDbLine
 10
814.9615591448523
 20
778.0636940245645
 30
0.0
 11
768.161559144869
 21
824.8636940245478
 31
0.0
  0
LINE
  5
190
330
1F
100
AcDbEntity
  8
LAY-10
  6
CONTINUOUS
 62
     7
100
AcDbLine
 10
829.1036947685831
 20
778.0636940245645
 30
0.0
 11
782.3036947685998
 21
824.8636940245476
 31
0.0
  0
LINE
  5
191
330
1F
100
AcDbEntity
  8
LAY-10
  6
CONTINUOUS
 62
     7
100
AcDbLine
 10
843.2458303923141
 20
778.0636940245645
 30
0.0
 11
796.4458303923307
 21
824.8636940245478
 31
0.0
  0
LINE
  5
192
330
1F
100
AcDbEntity
  8
LAY-10
  6
CONTINUOUS
 62
     7
100
AcDbLine
 10
857.3879660160452
 20
778.0636940245648
 30
0.0
 11
810.5879660160617
 21
824.8636940245478
 31
0.0
  0
LINE
  5
193
330
1F
100
AcDbEntity
  8
LAY-10
  6
CONTINUOUS
 62
     7
100
AcDbLine
 10
871.5301016397759
 20
778.0636940245645
 30
0.0
 11
824.7301016397928
 21
824.8636940245476
 31
0.0
  0
LINE
  5
194
330
1F
100
AcDbEntity
  8
LAY-10
  6
CONTINUOUS
 62
     7
100
AcDbLine
 10
885.672237263507
 20
778.0636940245645
 30
0.0
 11
838.8722372635239
 21
824.8636940245478
 31
0.0
  0
LINE
  5
195
330
1F
100
AcDbEntity
  8
LAY-10
  6
CONTINUOUS
 62
     7
100
AcDbLine
 10
899.8143728872378
 20
778.0636940245645
 30
0.0
 11
853.0143728872545
 21
824.8636940245476
 31
0.0
  0
LINE
  5
196
330
1F
100
AcDbEntity
  8
LAY-10
  6
CONTINUOUS
 62
     7
100
AcDbLine
 10
913.9565085109689
 20
778.0636940245645
 30
0.0
 11
867.1565085109855
 21
824.8636940245478
 31
0.0
  0
LINE
  5
197
330
1F
100
AcDbEntity
  8
LAY-10
  6
CONTINUOUS
 62
     7
100
AcDbLine
 10
928.0986441346997
 20
778.0636940245648
 30
0.0
 11
881.2986441347166
 21
824.8636940245478
 31
0.0
  0
LINE
  5
198
330
1F
100
AcDbEntity
  8
LAY-10
  6
CONTINUOUS
 62
     7
100
AcDbLine
 10
942.2407797584306
 20
778.0636940245645
 30
0.0
 11
895.4407797584477
 21
824.8636940245476
 31
0.0
  0
LINE
  5
199
330
1F
100
AcDbEntity
  8
LAY-10
  6
CONTINUOUS
 62
     7
100
AcDbLine
 10
956.3829153821616
 20
778.0636940245645
 30
0.0
 11
909.5829153821785
 21
824.8636940245478
 31
0.0
  0
LINE
  5
19A
330
1F
100
AcDbEntity
  8
LAY-10
  6
CONTINUOUS
 62
     7
100
AcDbLine
 10
970.5250510058927
 20
778.0636940245645
 30
0.0
 11
923.7250510059093
 21
824.8636940245476
 31
0.0
  0
LINE
  5
19B
330
1F
100
AcDbEntity
  8
LAY-10
  6
CONTINUOUS
 62
     7
100
AcDbLine
 10
984.6671866296238
 20
778.0636940245645
 30
0.0
 11
937.8671866296404
 21
824.8636940245478
 31
0.0
  0
LINE
  5
19C
330
1F
100
AcDbEntity
  8
LAY-10
  6
CONTINUOUS
 62
     7
100
AcDbLine
 10
998.8093222533544
 20
778.0636940245648
 30
0.0
 11
952.0093222533715
 21
824.8636940245478
 31
0.0
  0
LINE
  5
19D
330
1F
100
AcDbEntity
  8
LAY-10
  6
CONTINUOUS
 62
     7
100
AcDbLine
 10
1012.951457877085
 20
778.0636940245645
 30
0.0
 11
966.1514578771023
 21
824.8636940245476
 31
0.0
  0
LINE
  5
19E
330
1F
100
AcDbEntity
  8
LAY-10
  6
CONTINUOUS
 62
     7
100
AcDbLine
 10
1027.093593500816
 20
778.0636940245645
 30
0.0
 11
980.2935935008333
 21
824.8636940245478
 31
0.0
  0
LINE
  5
19F
330
1F
100
AcDbEntity
  8
LAY-10
  6
CONTINUOUS
 62
     7
100
AcDbLine
 10
1041.235729124547
 20
778.0636940245645
 30
0.0
 11
994.4357291245643
 21
824.8636940245476
 31
0.0
  0
LINE
  5
1A0
330
1F
100
AcDbEntity
  8
LAY-10
  6
CONTINUOUS
 62
     7
100
AcDbLine
 10
1055.377864748278
 20
778.0636940245645
 30
0.0
 11
1008.577864748295
 21
824.8636940245476
 31
0.0
  0
LINE
  5
1A1
330
1F
100
AcDbEntity
  8
LAY-10
  6
CONTINUOUS
 62
     7
100
AcDbLine
 10
1069.520000372009
 20
778.0636940245648
 30
0.0
 11
1022.720000372026
 21
824.8636940245478
 31
0.0
  0
LINE
  5
1A2
330
1F
100
AcDbEntity
  8
LAY-10
  6
CONTINUOUS
 62
     7
100
AcDbLine
 10
1083.66213599574
 20
778.0636940245648
 30
0.0
 11
1036.862135995757
 21
824.8636940245478
 31
0.0
  0
LINE
  5
1A3
330
1F
100
AcDbEntity
  8
LAY-10
  6
CONTINUOUS
 62
     7
100
AcDbLine
 10
1097.804271619471
 20
778.0636940245645
 30
0.0
 11
1051.004271619488
 21
824.8636940245478
 31
0.0
  0
LINE
  5
1A4
330
1F
100
AcDbEntity
  8
LAY-10
  6
CONTINUOUS
 62
     7
100
AcDbLine
 10
1111.946407243202
 20
778.0636940245648
 30
0.0
 11
1065.146407243219
 21
824.8636940245478
 31
0.0
  0
LINE
  5
1A5
330
1F
100
AcDbEntity
  8
LAY-10
  6
CONTINUOUS
 62
     7
100
AcDbLine
 10
1126.088542866933
 20
778.0636940245648
 30
0.0
 11
1079.28854286695
 21
824.8636940245478
 31
0.0
  0
LINE
  5
1A6
330
1F
100
AcDbEntity
  8
LAY-10
  6
CONTINUOUS
 62
     7
100
AcDbLine
 10
1140.230678490664
 20
778.0636940245648
 30
0.0
 11
1093.430678490681
 21
824.8636940245478
 31
0.0
  0
LINE
  5
1A7
330
1F
100
AcDbEntity
  8
LAY-10
  6
CONTINUOUS
 62
     7
100
AcDbLine
 10
1154.372814114395
 20
778.0636940245648
 30
0.0
 11
1107.572814114412
 21
824.8636940245478
 31
0.0
  0
LINE
  5
1A8
330
1F
100
AcDbEntity
  8
LAY-10
  6
CONTINUOUS
 62
     7
100
AcDbLine
 10
1168.514949738126
 20
778.0636940245645
 30
0.0
 11
1121.714949738143
 21
824.8636940245478
 31
0.0
  0
LINE
  5
1A9
330
1F
100
AcDbEntity
  8
LAY-10
  6
CONTINUOUS
 62
     7
100
AcDbLine
 10
1182.657085361857
 20
778.0636940245648
 30
0.0
 11
1135.857085361874
 21
824.8636940245478
 31
0.0
  0
LINE
  5
1AA
330
1F
100
AcDbEntity
  8
LAY-10
  6
CONTINUOUS
 62
     7
100
AcDbLine
 10
1196.799220985588
 20
778.0636940245648
 30
0.0
 11
1149.999220985605
 21
824.8636940245478
 31
0.0
  0
LINE
  5
1AB
330
1F
100
AcDbEntity
  8
LAY-10
  6
CONTINUOUS
 62
     7
100
AcDbLine
 10
1210.941356609319
 20
778.0636940245648
 30
0.0
 11
1164.141356609336
 21
824.8636940245478
 31
0.0
  0
LINE
  5
1AC
330
1F
100
AcDbEntity
  8
LAY-10
  6
CONTINUOUS
 62
     7
100
AcDbLine
 10
1225.08349223305
 20
778.0636940245648
 30
0.0
 11
1178.283492233067
 21
824.8636940245478
 31
0.0
  0
LINE
  5
1AD
330
1F
100
AcDbEntity
  8
LAY-10
  6
CONTINUOUS
 62
     7
100
AcDbLine
 10
1239.225627856781
 20
778.0636940245645
 30
0.0
 11
1192.425627856798
 21
824.8636940245478
 31
0.0
  0
LINE
  5
1AE
330
1F
100
AcDbEntity
  8
LAY-10
  6
CONTINUOUS
 62
     7
100
AcDbLine
 10
1253.367763480512
 20
778.0636940245648
 30
0.0
 11
1206.567763480529
 21
824.8636940245478
 31
0.0
  0
LINE
  5
1AF
330
1F
100
AcDbEntity
  8
LAY-10
  6
CONTINUOUS
 62
     7
100
AcDbLine
 10
1267.509899104243
 20
778.0636940245648
 30
0.0
 11
1220.709899104259
 21
824.8636940245478
 31
0.0
  0
LINE
  5
1B0
330
1F
100
AcDbEntity
  8
LAY-10
  6
CONTINUOUS
 62
     7
100
AcDbLine
 10
1281.652034727974
 20
778.0636940245648
 30
0.0
 11
1234.85203472799
 21
824.8636940245478
 31
0.0
  0
LINE
  5
1B1
330
1F
100
AcDbEntity
  8
LAY-10
  6
CONTINUOUS
 62
     7
100
AcDbLine
 10
1295.794170351704
 20
778.0636940245648
 30
0.0
 11
1248.994170351721
 21
824.8636940245478
 31
0.0
  0
LINE
  5
1B2
330
1F
100
AcDbEntity
  8
LAY-10
  6
CONTINUOUS
 62
     7
100
AcDbLine
 10
1309.936305975436
 20
778.0636940245645
 30
0.0
 11
1263.136305975452
 21
824.8636940245478
 31
0.0
  0
LINE
  5
1B3
330
1F
100
AcDbEntity
  8
LAY-10
  6
CONTINUOUS
 62
     7
100
AcDbLine
 10
1324.078441599166
 20
778.0636940245648
 30
0.0
 11
1277.278441599183
 21
824.8636940245478
 31
0.0
  0
LINE
  5
1B4
330
1F
100
AcDbEntity
  8
LAY-10
  6
CONTINUOUS
 62
     7
100
AcDbLine
 10
1338.220577222897
 20
778.0636940245648
 30
0.0
 11
1291.420577222914
 21
824.8636940245478
 31
0.0
  0
LINE
  5
1B5
330
1F
100
AcDbEntity
  8
LAY-10
  6
CONTINUOUS
 62
     7
100
AcDbLine
 10
1352.362712846628
 20
778.0636940245648
 30
0.0
 11
1305.562712846645
 21
824.8636940245478
 31
0.0
  0
LINE
  5
1B6
330
1F
100
AcDbEntity
  8
LAY-10
  6
CONTINUOUS
 62
     7
100
AcDbLine
 10
1366.504848470359
 20
778.0636940245648
 30
0.0
 11
1319.704848470376
 21
824.8636940245478
 31
0.0
  0
LINE
  5
1B7
330
1F
100
AcDbEntity
  8
LAY-10
  6
CONTINUOUS
 62
     7
100
AcDbLine
 10
1380.64698409409
 20
778.0636940245645
 30
0.0
 11
1333.846984094107
 21
824.8636940245478
 31
0.0
  0
LINE
  5
1B8
330
1F
100
AcDbEntity
  8
LAY-10
  6
CONTINUOUS
 62
     7
100
AcDbLine
 10
1394.789119717821
 20
778.0636940245648
 30
0.0
 11
1347.989119717838
 21
824.8636940245478
 31
0.0
  0
LINE
  5
1B9
330
1F
100
AcDbEntity
  8
LAY-10
  6
CONTINUOUS
 62
     7
100
AcDbLine
 10
1408.931255341552
 20
778.0636940245648
 30
0.0
 11
1362.131255341569
 21
824.8636940245478
 31
0.0
  0
LINE
  5
1BA
330
1F
100
AcDbEntity
  8
LAY-10
  6
CONTINUOUS
 62
     7
100
AcDbLine
 10
1423.073390965283
 20
778.0636940245648
 30
0.0
 11
1376.2733909653
 21
824.8636940245478
 31
0.0
  0
LINE
  5
1BB
330
1F
100
AcDbEntity
  8
LAY-10
  6
CONTINUOUS
 62
     7
100
AcDbLine
 10
1437.215526589014
 20
778.0636940245648
 30
0.0
 11
1390.415526589031
 21
824.8636940245478
 31
0.0
  0
LINE
  5
1BC
330
1F
100
AcDbEntity
  8
LAY-10
  6
CONTINUOUS
 62
     7
100
AcDbLine
 10
1451.357662212745
 20
778.0636940245648
 30
0.0
 11
1404.557662212762
 21
824.8636940245478
 31
0.0
  0
LINE
  5
1BD
330
1F
100
AcDbEntity
  8
LAY-10
  6
CONTINUOUS
 62
     7
100
AcDbLine
 10
1465.499797836476
 20
778.0636940245648
 30
0.0
 11
1418.699797836493
 21
824.8636940245478
 31
0.0
  0
LINE
  5
1BE
330
1F
100
AcDbEntity
  8
LAY-10
  6
CONTINUOUS
 62
     7
100
AcDbLine
 10
1479.641933460207
 20
778.0636940245645
 30
0.0
 11
1432.841933460224
 21
824.8636940245476
 31
0.0
  0
LINE
  5
1BF
330
1F
100
AcDbEntity
  8
LAY-10
  6
CONTINUOUS
 62
     7
100
AcDbLine
 10
1493.784069083938
 20
778.0636940245648
 30
0.0
 11
1446.984069083955
 21
824.8636940245478
 31
0.0
  0
LINE
  5
1C0
330
1F
100
AcDbEntity
  8
LAY-10
  6
CONTINUOUS
 62
     7
100
AcDbLine
 10
1507.926204707669
 20
778.0636940245648
 30
0.0
 11
1461.126204707686
 21
824.8636940245478
 31
0.0
  0
LINE
  5
1C1
330
1F
100
AcDbEntity
  8
LAY-10
  6
CONTINUOUS
 62
     7
100
AcDbLine
 10
1522.0683403314
 20
778.0636940245648
 30
0.0
 11
1475.268340331417
 21
824.8636940245476
 31
0.0
  0
LINE
  5
1C2
330
1F
100
AcDbEntity
  8
LAY-10
  6
CONTINUOUS
 62
     7
100
AcDbLine
 10
1536.210475955131
 20
778.0636940245648
 30
0.0
 11
1489.410475955148
 21
824.8636940245478
 31
0.0
  0
LINE
  5
1C3
330
1F
100
AcDbEntity
  8
LAY-10
  6
CONTINUOUS
 62
     7
100
AcDbLine
 10
1550.352611578862
 20
778.0636940245645
 30
0.0
 11
1503.552611578879
 21
824.8636940245476
 31
0.0
  0
LINE
  5
1C4
330
1F
100
AcDbEntity
  8
LAY-10
  6
CONTINUOUS
 62
     7
100
AcDbLine
 10
1564.494747202593
 20
778.0636940245648
 30
0.0
 11
1517.694747202609
 21
824.8636940245478
 31
0.0
  0
LINE
  5
1C5
330
1F
100
AcDbEntity
  8
LAY-10
  6
CONTINUOUS
 62
     7
100
AcDbLine
 10
1578.636882826323
 20
778.0636940245648
 30
0.0
 11
1531.83688282634
 21
824.8636940245478
 31
0.0
  0
LINE
  5
1C6
330
1F
100
AcDbEntity
  8
LAY-10
  6
CONTINUOUS
 62
     7
100
AcDbLine
 10
1592.779018450055
 20
778.0636940245648
 30
0.0
 11
1545.979018450071
 21
824.8636940245476
 31
0.0
  0
LINE
  5
1C7
330
1F
100
AcDbEntity
  8
LAY-10
  6
CONTINUOUS
 62
     7
100
AcDbLine
 10
1606.921154073785
 20
778.0636940245648
 30
0.0
 11
1560.121154073802
 21
824.8636940245478
 31
0.0
  0
LINE
  5
1C8
330
1F
100
AcDbEntity
  8
LAY-10
  6
CONTINUOUS
 62
     7
100
AcDbLine
 10
1621.063289697516
 20
778.0636940245645
 30
0.0
 11
1574.263289697533
 21
824.8636940245476
 31
0.0
  0
LINE
  5
1C9
330
1F
100
AcDbEntity
  8
LAY-10
  6
CONTINUOUS
 62
     7
100
AcDbLine
 10
1635.205425321248
 20
778.0636940245648
 30
0.0
 11
1588.405425321264
 21
824.8636940245478
 31
0.0
  0
LINE
  5
1CA
330
1F
100
AcDbEntity
  8
LAY-10
  6
CONTINUOUS
 62
     7
100
AcDbLine
 10
1649.347560944978
 20
778.0636940245648
 30
0.0
 11
1602.547560944995
 21
824.8636940245478
 31
0.0
  0
LINE
  5
1CB
330
1F
100
AcDbEntity
  8
LAY-10
  6
CONTINUOUS
 62
     7
100
AcDbLine
 10
1663.489696568709
 20
778.0636940245648
 30
0.0
 11
1616.689696568726
 21
824.8636940245476
 31
0.0
  0
LINE
  5
1CC
330
1F
100
AcDbEntity
  8
LAY-10
  6
CONTINUOUS
 62
     7
100
AcDbLine
 10
1677.63183219244
 20
778.0636940245648
 30
0.0
 11
1630.831832192457
 21
824.8636940245478
 31
0.0
  0
LINE
  5
1CD
330
1F
100
AcDbEntity
  8
LAY-10
  6
CONTINUOUS
 62
     7
100
AcDbLine
 10
1691.773967816171
 20
778.0636940245645
 30
0.0
 11
1644.973967816188
 21
824.8636940245476
 31
0.0
  0
LINE
  5
1CE
330
1F
100
AcDbEntity
  8
LAY-10
  6
CONTINUOUS
 62
     7
100
AcDbLine
 10
1705.916103439902
 20
778.0636940245648
 30
0.0
 11
1659.116103439919
 21
824.8636940245478
 31
0.0
  0
LINE
  5
1CF
330
1F
100
AcDbEntity
  8
LAY-10
  6
CONTINUOUS
 62
     7
100
AcDbLine
 10
1720.058239063633
 20
778.0636940245648
 30
0.0
 11
1673.25823906365
 21
824.8636940245478
 31
0.0
  0
LINE
  5
1D0
330
1F
100
AcDbEntity
  8
LAY-10
  6
CONTINUOUS
 62
     7
100
AcDbLine
 10
1734.200374687364
 20
778.0636940245648
 30
0.0
 11
1687.400374687381
 21
824.8636940245476
 31
0.0
  0
LINE
  5
1D1
330
1F
100
AcDbEntity
  8
LAY-10
  6
CONTINUOUS
 62
     7
100
AcDbLine
 10
1748.342510311095
 20
778.0636940245648
 30
0.0
 11
1701.542510311112
 21
824.8636940245478
 31
0.0
  0
LINE
  5
1D2
330
1F
100
AcDbEntity
  8
LAY-10
  6
CONTINUOUS
 62
     7
100
AcDbLine
 10
1762.484645934826
 20
778.0636940245645
 30
0.0
 11
1715.684645934843
 21
824.8636940245476
 31
0.0
  0
LINE
  5
1D3
330
1F
100
AcDbEntity
  8
LAY-10
  6
CONTINUOUS
 62
     7
100
AcDbLine
 10
1776.626781558557
 20
778.0636940245648
 30
0.0
 11
1729.826781558574
 21
824.8636940245478
 31
0.0
  0
LINE
  5
1D4
330
1F
100
AcDbEntity
  8
LAY-10
  6
CONTINUOUS
 62
     7
100
AcDbLine
 10
1790.768917182288
 20
778.0636940245648
 30
0.0
 11
1743.968917182304
 21
824.8636940245478
 31
0.0
  0
LINE
  5
1D5
330
1F
100
AcDbEntity
  8
LAY-10
  6
CONTINUOUS
 62
     7
100
AcDbLine
 10
1804.911052806019
 20
778.0636940245648
 30
0.0
 11
1758.111052806036
 21
824.8636940245476
 31
0.0
  0
LINE
  5
1D6
330
1F
100
AcDbEntity
  8
LAY-10
  6
CONTINUOUS
 62
     7
100
AcDbLine
 10
1819.05318842975
 20
778.0636940245648
 30
0.0
 11
1772.253188429767
 21
824.8636940245478
 31
0.0
  0
LINE
  5
1D7
330
1F
100
AcDbEntity
  8
LAY-10
  6
CONTINUOUS
 62
     7
100
AcDbLine
 10
1833.195324053481
 20
778.0636940245648
 30
0.0
 11
1786.395324053497
 21
824.8636940245478
 31
0.0
  0
LINE
  5
1D8
330
1F
100
AcDbEntity
  8
LAY-10
  6
CONTINUOUS
 62
     7
100
AcDbLine
 10
1847.337459677212
 20
778.0636940245643
 30
0.0
 11
1800.537459677228
 21
824.8636940245476
 31
0.0
  0
LINE
  5
1D9
330
1F
100
AcDbEntity
  8
LAY-10
  6
CONTINUOUS
 62
     7
100
AcDbLine
 10
1861.479595300942
 20
778.0636940245645
 30
0.0
 11
1814.679595300959
 21
824.8636940245476
 31
0.0
  0
LINE
  5
1DA
330
1F
100
AcDbEntity
  8
LAY-10
  6
CONTINUOUS
 62
     7
100
AcDbLine
 10
1875.621730924674
 20
778.0636940245648
 30
0.0
 11
1828.82173092469
 21
824.8636940245476
 31
0.0
  0
LINE
  5
1DB
330
1F
100
AcDbEntity
  8
LAY-10
  6
CONTINUOUS
 62
     7
100
AcDbLine
 10
1889.763866548405
 20
778.0636940245648
 30
0.0
 11
1842.963866548421
 21
824.8636940245478
 31
0.0
  0
LINE
  5
1DC
330
1F
100
AcDbEntity
  8
LAY-10
  6
CONTINUOUS
 62
     7
100
AcDbLine
 10
1903.906002172135
 20
778.0636940245648
 30
0.0
 11
1857.106002172152
 21
824.8636940245478
 31
0.0
  0
LINE
  5
1DD
330
1F
100
AcDbEntity
  8
LAY-10
  6
CONTINUOUS
 62
     7
100
AcDbLine
 10
1918.048137795867
 20
778.0636940245643
 30
0.0
 11
1871.248137795883
 21
824.8636940245476
 31
0.0
  0
LINE
  5
1DE
330
1F
100
AcDbEntity
  8
LAY-10
  6
CONTINUOUS
 62
     7
100
AcDbLine
 10
1919.940725757079
 20
790.3132416870822
 30
0.0
 11
1885.390273419614
 21
824.8636940245476
 31
0.0
  0
LINE
  5
1DF
330
1F
100
AcDbEntity
  8
LAY-10
  6
CONTINUOUS
 62
     7
100
AcDbLine
 10
1919.94072575708
 20
804.4553773108132
 30
0.0
 11
1899.532409043345
 21
824.8636940245476
 31
0.0
  0
LINE
  5
1E0
330
1F
100
AcDbEntity
  8
LAY-10
  6
CONTINUOUS
 62
     7
100
AcDbLine
 10
1919.94072575708
 20
818.5975129345443
 30
0.0
 11
1913.674544667076
 21
824.8636940245478
 31
0.0
  0
LINE
  5
1E1
330
1F
100
AcDbEntity
  8
LAY-10
  6
CONTINUOUS
 62
     7
100
AcDbLine
 10
2493.353062767487
 20
2438.965307577663
 30
0.0
 11
2494.767276329839
 21
2440.379521140017
 31
0.0
  0
LINE
  5
1E2
330
1F
100
AcDbEntity
  8
LAY-10
  6
CONTINUOUS
 62
     7
100
AcDbLine
 10
2493.353062767477
 20
2437.55109401528
 30
0.0
 11
2495.353062767491
 21
2439.551094015299
 31
0.0
  0
LINE
  5
1E3
330
1F
100
AcDbEntity
  8
LAY-10
  6
CONTINUOUS
 62
     7
100
AcDbLine
 10
2493.353062767487
 20
2436.13688045292
 30
0.0
 11
2495.353062767484
 21
2438.136880452917
 31
0.0
  0
LINE
  5
1E4
330
1F
100
AcDbEntity
  8
LAY-10
  6
CONTINUOUS
 62
     7
100
AcDbLine
 10
2493.353062767477
 20
2434.722666890536
 30
0.0
 11
2495.353062767495
 21
2436.722666890551
 31
0.0
  0
LINE
  5
1E5
330
1F
100
AcDbEntity
  8
LAY-10
  6
CONTINUOUS
 62
     7
100
AcDbLine
 10
2493.353062767491
 20
2433.308453328174
 30
0.0
 11
2495.353062767487
 21
2435.30845332817
 31
0.0
  0
LINE
  5
1E6
330
1F
100
AcDbEntity
  8
LAY-10
  6
CONTINUOUS
 62
     7
100
AcDbLine
 10
2493.35306276748
 20
2431.894239765793
 30
0.0
 11
2495.353062767495
 21
2433.894239765807
 31
0.0
  0
LINE
  5
1E7
330
1F
100
AcDbEntity
  8
LAY-10
  6
CONTINUOUS
 62
     7
100
AcDbLine
 10
2493.353062767491
 20
2430.480026203428
 30
0.0
 11
2495.353062767487
 21
2432.480026203425
 31
0.0
  0
LINE
  5
1E8
330
1F
100
AcDbEntity
  8
LAY-10
  6
CONTINUOUS
 62
     7
100
AcDbLine
 10
2493.353062767482
 20
2429.065812641046
 30
0.0
 11
2495.353062767495
 21
2431.065812641062
 31
0.0
  0
LINE
  5
1E9
330
1F
100
AcDbEntity
  8
LAY-10
  6
CONTINUOUS
 62
     7
100
AcDbLine
 10
2493.353062767491
 20
2427.651599078684
 30
0.0
 11
2495.353062767487
 21
2429.65159907868
 31
0.0
  0
LINE
  5
1EA
330
1F
100
AcDbEntity
  8
LAY-10
  6
CONTINUOUS
 62
     7
100
AcDbLine
 10
2493.353062767482
 20
2426.237385516301
 30
0.0
 11
2495.353062767495
 21
2428.237385516318
 31
0.0
  0
LINE
  5
1EB
330
1F
100
AcDbEntity
  8
LAY-10
  6
CONTINUOUS
 62
     7
100
AcDbLine
 10
2493.353062767491
 20
2424.823171953939
 30
0.0
 11
2495.353062767487
 21
2426.823171953936
 31
0.0
  0
LINE
  5
1EC
330
1F
100
AcDbEntity
  8
LAY-10
  6
CONTINUOUS
 62
     7
100
AcDbLine
 10
2493.353062767484
 20
2423.408958391557
 30
0.0
 11
2495.353062767498
 21
2425.408958391572
 31
0.0
  0
LINE
  5
1ED
330
1F
100
AcDbEntity
  8
LAY-10
  6
CONTINUOUS
 62
     7
100
AcDbLine
 10
2493.353062767473
 20
2421.994744829176
 30
0.0
 11
2495.353062767491
 21
2423.99474482919
 31
0.0
  0
LINE
  5
1EE
330
1F
100
AcDbEntity
  8
LAY-10
  6
CONTINUOUS
 62
     7
100
AcDbLine
 10
2493.353062767484
 20
2420.580531266813
 30
0.0
 11
2495.353062767498
 21
2422.580531266828
 31
0.0
  0
LINE
  5
1EF
330
1F
100
AcDbEntity
  8
LAY-10
  6
CONTINUOUS
 62
     7
100
AcDbLine
 10
2493.353062767477
 20
2419.166317704429
 30
0.0
 11
2495.353062767491
 21
2421.166317704446
 31
0.0
  0
LINE
  5
1F0
330
1F
100
AcDbEntity
  8
LAY-10
  6
CONTINUOUS
 62
     7
100
AcDbLine
 10
2493.353062767487
 20
2417.752104142064
 30
0.0
 11
2495.353062767484
 21
2419.752104142062
 31
0.0
  0
LINE
  5
1F1
330
1F
100
AcDbEntity
  8
LAY-10
  6
CONTINUOUS
 62
     7
100
AcDbLine
 10
2493.353062767477
 20
2416.337890579684
 30
0.0
 11
2495.353062767491
 21
2418.337890579703
 31
0.0
  0
LINE
  5
1F2
330
1F
100
AcDbEntity
  8
LAY-10
  6
CONTINUOUS
 62
     7
100
AcDbLine
 10
2493.808906890175
 20
2415.37952114001
 30
0.0
 11
2495.353062767484
 21
2416.92367701732
 31
0.0
  0
LINE
  5
1F3
330
1F
100
AcDbEntity
  8
LAY-10
  6
CONTINUOUS
 62
     7
100
AcDbLine
 10
2495.223120452559
 20
2415.379521140017
 30
0.0
 11
2495.353062767495
 21
2415.509463454956
 31
0.0
  0
LINE
  5
1F4
330
1F
100
AcDbEntity
  8
LAY-10
  6
CONTINUOUS
 62
     7
100
AcDbLine
 10
2493.353062767484
 20
1410.421151700477
 30
0.0
 11
2494.31143220709
 21
1411.379521140082
 31
0.0
  0
LINE
  5
1F5
330
1F
100
AcDbEntity
  8
LAY-10
  6
CONTINUOUS
 62
     7
100
AcDbLine
 10
2493.353062767495
 20
1409.006938138113
 30
0.0
 11
2495.353062767491
 21
1411.006938138109
 31
0.0
  0
LINE
  5
1F6
330
1F
100
AcDbEntity
  8
LAY-10
  6
CONTINUOUS
 62
     7
100
AcDbLine
 10
2493.353062767484
 20
1407.59272457573
 30
0.0
 11
2495.35306276748
 21
1409.592724575727
 31
0.0
  0
LINE
  5
1F7
330
1F
100
AcDbEntity
  8
LAY-10
  6
CONTINUOUS
 62
     7
100
AcDbLine
 10
2493.353062767495
 20
1406.178511013367
 30
0.0
 11
2495.353062767469
 21
1408.178511013346
 31
0.0
  0
LINE
  5
1F8
330
1F
100
AcDbEntity
  8
LAY-10
  6
CONTINUOUS
 62
     7
100
AcDbLine
 10
2493.353062767484
 20
1404.764297450985
 30
0.0
 11
2495.35306276748
 21
1406.764297450981
 31
0.0
  0
LINE
  5
1F9
330
1F
100
AcDbEntity
  8
LAY-10
  6
CONTINUOUS
 62
     7
100
AcDbLine
 10
2493.353062767495
 20
1403.350083888623
 30
0.0
 11
2495.353062767473
 21
1405.350083888599
 31
0.0
  0
LINE
  5
1FA
330
1F
100
AcDbEntity
  8
LAY-10
  6
CONTINUOUS
 62
     7
100
AcDbLine
 10
2493.353062767484
 20
1401.93587032624
 30
0.0
 11
2495.35306276748
 21
1403.935870326237
 31
0.0
  0
LINE
  5
1FB
330
1F
100
AcDbEntity
  8
LAY-10
  6
CONTINUOUS
 62
     7
100
AcDbLine
 10
2493.353062767495
 20
1400.521656763879
 30
0.0
 11
2495.353062767473
 21
1402.521656763856
 31
0.0
  0
LINE
  5
1FC
330
1F
100
AcDbEntity
  8
LAY-10
  6
CONTINUOUS
 62
     7
100
AcDbLine
 10
2493.353062767487
 20
1399.107443201495
 30
0.0
 11
2495.353062767484
 21
1401.107443201493
 31
0.0
  0
LINE
  5
1FD
330
1F
100
AcDbEntity
  8
LAY-10
  6
CONTINUOUS
 62
     7
100
AcDbLine
 10
2493.353062767498
 20
1397.693229639133
 30
0.0
 11
2495.353062767476
 21
1399.693229639111
 31
0.0
  0
LINE
  5
1FE
330
1F
100
AcDbEntity
  8
LAY-10
  6
CONTINUOUS
 62
     7
100
AcDbLine
 10
2493.353062767487
 20
1396.27901607675
 30
0.0
 11
2495.353062767484
 21
1398.279016076747
 31
0.0
  0
LINE
  5
1FF
330
1F
100
AcDbEntity
  8
LAY-10
  6
CONTINUOUS
 62
     7
100
AcDbLine
 10
2493.353062767498
 20
1394.864802514389
 30
0.0
 11
2495.353062767476
 21
1396.864802514364
 31
0.0
  0
LINE
  5
200
330
1F
100
AcDbEntity
  8
LAY-10
  6
CONTINUOUS
 62
     7
100
AcDbLine
 10
2493.353062767491
 20
1393.450588952007
 30
0.0
 11
2495.353062767487
 21
1395.450588952003
 31
0.0
  0
LINE
  5
201
330
1F
100
AcDbEntity
  8
LAY-10
  6
CONTINUOUS
 62
     7
100
AcDbLine
 10
2493.353062767502
 20
1392.036375389643
 30
0.0
 11
2495.353062767476
 21
1394.036375389622
 31
0.0
  0
LINE
  5
202
330
1F
100
AcDbEntity
  8
LAY-10
  6
CONTINUOUS
 62
     7
100
AcDbLine
 10
2493.353062767491
 20
1390.622161827261
 30
0.0
 11
2495.353062767487
 21
1392.622161827257
 31
0.0
  0
LINE
  5
203
330
1F
100
AcDbEntity
  8
LAY-10
  6
CONTINUOUS
 62
     7
100
AcDbLine
 10
2493.353062767502
 20
1389.207948264899
 30
0.0
 11
2495.35306276748
 21
1391.207948264875
 31
0.0
  0
LINE
  5
204
330
1F
100
AcDbEntity
  8
LAY-10
  6
CONTINUOUS
 62
     7
100
AcDbLine
 10
2493.353062767495
 20
1387.793734702516
 30
0.0
 11
2495.353062767491
 21
1389.793734702512
 31
0.0
  0
LINE
  5
205
330
1F
100
AcDbEntity
  8
LAY-10
  6
CONTINUOUS
 62
     7
100
AcDbLine
 10
2493.353062767484
 20
1386.379521140133
 30
0.0
 11
2495.35306276748
 21
1388.37952114013
 31
0.0
  0
LINE
  5
206
330
1F
100
AcDbEntity
  8
LAY-10
  6
CONTINUOUS
 62
     7
100
AcDbLine
 10
2494.767276329846
 20
1386.379521140123
 30
0.0
 11
2495.353062767491
 21
1386.965307577767
 31
0.0
  0
LINE
  5
207
330
1F
100
AcDbEntity
  8
LAY-10
  6
CONTINUOUS
 62
     7
100
AcDbLine
 10
2521.553062767454
 20
2402.111503994612
 30
0.0
 11
2523.221079912978
 21
2403.779521140134
 31
0.0
  0
LINE
  5
208
330
1F
100
AcDbEntity
  8
LAY-10
  6
CONTINUOUS
 62
     7
100
AcDbLine
 10
2521.553062767454
 20
2387.96936837088
 30
0.0
 11
2537.363215536709
 21
2403.779521140134
 31
0.0
  0
LINE
  5
209
330
1F
100
AcDbEntity
  8
LAY-10
  6
CONTINUOUS
 62
     7
100
AcDbLine
 10
2521.553062767454
 20
2373.82723274715
 30
0.0
 11
2551.505351160439
 21
2403.779521140134
 31
0.0
  0
LINE
  5
20A
330
1F
100
AcDbEntity
  8
LAY-10
  6
CONTINUOUS
 62
     7
100
AcDbLine
 10
2521.553062767454
 20
2359.685097123419
 30
0.0
 11
2565.64748678417
 21
2403.779521140134
 31
0.0
  0
LINE
  5
20B
330
1F
100
AcDbEntity
  8
LAY-10
  6
CONTINUOUS
 62
     7
100
AcDbLine
 10
2521.553062767454
 20
2345.542961499687
 30
0.0
 11
2568.353062767438
 21
2392.342961499671
 31
0.0
  0
LINE
  5
20C
330
1F
100
AcDbEntity
  8
LAY-10
  6
CONTINUOUS
 62
     7
100
AcDbLine
 10
2521.553062767454
 20
2331.400825875957
 30
0.0
 11
2568.353062767438
 21
2378.20082587594
 31
0.0
  0
LINE
  5
20D
330
1F
100
AcDbEntity
  8
LAY-10
  6
CONTINUOUS
 62
     7
100
AcDbLine
 10
2521.553062767454
 20
2317.258690252225
 30
0.0
 11
2568.353062767438
 21
2364.058690252209
 31
0.0
  0
LINE
  5
20E
330
1F
100
AcDbEntity
  8
LAY-10
  6
CONTINUOUS
 62
     7
100
AcDbLine
 10
2521.553062767454
 20
2303.116554628495
 30
0.0
 11
2568.353062767438
 21
2349.916554628478
 31
0.0
  0
LINE
  5
20F
330
1F
100
AcDbEntity
  8
LAY-10
  6
CONTINUOUS
 62
     7
100
AcDbLine
 10
2521.553062767454
 20
2288.974419004764
 30
0.0
 11
2568.353062767438
 21
2335.774419004747
 31
0.0
  0
LINE
  5
210
330
1F
100
AcDbEntity
  8
LAY-10
  6
CONTINUOUS
 62
     7
100
AcDbLine
 10
2521.553062767454
 20
2274.832283381033
 30
0.0
 11
2568.353062767438
 21
2321.632283381016
 31
0.0
  0
LINE
  5
211
330
1F
100
AcDbEntity
  8
LAY-10
  6
CONTINUOUS
 62
     7
100
AcDbLine
 10
2521.553062767454
 20
2260.690147757302
 30
0.0
 11
2568.353062767438
 21
2307.490147757286
 31
0.0
  0
LINE
  5
212
330
1F
100
AcDbEntity
  8
LAY-10
  6
CONTINUOUS
 62
     7
100
AcDbLine
 10
2521.553062767454
 20
2246.548012133571
 30
0.0
 11
2568.353062767438
 21
2293.348012133554
 31
0.0
  0
LINE
  5
213
330
1F
100
AcDbEntity
  8
LAY-10
  6
CONTINUOUS
 62
     7
100
AcDbLine
 10
2521.553062767454
 20
2232.40587650984
 30
0.0
 11
2568.353062767438
 21
2279.205876509824
 31
0.0
  0
LINE
  5
214
330
1F
100
AcDbEntity
  8
LAY-10
  6
CONTINUOUS
 62
     7
100
AcDbLine
 10
2521.553062767442
 20
2218.263740886096
 30
0.0
 11
2568.353062767438
 21
2265.063740886092
 31
0.0
  0
LINE
  5
215
330
1F
100
AcDbEntity
  8
LAY-10
  6
CONTINUOUS
 62
     7
100
AcDbLine
 10
2521.553062767442
 20
2204.121605262365
 30
0.0
 11
2568.353062767438
 21
2250.921605262361
 31
0.0
  0
LINE
  5
216
330
1F
100
AcDbEntity
  8
LAY-10
  6
CONTINUOUS
 62
     7
100
AcDbLine
 10
2521.553062767442
 20
2189.979469638634
 30
0.0
 11
2568.353062767438
 21
2236.779469638631
 31
0.0
  0
LINE
  5
217
330
1F
100
AcDbEntity
  8
LAY-10
  6
CONTINUOUS
 62
     7
100
AcDbLine
 10
2521.553062767442
 20
2175.837334014904
 30
0.0
 11
2568.353062767438
 21
2222.637334014899
 31
0.0
  0
LINE
  5
218
330
1F
100
AcDbEntity
  8
LAY-10
  6
CONTINUOUS
 62
     7
100
AcDbLine
 10
2521.553062767442
 20
2161.695198391172
 30
0.0
 11
2568.353062767438
 21
2208.495198391169
 31
0.0
  0
LINE
  5
219
330
1F
100
AcDbEntity
  8
LAY-10
  6
CONTINUOUS
 62
     7
100
AcDbLine
 10
2521.553062767442
 20
2147.553062767442
 30
0.0
 11
2568.353062767438
 21
2194.353062767437
 31
0.0
  0
LINE
  5
21A
330
1F
100
AcDbEntity
  8
LAY-10
  6
CONTINUOUS
 62
     7
100
AcDbLine
 10
2521.553062767442
 20
2133.41092714371
 30
0.0
 11
2568.353062767438
 21
2180.210927143707
 31
0.0
  0
LINE
  5
21B
330
1F
100
AcDbEntity
  8
LAY-10
  6
CONTINUOUS
 62
     7
100
AcDbLine
 10
2521.553062767442
 20
2119.268791519979
 30
0.0
 11
2568.353062767438
 21
2166.068791519976
 31
0.0
  0
LINE
  5
21C
330
1F
100
AcDbEntity
  8
LAY-10
  6
CONTINUOUS
 62
     7
100
AcDbLine
 10
2521.553062767442
 20
2105.126655896249
 30
0.0
 11
2568.353062767438
 21
2151.926655896244
 31
0.0
  0
LINE
  5
21D
330
1F
100
AcDbEntity
  8
LAY-10
  6
CONTINUOUS
 62
     7
100
AcDbLine
 10
2521.553062767442
 20
2090.984520272518
 30
0.0
 11
2568.353062767438
 21
2137.784520272514
 31
0.0
  0
LINE
  5
21E
330
1F
100
AcDbEntity
  8
LAY-10
  6
CONTINUOUS
 62
     7
100
AcDbLine
 10
2521.553062767442
 20
2076.842384648787
 30
0.0
 11
2568.353062767438
 21
2123.642384648783
 31
0.0
  0
LINE
  5
21F
330
1F
100
AcDbEntity
  8
LAY-10
  6
CONTINUOUS
 62
     7
100
AcDbLine
 10
2521.553062767442
 20
2062.700249025056
 30
0.0
 11
2568.353062767438
 21
2109.500249025052
 31
0.0
  0
LINE
  5
220
330
1F
100
AcDbEntity
  8
LAY-10
  6
CONTINUOUS
 62
     7
100
AcDbLine
 10
2521.553062767442
 20
2048.558113401325
 30
0.0
 11
2568.353062767438
 21
2095.358113401321
 31
0.0
  0
LINE
  5
221
330
1F
100
AcDbEntity
  8
LAY-10
  6
CONTINUOUS
 62
     7
100
AcDbLine
 10
2521.553062767442
 20
2034.415977777594
 30
0.0
 11
2568.353062767438
 21
2081.21597777759
 31
0.0
  0
LINE
  5
222
330
1F
100
AcDbEntity
  8
LAY-10
  6
CONTINUOUS
 62
     7
100
AcDbLine
 10
2521.553062767442
 20
2020.273842153863
 30
0.0
 11
2568.353062767438
 21
2067.073842153859
 31
0.0
  0
LINE
  5
223
330
1F
100
AcDbEntity
  8
LAY-10
  6
CONTINUOUS
 62
     7
100
AcDbLine
 10
2521.553062767442
 20
2006.131706530132
 30
0.0
 11
2568.353062767438
 21
2052.931706530128
 31
0.0
  0
LINE
  5
224
330
1F
100
AcDbEntity
  8
LAY-10
  6
CONTINUOUS
 62
     7
100
AcDbLine
 10
2521.553062767442
 20
1991.989570906401
 30
0.0
 11
2568.353062767438
 21
2038.789570906397
 31
0.0
  0
LINE
  5
225
330
1F
100
AcDbEntity
  8
LAY-10
  6
CONTINUOUS
 62
     7
100
AcDbLine
 10
2521.553062767442
 20
1977.84743528267
 30
0.0
 11
2568.353062767438
 21
2024.647435282666
 31
0.0
  0
LINE
  5
226
330
1F
100
AcDbEntity
  8
LAY-10
  6
CONTINUOUS
 62
     7
100
AcDbLine
 10
2521.553062767442
 20
1963.705299658939
 30
0.0
 11
2568.353062767438
 21
2010.505299658935
 31
0.0
  0
LINE
  5
227
330
1F
100
AcDbEntity
  8
LAY-10
  6
CONTINUOUS
 62
     7
100
AcDbLine
 10
2521.553062767442
 20
1949.563164035209
 30
0.0
 11
2568.353062767438
 21
1996.363164035205
 31
0.0
  0
LINE
  5
228
330
1F
100
AcDbEntity
  8
LAY-10
  6
CONTINUOUS
 62
     7
100
AcDbLine
 10
2521.553062767442
 20
1935.421028411478
 30
0.0
 11
2568.353062767438
 21
1982.221028411474
 31
0.0
  0
LINE
  5
229
330
1F
100
AcDbEntity
  8
LAY-10
  6
CONTINUOUS
 62
     7
100
AcDbLine
 10
2521.553062767442
 20
1921.278892787747
 30
0.0
 11
2568.353062767438
 21
1968.078892787743
 31
0.0
  0
LINE
  5
22A
330
1F
100
AcDbEntity
  8
LAY-10
  6
CONTINUOUS
 62
     7
100
AcDbLine
 10
2521.553062767442
 20
1907.136757164016
 30
0.0
 11
2568.353062767438
 21
1953.936757164012
 31
0.0
  0
LINE
  5
22B
330
1F
100
AcDbEntity
  8
LAY-10
  6
CONTINUOUS
 62
     7
100
AcDbLine
 10
2521.553062767442
 20
1892.994621540284
 30
0.0
 11
2568.353062767438
 21
1939.794621540281
 31
0.0
  0
LINE
  5
22C
330
1F
100
AcDbEntity
  8
LAY-10
  6
CONTINUOUS
 62
     7
100
AcDbLine
 10
2521.553062767442
 20
1878.852485916554
 30
0.0
 11
2568.353062767438
 21
1925.65248591655
 31
0.0
  0
LINE
  5
22D
330
1F
100
AcDbEntity
  8
LAY-10
  6
CONTINUOUS
 62
     7
100
AcDbLine
 10
2521.553062767442
 20
1864.710350292823
 30
0.0
 11
2568.353062767438
 21
1911.510350292819
 31
0.0
  0
LINE
  5
22E
330
1F
100
AcDbEntity
  8
LAY-10
  6
CONTINUOUS
 62
     7
100
AcDbLine
 10
2521.553062767442
 20
1850.568214669092
 30
0.0
 11
2568.353062767438
 21
1897.368214669088
 31
0.0
  0
LINE
  5
22F
330
1F
100
AcDbEntity
  8
LAY-10
  6
CONTINUOUS
 62
     7
100
AcDbLine
 10
2521.553062767442
 20
1836.426079045361
 30
0.0
 11
2568.353062767438
 21
1883.226079045357
 31
0.0
  0
LINE
  5
230
330
1F
100
AcDbEntity
  8
LAY-10
  6
CONTINUOUS
 62
     7
100
AcDbLine
 10
2521.553062767442
 20
1822.28394342163
 30
0.0
 11
2568.353062767438
 21
1869.083943421626
 31
0.0
  0
LINE
  5
231
330
1F
100
AcDbEntity
  8
LAY-10
  6
CONTINUOUS
 62
     7
100
AcDbLine
 10
2521.553062767442
 20
1808.141807797899
 30
0.0
 11
2568.353062767438
 21
1854.941807797895
 31
0.0
  0
LINE
  5
232
330
1F
100
AcDbEntity
  8
LAY-10
  6
CONTINUOUS
 62
     7
100
AcDbLine
 10
2521.553062767442
 20
1793.999672174168
 30
0.0
 11
2568.353062767438
 21
1840.799672174164
 31
0.0
  0
LINE
  5
233
330
1F
100
AcDbEntity
  8
LAY-10
  6
CONTINUOUS
 62
     7
100
AcDbLine
 10
2521.553062767442
 20
1779.857536550437
 30
0.0
 11
2568.353062767438
 21
1826.657536550433
 31
0.0
  0
LINE
  5
234
330
1F
100
AcDbEntity
  8
LAY-10
  6
CONTINUOUS
 62
     7
100
AcDbLine
 10
2521.553062767442
 20
1765.715400926706
 30
0.0
 11
2568.353062767438
 21
1812.515400926702
 31
0.0
  0
LINE
  5
235
330
1F
100
AcDbEntity
  8
LAY-10
  6
CONTINUOUS
 62
     7
100
AcDbLine
 10
2521.553062767442
 20
1751.573265302975
 30
0.0
 11
2568.353062767438
 21
1798.373265302971
 31
0.0
  0
LINE
  5
236
330
1F
100
AcDbEntity
  8
LAY-10
  6
CONTINUOUS
 62
     7
100
AcDbLine
 10
2521.553062767442
 20
1737.431129679244
 30
0.0
 11
2568.353062767438
 21
1784.23112967924
 31
0.0
  0
LINE
  5
237
330
1F
100
AcDbEntity
  8
LAY-10
  6
CONTINUOUS
 62
     7
100
AcDbLine
 10
2521.553062767442
 20
1723.288994055513
 30
0.0
 11
2568.353062767438
 21
1770.088994055509
 31
0.0
  0
LINE
  5
238
330
1F
100
AcDbEntity
  8
LAY-10
  6
CONTINUOUS
 62
     7
100
AcDbLine
 10
2521.553062767442
 20
1709.146858431782
 30
0.0
 11
2568.353062767438
 21
1755.946858431778
 31
0.0
  0
LINE
  5
239
330
1F
100
AcDbEntity
  8
LAY-10
  6
CONTINUOUS
 62
     7
100
AcDbLine
 10
2521.553062767442
 20
1695.004722808051
 30
0.0
 11
2568.353062767438
 21
1741.804722808047
 31
0.0
  0
LINE
  5
23A
330
1F
100
AcDbEntity
  8
LAY-10
  6
CONTINUOUS
 62
     7
100
AcDbLine
 10
2521.553062767442
 20
1680.86258718432
 30
0.0
 11
2568.353062767438
 21
1727.662587184316
 31
0.0
  0
LINE
  5
23B
330
1F
100
AcDbEntity
  8
LAY-10
  6
CONTINUOUS
 62
     7
100
AcDbLine
 10
2521.553062767442
 20
1666.720451560589
 30
0.0
 11
2568.353062767438
 21
1713.520451560585
 31
0.0
  0
LINE
  5
23C
330
1F
100
AcDbEntity
  8
LAY-10
  6
CONTINUOUS
 62
     7
100
AcDbLine
 10
2521.553062767442
 20
1652.578315936859
 30
0.0
 11
2568.353062767438
 21
1699.378315936855
 31
0.0
  0
LINE
  5
23D
330
1F
100
AcDbEntity
  8
LAY-10
  6
CONTINUOUS
 62
     7
100
AcDbLine
 10
2521.553062767442
 20
1638.436180313128
 30
0.0
 11
2568.353062767438
 21
1685.236180313124
 31
0.0
  0
LINE
  5
23E
330
1F
100
AcDbEntity
  8
LAY-10
  6
CONTINUOUS
 62
     7
100
AcDbLine
 10
2521.553062767442
 20
1624.294044689397
 30
0.0
 11
2568.353062767438
 21
1671.094044689393
 31
0.0
  0
LINE
  5
23F
330
1F
100
AcDbEntity
  8
LAY-10
  6
CONTINUOUS
 62
     7
100
AcDbLine
 10
2521.553062767442
 20
1610.151909065665
 30
0.0
 11
2568.353062767438
 21
1656.951909065662
 31
0.0
  0
LINE
  5
240
330
1F
100
AcDbEntity
  8
LAY-10
  6
CONTINUOUS
 62
     7
100
AcDbLine
 10
2521.553062767442
 20
1596.009773441934
 30
0.0
 11
2568.353062767438
 21
1642.80977344193
 31
0.0
  0
LINE
  5
241
330
1F
100
AcDbEntity
  8
LAY-10
  6
CONTINUOUS
 62
     7
100
AcDbLine
 10
2521.553062767442
 20
1581.867637818204
 30
0.0
 11
2568.353062767438
 21
1628.6676378182
 31
0.0
  0
LINE
  5
242
330
1F
100
AcDbEntity
  8
LAY-10
  6
CONTINUOUS
 62
     7
100
AcDbLine
 10
2521.553062767442
 20
1567.725502194473
 30
0.0
 11
2568.353062767438
 21
1614.525502194469
 31
0.0
  0
LINE
  5
243
330
1F
100
AcDbEntity
  8
LAY-10
  6
CONTINUOUS
 62
     7
100
AcDbLine
 10
2521.553062767442
 20
1553.583366570742
 30
0.0
 11
2568.353062767438
 21
1600.383366570738
 31
0.0
  0
LINE
  5
244
330
1F
100
AcDbEntity
  8
LAY-10
  6
CONTINUOUS
 62
     7
100
AcDbLine
 10
2521.553062767442
 20
1539.441230947011
 30
0.0
 11
2568.353062767438
 21
1586.241230947007
 31
0.0
  0
LINE
  5
245
330
1F
100
AcDbEntity
  8
LAY-10
  6
CONTINUOUS
 62
     7
100
AcDbLine
 10
2521.553062767442
 20
1525.29909532328
 30
0.0
 11
2568.353062767438
 21
1572.099095323276
 31
0.0
  0
LINE
  5
246
330
1F
100
AcDbEntity
  8
LAY-10
  6
CONTINUOUS
 62
     7
100
AcDbLine
 10
2521.553062767442
 20
1511.156959699549
 30
0.0
 11
2568.353062767438
 21
1557.956959699545
 31
0.0
  0
LINE
  5
247
330
1F
100
AcDbEntity
  8
LAY-10
  6
CONTINUOUS
 62
     7
100
AcDbLine
 10
2521.553062767442
 20
1497.014824075818
 30
0.0
 11
2568.353062767438
 21
1543.814824075814
 31
0.0
  0
LINE
  5
248
330
1F
100
AcDbEntity
  8
LAY-10
  6
CONTINUOUS
 62
     7
100
AcDbLine
 10
2521.553062767442
 20
1482.872688452087
 30
0.0
 11
2568.353062767438
 21
1529.672688452083
 31
0.0
  0
LINE
  5
249
330
1F
100
AcDbEntity
  8
LAY-10
  6
CONTINUOUS
 62
     7
100
AcDbLine
 10
2521.553062767442
 20
1468.730552828356
 30
0.0
 11
2568.353062767438
 21
1515.530552828352
 31
0.0
  0
LINE
  5
24A
330
1F
100
AcDbEntity
  8
LAY-10
  6
CONTINUOUS
 62
     7
100
AcDbLine
 10
2521.553062767442
 20
1454.588417204625
 30
0.0
 11
2568.353062767438
 21
1501.388417204621
 31
0.0
  0
LINE
  5
24B
330
1F
100
AcDbEntity
  8
LAY-10
  6
CONTINUOUS
 62
     7
100
AcDbLine
 10
2521.553062767442
 20
1440.446281580894
 30
0.0
 11
2568.353062767438
 21
1487.24628158089
 31
0.0
  0
LINE
  5
24C
330
1F
100
AcDbEntity
  8
LAY-10
  6
CONTINUOUS
 62
     7
100
AcDbLine
 10
2521.553062767442
 20
1426.304145957163
 30
0.0
 11
2568.353062767438
 21
1473.104145957159
 31
0.0
  0
LINE
  5
24D
330
1F
100
AcDbEntity
  8
LAY-10
  6
CONTINUOUS
 62
     7
100
AcDbLine
 10
2532.370573574139
 20
1422.97952114013
 30
0.0
 11
2568.353062767438
 21
1458.962010333428
 31
0.0
  0
LINE
  5
24E
330
1F
100
AcDbEntity
  8
LAY-10
  6
CONTINUOUS
 62
     7
100
AcDbLine
 10
2546.51270919787
 20
1422.97952114013
 30
0.0
 11
2568.353062767438
 21
1444.819874709697
 31
0.0
  0
LINE
  5
24F
330
1F
100
AcDbEntity
  8
LAY-10
  6
CONTINUOUS
 62
     7
100
AcDbLine
 10
2560.654844821614
 20
1422.979521140143
 30
0.0
 11
2568.353062767438
 21
1430.677739085966
 31
0.0
  0
LINE
  5
250
330
1F
100
AcDbEntity
  8
LAY-10
  6
CONTINUOUS
 62
     7
100
AcDbLine
 10
2531.20301955465
 20
1422.979521140147
 30
0.0
 11
2521.553062767442
 21
1432.629477927355
 31
0.0
  0
LINE
  5
251
330
1F
100
AcDbEntity
  8
LAY-10
  6
CONTINUOUS
 62
     7
100
AcDbLine
 10
2545.345155178381
 20
1422.979521140147
 30
0.0
 11
2521.553062767442
 21
1446.771613551086
 31
0.0
  0
LINE
  5
252
330
1F
100
AcDbEntity
  8
LAY-10
  6
CONTINUOUS
 62
     7
100
AcDbLine
 10
2559.487290802125
 20
1422.979521140134
 30
0.0
 11
2521.553062767442
 21
1460.913749174817
 31
0.0
  0
LINE
  5
253
330
1F
100
AcDbEntity
  8
LAY-10
  6
CONTINUOUS
 62
     7
100
AcDbLine
 10
2568.353062767438
 20
1428.255884798552
 30
0.0
 11
2521.553062767442
 21
1475.055884798548
 31
0.0
  0
LINE
  5
254
330
1F
100
AcDbEntity
  8
LAY-10
  6
CONTINUOUS
 62
     7
100
AcDbLine
 10
2568.353062767438
 20
1442.398020422283
 30
0.0
 11
2521.553062767442
 21
1489.198020422279
 31
0.0
  0
LINE
  5
255
330
1F
100
AcDbEntity
  8
LAY-10
  6
CONTINUOUS
 62
     7
100
AcDbLine
 10
2568.353062767438
 20
1456.540156046014
 30
0.0
 11
2521.553062767442
 21
1503.34015604601
 31
0.0
  0
LINE
  5
256
330
1F
100
AcDbEntity
  8
LAY-10
  6
CONTINUOUS
 62
     7
100
AcDbLine
 10
2568.353062767438
 20
1470.682291669745
 30
0.0
 11
2521.553062767442
 21
1517.482291669741
 31
0.0
  0
LINE
  5
257
330
1F
100
AcDbEntity
  8
LAY-10
  6
CONTINUOUS
 62
     7
100
AcDbLine
 10
2568.353062767438
 20
1484.824427293476
 30
0.0
 11
2521.553062767442
 21
1531.624427293472
 31
0.0
  0
LINE
  5
258
330
1F
100
AcDbEntity
  8
LAY-10
  6
CONTINUOUS
 62
     7
100
AcDbLine
 10
2568.353062767438
 20
1498.966562917207
 30
0.0
 11
2521.553062767442
 21
1545.766562917203
 31
0.0
  0
LINE
  5
259
330
1F
100
AcDbEntity
  8
LAY-10
  6
CONTINUOUS
 62
     7
100
AcDbLine
 10
2568.353062767438
 20
1513.108698540938
 30
0.0
 11
2521.553062767442
 21
1559.908698540934
 31
0.0
  0
LINE
  5
25A
330
1F
100
AcDbEntity
  8
LAY-10
  6
CONTINUOUS
 62
     7
100
AcDbLine
 10
2568.353062767438
 20
1527.250834164669
 30
0.0
 11
2521.553062767442
 21
1574.050834164665
 31
0.0
  0
LINE
  5
25B
330
1F
100
AcDbEntity
  8
LAY-10
  6
CONTINUOUS
 62
     7
100
AcDbLine
 10
2568.353062767438
 20
1541.3929697884
 30
0.0
 11
2521.553062767442
 21
1588.192969788396
 31
0.0
  0
LINE
  5
25C
330
1F
100
AcDbEntity
  8
LAY-10
  6
CONTINUOUS
 62
     7
100
AcDbLine
 10
2568.353062767438
 20
1555.535105412131
 30
0.0
 11
2521.553062767442
 21
1602.335105412127
 31
0.0
  0
LINE
  5
25D
330
1F
100
AcDbEntity
  8
LAY-10
  6
CONTINUOUS
 62
     7
100
AcDbLine
 10
2568.353062767438
 20
1569.677241035862
 30
0.0
 11
2521.553062767442
 21
1616.477241035858
 31
0.0
  0
LINE
  5
25E
330
1F
100
AcDbEntity
  8
LAY-10
  6
CONTINUOUS
 62
     7
100
AcDbLine
 10
2568.353062767438
 20
1583.819376659592
 30
0.0
 11
2521.553062767442
 21
1630.619376659588
 31
0.0
  0
LINE
  5
25F
330
1F
100
AcDbEntity
  8
LAY-10
  6
CONTINUOUS
 62
     7
100
AcDbLine
 10
2568.353062767438
 20
1597.961512283323
 30
0.0
 11
2521.553062767442
 21
1644.761512283319
 31
0.0
  0
LINE
  5
260
330
1F
100
AcDbEntity
  8
LAY-10
  6
CONTINUOUS
 62
     7
100
AcDbLine
 10
2568.353062767438
 20
1612.103647907054
 30
0.0
 11
2521.553062767442
 21
1658.903647907051
 31
0.0
  0
LINE
  5
261
330
1F
100
AcDbEntity
  8
LAY-10
  6
CONTINUOUS
 62
     7
100
AcDbLine
 10
2568.353062767438
 20
1626.245783530786
 30
0.0
 11
2521.553062767442
 21
1673.045783530781
 31
0.0
  0
LINE
  5
262
330
1F
100
AcDbEntity
  8
LAY-10
  6
CONTINUOUS
 62
     7
100
AcDbLine
 10
2568.353062767438
 20
1640.387919154516
 30
0.0
 11
2521.553062767442
 21
1687.187919154512
 31
0.0
  0
LINE
  5
263
330
1F
100
AcDbEntity
  8
LAY-10
  6
CONTINUOUS
 62
     7
100
AcDbLine
 10
2568.353062767438
 20
1654.530054778247
 30
0.0
 11
2521.553062767442
 21
1701.330054778243
 31
0.0
  0
LINE
  5
264
330
1F
100
AcDbEntity
  8
LAY-10
  6
CONTINUOUS
 62
     7
100
AcDbLine
 10
2568.353062767438
 20
1668.672190401978
 30
0.0
 11
2521.553062767442
 21
1715.472190401974
 31
0.0
  0
LINE
  5
265
330
1F
100
AcDbEntity
  8
LAY-10
  6
CONTINUOUS
 62
     7
100
AcDbLine
 10
2568.353062767438
 20
1682.814326025709
 30
0.0
 11
2521.553062767442
 21
1729.614326025705
 31
0.0
  0
LINE
  5
266
330
1F
100
AcDbEntity
  8
LAY-10
  6
CONTINUOUS
 62
     7
100
AcDbLine
 10
2568.353062767438
 20
1696.95646164944
 30
0.0
 11
2521.553062767442
 21
1743.756461649436
 31
0.0
  0
LINE
  5
267
330
1F
100
AcDbEntity
  8
LAY-10
  6
CONTINUOUS
 62
     7
100
AcDbLine
 10
2568.353062767438
 20
1711.098597273171
 30
0.0
 11
2521.553062767442
 21
1757.898597273168
 31
0.0
  0
LINE
  5
268
330
1F
100
AcDbEntity
  8
LAY-10
  6
CONTINUOUS
 62
     7
100
AcDbLine
 10
2568.353062767438
 20
1725.240732896902
 30
0.0
 11
2521.553062767442
 21
1772.040732896898
 31
0.0
  0
LINE
  5
269
330
1F
100
AcDbEntity
  8
LAY-10
  6
CONTINUOUS
 62
     7
100
AcDbLine
 10
2568.353062767438
 20
1739.382868520633
 30
0.0
 11
2521.553062767442
 21
1786.182868520629
 31
0.0
  0
LINE
  5
26A
330
1F
100
AcDbEntity
  8
LAY-10
  6
CONTINUOUS
 62
     7
100
AcDbLine
 10
2568.353062767438
 20
1753.525004144364
 30
0.0
 11
2521.553062767442
 21
1800.32500414436
 31
0.0
  0
LINE
  5
26B
330
1F
100
AcDbEntity
  8
LAY-10
  6
CONTINUOUS
 62
     7
100
AcDbLine
 10
2568.353062767438
 20
1767.667139768095
 30
0.0
 11
2521.553062767442
 21
1814.467139768091
 31
0.0
  0
LINE
  5
26C
330
1F
100
AcDbEntity
  8
LAY-10
  6
CONTINUOUS
 62
     7
100
AcDbLine
 10
2568.353062767438
 20
1781.809275391826
 30
0.0
 11
2521.553062767442
 21
1828.609275391822
 31
0.0
  0
LINE
  5
26D
330
1F
100
AcDbEntity
  8
LAY-10
  6
CONTINUOUS
 62
     7
100
AcDbLine
 10
2568.353062767438
 20
1795.951411015557
 30
0.0
 11
2521.553062767442
 21
1842.751411015553
 31
0.0
  0
LINE
  5
26E
330
1F
100
AcDbEntity
  8
LAY-10
  6
CONTINUOUS
 62
     7
100
AcDbLine
 10
2568.353062767438
 20
1810.093546639288
 30
0.0
 11
2521.553062767442
 21
1856.893546639284
 31
0.0
  0
LINE
  5
26F
330
1F
100
AcDbEntity
  8
LAY-10
  6
CONTINUOUS
 62
     7
100
AcDbLine
 10
2568.353062767438
 20
1824.235682263019
 30
0.0
 11
2521.553062767442
 21
1871.035682263015
 31
0.0
  0
LINE
  5
270
330
1F
100
AcDbEntity
  8
LAY-10
  6
CONTINUOUS
 62
     7
100
AcDbLine
 10
2568.353062767438
 20
1838.37781788675
 30
0.0
 11
2521.553062767442
 21
1885.177817886746
 31
0.0
  0
LINE
  5
271
330
1F
100
AcDbEntity
  8
LAY-10
  6
CONTINUOUS
 62
     7
100
AcDbLine
 10
2568.353062767438
 20
1852.519953510481
 30
0.0
 11
2521.553062767442
 21
1899.319953510477
 31
0.0
  0
LINE
  5
272
330
1F
100
AcDbEntity
  8
LAY-10
  6
CONTINUOUS
 62
     7
100
AcDbLine
 10
2568.353062767438
 20
1866.662089134211
 30
0.0
 11
2521.553062767442
 21
1913.462089134207
 31
0.0
  0
LINE
  5
273
330
1F
100
AcDbEntity
  8
LAY-10
  6
CONTINUOUS
 62
     7
100
AcDbLine
 10
2568.353062767438
 20
1880.804224757942
 30
0.0
 11
2521.553062767442
 21
1927.604224757938
 31
0.0
  0
LINE
  5
274
330
1F
100
AcDbEntity
  8
LAY-10
  6
CONTINUOUS
 62
     7
100
AcDbLine
 10
2568.353062767438
 20
1894.946360381673
 30
0.0
 11
2521.553062767442
 21
1941.74636038167
 31
0.0
  0
LINE
  5
275
330
1F
100
AcDbEntity
  8
LAY-10
  6
CONTINUOUS
 62
     7
100
AcDbLine
 10
2568.353062767438
 20
1909.088496005405
 30
0.0
 11
2521.553062767442
 21
1955.888496005401
 31
0.0
  0
LINE
  5
276
330
1F
100
AcDbEntity
  8
LAY-10
  6
CONTINUOUS
 62
     7
100
AcDbLine
 10
2568.353062767438
 20
1923.230631629135
 30
0.0
 11
2521.553062767442
 21
1970.030631629131
 31
0.0
  0
LINE
  5
277
330
1F
100
AcDbEntity
  8
LAY-10
  6
CONTINUOUS
 62
     7
100
AcDbLine
 10
2568.353062767438
 20
1937.372767252866
 30
0.0
 11
2521.553062767442
 21
1984.172767252862
 31
0.0
  0
LINE
  5
278
330
1F
100
AcDbEntity
  8
LAY-10
  6
CONTINUOUS
 62
     7
100
AcDbLine
 10
2568.353062767438
 20
1951.514902876597
 30
0.0
 11
2521.553062767442
 21
1998.314902876593
 31
0.0
  0
LINE
  5
279
330
1F
100
AcDbEntity
  8
LAY-10
  6
CONTINUOUS
 62
     7
100
AcDbLine
 10
2568.353062767438
 20
1965.657038500328
 30
0.0
 11
2521.553062767442
 21
2012.457038500324
 31
0.0
  0
LINE
  5
27A
330
1F
100
AcDbEntity
  8
LAY-10
  6
CONTINUOUS
 62
     7
100
AcDbLine
 10
2568.353062767438
 20
1979.799174124059
 30
0.0
 11
2521.553062767442
 21
2026.599174124055
 31
0.0
  0
LINE
  5
27B
330
1F
100
AcDbEntity
  8
LAY-10
  6
CONTINUOUS
 62
     7
100
AcDbLine
 10
2568.353062767438
 20
1993.94130974779
 30
0.0
 11
2521.553062767442
 21
2040.741309747787
 31
0.0
  0
LINE
  5
27C
330
1F
100
AcDbEntity
  8
LAY-10
  6
CONTINUOUS
 62
     7
100
AcDbLine
 10
2568.353062767438
 20
2008.083445371521
 30
0.0
 11
2521.553062767442
 21
2054.883445371517
 31
0.0
  0
LINE
  5
27D
330
1F
100
AcDbEntity
  8
LAY-10
  6
CONTINUOUS
 62
     7
100
AcDbLine
 10
2568.353062767438
 20
2022.225580995252
 30
0.0
 11
2521.553062767442
 21
2069.025580995248
 31
0.0
  0
LINE
  5
27E
330
1F
100
AcDbEntity
  8
LAY-10
  6
CONTINUOUS
 62
     7
100
AcDbLine
 10
2568.353062767438
 20
2036.367716618983
 30
0.0
 11
2521.553062767442
 21
2083.167716618979
 31
0.0
  0
LINE
  5
27F
330
1F
100
AcDbEntity
  8
LAY-10
  6
CONTINUOUS
 62
     7
100
AcDbLine
 10
2568.353062767438
 20
2050.509852242714
 30
0.0
 11
2521.553062767442
 21
2097.30985224271
 31
0.0
  0
LINE
  5
280
330
1F
100
AcDbEntity
  8
LAY-10
  6
CONTINUOUS
 62
     7
100
AcDbLine
 10
2568.353062767438
 20
2064.651987866445
 30
0.0
 11
2521.553062767442
 21
2111.451987866441
 31
0.0
  0
LINE
  5
281
330
1F
100
AcDbEntity
  8
LAY-10
  6
CONTINUOUS
 62
     7
100
AcDbLine
 10
2568.353062767438
 20
2078.794123490175
 30
0.0
 11
2521.553062767442
 21
2125.594123490172
 31
0.0
  0
LINE
  5
282
330
1F
100
AcDbEntity
  8
LAY-10
  6
CONTINUOUS
 62
     7
100
AcDbLine
 10
2568.353062767438
 20
2092.936259113907
 30
0.0
 11
2521.553062767442
 21
2139.736259113903
 31
0.0
  0
LINE
  5
283
330
1F
100
AcDbEntity
  8
LAY-10
  6
CONTINUOUS
 62
     7
100
AcDbLine
 10
2568.353062767438
 20
2107.078394737638
 30
0.0
 11
2521.553062767442
 21
2153.878394737634
 31
0.0
  0
LINE
  5
284
330
1F
100
AcDbEntity
  8
LAY-10
  6
CONTINUOUS
 62
     7
100
AcDbLine
 10
2568.353062767438
 20
2121.220530361369
 30
0.0
 11
2521.553062767442
 21
2168.020530361365
 31
0.0
  0
LINE
  5
285
330
1F
100
AcDbEntity
  8
LAY-10
  6
CONTINUOUS
 62
     7
100
AcDbLine
 10
2568.353062767438
 20
2135.3626659851
 30
0.0
 11
2521.553062767442
 21
2182.162665985096
 31
0.0
  0
LINE
  5
286
330
1F
100
AcDbEntity
  8
LAY-10
  6
CONTINUOUS
 62
     7
100
AcDbLine
 10
2568.353062767438
 20
2149.504801608831
 30
0.0
 11
2521.553062767442
 21
2196.304801608827
 31
0.0
  0
LINE
  5
287
330
1F
100
AcDbEntity
  8
LAY-10
  6
CONTINUOUS
 62
     7
100
AcDbLine
 10
2568.353062767438
 20
2163.646937232562
 30
0.0
 11
2521.553062767442
 21
2210.446937232558
 31
0.0
  0
LINE
  5
288
330
1F
100
AcDbEntity
  8
LAY-10
  6
CONTINUOUS
 62
     7
100
AcDbLine
 10
2568.353062767438
 20
2177.789072856293
 30
0.0
 11
2521.553062767442
 21
2224.589072856289
 31
0.0
  0
LINE
  5
289
330
1F
100
AcDbEntity
  8
LAY-10
  6
CONTINUOUS
 62
     7
100
AcDbLine
 10
2568.353062767438
 20
2191.931208480024
 30
0.0
 11
2521.553062767442
 21
2238.73120848002
 31
0.0
  0
LINE
  5
28A
330
1F
100
AcDbEntity
  8
LAY-10
  6
CONTINUOUS
 62
     7
100
AcDbLine
 10
2568.353062767438
 20
2206.073344103755
 30
0.0
 11
2521.553062767442
 21
2252.87334410375
 31
0.0
  0
LINE
  5
28B
330
1F
100
AcDbEntity
  8
LAY-10
  6
CONTINUOUS
 62
     7
100
AcDbLine
 10
2568.353062767438
 20
2220.215479727485
 30
0.0
 11
2521.553062767442
 21
2267.015479727481
 31
0.0
  0
LINE
  5
28C
330
1F
100
AcDbEntity
  8
LAY-10
  6
CONTINUOUS
 62
     7
100
AcDbLine
 10
2568.353062767438
 20
2234.357615351216
 30
0.0
 11
2521.553062767442
 21
2281.157615351212
 31
0.0
  0
LINE
  5
28D
330
1F
100
AcDbEntity
  8
LAY-10
  6
CONTINUOUS
 62
     7
100
AcDbLine
 10
2568.353062767438
 20
2248.499750974947
 30
0.0
 11
2521.553062767442
 21
2295.299750974943
 31
0.0
  0
LINE
  5
28E
330
1F
100
AcDbEntity
  8
LAY-10
  6
CONTINUOUS
 62
     7
100
AcDbLine
 10
2568.353062767438
 20
2262.641886598678
 30
0.0
 11
2521.553062767442
 21
2309.441886598675
 31
0.0
  0
LINE
  5
28F
330
1F
100
AcDbEntity
  8
LAY-10
  6
CONTINUOUS
 62
     7
100
AcDbLine
 10
2568.353062767438
 20
2276.784022222409
 30
0.0
 11
2521.553062767442
 21
2323.584022222405
 31
0.0
  0
LINE
  5
290
330
1F
100
AcDbEntity
  8
LAY-10
  6
CONTINUOUS
 62
     7
100
AcDbLine
 10
2568.353062767438
 20
2290.92615784614
 30
0.0
 11
2521.553062767442
 21
2337.726157846136
 31
0.0
  0
LINE
  5
291
330
1F
100
AcDbEntity
  8
LAY-10
  6
CONTINUOUS
 62
     7
100
AcDbLine
 10
2568.353062767438
 20
2305.068293469871
 30
0.0
 11
2521.553062767442
 21
2351.868293469867
 31
0.0
  0
LINE
  5
292
330
1F
100
AcDbEntity
  8
LAY-10
  6
CONTINUOUS
 62
     7
100
AcDbLine
 10
2568.353062767438
 20
2319.210429093602
 30
0.0
 11
2521.553062767442
 21
2366.010429093598
 31
0.0
  0
LINE
  5
293
330
1F
100
AcDbEntity
  8
LAY-10
  6
CONTINUOUS
 62
     7
100
AcDbLine
 10
2568.353062767438
 20
2333.352564717333
 30
0.0
 11
2521.553062767442
 21
2380.152564717329
 31
0.0
  0
LINE
  5
294
330
1F
100
AcDbEntity
  8
LAY-10
  6
CONTINUOUS
 62
     7
100
AcDbLine
 10
2568.353062767438
 20
2347.494700341063
 30
0.0
 11
2521.553062767442
 21
2394.29470034106
 31
0.0
  0
LINE
  5
295
330
1F
100
AcDbEntity
  8
LAY-10
  6
CONTINUOUS
 62
     7
100
AcDbLine
 10
2568.353062767438
 20
2361.636835964795
 30
0.0
 11
2526.210377592094
 21
2403.779521140138
 31
0.0
  0
LINE
  5
296
330
1F
100
AcDbEntity
  8
LAY-10
  6
CONTINUOUS
 62
     7
100
AcDbLine
 10
2568.353062767438
 20
2375.778971588526
 30
0.0
 11
2540.352513215825
 21
2403.779521140138
 31
0.0
  0
LINE
  5
297
330
1F
100
AcDbEntity
  8
LAY-10
  6
CONTINUOUS
 62
     7
100
AcDbLine
 10
2568.353062767438
 20
2389.921107212257
 30
0.0
 11
2554.494648839556
 21
2403.779521140138
 31
0.0
  0
LINE
  5
298
330
1F
100
AcDbEntity
  8
LAY-10
  6
CONTINUOUS
 62
     7
100
AcDbLine
 10
1965.540725756918
 20
966.263694024603
 30
0.0
 11
1965.540725756918
 21
951.263694024603
 31
0.0
  0
LINE
  5
299
330
1F
100
AcDbEntity
  8
LAY-10
  6
CONTINUOUS
 62
     7
100
AcDbLine
 10
1965.540725756918
 20
966.263694024603
 30
0.0
 11
1980.540725756921
 21
966.263694024603
 31
0.0
  0
LINE
  5
29A
330
1F
100
AcDbEntity
  8
LAY-10
  6
CONTINUOUS
 62
     7
100
AcDbLine
 10
1968.540725756922
 20
963.2636940246034
 30
0.0
 11
1980.540725756921
 21
963.2636940246034
 31
0.0
  0
LINE
  5
29B
330
1F
100
AcDbEntity
  8
LAY-10
  6
CONTINUOUS
 62
     7
100
AcDbLine
 10
1965.540725756918
 20
951.263694024603
 30
0.0
 11
1968.540725756922
 21
951.263694024603
 31
0.0
  0
LINE
  5
29C
330
1F
100
AcDbEntity
  8
LAY-10
  6
CONTINUOUS
 62
     7
100
AcDbLine
 10
1980.540725756921
 20
966.263694024603
 30
0.0
 11
1980.540725756921
 21
963.2636940246034
 31
0.0
  0
LINE
  5
29D
330
1F
100
AcDbEntity
  8
LAY-10
  6
CONTINUOUS
 62
     7
100
AcDbLine
 10
293.5407257570196
 20
966.263694024602
 30
0.0
 11
278.5407257570196
 21
966.263694024602
 31
0.0
  0
LINE
  5
29E
330
1F
100
AcDbEntity
  8
LAY-10
  6
CONTINUOUS
 62
     7
100
AcDbLine
 10
293.5407257570196
 20
966.263694024602
 30
0.0
 11
293.5407257570196
 21
951.263694024602
 31
0.0
  0
LINE
  5
29F
330
1F
100
AcDbEntity
  8
LAY-10
  6
CONTINUOUS
 62
     7
100
AcDbLine
 10
290.5407257570214
 20
963.2636940246025
 30
0.0
 11
278.5407257570196
 21
963.2636940246025
 31
0.0
  0
LINE
  5
2A0
330
1F
100
AcDbEntity
  8
LAY-10
  6
CONTINUOUS
 62
     7
100
AcDbLine
 10
293.5407257570196
 20
951.263694024602
 30
0.0
 11
290.5407257570214
 21
951.263694024602
 31
0.0
  0
LINE
  5
2A1
330
1F
100
AcDbEntity
  8
LAY-10
  6
CONTINUOUS
 62
     7
100
AcDbLine
 10
278.5407257570196
 20
966.263694024602
 30
0.0
 11
278.5407257570196
 21
963.2636940246025
 31
0.0
  0
ARC
  5
2A2
330
1F
100
AcDbEntity
  8
LAY-10
  6
CONTINUOUS
 62
     7
100
AcDbCircle
 10
303.7407257570185
 20
924.2636940246025
 30
0.0
 40
3.000000000000003
100
AcDbArc
 50
180.0
 51
270.0000000000002
  0
LINE
  5
2A3
330
1F
100
AcDbEntity
  8
LAY-10
  6
CONTINUOUS
 62
     7
100
AcDbLine
 10
300.7407257570185
 20
963.263694024603
 30
0.0
 11
300.7407257570185
 21
924.2636940246025
 31
0.0
  0
LINE
  5
2A4
330
1F
100
AcDbEntity
  8
LAY-10
  6
CONTINUOUS
 62
     7
100
AcDbLine
 10
297.5407257570159
 20
963.263694024603
 30
0.0
 11
297.5407257570159
 21
924.0636940246027
 31
0.0
  0
LINE
  5
2A5
330
1F
100
AcDbEntity
  8
LAY-10
  6
CONTINUOUS
 62
     7
100
AcDbLine
 10
294.5407257570196
 20
951.263694024604
 30
0.0
 11
297.5407257570178
 21
951.263694024604
 31
0.0
  0
LINE
  5
2A6
330
1F
100
AcDbEntity
  8
LAY-10
  6
CONTINUOUS
 62
     7
100
AcDbLine
 10
294.5407257570196
 20
966.263694024603
 30
0.0
 11
294.5407257570196
 21
951.263694024604
 31
0.0
  0
LINE
  5
2A7
330
1F
100
AcDbEntity
  8
LAY-10
  6
CONTINUOUS
 62
     7
100
AcDbLine
 10
417.0407257570851
 20
929.2636940245998
 30
0.0
 11
417.0407257570851
 21
923.2636940245989
 31
0.0
  0
ARC
  5
2A8
330
1F
100
AcDbEntity
  8
LAY-10
  6
CONTINUOUS
 62
     7
100
AcDbCircle
 10
417.0407257570705
 20
929.2636940245998
 30
0.0
 40
2.0
100
AcDbArc
 50
90.00000000000001
 51
180.0
  0
LINE
  5
2A9
330
1F
100
AcDbEntity
  8
LAY-10
  6
CONTINUOUS
 62
     7
100
AcDbLine
 10
422.5407257570687
 20
931.2636940245994
 30
0.0
 11
417.0407257570705
 21
931.2636940245994
 31
0.0
  0
LINE
  5
2AA
330
1F
100
AcDbEntity
  8
LAY-10
  6
CONTINUOUS
 62
     7
100
AcDbLine
 10
415.0407257570687
 20
929.2636940245998
 30
0.0
 11
415.0407257570687
 21
923.2636940245989
 31
0.0
  0
LINE
  5
2AB
330
1F
100
AcDbEntity
  8
LAY-10
  6
CONTINUOUS
 62
     7
100
AcDbLine
 10
422.5407257570687
 20
929.2636940245998
 30
0.0
 11
417.0407257570851
 21
929.2636940245998
 31
0.0
  0
LINE
  5
2AC
330
1F
100
AcDbEntity
  8
LAY-10
  6
CONTINUOUS
 62
     7
100
AcDbLine
 10
422.5407257570687
 20
931.2636940245994
 30
0.0
 11
422.5407257570687
 21
929.2636940245998
 31
0.0
  0
ARC
  5
2AD
330
1F
100
AcDbEntity
  8
LAY-10
  6
CONTINUOUS
 62
     7
100
AcDbCircle
 10
388.040725757065
 20
929.2636940245998
 30
0.0
 40
2.0
100
AcDbArc
 50
0.0
 51
90.00000000000001
  0
LINE
  5
2AE
330
1F
100
AcDbEntity
  8
LAY-10
  6
CONTINUOUS
 62
     7
100
AcDbLine
 10
382.5407257570669
 20
931.2636940245994
 30
0.0
 11
388.040725757065
 21
931.2636940245994
 31
0.0
  0
LINE
  5
2AF
330
1F
100
AcDbEntity
  8
LAY-10
  6
CONTINUOUS
 62
     7
100
AcDbLine
 10
390.0407257570669
 20
929.2636940245998
 30
0.0
 11
390.0407257570669
 21
923.2636940245989
 31
0.0
  0
LINE
  5
2B0
330
1F
100
AcDbEntity
  8
LAY-10
  6
CONTINUOUS
 62
     7
100
AcDbLine
 10
388.0407257570505
 20
929.2636940245998
 30
0.0
 11
388.0407257570505
 21
923.2636940245989
 31
0.0
  0
LINE
  5
2B1
330
1F
100
AcDbEntity
  8
LAY-10
  6
CONTINUOUS
 62
     7
100
AcDbLine
 10
382.5407257570669
 20
929.2636940245998
 30
0.0
 11
388.0407257570505
 21
929.2636940245998
 31
0.0
  0
LINE
  5
2B2
330
1F
100
AcDbEntity
  8
LAY-10
  6
CONTINUOUS
 62
     7
100
AcDbLine
 10
382.5407257570669
 20
931.2636940245994
 30
0.0
 11
382.5407257570669
 21
929.2636940245998
 31
0.0
  0
LINE
  5
2B3
330
1F
100
AcDbEntity
  8
LAY-10
  6
CONTINUOUS
 62
     7
100
AcDbLine
 10
390.0407257570669
 20
923.2636940245989
 30
0.0
 11
415.040725757065
 21
923.2636940245989
 31
0.0
  0
ARC
  5
2B4
330
1F
100
AcDbEntity
  8
LAY-10
  6
CONTINUOUS
 62
     7
100
AcDbCircle
 10
415.0407257570851
 20
923.2636940245989
 30
0.0
 40
2.0
100
AcDbArc
 50
270.0000000000002
 51
0.0
  0
ARC
  5
2B5
330
1F
100
AcDbEntity
  8
LAY-10
  6
CONTINUOUS
 62
     7
100
AcDbCircle
 10
390.0407257570505
 20
923.2636940245989
 30
0.0
 40
2.0
100
AcDbArc
 50
180.0
 51
270.0000000000002
  0
ARC
  5
2B6
330
1F
100
AcDbEntity
  8
LAY-10
  6
CONTINUOUS
 62
     7
100
AcDbCircle
 10
588.0407257570832
 20
929.2636940246002
 30
0.0
 40
2.0
100
AcDbArc
 50
0.0
 51
90.00000000000001
  0
LINE
  5
2B7
330
1F
100
AcDbEntity
  8
LAY-10
  6
CONTINUOUS
 62
     7
100
AcDbLine
 10
582.5407257570869
 20
931.2636940246002
 30
0.0
 11
588.0407257570832
 21
931.2636940246002
 31
0.0
  0
LINE
  5
2B8
330
1F
100
AcDbEntity
  8
LAY-10
  6
CONTINUOUS
 62
     7
100
AcDbLine
 10
590.0407257570869
 20
929.2636940246002
 30
0.0
 11
590.0407257570869
 21
923.2636940246002
 31
0.0
  0
LINE
  5
2B9
330
1F
100
AcDbEntity
  8
LAY-10
  6
CONTINUOUS
 62
     7
100
AcDbLine
 10
588.0407257570705
 20
929.2636940246002
 30
0.0
 11
588.0407257570705
 21
923.2636940246002
 31
0.0
  0
LINE
  5
2BA
330
1F
100
AcDbEntity
  8
LAY-10
  6
CONTINUOUS
 62
     7
100
AcDbLine
 10
582.5407257570869
 20
929.2636940246002
 30
0.0
 11
588.0407257570705
 21
929.2636940246002
 31
0.0
  0
LINE
  5
2BB
330
1F
100
AcDbEntity
  8
LAY-10
  6
CONTINUOUS
 62
     7
100
AcDbLine
 10
582.5407257570869
 20
931.2636940246002
 30
0.0
 11
582.5407257570869
 21
929.2636940246002
 31
0.0
  0
ARC
  5
2BC
330
1F
100
AcDbEntity
  8
LAY-10
  6
CONTINUOUS
 62
     7
100
AcDbCircle
 10
617.0407257570887
 20
929.2636940246002
 30
0.0
 40
2.0
100
AcDbArc
 50
90.00000000000001
 51
180.0
  0
LINE
  5
2BD
330
1F
100
AcDbEntity
  8
LAY-10
  6
CONTINUOUS
 62
     7
100
AcDbLine
 10
622.5407257570887
 20
931.2636940246002
 30
0.0
 11
617.0407257570887
 21
931.2636940246002
 31
0.0
  0
LINE
  5
2BE
330
1F
100
AcDbEntity
  8
LAY-10
  6
CONTINUOUS
 62
     7
100
AcDbLine
 10
615.0407257570887
 20
929.2636940246002
 30
0.0
 11
615.0407257570887
 21
923.2636940246002
 31
0.0
  0
LINE
  5
2BF
330
1F
100
AcDbEntity
  8
LAY-10
  6
CONTINUOUS
 62
     7
100
AcDbLine
 10
617.0407257571051
 20
929.2636940246002
 30
0.0
 11
617.0407257571051
 21
923.2636940246002
 31
0.0
  0
LINE
  5
2C0
330
1F
100
AcDbEntity
  8
LAY-10
  6
CONTINUOUS
 62
     7
100
AcDbLine
 10
622.5407257570887
 20
929.2636940246002
 30
0.0
 11
617.0407257571051
 21
929.2636940246002
 31
0.0
  0
LINE
  5
2C1
330
1F
100
AcDbEntity
  8
LAY-10
  6
CONTINUOUS
 62
     7
100
AcDbLine
 10
622.5407257570887
 20
931.2636940246002
 30
0.0
 11
622.5407257570887
 21
929.2636940246002
 31
0.0
  0
LINE
  5
2C2
330
1F
100
AcDbEntity
  8
LAY-10
  6
CONTINUOUS
 62
     7
100
AcDbLine
 10
615.0407257570887
 20
923.2636940246002
 30
0.0
 11
590.0407257570887
 21
923.2636940246002
 31
0.0
  0
ARC
  5
2C3
330
1F
100
AcDbEntity
  8
LAY-10
  6
CONTINUOUS
 62
     7
100
AcDbCircle
 10
590.0407257570705
 20
923.2636940246002
 30
0.0
 40
2.0
100
AcDbArc
 50
180.0
 51
270.0000000000002
  0
ARC
  5
2C4
330
1F
100
AcDbEntity
  8
LAY-10
  6
CONTINUOUS
 62
     7
100
AcDbCircle
 10
615.0407257571051
 20
923.2636940246002
 30
0.0
 40
2.0
100
AcDbArc
 50
270.0000000000002
 51
0.0
  0
ARC
  5
2C5
330
1F
100
AcDbEntity
  8
LAY-10
  6
CONTINUOUS
 62
     7
100
AcDbCircle
 10
701.3407257570971
 20
924.2636940246035
 30
0.0
 40
3.000000000000003
100
AcDbArc
 50
270.0000000000002
 51
0.0
  0
LINE
  5
2C6
330
1F
100
AcDbEntity
  8
LAY-10
  6
CONTINUOUS
 62
     7
100
AcDbLine
 10
704.3407257570971
 20
963.2636940246034
 30
0.0
 11
704.3407257570971
 21
924.2636940246035
 31
0.0
  0
LINE
  5
2C7
330
1F
100
AcDbEntity
  8
LAY-10
  6
CONTINUOUS
 62
     7
100
AcDbLine
 10
707.5407257570978
 20
963.2636940246034
 30
0.0
 11
707.5407257570978
 21
924.0636940246037
 31
0.0
  0
LINE
  5
2C8
330
1F
100
AcDbEntity
  8
LAY-10
  6
CONTINUOUS
 62
     7
100
AcDbLine
 10
710.540725757096
 20
966.2636940246048
 30
0.0
 11
710.540725757096
 21
951.2636940246048
 31
0.0
  0
LINE
  5
2C9
330
1F
100
AcDbEntity
  8
LAY-10
  6
CONTINUOUS
 62
     7
100
AcDbLine
 10
710.540725757096
 20
951.2636940246048
 30
0.0
 11
707.5407257570978
 21
951.2636940246048
 31
0.0
  0
LINE
  5
2CA
330
1F
100
AcDbEntity
  8
LAY-10
  6
CONTINUOUS
 62
     7
100
AcDbLine
 10
303.7407257570185
 20
921.263694024604
 30
0.0
 11
701.3407257570971
 21
921.2636940246048
 31
0.0
  0
LINE
  5
2CB
330
1F
100
AcDbEntity
  8
LAY-10
  6
CONTINUOUS
 62
     7
100
AcDbLine
 10
294.5407257570232
 20
966.263694024603
 30
0.0
 11
710.540725757096
 21
966.2636940246048
 31
0.0
  0
ARC
  5
2CC
330
1F
100
AcDbEntity
  8
LAY-10
  6
CONTINUOUS
 62
     7
100
AcDbCircle
 10
721.7407257570185
 20
924.2636940246025
 30
0.0
 40
3.000000000000003
100
AcDbArc
 50
180.0
 51
270.0000000000002
  0
LINE
  5
2CD
330
1F
100
AcDbEntity
  8
LAY-10
  6
CONTINUOUS
 62
     7
100
AcDbLine
 10
718.7407257570184
 20
963.263694024603
 30
0.0
 11
718.7407257570184
 21
924.2636940246025
 31
0.0
  0
LINE
  5
2CE
330
1F
100
AcDbEntity
  8
LAY-10
  6
CONTINUOUS
 62
     7
100
AcDbLine
 10
715.5407257570159
 20
963.263694024603
 30
0.0
 11
715.5407257570159
 21
924.0636940246027
 31
0.0
  0
LINE
  5
2CF
330
1F
100
AcDbEntity
  8
LAY-10
  6
CONTINUOUS
 62
     7
100
AcDbLine
 10
712.5407257570195
 20
951.263694024604
 30
0.0
 11
715.5407257570178
 21
951.263694024604
 31
0.0
  0
LINE
  5
2D0
330
1F
100
AcDbEntity
  8
LAY-10
  6
CONTINUOUS
 62
     7
100
AcDbLine
 10
712.5407257570195
 20
966.263694024603
 30
0.0
 11
712.5407257570195
 21
951.263694024604
 31
0.0
  0
LINE
  5
2D1
330
1F
100
AcDbEntity
  8
LAY-10
  6
CONTINUOUS
 62
     7
100
AcDbLine
 10
835.040725757085
 20
929.2636940245998
 30
0.0
 11
835.040725757085
 21
923.2636940245989
 31
0.0
  0
ARC
  5
2D2
330
1F
100
AcDbEntity
  8
LAY-10
  6
CONTINUOUS
 62
     7
100
AcDbCircle
 10
835.0407257570705
 20
929.2636940245998
 30
0.0
 40
2.0
100
AcDbArc
 50
90.00000000000001
 51
180.0
  0
LINE
  5
2D3
330
1F
100
AcDbEntity
  8
LAY-10
  6
CONTINUOUS
 62
     7
100
AcDbLine
 10
840.5407257570687
 20
931.2636940245994
 30
0.0
 11
835.0407257570705
 21
931.2636940245994
 31
0.0
  0
LINE
  5
2D4
330
1F
100
AcDbEntity
  8
LAY-10
  6
CONTINUOUS
 62
     7
100
AcDbLine
 10
833.0407257570687
 20
929.2636940245998
 30
0.0
 11
833.0407257570687
 21
923.2636940245989
 31
0.0
  0
LINE
  5
2D5
330
1F
100
AcDbEntity
  8
LAY-10
  6
CONTINUOUS
 62
     7
100
AcDbLine
 10
840.5407257570687
 20
929.2636940245998
 30
0.0
 11
835.040725757085
 21
929.2636940245998
 31
0.0
  0
LINE
  5
2D6
330
1F
100
AcDbEntity
  8
LAY-10
  6
CONTINUOUS
 62
     7
100
AcDbLine
 10
840.5407257570687
 20
931.2636940245994
 30
0.0
 11
840.5407257570687
 21
929.2636940245998
 31
0.0
  0
ARC
  5
2D7
330
1F
100
AcDbEntity
  8
LAY-10
  6
CONTINUOUS
 62
     7
100
AcDbCircle
 10
806.040725757065
 20
929.2636940245998
 30
0.0
 40
2.0
100
AcDbArc
 50
0.0
 51
90.00000000000001
  0
LINE
  5
2D8
330
1F
100
AcDbEntity
  8
LAY-10
  6
CONTINUOUS
 62
     7
100
AcDbLine
 10
800.540725757067
 20
931.2636940245994
 30
0.0
 11
806.040725757065
 21
931.2636940245994
 31
0.0
  0
LINE
  5
2D9
330
1F
100
AcDbEntity
  8
LAY-10
  6
CONTINUOUS
 62
     7
100
AcDbLine
 10
808.040725757067
 20
929.2636940245998
 30
0.0
 11
808.040725757067
 21
923.2636940245989
 31
0.0
  0
LINE
  5
2DA
330
1F
100
AcDbEntity
  8
LAY-10
  6
CONTINUOUS
 62
     7
100
AcDbLine
 10
806.0407257570506
 20
929.2636940245998
 30
0.0
 11
806.0407257570506
 21
923.2636940245989
 31
0.0
  0
LINE
  5
2DB
330
1F
100
AcDbEntity
  8
LAY-10
  6
CONTINUOUS
 62
     7
100
AcDbLine
 10
800.540725757067
 20
929.2636940245998
 30
0.0
 11
806.0407257570506
 21
929.2636940245998
 31
0.0
  0
LINE
  5
2DC
330
1F
100
AcDbEntity
  8
LAY-10
  6
CONTINUOUS
 62
     7
100
AcDbLine
 10
800.540725757067
 20
931.2636940245994
 30
0.0
 11
800.540725757067
 21
929.2636940245998
 31
0.0
  0
LINE
  5
2DD
330
1F
100
AcDbEntity
  8
LAY-10
  6
CONTINUOUS
 62
     7
100
AcDbLine
 10
808.040725757067
 20
923.2636940245989
 30
0.0
 11
833.040725757065
 21
923.2636940245989
 31
0.0
  0
ARC
  5
2DE
330
1F
100
AcDbEntity
  8
LAY-10
  6
CONTINUOUS
 62
     7
100
AcDbCircle
 10
833.0407257570852
 20
923.2636940245989
 30
0.0
 40
2.0
100
AcDbArc
 50
270.0000000000002
 51
0.0
  0
ARC
  5
2DF
330
1F
100
AcDbEntity
  8
LAY-10
  6
CONTINUOUS
 62
     7
100
AcDbCircle
 10
808.0407257570505
 20
923.2636940245989
 30
0.0
 40
2.0
100
AcDbArc
 50
180.0
 51
270.0000000000002
  0
ARC
  5
2E0
330
1F
100
AcDbEntity
  8
LAY-10
  6
CONTINUOUS
 62
     7
100
AcDbCircle
 10
1006.040725757083
 20
929.2636940246002
 30
0.0
 40
2.0
100
AcDbArc
 50
0.0
 51
90.00000000000001
  0
LINE
  5
2E1
330
1F
100
AcDbEntity
  8
LAY-10
  6
CONTINUOUS
 62
     7
100
AcDbLine
 10
1000.540725757087
 20
931.2636940246002
 30
0.0
 11
1006.040725757083
 21
931.2636940246002
 31
0.0
  0
LINE
  5
2E2
330
1F
100
AcDbEntity
  8
LAY-10
  6
CONTINUOUS
 62
     7
100
AcDbLine
 10
1008.040725757087
 20
929.2636940246002
 30
0.0
 11
1008.040725757087
 21
923.2636940246002
 31
0.0
  0
LINE
  5
2E3
330
1F
100
AcDbEntity
  8
LAY-10
  6
CONTINUOUS
 62
     7
100
AcDbLine
 10
1006.040725757071
 20
929.2636940246002
 30
0.0
 11
1006.040725757071
 21
923.2636940246002
 31
0.0
  0
LINE
  5
2E4
330
1F
100
AcDbEntity
  8
LAY-10
  6
CONTINUOUS
 62
     7
100
AcDbLine
 10
1000.540725757087
 20
929.2636940246002
 30
0.0
 11
1006.040725757071
 21
929.2636940246002
 31
0.0
  0
LINE
  5
2E5
330
1F
100
AcDbEntity
  8
LAY-10
  6
CONTINUOUS
 62
     7
100
AcDbLine
 10
1000.540725757087
 20
931.2636940246002
 30
0.0
 11
1000.540725757087
 21
929.2636940246002
 31
0.0
  0
ARC
  5
2E6
330
1F
100
AcDbEntity
  8
LAY-10
  6
CONTINUOUS
 62
     7
100
AcDbCircle
 10
1035.040725757089
 20
929.2636940246002
 30
0.0
 40
2.0
100
AcDbArc
 50
90.00000000000001
 51
180.0
  0
LINE
  5
2E7
330
1F
100
AcDbEntity
  8
LAY-10
  6
CONTINUOUS
 62
     7
100
AcDbLine
 10
1040.540725757089
 20
931.2636940246002
 30
0.0
 11
1035.040725757089
 21
931.2636940246002
 31
0.0
  0
LINE
  5
2E8
330
1F
100
AcDbEntity
  8
LAY-10
  6
CONTINUOUS
 62
     7
100
AcDbLine
 10
1033.040725757089
 20
929.2636940246002
 30
0.0
 11
1033.040725757089
 21
923.2636940246002
 31
0.0
  0
LINE
  5
2E9
330
1F
100
AcDbEntity
  8
LAY-10
  6
CONTINUOUS
 62
     7
100
AcDbLine
 10
1035.040725757105
 20
929.2636940246002
 30
0.0
 11
1035.040725757105
 21
923.2636940246002
 31
0.0
  0
LINE
  5
2EA
330
1F
100
AcDbEntity
  8
LAY-10
  6
CONTINUOUS
 62
     7
100
AcDbLine
 10
1040.540725757089
 20
929.2636940246002
 30
0.0
 11
1035.040725757105
 21
929.2636940246002
 31
0.0
  0
LINE
  5
2EB
330
1F
100
AcDbEntity
  8
LAY-10
  6
CONTINUOUS
 62
     7
100
AcDbLine
 10
1040.540725757089
 20
931.2636940246002
 30
0.0
 11
1040.540725757089
 21
929.2636940246002
 31
0.0
  0
LINE
  5
2EC
330
1F
100
AcDbEntity
  8
LAY-10
  6
CONTINUOUS
 62
     7
100
AcDbLine
 10
1033.040725757089
 20
923.2636940246002
 30
0.0
 11
1008.040725757089
 21
923.2636940246002
 31
0.0
  0
ARC
  5
2ED
330
1F
100
AcDbEntity
  8
LAY-10
  6
CONTINUOUS
 62
     7
100
AcDbCircle
 10
1008.040725757071
 20
923.2636940246002
 30
0.0
 40
2.0
100
AcDbArc
 50
180.0
 51
270.0000000000002
  0
ARC
  5
2EE
330
1F
100
AcDbEntity
  8
LAY-10
  6
CONTINUOUS
 62
     7
100
AcDbCircle
 10
1033.040725757105
 20
923.2636940246002
 30
0.0
 40
2.0
100
AcDbArc
 50
270.0000000000002
 51
0.0
  0
ARC
  5
2EF
330
1F
100
AcDbEntity
  8
LAY-10
  6
CONTINUOUS
 62
     7
100
AcDbCircle
 10
1119.340725757097
 20
924.2636940246035
 30
0.0
 40
3.000000000000003
100
AcDbArc
 50
270.0000000000002
 51
0.0
  0
LINE
  5
2F0
330
1F
100
AcDbEntity
  8
LAY-10
  6
CONTINUOUS
 62
     7
100
AcDbLine
 10
1122.340725757097
 20
963.2636940246034
 30
0.0
 11
1122.340725757097
 21
924.2636940246035
 31
0.0
  0
LINE
  5
2F1
330
1F
100
AcDbEntity
  8
LAY-10
  6
CONTINUOUS
 62
     7
100
AcDbLine
 10
1125.540725757098
 20
963.2636940246034
 30
0.0
 11
1125.540725757098
 21
924.0636940246037
 31
0.0
  0
LINE
  5
2F2
330
1F
100
AcDbEntity
  8
LAY-10
  6
CONTINUOUS
 62
     7
100
AcDbLine
 10
1128.540725757096
 20
966.2636940246048
 30
0.0
 11
1128.540725757096
 21
951.2636940246048
 31
0.0
  0
LINE
  5
2F3
330
1F
100
AcDbEntity
  8
LAY-10
  6
CONTINUOUS
 62
     7
100
AcDbLine
 10
1128.540725757096
 20
951.2636940246048
 30
0.0
 11
1125.540725757098
 21
951.2636940246048
 31
0.0
  0
LINE
  5
2F4
330
1F
100
AcDbEntity
  8
LAY-10
  6
CONTINUOUS
 62
     7
100
AcDbLine
 10
721.7407257570185
 20
921.263694024604
 30
0.0
 11
1119.340725757097
 21
921.2636940246048
 31
0.0
  0
LINE
  5
2F5
330
1F
100
AcDbEntity
  8
LAY-10
  6
CONTINUOUS
 62
     7
100
AcDbLine
 10
712.5407257570232
 20
966.263694024603
 30
0.0
 11
1128.540725757096
 21
966.2636940246048
 31
0.0
  0
ARC
  5
2F6
330
1F
100
AcDbEntity
  8
LAY-10
  6
CONTINUOUS
 62
     7
100
AcDbCircle
 10
1537.340725757077
 20
924.2636940246025
 30
0.0
 40
3.000000000000003
100
AcDbArc
 50
270.0000000000002
 51
0.0
  0
LINE
  5
2F7
330
1F
100
AcDbEntity
  8
LAY-10
  6
CONTINUOUS
 62
     7
100
AcDbLine
 10
1540.340725757077
 20
963.263694024603
 30
0.0
 11
1540.340725757077
 21
924.2636940246025
 31
0.0
  0
LINE
  5
2F8
330
1F
100
AcDbEntity
  8
LAY-10
  6
CONTINUOUS
 62
     7
100
AcDbLine
 10
1543.54072575708
 20
963.263694024603
 30
0.0
 11
1543.54072575708
 21
924.0636940246027
 31
0.0
  0
LINE
  5
2F9
330
1F
100
AcDbEntity
  8
LAY-10
  6
CONTINUOUS
 62
     7
100
AcDbLine
 10
1546.540725757076
 20
951.263694024604
 30
0.0
 11
1543.540725757078
 21
951.263694024604
 31
0.0
  0
LINE
  5
2FA
330
1F
100
AcDbEntity
  8
LAY-10
  6
CONTINUOUS
 62
     7
100
AcDbLine
 10
1546.540725757076
 20
966.263694024603
 30
0.0
 11
1546.540725757076
 21
951.263694024604
 31
0.0
  0
LINE
  5
2FB
330
1F
100
AcDbEntity
  8
LAY-10
  6
CONTINUOUS
 62
     7
100
AcDbLine
 10
1424.04072575701
 20
929.2636940245998
 30
0.0
 11
1424.04072575701
 21
923.2636940245989
 31
0.0
  0
ARC
  5
2FC
330
1F
100
AcDbEntity
  8
LAY-10
  6
CONTINUOUS
 62
     7
100
AcDbCircle
 10
1424.040725757025
 20
929.2636940245998
 30
0.0
 40
2.0
100
AcDbArc
 50
0.0
 51
90.00000000000001
  0
LINE
  5
2FD
330
1F
100
AcDbEntity
  8
LAY-10
  6
CONTINUOUS
 62
     7
100
AcDbLine
 10
1418.540725757025
 20
931.2636940245994
 30
0.0
 11
1424.040725757025
 21
931.2636940245994
 31
0.0
  0
LINE
  5
2FE
330
1F
100
AcDbEntity
  8
LAY-10
  6
CONTINUOUS
 62
     7
100
AcDbLine
 10
1426.040725757025
 20
929.2636940245998
 30
0.0
 11
1426.040725757025
 21
923.2636940245989
 31
0.0
  0
LINE
  5
2FF
330
1F
100
AcDbEntity
  8
LAY-10
  6
CONTINUOUS
 62
     7
100
AcDbLine
 10
1418.540725757025
 20
929.2636940245998
 30
0.0
 11
1424.04072575701
 21
929.2636940245998
 31
0.0
  0
LINE
  5
300
330
1F
100
AcDbEntity
  8
LAY-10
  6
CONTINUOUS
 62
     7
100
AcDbLine
 10
1418.540725757025
 20
931.2636940245994
 30
0.0
 11
1418.540725757025
 21
929.2636940245998
 31
0.0
  0
ARC
  5
301
330
1F
100
AcDbEntity
  8
LAY-10
  6
CONTINUOUS
 62
     7
100
AcDbCircle
 10
1453.04072575703
 20
929.2636940245998
 30
0.0
 40
2.0
100
AcDbArc
 50
90.00000000000001
 51
180.0
  0
LINE
  5
302
330
1F
100
AcDbEntity
  8
LAY-10
  6
CONTINUOUS
 62
     7
100
AcDbLine
 10
1458.540725757029
 20
931.2636940245994
 30
0.0
 11
1453.04072575703
 21
931.2636940245994
 31
0.0
  0
LINE
  5
303
330
1F
100
AcDbEntity
  8
LAY-10
  6
CONTINUOUS
 62
     7
100
AcDbLine
 10
1451.040725757029
 20
929.2636940245998
 30
0.0
 11
1451.040725757029
 21
923.2636940245989
 31
0.0
  0
LINE
  5
304
330
1F
100
AcDbEntity
  8
LAY-10
  6
CONTINUOUS
 62
     7
100
AcDbLine
 10
1453.040725757045
 20
929.2636940245998
 30
0.0
 11
1453.040725757045
 21
923.2636940245989
 31
0.0
  0
LINE
  5
305
330
1F
100
AcDbEntity
  8
LAY-10
  6
CONTINUOUS
 62
     7
100
AcDbLine
 10
1458.540725757029
 20
929.2636940245998
 30
0.0
 11
1453.040725757045
 21
929.2636940245998
 31
0.0
  0
LINE
  5
306
330
1F
100
AcDbEntity
  8
LAY-10
  6
CONTINUOUS
 62
     7
100
AcDbLine
 10
1458.540725757029
 20
931.2636940245994
 30
0.0
 11
1458.540725757029
 21
929.2636940245998
 31
0.0
  0
LINE
  5
307
330
1F
100
AcDbEntity
  8
LAY-10
  6
CONTINUOUS
 62
     7
100
AcDbLine
 10
1451.040725757029
 20
923.2636940245989
 30
0.0
 11
1426.04072575703
 21
923.2636940245989
 31
0.0
  0
ARC
  5
308
330
1F
100
AcDbEntity
  8
LAY-10
  6
CONTINUOUS
 62
     7
100
AcDbCircle
 10
1426.04072575701
 20
923.2636940245989
 30
0.0
 40
2.0
100
AcDbArc
 50
180.0
 51
270.0000000000002
  0
ARC
  5
309
330
1F
100
AcDbEntity
  8
LAY-10
  6
CONTINUOUS
 62
     7
100
AcDbCircle
 10
1451.040725757043
 20
923.2636940245989
 30
0.0
 40
2.0
100
AcDbArc
 50
270.0000000000002
 51
0.0
  0
ARC
  5
30A
330
1F
100
AcDbEntity
  8
LAY-10
  6
CONTINUOUS
 62
     7
100
AcDbCircle
 10
1253.04072575701
 20
929.2636940246002
 30
0.0
 40
2.0
100
AcDbArc
 50
90.00000000000001
 51
180.0
  0
LINE
  5
30B
330
1F
100
AcDbEntity
  8
LAY-10
  6
CONTINUOUS
 62
     7
100
AcDbLine
 10
1258.540725757011
 20
931.2636940246002
 30
0.0
 11
1253.04072575701
 21
931.2636940246002
 31
0.0
  0
LINE
  5
30C
330
1F
100
AcDbEntity
  8
LAY-10
  6
CONTINUOUS
 62
     7
100
AcDbLine
 10
1251.040725757011
 20
929.2636940246002
 30
0.0
 11
1251.040725757011
 21
923.2636940246002
 31
0.0
  0
LINE
  5
30D
330
1F
100
AcDbEntity
  8
LAY-10
  6
CONTINUOUS
 62
     7
100
AcDbLine
 10
1253.040725757025
 20
929.2636940246002
 30
0.0
 11
1253.040725757025
 21
923.2636940246002
 31
0.0
  0
LINE
  5
30E
330
1F
100
AcDbEntity
  8
LAY-10
  6
CONTINUOUS
 62
     7
100
AcDbLine
 10
1258.540725757011
 20
929.2636940246002
 30
0.0
 11
1253.040725757025
 21
929.2636940246002
 31
0.0
  0
LINE
  5
30F
330
1F
100
AcDbEntity
  8
LAY-10
  6
CONTINUOUS
 62
     7
100
AcDbLine
 10
1258.540725757011
 20
931.2636940246002
 30
0.0
 11
1258.540725757011
 21
929.2636940246002
 31
0.0
  0
ARC
  5
310
330
1F
100
AcDbEntity
  8
LAY-10
  6
CONTINUOUS
 62
     7
100
AcDbCircle
 10
1224.040725757007
 20
929.2636940246002
 30
0.0
 40
2.0
100
AcDbArc
 50
0.0
 51
90.00000000000001
  0
LINE
  5
311
330
1F
100
AcDbEntity
  8
LAY-10
  6
CONTINUOUS
 62
     7
100
AcDbLine
 10
1218.540725757007
 20
931.2636940246002
 30
0.0
 11
1224.040725757007
 21
931.2636940246002
 31
0.0
  0
LINE
  5
312
330
1F
100
AcDbEntity
  8
LAY-10
  6
CONTINUOUS
 62
     7
100
AcDbLine
 10
1226.040725757007
 20
929.2636940246002
 30
0.0
 11
1226.040725757007
 21
923.2636940246002
 31
0.0
  0
LINE
  5
313
330
1F
100
AcDbEntity
  8
LAY-10
  6
CONTINUOUS
 62
     7
100
AcDbLine
 10
1224.040725756992
 20
929.2636940246002
 30
0.0
 11
1224.040725756992
 21
923.2636940246002
 31
0.0
  0
LINE
  5
314
330
1F
100
AcDbEntity
  8
LAY-10
  6
CONTINUOUS
 62
     7
100
AcDbLine
 10
1218.540725757007
 20
929.2636940246002
 30
0.0
 11
1224.040725756992
 21
929.2636940246002
 31
0.0
  0
LINE
  5
315
330
1F
100
AcDbEntity
  8
LAY-10
  6
CONTINUOUS
 62
     7
100
AcDbLine
 10
1218.540725757007
 20
931.2636940246002
 30
0.0
 11
1218.540725757007
 21
929.2636940246002
 31
0.0
  0
LINE
  5
316
330
1F
100
AcDbEntity
  8
LAY-10
  6
CONTINUOUS
 62
     7
100
AcDbLine
 10
1226.040725757007
 20
923.2636940246002
 30
0.0
 11
1251.040725757007
 21
923.2636940246002
 31
0.0
  0
ARC
  5
317
330
1F
100
AcDbEntity
  8
LAY-10
  6
CONTINUOUS
 62
     7
100
AcDbCircle
 10
1251.040725757025
 20
923.2636940246002
 30
0.0
 40
2.0
100
AcDbArc
 50
270.0000000000002
 51
0.0
  0
ARC
  5
318
330
1F
100
AcDbEntity
  8
LAY-10
  6
CONTINUOUS
 62
     7
100
AcDbCircle
 10
1226.040725756993
 20
923.2636940246002
 30
0.0
 40
2.0
100
AcDbArc
 50
180.0
 51
270.0000000000002
  0
ARC
  5
319
330
1F
100
AcDbEntity
  8
LAY-10
  6
CONTINUOUS
 62
     7
100
AcDbCircle
 10
1139.740725756998
 20
924.2636940246035
 30
0.0
 40
3.000000000000003
100
AcDbArc
 50
180.0
 51
270.0000000000002
  0
LINE
  5
31A
330
1F
100
AcDbEntity
  8
LAY-10
  6
CONTINUOUS
 62
     7
100
AcDbLine
 10
1136.740725756997
 20
963.2636940246034
 30
0.0
 11
1136.740725756997
 21
924.2636940246035
 31
0.0
  0
LINE
  5
31B
330
1F
100
AcDbEntity
  8
LAY-10
  6
CONTINUOUS
 62
     7
100
AcDbLine
 10
1133.540725757
 20
963.2636940246034
 30
0.0
 11
1133.540725757
 21
924.0636940246037
 31
0.0
  0
LINE
  5
31C
330
1F
100
AcDbEntity
  8
LAY-10
  6
CONTINUOUS
 62
     7
100
AcDbLine
 10
1130.540725757
 20
966.2636940246048
 30
0.0
 11
1130.540725757
 21
951.2636940246048
 31
0.0
  0
LINE
  5
31D
330
1F
100
AcDbEntity
  8
LAY-10
  6
CONTINUOUS
 62
     7
100
AcDbLine
 10
1130.540725757
 20
951.2636940246048
 30
0.0
 11
1133.540725757
 21
951.2636940246048
 31
0.0
  0
LINE
  5
31E
330
1F
100
AcDbEntity
  8
LAY-10
  6
CONTINUOUS
 62
     7
100
AcDbLine
 10
1537.340725757077
 20
921.263694024604
 30
0.0
 11
1139.740725756998
 21
921.2636940246048
 31
0.0
  0
LINE
  5
31F
330
1F
100
AcDbEntity
  8
LAY-10
  6
CONTINUOUS
 62
     7
100
AcDbLine
 10
1546.540725757072
 20
966.263694024603
 30
0.0
 11
1130.540725757
 21
966.2636940246048
 31
0.0
  0
ARC
  5
320
330
1F
100
AcDbEntity
  8
LAY-10
  6
CONTINUOUS
 62
     7
100
AcDbCircle
 10
1955.340725757077
 20
924.2636940246025
 30
0.0
 40
3.000000000000003
100
AcDbArc
 50
270.0000000000002
 51
0.0
  0
LINE
  5
321
330
1F
100
AcDbEntity
  8
LAY-10
  6
CONTINUOUS
 62
     7
100
AcDbLine
 10
1958.340725757077
 20
963.263694024603
 30
0.0
 11
1958.340725757077
 21
924.2636940246025
 31
0.0
  0
LINE
  5
322
330
1F
100
AcDbEntity
  8
LAY-10
  6
CONTINUOUS
 62
     7
100
AcDbLine
 10
1961.54072575708
 20
963.263694024603
 30
0.0
 11
1961.54072575708
 21
924.0636940246027
 31
0.0
  0
LINE
  5
323
330
1F
100
AcDbEntity
  8
LAY-10
  6
CONTINUOUS
 62
     7
100
AcDbLine
 10
1964.540725757076
 20
951.263694024604
 30
0.0
 11
1961.540725757078
 21
951.263694024604
 31
0.0
  0
LINE
  5
324
330
1F
100
AcDbEntity
  8
LAY-10
  6
CONTINUOUS
 62
     7
100
AcDbLine
 10
1964.540725757076
 20
966.263694024603
 30
0.0
 11
1964.540725757076
 21
951.263694024604
 31
0.0
  0
LINE
  5
325
330
1F
100
AcDbEntity
  8
LAY-10
  6
CONTINUOUS
 62
     7
100
AcDbLine
 10
1842.04072575701
 20
929.2636940245998
 30
0.0
 11
1842.04072575701
 21
923.2636940245989
 31
0.0
  0
ARC
  5
326
330
1F
100
AcDbEntity
  8
LAY-10
  6
CONTINUOUS
 62
     7
100
AcDbCircle
 10
1842.040725757025
 20
929.2636940245998
 30
0.0
 40
2.0
100
AcDbArc
 50
0.0
 51
90.00000000000001
  0
LINE
  5
327
330
1F
100
AcDbEntity
  8
LAY-10
  6
CONTINUOUS
 62
     7
100
AcDbLine
 10
1836.540725757025
 20
931.2636940245994
 30
0.0
 11
1842.040725757025
 21
931.2636940245994
 31
0.0
  0
LINE
  5
328
330
1F
100
AcDbEntity
  8
LAY-10
  6
CONTINUOUS
 62
     7
100
AcDbLine
 10
1844.040725757025
 20
929.2636940245998
 30
0.0
 11
1844.040725757025
 21
923.2636940245989
 31
0.0
  0
LINE
  5
329
330
1F
100
AcDbEntity
  8
LAY-10
  6
CONTINUOUS
 62
     7
100
AcDbLine
 10
1836.540725757025
 20
929.2636940245998
 30
0.0
 11
1842.04072575701
 21
929.2636940245998
 31
0.0
  0
LINE
  5
32A
330
1F
100
AcDbEntity
  8
LAY-10
  6
CONTINUOUS
 62
     7
100
AcDbLine
 10
1836.540725757025
 20
931.2636940245994
 30
0.0
 11
1836.540725757025
 21
929.2636940245998
 31
0.0
  0
ARC
  5
32B
330
1F
100
AcDbEntity
  8
LAY-10
  6
CONTINUOUS
 62
     7
100
AcDbCircle
 10
1871.040725757031
 20
929.2636940245998
 30
0.0
 40
2.0
100
AcDbArc
 50
90.00000000000001
 51
180.0
  0
LINE
  5
32C
330
1F
100
AcDbEntity
  8
LAY-10
  6
CONTINUOUS
 62
     7
100
AcDbLine
 10
1876.540725757029
 20
931.2636940245994
 30
0.0
 11
1871.040725757031
 21
931.2636940245994
 31
0.0
  0
LINE
  5
32D
330
1F
100
AcDbEntity
  8
LAY-10
  6
CONTINUOUS
 62
     7
100
AcDbLine
 10
1869.040725757029
 20
929.2636940245998
 30
0.0
 11
1869.040725757029
 21
923.2636940245989
 31
0.0
  0
LINE
  5
32E
330
1F
100
AcDbEntity
  8
LAY-10
  6
CONTINUOUS
 62
     7
100
AcDbLine
 10
1871.040725757045
 20
929.2636940245998
 30
0.0
 11
1871.040725757045
 21
923.2636940245989
 31
0.0
  0
LINE
  5
32F
330
1F
100
AcDbEntity
  8
LAY-10
  6
CONTINUOUS
 62
     7
100
AcDbLine
 10
1876.540725757029
 20
929.2636940245998
 30
0.0
 11
1871.040725757045
 21
929.2636940245998
 31
0.0
  0
LINE
  5
330
330
1F
100
AcDbEntity
  8
LAY-10
  6
CONTINUOUS
 62
     7
100
AcDbLine
 10
1876.540725757029
 20
931.2636940245994
 30
0.0
 11
1876.540725757029
 21
929.2636940245998
 31
0.0
  0
LINE
  5
331
330
1F
100
AcDbEntity
  8
LAY-10
  6
CONTINUOUS
 62
     7
100
AcDbLine
 10
1869.040725757029
 20
923.2636940245989
 30
0.0
 11
1844.04072575703
 21
923.2636940245989
 31
0.0
  0
ARC
  5
332
330
1F
100
AcDbEntity
  8
LAY-10
  6
CONTINUOUS
 62
     7
100
AcDbCircle
 10
1844.04072575701
 20
923.2636940245989
 30
0.0
 40
2.0
100
AcDbArc
 50
180.0
 51
270.0000000000002
  0
ARC
  5
333
330
1F
100
AcDbEntity
  8
LAY-10
  6
CONTINUOUS
 62
     7
100
AcDbCircle
 10
1869.040725757043
 20
923.2636940245989
 30
0.0
 40
2.0
100
AcDbArc
 50
270.0000000000002
 51
0.0
  0
ARC
  5
334
330
1F
100
AcDbEntity
  8
LAY-10
  6
CONTINUOUS
 62
     7
100
AcDbCircle
 10
1671.04072575701
 20
929.2636940246002
 30
0.0
 40
2.0
100
AcDbArc
 50
90.00000000000001
 51
180.0
  0
LINE
  5
335
330
1F
100
AcDbEntity
  8
LAY-10
  6
CONTINUOUS
 62
     7
100
AcDbLine
 10
1676.54072575701
 20
931.2636940246002
 30
0.0
 11
1671.04072575701
 21
931.2636940246002
 31
0.0
  0
LINE
  5
336
330
1F
100
AcDbEntity
  8
LAY-10
  6
CONTINUOUS
 62
     7
100
AcDbLine
 10
1669.04072575701
 20
929.2636940246002
 30
0.0
 11
1669.04072575701
 21
923.2636940246002
 31
0.0
  0
LINE
  5
337
330
1F
100
AcDbEntity
  8
LAY-10
  6
CONTINUOUS
 62
     7
100
AcDbLine
 10
1671.040725757025
 20
929.2636940246002
 30
0.0
 11
1671.040725757025
 21
923.2636940246002
 31
0.0
  0
LINE
  5
338
330
1F
100
AcDbEntity
  8
LAY-10
  6
CONTINUOUS
 62
     7
100
AcDbLine
 10
1676.54072575701
 20
929.2636940246002
 30
0.0
 11
1671.040725757025
 21
929.2636940246002
 31
0.0
  0
LINE
  5
339
330
1F
100
AcDbEntity
  8
LAY-10
  6
CONTINUOUS
 62
     7
100
AcDbLine
 10
1676.54072575701
 20
931.2636940246002
 30
0.0
 11
1676.54072575701
 21
929.2636940246002
 31
0.0
  0
ARC
  5
33A
330
1F
100
AcDbEntity
  8
LAY-10
  6
CONTINUOUS
 62
     7
100
AcDbCircle
 10
1642.040725757007
 20
929.2636940246002
 30
0.0
 40
2.0
100
AcDbArc
 50
0.0
 51
90.00000000000001
  0
LINE
  5
33B
330
1F
100
AcDbEntity
  8
LAY-10
  6
CONTINUOUS
 62
     7
100
AcDbLine
 10
1636.540725757007
 20
931.2636940246002
 30
0.0
 11
1642.040725757007
 21
931.2636940246002
 31
0.0
  0
LINE
  5
33C
330
1F
100
AcDbEntity
  8
LAY-10
  6
CONTINUOUS
 62
     7
100
AcDbLine
 10
1644.040725757007
 20
929.2636940246002
 30
0.0
 11
1644.040725757007
 21
923.2636940246002
 31
0.0
  0
LINE
  5
33D
330
1F
100
AcDbEntity
  8
LAY-10
  6
CONTINUOUS
 62
     7
100
AcDbLine
 10
1642.040725756992
 20
929.2636940246002
 30
0.0
 11
1642.040725756992
 21
923.2636940246002
 31
0.0
  0
LINE
  5
33E
330
1F
100
AcDbEntity
  8
LAY-10
  6
CONTINUOUS
 62
     7
100
AcDbLine
 10
1636.540725757007
 20
929.2636940246002
 30
0.0
 11
1642.040725756992
 21
929.2636940246002
 31
0.0
  0
LINE
  5
33F
330
1F
100
AcDbEntity
  8
LAY-10
  6
CONTINUOUS
 62
     7
100
AcDbLine
 10
1636.540725757007
 20
931.2636940246002
 30
0.0
 11
1636.540725757007
 21
929.2636940246002
 31
0.0
  0
LINE
  5
340
330
1F
100
AcDbEntity
  8
LAY-10
  6
CONTINUOUS
 62
     7
100
AcDbLine
 10
1644.040725757007
 20
923.2636940246002
 30
0.0
 11
1669.040725757007
 21
923.2636940246002
 31
0.0
  0
ARC
  5
341
330
1F
100
AcDbEntity
  8
LAY-10
  6
CONTINUOUS
 62
     7
100
AcDbCircle
 10
1669.040725757025
 20
923.2636940246002
 30
0.0
 40
2.0
100
AcDbArc
 50
270.0000000000002
 51
0.0
  0
ARC
  5
342
330
1F
100
AcDbEntity
  8
LAY-10
  6
CONTINUOUS
 62
     7
100
AcDbCircle
 10
1644.040725756992
 20
923.2636940246002
 30
0.0
 40
2.0
100
AcDbArc
 50
180.0
 51
270.0000000000002
  0
ARC
  5
343
330
1F
100
AcDbEntity
  8
LAY-10
  6
CONTINUOUS
 62
     7
100
AcDbCircle
 10
1557.740725756998
 20
924.2636940246035
 30
0.0
 40
3.000000000000003
100
AcDbArc
 50
180.0
 51
270.0000000000002
  0
LINE
  5
344
330
1F
100
AcDbEntity
  8
LAY-10
  6
CONTINUOUS
 62
     7
100
AcDbLine
 10
1554.740725756997
 20
963.2636940246034
 30
0.0
 11
1554.740725756997
 21
924.2636940246035
 31
0.0
  0
LINE
  5
345
330
1F
100
AcDbEntity
  8
LAY-10
  6
CONTINUOUS
 62
     7
100
AcDbLine
 10
1551.540725757
 20
963.2636940246034
 30
0.0
 11
1551.540725757
 21
924.0636940246037
 31
0.0
  0
LINE
  5
346
330
1F
100
AcDbEntity
  8
LAY-10
  6
CONTINUOUS
 62
     7
100
AcDbLine
 10
1548.540725757
 20
966.2636940246048
 30
0.0
 11
1548.540725757
 21
951.2636940246048
 31
0.0
  0
LINE
  5
347
330
1F
100
AcDbEntity
  8
LAY-10
  6
CONTINUOUS
 62
     7
100
AcDbLine
 10
1548.540725757
 20
951.2636940246048
 30
0.0
 11
1551.540725757
 21
951.2636940246048
 31
0.0
  0
LINE
  5
348
330
1F
100
AcDbEntity
  8
LAY-10
  6
CONTINUOUS
 62
     7
100
AcDbLine
 10
1955.340725757077
 20
921.263694024604
 30
0.0
 11
1557.740725756998
 21
921.2636940246048
 31
0.0
  0
LINE
  5
349
330
1F
100
AcDbEntity
  8
LAY-10
  6
CONTINUOUS
 62
     7
100
AcDbLine
 10
1964.540725757072
 20
966.263694024603
 30
0.0
 11
1548.540725757
 21
966.2636940246048
 31
0.0
  0
LINE
  5
34A
330
1F
100
AcDbEntity
  8
LAY-10
  6
CONTINUOUS
 62
     7
100
AcDbLine
 10
297.5407257570469
 20
963.263694024603
 30
0.0
 11
309.5407257570196
 21
963.263694024603
 31
0.0
  0
LINE
  5
34B
330
1F
100
AcDbEntity
  8
LAY-10
  6
CONTINUOUS
 62
     7
100
AcDbLine
 10
309.5407257570196
 20
966.263694024603
 30
0.0
 11
309.5407257570196
 21
921.263694024604
 31
0.0
  0
LINE
  5
34C
330
1F
100
AcDbEntity
  8
LAY-10
  6
CONTINUOUS
 62
     7
100
AcDbLine
 10
341.5407257570255
 20
966.263694024603
 30
0.0
 11
341.5407257570255
 21
921.263694024604
 31
0.0
  0
LINE
  5
34D
330
1F
100
AcDbEntity
  8
LAY-10
  6
CONTINUOUS
 62
     7
100
AcDbLine
 10
695.540725757096
 20
966.2636940246048
 30
0.0
 11
695.540725757096
 21
921.2636940246048
 31
0.0
  0
LINE
  5
34E
330
1F
100
AcDbEntity
  8
LAY-10
  6
CONTINUOUS
 62
     7
100
AcDbLine
 10
663.5407257570964
 20
966.2636940246048
 30
0.0
 11
663.5407257570964
 21
921.2636940246048
 31
0.0
  0
LINE
  5
34F
330
1F
100
AcDbEntity
  8
LAY-10
  6
CONTINUOUS
 62
     7
100
AcDbLine
 10
341.5407257570255
 20
963.2636940246025
 30
0.0
 11
663.5407257570964
 21
963.2636940246034
 31
0.0
  0
LINE
  5
350
330
1F
100
AcDbEntity
  8
LAY-10
  6
CONTINUOUS
 62
     7
100
AcDbLine
 10
695.540725757096
 20
963.2636940246034
 30
0.0
 11
707.5407257570978
 21
963.2636940246034
 31
0.0
  0
LINE
  5
351
330
1F
100
AcDbEntity
  8
LAY-10
  6
CONTINUOUS
 62
     7
100
AcDbLine
 10
727.5407257570195
 20
966.263694024603
 30
0.0
 11
727.5407257570195
 21
921.263694024604
 31
0.0
  0
LINE
  5
352
330
1F
100
AcDbEntity
  8
LAY-10
  6
CONTINUOUS
 62
     7
100
AcDbLine
 10
759.5407257570578
 20
966.263694024603
 30
0.0
 11
759.5407257570578
 21
921.263694024604
 31
0.0
  0
LINE
  5
353
330
1F
100
AcDbEntity
  8
LAY-10
  6
CONTINUOUS
 62
     7
100
AcDbLine
 10
715.5407257570469
 20
963.263694024603
 30
0.0
 11
727.5407257570195
 21
963.263694024603
 31
0.0
  0
LINE
  5
354
330
1F
100
AcDbEntity
  8
LAY-10
  6
CONTINUOUS
 62
     7
100
AcDbLine
 10
1113.540725757096
 20
966.2636940246048
 30
0.0
 11
1113.540725757096
 21
921.2636940246048
 31
0.0
  0
LINE
  5
355
330
1F
100
AcDbEntity
  8
LAY-10
  6
CONTINUOUS
 62
     7
100
AcDbLine
 10
1081.540725757099
 20
966.2636940246048
 30
0.0
 11
1081.540725757099
 21
921.2636940246048
 31
0.0
  0
LINE
  5
356
330
1F
100
AcDbEntity
  8
LAY-10
  6
CONTINUOUS
 62
     7
100
AcDbLine
 10
759.5407257571001
 20
963.2636940246025
 30
0.0
 11
1081.540725757099
 21
963.2636940246034
 31
0.0
  0
LINE
  5
357
330
1F
100
AcDbEntity
  8
LAY-10
  6
CONTINUOUS
 62
     7
100
AcDbLine
 10
1113.540725757096
 20
963.2636940246034
 30
0.0
 11
1125.540725757098
 21
963.2636940246034
 31
0.0
  0
LINE
  5
358
330
1F
100
AcDbEntity
  8
LAY-10
  6
CONTINUOUS
 62
     7
100
AcDbLine
 10
1145.540725756999
 20
966.2636940246048
 30
0.0
 11
1145.540725756999
 21
921.2636940246048
 31
0.0
  0
LINE
  5
359
330
1F
100
AcDbEntity
  8
LAY-10
  6
CONTINUOUS
 62
     7
100
AcDbLine
 10
1177.540725756996
 20
966.2636940246048
 30
0.0
 11
1177.540725756996
 21
921.2636940246048
 31
0.0
  0
LINE
  5
35A
330
1F
100
AcDbEntity
  8
LAY-10
  6
CONTINUOUS
 62
     7
100
AcDbLine
 10
1499.540725757038
 20
966.263694024603
 30
0.0
 11
1499.540725757038
 21
921.263694024604
 31
0.0
  0
LINE
  5
35B
330
1F
100
AcDbEntity
  8
LAY-10
  6
CONTINUOUS
 62
     7
100
AcDbLine
 10
1531.540725757075
 20
966.263694024603
 30
0.0
 11
1531.540725757075
 21
921.263694024604
 31
0.0
  0
LINE
  5
35C
330
1F
100
AcDbEntity
  8
LAY-10
  6
CONTINUOUS
 62
     7
100
AcDbLine
 10
1563.540725756999
 20
966.2636940246048
 30
0.0
 11
1563.540725756999
 21
921.2636940246048
 31
0.0
  0
LINE
  5
35D
330
1F
100
AcDbEntity
  8
LAY-10
  6
CONTINUOUS
 62
     7
100
AcDbLine
 10
1595.540725756999
 20
966.2636940246048
 30
0.0
 11
1595.540725756999
 21
921.2636940246048
 31
0.0
  0
LINE
  5
35E
330
1F
100
AcDbEntity
  8
LAY-10
  6
CONTINUOUS
 62
     7
100
AcDbLine
 10
1949.540725757076
 20
966.263694024603
 30
0.0
 11
1949.540725757076
 21
921.263694024604
 31
0.0
  0
LINE
  5
35F
330
1F
100
AcDbEntity
  8
LAY-10
  6
CONTINUOUS
 62
     7
100
AcDbLine
 10
1917.54072575707
 20
966.263694024603
 30
0.0
 11
1917.54072575707
 21
921.263694024604
 31
0.0
  0
LINE
  5
360
330
1F
100
AcDbEntity
  8
LAY-10
  6
CONTINUOUS
 62
     7
100
AcDbLine
 10
1145.540725757
 20
963.2636940246034
 30
0.0
 11
1133.540725757
 21
963.2636940246034
 31
0.0
  0
LINE
  5
361
330
1F
100
AcDbEntity
  8
LAY-10
  6
CONTINUOUS
 62
     7
100
AcDbLine
 10
1543.540725757047
 20
963.263694024603
 30
0.0
 11
1531.540725757075
 21
963.263694024603
 31
0.0
  0
LINE
  5
362
330
1F
100
AcDbEntity
  8
LAY-10
  6
CONTINUOUS
 62
     7
100
AcDbLine
 10
1499.540725757038
 20
963.263694024603
 30
0.0
 11
1177.540725757
 21
963.263694024603
 31
0.0
  0
LINE
  5
363
330
1F
100
AcDbEntity
  8
LAY-10
  6
CONTINUOUS
 62
     7
100
AcDbLine
 10
1563.540725757
 20
963.2636940246034
 30
0.0
 11
1551.540725757
 21
963.2636940246034
 31
0.0
  0
LINE
  5
364
330
1F
100
AcDbEntity
  8
LAY-10
  6
CONTINUOUS
 62
     7
100
AcDbLine
 10
1961.540725757047
 20
963.263694024603
 30
0.0
 11
1949.540725757076
 21
963.263694024603
 31
0.0
  0
LINE
  5
365
330
1F
100
AcDbEntity
  8
LAY-10
  6
CONTINUOUS
 62
     7
100
AcDbLine
 10
1917.54072575707
 20
963.263694024603
 30
0.0
 11
1595.540725757
 21
963.263694024603
 31
0.0
  0
ARC
  5
366
330
1F
100
AcDbEntity
  8
LAY-10
  6
CONTINUOUS
 62
     7
100
AcDbCircle
 10
1955.540725757076
 20
924.0636940246027
 30
0.0
 40
6.000000000000006
100
AcDbArc
 50
270.0000000002302
 51
0.0
  0
ARC
  5
367
330
1F
100
AcDbEntity
  8
LAY-10
  6
CONTINUOUS
 62
     7
100
AcDbCircle
 10
1557.540725757
 20
924.0636940246037
 30
0.0
 40
6.000000000000006
100
AcDbArc
 50
180.0
 51
270.0
  0
ARC
  5
368
330
1F
100
AcDbEntity
  8
LAY-10
  6
CONTINUOUS
 62
     7
100
AcDbCircle
 10
1537.540725757076
 20
924.0636940246027
 30
0.0
 40
6.000000000000006
100
AcDbArc
 50
270.0
 51
0.0
  0
LINE
  5
369
330
1F
100
AcDbEntity
  8
LAY-10
  6
CONTINUOUS
 62
     7
100
AcDbLine
 10
1557.540725757
 20
918.0636940246038
 30
0.0
 11
1955.540725757076
 21
918.0636940246038
 31
0.0
  0
ARC
  5
36A
330
1F
100
AcDbEntity
  8
LAY-10
  6
CONTINUOUS
 62
     7
100
AcDbCircle
 10
721.5407257570196
 20
924.0636940246027
 30
0.0
 40
6.000000000000006
100
AcDbArc
 50
180.0
 51
270.0
  0
ARC
  5
36B
330
1F
100
AcDbEntity
  8
LAY-10
  6
CONTINUOUS
 62
     7
100
AcDbCircle
 10
701.540725757096
 20
924.0636940246037
 30
0.0
 40
6.000000000000006
100
AcDbArc
 50
270.0
 51
0.0
  0
LINE
  5
36C
330
1F
100
AcDbEntity
  8
LAY-10
  6
CONTINUOUS
 62
     7
100
AcDbLine
 10
303.5407257570196
 20
918.0636940246038
 30
0.0
 11
701.540725757096
 21
918.0636940246038
 31
0.0
  0
ARC
  5
36D
330
1F
100
AcDbEntity
  8
LAY-10
  6
CONTINUOUS
 62
     7
100
AcDbCircle
 10
303.5407257570196
 20
924.0636940246027
 30
0.0
 40
6.000000000000006
100
AcDbArc
 50
180.0
 51
270.0000000000044
  0
LINE
  5
36E
330
1F
100
AcDbEntity
  8
LAY-10
  6
CONTINUOUS
 62
     7
100
AcDbLine
 10
2380.15306276749
 20
2449.379521140051
 30
0.0
 11
2395.15306276749
 21
2449.379521140051
 31
0.0
  0
LINE
  5
36F
330
1F
100
AcDbEntity
  8
LAY-10
  6
CONTINUOUS
 62
     7
100
AcDbLine
 10
2383.153062767487
 20
2452.379521140051
 30
0.0
 11
2383.153062767487
 21
2464.379521140051
 31
0.0
  0
LINE
  5
370
330
1F
100
AcDbEntity
  8
LAY-10
  6
CONTINUOUS
 62
     7
100
AcDbLine
 10
2395.15306276749
 20
2449.379521140051
 30
0.0
 11
2395.15306276749
 21
2452.379521140051
 31
0.0
  0
LINE
  5
371
330
1F
100
AcDbEntity
  8
LAY-10
  6
CONTINUOUS
 62
     7
100
AcDbLine
 10
2380.15306276749
 20
2464.379521140051
 30
0.0
 11
2383.153062767487
 21
2464.379521140051
 31
0.0
  0
LINE
  5
372
330
1F
100
AcDbEntity
  8
LAY-10
  6
CONTINUOUS
 62
     7
100
AcDbLine
 10
2380.15306276749
 20
2449.379521140051
 30
0.0
 11
2380.15306276749
 21
2464.379521140051
 31
0.0
  0
LINE
  5
373
330
1F
100
AcDbEntity
  8
LAY-10
  6
CONTINUOUS
 62
     7
100
AcDbLine
 10
2380.15306276749
 20
2401.379521140217
 30
0.0
 11
2415.15306276749
 21
2401.379521140217
 31
0.0
  0
LINE
  5
374
330
1F
100
AcDbEntity
  8
LAY-10
  6
CONTINUOUS
 62
     7
100
AcDbLine
 10
2383.153062767488
 20
2445.379521140117
 30
0.0
 11
2422.353062767487
 21
2445.379521140117
 31
0.0
  0
LINE
  5
375
330
1F
100
AcDbEntity
  8
LAY-10
  6
CONTINUOUS
 62
     7
100
AcDbLine
 10
2383.153062767488
 20
2442.179521140115
 30
0.0
 11
2422.153062767487
 21
2442.179521140115
 31
0.0
  0
ARC
  5
376
330
1F
100
AcDbEntity
  8
LAY-10
  6
CONTINUOUS
 62
     7
100
AcDbCircle
 10
2422.153062767487
 20
2439.179521140116
 30
0.0
 40
3.000000000000003
100
AcDbArc
 50
0.0000000000000573
 51
90.00000000000009
  0
LINE
  5
377
330
1F
100
AcDbEntity
  8
LAY-10
  6
CONTINUOUS
 62
     7
100
AcDbLine
 10
2380.15306276749
 20
2448.379521140116
 30
0.0
 11
2395.15306276749
 21
2448.379521140116
 31
0.0
  0
LINE
  5
378
330
1F
100
AcDbEntity
  8
LAY-10
  6
CONTINUOUS
 62
     7
100
AcDbLine
 10
2383.153062767488
 20
2445.379521140117
 30
0.0
 11
2383.153062767488
 21
2433.379521140116
 31
0.0
  0
LINE
  5
379
330
1F
100
AcDbEntity
  8
LAY-10
  6
CONTINUOUS
 62
     7
100
AcDbLine
 10
2395.15306276749
 20
2448.379521140116
 30
0.0
 11
2395.15306276749
 21
2445.379521140117
 31
0.0
  0
LINE
  5
37A
330
1F
100
AcDbEntity
  8
LAY-10
  6
CONTINUOUS
 62
     7
100
AcDbLine
 10
2380.15306276749
 20
2433.379521140116
 30
0.0
 11
2415.15306276749
 21
2433.379521140116
 31
0.0
  0
LINE
  5
37B
330
1F
100
AcDbEntity
  8
LAY-10
  6
CONTINUOUS
 62
     7
100
AcDbLine
 10
2425.153062767498
 20
2438.379521140102
 30
0.0
 11
2421.353062767495
 21
2442.179521140102
 31
0.0
  0
LINE
  5
37C
330
1F
100
AcDbEntity
  8
LAY-10
  6
CONTINUOUS
 62
     7
100
AcDbLine
 10
2380.153062767446
 20
1362.379521140054
 30
0.0
 11
2383.153062767446
 21
1362.379521140054
 31
0.0
  0
LINE
  5
37D
330
1F
100
AcDbEntity
  8
LAY-10
  6
CONTINUOUS
 62
     7
100
AcDbLine
 10
2380.153062767446
 20
1377.379521140054
 30
0.0
 11
2380.153062767446
 21
1362.379521140054
 31
0.0
  0
LINE
  5
37E
330
1F
100
AcDbEntity
  8
LAY-10
  6
CONTINUOUS
 62
     7
100
AcDbLine
 10
2383.153062767446
 20
1374.379521140055
 30
0.0
 11
2383.153062767446
 21
1362.379521140054
 31
0.0
  0
LINE
  5
37F
330
1F
100
AcDbEntity
  8
LAY-10
  6
CONTINUOUS
 62
     7
100
AcDbLine
 10
2380.153062767446
 20
1377.379521140054
 30
0.0
 11
2395.153062767446
 21
1377.379521140054
 31
0.0
  0
LINE
  5
380
330
1F
100
AcDbEntity
  8
LAY-10
  6
CONTINUOUS
 62
     7
100
AcDbLine
 10
2395.153062767446
 20
1377.379521140054
 30
0.0
 11
2395.153062767446
 21
1374.379521140055
 31
0.0
  0
ARC
  5
381
330
1F
100
AcDbEntity
  8
LAY-10
  6
CONTINUOUS
 62
     7
100
AcDbCircle
 10
2422.153062767487
 20
1387.579521140119
 30
0.0
 40
3.000000000000003
100
AcDbArc
 50
270.0000000000002
 51
0.0000000000000573
  0
LINE
  5
382
330
1F
100
AcDbEntity
  8
LAY-10
  6
CONTINUOUS
 62
     7
100
AcDbLine
 10
2383.153062767488
 20
1381.379521140118
 30
0.0
 11
2422.353062767487
 21
1381.379521140118
 31
0.0
  0
LINE
  5
383
330
1F
100
AcDbEntity
  8
LAY-10
  6
CONTINUOUS
 62
     7
100
AcDbLine
 10
2383.153062767488
 20
1381.379521140118
 30
0.0
 11
2383.153062767488
 21
1393.379521140119
 31
0.0
  0
LINE
  5
384
330
1F
100
AcDbEntity
  8
LAY-10
  6
CONTINUOUS
 62
     7
100
AcDbLine
 10
2383.153062767488
 20
1384.579521140118
 30
0.0
 11
2422.153062767487
 21
1384.579521140118
 31
0.0
  0
LINE
  5
385
330
1F
100
AcDbEntity
  8
LAY-10
  6
CONTINUOUS
 62
     7
100
AcDbLine
 10
2380.15306276749
 20
1425.379521140019
 30
0.0
 11
2415.15306276749
 21
1425.379521140019
 31
0.0
  0
LINE
  5
386
330
1F
100
AcDbEntity
  8
LAY-10
  6
CONTINUOUS
 62
     7
100
AcDbLine
 10
2380.15306276749
 20
1378.379521140119
 30
0.0
 11
2395.15306276749
 21
1378.379521140119
 31
0.0
  0
LINE
  5
387
330
1F
100
AcDbEntity
  8
LAY-10
  6
CONTINUOUS
 62
     7
100
AcDbLine
 10
2395.15306276749
 20
1378.379521140119
 30
0.0
 11
2395.15306276749
 21
1381.379521140118
 31
0.0
  0
LINE
  5
388
330
1F
100
AcDbEntity
  8
LAY-10
  6
CONTINUOUS
 62
     7
100
AcDbLine
 10
2380.15306276749
 20
1393.379521140119
 30
0.0
 11
2415.15306276749
 21
1393.379521140119
 31
0.0
  0
LINE
  5
389
330
1F
100
AcDbEntity
  8
LAY-10
  6
CONTINUOUS
 62
     7
100
AcDbLine
 10
2425.153062767498
 20
1388.379521140103
 30
0.0
 11
2421.353062767495
 21
1384.579521140102
 31
0.0
  0
LINE
  5
38A
330
1F
100
AcDbEntity
  8
LAY-10
  6
CONTINUOUS
 62
     7
100
AcDbLine
 10
2425.15306276745
 20
1387.579521140114
 30
0.0
 11
2425.15306276745
 21
2439.179521140116
 31
0.0
  0
LINE
  5
38B
330
1F
100
AcDbEntity
  8
LAY-10
  6
CONTINUOUS
 62
     7
100
AcDbLine
 10
2383.153062767488
 20
2401.379521140217
 30
0.0
 11
2383.153062767488
 21
1425.379521140019
 31
0.0
  0
LINE
  5
38C
330
1F
100
AcDbEntity
  8
LAY-10
  6
CONTINUOUS
 62
     7
100
AcDbLine
 10
2380.15306276749
 20
1378.379521140119
 30
0.0
 11
2380.15306276749
 21
2448.379521140116
 31
0.0
  0
LINE
  5
38D
330
1F
100
AcDbEntity
  8
LAY-10
  6
CONTINUOUS
 62
     7
100
AcDbLine
 10
2417.15306276749
 20
2442.179521140115
 30
0.0
 11
2417.15306276749
 21
1384.579521140118
 31
0.0
  0
LINE
  5
38E
330
1F
100
AcDbEntity
  8
LAY-10
  6
CONTINUOUS
 62
     7
100
AcDbLine
 10
2415.15306276749
 20
1384.579521140118
 30
0.0
 11
2415.15306276749
 21
2442.179521140115
 31
0.0
  0
LINE
  5
38F
330
1F
100
AcDbEntity
  8
LAY-10
  6
HIDDEN
 62
     7
100
AcDbLine
 10
2415.15306276749
 20
1393.379521140119
 30
0.0
 11
2425.153062767487
 21
1393.379521140119
 31
0.0
  0
LINE
  5
390
330
1F
100
AcDbEntity
  8
LAY-10
  6
HIDDEN
 62
     7
100
AcDbLine
 10
2415.15306276749
 20
1425.379521140019
 30
0.0
 11
2425.153062767487
 21
1425.379521140019
 31
0.0
  0
LINE
  5
391
330
1F
100
AcDbEntity
  8
LAY-10
  6
HIDDEN
 62
     7
100
AcDbLine
 10
2415.15306276749
 20
2401.379521140218
 30
0.0
 11
2425.153062767487
 21
2401.379521140218
 31
0.0
  0
LINE
  5
392
330
1F
100
AcDbEntity
  8
LAY-10
  6
HIDDEN
 62
     7
100
AcDbLine
 10
2415.15306276749
 20
2433.379521140116
 30
0.0
 11
2425.153062767487
 21
2433.379521140116
 31
0.0
  0
LINE
  5
393
330
1F
100
AcDbEntity
  8
LAY-10
  6
CONTINUOUS
 62
     7
100
AcDbLine
 10
2428.35306276745
 20
1387.379521140119
 30
0.0
 11
2428.35306276745
 21
2439.379521140117
 31
0.0
  0
ARC
  5
394
330
1F
100
AcDbEntity
  8
LAY-10
  6
CONTINUOUS
 62
     7
100
AcDbCircle
 10
2422.353062767487
 20
2439.379521140117
 30
0.0
 40
6.000000000000006
100
AcDbArc
 50
0.0
 51
90.00000000000001
  0
ARC
  5
395
330
1F
100
AcDbEntity
  8
LAY-10
  6
CONTINUOUS
 62
     7
100
AcDbCircle
 10
2422.353062767487
 20
1387.379521140119
 30
0.0
 40
6.000000000000006
100
AcDbArc
 50
270.0
 51
0.0
  0
LINE
  5
396
330
1F
100
AcDbEntity
  8
LAY-10
  6
CONTINUOUS
 62
     7
100
AcDbLine
 10
2498.553062767488
 20
2449.579521140052
 30
0.0
 11
2498.553062767488
 21
2415.579521140052
 31
0.0
  0
ARC
  5
397
330
1F
100
AcDbEntity
  8
LAY-10
  6
CONTINUOUS
 62
     7
100
AcDbCircle
 10
2492.353062767487
 20
2449.379521140051
 30
0.0
 40
3.000000000000003
100
AcDbArc
 50
0.0000000000000573
 51
90.00000000000009
  0
ARC
  5
398
330
1F
100
AcDbEntity
  8
LAY-10
  6
CONTINUOUS
 62
     7
100
AcDbCircle
 10
2492.553062767488
 20
2449.579521140052
 30
0.0
 40
6.000000000000006
100
AcDbArc
 50
0.0000000000000573
 51
90.00000000000009
  0
LINE
  5
399
330
1F
100
AcDbEntity
  8
LAY-10
  6
CONTINUOUS
 62
     7
100
AcDbLine
 10
2498.553062767488
 20
2449.579521140052
 30
0.0
 11
2498.553062767488
 21
2452.26581264107
 31
0.0
  0
LINE
  5
39A
330
1F
100
AcDbEntity
  8
LAY-10
  6
CONTINUOUS
 62
     7
100
AcDbLine
 10
2536.251547577321
 20
2493.278005949888
 30
0.0
 11
2541.908401826814
 21
2487.621151700391
 31
0.0
  0
LINE
  5
39B
330
1F
100
AcDbEntity
  8
LAY-10
  6
CONTINUOUS
 62
     7
100
AcDbLine
 10
2536.251547577321
 20
2493.278005949888
 30
0.0
 11
2500.896208517995
 21
2457.922666890559
 31
0.0
  0
ARC
  5
39C
330
1F
100
AcDbEntity
  8
LAY-10
  6
CONTINUOUS
 62
     7
100
AcDbCircle
 10
2506.553062767488
 20
2452.26581264107
 30
0.0
 40
8.0
100
AcDbArc
 50
135.000000000015
 51
180.0000000000002
  0
LINE
  5
39D
330
1F
100
AcDbEntity
  8
LAY-10
  6
CONTINUOUS
 62
     7
100
AcDbLine
 10
2541.908401826814
 20
2487.621151700391
 30
0.0
 11
2506.553062767488
 21
2452.26581264107
 31
0.0
  0
LINE
  5
39E
330
1F
100
AcDbEntity
  8
LAY-10
  6
CONTINUOUS
 62
     7
100
AcDbLine
 10
2506.553062767488
 20
2422.26581264107
 30
0.0
 11
2498.553062767488
 21
2422.26581264107
 31
0.0
  0
LINE
  5
39F
330
1F
100
AcDbEntity
  8
LAY-10
  6
CONTINUOUS
 62
     7
100
AcDbLine
 10
2506.553062767488
 20
2452.26581264107
 30
0.0
 11
2506.553062767488
 21
2422.26581264107
 31
0.0
  0
LINE
  5
3A0
330
1F
100
AcDbEntity
  8
LAY-10
  6
CONTINUOUS
 62
     7
100
AcDbLine
 10
2492.553062767488
 20
2455.579521140049
 30
0.0
 11
2383.153062767487
 21
2455.579521140049
 31
0.0
  0
ARC
  5
3A1
330
1F
100
AcDbEntity
  8
LAY-10
  6
CONTINUOUS
 62
     7
100
AcDbCircle
 10
2501.353062767488
 20
2415.379521140051
 30
0.0
 40
6.000000000000006
100
AcDbArc
 50
180.0000000000002
 51
270.0000000000002
  0
ARC
  5
3A2
330
1F
100
AcDbEntity
  8
LAY-10
  6
CONTINUOUS
 62
     7
100
AcDbCircle
 10
2501.553062767488
 20
2415.579521140052
 30
0.0
 40
3.000000000000003
100
AcDbArc
 50
180.0000000000002
 51
270.0000000000002
  0
LINE
  5
3A3
330
1F
100
AcDbEntity
  8
LAY-10
  6
CONTINUOUS
 62
     7
100
AcDbLine
 10
2495.353062767448
 20
2415.379521140017
 30
0.0
 11
2493.353062767444
 21
2415.379521140017
 31
0.0
  0
LINE
  5
3A4
330
1F
100
AcDbEntity
  8
LAY-10
  6
CONTINUOUS
 62
     7
100
AcDbLine
 10
2383.153062767487
 20
2452.379521140051
 30
0.0
 11
2492.353062767487
 21
2452.379521140051
 31
0.0
  0
LINE
  5
3A5
330
1F
100
AcDbEntity
  8
LAY-10
  6
CONTINUOUS
 62
     7
100
AcDbLine
 10
2495.353062767448
 20
2440.379521140018
 30
0.0
 11
2493.353062767445
 21
2440.379521140018
 31
0.0
  0
LINE
  5
3A6
330
1F
100
AcDbEntity
  8
LAY-10
  6
CONTINUOUS
 62
     7
100
AcDbLine
 10
2498.553062767488
 20
1377.179521140055
 30
0.0
 11
2498.553062767488
 21
1411.179521140053
 31
0.0
  0
ARC
  5
3A7
330
1F
100
AcDbEntity
  8
LAY-10
  6
CONTINUOUS
 62
     7
100
AcDbCircle
 10
2492.353062767487
 20
1377.379521140054
 30
0.0
 40
3.000000000000003
100
AcDbArc
 50
270.0000000000002
 51
0.0000000000000573
  0
ARC
  5
3A8
330
1F
100
AcDbEntity
  8
LAY-10
  6
CONTINUOUS
 62
     7
100
AcDbCircle
 10
2492.553062767488
 20
1377.179521140055
 30
0.0
 40
6.000000000000006
100
AcDbArc
 50
270.0000000000002
 51
0.0000000000000573
  0
LINE
  5
3A9
330
1F
100
AcDbEntity
  8
LAY-10
  6
CONTINUOUS
 62
     7
100
AcDbLine
 10
2498.553062767488
 20
1377.179521140055
 30
0.0
 11
2498.553062767488
 21
1374.493229639038
 31
0.0
  0
LINE
  5
3AA
330
1F
100
AcDbEntity
  8
LAY-10
  6
CONTINUOUS
 62
     7
100
AcDbLine
 10
2536.251547577325
 20
1333.481036330218
 30
0.0
 11
2541.908401826818
 21
1339.137890579712
 31
0.0
  0
LINE
  5
3AB
330
1F
100
AcDbEntity
  8
LAY-10
  6
CONTINUOUS
 62
     7
100
AcDbLine
 10
2536.251547577325
 20
1333.481036330218
 30
0.0
 11
2500.896208517995
 21
1368.836375389544
 31
0.0
  0
ARC
  5
3AC
330
1F
100
AcDbEntity
  8
LAY-10
  6
CONTINUOUS
 62
     7
100
AcDbCircle
 10
2506.553062767488
 20
1374.493229639038
 30
0.0
 40
8.0
100
AcDbArc
 50
180.0000000000002
 51
224.9999999999785
  0
LINE
  5
3AD
330
1F
100
AcDbEntity
  8
LAY-10
  6
CONTINUOUS
 62
     7
100
AcDbLine
 10
2541.908401826814
 20
1339.137890579712
 30
0.0
 11
2506.553062767488
 21
1374.493229639038
 31
0.0
  0
LINE
  5
3AE
330
1F
100
AcDbEntity
  8
LAY-10
  6
CONTINUOUS
 62
     7
100
AcDbLine
 10
2506.553062767488
 20
1404.493229639038
 30
0.0
 11
2498.553062767488
 21
1404.493229639038
 31
0.0
  0
LINE
  5
3AF
330
1F
100
AcDbEntity
  8
LAY-10
  6
CONTINUOUS
 62
     7
100
AcDbLine
 10
2506.553062767488
 20
1374.493229639038
 30
0.0
 11
2506.553062767488
 21
1404.493229639038
 31
0.0
  0
ARC
  5
3B0
330
1F
100
AcDbEntity
  8
LAY-10
  6
CONTINUOUS
 62
     7
100
AcDbCircle
 10
2501.353062767488
 20
1411.379521140055
 30
0.0
 40
6.000000000000006
100
AcDbArc
 50
90.00000000000009
 51
180.0000000000002
  0
ARC
  5
3B1
330
1F
100
AcDbEntity
  8
LAY-10
  6
CONTINUOUS
 62
     7
100
AcDbCircle
 10
2501.553062767488
 20
1411.179521140053
 30
0.0
 40
3.000000000000003
100
AcDbArc
 50
90.00000000000009
 51
180.0000000000002
  0
LINE
  5
3B2
330
1F
100
AcDbEntity
  8
LAY-10
  6
CONTINUOUS
 62
     7
100
AcDbLine
 10
2383.153062767487
 20
1374.379521140055
 30
0.0
 11
2492.353062767487
 21
1374.379521140055
 31
0.0
  0
LINE
  5
3B3
330
1F
100
AcDbEntity
  8
LAY-10
  6
CONTINUOUS
 62
     7
100
AcDbLine
 10
2495.353062767448
 20
1411.379521140088
 30
0.0
 11
2493.353062767444
 21
1411.379521140088
 31
0.0
  0
LINE
  5
3B4
330
1F
100
AcDbEntity
  8
LAY-10
  6
CONTINUOUS
 62
     7
100
AcDbLine
 10
2495.353062767487
 20
1386.379521140118
 30
0.0
 11
2493.353062767487
 21
1386.379521140118
 31
0.0
  0
LINE
  5
3B5
330
1F
100
AcDbEntity
  8
LAY-10
  6
CONTINUOUS
 62
     7
100
AcDbLine
 10
2383.153062767446
 20
1371.179521140053
 30
0.0
 11
2492.553062767448
 21
1371.179521140053
 31
0.0
  0
LINE
  5
3B6
330
1F
100
AcDbEntity
  8
LAY-10
  6
CONTINUOUS
 62
     7
100
AcDbLine
 10
2493.353062767487
 20
2440.379521139998
 30
0.0
 11
2493.353062767487
 21
1386.379521140099
 31
0.0
  0
LINE
  5
3B7
330
1F
100
AcDbEntity
  8
LAY-10
  6
CONTINUOUS
 62
     7
100
AcDbLine
 10
2495.353062767487
 20
2449.379521140051
 30
0.0
 11
2495.353062767487
 21
1377.379521140099
 31
0.0
  0
LINE
  5
3B8
330
1F
100
AcDbEntity
  8
LAY-10
  6
CONTINUOUS
 62
     7
100
AcDbLine
 10
2513.95306276744
 20
1727.529521140117
 30
0.0
 11
2519.953062767448
 21
1727.529521140117
 31
0.0
  0
LINE
  5
3B9
330
1F
100
AcDbEntity
  8
LAY-10
  6
CONTINUOUS
 62
     7
100
AcDbLine
 10
2513.95306276744
 20
1557.229521140117
 30
0.0
 11
2519.953062767448
 21
1557.229521140117
 31
0.0
  0
LINE
  5
3BA
330
1F
100
AcDbEntity
  8
LAY-10
  6
CONTINUOUS
 62
     7
100
AcDbLine
 10
2511.95306276744
 20
1697.529521140116
 30
0.0
 11
2519.953062767448
 21
1697.529521140116
 31
0.0
  0
LINE
  5
3BB
330
1F
100
AcDbEntity
  8
LAY-10
  6
CONTINUOUS
 62
     7
100
AcDbLine
 10
2511.95306276744
 20
1717.529521140117
 30
0.0
 11
2511.95306276744
 21
1697.529521140116
 31
0.0
  0
LINE
  5
3BC
330
1F
100
AcDbEntity
  8
LAY-10
  6
CONTINUOUS
 62
     7
100
AcDbLine
 10
2511.95306276744
 20
1587.529521140117
 30
0.0
 11
2511.95306276744
 21
1567.529521140117
 31
0.0
  0
LINE
  5
3BD
330
1F
100
AcDbEntity
  8
LAY-10
  6
CONTINUOUS
 62
     7
100
AcDbLine
 10
2513.95306276744
 20
1727.529521140117
 30
0.0
 11
2513.95306276744
 21
1717.529521140117
 31
0.0
  0
LINE
  5
3BE
330
1F
100
AcDbEntity
  8
LAY-10
  6
CONTINUOUS
 62
     7
100
AcDbLine
 10
2513.95306276744
 20
1697.529521140116
 30
0.0
 11
2513.95306276744
 21
1587.529521140117
 31
0.0
  0
LINE
  5
3BF
330
1F
100
AcDbEntity
  8
LAY-10
  6
CONTINUOUS
 62
     7
100
AcDbLine
 10
2513.95306276744
 20
1567.529521140117
 30
0.0
 11
2513.95306276744
 21
1557.229521140117
 31
0.0
  0
LINE
  5
3C0
330
1F
100
AcDbEntity
  8
LAY-10
  6
CONTINUOUS
 62
     7
100
AcDbLine
 10
2511.95306276744
 20
1587.529521140117
 30
0.0
 11
2519.953062767448
 21
1587.529521140117
 31
0.0
  0
LINE
  5
3C1
330
1F
100
AcDbEntity
  8
LAY-10
  6
CONTINUOUS
 62
     7
100
AcDbLine
 10
2511.95306276744
 20
1567.529521140117
 30
0.0
 11
2519.953062767448
 21
1567.529521140117
 31
0.0
  0
LINE
  5
3C2
330
1F
100
AcDbEntity
  8
LAY-10
  6
CONTINUOUS
 62
     7
100
AcDbLine
 10
2511.95306276744
 20
1717.529521140117
 30
0.0
 11
2519.953062767448
 21
1717.529521140117
 31
0.0
  0
ARC
  5
3C3
330
1F
100
AcDbEntity
  8
LAY-10
  6
CONTINUOUS
 62
     7
100
AcDbCircle
 10
2516.953062767447
 20
1689.529521140119
 30
0.0
 40
3.000000000000003
100
AcDbArc
 50
180.0
 51
270.0000000000002
  0
ARC
  5
3C4
330
1F
100
AcDbEntity
  8
LAY-10
  6
CONTINUOUS
 62
     7
100
AcDbCircle
 10
2516.953062767447
 20
1689.529521140119
 30
0.0
 40
3.000000000000003
100
AcDbArc
 50
270.0000000000002
 51
0.0
  0
ARC
  5
3C5
330
1F
100
AcDbEntity
  8
LAY-10
  6
CONTINUOUS
 62
     7
100
AcDbCircle
 10
2516.953062767447
 20
1595.529521140118
 30
0.0
 40
3.000000000000003
100
AcDbArc
 50
90.00000000000001
 51
180.0
  0
ARC
  5
3C6
330
1F
100
AcDbEntity
  8
LAY-10
  6
CONTINUOUS
 62
     7
100
AcDbCircle
 10
2516.953062767447
 20
1595.529521140118
 30
0.0
 40
3.000000000000003
100
AcDbArc
 50
0.0
 51
90.00000000000001
  0
LINE
  5
3C7
330
1F
100
AcDbEntity
  8
LAY-10
  6
CONTINUOUS
 62
     7
100
AcDbLine
 10
2518.95306276744
 20
1697.529521140116
 30
0.0
 11
2518.95306276744
 21
1717.529521140117
 31
0.0
  0
LINE
  5
3C8
330
1F
100
AcDbEntity
  8
LAY-10
  6
CONTINUOUS
 62
     7
100
AcDbLine
 10
2518.95306276744
 20
1567.529521140117
 30
0.0
 11
2518.95306276744
 21
1587.529521140117
 31
0.0
  0
LINE
  5
3C9
330
1F
100
AcDbEntity
  8
LAY-10
  6
CONTINUOUS
 62
     7
100
AcDbLine
 10
2513.95306276744
 20
2099.229521140319
 30
0.0
 11
2519.953062767448
 21
2099.229521140319
 31
0.0
  0
LINE
  5
3CA
330
1F
100
AcDbEntity
  8
LAY-10
  6
CONTINUOUS
 62
     7
100
AcDbLine
 10
2513.95306276744
 20
2269.529521140318
 30
0.0
 11
2519.953062767448
 21
2269.529521140318
 31
0.0
  0
LINE
  5
3CB
330
1F
100
AcDbEntity
  8
LAY-10
  6
CONTINUOUS
 62
     7
100
AcDbLine
 10
2511.95306276744
 20
2129.22952114032
 30
0.0
 11
2519.953062767448
 21
2129.22952114032
 31
0.0
  0
LINE
  5
3CC
330
1F
100
AcDbEntity
  8
LAY-10
  6
CONTINUOUS
 62
     7
100
AcDbLine
 10
2511.95306276744
 20
2109.229521140319
 30
0.0
 11
2511.95306276744
 21
2129.22952114032
 31
0.0
  0
LINE
  5
3CD
330
1F
100
AcDbEntity
  8
LAY-10
  6
CONTINUOUS
 62
     7
100
AcDbLine
 10
2511.95306276744
 20
2239.229521140318
 30
0.0
 11
2511.95306276744
 21
2259.229521140319
 31
0.0
  0
LINE
  5
3CE
330
1F
100
AcDbEntity
  8
LAY-10
  6
CONTINUOUS
 62
     7
100
AcDbLine
 10
2513.95306276744
 20
2099.229521140319
 30
0.0
 11
2513.95306276744
 21
2109.229521140319
 31
0.0
  0
LINE
  5
3CF
330
1F
100
AcDbEntity
  8
LAY-10
  6
CONTINUOUS
 62
     7
100
AcDbLine
 10
2513.95306276744
 20
2129.22952114032
 30
0.0
 11
2513.95306276744
 21
2239.229521140318
 31
0.0
  0
LINE
  5
3D0
330
1F
100
AcDbEntity
  8
LAY-10
  6
CONTINUOUS
 62
     7
100
AcDbLine
 10
2513.95306276744
 20
2259.229521140319
 30
0.0
 11
2513.95306276744
 21
2269.529521140318
 31
0.0
  0
LINE
  5
3D1
330
1F
100
AcDbEntity
  8
LAY-10
  6
CONTINUOUS
 62
     7
100
AcDbLine
 10
2511.95306276744
 20
2239.229521140318
 30
0.0
 11
2519.953062767448
 21
2239.229521140318
 31
0.0
  0
LINE
  5
3D2
330
1F
100
AcDbEntity
  8
LAY-10
  6
CONTINUOUS
 62
     7
100
AcDbLine
 10
2511.95306276744
 20
2259.229521140319
 30
0.0
 11
2519.953062767448
 21
2259.229521140319
 31
0.0
  0
LINE
  5
3D3
330
1F
100
AcDbEntity
  8
LAY-10
  6
CONTINUOUS
 62
     7
100
AcDbLine
 10
2511.95306276744
 20
2109.229521140319
 30
0.0
 11
2519.953062767448
 21
2109.229521140319
 31
0.0
  0
ARC
  5
3D4
330
1F
100
AcDbEntity
  8
LAY-10
  6
CONTINUOUS
 62
     7
100
AcDbCircle
 10
2516.953062767447
 20
2137.229521140317
 30
0.0
 40
3.000000000000003
100
AcDbArc
 50
90.00000000000001
 51
180.0
  0
ARC
  5
3D5
330
1F
100
AcDbEntity
  8
LAY-10
  6
CONTINUOUS
 62
     7
100
AcDbCircle
 10
2516.953062767447
 20
2137.229521140317
 30
0.0
 40
3.000000000000003
100
AcDbArc
 50
0.0
 51
90.00000000000001
  0
ARC
  5
3D6
330
1F
100
AcDbEntity
  8
LAY-10
  6
CONTINUOUS
 62
     7
100
AcDbCircle
 10
2516.953062767447
 20
2231.229521140318
 30
0.0
 40
3.000000000000003
100
AcDbArc
 50
180.0
 51
270.0
  0
ARC
  5
3D7
330
1F
100
AcDbEntity
  8
LAY-10
  6
CONTINUOUS
 62
     7
100
AcDbCircle
 10
2516.953062767447
 20
2231.229521140318
 30
0.0
 40
3.000000000000003
100
AcDbArc
 50
270.0
 51
0.0
  0
LINE
  5
3D8
330
1F
100
AcDbEntity
  8
LAY-10
  6
CONTINUOUS
 62
     7
100
AcDbLine
 10
2518.95306276744
 20
2129.22952114032
 30
0.0
 11
2518.95306276744
 21
2109.229521140319
 31
0.0
  0
LINE
  5
3D9
330
1F
100
AcDbEntity
  8
LAY-10
  6
CONTINUOUS
 62
     7
100
AcDbLine
 10
2518.95306276744
 20
2259.229521140319
 30
0.0
 11
2518.95306276744
 21
2239.229521140318
 31
0.0
  0
LINE
  5
3DA
330
1F
100
AcDbEntity
  8
LAY-10
  6
CONTINUOUS
 62
     7
100
AcDbLine
 10
2571.953062767448
 20
2363.379521140178
 30
0.0
 11
2575.153062767488
 21
2363.379521140178
 31
0.0
  0
LINE
  5
3DB
330
1F
100
AcDbEntity
  8
LAY-10
  6
CONTINUOUS
 62
     7
100
AcDbLine
 10
2571.953062767488
 20
2409.379521140182
 30
0.0
 11
2571.953062767488
 21
2363.379521140137
 31
0.0
  0
ARC
  5
3DC
330
1F
100
AcDbEntity
  8
LAY-10
  6
CONTINUOUS
 62
     7
100
AcDbCircle
 10
2572.153062767489
 20
2409.579521140183
 30
0.0
 40
3.000000000000003
100
AcDbArc
 50
0.0000000000000573
 51
90.00000000000001
  0
LINE
  5
3DD
330
1F
100
AcDbEntity
  8
LAY-10
  6
CONTINUOUS
 62
     7
100
AcDbLine
 10
2501.353062767488
 20
2409.37952114005
 30
0.0
 11
2571.953062767448
 21
2409.37952114005
 31
0.0
  0
LINE
  5
3DE
330
1F
100
AcDbEntity
  8
LAY-10
  6
CONTINUOUS
 62
     7
100
AcDbLine
 10
2501.553062767488
 20
2412.579521140052
 30
0.0
 11
2572.153062767489
 21
2412.579521140052
 31
0.0
  0
LINE
  5
3DF
330
1F
100
AcDbEntity
  8
LAY-10
  6
CONTINUOUS
 62
     7
100
AcDbLine
 10
2571.953062767444
 20
2380.37952114013
 30
0.0
 11
2569.953062767442
 21
2380.37952114013
 31
0.0
  0
LINE
  5
3E0
330
1F
100
AcDbEntity
  8
LAY-10
  6
CONTINUOUS
 62
     7
100
AcDbLine
 10
2519.953062767442
 20
2405.379521140131
 30
0.0
 11
2571.953062767444
 21
2405.379521140131
 31
0.0
  0
LINE
  5
3E1
330
1F
100
AcDbEntity
  8
LAY-10
  6
CONTINUOUS
 62
     7
100
AcDbLine
 10
2568.353062767443
 20
2403.779521140133
 30
0.0
 11
2521.553062767442
 21
2403.779521140133
 31
0.0
  0
LINE
  5
3E2
330
1F
100
AcDbEntity
  8
LAY-10
  6
CONTINUOUS
 62
     7
100
AcDbLine
 10
2501.353062767488
 20
1417.379521140054
 30
0.0
 11
2571.953062767448
 21
1417.379521140054
 31
0.0
  0
LINE
  5
3E3
330
1F
100
AcDbEntity
  8
LAY-10
  6
CONTINUOUS
 62
     7
100
AcDbLine
 10
2571.953062767448
 20
1463.379521140056
 30
0.0
 11
2575.153062767488
 21
1463.379521140056
 31
0.0
  0
LINE
  5
3E4
330
1F
100
AcDbEntity
  8
LAY-10
  6
CONTINUOUS
 62
     7
100
AcDbLine
 10
2571.953062767488
 20
1417.379521140054
 30
0.0
 11
2571.953062767488
 21
1463.3795211401
 31
0.0
  0
LINE
  5
3E5
330
1F
100
AcDbEntity
  8
LAY-10
  6
CONTINUOUS
 62
     7
100
AcDbLine
 10
2501.553062767488
 20
1414.179521140052
 30
0.0
 11
2572.153062767489
 21
1414.179521140052
 31
0.0
  0
ARC
  5
3E6
330
1F
100
AcDbEntity
  8
LAY-10
  6
CONTINUOUS
 62
     7
100
AcDbCircle
 10
2572.153062767489
 20
1417.179521140053
 30
0.0
 40
3.000000000000003
100
AcDbArc
 50
270.0000000000002
 51
0.0000000000000573
  0
LINE
  5
3E7
330
1F
100
AcDbEntity
  8
LAY-10
  6
CONTINUOUS
 62
     7
100
AcDbLine
 10
2519.953062767441
 20
1421.379521140138
 30
0.0
 11
2571.953062767444
 21
1421.379521140138
 31
0.0
  0
LINE
  5
3E8
330
1F
100
AcDbEntity
  8
LAY-10
  6
CONTINUOUS
 62
     7
100
AcDbLine
 10
2568.353062767442
 20
1422.979521140139
 30
0.0
 11
2521.553062767442
 21
1422.979521140139
 31
0.0
  0
LINE
  5
3E9
330
1F
100
AcDbEntity
  8
LAY-10
  6
CONTINUOUS
 62
     7
100
AcDbLine
 10
2571.953062767444
 20
1446.379521140138
 30
0.0
 11
2569.953062767441
 21
1446.379521140138
 31
0.0
  0
LINE
  5
3EA
330
1F
100
AcDbEntity
  8
LAY-10
  6
CONTINUOUS
 62
     7
100
AcDbLine
 10
2519.953062767444
 20
2405.379521140131
 30
0.0
 11
2519.953062767441
 21
1421.379521140138
 31
0.0
  0
LINE
  5
3EB
330
1F
100
AcDbEntity
  8
LAY-10
  6
CONTINUOUS
 62
     7
100
AcDbLine
 10
2521.553062767444
 20
2403.77952114013
 30
0.0
 11
2521.553062767442
 21
1422.979521140139
 31
0.0
  0
LINE
  5
3EC
330
1F
100
AcDbEntity
  8
LAY-10
  6
CONTINUOUS
 62
     7
100
AcDbLine
 10
2569.953062767441
 20
1421.379521140138
 30
0.0
 11
2569.953062767442
 21
2405.379521140131
 31
0.0
  0
LINE
  5
3ED
330
1F
100
AcDbEntity
  8
LAY-10
  6
CONTINUOUS
 62
     7
100
AcDbLine
 10
2568.353062767442
 20
1422.979521140139
 30
0.0
 11
2568.353062767443
 21
2403.77952114013
 31
0.0
  0
LINE
  5
3EE
330
1F
100
AcDbEntity
  8
LAY-10
  6
CONTINUOUS
 62
     7
100
AcDbLine
 10
2428.353062767457
 20
1911.1295211398
 30
0.0
 11
2472.353062767419
 21
1911.1295211398
 31
0.0
  0
LINE
  5
3EF
330
1F
100
AcDbEntity
  8
LAY-10
  6
CONTINUOUS
 62
     7
100
AcDbLine
 10
2428.353062767457
 20
1915.629521139801
 30
0.0
 11
2472.353062767419
 21
1915.629521139801
 31
0.0
  0
ARC
  5
3F0
330
1F
100
AcDbEntity
  8
LAY-10
  6
CONTINUOUS
 62
     7
100
AcDbCircle
 10
2432.853062767462
 20
2435.879521140036
 30
0.0
 40
4.5
100
AcDbArc
 50
180.0
 51
270.0000000000002
  0
LINE
  5
3F1
330
1F
100
AcDbEntity
  8
LAY-10
  6
CONTINUOUS
 62
     7
100
AcDbLine
 10
2493.353062767462
 20
2437.379521140039
 30
0.0
 11
2428.353062767462
 21
2437.379521140039
 31
0.0
  0
LINE
  5
3F2
330
1F
100
AcDbEntity
  8
LAY-10
  6
CONTINUOUS
 62
     7
100
AcDbLine
 10
2480.853062767461
 20
2431.379521140036
 30
0.0
 11
2428.353062767462
 21
2431.379521140036
 31
0.0
  0
ARC
  5
3F3
330
1F
100
AcDbEntity
  8
LAY-10
  6
CONTINUOUS
 62
     7
100
AcDbCircle
 10
2480.853062767461
 20
2424.879521140035
 30
0.0
 40
6.500000000000004
100
AcDbArc
 50
0.0
 51
90.00000000000001
  0
LINE
  5
3F4
330
1F
100
AcDbEntity
  8
LAY-10
  6
CONTINUOUS
 62
     7
100
AcDbLine
 10
2493.353062767463
 20
2372.379521140035
 30
0.0
 11
2491.853062767462
 21
2372.379521140035
 31
0.0
  0
ARC
  5
3F5
330
1F
100
AcDbEntity
  8
LAY-10
  6
CONTINUOUS
 62
     7
100
AcDbCircle
 10
2491.853062767462
 20
2376.879521140036
 30
0.0
 40
4.5
100
AcDbArc
 50
180.0
 51
270.0000000000002
  0
LINE
  5
3F6
330
1F
100
AcDbEntity
  8
LAY-10
  6
CONTINUOUS
 62
     7
100
AcDbLine
 10
2493.353062767459
 20
1389.379521139975
 30
0.0
 11
2428.353062767459
 21
1389.379521139976
 31
0.0
  0
LINE
  5
3F7
330
1F
100
AcDbEntity
  8
LAY-10
  6
CONTINUOUS
 62
     7
100
AcDbLine
 10
2480.853062767458
 20
1395.379521139979
 30
0.0
 11
2428.353062767459
 21
1395.379521139979
 31
0.0
  0
ARC
  5
3F8
330
1F
100
AcDbEntity
  8
LAY-10
  6
CONTINUOUS
 62
     7
100
AcDbCircle
 10
2480.853062767458
 20
1401.87952113998
 30
0.0
 40
6.500000000000004
100
AcDbArc
 50
269.999999999998
 51
0.0
  0
LINE
  5
3F9
330
1F
100
AcDbEntity
  8
LAY-10
  6
CONTINUOUS
 62
     7
100
AcDbLine
 10
2493.35306276746
 20
1454.37952113998
 30
0.0
 11
2491.85306276746
 21
1454.37952113998
 31
0.0
  0
ARC
  5
3FA
330
1F
100
AcDbEntity
  8
LAY-10
  6
CONTINUOUS
 62
     7
100
AcDbCircle
 10
2491.85306276746
 20
1449.879521139979
 30
0.0
 40
4.5
100
AcDbArc
 50
90.00000000000001
 51
180.0
  0
ARC
  5
3FB
330
1F
100
AcDbEntity
  8
LAY-10
  6
CONTINUOUS
 62
     7
100
AcDbCircle
 10
2432.853062767459
 20
1390.879521139979
 30
0.0
 40
4.5
100
AcDbArc
 50
90.00000000000001
 51
180.0
  0
LINE
  5
3FC
330
1F
100
AcDbEntity
  8
LAY-10
  6
CONTINUOUS
 62
     7
100
AcDbLine
 10
2472.353062767458
 20
1395.379521139979
 30
0.0
 11
2472.353062767458
 21
2431.379521140036
 31
0.0
  0
LINE
  5
3FD
330
1F
100
AcDbEntity
  8
LAY-10
  6
CONTINUOUS
 62
     7
100
AcDbLine
 10
2487.353062767462
 20
1401.87952113998
 30
0.0
 11
2487.353062767462
 21
2424.879521140035
 31
0.0
  0
LINE
  5
3FE
330
1F
100
AcDbEntity
  8
LAY-10
  6
CONTINUOUS
 62
     7
100
AcDbLine
 10
2428.353062767457
 20
2178.6295211397
 30
0.0
 11
2472.353062767419
 21
2178.6295211397
 31
0.0
  0
LINE
  5
3FF
330
1F
100
AcDbEntity
  8
LAY-10
  6
CONTINUOUS
 62
     7
100
AcDbLine
 10
2428.353062767457
 20
2183.129521139701
 30
0.0
 11
2472.353062767419
 21
2183.129521139701
 31
0.0
  0
LINE
  5
400
330
1F
100
AcDbEntity
  8
LAY-10
  6
CONTINUOUS
 62
     7
100
AcDbLine
 10
2428.353062767457
 20
1649.129521140886
 30
0.0
 11
2472.353062767419
 21
1649.129521140886
 31
0.0
  0
LINE
  5
401
330
1F
100
AcDbEntity
  8
LAY-10
  6
CONTINUOUS
 62
     7
100
AcDbLine
 10
2428.353062767457
 20
1644.629521140885
 30
0.0
 11
2472.353062767419
 21
1644.629521140885
 31
0.0
  0
LINE
  5
402
330
1F
100
AcDbEntity
  8
LAY-10
  6
CONTINUOUS
 62
     7
100
AcDbLine
 10
1971.74072575692
 20
853.8636940246029
 30
0.0
 11
1971.74072575692
 21
963.2636940246034
 31
0.0
  0
ARC
  5
403
330
1F
100
AcDbEntity
  8
LAY-10
  6
CONTINUOUS
 62
     7
100
AcDbCircle
 10
1965.540725756886
 20
854.0636940246027
 30
0.0
 40
3.000000000000003
100
AcDbArc
 50
270.0000000000002
 51
0.0
  0
ARC
  5
404
330
1F
100
AcDbEntity
  8
LAY-10
  6
CONTINUOUS
 62
     7
100
AcDbCircle
 10
1965.740725756888
 20
853.8636940246029
 30
0.0
 40
6.000000000000006
100
AcDbArc
 50
270.0000000000002
 51
0.0
  0
ARC
  5
405
330
1F
100
AcDbEntity
  8
LAY-10
  6
CONTINUOUS
 62
     7
100
AcDbCircle
 10
1931.740725756926
 20
844.8636940246042
 30
0.0
 40
3.000000000000003
100
AcDbArc
 50
90.00000000000001
 51
180.0
  0
ARC
  5
406
330
1F
100
AcDbEntity
  8
LAY-10
  6
CONTINUOUS
 62
     7
100
AcDbCircle
 10
1931.540725756925
 20
845.063694024604
 30
0.0
 40
6.000000000000006
100
AcDbArc
 50
90.00000000000001
 51
180.0
  0
LINE
  5
407
330
1F
100
AcDbEntity
  8
LAY-10
  6
CONTINUOUS
 62
     7
100
AcDbLine
 10
1968.540725756922
 20
963.2636940246034
 30
0.0
 11
1968.540725756922
 21
854.0636940246027
 31
0.0
  0
LINE
  5
408
330
1F
100
AcDbEntity
  8
LAY-10
  6
CONTINUOUS
 62
     7
100
AcDbLine
 10
1956.540725756885
 20
851.0636940246022
 30
0.0
 11
1956.540725756885
 21
853.0636940246023
 31
0.0
  0
LINE
  5
409
330
1F
100
AcDbEntity
  8
LAY-10
  6
CONTINUOUS
 62
     7
100
AcDbLine
 10
1931.540725756885
 20
851.0636940246031
 30
0.0
 11
1931.540725756885
 21
853.0636940246027
 31
0.0
  0
LINE
  5
40A
330
1F
100
AcDbEntity
  8
LAY-10
  6
CONTINUOUS
 62
     7
100
AcDbLine
 10
1968.427017257931
 20
847.8636940246033
 30
0.0
 11
1931.740725756926
 21
847.8636940246033
 31
0.0
  0
ARC
  5
40B
330
1F
100
AcDbEntity
  8
LAY-10
  6
CONTINUOUS
 62
     7
100
AcDbCircle
 10
1968.427017257931
 20
839.8636940245029
 30
0.0
 40
8.0
100
AcDbArc
 50
45.00000000000463
 51
90.00000000000001
  0
LINE
  5
40C
330
1F
100
AcDbEntity
  8
LAY-10
  6
CONTINUOUS
 62
     7
100
AcDbLine
 10
1938.427017257931
 20
839.8636940245029
 30
0.0
 11
1938.427017257931
 21
847.8636940245033
 31
0.0
  0
LINE
  5
40D
330
1F
100
AcDbEntity
  8
LAY-10
  6
CONTINUOUS
 62
     7
100
AcDbLine
 10
1968.427017257931
 20
839.8636940245029
 30
0.0
 11
1938.427017257931
 21
839.8636940245029
 31
0.0
  0
LINE
  5
40E
330
1F
100
AcDbEntity
  8
LAY-10
  6
CONTINUOUS
 62
     7
100
AcDbLine
 10
2009.439210566755
 20
810.1652092146692
 30
0.0
 11
2003.782356317262
 21
804.5083549651754
 31
0.0
  0
LINE
  5
40F
330
1F
100
AcDbEntity
  8
LAY-10
  6
CONTINUOUS
 62
     7
100
AcDbLine
 10
2009.439210566755
 20
810.1652092146692
 30
0.0
 11
1974.083871507427
 21
845.5205482739957
 31
0.0
  0
LINE
  5
410
330
1F
100
AcDbEntity
  8
LAY-10
  6
CONTINUOUS
 62
     7
100
AcDbLine
 10
2003.782356317262
 20
804.5083549651767
 30
0.0
 11
1968.427017257931
 21
839.8636940245029
 31
0.0
  0
LINE
  5
411
330
1F
100
AcDbEntity
  8
LAY-10
  6
CONTINUOUS
 62
     7
100
AcDbLine
 10
287.3407257570225
 20
853.8636940246029
 30
0.0
 11
287.3407257570225
 21
963.2636940246025
 31
0.0
  0
ARC
  5
412
330
1F
100
AcDbEntity
  8
LAY-10
  6
CONTINUOUS
 62
     7
100
AcDbCircle
 10
293.5407257570523
 20
854.0636940246018
 30
0.0
 40
3.000000000000003
100
AcDbArc
 50
180.0
 51
270.0000000000002
  0
ARC
  5
413
330
1F
100
AcDbEntity
  8
LAY-10
  6
CONTINUOUS
 62
     7
100
AcDbCircle
 10
293.3407257570534
 20
853.8636940246029
 30
0.0
 40
6.000000000000006
100
AcDbArc
 50
180.0
 51
270.0000000000002
  0
ARC
  5
414
330
1F
100
AcDbEntity
  8
LAY-10
  6
CONTINUOUS
 62
     7
100
AcDbCircle
 10
327.3407257570134
 20
844.8636940246038
 30
0.0
 40
3.000000000000003
100
AcDbArc
 50
0.0
 51
90.00000000000001
  0
ARC
  5
415
330
1F
100
AcDbEntity
  8
LAY-10
  6
CONTINUOUS
 62
     7
100
AcDbCircle
 10
327.5407257570141
 20
845.0636940246036
 30
0.0
 40
6.000000000000006
100
AcDbArc
 50
0.0
 51
90.00000000000001
  0
LINE
  5
416
330
1F
100
AcDbEntity
  8
LAY-10
  6
CONTINUOUS
 62
     7
100
AcDbLine
 10
290.5407257570214
 20
963.2636940246025
 30
0.0
 11
290.5407257570214
 21
854.0636940246018
 31
0.0
  0
LINE
  5
417
330
1F
100
AcDbEntity
  8
LAY-10
  6
CONTINUOUS
 62
     7
100
AcDbLine
 10
320.6544342560073
 20
839.8636940245019
 30
0.0
 11
320.6544342560073
 21
847.8636940245025
 31
0.0
  0
LINE
  5
418
330
1F
100
AcDbEntity
  8
LAY-10
  6
CONTINUOUS
 62
     7
100
AcDbLine
 10
290.6544342560055
 20
839.8636940245019
 30
0.0
 11
320.6544342560073
 21
839.8636940245019
 31
0.0
  0
ARC
  5
419
330
1F
100
AcDbEntity
  8
LAY-10
  6
CONTINUOUS
 62
     7
100
AcDbCircle
 10
290.6544342560055
 20
839.8636940245019
 30
0.0
 40
8.0
100
AcDbArc
 50
90.00000000000001
 51
134.9999999999946
  0
LINE
  5
41A
330
1F
100
AcDbEntity
  8
LAY-10
  6
CONTINUOUS
 62
     7
100
AcDbLine
 10
249.6422409471861
 20
810.1652092146683
 30
0.0
 11
284.997580006514
 21
845.5205482739952
 31
0.0
  0
LINE
  5
41B
330
1F
100
AcDbEntity
  8
LAY-10
  6
CONTINUOUS
 62
     7
100
AcDbLine
 10
255.2990951966776
 20
804.5083549651767
 30
0.0
 11
290.6544342560055
 21
839.8636940245019
 31
0.0
  0
LINE
  5
41C
330
1F
100
AcDbEntity
  8
LAY-10
  6
CONTINUOUS
 62
     7
100
AcDbLine
 10
249.6422409471861
 20
810.1652092146683
 30
0.0
 11
255.2990951966776
 21
804.5083549651749
 31
0.0
  0
LINE
  5
41D
330
1F
100
AcDbEntity
  8
LAY-10
  6
CONTINUOUS
 62
     7
100
AcDbLine
 10
327.3407257570134
 20
847.8636940246025
 30
0.0
 11
290.6544342560055
 21
847.8636940246025
 31
0.0
  0
LINE
  5
41E
330
1F
100
AcDbEntity
  8
LAY-10
  6
CONTINUOUS
 62
     7
100
AcDbLine
 10
327.5407257570541
 20
851.0636940246022
 30
0.0
 11
327.5407257570541
 21
853.0636940246004
 31
0.0
  0
LINE
  5
41F
330
1F
100
AcDbEntity
  8
LAY-10
  6
CONTINUOUS
 62
     7
100
AcDbLine
 10
302.5407257570505
 20
851.0636940246022
 30
0.0
 11
302.5407257570505
 21
853.0636940246004
 31
0.0
  0
LINE
  5
420
330
1F
100
AcDbEntity
  8
LAY-10
  6
CONTINUOUS
 62
     7
100
AcDbLine
 10
302.5407257570469
 20
853.0636940246004
 30
0.0
 11
1956.5407257569
 21
853.0636940246069
 31
0.0
  0
LINE
  5
421
330
1F
100
AcDbEntity
  8
LAY-10
  6
CONTINUOUS
 62
     7
100
AcDbLine
 10
293.5407257570687
 20
851.0636940245996
 30
0.0
 11
1965.540725756886
 21
851.0636940245996
 31
0.0
  0
ARC
  5
422
330
1F
100
AcDbEntity
  8
LAY-10
  6
CONTINUOUS
 62
     7
100
AcDbCircle
 10
1925.74072575708
 20
774.2636940246035
 30
0.0
 40
3.000000000000003
100
AcDbArc
 50
270.0000000000002
 51
0.0
  0
LINE
  5
423
330
1F
100
AcDbEntity
  8
LAY-10
  6
CONTINUOUS
 62
     7
100
AcDbLine
 10
1879.540725757076
 20
774.4636940245996
 30
0.0
 11
1879.540725757076
 21
771.2636940246034
 31
0.0
  0
LINE
  5
424
330
1F
100
AcDbEntity
  8
LAY-10
  6
CONTINUOUS
 62
     7
100
AcDbLine
 10
1925.54072575708
 20
774.4636940246041
 30
0.0
 11
1879.540725757076
 21
774.4636940246041
 31
0.0
  0
LINE
  5
425
330
1F
100
AcDbEntity
  8
LAY-10
  6
CONTINUOUS
 62
     7
100
AcDbLine
 10
1879.540725757047
 20
771.2636940246043
 30
0.0
 11
1925.740725757048
 21
771.2636940246052
 31
0.0
  0
LINE
  5
426
330
1F
100
AcDbEntity
  8
LAY-10
  6
CONTINUOUS
 62
     7
100
AcDbLine
 10
1928.740725756924
 20
844.8636940246042
 30
0.0
 11
1928.740725756924
 21
774.2636940245998
 31
0.0
  0
LINE
  5
427
330
1F
100
AcDbEntity
  8
LAY-10
  6
CONTINUOUS
 62
     7
100
AcDbLine
 10
1925.540725757047
 20
774.4636940245996
 30
0.0
 11
1925.540725757047
 21
845.0636940246005
 31
0.0
  0
ARC
  5
428
330
1F
100
AcDbEntity
  8
LAY-10
  6
CONTINUOUS
 62
     7
100
AcDbCircle
 10
1833.241616758044
 20
829.4628030235867
 30
0.0
 40
2.999108999030569
100
AcDbArc
 50
270.0000000000002
 51
89.99999999917904
  0
LINE
  5
429
330
1F
100
AcDbEntity
  8
LAY-10
  6
CONTINUOUS
 62
     7
100
AcDbLine
 10
1789.449858377156
 20
832.4623175619922
 30
0.0
 11
1833.241616758044
 21
832.4623175619922
 31
0.0
  0
LINE
  5
42A
330
1F
100
AcDbEntity
  8
LAY-10
  6
CONTINUOUS
 62
     7
100
AcDbLine
 10
1836.240725757077
 20
827.4636940245559
 30
0.0
 11
1836.240725757077
 21
829.4636940245559
 31
0.0
  0
ARC
  5
42B
330
1F
100
AcDbEntity
  8
LAY-10
  6
CONTINUOUS
 62
     7
100
AcDbCircle
 10
1833.240725757077
 20
829.4636940245559
 30
0.0
 40
4.0
100
AcDbArc
 50
0.0
 51
131.4394216791277
  0
LINE
  5
42C
330
1F
100
AcDbEntity
  8
LAY-10
  6
CONTINUOUS
 62
     7
100
AcDbLine
 10
1837.240725757077
 20
827.4636940245559
 30
0.0
 11
1846.240725757077
 21
827.4636940245559
 31
0.0
  0
LINE
  5
42D
330
1F
100
AcDbEntity
  8
LAY-10
  6
CONTINUOUS
 62
     7
100
AcDbLine
 10
1837.240725757077
 20
829.4636940245559
 30
0.0
 11
1837.240725757077
 21
827.4636940245559
 31
0.0
  0
ARC
  5
42E
330
1F
100
AcDbEntity
  8
LAY-10
  6
CONTINUOUS
 62
     7
100
AcDbCircle
 10
1837.240725757077
 20
827.4636940245559
 30
0.0
 40
1.0
100
AcDbArc
 50
180.0
 51
270.0000000000002
  0
CIRCLE
  5
42F
330
1F
100
AcDbEntity
  8
LAY-10
  6
CONTINUOUS
 62
     7
100
AcDbCircle
 10
1789.540725757076
 20
829.4636940245559
 30
0.0
 40
3.000000000000003
  0
LINE
  5
430
330
1F
100
AcDbEntity
  8
LAY-10
  6
CONTINUOUS
 62
     7
100
AcDbLine
 10
1846.240725757077
 20
827.4636940245559
 30
0.0
 11
1846.240725757077
 21
826.4636940245541
 31
0.0
  0
LINE
  5
431
330
1F
100
AcDbEntity
  8
LAY-10
  6
CONTINUOUS
 62
     7
100
AcDbLine
 10
1919.940725757081
 20
778.0636940245546
 30
0.0
 11
1919.940725757081
 21
824.8636940245556
 31
0.0
  0
LINE
  5
432
330
1F
100
AcDbEntity
  8
LAY-10
  6
CONTINUOUS
 62
     7
100
AcDbLine
 10
1921.54072575708
 20
826.463694024556
 30
0.0
 11
1921.54072575708
 21
774.4636940245541
 31
0.0
  0
LINE
  5
433
330
1F
100
AcDbEntity
  8
LAY-10
  6
CONTINUOUS
 62
     7
100
AcDbLine
 10
1896.54072575708
 20
774.4636940245541
 30
0.0
 11
1896.54072575708
 21
776.463694024556
 31
0.0
  0
LINE
  5
434
330
1F
100
AcDbEntity
  8
LAY-10
  6
CONTINUOUS
 62
     7
100
AcDbLine
 10
330.3407257570133
 20
844.8636940246041
 30
0.0
 11
330.3407257570133
 21
774.2636940246035
 31
0.0
  0
ARC
  5
435
330
1F
100
AcDbEntity
  8
LAY-10
  6
CONTINUOUS
 62
     7
100
AcDbCircle
 10
333.3407257570134
 20
774.2636940246035
 30
0.0
 40
3.000000000000003
100
AcDbArc
 50
180.0
 51
270.0000000000002
  0
LINE
  5
436
330
1F
100
AcDbEntity
  8
LAY-10
  6
CONTINUOUS
 62
     7
100
AcDbLine
 10
333.5407257570159
 20
845.0636940246039
 30
0.0
 11
333.5407257570159
 21
774.4636940245996
 31
0.0
  0
LINE
  5
437
330
1F
100
AcDbEntity
  8
LAY-10
  6
CONTINUOUS
 62
     7
100
AcDbLine
 10
379.5407257570196
 20
774.4636940245996
 30
0.0
 11
379.5407257570196
 21
771.2636940246034
 31
0.0
  0
LINE
  5
438
330
1F
100
AcDbEntity
  8
LAY-10
  6
CONTINUOUS
 62
     7
100
AcDbLine
 10
333.5407257570159
 20
774.4636940246041
 30
0.0
 11
379.5407257570196
 21
774.4636940246046
 31
0.0
  0
LINE
  5
439
330
1F
100
AcDbEntity
  8
LAY-10
  6
CONTINUOUS
 62
     7
100
AcDbLine
 10
333.3407257570134
 20
771.2636940246034
 30
0.0
 11
379.5407257570196
 21
771.2636940246034
 31
0.0
  0
LINE
  5
43A
330
1F
100
AcDbEntity
  8
LAY-10
  6
CONTINUOUS
 62
     7
100
AcDbLine
 10
362.5407257570851
 20
774.4636940245541
 30
0.0
 11
362.5407257570851
 21
776.463694024556
 31
0.0
  0
LINE
  5
43B
330
1F
100
AcDbEntity
  8
LAY-10
  6
CONTINUOUS
 62
     7
100
AcDbLine
 10
422.8407257570898
 20
827.4636940245559
 30
0.0
 11
422.8407257570898
 21
829.4636940245559
 31
0.0
  0
ARC
  5
43C
330
1F
100
AcDbEntity
  8
LAY-10
  6
CONTINUOUS
 62
     7
100
AcDbCircle
 10
425.840725757088
 20
829.4636940245559
 30
0.0
 40
4.0
100
AcDbArc
 50
48.56057832087367
 51
180.0
  0
LINE
  5
43D
330
1F
100
AcDbEntity
  8
LAY-10
  6
CONTINUOUS
 62
     7
100
AcDbLine
 10
469.6315931370091
 20
832.4623175619922
 30
0.0
 11
425.8398347561188
 21
832.4623175619922
 31
0.0
  0
LINE
  5
43E
330
1F
100
AcDbEntity
  8
LAY-10
  6
CONTINUOUS
 62
     7
100
AcDbLine
 10
421.840725757088
 20
827.4636940245559
 30
0.0
 11
412.8407257570862
 21
827.4636940245559
 31
0.0
  0
LINE
  5
43F
330
1F
100
AcDbEntity
  8
LAY-10
  6
CONTINUOUS
 62
     7
100
AcDbLine
 10
421.840725757088
 20
829.4636940245559
 30
0.0
 11
421.840725757088
 21
827.4636940245559
 31
0.0
  0
ARC
  5
440
330
1F
100
AcDbEntity
  8
LAY-10
  6
CONTINUOUS
 62
     7
100
AcDbCircle
 10
421.840725757088
 20
827.4636940245559
 30
0.0
 40
1.0
100
AcDbArc
 50
270.0000000000002
 51
0.0
  0
ARC
  5
441
330
1F
100
AcDbEntity
  8
LAY-10
  6
CONTINUOUS
 62
     7
100
AcDbCircle
 10
425.8398347561188
 20
829.4628030235867
 30
0.0
 40
2.999108999030569
100
AcDbArc
 50
90.00000000000001
 51
270.0000000000002
  0
CIRCLE
  5
442
330
1F
100
AcDbEntity
  8
LAY-10
  6
CONTINUOUS
 62
     7
100
AcDbCircle
 10
469.5407257570905
 20
829.4636940245559
 30
0.0
 40
3.000000000000003
  0
LINE
  5
443
330
1F
100
AcDbEntity
  8
LAY-10
  6
CONTINUOUS
 62
     7
100
AcDbLine
 10
412.8407257570862
 20
827.4636940245559
 30
0.0
 11
412.8407257570862
 21
826.463694024556
 31
0.0
  0
LINE
  5
444
330
1F
100
AcDbEntity
  8
LAY-10
  6
CONTINUOUS
 62
     7
100
AcDbLine
 10
339.1407257570872
 20
778.0636940245546
 30
0.0
 11
339.1407257570872
 21
824.8636940245556
 31
0.0
  0
LINE
  5
445
330
1F
100
AcDbEntity
  8
LAY-10
  6
CONTINUOUS
 62
     7
100
AcDbLine
 10
337.5407257570869
 20
826.463694024556
 30
0.0
 11
337.5407257570869
 21
774.4636940245541
 31
0.0
  0
LINE
  5
446
330
1F
100
AcDbEntity
  8
LAY-10
  6
CONTINUOUS
 62
     7
100
AcDbLine
 10
339.1407257570872
 20
778.0636940245546
 30
0.0
 11
1919.940725757077
 21
778.0636940245546
 31
0.0
  0
LINE
  5
447
330
1F
100
AcDbEntity
  8
LAY-10
  6
CONTINUOUS
 62
     7
100
AcDbLine
 10
337.5407257570869
 20
776.463694024556
 30
0.0
 11
1921.54072575708
 21
776.463694024556
 31
0.0
  0
LINE
  5
448
330
1F
100
AcDbEntity
  8
LAY-10
  6
CONTINUOUS
 62
     7
100
AcDbLine
 10
1919.940725757077
 20
824.8636940245538
 30
0.0
 11
339.1407257570872
 21
824.8636940245556
 31
0.0
  0
LINE
  5
449
330
1F
100
AcDbEntity
  8
LAY-10
  6
CONTINUOUS
 62
     7
100
AcDbLine
 10
1921.54072575708
 20
826.4636940245541
 30
0.0
 11
337.5407257570869
 21
826.463694024556
 31
0.0
  0
ARC
  5
44A
330
1F
100
AcDbEntity
  8
LAY-10
  6
CONTINUOUS
 62
     7
100
AcDbCircle
 10
1139.540725757
 20
924.0636940246037
 30
0.0
 40
6.000000000000006
100
AcDbArc
 50
180.0
 51
270.0
  0
ARC
  5
44B
330
1F
100
AcDbEntity
  8
LAY-10
  6
CONTINUOUS
 62
     7
100
AcDbCircle
 10
1119.540725757096
 20
924.0636940246037
 30
0.0
 40
6.000000000000006
100
AcDbArc
 50
270.0
 51
0.0
  0
LINE
  5
44C
330
1F
100
AcDbEntity
  8
LAY-10
  6
CONTINUOUS
 62
     7
100
AcDbLine
 10
1139.540725757
 20
918.0636940246038
 30
0.0
 11
1537.540725757076
 21
918.0636940246038
 31
0.0
  0
LINE
  5
44D
330
1F
100
AcDbEntity
  8
LAY-10
  6
CONTINUOUS
 62
     7
100
AcDbLine
 10
721.5407257570196
 20
918.0636940246038
 30
0.0
 11
1119.540725757096
 21
918.0636940246038
 31
0.0
  0
LINE
  5
44E
330
1F
100
AcDbEntity
  8
LAY-10
  6
CONTINUOUS
 62
     7
100
AcDbLine
 10
634.5407257569809
 20
853.0636940245911
 30
0.0
 11
634.5407257569809
 21
854.5636940245893
 31
0.0
  0
ARC
  5
44F
330
1F
100
AcDbEntity
  8
LAY-10
  6
CONTINUOUS
 62
     7
100
AcDbCircle
 10
639.04072575698
 20
854.5636940245911
 30
0.0
 40
4.5
100
AcDbArc
 50
90.00000000000001
 51
180.0
  0
ARC
  5
450
330
1F
100
AcDbEntity
  8
LAY-10
  6
CONTINUOUS
 62
     7
100
AcDbCircle
 10
687.04072575698
 20
865.5636940245911
 30
0.0
 40
6.500000000000004
100
AcDbArc
 50
270.0000000000002
 51
0.0
  0
LINE
  5
451
330
1F
100
AcDbEntity
  8
LAY-10
  6
CONTINUOUS
 62
     7
100
AcDbLine
 10
693.5407257569798
 20
865.5636940245911
 30
0.0
 11
693.5407257569798
 21
918.0636940245921
 31
0.0
  0
LINE
  5
452
330
1F
100
AcDbEntity
  8
LAY-10
  6
CONTINUOUS
 62
     7
100
AcDbLine
 10
699.54072575698
 20
853.0636940245911
 30
0.0
 11
699.54072575698
 21
918.0636940245911
 31
0.0
  0
ARC
  5
453
330
1F
100
AcDbEntity
  8
LAY-10
  6
CONTINUOUS
 62
     7
100
AcDbCircle
 10
698.0407257569804
 20
913.5636940245911
 30
0.0
 40
4.5
100
AcDbArc
 50
90.00000000000001
 51
180.0
  0
LINE
  5
454
330
1F
100
AcDbEntity
  8
LAY-10
  6
CONTINUOUS
 62
     7
100
AcDbLine
 10
504.7907257569932
 20
918.0636940245921
 30
0.0
 11
504.7907257569932
 21
874.0636940245915
 31
0.0
  0
LINE
  5
455
330
1F
100
AcDbEntity
  8
LAY-10
  6
CONTINUOUS
 62
     7
100
AcDbLine
 10
500.2907257569868
 20
918.0636940245921
 30
0.0
 11
500.2907257569868
 21
874.0636940245915
 31
0.0
  0
LINE
  5
456
330
1F
100
AcDbEntity
  8
LAY-10
  6
CONTINUOUS
 62
     7
100
AcDbLine
 10
318.0407257569919
 20
859.0636940245912
 30
0.0
 11
687.04072575698
 21
859.0636940245912
 31
0.0
  0
LINE
  5
457
330
1F
100
AcDbEntity
  8
LAY-10
  6
CONTINUOUS
 62
     7
100
AcDbLine
 10
370.540725756992
 20
853.0636940245911
 30
0.0
 11
370.540725756993
 21
854.5636940245897
 31
0.0
  0
ARC
  5
458
330
1F
100
AcDbEntity
  8
LAY-10
  6
CONTINUOUS
 62
     7
100
AcDbCircle
 10
366.0407257569925
 20
854.5636940245911
 30
0.0
 40
4.5
100
AcDbArc
 50
0.0
 51
90.00000000000001
  0
ARC
  5
459
330
1F
100
AcDbEntity
  8
LAY-10
  6
CONTINUOUS
 62
     7
100
AcDbCircle
 10
318.0407257569919
 20
865.5636940245911
 30
0.0
 40
6.500000000000004
100
AcDbArc
 50
180.0
 51
270.0000000000002
  0
LINE
  5
45A
330
1F
100
AcDbEntity
  8
LAY-10
  6
CONTINUOUS
 62
     7
100
AcDbLine
 10
311.540725756993
 20
865.5636940245911
 30
0.0
 11
311.540725756993
 21
918.0636940245921
 31
0.0
  0
LINE
  5
45B
330
1F
100
AcDbEntity
  8
LAY-10
  6
CONTINUOUS
 62
     7
100
AcDbLine
 10
305.5407257569896
 20
853.0636940246029
 30
0.0
 11
305.540725756993
 21
918.0636940245911
 31
0.0
  0
ARC
  5
45C
330
1F
100
AcDbEntity
  8
LAY-10
  6
CONTINUOUS
 62
     7
100
AcDbCircle
 10
307.0407257569926
 20
913.5636940245911
 30
0.0
 40
4.5
100
AcDbArc
 50
0.0
 51
90.00000000000001
  0
LINE
  5
45D
330
1F
100
AcDbEntity
  8
LAY-10
  6
CONTINUOUS
 62
     7
100
AcDbLine
 10
693.5407257569798
 20
874.0636940245915
 30
0.0
 11
311.540725756993
 21
874.0636940245915
 31
0.0
  0
LINE
  5
45E
330
1F
100
AcDbEntity
  8
LAY-10
  6
CONTINUOUS
 62
     7
100
AcDbLine
 10
1052.540725756981
 20
853.0636940245911
 30
0.0
 11
1052.540725756981
 21
854.5636940245893
 31
0.0
  0
ARC
  5
45F
330
1F
100
AcDbEntity
  8
LAY-10
  6
CONTINUOUS
 62
     7
100
AcDbCircle
 10
1057.04072575698
 20
854.5636940245911
 30
0.0
 40
4.5
100
AcDbArc
 50
90.00000000000001
 51
180.0
  0
ARC
  5
460
330
1F
100
AcDbEntity
  8
LAY-10
  6
CONTINUOUS
 62
     7
100
AcDbCircle
 10
1105.04072575698
 20
865.5636940245911
 30
0.0
 40
6.500000000000004
100
AcDbArc
 50
270.0000000000002
 51
0.0
  0
LINE
  5
461
330
1F
100
AcDbEntity
  8
LAY-10
  6
CONTINUOUS
 62
     7
100
AcDbLine
 10
1111.54072575698
 20
865.5636940245911
 30
0.0
 11
1111.54072575698
 21
918.0636940245921
 31
0.0
  0
LINE
  5
462
330
1F
100
AcDbEntity
  8
LAY-10
  6
CONTINUOUS
 62
     7
100
AcDbLine
 10
1117.54072575698
 20
853.0636940245911
 30
0.0
 11
1117.54072575698
 21
918.0636940245911
 31
0.0
  0
ARC
  5
463
330
1F
100
AcDbEntity
  8
LAY-10
  6
CONTINUOUS
 62
     7
100
AcDbCircle
 10
1116.04072575698
 20
913.5636940245911
 30
0.0
 40
4.5
100
AcDbArc
 50
90.00000000000001
 51
180.0
  0
LINE
  5
464
330
1F
100
AcDbEntity
  8
LAY-10
  6
CONTINUOUS
 62
     7
100
AcDbLine
 10
922.7907257569931
 20
918.0636940245921
 30
0.0
 11
922.7907257569931
 21
874.0636940245915
 31
0.0
  0
LINE
  5
465
330
1F
100
AcDbEntity
  8
LAY-10
  6
CONTINUOUS
 62
     7
100
AcDbLine
 10
918.2907257569867
 20
918.0636940245921
 30
0.0
 11
918.2907257569867
 21
874.0636940245915
 31
0.0
  0
LINE
  5
466
330
1F
100
AcDbEntity
  8
LAY-10
  6
CONTINUOUS
 62
     7
100
AcDbLine
 10
736.0407257569918
 20
859.0636940245912
 30
0.0
 11
1105.04072575698
 21
859.0636940245912
 31
0.0
  0
LINE
  5
467
330
1F
100
AcDbEntity
  8
LAY-10
  6
CONTINUOUS
 62
     7
100
AcDbLine
 10
788.5407257569921
 20
853.0636940245911
 30
0.0
 11
788.540725756993
 21
854.5636940245897
 31
0.0
  0
ARC
  5
468
330
1F
100
AcDbEntity
  8
LAY-10
  6
CONTINUOUS
 62
     7
100
AcDbCircle
 10
784.0407257569925
 20
854.5636940245911
 30
0.0
 40
4.5
100
AcDbArc
 50
0.0
 51
90.00000000000001
  0
ARC
  5
469
330
1F
100
AcDbEntity
  8
LAY-10
  6
CONTINUOUS
 62
     7
100
AcDbCircle
 10
736.0407257569918
 20
865.5636940245911
 30
0.0
 40
6.500000000000004
100
AcDbArc
 50
180.0
 51
270.0000000000002
  0
LINE
  5
46A
330
1F
100
AcDbEntity
  8
LAY-10
  6
CONTINUOUS
 62
     7
100
AcDbLine
 10
729.540725756993
 20
865.5636940245911
 30
0.0
 11
729.540725756993
 21
918.0636940245921
 31
0.0
  0
LINE
  5
46B
330
1F
100
AcDbEntity
  8
LAY-10
  6
CONTINUOUS
 62
     7
100
AcDbLine
 10
723.5407257569896
 20
853.0636940246029
 30
0.0
 11
723.540725756993
 21
918.0636940245911
 31
0.0
  0
ARC
  5
46C
330
1F
100
AcDbEntity
  8
LAY-10
  6
CONTINUOUS
 62
     7
100
AcDbCircle
 10
725.0407257569925
 20
913.5636940245911
 30
0.0
 40
4.5
100
AcDbArc
 50
0.0
 51
90.00000000000001
  0
LINE
  5
46D
330
1F
100
AcDbEntity
  8
LAY-10
  6
CONTINUOUS
 62
     7
100
AcDbLine
 10
1111.54072575698
 20
874.0636940245915
 30
0.0
 11
729.540725756993
 21
874.0636940245915
 31
0.0
  0
LINE
  5
46E
330
1F
100
AcDbEntity
  8
LAY-10
  6
CONTINUOUS
 62
     7
100
AcDbLine
 10
1470.540725756961
 20
853.0636940245911
 30
0.0
 11
1470.540725756961
 21
854.5636940245893
 31
0.0
  0
ARC
  5
46F
330
1F
100
AcDbEntity
  8
LAY-10
  6
CONTINUOUS
 62
     7
100
AcDbCircle
 10
1475.04072575696
 20
854.5636940245911
 30
0.0
 40
4.5
100
AcDbArc
 50
90.00000000000001
 51
180.0
  0
ARC
  5
470
330
1F
100
AcDbEntity
  8
LAY-10
  6
CONTINUOUS
 62
     7
100
AcDbCircle
 10
1523.04072575696
 20
865.5636940245911
 30
0.0
 40
6.500000000000004
100
AcDbArc
 50
270.0000000000002
 51
0.0
  0
LINE
  5
471
330
1F
100
AcDbEntity
  8
LAY-10
  6
CONTINUOUS
 62
     7
100
AcDbLine
 10
1529.54072575696
 20
865.5636940245911
 30
0.0
 11
1529.54072575696
 21
918.0636940245921
 31
0.0
  0
LINE
  5
472
330
1F
100
AcDbEntity
  8
LAY-10
  6
CONTINUOUS
 62
     7
100
AcDbLine
 10
1535.54072575696
 20
853.0636940245911
 30
0.0
 11
1535.54072575696
 21
918.0636940245911
 31
0.0
  0
ARC
  5
473
330
1F
100
AcDbEntity
  8
LAY-10
  6
CONTINUOUS
 62
     7
100
AcDbCircle
 10
1534.04072575696
 20
913.5636940245911
 30
0.0
 40
4.5
100
AcDbArc
 50
90.00000000000001
 51
180.0
  0
LINE
  5
474
330
1F
100
AcDbEntity
  8
LAY-10
  6
CONTINUOUS
 62
     7
100
AcDbLine
 10
1340.790725756973
 20
918.0636940245921
 30
0.0
 11
1340.790725756973
 21
874.0636940245915
 31
0.0
  0
LINE
  5
475
330
1F
100
AcDbEntity
  8
LAY-10
  6
CONTINUOUS
 62
     7
100
AcDbLine
 10
1336.290725756967
 20
918.0636940245921
 30
0.0
 11
1336.290725756967
 21
874.0636940245915
 31
0.0
  0
LINE
  5
476
330
1F
100
AcDbEntity
  8
LAY-10
  6
CONTINUOUS
 62
     7
100
AcDbLine
 10
1154.040725756972
 20
859.0636940245912
 30
0.0
 11
1523.04072575696
 21
859.0636940245912
 31
0.0
  0
LINE
  5
477
330
1F
100
AcDbEntity
  8
LAY-10
  6
CONTINUOUS
 62
     7
100
AcDbLine
 10
1206.540725756972
 20
853.0636940245911
 30
0.0
 11
1206.540725756973
 21
854.5636940245897
 31
0.0
  0
ARC
  5
478
330
1F
100
AcDbEntity
  8
LAY-10
  6
CONTINUOUS
 62
     7
100
AcDbCircle
 10
1202.040725756973
 20
854.5636940245911
 30
0.0
 40
4.5
100
AcDbArc
 50
0.0
 51
90.00000000000001
  0
ARC
  5
479
330
1F
100
AcDbEntity
  8
LAY-10
  6
CONTINUOUS
 62
     7
100
AcDbCircle
 10
1154.040725756972
 20
865.5636940245911
 30
0.0
 40
6.500000000000004
100
AcDbArc
 50
180.0
 51
270.0000000000002
  0
LINE
  5
47A
330
1F
100
AcDbEntity
  8
LAY-10
  6
CONTINUOUS
 62
     7
100
AcDbLine
 10
1147.540725756973
 20
865.5636940245911
 30
0.0
 11
1147.540725756973
 21
918.0636940245921
 31
0.0
  0
LINE
  5
47B
330
1F
100
AcDbEntity
  8
LAY-10
  6
CONTINUOUS
 62
     7
100
AcDbLine
 10
1141.54072575697
 20
853.0636940246029
 30
0.0
 11
1141.540725756973
 21
918.0636940245911
 31
0.0
  0
ARC
  5
47C
330
1F
100
AcDbEntity
  8
LAY-10
  6
CONTINUOUS
 62
     7
100
AcDbCircle
 10
1143.040725756973
 20
913.5636940245911
 30
0.0
 40
4.5
100
AcDbArc
 50
0.0
 51
90.00000000000001
  0
LINE
  5
47D
330
1F
100
AcDbEntity
  8
LAY-10
  6
CONTINUOUS
 62
     7
100
AcDbLine
 10
1529.54072575696
 20
874.0636940245915
 30
0.0
 11
1147.540725756973
 21
874.0636940245915
 31
0.0
  0
LINE
  5
47E
330
1F
100
AcDbEntity
  8
LAY-10
  6
CONTINUOUS
 62
     7
100
AcDbLine
 10
1888.540725756961
 20
853.0636940245911
 30
0.0
 11
1888.540725756961
 21
854.5636940245893
 31
0.0
  0
ARC
  5
47F
330
1F
100
AcDbEntity
  8
LAY-10
  6
CONTINUOUS
 62
     7
100
AcDbCircle
 10
1893.04072575696
 20
854.5636940245911
 30
0.0
 40
4.5
100
AcDbArc
 50
90.00000000000001
 51
180.0
  0
ARC
  5
480
330
1F
100
AcDbEntity
  8
LAY-10
  6
CONTINUOUS
 62
     7
100
AcDbCircle
 10
1941.04072575696
 20
865.5636940245911
 30
0.0
 40
6.500000000000004
100
AcDbArc
 50
270.0000000000002
 51
0.0
  0
LINE
  5
481
330
1F
100
AcDbEntity
  8
LAY-10
  6
CONTINUOUS
 62
     7
100
AcDbLine
 10
1947.54072575696
 20
865.5636940245911
 30
0.0
 11
1947.54072575696
 21
918.0636940245921
 31
0.0
  0
LINE
  5
482
330
1F
100
AcDbEntity
  8
LAY-10
  6
CONTINUOUS
 62
     7
100
AcDbLine
 10
1953.54072575696
 20
853.0636940245911
 30
0.0
 11
1953.54072575696
 21
918.0636940245911
 31
0.0
  0
ARC
  5
483
330
1F
100
AcDbEntity
  8
LAY-10
  6
CONTINUOUS
 62
     7
100
AcDbCircle
 10
1952.04072575696
 20
913.5636940245911
 30
0.0
 40
4.5
100
AcDbArc
 50
90.00000000000001
 51
180.0
  0
LINE
  5
484
330
1F
100
AcDbEntity
  8
LAY-10
  6
CONTINUOUS
 62
     7
100
AcDbLine
 10
1758.790725756973
 20
918.0636940245921
 30
0.0
 11
1758.790725756973
 21
874.0636940245915
 31
0.0
  0
LINE
  5
485
330
1F
100
AcDbEntity
  8
LAY-10
  6
CONTINUOUS
 62
     7
100
AcDbLine
 10
1754.290725756967
 20
918.0636940245921
 30
0.0
 11
1754.290725756967
 21
874.0636940245915
 31
0.0
  0
LINE
  5
486
330
1F
100
AcDbEntity
  8
LAY-10
  6
CONTINUOUS
 62
     7
100
AcDbLine
 10
1572.040725756972
 20
859.0636940245912
 30
0.0
 11
1941.04072575696
 21
859.0636940245912
 31
0.0
  0
LINE
  5
487
330
1F
100
AcDbEntity
  8
LAY-10
  6
CONTINUOUS
 62
     7
100
AcDbLine
 10
1624.540725756972
 20
853.0636940245911
 30
0.0
 11
1624.540725756973
 21
854.5636940245897
 31
0.0
  0
ARC
  5
488
330
1F
100
AcDbEntity
  8
LAY-10
  6
CONTINUOUS
 62
     7
100
AcDbCircle
 10
1620.040725756973
 20
854.5636940245911
 30
0.0
 40
4.5
100
AcDbArc
 50
0.0
 51
90.00000000000001
  0
ARC
  5
489
330
1F
100
AcDbEntity
  8
LAY-10
  6
CONTINUOUS
 62
     7
100
AcDbCircle
 10
1572.040725756972
 20
865.5636940245911
 30
0.0
 40
6.500000000000004
100
AcDbArc
 50
180.0
 51
270.0000000000002
  0
LINE
  5
48A
330
1F
100
AcDbEntity
  8
LAY-10
  6
CONTINUOUS
 62
     7
100
AcDbLine
 10
1565.540725756973
 20
865.5636940245911
 30
0.0
 11
1565.540725756973
 21
918.0636940245921
 31
0.0
  0
LINE
  5
48B
330
1F
100
AcDbEntity
  8
LAY-10
  6
CONTINUOUS
 62
     7
100
AcDbLine
 10
1559.54072575697
 20
853.0636940246029
 30
0.0
 11
1559.540725756973
 21
918.0636940245911
 31
0.0
  0
ARC
  5
48C
330
1F
100
AcDbEntity
  8
LAY-10
  6
CONTINUOUS
 62
     7
100
AcDbCircle
 10
1561.040725756973
 20
913.5636940245911
 30
0.0
 40
4.5
100
AcDbArc
 50
0.0
 51
90.00000000000001
  0
LINE
  5
48D
330
1F
100
AcDbEntity
  8
LAY-10
  6
CONTINUOUS
 62
     7
100
AcDbLine
 10
1947.54072575696
 20
874.0636940245915
 30
0.0
 11
1565.540725756973
 21
874.0636940245915
 31
0.0
  0
LINE
  5
48E
330
1F
100
AcDbEntity
  8
LAY-10
  6
CONTINUOUS
 62
     7
100
AcDbLine
 10
1965.5407257569
 20
1377.379521140054
 30
0.0
 11
1980.5407257569
 21
1362.379521140056
 31
0.0
  0
LINE
  5
48F
330
1F
100
AcDbEntity
  8
LAY-10
  6
CONTINUOUS
 62
     7
100
AcDbLine
 10
293.540725756998
 20
1377.379521140054
 30
0.0
 11
278.540725756998
 21
1362.379521140054
 31
0.0
  0
LINE
  5
490
330
1F
100
AcDbEntity
  8
LAY-10
  6
CONTINUOUS
 62
     7
100
AcDbLine
 10
278.540725756998
 20
1362.379521140054
 30
0.0
 11
1980.5407257569
 21
1362.379521140053
 31
0.0
  0
LINE
  5
491
330
1F
100
AcDbEntity
  8
LAY-10
  6
CONTINUOUS
 62
     7
100
AcDbLine
 10
294.5407257569998
 20
1378.379521140052
 30
0.0
 11
309.5407257569998
 21
1393.379521140052
 31
0.0
  0
LINE
  5
492
330
1F
100
AcDbEntity
  8
LAY-10
  6
CONTINUOUS
 62
     7
100
AcDbLine
 10
1965.5407257569
 20
1377.379521140053
 30
0.0
 11
293.540725756998
 21
1377.379521140054
 31
0.0
  0
LINE
  5
493
330
1F
100
AcDbEntity
  8
LAY-10
  6
CONTINUOUS
 62
     7
100
AcDbLine
 10
695.5407257569997
 20
1393.379521140053
 30
0.0
 11
710.5407257570016
 21
1378.379521140053
 31
0.0
  0
LINE
  5
494
330
1F
100
AcDbEntity
  8
LAY-10
  6
CONTINUOUS
 62
     7
100
AcDbLine
 10
294.5407257569998
 20
1378.379521140052
 30
0.0
 11
710.5407257570016
 21
1378.379521140053
 31
0.0
  0
LINE
  5
495
330
1F
100
AcDbEntity
  8
LAY-10
  6
CONTINUOUS
 62
     7
100
AcDbLine
 10
695.5407257569997
 20
1393.379521140053
 30
0.0
 11
309.5407257569998
 21
1393.379521140052
 31
0.0
  0
LINE
  5
496
330
1F
100
AcDbEntity
  8
LAY-10
  6
CONTINUOUS
 62
     7
100
AcDbLine
 10
712.5407257569998
 20
1378.379521140052
 30
0.0
 11
727.5407257569998
 21
1393.379521140052
 31
0.0
  0
LINE
  5
497
330
1F
100
AcDbEntity
  8
LAY-10
  6
CONTINUOUS
 62
     7
100
AcDbLine
 10
1113.540725757
 20
1393.379521140053
 30
0.0
 11
1128.540725757002
 21
1378.379521140053
 31
0.0
  0
LINE
  5
498
330
1F
100
AcDbEntity
  8
LAY-10
  6
CONTINUOUS
 62
     7
100
AcDbLine
 10
712.5407257569998
 20
1378.379521140052
 30
0.0
 11
1128.540725757002
 21
1378.379521140053
 31
0.0
  0
LINE
  5
499
330
1F
100
AcDbEntity
  8
LAY-10
  6
CONTINUOUS
 62
     7
100
AcDbLine
 10
1113.540725757
 20
1393.379521140053
 30
0.0
 11
727.5407257569998
 21
1393.379521140052
 31
0.0
  0
LINE
  5
49A
330
1F
100
AcDbEntity
  8
LAY-10
  6
CONTINUOUS
 62
     7
100
AcDbLine
 10
341.5407257569761
 20
1425.379521140103
 30
0.0
 11
341.5407257569761
 21
1393.379521140105
 31
0.0
  0
LINE
  5
49B
330
1F
100
AcDbEntity
  8
LAY-10
  6
CONTINUOUS
 62
     7
100
AcDbLine
 10
341.540725756978
 20
1425.379521140103
 30
0.0
 11
309.540725756978
 21
1425.379521140103
 31
0.0
  0
LINE
  5
49C
330
1F
100
AcDbEntity
  8
LAY-10
  6
CONTINUOUS
 62
     7
100
AcDbLine
 10
663.540725756978
 20
1425.379521140103
 30
0.0
 11
663.540725756978
 21
1393.379521140105
 31
0.0
  0
LINE
  5
49D
330
1F
100
AcDbEntity
  8
LAY-10
  6
CONTINUOUS
 62
     7
100
AcDbLine
 10
695.540725756978
 20
1425.379521140103
 30
0.0
 11
663.540725756978
 21
1425.379521140103
 31
0.0
  0
LINE
  5
49E
330
1F
100
AcDbEntity
  8
LAY-10
  6
CONTINUOUS
 62
     7
100
AcDbLine
 10
1081.540725756979
 20
1425.379521140103
 30
0.0
 11
1081.540725756979
 21
1393.379521140105
 31
0.0
  0
LINE
  5
49F
330
1F
100
AcDbEntity
  8
LAY-10
  6
CONTINUOUS
 62
     7
100
AcDbLine
 10
1113.540725756978
 20
1425.379521140103
 30
0.0
 11
1081.540725756979
 21
1425.379521140103
 31
0.0
  0
LINE
  5
4A0
330
1F
100
AcDbEntity
  8
LAY-10
  6
CONTINUOUS
 62
     7
100
AcDbLine
 10
759.5407257569761
 20
1425.379521140103
 30
0.0
 11
759.5407257569761
 21
1393.379521140105
 31
0.0
  0
LINE
  5
4A1
330
1F
100
AcDbEntity
  8
LAY-10
  6
CONTINUOUS
 62
     7
100
AcDbLine
 10
759.5407257569778
 20
1425.379521140103
 30
0.0
 11
727.540725756978
 21
1425.379521140103
 31
0.0
  0
LINE
  5
4A2
330
1F
100
AcDbEntity
  8
LAY-10
  6
CONTINUOUS
 62
     7
100
AcDbLine
 10
800.5407257570671
 20
1393.379521140053
 30
0.0
 11
800.5407257570707
 21
2433.379521140055
 31
0.0
  0
LINE
  5
4A3
330
1F
100
AcDbEntity
  8
LAY-10
  6
CONTINUOUS
 62
     7
100
AcDbLine
 10
808.0407257570671
 20
1393.379521140053
 30
0.0
 11
808.0407257570707
 21
2433.379521140053
 31
0.0
  0
LINE
  5
4A4
330
1F
100
AcDbEntity
  8
LAY-10
  6
CONTINUOUS
 62
     7
100
AcDbLine
 10
833.0407257570653
 20
1393.379521140053
 30
0.0
 11
833.0407257570707
 21
2433.379521140053
 31
0.0
  0
LINE
  5
4A5
330
1F
100
AcDbEntity
  8
LAY-10
  6
CONTINUOUS
 62
     7
100
AcDbLine
 10
840.5407257570653
 20
1393.379521140053
 30
0.0
 11
840.5407257570707
 21
2433.379521140053
 31
0.0
  0
LINE
  5
4A6
330
1F
100
AcDbEntity
  8
LAY-10
  6
CONTINUOUS
 62
     7
100
AcDbLine
 10
1000.540725757091
 20
1393.379521140053
 30
0.0
 11
1000.540725757089
 21
2433.379521140053
 31
0.0
  0
LINE
  5
4A7
330
1F
100
AcDbEntity
  8
LAY-10
  6
CONTINUOUS
 62
     7
100
AcDbLine
 10
1008.040725757091
 20
1393.379521140053
 30
0.0
 11
1008.040725757089
 21
2433.379521140053
 31
0.0
  0
LINE
  5
4A8
330
1F
100
AcDbEntity
  8
LAY-10
  6
CONTINUOUS
 62
     7
100
AcDbLine
 10
1033.040725757091
 20
1393.379521140053
 30
0.0
 11
1033.040725757087
 21
2433.379521140053
 31
0.0
  0
LINE
  5
4A9
330
1F
100
AcDbEntity
  8
LAY-10
  6
CONTINUOUS
 62
     7
100
AcDbLine
 10
1040.540725757091
 20
1393.379521140053
 30
0.0
 11
1040.540725757087
 21
2433.379521140055
 31
0.0
  0
LINE
  5
4AA
330
1F
100
AcDbEntity
  8
LAY-10
  6
CONTINUOUS
 62
     7
100
AcDbLine
 10
1113.540725757
 20
2433.379521140053
 30
0.0
 11
1113.540725757
 21
1393.379521140053
 31
0.0
  0
LINE
  5
4AB
330
1F
100
AcDbEntity
  8
LAY-10
  6
CONTINUOUS
 62
     7
100
AcDbLine
 10
1128.540725757002
 20
1378.379521140053
 30
0.0
 11
1128.540725757
 21
2448.379521140053
 31
0.0
  0
LINE
  5
4AC
330
1F
100
AcDbEntity
  8
LAY-10
  6
CONTINUOUS
 62
     7
100
AcDbLine
 10
727.5407257569998
 20
1393.379521140052
 30
0.0
 11
727.5407257569998
 21
2433.379521140052
 31
0.0
  0
LINE
  5
4AD
330
1F
100
AcDbEntity
  8
LAY-10
  6
CONTINUOUS
 62
     7
100
AcDbLine
 10
712.5407257569998
 20
2448.379521140052
 30
0.0
 11
712.5407257569998
 21
1378.379521140052
 31
0.0
  0
LINE
  5
4AE
330
1F
100
AcDbEntity
  8
LAY-10
  6
CONTINUOUS
 62
     7
100
AcDbLine
 10
415.0407257570653
 20
1393.379521140053
 30
0.0
 11
415.0407257570707
 21
2433.379521140053
 31
0.0
  0
LINE
  5
4AF
330
1F
100
AcDbEntity
  8
LAY-10
  6
CONTINUOUS
 62
     7
100
AcDbLine
 10
422.5407257570653
 20
1393.379521140053
 30
0.0
 11
422.5407257570707
 21
2433.379521140053
 31
0.0
  0
LINE
  5
4B0
330
1F
100
AcDbEntity
  8
LAY-10
  6
CONTINUOUS
 62
     7
100
AcDbLine
 10
582.5407257570907
 20
1393.379521140053
 30
0.0
 11
582.5407257570889
 21
2433.379521140053
 31
0.0
  0
LINE
  5
4B1
330
1F
100
AcDbEntity
  8
LAY-10
  6
CONTINUOUS
 62
     7
100
AcDbLine
 10
590.0407257570907
 20
1393.379521140053
 30
0.0
 11
590.0407257570889
 21
2433.379521140053
 31
0.0
  0
LINE
  5
4B2
330
1F
100
AcDbEntity
  8
LAY-10
  6
CONTINUOUS
 62
     7
100
AcDbLine
 10
615.0407257570907
 20
1393.379521140053
 30
0.0
 11
615.0407257570871
 21
2433.379521140053
 31
0.0
  0
LINE
  5
4B3
330
1F
100
AcDbEntity
  8
LAY-10
  6
CONTINUOUS
 62
     7
100
AcDbLine
 10
622.5407257570907
 20
1393.379521140053
 30
0.0
 11
622.5407257570871
 21
2433.379521140055
 31
0.0
  0
LINE
  5
4B4
330
1F
100
AcDbEntity
  8
LAY-10
  6
CONTINUOUS
 62
     7
100
AcDbLine
 10
695.5407257569997
 20
2433.379521140053
 30
0.0
 11
695.5407257569997
 21
1393.379521140053
 31
0.0
  0
LINE
  5
4B5
330
1F
100
AcDbEntity
  8
LAY-10
  6
CONTINUOUS
 62
     7
100
AcDbLine
 10
710.5407257570016
 20
1378.379521140053
 30
0.0
 11
710.5407257569997
 21
2448.379521140053
 31
0.0
  0
LINE
  5
4B6
330
1F
100
AcDbEntity
  8
LAY-10
  6
CONTINUOUS
 62
     7
100
AcDbLine
 10
1980.5407257569
 20
1362.379521140054
 30
0.0
 11
1980.540725756902
 21
2464.379521140053
 31
0.0
  0
LINE
  5
4B7
330
1F
100
AcDbEntity
  8
LAY-10
  6
CONTINUOUS
 62
     7
100
AcDbLine
 10
1965.540725756902
 20
2449.379521140053
 30
0.0
 11
1965.5407257569
 21
1377.379521140053
 31
0.0
  0
LINE
  5
4B8
330
1F
100
AcDbEntity
  8
LAY-10
  6
CONTINUOUS
 62
     7
100
AcDbLine
 10
249.6366120150844
 20
2158.879521140177
 30
0.0
 11
249.6366120150844
 21
2167.879521140178
 31
0.0
  0
LINE
  5
4B9
330
1F
100
AcDbEntity
  8
LAY-10
  6
CONTINUOUS
 62
     7
100
AcDbLine
 10
278.5350968249215
 20
2167.879521140178
 30
0.0
 11
249.6366120150844
 21
2167.879521140178
 31
0.0
  0
LINE
  5
4BA
330
1F
100
AcDbEntity
  8
LAY-10
  6
CONTINUOUS
 62
     7
100
AcDbLine
 10
278.5350968249215
 20
2158.879521140177
 30
0.0
 11
249.6366120150844
 21
2158.879521140177
 31
0.0
  0
LINE
  5
4BB
330
1F
100
AcDbEntity
  8
LAY-10
  6
CONTINUOUS
 62
     7
100
AcDbLine
 10
382.540725757067
 20
1393.379521140053
 30
0.0
 11
382.5407257570707
 21
2433.379521140055
 31
0.0
  0
LINE
  5
4BC
330
1F
100
AcDbEntity
  8
LAY-10
  6
CONTINUOUS
 62
     7
100
AcDbLine
 10
390.0407257570672
 20
1393.379521140053
 30
0.0
 11
390.0407257570707
 21
2433.379521140053
 31
0.0
  0
LINE
  5
4BD
330
1F
100
AcDbEntity
  8
LAY-10
  6
CONTINUOUS
 62
     7
100
AcDbLine
 10
278.5350968249179
 20
1667.879521140215
 30
0.0
 11
249.6366120150808
 21
1667.879521140216
 31
0.0
  0
LINE
  5
4BE
330
1F
100
AcDbEntity
  8
LAY-10
  6
CONTINUOUS
 62
     7
100
AcDbLine
 10
278.5350968249179
 20
1658.879521140214
 30
0.0
 11
249.6366120150808
 21
1658.879521140215
 31
0.0
  0
LINE
  5
4BF
330
1F
100
AcDbEntity
  8
LAY-10
  6
CONTINUOUS
 62
     7
100
AcDbLine
 10
249.6366120150808
 20
1667.879521140216
 30
0.0
 11
249.6366120150808
 21
1658.879521140215
 31
0.0
  0
LINE
  5
4C0
330
1F
100
AcDbEntity
  8
LAY-10
  6
CONTINUOUS
 62
     7
100
AcDbLine
 10
309.5407257569998
 20
1393.379521140052
 30
0.0
 11
309.5407257569998
 21
2433.379521140052
 31
0.0
  0
LINE
  5
4C1
330
1F
100
AcDbEntity
  8
LAY-10
  6
CONTINUOUS
 62
     7
100
AcDbLine
 10
294.5407257569998
 20
2448.379521140052
 30
0.0
 11
294.5407257569998
 21
1378.379521140052
 31
0.0
  0
LINE
  5
4C2
330
1F
100
AcDbEntity
  8
LAY-10
  6
CONTINUOUS
 62
     7
100
AcDbLine
 10
278.540725756998
 20
1362.379521140054
 30
0.0
 11
278.5407257570016
 21
2464.379521140053
 31
0.0
  0
LINE
  5
4C3
330
1F
100
AcDbEntity
  8
LAY-10
  6
CONTINUOUS
 62
     7
100
AcDbLine
 10
293.540725756998
 20
1377.379521140054
 30
0.0
 11
293.5407257570016
 21
2449.379521140053
 31
0.0
  0
LINE
  5
4C4
330
1F
100
AcDbEntity
  8
LAY-10
  6
CONTINUOUS
 62
     7
100
AcDbLine
 10
2009.439210566626
 20
2158.879521140173
 30
0.0
 11
2009.439210566626
 21
2167.879521140174
 31
0.0
  0
LINE
  5
4C5
330
1F
100
AcDbEntity
  8
LAY-10
  6
CONTINUOUS
 62
     7
100
AcDbLine
 10
1980.540725756789
 20
2167.879521140174
 30
0.0
 11
2009.439210566626
 21
2167.879521140174
 31
0.0
  0
LINE
  5
4C6
330
1F
100
AcDbEntity
  8
LAY-10
  6
CONTINUOUS
 62
     7
100
AcDbLine
 10
1980.540725756789
 20
2158.879521140173
 30
0.0
 11
2009.439210566626
 21
2158.879521140173
 31
0.0
  0
LINE
  5
4C7
330
1F
100
AcDbEntity
  8
LAY-10
  6
CONTINUOUS
 62
     7
100
AcDbLine
 10
1980.54072575679
 20
1667.879521140212
 30
0.0
 11
2009.439210566627
 21
1667.879521140212
 31
0.0
  0
LINE
  5
4C8
330
1F
100
AcDbEntity
  8
LAY-10
  6
CONTINUOUS
 62
     7
100
AcDbLine
 10
1980.54072575679
 20
1658.879521140211
 30
0.0
 11
2009.439210566627
 21
1658.879521140211
 31
0.0
  0
LINE
  5
4C9
330
1F
100
AcDbEntity
  8
LAY-10
  6
CONTINUOUS
 62
     7
100
AcDbLine
 10
2009.439210566627
 20
1667.879521140212
 30
0.0
 11
2009.439210566627
 21
1658.879521140211
 31
0.0
  0
LINE
  5
4CA
330
1F
100
AcDbEntity
  8
LAY-10
  6
CONTINUOUS
 62
     7
100
AcDbLine
 10
329.5407257570282
 20
1398.879521140102
 30
0.0
 11
329.5407257570282
 21
1397.273221127299
 31
0.0
  0
LINE
  5
4CB
330
1F
100
AcDbEntity
  8
LAY-10
  6
CONTINUOUS
 62
     7
100
AcDbLine
 10
321.5407257570304
 20
1398.879521140102
 30
0.0
 11
321.5407257570304
 21
1397.273221127299
 31
0.0
  0
LINE
  5
4CC
330
1F
100
AcDbEntity
  8
LAY-10
  6
CONTINUOUS
 62
     7
100
AcDbLine
 10
321.5407257570304
 20
1398.879521140102
 30
0.0
 11
329.5407257570282
 21
1398.879521140102
 31
0.0
  0
ARC
  5
4CD
330
1F
100
AcDbEntity
  8
LAY-10
  6
CONTINUOUS
 62
     7
100
AcDbCircle
 10
325.5407257570296
 20
1409.379521140102
 30
0.0
 40
12.75000000000001
100
AcDbArc
 50
288.2838899404034
 51
251.7161100595966
  0
LINE
  5
4CE
330
1F
100
AcDbEntity
  8
LAY-10
  6
CONTINUOUS
 62
     7
100
AcDbLine
 10
332.0407257570296
 20
1409.379521140102
 30
0.0
 11
325.5407257570296
 21
1405.379521140102
 31
0.0
  0
LINE
  5
4CF
330
1F
100
AcDbEntity
  8
LAY-10
  6
CONTINUOUS
 62
     7
100
AcDbLine
 10
325.5407257570296
 20
1405.379521140102
 30
0.0
 11
319.0407257570291
 21
1409.379521140102
 31
0.0
  0
LINE
  5
4D0
330
1F
100
AcDbEntity
  8
LAY-10
  6
CONTINUOUS
 62
     7
100
AcDbLine
 10
319.0407257570291
 20
1409.379521140102
 30
0.0
 11
325.5407257570296
 21
1413.379521140102
 31
0.0
  0
LINE
  5
4D1
330
1F
100
AcDbEntity
  8
LAY-10
  6
CONTINUOUS
 62
     7
100
AcDbLine
 10
325.5407257570296
 20
1413.379521140102
 30
0.0
 11
332.0407257570296
 21
1409.379521140102
 31
0.0
  0
CIRCLE
  5
4D2
330
1F
100
AcDbEntity
  8
LAY-10
  6
CONTINUOUS
 62
     7
100
AcDbCircle
 10
325.5407257569802
 20
1409.379521140101
 30
0.0
 40
13.0
  0
LINE
  5
4D3
330
1F
100
AcDbEntity
  8
LAY-10
  6
CONTINUOUS
 62
     7
100
AcDbLine
 10
683.5407257569784
 20
1398.879521140102
 30
0.0
 11
683.5407257569784
 21
1397.273221127299
 31
0.0
  0
LINE
  5
4D4
330
1F
100
AcDbEntity
  8
LAY-10
  6
CONTINUOUS
 62
     7
100
AcDbLine
 10
675.5407257569807
 20
1398.879521140102
 30
0.0
 11
675.5407257569807
 21
1397.273221127299
 31
0.0
  0
LINE
  5
4D5
330
1F
100
AcDbEntity
  8
LAY-10
  6
CONTINUOUS
 62
     7
100
AcDbLine
 10
675.5407257569807
 20
1398.879521140102
 30
0.0
 11
683.5407257569784
 21
1398.879521140102
 31
0.0
  0
ARC
  5
4D6
330
1F
100
AcDbEntity
  8
LAY-10
  6
CONTINUOUS
 62
     7
100
AcDbCircle
 10
679.5407257569798
 20
1409.379521140102
 30
0.0
 40
12.75000000000001
100
AcDbArc
 50
288.2838899404034
 51
251.7161100595966
  0
LINE
  5
4D7
330
1F
100
AcDbEntity
  8
LAY-10
  6
CONTINUOUS
 62
     7
100
AcDbLine
 10
686.0407257569798
 20
1409.379521140102
 30
0.0
 11
679.5407257569798
 21
1405.379521140102
 31
0.0
  0
LINE
  5
4D8
330
1F
100
AcDbEntity
  8
LAY-10
  6
CONTINUOUS
 62
     7
100
AcDbLine
 10
679.5407257569798
 20
1405.379521140102
 30
0.0
 11
673.0407257569792
 21
1409.379521140102
 31
0.0
  0
LINE
  5
4D9
330
1F
100
AcDbEntity
  8
LAY-10
  6
CONTINUOUS
 62
     7
100
AcDbLine
 10
673.0407257569792
 20
1409.379521140102
 30
0.0
 11
679.5407257569798
 21
1413.379521140102
 31
0.0
  0
LINE
  5
4DA
330
1F
100
AcDbEntity
  8
LAY-10
  6
CONTINUOUS
 62
     7
100
AcDbLine
 10
679.5407257569798
 20
1413.379521140102
 30
0.0
 11
686.0407257569798
 21
1409.379521140102
 31
0.0
  0
CIRCLE
  5
4DB
330
1F
100
AcDbEntity
  8
LAY-10
  6
CONTINUOUS
 62
     7
100
AcDbCircle
 10
679.5407257569304
 20
1409.379521140101
 30
0.0
 40
13.0
  0
LINE
  5
4DC
330
1F
100
AcDbEntity
  8
LAY-10
  6
CONTINUOUS
 62
     7
100
AcDbLine
 10
747.5407257569784
 20
1398.879521140102
 30
0.0
 11
747.5407257569784
 21
1397.273221127299
 31
0.0
  0
LINE
  5
4DD
330
1F
100
AcDbEntity
  8
LAY-10
  6
CONTINUOUS
 62
     7
100
AcDbLine
 10
739.5407257569807
 20
1398.879521140102
 30
0.0
 11
739.5407257569807
 21
1397.273221127299
 31
0.0
  0
LINE
  5
4DE
330
1F
100
AcDbEntity
  8
LAY-10
  6
CONTINUOUS
 62
     7
100
AcDbLine
 10
739.5407257569807
 20
1398.879521140102
 30
0.0
 11
747.5407257569784
 21
1398.879521140102
 31
0.0
  0
ARC
  5
4DF
330
1F
100
AcDbEntity
  8
LAY-10
  6
CONTINUOUS
 62
     7
100
AcDbCircle
 10
743.5407257569798
 20
1409.379521140102
 30
0.0
 40
12.75000000000001
100
AcDbArc
 50
288.2838899404034
 51
251.7161100595966
  0
LINE
  5
4E0
330
1F
100
AcDbEntity
  8
LAY-10
  6
CONTINUOUS
 62
     7
100
AcDbLine
 10
750.0407257569797
 20
1409.379521140102
 30
0.0
 11
743.5407257569798
 21
1405.379521140102
 31
0.0
  0
LINE
  5
4E1
330
1F
100
AcDbEntity
  8
LAY-10
  6
CONTINUOUS
 62
     7
100
AcDbLine
 10
743.5407257569798
 20
1405.379521140102
 30
0.0
 11
737.0407257569793
 21
1409.379521140102
 31
0.0
  0
LINE
  5
4E2
330
1F
100
AcDbEntity
  8
LAY-10
  6
CONTINUOUS
 62
     7
100
AcDbLine
 10
737.0407257569793
 20
1409.379521140102
 30
0.0
 11
743.5407257569798
 21
1413.379521140102
 31
0.0
  0
LINE
  5
4E3
330
1F
100
AcDbEntity
  8
LAY-10
  6
CONTINUOUS
 62
     7
100
AcDbLine
 10
743.5407257569798
 20
1413.379521140102
 30
0.0
 11
750.0407257569797
 21
1409.379521140102
 31
0.0
  0
CIRCLE
  5
4E4
330
1F
100
AcDbEntity
  8
LAY-10
  6
CONTINUOUS
 62
     7
100
AcDbCircle
 10
743.5407257569304
 20
1409.379521140101
 30
0.0
 40
13.0
  0
LINE
  5
4E5
330
1F
100
AcDbEntity
  8
LAY-10
  6
CONTINUOUS
 62
     7
100
AcDbLine
 10
1101.540725756998
 20
1398.879521140102
 30
0.0
 11
1101.540725756998
 21
1397.273221127299
 31
0.0
  0
LINE
  5
4E6
330
1F
100
AcDbEntity
  8
LAY-10
  6
CONTINUOUS
 62
     7
100
AcDbLine
 10
1093.540725757001
 20
1398.879521140102
 30
0.0
 11
1093.540725757001
 21
1397.273221127299
 31
0.0
  0
LINE
  5
4E7
330
1F
100
AcDbEntity
  8
LAY-10
  6
CONTINUOUS
 62
     7
100
AcDbLine
 10
1093.540725757001
 20
1398.879521140102
 30
0.0
 11
1101.540725756998
 21
1398.879521140102
 31
0.0
  0
ARC
  5
4E8
330
1F
100
AcDbEntity
  8
LAY-10
  6
CONTINUOUS
 62
     7
100
AcDbCircle
 10
1097.540725757
 20
1409.379521140102
 30
0.0
 40
12.75000000000001
100
AcDbArc
 50
288.2838899404034
 51
251.7161100595966
  0
LINE
  5
4E9
330
1F
100
AcDbEntity
  8
LAY-10
  6
CONTINUOUS
 62
     7
100
AcDbLine
 10
1104.040725757
 20
1409.379521140102
 30
0.0
 11
1097.540725757
 21
1405.379521140102
 31
0.0
  0
LINE
  5
4EA
330
1F
100
AcDbEntity
  8
LAY-10
  6
CONTINUOUS
 62
     7
100
AcDbLine
 10
1097.540725757
 20
1405.379521140102
 30
0.0
 11
1091.040725756999
 21
1409.379521140102
 31
0.0
  0
LINE
  5
4EB
330
1F
100
AcDbEntity
  8
LAY-10
  6
CONTINUOUS
 62
     7
100
AcDbLine
 10
1091.040725756999
 20
1409.379521140102
 30
0.0
 11
1097.540725757
 21
1413.379521140102
 31
0.0
  0
LINE
  5
4EC
330
1F
100
AcDbEntity
  8
LAY-10
  6
CONTINUOUS
 62
     7
100
AcDbLine
 10
1097.540725757
 20
1413.379521140102
 30
0.0
 11
1104.040725757
 21
1409.379521140102
 31
0.0
  0
CIRCLE
  5
4ED
330
1F
100
AcDbEntity
  8
LAY-10
  6
CONTINUOUS
 62
     7
100
AcDbCircle
 10
1097.54072575695
 20
1409.379521140101
 30
0.0
 40
13.0
  0
LINE
  5
4EE
330
1F
100
AcDbEntity
  8
LAY-10
  6
CONTINUOUS
 62
     7
100
AcDbLine
 10
1965.540725756899
 20
2449.379521140253
 30
0.0
 11
1980.540725756899
 21
2464.379521140252
 31
0.0
  0
LINE
  5
4EF
330
1F
100
AcDbEntity
  8
LAY-10
  6
CONTINUOUS
 62
     7
100
AcDbLine
 10
293.5407257569973
 20
2449.379521140252
 30
0.0
 11
278.5407257569973
 21
2464.379521140252
 31
0.0
  0
LINE
  5
4F0
330
1F
100
AcDbEntity
  8
LAY-10
  6
CONTINUOUS
 62
     7
100
AcDbLine
 10
278.5407257569973
 20
2464.379521140252
 30
0.0
 11
1980.540725756899
 21
2464.379521140255
 31
0.0
  0
LINE
  5
4F1
330
1F
100
AcDbEntity
  8
LAY-10
  6
CONTINUOUS
 62
     7
100
AcDbLine
 10
294.5407257569991
 20
2448.379521140254
 30
0.0
 11
309.5407257569992
 21
2433.379521140254
 31
0.0
  0
LINE
  5
4F2
330
1F
100
AcDbEntity
  8
LAY-10
  6
CONTINUOUS
 62
     7
100
AcDbLine
 10
1965.540725756899
 20
2449.379521140255
 30
0.0
 11
293.5407257569973
 21
2449.379521140252
 31
0.0
  0
LINE
  5
4F3
330
1F
100
AcDbEntity
  8
LAY-10
  6
CONTINUOUS
 62
     7
100
AcDbLine
 10
695.5407257569993
 20
2433.379521140253
 30
0.0
 11
710.5407257570008
 21
2448.379521140253
 31
0.0
  0
LINE
  5
4F4
330
1F
100
AcDbEntity
  8
LAY-10
  6
CONTINUOUS
 62
     7
100
AcDbLine
 10
294.5407257569991
 20
2448.379521140254
 30
0.0
 11
710.5407257570008
 21
2448.379521140253
 31
0.0
  0
LINE
  5
4F5
330
1F
100
AcDbEntity
  8
LAY-10
  6
CONTINUOUS
 62
     7
100
AcDbLine
 10
695.5407257569993
 20
2433.379521140253
 30
0.0
 11
309.5407257569992
 21
2433.379521140254
 31
0.0
  0
LINE
  5
4F6
330
1F
100
AcDbEntity
  8
LAY-10
  6
CONTINUOUS
 62
     7
100
AcDbLine
 10
712.540725756999
 20
2448.379521140254
 30
0.0
 11
727.5407257569993
 21
2433.379521140254
 31
0.0
  0
LINE
  5
4F7
330
1F
100
AcDbEntity
  8
LAY-10
  6
CONTINUOUS
 62
     7
100
AcDbLine
 10
1113.540725756999
 20
2433.379521140253
 30
0.0
 11
1128.540725757002
 21
2448.379521140253
 31
0.0
  0
LINE
  5
4F8
330
1F
100
AcDbEntity
  8
LAY-10
  6
CONTINUOUS
 62
     7
100
AcDbLine
 10
712.540725756999
 20
2448.379521140254
 30
0.0
 11
1128.540725757002
 21
2448.379521140253
 31
0.0
  0
LINE
  5
4F9
330
1F
100
AcDbEntity
  8
LAY-10
  6
CONTINUOUS
 62
     7
100
AcDbLine
 10
1113.540725756999
 20
2433.379521140253
 30
0.0
 11
727.5407257569993
 21
2433.379521140254
 31
0.0
  0
LINE
  5
4FA
330
1F
100
AcDbEntity
  8
LAY-10
  6
CONTINUOUS
 62
     7
100
AcDbLine
 10
341.5407257569756
 20
2401.379521140203
 30
0.0
 11
341.5407257569756
 21
2433.379521140201
 31
0.0
  0
LINE
  5
4FB
330
1F
100
AcDbEntity
  8
LAY-10
  6
CONTINUOUS
 62
     7
100
AcDbLine
 10
341.5407257569774
 20
2401.379521140203
 30
0.0
 11
309.5407257569774
 21
2401.379521140203
 31
0.0
  0
LINE
  5
4FC
330
1F
100
AcDbEntity
  8
LAY-10
  6
CONTINUOUS
 62
     7
100
AcDbLine
 10
663.5407257569775
 20
2401.379521140203
 30
0.0
 11
663.5407257569775
 21
2433.379521140202
 31
0.0
  0
LINE
  5
4FD
330
1F
100
AcDbEntity
  8
LAY-10
  6
CONTINUOUS
 62
     7
100
AcDbLine
 10
695.5407257569775
 20
2401.379521140203
 30
0.0
 11
663.5407257569775
 21
2401.379521140203
 31
0.0
  0
LINE
  5
4FE
330
1F
100
AcDbEntity
  8
LAY-10
  6
CONTINUOUS
 62
     7
100
AcDbLine
 10
1081.540725756978
 20
2401.379521140204
 30
0.0
 11
1081.540725756978
 21
2433.379521140202
 31
0.0
  0
LINE
  5
4FF
330
1F
100
AcDbEntity
  8
LAY-10
  6
CONTINUOUS
 62
     7
100
AcDbLine
 10
1113.540725756978
 20
2401.379521140204
 30
0.0
 11
1081.540725756978
 21
2401.379521140204
 31
0.0
  0
LINE
  5
500
330
1F
100
AcDbEntity
  8
LAY-10
  6
CONTINUOUS
 62
     7
100
AcDbLine
 10
759.5407257569756
 20
2401.379521140203
 30
0.0
 11
759.5407257569755
 21
2433.379521140202
 31
0.0
  0
LINE
  5
501
330
1F
100
AcDbEntity
  8
LAY-10
  6
CONTINUOUS
 62
     7
100
AcDbLine
 10
759.5407257569775
 20
2401.379521140203
 30
0.0
 11
727.5407257569774
 21
2401.379521140203
 31
0.0
  0
LINE
  5
502
330
1F
100
AcDbEntity
  8
LAY-10
  6
CONTINUOUS
 62
     7
100
AcDbLine
 10
329.5407257570277
 20
2427.879521140203
 30
0.0
 11
329.5407257570277
 21
2429.485821153007
 31
0.0
  0
LINE
  5
503
330
1F
100
AcDbEntity
  8
LAY-10
  6
CONTINUOUS
 62
     7
100
AcDbLine
 10
321.54072575703
 20
2427.879521140203
 30
0.0
 11
321.54072575703
 21
2429.485821153007
 31
0.0
  0
LINE
  5
504
330
1F
100
AcDbEntity
  8
LAY-10
  6
CONTINUOUS
 62
     7
100
AcDbLine
 10
321.54072575703
 20
2427.879521140203
 30
0.0
 11
329.5407257570277
 21
2427.879521140203
 31
0.0
  0
ARC
  5
505
330
1F
100
AcDbEntity
  8
LAY-10
  6
CONTINUOUS
 62
     7
100
AcDbCircle
 10
325.5407257570291
 20
2417.379521140203
 30
0.0
 40
12.75000000000001
100
AcDbArc
 50
108.2838899404037
 51
71.71611005959635
  0
LINE
  5
506
330
1F
100
AcDbEntity
  8
LAY-10
  6
CONTINUOUS
 62
     7
100
AcDbLine
 10
332.0407257570291
 20
2417.379521140203
 30
0.0
 11
325.5407257570291
 21
2421.379521140203
 31
0.0
  0
LINE
  5
507
330
1F
100
AcDbEntity
  8
LAY-10
  6
CONTINUOUS
 62
     7
100
AcDbLine
 10
325.5407257570291
 20
2421.379521140203
 30
0.0
 11
319.0407257570287
 21
2417.379521140203
 31
0.0
  0
LINE
  5
508
330
1F
100
AcDbEntity
  8
LAY-10
  6
CONTINUOUS
 62
     7
100
AcDbLine
 10
319.0407257570287
 20
2417.379521140203
 30
0.0
 11
325.5407257570291
 21
2413.379521140203
 31
0.0
  0
LINE
  5
509
330
1F
100
AcDbEntity
  8
LAY-10
  6
CONTINUOUS
 62
     7
100
AcDbLine
 10
325.5407257570291
 20
2413.379521140203
 30
0.0
 11
332.0407257570291
 21
2417.379521140203
 31
0.0
  0
CIRCLE
  5
50A
330
1F
100
AcDbEntity
  8
LAY-10
  6
CONTINUOUS
 62
     7
100
AcDbCircle
 10
325.5407257569798
 20
2417.379521140206
 30
0.0
 40
13.0
  0
LINE
  5
50B
330
1F
100
AcDbEntity
  8
LAY-10
  6
CONTINUOUS
 62
     7
100
AcDbLine
 10
683.540725756978
 20
2427.879521140203
 30
0.0
 11
683.540725756978
 21
2429.485821153008
 31
0.0
  0
LINE
  5
50C
330
1F
100
AcDbEntity
  8
LAY-10
  6
CONTINUOUS
 62
     7
100
AcDbLine
 10
675.5407257569802
 20
2427.879521140203
 30
0.0
 11
675.5407257569802
 21
2429.485821153008
 31
0.0
  0
LINE
  5
50D
330
1F
100
AcDbEntity
  8
LAY-10
  6
CONTINUOUS
 62
     7
100
AcDbLine
 10
675.5407257569802
 20
2427.879521140203
 30
0.0
 11
683.540725756978
 21
2427.879521140203
 31
0.0
  0
ARC
  5
50E
330
1F
100
AcDbEntity
  8
LAY-10
  6
CONTINUOUS
 62
     7
100
AcDbCircle
 10
679.5407257569793
 20
2417.379521140203
 30
0.0
 40
12.75000000000001
100
AcDbArc
 50
108.2838899404038
 51
71.71611005959727
  0
LINE
  5
50F
330
1F
100
AcDbEntity
  8
LAY-10
  6
CONTINUOUS
 62
     7
100
AcDbLine
 10
686.0407257569793
 20
2417.379521140203
 30
0.0
 11
679.5407257569793
 21
2421.379521140203
 31
0.0
  0
LINE
  5
510
330
1F
100
AcDbEntity
  8
LAY-10
  6
CONTINUOUS
 62
     7
100
AcDbLine
 10
679.5407257569793
 20
2421.379521140203
 30
0.0
 11
673.0407257569789
 21
2417.379521140203
 31
0.0
  0
LINE
  5
511
330
1F
100
AcDbEntity
  8
LAY-10
  6
CONTINUOUS
 62
     7
100
AcDbLine
 10
673.0407257569789
 20
2417.379521140203
 30
0.0
 11
679.5407257569793
 21
2413.379521140203
 31
0.0
  0
LINE
  5
512
330
1F
100
AcDbEntity
  8
LAY-10
  6
CONTINUOUS
 62
     7
100
AcDbLine
 10
679.5407257569793
 20
2413.379521140203
 30
0.0
 11
686.0407257569793
 21
2417.379521140203
 31
0.0
  0
CIRCLE
  5
513
330
1F
100
AcDbEntity
  8
LAY-10
  6
CONTINUOUS
 62
     7
100
AcDbCircle
 10
679.54072575693
 20
2417.379521140206
 30
0.0
 40
13.0
  0
LINE
  5
514
330
1F
100
AcDbEntity
  8
LAY-10
  6
CONTINUOUS
 62
     7
100
AcDbLine
 10
747.540725756978
 20
2427.879521140204
 30
0.0
 11
747.540725756978
 21
2429.485821153008
 31
0.0
  0
LINE
  5
515
330
1F
100
AcDbEntity
  8
LAY-10
  6
CONTINUOUS
 62
     7
100
AcDbLine
 10
739.5407257569801
 20
2427.879521140203
 30
0.0
 11
739.5407257569801
 21
2429.485821153008
 31
0.0
  0
LINE
  5
516
330
1F
100
AcDbEntity
  8
LAY-10
  6
CONTINUOUS
 62
     7
100
AcDbLine
 10
739.5407257569801
 20
2427.879521140203
 30
0.0
 11
747.540725756978
 21
2427.879521140204
 31
0.0
  0
ARC
  5
517
330
1F
100
AcDbEntity
  8
LAY-10
  6
CONTINUOUS
 62
     7
100
AcDbCircle
 10
743.5407257569793
 20
2417.379521140204
 30
0.0
 40
12.75000000000001
100
AcDbArc
 50
108.2838899404044
 51
71.71611005959663
  0
LINE
  5
518
330
1F
100
AcDbEntity
  8
LAY-10
  6
CONTINUOUS
 62
     7
100
AcDbLine
 10
750.0407257569793
 20
2417.379521140204
 30
0.0
 11
743.5407257569793
 21
2421.379521140204
 31
0.0
  0
LINE
  5
519
330
1F
100
AcDbEntity
  8
LAY-10
  6
CONTINUOUS
 62
     7
100
AcDbLine
 10
743.5407257569793
 20
2421.379521140204
 30
0.0
 11
737.0407257569789
 21
2417.379521140204
 31
0.0
  0
LINE
  5
51A
330
1F
100
AcDbEntity
  8
LAY-10
  6
CONTINUOUS
 62
     7
100
AcDbLine
 10
737.0407257569789
 20
2417.379521140204
 30
0.0
 11
743.5407257569793
 21
2413.379521140204
 31
0.0
  0
LINE
  5
51B
330
1F
100
AcDbEntity
  8
LAY-10
  6
CONTINUOUS
 62
     7
100
AcDbLine
 10
743.5407257569793
 20
2413.379521140204
 30
0.0
 11
750.0407257569793
 21
2417.379521140204
 31
0.0
  0
CIRCLE
  5
51C
330
1F
100
AcDbEntity
  8
LAY-10
  6
CONTINUOUS
 62
     7
100
AcDbCircle
 10
743.5407257569299
 20
2417.379521140206
 30
0.0
 40
13.0
  0
LINE
  5
51D
330
1F
100
AcDbEntity
  8
LAY-10
  6
CONTINUOUS
 62
     7
100
AcDbLine
 10
1101.540725756998
 20
2427.879521140204
 30
0.0
 11
1101.540725756998
 21
2429.485821153008
 31
0.0
  0
LINE
  5
51E
330
1F
100
AcDbEntity
  8
LAY-10
  6
CONTINUOUS
 62
     7
100
AcDbLine
 10
1093.540725757
 20
2427.879521140204
 30
0.0
 11
1093.540725757
 21
2429.485821153008
 31
0.0
  0
LINE
  5
51F
330
1F
100
AcDbEntity
  8
LAY-10
  6
CONTINUOUS
 62
     7
100
AcDbLine
 10
1093.540725757
 20
2427.879521140204
 30
0.0
 11
1101.540725756998
 21
2427.879521140204
 31
0.0
  0
ARC
  5
520
330
1F
100
AcDbEntity
  8
LAY-10
  6
CONTINUOUS
 62
     7
100
AcDbCircle
 10
1097.540725756999
 20
2417.379521140204
 30
0.0
 40
12.75000000000001
100
AcDbArc
 50
108.2838899404028
 51
71.71611005959727
  0
LINE
  5
521
330
1F
100
AcDbEntity
  8
LAY-10
  6
CONTINUOUS
 62
     7
100
AcDbLine
 10
1104.040725756999
 20
2417.379521140204
 30
0.0
 11
1097.540725756999
 21
2421.379521140204
 31
0.0
  0
LINE
  5
522
330
1F
100
AcDbEntity
  8
LAY-10
  6
CONTINUOUS
 62
     7
100
AcDbLine
 10
1097.540725756999
 20
2421.379521140204
 30
0.0
 11
1091.040725756999
 21
2417.379521140204
 31
0.0
  0
LINE
  5
523
330
1F
100
AcDbEntity
  8
LAY-10
  6
CONTINUOUS
 62
     7
100
AcDbLine
 10
1091.040725756999
 20
2417.379521140204
 30
0.0
 11
1097.540725756999
 21
2413.379521140204
 31
0.0
  0
LINE
  5
524
330
1F
100
AcDbEntity
  8
LAY-10
  6
CONTINUOUS
 62
     7
100
AcDbLine
 10
1097.540725756999
 20
2413.379521140204
 30
0.0
 11
1104.040725756999
 21
2417.379521140204
 31
0.0
  0
CIRCLE
  5
525
330
1F
100
AcDbEntity
  8
LAY-10
  6
CONTINUOUS
 62
     7
100
AcDbCircle
 10
1097.54072575695
 20
2417.379521140206
 30
0.0
 40
13.0
  0
LINE
  5
526
330
1F
100
AcDbEntity
  8
LAY-10
  6
CONTINUOUS
 62
     7
100
AcDbLine
 10
384.0407257569585
 20
2464.379521140048
 30
0.0
 11
384.0407257569585
 21
2493.278005949886
 31
0.0
  0
LINE
  5
527
330
1F
100
AcDbEntity
  8
LAY-10
  6
CONTINUOUS
 62
     7
100
AcDbLine
 10
375.0407257569562
 20
2464.379521140048
 30
0.0
 11
375.0407257569562
 21
2493.278005949886
 31
0.0
  0
LINE
  5
528
330
1F
100
AcDbEntity
  8
LAY-10
  6
CONTINUOUS
 62
     7
100
AcDbLine
 10
384.0407257569585
 20
2493.278005949886
 30
0.0
 11
375.0407257569562
 21
2493.278005949886
 31
0.0
  0
LINE
  5
529
330
1F
100
AcDbEntity
  8
LAY-10
  6
CONTINUOUS
 62
     7
100
AcDbLine
 10
884.0407257569584
 20
2464.379521140048
 30
0.0
 11
884.0407257569584
 21
2493.278005949886
 31
0.0
  0
LINE
  5
52A
330
1F
100
AcDbEntity
  8
LAY-10
  6
CONTINUOUS
 62
     7
100
AcDbLine
 10
875.0407257569561
 20
2464.379521140048
 30
0.0
 11
875.0407257569561
 21
2493.278005949886
 31
0.0
  0
LINE
  5
52B
330
1F
100
AcDbEntity
  8
LAY-10
  6
CONTINUOUS
 62
     7
100
AcDbLine
 10
884.0407257569584
 20
2493.278005949886
 30
0.0
 11
875.0407257569561
 21
2493.278005949886
 31
0.0
  0
LINE
  5
52C
330
1F
100
AcDbEntity
  8
LAY-10
  6
CONTINUOUS
 62
     7
100
AcDbLine
 10
1875.040725756952
 20
2464.379521140045
 30
0.0
 11
1875.040725756953
 21
2493.278005949883
 31
0.0
  0
LINE
  5
52D
330
1F
100
AcDbEntity
  8
LAY-10
  6
CONTINUOUS
 62
     7
100
AcDbLine
 10
1884.040725756955
 20
2464.379521140045
 30
0.0
 11
1884.040725756955
 21
2493.278005949883
 31
0.0
  0
LINE
  5
52E
330
1F
100
AcDbEntity
  8
LAY-10
  6
CONTINUOUS
 62
     7
100
AcDbLine
 10
1875.040725756953
 20
2493.278005949883
 30
0.0
 11
1884.040725756955
 21
2493.278005949883
 31
0.0
  0
LINE
  5
52F
330
1F
100
AcDbEntity
  8
LAY-10
  6
CONTINUOUS
 62
     7
100
AcDbLine
 10
1375.040725756953
 20
2464.379521140047
 30
0.0
 11
1375.040725756953
 21
2493.278005949885
 31
0.0
  0
LINE
  5
530
330
1F
100
AcDbEntity
  8
LAY-10
  6
CONTINUOUS
 62
     7
100
AcDbLine
 10
1384.040725756955
 20
2464.379521140047
 30
0.0
 11
1384.040725756955
 21
2493.278005949885
 31
0.0
  0
LINE
  5
531
330
1F
100
AcDbEntity
  8
LAY-10
  6
CONTINUOUS
 62
     7
100
AcDbLine
 10
1375.040725756953
 20
2493.278005949885
 30
0.0
 11
1384.040725756955
 21
2493.278005949885
 31
0.0
  0
LINE
  5
532
330
1F
100
AcDbEntity
  8
LAY-10
  6
CONTINUOUS
 62
     7
100
AcDbLine
 10
384.0407257569591
 20
1362.379521140258
 30
0.0
 11
384.0407257569591
 21
1333.48103633042
 31
0.0
  0
LINE
  5
533
330
1F
100
AcDbEntity
  8
LAY-10
  6
CONTINUOUS
 62
     7
100
AcDbLine
 10
375.0407257569568
 20
1362.379521140258
 30
0.0
 11
375.0407257569568
 21
1333.48103633042
 31
0.0
  0
LINE
  5
534
330
1F
100
AcDbEntity
  8
LAY-10
  6
CONTINUOUS
 62
     7
100
AcDbLine
 10
384.0407257569591
 20
1333.48103633042
 30
0.0
 11
375.0407257569568
 21
1333.48103633042
 31
0.0
  0
LINE
  5
535
330
1F
100
AcDbEntity
  8
LAY-10
  6
CONTINUOUS
 62
     7
100
AcDbLine
 10
884.0407257569592
 20
1362.379521140259
 30
0.0
 11
884.0407257569592
 21
1333.481036330421
 31
0.0
  0
LINE
  5
536
330
1F
100
AcDbEntity
  8
LAY-10
  6
CONTINUOUS
 62
     7
100
AcDbLine
 10
875.0407257569568
 20
1362.379521140259
 30
0.0
 11
875.0407257569568
 21
1333.481036330421
 31
0.0
  0
LINE
  5
537
330
1F
100
AcDbEntity
  8
LAY-10
  6
CONTINUOUS
 62
     7
100
AcDbLine
 10
884.0407257569592
 20
1333.481036330421
 30
0.0
 11
875.0407257569568
 21
1333.481036330421
 31
0.0
  0
LINE
  5
538
330
1F
100
AcDbEntity
  8
LAY-10
  6
CONTINUOUS
 62
     7
100
AcDbLine
 10
1875.040725756953
 20
1362.379521140263
 30
0.0
 11
1875.040725756953
 21
1333.481036330425
 31
0.0
  0
LINE
  5
539
330
1F
100
AcDbEntity
  8
LAY-10
  6
CONTINUOUS
 62
     7
100
AcDbLine
 10
1884.040725756955
 20
1362.379521140263
 30
0.0
 11
1884.040725756956
 21
1333.481036330425
 31
0.0
  0
LINE
  5
53A
330
1F
100
AcDbEntity
  8
LAY-10
  6
CONTINUOUS
 62
     7
100
AcDbLine
 10
1875.040725756953
 20
1333.481036330425
 30
0.0
 11
1884.040725756956
 21
1333.481036330425
 31
0.0
  0
LINE
  5
53B
330
1F
100
AcDbEntity
  8
LAY-10
  6
CONTINUOUS
 62
     7
100
AcDbLine
 10
1375.040725756953
 20
1362.37952114026
 30
0.0
 11
1375.040725756953
 21
1333.481036330422
 31
0.0
  0
LINE
  5
53C
330
1F
100
AcDbEntity
  8
LAY-10
  6
CONTINUOUS
 62
     7
100
AcDbLine
 10
1384.040725756955
 20
1362.37952114026
 30
0.0
 11
1384.040725756956
 21
1333.481036330422
 31
0.0
  0
LINE
  5
53D
330
1F
100
AcDbEntity
  8
LAY-10
  6
CONTINUOUS
 62
     7
100
AcDbLine
 10
1375.040725756953
 20
1333.481036330422
 30
0.0
 11
1384.040725756956
 21
1333.481036330422
 31
0.0
  0
LINE
  5
53E
330
1F
100
AcDbEntity
  8
LAY-10
  6
CONTINUOUS
 62
     7
100
AcDbLine
 10
1130.5407257569
 20
1378.379521140052
 30
0.0
 11
1145.5407257569
 21
1393.379521140052
 31
0.0
  0
LINE
  5
53F
330
1F
100
AcDbEntity
  8
LAY-10
  6
CONTINUOUS
 62
     7
100
AcDbLine
 10
1531.5407257569
 20
1393.379521140053
 30
0.0
 11
1546.540725756902
 21
1378.379521140053
 31
0.0
  0
LINE
  5
540
330
1F
100
AcDbEntity
  8
LAY-10
  6
CONTINUOUS
 62
     7
100
AcDbLine
 10
1130.5407257569
 20
1378.379521140052
 30
0.0
 11
1546.540725756902
 21
1378.379521140053
 31
0.0
  0
LINE
  5
541
330
1F
100
AcDbEntity
  8
LAY-10
  6
CONTINUOUS
 62
     7
100
AcDbLine
 10
1531.5407257569
 20
1393.379521140053
 30
0.0
 11
1145.5407257569
 21
1393.379521140052
 31
0.0
  0
LINE
  5
542
330
1F
100
AcDbEntity
  8
LAY-10
  6
CONTINUOUS
 62
     7
100
AcDbLine
 10
1548.5407257569
 20
1378.379521140052
 30
0.0
 11
1563.5407257569
 21
1393.379521140052
 31
0.0
  0
LINE
  5
543
330
1F
100
AcDbEntity
  8
LAY-10
  6
CONTINUOUS
 62
     7
100
AcDbLine
 10
1949.5407257569
 20
1393.379521140053
 30
0.0
 11
1964.540725756902
 21
1378.379521140053
 31
0.0
  0
LINE
  5
544
330
1F
100
AcDbEntity
  8
LAY-10
  6
CONTINUOUS
 62
     7
100
AcDbLine
 10
1548.5407257569
 20
1378.379521140052
 30
0.0
 11
1964.540725756902
 21
1378.379521140053
 31
0.0
  0
LINE
  5
545
330
1F
100
AcDbEntity
  8
LAY-10
  6
CONTINUOUS
 62
     7
100
AcDbLine
 10
1949.5407257569
 20
1393.379521140053
 30
0.0
 11
1563.5407257569
 21
1393.379521140052
 31
0.0
  0
LINE
  5
546
330
1F
100
AcDbEntity
  8
LAY-10
  6
CONTINUOUS
 62
     7
100
AcDbLine
 10
1177.540725756876
 20
1425.379521140103
 30
0.0
 11
1177.540725756876
 21
1393.379521140105
 31
0.0
  0
LINE
  5
547
330
1F
100
AcDbEntity
  8
LAY-10
  6
CONTINUOUS
 62
     7
100
AcDbLine
 10
1177.540725756878
 20
1425.379521140103
 30
0.0
 11
1145.540725756878
 21
1425.379521140103
 31
0.0
  0
LINE
  5
548
330
1F
100
AcDbEntity
  8
LAY-10
  6
CONTINUOUS
 62
     7
100
AcDbLine
 10
1499.540725756878
 20
1425.379521140103
 30
0.0
 11
1499.540725756878
 21
1393.379521140105
 31
0.0
  0
LINE
  5
549
330
1F
100
AcDbEntity
  8
LAY-10
  6
CONTINUOUS
 62
     7
100
AcDbLine
 10
1531.540725756878
 20
1425.379521140103
 30
0.0
 11
1499.540725756878
 21
1425.379521140103
 31
0.0
  0
LINE
  5
54A
330
1F
100
AcDbEntity
  8
LAY-10
  6
CONTINUOUS
 62
     7
100
AcDbLine
 10
1917.540725756879
 20
1425.379521140103
 30
0.0
 11
1917.540725756879
 21
1393.379521140105
 31
0.0
  0
LINE
  5
54B
330
1F
100
AcDbEntity
  8
LAY-10
  6
CONTINUOUS
 62
     7
100
AcDbLine
 10
1949.540725756878
 20
1425.379521140103
 30
0.0
 11
1917.540725756879
 21
1425.379521140103
 31
0.0
  0
LINE
  5
54C
330
1F
100
AcDbEntity
  8
LAY-10
  6
CONTINUOUS
 62
     7
100
AcDbLine
 10
1595.540725756876
 20
1425.379521140103
 30
0.0
 11
1595.540725756876
 21
1393.379521140105
 31
0.0
  0
LINE
  5
54D
330
1F
100
AcDbEntity
  8
LAY-10
  6
CONTINUOUS
 62
     7
100
AcDbLine
 10
1595.540725756878
 20
1425.379521140103
 30
0.0
 11
1563.540725756878
 21
1425.379521140103
 31
0.0
  0
LINE
  5
54E
330
1F
100
AcDbEntity
  8
LAY-10
  6
CONTINUOUS
 62
     7
100
AcDbLine
 10
1636.540725756967
 20
1393.379521140053
 30
0.0
 11
1636.540725756971
 21
2433.379521140055
 31
0.0
  0
LINE
  5
54F
330
1F
100
AcDbEntity
  8
LAY-10
  6
CONTINUOUS
 62
     7
100
AcDbLine
 10
1644.040725756967
 20
1393.379521140053
 30
0.0
 11
1644.040725756971
 21
2433.379521140053
 31
0.0
  0
LINE
  5
550
330
1F
100
AcDbEntity
  8
LAY-10
  6
CONTINUOUS
 62
     7
100
AcDbLine
 10
1669.040725756965
 20
1393.379521140053
 30
0.0
 11
1669.040725756971
 21
2433.379521140053
 31
0.0
  0
LINE
  5
551
330
1F
100
AcDbEntity
  8
LAY-10
  6
CONTINUOUS
 62
     7
100
AcDbLine
 10
1676.540725756965
 20
1393.379521140053
 30
0.0
 11
1676.540725756971
 21
2433.379521140053
 31
0.0
  0
LINE
  5
552
330
1F
100
AcDbEntity
  8
LAY-10
  6
CONTINUOUS
 62
     7
100
AcDbLine
 10
1836.540725756991
 20
1393.379521140053
 30
0.0
 11
1836.540725756989
 21
2433.379521140053
 31
0.0
  0
LINE
  5
553
330
1F
100
AcDbEntity
  8
LAY-10
  6
CONTINUOUS
 62
     7
100
AcDbLine
 10
1844.040725756991
 20
1393.379521140053
 30
0.0
 11
1844.040725756989
 21
2433.379521140053
 31
0.0
  0
LINE
  5
554
330
1F
100
AcDbEntity
  8
LAY-10
  6
CONTINUOUS
 62
     7
100
AcDbLine
 10
1869.040725756991
 20
1393.379521140053
 30
0.0
 11
1869.040725756987
 21
2433.379521140053
 31
0.0
  0
LINE
  5
555
330
1F
100
AcDbEntity
  8
LAY-10
  6
CONTINUOUS
 62
     7
100
AcDbLine
 10
1876.540725756991
 20
1393.379521140053
 30
0.0
 11
1876.540725756987
 21
2433.379521140055
 31
0.0
  0
LINE
  5
556
330
1F
100
AcDbEntity
  8
LAY-10
  6
CONTINUOUS
 62
     7
100
AcDbLine
 10
1949.5407257569
 20
2433.379521140053
 30
0.0
 11
1949.5407257569
 21
1393.379521140053
 31
0.0
  0
LINE
  5
557
330
1F
100
AcDbEntity
  8
LAY-10
  6
CONTINUOUS
 62
     7
100
AcDbLine
 10
1964.540725756902
 20
1378.379521140053
 30
0.0
 11
1964.5407257569
 21
2448.379521140053
 31
0.0
  0
LINE
  5
558
330
1F
100
AcDbEntity
  8
LAY-10
  6
CONTINUOUS
 62
     7
100
AcDbLine
 10
1563.5407257569
 20
1393.379521140052
 30
0.0
 11
1563.5407257569
 21
2433.379521140052
 31
0.0
  0
LINE
  5
559
330
1F
100
AcDbEntity
  8
LAY-10
  6
CONTINUOUS
 62
     7
100
AcDbLine
 10
1548.5407257569
 20
2448.379521140052
 30
0.0
 11
1548.5407257569
 21
1378.379521140052
 31
0.0
  0
LINE
  5
55A
330
1F
100
AcDbEntity
  8
LAY-10
  6
CONTINUOUS
 62
     7
100
AcDbLine
 10
1251.040725756965
 20
1393.379521140053
 30
0.0
 11
1251.040725756971
 21
2433.379521140053
 31
0.0
  0
LINE
  5
55B
330
1F
100
AcDbEntity
  8
LAY-10
  6
CONTINUOUS
 62
     7
100
AcDbLine
 10
1258.540725756965
 20
1393.379521140053
 30
0.0
 11
1258.540725756971
 21
2433.379521140053
 31
0.0
  0
LINE
  5
55C
330
1F
100
AcDbEntity
  8
LAY-10
  6
CONTINUOUS
 62
     7
100
AcDbLine
 10
1418.54072575699
 20
1393.379521140053
 30
0.0
 11
1418.540725756989
 21
2433.379521140053
 31
0.0
  0
LINE
  5
55D
330
1F
100
AcDbEntity
  8
LAY-10
  6
CONTINUOUS
 62
     7
100
AcDbLine
 10
1426.04072575699
 20
1393.379521140053
 30
0.0
 11
1426.040725756989
 21
2433.379521140053
 31
0.0
  0
LINE
  5
55E
330
1F
100
AcDbEntity
  8
LAY-10
  6
CONTINUOUS
 62
     7
100
AcDbLine
 10
1451.04072575699
 20
1393.379521140053
 30
0.0
 11
1451.040725756987
 21
2433.379521140053
 31
0.0
  0
LINE
  5
55F
330
1F
100
AcDbEntity
  8
LAY-10
  6
CONTINUOUS
 62
     7
100
AcDbLine
 10
1458.54072575699
 20
1393.379521140053
 30
0.0
 11
1458.540725756987
 21
2433.379521140055
 31
0.0
  0
LINE
  5
560
330
1F
100
AcDbEntity
  8
LAY-10
  6
CONTINUOUS
 62
     7
100
AcDbLine
 10
1531.5407257569
 20
2433.379521140053
 30
0.0
 11
1531.5407257569
 21
1393.379521140053
 31
0.0
  0
LINE
  5
561
330
1F
100
AcDbEntity
  8
LAY-10
  6
CONTINUOUS
 62
     7
100
AcDbLine
 10
1546.540725756902
 20
1378.379521140053
 30
0.0
 11
1546.5407257569
 21
2448.379521140053
 31
0.0
  0
LINE
  5
562
330
1F
100
AcDbEntity
  8
LAY-10
  6
CONTINUOUS
 62
     7
100
AcDbLine
 10
1218.540725756967
 20
1393.379521140053
 30
0.0
 11
1218.540725756971
 21
2433.379521140055
 31
0.0
  0
LINE
  5
563
330
1F
100
AcDbEntity
  8
LAY-10
  6
CONTINUOUS
 62
     7
100
AcDbLine
 10
1226.040725756967
 20
1393.379521140053
 30
0.0
 11
1226.040725756971
 21
2433.379521140053
 31
0.0
  0
LINE
  5
564
330
1F
100
AcDbEntity
  8
LAY-10
  6
CONTINUOUS
 62
     7
100
AcDbLine
 10
1145.5407257569
 20
1393.379521140052
 30
0.0
 11
1145.5407257569
 21
2433.379521140052
 31
0.0
  0
LINE
  5
565
330
1F
100
AcDbEntity
  8
LAY-10
  6
CONTINUOUS
 62
     7
100
AcDbLine
 10
1130.5407257569
 20
2448.379521140052
 30
0.0
 11
1130.5407257569
 21
1378.379521140052
 31
0.0
  0
LINE
  5
566
330
1F
100
AcDbEntity
  8
LAY-10
  6
CONTINUOUS
 62
     7
100
AcDbLine
 10
1165.540725756928
 20
1398.879521140102
 30
0.0
 11
1165.540725756928
 21
1397.273221127299
 31
0.0
  0
LINE
  5
567
330
1F
100
AcDbEntity
  8
LAY-10
  6
CONTINUOUS
 62
     7
100
AcDbLine
 10
1157.54072575693
 20
1398.879521140102
 30
0.0
 11
1157.54072575693
 21
1397.273221127299
 31
0.0
  0
LINE
  5
568
330
1F
100
AcDbEntity
  8
LAY-10
  6
CONTINUOUS
 62
     7
100
AcDbLine
 10
1157.54072575693
 20
1398.879521140102
 30
0.0
 11
1165.540725756928
 21
1398.879521140102
 31
0.0
  0
ARC
  5
569
330
1F
100
AcDbEntity
  8
LAY-10
  6
CONTINUOUS
 62
     7
100
AcDbCircle
 10
1161.54072575693
 20
1409.379521140102
 30
0.0
 40
12.75000000000001
100
AcDbArc
 50
288.2838899404034
 51
251.7161100595966
  0
LINE
  5
56A
330
1F
100
AcDbEntity
  8
LAY-10
  6
CONTINUOUS
 62
     7
100
AcDbLine
 10
1168.04072575693
 20
1409.379521140102
 30
0.0
 11
1161.54072575693
 21
1405.379521140102
 31
0.0
  0
LINE
  5
56B
330
1F
100
AcDbEntity
  8
LAY-10
  6
CONTINUOUS
 62
     7
100
AcDbLine
 10
1161.54072575693
 20
1405.379521140102
 30
0.0
 11
1155.040725756929
 21
1409.379521140102
 31
0.0
  0
LINE
  5
56C
330
1F
100
AcDbEntity
  8
LAY-10
  6
CONTINUOUS
 62
     7
100
AcDbLine
 10
1155.040725756929
 20
1409.379521140102
 30
0.0
 11
1161.54072575693
 21
1413.379521140102
 31
0.0
  0
LINE
  5
56D
330
1F
100
AcDbEntity
  8
LAY-10
  6
CONTINUOUS
 62
     7
100
AcDbLine
 10
1161.54072575693
 20
1413.379521140102
 30
0.0
 11
1168.04072575693
 21
1409.379521140102
 31
0.0
  0
CIRCLE
  5
56E
330
1F
100
AcDbEntity
  8
LAY-10
  6
CONTINUOUS
 62
     7
100
AcDbCircle
 10
1161.54072575688
 20
1409.379521140101
 30
0.0
 40
13.0
  0
LINE
  5
56F
330
1F
100
AcDbEntity
  8
LAY-10
  6
CONTINUOUS
 62
     7
100
AcDbLine
 10
1519.540725756878
 20
1398.879521140102
 30
0.0
 11
1519.540725756878
 21
1397.273221127299
 31
0.0
  0
LINE
  5
570
330
1F
100
AcDbEntity
  8
LAY-10
  6
CONTINUOUS
 62
     7
100
AcDbLine
 10
1511.540725756881
 20
1398.879521140102
 30
0.0
 11
1511.540725756881
 21
1397.273221127299
 31
0.0
  0
LINE
  5
571
330
1F
100
AcDbEntity
  8
LAY-10
  6
CONTINUOUS
 62
     7
100
AcDbLine
 10
1511.540725756881
 20
1398.879521140102
 30
0.0
 11
1519.540725756878
 21
1398.879521140102
 31
0.0
  0
ARC
  5
572
330
1F
100
AcDbEntity
  8
LAY-10
  6
CONTINUOUS
 62
     7
100
AcDbCircle
 10
1515.54072575688
 20
1409.379521140102
 30
0.0
 40
12.75000000000001
100
AcDbArc
 50
288.2838899404034
 51
251.7161100595966
  0
LINE
  5
573
330
1F
100
AcDbEntity
  8
LAY-10
  6
CONTINUOUS
 62
     7
100
AcDbLine
 10
1522.04072575688
 20
1409.379521140102
 30
0.0
 11
1515.54072575688
 21
1405.379521140102
 31
0.0
  0
LINE
  5
574
330
1F
100
AcDbEntity
  8
LAY-10
  6
CONTINUOUS
 62
     7
100
AcDbLine
 10
1515.54072575688
 20
1405.379521140102
 30
0.0
 11
1509.040725756879
 21
1409.379521140102
 31
0.0
  0
LINE
  5
575
330
1F
100
AcDbEntity
  8
LAY-10
  6
CONTINUOUS
 62
     7
100
AcDbLine
 10
1509.040725756879
 20
1409.379521140102
 30
0.0
 11
1515.54072575688
 21
1413.379521140102
 31
0.0
  0
LINE
  5
576
330
1F
100
AcDbEntity
  8
LAY-10
  6
CONTINUOUS
 62
     7
100
AcDbLine
 10
1515.54072575688
 20
1413.379521140102
 30
0.0
 11
1522.04072575688
 21
1409.379521140102
 31
0.0
  0
CIRCLE
  5
577
330
1F
100
AcDbEntity
  8
LAY-10
  6
CONTINUOUS
 62
     7
100
AcDbCircle
 10
1515.54072575683
 20
1409.379521140101
 30
0.0
 40
13.0
  0
LINE
  5
578
330
1F
100
AcDbEntity
  8
LAY-10
  6
CONTINUOUS
 62
     7
100
AcDbLine
 10
1583.540725756878
 20
1398.879521140102
 30
0.0
 11
1583.540725756878
 21
1397.273221127299
 31
0.0
  0
LINE
  5
579
330
1F
100
AcDbEntity
  8
LAY-10
  6
CONTINUOUS
 62
     7
100
AcDbLine
 10
1575.540725756881
 20
1398.879521140102
 30
0.0
 11
1575.540725756881
 21
1397.273221127299
 31
0.0
  0
LINE
  5
57A
330
1F
100
AcDbEntity
  8
LAY-10
  6
CONTINUOUS
 62
     7
100
AcDbLine
 10
1575.540725756881
 20
1398.879521140102
 30
0.0
 11
1583.540725756878
 21
1398.879521140102
 31
0.0
  0
ARC
  5
57B
330
1F
100
AcDbEntity
  8
LAY-10
  6
CONTINUOUS
 62
     7
100
AcDbCircle
 10
1579.54072575688
 20
1409.379521140102
 30
0.0
 40
12.75000000000001
100
AcDbArc
 50
288.2838899404034
 51
251.7161100595966
  0
LINE
  5
57C
330
1F
100
AcDbEntity
  8
LAY-10
  6
CONTINUOUS
 62
     7
100
AcDbLine
 10
1586.04072575688
 20
1409.379521140102
 30
0.0
 11
1579.54072575688
 21
1405.379521140102
 31
0.0
  0
LINE
  5
57D
330
1F
100
AcDbEntity
  8
LAY-10
  6
CONTINUOUS
 62
     7
100
AcDbLine
 10
1579.54072575688
 20
1405.379521140102
 30
0.0
 11
1573.040725756879
 21
1409.379521140102
 31
0.0
  0
LINE
  5
57E
330
1F
100
AcDbEntity
  8
LAY-10
  6
CONTINUOUS
 62
     7
100
AcDbLine
 10
1573.040725756879
 20
1409.379521140102
 30
0.0
 11
1579.54072575688
 21
1413.379521140102
 31
0.0
  0
LINE
  5
57F
330
1F
100
AcDbEntity
  8
LAY-10
  6
CONTINUOUS
 62
     7
100
AcDbLine
 10
1579.54072575688
 20
1413.379521140102
 30
0.0
 11
1586.04072575688
 21
1409.379521140102
 31
0.0
  0
CIRCLE
  5
580
330
1F
100
AcDbEntity
  8
LAY-10
  6
CONTINUOUS
 62
     7
100
AcDbCircle
 10
1579.54072575683
 20
1409.379521140101
 30
0.0
 40
13.0
  0
LINE
  5
581
330
1F
100
AcDbEntity
  8
LAY-10
  6
CONTINUOUS
 62
     7
100
AcDbLine
 10
1937.540725756898
 20
1398.879521140102
 30
0.0
 11
1937.540725756898
 21
1397.273221127299
 31
0.0
  0
LINE
  5
582
330
1F
100
AcDbEntity
  8
LAY-10
  6
CONTINUOUS
 62
     7
100
AcDbLine
 10
1929.5407257569
 20
1398.879521140102
 30
0.0
 11
1929.5407257569
 21
1397.273221127299
 31
0.0
  0
LINE
  5
583
330
1F
100
AcDbEntity
  8
LAY-10
  6
CONTINUOUS
 62
     7
100
AcDbLine
 10
1929.5407257569
 20
1398.879521140102
 30
0.0
 11
1937.540725756898
 21
1398.879521140102
 31
0.0
  0
ARC
  5
584
330
1F
100
AcDbEntity
  8
LAY-10
  6
CONTINUOUS
 62
     7
100
AcDbCircle
 10
1933.5407257569
 20
1409.379521140102
 30
0.0
 40
12.75000000000001
100
AcDbArc
 50
288.2838899404034
 51
251.7161100595966
  0
LINE
  5
585
330
1F
100
AcDbEntity
  8
LAY-10
  6
CONTINUOUS
 62
     7
100
AcDbLine
 10
1940.0407257569
 20
1409.379521140102
 30
0.0
 11
1933.5407257569
 21
1405.379521140102
 31
0.0
  0
LINE
  5
586
330
1F
100
AcDbEntity
  8
LAY-10
  6
CONTINUOUS
 62
     7
100
AcDbLine
 10
1933.5407257569
 20
1405.379521140102
 30
0.0
 11
1927.040725756899
 21
1409.379521140102
 31
0.0
  0
LINE
  5
587
330
1F
100
AcDbEntity
  8
LAY-10
  6
CONTINUOUS
 62
     7
100
AcDbLine
 10
1927.040725756899
 20
1409.379521140102
 30
0.0
 11
1933.5407257569
 21
1413.379521140102
 31
0.0
  0
LINE
  5
588
330
1F
100
AcDbEntity
  8
LAY-10
  6
CONTINUOUS
 62
     7
100
AcDbLine
 10
1933.5407257569
 20
1413.379521140102
 30
0.0
 11
1940.0407257569
 21
1409.379521140102
 31
0.0
  0
CIRCLE
  5
589
330
1F
100
AcDbEntity
  8
LAY-10
  6
CONTINUOUS
 62
     7
100
AcDbCircle
 10
1933.54072575685
 20
1409.379521140101
 30
0.0
 40
13.0
  0
LINE
  5
58A
330
1F
100
AcDbEntity
  8
LAY-10
  6
CONTINUOUS
 62
     7
100
AcDbLine
 10
1130.540725756899
 20
2448.379521140254
 30
0.0
 11
1145.540725756899
 21
2433.379521140254
 31
0.0
  0
LINE
  5
58B
330
1F
100
AcDbEntity
  8
LAY-10
  6
CONTINUOUS
 62
     7
100
AcDbLine
 10
1531.540725756899
 20
2433.379521140253
 30
0.0
 11
1546.540725756901
 21
2448.379521140253
 31
0.0
  0
LINE
  5
58C
330
1F
100
AcDbEntity
  8
LAY-10
  6
CONTINUOUS
 62
     7
100
AcDbLine
 10
1130.540725756899
 20
2448.379521140254
 30
0.0
 11
1546.540725756901
 21
2448.379521140253
 31
0.0
  0
LINE
  5
58D
330
1F
100
AcDbEntity
  8
LAY-10
  6
CONTINUOUS
 62
     7
100
AcDbLine
 10
1531.540725756899
 20
2433.379521140253
 30
0.0
 11
1145.540725756899
 21
2433.379521140254
 31
0.0
  0
LINE
  5
58E
330
1F
100
AcDbEntity
  8
LAY-10
  6
CONTINUOUS
 62
     7
100
AcDbLine
 10
1548.540725756899
 20
2448.379521140254
 30
0.0
 11
1563.540725756899
 21
2433.379521140254
 31
0.0
  0
LINE
  5
58F
330
1F
100
AcDbEntity
  8
LAY-10
  6
CONTINUOUS
 62
     7
100
AcDbLine
 10
1949.540725756899
 20
2433.379521140253
 30
0.0
 11
1964.540725756901
 21
2448.379521140253
 31
0.0
  0
LINE
  5
590
330
1F
100
AcDbEntity
  8
LAY-10
  6
CONTINUOUS
 62
     7
100
AcDbLine
 10
1548.540725756899
 20
2448.379521140254
 30
0.0
 11
1964.540725756901
 21
2448.379521140253
 31
0.0
  0
LINE
  5
591
330
1F
100
AcDbEntity
  8
LAY-10
  6
CONTINUOUS
 62
     7
100
AcDbLine
 10
1949.540725756899
 20
2433.379521140253
 30
0.0
 11
1563.540725756899
 21
2433.379521140254
 31
0.0
  0
LINE
  5
592
330
1F
100
AcDbEntity
  8
LAY-10
  6
CONTINUOUS
 62
     7
100
AcDbLine
 10
1177.540725756876
 20
2401.379521140203
 30
0.0
 11
1177.540725756876
 21
2433.379521140201
 31
0.0
  0
LINE
  5
593
330
1F
100
AcDbEntity
  8
LAY-10
  6
CONTINUOUS
 62
     7
100
AcDbLine
 10
1177.540725756877
 20
2401.379521140203
 30
0.0
 11
1145.540725756877
 21
2401.379521140203
 31
0.0
  0
LINE
  5
594
330
1F
100
AcDbEntity
  8
LAY-10
  6
CONTINUOUS
 62
     7
100
AcDbLine
 10
1499.540725756877
 20
2401.379521140203
 30
0.0
 11
1499.540725756877
 21
2433.379521140202
 31
0.0
  0
LINE
  5
595
330
1F
100
AcDbEntity
  8
LAY-10
  6
CONTINUOUS
 62
     7
100
AcDbLine
 10
1531.540725756877
 20
2401.379521140203
 30
0.0
 11
1499.540725756877
 21
2401.379521140203
 31
0.0
  0
LINE
  5
596
330
1F
100
AcDbEntity
  8
LAY-10
  6
CONTINUOUS
 62
     7
100
AcDbLine
 10
1917.540725756878
 20
2401.379521140204
 30
0.0
 11
1917.540725756878
 21
2433.379521140202
 31
0.0
  0
LINE
  5
597
330
1F
100
AcDbEntity
  8
LAY-10
  6
CONTINUOUS
 62
     7
100
AcDbLine
 10
1949.540725756878
 20
2401.379521140204
 30
0.0
 11
1917.540725756878
 21
2401.379521140204
 31
0.0
  0
LINE
  5
598
330
1F
100
AcDbEntity
  8
LAY-10
  6
CONTINUOUS
 62
     7
100
AcDbLine
 10
1595.540725756876
 20
2401.379521140203
 30
0.0
 11
1595.540725756875
 21
2433.379521140202
 31
0.0
  0
LINE
  5
599
330
1F
100
AcDbEntity
  8
LAY-10
  6
CONTINUOUS
 62
     7
100
AcDbLine
 10
1595.540725756878
 20
2401.379521140203
 30
0.0
 11
1563.540725756877
 21
2401.379521140203
 31
0.0
  0
LINE
  5
59A
330
1F
100
AcDbEntity
  8
LAY-10
  6
CONTINUOUS
 62
     7
100
AcDbLine
 10
1165.540725756928
 20
2427.879521140203
 30
0.0
 11
1165.540725756928
 21
2429.485821153007
 31
0.0
  0
LINE
  5
59B
330
1F
100
AcDbEntity
  8
LAY-10
  6
CONTINUOUS
 62
     7
100
AcDbLine
 10
1157.54072575693
 20
2427.879521140203
 30
0.0
 11
1157.54072575693
 21
2429.485821153007
 31
0.0
  0
LINE
  5
59C
330
1F
100
AcDbEntity
  8
LAY-10
  6
CONTINUOUS
 62
     7
100
AcDbLine
 10
1157.54072575693
 20
2427.879521140203
 30
0.0
 11
1165.540725756928
 21
2427.879521140203
 31
0.0
  0
ARC
  5
59D
330
1F
100
AcDbEntity
  8
LAY-10
  6
CONTINUOUS
 62
     7
100
AcDbCircle
 10
1161.540725756929
 20
2417.379521140203
 30
0.0
 40
12.75000000000001
100
AcDbArc
 50
108.2838899404037
 51
71.71611005959635
  0
LINE
  5
59E
330
1F
100
AcDbEntity
  8
LAY-10
  6
CONTINUOUS
 62
     7
100
AcDbLine
 10
1168.040725756929
 20
2417.379521140203
 30
0.0
 11
1161.540725756929
 21
2421.379521140203
 31
0.0
  0
LINE
  5
59F
330
1F
100
AcDbEntity
  8
LAY-10
  6
CONTINUOUS
 62
     7
100
AcDbLine
 10
1161.540725756929
 20
2421.379521140203
 30
0.0
 11
1155.040725756929
 21
2417.379521140203
 31
0.0
  0
LINE
  5
5A0
330
1F
100
AcDbEntity
  8
LAY-10
  6
CONTINUOUS
 62
     7
100
AcDbLine
 10
1155.040725756929
 20
2417.379521140203
 30
0.0
 11
1161.540725756929
 21
2413.379521140203
 31
0.0
  0
LINE
  5
5A1
330
1F
100
AcDbEntity
  8
LAY-10
  6
CONTINUOUS
 62
     7
100
AcDbLine
 10
1161.540725756929
 20
2413.379521140203
 30
0.0
 11
1168.040725756929
 21
2417.379521140203
 31
0.0
  0
CIRCLE
  5
5A2
330
1F
100
AcDbEntity
  8
LAY-10
  6
CONTINUOUS
 62
     7
100
AcDbCircle
 10
1161.54072575688
 20
2417.379521140206
 30
0.0
 40
13.0
  0
LINE
  5
5A3
330
1F
100
AcDbEntity
  8
LAY-10
  6
CONTINUOUS
 62
     7
100
AcDbLine
 10
1519.540725756878
 20
2427.879521140203
 30
0.0
 11
1519.540725756878
 21
2429.485821153008
 31
0.0
  0
LINE
  5
5A4
330
1F
100
AcDbEntity
  8
LAY-10
  6
CONTINUOUS
 62
     7
100
AcDbLine
 10
1511.54072575688
 20
2427.879521140203
 30
0.0
 11
1511.54072575688
 21
2429.485821153008
 31
0.0
  0
LINE
  5
5A5
330
1F
100
AcDbEntity
  8
LAY-10
  6
CONTINUOUS
 62
     7
100
AcDbLine
 10
1511.54072575688
 20
2427.879521140203
 30
0.0
 11
1519.540725756878
 21
2427.879521140203
 31
0.0
  0
ARC
  5
5A6
330
1F
100
AcDbEntity
  8
LAY-10
  6
CONTINUOUS
 62
     7
100
AcDbCircle
 10
1515.540725756879
 20
2417.379521140203
 30
0.0
 40
12.75000000000001
100
AcDbArc
 50
108.2838899404038
 51
71.71611005959727
  0
LINE
  5
5A7
330
1F
100
AcDbEntity
  8
LAY-10
  6
CONTINUOUS
 62
     7
100
AcDbLine
 10
1522.040725756879
 20
2417.379521140203
 30
0.0
 11
1515.540725756879
 21
2421.379521140203
 31
0.0
  0
LINE
  5
5A8
330
1F
100
AcDbEntity
  8
LAY-10
  6
CONTINUOUS
 62
     7
100
AcDbLine
 10
1515.540725756879
 20
2421.379521140203
 30
0.0
 11
1509.040725756879
 21
2417.379521140203
 31
0.0
  0
LINE
  5
5A9
330
1F
100
AcDbEntity
  8
LAY-10
  6
CONTINUOUS
 62
     7
100
AcDbLine
 10
1509.040725756879
 20
2417.379521140203
 30
0.0
 11
1515.540725756879
 21
2413.379521140203
 31
0.0
  0
LINE
  5
5AA
330
1F
100
AcDbEntity
  8
LAY-10
  6
CONTINUOUS
 62
     7
100
AcDbLine
 10
1515.540725756879
 20
2413.379521140203
 30
0.0
 11
1522.040725756879
 21
2417.379521140203
 31
0.0
  0
CIRCLE
  5
5AB
330
1F
100
AcDbEntity
  8
LAY-10
  6
CONTINUOUS
 62
     7
100
AcDbCircle
 10
1515.54072575683
 20
2417.379521140206
 30
0.0
 40
13.0
  0
LINE
  5
5AC
330
1F
100
AcDbEntity
  8
LAY-10
  6
CONTINUOUS
 62
     7
100
AcDbLine
 10
1583.540725756878
 20
2427.879521140204
 30
0.0
 11
1583.540725756878
 21
2429.485821153008
 31
0.0
  0
LINE
  5
5AD
330
1F
100
AcDbEntity
  8
LAY-10
  6
CONTINUOUS
 62
     7
100
AcDbLine
 10
1575.54072575688
 20
2427.879521140203
 30
0.0
 11
1575.54072575688
 21
2429.485821153008
 31
0.0
  0
LINE
  5
5AE
330
1F
100
AcDbEntity
  8
LAY-10
  6
CONTINUOUS
 62
     7
100
AcDbLine
 10
1575.54072575688
 20
2427.879521140203
 30
0.0
 11
1583.540725756878
 21
2427.879521140204
 31
0.0
  0
ARC
  5
5AF
330
1F
100
AcDbEntity
  8
LAY-10
  6
CONTINUOUS
 62
     7
100
AcDbCircle
 10
1579.540725756879
 20
2417.379521140204
 30
0.0
 40
12.75000000000001
100
AcDbArc
 50
108.2838899404044
 51
71.71611005959663
  0
LINE
  5
5B0
330
1F
100
AcDbEntity
  8
LAY-10
  6
CONTINUOUS
 62
     7
100
AcDbLine
 10
1586.04072575688
 20
2417.379521140204
 30
0.0
 11
1579.540725756879
 21
2421.379521140204
 31
0.0
  0
LINE
  5
5B1
330
1F
100
AcDbEntity
  8
LAY-10
  6
CONTINUOUS
 62
     7
100
AcDbLine
 10
1579.540725756879
 20
2421.379521140204
 30
0.0
 11
1573.040725756879
 21
2417.379521140204
 31
0.0
  0
LINE
  5
5B2
330
1F
100
AcDbEntity
  8
LAY-10
  6
CONTINUOUS
 62
     7
100
AcDbLine
 10
1573.040725756879
 20
2417.379521140204
 30
0.0
 11
1579.540725756879
 21
2413.379521140204
 31
0.0
  0
LINE
  5
5B3
330
1F
100
AcDbEntity
  8
LAY-10
  6
CONTINUOUS
 62
     7
100
AcDbLine
 10
1579.540725756879
 20
2413.379521140204
 30
0.0
 11
1586.04072575688
 21
2417.379521140204
 31
0.0
  0
CIRCLE
  5
5B4
330
1F
100
AcDbEntity
  8
LAY-10
  6
CONTINUOUS
 62
     7
100
AcDbCircle
 10
1579.54072575683
 20
2417.379521140206
 30
0.0
 40
13.0
  0
LINE
  5
5B5
330
1F
100
AcDbEntity
  8
LAY-10
  6
CONTINUOUS
 62
     7
100
AcDbLine
 10
1937.540725756898
 20
2427.879521140204
 30
0.0
 11
1937.540725756898
 21
2429.485821153008
 31
0.0
  0
LINE
  5
5B6
330
1F
100
AcDbEntity
  8
LAY-10
  6
CONTINUOUS
 62
     7
100
AcDbLine
 10
1929.5407257569
 20
2427.879521140204
 30
0.0
 11
1929.5407257569
 21
2429.485821153008
 31
0.0
  0
LINE
  5
5B7
330
1F
100
AcDbEntity
  8
LAY-10
  6
CONTINUOUS
 62
     7
100
AcDbLine
 10
1929.5407257569
 20
2427.879521140204
 30
0.0
 11
1937.540725756898
 21
2427.879521140204
 31
0.0
  0
ARC
  5
5B8
330
1F
100
AcDbEntity
  8
LAY-10
  6
CONTINUOUS
 62
     7
100
AcDbCircle
 10
1933.540725756899
 20
2417.379521140204
 30
0.0
 40
12.75000000000001
100
AcDbArc
 50
108.2838899404028
 51
71.71611005959727
  0
LINE
  5
5B9
330
1F
100
AcDbEntity
  8
LAY-10
  6
CONTINUOUS
 62
     7
100
AcDbLine
 10
1940.040725756899
 20
2417.379521140204
 30
0.0
 11
1933.540725756899
 21
2421.379521140204
 31
0.0
  0
LINE
  5
5BA
330
1F
100
AcDbEntity
  8
LAY-10
  6
CONTINUOUS
 62
     7
100
AcDbLine
 10
1933.540725756899
 20
2421.379521140204
 30
0.0
 11
1927.040725756899
 21
2417.379521140204
 31
0.0
  0
LINE
  5
5BB
330
1F
100
AcDbEntity
  8
LAY-10
  6
CONTINUOUS
 62
     7
100
AcDbLine
 10
1927.040725756899
 20
2417.379521140204
 30
0.0
 11
1933.540725756899
 21
2413.379521140204
 31
0.0
  0
LINE
  5
5BC
330
1F
100
AcDbEntity
  8
LAY-10
  6
CONTINUOUS
 62
     7
100
AcDbLine
 10
1933.540725756899
 20
2413.379521140204
 30
0.0
 11
1940.040725756899
 21
2417.379521140204
 31
0.0
  0
CIRCLE
  5
5BD
330
1F
100
AcDbEntity
  8
LAY-10
  6
CONTINUOUS
 62
     7
100
AcDbCircle
 10
1933.54072575685
 20
2417.379521140206
 30
0.0
 40
13.0
  0
LINE
  5
5BE
330
1F
100
AcDbEntity
  8
LAY-10
  6
CENTER
 62
     2
100
AcDbLine
 10
2360.854577957652
 20
1913.379521140153
 30
0.0
 11
2588.7
 21
1913.379521140153
 31
0.0
  0
LINE
  5
5BF
330
1F
100
AcDbEntity
  8
LAY-10
  6
CENTER
 62
     2
100
AcDbLine
 10
1129.540725757047
 20
979.8447014858002
 30
0.0
 11
1129.540725757047
 21
764.0
 31
0.0
  0
LINE
  5
5C0
330
1F
100
AcDbEntity
  8
LAY-10
  6
CENTER
 62
     2
100
AcDbLine
 10
237.2407257566476
 20
1913.379521140153
 30
0.0
 11
2022.340725756748
 21
1913.379521140154
 31
0.0
  0
LINE
  5
5C1
330
1F
100
AcDbEntity
  8
LAY-10
  6
CENTER
 62
     2
100
AcDbLine
 10
307.0157257569783
 20
1409.379521140104
 30
0.0
 11
344.5157257569783
 21
1409.379521140104
 31
0.0
  0
LINE
  5
5C2
330
1F
100
AcDbEntity
  8
LAY-10
  6
CENTER
 62
     2
100
AcDbLine
 10
325.5407257569779
 20
1390.779521140105
 30
0.0
 11
325.5407257569779
 21
1429.679521140104
 31
0.0
  0
LINE
  5
5C3
330
1F
100
AcDbEntity
  8
LAY-10
  6
CENTER
 62
     2
100
AcDbLine
 10
661.0157257569782
 20
1409.379521140104
 30
0.0
 11
698.5157257569782
 21
1409.379521140104
 31
0.0
  0
LINE
  5
5C4
330
1F
100
AcDbEntity
  8
LAY-10
  6
CENTER
 62
     2
100
AcDbLine
 10
679.5407257569778
 20
1390.779521140105
 30
0.0
 11
679.5407257569778
 21
1429.679521140104
 31
0.0
  0
LINE
  5
5C5
330
1F
100
AcDbEntity
  8
LAY-10
  6
CENTER
 62
     2
100
AcDbLine
 10
1079.015725756979
 20
1409.379521140104
 30
0.0
 11
1116.515725756979
 21
1409.379521140104
 31
0.0
  0
LINE
  5
5C6
330
1F
100
AcDbEntity
  8
LAY-10
  6
CENTER
 62
     2
100
AcDbLine
 10
1097.540725756978
 20
1390.779521140105
 30
0.0
 11
1097.540725756978
 21
1429.679521140104
 31
0.0
  0
LINE
  5
5C7
330
1F
100
AcDbEntity
  8
LAY-10
  6
CENTER
 62
     2
100
AcDbLine
 10
725.0157257569783
 20
1409.379521140104
 30
0.0
 11
762.5157257569783
 21
1409.379521140104
 31
0.0
  0
LINE
  5
5C8
330
1F
100
AcDbEntity
  8
LAY-10
  6
CENTER
 62
     2
100
AcDbLine
 10
743.540725756978
 20
1390.779521140105
 30
0.0
 11
743.540725756978
 21
1429.679521140104
 31
0.0
  0
LINE
  5
5C9
330
1F
100
AcDbEntity
  8
LAY-10
  6
CENTER
 62
     2
100
AcDbLine
 10
278.5350968249215
 20
2163.379521140176
 30
0.0
 11
236.7350968249223
 21
2163.379521140177
 31
0.0
  0
LINE
  5
5CA
330
1F
100
AcDbEntity
  8
LAY-10
  6
CENTER
 62
     2
100
AcDbLine
 10
278.5350968249179
 20
1663.379521140215
 30
0.0
 11
242.0350968249652
 21
1663.379521140216
 31
0.0
  0
LINE
  5
5CB
330
1F
100
AcDbEntity
  8
LAY-10
  6
CENTER
 62
     2
100
AcDbLine
 10
1980.540725756789
 20
2163.379521140173
 30
0.0
 11
2022.340725756788
 21
2163.379521140173
 31
0.0
  0
LINE
  5
5CC
330
1F
100
AcDbEntity
  8
LAY-10
  6
CENTER
 62
     2
100
AcDbLine
 10
1980.54072575679
 20
1663.379521140212
 30
0.0
 11
2017.040725756743
 21
1663.379521140213
 31
0.0
  0
LINE
  5
5CD
330
1F
100
AcDbEntity
  8
LAY-10
  6
CENTER
 62
     2
100
AcDbLine
 10
307.0157257569778
 20
2417.379521140202
 30
0.0
 11
344.5157257569777
 21
2417.379521140202
 31
0.0
  0
LINE
  5
5CE
330
1F
100
AcDbEntity
  8
LAY-10
  6
CENTER
 62
     2
100
AcDbLine
 10
325.5407257569773
 20
2435.979521140201
 30
0.0
 11
325.5407257569775
 21
2397.079521140201
 31
0.0
  0
LINE
  5
5CF
330
1F
100
AcDbEntity
  8
LAY-10
  6
CENTER
 62
     2
100
AcDbLine
 10
661.0157257569779
 20
2417.379521140202
 30
0.0
 11
698.5157257569779
 21
2417.379521140202
 31
0.0
  0
LINE
  5
5D0
330
1F
100
AcDbEntity
  8
LAY-10
  6
CENTER
 62
     2
100
AcDbLine
 10
679.5407257569775
 20
2435.979521140202
 30
0.0
 11
679.5407257569775
 21
2397.079521140202
 31
0.0
  0
LINE
  5
5D1
330
1F
100
AcDbEntity
  8
LAY-10
  6
CENTER
 62
     2
100
AcDbLine
 10
1079.015725756978
 20
2417.379521140203
 30
0.0
 11
1116.515725756978
 21
2417.379521140203
 31
0.0
  0
LINE
  5
5D2
330
1F
100
AcDbEntity
  8
LAY-10
  6
CENTER
 62
     2
100
AcDbLine
 10
1097.540725756978
 20
2435.979521140202
 30
0.0
 11
1097.540725756978
 21
2397.079521140202
 31
0.0
  0
LINE
  5
5D3
330
1F
100
AcDbEntity
  8
LAY-10
  6
CENTER
 62
     2
100
AcDbLine
 10
725.0157257569779
 20
2417.379521140202
 30
0.0
 11
762.5157257569779
 21
2417.379521140202
 31
0.0
  0
LINE
  5
5D4
330
1F
100
AcDbEntity
  8
LAY-10
  6
CENTER
 62
     2
100
AcDbLine
 10
743.5407257569775
 20
2435.979521140202
 30
0.0
 11
743.5407257569775
 21
2397.079521140202
 31
0.0
  0
LINE
  5
5D5
330
1F
100
AcDbEntity
  8
LAY-10
  6
CENTER
 62
     2
100
AcDbLine
 10
1129.540725756955
 20
2500.879521140001
 30
0.0
 11
1129.540725756954
 21
1320.579521140099
 31
0.0
  0
LINE
  5
5D6
330
1F
100
AcDbEntity
  8
LAY-10
  6
CENTER
 62
     2
100
AcDbLine
 10
379.5407257569585
 20
2464.379521140048
 30
0.0
 11
379.5407257569585
 21
2500.879521140001
 31
0.0
  0
LINE
  5
5D7
330
1F
100
AcDbEntity
  8
LAY-10
  6
CENTER
 62
     2
100
AcDbLine
 10
879.5407257569584
 20
2464.379521140048
 30
0.0
 11
879.5407257569584
 21
2500.879521140001
 31
0.0
  0
LINE
  5
5D8
330
1F
100
AcDbEntity
  8
LAY-10
  6
CENTER
 62
     2
100
AcDbLine
 10
1879.540725756952
 20
2464.379521140045
 30
0.0
 11
1879.540725756953
 21
2500.879521139998
 31
0.0
  0
LINE
  5
5D9
330
1F
100
AcDbEntity
  8
LAY-10
  6
CENTER
 62
     2
100
AcDbLine
 10
1379.540725756953
 20
2464.379521140047
 30
0.0
 11
1379.540725756953
 21
2500.87952114
 31
0.0
  0
LINE
  5
5DA
330
1F
100
AcDbEntity
  8
LAY-10
  6
CENTER
 62
     2
100
AcDbLine
 10
379.5407257569591
 20
1362.379521140258
 30
0.0
 11
379.5407257569591
 21
1325.879521140305
 31
0.0
  0
LINE
  5
5DB
330
1F
100
AcDbEntity
  8
LAY-10
  6
CENTER
 62
     2
100
AcDbLine
 10
879.5407257569591
 20
1362.379521140259
 30
0.0
 11
879.5407257569591
 21
1325.879521140306
 31
0.0
  0
LINE
  5
5DC
330
1F
100
AcDbEntity
  8
LAY-10
  6
CENTER
 62
     2
100
AcDbLine
 10
1879.540725756953
 20
1362.379521140263
 30
0.0
 11
1879.540725756954
 21
1325.87952114031
 31
0.0
  0
LINE
  5
5DD
330
1F
100
AcDbEntity
  8
LAY-10
  6
CENTER
 62
     2
100
AcDbLine
 10
1379.540725756953
 20
1362.37952114026
 30
0.0
 11
1379.540725756954
 21
1325.879521140307
 31
0.0
  0
LINE
  5
5DE
330
1F
100
AcDbEntity
  8
LAY-10
  6
CENTER
 62
     2
100
AcDbLine
 10
1143.015725756878
 20
1409.379521140104
 30
0.0
 11
1180.515725756878
 21
1409.379521140104
 31
0.0
  0
LINE
  5
5DF
330
1F
100
AcDbEntity
  8
LAY-10
  6
CENTER
 62
     2
100
AcDbLine
 10
1161.540725756878
 20
1390.779521140105
 30
0.0
 11
1161.540725756878
 21
1429.679521140104
 31
0.0
  0
LINE
  5
5E0
330
1F
100
AcDbEntity
  8
LAY-10
  6
CENTER
 62
     2
100
AcDbLine
 10
1497.015725756878
 20
1409.379521140104
 30
0.0
 11
1534.515725756878
 21
1409.379521140104
 31
0.0
  0
LINE
  5
5E1
330
1F
100
AcDbEntity
  8
LAY-10
  6
CENTER
 62
     2
100
AcDbLine
 10
1515.540725756878
 20
1390.779521140105
 30
0.0
 11
1515.540725756878
 21
1429.679521140104
 31
0.0
  0
LINE
  5
5E2
330
1F
100
AcDbEntity
  8
LAY-10
  6
CENTER
 62
     2
100
AcDbLine
 10
1915.015725756879
 20
1409.379521140104
 30
0.0
 11
1952.515725756879
 21
1409.379521140104
 31
0.0
  0
LINE
  5
5E3
330
1F
100
AcDbEntity
  8
LAY-10
  6
CENTER
 62
     2
100
AcDbLine
 10
1933.540725756878
 20
1390.779521140105
 30
0.0
 11
1933.540725756878
 21
1429.679521140104
 31
0.0
  0
LINE
  5
5E4
330
1F
100
AcDbEntity
  8
LAY-10
  6
CENTER
 62
     2
100
AcDbLine
 10
1561.015725756878
 20
1409.379521140104
 30
0.0
 11
1598.515725756878
 21
1409.379521140104
 31
0.0
  0
LINE
  5
5E5
330
1F
100
AcDbEntity
  8
LAY-10
  6
CENTER
 62
     2
100
AcDbLine
 10
1579.540725756878
 20
1390.779521140105
 30
0.0
 11
1579.540725756878
 21
1429.679521140104
 31
0.0
  0
LINE
  5
5E6
330
1F
100
AcDbEntity
  8
LAY-10
  6
CENTER
 62
     2
100
AcDbLine
 10
1143.015725756878
 20
2417.379521140202
 30
0.0
 11
1180.515725756878
 21
2417.379521140202
 31
0.0
  0
LINE
  5
5E7
330
1F
100
AcDbEntity
  8
LAY-10
  6
CENTER
 62
     2
100
AcDbLine
 10
1161.540725756877
 20
2435.979521140201
 30
0.0
 11
1161.540725756877
 21
2397.079521140201
 31
0.0
  0
LINE
  5
5E8
330
1F
100
AcDbEntity
  8
LAY-10
  6
CENTER
 62
     2
100
AcDbLine
 10
1497.015725756878
 20
2417.379521140202
 30
0.0
 11
1534.515725756878
 21
2417.379521140202
 31
0.0
  0
LINE
  5
5E9
330
1F
100
AcDbEntity
  8
LAY-10
  6
CENTER
 62
     2
100
AcDbLine
 10
1515.540725756877
 20
2435.979521140202
 30
0.0
 11
1515.540725756877
 21
2397.079521140202
 31
0.0
  0
LINE
  5
5EA
330
1F
100
AcDbEntity
  8
LAY-10
  6
CENTER
 62
     2
100
AcDbLine
 10
1915.015725756878
 20
2417.379521140203
 30
0.0
 11
1952.515725756878
 21
2417.379521140203
 31
0.0
  0
LINE
  5
5EB
330
1F
100
AcDbEntity
  8
LAY-10
  6
CENTER
 62
     2
100
AcDbLine
 10
1933.540725756878
 20
2435.979521140202
 30
0.0
 11
1933.540725756878
 21
2397.079521140202
 31
0.0
  0
LINE
  5
5EC
330
1F
100
AcDbEntity
  8
LAY-10
  6
CENTER
 62
     2
100
AcDbLine
 10
1561.015725756878
 20
2417.379521140202
 30
0.0
 11
1598.515725756878
 21
2417.379521140202
 31
0.0
  0
LINE
  5
5ED
330
1F
100
AcDbEntity
  8
LAY-10
  6
CENTER
 62
     2
100
AcDbLine
 10
1579.540725756877
 20
2435.979521140202
 30
0.0
 11
1579.540725756877
 21
2397.079521140202
 31
0.0
  0
LINE
  5
5EE
330
1F
100
AcDbEntity
  8
LAY-10
  6
CONTINUOUS
 62
     7
100
AcDbLine
 10
2575.153062767488
 20
1417.179521140053
 30
0.0
 11
2575.153062767488
 21
1463.379521140056
 31
0.0
  0
LINE
  5
5EF
330
1F
100
AcDbEntity
  8
LAY-10
  6
CONTINUOUS
 62
     7
100
AcDbLine
 10
2575.153062767488
 20
2363.379521140178
 30
0.0
 11
2575.153062767488
 21
2409.579521140183
 31
0.0
  0
DIMENSION
  5
5F1
330
1F
100
AcDbEntity
  8
LAY-20
  6
CONTINUOUS
 62
     4
100
AcDbDimension
  2
*D15
 10
2109.4392105668
 20
966.2636940246
 30
0.0
 11
2084.4392105668
 21
868.7636940245997
 31
0.0
 70
   160
  3
ISO-25
100
AcDbAlignedDimension
 13
1925.7407257571
 23
771.2636940246
 33
0.0
 14
1980.5407257569
 24
966.2636940246
 34
0.0
 50
90.0
100
AcDbRotatedDimension
1001
ACAD
1000
DSTYLE
1002
{
1070
   270
1070
     2
1070
     6
1000
EX_BNORM
1070
     7
1000
EX_BNORM
1070
    41
1040
25.0
1070
    42
1040
15.0
1070
    44
1040
15.0
1070
    73
1070
     0
1070
    74
1070
     0
1070
    75
1070
     0
1070
    76
1070
     0
1070
    77
1070
     1
1070
    78
1070
     8
1070
   140
1040
31.181104
1070
   147
1040
0.0
1070
   173
1070
     1
1070
   176
1070
     4
1070
   177
1070
     4
1070
   178
1070
     7
1070
   271
1070
     1
1070
   277
1070
     2
1070
   279
1070
     2
1070
   280
1070
     0
1070
   287
1070
     5
1070
   340
1005
5F0
1002
}
  0
DIMENSION
  5
5FF
330
1F
100
AcDbEntity
  8
LAY-20
  6
CONTINUOUS
 62
     4
100
AcDbDimension
  2
*D16
 10
1980.5407257569
 20
1136.2636940246
 30
0.0
 11
1129.54072575695
 21
1161.2636940246
 31
0.0
 70
   160
  3
ISO-25
100
AcDbAlignedDimension
 13
278.540725757
 23
966.2636940246
 33
0.0
 14
1980.5407257569
 24
966.2636940246
 34
0.0
100
AcDbRotatedDimension
1001
ACAD
1000
DSTYLE
1002
{
1070
   270
1070
     2
1070
     6
1000
EX_BNORM
1070
     7
1000
EX_BNORM
1070
    41
1040
25.0
1070
    42
1040
15.0
1070
    44
1040
15.0
1070
    73
1070
     0
1070
    74
1070
     0
1070
    75
1070
     0
1070
    76
1070
     0
1070
    77
1070
     1
1070
    78
1070
     8
1070
   140
1040
31.181104
1070
   147
1040
0.0
1070
   173
1070
     1
1070
   176
1070
     4
1070
   177
1070
     4
1070
   178
1070
     7
1070
   271
1070
     1
1070
   277
1070
     2
1070
   279
1070
     2
1070
   280
1070
     0
1070
   287
1070
     5
1070
   340
1005
5F0
1002
}
  0
DIMENSION
  5
60C
330
1F
100
AcDbEntity
  8
LAY-20
  6
CONTINUOUS
 62
     4
100
AcDbDimension
  2
*D17
 10
710.540725757096
 20
1066.2636940246
 30
0.0
 11
502.5407257570598
 21
1091.2636940246
 31
0.0
 70
   160
  3
ISO-25
100
AcDbAlignedDimension
 13
294.5407257570237
 23
966.263694024603
 33
0.0
 14
710.540725757096
 24
966.2636940246051
 34
0.0
100
AcDbRotatedDimension
1001
ACAD
1000
DSTYLE
1002
{
1070
   270
1070
     2
1070
     6
1000
EX_BNORM
1070
     7
1000
EX_BNORM
1070
    41
1040
25.0
1070
    42
1040
15.0
1070
    44
1040
15.0
1070
    73
1070
     0
1070
    74
1070
     0
1070
    75
1070
     0
1070
    76
1070
     0
1070
    77
1070
     1
1070
    78
1070
     8
1070
   140
1040
31.181104
1070
   147
1040
0.0
1070
   173
1070
     1
1070
   176
1070
     4
1070
   177
1070
     4
1070
   178
1070
     7
1070
   271
1070
     1
1070
   277
1070
     2
1070
   279
1070
     2
1070
   280
1070
     0
1070
   287
1070
     5
1070
   340
1005
5F0
1002
}
  0
DIMENSION
  5
619
330
1F
100
AcDbEntity
  8
LAY-20
  6
CONTINUOUS
 62
     4
100
AcDbDimension
  2
*D18
 10
1879.540725757
 20
671.2636940246
 30
0.0
 11
1129.540725757
 21
696.2636940246
 31
0.0
 70
   160
  3
ISO-25
100
AcDbAlignedDimension
 13
379.540725757
 23
772.8636940246002
 33
0.0
 14
1879.540725757
 24
772.8636940246002
 34
0.0
100
AcDbRotatedDimension
1001
ACAD
1000
DSTYLE
1002
{
1070
   270
1070
     2
1070
     6
1000
EX_BNORM
1070
     7
1000
EX_BNORM
1070
    41
1040
25.0
1070
    42
1040
15.0
1070
    44
1040
15.0
1070
    73
1070
     0
1070
    74
1070
     0
1070
    75
1070
     0
1070
    76
1070
     0
1070
    77
1070
     1
1070
    78
1070
     8
1070
   140
1040
31.181104
1070
   147
1040
0.0
1070
   173
1070
     1
1070
   176
1070
     4
1070
   177
1070
     4
1070
   178
1070
     7
1070
   271
1070
     1
1070
   277
1070
     2
1070
   279
1070
     2
1070
   280
1070
     0
1070
   287
1070
     5
1070
   340
1005
5F0
1002
}
  0
DIMENSION
  5
626
330
1F
100
AcDbEntity
  8
LAY-20
  6
CONTINUOUS
 62
     4
100
AcDbDimension
  2
*D19
 10
940.5407257570602
 20
966.2636940246
 30
0.0
 11
915.5407257570603
 21
1026.2636940246
 31
0.0
 70
   160
  3
ISO-25
100
AcDbAlignedDimension
 13
840.54072575707
 23
931.2636940246
 33
0.0
 14
940.5407257570602
 24
966.2636940246
 34
0.0
 50
90.0
100
AcDbRotatedDimension
1001
ACAD
1000
DSTYLE
1002
{
1070
   270
1070
     2
1070
     6
1000
EX_BNORM
1070
     7
1000
EX_BNORM
1070
    41
1040
25.0
1070
    42
1040
15.0
1070
    44
1040
15.0
1070
    73
1070
     0
1070
    74
1070
     0
1070
    75
1070
     0
1070
    76
1070
     1
1070
    77
1070
     1
1070
    78
1070
     8
1070
   140
1040
31.181104
1070
   147
1040
0.0
1070
   173
1070
     1
1070
   176
1070
     4
1070
   177
1070
     4
1070
   178
1070
     7
1070
   271
1070
     1
1070
   277
1070
     2
1070
   279
1070
     2
1070
   280
1070
     2
1070
   287
1070
     5
1070
   340
1005
5F0
1002
}
  0
DIMENSION
  5
634
330
1F
100
AcDbEntity
  8
LAY-20
  6
CONTINUOUS
 62
     4
100
AcDbDimension
  2
*D20
 10
287.34072575702
 20
601.2636940246
 30
0.0
 11
1129.54072575696
 21
626.2636940246
 31
0.0
 70
   160
  3
ISO-25
100
AcDbAlignedDimension
 13
1971.7407257569
 23
853.8636940246
 33
0.0
 14
287.34072575702
 24
853.8636940246
 34
0.0
100
AcDbRotatedDimension
1001
ACAD
1000
DSTYLE
1002
{
1070
   270
1070
     2
1070
     6
1000
EX_BNORM
1070
     7
1000
EX_BNORM
1070
    41
1040
25.0
1070
    42
1040
15.0
1070
    44
1040
15.0
1070
    73
1070
     0
1070
    74
1070
     0
1070
    75
1070
     0
1070
    76
1070
     0
1070
    77
1070
     1
1070
    78
1070
     0
1070
   140
1040
31.181104
1070
   147
1040
0.0
1070
   173
1070
     1
1070
   176
1070
     4
1070
   177
1070
     4
1070
   178
1070
     7
1070
   271
1070
     0
1070
   277
1070
     2
1070
   279
1070
     2
1070
   280
1070
     0
1070
   287
1070
     5
1070
   340
1005
5F0
1002
}
  0
DIMENSION
  5
641
330
1F
100
AcDbEntity
  8
LAY-20
  6
CONTINUOUS
 62
     4
100
AcDbDimension
  2
*D21
 10
2210.1530627675
 20
2464.3795211401
 30
0.0
 11
2185.1530627675
 21
1913.3795211401
 31
0.0
 70
   160
  3
ISO-25
100
AcDbAlignedDimension
 13
2380.15306276745
 23
1362.3795211401
 33
0.0
 14
2380.15306276749
 24
2464.3795211401
 34
0.0
 50
90.0
100
AcDbRotatedDimension
1001
ACAD
1000
DSTYLE
1002
{
1070
   270
1070
     2
1070
     6
1000
EX_BNORM
1070
     7
1000
EX_BNORM
1070
    41
1040
25.0
1070
    42
1040
15.0
1070
    44
1040
15.0
1070
    73
1070
     0
1070
    74
1070
     0
1070
    75
1070
     0
1070
    76
1070
     0
1070
    77
1070
     1
1070
    78
1070
     8
1070
   140
1040
31.181104
1070
   147
1040
0.0
1070
   173
1070
     1
1070
   176
1070
     4
1070
   177
1070
     4
1070
   178
1070
     7
1070
   271
1070
     1
1070
   277
1070
     2
1070
   279
1070
     2
1070
   280
1070
     0
1070
   287
1070
     5
1070
   340
1005
5F0
1002
}
  0
DIMENSION
  5
64E
330
1F
100
AcDbEntity
  8
LAY-20
  6
CONTINUOUS
 62
     4
100
AcDbDimension
  2
*D22
 10
2280.1530627675
 20
2448.379521140116
 30
0.0
 11
2255.1530627675
 21
1913.379521140117
 31
0.0
 70
   160
  3
ISO-25
100
AcDbAlignedDimension
 13
2380.15306276749
 23
1378.379521140119
 33
0.0
 14
2380.15306276749
 24
2448.379521140116
 34
0.0
 50
90.0
100
AcDbRotatedDimension
1001
ACAD
1000
DSTYLE
1002
{
1070
   270
1070
     2
1070
     6
1000
EX_BNORM
1070
     7
1000
EX_BNORM
1070
    41
1040
25.0
1070
    42
1040
15.0
1070
    44
1040
15.0
1070
    73
1070
     0
1070
    74
1070
     0
1070
    75
1070
     0
1070
    76
1070
     0
1070
    77
1070
     1
1070
    78
1070
     8
1070
   140
1040
31.181104
1070
   147
1040
0.0
1070
   173
1070
     1
1070
   176
1070
     4
1070
   177
1070
     4
1070
   178
1070
     7
1070
   271
1070
     1
1070
   277
1070
     2
1070
   279
1070
     2
1070
   280
1070
     0
1070
   287
1070
     5
1070
   340
1005
5F0
1002
}
  0
DIMENSION
  5
65B
330
1F
100
AcDbEntity
  8
LAY-20
  6
CONTINUOUS
 62
     4
100
AcDbDimension
  2
*D23
 10
2675.1530627675
 20
1463.3795211401
 30
0.0
 11
2650.1530627675
 21
1913.379521140149
 31
0.0
 70
   160
  3
ISO-25
100
AcDbAlignedDimension
 13
2575.153062767491
 23
2363.379521140199
 33
0.0
 14
2575.153062767491
 24
1463.3795211401
 34
0.0
 50
90.0
100
AcDbRotatedDimension
1001
ACAD
1000
DSTYLE
1002
{
1070
   270
1070
     2
1070
     6
1000
EX_BNORM
1070
     7
1000
EX_BNORM
1070
    41
1040
25.0
1070
    42
1040
15.0
1070
    44
1040
15.0
1070
    73
1070
     0
1070
    74
1070
     0
1070
    75
1070
     0
1070
    76
1070
     0
1070
    77
1070
     1
1070
    78
1070
     8
1070
   140
1040
31.181104
1070
   147
1040
0.0
1070
   173
1070
     1
1070
   176
1070
     4
1070
   177
1070
     4
1070
   178
1070
     7
1070
   271
1070
     1
1070
   277
1070
     2
1070
   279
1070
     2
1070
   280
1070
     0
1070
   287
1070
     5
1070
   340
1005
5F0
1002
}
  0
DIMENSION
  5
668
330
1F
100
AcDbEntity
  8
LAY-20
  6
CONTINUOUS
 62
     4
100
AcDbDimension
  2
*D24
 10
2745.1530627675
 20
1371.179521140099
 30
0.0
 11
2720.1530627675
 21
1913.37952114005
 31
0.0
 70
   160
  3
ISO-25
100
AcDbAlignedDimension
 13
2492.5530627675
 23
2455.57952114
 33
0.0
 14
2492.5530627675
 24
1371.179521140099
 34
0.0
 50
90.0
100
AcDbRotatedDimension
1001
ACAD
1000
DSTYLE
1002
{
1070
   270
1070
     2
1070
     6
1000
EX_BNORM
1070
     7
1000
EX_BNORM
1070
    41
1040
25.0
1070
    42
1040
15.0
1070
    44
1040
15.0
1070
    73
1070
     0
1070
    74
1070
     0
1070
    75
1070
     0
1070
    76
1070
     0
1070
    77
1070
     1
1070
    78
1070
     0
1070
   140
1040
31.181104
1070
   147
1040
0.0
1070
   173
1070
     1
1070
   176
1070
     4
1070
   177
1070
     4
1070
   178
1070
     7
1070
   271
1070
     0
1070
   277
1070
     2
1070
   279
1070
     2
1070
   280
1070
     0
1070
   287
1070
     5
1070
   340
1005
5F0
1002
}
  0
LINE
  5
675
330
1F
100
AcDbEntity
  8
LAY-255
  6
CONTINUOUS
 62
     7
100
AcDbLine
 10
3850.0
 20
219.9999999999999
 30
0.0
 11
2850.0
 21
219.9999999999999
 31
0.0
  0
LINE
  5
676
330
1F
100
AcDbEntity
  8
LAY-255
  6
CONTINUOUS
 62
     7
100
AcDbLine
 10
2888.0
 20
160.0
 30
0.0
 11
2968.0
 21
210.0
 31
0.0
  0
LINE
  5
677
330
1F
100
AcDbEntity
  8
LAY-255
  6
CONTINUOUS
 62
     7
100
AcDbLine
 10
2968.0
 20
210.0
 30
0.0
 11
3048.0
 21
160.0
 31
0.0
  0
LINE
  5
678
330
1F
100
AcDbEntity
  8
LAY-255
  6
CONTINUOUS
 62
     7
100
AcDbLine
 10
3048.0
 20
160.0
 30
0.0
 11
2968.0
 21
110.0
 31
0.0
  0
LINE
  5
679
330
1F
100
AcDbEntity
  8
LAY-255
  6
CONTINUOUS
 62
     7
100
AcDbLine
 10
2968.0
 20
110.0
 30
0.0
 11
2888.0
 21
160.0
 31
0.0
  0
LINE
  5
67A
330
1F
100
AcDbEntity
  8
LAY-255
  6
CONTINUOUS
 62
     7
100
AcDbLine
 10
50.0
 20
100.0
 30
0.0
 11
3850.0
 21
100.0
 31
0.0
  0
LINE
  5
67B
330
1F
100
AcDbEntity
  8
LAY-255
  6
CONTINUOUS
 62
     7
100
AcDbLine
 10
50.0
 20
2800.0
 30
0.0
 11
3850.0
 21
2800.0
 31
0.0
  0
LINE
  5
67C
330
1F
100
AcDbEntity
  8
LAY-255
  6
CONTINUOUS
 62
     7
100
AcDbLine
 10
50.0
 20
100.0
 30
0.0
 11
50.0
 21
2800.0
 31
0.0
  0
LINE
  5
67D
330
1F
100
AcDbEntity
  8
LAY-255
  6
CONTINUOUS
 62
     7
100
AcDbLine
 10
3850.0
 20
100.0
 30
0.0
 11
3850.0
 21
2800.0
 31
0.0
  0
LINE
  5
67E
330
1F
100
AcDbEntity
  8
LAY-255
  6
CONTINUOUS
 62
     4
100
AcDbLine
 10
2850.0
 20
279.9999999999999
 30
0.0
 11
3850.0
 21
279.9999999999999
 31
0.0
  0
LINE
  5
67F
330
1F
100
AcDbEntity
  8
LAY-255
  6
CONTINUOUS
 62
     7
100
AcDbLine
 10
2850.0
 20
100.0
 30
0.0
 11
2850.0
 21
670.0
 31
0.0
  0
POINT
  5
680
330
1F
100
AcDbEntity
  8
LAY-255
  6
CONTINUOUS
 62
     7
100
AcDbPoint
 10
2890.0
 20
399.9999999999999
 30
0.0
  0
LINE
  5
681
330
1F
100
AcDbEntity
  8
LAY-255
  6
CONTINUOUS
 62
     4
100
AcDbLine
 10
3350.0
 20
279.9999999999999
 30
0.0
 11
3350.0
 21
220.0
 31
0.0
  0
LINE
  5
682
330
1F
100
AcDbEntity
  8
LAY-255
  6
CONTINUOUS
 62
     7
100
AcDbLine
 10
3850.0
 20
670.0
 30
0.0
 11
2850.0
 21
670.0
 31
0.0
  0
LINE
  5
683
330
1F
100
AcDbEntity
  8
LAY-255
  6
CONTINUOUS
 62
     4
100
AcDbLine
 10
3830.0
 20
549.9999999999999
 30
0.0
 11
2870.0
 21
549.9999999999999
 31
0.0
  0
LINE
  5
684
330
1F
100
AcDbEntity
  8
LAY-255
  6
CONTINUOUS
 62
     4
100
AcDbLine
 10
3830.0
 20
610.0
 30
0.0
 11
2870.0
 21
610.0
 31
0.0
  0
POINT
  5
685
330
1F
100
AcDbEntity
  8
LAY-255
  6
CONTINUOUS
 62
     7
100
AcDbPoint
 10
2890.0
 20
499.9999999999999
 30
0.0
  0
POINT
  5
686
330
1F
100
AcDbEntity
  8
LAY-255
  6
CONTINUOUS
 62
     7
100
AcDbPoint
 10
3000.0
 20
559.9999999999999
 30
0.0
  0
POINT
  5
687
330
1F
100
AcDbEntity
  8
LAY-255
  6
CONTINUOUS
 62
     7
100
AcDbPoint
 10
3000.0
 20
620.0
 30
0.0
  0
POINT
  5
688
330
1F
100
AcDbEntity
  8
LAY-255
  6
CONTINUOUS
 62
     7
100
AcDbPoint
 10
2890.0
 20
449.9999999999999
 30
0.0
  0
POINT
  5
689
330
1F
100
AcDbEntity
  8
LAY-255
  6
CONTINUOUS
 62
     7
100
AcDbPoint
 10
2890.0
 20
299.9999999999998
 30
0.0
  0
POINT
  5
68A
330
1F
100
AcDbEntity
  8
LAY-255
  6
CONTINUOUS
 62
     7
100
AcDbPoint
 10
2890.0
 20
349.9999999999999
 30
0.0
  0
TEXT
  5
68B
330
1F
100
AcDbEntity
  8
LAY-255
  6
CONTINUOUS
 62
     7
100
AcDbText
 10
3081.3837890625
 20
155.4375
 30
0.0
 40
51.5625
  1
福西鋳物株式会社
 41
1.342691999659091
  7
EXCADSTD
100
AcDbText
  0
TEXT
  5
68C
330
1F
100
AcDbEntity
  8
LAY-255
  6
CONTINUOUS
 62
     7
100
AcDbText
 10
3085.09375
 20
119.8125
 30
0.0
 40
17.1875
  1
ＦＵＫＵＮＩＳＨＩ
 41
1.204799226045263
  7
EXCADSTD
100
AcDbText
  0
TEXT
  5
68D
330
1F
100
AcDbEntity
  8
LAY-255
  6
CONTINUOUS
 62
     7
100
AcDbText
 10
3327.191964285714
 20
119.8125
 30
0.0
 40
17.1875
  1
ＦＯＵＮＤＲＹ
 41
1.243252752978497
  7
EXCADSTD
100
AcDbText
  0
TEXT
  5
68E
330
1F
100
AcDbEntity
  8
LAY-255
  6
CONTINUOUS
 62
     7
100
AcDbText
 10
3519.945914381009
 20
119.8125
 30
0.0
 40
17.1875
  1
ＣＯ.,ＬＴＤ.
 41
1.243831036226633
  7
EXCADSTD
100
AcDbText
  0
TEXT
  5
68F
330
1F
100
AcDbEntity
  8
LAY-255
  6
CONTINUOUS
 62
     7
100
AcDbText
 10
2940.34375
 20
137.1875
 30
0.0
 40
51.5625
  1
S
 41
0.7582677563636363
  7
EXCADSTD
100
AcDbText
  0
TEXT
  5
690
330
1F
100
AcDbEntity
  8
LAY-255
  6
CONTINUOUS
 62
     7
100
AcDbText
 10
2971.046875
 20
137.4941037736
 30
0.0
 40
51.5625
  1
F
 41
0.7440945272727272
  7
EXCADSTD
100
AcDbText
  0
TEXT
  5
691
330
1F
100
AcDbEntity
  8
LAY-255
  6
CONTINUOUS
 62
     7
100
AcDbText
 10
3371.0546875
 20
244.2187499999999
 30
0.0
 40
25.78125
  1
縮尺
 41
1.080708718181818
  7
EXCADSTD
100
AcDbText
  0
TEXT
  5
692
330
1F
100
AcDbEntity
  8
LAY-255
  6
CONTINUOUS
 62
     7
100
AcDbText
 10
2872.65625
 20
565.6249999999999
 30
0.0
 40
34.375
  1
型式
 41
1.056348480681818
  7
EXCADSTD
100
AcDbText
  0
TEXT
  5
693
330
1F
100
AcDbEntity
  8
LAY-255
  6
CONTINUOUS
 62
     7
100
AcDbText
 10
2874.21875
 20
625.625
 30
0.0
 40
34.375
  1
品名
 41
0.9788386340909091
  7
EXCADSTD
100
AcDbText
  0
TEXT
  5
694
330
1F
100
AcDbEntity
  8
LAY-255
  6
CONTINUOUS
 62
     7
100
AcDbText
 10
2871.5234375
 20
244.2187499999999
 30
0.0
 40
25.78125
  1
作成日
 41
1.000629973818182
  7
EXCADSTD
100
AcDbText
  0
TEXT
  5
695
330
1F
100
AcDbEntity
  8
LAY-255
  6
CONTINUOUS
 62
     7
100
AcDbText
 10
2891.40625
 20
505.6249999999999
 30
0.0
 40
34.375
  1
材質：スチール
 41
1.029301719225037
  7
EXCADSTD
100
AcDbText
  0
TEXT
  5
696
330
1F
100
AcDbEntity
  8
LAY-255
  6
CONTINUOUS
 62
     7
100
AcDbText
 10
3002.5
 20
625.625
 30
0.0
 40
34.375
  1
化粧用マシンハッチ
 41
1.014552031760644
  7
EXCADSTD
100
AcDbText
  0
TEXT
  5
697
330
1F
100
AcDbEntity
  8
LAY-255
  6
CONTINUOUS
 62
     7
100
AcDbText
 10
2892.03125
 20
355.6249999999999
 30
0.0
 40
34.375
  1
貼代：３５
 41
0.99542213615222
  7
EXCADSTD
100
AcDbText
  0
TEXT
  5
698
330
1F
100
AcDbEntity
  8
LAY-255
  6
CONTINUOUS
 62
     7
100
AcDbText
 10
2897.8125
 20
455.6249999999999
 30
0.0
 40
34.375
  1
目地：ステンレス鋼
 41
1.00154495443038
  7
EXCADSTD
100
AcDbText
  0
TEXT
  5
699
330
1F
100
AcDbEntity
  8
LAY-255
  6
CONTINUOUS
 62
     7
100
AcDbText
 10
3482.8125
 20
235.6249999999999
 30
0.0
 40
34.375
  1
１：１０
 41
0.9243863385026738
  7
EXCADSTD
100
AcDbText
  0
TEXT
  5
69A
330
1F
100
AcDbEntity
  8
LAY-255
  6
CONTINUOUS
 62
     7
100
AcDbText
 10
2892.65625
 20
305.6249999999999
 30
0.0
 40
34.375
  1
耐火材中蓋付き
 41
1.014779968107303
  7
EXCADSTD
100
AcDbText
  0
TEXT
  5
69B
330
1F
100
AcDbEntity
  8
LAY-255
  6
CONTINUOUS
 62
     7
100
AcDbText
 10
3009.84375
 20
235.6249999999999
 30
0.0
 40
34.375
  1
２０／０８／０４
 41
0.9764342470129871
  7
EXCADSTD
100
AcDbText
  0
TEXT
  5
69C
330
1F
100
AcDbEntity
  8
LAY-255
  6
CONTINUOUS
 62
     7
100
AcDbText
 10
3007.5
 20
565.6249999999999
 30
0.0
 40
34.375
  1
ＳＦ－９０×１５０ＢＭ－６Ｆ型
 41
1.005180326315789
  7
EXCADSTD
100
AcDbText
  0
TEXT
  5
69D
330
1F
100
AcDbEntity
  8
LAY-255
  6
CONTINUOUS
 62
     7
100
AcDbText
 10
2892.03125
 20
405.6249999999999
 30
0.0
 40
34.375
  1
適用荷重：Ｔ－６
 41
1.000225024415584
  7
EXCADSTD
100
AcDbText
  0
ENDSEC
  0
SECTION
  2
OBJECTS
  0
DICTIONARY
  5
C
330
0
100
AcDbDictionary
  3
ACAD_GROUP
350
D
  3
ACAD_LAYOUT
350
1A
  3
ACAD_MATERIAL
350
43
  3
ACAD_MLEADERSTYLE
350
6B
  3
ACAD_MLINESTYLE
350
17
  3
ACAD_PLOTSETTINGS
350
19
  3
ACAD_SCALELIST
350
47
  3
ACAD_VISUALSTYLE
350
2A
  3
ACDBHEADERROUNDTRIPXREC
350
69E
  3
ACDBVARIABLEDICTIONARY
350
6BF
  0
DICTIONARY
  5
6CA
330
8
100
AcDbDictionary
280
     1
  3
ACAD_XREC_ROUNDTRIP
360
6CB
  0
DICTIONARY
  5
D
102
{ACAD_REACTORS
330
C
102
}
330
C
100
AcDbDictionary
  0
DICTIONARY
  5
1A
102
{ACAD_REACTORS
330
C
102
}
330
C
100
AcDbDictionary
  0
DICTIONARY
  5
43
102
{ACAD_REACTORS
330
C
102
}
330
C
100
AcDbDictionary
  3
BYBLOCK
350
45
  3
BYLAYER
350
44
  3
GLOBAL
350
46
  0
DICTIONARY
  5
6B
102
{ACAD_REACTORS
330
C
102
}
330
C
100
AcDbDictionary
  3
STANDARD
350
6C
  0
DICTIONARY
  5
17
102
{ACAD_REACTORS
330
C
102
}
330
C
100
AcDbDictionary
  3
STANDARD
350
18
  0
DICTIONARY
  5
19
102
{ACAD_REACTORS
330
C
102
}
330
C
100
AcDbDictionary
  0
DICTIONARY
  5
47
102
{ACAD_REACTORS
330
C
102
}
330
C
100
AcDbDictionary
  3
A0
350
48
  3
A1
350
49
  3
A2
350
4A
  3
A3
350
4B
  3
A4
350
4C
  3
A5
350
4D
  3
A6
350
4E
  3
A7
350
4F
  3
A8
350
50
  3
A9
350
51
  3
B0
350
52
  3
B1
350
53
  3
B2
350
54
  3
B3
350
55
  3
B4
350
56
  3
B5
350
57
  3
B6
350
58
  3
B7
350
59
  3
B8
350
5A
  3
B9
350
5B
  3
C0
350
5C
  3
C1
350
5D
  3
C2
350
5E
  3
C3
350
5F
  3
C4
350
60
  3
C5
350
61
  3
C6
350
62
  3
C7
350
63
  3
C8
350
64
  3
C9
350
65
  3
D0
350
66
  3
D1
350
67
  3
D2
350
68
  0
DICTIONARY
  5
2A
102
{ACAD_REACTORS
330
C
102
}
330
C
100
AcDbDictionary
  3
2DWIREFRAME
350
2F
  3
BASIC
350
32
  3
BRIGHTEN
350
36
  3
COLORCHANGE
350
3A
  3
CONCEPTUAL
350
34
  3
DIM
350
35
  3
EDGECOLOROFF
350
3D
  3
FACEPATTERN
350
39
  3
FLAT
350
2B
  3
FLATWITHEDGES
350
2C
  3
GOURAUD
350
2D
  3
GOURAUDWITHEDGES
350
2E
  3
HIDDEN
350
31
  3
JITTEROFF
350
3B
  3
LINEPATTERN
350
38
  3
OVERHANGOFF
350
3C
  3
REALISTIC
350
33
  3
SHADED
350
42
  3
SHADED_WITH_EDGES
350
41
  3
SHADES_OF_GRAY
350
3E
  3
SKETCHY
350
3F
  3
THICKEN
350
37
  3
WIREFRAME
350
30
  3
X-RAY
350
40
  0
DICTIONARY
  5
69E
102
{ACAD_REACTORS
330
C
102
}
330
C
100
AcDbDictionary
  3
CEPSNID
350
6A8
  3
CEPSNTYPE
350
6A7
  3
DIMSTYLEDATA
350
6BE
  3
FINGERPRINTGUID
350
6A9
  3
HYPERLINKBASE
350
6A1
  3
INSUNITS
350
6A6
  3
LAYOUTDICT
350
6A3
  3
LWETCUNION
350
6A5
  3
PLOTSETDICT
350
6A4
  3
PSVPSCALE
350
6AB
  3
PUCSBASE
350
6AE
  3
PUCSORGBACK
350
6B4
  3
PUCSORGBOTTOM
350
6B0
  3
PUCSORGFRONT
350
6B3
  3
PUCSORGLEFT
350
6B1
  3
PUCSORGRIGHT
350
6B2
  3
PUCSORGTOP
350
6AF
  3
PUCSORTHOREF
350
6AC
  3
PUCSORTHOVIEW
350
6AD
  3
STYLESHEET
350
6A2
  3
TSTACKALIGN
350
69F
  3
TSTACKSIZE
350
6A0
  3
UCSBASE
350
6B7
  3
UCSORGBACK
350
6BD
  3
UCSORGBOTTOM
350
6B9
  3
UCSORGFRONT
350
6BC
  3
UCSORGLEFT
350
6BA
  3
UCSORGRIGHT
350
6BB
  3
UCSORGTOP
350
6B8
  3
UCSORTHOREF
350
6B5
  3
UCSORTHOVIEW
350
6B6
  3
VERSIONGUID
350
6AA
  0
DICTIONARY
  5
6BF
102
{ACAD_REACTORS
330
C
102
}
330
C
100
AcDbDictionary
  3
CANNOSCALE
350
6CC
  3
CENTEREXE
350
6C6
  3
CENTERLTYPEFILE
350
6C7
  3
CMLEADERSTYLE
350
6C1
  3
CTABLESTYLE
350
6C0
  3
DIMASSOC
350
6C8
  3
HIDETEXT
350
6C9
  3
MSLTSCALE
350
6CD
  3
PSOLHEIGHT
350
6C3
  3
PSOLWIDTH
350
6C2
  0
XRECORD
  5
6CB
102
{ACAD_REACTORS
330
6CA
102
}
330
6CA
100
AcDbXrecord
102
VTR_0.000_0.000_1.000_1.000_VISUALSTYLE
340
2F
102
VTR_0.000_0.000_1.000_1.000_GRIDDISPLAY
 70
     3
102
VTR_0.000_0.000_1.000_1.000_GRIDMAJOR
 70
     5
102
VTR_0.000_0.000_1.000_1.000_DEFAULTLIGHTING
280
     1
102
VTR_0.000_0.000_1.000_1.000_DEFAULTLIGHTINGTYPE
 70
     1
102
VTR_0.000_0.000_1.000_1.000_BRIGHTNESS
141
0.0
102
VTR_0.000_0.000_1.000_1.000_CONTRAST
142
0.0
  0
MATERIAL
  5
45
102
{ACAD_REACTORS
330
43
102
}
102
{ACAD_XDICTIONARY
360
6D0
102
}
330
43
100
AcDbMaterial
  1
BYBLOCK
  0
MATERIAL
  5
44
102
{ACAD_REACTORS
330
43
102
}
102
{ACAD_XDICTIONARY
360
6CE
102
}
330
43
100
AcDbMaterial
  1
BYLAYER
  0
MATERIAL
  5
46
102
{ACAD_REACTORS
330
43
102
}
102
{ACAD_XDICTIONARY
360
6D2
102
}
330
43
100
AcDbMaterial
  1
GLOBAL
  0
ACAD_PROXY_OBJECT
  5
6C
102
{ACAD_REACTORS
330
6B
102
}
330
6B
100
AcDbProxyObject
 90
      499
 91
      505
 93
      610
310
40901902A4063FBFFFFFE0000000000000020400000000000020404214DD185B99185C990000000000000104090141901A00000000000004100000000000000041025764000000000000039000
340
14
340
0
340
11
340
0
 94
        0
1001
ACAD_MLEADERVER
1070
     2
  0
MLINESTYLE
  5
18
102
{ACAD_REACTORS
330
17
102
}
330
17
100
AcDbMlineStyle
  2
Standard
 70
     0
  3

 62
   256
 51
90.0
 52
90.0
 71
     2
 49
0.5
 62
   256
  6
BYLAYER
 49
-0.5
 62
   256
  6
BYLAYER
  0
ACAD_PROXY_OBJECT
  5
48
102
{ACAD_REACTORS
330
47
102
}
330
47
100
AcDbProxyObject
 90
      499
 91
      503
 93
       41
310
903313A31580
  0
ACAD_PROXY_OBJECT
  5
49
102
{ACAD_REACTORS
330
47
102
}
330
47
100
AcDbProxyObject
 90
      499
 91
      503
 93
      105
310
903313A324000000000000004000
  0
ACAD_PROXY_OBJECT
  5
4A
102
{ACAD_REACTORS
330
47
102
}
330
47
100
AcDbProxyObject
 90
      499
 91
      503
 93
      105
310
903313A344000000000000104000
  0
ACAD_PROXY_OBJECT
  5
4B
102
{ACAD_REACTORS
330
47
102
}
330
47
100
AcDbProxyObject
 90
      499
 91
      503
 93
      105
310
903313A354000000000000144000
  0
ACAD_PROXY_OBJECT
  5
4C
102
{ACAD_REACTORS
330
47
102
}
330
47
100
AcDbProxyObject
 90
      499
 91
      503
 93
      105
310
903313A384000000000000204000
  0
ACAD_PROXY_OBJECT
  5
4D
102
{ACAD_REACTORS
330
47
102
}
330
47
100
AcDbProxyObject
 90
      499
 91
      503
 93
      113
310
904313A31304000000000000244000
  0
ACAD_PROXY_OBJECT
  5
4E
102
{ACAD_REACTORS
330
47
102
}
330
47
100
AcDbProxyObject
 90
      499
 91
      503
 93
      113
310
904313A31364000000000000304000
  0
ACAD_PROXY_OBJECT
  5
4F
102
{ACAD_REACTORS
330
47
102
}
330
47
100
AcDbProxyObject
 90
      499
 91
      503
 93
      113
310
904313A32304000000000000344000
  0
ACAD_PROXY_OBJECT
  5
50
102
{ACAD_REACTORS
330
47
102
}
330
47
100
AcDbProxyObject
 90
      499
 91
      503
 93
      113
310
904313A333040000000000003E4000
  0
ACAD_PROXY_OBJECT
  5
51
102
{ACAD_REACTORS
330
47
102
}
330
47
100
AcDbProxyObject
 90
      499
 91
      503
 93
      113
310
904313A34304000000000000444000
  0
ACAD_PROXY_OBJECT
  5
52
102
{ACAD_REACTORS
330
47
102
}
330
47
100
AcDbProxyObject
 90
      499
 91
      503
 93
      113
310
904313A35304000000000000494000
  0
ACAD_PROXY_OBJECT
  5
53
102
{ACAD_REACTORS
330
47
102
}
330
47
100
AcDbProxyObject
 90
      499
 91
      503
 93
      121
310
905313A3130304000000000000594000
  0
ACAD_PROXY_OBJECT
  5
54
102
{ACAD_REACTORS
330
47
102
}
330
47
100
AcDbProxyObject
 90
      499
 91
      503
 93
      105
310
903323A310000000000000010100
  0
ACAD_PROXY_OBJECT
  5
55
102
{ACAD_REACTORS
330
47
102
}
330
47
100
AcDbProxyObject
 90
      499
 91
      503
 93
      105
310
903343A310000000000000410100
  0
ACAD_PROXY_OBJECT
  5
56
102
{ACAD_REACTORS
330
47
102
}
330
47
100
AcDbProxyObject
 90
      499
 91
      503
 93
      105
310
903383A310000000000000810100
  0
ACAD_PROXY_OBJECT
  5
57
102
{ACAD_REACTORS
330
47
102
}
330
47
100
AcDbProxyObject
 90
      499
 91
      503
 93
      113
310
90431303A310000000000000910100
  0
ACAD_PROXY_OBJECT
  5
58
102
{ACAD_REACTORS
330
47
102
}
330
47
100
AcDbProxyObject
 90
      499
 91
      503
 93
      121
310
9053130303A310000000000001650100
  0
ACAD_PROXY_OBJECT
  5
59
102
{ACAD_REACTORS
330
47
102
}
330
47
100
AcDbProxyObject
 90
      499
 91
      503
 93
      257
310
90E312F31323822203D2031272D3022000000000000200FC000000000000284000
  0
ACAD_PROXY_OBJECT
  5
5A
102
{ACAD_REACTORS
330
47
102
}
330
47
100
AcDbProxyObject
 90
      499
 91
      503
 93
      249
310
90D312F363422203D2031272D3022000000000000240FC000000000000284000
  0
ACAD_PROXY_OBJECT
  5
5B
102
{ACAD_REACTORS
330
47
102
}
330
47
100
AcDbProxyObject
 90
      499
 91
      503
 93
      249
310
90D312F333222203D2031272D3022000000000000280FC000000000000284000
  0
ACAD_PROXY_OBJECT
  5
5C
102
{ACAD_REACTORS
330
47
102
}
330
47
100
AcDbProxyObject
 90
      499
 91
      503
 93
      249
310
90D312F313622203D2031272D30220000000000002C0FC000000000000284000
  0
ACAD_PROXY_OBJECT
  5
5D
102
{ACAD_REACTORS
330
47
102
}
330
47
100
AcDbProxyObject
 90
      499
 91
      503
 93
      249
310
90D332F333222203D2031272D30220000000000002E0FC000000000000284000
  0
ACAD_PROXY_OBJECT
  5
5E
102
{ACAD_REACTORS
330
47
102
}
330
47
100
AcDbProxyObject
 90
      499
 91
      503
 93
      241
310
90C312F3822203D2031272D3022000000000000300FC000000000000284000
  0
ACAD_PROXY_OBJECT
  5
5F
102
{ACAD_REACTORS
330
47
102
}
330
47
100
AcDbProxyObject
 90
      499
 91
      503
 93
      249
310
90D332F313622203D2031272D3022000000000000320FC000000000000284000
  0
ACAD_PROXY_OBJECT
  5
60
102
{ACAD_REACTORS
330
47
102
}
330
47
100
AcDbProxyObject
 90
      499
 91
      503
 93
      241
310
90C312F3422203D2031272D3022000000000000340FC000000000000284000
  0
ACAD_PROXY_OBJECT
  5
61
102
{ACAD_REACTORS
330
47
102
}
330
47
100
AcDbProxyObject
 90
      499
 91
      503
 93
      241
310
90C332F3822203D2031272D3022000000000000360FC000000000000284000
  0
ACAD_PROXY_OBJECT
  5
62
102
{ACAD_REACTORS
330
47
102
}
330
47
100
AcDbProxyObject
 90
      499
 91
      503
 93
      241
310
90C312F3222203D2031272D3022000000000000380FC000000000000284000
  0
ACAD_PROXY_OBJECT
  5
63
102
{ACAD_REACTORS
330
47
102
}
330
47
100
AcDbProxyObject
 90
      499
 91
      503
 93
      241
310
90C332F3422203D2031272D30220000000000003A0FC000000000000284000
  0
ACAD_PROXY_OBJECT
  5
64
102
{ACAD_REACTORS
330
47
102
}
330
47
100
AcDbProxyObject
 90
      499
 91
      503
 93
      161
310
90A3122203D2031272D30224000000000000284000
  0
ACAD_PROXY_OBJECT
  5
65
102
{ACAD_REACTORS
330
47
102
}
330
47
100
AcDbProxyObject
 90
      499
 91
      503
 93
      257
310
90E312D312F3222203D2031272D30220000000000003E0FC000000000000284000
  0
ACAD_PROXY_OBJECT
  5
66
102
{ACAD_REACTORS
330
47
102
}
330
47
100
AcDbProxyObject
 90
      499
 91
      503
 93
      225
310
90A3322203D2031272D302200000000000002100000000000000284000
  0
ACAD_PROXY_OBJECT
  5
67
102
{ACAD_REACTORS
330
47
102
}
330
47
100
AcDbProxyObject
 90
      499
 91
      503
 93
      225
310
90A3622203D2031272D302200000000000006100000000000000284000
  0
ACAD_PROXY_OBJECT
  5
68
102
{ACAD_REACTORS
330
47
102
}
330
47
100
AcDbProxyObject
 90
      499
 91
      503
 93
      249
310
90D31272D3022203D2031272D30220000000000000A100000000000000284000
  0
ACAD_PROXY_OBJECT
  5
2F
102
{ACAD_REACTORS
330
2A
102
}
330
2A
100
AcDbProxyObject
 90
      499
 91
      501
 93
      436
310
42CC9915DA5C99599C985B595049028333333333333E33F0000000000000F90107901411070040501600405405064090741402480A0340
1001
ACAD
1000
AcDbSavedByObjectVersion
1070
     0
  0
ACAD_PROXY_OBJECT
  5
32
102
{ACAD_REACTORS
330
2A
102
}
330
2A
100
AcDbProxyObject
 90
      499
 91
      501
 93
      388
310
4150985CDA58D07406404333333333333E33F0000000000000F90107A41107004050150841D405064090741402480A0350
1001
ACAD
1000
AcDbSavedByObjectVersion
1070
     0
  0
ACAD_PROXY_OBJECT
  5
36
102
{ACAD_REACTORS
330
2A
102
}
330
2A
100
AcDbProxyObject
 90
      499
 91
      501
 93
      428
310
42109C9A59DA1D195B90C409028333333333333E33F0000000000000F9010790141107004050150841D405064090741402480A029950
1001
ACAD
1000
AcDbSavedByObjectVersion
1070
     0
  0
ACAD_PROXY_OBJECT
  5
3A
102
{ACAD_REACTORS
330
2A
102
}
330
2A
100
AcDbProxyObject
 90
      499
 91
      501
 93
      452
310
42D0DBDB1BDC90DA185B99D95104090240C333333333333E33F0000000000000F90108901411070040501508421405064090741402480A0350
1001
ACAD
1000
AcDbSavedByObjectVersion
1070
     0
  0
ACAD_PROXY_OBJECT
  5
34
102
{ACAD_REACTORS
330
2A
102
}
330
2A
100
AcDbProxyObject
 90
      499
 91
      501
 93
      500
310
4290DBDB98D95C1D1D585B10940D028333333333333E33F0000000000000F90107902409070040501000000000018199010841D405064090740C02480A0340
1001
ACAD
1000
AcDbSavedByObjectVersion
1070
     0
  0
ACAD_PROXY_OBJECT
  5
35
102
{ACAD_REACTORS
330
2A
102
}
330
2A
100
AcDbProxyObject
 90
      499
 91
      501
 93
      412
310
40D11A5B50B409028333333333333E33F0000000000000F9010790141107004050150841D405064090741402480A02677FFFFFD0
1001
ACAD
1000
AcDbSavedByObjectVersion
1070
     0
  0
ACAD_PROXY_OBJECT
  5
3D
102
{ACAD_REACTORS
330
2A
102
}
330
2A
100
AcDbProxyObject
 90
      499
 91
      501
 93
      452
310
43115919D950DBDB1BDC93D999916409028333333333333E33F0000000000000F9010790141107004050150841D405064090741402480A0350
1001
ACAD
1000
AcDbSavedByObjectVersion
1070
     0
  0
ACAD_PROXY_OBJECT
  5
39
102
{ACAD_REACTORS
330
2A
102
}
330
2A
100
AcDbProxyObject
 90
      499
 91
      501
 93
      444
310
42D19858D95C185D1D195C9B90F409028333333333333E33F0000000000000F9010790141107004050150841D405064090741402480A0350
1001
ACAD
1000
AcDbSavedByObjectVersion
1070
     0
  0
ACAD_PROXY_OBJECT
  5
2B
102
{ACAD_REACTORS
330
2A
102
}
330
2A
100
AcDbProxyObject
 90
      499
 91
      501
 93
      380
310
41119B185D240901404333333333333E33F0000000000000F9010740A907004050150841D405064090741402480A1B50
1001
ACAD
1000
AcDbSavedByObjectVersion
1070
     0
  0
ACAD_PROXY_OBJECT
  5
2C
102
{ACAD_REACTORS
330
2A
102
}
330
2A
100
AcDbProxyObject
 90
      499
 91
      501
 93
      468
310
43519B185D15DA5D1A115919D95CD0140901404333333333333E33F0000000000000F90107409019070040501600405405064090741402480A1B50
1001
ACAD
1000
AcDbSavedByObjectVersion
1070
     0
  0
ACAD_PROXY_OBJECT
  5
2D
102
{ACAD_REACTORS
330
2A
102
}
330
2A
100
AcDbProxyObject
 90
      499
 91
      501
 93
      404
310
41D1DBDD5C985D5910240902404333333333333E33F0000000000000F9010740A9070040501641D405064090741402480A1B50
1001
ACAD
1000
AcDbSavedByObjectVersion
1070
     0
  0
ACAD_PROXY_OBJECT
  5
2E
102
{ACAD_REACTORS
330
2A
102
}
330
2A
100
AcDbProxyObject
 90
      499
 91
      501
 93
      492
310
4411DBDD5C985D5915DA5D1A115919D95CD0340902404333333333333E33F0000000000000F90107409019070040501600405405064090741402480A1B50
1001
ACAD
1000
AcDbSavedByObjectVersion
1070
     0
  0
ACAD_PROXY_OBJECT
  5
31
102
{ACAD_REACTORS
330
2A
102
}
330
2A
100
AcDbProxyObject
 90
      499
 91
      501
 93
      476
310
41921A5919195B90640502408333333333333E33F0000000000000F901079024090700405020000000000001110200405405064090740C02480A0340
1001
ACAD
1000
AcDbSavedByObjectVersion
1070
     0
  0
ACAD_PROXY_OBJECT
  5
3B
102
{ACAD_REACTORS
330
2A
102
}
330
2A
100
AcDbProxyObject
 90
      499
 91
      501
 93
      428
310
42529A5D1D195C93D999914409028333333333333E33F0000000000000F9010790141107004050150A41D405064090741402480A0350
1001
ACAD
1000
AcDbSavedByObjectVersion
1070
     0
  0
ACAD_PROXY_OBJECT
  5
38
102
{ACAD_REACTORS
330
2A
102
}
330
2A
100
AcDbProxyObject
 90
      499
 91
      501
 93
      444
310
42D31A5B995C185D1D195C9B90E409028333333333333E33F0000000000000F9010790141107004050750841D405064090741402483A0350
1001
ACAD
1000
AcDbSavedByObjectVersion
1070
     0
  0
ACAD_PROXY_OBJECT
  5
3C
102
{ACAD_REACTORS
330
2A
102
}
330
2A
100
AcDbProxyObject
 90
      499
 91
      501
 93
      444
310
42D3DD995C9A185B99D3D999915409028333333333333E33F0000000000000F9010790141107004050150941D405064090741402480A0350
1001
ACAD
1000
AcDbSavedByObjectVersion
1070
     0
  0
ACAD_PROXY_OBJECT
  5
33
102
{ACAD_REACTORS
330
2A
102
}
330
2A
100
AcDbProxyObject
 90
      499
 91
      501
 93
      428
310
425499585B1A5CDD1A58D08409038333333333333E33F0000000000000F9010740A907004050150800405405064090740C02480A1B40
1001
ACAD
1000
AcDbSavedByObjectVersion
1070
     0
  0
ACAD_PROXY_OBJECT
  5
42
102
{ACAD_REACTORS
330
2A
102
}
330
2A
100
AcDbProxyObject
 90
      499
 91
      501
 93
      420
310
4194DA1859195911B40902404333333333333E33F0000000000000F9010740A41107004050150800405405064090840C02480A0B40
1001
ACAD
1000
AcDbSavedByObjectVersion
1070
     0
  0
ACAD_PROXY_OBJECT
  5
41
102
{ACAD_REACTORS
330
2A
102
}
330
2A
100
AcDbProxyObject
 90
      499
 91
      501
 93
      516
310
4454DA18591959081DDA5D1A08195919D95CD1A40902404333333333333E33F0000000000000F901074090142907004050250800405405064090740C02480A0B40
1001
ACAD
1000
AcDbSavedByObjectVersion
1070
     0
  0
ACAD_PROXY_OBJECT
  5
3E
102
{ACAD_REACTORS
330
2A
102
}
330
2A
100
AcDbProxyObject
 90
      499
 91
      501
 93
      532
310
4394DA1859195CC81BD98811DC985E5174090240C333333333333E33F0000000000000F901079024090741D01000000000000111010841D405064090740C02480A0340
1001
ACAD
1000
AcDbSavedByObjectVersion
1070
     0
  0
ACAD_PROXY_OBJECT
  5
3F
102
{ACAD_REACTORS
330
2A
102
}
330
2A
100
AcDbProxyObject
 90
      499
 91
      501
 93
      476
310
41D4DAD95D18DA1E51840502408333333333333E33F0000000000000F901079024090741D01000000000000111010B41D405064090741802480A0340
1001
ACAD
1000
AcDbSavedByObjectVersion
1070
     0
  0
ACAD_PROXY_OBJECT
  5
37
102
{ACAD_REACTORS
330
2A
102
}
330
2A
100
AcDbProxyObject
 90
      499
 91
      501
 93
      412
310
41D51A1A58DAD95B90D409028333333333333E33F0000000000000F9010790141107004050150C41D405064090741402480A0350
1001
ACAD
1000
AcDbSavedByObjectVersion
1070
     0
  0
ACAD_PROXY_OBJECT
  5
30
102
{ACAD_REACTORS
330
2A
102
}
330
2A
100
AcDbProxyObject
 90
      499
 91
      501
 93
      420
310
4255DA5C99599C985B595059028333333333333E33F0000000000000F90107901411070040501600405405064090740C02480A0340
1001
ACAD
1000
AcDbSavedByObjectVersion
1070
     0
  0
ACAD_PROXY_OBJECT
  5
40
102
{ACAD_REACTORS
330
2A
102
}
330
2A
100
AcDbProxyObject
 90
      499
 91
      501
 93
      404
310
41560B54985E51940902404000000000000E03F0000000000000F9010740501907004050150841D405064090740C02480A1B40
1001
ACAD
1000
AcDbSavedByObjectVersion
1070
     0
  0
XRECORD
  5
6A8
102
{ACAD_REACTORS
330
69E
102
}
330
69E
100
AcDbXrecord
340
0
  0
XRECORD
  5
6A7
102
{ACAD_REACTORS
330
69E
102
}
330
69E
100
AcDbXrecord
 90
        0
  0
XRECORD
  5
6BE
102
{ACAD_REACTORS
330
69E
102
}
330
69E
100
AcDbXrecord
1000
DSTYLE
1002
{
1070
   340
340
11
1002
}
  0
XRECORD
  5
6A9
102
{ACAD_REACTORS
330
69E
102
}
330
69E
100
AcDbXrecord
  1
{a34060b5-8946-4102-ad1f-147576b9eee9}
  0
XRECORD
  5
6A1
102
{ACAD_REACTORS
330
69E
102
}
330
69E
100
AcDbXrecord
  1

  0
XRECORD
  5
6A6
102
{ACAD_REACTORS
330
69E
102
}
330
69E
100
AcDbXrecord
 90
        4
  0
XRECORD
  5
6A3
102
{ACAD_REACTORS
330
69E
102
}
330
69E
100
AcDbXrecord
340
1A
  0
XRECORD
  5
6A5
102
{ACAD_REACTORS
330
69E
102
}
330
69E
100
AcDbXrecord
 90
    10781
  0
XRECORD
  5
6A4
102
{ACAD_REACTORS
330
69E
102
}
330
69E
100
AcDbXrecord
340
19
  0
XRECORD
  5
6AB
102
{ACAD_REACTORS
330
69E
102
}
330
69E
100
AcDbXrecord
 40
0.0
  0
XRECORD
  5
6AE
102
{ACAD_REACTORS
330
69E
102
}
330
69E
100
AcDbXrecord
340
0
  0
XRECORD
  5
6B4
102
{ACAD_REACTORS
330
69E
102
}
330
69E
100
AcDbXrecord
 10
0.0
 20
0.0
 30
0.0
  0
XRECORD
  5
6B0
102
{ACAD_REACTORS
330
69E
102
}
330
69E
100
AcDbXrecord
 10
0.0
 20
0.0
 30
0.0
  0
XRECORD
  5
6B3
102
{ACAD_REACTORS
330
69E
102
}
330
69E
100
AcDbXrecord
 10
0.0
 20
0.0
 30
0.0
  0
XRECORD
  5
6B1
102
{ACAD_REACTORS
330
69E
102
}
330
69E
100
AcDbXrecord
 10
0.0
 20
0.0
 30
0.0
  0
XRECORD
  5
6B2
102
{ACAD_REACTORS
330
69E
102
}
330
69E
100
AcDbXrecord
 10
0.0
 20
0.0
 30
0.0
  0
XRECORD
  5
6AF
102
{ACAD_REACTORS
330
69E
102
}
330
69E
100
AcDbXrecord
 10
0.0
 20
0.0
 30
0.0
  0
XRECORD
  5
6AC
102
{ACAD_REACTORS
330
69E
102
}
330
69E
100
AcDbXrecord
340
0
  0
XRECORD
  5
6AD
102
{ACAD_REACTORS
330
69E
102
}
330
69E
100
AcDbXrecord
 70
     0
  0
XRECORD
  5
6A2
102
{ACAD_REACTORS
330
69E
102
}
330
69E
100
AcDbXrecord
  1

  0
XRECORD
  5
69F
102
{ACAD_REACTORS
330
69E
102
}
330
69E
100
AcDbXrecord
 90
        1
  0
XRECORD
  5
6A0
102
{ACAD_REACTORS
330
69E
102
}
330
69E
100
AcDbXrecord
 90
       70
  0
XRECORD
  5
6B7
102
{ACAD_REACTORS
330
69E
102
}
330
69E
100
AcDbXrecord
340
0
  0
XRECORD
  5
6BD
102
{ACAD_REACTORS
330
69E
102
}
330
69E
100
AcDbXrecord
 10
0.0
 20
0.0
 30
0.0
  0
XRECORD
  5
6B9
102
{ACAD_REACTORS
330
69E
102
}
330
69E
100
AcDbXrecord
 10
0.0
 20
0.0
 30
0.0
  0
XRECORD
  5
6BC
102
{ACAD_REACTORS
330
69E
102
}
330
69E
100
AcDbXrecord
 10
0.0
 20
0.0
 30
0.0
  0
XRECORD
  5
6BA
102
{ACAD_REACTORS
330
69E
102
}
330
69E
100
AcDbXrecord
 10
0.0
 20
0.0
 30
0.0
  0
XRECORD
  5
6BB
102
{ACAD_REACTORS
330
69E
102
}
330
69E
100
AcDbXrecord
 10
0.0
 20
0.0
 30
0.0
  0
XRECORD
  5
6B8
102
{ACAD_REACTORS
330
69E
102
}
330
69E
100
AcDbXrecord
 10
0.0
 20
0.0
 30
0.0
  0
XRECORD
  5
6B5
102
{ACAD_REACTORS
330
69E
102
}
330
69E
100
AcDbXrecord
340
0
  0
XRECORD
  5
6B6
102
{ACAD_REACTORS
330
69E
102
}
330
69E
100
AcDbXrecord
 70
     0
  0
XRECORD
  5
6AA
102
{ACAD_REACTORS
330
69E
102
}
330
69E
100
AcDbXrecord
  1
{FAEB1C32-E019-11D5-929B-00C0DF256EC4}
  0
DICTIONARYVAR
  5
6CC
102
{ACAD_REACTORS
330
6BF
102
}
330
6BF
100
DictionaryVariables
280
     0
  1
1:1
  0
DICTIONARYVAR
  5
6C6
102
{ACAD_REACTORS
330
6BF
102
}
330
6BF
100
DictionaryVariables
280
     0
  1
3.500000
  0
DICTIONARYVAR
  5
6C7
102
{ACAD_REACTORS
330
6BF
102
}
330
6BF
100
DictionaryVariables
280
     0
  1
acadiso.lin
  0
DICTIONARYVAR
  5
6C1
102
{ACAD_REACTORS
330
6BF
102
}
330
6BF
100
DictionaryVariables
280
     0
  1
Standard
  0
DICTIONARYVAR
  5
6C0
102
{ACAD_REACTORS
330
6BF
102
}
330
6BF
100
DictionaryVariables
280
     0
  1
Standard
  0
DICTIONARYVAR
  5
6C8
102
{ACAD_REACTORS
330
6BF
102
}
330
6BF
100
DictionaryVariables
280
     0
  1
2
  0
DICTIONARYVAR
  5
6C9
102
{ACAD_REACTORS
330
6BF
102
}
330
6BF
100
DictionaryVariables
280
     0
  1
1
  0
DICTIONARYVAR
  5
6CD
102
{ACAD_REACTORS
330
6BF
102
}
330
6BF
100
DictionaryVariables
280
     0
  1
1
  0
DICTIONARYVAR
  5
6C3
102
{ACAD_REACTORS
330
6BF
102
}
330
6BF
100
DictionaryVariables
280
     0
  1
80.000000
  0
DICTIONARYVAR
  5
6C2
102
{ACAD_REACTORS
330
6BF
102
}
330
6BF
100
DictionaryVariables
280
     0
  1
5.000000
  0
DICTIONARY
  5
6D0
330
45
100
AcDbDictionary
280
     1
  3
ACAD_XREC_ROUNDTRIP
360
6D1
  0
DICTIONARY
  5
6CE
330
44
100
AcDbDictionary
280
     1
  3
ACAD_XREC_ROUNDTRIP
360
6CF
  0
DICTIONARY
  5
6D2
330
46
100
AcDbDictionary
280
     1
  3
ACAD_XREC_ROUNDTRIP
360
6D3
  0
XRECORD
  5
6D1
102
{ACAD_REACTORS
330
6D0
102
}
330
6D0
100
AcDbXrecord
102
MATERIAL
148
0.0
149
0.0
149
0.0
 93
        0
 94
      127
282
     0
 72
     1
 77
     1
171
     1
175
     1
179
     1
273
     0
  0
XRECORD
  5
6CF
102
{ACAD_REACTORS
330
6CE
102
}
330
6CE
100
AcDbXrecord
102
MATERIAL
148
0.0
149
0.0
149
0.0
 93
        0
 94
      127
282
     0
 72
     1
 77
     1
171
     1
175
     1
179
     1
273
     0
  0
XRECORD
  5
6D3
102
{ACAD_REACTORS
330
6D2
102
}
330
6D2
100
AcDbXrecord
102
MATERIAL
148
0.0
149
0.0
149
0.0
 93
        0
 94
      127
282
     0
 72
     1
 77
     1
171
     1
175
     1
179
     1
273
     0
  0
ENDSEC
  0
EOF
