  0
SECTION
  2
HEADER
  9
$ACADVER
  1
AC1014
  9
$ACADMAINTVER
 70
     9
  9
$DWGCODEPAGE
  3
ANSI_932
  9
$INSBASE
 10
0.0
 20
0.0
 30
0.0
  9
$EXTMIN
 10
50.0
 20
100.0
 30
0.0
  9
$EXTMAX
 10
3850.0
 20
2800.0
 30
0.0
  9
$LIMMIN
 10
0.0
 20
0.0
  9
$LIMMAX
 10
420.0
 20
297.0
  9
$ORTHOMODE
 70
     0
  9
$REGENMODE
 70
     1
  9
$FILLMODE
 70
     1
  9
$QTEXTMODE
 70
     0
  9
$MIRRTEXT
 70
     1
  9
$DRAGMODE
 70
     2
  9
$LTSCALE
 40
0.2
  9
$OSMODE
 70
    37
  9
$ATTMODE
 70
     1
  9
$TEXTSIZE
 40
2.5
  9
$TRACEWID
 40
1.0
  9
$TEXTSTYLE
  7
STANDARD
  9
$CLAYER
  8
LAY-10
  9
$CELTYPE
  6
BYLAYER
  9
$CECOLOR
 62
   256
  9
$CELTSCALE
 40
1.0
  9
$DELOBJ
 70
     1
  9
$DISPSILH
 70
     0
  9
$DIMSCALE
 40
1.0
  9
$DIMASZ
 40
2.5
  9
$DIMEXO
 40
0.625
  9
$DIMDLI
 40
3.75
  9
$DIMRND
 40
0.0
  9
$DIMDLE
 40
0.0
  9
$DIMEXE
 40
1.25
  9
$DIMTP
 40
0.0
  9
$DIMTM
 40
0.0
  9
$DIMTXT
 40
2.5
  9
$DIMCEN
 40
2.5
  9
$DIMTSZ
 40
0.0
  9
$DIMTOL
 70
     0
  9
$DIMLIM
 70
     0
  9
$DIMTIH
 70
     0
  9
$DIMTOH
 70
     0
  9
$DIMSE1
 70
     0
  9
$DIMSE2
 70
     0
  9
$DIMTAD
 70
     1
  9
$DIMZIN
 70
     8
  9
$DIMBLK
  1

  9
$DIMASO
 70
     1
  9
$DIMSHO
 70
     1
  9
$DIMPOST
  1

  9
$DIMAPOST
  1

  9
$DIMALT
 70
     0
  9
$DIMALTD
 70
     3
  9
$DIMALTF
 40
0.03937007874016
  9
$DIMLFAC
 40
1.0
  9
$DIMTOFL
 70
     1
  9
$DIMTVP
 40
0.0
  9
$DIMTIX
 70
     0
  9
$DIMSOXD
 70
     0
  9
$DIMSAH
 70
     0
  9
$DIMBLK1
  1

  9
$DIMBLK2
  1

  9
$DIMSTYLE
  2
ISO-25
  9
$DIMCLRD
 70
     0
  9
$DIMCLRE
 70
     0
  9
$DIMCLRT
 70
     0
  9
$DIMTFAC
 40
1.0
  9
$DIMGAP
 40
0.625
  9
$DIMJUST
 70
     0
  9
$DIMSD1
 70
     0
  9
$DIMSD2
 70
     0
  9
$DIMTOLJ
 70
     0
  9
$DIMTZIN
 70
     8
  9
$DIMALTZ
 70
     0
  9
$DIMALTTZ
 70
     0
  9
$DIMFIT
 70
     3
  9
$DIMUPT
 70
     0
  9
$DIMUNIT
 70
     2
  9
$DIMDEC
 70
     2
  9
$DIMTDEC
 70
     2
  9
$DIMALTU
 70
     2
  9
$DIMALTTD
 70
     3
  9
$DIMTXSTY
  7
STANDARD
  9
$DIMAUNIT
 70
     0
  9
$LUNITS
 70
     2
  9
$LUPREC
 70
     4
  9
$SKETCHINC
 40
1.0
  9
$FILLETRAD
 40
10.0
  9
$AUNITS
 70
     0
  9
$AUPREC
 70
     0
  9
$MENU
  1
.
  9
$ELEVATION
 40
0.0
  9
$PELEVATION
 40
0.0
  9
$THICKNESS
 40
0.0
  9
$LIMCHECK
 70
     0
  9
$CHAMFERA
 40
0.0
  9
$CHAMFERB
 40
0.0
  9
$CHAMFERC
 40
0.0
  9
$CHAMFERD
 40
0.0
  9
$SKPOLY
 70
     0
  9
$TDCREATE
 40
2459229.333141262
  9
$TDUPDATE
 40
2459229.333142106
  9
$TDINDWG
 40
0.0000000116
  9
$TDUSRTIMER
 40
0.0000000116
  9
$USRTIMER
 70
     1
  9
$ANGBASE
 50
0.0
  9
$ANGDIR
 70
     0
  9
$PDMODE
 70
     0
  9
$PDSIZE
 40
0.0
  9
$PLINEWID
 40
0.0
  9
$COORDS
 70
     1
  9
$SPLFRAME
 70
     0
  9
$SPLINETYPE
 70
     6
  9
$SPLINESEGS
 70
     8
  9
$ATTDIA
 70
     0
  9
$ATTREQ
 70
     1
  9
$HANDLING
 70
     1
  9
$HANDSEED
  5
6E5
  9
$SURFTAB1
 70
     6
  9
$SURFTAB2
 70
     6
  9
$SURFTYPE
 70
     6
  9
$SURFU
 70
     6
  9
$SURFV
 70
     6
  9
$UCSNAME
  2

  9
$UCSORG
 10
0.0
 20
0.0
 30
0.0
  9
$UCSXDIR
 10
1.0
 20
0.0
 30
0.0
  9
$UCSYDIR
 10
0.0
 20
1.0
 30
0.0
  9
$PUCSNAME
  2

  9
$PUCSORG
 10
0.0
 20
0.0
 30
0.0
  9
$PUCSXDIR
 10
1.0
 20
0.0
 30
0.0
  9
$PUCSYDIR
 10
0.0
 20
1.0
 30
0.0
  9
$USERI1
 70
     0
  9
$USERI2
 70
     0
  9
$USERI3
 70
     0
  9
$USERI4
 70
     0
  9
$USERI5
 70
     0
  9
$USERR1
 40
0.0
  9
$USERR2
 40
0.0
  9
$USERR3
 40
0.0
  9
$USERR4
 40
0.0
  9
$USERR5
 40
0.0
  9
$WORLDVIEW
 70
     1
  9
$SHADEDGE
 70
     3
  9
$SHADEDIF
 70
    70
  9
$TILEMODE
 70
     1
  9
$MAXACTVP
 70
    64
  9
$PINSBASE
 10
0.0
 20
0.0
 30
0.0
  9
$PLIMCHECK
 70
     0
  9
$PEXTMIN
 10
1.000000000000000E+20
 20
1.000000000000000E+20
 30
1.000000000000000E+20
  9
$PEXTMAX
 10
-1.000000000000000E+20
 20
-1.000000000000000E+20
 30
-1.000000000000000E+20
  9
$PLIMMIN
 10
0.0
 20
0.0
  9
$PLIMMAX
 10
420.0
 20
297.0
  9
$UNITMODE
 70
     0
  9
$VISRETAIN
 70
     1
  9
$PLINEGEN
 70
     0
  9
$PSLTSCALE
 70
     1
  9
$TREEDEPTH
 70
  3020
  9
$PICKSTYLE
 70
     1
  9
$CMLSTYLE
  2
STANDARD
  9
$CMLJUST
 70
     0
  9
$CMLSCALE
 40
20.0
  9
$PROXYGRAPHICS
 70
     1
  9
$MEASUREMENT
 70
     1
  0
ENDSEC
  0
SECTION
  2
CLASSES
  0
CLASS
  1
ACDBDICTIONARYWDFLT
  2
AcDbDictionaryWithDefault
  3
ObjectDBX Classes
 90
        0
280
     0
281
     0
  0
CLASS
  1
VISUALSTYLE
  2
AcDbVisualStyle
  3
ObjectDBX Classes
 90
     4095
280
     0
281
     0
  0
CLASS
  1
MATERIAL
  2
AcDbMaterial
  3
ObjectDBX Classes
 90
     1153
280
     0
281
     0
  0
CLASS
  1
SCALE
  2
AcDbScale
  3
ObjectDBX Classes
 90
     1153
280
     0
281
     0
  0
CLASS
  1
TABLESTYLE
  2
AcDbTableStyle
  3
ObjectDBX Classes
 90
     4095
280
     0
281
     0
  0
CLASS
  1
MLEADERSTYLE
  2
AcDbMLeaderStyle
  3
ACDB_MLEADERSTYLE_CLASS
 90
     4095
280
     0
281
     0
  0
CLASS
  1
SUN
  2
AcDbSun
  3
SCENEOE
 90
     1153
280
     0
281
     0
  0
CLASS
  1
DICTIONARYVAR
  2
AcDbDictionaryVar
  3
ObjectDBX Classes
 90
        0
280
     0
281
     0
  0
CLASS
  1
XRECORD
  2
AcDbXrecord
  3
ObjectDBX Classes
 90
        0
280
     0
281
     0
  0
CLASS
  1
LWPOLYLINE
  2
AcDbPolyline
  3
ObjectDBX Classes
 90
        0
280
     0
281
     1
  0
CLASS
  1
HATCH
  2
AcDbHatch
  3
ObjectDBX Classes
 90
        0
280
     0
281
     1
  0
CLASS
  1
ACDBPLACEHOLDER
  2
AcDbPlaceHolder
  3
ObjectDBX Classes
 90
        0
280
     0
281
     0
  0
CLASS
  1
LAYOUT
  2
AcDbLayout
  3
ObjectDBX Classes
 90
        0
280
     0
281
     0
  0
ENDSEC
  0
SECTION
  2
TABLES
  0
TABLE
  2
VPORT
  5
8
102
{ACAD_XDICTIONARY
360
6DA
102
}
330
0
100
AcDbSymbolTable
 70
     1
  0
VPORT
  5
29
330
8
100
AcDbSymbolTableRecord
100
AcDbViewportTableRecord
  2
*ACTIVE
 70
     0
 10
0.0
 20
0.0
 11
1.0
 21
1.0
 12
1950.0
 22
1450.0
 13
0.0
 23
0.0
 14
10.0
 24
10.0
 15
10.0
 25
10.0
 16
0.0
 26
0.0
 36
1.0
 17
0.0
 27
0.0
 37
0.0
 40
2700.0
 41
1.407407407407408
 42
50.0
 43
0.0
 44
0.0
 50
0.0
 51
0.0
 71
     0
 72
  1000
 73
     1
 74
     3
 75
     0
 76
     0
 77
     0
 78
     0
  0
ENDTAB
  0
TABLE
  2
LTYPE
  5
5
330
0
100
AcDbSymbolTable
 70
     6
  0
LTYPE
  5
14
330
5
100
AcDbSymbolTableRecord
100
AcDbLinetypeTableRecord
  2
BYBLOCK
 70
     0
  3

 72
    65
 73
     0
 40
0.0
  0
LTYPE
  5
15
330
5
100
AcDbSymbolTableRecord
100
AcDbLinetypeTableRecord
  2
BYLAYER
 70
     0
  3

 72
    65
 73
     0
 40
0.0
  0
LTYPE
  5
16
330
5
100
AcDbSymbolTableRecord
100
AcDbLinetypeTableRecord
  2
CONTINUOUS
 70
     0
  3
Solid line
 72
    65
 73
     0
 40
0.0
  0
LTYPE
  5
6E
330
5
100
AcDbSymbolTableRecord
100
AcDbLinetypeTableRecord
  2
HIDDEN
 70
     0
  3
Hidden __ __ __ __ __ __ __ __ __ __ __ __ __ __
 72
    65
 73
     2
 40
9.524999999999999
 49
6.35
 74
     0
 49
-3.175
 74
     0
  0
LTYPE
  5
6F
330
5
100
AcDbSymbolTableRecord
100
AcDbLinetypeTableRecord
  2
CENTER
 70
     0
  3
Center ____ _ ____ _ ____ _ ____ _ ____ _ ____
 72
    65
 73
     4
 40
50.8
 49
31.75
 74
     0
 49
-6.35
 74
     0
 49
6.35
 74
     0
 49
-6.35
 74
     0
  0
LTYPE
  5
70
330
5
100
AcDbSymbolTableRecord
100
AcDbLinetypeTableRecord
  2
PHANTOM
 70
     0
  3
Phantom ______  __  __  ______  __  __  ______ 
 72
    65
 73
     6
 40
63.50000000000001
 49
31.75
 74
     0
 49
-6.35
 74
     0
 49
6.35
 74
     0
 49
-6.35
 74
     0
 49
6.35
 74
     0
 49
-6.35
 74
     0
  0
LTYPE
  5
71
330
5
100
AcDbSymbolTableRecord
100
AcDbLinetypeTableRecord
  2
ACAD_ISO06W100
 70
     0
  3
ISO long-dash triple-dot ____ ... ____ ... ____
 72
    65
 73
     8
 40
36.0
 49
24.0
 74
     0
 49
-3.0
 74
     0
 49
0.0
 74
     0
 49
-3.0
 74
     0
 49
0.0
 74
     0
 49
-3.0
 74
     0
 49
0.0
 74
     0
 49
-3.0
 74
     0
  0
LTYPE
  5
72
330
5
100
AcDbSymbolTableRecord
100
AcDbLinetypeTableRecord
  2
ACAD_ISO15W100
 70
     0
  3
ISO double-dash triple-dot __ __ . . . __ __ . .
 72
    65
 73
    10
 40
39.0
 49
12.0
 74
     0
 49
-3.0
 74
     0
 49
12.0
 74
     0
 49
-3.0
 74
     0
 49
0.0
 74
     0
 49
-3.0
 74
     0
 49
0.0
 74
     0
 49
-3.0
 74
     0
 49
0.0
 74
     0
 49
-3.0
 74
     0
  0
ENDTAB
  0
TABLE
  2
LAYER
  5
2
330
0
100
AcDbSymbolTable
 70
     6
  0
LAYER
  5
10
330
2
100
AcDbSymbolTableRecord
100
AcDbLayerTableRecord
  2
0
 70
     0
 62
     7
  6
CONTINUOUS
  0
LAYER
  5
75
330
2
100
AcDbSymbolTableRecord
100
AcDbLayerTableRecord
  2
LAY-10
 70
     0
 62
     7
  6
CONTINUOUS
  0
LAYER
  5
76
330
2
100
AcDbSymbolTableRecord
100
AcDbLayerTableRecord
  2
LAY-11
 70
     0
 62
     7
  6
CONTINUOUS
  0
LAYER
  5
77
330
2
100
AcDbSymbolTableRecord
100
AcDbLayerTableRecord
  2
LAY-20
 70
     0
 62
     7
  6
CONTINUOUS
  0
LAYER
  5
78
330
2
100
AcDbSymbolTableRecord
100
AcDbLayerTableRecord
  2
LAY-255
 70
     0
 62
     7
  6
CONTINUOUS
  0
LAYER
  5
601
330
2
100
AcDbSymbolTableRecord
100
AcDbLayerTableRecord
  2
DEFPOINTS
 70
     0
 62
     7
  6
CONTINUOUS
  0
ENDTAB
  0
TABLE
  2
STYLE
  5
3
330
0
100
AcDbSymbolTable
 70
     4
  0
STYLE
  5
11
330
3
100
AcDbSymbolTableRecord
100
AcDbTextStyleTableRecord
  2
STANDARD
 70
     0
 40
0.0
 41
1.0
 50
0.0
 71
     0
 42
2.5
  3
simplex
  4
bigfont
  0
STYLE
  5
73
330
3
100
AcDbSymbolTableRecord
100
AcDbTextStyleTableRecord
  2
EXCADSTD
 70
     0
 40
0.0
 41
1.0
 50
0.0
 71
     0
 42
2.5
  3
simplex
  4
bigfont
  0
STYLE
  5
74
330
3
100
AcDbSymbolTableRecord
100
AcDbTextStyleTableRecord
  2
EXCADVERT
 70
     4
 40
0.0
 41
1.0
 50
0.0
 71
     0
 42
2.5
  3
simplex
  4
bigfont
  0
STYLE
  5
5FF
330
3
100
AcDbSymbolTableRecord
100
AcDbTextStyleTableRecord
  2
EXCADDIM1
 70
     0
 40
0.0
 41
0.84
 50
0.0
 71
     0
 42
2.5
  3
simplex
  4
bigfont
  0
ENDTAB
  0
TABLE
  2
VIEW
  5
6
330
0
100
AcDbSymbolTable
 70
     0
  0
ENDTAB
  0
TABLE
  2
UCS
  5
7
330
0
100
AcDbSymbolTable
 70
     0
  0
ENDTAB
  0
TABLE
  2
APPID
  5
9
330
0
100
AcDbSymbolTable
 70
     2
  0
APPID
  5
12
330
9
100
AcDbSymbolTableRecord
100
AcDbRegAppTableRecord
  2
ACAD
 70
     0
  0
APPID
  5
6E4
330
9
100
AcDbSymbolTableRecord
100
AcDbRegAppTableRecord
  2
ACAD_MLEADERVER
 70
     0
  0
ENDTAB
  0
TABLE
  2
DIMSTYLE
  5
A
330
0
100
AcDbSymbolTable
 70
     1
  0
DIMSTYLE
105
27
102
{ACAD_REACTORS
330
600
330
60E
330
61B
330
628
330
635
330
642
330
64F
330
65C
330
669
330
676
102
}
330
A
100
AcDbSymbolTableRecord
100
AcDbDimStyleTableRecord
  2
ISO-25
 70
     0
  3

  4

  5

  6

  7

 40
1.0
 41
2.5
 42
0.625
 43
3.75
 44
1.25
 45
0.0
 46
0.0
 47
0.0
 48
0.0
140
2.5
141
2.5
142
0.0
143
0.03937007874016
144
1.0
145
0.0
146
1.0
147
0.625
 71
     0
 72
     0
 73
     0
 74
     0
 75
     0
 76
     0
 77
     1
 78
     8
170
     0
171
     3
172
     1
173
     0
174
     0
175
     0
176
     0
177
     0
178
     0
270
     2
271
     2
272
     2
273
     2
274
     3
340
11
275
     0
280
     0
281
     0
282
     0
283
     0
284
     8
285
     0
286
     0
287
     5
288
     0
  0
ENDTAB
  0
TABLE
  2
BLOCK_RECORD
  5
1
330
0
100
AcDbSymbolTable
 70
    32
  0
BLOCK_RECORD
  5
1F
330
1
100
AcDbSymbolTableRecord
100
AcDbBlockTableRecord
  2
*MODEL_SPACE
  0
BLOCK_RECORD
  5
1B
330
1
100
AcDbSymbolTableRecord
100
AcDbBlockTableRecord
  2
*PAPER_SPACE
  0
BLOCK_RECORD
  5
79
330
1
100
AcDbSymbolTableRecord
100
AcDbBlockTableRecord
  2
EX_NORM
  0
BLOCK_RECORD
  5
7C
330
1
100
AcDbSymbolTableRecord
100
AcDbBlockTableRecord
  2
EX_BNORM
  0
BLOCK_RECORD
  5
7F
330
1
100
AcDbSymbolTableRecord
100
AcDbBlockTableRecord
  2
EX_BCIR
  0
BLOCK_RECORD
  5
82
330
1
100
AcDbSymbolTableRecord
100
AcDbBlockTableRecord
  2
EX_RCIVIL
  0
BLOCK_RECORD
  5
85
330
1
100
AcDbSymbolTableRecord
100
AcDbBlockTableRecord
  2
EX_SLANT
  0
BLOCK_RECORD
  5
88
330
1
100
AcDbSymbolTableRecord
100
AcDbBlockTableRecord
  2
EX_NONE
  0
BLOCK_RECORD
  5
8B
330
1
100
AcDbSymbolTableRecord
100
AcDbBlockTableRecord
  2
EX_CIVIL
  0
BLOCK_RECORD
  5
8E
330
1
100
AcDbSymbolTableRecord
100
AcDbBlockTableRecord
  2
EX_WCIR
  0
BLOCK_RECORD
  5
91
330
1
100
AcDbSymbolTableRecord
100
AcDbBlockTableRecord
  2
EX_WCIR2
  0
BLOCK_RECORD
  5
94
330
1
100
AcDbSymbolTableRecord
100
AcDbBlockTableRecord
  2
EX_WNORM
  0
BLOCK_RECORD
  5
97
330
1
100
AcDbSymbolTableRecord
100
AcDbBlockTableRecord
  2
EX_NNORM
  0
BLOCK_RECORD
  5
9A
330
1
100
AcDbSymbolTableRecord
100
AcDbBlockTableRecord
  2
EX_BBOX
  0
BLOCK_RECORD
  5
9D
330
1
100
AcDbSymbolTableRecord
100
AcDbBlockTableRecord
  2
EX_WBOX
  0
BLOCK_RECORD
  5
A0
330
1
100
AcDbSymbolTableRecord
100
AcDbBlockTableRecord
  2
EX_INTEGRAL
  0
BLOCK_RECORD
  5
A3
330
1
100
AcDbSymbolTableRecord
100
AcDbBlockTableRecord
  2
SYM-1
  0
BLOCK_RECORD
  5
A6
330
1
100
AcDbSymbolTableRecord
100
AcDbBlockTableRecord
  2
SYM-2
  0
BLOCK_RECORD
  5
A9
330
1
100
AcDbSymbolTableRecord
100
AcDbBlockTableRecord
  2
SYM-3
  0
BLOCK_RECORD
  5
AC
330
1
100
AcDbSymbolTableRecord
100
AcDbBlockTableRecord
  2
SYM-4
  0
BLOCK_RECORD
  5
AF
330
1
100
AcDbSymbolTableRecord
100
AcDbBlockTableRecord
  2
SYM-5
  0
BLOCK_RECORD
  5
B2
330
1
100
AcDbSymbolTableRecord
100
AcDbBlockTableRecord
  2
SYM-6
  0
BLOCK_RECORD
  5
B5
330
1
100
AcDbSymbolTableRecord
100
AcDbBlockTableRecord
  2
SYM-7
  0
BLOCK_RECORD
  5
B8
330
1
100
AcDbSymbolTableRecord
100
AcDbBlockTableRecord
  2
SYM-8
  0
BLOCK_RECORD
  5
602
330
1
100
AcDbSymbolTableRecord
100
AcDbBlockTableRecord
  2
*D23
  0
BLOCK_RECORD
  5
60F
330
1
100
AcDbSymbolTableRecord
100
AcDbBlockTableRecord
  2
*D24
  0
BLOCK_RECORD
  5
61C
330
1
100
AcDbSymbolTableRecord
100
AcDbBlockTableRecord
  2
*D25
  0
BLOCK_RECORD
  5
629
330
1
100
AcDbSymbolTableRecord
100
AcDbBlockTableRecord
  2
*D26
  0
BLOCK_RECORD
  5
636
330
1
100
AcDbSymbolTableRecord
100
AcDbBlockTableRecord
  2
*D27
  0
BLOCK_RECORD
  5
643
330
1
100
AcDbSymbolTableRecord
100
AcDbBlockTableRecord
  2
*D28
  0
BLOCK_RECORD
  5
650
330
1
100
AcDbSymbolTableRecord
100
AcDbBlockTableRecord
  2
*D29
  0
BLOCK_RECORD
  5
65D
330
1
100
AcDbSymbolTableRecord
100
AcDbBlockTableRecord
  2
*D30
  0
BLOCK_RECORD
  5
66A
330
1
100
AcDbSymbolTableRecord
100
AcDbBlockTableRecord
  2
*D31
  0
BLOCK_RECORD
  5
677
330
1
100
AcDbSymbolTableRecord
100
AcDbBlockTableRecord
  2
*D32
  0
ENDTAB
  0
ENDSEC
  0
SECTION
  2
BLOCKS
  0
BLOCK
  5
20
330
1F
100
AcDbEntity
  8
0
100
AcDbBlockBegin
  2
*MODEL_SPACE
 70
     0
 10
0.0
 20
0.0
 30
0.0
  3
*MODEL_SPACE
  1

  0
ENDBLK
  5
21
330
1F
100
AcDbEntity
  8
0
100
AcDbBlockEnd
  0
BLOCK
  5
1C
330
1B
100
AcDbEntity
 67
     1
  8
0
100
AcDbBlockBegin
  2
*PAPER_SPACE
 70
     0
 10
0.0
 20
0.0
 30
0.0
  3
*PAPER_SPACE
  1

  0
ENDBLK
  5
1D
330
1B
100
AcDbEntity
 67
     1
  8
0
100
AcDbBlockEnd
  0
BLOCK
  5
7A
330
79
100
AcDbEntity
  8
0
100
AcDbBlockBegin
  2
EX_NORM
 70
     0
 10
0.0
 20
0.0
 30
0.0
  3
EX_NORM
  1

  0
LINE
  5
BB
330
79
100
AcDbEntity
  8
0
  6
CONTINUOUS
 62
     0
100
AcDbLine
 10
0.0
 20
0.0
 30
0.0
 11
-1.0
 21
0.0
 31
0.0
  0
LINE
  5
BC
330
79
100
AcDbEntity
  8
0
  6
CONTINUOUS
 62
     0
100
AcDbLine
 10
0.0
 20
0.0
 30
0.0
 11
-1.0
 21
0.166666667
 31
0.0
  0
LINE
  5
BD
330
79
100
AcDbEntity
  8
0
  6
CONTINUOUS
 62
     0
100
AcDbLine
 10
0.0
 20
0.0
 30
0.0
 11
-1.0
 21
-0.166666667
 31
0.0
  0
ENDBLK
  5
7B
330
79
100
AcDbEntity
  8
0
100
AcDbBlockEnd
  0
BLOCK
  5
7D
330
7C
100
AcDbEntity
  8
0
100
AcDbBlockBegin
  2
EX_BNORM
 70
     0
 10
0.0
 20
0.0
 30
0.0
  3
EX_BNORM
  1

  0
LINE
  5
BE
330
7C
100
AcDbEntity
  8
0
  6
CONTINUOUS
 62
     0
100
AcDbLine
 10
0.0
 20
0.0
 30
0.0
 11
-1.0
 21
0.0
 31
0.0
  0
LINE
  5
BF
330
7C
100
AcDbEntity
  8
0
  6
CONTINUOUS
 62
     0
100
AcDbLine
 10
0.0
 20
0.0
 30
0.0
 11
-1.0
 21
0.166666667
 31
0.0
  0
LINE
  5
C0
330
7C
100
AcDbEntity
  8
0
  6
CONTINUOUS
 62
     0
100
AcDbLine
 10
0.0
 20
0.0
 30
0.0
 11
-1.0
 21
-0.166666667
 31
0.0
  0
LINE
  5
C1
330
7C
100
AcDbEntity
  8
0
  6
CONTINUOUS
 62
     0
100
AcDbLine
 10
0.0
 20
0.0
 30
0.0
 11
-1.0
 21
0.083333333
 31
0.0
  0
LINE
  5
C2
330
7C
100
AcDbEntity
  8
0
  6
CONTINUOUS
 62
     0
100
AcDbLine
 10
0.0
 20
0.0
 30
0.0
 11
-1.0
 21
-0.083333333
 31
0.0
  0
LINE
  5
C3
330
7C
100
AcDbEntity
  8
0
  6
CONTINUOUS
 62
     0
100
AcDbLine
 10
-1.0
 20
0.166666667
 30
0.0
 11
-1.0
 21
-0.166666667
 31
0.0
  0
ENDBLK
  5
7E
330
7C
100
AcDbEntity
  8
0
100
AcDbBlockEnd
  0
BLOCK
  5
80
330
7F
100
AcDbEntity
  8
0
100
AcDbBlockBegin
  2
EX_BCIR
 70
     0
 10
0.0
 20
0.0
 30
0.0
  3
EX_BCIR
  1

  0
LINE
  5
C4
330
7F
100
AcDbEntity
  8
0
  6
CONTINUOUS
 62
     0
100
AcDbLine
 10
0.0
 20
0.0
 30
0.0
 11
-1.0
 21
0.0
 31
0.0
  0
CIRCLE
  5
C5
330
7F
100
AcDbEntity
  8
0
  6
CONTINUOUS
 62
     0
100
AcDbCircle
 10
0.0
 20
0.0
 30
0.0
 40
0.5
  0
CIRCLE
  5
C6
330
7F
100
AcDbEntity
  8
0
  6
CONTINUOUS
 62
     0
100
AcDbCircle
 10
0.0
 20
0.0
 30
0.0
 40
0.25
  0
ENDBLK
  5
81
330
7F
100
AcDbEntity
  8
0
100
AcDbBlockEnd
  0
BLOCK
  5
83
330
82
100
AcDbEntity
  8
0
100
AcDbBlockBegin
  2
EX_RCIVIL
 70
     0
 10
0.0
 20
0.0
 30
0.0
  3
EX_RCIVIL
  1

  0
LINE
  5
C7
330
82
100
AcDbEntity
  8
0
  6
CONTINUOUS
 62
     0
100
AcDbLine
 10
0.0
 20
0.0
 30
0.0
 11
-1.0
 21
0.0
 31
0.0
  0
LINE
  5
C8
330
82
100
AcDbEntity
  8
0
  6
CONTINUOUS
 62
     0
100
AcDbLine
 10
-1.0
 20
-0.25
 30
0.0
 11
0.0
 21
-0.25
 31
0.0
  0
LINE
  5
C9
330
82
100
AcDbEntity
  8
0
  6
CONTINUOUS
 62
     0
100
AcDbLine
 10
-1.0
 20
-0.125
 30
0.0
 11
0.0
 21
-0.125
 31
0.0
  0
ENDBLK
  5
84
330
82
100
AcDbEntity
  8
0
100
AcDbBlockEnd
  0
BLOCK
  5
86
330
85
100
AcDbEntity
  8
0
100
AcDbBlockBegin
  2
EX_SLANT
 70
     0
 10
0.0
 20
0.0
 30
0.0
  3
EX_SLANT
  1

  0
LINE
  5
CA
330
85
100
AcDbEntity
  8
0
  6
CONTINUOUS
 62
     0
100
AcDbLine
 10
0.0
 20
0.0
 30
0.0
 11
-1.0
 21
0.0
 31
0.0
  0
LINE
  5
CB
330
85
100
AcDbEntity
  8
0
  6
CONTINUOUS
 62
     0
100
AcDbLine
 10
0.707106781
 20
0.707106781
 30
0.0
 11
-0.707106781
 21
-0.707106781
 31
0.0
  0
ENDBLK
  5
87
330
85
100
AcDbEntity
  8
0
100
AcDbBlockEnd
  0
BLOCK
  5
89
330
88
100
AcDbEntity
  8
0
100
AcDbBlockBegin
  2
EX_NONE
 70
     0
 10
0.0
 20
0.0
 30
0.0
  3
EX_NONE
  1

  0
LINE
  5
CC
330
88
100
AcDbEntity
  8
0
  6
CONTINUOUS
 62
     0
100
AcDbLine
 10
0.0
 20
0.0
 30
0.0
 11
-1.0
 21
0.0
 31
0.0
  0
ENDBLK
  5
8A
330
88
100
AcDbEntity
  8
0
100
AcDbBlockEnd
  0
BLOCK
  5
8C
330
8B
100
AcDbEntity
  8
0
100
AcDbBlockBegin
  2
EX_CIVIL
 70
     0
 10
0.0
 20
0.0
 30
0.0
  3
EX_CIVIL
  1

  0
LINE
  5
CD
330
8B
100
AcDbEntity
  8
0
  6
CONTINUOUS
 62
     0
100
AcDbLine
 10
0.0
 20
0.0
 30
0.0
 11
-1.0
 21
0.0
 31
0.0
  0
LINE
  5
CE
330
8B
100
AcDbEntity
  8
0
  6
CONTINUOUS
 62
     0
100
AcDbLine
 10
-1.0
 20
0.25
 30
0.0
 11
0.0
 21
0.25
 31
0.0
  0
LINE
  5
CF
330
8B
100
AcDbEntity
  8
0
  6
CONTINUOUS
 62
     0
100
AcDbLine
 10
-1.0
 20
0.125
 30
0.0
 11
0.0
 21
0.125
 31
0.0
  0
ENDBLK
  5
8D
330
8B
100
AcDbEntity
  8
0
100
AcDbBlockEnd
  0
BLOCK
  5
8F
330
8E
100
AcDbEntity
  8
0
100
AcDbBlockBegin
  2
EX_WCIR
 70
     0
 10
0.0
 20
0.0
 30
0.0
  3
EX_WCIR
  1

  0
LINE
  5
D0
330
8E
100
AcDbEntity
  8
0
  6
CONTINUOUS
 62
     0
100
AcDbLine
 10
0.0
 20
0.0
 30
0.0
 11
-1.0
 21
0.0
 31
0.0
  0
CIRCLE
  5
D1
330
8E
100
AcDbEntity
  8
0
  6
CONTINUOUS
 62
     0
100
AcDbCircle
 10
0.0
 20
0.0
 30
0.0
 40
0.5
  0
ENDBLK
  5
90
330
8E
100
AcDbEntity
  8
0
100
AcDbBlockEnd
  0
BLOCK
  5
92
330
91
100
AcDbEntity
  8
0
100
AcDbBlockBegin
  2
EX_WCIR2
 70
     0
 10
0.0
 20
0.0
 30
0.0
  3
EX_WCIR2
  1

  0
LINE
  5
D2
330
91
100
AcDbEntity
  8
0
  6
CONTINUOUS
 62
     0
100
AcDbLine
 10
-0.5
 20
0.0
 30
0.0
 11
-1.0
 21
0.0
 31
0.0
  0
CIRCLE
  5
D3
330
91
100
AcDbEntity
  8
0
  6
CONTINUOUS
 62
     0
100
AcDbCircle
 10
0.0
 20
0.0
 30
0.0
 40
0.5
  0
ENDBLK
  5
93
330
91
100
AcDbEntity
  8
0
100
AcDbBlockEnd
  0
BLOCK
  5
95
330
94
100
AcDbEntity
  8
0
100
AcDbBlockBegin
  2
EX_WNORM
 70
     0
 10
0.0
 20
0.0
 30
0.0
  3
EX_WNORM
  1

  0
LINE
  5
D4
330
94
100
AcDbEntity
  8
0
  6
CONTINUOUS
 62
     0
100
AcDbLine
 10
-1.0
 20
0.0
 30
0.0
 11
-1.0
 21
0.0
 31
0.0
  0
LINE
  5
D5
330
94
100
AcDbEntity
  8
0
  6
CONTINUOUS
 62
     0
100
AcDbLine
 10
0.0
 20
0.0
 30
0.0
 11
-1.0
 21
0.166666667
 31
0.0
  0
LINE
  5
D6
330
94
100
AcDbEntity
  8
0
  6
CONTINUOUS
 62
     0
100
AcDbLine
 10
0.0
 20
0.0
 30
0.0
 11
-1.0
 21
-0.166666667
 31
0.0
  0
LINE
  5
D7
330
94
100
AcDbEntity
  8
0
  6
CONTINUOUS
 62
     0
100
AcDbLine
 10
-1.0
 20
0.166666667
 30
0.0
 11
-1.0
 21
-0.166666667
 31
0.0
  0
ENDBLK
  5
96
330
94
100
AcDbEntity
  8
0
100
AcDbBlockEnd
  0
BLOCK
  5
98
330
97
100
AcDbEntity
  8
0
100
AcDbBlockBegin
  2
EX_NNORM
 70
     0
 10
0.0
 20
0.0
 30
0.0
  3
EX_NNORM
  1

  0
LINE
  5
D8
330
97
100
AcDbEntity
  8
0
  6
CONTINUOUS
 62
     0
100
AcDbLine
 10
0.0
 20
0.0
 30
0.0
 11
-1.0
 21
0.0
 31
0.0
  0
LINE
  5
D9
330
97
100
AcDbEntity
  8
0
  6
CONTINUOUS
 62
     0
100
AcDbLine
 10
0.0
 20
0.0
 30
0.0
 11
-1.0
 21
0.166666667
 31
0.0
  0
LINE
  5
DA
330
97
100
AcDbEntity
  8
0
  6
CONTINUOUS
 62
     0
100
AcDbLine
 10
0.0
 20
0.0
 30
0.0
 11
-1.0
 21
-0.166666667
 31
0.0
  0
LINE
  5
DB
330
97
100
AcDbEntity
  8
0
  6
CONTINUOUS
 62
     0
100
AcDbLine
 10
-1.0
 20
0.166666667
 30
0.0
 11
-1.0
 21
-0.166666667
 31
0.0
  0
ENDBLK
  5
99
330
97
100
AcDbEntity
  8
0
100
AcDbBlockEnd
  0
BLOCK
  5
9B
330
9A
100
AcDbEntity
  8
0
100
AcDbBlockBegin
  2
EX_BBOX
 70
     0
 10
0.0
 20
0.0
 30
0.0
  3
EX_BBOX
  1

  0
LINE
  5
DC
330
9A
100
AcDbEntity
  8
0
  6
CONTINUOUS
 62
     0
100
AcDbLine
 10
0.0
 20
0.0
 30
0.0
 11
-1.0
 21
0.0
 31
0.0
  0
LINE
  5
DD
330
9A
100
AcDbEntity
  8
0
  6
CONTINUOUS
 62
     0
100
AcDbLine
 10
-0.5
 20
0.5
 30
0.0
 11
0.5
 21
0.5
 31
0.0
  0
LINE
  5
DE
330
9A
100
AcDbEntity
  8
0
  6
CONTINUOUS
 62
     0
100
AcDbLine
 10
0.5
 20
0.5
 30
0.0
 11
0.5
 21
-0.5
 31
0.0
  0
LINE
  5
DF
330
9A
100
AcDbEntity
  8
0
  6
CONTINUOUS
 62
     0
100
AcDbLine
 10
0.5
 20
-0.5
 30
0.0
 11
-0.5
 21
-0.5
 31
0.0
  0
LINE
  5
E0
330
9A
100
AcDbEntity
  8
0
  6
CONTINUOUS
 62
     0
100
AcDbLine
 10
-0.5
 20
-0.5
 30
0.0
 11
-0.5
 21
0.5
 31
0.0
  0
LINE
  5
E1
330
9A
100
AcDbEntity
  8
0
  6
CONTINUOUS
 62
     0
100
AcDbLine
 10
-0.25
 20
0.25
 30
0.0
 11
0.25
 21
0.25
 31
0.0
  0
LINE
  5
E2
330
9A
100
AcDbEntity
  8
0
  6
CONTINUOUS
 62
     0
100
AcDbLine
 10
0.25
 20
0.25
 30
0.0
 11
0.25
 21
-0.25
 31
0.0
  0
LINE
  5
E3
330
9A
100
AcDbEntity
  8
0
  6
CONTINUOUS
 62
     0
100
AcDbLine
 10
0.25
 20
-0.25
 30
0.0
 11
-0.25
 21
-0.25
 31
0.0
  0
LINE
  5
E4
330
9A
100
AcDbEntity
  8
0
  6
CONTINUOUS
 62
     0
100
AcDbLine
 10
-0.25
 20
-0.25
 30
0.0
 11
-0.25
 21
0.25
 31
0.0
  0
ENDBLK
  5
9C
330
9A
100
AcDbEntity
  8
0
100
AcDbBlockEnd
  0
BLOCK
  5
9E
330
9D
100
AcDbEntity
  8
0
100
AcDbBlockBegin
  2
EX_WBOX
 70
     0
 10
0.0
 20
0.0
 30
0.0
  3
EX_WBOX
  1

  0
LINE
  5
E5
330
9D
100
AcDbEntity
  8
0
  6
CONTINUOUS
 62
     0
100
AcDbLine
 10
-0.5
 20
0.0
 30
0.0
 11
-1.0
 21
0.0
 31
0.0
  0
LINE
  5
E6
330
9D
100
AcDbEntity
  8
0
  6
CONTINUOUS
 62
     0
100
AcDbLine
 10
-0.5
 20
0.5
 30
0.0
 11
0.5
 21
0.5
 31
0.0
  0
LINE
  5
E7
330
9D
100
AcDbEntity
  8
0
  6
CONTINUOUS
 62
     0
100
AcDbLine
 10
0.5
 20
0.5
 30
0.0
 11
0.5
 21
-0.5
 31
0.0
  0
LINE
  5
E8
330
9D
100
AcDbEntity
  8
0
  6
CONTINUOUS
 62
     0
100
AcDbLine
 10
0.5
 20
-0.5
 30
0.0
 11
-0.5
 21
-0.5
 31
0.0
  0
LINE
  5
E9
330
9D
100
AcDbEntity
  8
0
  6
CONTINUOUS
 62
     0
100
AcDbLine
 10
-0.5
 20
-0.5
 30
0.0
 11
-0.5
 21
0.5
 31
0.0
  0
ENDBLK
  5
9F
330
9D
100
AcDbEntity
  8
0
100
AcDbBlockEnd
  0
BLOCK
  5
A1
330
A0
100
AcDbEntity
  8
0
100
AcDbBlockBegin
  2
EX_INTEGRAL
 70
     0
 10
0.0
 20
0.0
 30
0.0
  3
EX_INTEGRAL
  1

  0
LINE
  5
EA
330
A0
100
AcDbEntity
  8
0
  6
CONTINUOUS
 62
     0
100
AcDbLine
 10
0.0
 20
0.0
 30
0.0
 11
-1.0
 21
0.0
 31
0.0
  0
ARC
  5
EB
330
A0
100
AcDbEntity
  8
0
  6
CONTINUOUS
 62
     0
100
AcDbCircle
 10
0.542115
 20
0.164992
 30
0.0
 40
0.56667
100
AcDbArc
 50
73.07249033629006
 51
196.9275130221199
  0
ARC
  5
EC
330
A0
100
AcDbEntity
  8
0
  6
CONTINUOUS
 62
     0
100
AcDbCircle
 10
-0.542115
 20
-0.164992
 30
0.0
 40
0.56667
100
AcDbArc
 50
253.0724869220464
 51
16.9275130559125
  0
ENDBLK
  5
A2
330
A0
100
AcDbEntity
  8
0
100
AcDbBlockEnd
  0
BLOCK
  5
A4
330
A3
100
AcDbEntity
  8
0
100
AcDbBlockBegin
  2
SYM-1
 70
     0
 10
0.0
 20
0.0
 30
0.0
  3
SYM-1
  1

  0
LINE
  5
ED
330
A3
100
AcDbEntity
  8
0
  6
CONTINUOUS
 62
     7
100
AcDbLine
 10
1119.940797171355
 20
1431.980994817186
 30
0.0
 11
1129.940797171355
 21
1431.980994817186
 31
0.0
  0
CIRCLE
  5
EE
330
A3
100
AcDbEntity
  8
0
  6
CONTINUOUS
 62
     7
100
AcDbCircle
 10
1124.940797171355
 20
1440.641248855027
 30
0.0
 40
4.0
  0
CIRCLE
  5
EF
330
A3
100
AcDbEntity
  8
0
  6
CONTINUOUS
 62
     7
100
AcDbCircle
 10
1124.940797171355
 20
1440.641248855027
 30
0.0
 40
5.0
  0
LINE
  5
F0
330
A3
100
AcDbEntity
  8
0
  6
CONTINUOUS
 62
     7
100
AcDbLine
 10
1134.940797171355
 20
1440.641248855027
 30
0.0
 11
1129.940797171355
 21
1449.30150289287
 31
0.0
  0
LINE
  5
F1
330
A3
100
AcDbEntity
  8
0
  6
CONTINUOUS
 62
     7
100
AcDbLine
 10
1129.940797171355
 20
1431.980994817186
 30
0.0
 11
1134.940797171355
 21
1440.641248855027
 31
0.0
  0
LINE
  5
F2
330
A3
100
AcDbEntity
  8
0
  6
CONTINUOUS
 62
     7
100
AcDbLine
 10
1114.940797171355
 20
1440.641248855027
 30
0.0
 11
1119.940797171355
 21
1431.980994817186
 31
0.0
  0
LINE
  5
F3
330
A3
100
AcDbEntity
  8
0
  6
CONTINUOUS
 62
     7
100
AcDbLine
 10
1119.940797171355
 20
1449.30150289287
 30
0.0
 11
1114.940797171355
 21
1440.641248855027
 31
0.0
  0
LINE
  5
F4
330
A3
100
AcDbEntity
  8
0
  6
CONTINUOUS
 62
     7
100
AcDbLine
 10
1129.940797171355
 20
1449.30150289287
 30
0.0
 11
1119.940797171355
 21
1449.30150289287
 31
0.0
  0
CIRCLE
  5
F5
330
A3
100
AcDbEntity
  8
0
  6
CONTINUOUS
 62
     7
100
AcDbCircle
 10
1124.940797171355
 20
1440.641248855027
 30
0.0
 40
8.66025403784441
  0
CIRCLE
  5
F6
330
A3
100
AcDbEntity
  8
0
  6
CONTINUOUS
 62
     7
100
AcDbCircle
 10
1124.940797171355
 20
1440.641248855027
 30
0.0
 40
10.50000000000041
  0
ENDBLK
  5
A5
330
A3
100
AcDbEntity
  8
0
100
AcDbBlockEnd
  0
BLOCK
  5
A7
330
A6
100
AcDbEntity
  8
0
100
AcDbBlockBegin
  2
SYM-2
 70
     0
 10
0.0
 20
0.0
 30
0.0
  3
SYM-2
  1

  0
CIRCLE
  5
F7
330
A6
100
AcDbEntity
  8
0
  6
CONTINUOUS
 62
     7
100
AcDbCircle
 10
1551.94079717138
 20
1867.641248854799
 30
0.0
 40
10.50000000000041
  0
CIRCLE
  5
F8
330
A6
100
AcDbEntity
  8
0
  6
CONTINUOUS
 62
     7
100
AcDbCircle
 10
1551.94079717138
 20
1867.641248854799
 30
0.0
 40
8.66025403784441
  0
LINE
  5
F9
330
A6
100
AcDbEntity
  8
0
  6
CONTINUOUS
 62
     7
100
AcDbLine
 10
1560.601051209225
 20
1872.641248854799
 30
0.0
 11
1560.601051209225
 21
1862.641248854799
 31
0.0
  0
LINE
  5
FA
330
A6
100
AcDbEntity
  8
0
  6
CONTINUOUS
 62
     7
100
AcDbLine
 10
1560.601051209225
 20
1862.641248854799
 30
0.0
 11
1551.94079717138
 21
1857.641248854799
 31
0.0
  0
LINE
  5
FB
330
A6
100
AcDbEntity
  8
0
  6
CONTINUOUS
 62
     7
100
AcDbLine
 10
1551.94079717138
 20
1857.641248854799
 30
0.0
 11
1543.280543133539
 21
1862.641248854799
 31
0.0
  0
LINE
  5
FC
330
A6
100
AcDbEntity
  8
0
  6
CONTINUOUS
 62
     7
100
AcDbLine
 10
1543.280543133539
 20
1872.641248854799
 30
0.0
 11
1551.94079717138
 21
1877.641248854799
 31
0.0
  0
LINE
  5
FD
330
A6
100
AcDbEntity
  8
0
  6
CONTINUOUS
 62
     7
100
AcDbLine
 10
1551.94079717138
 20
1877.641248854799
 30
0.0
 11
1560.601051209225
 21
1872.641248854799
 31
0.0
  0
CIRCLE
  5
FE
330
A6
100
AcDbEntity
  8
0
  6
CONTINUOUS
 62
     7
100
AcDbCircle
 10
1551.94079717138
 20
1867.641248854799
 30
0.0
 40
5.0
  0
LINE
  5
FF
330
A6
100
AcDbEntity
  8
0
  6
CONTINUOUS
 62
     7
100
AcDbLine
 10
1543.280543133539
 20
1862.641248854799
 30
0.0
 11
1543.280543133539
 21
1872.641248854799
 31
0.0
  0
CIRCLE
  5
100
330
A6
100
AcDbEntity
  8
0
  6
CONTINUOUS
 62
     7
100
AcDbCircle
 10
1551.94079717138
 20
1867.641248854799
 30
0.0
 40
4.0
  0
ENDBLK
  5
A8
330
A6
100
AcDbEntity
  8
0
100
AcDbBlockEnd
  0
BLOCK
  5
AA
330
A9
100
AcDbEntity
  8
0
100
AcDbBlockBegin
  2
SYM-3
 70
     0
 10
0.0
 20
0.0
 30
0.0
  3
SYM-3
  1

  0
LINE
  5
101
330
A9
100
AcDbEntity
  8
0
  6
CONTINUOUS
 62
     7
100
AcDbLine
 10
1560.601051209071
 20
1435.641248854925
 30
0.0
 11
1560.601051209071
 21
1445.641248854924
 31
0.0
  0
CIRCLE
  5
102
330
A9
100
AcDbEntity
  8
0
  6
CONTINUOUS
 62
     7
100
AcDbCircle
 10
1551.940797171231
 20
1440.641248854924
 30
0.0
 40
4.0
  0
CIRCLE
  5
103
330
A9
100
AcDbEntity
  8
0
  6
CONTINUOUS
 62
     7
100
AcDbCircle
 10
1551.940797171231
 20
1440.641248854924
 30
0.0
 40
5.0
  0
LINE
  5
104
330
A9
100
AcDbEntity
  8
0
  6
CONTINUOUS
 62
     7
100
AcDbLine
 10
1551.94079717123
 20
1450.641248854926
 30
0.0
 11
1543.280543133386
 21
1445.641248854924
 31
0.0
  0
LINE
  5
105
330
A9
100
AcDbEntity
  8
0
  6
CONTINUOUS
 62
     7
100
AcDbLine
 10
1560.601051209071
 20
1445.641248854924
 30
0.0
 11
1551.94079717123
 21
1450.641248854926
 31
0.0
  0
LINE
  5
106
330
A9
100
AcDbEntity
  8
0
  6
CONTINUOUS
 62
     7
100
AcDbLine
 10
1551.94079717123
 20
1430.641248854925
 30
0.0
 11
1560.601051209071
 21
1435.641248854925
 31
0.0
  0
LINE
  5
107
330
A9
100
AcDbEntity
  8
0
  6
CONTINUOUS
 62
     7
100
AcDbLine
 10
1543.280543133386
 20
1435.641248854925
 30
0.0
 11
1551.94079717123
 21
1430.641248854925
 31
0.0
  0
LINE
  5
108
330
A9
100
AcDbEntity
  8
0
  6
CONTINUOUS
 62
     7
100
AcDbLine
 10
1543.280543133386
 20
1445.641248854924
 30
0.0
 11
1543.280543133386
 21
1435.641248854925
 31
0.0
  0
CIRCLE
  5
109
330
A9
100
AcDbEntity
  8
0
  6
CONTINUOUS
 62
     7
100
AcDbCircle
 10
1551.940797171231
 20
1440.641248854924
 30
0.0
 40
8.66025403784441
  0
CIRCLE
  5
10A
330
A9
100
AcDbEntity
  8
0
  6
CONTINUOUS
 62
     7
100
AcDbCircle
 10
1551.940797171231
 20
1440.641248854924
 30
0.0
 40
10.50000000000041
  0
ENDBLK
  5
AB
330
A9
100
AcDbEntity
  8
0
100
AcDbBlockEnd
  0
BLOCK
  5
AD
330
AC
100
AcDbEntity
  8
0
100
AcDbBlockBegin
  2
SYM-4
 70
     0
 10
0.0
 20
0.0
 30
0.0
  3
SYM-4
  1

  0
LINE
  5
10B
330
AC
100
AcDbEntity
  8
0
  6
CONTINUOUS
 62
     7
100
AcDbLine
 10
1560.601051209071
 20
2289.641248854804
 30
0.0
 11
1560.601051209071
 21
2299.641248854803
 31
0.0
  0
CIRCLE
  5
10C
330
AC
100
AcDbEntity
  8
0
  6
CONTINUOUS
 62
     7
100
AcDbCircle
 10
1551.940797171231
 20
2294.641248854804
 30
0.0
 40
5.0
  0
LINE
  5
10D
330
AC
100
AcDbEntity
  8
0
  6
CONTINUOUS
 62
     7
100
AcDbLine
 10
1551.94079717123
 20
2304.641248854804
 30
0.0
 11
1543.280543133386
 21
2299.641248854803
 31
0.0
  0
LINE
  5
10E
330
AC
100
AcDbEntity
  8
0
  6
CONTINUOUS
 62
     7
100
AcDbLine
 10
1560.601051209071
 20
2299.641248854803
 30
0.0
 11
1551.94079717123
 21
2304.641248854804
 31
0.0
  0
LINE
  5
10F
330
AC
100
AcDbEntity
  8
0
  6
CONTINUOUS
 62
     7
100
AcDbLine
 10
1551.94079717123
 20
2284.641248854803
 30
0.0
 11
1560.601051209071
 21
2289.641248854804
 31
0.0
  0
LINE
  5
110
330
AC
100
AcDbEntity
  8
0
  6
CONTINUOUS
 62
     7
100
AcDbLine
 10
1543.280543133386
 20
2289.641248854804
 30
0.0
 11
1551.94079717123
 21
2284.641248854803
 31
0.0
  0
LINE
  5
111
330
AC
100
AcDbEntity
  8
0
  6
CONTINUOUS
 62
     7
100
AcDbLine
 10
1543.280543133386
 20
2299.641248854803
 30
0.0
 11
1543.280543133386
 21
2289.641248854804
 31
0.0
  0
CIRCLE
  5
112
330
AC
100
AcDbEntity
  8
0
  6
CONTINUOUS
 62
     7
100
AcDbCircle
 10
1551.940797171231
 20
2294.641248854804
 30
0.0
 40
8.66025403784441
  0
CIRCLE
  5
113
330
AC
100
AcDbEntity
  8
0
  6
CONTINUOUS
 62
     7
100
AcDbCircle
 10
1551.940797171231
 20
2294.641248854804
 30
0.0
 40
10.50000000000041
  0
CIRCLE
  5
114
330
AC
100
AcDbEntity
  8
0
  6
CONTINUOUS
 62
     7
100
AcDbCircle
 10
1551.940797171231
 20
2294.641248854804
 30
0.0
 40
4.0
  0
ENDBLK
  5
AE
330
AC
100
AcDbEntity
  8
0
100
AcDbBlockEnd
  0
BLOCK
  5
B0
330
AF
100
AcDbEntity
  8
0
100
AcDbBlockBegin
  2
SYM-5
 70
     0
 10
0.0
 20
0.0
 30
0.0
  3
SYM-5
  1

  0
ARC
  5
115
330
AF
100
AcDbEntity
  8
0
  6
CONTINUOUS
 62
     7
100
AcDbCircle
 10
791.4407971713208
 20
921.8412488541896
 30
0.0
 40
2.0
100
AcDbArc
 50
180.0
 51
270.0000000000002
  0
ARC
  5
116
330
AF
100
AcDbEntity
  8
0
  6
CONTINUOUS
 62
     7
100
AcDbCircle
 10
816.4407971713545
 20
921.8412488541896
 30
0.0
 40
2.0
100
AcDbArc
 50
270.0000000000002
 51
0.0
  0
LINE
  5
117
330
AF
100
AcDbEntity
  8
0
  6
CONTINUOUS
 62
     7
100
AcDbLine
 10
791.4407971713363
 20
921.8412488541896
 30
0.0
 11
816.440797171339
 21
921.8412488541896
 31
0.0
  0
LINE
  5
118
330
AF
100
AcDbEntity
  8
0
  6
CONTINUOUS
 62
     7
100
AcDbLine
 10
783.9407971713363
 20
929.8412488541896
 30
0.0
 11
783.9407971713363
 21
927.8412488541898
 31
0.0
  0
LINE
  5
119
330
AF
100
AcDbEntity
  8
0
  6
CONTINUOUS
 62
     7
100
AcDbLine
 10
783.9407971713363
 20
927.8412488541898
 30
0.0
 11
789.4407971713226
 21
927.8412488541898
 31
0.0
  0
LINE
  5
11A
330
AF
100
AcDbEntity
  8
0
  6
CONTINUOUS
 62
     7
100
AcDbLine
 10
789.4407971713226
 20
927.8412488541898
 30
0.0
 11
789.4407971713226
 21
921.8412488541896
 31
0.0
  0
LINE
  5
11B
330
AF
100
AcDbEntity
  8
0
  6
CONTINUOUS
 62
     7
100
AcDbLine
 10
791.4407971713363
 20
927.8412488541898
 30
0.0
 11
791.4407971713363
 21
921.8412488541896
 31
0.0
  0
LINE
  5
11C
330
AF
100
AcDbEntity
  8
0
  6
CONTINUOUS
 62
     7
100
AcDbLine
 10
783.9407971713363
 20
929.8412488541896
 30
0.0
 11
789.4407971713372
 21
929.8412488541896
 31
0.0
  0
ARC
  5
11D
330
AF
100
AcDbEntity
  8
0
  6
CONTINUOUS
 62
     7
100
AcDbCircle
 10
789.4407971713372
 20
927.8412488541898
 30
0.0
 40
2.0
100
AcDbArc
 50
0.0
 51
90.00000000000001
  0
LINE
  5
11E
330
AF
100
AcDbEntity
  8
0
  6
CONTINUOUS
 62
     7
100
AcDbLine
 10
823.9407971713399
 20
929.8412488541896
 30
0.0
 11
823.9407971713399
 21
927.8412488541898
 31
0.0
  0
LINE
  5
11F
330
AF
100
AcDbEntity
  8
0
  6
CONTINUOUS
 62
     7
100
AcDbLine
 10
823.9407971713399
 20
927.8412488541898
 30
0.0
 11
818.4407971713563
 21
927.8412488541898
 31
0.0
  0
LINE
  5
120
330
AF
100
AcDbEntity
  8
0
  6
CONTINUOUS
 62
     7
100
AcDbLine
 10
818.4407971713563
 20
927.8412488541898
 30
0.0
 11
818.4407971713563
 21
921.8412488541896
 31
0.0
  0
LINE
  5
121
330
AF
100
AcDbEntity
  8
0
  6
CONTINUOUS
 62
     7
100
AcDbLine
 10
816.4407971713399
 20
927.8412488541898
 30
0.0
 11
816.4407971713399
 21
921.8412488541896
 31
0.0
  0
LINE
  5
122
330
AF
100
AcDbEntity
  8
0
  6
CONTINUOUS
 62
     7
100
AcDbLine
 10
823.9407971713399
 20
929.8412488541896
 30
0.0
 11
818.440797171339
 21
929.8412488541896
 31
0.0
  0
ARC
  5
123
330
AF
100
AcDbEntity
  8
0
  6
CONTINUOUS
 62
     7
100
AcDbCircle
 10
818.440797171339
 20
927.8412488541898
 30
0.0
 40
2.0
100
AcDbArc
 50
90.00000000000001
 51
180.0
  0
ENDBLK
  5
B1
330
AF
100
AcDbEntity
  8
0
100
AcDbBlockEnd
  0
BLOCK
  5
B3
330
B2
100
AcDbEntity
  8
0
100
AcDbBlockBegin
  2
SYM-6
 70
     0
 10
0.0
 20
0.0
 30
0.0
  3
SYM-6
  1

  0
ARC
  5
124
330
B2
100
AcDbEntity
  8
0
  6
CONTINUOUS
 62
     7
100
AcDbCircle
 10
1016.440797171299
 20
921.8412488541896
 30
0.0
 40
2.0
100
AcDbArc
 50
270.0
 51
0.0
  0
ARC
  5
125
330
B2
100
AcDbEntity
  8
0
  6
CONTINUOUS
 62
     7
100
AcDbCircle
 10
991.4407971712651
 20
921.8412488541896
 30
0.0
 40
2.0
100
AcDbArc
 50
180.0
 51
270.0
  0
LINE
  5
126
330
B2
100
AcDbEntity
  8
0
  6
CONTINUOUS
 62
     7
100
AcDbLine
 10
1016.440797171283
 20
921.8412488541896
 30
0.0
 11
991.4407971712815
 21
921.8412488541896
 31
0.0
  0
LINE
  5
127
330
B2
100
AcDbEntity
  8
0
  6
CONTINUOUS
 62
     7
100
AcDbLine
 10
1023.940797171284
 20
929.8412488541896
 30
0.0
 11
1023.940797171284
 21
927.8412488541898
 31
0.0
  0
LINE
  5
128
330
B2
100
AcDbEntity
  8
0
  6
CONTINUOUS
 62
     7
100
AcDbLine
 10
1023.940797171284
 20
927.8412488541898
 30
0.0
 11
1018.440797171298
 21
927.8412488541898
 31
0.0
  0
LINE
  5
129
330
B2
100
AcDbEntity
  8
0
  6
CONTINUOUS
 62
     7
100
AcDbLine
 10
1018.440797171298
 20
927.8412488541898
 30
0.0
 11
1018.440797171298
 21
921.8412488541896
 31
0.0
  0
LINE
  5
12A
330
B2
100
AcDbEntity
  8
0
  6
CONTINUOUS
 62
     7
100
AcDbLine
 10
1016.440797171283
 20
927.8412488541898
 30
0.0
 11
1016.440797171283
 21
921.8412488541896
 31
0.0
  0
LINE
  5
12B
330
B2
100
AcDbEntity
  8
0
  6
CONTINUOUS
 62
     7
100
AcDbLine
 10
1023.940797171284
 20
929.8412488541896
 30
0.0
 11
1018.440797171283
 21
929.8412488541896
 31
0.0
  0
ARC
  5
12C
330
B2
100
AcDbEntity
  8
0
  6
CONTINUOUS
 62
     7
100
AcDbCircle
 10
1018.440797171283
 20
927.8412488541898
 30
0.0
 40
2.0
100
AcDbArc
 50
90.00000000000001
 51
180.0
  0
LINE
  5
12D
330
B2
100
AcDbEntity
  8
0
  6
CONTINUOUS
 62
     7
100
AcDbLine
 10
983.9407971712806
 20
929.8412488541896
 30
0.0
 11
983.9407971712806
 21
927.8412488541898
 31
0.0
  0
LINE
  5
12E
330
B2
100
AcDbEntity
  8
0
  6
CONTINUOUS
 62
     7
100
AcDbLine
 10
983.9407971712806
 20
927.8412488541898
 30
0.0
 11
989.4407971712642
 21
927.8412488541898
 31
0.0
  0
LINE
  5
12F
330
B2
100
AcDbEntity
  8
0
  6
CONTINUOUS
 62
     7
100
AcDbLine
 10
989.4407971712642
 20
927.8412488541898
 30
0.0
 11
989.4407971712639
 21
921.8412488541896
 31
0.0
  0
LINE
  5
130
330
B2
100
AcDbEntity
  8
0
  6
CONTINUOUS
 62
     7
100
AcDbLine
 10
991.4407971712806
 20
927.8412488541898
 30
0.0
 11
991.4407971712802
 21
921.8412488541896
 31
0.0
  0
LINE
  5
131
330
B2
100
AcDbEntity
  8
0
  6
CONTINUOUS
 62
     7
100
AcDbLine
 10
983.9407971712806
 20
929.8412488541896
 30
0.0
 11
989.4407971712806
 21
929.8412488541896
 31
0.0
  0
ARC
  5
132
330
B2
100
AcDbEntity
  8
0
  6
CONTINUOUS
 62
     7
100
AcDbCircle
 10
989.4407971712806
 20
927.8412488541898
 30
0.0
 40
2.0
100
AcDbArc
 50
0.0
 51
90.00000000000001
  0
ENDBLK
  5
B4
330
B2
100
AcDbEntity
  8
0
100
AcDbBlockEnd
  0
BLOCK
  5
B6
330
B5
100
AcDbEntity
  8
0
100
AcDbBlockBegin
  2
SYM-7
 70
     0
 10
0.0
 20
0.0
 30
0.0
  3
SYM-7
  1

  0
ARC
  5
133
330
B5
100
AcDbEntity
  8
0
  6
CONTINUOUS
 62
     7
100
AcDbCircle
 10
1233.440797171321
 20
921.8412488541896
 30
0.0
 40
2.0
100
AcDbArc
 50
180.0
 51
270.0000000000002
  0
ARC
  5
134
330
B5
100
AcDbEntity
  8
0
  6
CONTINUOUS
 62
     7
100
AcDbCircle
 10
1258.440797171354
 20
921.8412488541896
 30
0.0
 40
2.0
100
AcDbArc
 50
270.0000000000002
 51
0.0
  0
LINE
  5
135
330
B5
100
AcDbEntity
  8
0
  6
CONTINUOUS
 62
     7
100
AcDbLine
 10
1233.440797171336
 20
921.8412488541896
 30
0.0
 11
1258.440797171339
 21
921.8412488541896
 31
0.0
  0
LINE
  5
136
330
B5
100
AcDbEntity
  8
0
  6
CONTINUOUS
 62
     7
100
AcDbLine
 10
1225.940797171336
 20
929.8412488541896
 30
0.0
 11
1225.940797171336
 21
927.8412488541898
 31
0.0
  0
LINE
  5
137
330
B5
100
AcDbEntity
  8
0
  6
CONTINUOUS
 62
     7
100
AcDbLine
 10
1225.940797171336
 20
927.8412488541898
 30
0.0
 11
1231.440797171322
 21
927.8412488541898
 31
0.0
  0
LINE
  5
138
330
B5
100
AcDbEntity
  8
0
  6
CONTINUOUS
 62
     7
100
AcDbLine
 10
1231.440797171322
 20
927.8412488541898
 30
0.0
 11
1231.440797171322
 21
921.8412488541896
 31
0.0
  0
LINE
  5
139
330
B5
100
AcDbEntity
  8
0
  6
CONTINUOUS
 62
     7
100
AcDbLine
 10
1233.440797171336
 20
927.8412488541898
 30
0.0
 11
1233.440797171336
 21
921.8412488541896
 31
0.0
  0
LINE
  5
13A
330
B5
100
AcDbEntity
  8
0
  6
CONTINUOUS
 62
     7
100
AcDbLine
 10
1225.940797171336
 20
929.8412488541896
 30
0.0
 11
1231.440797171337
 21
929.8412488541896
 31
0.0
  0
ARC
  5
13B
330
B5
100
AcDbEntity
  8
0
  6
CONTINUOUS
 62
     7
100
AcDbCircle
 10
1231.440797171337
 20
927.8412488541898
 30
0.0
 40
2.0
100
AcDbArc
 50
0.0
 51
90.00000000000001
  0
LINE
  5
13C
330
B5
100
AcDbEntity
  8
0
  6
CONTINUOUS
 62
     7
100
AcDbLine
 10
1265.94079717134
 20
929.8412488541896
 30
0.0
 11
1265.94079717134
 21
927.8412488541898
 31
0.0
  0
LINE
  5
13D
330
B5
100
AcDbEntity
  8
0
  6
CONTINUOUS
 62
     7
100
AcDbLine
 10
1265.94079717134
 20
927.8412488541898
 30
0.0
 11
1260.440797171356
 21
927.8412488541898
 31
0.0
  0
LINE
  5
13E
330
B5
100
AcDbEntity
  8
0
  6
CONTINUOUS
 62
     7
100
AcDbLine
 10
1260.440797171356
 20
927.8412488541898
 30
0.0
 11
1260.440797171356
 21
921.8412488541896
 31
0.0
  0
LINE
  5
13F
330
B5
100
AcDbEntity
  8
0
  6
CONTINUOUS
 62
     7
100
AcDbLine
 10
1258.44079717134
 20
927.8412488541898
 30
0.0
 11
1258.44079717134
 21
921.8412488541896
 31
0.0
  0
LINE
  5
140
330
B5
100
AcDbEntity
  8
0
  6
CONTINUOUS
 62
     7
100
AcDbLine
 10
1265.94079717134
 20
929.8412488541896
 30
0.0
 11
1260.440797171339
 21
929.8412488541896
 31
0.0
  0
ARC
  5
141
330
B5
100
AcDbEntity
  8
0
  6
CONTINUOUS
 62
     7
100
AcDbCircle
 10
1260.440797171339
 20
927.8412488541898
 30
0.0
 40
2.0
100
AcDbArc
 50
90.00000000000001
 51
180.0
  0
ENDBLK
  5
B7
330
B5
100
AcDbEntity
  8
0
100
AcDbBlockEnd
  0
BLOCK
  5
B9
330
B8
100
AcDbEntity
  8
0
100
AcDbBlockBegin
  2
SYM-8
 70
     0
 10
0.0
 20
0.0
 30
0.0
  3
SYM-8
  1

  0
ARC
  5
142
330
B8
100
AcDbEntity
  8
0
  6
CONTINUOUS
 62
     7
100
AcDbCircle
 10
1458.440797171299
 20
921.8412488541896
 30
0.0
 40
2.0
100
AcDbArc
 50
270.0
 51
0.0
  0
ARC
  5
143
330
B8
100
AcDbEntity
  8
0
  6
CONTINUOUS
 62
     7
100
AcDbCircle
 10
1433.440797171265
 20
921.8412488541896
 30
0.0
 40
2.0
100
AcDbArc
 50
180.0
 51
270.0
  0
LINE
  5
144
330
B8
100
AcDbEntity
  8
0
  6
CONTINUOUS
 62
     7
100
AcDbLine
 10
1458.440797171283
 20
921.8412488541896
 30
0.0
 11
1433.440797171282
 21
921.8412488541896
 31
0.0
  0
LINE
  5
145
330
B8
100
AcDbEntity
  8
0
  6
CONTINUOUS
 62
     7
100
AcDbLine
 10
1465.940797171284
 20
929.8412488541896
 30
0.0
 11
1465.940797171284
 21
927.8412488541898
 31
0.0
  0
LINE
  5
146
330
B8
100
AcDbEntity
  8
0
  6
CONTINUOUS
 62
     7
100
AcDbLine
 10
1465.940797171284
 20
927.8412488541898
 30
0.0
 11
1460.440797171298
 21
927.8412488541898
 31
0.0
  0
LINE
  5
147
330
B8
100
AcDbEntity
  8
0
  6
CONTINUOUS
 62
     7
100
AcDbLine
 10
1460.440797171298
 20
927.8412488541898
 30
0.0
 11
1460.440797171298
 21
921.8412488541896
 31
0.0
  0
LINE
  5
148
330
B8
100
AcDbEntity
  8
0
  6
CONTINUOUS
 62
     7
100
AcDbLine
 10
1458.440797171283
 20
927.8412488541898
 30
0.0
 11
1458.440797171283
 21
921.8412488541896
 31
0.0
  0
LINE
  5
149
330
B8
100
AcDbEntity
  8
0
  6
CONTINUOUS
 62
     7
100
AcDbLine
 10
1465.940797171284
 20
929.8412488541896
 30
0.0
 11
1460.440797171283
 21
929.8412488541896
 31
0.0
  0
ARC
  5
14A
330
B8
100
AcDbEntity
  8
0
  6
CONTINUOUS
 62
     7
100
AcDbCircle
 10
1460.440797171283
 20
927.8412488541898
 30
0.0
 40
2.0
100
AcDbArc
 50
90.00000000000001
 51
180.0
  0
LINE
  5
14B
330
B8
100
AcDbEntity
  8
0
  6
CONTINUOUS
 62
     7
100
AcDbLine
 10
1425.940797171281
 20
929.8412488541896
 30
0.0
 11
1425.940797171281
 21
927.8412488541898
 31
0.0
  0
LINE
  5
14C
330
B8
100
AcDbEntity
  8
0
  6
CONTINUOUS
 62
     7
100
AcDbLine
 10
1425.940797171281
 20
927.8412488541898
 30
0.0
 11
1431.440797171264
 21
927.8412488541898
 31
0.0
  0
LINE
  5
14D
330
B8
100
AcDbEntity
  8
0
  6
CONTINUOUS
 62
     7
100
AcDbLine
 10
1431.440797171264
 20
927.8412488541898
 30
0.0
 11
1431.440797171263
 21
921.8412488541896
 31
0.0
  0
LINE
  5
14E
330
B8
100
AcDbEntity
  8
0
  6
CONTINUOUS
 62
     7
100
AcDbLine
 10
1433.440797171281
 20
927.8412488541898
 30
0.0
 11
1433.44079717128
 21
921.8412488541896
 31
0.0
  0
LINE
  5
14F
330
B8
100
AcDbEntity
  8
0
  6
CONTINUOUS
 62
     7
100
AcDbLine
 10
1425.940797171281
 20
929.8412488541896
 30
0.0
 11
1431.440797171281
 21
929.8412488541896
 31
0.0
  0
ARC
  5
150
330
B8
100
AcDbEntity
  8
0
  6
CONTINUOUS
 62
     7
100
AcDbCircle
 10
1431.440797171281
 20
927.8412488541898
 30
0.0
 40
2.0
100
AcDbArc
 50
0.0
 51
90.00000000000001
  0
ENDBLK
  5
BA
330
B8
100
AcDbEntity
  8
0
100
AcDbBlockEnd
  0
BLOCK
  5
603
330
602
100
AcDbEntity
  8
0
100
AcDbBlockBegin
  2
*D23
 70
     1
 10
0.0
 20
0.0
 30
0.0
  3
*D23
  1

  0
LINE
  5
605
330
602
100
AcDbEntity
  8
LAY-20
  6
CONTINUOUS
 62
     4
100
AcDbLine
 10
667.9407971713099
 20
979.8412488541599
 30
0.0
 11
667.9407971713099
 21
1149.8412488542
 31
0.0
  0
LINE
  5
606
330
602
100
AcDbEntity
  8
LAY-20
  6
CONTINUOUS
 62
     4
100
AcDbLine
 10
1581.94079717111
 20
979.8412488541599
 30
0.0
 11
1581.94079717111
 21
1149.8412488542
 31
0.0
  0
LINE
  5
607
330
602
100
AcDbEntity
  8
LAY-20
  6
CONTINUOUS
 62
     4
100
AcDbLine
 10
692.9407971713099
 20
1134.8412488542
 30
0.0
 11
1556.94079717111
 21
1134.8412488542
 31
0.0
  0
INSERT
  5
608
330
602
100
AcDbEntity
  8
LAY-20
 62
     4
100
AcDbBlockReference
  2
EX_BNORM
 10
667.9407971713099
 20
1134.8412488542
 30
0.0
 41
25.0
 42
25.0
 43
25.0
 50
180.0
  0
INSERT
  5
609
330
602
100
AcDbEntity
  8
LAY-20
 62
     4
100
AcDbBlockReference
  2
EX_BNORM
 10
1581.94079717111
 20
1134.8412488542
 30
0.0
 41
25.0
 42
25.0
 43
25.0
  0
MTEXT
  5
60A
330
602
100
AcDbEntity
  8
LAY-20
 62
     7
100
AcDbMText
 10
1124.94079717121
 20
1159.8412488542
 30
0.0
 40
31.181104
 41
0.0
 71
     5
 72
     1
  1
914
  7
EXCADDIM1
  0
POINT
  5
60B
330
602
100
AcDbEntity
  8
DEFPOINTS
 62
     0
100
AcDbPoint
 10
667.9407971713099
 20
964.8412488541599
 30
0.0
  0
POINT
  5
60C
330
602
100
AcDbEntity
  8
DEFPOINTS
 62
     0
100
AcDbPoint
 10
1581.94079717111
 20
964.8412488541599
 30
0.0
  0
POINT
  5
60D
330
602
100
AcDbEntity
  8
DEFPOINTS
 62
     0
100
AcDbPoint
 10
1581.94079717111
 20
1134.8412488542
 30
0.0
  0
ENDBLK
  5
604
330
602
100
AcDbEntity
  8
0
100
AcDbBlockEnd
  0
BLOCK
  5
610
330
60F
100
AcDbEntity
  8
0
100
AcDbBlockBegin
  2
*D24
 70
     1
 10
0.0
 20
0.0
 30
0.0
  3
*D24
  1

  0
LINE
  5
612
330
60F
100
AcDbEntity
  8
LAY-20
  6
CONTINUOUS
 62
     4
100
AcDbLine
 10
1123.940797171335
 20
979.8412488541879
 30
0.0
 11
1123.940797171335
 21
1079.8412488542
 31
0.0
  0
LINE
  5
613
330
60F
100
AcDbEntity
  8
LAY-20
  6
CONTINUOUS
 62
     4
100
AcDbLine
 10
683.9407971713363
 20
979.8412488541879
 30
0.0
 11
683.9407971713363
 21
1079.8412488542
 31
0.0
  0
LINE
  5
614
330
60F
100
AcDbEntity
  8
LAY-20
  6
CONTINUOUS
 62
     4
100
AcDbLine
 10
1098.940797171335
 20
1064.8412488542
 30
0.0
 11
708.9407971713363
 21
1064.8412488542
 31
0.0
  0
INSERT
  5
615
330
60F
100
AcDbEntity
  8
LAY-20
 62
     4
100
AcDbBlockReference
  2
EX_BNORM
 10
1123.940797171335
 20
1064.8412488542
 30
0.0
 41
25.0
 42
25.0
 43
25.0
  0
INSERT
  5
616
330
60F
100
AcDbEntity
  8
LAY-20
 62
     4
100
AcDbBlockReference
  2
EX_BNORM
 10
683.9407971713363
 20
1064.8412488542
 30
0.0
 41
25.0
 42
25.0
 43
25.0
 50
180.0
  0
MTEXT
  5
617
330
60F
100
AcDbEntity
  8
LAY-20
 62
     7
100
AcDbMText
 10
903.9407971713359
 20
1089.8412488542
 30
0.0
 40
31.181104
 41
0.0
 71
     5
 72
     1
  1
440
  7
EXCADDIM1
  0
POINT
  5
618
330
60F
100
AcDbEntity
  8
DEFPOINTS
 62
     0
100
AcDbPoint
 10
1123.940797171335
 20
964.8412488541879
 30
0.0
  0
POINT
  5
619
330
60F
100
AcDbEntity
  8
DEFPOINTS
 62
     0
100
AcDbPoint
 10
683.9407971713363
 20
964.8412488541879
 30
0.0
  0
POINT
  5
61A
330
60F
100
AcDbEntity
  8
DEFPOINTS
 62
     0
100
AcDbPoint
 10
683.9407971713363
 20
1064.8412488542
 30
0.0
  0
ENDBLK
  5
611
330
60F
100
AcDbEntity
  8
0
100
AcDbBlockEnd
  0
BLOCK
  5
61D
330
61C
100
AcDbEntity
  8
0
100
AcDbBlockBegin
  2
*D25
 70
     1
 10
0.0
 20
0.0
 30
0.0
  3
*D25
  1

  0
LINE
  5
61F
330
61C
100
AcDbEntity
  8
LAY-20
  6
CONTINUOUS
 62
     4
100
AcDbLine
 10
774.94079717121
 20
759.8412488541902
 30
0.0
 11
774.94079717121
 21
659.84124885419
 31
0.0
  0
LINE
  5
620
330
61C
100
AcDbEntity
  8
LAY-20
  6
CONTINUOUS
 62
     4
100
AcDbLine
 10
1474.94079717121
 20
759.8412488541902
 30
0.0
 11
1474.94079717121
 21
659.84124885419
 31
0.0
  0
LINE
  5
621
330
61C
100
AcDbEntity
  8
LAY-20
  6
CONTINUOUS
 62
     4
100
AcDbLine
 10
799.94079717121
 20
674.84124885419
 30
0.0
 11
1449.94079717121
 21
674.84124885419
 31
0.0
  0
INSERT
  5
622
330
61C
100
AcDbEntity
  8
LAY-20
 62
     4
100
AcDbBlockReference
  2
EX_BNORM
 10
774.94079717121
 20
674.84124885419
 30
0.0
 41
25.0
 42
25.0
 43
25.0
 50
180.0
  0
INSERT
  5
623
330
61C
100
AcDbEntity
  8
LAY-20
 62
     4
100
AcDbBlockReference
  2
EX_BNORM
 10
1474.94079717121
 20
674.84124885419
 30
0.0
 41
25.0
 42
25.0
 43
25.0
  0
MTEXT
  5
624
330
61C
100
AcDbEntity
  8
LAY-20
 62
     7
100
AcDbMText
 10
1124.94079717121
 20
699.84124885419
 30
0.0
 40
31.181104
 41
0.0
 71
     5
 72
     1
  1
700
  7
EXCADDIM1
  0
POINT
  5
625
330
61C
100
AcDbEntity
  8
DEFPOINTS
 62
     0
100
AcDbPoint
 10
774.94079717121
 20
774.8412488541902
 30
0.0
  0
POINT
  5
626
330
61C
100
AcDbEntity
  8
DEFPOINTS
 62
     0
100
AcDbPoint
 10
1474.94079717121
 20
774.8412488541902
 30
0.0
  0
POINT
  5
627
330
61C
100
AcDbEntity
  8
DEFPOINTS
 62
     0
100
AcDbPoint
 10
1474.94079717121
 20
674.84124885419
 30
0.0
  0
ENDBLK
  5
61E
330
61C
100
AcDbEntity
  8
0
100
AcDbBlockEnd
  0
BLOCK
  5
62A
330
629
100
AcDbEntity
  8
0
100
AcDbBlockBegin
  2
*D26
 70
     1
 10
0.0
 20
0.0
 30
0.0
  3
*D26
  1

  0
LINE
  5
62C
330
629
100
AcDbEntity
  8
LAY-20
  6
CONTINUOUS
 62
     4
100
AcDbLine
 10
1536.14079717121
 20
774.8412488541902
 30
0.0
 11
1731.4961362305
 21
774.8412488541902
 31
0.0
  0
LINE
  5
62D
330
629
100
AcDbEntity
  8
LAY-20
  6
CONTINUOUS
 62
     4
100
AcDbLine
 10
1596.94079717111
 20
964.8412488541599
 30
0.0
 11
1731.4961362305
 21
964.8412488541599
 31
0.0
  0
LINE
  5
62E
330
629
100
AcDbEntity
  8
LAY-20
  6
CONTINUOUS
 62
     4
100
AcDbLine
 10
1716.4961362305
 20
799.8412488541902
 30
0.0
 11
1716.4961362305
 21
939.8412488541599
 31
0.0
  0
INSERT
  5
62F
330
629
100
AcDbEntity
  8
LAY-20
 62
     4
100
AcDbBlockReference
  2
EX_BNORM
 10
1716.4961362305
 20
774.8412488541902
 30
0.0
 41
25.0
 42
25.0
 43
25.0
 50
270.0
  0
INSERT
  5
630
330
629
100
AcDbEntity
  8
LAY-20
 62
     4
100
AcDbBlockReference
  2
EX_BNORM
 10
1716.4961362305
 20
964.8412488541599
 30
0.0
 41
25.0
 42
25.0
 43
25.0
 50
90.0
  0
MTEXT
  5
631
330
629
100
AcDbEntity
  8
LAY-20
 62
     7
100
AcDbMText
 10
1691.4961362305
 20
869.8412488541746
 30
0.0
 40
31.181104
 41
0.0
 71
     5
 72
     1
  1
190
  7
EXCADDIM1
 11
0.0
 21
1.0
 31
0.0
  0
POINT
  5
632
330
629
100
AcDbEntity
  8
DEFPOINTS
 62
     0
100
AcDbPoint
 10
1521.14079717121
 20
774.8412488541902
 30
0.0
  0
POINT
  5
633
330
629
100
AcDbEntity
  8
DEFPOINTS
 62
     0
100
AcDbPoint
 10
1581.94079717111
 20
964.8412488541599
 30
0.0
  0
POINT
  5
634
330
629
100
AcDbEntity
  8
DEFPOINTS
 62
     0
100
AcDbPoint
 10
1716.4961362305
 20
964.8412488541599
 30
0.0
  0
ENDBLK
  5
62B
330
629
100
AcDbEntity
  8
0
100
AcDbBlockEnd
  0
BLOCK
  5
637
330
636
100
AcDbEntity
  8
0
100
AcDbBlockBegin
  2
*D27
 70
     1
 10
0.0
 20
0.0
 30
0.0
  3
*D27
  1

  0
LINE
  5
639
330
636
100
AcDbEntity
  8
LAY-20
  6
CONTINUOUS
 62
     4
100
AcDbLine
 10
2010.797537416111
 20
1373.64124885471
 30
0.0
 11
1840.7975374161
 21
1373.64124885471
 31
0.0
  0
LINE
  5
63A
330
636
100
AcDbEntity
  8
LAY-20
  6
CONTINUOUS
 62
     4
100
AcDbLine
 10
2010.797537416111
 20
2361.64124885469
 30
0.0
 11
1840.7975374161
 21
2361.64124885469
 31
0.0
  0
LINE
  5
63B
330
636
100
AcDbEntity
  8
LAY-20
  6
CONTINUOUS
 62
     4
100
AcDbLine
 10
1855.7975374161
 20
1398.64124885471
 30
0.0
 11
1855.7975374161
 21
2336.64124885469
 31
0.0
  0
INSERT
  5
63C
330
636
100
AcDbEntity
  8
LAY-20
 62
     4
100
AcDbBlockReference
  2
EX_BNORM
 10
1855.7975374161
 20
1373.64124885471
 30
0.0
 41
25.0
 42
25.0
 43
25.0
 50
270.0
  0
INSERT
  5
63D
330
636
100
AcDbEntity
  8
LAY-20
 62
     4
100
AcDbBlockReference
  2
EX_BNORM
 10
1855.7975374161
 20
2361.64124885469
 30
0.0
 41
25.0
 42
25.0
 43
25.0
 50
90.0
  0
MTEXT
  5
63E
330
636
100
AcDbEntity
  8
LAY-20
 62
     7
100
AcDbMText
 10
1830.7975374161
 20
1867.6412488547
 30
0.0
 40
31.181104
 41
0.0
 71
     5
 72
     1
  1
988
  7
EXCADDIM1
 11
0.0
 21
1.0
 31
0.0
  0
POINT
  5
63F
330
636
100
AcDbEntity
  8
DEFPOINTS
 62
     0
100
AcDbPoint
 10
2025.797537416111
 20
1373.64124885471
 30
0.0
  0
POINT
  5
640
330
636
100
AcDbEntity
  8
DEFPOINTS
 62
     0
100
AcDbPoint
 10
2025.797537416111
 20
2361.64124885469
 30
0.0
  0
POINT
  5
641
330
636
100
AcDbEntity
  8
DEFPOINTS
 62
     0
100
AcDbPoint
 10
1855.7975374161
 20
2361.64124885469
 30
0.0
  0
ENDBLK
  5
638
330
636
100
AcDbEntity
  8
0
100
AcDbBlockEnd
  0
BLOCK
  5
644
330
643
100
AcDbEntity
  8
0
100
AcDbBlockBegin
  2
*D28
 70
     1
 10
0.0
 20
0.0
 30
0.0
  3
*D28
  1

  0
LINE
  5
646
330
643
100
AcDbEntity
  8
LAY-20
  6
CONTINUOUS
 62
     4
100
AcDbLine
 10
2010.797537416086
 20
1389.641248854655
 30
0.0
 11
1910.7975374161
 21
1389.641248854655
 31
0.0
  0
LINE
  5
647
330
643
100
AcDbEntity
  8
LAY-20
  6
CONTINUOUS
 62
     4
100
AcDbLine
 10
2010.797537416086
 20
2345.641248854755
 30
0.0
 11
1910.7975374161
 21
2345.641248854755
 31
0.0
  0
LINE
  5
648
330
643
100
AcDbEntity
  8
LAY-20
  6
CONTINUOUS
 62
     4
100
AcDbLine
 10
1925.7975374161
 20
1414.641248854655
 30
0.0
 11
1925.7975374161
 21
2320.641248854755
 31
0.0
  0
INSERT
  5
649
330
643
100
AcDbEntity
  8
LAY-20
 62
     4
100
AcDbBlockReference
  2
EX_BNORM
 10
1925.7975374161
 20
1389.641248854655
 30
0.0
 41
25.0
 42
25.0
 43
25.0
 50
270.0
  0
INSERT
  5
64A
330
643
100
AcDbEntity
  8
LAY-20
 62
     4
100
AcDbBlockReference
  2
EX_BNORM
 10
1925.7975374161
 20
2345.641248854755
 30
0.0
 41
25.0
 42
25.0
 43
25.0
 50
90.0
  0
MTEXT
  5
64B
330
643
100
AcDbEntity
  8
LAY-20
 62
     7
100
AcDbMText
 10
1900.7975374161
 20
1867.641248854705
 30
0.0
 40
31.181104
 41
0.0
 71
     5
 72
     1
  1
956
  7
EXCADDIM1
 11
0.0
 21
1.0
 31
0.0
  0
POINT
  5
64C
330
643
100
AcDbEntity
  8
DEFPOINTS
 62
     0
100
AcDbPoint
 10
2025.797537416086
 20
1389.641248854655
 30
0.0
  0
POINT
  5
64D
330
643
100
AcDbEntity
  8
DEFPOINTS
 62
     0
100
AcDbPoint
 10
2025.797537416086
 20
2345.641248854755
 30
0.0
  0
POINT
  5
64E
330
643
100
AcDbEntity
  8
DEFPOINTS
 62
     0
100
AcDbPoint
 10
1925.7975374161
 20
2345.641248854755
 30
0.0
  0
ENDBLK
  5
645
330
643
100
AcDbEntity
  8
0
100
AcDbBlockEnd
  0
BLOCK
  5
651
330
650
100
AcDbEntity
  8
0
100
AcDbBlockBegin
  2
*D29
 70
     1
 10
0.0
 20
0.0
 30
0.0
  3
*D29
  1

  0
LINE
  5
653
330
650
100
AcDbEntity
  8
LAY-20
  6
CONTINUOUS
 62
     4
100
AcDbLine
 10
2230.797537416091
 20
2217.64124885469
 30
0.0
 11
2330.7975374161
 21
2217.64124885469
 31
0.0
  0
LINE
  5
654
330
650
100
AcDbEntity
  8
LAY-20
  6
CONTINUOUS
 62
     4
100
AcDbLine
 10
2230.797537416091
 20
1517.6412488547
 30
0.0
 11
2330.7975374161
 21
1517.6412488547
 31
0.0
  0
LINE
  5
655
330
650
100
AcDbEntity
  8
LAY-20
  6
CONTINUOUS
 62
     4
100
AcDbLine
 10
2315.7975374161
 20
2192.64124885469
 30
0.0
 11
2315.7975374161
 21
1542.6412488547
 31
0.0
  0
INSERT
  5
656
330
650
100
AcDbEntity
  8
LAY-20
 62
     4
100
AcDbBlockReference
  2
EX_BNORM
 10
2315.7975374161
 20
2217.64124885469
 30
0.0
 41
25.0
 42
25.0
 43
25.0
 50
90.0
  0
INSERT
  5
657
330
650
100
AcDbEntity
  8
LAY-20
 62
     4
100
AcDbBlockReference
  2
EX_BNORM
 10
2315.7975374161
 20
1517.6412488547
 30
0.0
 41
25.0
 42
25.0
 43
25.0
 50
270.0
  0
MTEXT
  5
658
330
650
100
AcDbEntity
  8
LAY-20
 62
     7
100
AcDbMText
 10
2290.7975374161
 20
1867.641248854694
 30
0.0
 40
31.181104
 41
0.0
 71
     5
 72
     1
  1
700
  7
EXCADDIM1
 11
0.0
 21
1.0
 31
0.0
  0
POINT
  5
659
330
650
100
AcDbEntity
  8
DEFPOINTS
 62
     0
100
AcDbPoint
 10
2215.797537416091
 20
2217.64124885469
 30
0.0
  0
POINT
  5
65A
330
650
100
AcDbEntity
  8
DEFPOINTS
 62
     0
100
AcDbPoint
 10
2215.797537416091
 20
1517.6412488547
 30
0.0
  0
POINT
  5
65B
330
650
100
AcDbEntity
  8
DEFPOINTS
 62
     0
100
AcDbPoint
 10
2315.7975374161
 20
1517.6412488547
 30
0.0
  0
ENDBLK
  5
652
330
650
100
AcDbEntity
  8
0
100
AcDbBlockEnd
  0
BLOCK
  5
65E
330
65D
100
AcDbEntity
  8
0
100
AcDbBlockBegin
  2
*D30
 70
     1
 10
0.0
 20
0.0
 30
0.0
  3
*D30
  1

  0
LINE
  5
660
330
65D
100
AcDbEntity
  8
LAY-20
  6
CONTINUOUS
 62
     4
100
AcDbLine
 10
2088.1975374161
 20
2352.8412488547
 30
0.0
 11
2400.7975374161
 21
2352.8412488547
 31
0.0
  0
LINE
  5
661
330
65D
100
AcDbEntity
  8
LAY-20
  6
CONTINUOUS
 62
     4
100
AcDbLine
 10
2088.1975374161
 20
1382.4412488547
 30
0.0
 11
2400.7975374161
 21
1382.4412488547
 31
0.0
  0
LINE
  5
662
330
65D
100
AcDbEntity
  8
LAY-20
  6
CONTINUOUS
 62
     4
100
AcDbLine
 10
2385.7975374161
 20
2327.8412488547
 30
0.0
 11
2385.7975374161
 21
1407.4412488547
 31
0.0
  0
INSERT
  5
663
330
65D
100
AcDbEntity
  8
LAY-20
 62
     4
100
AcDbBlockReference
  2
EX_BNORM
 10
2385.7975374161
 20
2352.8412488547
 30
0.0
 41
25.0
 42
25.0
 43
25.0
 50
90.0
  0
INSERT
  5
664
330
65D
100
AcDbEntity
  8
LAY-20
 62
     4
100
AcDbBlockReference
  2
EX_BNORM
 10
2385.7975374161
 20
1382.4412488547
 30
0.0
 41
25.0
 42
25.0
 43
25.0
 50
270.0
  0
MTEXT
  5
665
330
65D
100
AcDbEntity
  8
LAY-20
 62
     7
100
AcDbMText
 10
2360.7975374161
 20
1867.6412488547
 30
0.0
 40
31.181104
 41
0.0
 71
     5
 72
     1
  1
970
  7
EXCADDIM1
 11
0.0
 21
1.0
 31
0.0
  0
POINT
  5
666
330
65D
100
AcDbEntity
  8
DEFPOINTS
 62
     0
100
AcDbPoint
 10
2073.1975374161
 20
2352.8412488547
 30
0.0
  0
POINT
  5
667
330
65D
100
AcDbEntity
  8
DEFPOINTS
 62
     0
100
AcDbPoint
 10
2073.1975374161
 20
1382.4412488547
 30
0.0
  0
POINT
  5
668
330
65D
100
AcDbEntity
  8
DEFPOINTS
 62
     0
100
AcDbPoint
 10
2385.7975374161
 20
1382.4412488547
 30
0.0
  0
ENDBLK
  5
65F
330
65D
100
AcDbEntity
  8
0
100
AcDbBlockEnd
  0
BLOCK
  5
66B
330
66A
100
AcDbEntity
  8
0
100
AcDbBlockBegin
  2
*D31
 70
     1
 10
0.0
 20
0.0
 30
0.0
  3
*D31
  1

  0
LINE
  5
66D
330
66A
100
AcDbEntity
  8
LAY-20
  6
CONTINUOUS
 62
     4
100
AcDbLine
 10
1573.1407971711
 20
852.84124885416
 30
0.0
 11
1573.1407971711
 21
589.84124885419
 31
0.0
  0
LINE
  5
66E
330
66A
100
AcDbEntity
  8
LAY-20
  6
CONTINUOUS
 62
     4
100
AcDbLine
 10
676.74079717127
 20
852.84124885416
 30
0.0
 11
676.74079717127
 21
589.84124885419
 31
0.0
  0
LINE
  5
66F
330
66A
100
AcDbEntity
  8
LAY-20
  6
CONTINUOUS
 62
     4
100
AcDbLine
 10
1548.1407971711
 20
604.84124885419
 30
0.0
 11
701.74079717127
 21
604.84124885419
 31
0.0
  0
INSERT
  5
670
330
66A
100
AcDbEntity
  8
LAY-20
 62
     4
100
AcDbBlockReference
  2
EX_BNORM
 10
1573.1407971711
 20
604.84124885419
 30
0.0
 41
25.0
 42
25.0
 43
25.0
  0
INSERT
  5
671
330
66A
100
AcDbEntity
  8
LAY-20
 62
     4
100
AcDbBlockReference
  2
EX_BNORM
 10
676.74079717127
 20
604.84124885419
 30
0.0
 41
25.0
 42
25.0
 43
25.0
 50
180.0
  0
MTEXT
  5
672
330
66A
100
AcDbEntity
  8
LAY-20
 62
     7
100
AcDbMText
 10
1124.940797171185
 20
629.8412488541899
 30
0.0
 40
31.181104
 41
0.0
 71
     5
 72
     1
  1
896
  7
EXCADDIM1
  0
POINT
  5
673
330
66A
100
AcDbEntity
  8
DEFPOINTS
 62
     0
100
AcDbPoint
 10
1573.1407971711
 20
867.84124885416
 30
0.0
  0
POINT
  5
674
330
66A
100
AcDbEntity
  8
DEFPOINTS
 62
     0
100
AcDbPoint
 10
676.74079717127
 20
867.84124885416
 30
0.0
  0
POINT
  5
675
330
66A
100
AcDbEntity
  8
DEFPOINTS
 62
     0
100
AcDbPoint
 10
676.74079717127
 20
604.84124885419
 30
0.0
  0
ENDBLK
  5
66C
330
66A
100
AcDbEntity
  8
0
100
AcDbBlockEnd
  0
BLOCK
  5
678
330
677
100
AcDbEntity
  8
0
100
AcDbBlockBegin
  2
*D32
 70
     1
 10
0.0
 20
0.0
 30
0.0
  3
*D32
  1

  0
LINE
  5
67A
330
677
100
AcDbEntity
  8
LAY-20
  6
CONTINUOUS
 62
     4
100
AcDbLine
 10
1280.9407971713
 20
929.84124885419
 30
0.0
 11
1366.0
 21
929.84124885419
 31
0.0
  0
LINE
  5
67B
330
677
100
AcDbEntity
  8
LAY-20
  6
CONTINUOUS
 62
     4
100
AcDbLine
 10
1351.0
 20
929.84124885419
 30
0.0
 11
1351.0
 21
964.84124885419
 31
0.0
  0
LINE
  5
67C
330
677
100
AcDbEntity
  8
LAY-20
  6
CONTINUOUS
 62
     4
100
AcDbLine
 10
1351.0
 20
904.84124885419
 30
0.0
 11
1351.0
 21
879.84124885419
 31
0.0
  0
LINE
  5
67D
330
677
100
AcDbEntity
  8
LAY-20
  6
CONTINUOUS
 62
     4
100
AcDbLine
 10
1351.0
 20
989.84124885419
 30
0.0
 11
1351.0
 21
1014.84124885419
 31
0.0
  0
INSERT
  5
67E
330
677
100
AcDbEntity
  8
LAY-20
 62
     4
100
AcDbBlockReference
  2
EX_BNORM
 10
1351.0
 20
929.84124885419
 30
0.0
 41
25.0
 42
25.0
 43
25.0
 50
90.0
  0
INSERT
  5
67F
330
677
100
AcDbEntity
  8
LAY-20
 62
     4
100
AcDbBlockReference
  2
EX_BNORM
 10
1351.0
 20
964.84124885419
 30
0.0
 41
25.0
 42
25.0
 43
25.0
 50
270.0
  0
MTEXT
  5
680
330
677
100
AcDbEntity
  8
LAY-20
 62
     7
100
AcDbMText
 10
1326.0
 20
1024.84124885419
 30
0.0
 40
31.181104
 41
0.0
 71
     5
 72
     1
  1
35
  7
EXCADDIM1
 11
0.0
 21
1.0
 31
0.0
  0
POINT
  5
681
330
677
100
AcDbEntity
  8
DEFPOINTS
 62
     0
100
AcDbPoint
 10
1265.9407971713
 20
929.84124885419
 30
0.0
  0
POINT
  5
682
330
677
100
AcDbEntity
  8
DEFPOINTS
 62
     0
100
AcDbPoint
 10
1351.0
 20
964.84124885419
 30
0.0
  0
POINT
  5
683
330
677
100
AcDbEntity
  8
DEFPOINTS
 62
     0
100
AcDbPoint
 10
1351.0
 20
964.84124885419
 30
0.0
  0
ENDBLK
  5
679
330
677
100
AcDbEntity
  8
0
100
AcDbBlockEnd
  0
ENDSEC
  0
SECTION
  2
ENTITIES
  0
INSERT
  5
151
330
1F
100
AcDbEntity
  8
LAY-10
  6
CONTINUOUS
 62
     0
100
AcDbBlockReference
  2
SYM-1
 10
0.0
 20
0.0
 30
0.0
  0
INSERT
  5
152
330
1F
100
AcDbEntity
  8
LAY-10
  6
CONTINUOUS
 62
     0
100
AcDbBlockReference
  2
SYM-2
 10
0.0
 20
0.0
 30
0.0
  0
INSERT
  5
153
330
1F
100
AcDbEntity
  8
LAY-10
  6
CONTINUOUS
 62
     0
100
AcDbBlockReference
  2
SYM-3
 10
0.0
 20
0.0
 30
0.0
  0
INSERT
  5
154
330
1F
100
AcDbEntity
  8
LAY-10
  6
CONTINUOUS
 62
     0
100
AcDbBlockReference
  2
SYM-4
 10
0.0
 20
0.0
 30
0.0
  0
INSERT
  5
155
330
1F
100
AcDbEntity
  8
LAY-10
  6
CONTINUOUS
 62
     0
100
AcDbBlockReference
  2
SYM-5
 10
0.0
 20
0.0
 30
0.0
  0
INSERT
  5
156
330
1F
100
AcDbEntity
  8
LAY-10
  6
CONTINUOUS
 62
     0
100
AcDbBlockReference
  2
SYM-6
 10
0.0
 20
0.0
 30
0.0
  0
INSERT
  5
157
330
1F
100
AcDbEntity
  8
LAY-10
  6
CONTINUOUS
 62
     0
100
AcDbBlockReference
  2
SYM-7
 10
0.0
 20
0.0
 30
0.0
  0
INSERT
  5
158
330
1F
100
AcDbEntity
  8
LAY-10
  6
CONTINUOUS
 62
     0
100
AcDbBlockReference
  2
SYM-8
 10
0.0
 20
0.0
 30
0.0
  0
LINE
  5
159
330
1F
100
AcDbEntity
  8
LAY-10
  6
CONTINUOUS
 62
     7
100
AcDbLine
 10
1562.440797171148
 20
882.241248854163
 30
0.0
 11
1541.440797171147
 21
882.241248854163
 31
0.0
  0
LINE
  5
15A
330
1F
100
AcDbEntity
  8
LAY-10
  6
CONTINUOUS
 62
     7
100
AcDbLine
 10
1541.440797171147
 20
882.241248854163
 30
0.0
 11
1541.440797171147
 21
880.2412488541626
 31
0.0
  0
LINE
  5
15B
330
1F
100
AcDbEntity
  8
LAY-10
  6
CONTINUOUS
 62
     7
100
AcDbLine
 10
1562.440797171148
 20
882.241248854163
 30
0.0
 11
1562.440797171148
 21
880.2412488541626
 31
0.0
  0
LINE
  5
15C
330
1F
100
AcDbEntity
  8
LAY-10
  6
CONTINUOUS
 62
     7
100
AcDbLine
 10
1541.940797171147
 20
882.241248854163
 30
0.0
 11
1541.940797171147
 21
889.717248854163
 31
0.0
  0
LINE
  5
15D
330
1F
100
AcDbEntity
  8
LAY-10
  6
CONTINUOUS
 62
     7
100
AcDbLine
 10
1561.940797171147
 20
882.241248854163
 30
0.0
 11
1561.940797171147
 21
889.717248854163
 31
0.0
  0
ARC
  5
15E
330
1F
100
AcDbEntity
  8
LAY-10
  6
CONTINUOUS
 62
     7
100
AcDbCircle
 10
1544.440797171151
 20
886.7972142221272
 30
0.0
 40
3.844034632034633
100
AcDbArc
 50
49.43137502660009
 51
130.5686249734096
  0
ARC
  5
15F
330
1F
100
AcDbEntity
  8
LAY-10
  6
CONTINUOUS
 62
     7
100
AcDbCircle
 10
1551.940797171148
 20
876.6511103260248
 30
0.0
 40
13.99013852813853
100
AcDbArc
 50
69.05972439385351
 51
110.9402756061347
  0
ARC
  5
160
330
1F
100
AcDbEntity
  8
LAY-10
  6
CONTINUOUS
 62
     7
100
AcDbCircle
 10
1559.440797171151
 20
886.7972142221272
 30
0.0
 40
3.844034632034633
100
AcDbArc
 50
49.43137502661921
 51
130.5686249734191
  0
LINE
  5
161
330
1F
100
AcDbEntity
  8
LAY-10
  6
CONTINUOUS
 62
     7
100
AcDbLine
 10
1544.440797171151
 20
890.6412488541625
 30
0.0
 11
1559.440797171151
 21
890.6412488541625
 31
0.0
  0
LINE
  5
162
330
1F
100
AcDbEntity
  8
LAY-10
  6
CONTINUOUS
 62
     7
100
AcDbLine
 10
1564.170037345144
 20
864.7333290237254
 30
0.0
 11
1564.062117514694
 21
864.8412488541778
 31
0.0
  0
LINE
  5
163
330
1F
100
AcDbEntity
  8
LAY-10
  6
CONTINUOUS
 62
     7
100
AcDbLine
 10
1563.81189235208
 20
864.3843672356027
 30
0.0
 11
1563.35501073351
 21
864.8412488541724
 31
0.0
  0
LINE
  5
164
330
1F
100
AcDbEntity
  8
LAY-10
  6
CONTINUOUS
 62
     7
100
AcDbLine
 10
1563.453747359016
 20
864.0354054474803
 30
0.0
 11
1562.647903952317
 21
864.8412488541778
 31
0.0
  0
LINE
  5
165
330
1F
100
AcDbEntity
  8
LAY-10
  6
CONTINUOUS
 62
     7
100
AcDbLine
 10
1563.095602365941
 20
863.6864436593709
 30
0.0
 11
1561.940797171151
 21
864.841248854161
 31
0.0
  0
LINE
  5
166
330
1F
100
AcDbEntity
  8
LAY-10
  6
CONTINUOUS
 62
     7
100
AcDbLine
 10
1562.737457372877
 20
863.3374818712489
 30
0.0
 11
1561.940797171154
 21
864.1341420729689
 31
0.0
  0
LINE
  5
167
330
1F
100
AcDbEntity
  8
LAY-10
  6
CONTINUOUS
 62
     7
100
AcDbLine
 10
1562.379312379812
 20
862.9885200831243
 30
0.0
 11
1561.94079717114
 21
863.4270352917986
 31
0.0
  0
LINE
  5
168
330
1F
100
AcDbEntity
  8
LAY-10
  6
CONTINUOUS
 62
     7
100
AcDbLine
 10
1562.021167386747
 20
862.639558295002
 30
0.0
 11
1561.940797171154
 21
862.7199285105937
 31
0.0
  0
LINE
  5
169
330
1F
100
AcDbEntity
  8
LAY-10
  6
CONTINUOUS
 62
     7
100
AcDbLine
 10
1539.819476827596
 20
864.8412488541724
 30
0.0
 11
1539.739106611984
 21
864.7608786385565
 31
0.0
  0
LINE
  5
16A
330
1F
100
AcDbEntity
  8
LAY-10
  6
CONTINUOUS
 62
     7
100
AcDbLine
 10
1540.526583608788
 20
864.8412488541778
 30
0.0
 11
1540.088068400105
 21
864.4027336454923
 31
0.0
  0
LINE
  5
16B
330
1F
100
AcDbEntity
  8
LAY-10
  6
CONTINUOUS
 62
     7
100
AcDbLine
 10
1541.233690389973
 20
864.8412488541724
 30
0.0
 11
1540.437030188215
 21
864.0445886524169
 31
0.0
  0
LINE
  5
16C
330
1F
100
AcDbEntity
  8
LAY-10
  6
CONTINUOUS
 62
     7
100
AcDbLine
 10
1541.940797171151
 20
864.8412488541665
 30
0.0
 11
1540.785991976339
 21
863.686443659353
 31
0.0
  0
LINE
  5
16D
330
1F
100
AcDbEntity
  8
LAY-10
  6
CONTINUOUS
 62
     7
100
AcDbLine
 10
1541.940797171143
 20
864.1341420729743
 30
0.0
 11
1541.134953764459
 21
863.3282986662882
 31
0.0
  0
LINE
  5
16E
330
1F
100
AcDbEntity
  8
LAY-10
  6
CONTINUOUS
 62
     7
100
AcDbLine
 10
1541.94079717114
 20
863.4270352917822
 30
0.0
 11
1541.483915552583
 21
862.9701536732244
 31
0.0
  0
LINE
  5
16F
330
1F
100
AcDbEntity
  8
LAY-10
  6
CONTINUOUS
 62
     7
100
AcDbLine
 10
1541.940797171143
 20
862.7199285105992
 30
0.0
 11
1541.832877340693
 21
862.6120086801491
 31
0.0
  0
LINE
  5
170
330
1F
100
AcDbEntity
  8
LAY-10
  6
CONTINUOUS
 62
     7
100
AcDbLine
 10
1530.257159035852
 20
873.7451576145625
 30
0.0
 11
1532.975835020151
 21
876.4638335988614
 31
0.0
  0
LINE
  5
171
330
1F
100
AcDbEntity
  8
LAY-10
  6
CONTINUOUS
 62
     7
100
AcDbLine
 10
1530.075342381947
 20
872.1491273982622
 30
0.0
 11
1534.925418627051
 21
876.999203643463
 31
0.0
  0
LINE
  5
172
330
1F
100
AcDbEntity
  8
LAY-10
  6
CONTINUOUS
 62
     7
100
AcDbLine
 10
1530.388213244651
 20
871.0477846986626
 30
0.0
 11
1536.380314717348
 21
877.0398861713632
 31
0.0
  0
LINE
  5
173
330
1F
100
AcDbEntity
  8
LAY-10
  6
CONTINUOUS
 62
     7
100
AcDbLine
 10
1534.580116471951
 20
868.1686201140631
 30
0.0
 11
1541.027246254848
 21
874.6157498969617
 31
0.0
  0
LINE
  5
174
330
1F
100
AcDbEntity
  8
LAY-10
  6
CONTINUOUS
 62
     7
100
AcDbLine
 10
1535.883660289349
 20
868.0579503691617
 30
0.0
 11
1541.491469390351
 21
873.6657594701626
 31
0.0
  0
LINE
  5
175
330
1F
100
AcDbEntity
  8
LAY-10
  6
CONTINUOUS
 62
     7
100
AcDbLine
 10
1537.475048820247
 20
868.235125337663
 30
0.0
 11
1541.667847812452
 21
872.4279243298618
 31
0.0
  0
LINE
  5
176
330
1F
100
AcDbEntity
  8
LAY-10
  6
CONTINUOUS
 62
     7
100
AcDbLine
 10
1530.931333088351
 20
870.1766909799625
 30
0.0
 11
1534.536996086791
 21
873.782353978407
 31
0.0
  0
LINE
  5
177
330
1F
100
AcDbEntity
  8
LAY-10
  6
CONTINUOUS
 62
     7
100
AcDbLine
 10
1534.536996086793
 20
873.7823539784057
 30
0.0
 11
1537.604961826549
 21
876.8503197181633
 31
0.0
  0
LINE
  5
178
330
1F
100
AcDbEntity
  8
LAY-10
  6
CONTINUOUS
 62
     7
100
AcDbLine
 10
1531.637085663747
 20
869.4682299929625
 30
0.0
 11
1535.244102867902
 21
873.0752471972803
 31
0.0
  0
LINE
  5
179
330
1F
100
AcDbEntity
  8
LAY-10
  6
CONTINUOUS
 62
     7
100
AcDbLine
 10
1535.244102867931
 20
873.0752471972844
 30
0.0
 11
1538.666976204148
 21
876.4981205333623
 31
0.0
  0
LINE
  5
17A
330
1F
100
AcDbEntity
  8
LAY-10
  6
CONTINUOUS
 62
     7
100
AcDbLine
 10
1532.480938971449
 20
868.897869738362
 30
0.0
 11
1535.951209649214
 21
872.3681404159722
 31
0.0
  0
LINE
  5
17B
330
1F
100
AcDbEntity
  8
LAY-10
  6
CONTINUOUS
 62
     7
100
AcDbLine
 10
1535.951209649143
 20
872.3681404160563
 30
0.0
 11
1539.59088984935
 21
876.0078206162632
 31
0.0
  0
LINE
  5
17C
330
1F
100
AcDbEntity
  8
LAY-10
  6
CONTINUOUS
 62
     7
100
AcDbLine
 10
1533.458098811246
 20
868.460816015762
 30
0.0
 11
1536.658316430342
 21
871.6610336348579
 31
0.0
  0
LINE
  5
17D
330
1F
100
AcDbEntity
  8
LAY-10
  6
CONTINUOUS
 62
     7
100
AcDbLine
 10
1536.65831643034
 20
871.6610336348579
 30
0.0
 11
1540.381496962552
 21
875.3842141670623
 31
0.0
  0
LINE
  5
17E
330
1F
100
AcDbEntity
  8
LAY-10
  6
CONTINUOUS
 62
     7
100
AcDbLine
 10
687.4407971712689
 20
882.2412488541643
 30
0.0
 11
708.4407971712708
 21
882.2412488541643
 31
0.0
  0
LINE
  5
17F
330
1F
100
AcDbEntity
  8
LAY-10
  6
CONTINUOUS
 62
     7
100
AcDbLine
 10
708.4407971712708
 20
882.2412488541643
 30
0.0
 11
708.4407971712708
 21
880.2412488541648
 31
0.0
  0
LINE
  5
180
330
1F
100
AcDbEntity
  8
LAY-10
  6
CONTINUOUS
 62
     7
100
AcDbLine
 10
687.4407971712689
 20
882.2412488541643
 30
0.0
 11
687.4407971712689
 21
880.2412488541648
 31
0.0
  0
LINE
  5
181
330
1F
100
AcDbEntity
  8
LAY-10
  6
CONTINUOUS
 62
     7
100
AcDbLine
 10
707.9407971712707
 20
882.2412488541643
 30
0.0
 11
707.9407971712707
 21
889.717248854163
 31
0.0
  0
LINE
  5
182
330
1F
100
AcDbEntity
  8
LAY-10
  6
CONTINUOUS
 62
     7
100
AcDbLine
 10
687.9407971712707
 20
882.2412488541643
 30
0.0
 11
687.9407971712707
 21
889.717248854163
 31
0.0
  0
ARC
  5
183
330
1F
100
AcDbEntity
  8
LAY-10
  6
CONTINUOUS
 62
     7
100
AcDbCircle
 10
705.4407971712671
 20
886.797214222129
 30
0.0
 40
3.844034632034633
100
AcDbArc
 50
49.43137502658949
 51
130.5686249733964
  0
ARC
  5
184
330
1F
100
AcDbEntity
  8
LAY-10
  6
CONTINUOUS
 62
     7
100
AcDbCircle
 10
697.9407971712707
 20
876.6511103260248
 30
0.0
 40
13.99013852813853
100
AcDbArc
 50
69.0597243938637
 51
110.9402756061452
  0
ARC
  5
185
330
1F
100
AcDbEntity
  8
LAY-10
  6
CONTINUOUS
 62
     7
100
AcDbCircle
 10
690.4407971712671
 20
886.797214222129
 30
0.0
 40
3.844034632034633
100
AcDbArc
 50
49.43137502658278
 51
130.5686249733802
  0
LINE
  5
186
330
1F
100
AcDbEntity
  8
LAY-10
  6
CONTINUOUS
 62
     7
100
AcDbLine
 10
705.4407971712671
 20
890.6412488541639
 30
0.0
 11
690.4407971712671
 21
890.6412488541639
 31
0.0
  0
LINE
  5
187
330
1F
100
AcDbEntity
  8
LAY-10
  6
CONTINUOUS
 62
     7
100
AcDbLine
 10
685.711556997273
 20
864.7333290237268
 30
0.0
 11
685.8194768277235
 21
864.8412488541778
 31
0.0
  0
LINE
  5
188
330
1F
100
AcDbEntity
  8
LAY-10
  6
CONTINUOUS
 62
     7
100
AcDbLine
 10
686.0697019903355
 20
864.3843672356045
 30
0.0
 11
686.5265836089046
 21
864.8412488541724
 31
0.0
  0
LINE
  5
189
330
1F
100
AcDbEntity
  8
LAY-10
  6
CONTINUOUS
 62
     7
100
AcDbLine
 10
686.427846983398
 20
864.0354054474822
 30
0.0
 11
687.2336903900967
 21
864.8412488541792
 31
0.0
  0
LINE
  5
18A
330
1F
100
AcDbEntity
  8
LAY-10
  6
CONTINUOUS
 62
     7
100
AcDbLine
 10
686.7859919764769
 20
863.6864436593709
 30
0.0
 11
687.9407971712671
 21
864.8412488541629
 31
0.0
  0
LINE
  5
18B
330
1F
100
AcDbEntity
  8
LAY-10
  6
CONTINUOUS
 62
     7
100
AcDbLine
 10
687.1441369695413
 20
863.3374818712489
 30
0.0
 11
687.9407971712599
 21
864.1341420729689
 31
0.0
  0
LINE
  5
18C
330
1F
100
AcDbEntity
  8
LAY-10
  6
CONTINUOUS
 62
     7
100
AcDbLine
 10
687.5022819626038
 20
862.9885200831262
 30
0.0
 11
687.9407971712798
 21
863.4270352918008
 31
0.0
  0
LINE
  5
18D
330
1F
100
AcDbEntity
  8
LAY-10
  6
CONTINUOUS
 62
     7
100
AcDbLine
 10
687.8604269556698
 20
862.6395582950039
 30
0.0
 11
687.9407971712599
 21
862.719928510596
 31
0.0
  0
LINE
  5
18E
330
1F
100
AcDbEntity
  8
LAY-10
  6
CONTINUOUS
 62
     7
100
AcDbLine
 10
710.0621175148217
 20
864.8412488541724
 30
0.0
 11
710.1424877304335
 21
864.7608786385583
 31
0.0
  0
LINE
  5
18F
330
1F
100
AcDbEntity
  8
LAY-10
  6
CONTINUOUS
 62
     7
100
AcDbLine
 10
709.3550107336259
 20
864.8412488541792
 30
0.0
 11
709.793525942313
 21
864.4027336454945
 31
0.0
  0
LINE
  5
190
330
1F
100
AcDbEntity
  8
LAY-10
  6
CONTINUOUS
 62
     7
100
AcDbLine
 10
708.6479039524446
 20
864.8412488541737
 30
0.0
 11
709.4445641542032
 21
864.0445886524192
 31
0.0
  0
LINE
  5
191
330
1F
100
AcDbEntity
  8
LAY-10
  6
CONTINUOUS
 62
     7
100
AcDbLine
 10
707.9407971712635
 20
864.8412488541683
 30
0.0
 11
709.0956023660792
 21
863.6864436593544
 31
0.0
  0
LINE
  5
192
330
1F
100
AcDbEntity
  8
LAY-10
  6
CONTINUOUS
 62
     7
100
AcDbLine
 10
707.9407971712707
 20
864.1341420729761
 30
0.0
 11
708.7466405779586
 21
863.32829866629
 31
0.0
  0
LINE
  5
193
330
1F
100
AcDbEntity
  8
LAY-10
  6
CONTINUOUS
 62
     7
100
AcDbLine
 10
707.9407971712781
 20
863.4270352917822
 30
0.0
 11
708.3976787898346
 21
862.9701536732257
 31
0.0
  0
LINE
  5
194
330
1F
100
AcDbEntity
  8
LAY-10
  6
CONTINUOUS
 62
     7
100
AcDbLine
 10
707.9407971712707
 20
862.7199285106014
 30
0.0
 11
708.048717001725
 21
862.6120086801491
 31
0.0
  0
LINE
  5
195
330
1F
100
AcDbEntity
  8
LAY-10
  6
CONTINUOUS
 62
     7
100
AcDbLine
 10
719.6244353065658
 20
873.7451576145643
 30
0.0
 11
716.9057593222669
 21
876.4638335988636
 31
0.0
  0
LINE
  5
196
330
1F
100
AcDbEntity
  8
LAY-10
  6
CONTINUOUS
 62
     7
100
AcDbLine
 10
719.8062519604673
 20
872.149127398264
 30
0.0
 11
714.956175715367
 21
876.999203643463
 31
0.0
  0
LINE
  5
197
330
1F
100
AcDbEntity
  8
LAY-10
  6
CONTINUOUS
 62
     7
100
AcDbLine
 10
719.4933810977662
 20
871.0477846986626
 30
0.0
 11
713.5012796250658
 21
877.0398861713632
 31
0.0
  0
LINE
  5
198
330
1F
100
AcDbEntity
  8
LAY-10
  6
CONTINUOUS
 62
     7
100
AcDbLine
 10
715.3014778704664
 20
868.1686201140631
 30
0.0
 11
708.8543480875696
 21
874.6157498969635
 31
0.0
  0
LINE
  5
199
330
1F
100
AcDbEntity
  8
LAY-10
  6
CONTINUOUS
 62
     7
100
AcDbLine
 10
713.9979340530672
 20
868.0579503691636
 30
0.0
 11
708.3901249520668
 21
873.665759470164
 31
0.0
  0
LINE
  5
19A
330
1F
100
AcDbEntity
  8
LAY-10
  6
CONTINUOUS
 62
     7
100
AcDbLine
 10
712.4065455221689
 20
868.235125337663
 30
0.0
 11
708.2137465299664
 21
872.4279243298636
 31
0.0
  0
LINE
  5
19B
330
1F
100
AcDbEntity
  8
LAY-10
  6
CONTINUOUS
 62
     7
100
AcDbLine
 10
718.9502612540664
 20
870.1766909799637
 30
0.0
 11
715.7181619742269
 21
873.408790259806
 31
0.0
  0
LINE
  5
19C
330
1F
100
AcDbEntity
  8
LAY-10
  6
CONTINUOUS
 62
     7
100
AcDbLine
 10
715.7181619742264
 20
873.408790259806
 30
0.0
 11
712.2766325158691
 21
876.8503197181633
 31
0.0
  0
LINE
  5
19D
330
1F
100
AcDbEntity
  8
LAY-10
  6
CONTINUOUS
 62
     7
100
AcDbLine
 10
718.2445086786693
 20
869.4682299929639
 30
0.0
 11
715.0110551931087
 21
872.7016834786675
 31
0.0
  0
LINE
  5
19E
330
1F
100
AcDbEntity
  8
LAY-10
  6
CONTINUOUS
 62
     7
100
AcDbLine
 10
715.0110551930939
 20
872.7016834786934
 30
0.0
 11
711.2146181382659
 21
876.4981205333636
 31
0.0
  0
LINE
  5
19F
330
1F
100
AcDbEntity
  8
LAY-10
  6
CONTINUOUS
 62
     7
100
AcDbLine
 10
717.4006553709686
 20
868.8978697383639
 30
0.0
 11
714.3039484118126
 21
871.9945766973822
 31
0.0
  0
LINE
  5
1A0
330
1F
100
AcDbEntity
  8
LAY-10
  6
CONTINUOUS
 62
     7
100
AcDbLine
 10
714.3039484118754
 20
871.9945766974549
 30
0.0
 11
710.290704493068
 21
876.0078206162632
 31
0.0
  0
LINE
  5
1A1
330
1F
100
AcDbEntity
  8
LAY-10
  6
CONTINUOUS
 62
     7
100
AcDbLine
 10
716.4234955311704
 20
868.4608160157634
 30
0.0
 11
713.596841630676
 21
871.2874699162542
 31
0.0
  0
LINE
  5
1A2
330
1F
100
AcDbEntity
  8
LAY-10
  6
CONTINUOUS
 62
     7
100
AcDbLine
 10
713.5968416306755
 20
871.2874699162552
 30
0.0
 11
709.500097379866
 21
875.3842141670641
 31
0.0
  0
LINE
  5
1A3
330
1F
100
AcDbEntity
  8
LAY-10
  6
CONTINUOUS
 62
     7
100
AcDbLine
 10
2073.997537416098
 20
2336.227035292324
 30
0.0
 11
2075.411750978489
 21
2337.641248854715
 31
0.0
  0
LINE
  5
1A4
330
1F
100
AcDbEntity
  8
LAY-10
  6
CONTINUOUS
 62
     7
100
AcDbLine
 10
2073.997537416112
 20
2334.81282172996
 30
0.0
 11
2075.997537416127
 21
2336.812821729976
 31
0.0
  0
LINE
  5
1A5
330
1F
100
AcDbEntity
  8
LAY-10
  6
CONTINUOUS
 62
     7
100
AcDbLine
 10
2073.997537416098
 20
2333.398608167579
 30
0.0
 11
2075.99753741612
 21
2335.398608167593
 31
0.0
  0
LINE
  5
1A6
330
1F
100
AcDbEntity
  8
LAY-10
  6
CONTINUOUS
 62
     7
100
AcDbLine
 10
2073.997537416112
 20
2331.984394605216
 30
0.0
 11
2075.997537416105
 21
2333.984394605211
 31
0.0
  0
LINE
  5
1A7
330
1F
100
AcDbEntity
  8
LAY-10
  6
CONTINUOUS
 62
     7
100
AcDbLine
 10
2073.997537416105
 20
2330.570181042834
 30
0.0
 11
2075.99753741612
 21
2332.57018104285
 31
0.0
  0
LINE
  5
1A8
330
1F
100
AcDbEntity
  8
LAY-10
  6
CONTINUOUS
 62
     7
100
AcDbLine
 10
2073.997537416112
 20
2329.155967480472
 30
0.0
 11
2075.997537416105
 21
2331.155967480466
 31
0.0
  0
LINE
  5
1A9
330
1F
100
AcDbEntity
  8
LAY-10
  6
CONTINUOUS
 62
     7
100
AcDbLine
 10
2073.997537416105
 20
2327.741753918087
 30
0.0
 11
2075.99753741612
 21
2329.741753918106
 31
0.0
  0
LINE
  5
1AA
330
1F
100
AcDbEntity
  8
LAY-10
  6
CONTINUOUS
 62
     7
100
AcDbLine
 10
2073.997537416112
 20
2326.327540355727
 30
0.0
 11
2075.997537416112
 21
2328.327540355723
 31
0.0
  0
LINE
  5
1AB
330
1F
100
AcDbEntity
  8
LAY-10
  6
CONTINUOUS
 62
     7
100
AcDbLine
 10
2073.997537416105
 20
2324.913326793344
 30
0.0
 11
2075.99753741612
 21
2326.913326793359
 31
0.0
  0
LINE
  5
1AC
330
1F
100
AcDbEntity
  8
LAY-10
  6
CONTINUOUS
 62
     7
100
AcDbLine
 10
2073.997537416098
 20
2323.49911323096
 30
0.0
 11
2075.997537416112
 21
2325.499113230978
 31
0.0
  0
LINE
  5
1AD
330
1F
100
AcDbEntity
  8
LAY-10
  6
CONTINUOUS
 62
     7
100
AcDbLine
 10
2073.997537416105
 20
2322.0848996686
 30
0.0
 11
2075.99753741612
 21
2324.084899668614
 31
0.0
  0
LINE
  5
1AE
330
1F
100
AcDbEntity
  8
LAY-10
  6
CONTINUOUS
 62
     7
100
AcDbLine
 10
2073.997537416098
 20
2320.670686106217
 30
0.0
 11
2075.997537416112
 21
2322.670686106232
 31
0.0
  0
LINE
  5
1AF
330
1F
100
AcDbEntity
  8
LAY-10
  6
CONTINUOUS
 62
     7
100
AcDbLine
 10
2073.997537416105
 20
2319.256472543855
 30
0.0
 11
2075.997537416127
 21
2321.256472543871
 31
0.0
  0
LINE
  5
1B0
330
1F
100
AcDbEntity
  8
LAY-10
  6
CONTINUOUS
 62
     7
100
AcDbLine
 10
2073.997537416098
 20
2317.842258981472
 30
0.0
 11
2075.997537416112
 21
2319.842258981489
 31
0.0
  0
LINE
  5
1B1
330
1F
100
AcDbEntity
  8
LAY-10
  6
CONTINUOUS
 62
     7
100
AcDbLine
 10
2073.997537416112
 20
2316.42804541911
 30
0.0
 11
2075.997537416105
 21
2318.428045419104
 31
0.0
  0
LINE
  5
1B2
330
1F
100
AcDbEntity
  8
LAY-10
  6
CONTINUOUS
 62
     7
100
AcDbLine
 10
2073.997537416098
 20
2315.013831856726
 30
0.0
 11
2075.997537416112
 21
2317.013831856742
 31
0.0
  0
LINE
  5
1B3
330
1F
100
AcDbEntity
  8
LAY-10
  6
CONTINUOUS
 62
     7
100
AcDbLine
 10
2073.997537416112
 20
2313.599618294365
 30
0.0
 11
2075.997537416105
 21
2315.599618294361
 31
0.0
  0
LINE
  5
1B4
330
1F
100
AcDbEntity
  8
LAY-10
  6
CONTINUOUS
 62
     7
100
AcDbLine
 10
2074.453381538826
 20
2312.64124885471
 30
0.0
 11
2075.99753741612
 21
2314.185404731999
 31
0.0
  0
LINE
  5
1B5
330
1F
100
AcDbEntity
  8
LAY-10
  6
CONTINUOUS
 62
     7
100
AcDbLine
 10
2075.86759510121
 20
2312.641248854717
 30
0.0
 11
2075.997537416105
 21
2312.771191169616
 31
0.0
  0
LINE
  5
1B6
330
1F
100
AcDbEntity
  8
LAY-10
  6
CONTINUOUS
 62
     7
100
AcDbLine
 10
2116.893628655705
 20
2272.957610719404
 30
0.0
 11
2114.17495267141
 21
2275.676286703703
 31
0.0
  0
LINE
  5
1B7
330
1F
100
AcDbEntity
  8
LAY-10
  6
CONTINUOUS
 62
     7
100
AcDbLine
 10
2118.489658872006
 20
2272.775794065501
 30
0.0
 11
2113.639582626804
 21
2277.625870310603
 31
0.0
  0
LINE
  5
1B8
330
1F
100
AcDbEntity
  8
LAY-10
  6
CONTINUOUS
 62
     7
100
AcDbLine
 10
2119.591001571604
 20
2273.088664928202
 30
0.0
 11
2113.598900098904
 21
2279.080766400904
 31
0.0
  0
LINE
  5
1B9
330
1F
100
AcDbEntity
  8
LAY-10
  6
CONTINUOUS
 62
     7
100
AcDbLine
 10
2122.470166156204
 20
2277.280568155501
 30
0.0
 11
2116.023036373304
 21
2283.727697938404
 31
0.0
  0
LINE
  5
1BA
330
1F
100
AcDbEntity
  8
LAY-10
  6
CONTINUOUS
 62
     7
100
AcDbLine
 10
2122.580835901104
 20
2278.584111972903
 30
0.0
 11
2116.973026800105
 21
2284.191921073903
 31
0.0
  0
LINE
  5
1BB
330
1F
100
AcDbEntity
  8
LAY-10
  6
CONTINUOUS
 62
     7
100
AcDbLine
 10
2122.403660932604
 20
2280.175500503804
 30
0.0
 11
2118.210861940408
 21
2284.368299496003
 31
0.0
  0
LINE
  5
1BC
330
1F
100
AcDbEntity
  8
LAY-10
  6
CONTINUOUS
 62
     7
100
AcDbLine
 10
2120.462095290304
 20
2273.631784771901
 30
0.0
 11
2117.381625888313
 21
2276.712254173893
 31
0.0
  0
LINE
  5
1BD
330
1F
100
AcDbEntity
  8
LAY-10
  6
CONTINUOUS
 62
     7
100
AcDbLine
 10
2117.381625888316
 20
2276.712254173896
 30
0.0
 11
2113.788466552111
 21
2280.305413510102
 31
0.0
  0
LINE
  5
1BE
330
1F
100
AcDbEntity
  8
LAY-10
  6
CONTINUOUS
 62
     7
100
AcDbLine
 10
2121.170556277304
 20
2274.337537347302
 30
0.0
 11
2118.088732669452
 21
2277.419360955016
 31
0.0
  0
LINE
  5
1BF
330
1F
100
AcDbEntity
  8
LAY-10
  6
CONTINUOUS
 62
     7
100
AcDbLine
 10
2118.088732669431
 20
2277.419360955024
 30
0.0
 11
2114.140665736906
 21
2281.367427887702
 31
0.0
  0
LINE
  5
1C0
330
1F
100
AcDbEntity
  8
LAY-10
  6
CONTINUOUS
 62
     7
100
AcDbLine
 10
2121.740916531909
 20
2275.181390655005
 30
0.0
 11
2118.795839450734
 21
2278.126467736299
 31
0.0
  0
LINE
  5
1C1
330
1F
100
AcDbEntity
  8
LAY-10
  6
CONTINUOUS
 62
     7
100
AcDbLine
 10
2118.795839450663
 20
2278.126467736242
 30
0.0
 11
2114.630965654008
 21
2282.291341532902
 31
0.0
  0
LINE
  5
1C2
330
1F
100
AcDbEntity
  8
LAY-10
  6
CONTINUOUS
 62
     7
100
AcDbLine
 10
2122.177970254508
 20
2276.158550494801
 30
0.0
 11
2119.502946231866
 21
2278.833574517445
 31
0.0
  0
LINE
  5
1C3
330
1F
100
AcDbEntity
  8
LAY-10
  6
CONTINUOUS
 62
     7
100
AcDbLine
 10
2119.502946231862
 20
2278.833574517441
 30
0.0
 11
2115.254572103205
 21
2283.081948646102
 31
0.0
  0
LINE
  5
1C4
330
1F
100
AcDbEntity
  8
LAY-10
  6
CONTINUOUS
 62
     7
100
AcDbLine
 10
2125.797537416108
 20
2282.519928511144
 30
0.0
 11
2125.877907631713
 21
2282.43955829554
 31
0.0
  0
LINE
  5
1C5
330
1F
100
AcDbEntity
  8
LAY-10
  6
CONTINUOUS
 62
     7
100
AcDbLine
 10
2125.797537416115
 20
2283.227035292324
 30
0.0
 11
2126.236052624777
 21
2282.78852008366
 31
0.0
  0
LINE
  5
1C6
330
1F
100
AcDbEntity
  8
LAY-10
  6
CONTINUOUS
 62
     7
100
AcDbLine
 10
2125.797537416115
 20
2283.934142073505
 30
0.0
 11
2126.594197617848
 21
2283.137481871774
 31
0.0
  0
LINE
  5
1C7
330
1F
100
AcDbEntity
  8
LAY-10
  6
CONTINUOUS
 62
     7
100
AcDbLine
 10
2125.797537416101
 20
2284.641248854712
 30
0.0
 11
2126.952342610913
 21
2283.486443659896
 31
0.0
  0
LINE
  5
1C8
330
1F
100
AcDbEntity
  8
LAY-10
  6
CONTINUOUS
 62
     7
100
AcDbLine
 10
2126.504644197293
 20
2284.641248854703
 30
0.0
 11
2127.310487603977
 21
2283.835405448018
 31
0.0
  0
LINE
  5
1C9
330
1F
100
AcDbEntity
  8
LAY-10
  6
CONTINUOUS
 62
     7
100
AcDbLine
 10
2127.211750978485
 20
2284.641248854697
 30
0.0
 11
2127.668632597056
 21
2284.18436723613
 31
0.0
  0
LINE
  5
1CA
330
1F
100
AcDbEntity
  8
LAY-10
  6
CONTINUOUS
 62
     7
100
AcDbLine
 10
2127.918857759656
 20
2284.641248854713
 30
0.0
 11
2128.026777590121
 21
2284.53332902425
 31
0.0
  0
LINE
  5
1CB
330
1F
100
AcDbEntity
  8
LAY-10
  6
CONTINUOUS
 62
     7
100
AcDbLine
 10
2127.918857759662
 20
2304.641248854699
 30
0.0
 11
2127.999227975267
 21
2304.721619070302
 31
0.0
  0
LINE
  5
1CC
330
1F
100
AcDbEntity
  8
LAY-10
  6
CONTINUOUS
 62
     7
100
AcDbLine
 10
2127.211750978478
 20
2304.641248854704
 30
0.0
 11
2127.65026618714
 21
2305.079764063364
 31
0.0
  0
LINE
  5
1CD
330
1F
100
AcDbEntity
  8
LAY-10
  6
CONTINUOUS
 62
     7
100
AcDbLine
 10
2126.5046441973
 20
2304.641248854708
 30
0.0
 11
2127.301304399034
 21
2305.437909056441
 31
0.0
  0
LINE
  5
1CE
330
1F
100
AcDbEntity
  8
LAY-10
  6
CONTINUOUS
 62
     7
100
AcDbLine
 10
2125.797537416094
 20
2304.64124885469
 30
0.0
 11
2126.952342610906
 21
2305.796054049506
 31
0.0
  0
LINE
  5
1CF
330
1F
100
AcDbEntity
  8
LAY-10
  6
CONTINUOUS
 62
     7
100
AcDbLine
 10
2125.797537416101
 20
2305.348355635882
 30
0.0
 11
2126.603380822784
 21
2306.15419904257
 31
0.0
  0
LINE
  5
1D0
330
1F
100
AcDbEntity
  8
LAY-10
  6
CONTINUOUS
 62
     7
100
AcDbLine
 10
2125.797537416115
 20
2306.055462417089
 30
0.0
 11
2126.254419034672
 21
2306.512344035645
 31
0.0
  0
LINE
  5
1D1
330
1F
100
AcDbEntity
  8
LAY-10
  6
CONTINUOUS
 62
     7
100
AcDbLine
 10
2125.797537416101
 20
2306.762569198259
 30
0.0
 11
2125.905457246551
 21
2306.870489028708
 31
0.0
  0
LINE
  5
1D2
330
1F
100
AcDbEntity
  8
LAY-10
  6
CONTINUOUS
 62
     7
100
AcDbLine
 10
2108.397537416107
 20
2305.141248854704
 30
0.0
 11
2108.397537416107
 21
2284.141248854704
 31
0.0
  0
LINE
  5
1D3
330
1F
100
AcDbEntity
  8
LAY-10
  6
CONTINUOUS
 62
     7
100
AcDbLine
 10
2108.397537416107
 20
2284.141248854704
 30
0.0
 11
2110.397537416107
 21
2284.141248854704
 31
0.0
  0
LINE
  5
1D4
330
1F
100
AcDbEntity
  8
LAY-10
  6
CONTINUOUS
 62
     7
100
AcDbLine
 10
2108.397537416107
 20
2305.141248854704
 30
0.0
 11
2110.397537416107
 21
2305.141248854704
 31
0.0
  0
LINE
  5
1D5
330
1F
100
AcDbEntity
  8
LAY-10
  6
CONTINUOUS
 62
     7
100
AcDbLine
 10
2108.397537416107
 20
2284.641248854703
 30
0.0
 11
2100.921537416104
 21
2284.641248854703
 31
0.0
  0
LINE
  5
1D6
330
1F
100
AcDbEntity
  8
LAY-10
  6
CONTINUOUS
 62
     7
100
AcDbLine
 10
2108.397537416107
 20
2304.641248854704
 30
0.0
 11
2100.921537416104
 21
2304.641248854704
 31
0.0
  0
ARC
  5
1D7
330
1F
100
AcDbEntity
  8
LAY-10
  6
CONTINUOUS
 62
     7
100
AcDbCircle
 10
2103.84157204814
 20
2287.141248854704
 30
0.0
 40
3.844034632034633
100
AcDbArc
 50
139.4313750266097
 51
220.5686249733809
  0
ARC
  5
1D8
330
1F
100
AcDbEntity
  8
LAY-10
  6
CONTINUOUS
 62
     7
100
AcDbCircle
 10
2113.987675944246
 20
2294.641248854704
 30
0.0
 40
13.99013852813853
100
AcDbArc
 50
159.0597243938578
 51
200.9402756061449
  0
ARC
  5
1D9
330
1F
100
AcDbEntity
  8
LAY-10
  6
CONTINUOUS
 62
     7
100
AcDbCircle
 10
2103.84157204814
 20
2302.141248854704
 30
0.0
 40
3.844034632034633
100
AcDbArc
 50
139.4313750266149
 51
220.5686249733904
  0
LINE
  5
1DA
330
1F
100
AcDbEntity
  8
LAY-10
  6
CONTINUOUS
 62
     7
100
AcDbLine
 10
2099.997537416105
 20
2287.141248854704
 30
0.0
 11
2099.997537416105
 21
2302.141248854704
 31
0.0
  0
LINE
  5
1DB
330
1F
100
AcDbEntity
  8
LAY-10
  6
CONTINUOUS
 62
     7
100
AcDbLine
 10
2124.37669929188
 20
2312.39198360573
 30
0.0
 11
2124.433118165329
 21
2312.448402479183
 31
0.0
  0
LINE
  5
1DC
330
1F
100
AcDbEntity
  8
LAY-10
  6
CONTINUOUS
 62
     7
100
AcDbLine
 10
2123.90640410999
 20
2312.628795205026
 30
0.0
 11
2124.103723564867
 21
2312.826114659905
 31
0.0
  0
LINE
  5
1DD
330
1F
100
AcDbEntity
  8
LAY-10
  6
CONTINUOUS
 62
     7
100
AcDbLine
 10
2123.358783806475
 20
2312.788281682702
 30
0.0
 11
2123.774328964381
 21
2313.203826840603
 31
0.0
  0
LINE
  5
1DE
330
1F
100
AcDbEntity
  8
LAY-10
  6
CONTINUOUS
 62
     7
100
AcDbLine
 10
2122.704644197305
 20
2312.841248854712
 30
0.0
 11
2123.444934363897
 21
2313.581539021301
 31
0.0
  0
LINE
  5
1DF
330
1F
100
AcDbEntity
  8
LAY-10
  6
CONTINUOUS
 62
     7
100
AcDbLine
 10
2121.997537416113
 20
2312.841248854705
 30
0.0
 11
2123.115539763405
 21
2313.959251201999
 31
0.0
  0
LINE
  5
1E0
330
1F
100
AcDbEntity
  8
LAY-10
  6
CONTINUOUS
 62
     7
100
AcDbLine
 10
2121.99753741612
 20
2313.548355635901
 30
0.0
 11
2122.786145162933
 21
2314.336963382711
 31
0.0
  0
LINE
  5
1E1
330
1F
100
AcDbEntity
  8
LAY-10
  6
CONTINUOUS
 62
     7
100
AcDbLine
 10
2121.997537416127
 20
2314.255462417093
 30
0.0
 11
2122.456750562441
 21
2314.714675563409
 31
0.0
  0
LINE
  5
1E2
330
1F
100
AcDbEntity
  8
LAY-10
  6
CONTINUOUS
 62
     7
100
AcDbLine
 10
2121.997537416106
 20
2314.962569198263
 30
0.0
 11
2122.127355961956
 21
2315.092387744107
 31
0.0
  0
LINE
  5
1E3
330
1F
100
AcDbEntity
  8
LAY-10
  6
CONTINUOUS
 62
     7
100
AcDbLine
 10
2088.768297242107
 20
2312.949168685139
 30
0.0
 11
2088.876217072543
 21
2312.841248854711
 31
0.0
  0
LINE
  5
1E4
330
1F
100
AcDbEntity
  8
LAY-10
  6
CONTINUOUS
 62
     7
100
AcDbLine
 10
2089.126442235179
 20
2313.298130473262
 30
0.0
 11
2089.583323853735
 21
2312.841248854705
 31
0.0
  0
LINE
  5
1E5
330
1F
100
AcDbEntity
  8
LAY-10
  6
CONTINUOUS
 62
     7
100
AcDbLine
 10
2089.484587228237
 20
2313.647092261386
 30
0.0
 11
2090.290430634913
 21
2312.841248854711
 31
0.0
  0
LINE
  5
1E6
330
1F
100
AcDbEntity
  8
LAY-10
  6
CONTINUOUS
 62
     7
100
AcDbLine
 10
2089.842732221301
 20
2313.996054049506
 30
0.0
 11
2090.997537416105
 21
2312.841248854703
 31
0.0
  0
LINE
  5
1E7
330
1F
100
AcDbEntity
  8
LAY-10
  6
CONTINUOUS
 62
     7
100
AcDbLine
 10
2090.200877214379
 20
2314.345015837618
 30
0.0
 11
2090.997537416099
 21
2313.548355635895
 31
0.0
  0
LINE
  5
1E8
330
1F
100
AcDbEntity
  8
LAY-10
  6
CONTINUOUS
 62
     7
100
AcDbLine
 10
2090.559022207443
 20
2314.69397762574
 30
0.0
 11
2090.997537416105
 21
2314.255462417077
 31
0.0
  0
LINE
  5
1E9
330
1F
100
AcDbEntity
  8
LAY-10
  6
CONTINUOUS
 62
     7
100
AcDbLine
 10
2090.917167200509
 20
2315.042939413862
 30
0.0
 11
2090.997537416099
 21
2314.962569198272
 31
0.0
  0
LINE
  5
1EA
330
1F
100
AcDbEntity
  8
LAY-10
  6
CONTINUOUS
 62
     7
100
AcDbLine
 10
2088.768297242107
 20
1422.33332902427
 30
0.0
 11
2088.876217072543
 21
1422.441248854702
 31
0.0
  0
LINE
  5
1EB
330
1F
100
AcDbEntity
  8
LAY-10
  6
CONTINUOUS
 62
     7
100
AcDbLine
 10
2089.126442235179
 20
1421.98436723615
 30
0.0
 11
2089.583323853735
 21
1422.441248854706
 31
0.0
  0
LINE
  5
1EC
330
1F
100
AcDbEntity
  8
LAY-10
  6
CONTINUOUS
 62
     7
100
AcDbLine
 10
2089.484587228237
 20
1421.635405448028
 30
0.0
 11
2090.290430634913
 21
1422.441248854702
 31
0.0
  0
LINE
  5
1ED
330
1F
100
AcDbEntity
  8
LAY-10
  6
CONTINUOUS
 62
     7
100
AcDbLine
 10
2089.842732221301
 20
1421.286443659905
 30
0.0
 11
2090.997537416105
 21
1422.441248854707
 31
0.0
  0
LINE
  5
1EE
330
1F
100
AcDbEntity
  8
LAY-10
  6
CONTINUOUS
 62
     7
100
AcDbLine
 10
2090.200877214379
 20
1420.937481871794
 30
0.0
 11
2090.997537416099
 21
1421.734142073515
 31
0.0
  0
LINE
  5
1EF
330
1F
100
AcDbEntity
  8
LAY-10
  6
CONTINUOUS
 62
     7
100
AcDbLine
 10
2090.559022207443
 20
1420.588520083672
 30
0.0
 11
2090.997537416105
 21
1421.027035292333
 31
0.0
  0
LINE
  5
1F0
330
1F
100
AcDbEntity
  8
LAY-10
  6
CONTINUOUS
 62
     7
100
AcDbLine
 10
2090.917167200509
 20
1420.23955829555
 30
0.0
 11
2090.997537416099
 21
1420.31992851114
 31
0.0
  0
LINE
  5
1F1
330
1F
100
AcDbEntity
  8
LAY-10
  6
CONTINUOUS
 62
     7
100
AcDbLine
 10
2124.37669929188
 20
1422.890514103683
 30
0.0
 11
2124.433118165329
 21
1422.834095230228
 31
0.0
  0
LINE
  5
1F2
330
1F
100
AcDbEntity
  8
LAY-10
  6
CONTINUOUS
 62
     7
100
AcDbLine
 10
2123.90640410999
 20
1422.653702504386
 30
0.0
 11
2124.103723564867
 21
1422.456383049507
 31
0.0
  0
LINE
  5
1F3
330
1F
100
AcDbEntity
  8
LAY-10
  6
CONTINUOUS
 62
     7
100
AcDbLine
 10
2123.358783806475
 20
1422.49421602671
 30
0.0
 11
2123.774328964381
 21
1422.078670868809
 31
0.0
  0
LINE
  5
1F4
330
1F
100
AcDbEntity
  8
LAY-10
  6
CONTINUOUS
 62
     7
100
AcDbLine
 10
2122.704644197305
 20
1422.441248854697
 30
0.0
 11
2123.444934363897
 21
1421.700958688111
 31
0.0
  0
LINE
  5
1F5
330
1F
100
AcDbEntity
  8
LAY-10
  6
CONTINUOUS
 62
     7
100
AcDbLine
 10
2121.997537416113
 20
1422.441248854706
 30
0.0
 11
2123.115539763405
 21
1421.323246507413
 31
0.0
  0
LINE
  5
1F6
330
1F
100
AcDbEntity
  8
LAY-10
  6
CONTINUOUS
 62
     7
100
AcDbLine
 10
2121.99753741612
 20
1421.734142073512
 30
0.0
 11
2122.786145162933
 21
1420.945534326701
 31
0.0
  0
LINE
  5
1F7
330
1F
100
AcDbEntity
  8
LAY-10
  6
CONTINUOUS
 62
     7
100
AcDbLine
 10
2121.997537416127
 20
1421.027035292319
 30
0.0
 11
2122.456750562441
 21
1420.567822146004
 31
0.0
  0
LINE
  5
1F8
330
1F
100
AcDbEntity
  8
LAY-10
  6
CONTINUOUS
 62
     7
100
AcDbLine
 10
2121.997537416106
 20
1420.319928511149
 30
0.0
 11
2122.127355961956
 21
1420.190109965306
 31
0.0
  0
LINE
  5
1F9
330
1F
100
AcDbEntity
  8
LAY-10
  6
CONTINUOUS
 62
     7
100
AcDbLine
 10
2108.397537416107
 20
1450.641248854708
 30
0.0
 11
2100.921537416104
 21
1450.641248854708
 31
0.0
  0
LINE
  5
1FA
330
1F
100
AcDbEntity
  8
LAY-10
  6
CONTINUOUS
 62
     7
100
AcDbLine
 10
2108.397537416107
 20
1430.641248854708
 30
0.0
 11
2100.921537416104
 21
1430.641248854708
 31
0.0
  0
ARC
  5
1FB
330
1F
100
AcDbEntity
  8
LAY-10
  6
CONTINUOUS
 62
     7
100
AcDbCircle
 10
2103.84157204814
 20
1448.141248854707
 30
0.0
 40
3.844034632034633
100
AcDbArc
 50
139.4313750266193
 51
220.5686249733904
  0
ARC
  5
1FC
330
1F
100
AcDbEntity
  8
LAY-10
  6
CONTINUOUS
 62
     7
100
AcDbCircle
 10
2113.987675944246
 20
1440.641248854708
 30
0.0
 40
13.99013852813853
100
AcDbArc
 50
159.0597243938562
 51
200.9402756061424
  0
ARC
  5
1FD
330
1F
100
AcDbEntity
  8
LAY-10
  6
CONTINUOUS
 62
     7
100
AcDbCircle
 10
2103.84157204814
 20
1433.141248854707
 30
0.0
 40
3.844034632034633
100
AcDbArc
 50
139.4313750266097
 51
220.5686249733904
  0
LINE
  5
1FE
330
1F
100
AcDbEntity
  8
LAY-10
  6
CONTINUOUS
 62
     7
100
AcDbLine
 10
2099.997537416105
 20
1448.141248854707
 30
0.0
 11
2099.997537416105
 21
1433.141248854707
 31
0.0
  0
LINE
  5
1FF
330
1F
100
AcDbEntity
  8
LAY-10
  6
CONTINUOUS
 62
     7
100
AcDbLine
 10
2108.397537416107
 20
1430.141248854707
 30
0.0
 11
2108.397537416107
 21
1451.141248854707
 31
0.0
  0
LINE
  5
200
330
1F
100
AcDbEntity
  8
LAY-10
  6
CONTINUOUS
 62
     7
100
AcDbLine
 10
2108.397537416107
 20
1451.141248854707
 30
0.0
 11
2110.397537416107
 21
1451.141248854707
 31
0.0
  0
LINE
  5
201
330
1F
100
AcDbEntity
  8
LAY-10
  6
CONTINUOUS
 62
     7
100
AcDbLine
 10
2108.397537416107
 20
1430.141248854707
 30
0.0
 11
2110.397537416107
 21
1430.141248854707
 31
0.0
  0
LINE
  5
202
330
1F
100
AcDbEntity
  8
LAY-10
  6
CONTINUOUS
 62
     7
100
AcDbLine
 10
2127.918857759662
 20
1430.641248854713
 30
0.0
 11
2127.999227975267
 21
1430.560878639112
 31
0.0
  0
LINE
  5
203
330
1F
100
AcDbEntity
  8
LAY-10
  6
CONTINUOUS
 62
     7
100
AcDbLine
 10
2127.211750978478
 20
1430.641248854708
 30
0.0
 11
2127.65026618714
 21
1430.202733646046
 31
0.0
  0
LINE
  5
204
330
1F
100
AcDbEntity
  8
LAY-10
  6
CONTINUOUS
 62
     7
100
AcDbLine
 10
2126.5046441973
 20
1430.641248854703
 30
0.0
 11
2127.301304399034
 21
1429.844588652968
 31
0.0
  0
LINE
  5
205
330
1F
100
AcDbEntity
  8
LAY-10
  6
CONTINUOUS
 62
     7
100
AcDbLine
 10
2125.797537416094
 20
1430.641248854722
 30
0.0
 11
2126.952342610906
 21
1429.486443659907
 31
0.0
  0
LINE
  5
206
330
1F
100
AcDbEntity
  8
LAY-10
  6
CONTINUOUS
 62
     7
100
AcDbLine
 10
2125.797537416101
 20
1429.93414207353
 30
0.0
 11
2126.603380822784
 21
1429.128298666842
 31
0.0
  0
LINE
  5
207
330
1F
100
AcDbEntity
  8
LAY-10
  6
CONTINUOUS
 62
     7
100
AcDbLine
 10
2125.797537416115
 20
1429.227035292324
 30
0.0
 11
2126.254419034672
 21
1428.770153673768
 31
0.0
  0
LINE
  5
208
330
1F
100
AcDbEntity
  8
LAY-10
  6
CONTINUOUS
 62
     7
100
AcDbLine
 10
2125.797537416101
 20
1428.519928511153
 30
0.0
 11
2125.905457246551
 21
1428.412008680702
 31
0.0
  0
LINE
  5
209
330
1F
100
AcDbEntity
  8
LAY-10
  6
CONTINUOUS
 62
     7
100
AcDbLine
 10
2125.797537416108
 20
1452.762569198268
 30
0.0
 11
2125.877907631713
 21
1452.842939413871
 31
0.0
  0
LINE
  5
20A
330
1F
100
AcDbEntity
  8
LAY-10
  6
CONTINUOUS
 62
     7
100
AcDbLine
 10
2125.797537416115
 20
1452.055462417086
 30
0.0
 11
2126.236052624777
 21
1452.49397762575
 31
0.0
  0
LINE
  5
20B
330
1F
100
AcDbEntity
  8
LAY-10
  6
CONTINUOUS
 62
     7
100
AcDbLine
 10
2125.797537416115
 20
1451.348355635905
 30
0.0
 11
2126.594197617848
 21
1452.145015837638
 31
0.0
  0
LINE
  5
20C
330
1F
100
AcDbEntity
  8
LAY-10
  6
CONTINUOUS
 62
     7
100
AcDbLine
 10
2125.797537416101
 20
1450.6412488547
 30
0.0
 11
2126.952342610913
 21
1451.796054049516
 31
0.0
  0
LINE
  5
20D
330
1F
100
AcDbEntity
  8
LAY-10
  6
CONTINUOUS
 62
     7
100
AcDbLine
 10
2126.504644197293
 20
1450.641248854708
 30
0.0
 11
2127.310487603977
 21
1451.447092261395
 31
0.0
  0
LINE
  5
20E
330
1F
100
AcDbEntity
  8
LAY-10
  6
CONTINUOUS
 62
     7
100
AcDbLine
 10
2127.211750978485
 20
1450.641248854715
 30
0.0
 11
2127.668632597056
 21
1451.098130473282
 31
0.0
  0
LINE
  5
20F
330
1F
100
AcDbEntity
  8
LAY-10
  6
CONTINUOUS
 62
     7
100
AcDbLine
 10
2127.918857759656
 20
1450.641248854696
 30
0.0
 11
2128.026777590121
 21
1450.749168685161
 31
0.0
  0
LINE
  5
210
330
1F
100
AcDbEntity
  8
LAY-10
  6
CONTINUOUS
 62
     7
100
AcDbLine
 10
2116.893628655705
 20
1462.324886990008
 30
0.0
 11
2114.17495267141
 21
1459.606211005707
 31
0.0
  0
LINE
  5
211
330
1F
100
AcDbEntity
  8
LAY-10
  6
CONTINUOUS
 62
     7
100
AcDbLine
 10
2118.489658872006
 20
1462.50670364391
 30
0.0
 11
2113.639582626804
 21
1457.656627398809
 31
0.0
  0
LINE
  5
212
330
1F
100
AcDbEntity
  8
LAY-10
  6
CONTINUOUS
 62
     7
100
AcDbLine
 10
2119.591001571604
 20
1462.193832781208
 30
0.0
 11
2113.598900098904
 21
1456.201731308508
 31
0.0
  0
LINE
  5
213
330
1F
100
AcDbEntity
  8
LAY-10
  6
CONTINUOUS
 62
     7
100
AcDbLine
 10
2122.470166156204
 20
1458.001929553909
 30
0.0
 11
2116.023036373304
 21
1451.554799771009
 31
0.0
  0
LINE
  5
214
330
1F
100
AcDbEntity
  8
LAY-10
  6
CONTINUOUS
 62
     7
100
AcDbLine
 10
2122.580835901104
 20
1456.698385736508
 30
0.0
 11
2116.973026800105
 21
1451.090576635508
 31
0.0
  0
LINE
  5
215
330
1F
100
AcDbEntity
  8
LAY-10
  6
CONTINUOUS
 62
     7
100
AcDbLine
 10
2122.403660932604
 20
1455.106997205608
 30
0.0
 11
2118.210861940408
 21
1450.914198213409
 31
0.0
  0
LINE
  5
216
330
1F
100
AcDbEntity
  8
LAY-10
  6
CONTINUOUS
 62
     7
100
AcDbLine
 10
2120.462095290304
 20
1461.650712937508
 30
0.0
 11
2116.415366208998
 21
1457.603983856202
 31
0.0
  0
LINE
  5
217
330
1F
100
AcDbEntity
  8
LAY-10
  6
CONTINUOUS
 62
     7
100
AcDbLine
 10
2116.415366209001
 20
1457.603983856199
 30
0.0
 11
2113.788466552111
 21
1454.977084199309
 31
0.0
  0
LINE
  5
218
330
1F
100
AcDbEntity
  8
LAY-10
  6
CONTINUOUS
 62
     7
100
AcDbLine
 10
2121.170556277304
 20
1460.94496036211
 30
0.0
 11
2117.122472990118
 21
1456.896877075101
 31
0.0
  0
LINE
  5
219
330
1F
100
AcDbEntity
  8
LAY-10
  6
CONTINUOUS
 62
     7
100
AcDbLine
 10
2117.122472990133
 20
1456.89687707505
 30
0.0
 11
2114.140665736906
 21
1453.915069821709
 31
0.0
  0
LINE
  5
21A
330
1F
100
AcDbEntity
  8
LAY-10
  6
CONTINUOUS
 62
     7
100
AcDbLine
 10
2121.740916531909
 20
1460.101107054408
 30
0.0
 11
2117.829579771437
 21
1456.189770293774
 31
0.0
  0
LINE
  5
21B
330
1F
100
AcDbEntity
  8
LAY-10
  6
CONTINUOUS
 62
     7
100
AcDbLine
 10
2117.829579771347
 20
1456.189770293853
 30
0.0
 11
2114.630965654008
 21
1452.991156176508
 31
0.0
  0
LINE
  5
21C
330
1F
100
AcDbEntity
  8
LAY-10
  6
CONTINUOUS
 62
     7
100
AcDbLine
 10
2122.177970254508
 20
1459.12394721461
 30
0.0
 11
2118.536686552549
 21
1455.482663512651
 31
0.0
  0
LINE
  5
21D
330
1F
100
AcDbEntity
  8
LAY-10
  6
CONTINUOUS
 62
     7
100
AcDbLine
 10
2118.536686552547
 20
1455.482663512653
 30
0.0
 11
2115.254572103205
 21
1452.200549063308
 31
0.0
  0
LINE
  5
21E
330
1F
100
AcDbEntity
  8
LAY-10
  6
CONTINUOUS
 62
     7
100
AcDbLine
 10
2073.997537416098
 20
1399.055462417087
 30
0.0
 11
2075.411750978489
 21
1397.641248854698
 31
0.0
  0
LINE
  5
21F
330
1F
100
AcDbEntity
  8
LAY-10
  6
CONTINUOUS
 62
     7
100
AcDbLine
 10
2073.997537416112
 20
1400.469675979452
 30
0.0
 11
2075.997537416127
 21
1398.469675979435
 31
0.0
  0
LINE
  5
220
330
1F
100
AcDbEntity
  8
LAY-10
  6
CONTINUOUS
 62
     7
100
AcDbLine
 10
2073.997537416098
 20
1401.883889541833
 30
0.0
 11
2075.99753741612
 21
1399.883889541816
 31
0.0
  0
LINE
  5
221
330
1F
100
AcDbEntity
  8
LAY-10
  6
CONTINUOUS
 62
     7
100
AcDbLine
 10
2073.997537416112
 20
1403.298103104194
 30
0.0
 11
2075.997537416105
 21
1401.2981031042
 31
0.0
  0
LINE
  5
222
330
1F
100
AcDbEntity
  8
LAY-10
  6
CONTINUOUS
 62
     7
100
AcDbLine
 10
2073.997537416105
 20
1404.712316666577
 30
0.0
 11
2075.99753741612
 21
1402.712316666561
 31
0.0
  0
LINE
  5
223
330
1F
100
AcDbEntity
  8
LAY-10
  6
CONTINUOUS
 62
     7
100
AcDbLine
 10
2073.997537416112
 20
1406.12653022894
 30
0.0
 11
2075.997537416105
 21
1404.126530228944
 31
0.0
  0
LINE
  5
224
330
1F
100
AcDbEntity
  8
LAY-10
  6
CONTINUOUS
 62
     7
100
AcDbLine
 10
2073.997537416105
 20
1407.540743791323
 30
0.0
 11
2075.99753741612
 21
1405.540743791307
 31
0.0
  0
LINE
  5
225
330
1F
100
AcDbEntity
  8
LAY-10
  6
CONTINUOUS
 62
     7
100
AcDbLine
 10
2073.997537416112
 20
1408.954957353685
 30
0.0
 11
2075.997537416112
 21
1406.95495735369
 31
0.0
  0
LINE
  5
226
330
1F
100
AcDbEntity
  8
LAY-10
  6
CONTINUOUS
 62
     7
100
AcDbLine
 10
2073.997537416105
 20
1410.369170916067
 30
0.0
 11
2075.99753741612
 21
1408.369170916053
 31
0.0
  0
LINE
  5
227
330
1F
100
AcDbEntity
  8
LAY-10
  6
CONTINUOUS
 62
     7
100
AcDbLine
 10
2073.997537416098
 20
1411.78338447845
 30
0.0
 11
2075.997537416112
 21
1409.783384478433
 31
0.0
  0
LINE
  5
228
330
1F
100
AcDbEntity
  8
LAY-10
  6
CONTINUOUS
 62
     7
100
AcDbLine
 10
2073.997537416105
 20
1413.197598040813
 30
0.0
 11
2075.99753741612
 21
1411.197598040796
 31
0.0
  0
LINE
  5
229
330
1F
100
AcDbEntity
  8
LAY-10
  6
CONTINUOUS
 62
     7
100
AcDbLine
 10
2073.997537416098
 20
1414.611811603193
 30
0.0
 11
2075.997537416112
 21
1412.611811603179
 31
0.0
  0
LINE
  5
22A
330
1F
100
AcDbEntity
  8
LAY-10
  6
CONTINUOUS
 62
     7
100
AcDbLine
 10
2073.997537416105
 20
1416.026025165558
 30
0.0
 11
2075.997537416127
 21
1414.02602516554
 31
0.0
  0
LINE
  5
22B
330
1F
100
AcDbEntity
  8
LAY-10
  6
CONTINUOUS
 62
     7
100
AcDbLine
 10
2073.997537416098
 20
1417.440238727941
 30
0.0
 11
2075.997537416112
 21
1415.440238727923
 31
0.0
  0
LINE
  5
22C
330
1F
100
AcDbEntity
  8
LAY-10
  6
CONTINUOUS
 62
     7
100
AcDbLine
 10
2073.997537416112
 20
1418.854452290302
 30
0.0
 11
2075.997537416105
 21
1416.854452290306
 31
0.0
  0
LINE
  5
22D
330
1F
100
AcDbEntity
  8
LAY-10
  6
CONTINUOUS
 62
     7
100
AcDbLine
 10
2073.997537416098
 20
1420.268665852685
 30
0.0
 11
2075.997537416112
 21
1418.26866585267
 31
0.0
  0
LINE
  5
22E
330
1F
100
AcDbEntity
  8
LAY-10
  6
CONTINUOUS
 62
     7
100
AcDbLine
 10
2073.997537416112
 20
1421.682879415046
 30
0.0
 11
2075.997537416105
 21
1419.68287941505
 31
0.0
  0
LINE
  5
22F
330
1F
100
AcDbEntity
  8
LAY-10
  6
CONTINUOUS
 62
     7
100
AcDbLine
 10
2074.453381538826
 20
1422.641248854702
 30
0.0
 11
2075.99753741612
 21
1421.097092977413
 31
0.0
  0
LINE
  5
230
330
1F
100
AcDbEntity
  8
LAY-10
  6
CONTINUOUS
 62
     7
100
AcDbLine
 10
2075.86759510121
 20
1422.641248854693
 30
0.0
 11
2075.997537416105
 21
1422.511306539795
 31
0.0
  0
LINE
  5
231
330
1F
100
AcDbEntity
  8
LAY-10
  6
CONTINUOUS
 62
     7
100
AcDbLine
 10
734.5407971712184
 20
828.3411216534987
 30
0.0
 11
734.6409243719104
 21
828.4412488541905
 31
0.0
  0
LINE
  5
232
330
1F
100
AcDbEntity
  8
LAY-10
  6
CONTINUOUS
 62
     7
100
AcDbLine
 10
734.5407971712184
 20
814.1989860297676
 30
0.0
 11
748.7830599956415
 21
828.4412488541905
 31
0.0
  0
LINE
  5
233
330
1F
100
AcDbEntity
  8
LAY-10
  6
CONTINUOUS
 62
     7
100
AcDbLine
 10
734.5407971712184
 20
800.0568504060368
 30
0.0
 11
762.9251956193721
 21
828.4412488541905
 31
0.0
  0
LINE
  5
234
330
1F
100
AcDbEntity
  8
LAY-10
  6
CONTINUOUS
 62
     7
100
AcDbLine
 10
734.5407971712184
 20
785.914714782306
 30
0.0
 11
777.0673312431031
 21
828.4412488541907
 31
0.0
  0
LINE
  5
235
330
1F
100
AcDbEntity
  8
LAY-10
  6
CONTINUOUS
 62
     7
100
AcDbLine
 10
744.4094668668354
 20
781.6412488541921
 30
0.0
 11
791.2094668668342
 21
828.4412488541905
 31
0.0
  0
LINE
  5
236
330
1F
100
AcDbEntity
  8
LAY-10
  6
CONTINUOUS
 62
     7
100
AcDbLine
 10
758.5516024905664
 20
781.641248854192
 30
0.0
 11
805.3516024905653
 21
828.4412488541905
 31
0.0
  0
LINE
  5
237
330
1F
100
AcDbEntity
  8
LAY-10
  6
CONTINUOUS
 62
     7
100
AcDbLine
 10
772.6937381142972
 20
781.641248854192
 30
0.0
 11
819.4937381142959
 21
828.4412488541905
 31
0.0
  0
LINE
  5
238
330
1F
100
AcDbEntity
  8
LAY-10
  6
CONTINUOUS
 62
     7
100
AcDbLine
 10
786.8358737380282
 20
781.6412488541921
 30
0.0
 11
833.6358737380269
 21
828.4412488541905
 31
0.0
  0
LINE
  5
239
330
1F
100
AcDbEntity
  8
LAY-10
  6
CONTINUOUS
 62
     7
100
AcDbLine
 10
800.9780093617593
 20
781.6412488541921
 30
0.0
 11
847.778009361758
 21
828.4412488541905
 31
0.0
  0
LINE
  5
23A
330
1F
100
AcDbEntity
  8
LAY-10
  6
CONTINUOUS
 62
     7
100
AcDbLine
 10
815.1201449854904
 20
781.641248854192
 30
0.0
 11
861.9201449854891
 21
828.4412488541905
 31
0.0
  0
LINE
  5
23B
330
1F
100
AcDbEntity
  8
LAY-10
  6
CONTINUOUS
 62
     7
100
AcDbLine
 10
829.2622806092211
 20
781.641248854192
 30
0.0
 11
876.0622806092198
 21
828.4412488541905
 31
0.0
  0
LINE
  5
23C
330
1F
100
AcDbEntity
  8
LAY-10
  6
CONTINUOUS
 62
     7
100
AcDbLine
 10
843.4044162329521
 20
781.6412488541921
 30
0.0
 11
890.2044162329508
 21
828.4412488541905
 31
0.0
  0
LINE
  5
23D
330
1F
100
AcDbEntity
  8
LAY-10
  6
CONTINUOUS
 62
     7
100
AcDbLine
 10
857.546551856683
 20
781.6412488541921
 30
0.0
 11
904.3465518566819
 21
828.4412488541905
 31
0.0
  0
LINE
  5
23E
330
1F
100
AcDbEntity
  8
LAY-10
  6
CONTINUOUS
 62
     7
100
AcDbLine
 10
871.688687480414
 20
781.641248854192
 30
0.0
 11
918.488687480413
 21
828.4412488541905
 31
0.0
  0
LINE
  5
23F
330
1F
100
AcDbEntity
  8
LAY-10
  6
CONTINUOUS
 62
     7
100
AcDbLine
 10
885.8308231041449
 20
781.641248854192
 30
0.0
 11
932.6308231041435
 21
828.4412488541905
 31
0.0
  0
LINE
  5
240
330
1F
100
AcDbEntity
  8
LAY-10
  6
CONTINUOUS
 62
     7
100
AcDbLine
 10
899.972958727876
 20
781.641248854192
 30
0.0
 11
946.7729587278745
 21
828.4412488541903
 31
0.0
  0
LINE
  5
241
330
1F
100
AcDbEntity
  8
LAY-10
  6
CONTINUOUS
 62
     7
100
AcDbLine
 10
914.1150943516068
 20
781.641248854192
 30
0.0
 11
960.9150943516056
 21
828.4412488541905
 31
0.0
  0
LINE
  5
242
330
1F
100
AcDbEntity
  8
LAY-10
  6
CONTINUOUS
 62
     7
100
AcDbLine
 10
928.2572299753379
 20
781.641248854192
 30
0.0
 11
975.0572299753367
 21
828.4412488541905
 31
0.0
  0
LINE
  5
243
330
1F
100
AcDbEntity
  8
LAY-10
  6
CONTINUOUS
 62
     7
100
AcDbLine
 10
942.3993655990688
 20
781.641248854192
 30
0.0
 11
989.1993655990673
 21
828.4412488541905
 31
0.0
  0
LINE
  5
244
330
1F
100
AcDbEntity
  8
LAY-10
  6
CONTINUOUS
 62
     7
100
AcDbLine
 10
956.5415012227999
 20
781.641248854192
 30
0.0
 11
1003.341501222798
 21
828.4412488541903
 31
0.0
  0
LINE
  5
245
330
1F
100
AcDbEntity
  8
LAY-10
  6
CONTINUOUS
 62
     7
100
AcDbLine
 10
970.6836368465306
 20
781.641248854192
 30
0.0
 11
1017.483636846529
 21
828.4412488541905
 31
0.0
  0
LINE
  5
246
330
1F
100
AcDbEntity
  8
LAY-10
  6
CONTINUOUS
 62
     7
100
AcDbLine
 10
984.8257724702617
 20
781.641248854192
 30
0.0
 11
1031.62577247026
 21
828.4412488541905
 31
0.0
  0
LINE
  5
247
330
1F
100
AcDbEntity
  8
LAY-10
  6
CONTINUOUS
 62
     7
100
AcDbLine
 10
998.9679080939925
 20
781.641248854192
 30
0.0
 11
1045.767908093991
 21
828.4412488541905
 31
0.0
  0
LINE
  5
248
330
1F
100
AcDbEntity
  8
LAY-10
  6
CONTINUOUS
 62
     7
100
AcDbLine
 10
1013.110043717724
 20
781.641248854192
 30
0.0
 11
1059.910043717722
 21
828.4412488541903
 31
0.0
  0
LINE
  5
249
330
1F
100
AcDbEntity
  8
LAY-10
  6
CONTINUOUS
 62
     7
100
AcDbLine
 10
1027.252179341454
 20
781.641248854192
 30
0.0
 11
1074.052179341453
 21
828.4412488541905
 31
0.0
  0
LINE
  5
24A
330
1F
100
AcDbEntity
  8
LAY-10
  6
CONTINUOUS
 62
     7
100
AcDbLine
 10
1041.394314965185
 20
781.641248854192
 30
0.0
 11
1088.194314965184
 21
828.4412488541905
 31
0.0
  0
LINE
  5
24B
330
1F
100
AcDbEntity
  8
LAY-10
  6
CONTINUOUS
 62
     7
100
AcDbLine
 10
1055.536450588916
 20
781.641248854192
 30
0.0
 11
1102.336450588915
 21
828.4412488541905
 31
0.0
  0
LINE
  5
24C
330
1F
100
AcDbEntity
  8
LAY-10
  6
CONTINUOUS
 62
     7
100
AcDbLine
 10
1069.678586212647
 20
781.641248854192
 30
0.0
 11
1116.478586212646
 21
828.4412488541905
 31
0.0
  0
LINE
  5
24D
330
1F
100
AcDbEntity
  8
LAY-10
  6
CONTINUOUS
 62
     7
100
AcDbLine
 10
1083.820721836378
 20
781.641248854192
 30
0.0
 11
1130.620721836377
 21
828.4412488541905
 31
0.0
  0
LINE
  5
24E
330
1F
100
AcDbEntity
  8
LAY-10
  6
CONTINUOUS
 62
     7
100
AcDbLine
 10
1097.962857460109
 20
781.641248854192
 30
0.0
 11
1144.762857460108
 21
828.4412488541905
 31
0.0
  0
LINE
  5
24F
330
1F
100
AcDbEntity
  8
LAY-10
  6
CONTINUOUS
 62
     7
100
AcDbLine
 10
1112.10499308384
 20
781.641248854192
 30
0.0
 11
1158.904993083839
 21
828.4412488541905
 31
0.0
  0
LINE
  5
250
330
1F
100
AcDbEntity
  8
LAY-10
  6
CONTINUOUS
 62
     7
100
AcDbLine
 10
1126.247128707571
 20
781.641248854192
 30
0.0
 11
1173.04712870757
 21
828.4412488541905
 31
0.0
  0
LINE
  5
251
330
1F
100
AcDbEntity
  8
LAY-10
  6
CONTINUOUS
 62
     7
100
AcDbLine
 10
1140.389264331302
 20
781.641248854192
 30
0.0
 11
1187.189264331301
 21
828.4412488541905
 31
0.0
  0
LINE
  5
252
330
1F
100
AcDbEntity
  8
LAY-10
  6
CONTINUOUS
 62
     7
100
AcDbLine
 10
1154.531399955033
 20
781.641248854192
 30
0.0
 11
1201.331399955032
 21
828.4412488541905
 31
0.0
  0
LINE
  5
253
330
1F
100
AcDbEntity
  8
LAY-10
  6
CONTINUOUS
 62
     7
100
AcDbLine
 10
1168.673535578764
 20
781.641248854192
 30
0.0
 11
1215.473535578762
 21
828.4412488541905
 31
0.0
  0
LINE
  5
254
330
1F
100
AcDbEntity
  8
LAY-10
  6
CONTINUOUS
 62
     7
100
AcDbLine
 10
1182.815671202495
 20
781.641248854192
 30
0.0
 11
1229.615671202494
 21
828.4412488541905
 31
0.0
  0
LINE
  5
255
330
1F
100
AcDbEntity
  8
LAY-10
  6
CONTINUOUS
 62
     7
100
AcDbLine
 10
1196.957806826226
 20
781.641248854192
 30
0.0
 11
1243.757806826225
 21
828.4412488541905
 31
0.0
  0
LINE
  5
256
330
1F
100
AcDbEntity
  8
LAY-10
  6
CONTINUOUS
 62
     7
100
AcDbLine
 10
1211.099942449957
 20
781.641248854192
 30
0.0
 11
1257.899942449955
 21
828.4412488541905
 31
0.0
  0
LINE
  5
257
330
1F
100
AcDbEntity
  8
LAY-10
  6
CONTINUOUS
 62
     7
100
AcDbLine
 10
1225.242078073688
 20
781.641248854192
 30
0.0
 11
1272.042078073686
 21
828.4412488541905
 31
0.0
  0
LINE
  5
258
330
1F
100
AcDbEntity
  8
LAY-10
  6
CONTINUOUS
 62
     7
100
AcDbLine
 10
1239.384213697419
 20
781.641248854192
 30
0.0
 11
1286.184213697417
 21
828.4412488541905
 31
0.0
  0
LINE
  5
259
330
1F
100
AcDbEntity
  8
LAY-10
  6
CONTINUOUS
 62
     7
100
AcDbLine
 10
1253.52634932115
 20
781.641248854192
 30
0.0
 11
1300.326349321148
 21
828.4412488541905
 31
0.0
  0
LINE
  5
25A
330
1F
100
AcDbEntity
  8
LAY-10
  6
CONTINUOUS
 62
     7
100
AcDbLine
 10
1267.668484944881
 20
781.641248854192
 30
0.0
 11
1314.468484944879
 21
828.4412488541905
 31
0.0
  0
LINE
  5
25B
330
1F
100
AcDbEntity
  8
LAY-10
  6
CONTINUOUS
 62
     7
100
AcDbLine
 10
1281.810620568612
 20
781.641248854192
 30
0.0
 11
1328.61062056861
 21
828.4412488541905
 31
0.0
  0
LINE
  5
25C
330
1F
100
AcDbEntity
  8
LAY-10
  6
CONTINUOUS
 62
     7
100
AcDbLine
 10
1295.952756192343
 20
781.641248854192
 30
0.0
 11
1342.752756192341
 21
828.4412488541905
 31
0.0
  0
LINE
  5
25D
330
1F
100
AcDbEntity
  8
LAY-10
  6
CONTINUOUS
 62
     7
100
AcDbLine
 10
1310.094891816073
 20
781.641248854192
 30
0.0
 11
1356.894891816072
 21
828.4412488541905
 31
0.0
  0
LINE
  5
25E
330
1F
100
AcDbEntity
  8
LAY-10
  6
CONTINUOUS
 62
     7
100
AcDbLine
 10
1324.237027439804
 20
781.641248854192
 30
0.0
 11
1371.037027439803
 21
828.4412488541905
 31
0.0
  0
LINE
  5
25F
330
1F
100
AcDbEntity
  8
LAY-10
  6
CONTINUOUS
 62
     7
100
AcDbLine
 10
1338.379163063535
 20
781.641248854192
 30
0.0
 11
1385.179163063534
 21
828.4412488541905
 31
0.0
  0
LINE
  5
260
330
1F
100
AcDbEntity
  8
LAY-10
  6
CONTINUOUS
 62
     7
100
AcDbLine
 10
1352.521298687266
 20
781.641248854192
 30
0.0
 11
1399.321298687265
 21
828.4412488541905
 31
0.0
  0
LINE
  5
261
330
1F
100
AcDbEntity
  8
LAY-10
  6
CONTINUOUS
 62
     7
100
AcDbLine
 10
1366.663434310997
 20
781.641248854192
 30
0.0
 11
1413.463434310996
 21
828.4412488541905
 31
0.0
  0
LINE
  5
262
330
1F
100
AcDbEntity
  8
LAY-10
  6
CONTINUOUS
 62
     7
100
AcDbLine
 10
1380.805569934728
 20
781.641248854192
 30
0.0
 11
1427.605569934727
 21
828.4412488541905
 31
0.0
  0
LINE
  5
263
330
1F
100
AcDbEntity
  8
LAY-10
  6
CONTINUOUS
 62
     7
100
AcDbLine
 10
1394.947705558459
 20
781.641248854192
 30
0.0
 11
1441.747705558458
 21
828.4412488541905
 31
0.0
  0
LINE
  5
264
330
1F
100
AcDbEntity
  8
LAY-10
  6
CONTINUOUS
 62
     7
100
AcDbLine
 10
1409.08984118219
 20
781.641248854192
 30
0.0
 11
1455.889841182189
 21
828.4412488541905
 31
0.0
  0
LINE
  5
265
330
1F
100
AcDbEntity
  8
LAY-10
  6
CONTINUOUS
 62
     7
100
AcDbLine
 10
1423.231976805921
 20
781.641248854192
 30
0.0
 11
1470.03197680592
 21
828.4412488541905
 31
0.0
  0
LINE
  5
266
330
1F
100
AcDbEntity
  8
LAY-10
  6
CONTINUOUS
 62
     7
100
AcDbLine
 10
1437.374112429652
 20
781.641248854192
 30
0.0
 11
1484.174112429651
 21
828.4412488541905
 31
0.0
  0
LINE
  5
267
330
1F
100
AcDbEntity
  8
LAY-10
  6
CONTINUOUS
 62
     7
100
AcDbLine
 10
1451.516248053383
 20
781.641248854192
 30
0.0
 11
1498.316248053382
 21
828.4412488541905
 31
0.0
  0
LINE
  5
268
330
1F
100
AcDbEntity
  8
LAY-10
  6
CONTINUOUS
 62
     7
100
AcDbLine
 10
1465.658383677114
 20
781.641248854192
 30
0.0
 11
1512.458383677113
 21
828.4412488541903
 31
0.0
  0
LINE
  5
269
330
1F
100
AcDbEntity
  8
LAY-10
  6
CONTINUOUS
 62
     7
100
AcDbLine
 10
1479.800519300845
 20
781.641248854192
 30
0.0
 11
1515.340797171202
 21
817.1815267245489
 31
0.0
  0
LINE
  5
26A
330
1F
100
AcDbEntity
  8
LAY-10
  6
CONTINUOUS
 62
     7
100
AcDbLine
 10
1493.942654924576
 20
781.641248854192
 30
0.0
 11
1515.340797171202
 21
803.039391100818
 31
0.0
  0
LINE
  5
26B
330
1F
100
AcDbEntity
  8
LAY-10
  6
CONTINUOUS
 62
     7
100
AcDbLine
 10
1508.084790548307
 20
781.641248854192
 30
0.0
 11
1515.340797171202
 21
788.8972554770871
 31
0.0
  0
LINE
  5
26C
330
1F
100
AcDbEntity
  8
LAY-10
  6
CONTINUOUS
 62
     7
100
AcDbLine
 10
741.5505406380388
 20
781.641248854192
 30
0.0
 11
734.5407971712189
 21
788.6509923210124
 31
0.0
  0
LINE
  5
26D
330
1F
100
AcDbEntity
  8
LAY-10
  6
CONTINUOUS
 62
     7
100
AcDbLine
 10
755.6926762617699
 20
781.6412488541921
 30
0.0
 11
734.5407971712184
 21
802.7931279447434
 31
0.0
  0
LINE
  5
26E
330
1F
100
AcDbEntity
  8
LAY-10
  6
CONTINUOUS
 62
     7
100
AcDbLine
 10
769.8348118855012
 20
781.641248854192
 30
0.0
 11
734.5407971712184
 21
816.9352635684743
 31
0.0
  0
LINE
  5
26F
330
1F
100
AcDbEntity
  8
LAY-10
  6
CONTINUOUS
 62
     7
100
AcDbLine
 10
783.9769475092322
 20
781.641248854192
 30
0.0
 11
737.1769475092333
 21
828.4412488541905
 31
0.0
  0
LINE
  5
270
330
1F
100
AcDbEntity
  8
LAY-10
  6
CONTINUOUS
 62
     7
100
AcDbLine
 10
798.1190831329627
 20
781.641248854192
 30
0.0
 11
751.3190831329644
 21
828.4412488541905
 31
0.0
  0
LINE
  5
271
330
1F
100
AcDbEntity
  8
LAY-10
  6
CONTINUOUS
 62
     7
100
AcDbLine
 10
812.2612187566938
 20
781.6412488541921
 30
0.0
 11
765.4612187566954
 21
828.4412488541905
 31
0.0
  0
LINE
  5
272
330
1F
100
AcDbEntity
  8
LAY-10
  6
CONTINUOUS
 62
     7
100
AcDbLine
 10
826.4033543804248
 20
781.641248854192
 30
0.0
 11
779.603354380426
 21
828.4412488541905
 31
0.0
  0
LINE
  5
273
330
1F
100
AcDbEntity
  8
LAY-10
  6
CONTINUOUS
 62
     7
100
AcDbLine
 10
840.5454900041559
 20
781.641248854192
 30
0.0
 11
793.7454900041571
 21
828.4412488541905
 31
0.0
  0
LINE
  5
274
330
1F
100
AcDbEntity
  8
LAY-10
  6
CONTINUOUS
 62
     7
100
AcDbLine
 10
854.6876256278865
 20
781.641248854192
 30
0.0
 11
807.8876256278882
 21
828.4412488541905
 31
0.0
  0
LINE
  5
275
330
1F
100
AcDbEntity
  8
LAY-10
  6
CONTINUOUS
 62
     7
100
AcDbLine
 10
868.8297612516176
 20
781.6412488541921
 30
0.0
 11
822.0297612516188
 21
828.4412488541905
 31
0.0
  0
LINE
  5
276
330
1F
100
AcDbEntity
  8
LAY-10
  6
CONTINUOUS
 62
     7
100
AcDbLine
 10
882.9718968753486
 20
781.641248854192
 30
0.0
 11
836.1718968753502
 21
828.4412488541905
 31
0.0
  0
LINE
  5
277
330
1F
100
AcDbEntity
  8
LAY-10
  6
CONTINUOUS
 62
     7
100
AcDbLine
 10
897.1140324990797
 20
781.641248854192
 30
0.0
 11
850.3140324990809
 21
828.4412488541905
 31
0.0
  0
LINE
  5
278
330
1F
100
AcDbEntity
  8
LAY-10
  6
CONTINUOUS
 62
     7
100
AcDbLine
 10
911.2561681228103
 20
781.641248854192
 30
0.0
 11
864.456168122812
 21
828.4412488541905
 31
0.0
  0
LINE
  5
279
330
1F
100
AcDbEntity
  8
LAY-10
  6
CONTINUOUS
 62
     7
100
AcDbLine
 10
925.3983037465414
 20
781.6412488541921
 30
0.0
 11
878.5983037465428
 21
828.4412488541905
 31
0.0
  0
LINE
  5
27A
330
1F
100
AcDbEntity
  8
LAY-10
  6
CONTINUOUS
 62
     7
100
AcDbLine
 10
939.5404393702725
 20
781.641248854192
 30
0.0
 11
892.7404393702739
 21
828.4412488541905
 31
0.0
  0
LINE
  5
27B
330
1F
100
AcDbEntity
  8
LAY-10
  6
CONTINUOUS
 62
     7
100
AcDbLine
 10
953.6825749940035
 20
781.641248854192
 30
0.0
 11
906.8825749940047
 21
828.4412488541905
 31
0.0
  0
LINE
  5
27C
330
1F
100
AcDbEntity
  8
LAY-10
  6
CONTINUOUS
 62
     7
100
AcDbLine
 10
967.8247106177341
 20
781.641248854192
 30
0.0
 11
921.0247106177358
 21
828.4412488541905
 31
0.0
  0
LINE
  5
27D
330
1F
100
AcDbEntity
  8
LAY-10
  6
CONTINUOUS
 62
     7
100
AcDbLine
 10
981.9668462414652
 20
781.6412488541921
 30
0.0
 11
935.1668462414666
 21
828.4412488541905
 31
0.0
  0
LINE
  5
27E
330
1F
100
AcDbEntity
  8
LAY-10
  6
CONTINUOUS
 62
     7
100
AcDbLine
 10
996.1089818651963
 20
781.641248854192
 30
0.0
 11
949.3089818651977
 21
828.4412488541905
 31
0.0
  0
LINE
  5
27F
330
1F
100
AcDbEntity
  8
LAY-10
  6
CONTINUOUS
 62
     7
100
AcDbLine
 10
1010.251117488927
 20
781.641248854192
 30
0.0
 11
963.4511174889286
 21
828.4412488541905
 31
0.0
  0
LINE
  5
280
330
1F
100
AcDbEntity
  8
LAY-10
  6
CONTINUOUS
 62
     7
100
AcDbLine
 10
1024.393253112658
 20
781.641248854192
 30
0.0
 11
977.5932531126597
 21
828.4412488541905
 31
0.0
  0
LINE
  5
281
330
1F
100
AcDbEntity
  8
LAY-10
  6
CONTINUOUS
 62
     7
100
AcDbLine
 10
1038.535388736389
 20
781.641248854192
 30
0.0
 11
991.7353887363904
 21
828.4412488541905
 31
0.0
  0
LINE
  5
282
330
1F
100
AcDbEntity
  8
LAY-10
  6
CONTINUOUS
 62
     7
100
AcDbLine
 10
1052.67752436012
 20
781.641248854192
 30
0.0
 11
1005.877524360121
 21
828.4412488541905
 31
0.0
  0
LINE
  5
283
330
1F
100
AcDbEntity
  8
LAY-10
  6
CONTINUOUS
 62
     7
100
AcDbLine
 10
1066.819659983851
 20
781.641248854192
 30
0.0
 11
1020.019659983852
 21
828.4412488541905
 31
0.0
  0
LINE
  5
284
330
1F
100
AcDbEntity
  8
LAY-10
  6
CONTINUOUS
 62
     7
100
AcDbLine
 10
1080.961795607582
 20
781.641248854192
 30
0.0
 11
1034.161795607583
 21
828.4412488541905
 31
0.0
  0
LINE
  5
285
330
1F
100
AcDbEntity
  8
LAY-10
  6
CONTINUOUS
 62
     7
100
AcDbLine
 10
1095.103931231313
 20
781.641248854192
 30
0.0
 11
1048.303931231314
 21
828.4412488541905
 31
0.0
  0
LINE
  5
286
330
1F
100
AcDbEntity
  8
LAY-10
  6
CONTINUOUS
 62
     7
100
AcDbLine
 10
1109.246066855044
 20
781.641248854192
 30
0.0
 11
1062.446066855045
 21
828.4412488541905
 31
0.0
  0
LINE
  5
287
330
1F
100
AcDbEntity
  8
LAY-10
  6
CONTINUOUS
 62
     7
100
AcDbLine
 10
1123.388202478775
 20
781.641248854192
 30
0.0
 11
1076.588202478776
 21
828.4412488541905
 31
0.0
  0
LINE
  5
288
330
1F
100
AcDbEntity
  8
LAY-10
  6
CONTINUOUS
 62
     7
100
AcDbLine
 10
1137.530338102506
 20
781.641248854192
 30
0.0
 11
1090.730338102507
 21
828.4412488541905
 31
0.0
  0
LINE
  5
289
330
1F
100
AcDbEntity
  8
LAY-10
  6
CONTINUOUS
 62
     7
100
AcDbLine
 10
1151.672473726237
 20
781.641248854192
 30
0.0
 11
1104.872473726238
 21
828.4412488541905
 31
0.0
  0
LINE
  5
28A
330
1F
100
AcDbEntity
  8
LAY-10
  6
CONTINUOUS
 62
     7
100
AcDbLine
 10
1165.814609349968
 20
781.641248854192
 30
0.0
 11
1119.014609349969
 21
828.4412488541905
 31
0.0
  0
LINE
  5
28B
330
1F
100
AcDbEntity
  8
LAY-10
  6
CONTINUOUS
 62
     7
100
AcDbLine
 10
1179.956744973699
 20
781.641248854192
 30
0.0
 11
1133.1567449737
 21
828.4412488541905
 31
0.0
  0
LINE
  5
28C
330
1F
100
AcDbEntity
  8
LAY-10
  6
CONTINUOUS
 62
     7
100
AcDbLine
 10
1194.09888059743
 20
781.641248854192
 30
0.0
 11
1147.298880597431
 21
828.4412488541905
 31
0.0
  0
LINE
  5
28D
330
1F
100
AcDbEntity
  8
LAY-10
  6
CONTINUOUS
 62
     7
100
AcDbLine
 10
1208.24101622116
 20
781.641248854192
 30
0.0
 11
1161.441016221162
 21
828.4412488541905
 31
0.0
  0
LINE
  5
28E
330
1F
100
AcDbEntity
  8
LAY-10
  6
CONTINUOUS
 62
     7
100
AcDbLine
 10
1222.383151844891
 20
781.641248854192
 30
0.0
 11
1175.583151844893
 21
828.4412488541905
 31
0.0
  0
LINE
  5
28F
330
1F
100
AcDbEntity
  8
LAY-10
  6
CONTINUOUS
 62
     7
100
AcDbLine
 10
1236.525287468623
 20
781.641248854192
 30
0.0
 11
1189.725287468624
 21
828.4412488541905
 31
0.0
  0
LINE
  5
290
330
1F
100
AcDbEntity
  8
LAY-10
  6
CONTINUOUS
 62
     7
100
AcDbLine
 10
1250.667423092353
 20
781.641248854192
 30
0.0
 11
1203.867423092355
 21
828.4412488541905
 31
0.0
  0
LINE
  5
291
330
1F
100
AcDbEntity
  8
LAY-10
  6
CONTINUOUS
 62
     7
100
AcDbLine
 10
1264.809558716084
 20
781.641248854192
 30
0.0
 11
1218.009558716086
 21
828.4412488541905
 31
0.0
  0
LINE
  5
292
330
1F
100
AcDbEntity
  8
LAY-10
  6
CONTINUOUS
 62
     7
100
AcDbLine
 10
1278.951694339815
 20
781.641248854192
 30
0.0
 11
1232.151694339816
 21
828.4412488541905
 31
0.0
  0
LINE
  5
293
330
1F
100
AcDbEntity
  8
LAY-10
  6
CONTINUOUS
 62
     7
100
AcDbLine
 10
1293.093829963546
 20
781.641248854192
 30
0.0
 11
1246.293829963548
 21
828.4412488541905
 31
0.0
  0
LINE
  5
294
330
1F
100
AcDbEntity
  8
LAY-10
  6
CONTINUOUS
 62
     7
100
AcDbLine
 10
1307.235965587277
 20
781.641248854192
 30
0.0
 11
1260.435965587279
 21
828.4412488541905
 31
0.0
  0
LINE
  5
295
330
1F
100
AcDbEntity
  8
LAY-10
  6
CONTINUOUS
 62
     7
100
AcDbLine
 10
1321.378101211008
 20
781.641248854192
 30
0.0
 11
1274.57810121101
 21
828.4412488541905
 31
0.0
  0
LINE
  5
296
330
1F
100
AcDbEntity
  8
LAY-10
  6
CONTINUOUS
 62
     7
100
AcDbLine
 10
1335.520236834739
 20
781.641248854192
 30
0.0
 11
1288.72023683474
 21
828.4412488541905
 31
0.0
  0
LINE
  5
297
330
1F
100
AcDbEntity
  8
LAY-10
  6
CONTINUOUS
 62
     7
100
AcDbLine
 10
1349.66237245847
 20
781.641248854192
 30
0.0
 11
1302.862372458471
 21
828.4412488541905
 31
0.0
  0
LINE
  5
298
330
1F
100
AcDbEntity
  8
LAY-10
  6
CONTINUOUS
 62
     7
100
AcDbLine
 10
1363.804508082201
 20
781.641248854192
 30
0.0
 11
1317.004508082202
 21
828.4412488541905
 31
0.0
  0
LINE
  5
299
330
1F
100
AcDbEntity
  8
LAY-10
  6
CONTINUOUS
 62
     7
100
AcDbLine
 10
1377.946643705932
 20
781.641248854192
 30
0.0
 11
1331.146643705933
 21
828.4412488541905
 31
0.0
  0
LINE
  5
29A
330
1F
100
AcDbEntity
  8
LAY-10
  6
CONTINUOUS
 62
     7
100
AcDbLine
 10
1392.088779329663
 20
781.641248854192
 30
0.0
 11
1345.288779329664
 21
828.4412488541905
 31
0.0
  0
LINE
  5
29B
330
1F
100
AcDbEntity
  8
LAY-10
  6
CONTINUOUS
 62
     7
100
AcDbLine
 10
1406.230914953394
 20
781.641248854192
 30
0.0
 11
1359.430914953395
 21
828.4412488541905
 31
0.0
  0
LINE
  5
29C
330
1F
100
AcDbEntity
  8
LAY-10
  6
CONTINUOUS
 62
     7
100
AcDbLine
 10
1420.373050577125
 20
781.641248854192
 30
0.0
 11
1373.573050577126
 21
828.4412488541905
 31
0.0
  0
LINE
  5
29D
330
1F
100
AcDbEntity
  8
LAY-10
  6
CONTINUOUS
 62
     7
100
AcDbLine
 10
1434.515186200856
 20
781.641248854192
 30
0.0
 11
1387.715186200857
 21
828.4412488541905
 31
0.0
  0
LINE
  5
29E
330
1F
100
AcDbEntity
  8
LAY-10
  6
CONTINUOUS
 62
     7
100
AcDbLine
 10
1448.657321824587
 20
781.641248854192
 30
0.0
 11
1401.857321824588
 21
828.4412488541905
 31
0.0
  0
LINE
  5
29F
330
1F
100
AcDbEntity
  8
LAY-10
  6
CONTINUOUS
 62
     7
100
AcDbLine
 10
1462.799457448318
 20
781.641248854192
 30
0.0
 11
1415.999457448319
 21
828.4412488541905
 31
0.0
  0
LINE
  5
2A0
330
1F
100
AcDbEntity
  8
LAY-10
  6
CONTINUOUS
 62
     7
100
AcDbLine
 10
1476.941593072049
 20
781.641248854192
 30
0.0
 11
1430.14159307205
 21
828.4412488541905
 31
0.0
  0
LINE
  5
2A1
330
1F
100
AcDbEntity
  8
LAY-10
  6
CONTINUOUS
 62
     7
100
AcDbLine
 10
1491.083728695779
 20
781.641248854192
 30
0.0
 11
1444.283728695781
 21
828.4412488541905
 31
0.0
  0
LINE
  5
2A2
330
1F
100
AcDbEntity
  8
LAY-10
  6
CONTINUOUS
 62
     7
100
AcDbLine
 10
1505.22586431951
 20
781.641248854192
 30
0.0
 11
1458.425864319511
 21
828.4412488541905
 31
0.0
  0
LINE
  5
2A3
330
1F
100
AcDbEntity
  8
LAY-10
  6
CONTINUOUS
 62
     7
100
AcDbLine
 10
1515.340797171202
 20
785.6684516262308
 30
0.0
 11
1472.567999943243
 21
828.4412488541905
 31
0.0
  0
LINE
  5
2A4
330
1F
100
AcDbEntity
  8
LAY-10
  6
CONTINUOUS
 62
     7
100
AcDbLine
 10
1515.340797171202
 20
799.8105872499618
 30
0.0
 11
1486.710135566974
 21
828.4412488541905
 31
0.0
  0
LINE
  5
2A5
330
1F
100
AcDbEntity
  8
LAY-10
  6
CONTINUOUS
 62
     7
100
AcDbLine
 10
1515.340797171202
 20
813.9527228736927
 30
0.0
 11
1500.852271190705
 21
828.4412488541905
 31
0.0
  0
LINE
  5
2A6
330
1F
100
AcDbEntity
  8
LAY-10
  6
CONTINUOUS
 62
     7
100
AcDbLine
 10
1515.340797171202
 20
828.0948584974237
 30
0.0
 11
1514.994406814435
 21
828.4412488541905
 31
0.0
  0
LINE
  5
2A7
330
1F
100
AcDbEntity
  8
LAY-10
  6
CONTINUOUS
 62
     7
100
AcDbLine
 10
2162.197537416098
 20
2244.640574372998
 30
0.0
 11
2175.598211897798
 21
2258.041248854697
 31
0.0
  0
LINE
  5
2A8
330
1F
100
AcDbEntity
  8
LAY-10
  6
CONTINUOUS
 62
     7
100
AcDbLine
 10
2162.197537416098
 20
2230.498438749266
 30
0.0
 11
2189.740347521529
 21
2258.041248854697
 31
0.0
  0
LINE
  5
2A9
330
1F
100
AcDbEntity
  8
LAY-10
  6
CONTINUOUS
 62
     7
100
AcDbLine
 10
2162.197537416098
 20
2216.356303125536
 30
0.0
 11
2203.88248314526
 21
2258.041248854697
 31
0.0
  0
LINE
  5
2AA
330
1F
100
AcDbEntity
  8
LAY-10
  6
CONTINUOUS
 62
     7
100
AcDbLine
 10
2162.197537416098
 20
2202.214167501805
 30
0.0
 11
2208.997537416097
 21
2249.014167501804
 31
0.0
  0
LINE
  5
2AB
330
1F
100
AcDbEntity
  8
LAY-10
  6
CONTINUOUS
 62
     7
100
AcDbLine
 10
2162.197537416098
 20
2188.072031878074
 30
0.0
 11
2208.997537416097
 21
2234.872031878072
 31
0.0
  0
LINE
  5
2AC
330
1F
100
AcDbEntity
  8
LAY-10
  6
CONTINUOUS
 62
     7
100
AcDbLine
 10
2162.197537416098
 20
2173.929896254343
 30
0.0
 11
2208.997537416097
 21
2220.729896254341
 31
0.0
  0
LINE
  5
2AD
330
1F
100
AcDbEntity
  8
LAY-10
  6
CONTINUOUS
 62
     7
100
AcDbLine
 10
2162.197537416098
 20
2159.787760630612
 30
0.0
 11
2208.997537416097
 21
2206.587760630611
 31
0.0
  0
LINE
  5
2AE
330
1F
100
AcDbEntity
  8
LAY-10
  6
CONTINUOUS
 62
     7
100
AcDbLine
 10
2162.197537416098
 20
2145.645625006881
 30
0.0
 11
2208.997537416097
 21
2192.44562500688
 31
0.0
  0
LINE
  5
2AF
330
1F
100
AcDbEntity
  8
LAY-10
  6
CONTINUOUS
 62
     7
100
AcDbLine
 10
2162.197537416098
 20
2131.50348938315
 30
0.0
 11
2208.997537416097
 21
2178.303489383149
 31
0.0
  0
LINE
  5
2B0
330
1F
100
AcDbEntity
  8
LAY-10
  6
CONTINUOUS
 62
     7
100
AcDbLine
 10
2162.197537416098
 20
2117.361353759419
 30
0.0
 11
2208.997537416097
 21
2164.161353759418
 31
0.0
  0
LINE
  5
2B1
330
1F
100
AcDbEntity
  8
LAY-10
  6
CONTINUOUS
 62
     7
100
AcDbLine
 10
2162.197537416098
 20
2103.219218135688
 30
0.0
 11
2208.997537416097
 21
2150.019218135687
 31
0.0
  0
LINE
  5
2B2
330
1F
100
AcDbEntity
  8
LAY-10
  6
CONTINUOUS
 62
     7
100
AcDbLine
 10
2162.197537416098
 20
2089.077082511957
 30
0.0
 11
2208.997537416097
 21
2135.877082511956
 31
0.0
  0
LINE
  5
2B3
330
1F
100
AcDbEntity
  8
LAY-10
  6
CONTINUOUS
 62
     7
100
AcDbLine
 10
2162.197537416098
 20
2074.934946888226
 30
0.0
 11
2208.997537416097
 21
2121.734946888225
 31
0.0
  0
LINE
  5
2B4
330
1F
100
AcDbEntity
  8
LAY-10
  6
CONTINUOUS
 62
     7
100
AcDbLine
 10
2162.197537416098
 20
2060.792811264495
 30
0.0
 11
2208.997537416097
 21
2107.592811264494
 31
0.0
  0
LINE
  5
2B5
330
1F
100
AcDbEntity
  8
LAY-10
  6
CONTINUOUS
 62
     7
100
AcDbLine
 10
2162.197537416098
 20
2046.650675640764
 30
0.0
 11
2208.997537416097
 21
2093.450675640763
 31
0.0
  0
LINE
  5
2B6
330
1F
100
AcDbEntity
  8
LAY-10
  6
CONTINUOUS
 62
     7
100
AcDbLine
 10
2162.197537416098
 20
2032.508540017033
 30
0.0
 11
2208.997537416097
 21
2079.308540017032
 31
0.0
  0
LINE
  5
2B7
330
1F
100
AcDbEntity
  8
LAY-10
  6
CONTINUOUS
 62
     7
100
AcDbLine
 10
2162.197537416098
 20
2018.366404393302
 30
0.0
 11
2208.997537416097
 21
2065.166404393301
 31
0.0
  0
LINE
  5
2B8
330
1F
100
AcDbEntity
  8
LAY-10
  6
CONTINUOUS
 62
     7
100
AcDbLine
 10
2162.197537416098
 20
2004.224268769571
 30
0.0
 11
2208.997537416097
 21
2051.02426876957
 31
0.0
  0
LINE
  5
2B9
330
1F
100
AcDbEntity
  8
LAY-10
  6
CONTINUOUS
 62
     7
100
AcDbLine
 10
2162.197537416098
 20
1990.082133145841
 30
0.0
 11
2208.997537416097
 21
2036.882133145839
 31
0.0
  0
LINE
  5
2BA
330
1F
100
AcDbEntity
  8
LAY-10
  6
CONTINUOUS
 62
     7
100
AcDbLine
 10
2162.197537416098
 20
1975.939997522109
 30
0.0
 11
2208.997537416097
 21
2022.739997522108
 31
0.0
  0
LINE
  5
2BB
330
1F
100
AcDbEntity
  8
LAY-10
  6
CONTINUOUS
 62
     7
100
AcDbLine
 10
2162.197537416098
 20
1961.797861898378
 30
0.0
 11
2208.997537416097
 21
2008.597861898377
 31
0.0
  0
LINE
  5
2BC
330
1F
100
AcDbEntity
  8
LAY-10
  6
CONTINUOUS
 62
     7
100
AcDbLine
 10
2162.197537416098
 20
1947.655726274647
 30
0.0
 11
2208.997537416097
 21
1994.455726274646
 31
0.0
  0
LINE
  5
2BD
330
1F
100
AcDbEntity
  8
LAY-10
  6
CONTINUOUS
 62
     7
100
AcDbLine
 10
2162.197537416098
 20
1933.513590650917
 30
0.0
 11
2208.997537416097
 21
1980.313590650915
 31
0.0
  0
LINE
  5
2BE
330
1F
100
AcDbEntity
  8
LAY-10
  6
CONTINUOUS
 62
     7
100
AcDbLine
 10
2162.197537416098
 20
1919.371455027186
 30
0.0
 11
2208.997537416097
 21
1966.171455027184
 31
0.0
  0
LINE
  5
2BF
330
1F
100
AcDbEntity
  8
LAY-10
  6
CONTINUOUS
 62
     7
100
AcDbLine
 10
2162.197537416098
 20
1905.229319403455
 30
0.0
 11
2208.997537416097
 21
1952.029319403453
 31
0.0
  0
LINE
  5
2C0
330
1F
100
AcDbEntity
  8
LAY-10
  6
CONTINUOUS
 62
     7
100
AcDbLine
 10
2162.197537416098
 20
1891.087183779724
 30
0.0
 11
2208.997537416097
 21
1937.887183779723
 31
0.0
  0
LINE
  5
2C1
330
1F
100
AcDbEntity
  8
LAY-10
  6
CONTINUOUS
 62
     7
100
AcDbLine
 10
2162.197537416098
 20
1876.945048155993
 30
0.0
 11
2208.997537416097
 21
1923.745048155992
 31
0.0
  0
LINE
  5
2C2
330
1F
100
AcDbEntity
  8
LAY-10
  6
CONTINUOUS
 62
     7
100
AcDbLine
 10
2162.197537416098
 20
1862.802912532262
 30
0.0
 11
2208.997537416097
 21
1909.60291253226
 31
0.0
  0
LINE
  5
2C3
330
1F
100
AcDbEntity
  8
LAY-10
  6
CONTINUOUS
 62
     7
100
AcDbLine
 10
2162.197537416098
 20
1848.660776908531
 30
0.0
 11
2208.997537416097
 21
1895.460776908529
 31
0.0
  0
LINE
  5
2C4
330
1F
100
AcDbEntity
  8
LAY-10
  6
CONTINUOUS
 62
     7
100
AcDbLine
 10
2162.197537416098
 20
1834.5186412848
 30
0.0
 11
2208.997537416097
 21
1881.318641284799
 31
0.0
  0
LINE
  5
2C5
330
1F
100
AcDbEntity
  8
LAY-10
  6
CONTINUOUS
 62
     7
100
AcDbLine
 10
2162.197537416098
 20
1820.376505661069
 30
0.0
 11
2208.997537416097
 21
1867.176505661067
 31
0.0
  0
LINE
  5
2C6
330
1F
100
AcDbEntity
  8
LAY-10
  6
CONTINUOUS
 62
     7
100
AcDbLine
 10
2162.197537416098
 20
1806.234370037338
 30
0.0
 11
2208.997537416097
 21
1853.034370037337
 31
0.0
  0
LINE
  5
2C7
330
1F
100
AcDbEntity
  8
LAY-10
  6
CONTINUOUS
 62
     7
100
AcDbLine
 10
2162.197537416098
 20
1792.092234413607
 30
0.0
 11
2208.997537416097
 21
1838.892234413606
 31
0.0
  0
LINE
  5
2C8
330
1F
100
AcDbEntity
  8
LAY-10
  6
CONTINUOUS
 62
     7
100
AcDbLine
 10
2162.197537416098
 20
1777.950098789876
 30
0.0
 11
2208.997537416097
 21
1824.750098789875
 31
0.0
  0
LINE
  5
2C9
330
1F
100
AcDbEntity
  8
LAY-10
  6
CONTINUOUS
 62
     7
100
AcDbLine
 10
2162.197537416098
 20
1763.807963166145
 30
0.0
 11
2208.997537416097
 21
1810.607963166144
 31
0.0
  0
LINE
  5
2CA
330
1F
100
AcDbEntity
  8
LAY-10
  6
CONTINUOUS
 62
     7
100
AcDbLine
 10
2162.197537416098
 20
1749.665827542414
 30
0.0
 11
2208.997537416097
 21
1796.465827542413
 31
0.0
  0
LINE
  5
2CB
330
1F
100
AcDbEntity
  8
LAY-10
  6
CONTINUOUS
 62
     7
100
AcDbLine
 10
2162.197537416098
 20
1735.523691918683
 30
0.0
 11
2208.997537416097
 21
1782.323691918682
 31
0.0
  0
LINE
  5
2CC
330
1F
100
AcDbEntity
  8
LAY-10
  6
CONTINUOUS
 62
     7
100
AcDbLine
 10
2162.197537416098
 20
1721.381556294952
 30
0.0
 11
2208.997537416097
 21
1768.181556294951
 31
0.0
  0
LINE
  5
2CD
330
1F
100
AcDbEntity
  8
LAY-10
  6
CONTINUOUS
 62
     7
100
AcDbLine
 10
2162.197537416098
 20
1707.239420671222
 30
0.0
 11
2208.997537416097
 21
1754.03942067122
 31
0.0
  0
LINE
  5
2CE
330
1F
100
AcDbEntity
  8
LAY-10
  6
CONTINUOUS
 62
     7
100
AcDbLine
 10
2162.197537416098
 20
1693.09728504749
 30
0.0
 11
2208.997537416097
 21
1739.897285047489
 31
0.0
  0
LINE
  5
2CF
330
1F
100
AcDbEntity
  8
LAY-10
  6
CONTINUOUS
 62
     7
100
AcDbLine
 10
2162.197537416098
 20
1678.955149423759
 30
0.0
 11
2208.997537416097
 21
1725.755149423758
 31
0.0
  0
LINE
  5
2D0
330
1F
100
AcDbEntity
  8
LAY-10
  6
CONTINUOUS
 62
     7
100
AcDbLine
 10
2162.197537416098
 20
1664.813013800028
 30
0.0
 11
2208.997537416097
 21
1711.613013800027
 31
0.0
  0
LINE
  5
2D1
330
1F
100
AcDbEntity
  8
LAY-10
  6
CONTINUOUS
 62
     7
100
AcDbLine
 10
2162.197537416098
 20
1650.670878176297
 30
0.0
 11
2208.997537416097
 21
1697.470878176296
 31
0.0
  0
LINE
  5
2D2
330
1F
100
AcDbEntity
  8
LAY-10
  6
CONTINUOUS
 62
     7
100
AcDbLine
 10
2162.197537416098
 20
1636.528742552567
 30
0.0
 11
2208.997537416097
 21
1683.328742552565
 31
0.0
  0
LINE
  5
2D3
330
1F
100
AcDbEntity
  8
LAY-10
  6
CONTINUOUS
 62
     7
100
AcDbLine
 10
2162.197537416098
 20
1622.386606928836
 30
0.0
 11
2208.997537416097
 21
1669.186606928835
 31
0.0
  0
LINE
  5
2D4
330
1F
100
AcDbEntity
  8
LAY-10
  6
CONTINUOUS
 62
     7
100
AcDbLine
 10
2162.197537416098
 20
1608.244471305105
 30
0.0
 11
2208.997537416097
 21
1655.044471305104
 31
0.0
  0
LINE
  5
2D5
330
1F
100
AcDbEntity
  8
LAY-10
  6
CONTINUOUS
 62
     7
100
AcDbLine
 10
2162.197537416098
 20
1594.102335681374
 30
0.0
 11
2208.997537416097
 21
1640.902335681373
 31
0.0
  0
LINE
  5
2D6
330
1F
100
AcDbEntity
  8
LAY-10
  6
CONTINUOUS
 62
     7
100
AcDbLine
 10
2162.197537416098
 20
1579.960200057643
 30
0.0
 11
2208.997537416097
 21
1626.760200057641
 31
0.0
  0
LINE
  5
2D7
330
1F
100
AcDbEntity
  8
LAY-10
  6
CONTINUOUS
 62
     7
100
AcDbLine
 10
2162.197537416098
 20
1565.818064433912
 30
0.0
 11
2208.997537416097
 21
1612.618064433911
 31
0.0
  0
LINE
  5
2D8
330
1F
100
AcDbEntity
  8
LAY-10
  6
CONTINUOUS
 62
     7
100
AcDbLine
 10
2162.197537416098
 20
1551.675928810181
 30
0.0
 11
2208.997537416097
 21
1598.47592881018
 31
0.0
  0
LINE
  5
2D9
330
1F
100
AcDbEntity
  8
LAY-10
  6
CONTINUOUS
 62
     7
100
AcDbLine
 10
2162.197537416098
 20
1537.53379318645
 30
0.0
 11
2208.997537416107
 21
1584.333793186459
 31
0.0
  0
LINE
  5
2DA
330
1F
100
AcDbEntity
  8
LAY-10
  6
CONTINUOUS
 62
     7
100
AcDbLine
 10
2162.197537416098
 20
1523.391657562719
 30
0.0
 11
2208.997537416107
 21
1570.191657562728
 31
0.0
  0
LINE
  5
2DB
330
1F
100
AcDbEntity
  8
LAY-10
  6
CONTINUOUS
 62
     7
100
AcDbLine
 10
2162.197537416098
 20
1509.249521938988
 30
0.0
 11
2208.997537416107
 21
1556.049521938997
 31
0.0
  0
LINE
  5
2DC
330
1F
100
AcDbEntity
  8
LAY-10
  6
CONTINUOUS
 62
     7
100
AcDbLine
 10
2162.197537416098
 20
1495.107386315257
 30
0.0
 11
2208.997537416107
 21
1541.907386315266
 31
0.0
  0
LINE
  5
2DD
330
1F
100
AcDbEntity
  8
LAY-10
  6
CONTINUOUS
 62
     7
100
AcDbLine
 10
2162.197537416098
 20
1480.965250691526
 30
0.0
 11
2208.997537416107
 21
1527.765250691535
 31
0.0
  0
LINE
  5
2DE
330
1F
100
AcDbEntity
  8
LAY-10
  6
CONTINUOUS
 62
     7
100
AcDbLine
 10
2172.615671203017
 20
1477.241248854713
 30
0.0
 11
2208.997537416107
 21
1513.623115067804
 31
0.0
  0
LINE
  5
2DF
330
1F
100
AcDbEntity
  8
LAY-10
  6
CONTINUOUS
 62
     7
100
AcDbLine
 10
2186.757806826747
 20
1477.241248854713
 30
0.0
 11
2208.997537416107
 21
1499.480979444073
 31
0.0
  0
LINE
  5
2E0
330
1F
100
AcDbEntity
  8
LAY-10
  6
CONTINUOUS
 62
     7
100
AcDbLine
 10
2200.899942450478
 20
1477.241248854713
 30
0.0
 11
2208.997537416107
 21
1485.338843820342
 31
0.0
  0
LINE
  5
2E1
330
1F
100
AcDbEntity
  8
LAY-10
  6
CONTINUOUS
 62
     7
100
AcDbLine
 10
2169.740439369759
 20
1477.241248854705
 30
0.0
 11
2162.197537416091
 21
1484.784150808374
 31
0.0
  0
LINE
  5
2E2
330
1F
100
AcDbEntity
  8
LAY-10
  6
CONTINUOUS
 62
     7
100
AcDbLine
 10
2183.88257499349
 20
1477.241248854705
 30
0.0
 11
2162.197537416091
 21
1498.926286432105
 31
0.0
  0
LINE
  5
2E3
330
1F
100
AcDbEntity
  8
LAY-10
  6
CONTINUOUS
 62
     7
100
AcDbLine
 10
2198.024710617211
 20
1477.241248854716
 30
0.0
 11
2162.197537416091
 21
1513.068422055836
 31
0.0
  0
LINE
  5
2E4
330
1F
100
AcDbEntity
  8
LAY-10
  6
CONTINUOUS
 62
     7
100
AcDbLine
 10
2208.997537416099
 20
1480.410557679558
 30
0.0
 11
2162.197537416091
 21
1527.210557679567
 31
0.0
  0
LINE
  5
2E5
330
1F
100
AcDbEntity
  8
LAY-10
  6
CONTINUOUS
 62
     7
100
AcDbLine
 10
2208.997537416099
 20
1494.552693303289
 30
0.0
 11
2162.197537416091
 21
1541.352693303298
 31
0.0
  0
LINE
  5
2E6
330
1F
100
AcDbEntity
  8
LAY-10
  6
CONTINUOUS
 62
     7
100
AcDbLine
 10
2208.997537416099
 20
1508.69482892702
 30
0.0
 11
2162.197537416091
 21
1555.494828927029
 31
0.0
  0
LINE
  5
2E7
330
1F
100
AcDbEntity
  8
LAY-10
  6
CONTINUOUS
 62
     7
100
AcDbLine
 10
2208.997537416099
 20
1522.836964550751
 30
0.0
 11
2162.197537416091
 21
1569.63696455076
 31
0.0
  0
LINE
  5
2E8
330
1F
100
AcDbEntity
  8
LAY-10
  6
CONTINUOUS
 62
     7
100
AcDbLine
 10
2208.997537416099
 20
1536.979100174482
 30
0.0
 11
2162.197537416091
 21
1583.779100174491
 31
0.0
  0
LINE
  5
2E9
330
1F
100
AcDbEntity
  8
LAY-10
  6
CONTINUOUS
 62
     7
100
AcDbLine
 10
2208.997537416099
 20
1551.121235798213
 30
0.0
 11
2162.197537416091
 21
1597.921235798221
 31
0.0
  0
LINE
  5
2EA
330
1F
100
AcDbEntity
  8
LAY-10
  6
CONTINUOUS
 62
     7
100
AcDbLine
 10
2208.997537416099
 20
1565.263371421944
 30
0.0
 11
2162.197537416091
 21
1612.063371421953
 31
0.0
  0
LINE
  5
2EB
330
1F
100
AcDbEntity
  8
LAY-10
  6
CONTINUOUS
 62
     7
100
AcDbLine
 10
2208.997537416099
 20
1579.405507045675
 30
0.0
 11
2162.197537416091
 21
1626.205507045684
 31
0.0
  0
LINE
  5
2EC
330
1F
100
AcDbEntity
  8
LAY-10
  6
CONTINUOUS
 62
     7
100
AcDbLine
 10
2208.997537416099
 20
1593.547642669406
 30
0.0
 11
2162.197537416091
 21
1640.347642669415
 31
0.0
  0
LINE
  5
2ED
330
1F
100
AcDbEntity
  8
LAY-10
  6
CONTINUOUS
 62
     7
100
AcDbLine
 10
2208.997537416099
 20
1607.689778293136
 30
0.0
 11
2162.197537416091
 21
1654.489778293145
 31
0.0
  0
LINE
  5
2EE
330
1F
100
AcDbEntity
  8
LAY-10
  6
CONTINUOUS
 62
     7
100
AcDbLine
 10
2208.997537416099
 20
1621.831913916868
 30
0.0
 11
2162.197537416091
 21
1668.631913916876
 31
0.0
  0
LINE
  5
2EF
330
1F
100
AcDbEntity
  8
LAY-10
  6
CONTINUOUS
 62
     7
100
AcDbLine
 10
2208.997537416099
 20
1635.974049540598
 30
0.0
 11
2162.197537416091
 21
1682.774049540607
 31
0.0
  0
LINE
  5
2F0
330
1F
100
AcDbEntity
  8
LAY-10
  6
CONTINUOUS
 62
     7
100
AcDbLine
 10
2208.997537416099
 20
1650.116185164329
 30
0.0
 11
2162.197537416101
 21
1696.916185164328
 31
0.0
  0
LINE
  5
2F1
330
1F
100
AcDbEntity
  8
LAY-10
  6
CONTINUOUS
 62
     7
100
AcDbLine
 10
2208.997537416099
 20
1664.25832078806
 30
0.0
 11
2162.197537416101
 21
1711.058320788059
 31
0.0
  0
LINE
  5
2F2
330
1F
100
AcDbEntity
  8
LAY-10
  6
CONTINUOUS
 62
     7
100
AcDbLine
 10
2208.997537416099
 20
1678.400456411791
 30
0.0
 11
2162.197537416101
 21
1725.20045641179
 31
0.0
  0
LINE
  5
2F3
330
1F
100
AcDbEntity
  8
LAY-10
  6
CONTINUOUS
 62
     7
100
AcDbLine
 10
2208.997537416099
 20
1692.542592035522
 30
0.0
 11
2162.197537416101
 21
1739.342592035521
 31
0.0
  0
LINE
  5
2F4
330
1F
100
AcDbEntity
  8
LAY-10
  6
CONTINUOUS
 62
     7
100
AcDbLine
 10
2208.997537416099
 20
1706.684727659253
 30
0.0
 11
2162.197537416101
 21
1753.484727659252
 31
0.0
  0
LINE
  5
2F5
330
1F
100
AcDbEntity
  8
LAY-10
  6
CONTINUOUS
 62
     7
100
AcDbLine
 10
2208.997537416099
 20
1720.826863282984
 30
0.0
 11
2162.197537416101
 21
1767.626863282983
 31
0.0
  0
LINE
  5
2F6
330
1F
100
AcDbEntity
  8
LAY-10
  6
CONTINUOUS
 62
     7
100
AcDbLine
 10
2208.997537416099
 20
1734.968998906715
 30
0.0
 11
2162.197537416101
 21
1781.768998906714
 31
0.0
  0
LINE
  5
2F7
330
1F
100
AcDbEntity
  8
LAY-10
  6
CONTINUOUS
 62
     7
100
AcDbLine
 10
2208.997537416099
 20
1749.111134530446
 30
0.0
 11
2162.197537416101
 21
1795.911134530445
 31
0.0
  0
LINE
  5
2F8
330
1F
100
AcDbEntity
  8
LAY-10
  6
CONTINUOUS
 62
     7
100
AcDbLine
 10
2208.997537416099
 20
1763.253270154177
 30
0.0
 11
2162.197537416101
 21
1810.053270154176
 31
0.0
  0
LINE
  5
2F9
330
1F
100
AcDbEntity
  8
LAY-10
  6
CONTINUOUS
 62
     7
100
AcDbLine
 10
2208.997537416099
 20
1777.395405777908
 30
0.0
 11
2162.197537416101
 21
1824.195405777907
 31
0.0
  0
LINE
  5
2FA
330
1F
100
AcDbEntity
  8
LAY-10
  6
CONTINUOUS
 62
     7
100
AcDbLine
 10
2208.997537416099
 20
1791.537541401639
 30
0.0
 11
2162.197537416101
 21
1838.337541401638
 31
0.0
  0
LINE
  5
2FB
330
1F
100
AcDbEntity
  8
LAY-10
  6
CONTINUOUS
 62
     7
100
AcDbLine
 10
2208.997537416099
 20
1805.67967702537
 30
0.0
 11
2162.197537416101
 21
1852.479677025369
 31
0.0
  0
LINE
  5
2FC
330
1F
100
AcDbEntity
  8
LAY-10
  6
CONTINUOUS
 62
     7
100
AcDbLine
 10
2208.997537416099
 20
1819.821812649101
 30
0.0
 11
2162.197537416101
 21
1866.621812649099
 31
0.0
  0
LINE
  5
2FD
330
1F
100
AcDbEntity
  8
LAY-10
  6
CONTINUOUS
 62
     7
100
AcDbLine
 10
2208.997537416099
 20
1833.963948272832
 30
0.0
 11
2162.197537416101
 21
1880.76394827283
 31
0.0
  0
LINE
  5
2FE
330
1F
100
AcDbEntity
  8
LAY-10
  6
CONTINUOUS
 62
     7
100
AcDbLine
 10
2208.997537416099
 20
1848.106083896563
 30
0.0
 11
2162.197537416101
 21
1894.906083896561
 31
0.0
  0
LINE
  5
2FF
330
1F
100
AcDbEntity
  8
LAY-10
  6
CONTINUOUS
 62
     7
100
AcDbLine
 10
2208.997537416099
 20
1862.248219520294
 30
0.0
 11
2162.197537416101
 21
1909.048219520292
 31
0.0
  0
LINE
  5
300
330
1F
100
AcDbEntity
  8
LAY-10
  6
CONTINUOUS
 62
     7
100
AcDbLine
 10
2208.997537416099
 20
1876.390355144025
 30
0.0
 11
2162.197537416101
 21
1923.190355144023
 31
0.0
  0
LINE
  5
301
330
1F
100
AcDbEntity
  8
LAY-10
  6
CONTINUOUS
 62
     7
100
AcDbLine
 10
2208.997537416099
 20
1890.532490767755
 30
0.0
 11
2162.197537416101
 21
1937.332490767755
 31
0.0
  0
LINE
  5
302
330
1F
100
AcDbEntity
  8
LAY-10
  6
CONTINUOUS
 62
     7
100
AcDbLine
 10
2208.997537416099
 20
1904.674626391487
 30
0.0
 11
2162.197537416101
 21
1951.474626391485
 31
0.0
  0
LINE
  5
303
330
1F
100
AcDbEntity
  8
LAY-10
  6
CONTINUOUS
 62
     7
100
AcDbLine
 10
2208.997537416099
 20
1918.816762015217
 30
0.0
 11
2162.197537416101
 21
1965.616762015216
 31
0.0
  0
LINE
  5
304
330
1F
100
AcDbEntity
  8
LAY-10
  6
CONTINUOUS
 62
     7
100
AcDbLine
 10
2208.997537416099
 20
1932.958897638948
 30
0.0
 11
2162.197537416101
 21
1979.758897638947
 31
0.0
  0
LINE
  5
305
330
1F
100
AcDbEntity
  8
LAY-10
  6
CONTINUOUS
 62
     7
100
AcDbLine
 10
2208.997537416099
 20
1947.101033262679
 30
0.0
 11
2162.197537416101
 21
1993.901033262678
 31
0.0
  0
LINE
  5
306
330
1F
100
AcDbEntity
  8
LAY-10
  6
CONTINUOUS
 62
     7
100
AcDbLine
 10
2208.997537416099
 20
1961.24316888641
 30
0.0
 11
2162.197537416101
 21
2008.043168886409
 31
0.0
  0
LINE
  5
307
330
1F
100
AcDbEntity
  8
LAY-10
  6
CONTINUOUS
 62
     7
100
AcDbLine
 10
2208.997537416099
 20
1975.385304510141
 30
0.0
 11
2162.197537416101
 21
2022.18530451014
 31
0.0
  0
LINE
  5
308
330
1F
100
AcDbEntity
  8
LAY-10
  6
CONTINUOUS
 62
     7
100
AcDbLine
 10
2208.997537416099
 20
1989.527440133872
 30
0.0
 11
2162.197537416101
 21
2036.327440133871
 31
0.0
  0
LINE
  5
309
330
1F
100
AcDbEntity
  8
LAY-10
  6
CONTINUOUS
 62
     7
100
AcDbLine
 10
2208.997537416099
 20
2003.669575757604
 30
0.0
 11
2162.197537416101
 21
2050.469575757602
 31
0.0
  0
LINE
  5
30A
330
1F
100
AcDbEntity
  8
LAY-10
  6
CONTINUOUS
 62
     7
100
AcDbLine
 10
2208.997537416099
 20
2017.811711381334
 30
0.0
 11
2162.197537416101
 21
2064.611711381333
 31
0.0
  0
LINE
  5
30B
330
1F
100
AcDbEntity
  8
LAY-10
  6
CONTINUOUS
 62
     7
100
AcDbLine
 10
2208.997537416099
 20
2031.953847005065
 30
0.0
 11
2162.197537416101
 21
2078.753847005064
 31
0.0
  0
LINE
  5
30C
330
1F
100
AcDbEntity
  8
LAY-10
  6
CONTINUOUS
 62
     7
100
AcDbLine
 10
2208.997537416099
 20
2046.095982628796
 30
0.0
 11
2162.197537416101
 21
2092.895982628795
 31
0.0
  0
LINE
  5
30D
330
1F
100
AcDbEntity
  8
LAY-10
  6
CONTINUOUS
 62
     7
100
AcDbLine
 10
2208.997537416099
 20
2060.238118252527
 30
0.0
 11
2162.197537416101
 21
2107.038118252526
 31
0.0
  0
LINE
  5
30E
330
1F
100
AcDbEntity
  8
LAY-10
  6
CONTINUOUS
 62
     7
100
AcDbLine
 10
2208.997537416099
 20
2074.380253876258
 30
0.0
 11
2162.197537416101
 21
2121.180253876257
 31
0.0
  0
LINE
  5
30F
330
1F
100
AcDbEntity
  8
LAY-10
  6
CONTINUOUS
 62
     7
100
AcDbLine
 10
2208.997537416099
 20
2088.522389499989
 30
0.0
 11
2162.197537416101
 21
2135.322389499988
 31
0.0
  0
LINE
  5
310
330
1F
100
AcDbEntity
  8
LAY-10
  6
CONTINUOUS
 62
     7
100
AcDbLine
 10
2208.997537416099
 20
2102.66452512372
 30
0.0
 11
2162.197537416101
 21
2149.464525123718
 31
0.0
  0
LINE
  5
311
330
1F
100
AcDbEntity
  8
LAY-10
  6
CONTINUOUS
 62
     7
100
AcDbLine
 10
2208.997537416099
 20
2116.806660747451
 30
0.0
 11
2162.197537416101
 21
2163.60666074745
 31
0.0
  0
LINE
  5
312
330
1F
100
AcDbEntity
  8
LAY-10
  6
CONTINUOUS
 62
     7
100
AcDbLine
 10
2208.997537416099
 20
2130.948796371182
 30
0.0
 11
2162.197537416101
 21
2177.748796371181
 31
0.0
  0
LINE
  5
313
330
1F
100
AcDbEntity
  8
LAY-10
  6
CONTINUOUS
 62
     7
100
AcDbLine
 10
2208.997537416099
 20
2145.090931994913
 30
0.0
 11
2162.197537416101
 21
2191.890931994912
 31
0.0
  0
LINE
  5
314
330
1F
100
AcDbEntity
  8
LAY-10
  6
CONTINUOUS
 62
     7
100
AcDbLine
 10
2208.997537416099
 20
2159.233067618644
 30
0.0
 11
2162.197537416101
 21
2206.033067618643
 31
0.0
  0
LINE
  5
315
330
1F
100
AcDbEntity
  8
LAY-10
  6
CONTINUOUS
 62
     7
100
AcDbLine
 10
2208.997537416099
 20
2173.375203242375
 30
0.0
 11
2162.197537416101
 21
2220.175203242373
 31
0.0
  0
LINE
  5
316
330
1F
100
AcDbEntity
  8
LAY-10
  6
CONTINUOUS
 62
     7
100
AcDbLine
 10
2208.997537416099
 20
2187.517338866106
 30
0.0
 11
2162.197537416101
 21
2234.317338866104
 31
0.0
  0
LINE
  5
317
330
1F
100
AcDbEntity
  8
LAY-10
  6
CONTINUOUS
 62
     7
100
AcDbLine
 10
2208.997537416099
 20
2201.659474489837
 30
0.0
 11
2162.197537416101
 21
2248.459474489835
 31
0.0
  0
LINE
  5
318
330
1F
100
AcDbEntity
  8
LAY-10
  6
CONTINUOUS
 62
     7
100
AcDbLine
 10
2208.997537416099
 20
2215.801610113568
 30
0.0
 11
2166.757898674968
 21
2258.041248854699
 31
0.0
  0
LINE
  5
319
330
1F
100
AcDbEntity
  8
LAY-10
  6
CONTINUOUS
 62
     7
100
AcDbLine
 10
2208.997537416099
 20
2229.943745737298
 30
0.0
 11
2180.900034298699
 21
2258.041248854699
 31
0.0
  0
LINE
  5
31A
330
1F
100
AcDbEntity
  8
LAY-10
  6
CONTINUOUS
 62
     7
100
AcDbLine
 10
2208.997537416099
 20
2244.08588136103
 30
0.0
 11
2195.042169922429
 21
2258.041248854699
 31
0.0
  0
LINE
  5
31B
330
1F
100
AcDbEntity
  8
LAY-10
  6
HIDDEN
 62
     7
100
AcDbLine
 10
1009.440797171307
 20
1386.441248854803
 30
0.0
 11
1009.440797171307
 21
1422.441248854803
 31
0.0
  0
LINE
  5
31C
330
1F
100
AcDbEntity
  8
LAY-10
  6
HIDDEN
 62
     7
100
AcDbLine
 10
1009.440797171307
 20
1386.441248854803
 30
0.0
 11
1040.440797171307
 21
1386.441248854803
 31
0.0
  0
LINE
  5
31D
330
1F
100
AcDbEntity
  8
LAY-10
  6
HIDDEN
 62
     7
100
AcDbLine
 10
1040.440797171307
 20
1386.441248854803
 30
0.0
 11
1040.440797171309
 21
1422.549882395843
 31
0.0
  0
LINE
  5
31E
330
1F
100
AcDbEntity
  8
LAY-10
  6
HIDDEN
 62
     7
100
AcDbLine
 10
993.7407971713066
 20
1422.549882395843
 30
0.0
 11
1051.740797171306
 21
1422.549882395843
 31
0.0
  0
LINE
  5
31F
330
1F
100
AcDbEntity
  8
LAY-10
  6
CONTINUOUS
 62
     7
100
AcDbLine
 10
879.440797171259
 20
1373.641248854791
 30
0.0
 11
879.440797171259
 21
1344.742764044954
 31
0.0
  0
LINE
  5
320
330
1F
100
AcDbEntity
  8
LAY-10
  6
CONTINUOUS
 62
     7
100
AcDbLine
 10
870.440797171259
 20
1373.641248854791
 30
0.0
 11
870.440797171259
 21
1344.742764044954
 31
0.0
  0
LINE
  5
321
330
1F
100
AcDbEntity
  8
LAY-10
  6
CONTINUOUS
 62
     7
100
AcDbLine
 10
879.440797171259
 20
1344.742764044954
 30
0.0
 11
870.440797171259
 21
1344.742764044954
 31
0.0
  0
LINE
  5
322
330
1F
100
AcDbEntity
  8
LAY-10
  6
CONTINUOUS
 62
     7
100
AcDbLine
 10
879.440797171259
 20
2361.641248854719
 30
0.0
 11
879.440797171259
 21
2390.539733664556
 31
0.0
  0
LINE
  5
323
330
1F
100
AcDbEntity
  8
LAY-10
  6
CONTINUOUS
 62
     7
100
AcDbLine
 10
870.440797171259
 20
2361.641248854719
 30
0.0
 11
870.440797171259
 21
2390.539733664556
 31
0.0
  0
LINE
  5
324
330
1F
100
AcDbEntity
  8
LAY-10
  6
CONTINUOUS
 62
     7
100
AcDbLine
 10
879.440797171259
 20
2390.539733664556
 30
0.0
 11
870.440797171259
 21
2390.539733664556
 31
0.0
  0
LINE
  5
325
330
1F
100
AcDbEntity
  8
LAY-10
  6
CONTINUOUS
 62
     7
100
AcDbLine
 10
667.940797171229
 20
1622.141248854539
 30
0.0
 11
639.0423123613919
 21
1622.141248854539
 31
0.0
  0
LINE
  5
326
330
1F
100
AcDbEntity
  8
LAY-10
  6
CONTINUOUS
 62
     7
100
AcDbLine
 10
667.940797171229
 20
1613.141248854539
 30
0.0
 11
639.0423123613919
 21
1613.141248854539
 31
0.0
  0
LINE
  5
327
330
1F
100
AcDbEntity
  8
LAY-10
  6
CONTINUOUS
 62
     7
100
AcDbLine
 10
639.0423123613919
 20
1622.141248854539
 30
0.0
 11
639.0423123613919
 21
1613.141248854539
 31
0.0
  0
LINE
  5
328
330
1F
100
AcDbEntity
  8
LAY-10
  6
CONTINUOUS
 62
     7
100
AcDbLine
 10
667.9407971712308
 20
2113.141248854803
 30
0.0
 11
639.0423123613937
 21
2113.141248854803
 31
0.0
  0
LINE
  5
329
330
1F
100
AcDbEntity
  8
LAY-10
  6
CONTINUOUS
 62
     7
100
AcDbLine
 10
667.9407971712308
 20
2122.141248854804
 30
0.0
 11
639.0423123613937
 21
2122.141248854804
 31
0.0
  0
LINE
  5
32A
330
1F
100
AcDbEntity
  8
LAY-10
  6
CONTINUOUS
 62
     7
100
AcDbLine
 10
639.0423123613937
 20
2113.141248854803
 30
0.0
 11
639.0423123613937
 21
2122.141248854804
 31
0.0
  0
LINE
  5
32B
330
1F
100
AcDbEntity
  8
LAY-10
  6
CONTINUOUS
 62
     7
100
AcDbLine
 10
682.940797171269
 20
1388.641248854756
 30
0.0
 11
667.9407971712671
 21
1373.641248854756
 31
0.0
  0
LINE
  5
32C
330
1F
100
AcDbEntity
  8
LAY-10
  6
CONTINUOUS
 62
     7
100
AcDbLine
 10
667.9407971712671
 20
2361.641248854655
 30
0.0
 11
682.940797171269
 21
2346.641248854657
 31
0.0
  0
LINE
  5
32D
330
1F
100
AcDbEntity
  8
LAY-10
  6
CONTINUOUS
 62
     7
100
AcDbLine
 10
667.9407971712671
 20
1373.641248854756
 30
0.0
 11
667.9407971712671
 21
2361.641248854655
 31
0.0
  0
LINE
  5
32E
330
1F
100
AcDbEntity
  8
LAY-10
  6
CONTINUOUS
 62
     7
100
AcDbLine
 10
682.940797171269
 20
1388.641248854756
 30
0.0
 11
682.940797171269
 21
2346.641248854657
 31
0.0
  0
LINE
  5
32F
330
1F
100
AcDbEntity
  8
LAY-10
  6
CONTINUOUS
 62
     7
100
AcDbLine
 10
1581.940797171294
 20
1622.141248854539
 30
0.0
 11
1610.839281981131
 21
1622.141248854539
 31
0.0
  0
LINE
  5
330
330
1F
100
AcDbEntity
  8
LAY-10
  6
CONTINUOUS
 62
     7
100
AcDbLine
 10
1581.940797171294
 20
1613.141248854539
 30
0.0
 11
1610.839281981131
 21
1613.141248854539
 31
0.0
  0
LINE
  5
331
330
1F
100
AcDbEntity
  8
LAY-10
  6
CONTINUOUS
 62
     7
100
AcDbLine
 10
1610.839281981131
 20
1622.141248854539
 30
0.0
 11
1610.839281981131
 21
1613.141248854539
 31
0.0
  0
LINE
  5
332
330
1F
100
AcDbEntity
  8
LAY-10
  6
CONTINUOUS
 62
     7
100
AcDbLine
 10
1581.940797171292
 20
2113.141248854803
 30
0.0
 11
1610.839281981129
 21
2113.141248854803
 31
0.0
  0
LINE
  5
333
330
1F
100
AcDbEntity
  8
LAY-10
  6
CONTINUOUS
 62
     7
100
AcDbLine
 10
1581.940797171292
 20
2122.141248854804
 30
0.0
 11
1610.839281981129
 21
2122.141248854804
 31
0.0
  0
LINE
  5
334
330
1F
100
AcDbEntity
  8
LAY-10
  6
CONTINUOUS
 62
     7
100
AcDbLine
 10
1610.839281981129
 20
2113.141248854803
 30
0.0
 11
1610.839281981129
 21
2122.141248854804
 31
0.0
  0
LINE
  5
335
330
1F
100
AcDbEntity
  8
LAY-10
  6
CONTINUOUS
 62
     7
100
AcDbLine
 10
1425.940797171082
 20
1922.641248854772
 30
0.0
 11
1425.940797171082
 21
1917.641248854774
 31
0.0
  0
LINE
  5
336
330
1F
100
AcDbEntity
  8
LAY-10
  6
CONTINUOUS
 62
     7
100
AcDbLine
 10
1431.940797171083
 20
1792.641248854772
 30
0.0
 11
1431.940797171083
 21
1782.641248854774
 31
0.0
  0
LINE
  5
337
330
1F
100
AcDbEntity
  8
LAY-10
  6
CONTINUOUS
 62
     7
100
AcDbLine
 10
1425.940797171082
 20
1812.641248854773
 30
0.0
 11
1425.940797171082
 21
1817.641248854774
 31
0.0
  0
LINE
  5
338
330
1F
100
AcDbEntity
  8
LAY-10
  6
CONTINUOUS
 62
     7
100
AcDbLine
 10
1441.640797171086
 20
1922.641248854772
 30
0.0
 11
1441.640797171086
 21
1942.641248854774
 31
0.0
  0
LINE
  5
339
330
1F
100
AcDbEntity
  8
LAY-10
  6
CONTINUOUS
 62
     7
100
AcDbLine
 10
1424.940797171085
 20
1922.641248854772
 30
0.0
 11
1424.940797171085
 21
1942.641248854774
 31
0.0
  0
LINE
  5
33A
330
1F
100
AcDbEntity
  8
LAY-10
  6
CONTINUOUS
 62
     7
100
AcDbLine
 10
1424.940797171085
 20
1792.641248854772
 30
0.0
 11
1424.940797171085
 21
1812.641248854773
 31
0.0
  0
LINE
  5
33B
330
1F
100
AcDbEntity
  8
LAY-10
  6
CONTINUOUS
 62
     7
100
AcDbLine
 10
1432.940797171085
 20
1812.641248854773
 30
0.0
 11
1432.940797171085
 21
1792.641248854772
 31
0.0
  0
LINE
  5
33C
330
1F
100
AcDbEntity
  8
LAY-10
  6
CONTINUOUS
 62
     7
100
AcDbLine
 10
1432.940797171085
 20
1922.641248854772
 30
0.0
 11
1432.940797171085
 21
1942.641248854774
 31
0.0
  0
LINE
  5
33D
330
1F
100
AcDbEntity
  8
LAY-10
  6
CONTINUOUS
 62
     7
100
AcDbLine
 10
1431.940797171083
 20
1952.641248854772
 30
0.0
 11
1425.940797171082
 21
1952.641248854772
 31
0.0
  0
LINE
  5
33E
330
1F
100
AcDbEntity
  8
LAY-10
  6
CONTINUOUS
 62
     7
100
AcDbLine
 10
1441.640797171086
 20
1942.641248854774
 30
0.0
 11
1415.940797171085
 21
1942.641248854774
 31
0.0
  0
LINE
  5
33F
330
1F
100
AcDbEntity
  8
LAY-10
  6
CONTINUOUS
 62
     7
100
AcDbLine
 10
1415.940797171085
 20
1942.641248854774
 30
0.0
 11
1415.940797171085
 21
1922.641248854772
 31
0.0
  0
LINE
  5
340
330
1F
100
AcDbEntity
  8
LAY-10
  6
CONTINUOUS
 62
     7
100
AcDbLine
 10
1441.640797171086
 20
1922.641248854772
 30
0.0
 11
1415.940797171085
 21
1922.641248854772
 31
0.0
  0
LINE
  5
341
330
1F
100
AcDbEntity
  8
LAY-10
  6
CONTINUOUS
 62
     7
100
AcDbLine
 10
1431.940797171083
 20
1917.641248854774
 30
0.0
 11
1431.940797171083
 21
1922.641248854772
 31
0.0
  0
LINE
  5
342
330
1F
100
AcDbEntity
  8
LAY-10
  6
CONTINUOUS
 62
     7
100
AcDbLine
 10
1425.940797171082
 20
1952.641248854772
 30
0.0
 11
1425.940797171082
 21
1942.641248854774
 31
0.0
  0
ARC
  5
343
330
1F
100
AcDbEntity
  8
LAY-10
  6
CONTINUOUS
 62
     7
100
AcDbCircle
 10
1425.940797171082
 20
1917.641248854774
 30
0.0
 40
6.000000000000006
100
AcDbArc
 50
270.0
 51
0.0
  0
ARC
  5
344
330
1F
100
AcDbEntity
  8
LAY-10
  6
CONTINUOUS
 62
     7
100
AcDbCircle
 10
1387.940797171085
 20
1911.641248854772
 30
0.0
 40
6.000000000000006
100
AcDbArc
 50
90.00000000000001
 51
180.0
  0
LINE
  5
345
330
1F
100
AcDbEntity
  8
LAY-10
  6
CONTINUOUS
 62
     7
100
AcDbLine
 10
1425.940797171082
 20
1917.641248854774
 30
0.0
 11
1387.940797171085
 21
1917.641248854772
 31
0.0
  0
LINE
  5
346
330
1F
100
AcDbEntity
  8
LAY-10
  6
CONTINUOUS
 62
     7
100
AcDbLine
 10
1425.940797171082
 20
1911.641248854773
 30
0.0
 11
1387.940797171085
 21
1911.641248854772
 31
0.0
  0
LINE
  5
347
330
1F
100
AcDbEntity
  8
LAY-10
  6
CONTINUOUS
 62
     7
100
AcDbLine
 10
1387.940797171085
 20
1867.641248854774
 30
0.0
 11
1387.940797171085
 21
1911.641248854772
 31
0.0
  0
LINE
  5
348
330
1F
100
AcDbEntity
  8
LAY-10
  6
CONTINUOUS
 62
     7
100
AcDbLine
 10
1381.940797171085
 20
1823.641248854772
 30
0.0
 11
1381.940797171085
 21
1911.641248854772
 31
0.0
  0
LINE
  5
349
330
1F
100
AcDbEntity
  8
LAY-10
  6
CONTINUOUS
 62
     7
100
AcDbLine
 10
1387.940797171085
 20
1867.641248854774
 30
0.0
 11
1387.940797171085
 21
1823.641248854772
 31
0.0
  0
ARC
  5
34A
330
1F
100
AcDbEntity
  8
LAY-10
  6
CONTINUOUS
 62
     7
100
AcDbCircle
 10
1387.940797171085
 20
1823.641248854772
 30
0.0
 40
6.000000000000006
100
AcDbArc
 50
180.0
 51
270.0
  0
LINE
  5
34B
330
1F
100
AcDbEntity
  8
LAY-10
  6
CONTINUOUS
 62
     7
100
AcDbLine
 10
1425.940797171082
 20
1823.641248854772
 30
0.0
 11
1387.940797171085
 21
1823.641248854772
 31
0.0
  0
ARC
  5
34C
330
1F
100
AcDbEntity
  8
LAY-10
  6
CONTINUOUS
 62
     7
100
AcDbCircle
 10
1425.940797171082
 20
1817.641248854774
 30
0.0
 40
6.000000000000006
100
AcDbArc
 50
0.0
 51
90.00000000000001
  0
LINE
  5
34D
330
1F
100
AcDbEntity
  8
LAY-10
  6
CONTINUOUS
 62
     7
100
AcDbLine
 10
1431.940797171083
 20
1817.641248854774
 30
0.0
 11
1431.940797171083
 21
1812.641248854773
 31
0.0
  0
LINE
  5
34E
330
1F
100
AcDbEntity
  8
LAY-10
  6
CONTINUOUS
 62
     7
100
AcDbLine
 10
1441.640797171086
 20
1812.641248854773
 30
0.0
 11
1415.940797171085
 21
1812.641248854773
 31
0.0
  0
LINE
  5
34F
330
1F
100
AcDbEntity
  8
LAY-10
  6
CONTINUOUS
 62
     7
100
AcDbLine
 10
1441.640797171086
 20
1792.641248854772
 30
0.0
 11
1441.640797171086
 21
1812.641248854773
 31
0.0
  0
LINE
  5
350
330
1F
100
AcDbEntity
  8
LAY-10
  6
CONTINUOUS
 62
     7
100
AcDbLine
 10
1425.940797171082
 20
1782.641248854774
 30
0.0
 11
1425.940797171082
 21
1792.641248854772
 31
0.0
  0
LINE
  5
351
330
1F
100
AcDbEntity
  8
LAY-10
  6
CONTINUOUS
 62
     7
100
AcDbLine
 10
1441.640797171086
 20
1792.641248854772
 30
0.0
 11
1415.940797171085
 21
1792.641248854772
 31
0.0
  0
LINE
  5
352
330
1F
100
AcDbEntity
  8
LAY-10
  6
CONTINUOUS
 62
     7
100
AcDbLine
 10
1415.940797171085
 20
1792.641248854772
 30
0.0
 11
1415.940797171085
 21
1812.641248854773
 31
0.0
  0
LINE
  5
353
330
1F
100
AcDbEntity
  8
LAY-10
  6
CONTINUOUS
 62
     7
100
AcDbLine
 10
1425.940797171082
 20
1817.641248854774
 30
0.0
 11
1387.940797171085
 21
1817.641248854772
 31
0.0
  0
LINE
  5
354
330
1F
100
AcDbEntity
  8
LAY-10
  6
CONTINUOUS
 62
     7
100
AcDbLine
 10
1431.940797171109
 20
1782.641248854774
 30
0.0
 11
1425.940797171082
 21
1782.641248854774
 31
0.0
  0
LINE
  5
355
330
1F
100
AcDbEntity
  8
LAY-10
  6
CONTINUOUS
 62
     7
100
AcDbLine
 10
1431.940797171083
 20
1942.641248854774
 30
0.0
 11
1431.940797171083
 21
1952.64124885479
 31
0.0
  0
LINE
  5
356
330
1F
100
AcDbEntity
  8
LAY-10
  6
CONTINUOUS
 62
     7
100
AcDbLine
 10
1566.940797171184
 20
1388.641248854856
 30
0.0
 11
1581.940797171187
 21
1373.641248854857
 31
0.0
  0
LINE
  5
357
330
1F
100
AcDbEntity
  8
LAY-10
  6
CONTINUOUS
 62
     7
100
AcDbLine
 10
1566.940797171184
 20
2346.641248854757
 30
0.0
 11
1581.940797171187
 21
2361.641248854755
 31
0.0
  0
LINE
  5
358
330
1F
100
AcDbEntity
  8
LAY-10
  6
CONTINUOUS
 62
     7
100
AcDbLine
 10
1566.940797171184
 20
2346.641248854757
 30
0.0
 11
1566.940797171184
 21
1388.641248854856
 31
0.0
  0
LINE
  5
359
330
1F
100
AcDbEntity
  8
LAY-10
  6
CONTINUOUS
 62
     7
100
AcDbLine
 10
1563.940797171209
 20
1428.641248854855
 30
0.0
 11
1563.940797171209
 21
2306.641248854753
 31
0.0
  0
LINE
  5
35A
330
1F
100
AcDbEntity
  8
LAY-10
  6
CONTINUOUS
 62
     7
100
AcDbLine
 10
1581.940797171187
 20
1373.641248854857
 30
0.0
 11
1581.940797171187
 21
2361.641248854755
 31
0.0
  0
LINE
  5
35B
330
1F
100
AcDbEntity
  8
LAY-10
  6
CONTINUOUS
 62
     7
100
AcDbLine
 10
1370.440797171323
 20
2361.641248854717
 30
0.0
 11
1370.440797171323
 21
2390.539733664554
 31
0.0
  0
LINE
  5
35C
330
1F
100
AcDbEntity
  8
LAY-10
  6
CONTINUOUS
 62
     7
100
AcDbLine
 10
1379.440797171324
 20
2361.641248854717
 30
0.0
 11
1379.440797171324
 21
2390.539733664554
 31
0.0
  0
LINE
  5
35D
330
1F
100
AcDbEntity
  8
LAY-10
  6
CONTINUOUS
 62
     7
100
AcDbLine
 10
1370.440797171323
 20
2390.539733664554
 30
0.0
 11
1379.440797171324
 21
2390.539733664554
 31
0.0
  0
LINE
  5
35E
330
1F
100
AcDbEntity
  8
LAY-10
  6
CONTINUOUS
 62
     7
100
AcDbLine
 10
667.9407971712671
 20
2361.641248854655
 30
0.0
 11
1581.940797171187
 21
2361.641248854755
 31
0.0
  0
LINE
  5
35F
330
1F
100
AcDbEntity
  8
LAY-10
  6
CONTINUOUS
 62
     7
100
AcDbLine
 10
1566.940797171184
 20
2346.641248854757
 30
0.0
 11
682.940797171269
 21
2346.641248854657
 31
0.0
  0
LINE
  5
360
330
1F
100
AcDbEntity
  8
LAY-10
  6
CONTINUOUS
 62
     7
100
AcDbLine
 10
1370.440797171323
 20
1373.641248854793
 30
0.0
 11
1370.440797171323
 21
1344.742764044956
 31
0.0
  0
LINE
  5
361
330
1F
100
AcDbEntity
  8
LAY-10
  6
CONTINUOUS
 62
     7
100
AcDbLine
 10
1379.440797171324
 20
1373.641248854793
 30
0.0
 11
1379.440797171324
 21
1344.742764044956
 31
0.0
  0
LINE
  5
362
330
1F
100
AcDbEntity
  8
LAY-10
  6
CONTINUOUS
 62
     7
100
AcDbLine
 10
1370.440797171323
 20
1344.742764044956
 30
0.0
 11
1379.440797171324
 21
1344.742764044956
 31
0.0
  0
LINE
  5
363
330
1F
100
AcDbEntity
  8
LAY-10
  6
CONTINUOUS
 62
     7
100
AcDbLine
 10
1566.940797171187
 20
1388.641248854854
 30
0.0
 11
682.940797171269
 21
1388.641248854756
 31
0.0
  0
LINE
  5
364
330
1F
100
AcDbEntity
  8
LAY-10
  6
CONTINUOUS
 62
     7
100
AcDbLine
 10
667.9407971712671
 20
1373.641248854756
 30
0.0
 11
1581.94079717119
 21
1373.641248854856
 31
0.0
  0
LINE
  5
365
330
1F
100
AcDbEntity
  8
LAY-10
  6
CONTINUOUS
 62
     7
100
AcDbLine
 10
783.9407971712776
 20
1404.641248854655
 30
0.0
 11
783.9407971712776
 21
2330.641248854561
 31
0.0
  0
LINE
  5
366
330
1F
100
AcDbEntity
  8
LAY-10
  6
CONTINUOUS
 62
     7
100
AcDbLine
 10
791.4407971712776
 20
1404.641248854655
 30
0.0
 11
791.4407971712776
 21
2330.641248854561
 31
0.0
  0
LINE
  5
367
330
1F
100
AcDbEntity
  8
LAY-10
  6
CONTINUOUS
 62
     7
100
AcDbLine
 10
816.4407971712799
 20
1404.641248854655
 30
0.0
 11
816.4407971712817
 21
2330.641248854561
 31
0.0
  0
LINE
  5
368
330
1F
100
AcDbEntity
  8
LAY-10
  6
CONTINUOUS
 62
     7
100
AcDbLine
 10
823.9407971712799
 20
1404.641248854655
 30
0.0
 11
823.9407971712817
 21
2330.641248854561
 31
0.0
  0
LINE
  5
369
330
1F
100
AcDbEntity
  8
LAY-10
  6
CONTINUOUS
 62
     7
100
AcDbLine
 10
698.9407971712685
 20
1404.641248854557
 30
0.0
 11
683.9407971712685
 21
1389.641248854555
 31
0.0
  0
LINE
  5
36A
330
1F
100
AcDbEntity
  8
LAY-10
  6
CONTINUOUS
 62
     7
100
AcDbLine
 10
730.9407971712667
 20
1436.641248854492
 30
0.0
 11
698.9407971712685
 21
1436.641248854492
 31
0.0
  0
LINE
  5
36B
330
1F
100
AcDbEntity
  8
LAY-10
  6
CONTINUOUS
 62
     7
100
AcDbLine
 10
730.9407971712653
 20
1436.641248854492
 30
0.0
 11
730.9407971712653
 21
1404.641248854494
 31
0.0
  0
LINE
  5
36C
330
1F
100
AcDbEntity
  8
LAY-10
  6
CONTINUOUS
 62
     7
100
AcDbLine
 10
730.9407971712653
 20
2298.64124885452
 30
0.0
 11
730.9407971712653
 21
2330.64124885452
 31
0.0
  0
LINE
  5
36D
330
1F
100
AcDbEntity
  8
LAY-10
  6
CONTINUOUS
 62
     7
100
AcDbLine
 10
730.9407971712667
 20
2298.64124885452
 30
0.0
 11
698.9407971712685
 21
2298.64124885452
 31
0.0
  0
LINE
  5
36E
330
1F
100
AcDbEntity
  8
LAY-10
  6
CONTINUOUS
 62
     7
100
AcDbLine
 10
683.9407971712652
 20
2345.641248854454
 30
0.0
 11
698.9407971712685
 21
2330.641248854454
 31
0.0
  0
LINE
  5
36F
330
1F
100
AcDbEntity
  8
LAY-10
  6
CONTINUOUS
 62
     7
100
AcDbLine
 10
683.9407971712685
 20
2345.641248854454
 30
0.0
 11
683.9407971712685
 21
1389.641248854555
 31
0.0
  0
LINE
  5
370
330
1F
100
AcDbEntity
  8
LAY-10
  6
CONTINUOUS
 62
     7
100
AcDbLine
 10
698.9407971712685
 20
2330.641248854454
 30
0.0
 11
698.9407971712685
 21
1404.641248854557
 31
0.0
  0
LINE
  5
371
330
1F
100
AcDbEntity
  8
LAY-10
  6
CONTINUOUS
 62
     7
100
AcDbLine
 10
1108.94079717101
 20
2330.641248854491
 30
0.0
 11
1123.94079717101
 21
2345.641248854491
 31
0.0
  0
LINE
  5
372
330
1F
100
AcDbEntity
  8
LAY-10
  6
CONTINUOUS
 62
     7
100
AcDbLine
 10
1123.940797171049
 20
2345.641248854506
 30
0.0
 11
683.9407971712652
 21
2345.641248854454
 31
0.0
  0
LINE
  5
373
330
1F
100
AcDbEntity
  8
LAY-10
  6
CONTINUOUS
 62
     7
100
AcDbLine
 10
1108.940797171016
 20
2330.641248854502
 30
0.0
 11
698.9407971712685
 21
2330.641248854502
 31
0.0
  0
LINE
  5
374
330
1F
100
AcDbEntity
  8
LAY-10
  6
CONTINUOUS
 62
     7
100
AcDbLine
 10
1172.940797170866
 20
2298.64124885452
 30
0.0
 11
1172.940797170866
 21
2330.64124885452
 31
0.0
  0
LINE
  5
375
330
1F
100
AcDbEntity
  8
LAY-10
  6
CONTINUOUS
 62
     7
100
AcDbLine
 10
1172.940797170867
 20
2298.64124885452
 30
0.0
 11
1140.940797170869
 21
2298.64124885452
 31
0.0
  0
LINE
  5
376
330
1F
100
AcDbEntity
  8
LAY-10
  6
CONTINUOUS
 62
     7
100
AcDbLine
 10
1125.940797170866
 20
2345.641248854454
 30
0.0
 11
1140.940797170869
 21
2330.641248854454
 31
0.0
  0
CIRCLE
  5
377
330
1F
100
AcDbEntity
  8
LAY-10
  6
CONTINUOUS
 62
     7
100
AcDbCircle
 10
714.9407971712194
 20
1420.64124885448
 30
0.0
 40
13.0
  0
LINE
  5
378
330
1F
100
AcDbEntity
  8
LAY-10
  6
CONTINUOUS
 62
     7
100
AcDbLine
 10
714.9407971712685
 20
1424.641248854503
 30
0.0
 11
721.4407971712694
 21
1420.641248854503
 31
0.0
  0
LINE
  5
379
330
1F
100
AcDbEntity
  8
LAY-10
  6
CONTINUOUS
 62
     7
100
AcDbLine
 10
708.4407971712685
 20
1420.641248854503
 30
0.0
 11
714.9407971712685
 21
1424.641248854503
 31
0.0
  0
LINE
  5
37A
330
1F
100
AcDbEntity
  8
LAY-10
  6
CONTINUOUS
 62
     7
100
AcDbLine
 10
714.9407971712685
 20
1416.641248854503
 30
0.0
 11
708.4407971712685
 21
1420.641248854503
 31
0.0
  0
LINE
  5
37B
330
1F
100
AcDbEntity
  8
LAY-10
  6
CONTINUOUS
 62
     7
100
AcDbLine
 10
721.4407971712694
 20
1420.641248854503
 30
0.0
 11
714.9407971712685
 21
1416.641248854503
 31
0.0
  0
ARC
  5
37C
330
1F
100
AcDbEntity
  8
LAY-10
  6
CONTINUOUS
 62
     7
100
AcDbCircle
 10
714.9407971712685
 20
1420.641248854503
 30
0.0
 40
12.75000000000001
100
AcDbArc
 50
288.2838899404034
 51
251.7161100595966
  0
LINE
  5
37D
330
1F
100
AcDbEntity
  8
LAY-10
  6
CONTINUOUS
 62
     7
100
AcDbLine
 10
710.9407971712694
 20
1410.141248854502
 30
0.0
 11
718.9407971712667
 21
1410.141248854502
 31
0.0
  0
LINE
  5
37E
330
1F
100
AcDbEntity
  8
LAY-10
  6
CONTINUOUS
 62
     7
100
AcDbLine
 10
710.9407971712694
 20
1410.141248854502
 30
0.0
 11
710.9407971712694
 21
1408.534948841698
 31
0.0
  0
LINE
  5
37F
330
1F
100
AcDbEntity
  8
LAY-10
  6
CONTINUOUS
 62
     7
100
AcDbLine
 10
718.9407971712667
 20
1410.141248854502
 30
0.0
 11
718.9407971712667
 21
1408.534948841698
 31
0.0
  0
CIRCLE
  5
380
330
1F
100
AcDbEntity
  8
LAY-10
  6
CONTINUOUS
 62
     7
100
AcDbCircle
 10
714.9407971713206
 20
2314.64124885451
 30
0.0
 40
13.0
  0
LINE
  5
381
330
1F
100
AcDbEntity
  8
LAY-10
  6
CONTINUOUS
 62
     7
100
AcDbLine
 10
714.9407971712716
 20
2310.641248854487
 30
0.0
 11
708.4407971712707
 21
2314.641248854487
 31
0.0
  0
LINE
  5
382
330
1F
100
AcDbEntity
  8
LAY-10
  6
CONTINUOUS
 62
     7
100
AcDbLine
 10
721.4407971712715
 20
2314.641248854487
 30
0.0
 11
714.9407971712716
 21
2310.641248854487
 31
0.0
  0
LINE
  5
383
330
1F
100
AcDbEntity
  8
LAY-10
  6
CONTINUOUS
 62
     7
100
AcDbLine
 10
714.9407971712716
 20
2318.641248854487
 30
0.0
 11
721.4407971712715
 21
2314.641248854487
 31
0.0
  0
LINE
  5
384
330
1F
100
AcDbEntity
  8
LAY-10
  6
CONTINUOUS
 62
     7
100
AcDbLine
 10
708.4407971712707
 20
2314.641248854487
 30
0.0
 11
714.9407971712716
 21
2318.641248854487
 31
0.0
  0
ARC
  5
385
330
1F
100
AcDbEntity
  8
LAY-10
  6
CONTINUOUS
 62
     7
100
AcDbCircle
 10
714.9407971712716
 20
2314.641248854487
 30
0.0
 40
12.75000000000001
100
AcDbArc
 50
108.2838899404034
 51
71.71611005959663
  0
LINE
  5
386
330
1F
100
AcDbEntity
  8
LAY-10
  6
CONTINUOUS
 62
     7
100
AcDbLine
 10
718.9407971712707
 20
2325.141248854488
 30
0.0
 11
710.9407971712734
 21
2325.141248854488
 31
0.0
  0
LINE
  5
387
330
1F
100
AcDbEntity
  8
LAY-10
  6
CONTINUOUS
 62
     7
100
AcDbLine
 10
718.9407971712707
 20
2325.141248854488
 30
0.0
 11
718.9407971712707
 21
2326.747548867291
 31
0.0
  0
LINE
  5
388
330
1F
100
AcDbEntity
  8
LAY-10
  6
CONTINUOUS
 62
     7
100
AcDbLine
 10
710.9407971712734
 20
2325.141248854488
 30
0.0
 11
710.9407971712734
 21
2326.747548867291
 31
0.0
  0
CIRCLE
  5
389
330
1F
100
AcDbEntity
  8
LAY-10
  6
CONTINUOUS
 62
     7
100
AcDbCircle
 10
1156.940797170921
 20
2314.64124885451
 30
0.0
 40
13.0
  0
LINE
  5
38A
330
1F
100
AcDbEntity
  8
LAY-10
  6
CONTINUOUS
 62
     7
100
AcDbLine
 10
1156.940797170872
 20
2310.641248854487
 30
0.0
 11
1150.440797170871
 21
2314.641248854487
 31
0.0
  0
LINE
  5
38B
330
1F
100
AcDbEntity
  8
LAY-10
  6
CONTINUOUS
 62
     7
100
AcDbLine
 10
1163.440797170872
 20
2314.641248854487
 30
0.0
 11
1156.940797170872
 21
2310.641248854487
 31
0.0
  0
LINE
  5
38C
330
1F
100
AcDbEntity
  8
LAY-10
  6
CONTINUOUS
 62
     7
100
AcDbLine
 10
1156.940797170872
 20
2318.641248854487
 30
0.0
 11
1163.440797170872
 21
2314.641248854487
 31
0.0
  0
LINE
  5
38D
330
1F
100
AcDbEntity
  8
LAY-10
  6
CONTINUOUS
 62
     7
100
AcDbLine
 10
1150.440797170871
 20
2314.641248854487
 30
0.0
 11
1156.940797170872
 21
2318.641248854487
 31
0.0
  0
ARC
  5
38E
330
1F
100
AcDbEntity
  8
LAY-10
  6
CONTINUOUS
 62
     7
100
AcDbCircle
 10
1156.940797170872
 20
2314.641248854487
 30
0.0
 40
12.75000000000001
100
AcDbArc
 50
108.2838899404034
 51
71.71611005959663
  0
LINE
  5
38F
330
1F
100
AcDbEntity
  8
LAY-10
  6
CONTINUOUS
 62
     7
100
AcDbLine
 10
1160.940797170871
 20
2325.141248854488
 30
0.0
 11
1152.940797170873
 21
2325.141248854488
 31
0.0
  0
LINE
  5
390
330
1F
100
AcDbEntity
  8
LAY-10
  6
CONTINUOUS
 62
     7
100
AcDbLine
 10
1160.940797170871
 20
2325.141248854488
 30
0.0
 11
1160.940797170871
 21
2326.747548867291
 31
0.0
  0
LINE
  5
391
330
1F
100
AcDbEntity
  8
LAY-10
  6
CONTINUOUS
 62
     7
100
AcDbLine
 10
1152.940797170873
 20
2325.141248854488
 30
0.0
 11
1152.940797170873
 21
2326.747548867291
 31
0.0
  0
LINE
  5
392
330
1F
100
AcDbEntity
  8
LAY-10
  6
CONTINUOUS
 62
     7
100
AcDbLine
 10
2104.397537416107
 20
1952.641248854804
 30
0.0
 11
2110.397537416107
 21
1952.641248854804
 31
0.0
  0
LINE
  5
393
330
1F
100
AcDbEntity
  8
LAY-10
  6
CONTINUOUS
 62
     7
100
AcDbLine
 10
2104.397537416107
 20
1782.341248854802
 30
0.0
 11
2110.397537416107
 21
1782.341248854802
 31
0.0
  0
LINE
  5
394
330
1F
100
AcDbEntity
  8
LAY-10
  6
CONTINUOUS
 62
     7
100
AcDbLine
 10
2102.397537416106
 20
1922.641248854804
 30
0.0
 11
2110.397537416107
 21
1922.641248854804
 31
0.0
  0
LINE
  5
395
330
1F
100
AcDbEntity
  8
LAY-10
  6
CONTINUOUS
 62
     7
100
AcDbLine
 10
2102.397537416106
 20
1942.641248854801
 30
0.0
 11
2102.397537416106
 21
1922.641248854804
 31
0.0
  0
LINE
  5
396
330
1F
100
AcDbEntity
  8
LAY-10
  6
CONTINUOUS
 62
     7
100
AcDbLine
 10
2102.397537416106
 20
1812.641248854804
 30
0.0
 11
2102.397537416106
 21
1792.641248854801
 31
0.0
  0
LINE
  5
397
330
1F
100
AcDbEntity
  8
LAY-10
  6
CONTINUOUS
 62
     7
100
AcDbLine
 10
2104.397537416107
 20
1952.641248854804
 30
0.0
 11
2104.397537416107
 21
1942.641248854801
 31
0.0
  0
LINE
  5
398
330
1F
100
AcDbEntity
  8
LAY-10
  6
CONTINUOUS
 62
     7
100
AcDbLine
 10
2104.397537416107
 20
1922.641248854804
 30
0.0
 11
2104.397537416107
 21
1812.641248854804
 31
0.0
  0
LINE
  5
399
330
1F
100
AcDbEntity
  8
LAY-10
  6
CONTINUOUS
 62
     7
100
AcDbLine
 10
2104.397537416107
 20
1792.641248854801
 30
0.0
 11
2104.397537416107
 21
1782.341248854802
 31
0.0
  0
LINE
  5
39A
330
1F
100
AcDbEntity
  8
LAY-10
  6
CONTINUOUS
 62
     7
100
AcDbLine
 10
2102.397537416106
 20
1812.641248854804
 30
0.0
 11
2110.397537416107
 21
1812.641248854804
 31
0.0
  0
LINE
  5
39B
330
1F
100
AcDbEntity
  8
LAY-10
  6
CONTINUOUS
 62
     7
100
AcDbLine
 10
2102.397537416106
 20
1792.641248854801
 30
0.0
 11
2110.397537416107
 21
1792.641248854801
 31
0.0
  0
LINE
  5
39C
330
1F
100
AcDbEntity
  8
LAY-10
  6
CONTINUOUS
 62
     7
100
AcDbLine
 10
2102.397537416106
 20
1942.641248854801
 30
0.0
 11
2110.397537416107
 21
1942.641248854801
 31
0.0
  0
ARC
  5
39D
330
1F
100
AcDbEntity
  8
LAY-10
  6
CONTINUOUS
 62
     7
100
AcDbCircle
 10
2107.397537416106
 20
1914.641248854803
 30
0.0
 40
3.000000000000003
100
AcDbArc
 50
180.0
 51
270.0
  0
ARC
  5
39E
330
1F
100
AcDbEntity
  8
LAY-10
  6
CONTINUOUS
 62
     7
100
AcDbCircle
 10
2107.397537416106
 20
1914.641248854803
 30
0.0
 40
3.000000000000003
100
AcDbArc
 50
270.0
 51
0.0
  0
ARC
  5
39F
330
1F
100
AcDbEntity
  8
LAY-10
  6
CONTINUOUS
 62
     7
100
AcDbCircle
 10
2107.397537416106
 20
1820.641248854801
 30
0.0
 40
3.000000000000003
100
AcDbArc
 50
90.00000000000001
 51
180.0
  0
ARC
  5
3A0
330
1F
100
AcDbEntity
  8
LAY-10
  6
CONTINUOUS
 62
     7
100
AcDbCircle
 10
2107.397537416106
 20
1820.641248854801
 30
0.0
 40
3.000000000000003
100
AcDbArc
 50
0.0
 51
90.00000000000001
  0
LINE
  5
3A1
330
1F
100
AcDbEntity
  8
LAY-10
  6
CONTINUOUS
 62
     7
100
AcDbLine
 10
2109.397537416107
 20
1922.641248854804
 30
0.0
 11
2109.397537416107
 21
1942.641248854801
 31
0.0
  0
LINE
  5
3A2
330
1F
100
AcDbEntity
  8
LAY-10
  6
CONTINUOUS
 62
     7
100
AcDbLine
 10
2109.397537416107
 20
1792.641248854801
 30
0.0
 11
2109.397537416107
 21
1812.641248854804
 31
0.0
  0
LINE
  5
3A3
330
1F
100
AcDbEntity
  8
LAY-10
  6
CONTINUOUS
 62
     7
100
AcDbLine
 10
2075.997537416112
 20
1388.641248854707
 30
0.0
 11
2075.997537416112
 21
1464.641248854688
 31
0.0
  0
LINE
  5
3A4
330
1F
100
AcDbEntity
  8
LAY-10
  6
CONTINUOUS
 62
     7
100
AcDbLine
 10
2073.997537416059
 20
1464.641248854688
 30
0.0
 11
2092.997537416035
 21
1464.641248854688
 31
0.0
  0
LINE
  5
3A5
330
1F
100
AcDbEntity
  8
LAY-10
  6
CONTINUOUS
 62
     7
100
AcDbLine
 10
2028.797537416086
 20
1404.641248854657
 30
0.0
 11
2060.797537416093
 21
1404.641248854657
 31
0.0
  0
LINE
  5
3A6
330
1F
100
AcDbEntity
  8
LAY-10
  6
CONTINUOUS
 62
     7
100
AcDbLine
 10
2025.797537416086
 20
1436.641248854648
 30
0.0
 11
2060.797537416093
 21
1436.641248854648
 31
0.0
  0
LINE
  5
3A7
330
1F
100
AcDbEntity
  8
LAY-10
  6
CONTINUOUS
 62
     7
100
AcDbLine
 10
2067.797537416086
 20
1395.841248854658
 30
0.0
 11
2070.797537416086
 21
1398.841248854656
 31
0.0
  0
LINE
  5
3A8
330
1F
100
AcDbEntity
  8
LAY-10
  6
CONTINUOUS
 62
     7
100
AcDbLine
 10
2040.797537416087
 20
1389.641248854655
 30
0.0
 11
2040.797537416087
 21
1392.641248854654
 31
0.0
  0
LINE
  5
3A9
330
1F
100
AcDbEntity
  8
LAY-10
  6
CONTINUOUS
 62
     7
100
AcDbLine
 10
2025.797537416086
 20
1404.641248854655
 30
0.0
 11
2028.797537416086
 21
1404.641248854655
 31
0.0
  0
LINE
  5
3AA
330
1F
100
AcDbEntity
  8
LAY-10
  6
CONTINUOUS
 62
     7
100
AcDbLine
 10
2028.797537416086
 20
1392.641248854654
 30
0.0
 11
2028.797537416086
 21
1404.641248854655
 31
0.0
  0
LINE
  5
3AB
330
1F
100
AcDbEntity
  8
LAY-10
  6
CONTINUOUS
 62
     7
100
AcDbLine
 10
2025.797537416086
 20
1389.641248854655
 30
0.0
 11
2040.797537416087
 21
1389.641248854655
 31
0.0
  0
LINE
  5
3AC
330
1F
100
AcDbEntity
  8
LAY-10
  6
CONTINUOUS
 62
     7
100
AcDbLine
 10
2028.797537416086
 20
1392.641248854654
 30
0.0
 11
2067.997537416083
 21
1392.641248854654
 31
0.0
  0
ARC
  5
3AD
330
1F
100
AcDbEntity
  8
LAY-10
  6
CONTINUOUS
 62
     7
100
AcDbCircle
 10
2067.997537416083
 20
1398.641248854656
 30
0.0
 40
6.000000000000006
100
AcDbArc
 50
270.0000000000002
 51
1.909152432987542
  0
ARC
  5
3AE
330
1F
100
AcDbEntity
  8
LAY-10
  6
CONTINUOUS
 62
     7
100
AcDbCircle
 10
2067.797537416086
 20
1398.841248854655
 30
0.0
 40
3.000000000000003
100
AcDbArc
 50
270.0000000000002
 51
0.0
  0
LINE
  5
3AF
330
1F
100
AcDbEntity
  8
LAY-10
  6
CONTINUOUS
 62
     7
100
AcDbLine
 10
2028.797537416086
 20
1395.841248854656
 30
0.0
 11
2067.797537416086
 21
1395.841248854656
 31
0.0
  0
LINE
  5
3B0
330
1F
100
AcDbEntity
  8
LAY-10
  6
CONTINUOUS
 62
     7
100
AcDbLine
 10
2028.797537416108
 20
1385.641248854708
 30
0.0
 11
2072.997537416105
 21
1385.641248854708
 31
0.0
  0
LINE
  5
3B1
330
1F
100
AcDbEntity
  8
LAY-10
  6
CONTINUOUS
 62
     7
100
AcDbLine
 10
2073.19753741611
 20
1382.441248854707
 30
0.0
 11
2028.797537416108
 21
1382.441248854707
 31
0.0
  0
LINE
  5
3B2
330
1F
100
AcDbEntity
  8
LAY-10
  6
CONTINUOUS
 62
     7
100
AcDbLine
 10
2122.597537416111
 20
1465.641248854708
 30
0.0
 11
2113.597537416111
 21
1465.641248854708
 31
0.0
  0
LINE
  5
3B3
330
1F
100
AcDbEntity
  8
LAY-10
  6
CONTINUOUS
 62
     7
100
AcDbLine
 10
2125.797537416108
 20
1468.4412488547
 30
0.0
 11
2125.797537416108
 21
1446.641248854708
 31
0.0
  0
ARC
  5
3B4
330
1F
100
AcDbEntity
  8
LAY-10
  6
CONTINUOUS
 62
     7
100
AcDbCircle
 10
2125.597537416103
 20
1468.641248854708
 30
0.0
 40
3.000000000000003
100
AcDbArc
 50
90.00000000000001
 51
180.0
  0
ELLIPSE
  5
3B5
330
1F
100
AcDbEntity
  8
LAY-10
  6
CONTINUOUS
 62
     7
100
AcDbEllipse
 10
2118.080870749405
 20
1456.721248854709
 30
0.0
 11
-2.224197421612838E-15
 21
5.80947501931002
 31
0.0
210
0.0
220
0.0
230
1.0
 40
0.7745966692416307
 41
0.0
 42
6.283185307179586
  0
LINE
  5
3B6
330
1F
100
AcDbEntity
  8
LAY-10
  6
CONTINUOUS
 62
     7
100
AcDbLine
 10
2075.997537416112
 20
1397.641248854707
 30
0.0
 11
2073.997537416105
 21
1397.641248854707
 31
0.0
  0
LINE
  5
3B7
330
1F
100
AcDbEntity
  8
LAY-10
  6
CONTINUOUS
 62
     7
100
AcDbLine
 10
2075.997537416112
 20
1422.641248854707
 30
0.0
 11
2073.997537416105
 21
1422.641248854707
 31
0.0
  0
LINE
  5
3B8
330
1F
100
AcDbEntity
  8
LAY-10
  6
CONTINUOUS
 62
     7
100
AcDbLine
 10
2128.137537416105
 20
1450.641248854709
 30
0.0
 11
2125.797537416108
 21
1452.921248854709
 31
0.0
  0
LINE
  5
3B9
330
1F
100
AcDbEntity
  8
LAY-10
  6
CONTINUOUS
 62
     7
100
AcDbLine
 10
2125.797537416108
 20
1450.641248854708
 30
0.0
 11
2131.493537416104
 21
1450.641248854708
 31
0.0
  0
ARC
  5
3BA
330
1F
100
AcDbEntity
  8
LAY-10
  6
CONTINUOUS
 62
     7
100
AcDbCircle
 10
2127.406616961559
 20
1433.141248854707
 30
0.0
 40
4.790920454545454
100
AcDbArc
 50
328.5455606612261
 51
31.45443933877633
  0
ARC
  5
3BB
330
1F
100
AcDbEntity
  8
LAY-10
  6
CONTINUOUS
 62
     7
100
AcDbCircle
 10
2127.406616961559
 20
1448.141248854707
 30
0.0
 40
4.790920454545454
100
AcDbArc
 50
328.5455606612311
 51
31.45443933877633
  0
LINE
  5
3BC
330
1F
100
AcDbEntity
  8
LAY-10
  6
CONTINUOUS
 62
     7
100
AcDbLine
 10
2132.19753741611
 20
1433.141248854707
 30
0.0
 11
2132.19753741611
 21
1448.141248854707
 31
0.0
  0
ARC
  5
3BD
330
1F
100
AcDbEntity
  8
LAY-10
  6
CONTINUOUS
 62
     7
100
AcDbCircle
 10
2114.089855597926
 20
1440.641248854708
 30
0.0
 40
18.10768181818181
100
AcDbArc
 50
343.9708781133894
 51
16.02912188661214
  0
LINE
  5
3BE
330
1F
100
AcDbEntity
  8
LAY-10
  6
CONTINUOUS
 62
     7
100
AcDbLine
 10
2125.797537416108
 20
1428.301248854709
 30
0.0
 11
2128.077537416107
 21
1430.641248854708
 31
0.0
  0
LINE
  5
3BF
330
1F
100
AcDbEntity
  8
LAY-10
  6
CONTINUOUS
 62
     7
100
AcDbLine
 10
2125.797537416108
 20
1430.641248854708
 30
0.0
 11
2131.493537416104
 21
1430.641248854708
 31
0.0
  0
LINE
  5
3C0
330
1F
100
AcDbEntity
  8
LAY-10
  6
CONTINUOUS
 62
     7
100
AcDbLine
 10
2125.797537416108
 20
1450.641248854708
 30
0.0
 11
2125.797537416108
 21
1430.641248854708
 31
0.0
  0
LINE
  5
3C1
330
1F
100
AcDbEntity
  8
LAY-10
  6
CONTINUOUS
 62
     7
100
AcDbLine
 10
2120.797537416108
 20
1445.641248854707
 30
0.0
 11
2120.797537416108
 21
1435.641248854708
 31
0.0
  0
LINE
  5
3C2
330
1F
100
AcDbEntity
  8
LAY-10
  6
CONTINUOUS
 62
     7
100
AcDbLine
 10
2131.493537416104
 20
1445.641248854707
 30
0.0
 11
2110.397537416107
 21
1445.641248854707
 31
0.0
  0
LINE
  5
3C3
330
1F
100
AcDbEntity
  8
LAY-10
  6
CONTINUOUS
 62
     7
100
AcDbLine
 10
2131.493537416104
 20
1435.641248854708
 30
0.0
 11
2110.397537416107
 21
1435.641248854708
 31
0.0
  0
LINE
  5
3C4
330
1F
100
AcDbEntity
  8
LAY-10
  6
CONTINUOUS
 62
     7
100
AcDbLine
 10
2108.397537416107
 20
1435.641248854708
 30
0.0
 11
2100.921537416112
 21
1435.641248854708
 31
0.0
  0
LINE
  5
3C5
330
1F
100
AcDbEntity
  8
LAY-10
  6
CONTINUOUS
 62
     7
100
AcDbLine
 10
2108.397537416107
 20
1445.641248854707
 30
0.0
 11
2100.921537416112
 21
1445.641248854707
 31
0.0
  0
LINE
  5
3C6
330
1F
100
AcDbEntity
  8
LAY-10
  6
CONTINUOUS
 62
     7
100
AcDbLine
 10
2099.997537416105
 20
1435.641248854708
 30
0.0
 11
2096.797537416108
 21
1435.641248854708
 31
0.0
  0
LINE
  5
3C7
330
1F
100
AcDbEntity
  8
LAY-10
  6
CONTINUOUS
 62
     7
100
AcDbLine
 10
2099.997537416105
 20
1445.641248854707
 30
0.0
 11
2096.797537416108
 21
1445.641248854707
 31
0.0
  0
LINE
  5
3C8
330
1F
100
AcDbEntity
  8
LAY-10
  6
CONTINUOUS
 62
     7
100
AcDbLine
 10
2096.797537416108
 20
1445.641248854707
 30
0.0
 11
2095.797537416108
 21
1444.641248854708
 31
0.0
  0
LINE
  5
3C9
330
1F
100
AcDbEntity
  8
LAY-10
  6
CONTINUOUS
 62
     7
100
AcDbLine
 10
2096.797537416108
 20
1435.641248854708
 30
0.0
 11
2095.797537416108
 21
1436.641248854708
 31
0.0
  0
LINE
  5
3CA
330
1F
100
AcDbEntity
  8
LAY-10
  6
CONTINUOUS
 62
     7
100
AcDbLine
 10
2121.997537416106
 20
1420.041248854709
 30
0.0
 11
2124.64646220108
 21
1423.078733851688
 31
0.0
  0
LINE
  5
3CB
330
1F
100
AcDbEntity
  8
LAY-10
  6
CONTINUOUS
 62
     7
100
AcDbLine
 10
2088.657537416108
 20
1422.441248854707
 30
0.0
 11
2090.997537416105
 21
1420.161248854706
 31
0.0
  0
LINE
  5
3CC
330
1F
100
AcDbEntity
  8
LAY-10
  6
CONTINUOUS
 62
     7
100
AcDbLine
 10
2090.997537416105
 20
1386.441248854707
 30
0.0
 11
2090.997537416105
 21
1422.441248854707
 31
0.0
  0
LINE
  5
3CD
330
1F
100
AcDbEntity
  8
LAY-10
  6
CONTINUOUS
 62
     7
100
AcDbLine
 10
2121.997537416106
 20
1386.441248854707
 30
0.0
 11
2121.997537416106
 21
1422.441248854707
 31
0.0
  0
LINE
  5
3CE
330
1F
100
AcDbEntity
  8
LAY-10
  6
CONTINUOUS
 62
     7
100
AcDbLine
 10
2090.997537416105
 20
1386.441248854707
 30
0.0
 11
2121.997537416106
 21
1386.441248854707
 31
0.0
  0
LINE
  5
3CF
330
1F
100
AcDbEntity
  8
LAY-10
  6
CONTINUOUS
 62
     7
100
AcDbLine
 10
2116.896022225946
 20
1344.742764044872
 30
0.0
 11
2122.552876475432
 21
1350.399618294364
 31
0.0
  0
LINE
  5
3D0
330
1F
100
AcDbEntity
  8
LAY-10
  6
CONTINUOUS
 62
     7
100
AcDbLine
 10
2122.552876475432
 20
1350.399618294364
 30
0.0
 11
2087.19753741611
 21
1385.754957353691
 31
0.0
  0
LINE
  5
3D1
330
1F
100
AcDbEntity
  8
LAY-10
  6
CONTINUOUS
 62
     7
100
AcDbLine
 10
2087.19753741611
 20
1385.754957353691
 30
0.0
 11
2087.19753741611
 21
1415.754957353692
 31
0.0
  0
LINE
  5
3D2
330
1F
100
AcDbEntity
  8
LAY-10
  6
CONTINUOUS
 62
     7
100
AcDbLine
 10
2087.19753741611
 20
1415.754957353692
 30
0.0
 11
2079.197537416109
 21
1415.754957353692
 31
0.0
  0
ARC
  5
3D3
330
1F
100
AcDbEntity
  8
LAY-10
  6
CONTINUOUS
 62
     7
100
AcDbCircle
 10
2087.19753741611
 20
1385.754957353691
 30
0.0
 40
8.0
100
AcDbArc
 50
180.0
 51
224.9999999999945
  0
LINE
  5
3D4
330
1F
100
AcDbEntity
  8
LAY-10
  6
CONTINUOUS
 62
     7
100
AcDbLine
 10
2116.896022225946
 20
1344.742764044872
 30
0.0
 11
2081.540683166616
 21
1380.098103104201
 31
0.0
  0
LINE
  5
3D5
330
1F
100
AcDbEntity
  8
LAY-10
  6
CONTINUOUS
 62
     7
100
AcDbLine
 10
2078.997537416106
 20
1425.641248854708
 30
0.0
 11
2122.597537416111
 21
1425.641248854708
 31
0.0
  0
LINE
  5
3D6
330
1F
100
AcDbEntity
  8
LAY-10
  6
CONTINUOUS
 62
     7
100
AcDbLine
 10
2079.197537416109
 20
1422.441248854707
 30
0.0
 11
2122.797537416108
 21
1422.441248854707
 31
0.0
  0
LINE
  5
3D7
330
1F
100
AcDbEntity
  8
LAY-10
  6
CONTINUOUS
 62
     7
100
AcDbLine
 10
2122.597537416111
 20
1445.641248854707
 30
0.0
 11
2122.597537416111
 21
1475.641248854708
 31
0.0
  0
LINE
  5
3D8
330
1F
100
AcDbEntity
  8
LAY-10
  6
CONTINUOUS
 62
     7
100
AcDbLine
 10
2122.597537416103
 20
1462.641248854708
 30
0.0
 11
2113.597537416104
 21
1462.641248854708
 31
0.0
  0
LINE
  5
3D9
330
1F
100
AcDbEntity
  8
LAY-10
  6
CONTINUOUS
 62
     7
100
AcDbLine
 10
2079.197537416109
 20
1388.441248854706
 30
0.0
 11
2079.197537416109
 21
1385.754957353691
 31
0.0
  0
ARC
  5
3DA
330
1F
100
AcDbEntity
  8
LAY-10
  6
CONTINUOUS
 62
     7
100
AcDbCircle
 10
2078.997537416106
 20
1422.641248854707
 30
0.0
 40
3.000000000000003
100
AcDbArc
 50
90.00000000000001
 51
180.0
  0
ARC
  5
3DB
330
1F
100
AcDbEntity
  8
LAY-10
  6
CONTINUOUS
 62
     7
100
AcDbCircle
 10
2073.19753741611
 20
1388.441248854706
 30
0.0
 40
6.000000000000006
100
AcDbArc
 50
270.0000000000002
 51
0.0
  0
ARC
  5
3DC
330
1F
100
AcDbEntity
  8
LAY-10
  6
CONTINUOUS
 62
     7
100
AcDbCircle
 10
2072.997537416105
 20
1388.641248854707
 30
0.0
 40
3.000000000000003
100
AcDbArc
 50
270.0000000000002
 51
0.0
  0
LINE
  5
3DD
330
1F
100
AcDbEntity
  8
LAY-10
  6
CONTINUOUS
 62
     7
100
AcDbLine
 10
2079.197537416109
 20
1388.441248854706
 30
0.0
 11
2079.197537416109
 21
1422.441248854707
 31
0.0
  0
ARC
  5
3DE
330
1F
100
AcDbEntity
  8
LAY-10
  6
CONTINUOUS
 62
     7
100
AcDbCircle
 10
2113.397537416106
 20
1431.641248854707
 30
0.0
 40
3.000000000000003
100
AcDbArc
 50
180.0
 51
270.0000000000002
  0
LINE
  5
3DF
330
1F
100
AcDbEntity
  8
LAY-10
  6
CONTINUOUS
 62
     7
100
AcDbLine
 10
2113.597537416111
 20
1434.641248854708
 30
0.0
 11
2113.597537416111
 21
1435.641248854708
 31
0.0
  0
ARC
  5
3E0
330
1F
100
AcDbEntity
  8
LAY-10
  6
CONTINUOUS
 62
     7
100
AcDbCircle
 10
2122.797537416108
 20
1425.441248854707
 30
0.0
 40
3.000000000000003
100
AcDbArc
 50
270.0000000000002
 51
0.0
  0
LINE
  5
3E1
330
1F
100
AcDbEntity
  8
LAY-10
  6
CONTINUOUS
 62
     7
100
AcDbLine
 10
2125.797537416108
 20
1434.641248854708
 30
0.0
 11
2125.797537416108
 21
1425.441248854707
 31
0.0
  0
LINE
  5
3E2
330
1F
100
AcDbEntity
  8
LAY-10
  6
CONTINUOUS
 62
     7
100
AcDbLine
 10
2122.597537416111
 20
1429.741248854707
 30
0.0
 11
2122.597537416111
 21
1425.641248854708
 31
0.0
  0
LINE
  5
3E3
330
1F
100
AcDbEntity
  8
LAY-10
  6
CONTINUOUS
 62
     7
100
AcDbLine
 10
2122.597537416111
 20
1431.641248854707
 30
0.0
 11
2113.597537416111
 21
1431.641248854707
 31
0.0
  0
LINE
  5
3E4
330
1F
100
AcDbEntity
  8
LAY-10
  6
CONTINUOUS
 62
     7
100
AcDbLine
 10
2122.597537416111
 20
1428.641248854708
 30
0.0
 11
2113.397537416106
 21
1428.641248854708
 31
0.0
  0
LINE
  5
3E5
330
1F
100
AcDbEntity
  8
LAY-10
  6
CONTINUOUS
 62
     7
100
AcDbLine
 10
2122.597537416111
 20
1435.641248854708
 30
0.0
 11
2122.597537416111
 21
1428.641248854708
 31
0.0
  0
LINE
  5
3E6
330
1F
100
AcDbEntity
  8
LAY-10
  6
CONTINUOUS
 62
     7
100
AcDbLine
 10
2113.597537416111
 20
1434.641248854708
 30
0.0
 11
2113.597537416111
 21
1431.641248854707
 31
0.0
  0
LINE
  5
3E7
330
1F
100
AcDbEntity
  8
LAY-10
  6
CONTINUOUS
 62
     7
100
AcDbLine
 10
2113.597537416111
 20
1434.641248854708
 30
0.0
 11
2110.397537416107
 21
1434.641248854708
 31
0.0
  0
LINE
  5
3E8
330
1F
100
AcDbEntity
  8
LAY-10
  6
CONTINUOUS
 62
     7
100
AcDbLine
 10
2113.597537416111
 20
1446.641248854708
 30
0.0
 11
2110.397537416107
 21
1446.641248854708
 31
0.0
  0
LINE
  5
3E9
330
1F
100
AcDbEntity
  8
LAY-10
  6
CONTINUOUS
 62
     7
100
AcDbLine
 10
2122.597537416111
 20
1434.641248854708
 30
0.0
 11
2125.797537416108
 21
1434.641248854708
 31
0.0
  0
LINE
  5
3EA
330
1F
100
AcDbEntity
  8
LAY-10
  6
CONTINUOUS
 62
     7
100
AcDbLine
 10
2122.597537416111
 20
1446.641248854708
 30
0.0
 11
2125.797537416108
 21
1446.641248854708
 31
0.0
  0
LINE
  5
3EB
330
1F
100
AcDbEntity
  8
LAY-10
  6
CONTINUOUS
 62
     7
100
AcDbLine
 10
2075.997537416112
 20
2270.641248854291
 30
0.0
 11
2075.997537416112
 21
2346.641248854706
 31
0.0
  0
LINE
  5
3EC
330
1F
100
AcDbEntity
  8
LAY-10
  6
CONTINUOUS
 62
     7
100
AcDbLine
 10
2073.997537416059
 20
2270.641248854291
 30
0.0
 11
2092.997537416035
 21
2270.641248854291
 31
0.0
  0
LINE
  5
3ED
330
1F
100
AcDbEntity
  8
LAY-10
  6
CONTINUOUS
 62
     7
100
AcDbLine
 10
2028.797537416086
 20
2330.641248854753
 30
0.0
 11
2060.797537416093
 21
2330.641248854753
 31
0.0
  0
LINE
  5
3EE
330
1F
100
AcDbEntity
  8
LAY-10
  6
CONTINUOUS
 62
     7
100
AcDbLine
 10
2025.797537416086
 20
2298.641248854764
 30
0.0
 11
2060.797537416093
 21
2298.641248854764
 31
0.0
  0
LINE
  5
3EF
330
1F
100
AcDbEntity
  8
LAY-10
  6
CONTINUOUS
 62
     7
100
AcDbLine
 10
2067.797537416086
 20
2339.441248854755
 30
0.0
 11
2070.797537416086
 21
2336.441248854755
 31
0.0
  0
LINE
  5
3F0
330
1F
100
AcDbEntity
  8
LAY-10
  6
CONTINUOUS
 62
     7
100
AcDbLine
 10
2040.797537416087
 20
2345.641248854755
 30
0.0
 11
2040.797537416087
 21
2342.641248854755
 31
0.0
  0
LINE
  5
3F1
330
1F
100
AcDbEntity
  8
LAY-10
  6
CONTINUOUS
 62
     7
100
AcDbLine
 10
2025.797537416086
 20
2330.641248854755
 30
0.0
 11
2028.797537416086
 21
2330.641248854755
 31
0.0
  0
LINE
  5
3F2
330
1F
100
AcDbEntity
  8
LAY-10
  6
CONTINUOUS
 62
     7
100
AcDbLine
 10
2028.797537416086
 20
2342.641248854755
 30
0.0
 11
2028.797537416086
 21
2330.641248854755
 31
0.0
  0
LINE
  5
3F3
330
1F
100
AcDbEntity
  8
LAY-10
  6
CONTINUOUS
 62
     7
100
AcDbLine
 10
2025.797537416086
 20
2345.641248854755
 30
0.0
 11
2040.797537416087
 21
2345.641248854755
 31
0.0
  0
LINE
  5
3F4
330
1F
100
AcDbEntity
  8
LAY-10
  6
CONTINUOUS
 62
     7
100
AcDbLine
 10
2028.797537416086
 20
2342.641248854755
 30
0.0
 11
2067.997537416083
 21
2342.641248854755
 31
0.0
  0
ARC
  5
3F5
330
1F
100
AcDbEntity
  8
LAY-10
  6
CONTINUOUS
 62
     7
100
AcDbCircle
 10
2067.997537416083
 20
2336.641248854755
 30
0.0
 40
6.000000000000006
100
AcDbArc
 50
358.0908475670125
 51
90.00000000000001
  0
ARC
  5
3F6
330
1F
100
AcDbEntity
  8
LAY-10
  6
CONTINUOUS
 62
     7
100
AcDbCircle
 10
2067.797537416086
 20
2336.441248854756
 30
0.0
 40
3.000000000000003
100
AcDbArc
 50
0.0
 51
90.00000000000001
  0
LINE
  5
3F7
330
1F
100
AcDbEntity
  8
LAY-10
  6
CONTINUOUS
 62
     7
100
AcDbLine
 10
2028.797537416086
 20
2339.441248854756
 30
0.0
 11
2067.797537416086
 21
2339.441248854756
 31
0.0
  0
LINE
  5
3F8
330
1F
100
AcDbEntity
  8
LAY-10
  6
CONTINUOUS
 62
     7
100
AcDbLine
 10
2028.797537416108
 20
2349.641248854704
 30
0.0
 11
2072.997537416105
 21
2349.641248854704
 31
0.0
  0
LINE
  5
3F9
330
1F
100
AcDbEntity
  8
LAY-10
  6
CONTINUOUS
 62
     7
100
AcDbLine
 10
2073.19753741611
 20
2352.841248854705
 30
0.0
 11
2028.797537416108
 21
2352.841248854705
 31
0.0
  0
LINE
  5
3FA
330
1F
100
AcDbEntity
  8
LAY-10
  6
CONTINUOUS
 62
     7
100
AcDbLine
 10
2122.597537416111
 20
2269.641248854703
 30
0.0
 11
2113.597537416111
 21
2269.641248854703
 31
0.0
  0
LINE
  5
3FB
330
1F
100
AcDbEntity
  8
LAY-10
  6
CONTINUOUS
 62
     7
100
AcDbLine
 10
2125.797537416108
 20
2266.841248854712
 30
0.0
 11
2125.797537416108
 21
2288.641248854704
 31
0.0
  0
ARC
  5
3FC
330
1F
100
AcDbEntity
  8
LAY-10
  6
CONTINUOUS
 62
     7
100
AcDbCircle
 10
2125.597537416103
 20
2266.641248854703
 30
0.0
 40
3.000000000000003
100
AcDbArc
 50
180.0
 51
270.0000000000002
  0
ELLIPSE
  5
3FD
330
1F
100
AcDbEntity
  8
LAY-10
  6
CONTINUOUS
 62
     7
100
AcDbEllipse
 10
2118.080870749405
 20
2278.561248854703
 30
0.0
 11
-1.067183248068679E-15
 21
-5.80947501931002
 31
0.0
210
0.0
220
0.0
230
1.0
 40
0.7745966692416307
 41
0.0
 42
6.283185307179586
  0
LINE
  5
3FE
330
1F
100
AcDbEntity
  8
LAY-10
  6
CONTINUOUS
 62
     7
100
AcDbLine
 10
2075.997537416112
 20
2337.641248854703
 30
0.0
 11
2073.997537416105
 21
2337.641248854703
 31
0.0
  0
LINE
  5
3FF
330
1F
100
AcDbEntity
  8
LAY-10
  6
CONTINUOUS
 62
     7
100
AcDbLine
 10
2075.997537416112
 20
2312.641248854703
 30
0.0
 11
2073.997537416105
 21
2312.641248854703
 31
0.0
  0
LINE
  5
400
330
1F
100
AcDbEntity
  8
LAY-10
  6
CONTINUOUS
 62
     7
100
AcDbLine
 10
2128.137537416105
 20
2284.641248854701
 30
0.0
 11
2125.797537416108
 21
2282.361248854704
 31
0.0
  0
LINE
  5
401
330
1F
100
AcDbEntity
  8
LAY-10
  6
CONTINUOUS
 62
     7
100
AcDbLine
 10
2125.797537416108
 20
2284.641248854703
 30
0.0
 11
2131.493537416104
 21
2284.641248854703
 31
0.0
  0
ARC
  5
402
330
1F
100
AcDbEntity
  8
LAY-10
  6
CONTINUOUS
 62
     7
100
AcDbCircle
 10
2127.406616961559
 20
2302.141248854704
 30
0.0
 40
4.790920454545454
100
AcDbArc
 50
328.5455606612239
 51
31.45443933877639
  0
ARC
  5
403
330
1F
100
AcDbEntity
  8
LAY-10
  6
CONTINUOUS
 62
     7
100
AcDbCircle
 10
2127.406616961559
 20
2287.141248854704
 30
0.0
 40
4.790920454545454
100
AcDbArc
 50
328.5455606612239
 51
31.45443933876888
  0
LINE
  5
404
330
1F
100
AcDbEntity
  8
LAY-10
  6
CONTINUOUS
 62
     7
100
AcDbLine
 10
2132.19753741611
 20
2302.141248854704
 30
0.0
 11
2132.19753741611
 21
2287.141248854704
 31
0.0
  0
ARC
  5
405
330
1F
100
AcDbEntity
  8
LAY-10
  6
CONTINUOUS
 62
     7
100
AcDbCircle
 10
2114.089855597926
 20
2294.641248854704
 30
0.0
 40
18.10768181818181
100
AcDbArc
 50
343.9708781133876
 51
16.02912188661065
  0
LINE
  5
406
330
1F
100
AcDbEntity
  8
LAY-10
  6
CONTINUOUS
 62
     7
100
AcDbLine
 10
2125.797537416108
 20
2306.981248854703
 30
0.0
 11
2128.077537416107
 21
2304.641248854704
 31
0.0
  0
LINE
  5
407
330
1F
100
AcDbEntity
  8
LAY-10
  6
CONTINUOUS
 62
     7
100
AcDbLine
 10
2125.797537416108
 20
2304.641248854704
 30
0.0
 11
2131.493537416104
 21
2304.641248854704
 31
0.0
  0
LINE
  5
408
330
1F
100
AcDbEntity
  8
LAY-10
  6
CONTINUOUS
 62
     7
100
AcDbLine
 10
2125.797537416108
 20
2284.641248854703
 30
0.0
 11
2125.797537416108
 21
2304.641248854704
 31
0.0
  0
LINE
  5
409
330
1F
100
AcDbEntity
  8
LAY-10
  6
CONTINUOUS
 62
     7
100
AcDbLine
 10
2120.797537416108
 20
2289.641248854704
 30
0.0
 11
2120.797537416108
 21
2299.641248854703
 31
0.0
  0
LINE
  5
40A
330
1F
100
AcDbEntity
  8
LAY-10
  6
CONTINUOUS
 62
     7
100
AcDbLine
 10
2131.493537416104
 20
2289.641248854704
 30
0.0
 11
2110.397537416107
 21
2289.641248854704
 31
0.0
  0
LINE
  5
40B
330
1F
100
AcDbEntity
  8
LAY-10
  6
CONTINUOUS
 62
     7
100
AcDbLine
 10
2131.493537416104
 20
2299.641248854703
 30
0.0
 11
2110.397537416107
 21
2299.641248854703
 31
0.0
  0
LINE
  5
40C
330
1F
100
AcDbEntity
  8
LAY-10
  6
CONTINUOUS
 62
     7
100
AcDbLine
 10
2108.397537416107
 20
2299.641248854703
 30
0.0
 11
2100.921537416112
 21
2299.641248854703
 31
0.0
  0
LINE
  5
40D
330
1F
100
AcDbEntity
  8
LAY-10
  6
CONTINUOUS
 62
     7
100
AcDbLine
 10
2108.397537416107
 20
2289.641248854704
 30
0.0
 11
2100.921537416112
 21
2289.641248854704
 31
0.0
  0
LINE
  5
40E
330
1F
100
AcDbEntity
  8
LAY-10
  6
CONTINUOUS
 62
     7
100
AcDbLine
 10
2099.997537416105
 20
2299.641248854703
 30
0.0
 11
2096.797537416108
 21
2299.641248854703
 31
0.0
  0
LINE
  5
40F
330
1F
100
AcDbEntity
  8
LAY-10
  6
CONTINUOUS
 62
     7
100
AcDbLine
 10
2099.997537416105
 20
2289.641248854704
 30
0.0
 11
2096.797537416108
 21
2289.641248854704
 31
0.0
  0
LINE
  5
410
330
1F
100
AcDbEntity
  8
LAY-10
  6
CONTINUOUS
 62
     7
100
AcDbLine
 10
2095.797537416108
 20
2298.641248854704
 30
0.0
 11
2095.797537416108
 21
2290.641248854703
 31
0.0
  0
LINE
  5
411
330
1F
100
AcDbEntity
  8
LAY-10
  6
CONTINUOUS
 62
     7
100
AcDbLine
 10
2096.797537416108
 20
2289.641248854704
 30
0.0
 11
2095.797537416108
 21
2290.641248854703
 31
0.0
  0
LINE
  5
412
330
1F
100
AcDbEntity
  8
LAY-10
  6
CONTINUOUS
 62
     7
100
AcDbLine
 10
2096.797537416108
 20
2299.641248854703
 30
0.0
 11
2095.797537416108
 21
2298.641248854704
 31
0.0
  0
LINE
  5
413
330
1F
100
AcDbEntity
  8
LAY-10
  6
CONTINUOUS
 62
     7
100
AcDbLine
 10
2121.997537416106
 20
2315.241248854705
 30
0.0
 11
2124.64646220108
 21
2312.203763857724
 31
0.0
  0
LINE
  5
414
330
1F
100
AcDbEntity
  8
LAY-10
  6
CONTINUOUS
 62
     7
100
AcDbLine
 10
2088.657537416108
 20
2312.841248854703
 30
0.0
 11
2090.997537416105
 21
2315.121248854706
 31
0.0
  0
LINE
  5
415
330
1F
100
AcDbEntity
  8
LAY-10
  6
CONTINUOUS
 62
     7
100
AcDbLine
 10
2090.997537416105
 20
2348.841248854705
 30
0.0
 11
2090.997537416105
 21
2312.841248854703
 31
0.0
  0
LINE
  5
416
330
1F
100
AcDbEntity
  8
LAY-10
  6
CONTINUOUS
 62
     7
100
AcDbLine
 10
2121.997537416106
 20
2348.841248854705
 30
0.0
 11
2121.997537416106
 21
2312.841248854703
 31
0.0
  0
LINE
  5
417
330
1F
100
AcDbEntity
  8
LAY-10
  6
CONTINUOUS
 62
     7
100
AcDbLine
 10
2090.997537416105
 20
2348.841248854705
 30
0.0
 11
2121.997537416106
 21
2348.841248854705
 31
0.0
  0
LINE
  5
418
330
1F
100
AcDbEntity
  8
LAY-10
  6
CONTINUOUS
 62
     7
100
AcDbLine
 10
2116.896022225946
 20
2390.539733664538
 30
0.0
 11
2122.552876475432
 21
2384.882879415044
 31
0.0
  0
LINE
  5
419
330
1F
100
AcDbEntity
  8
LAY-10
  6
CONTINUOUS
 62
     7
100
AcDbLine
 10
2122.552876475432
 20
2384.882879415044
 30
0.0
 11
2087.19753741611
 21
2349.52754035572
 31
0.0
  0
LINE
  5
41A
330
1F
100
AcDbEntity
  8
LAY-10
  6
CONTINUOUS
 62
     7
100
AcDbLine
 10
2087.19753741611
 20
2349.52754035572
 30
0.0
 11
2087.19753741611
 21
2319.527540355718
 31
0.0
  0
LINE
  5
41B
330
1F
100
AcDbEntity
  8
LAY-10
  6
CONTINUOUS
 62
     7
100
AcDbLine
 10
2087.19753741611
 20
2319.527540355718
 30
0.0
 11
2079.197537416109
 21
2319.527540355718
 31
0.0
  0
ARC
  5
41C
330
1F
100
AcDbEntity
  8
LAY-10
  6
CONTINUOUS
 62
     7
100
AcDbCircle
 10
2087.19753741611
 20
2349.52754035572
 30
0.0
 40
8.0
100
AcDbArc
 50
135.000000000007
 51
180.0
  0
LINE
  5
41D
330
1F
100
AcDbEntity
  8
LAY-10
  6
CONTINUOUS
 62
     7
100
AcDbLine
 10
2116.896022225946
 20
2390.539733664538
 30
0.0
 11
2081.540683166616
 21
2355.184394605212
 31
0.0
  0
LINE
  5
41E
330
1F
100
AcDbEntity
  8
LAY-10
  6
CONTINUOUS
 62
     7
100
AcDbLine
 10
2078.997537416106
 20
2309.641248854703
 30
0.0
 11
2122.597537416111
 21
2309.641248854703
 31
0.0
  0
LINE
  5
41F
330
1F
100
AcDbEntity
  8
LAY-10
  6
CONTINUOUS
 62
     7
100
AcDbLine
 10
2079.197537416109
 20
2312.841248854703
 30
0.0
 11
2122.797537416108
 21
2312.841248854703
 31
0.0
  0
LINE
  5
420
330
1F
100
AcDbEntity
  8
LAY-10
  6
CONTINUOUS
 62
     7
100
AcDbLine
 10
2122.597537416111
 20
2289.641248854704
 30
0.0
 11
2122.597537416111
 21
2259.641248854703
 31
0.0
  0
LINE
  5
421
330
1F
100
AcDbEntity
  8
LAY-10
  6
CONTINUOUS
 62
     7
100
AcDbLine
 10
2122.597537416103
 20
2272.641248854704
 30
0.0
 11
2113.597537416104
 21
2272.641248854704
 31
0.0
  0
LINE
  5
422
330
1F
100
AcDbEntity
  8
LAY-10
  6
CONTINUOUS
 62
     7
100
AcDbLine
 10
2079.197537416109
 20
2346.841248854705
 30
0.0
 11
2079.197537416109
 21
2349.52754035572
 31
0.0
  0
ARC
  5
423
330
1F
100
AcDbEntity
  8
LAY-10
  6
CONTINUOUS
 62
     7
100
AcDbCircle
 10
2078.997537416106
 20
2312.641248854703
 30
0.0
 40
3.000000000000003
100
AcDbArc
 50
180.0
 51
270.0000000000002
  0
ARC
  5
424
330
1F
100
AcDbEntity
  8
LAY-10
  6
CONTINUOUS
 62
     7
100
AcDbCircle
 10
2073.19753741611
 20
2346.841248854705
 30
0.0
 40
6.000000000000006
100
AcDbArc
 50
0.0
 51
90.00000000000001
  0
ARC
  5
425
330
1F
100
AcDbEntity
  8
LAY-10
  6
CONTINUOUS
 62
     7
100
AcDbCircle
 10
2072.997537416105
 20
2346.641248854704
 30
0.0
 40
3.000000000000003
100
AcDbArc
 50
0.0
 51
90.00000000000001
  0
LINE
  5
426
330
1F
100
AcDbEntity
  8
LAY-10
  6
CONTINUOUS
 62
     7
100
AcDbLine
 10
2079.197537416109
 20
2346.841248854705
 30
0.0
 11
2079.197537416109
 21
2312.841248854703
 31
0.0
  0
ARC
  5
427
330
1F
100
AcDbEntity
  8
LAY-10
  6
CONTINUOUS
 62
     7
100
AcDbCircle
 10
2113.397537416106
 20
2303.641248854703
 30
0.0
 40
3.000000000000003
100
AcDbArc
 50
90.00000000000001
 51
180.0
  0
LINE
  5
428
330
1F
100
AcDbEntity
  8
LAY-10
  6
CONTINUOUS
 62
     7
100
AcDbLine
 10
2113.597537416111
 20
2300.641248854703
 30
0.0
 11
2113.597537416111
 21
2299.641248854703
 31
0.0
  0
ARC
  5
429
330
1F
100
AcDbEntity
  8
LAY-10
  6
CONTINUOUS
 62
     7
100
AcDbCircle
 10
2122.797537416108
 20
2309.841248854703
 30
0.0
 40
3.000000000000003
100
AcDbArc
 50
0.0
 51
90.00000000000001
  0
LINE
  5
42A
330
1F
100
AcDbEntity
  8
LAY-10
  6
CONTINUOUS
 62
     7
100
AcDbLine
 10
2125.797537416108
 20
2300.641248854703
 30
0.0
 11
2125.797537416108
 21
2309.841248854703
 31
0.0
  0
LINE
  5
42B
330
1F
100
AcDbEntity
  8
LAY-10
  6
CONTINUOUS
 62
     7
100
AcDbLine
 10
2122.597537416111
 20
2305.541248854706
 30
0.0
 11
2122.597537416111
 21
2309.641248854703
 31
0.0
  0
LINE
  5
42C
330
1F
100
AcDbEntity
  8
LAY-10
  6
CONTINUOUS
 62
     7
100
AcDbLine
 10
2122.597537416111
 20
2303.641248854703
 30
0.0
 11
2113.597537416111
 21
2303.641248854703
 31
0.0
  0
LINE
  5
42D
330
1F
100
AcDbEntity
  8
LAY-10
  6
CONTINUOUS
 62
     7
100
AcDbLine
 10
2122.597537416111
 20
2306.641248854703
 30
0.0
 11
2113.397537416106
 21
2306.641248854703
 31
0.0
  0
LINE
  5
42E
330
1F
100
AcDbEntity
  8
LAY-10
  6
CONTINUOUS
 62
     7
100
AcDbLine
 10
2122.597537416111
 20
2299.641248854703
 30
0.0
 11
2122.597537416111
 21
2306.641248854703
 31
0.0
  0
LINE
  5
42F
330
1F
100
AcDbEntity
  8
LAY-10
  6
CONTINUOUS
 62
     7
100
AcDbLine
 10
2113.597537416111
 20
2300.641248854703
 30
0.0
 11
2113.597537416111
 21
2303.641248854703
 31
0.0
  0
LINE
  5
430
330
1F
100
AcDbEntity
  8
LAY-10
  6
CONTINUOUS
 62
     7
100
AcDbLine
 10
2113.597537416111
 20
2300.641248854703
 30
0.0
 11
2110.397537416107
 21
2300.641248854703
 31
0.0
  0
LINE
  5
431
330
1F
100
AcDbEntity
  8
LAY-10
  6
CONTINUOUS
 62
     7
100
AcDbLine
 10
2113.597537416111
 20
2288.641248854704
 30
0.0
 11
2110.397537416107
 21
2288.641248854704
 31
0.0
  0
LINE
  5
432
330
1F
100
AcDbEntity
  8
LAY-10
  6
CONTINUOUS
 62
     7
100
AcDbLine
 10
2122.597537416111
 20
2300.641248854703
 30
0.0
 11
2125.797537416108
 21
2300.641248854703
 31
0.0
  0
LINE
  5
433
330
1F
100
AcDbEntity
  8
LAY-10
  6
CONTINUOUS
 62
     7
100
AcDbLine
 10
2122.597537416111
 20
2288.641248854704
 30
0.0
 11
2125.797537416108
 21
2288.641248854704
 31
0.0
  0
LINE
  5
434
330
1F
100
AcDbEntity
  8
LAY-10
  6
CONTINUOUS
 62
     7
100
AcDbLine
 10
2092.997537416035
 20
2270.64124885429
 30
0.0
 11
2092.997537416035
 21
1464.641248854688
 31
0.0
  0
LINE
  5
435
330
1F
100
AcDbEntity
  8
LAY-10
  6
CONTINUOUS
 62
     7
100
AcDbLine
 10
2060.797537416093
 20
1395.841248854656
 30
0.0
 11
2060.797537416093
 21
2339.441248854756
 31
0.0
  0
LINE
  5
436
330
1F
100
AcDbEntity
  8
LAY-10
  6
CONTINUOUS
 62
     7
100
AcDbLine
 10
2062.797537416094
 20
1395.841248854656
 30
0.0
 11
2062.797537416094
 21
2339.441248854756
 31
0.0
  0
LINE
  5
437
330
1F
100
AcDbEntity
  8
LAY-10
  6
CONTINUOUS
 62
     7
100
AcDbLine
 10
2070.797537416108
 20
1398.841248854655
 30
0.0
 11
2070.797537416108
 21
2336.441248854705
 31
0.0
  0
LINE
  5
438
330
1F
100
AcDbEntity
  8
LAY-10
  6
CONTINUOUS
 62
     7
100
AcDbLine
 10
2073.997537416105
 20
2337.141248854706
 30
0.0
 11
2073.997537416105
 21
1398.641248854656
 31
0.0
  0
LINE
  5
439
330
1F
100
AcDbEntity
  8
LAY-10
  6
CONTINUOUS
 62
     7
100
AcDbLine
 10
2025.797537416086
 20
1389.641248854655
 30
0.0
 11
2025.797537416086
 21
2345.641248854755
 31
0.0
  0
LINE
  5
43A
330
1F
100
AcDbEntity
  8
LAY-10
  6
CONTINUOUS
 62
     7
100
AcDbLine
 10
2028.797537416086
 20
1436.641248854648
 30
0.0
 11
2028.797537416086
 21
2298.641248854764
 31
0.0
  0
LINE
  5
43B
330
1F
100
AcDbEntity
  8
LAY-10
  6
CONTINUOUS
 62
     7
100
AcDbLine
 10
2073.997537416105
 20
2285.641248854704
 30
0.0
 11
2073.997537416105
 21
1397.641248854707
 31
0.0
  0
LINE
  5
43C
330
1F
100
AcDbEntity
  8
LAY-10
  6
CONTINUOUS
 62
     7
100
AcDbLine
 10
2073.997537416004
 20
1400.641248854606
 30
0.0
 11
2073.997537416004
 21
2282.641248854606
 31
0.0
  0
LINE
  5
43D
330
1F
100
AcDbEntity
  8
LAY-10
  6
CONTINUOUS
 62
     7
100
AcDbLine
 10
2073.997537416004
 20
2337.641248854706
 30
0.0
 11
2073.997537416004
 21
1400.641248854606
 31
0.0
  0
LINE
  5
43E
330
1F
100
AcDbEntity
  8
LAY-10
  6
CONTINUOUS
 62
     7
100
AcDbLine
 10
2159.59753741609
 20
1942.341248854804
 30
0.0
 11
2159.59753741609
 21
1922.341248854804
 31
0.0
  0
LINE
  5
43F
330
1F
100
AcDbEntity
  8
LAY-10
  6
CONTINUOUS
 62
     7
100
AcDbLine
 10
2159.59753741609
 20
1812.341248854804
 30
0.0
 11
2159.59753741609
 21
1792.341248854804
 31
0.0
  0
ARC
  5
440
330
1F
100
AcDbEntity
  8
LAY-10
  6
CONTINUOUS
 62
     7
100
AcDbCircle
 10
2157.597537416097
 20
1914.341248854804
 30
0.0
 40
3.000000000000003
100
AcDbArc
 50
270.0000000000002
 51
0.0
  0
ARC
  5
441
330
1F
100
AcDbEntity
  8
LAY-10
  6
CONTINUOUS
 62
     7
100
AcDbCircle
 10
2157.597537416097
 20
1914.341248854804
 30
0.0
 40
3.000000000000003
100
AcDbArc
 50
180.0
 51
270.0000000000002
  0
ARC
  5
442
330
1F
100
AcDbEntity
  8
LAY-10
  6
CONTINUOUS
 62
     7
100
AcDbCircle
 10
2157.597537416097
 20
1820.341248854804
 30
0.0
 40
3.000000000000003
100
AcDbArc
 50
0.0
 51
90.00000000000001
  0
ARC
  5
443
330
1F
100
AcDbEntity
  8
LAY-10
  6
CONTINUOUS
 62
     7
100
AcDbCircle
 10
2157.597537416097
 20
1820.341248854804
 30
0.0
 40
3.000000000000003
100
AcDbArc
 50
90.00000000000001
 51
180.0
  0
LINE
  5
444
330
1F
100
AcDbEntity
  8
LAY-10
  6
CONTINUOUS
 62
     7
100
AcDbLine
 10
2152.59753741609
 20
1792.341248854804
 30
0.0
 11
2160.597537416097
 21
1792.341248854804
 31
0.0
  0
LINE
  5
445
330
1F
100
AcDbEntity
  8
LAY-10
  6
CONTINUOUS
 62
     7
100
AcDbLine
 10
2152.59753741609
 20
1942.341248854804
 30
0.0
 11
2160.597537416097
 21
1942.341248854804
 31
0.0
  0
LINE
  5
446
330
1F
100
AcDbEntity
  8
LAY-10
  6
CONTINUOUS
 62
     7
100
AcDbLine
 10
2152.59753741609
 20
1922.341248854804
 30
0.0
 11
2160.597537416097
 21
1922.341248854804
 31
0.0
  0
LINE
  5
447
330
1F
100
AcDbEntity
  8
LAY-10
  6
CONTINUOUS
 62
     7
100
AcDbLine
 10
2154.59753741609
 20
1942.341248854804
 30
0.0
 11
2154.59753741609
 21
1952.641248854804
 31
0.0
  0
LINE
  5
448
330
1F
100
AcDbEntity
  8
LAY-10
  6
CONTINUOUS
 62
     7
100
AcDbLine
 10
2154.59753741609
 20
1812.341248854804
 30
0.0
 11
2154.59753741609
 21
1922.341248854804
 31
0.0
  0
LINE
  5
449
330
1F
100
AcDbEntity
  8
LAY-10
  6
CONTINUOUS
 62
     7
100
AcDbLine
 10
2154.59753741609
 20
1782.341248854804
 30
0.0
 11
2154.59753741609
 21
1792.341248854804
 31
0.0
  0
LINE
  5
44A
330
1F
100
AcDbEntity
  8
LAY-10
  6
CONTINUOUS
 62
     7
100
AcDbLine
 10
2152.59753741609
 20
1922.341248854804
 30
0.0
 11
2152.59753741609
 21
1942.341248854804
 31
0.0
  0
LINE
  5
44B
330
1F
100
AcDbEntity
  8
LAY-10
  6
CONTINUOUS
 62
     7
100
AcDbLine
 10
2152.59753741609
 20
1792.341248854804
 30
0.0
 11
2152.59753741609
 21
1812.341248854804
 31
0.0
  0
LINE
  5
44C
330
1F
100
AcDbEntity
  8
LAY-10
  6
CONTINUOUS
 62
     7
100
AcDbLine
 10
2152.59753741609
 20
1812.341248854804
 30
0.0
 11
2160.597537416097
 21
1812.341248854804
 31
0.0
  0
LINE
  5
44D
330
1F
100
AcDbEntity
  8
LAY-10
  6
CONTINUOUS
 62
     7
100
AcDbLine
 10
2154.59753741609
 20
1952.641248854804
 30
0.0
 11
2160.597537416097
 21
1952.641248854804
 31
0.0
  0
LINE
  5
44E
330
1F
100
AcDbEntity
  8
LAY-10
  6
CONTINUOUS
 62
     7
100
AcDbLine
 10
2154.59753741609
 20
1782.341248854804
 30
0.0
 11
2160.597537416097
 21
1782.341248854804
 31
0.0
  0
LINE
  5
44F
330
1F
100
AcDbEntity
  8
LAY-10
  6
CONTINUOUS
 62
     7
100
AcDbLine
 10
2125.597537416103
 20
1471.641248854706
 30
0.0
 11
2212.597537416097
 21
1471.641248854706
 31
0.0
  0
LINE
  5
450
330
1F
100
AcDbEntity
  8
LAY-10
  6
CONTINUOUS
 62
     7
100
AcDbLine
 10
2208.909730724843
 20
1430.742764044879
 30
0.0
 11
2203.25287647535
 21
1425.085909795388
 31
0.0
  0
LINE
  5
451
330
1F
100
AcDbEntity
  8
LAY-10
  6
CONTINUOUS
 62
     7
100
AcDbLine
 10
2215.797537416094
 20
1471.441248854701
 30
0.0
 11
2215.797537416094
 21
1517.641248854703
 31
0.0
  0
LINE
  5
452
330
1F
100
AcDbEntity
  8
LAY-10
  6
CONTINUOUS
 62
     7
100
AcDbLine
 10
2212.597537416083
 20
1471.641248854709
 30
0.0
 11
2212.597537416083
 21
1517.641248854703
 31
0.0
  0
LINE
  5
453
330
1F
100
AcDbEntity
  8
LAY-10
  6
CONTINUOUS
 62
     7
100
AcDbLine
 10
2212.597537416097
 20
1517.641248854694
 30
0.0
 11
2215.797537416094
 21
1517.641248854694
 31
0.0
  0
LINE
  5
454
330
1F
100
AcDbEntity
  8
LAY-10
  6
CONTINUOUS
 62
     7
100
AcDbLine
 10
2212.597537416097
 20
1475.641248854705
 30
0.0
 11
2212.597537416097
 21
1500.641248854705
 31
0.0
  0
ARC
  5
455
330
1F
100
AcDbEntity
  8
LAY-10
  6
CONTINUOUS
 62
     7
100
AcDbCircle
 10
2212.797537416094
 20
1471.441248854701
 30
0.0
 40
3.000000000000003
100
AcDbArc
 50
270.0000000000002
 51
0.0
  0
ARC
  5
456
330
1F
100
AcDbEntity
  8
LAY-10
  6
CONTINUOUS
 62
     7
100
AcDbCircle
 10
2167.89753741602
 20
1460.441248854694
 30
0.0
 40
8.0
100
AcDbArc
 50
44.99999999997695
 51
90.00000000000001
  0
LINE
  5
457
330
1F
100
AcDbEntity
  8
LAY-10
  6
CONTINUOUS
 62
     7
100
AcDbLine
 10
2208.909730724843
 20
1430.742764044858
 30
0.0
 11
2173.554391665513
 21
1466.098103104186
 31
0.0
  0
LINE
  5
458
330
1F
100
AcDbEntity
  8
LAY-10
  6
CONTINUOUS
 62
     7
100
AcDbLine
 10
2203.25287647535
 20
1425.085909795388
 30
0.0
 11
2167.89753741602
 21
1460.441248854711
 31
0.0
  0
LINE
  5
459
330
1F
100
AcDbEntity
  8
LAY-10
  6
CONTINUOUS
 62
     7
100
AcDbLine
 10
2212.597537416097
 20
1475.641248854738
 30
0.0
 11
2212.597537416097
 21
1500.641248854738
 31
0.0
  0
LINE
  5
45A
330
1F
100
AcDbEntity
  8
LAY-10
  6
CONTINUOUS
 62
     7
100
AcDbLine
 10
2208.997537416099
 20
1477.241248854707
 30
0.0
 11
2162.197537416095
 21
1477.241248854707
 31
0.0
  0
LINE
  5
45B
330
1F
100
AcDbEntity
  8
LAY-10
  6
CONTINUOUS
 62
     7
100
AcDbLine
 10
2160.597537416097
 20
1475.641248854709
 30
0.0
 11
2212.597537416097
 21
1475.641248854709
 31
0.0
  0
LINE
  5
45C
330
1F
100
AcDbEntity
  8
LAY-10
  6
CONTINUOUS
 62
     7
100
AcDbLine
 10
2212.597537416097
 20
1500.641248854708
 30
0.0
 11
2210.597537416097
 21
1500.641248854708
 31
0.0
  0
LINE
  5
45D
330
1F
100
AcDbEntity
  8
LAY-10
  6
CONTINUOUS
 62
     7
100
AcDbLine
 10
2125.597537416103
 20
2263.641248854704
 30
0.0
 11
2212.597537416097
 21
2263.641248854704
 31
0.0
  0
LINE
  5
45E
330
1F
100
AcDbEntity
  8
LAY-10
  6
CONTINUOUS
 62
     7
100
AcDbLine
 10
2208.909730724843
 20
2304.539733664532
 30
0.0
 11
2203.25287647535
 21
2310.196587914024
 31
0.0
  0
LINE
  5
45F
330
1F
100
AcDbEntity
  8
LAY-10
  6
CONTINUOUS
 62
     7
100
AcDbLine
 10
2215.797537416094
 20
2263.841248854712
 30
0.0
 11
2215.797537416094
 21
2217.641248854706
 31
0.0
  0
LINE
  5
460
330
1F
100
AcDbEntity
  8
LAY-10
  6
CONTINUOUS
 62
     7
100
AcDbLine
 10
2212.597537416083
 20
2263.641248854703
 30
0.0
 11
2212.597537416083
 21
2217.641248854706
 31
0.0
  0
LINE
  5
461
330
1F
100
AcDbEntity
  8
LAY-10
  6
CONTINUOUS
 62
     7
100
AcDbLine
 10
2212.597537416097
 20
2217.641248854717
 30
0.0
 11
2215.797537416094
 21
2217.641248854717
 31
0.0
  0
LINE
  5
462
330
1F
100
AcDbEntity
  8
LAY-10
  6
CONTINUOUS
 62
     7
100
AcDbLine
 10
2212.597537416097
 20
2259.641248854706
 30
0.0
 11
2212.597537416097
 21
2234.641248854704
 31
0.0
  0
ARC
  5
463
330
1F
100
AcDbEntity
  8
LAY-10
  6
CONTINUOUS
 62
     7
100
AcDbCircle
 10
2212.797537416094
 20
2263.841248854712
 30
0.0
 40
3.000000000000003
100
AcDbArc
 50
0.0
 51
90.00000000000001
  0
ARC
  5
464
330
1F
100
AcDbEntity
  8
LAY-10
  6
CONTINUOUS
 62
     7
100
AcDbCircle
 10
2167.89753741602
 20
2274.841248854718
 30
0.0
 40
8.0
100
AcDbArc
 50
270.0000000000002
 51
315.0000000000231
  0
LINE
  5
465
330
1F
100
AcDbEntity
  8
LAY-10
  6
CONTINUOUS
 62
     7
100
AcDbLine
 10
2208.909730724843
 20
2304.539733664552
 30
0.0
 11
2173.554391665513
 21
2269.184394605226
 31
0.0
  0
LINE
  5
466
330
1F
100
AcDbEntity
  8
LAY-10
  6
CONTINUOUS
 62
     7
100
AcDbLine
 10
2203.25287647535
 20
2310.196587914024
 30
0.0
 11
2167.89753741602
 21
2274.841248854701
 31
0.0
  0
LINE
  5
467
330
1F
100
AcDbEntity
  8
LAY-10
  6
CONTINUOUS
 62
     7
100
AcDbLine
 10
2212.597537416097
 20
2259.641248854675
 30
0.0
 11
2212.597537416097
 21
2234.641248854673
 31
0.0
  0
LINE
  5
468
330
1F
100
AcDbEntity
  8
LAY-10
  6
CONTINUOUS
 62
     7
100
AcDbLine
 10
2208.997537416099
 20
2258.041248854704
 30
0.0
 11
2162.197537416095
 21
2258.041248854704
 31
0.0
  0
LINE
  5
469
330
1F
100
AcDbEntity
  8
LAY-10
  6
CONTINUOUS
 62
     7
100
AcDbLine
 10
2160.597537416097
 20
2259.641248854703
 30
0.0
 11
2212.597537416097
 21
2259.641248854703
 31
0.0
  0
LINE
  5
46A
330
1F
100
AcDbEntity
  8
LAY-10
  6
CONTINUOUS
 62
     7
100
AcDbLine
 10
2212.597537416097
 20
2234.641248854704
 30
0.0
 11
2210.597537416097
 21
2234.641248854704
 31
0.0
  0
LINE
  5
46B
330
1F
100
AcDbEntity
  8
LAY-10
  6
CONTINUOUS
 62
     7
100
AcDbLine
 10
2208.997537416099
 20
2258.041248854803
 30
0.0
 11
2208.997537416099
 21
1477.241248854805
 31
0.0
  0
LINE
  5
46C
330
1F
100
AcDbEntity
  8
LAY-10
  6
CONTINUOUS
 62
     7
100
AcDbLine
 10
2160.597537416097
 20
2259.641248854706
 30
0.0
 11
2160.597537416097
 21
1475.641248854709
 31
0.0
  0
LINE
  5
46D
330
1F
100
AcDbEntity
  8
LAY-10
  6
CONTINUOUS
 62
     7
100
AcDbLine
 10
2162.197537416095
 20
2258.041248854706
 30
0.0
 11
2162.197537416095
 21
1477.241248854707
 31
0.0
  0
LINE
  5
46E
330
1F
100
AcDbEntity
  8
LAY-10
  6
CONTINUOUS
 62
     7
100
AcDbLine
 10
2208.997537416099
 20
1477.241248854707
 30
0.0
 11
2208.997537416099
 21
2258.041248854706
 31
0.0
  0
LINE
  5
46F
330
1F
100
AcDbEntity
  8
LAY-10
  6
CONTINUOUS
 62
     7
100
AcDbLine
 10
2210.597537416097
 20
1475.641248854709
 30
0.0
 11
2210.597537416097
 21
2259.641248854703
 31
0.0
  0
LINE
  5
470
330
1F
100
AcDbEntity
  8
LAY-10
  6
CONTINUOUS
 62
     7
100
AcDbLine
 10
2137.89753741602
 20
1460.441248854689
 30
0.0
 11
2137.89753741602
 21
1468.441248854694
 31
0.0
  0
LINE
  5
471
330
1F
100
AcDbEntity
  8
LAY-10
  6
CONTINUOUS
 62
     7
100
AcDbLine
 10
2125.797537416108
 20
1468.4412488547
 30
0.0
 11
2212.797537416094
 21
1468.4412488547
 31
0.0
  0
LINE
  5
472
330
1F
100
AcDbEntity
  8
LAY-10
  6
CONTINUOUS
 62
     7
100
AcDbLine
 10
2167.89753741602
 20
1460.441248854689
 30
0.0
 11
2137.89753741602
 21
1460.441248854689
 31
0.0
  0
LINE
  5
473
330
1F
100
AcDbEntity
  8
LAY-10
  6
CONTINUOUS
 62
     7
100
AcDbLine
 10
2137.89753741602
 20
2274.841248854721
 30
0.0
 11
2137.89753741602
 21
2266.841248854716
 31
0.0
  0
LINE
  5
474
330
1F
100
AcDbEntity
  8
LAY-10
  6
CONTINUOUS
 62
     7
100
AcDbLine
 10
2125.797537416108
 20
2266.841248854712
 30
0.0
 11
2212.797537416094
 21
2266.841248854712
 31
0.0
  0
LINE
  5
475
330
1F
100
AcDbEntity
  8
LAY-10
  6
CONTINUOUS
 62
     7
100
AcDbLine
 10
2167.89753741602
 20
2274.841248854721
 30
0.0
 11
2137.89753741602
 21
2274.841248854721
 31
0.0
  0
LINE
  5
476
330
1F
100
AcDbEntity
  8
LAY-10
  6
CONTINUOUS
 62
     7
100
AcDbLine
 10
2095.797537416108
 20
1444.641248854708
 30
0.0
 11
2099.997537416105
 21
1444.641248854708
 31
0.0
  0
LINE
  5
477
330
1F
100
AcDbEntity
  8
LAY-10
  6
CONTINUOUS
 62
     7
100
AcDbLine
 10
2095.797537416108
 20
1436.641248854708
 30
0.0
 11
2095.797537416108
 21
1444.641248854708
 31
0.0
  0
LINE
  5
478
330
1F
100
AcDbEntity
  8
LAY-10
  6
CONTINUOUS
 62
     7
100
AcDbLine
 10
2096.797537416108
 20
1435.641248854708
 30
0.0
 11
2096.797537416108
 21
1445.641248854707
 31
0.0
  0
LINE
  5
479
330
1F
100
AcDbEntity
  8
LAY-10
  6
CONTINUOUS
 62
     7
100
AcDbLine
 10
2095.797537416108
 20
1436.641248854708
 30
0.0
 11
2099.997537416105
 21
1436.641248854708
 31
0.0
  0
LINE
  5
47A
330
1F
100
AcDbEntity
  8
LAY-10
  6
CONTINUOUS
 62
     7
100
AcDbLine
 10
2110.397537416107
 20
1436.641248854708
 30
0.0
 11
2120.797537416108
 21
1436.641248854708
 31
0.0
  0
LINE
  5
47B
330
1F
100
AcDbEntity
  8
LAY-10
  6
CONTINUOUS
 62
     7
100
AcDbLine
 10
2110.397537416107
 20
1444.641248854708
 30
0.0
 11
2120.797537416108
 21
1444.641248854708
 31
0.0
  0
LINE
  5
47C
330
1F
100
AcDbEntity
  8
LAY-10
  6
CONTINUOUS
 62
     7
100
AcDbLine
 10
2120.797537416108
 20
1444.641248854708
 30
0.0
 11
2121.797537416108
 21
1445.641248854707
 31
0.0
  0
LINE
  5
47D
330
1F
100
AcDbEntity
  8
LAY-10
  6
CONTINUOUS
 62
     7
100
AcDbLine
 10
2120.797537416108
 20
1436.641248854708
 30
0.0
 11
2121.797537416108
 21
1435.641248854708
 31
0.0
  0
LINE
  5
47E
330
1F
100
AcDbEntity
  8
LAY-10
  6
CONTINUOUS
 62
     7
100
AcDbLine
 10
2095.797537416108
 20
2298.641248854704
 30
0.0
 11
2099.997537416105
 21
2298.641248854704
 31
0.0
  0
LINE
  5
47F
330
1F
100
AcDbEntity
  8
LAY-10
  6
CONTINUOUS
 62
     7
100
AcDbLine
 10
2096.797537416108
 20
2299.641248854703
 30
0.0
 11
2096.797537416108
 21
2289.641248854704
 31
0.0
  0
LINE
  5
480
330
1F
100
AcDbEntity
  8
LAY-10
  6
CONTINUOUS
 62
     7
100
AcDbLine
 10
2095.797537416108
 20
2290.641248854703
 30
0.0
 11
2099.997537416105
 21
2290.641248854703
 31
0.0
  0
LINE
  5
481
330
1F
100
AcDbEntity
  8
LAY-10
  6
CONTINUOUS
 62
     7
100
AcDbLine
 10
2110.397537416107
 20
2290.641248854703
 30
0.0
 11
2120.797537416108
 21
2290.641248854703
 31
0.0
  0
LINE
  5
482
330
1F
100
AcDbEntity
  8
LAY-10
  6
CONTINUOUS
 62
     7
100
AcDbLine
 10
2110.397537416107
 20
2298.641248854704
 30
0.0
 11
2120.797537416108
 21
2298.641248854704
 31
0.0
  0
LINE
  5
483
330
1F
100
AcDbEntity
  8
LAY-10
  6
CONTINUOUS
 62
     7
100
AcDbLine
 10
2120.797537416108
 20
2298.641248854704
 30
0.0
 11
2121.797537416108
 21
2299.641248854703
 31
0.0
  0
LINE
  5
484
330
1F
100
AcDbEntity
  8
LAY-10
  6
CONTINUOUS
 62
     7
100
AcDbLine
 10
2120.797537416108
 20
2290.641248854703
 30
0.0
 11
2121.797537416108
 21
2289.641248854704
 31
0.0
  0
LINE
  5
485
330
1F
100
AcDbEntity
  8
LAY-10
  6
HIDDEN
 62
     7
100
AcDbLine
 10
2060.797537416086
 20
2330.641248854753
 30
0.0
 11
2070.797537416094
 21
2330.641248854753
 31
0.0
  0
LINE
  5
486
330
1F
100
AcDbEntity
  8
LAY-10
  6
HIDDEN
 62
     7
100
AcDbLine
 10
2060.797537416086
 20
2298.641248854655
 30
0.0
 11
2070.797537416094
 21
2298.641248854655
 31
0.0
  0
LINE
  5
487
330
1F
100
AcDbEntity
  8
LAY-10
  6
HIDDEN
 62
     7
100
AcDbLine
 10
2060.797537416086
 20
1436.641248854757
 30
0.0
 11
2070.797537416094
 21
1436.641248854757
 31
0.0
  0
LINE
  5
488
330
1F
100
AcDbEntity
  8
LAY-10
  6
HIDDEN
 62
     7
100
AcDbLine
 10
2060.797537416086
 20
1404.641248854657
 30
0.0
 11
2070.797537416094
 21
1404.641248854657
 31
0.0
  0
LINE
  5
489
330
1F
100
AcDbEntity
  8
LAY-10
  6
CONTINUOUS
 62
     7
100
AcDbLine
 10
2073.997537416059
 20
1467.641248854688
 30
0.0
 11
2092.997537416035
 21
1467.641248854688
 31
0.0
  0
LINE
  5
48A
330
1F
100
AcDbEntity
  8
LAY-10
  6
CONTINUOUS
 62
     7
100
AcDbLine
 10
2073.997537416059
 20
2267.641248854291
 30
0.0
 11
2092.997537416035
 21
2267.641248854291
 31
0.0
  0
LINE
  5
48B
330
1F
100
AcDbEntity
  8
LAY-10
  6
CONTINUOUS
 62
     7
100
AcDbLine
 10
2092.997537416058
 20
1709.80791552132
 30
0.0
 11
2073.997537416059
 21
1709.80791552132
 31
0.0
  0
LINE
  5
48C
330
1F
100
AcDbEntity
  8
LAY-10
  6
CONTINUOUS
 62
     7
100
AcDbLine
 10
2092.997537416058
 20
1706.80791552132
 30
0.0
 11
2073.997537416059
 21
1706.80791552132
 31
0.0
  0
LINE
  5
48D
330
1F
100
AcDbEntity
  8
LAY-10
  6
CONTINUOUS
 62
     7
100
AcDbLine
 10
2092.997537416058
 20
2025.474582188091
 30
0.0
 11
2073.997537416059
 21
2025.474582188091
 31
0.0
  0
LINE
  5
48E
330
1F
100
AcDbEntity
  8
LAY-10
  6
CONTINUOUS
 62
     7
100
AcDbLine
 10
2092.997537416058
 20
2028.474582188092
 30
0.0
 11
2073.997537416059
 21
2028.474582188092
 31
0.0
  0
LINE
  5
48F
330
1F
100
AcDbEntity
  8
LAY-10
  6
CONTINUOUS
 62
     7
100
AcDbLine
 10
722.9407971712707
 20
868.0412488541635
 30
0.0
 11
722.9407971712707
 21
877.0412488541635
 31
0.0
  0
LINE
  5
490
330
1F
100
AcDbEntity
  8
LAY-10
  6
CONTINUOUS
 62
     7
100
AcDbLine
 10
725.7407971712191
 20
864.8412488541652
 30
0.0
 11
679.7407971712701
 21
864.8412488541652
 31
0.0
  0
LINE
  5
491
330
1F
100
AcDbEntity
  8
LAY-10
  6
CONTINUOUS
 62
     7
100
AcDbLine
 10
702.9407971712671
 20
893.8412488541628
 30
0.0
 11
701.9407971712708
 21
894.8412488541629
 31
0.0
  0
LINE
  5
492
330
1F
100
AcDbEntity
  8
LAY-10
  6
CONTINUOUS
 62
     7
100
AcDbLine
 10
702.9407971712671
 20
890.6412488541639
 30
0.0
 11
702.9407971712671
 21
893.8412488541628
 31
0.0
  0
LINE
  5
493
330
1F
100
AcDbEntity
  8
LAY-10
  6
CONTINUOUS
 62
     7
100
AcDbLine
 10
692.9407971712707
 20
893.8412488541628
 30
0.0
 11
693.940797171269
 21
894.8412488541629
 31
0.0
  0
LINE
  5
494
330
1F
100
AcDbEntity
  8
LAY-10
  6
CONTINUOUS
 62
     7
100
AcDbLine
 10
693.940797171269
 20
894.8412488541629
 30
0.0
 11
701.9407971712708
 21
894.8412488541629
 31
0.0
  0
LINE
  5
495
330
1F
100
AcDbEntity
  8
LAY-10
  6
CONTINUOUS
 62
     7
100
AcDbLine
 10
692.9407971712707
 20
890.6412488541639
 30
0.0
 11
692.9407971712707
 21
893.8412488541628
 31
0.0
  0
LINE
  5
496
330
1F
100
AcDbEntity
  8
LAY-10
  6
CONTINUOUS
 62
     7
100
AcDbLine
 10
692.9407971712707
 20
882.2412488541643
 30
0.0
 11
692.9407971712707
 21
889.717248854163
 31
0.0
  0
LINE
  5
497
330
1F
100
AcDbEntity
  8
LAY-10
  6
CONTINUOUS
 62
     7
100
AcDbLine
 10
702.9407971712671
 20
882.2412488541643
 30
0.0
 11
702.9407971712671
 21
889.717248854163
 31
0.0
  0
LINE
  5
498
330
1F
100
AcDbEntity
  8
LAY-10
  6
CONTINUOUS
 62
     7
100
AcDbLine
 10
685.9407971712708
 20
868.0412488541635
 30
0.0
 11
685.9407971712708
 21
877.2412488541643
 31
0.0
  0
LINE
  5
499
330
1F
100
AcDbEntity
  8
LAY-10
  6
CONTINUOUS
 62
     7
100
AcDbLine
 10
688.9407971712708
 20
868.0412488541635
 30
0.0
 11
688.9407971712708
 21
877.0412488541635
 31
0.0
  0
ARC
  5
49A
330
1F
100
AcDbEntity
  8
LAY-10
  6
CONTINUOUS
 62
     7
100
AcDbCircle
 10
688.9407971712708
 20
877.2412488541643
 30
0.0
 40
3.000000000000003
100
AcDbArc
 50
90.00000000000001
 51
180.0
  0
LINE
  5
49B
330
1F
100
AcDbEntity
  8
LAY-10
  6
CONTINUOUS
 62
     7
100
AcDbLine
 10
676.7407971712701
 20
867.8412488541647
 30
0.0
 11
676.7407971712701
 21
961.8412488541628
 31
0.0
  0
LINE
  5
49C
330
1F
100
AcDbEntity
  8
LAY-10
  6
CONTINUOUS
 62
     7
100
AcDbLine
 10
691.9407971712708
 20
868.0412488541635
 30
0.0
 11
691.9407971712708
 21
864.8412488541629
 31
0.0
  0
LINE
  5
49D
330
1F
100
AcDbEntity
  8
LAY-10
  6
CONTINUOUS
 62
     7
100
AcDbLine
 10
691.9407971712708
 20
877.0412488541635
 30
0.0
 11
691.9407971712708
 21
880.2412488541626
 31
0.0
  0
LINE
  5
49E
330
1F
100
AcDbEntity
  8
LAY-10
  6
CONTINUOUS
 62
     7
100
AcDbLine
 10
703.9407971712671
 20
877.0412488541635
 30
0.0
 11
703.9407971712671
 21
880.2412488541626
 31
0.0
  0
LINE
  5
49F
330
1F
100
AcDbEntity
  8
LAY-10
  6
CONTINUOUS
 62
     7
100
AcDbLine
 10
703.9407971712671
 20
868.0412488541635
 30
0.0
 11
703.9407971712671
 21
864.8412488541629
 31
0.0
  0
ARC
  5
4A0
330
1F
100
AcDbEntity
  8
LAY-10
  6
CONTINUOUS
 62
     7
100
AcDbCircle
 10
679.7407971712701
 20
867.8412488541642
 30
0.0
 40
3.000000000000003
100
AcDbArc
 50
180.0
 51
270.0000000000002
  0
LINE
  5
4A1
330
1F
100
AcDbEntity
  8
LAY-10
  6
CONTINUOUS
 62
     7
100
AcDbLine
 10
719.9407971712671
 20
877.0412488541617
 30
0.0
 11
719.9407971712671
 21
868.0412488541635
 31
0.0
  0
LINE
  5
4A2
330
1F
100
AcDbEntity
  8
LAY-10
  6
CONTINUOUS
 62
     7
100
AcDbLine
 10
702.9407971712671
 20
868.0412488541635
 30
0.0
 11
732.9407971712707
 21
868.0412488541635
 31
0.0
  0
LINE
  5
4A3
330
1F
100
AcDbEntity
  8
LAY-10
  6
CONTINUOUS
 62
     7
100
AcDbLine
 10
692.9407971712707
 20
877.0412488541635
 30
0.0
 11
688.9407971712708
 21
877.0412488541635
 31
0.0
  0
LINE
  5
4A4
330
1F
100
AcDbEntity
  8
LAY-10
  6
CONTINUOUS
 62
     7
100
AcDbLine
 10
679.9407971712708
 20
868.0412488541635
 30
0.0
 11
692.9407971712707
 21
868.0412488541635
 31
0.0
  0
LINE
  5
4A5
330
1F
100
AcDbEntity
  8
LAY-10
  6
CONTINUOUS
 62
     7
100
AcDbLine
 10
679.9407971712708
 20
961.8412488541646
 30
0.0
 11
679.9407971712708
 21
868.0412488541654
 31
0.0
  0
LINE
  5
4A6
330
1F
100
AcDbEntity
  8
LAY-10
  6
CONTINUOUS
 62
     7
100
AcDbLine
 10
639.0423123614337
 20
868.2859097948365
 30
0.0
 11
674.3976514207615
 21
903.6412488541644
 31
0.0
  0
LINE
  5
4A7
330
1F
100
AcDbEntity
  8
LAY-10
  6
CONTINUOUS
 62
     7
100
AcDbLine
 10
639.0423123614337
 20
868.2859097948365
 30
0.0
 11
633.385458111944
 21
873.9427640443294
 31
0.0
  0
LINE
  5
4A8
330
1F
100
AcDbEntity
  8
LAY-10
  6
CONTINUOUS
 62
     7
100
AcDbLine
 10
633.385458111944
 20
873.9427640443294
 30
0.0
 11
668.74079717127
 21
909.2981031036555
 31
0.0
  0
LINE
  5
4A9
330
1F
100
AcDbEntity
  8
LAY-10
  6
CONTINUOUS
 62
     7
100
AcDbLine
 10
668.74079717127
 20
909.2981031036555
 30
0.0
 11
668.74079717127
 21
935.9843946046706
 31
0.0
  0
LINE
  5
4AA
330
1F
100
AcDbEntity
  8
LAY-10
  6
CONTINUOUS
 62
     7
100
AcDbLine
 10
668.74079717127
 20
935.9843946046706
 30
0.0
 11
676.7407971712718
 21
935.9843946046706
 31
0.0
  0
ARC
  5
4AB
330
1F
100
AcDbEntity
  8
LAY-10
  6
CONTINUOUS
 62
     7
100
AcDbCircle
 10
668.74079717127
 20
909.298103103655
 30
0.0
 40
8.0
100
AcDbArc
 50
315.0000000000102
 51
0.0
  0
ARC
  5
4AC
330
1F
100
AcDbEntity
  8
LAY-10
  6
CONTINUOUS
 62
     7
100
AcDbCircle
 10
697.9407971712707
 20
876.5489306723459
 30
0.0
 40
18.10768181818181
100
AcDbArc
 50
253.9708781133856
 51
286.0291218866075
  0
LINE
  5
4AD
330
1F
100
AcDbEntity
  8
LAY-10
  6
CONTINUOUS
 62
     7
100
AcDbLine
 10
690.4407971712707
 20
858.4412488541636
 30
0.0
 11
705.4407971712671
 21
858.4412488541636
 31
0.0
  0
ARC
  5
4AE
330
1F
100
AcDbEntity
  8
LAY-10
  6
CONTINUOUS
 62
     7
100
AcDbCircle
 10
690.4407971712707
 20
863.2321693087096
 30
0.0
 40
4.790920454545454
100
AcDbArc
 50
238.5455606612283
 51
301.4544393387621
  0
LINE
  5
4AF
330
1F
100
AcDbEntity
  8
LAY-10
  6
CONTINUOUS
 62
     7
100
AcDbLine
 10
687.9407971712707
 20
864.8412488541652
 30
0.0
 11
687.9407971712707
 21
859.1452488541648
 31
0.0
  0
LINE
  5
4B0
330
1F
100
AcDbEntity
  8
LAY-10
  6
CONTINUOUS
 62
     7
100
AcDbLine
 10
685.6007971712706
 20
864.841248854161
 30
0.0
 11
687.9407971712707
 21
862.5612488541623
 31
0.0
  0
ARC
  5
4B1
330
1F
100
AcDbEntity
  8
LAY-10
  6
CONTINUOUS
 62
     7
100
AcDbCircle
 10
705.4407971712671
 20
863.2321693087096
 30
0.0
 40
4.790920454545454
100
AcDbArc
 50
238.5455606612255
 51
301.4544393387848
  0
LINE
  5
4B2
330
1F
100
AcDbEntity
  8
LAY-10
  6
CONTINUOUS
 62
     7
100
AcDbLine
 10
707.9407971712707
 20
864.8412488541652
 30
0.0
 11
707.9407971712707
 21
859.1452488541648
 31
0.0
  0
LINE
  5
4B3
330
1F
100
AcDbEntity
  8
LAY-10
  6
CONTINUOUS
 62
     7
100
AcDbLine
 10
707.9407971712707
 20
862.5012488541649
 30
0.0
 11
710.2207971712696
 21
864.8412488541652
 31
0.0
  0
LINE
  5
4B4
330
1F
100
AcDbEntity
  8
LAY-10
  6
CONTINUOUS
 62
     7
100
AcDbLine
 10
702.9407971712671
 20
859.1452488541648
 30
0.0
 11
702.9407971712671
 21
880.2412488541648
 31
0.0
  0
LINE
  5
4B5
330
1F
100
AcDbEntity
  8
LAY-10
  6
CONTINUOUS
 62
     7
100
AcDbLine
 10
692.9407971712707
 20
859.1452488541648
 30
0.0
 11
692.9407971712707
 21
880.2412488541648
 31
0.0
  0
LINE
  5
4B6
330
1F
100
AcDbEntity
  8
LAY-10
  6
CONTINUOUS
 62
     7
100
AcDbLine
 10
702.9407971712671
 20
869.8412488541629
 30
0.0
 11
692.9407971712707
 21
869.8412488541629
 31
0.0
  0
ELLIPSE
  5
4B7
330
1F
100
AcDbEntity
  8
LAY-10
  6
CONTINUOUS
 62
     7
100
AcDbEllipse
 10
714.0207971712689
 20
872.5579155208627
 30
0.0
 11
-5.80947501931002
 21
7.114554987124524E-16
 31
0.0
210
0.0
220
0.0
230
1.0
 40
0.7745966692416307
 41
0.0
 42
6.283185307179586
  0
ARC
  5
4B8
330
1F
100
AcDbEntity
  8
LAY-10
  6
CONTINUOUS
 62
     7
100
AcDbCircle
 10
725.9407971712708
 20
865.0412488542063
 30
0.0
 40
3.000000000000003
100
AcDbArc
 50
0.0
 51
90.00000000000001
  0
LINE
  5
4B9
330
1F
100
AcDbEntity
  8
LAY-10
  6
CONTINUOUS
 62
     7
100
AcDbLine
 10
1524.140797171199
 20
864.8412488541629
 30
0.0
 11
1570.140797171148
 21
864.8412488541629
 31
0.0
  0
LINE
  5
4BA
330
1F
100
AcDbEntity
  8
LAY-10
  6
CONTINUOUS
 62
     7
100
AcDbLine
 10
1573.140797171148
 20
867.8412488541628
 30
0.0
 11
1573.140797171148
 21
961.8412488541611
 31
0.0
  0
ARC
  5
4BB
330
1F
100
AcDbEntity
  8
LAY-10
  6
CONTINUOUS
 62
     7
100
AcDbCircle
 10
1570.140797171148
 20
867.8412488541628
 30
0.0
 40
3.000000000000003
100
AcDbArc
 50
270.0000000000002
 51
0.0
  0
LINE
  5
4BC
330
1F
100
AcDbEntity
  8
LAY-10
  6
CONTINUOUS
 62
     7
100
AcDbLine
 10
1569.940797171147
 20
961.8412488541628
 30
0.0
 11
1569.940797171147
 21
868.0412488541635
 31
0.0
  0
LINE
  5
4BD
330
1F
100
AcDbEntity
  8
LAY-10
  6
CONTINUOUS
 62
     7
100
AcDbLine
 10
1610.839281980984
 20
868.2859097948365
 30
0.0
 11
1575.483942921654
 21
903.6412488541644
 31
0.0
  0
LINE
  5
4BE
330
1F
100
AcDbEntity
  8
LAY-10
  6
CONTINUOUS
 62
     7
100
AcDbLine
 10
1610.839281980984
 20
868.2859097948365
 30
0.0
 11
1616.496136230474
 21
873.9427640443275
 31
0.0
  0
LINE
  5
4BF
330
1F
100
AcDbEntity
  8
LAY-10
  6
CONTINUOUS
 62
     7
100
AcDbLine
 10
1616.496136230474
 20
873.9427640443275
 30
0.0
 11
1581.140797171148
 21
909.2981031036536
 31
0.0
  0
LINE
  5
4C0
330
1F
100
AcDbEntity
  8
LAY-10
  6
CONTINUOUS
 62
     7
100
AcDbLine
 10
1581.140797171148
 20
909.2981031036536
 30
0.0
 11
1581.140797171148
 21
935.9843946046706
 31
0.0
  0
LINE
  5
4C1
330
1F
100
AcDbEntity
  8
LAY-10
  6
CONTINUOUS
 62
     7
100
AcDbLine
 10
1581.140797171148
 20
935.9843946046706
 30
0.0
 11
1573.140797171145
 21
935.9843946046706
 31
0.0
  0
ARC
  5
4C2
330
1F
100
AcDbEntity
  8
LAY-10
  6
CONTINUOUS
 62
     7
100
AcDbCircle
 10
1581.140797171148
 20
909.2981031036533
 30
0.0
 40
8.0
100
AcDbArc
 50
180.0
 51
224.999999999991
  0
LINE
  5
4C3
330
1F
100
AcDbEntity
  8
LAY-10
  6
CONTINUOUS
 62
     7
100
AcDbLine
 10
1563.940797171148
 20
868.0412488541635
 30
0.0
 11
1563.940797171148
 21
877.2412488541624
 31
0.0
  0
LINE
  5
4C4
330
1F
100
AcDbEntity
  8
LAY-10
  6
CONTINUOUS
 62
     7
100
AcDbLine
 10
1560.940797171147
 20
868.0412488541635
 30
0.0
 11
1560.940797171147
 21
877.0412488541617
 31
0.0
  0
ARC
  5
4C5
330
1F
100
AcDbEntity
  8
LAY-10
  6
CONTINUOUS
 62
     7
100
AcDbCircle
 10
1560.940797171147
 20
877.2412488541624
 30
0.0
 40
3.000000000000003
100
AcDbArc
 50
0.0
 51
90.00000000000001
  0
LINE
  5
4C6
330
1F
100
AcDbEntity
  8
LAY-10
  6
CONTINUOUS
 62
     7
100
AcDbLine
 10
1557.940797171147
 20
868.0412488541635
 30
0.0
 11
1557.940797171147
 21
864.8412488541629
 31
0.0
  0
LINE
  5
4C7
330
1F
100
AcDbEntity
  8
LAY-10
  6
CONTINUOUS
 62
     7
100
AcDbLine
 10
1557.940797171147
 20
877.0412488541617
 30
0.0
 11
1557.940797171147
 21
880.2412488541626
 31
0.0
  0
LINE
  5
4C8
330
1F
100
AcDbEntity
  8
LAY-10
  6
CONTINUOUS
 62
     7
100
AcDbLine
 10
1545.940797171147
 20
877.0412488541617
 30
0.0
 11
1545.940797171147
 21
880.2412488541626
 31
0.0
  0
LINE
  5
4C9
330
1F
100
AcDbEntity
  8
LAY-10
  6
CONTINUOUS
 62
     7
100
AcDbLine
 10
1545.940797171147
 20
868.0412488541635
 30
0.0
 11
1545.940797171147
 21
864.8412488541629
 31
0.0
  0
LINE
  5
4CA
330
1F
100
AcDbEntity
  8
LAY-10
  6
CONTINUOUS
 62
     7
100
AcDbLine
 10
1529.940797171151
 20
877.0412488541617
 30
0.0
 11
1529.940797171151
 21
868.0412488541623
 31
0.0
  0
LINE
  5
4CB
330
1F
100
AcDbEntity
  8
LAY-10
  6
CONTINUOUS
 62
     7
100
AcDbLine
 10
1556.940797171148
 20
877.0412488541617
 30
0.0
 11
1560.940797171147
 21
877.0412488541617
 31
0.0
  0
ARC
  5
4CC
330
1F
100
AcDbEntity
  8
LAY-10
  6
CONTINUOUS
 62
     7
100
AcDbCircle
 10
1551.940797171148
 20
876.5489306723441
 30
0.0
 40
18.10768181818181
100
AcDbArc
 50
253.9708781133938
 51
286.0291218866152
  0
LINE
  5
4CD
330
1F
100
AcDbEntity
  8
LAY-10
  6
CONTINUOUS
 62
     7
100
AcDbLine
 10
1559.440797171147
 20
858.4412488541636
 30
0.0
 11
1544.440797171151
 21
858.4412488541636
 31
0.0
  0
ARC
  5
4CE
330
1F
100
AcDbEntity
  8
LAY-10
  6
CONTINUOUS
 62
     7
100
AcDbCircle
 10
1559.440797171146
 20
863.2321693087081
 30
0.0
 40
4.790920454545454
100
AcDbArc
 50
238.5455606612406
 51
301.4544393387717
  0
LINE
  5
4CF
330
1F
100
AcDbEntity
  8
LAY-10
  6
CONTINUOUS
 62
     7
100
AcDbLine
 10
1561.940797171147
 20
864.8412488541629
 30
0.0
 11
1561.940797171147
 21
859.1452488541629
 31
0.0
  0
LINE
  5
4D0
330
1F
100
AcDbEntity
  8
LAY-10
  6
CONTINUOUS
 62
     7
100
AcDbLine
 10
1564.280797171147
 20
864.841248854161
 30
0.0
 11
1561.940797171147
 21
862.5612488541623
 31
0.0
  0
ARC
  5
4D1
330
1F
100
AcDbEntity
  8
LAY-10
  6
CONTINUOUS
 62
     7
100
AcDbCircle
 10
1544.440797171151
 20
863.2321693087081
 30
0.0
 40
4.790920454545454
100
AcDbArc
 50
238.5455606612164
 51
301.4544393387766
  0
LINE
  5
4D2
330
1F
100
AcDbEntity
  8
LAY-10
  6
CONTINUOUS
 62
     7
100
AcDbLine
 10
1541.940797171147
 20
864.8412488541629
 30
0.0
 11
1541.940797171147
 21
859.1452488541629
 31
0.0
  0
LINE
  5
4D3
330
1F
100
AcDbEntity
  8
LAY-10
  6
CONTINUOUS
 62
     7
100
AcDbLine
 10
1541.940797171143
 20
862.5012488541627
 30
0.0
 11
1539.660797171145
 21
864.8412488541629
 31
0.0
  0
LINE
  5
4D4
330
1F
100
AcDbEntity
  8
LAY-10
  6
CONTINUOUS
 62
     7
100
AcDbLine
 10
1546.940797171151
 20
859.1452488541629
 30
0.0
 11
1546.940797171151
 21
880.2412488541626
 31
0.0
  0
LINE
  5
4D5
330
1F
100
AcDbEntity
  8
LAY-10
  6
CONTINUOUS
 62
     7
100
AcDbLine
 10
1556.940797171148
 20
859.1452488541629
 30
0.0
 11
1556.940797171148
 21
880.2412488541626
 31
0.0
  0
LINE
  5
4D6
330
1F
100
AcDbEntity
  8
LAY-10
  6
CONTINUOUS
 62
     7
100
AcDbLine
 10
1546.940797171151
 20
869.8412488541629
 30
0.0
 11
1556.940797171148
 21
869.8412488541629
 31
0.0
  0
LINE
  5
4D7
330
1F
100
AcDbEntity
  8
LAY-10
  6
CONTINUOUS
 62
     7
100
AcDbLine
 10
1546.940797171151
 20
882.241248854163
 30
0.0
 11
1546.940797171151
 21
889.717248854163
 31
0.0
  0
LINE
  5
4D8
330
1F
100
AcDbEntity
  8
LAY-10
  6
CONTINUOUS
 62
     7
100
AcDbLine
 10
1556.940797171148
 20
882.241248854163
 30
0.0
 11
1556.940797171148
 21
889.717248854163
 31
0.0
  0
LINE
  5
4D9
330
1F
100
AcDbEntity
  8
LAY-10
  6
CONTINUOUS
 62
     7
100
AcDbLine
 10
1556.940797171148
 20
890.6412488541625
 30
0.0
 11
1556.940797171148
 21
893.8412488541628
 31
0.0
  0
LINE
  5
4DA
330
1F
100
AcDbEntity
  8
LAY-10
  6
CONTINUOUS
 62
     7
100
AcDbLine
 10
1555.940797171151
 20
894.8412488541629
 30
0.0
 11
1547.940797171147
 21
894.8412488541629
 31
0.0
  0
LINE
  5
4DB
330
1F
100
AcDbEntity
  8
LAY-10
  6
CONTINUOUS
 62
     7
100
AcDbLine
 10
1556.940797171148
 20
893.8412488541628
 30
0.0
 11
1555.940797171151
 21
894.8412488541629
 31
0.0
  0
LINE
  5
4DC
330
1F
100
AcDbEntity
  8
LAY-10
  6
CONTINUOUS
 62
     7
100
AcDbLine
 10
1546.940797171151
 20
890.6412488541625
 30
0.0
 11
1546.940797171151
 21
893.8412488541628
 31
0.0
  0
LINE
  5
4DD
330
1F
100
AcDbEntity
  8
LAY-10
  6
CONTINUOUS
 62
     7
100
AcDbLine
 10
1546.940797171151
 20
893.8412488541628
 30
0.0
 11
1547.940797171147
 21
894.8412488541629
 31
0.0
  0
ELLIPSE
  5
4DE
330
1F
100
AcDbEntity
  8
LAY-10
  6
CONTINUOUS
 62
     7
100
AcDbEllipse
 10
1535.860797171149
 20
872.5579155208627
 30
0.0
 11
-5.80947501931002
 21
7.114554987124524E-16
 31
0.0
210
0.0
220
0.0
230
1.0
 40
0.7745966692416307
 41
0.0
 42
6.283185307179586
  0
ARC
  5
4DF
330
1F
100
AcDbEntity
  8
LAY-10
  6
CONTINUOUS
 62
     7
100
AcDbCircle
 10
1523.940797171148
 20
865.0412488542063
 30
0.0
 40
3.000000000000003
100
AcDbArc
 50
90.00000000000001
 51
180.0
  0
LINE
  5
4E0
330
1F
100
AcDbEntity
  8
LAY-10
  6
CONTINUOUS
 62
     7
100
AcDbLine
 10
1546.940797171151
 20
868.0412488541635
 30
0.0
 11
1516.940797171147
 21
868.0412488541635
 31
0.0
  0
LINE
  5
4E1
330
1F
100
AcDbEntity
  8
LAY-10
  6
CONTINUOUS
 62
     7
100
AcDbLine
 10
1546.940797171151
 20
868.0412488541635
 30
0.0
 11
1516.940797171147
 21
868.0412488541635
 31
0.0
  0
LINE
  5
4E2
330
1F
100
AcDbEntity
  8
LAY-10
  6
CONTINUOUS
 62
     7
100
AcDbLine
 10
1569.940797171147
 20
868.0412488541635
 30
0.0
 11
1556.940797171148
 21
868.0412488541635
 31
0.0
  0
LINE
  5
4E3
330
1F
100
AcDbEntity
  8
LAY-10
  6
CONTINUOUS
 62
     7
100
AcDbLine
 10
1569.940797171147
 20
916.6412488541639
 30
0.0
 11
679.9407971712708
 21
916.6412488541639
 31
0.0
  0
LINE
  5
4E4
330
1F
100
AcDbEntity
  8
LAY-10
  6
CONTINUOUS
 62
     7
100
AcDbLine
 10
802.440797171349
 20
897.641248854188
 30
0.0
 11
1005.44079717127
 21
897.641248854188
 31
0.0
  0
LINE
  5
4E5
330
1F
100
AcDbEntity
  8
LAY-10
  6
CONTINUOUS
 62
     7
100
AcDbLine
 10
802.440797171349
 20
897.6412488541889
 30
0.0
 11
802.440797171349
 21
916.6412488541889
 31
0.0
  0
LINE
  5
4E6
330
1F
100
AcDbEntity
  8
LAY-10
  6
CONTINUOUS
 62
     7
100
AcDbLine
 10
805.4407971713499
 20
897.641248854188
 30
0.0
 11
805.4407971713499
 21
916.6412488541889
 31
0.0
  0
LINE
  5
4E7
330
1F
100
AcDbEntity
  8
LAY-10
  6
CONTINUOUS
 62
     7
100
AcDbLine
 10
1005.44079717127
 20
897.6412488541889
 30
0.0
 11
1005.44079717127
 21
916.6412488541889
 31
0.0
  0
LINE
  5
4E8
330
1F
100
AcDbEntity
  8
LAY-10
  6
CONTINUOUS
 62
     7
100
AcDbLine
 10
1002.44079717127
 20
897.641248854188
 30
0.0
 11
1002.44079717127
 21
916.6412488541889
 31
0.0
  0
LINE
  5
4E9
330
1F
100
AcDbEntity
  8
LAY-10
  6
CONTINUOUS
 62
     7
100
AcDbLine
 10
690.1407971713352
 20
961.8412488541878
 30
0.0
 11
690.1407971713352
 21
922.8412488541869
 31
0.0
  0
ARC
  5
4EA
330
1F
100
AcDbEntity
  8
LAY-10
  6
CONTINUOUS
 62
     7
100
AcDbCircle
 10
693.1407971713361
 20
922.8412488541869
 30
0.0
 40
3.000000000000003
100
AcDbArc
 50
180.0
 51
270.0000000000002
  0
ARC
  5
4EB
330
1F
100
AcDbEntity
  8
LAY-10
  6
CONTINUOUS
 62
     7
100
AcDbCircle
 10
692.9407971713363
 20
922.6412488541862
 30
0.0
 40
6.000000000000006
100
AcDbArc
 50
180.0
 51
270.0000000000002
  0
LINE
  5
4EC
330
1F
100
AcDbEntity
  8
LAY-10
  6
CONTINUOUS
 62
     7
100
AcDbLine
 10
686.9407971713372
 20
961.8412488541878
 30
0.0
 11
686.9407971713372
 21
922.6412488541862
 31
0.0
  0
LINE
  5
4ED
330
1F
100
AcDbEntity
  8
LAY-10
  6
CONTINUOUS
 62
     7
100
AcDbLine
 10
683.9407971713363
 20
964.8412488541879
 30
0.0
 11
683.9407971713363
 21
949.8412488541887
 31
0.0
  0
LINE
  5
4EE
330
1F
100
AcDbEntity
  8
LAY-10
  6
CONTINUOUS
 62
     7
100
AcDbLine
 10
683.9407971713363
 20
949.8412488541887
 30
0.0
 11
686.9407971713372
 21
949.8412488541887
 31
0.0
  0
LINE
  5
4EF
330
1F
100
AcDbEntity
  8
LAY-10
  6
CONTINUOUS
 62
     7
100
AcDbLine
 10
730.9407971713345
 20
919.8412488541869
 30
0.0
 11
730.9407971713345
 21
964.8412488541879
 31
0.0
  0
LINE
  5
4F0
330
1F
100
AcDbEntity
  8
LAY-10
  6
CONTINUOUS
 62
     7
100
AcDbLine
 10
698.9407971713363
 20
964.8412488541879
 30
0.0
 11
698.9407971713363
 21
919.8412488541869
 31
0.0
  0
LINE
  5
4F1
330
1F
100
AcDbEntity
  8
LAY-10
  6
CONTINUOUS
 62
     7
100
AcDbLine
 10
686.9407971713372
 20
961.8412488541878
 30
0.0
 11
698.9407971713363
 21
961.8412488541878
 31
0.0
  0
LINE
  5
4F2
330
1F
100
AcDbEntity
  8
LAY-10
  6
CONTINUOUS
 62
     7
100
AcDbLine
 10
1117.740797171335
 20
961.8412488541878
 30
0.0
 11
1117.740797171335
 21
922.8412488541869
 31
0.0
  0
ARC
  5
4F3
330
1F
100
AcDbEntity
  8
LAY-10
  6
CONTINUOUS
 62
     7
100
AcDbCircle
 10
1114.740797171335
 20
922.8412488541869
 30
0.0
 40
3.000000000000003
100
AcDbArc
 50
270.0000000000002
 51
0.0
  0
ARC
  5
4F4
330
1F
100
AcDbEntity
  8
LAY-10
  6
CONTINUOUS
 62
     7
100
AcDbCircle
 10
1114.940797171334
 20
922.6412488541877
 30
0.0
 40
6.000000000000006
100
AcDbArc
 50
270.0000000000002
 51
0.0
  0
LINE
  5
4F5
330
1F
100
AcDbEntity
  8
LAY-10
  6
CONTINUOUS
 62
     7
100
AcDbLine
 10
1120.940797171334
 20
961.8412488541878
 30
0.0
 11
1120.940797171334
 21
922.6412488541877
 31
0.0
  0
LINE
  5
4F6
330
1F
100
AcDbEntity
  8
LAY-10
  6
CONTINUOUS
 62
     7
100
AcDbLine
 10
1123.940797171335
 20
949.8412488541887
 30
0.0
 11
1120.940797171334
 21
949.8412488541887
 31
0.0
  0
LINE
  5
4F7
330
1F
100
AcDbEntity
  8
LAY-10
  6
CONTINUOUS
 62
     7
100
AcDbLine
 10
1123.940797171335
 20
964.8412488541879
 30
0.0
 11
1123.940797171335
 21
949.8412488541887
 31
0.0
  0
LINE
  5
4F8
330
1F
100
AcDbEntity
  8
LAY-10
  6
CONTINUOUS
 62
     7
100
AcDbLine
 10
1076.940797171334
 20
919.8412488541869
 30
0.0
 11
1076.940797171334
 21
964.8412488541879
 31
0.0
  0
LINE
  5
4F9
330
1F
100
AcDbEntity
  8
LAY-10
  6
CONTINUOUS
 62
     7
100
AcDbLine
 10
1108.940797171334
 20
964.8412488541879
 30
0.0
 11
1108.940797171334
 21
919.8412488541869
 31
0.0
  0
LINE
  5
4FA
330
1F
100
AcDbEntity
  8
LAY-10
  6
CONTINUOUS
 62
     7
100
AcDbLine
 10
1120.940797171334
 20
961.8412488541878
 30
0.0
 11
1108.940797171334
 21
961.8412488541878
 31
0.0
  0
LINE
  5
4FB
330
1F
100
AcDbEntity
  8
LAY-10
  6
CONTINUOUS
 62
     7
100
AcDbLine
 10
692.9407971713599
 20
916.6412488541886
 30
0.0
 11
1114.940797171359
 21
916.6412488541886
 31
0.0
  0
LINE
  5
4FC
330
1F
100
AcDbEntity
  8
LAY-10
  6
CONTINUOUS
 62
     7
100
AcDbLine
 10
693.1407971713361
 20
919.8412488541869
 30
0.0
 11
1114.740797171335
 21
919.8412488541869
 31
0.0
  0
LINE
  5
4FD
330
1F
100
AcDbEntity
  8
LAY-10
  6
CONTINUOUS
 62
     7
100
AcDbLine
 10
1123.940797171335
 20
964.8412488541879
 30
0.0
 11
683.9407971713363
 21
964.8412488541879
 31
0.0
  0
LINE
  5
4FE
330
1F
100
AcDbEntity
  8
LAY-10
  6
CONTINUOUS
 62
     7
100
AcDbLine
 10
1076.940797171334
 20
961.8412488541878
 30
0.0
 11
730.9407971713345
 21
961.8412488541884
 31
0.0
  0
LINE
  5
4FF
330
1F
100
AcDbEntity
  8
LAY-10
  6
CONTINUOUS
 62
     7
100
AcDbLine
 10
1244.440797171349
 20
897.641248854188
 30
0.0
 11
1447.44079717127
 21
897.641248854188
 31
0.0
  0
LINE
  5
500
330
1F
100
AcDbEntity
  8
LAY-10
  6
CONTINUOUS
 62
     7
100
AcDbLine
 10
1244.440797171349
 20
897.6412488541889
 30
0.0
 11
1244.440797171349
 21
916.6412488541889
 31
0.0
  0
LINE
  5
501
330
1F
100
AcDbEntity
  8
LAY-10
  6
CONTINUOUS
 62
     7
100
AcDbLine
 10
1247.44079717135
 20
897.641248854188
 30
0.0
 11
1247.44079717135
 21
916.6412488541889
 31
0.0
  0
LINE
  5
502
330
1F
100
AcDbEntity
  8
LAY-10
  6
CONTINUOUS
 62
     7
100
AcDbLine
 10
1447.44079717127
 20
897.6412488541889
 30
0.0
 11
1447.44079717127
 21
916.6412488541889
 31
0.0
  0
LINE
  5
503
330
1F
100
AcDbEntity
  8
LAY-10
  6
CONTINUOUS
 62
     7
100
AcDbLine
 10
1444.44079717127
 20
897.641248854188
 30
0.0
 11
1444.44079717127
 21
916.6412488541889
 31
0.0
  0
LINE
  5
504
330
1F
100
AcDbEntity
  8
LAY-10
  6
CONTINUOUS
 62
     7
100
AcDbLine
 10
1132.140797171335
 20
961.8412488541878
 30
0.0
 11
1132.140797171335
 21
922.8412488541869
 31
0.0
  0
ARC
  5
505
330
1F
100
AcDbEntity
  8
LAY-10
  6
CONTINUOUS
 62
     7
100
AcDbCircle
 10
1135.140797171336
 20
922.8412488541869
 30
0.0
 40
3.000000000000003
100
AcDbArc
 50
180.0
 51
270.0000000000002
  0
ARC
  5
506
330
1F
100
AcDbEntity
  8
LAY-10
  6
CONTINUOUS
 62
     7
100
AcDbCircle
 10
1134.940797171336
 20
922.6412488541862
 30
0.0
 40
6.000000000000006
100
AcDbArc
 50
180.0
 51
270.0000000000002
  0
LINE
  5
507
330
1F
100
AcDbEntity
  8
LAY-10
  6
CONTINUOUS
 62
     7
100
AcDbLine
 10
1128.940797171337
 20
961.8412488541878
 30
0.0
 11
1128.940797171337
 21
922.6412488541862
 31
0.0
  0
LINE
  5
508
330
1F
100
AcDbEntity
  8
LAY-10
  6
CONTINUOUS
 62
     7
100
AcDbLine
 10
1125.940797171336
 20
964.8412488541879
 30
0.0
 11
1125.940797171336
 21
949.8412488541887
 31
0.0
  0
LINE
  5
509
330
1F
100
AcDbEntity
  8
LAY-10
  6
CONTINUOUS
 62
     7
100
AcDbLine
 10
1125.940797171336
 20
949.8412488541887
 30
0.0
 11
1128.940797171337
 21
949.8412488541887
 31
0.0
  0
LINE
  5
50A
330
1F
100
AcDbEntity
  8
LAY-10
  6
CONTINUOUS
 62
     7
100
AcDbLine
 10
1172.940797171335
 20
919.8412488541869
 30
0.0
 11
1172.940797171335
 21
964.8412488541879
 31
0.0
  0
LINE
  5
50B
330
1F
100
AcDbEntity
  8
LAY-10
  6
CONTINUOUS
 62
     7
100
AcDbLine
 10
1140.940797171336
 20
964.8412488541879
 30
0.0
 11
1140.940797171336
 21
919.8412488541869
 31
0.0
  0
LINE
  5
50C
330
1F
100
AcDbEntity
  8
LAY-10
  6
CONTINUOUS
 62
     7
100
AcDbLine
 10
1128.940797171337
 20
961.8412488541878
 30
0.0
 11
1140.940797171336
 21
961.8412488541878
 31
0.0
  0
LINE
  5
50D
330
1F
100
AcDbEntity
  8
LAY-10
  6
CONTINUOUS
 62
     7
100
AcDbLine
 10
1559.740797171335
 20
961.8412488541878
 30
0.0
 11
1559.740797171335
 21
922.8412488541869
 31
0.0
  0
ARC
  5
50E
330
1F
100
AcDbEntity
  8
LAY-10
  6
CONTINUOUS
 62
     7
100
AcDbCircle
 10
1556.740797171335
 20
922.8412488541869
 30
0.0
 40
3.000000000000003
100
AcDbArc
 50
270.0000000000002
 51
0.0
  0
ARC
  5
50F
330
1F
100
AcDbEntity
  8
LAY-10
  6
CONTINUOUS
 62
     7
100
AcDbCircle
 10
1556.940797171334
 20
922.6412488541877
 30
0.0
 40
6.000000000000006
100
AcDbArc
 50
270.0000000000002
 51
0.0
  0
LINE
  5
510
330
1F
100
AcDbEntity
  8
LAY-10
  6
CONTINUOUS
 62
     7
100
AcDbLine
 10
1562.940797171334
 20
961.8412488541878
 30
0.0
 11
1562.940797171334
 21
922.6412488541877
 31
0.0
  0
LINE
  5
511
330
1F
100
AcDbEntity
  8
LAY-10
  6
CONTINUOUS
 62
     7
100
AcDbLine
 10
1565.940797171335
 20
949.8412488541887
 30
0.0
 11
1562.940797171334
 21
949.8412488541887
 31
0.0
  0
LINE
  5
512
330
1F
100
AcDbEntity
  8
LAY-10
  6
CONTINUOUS
 62
     7
100
AcDbLine
 10
1565.940797171335
 20
964.8412488541879
 30
0.0
 11
1565.940797171335
 21
949.8412488541887
 31
0.0
  0
LINE
  5
513
330
1F
100
AcDbEntity
  8
LAY-10
  6
CONTINUOUS
 62
     7
100
AcDbLine
 10
1518.940797171334
 20
919.8412488541869
 30
0.0
 11
1518.940797171334
 21
964.8412488541879
 31
0.0
  0
LINE
  5
514
330
1F
100
AcDbEntity
  8
LAY-10
  6
CONTINUOUS
 62
     7
100
AcDbLine
 10
1550.940797171334
 20
964.8412488541879
 30
0.0
 11
1550.940797171334
 21
919.8412488541869
 31
0.0
  0
LINE
  5
515
330
1F
100
AcDbEntity
  8
LAY-10
  6
CONTINUOUS
 62
     7
100
AcDbLine
 10
1562.940797171334
 20
961.8412488541878
 30
0.0
 11
1550.940797171334
 21
961.8412488541878
 31
0.0
  0
LINE
  5
516
330
1F
100
AcDbEntity
  8
LAY-10
  6
CONTINUOUS
 62
     7
100
AcDbLine
 10
1134.94079717136
 20
916.6412488541886
 30
0.0
 11
1556.940797171359
 21
916.6412488541886
 31
0.0
  0
LINE
  5
517
330
1F
100
AcDbEntity
  8
LAY-10
  6
CONTINUOUS
 62
     7
100
AcDbLine
 10
1135.140797171336
 20
919.8412488541869
 30
0.0
 11
1556.740797171335
 21
919.8412488541869
 31
0.0
  0
LINE
  5
518
330
1F
100
AcDbEntity
  8
LAY-10
  6
CONTINUOUS
 62
     7
100
AcDbLine
 10
1565.940797171335
 20
964.8412488541879
 30
0.0
 11
1125.940797171336
 21
964.8412488541879
 31
0.0
  0
LINE
  5
519
330
1F
100
AcDbEntity
  8
LAY-10
  6
CONTINUOUS
 62
     7
100
AcDbLine
 10
1518.940797171334
 20
961.8412488541878
 30
0.0
 11
1172.940797171335
 21
961.8412488541884
 31
0.0
  0
LINE
  5
51A
330
1F
100
AcDbEntity
  8
LAY-10
  6
CONTINUOUS
 62
     7
100
AcDbLine
 10
1569.940797171147
 20
914.6412488541639
 30
0.0
 11
1447.44079717127
 21
914.6412488541639
 31
0.0
  0
LINE
  5
51B
330
1F
100
AcDbEntity
  8
LAY-10
  6
CONTINUOUS
 62
     7
100
AcDbLine
 10
1244.440797171349
 20
914.6412488541644
 30
0.0
 11
1005.44079717127
 21
914.6412488541639
 31
0.0
  0
LINE
  5
51C
330
1F
100
AcDbEntity
  8
LAY-10
  6
CONTINUOUS
 62
     7
100
AcDbLine
 10
802.440797171349
 20
914.6412488541639
 30
0.0
 11
679.9407971712708
 21
914.6412488541639
 31
0.0
  0
LINE
  5
51D
330
1F
100
AcDbEntity
  8
LAY-10
  6
CONTINUOUS
 62
     7
100
AcDbLine
 10
1526.940797171147
 20
868.0412488541635
 30
0.0
 11
1526.940797171147
 21
877.0412488541617
 31
0.0
  0
LINE
  5
51E
330
1F
100
AcDbEntity
  8
LAY-10
  6
CONTINUOUS
 62
     7
100
AcDbLine
 10
817.9407971712203
 20
831.0412488541868
 30
0.0
 11
817.9407971712203
 21
833.0412488541863
 31
0.0
  0
ARC
  5
51F
330
1F
100
AcDbEntity
  8
LAY-10
  6
CONTINUOUS
 62
     7
100
AcDbCircle
 10
820.940797171219
 20
833.0412488541863
 30
0.0
 40
4.0
100
AcDbArc
 50
48.56057832087459
 51
180.0
  0
LINE
  5
520
330
1F
100
AcDbEntity
  8
LAY-10
  6
CONTINUOUS
 62
     7
100
AcDbLine
 10
864.731664551145
 20
836.0398723916226
 30
0.0
 11
820.9399061702529
 21
836.0398723916226
 31
0.0
  0
ARC
  5
521
330
1F
100
AcDbEntity
  8
LAY-10
  6
CONTINUOUS
 62
     7
100
AcDbCircle
 10
820.940797171219
 20
833.0412488541863
 30
0.0
 40
3.000000000000003
100
AcDbArc
 50
118.2591595337561
 51
180.0
  0
LINE
  5
522
330
1F
100
AcDbEntity
  8
LAY-10
  6
CONTINUOUS
 62
     7
100
AcDbLine
 10
820.9399061702529
 20
836.039466852246
 30
0.0
 11
820.7407971712191
 21
836.039466852246
 31
0.0
  0
LINE
  5
523
330
1F
100
AcDbEntity
  8
LAY-10
  6
CONTINUOUS
 62
     7
100
AcDbLine
 10
816.9407971712203
 20
831.0412488541868
 30
0.0
 11
807.9407971712203
 21
831.0412488541868
 31
0.0
  0
LINE
  5
524
330
1F
100
AcDbEntity
  8
LAY-10
  6
CONTINUOUS
 62
     7
100
AcDbLine
 10
816.9407971712203
 20
833.0412488541863
 30
0.0
 11
816.9407971712203
 21
831.0412488541868
 31
0.0
  0
ARC
  5
525
330
1F
100
AcDbEntity
  8
LAY-10
  6
CONTINUOUS
 62
     7
100
AcDbCircle
 10
816.9407971712203
 20
831.0412488541872
 30
0.0
 40
1.0
100
AcDbArc
 50
270.0
 51
0.0
  0
ARC
  5
526
330
1F
100
AcDbEntity
  8
LAY-10
  6
CONTINUOUS
 62
     7
100
AcDbCircle
 10
820.9399061702529
 20
833.0403578532171
 30
0.0
 40
2.999108999030569
100
AcDbArc
 50
90.00000000000001
 51
270.0
  0
CIRCLE
  5
527
330
1F
100
AcDbEntity
  8
LAY-10
  6
CONTINUOUS
 62
     7
100
AcDbCircle
 10
864.640797171221
 20
833.0412488541863
 30
0.0
 40
3.000000000000003
  0
LINE
  5
528
330
1F
100
AcDbEntity
  8
LAY-10
  6
CONTINUOUS
 62
     7
100
AcDbLine
 10
807.9407971712203
 20
831.0412488541868
 30
0.0
 11
807.9407971712203
 21
830.0412488541867
 31
0.0
  0
ARC
  5
529
330
1F
100
AcDbEntity
  8
LAY-10
  6
CONTINUOUS
 62
     7
100
AcDbCircle
 10
728.7407971712154
 20
777.841248854191
 30
0.0
 40
3.000000000000003
100
AcDbArc
 50
180.0
 51
270.0000000000002
  0
LINE
  5
52A
330
1F
100
AcDbEntity
  8
LAY-10
  6
CONTINUOUS
 62
     7
100
AcDbLine
 10
734.5407971712184
 20
781.6412488541848
 30
0.0
 11
734.5407971712184
 21
828.4412488541859
 31
0.0
  0
LINE
  5
52B
330
1F
100
AcDbEntity
  8
LAY-10
  6
CONTINUOUS
 62
     7
100
AcDbLine
 10
732.9407971712199
 20
830.0412488541867
 30
0.0
 11
732.9407971712199
 21
778.0412488541847
 31
0.0
  0
LINE
  5
52C
330
1F
100
AcDbEntity
  8
LAY-10
  6
CONTINUOUS
 62
     7
100
AcDbLine
 10
757.9407971712199
 20
778.0412488541847
 30
0.0
 11
757.9407971712199
 21
780.0412488541863
 31
0.0
  0
LINE
  5
52D
330
1F
100
AcDbEntity
  8
LAY-10
  6
CONTINUOUS
 62
     7
100
AcDbLine
 10
732.9407971712199
 20
778.0412488541881
 30
0.0
 11
757.9407971712199
 21
778.0412488541881
 31
0.0
  0
LINE
  5
52E
330
1F
100
AcDbEntity
  8
LAY-10
  6
CONTINUOUS
 62
     7
100
AcDbLine
 10
774.9407971712108
 20
778.0412488541847
 30
0.0
 11
774.9407971712108
 21
774.8412488541857
 31
0.0
  0
LINE
  5
52F
330
1F
100
AcDbEntity
  8
LAY-10
  6
CONTINUOUS
 62
     7
100
AcDbLine
 10
728.9407971712235
 20
778.0412488541995
 30
0.0
 11
774.9407971712199
 21
778.0412488541995
 31
0.0
  0
LINE
  5
530
330
1F
100
AcDbEntity
  8
LAY-10
  6
CONTINUOUS
 62
     7
100
AcDbLine
 10
728.7407971712154
 20
774.8412488541899
 30
0.0
 11
774.9407971712199
 21
774.8412488541899
 31
0.0
  0
LINE
  5
531
330
1F
100
AcDbEntity
  8
LAY-10
  6
CONTINUOUS
 62
     7
100
AcDbLine
 10
688.0423123613755
 20
781.7290555454404
 30
0.0
 11
682.3854581118821
 21
787.3859097949361
 31
0.0
  0
LINE
  5
532
330
1F
100
AcDbEntity
  8
LAY-10
  6
CONTINUOUS
 62
     7
100
AcDbLine
 10
682.3854581118821
 20
787.3859097949361
 30
0.0
 11
717.7407971712046
 21
822.7412488542623
 31
0.0
  0
LINE
  5
533
330
1F
100
AcDbEntity
  8
LAY-10
  6
CONTINUOUS
 62
     7
100
AcDbLine
 10
688.0423123613755
 20
781.7290555454404
 30
0.0
 11
723.3976514207033
 21
817.0843946047685
 31
0.0
  0
ARC
  5
534
330
1F
100
AcDbEntity
  8
LAY-10
  6
CONTINUOUS
 62
     7
100
AcDbCircle
 10
717.7407971712117
 20
822.7412488542616
 30
0.0
 40
8.0
100
AcDbArc
 50
314.9999999999769
 51
0.0000000000000573
  0
LINE
  5
535
330
1F
100
AcDbEntity
  8
LAY-10
  6
CONTINUOUS
 62
     7
100
AcDbLine
 10
728.9407971712726
 20
865.041248854206
 30
0.0
 11
728.9407971712726
 21
778.0412488541847
 31
0.0
  0
LINE
  5
536
330
1F
100
AcDbEntity
  8
LAY-10
  6
CONTINUOUS
 62
     7
100
AcDbLine
 10
1431.940797171198
 20
831.0412488541868
 30
0.0
 11
1431.940797171198
 21
833.0412488541863
 31
0.0
  0
ARC
  5
537
330
1F
100
AcDbEntity
  8
LAY-10
  6
CONTINUOUS
 62
     7
100
AcDbCircle
 10
1428.940797171199
 20
833.0412488541863
 30
0.0
 40
4.0
100
AcDbArc
 50
0.0
 51
131.4394216791254
  0
LINE
  5
538
330
1F
100
AcDbEntity
  8
LAY-10
  6
CONTINUOUS
 62
     7
100
AcDbLine
 10
1385.149929791273
 20
836.0398723916226
 30
0.0
 11
1428.941688172165
 21
836.0398723916226
 31
0.0
  0
ARC
  5
539
330
1F
100
AcDbEntity
  8
LAY-10
  6
CONTINUOUS
 62
     7
100
AcDbCircle
 10
1428.940797171199
 20
833.0412488541863
 30
0.0
 40
3.000000000000003
100
AcDbArc
 50
0.0
 51
61.74084046624385
  0
LINE
  5
53A
330
1F
100
AcDbEntity
  8
LAY-10
  6
CONTINUOUS
 62
     7
100
AcDbLine
 10
1428.941688172165
 20
836.039466852246
 30
0.0
 11
1429.140797171199
 21
836.039466852246
 31
0.0
  0
LINE
  5
53B
330
1F
100
AcDbEntity
  8
LAY-10
  6
CONTINUOUS
 62
     7
100
AcDbLine
 10
1432.940797171198
 20
831.0412488541868
 30
0.0
 11
1441.940797171198
 21
831.0412488541868
 31
0.0
  0
LINE
  5
53C
330
1F
100
AcDbEntity
  8
LAY-10
  6
CONTINUOUS
 62
     7
100
AcDbLine
 10
1432.940797171198
 20
833.0412488541863
 30
0.0
 11
1432.940797171198
 21
831.0412488541868
 31
0.0
  0
ARC
  5
53D
330
1F
100
AcDbEntity
  8
LAY-10
  6
CONTINUOUS
 62
     7
100
AcDbCircle
 10
1432.940797171198
 20
831.0412488541872
 30
0.0
 40
1.0
100
AcDbArc
 50
180.0
 51
270.0000000000002
  0
ARC
  5
53E
330
1F
100
AcDbEntity
  8
LAY-10
  6
CONTINUOUS
 62
     7
100
AcDbCircle
 10
1428.941688172165
 20
833.0403578532171
 30
0.0
 40
2.999108999030569
100
AcDbArc
 50
270.0000000000002
 51
90.00000000000001
  0
CIRCLE
  5
53F
330
1F
100
AcDbEntity
  8
LAY-10
  6
CONTINUOUS
 62
     7
100
AcDbCircle
 10
1385.240797171197
 20
833.0412488541863
 30
0.0
 40
3.000000000000003
  0
LINE
  5
540
330
1F
100
AcDbEntity
  8
LAY-10
  6
CONTINUOUS
 62
     7
100
AcDbLine
 10
1441.940797171198
 20
831.0412488541868
 30
0.0
 11
1441.940797171198
 21
830.0412488541867
 31
0.0
  0
ARC
  5
541
330
1F
100
AcDbEntity
  8
LAY-10
  6
CONTINUOUS
 62
     7
100
AcDbCircle
 10
1521.140797171202
 20
777.841248854191
 30
0.0
 40
3.000000000000003
100
AcDbArc
 50
270.0000000000002
 51
0.0
  0
LINE
  5
542
330
1F
100
AcDbEntity
  8
LAY-10
  6
CONTINUOUS
 62
     7
100
AcDbLine
 10
1561.839281981042
 20
781.7290555454404
 30
0.0
 11
1567.496136230536
 21
787.3859097949361
 31
0.0
  0
LINE
  5
543
330
1F
100
AcDbEntity
  8
LAY-10
  6
CONTINUOUS
 62
     7
100
AcDbLine
 10
1567.496136230536
 20
787.3859097949361
 30
0.0
 11
1532.140797171213
 21
822.7412488542623
 31
0.0
  0
LINE
  5
544
330
1F
100
AcDbEntity
  8
LAY-10
  6
CONTINUOUS
 62
     7
100
AcDbLine
 10
1561.839281981042
 20
781.7290555454404
 30
0.0
 11
1526.483942921716
 21
817.0843946047685
 31
0.0
  0
ARC
  5
545
330
1F
100
AcDbEntity
  8
LAY-10
  6
CONTINUOUS
 62
     7
100
AcDbCircle
 10
1532.140797171207
 20
822.7412488542616
 30
0.0
 40
8.0
100
AcDbArc
 50
180.0
 51
225.0000000000231
  0
ARC
  5
546
330
1F
100
AcDbEntity
  8
LAY-10
  6
CONTINUOUS
 62
     7
100
AcDbCircle
 10
1521.140797171202
 20
777.841248854191
 30
0.0
 40
3.000000000000003
100
AcDbArc
 50
270.0000000000002
 51
0.0
  0
LINE
  5
547
330
1F
100
AcDbEntity
  8
LAY-10
  6
CONTINUOUS
 62
     7
100
AcDbLine
 10
1491.940797171198
 20
778.0412488541847
 30
0.0
 11
1491.940797171198
 21
780.0412488541863
 31
0.0
  0
LINE
  5
548
330
1F
100
AcDbEntity
  8
LAY-10
  6
CONTINUOUS
 62
     7
100
AcDbLine
 10
1516.940797171198
 20
778.0412488541881
 30
0.0
 11
1491.940797171198
 21
778.0412488541881
 31
0.0
  0
LINE
  5
549
330
1F
100
AcDbEntity
  8
LAY-10
  6
CONTINUOUS
 62
     7
100
AcDbLine
 10
1474.940797171205
 20
778.0412488541847
 30
0.0
 11
1474.940797171205
 21
774.8412488541857
 31
0.0
  0
LINE
  5
54A
330
1F
100
AcDbEntity
  8
LAY-10
  6
CONTINUOUS
 62
     7
100
AcDbLine
 10
1520.940797171194
 20
778.0412488541995
 30
0.0
 11
1474.940797171198
 21
778.0412488541995
 31
0.0
  0
LINE
  5
54B
330
1F
100
AcDbEntity
  8
LAY-10
  6
CONTINUOUS
 62
     7
100
AcDbLine
 10
1521.140797171202
 20
774.8412488541899
 30
0.0
 11
1474.940797171198
 21
774.8412488541899
 31
0.0
  0
LINE
  5
54C
330
1F
100
AcDbEntity
  8
LAY-10
  6
CONTINUOUS
 62
     7
100
AcDbLine
 10
1520.940797171147
 20
865.041248854206
 30
0.0
 11
1520.940797171147
 21
778.0412488541847
 31
0.0
  0
LINE
  5
54D
330
1F
100
AcDbEntity
  8
LAY-10
  6
CONTINUOUS
 62
     7
100
AcDbLine
 10
1515.340797171199
 20
781.6412488541848
 30
0.0
 11
1515.340797171199
 21
828.4412488541859
 31
0.0
  0
LINE
  5
54E
330
1F
100
AcDbEntity
  8
LAY-10
  6
CONTINUOUS
 62
     7
100
AcDbLine
 10
1516.940797171198
 20
830.0412488541867
 30
0.0
 11
1516.940797171198
 21
780.0412488541863
 31
0.0
  0
LINE
  5
54F
330
1F
100
AcDbEntity
  8
LAY-10
  6
CONTINUOUS
 62
     7
100
AcDbLine
 10
732.9407971712199
 20
780.0412488541863
 30
0.0
 11
1516.940797171198
 21
780.0412488541863
 31
0.0
  0
LINE
  5
550
330
1F
100
AcDbEntity
  8
LAY-10
  6
CONTINUOUS
 62
     7
100
AcDbLine
 10
734.5407971712184
 20
781.6412488541848
 30
0.0
 11
1515.340797171199
 21
781.6412488541848
 31
0.0
  0
LINE
  5
551
330
1F
100
AcDbEntity
  8
LAY-10
  6
CONTINUOUS
 62
     7
100
AcDbLine
 10
1515.340797171199
 20
828.4412488541841
 30
0.0
 11
734.5407971712184
 21
828.4412488541859
 31
0.0
  0
LINE
  5
552
330
1F
100
AcDbEntity
  8
LAY-10
  6
CONTINUOUS
 62
     7
100
AcDbLine
 10
1516.940797171198
 20
830.0412488541845
 30
0.0
 11
732.9407971712199
 21
830.0412488541867
 31
0.0
  0
LINE
  5
553
330
1F
100
AcDbEntity
  8
LAY-10
  6
CONTINUOUS
 62
     7
100
AcDbLine
 10
717.7407971712046
 20
852.7412488542598
 30
0.0
 11
725.7407971712082
 21
852.7412488542598
 31
0.0
  0
LINE
  5
554
330
1F
100
AcDbEntity
  8
LAY-10
  6
CONTINUOUS
 62
     7
100
AcDbLine
 10
717.7407971712046
 20
822.7412488542623
 30
0.0
 11
717.7407971712046
 21
852.7412488542598
 31
0.0
  0
LINE
  5
555
330
1F
100
AcDbEntity
  8
LAY-10
  6
CONTINUOUS
 62
     7
100
AcDbLine
 10
725.7407971712191
 20
777.841248854186
 30
0.0
 11
725.7407971712191
 21
864.8412488541652
 31
0.0
  0
LINE
  5
556
330
1F
100
AcDbEntity
  8
LAY-10
  6
CONTINUOUS
 62
     7
100
AcDbLine
 10
1532.140797171213
 20
852.7412488542598
 30
0.0
 11
1524.14079717121
 21
852.7412488542598
 31
0.0
  0
LINE
  5
557
330
1F
100
AcDbEntity
  8
LAY-10
  6
CONTINUOUS
 62
     7
100
AcDbLine
 10
1532.140797171213
 20
852.7412488542598
 30
0.0
 11
1524.14079717121
 21
852.7412488542598
 31
0.0
  0
LINE
  5
558
330
1F
100
AcDbEntity
  8
LAY-10
  6
CONTINUOUS
 62
     7
100
AcDbLine
 10
1532.140797171213
 20
822.7412488542623
 30
0.0
 11
1532.140797171213
 21
852.7412488542598
 31
0.0
  0
LINE
  5
559
330
1F
100
AcDbEntity
  8
LAY-10
  6
CONTINUOUS
 62
     7
100
AcDbLine
 10
1524.140797171199
 20
777.841248854186
 30
0.0
 11
1524.140797171199
 21
864.8412488541629
 31
0.0
  0
LINE
  5
55A
330
1F
100
AcDbEntity
  8
LAY-10
  6
CONTINUOUS
 62
     7
100
AcDbLine
 10
693.940797171269
 20
894.8412488541629
 30
0.0
 11
693.940797171269
 21
890.6412488541639
 31
0.0
  0
LINE
  5
55B
330
1F
100
AcDbEntity
  8
LAY-10
  6
CONTINUOUS
 62
     7
100
AcDbLine
 10
692.9407971712707
 20
893.8412488541628
 30
0.0
 11
702.9407971712671
 21
893.8412488541628
 31
0.0
  0
LINE
  5
55C
330
1F
100
AcDbEntity
  8
LAY-10
  6
CONTINUOUS
 62
     7
100
AcDbLine
 10
701.9407971712708
 20
894.8412488541629
 30
0.0
 11
701.9407971712708
 21
890.6412488541639
 31
0.0
  0
LINE
  5
55D
330
1F
100
AcDbEntity
  8
LAY-10
  6
CONTINUOUS
 62
     7
100
AcDbLine
 10
693.940797171269
 20
880.2412488541648
 30
0.0
 11
693.940797171269
 21
869.8412488541629
 31
0.0
  0
LINE
  5
55E
330
1F
100
AcDbEntity
  8
LAY-10
  6
CONTINUOUS
 62
     7
100
AcDbLine
 10
693.940797171269
 20
869.8412488541629
 30
0.0
 11
692.9407971712707
 21
868.8412488541628
 31
0.0
  0
LINE
  5
55F
330
1F
100
AcDbEntity
  8
LAY-10
  6
CONTINUOUS
 62
     7
100
AcDbLine
 10
701.9407971712708
 20
880.2412488541648
 30
0.0
 11
701.9407971712708
 21
869.8412488541629
 31
0.0
  0
LINE
  5
560
330
1F
100
AcDbEntity
  8
LAY-10
  6
CONTINUOUS
 62
     7
100
AcDbLine
 10
701.9407971712708
 20
869.8412488541629
 30
0.0
 11
702.9407971712671
 21
868.8412488541628
 31
0.0
  0
LINE
  5
561
330
1F
100
AcDbEntity
  8
LAY-10
  6
CONTINUOUS
 62
     7
100
AcDbLine
 10
1556.940797171148
 20
893.8412488541628
 30
0.0
 11
1546.940797171151
 21
893.8412488541628
 31
0.0
  0
LINE
  5
562
330
1F
100
AcDbEntity
  8
LAY-10
  6
CONTINUOUS
 62
     7
100
AcDbLine
 10
1547.940797171147
 20
894.8412488541629
 30
0.0
 11
1547.940797171147
 21
890.6412488541625
 31
0.0
  0
LINE
  5
563
330
1F
100
AcDbEntity
  8
LAY-10
  6
CONTINUOUS
 62
     7
100
AcDbLine
 10
1555.940797171151
 20
894.8412488541629
 30
0.0
 11
1555.940797171151
 21
890.6412488541625
 31
0.0
  0
LINE
  5
564
330
1F
100
AcDbEntity
  8
LAY-10
  6
CONTINUOUS
 62
     7
100
AcDbLine
 10
1547.940797171147
 20
880.2412488541626
 30
0.0
 11
1547.940797171147
 21
869.8412488541629
 31
0.0
  0
LINE
  5
565
330
1F
100
AcDbEntity
  8
LAY-10
  6
CONTINUOUS
 62
     7
100
AcDbLine
 10
1555.940797171151
 20
880.2412488541626
 30
0.0
 11
1555.940797171151
 21
869.8412488541629
 31
0.0
  0
LINE
  5
566
330
1F
100
AcDbEntity
  8
LAY-10
  6
CONTINUOUS
 62
     7
100
AcDbLine
 10
1547.940797171147
 20
869.8412488541629
 30
0.0
 11
1546.940797171151
 21
868.8412488541628
 31
0.0
  0
LINE
  5
567
330
1F
100
AcDbEntity
  8
LAY-10
  6
CONTINUOUS
 62
     7
100
AcDbLine
 10
1555.940797171151
 20
869.8412488541629
 30
0.0
 11
1556.940797171148
 21
868.8412488541628
 31
0.0
  0
CIRCLE
  5
568
330
1F
100
AcDbEntity
  8
LAY-10
  6
CONTINUOUS
 62
     7
100
AcDbCircle
 10
1385.23990617025
 20
883.2412488541644
 30
0.0
 40
3.000000000000003
  0
LINE
  5
569
330
1F
100
AcDbEntity
  8
LAY-10
  6
CONTINUOUS
 62
     7
100
AcDbLine
 10
1428.940797171218
 20
886.239466852224
 30
0.0
 11
1429.139906170248
 21
886.239466852224
 31
0.0
  0
ARC
  5
56A
330
1F
100
AcDbEntity
  8
LAY-10
  6
CONTINUOUS
 62
     7
100
AcDbCircle
 10
1428.939906170248
 20
883.2412488541638
 30
0.0
 40
4.0
100
AcDbArc
 50
0.0
 51
131.4394216790931
  0
ARC
  5
56B
330
1F
100
AcDbEntity
  8
LAY-10
  6
CONTINUOUS
 62
     7
100
AcDbCircle
 10
1432.939906170247
 20
881.2412488541643
 30
0.0
 40
1.0
100
AcDbArc
 50
180.0
 51
270.0000000000002
  0
LINE
  5
56C
330
1F
100
AcDbEntity
  8
LAY-10
  6
CONTINUOUS
 62
     7
100
AcDbLine
 10
1432.939906170247
 20
883.2412488541644
 30
0.0
 11
1432.939906170247
 21
881.2412488541643
 31
0.0
  0
LINE
  5
56D
330
1F
100
AcDbEntity
  8
LAY-10
  6
CONTINUOUS
 62
     7
100
AcDbLine
 10
1432.939906170247
 20
881.2412488541643
 30
0.0
 11
1441.939906170251
 21
881.2412488541643
 31
0.0
  0
LINE
  5
56E
330
1F
100
AcDbEntity
  8
LAY-10
  6
CONTINUOUS
 62
     7
100
AcDbLine
 10
1441.939906170251
 20
881.2412488541643
 30
0.0
 11
1441.939906170251
 21
880.2412488541648
 31
0.0
  0
LINE
  5
56F
330
1F
100
AcDbEntity
  8
LAY-10
  6
CONTINUOUS
 62
     7
100
AcDbLine
 10
1431.939906170251
 20
881.2412488541643
 30
0.0
 11
1431.939906170251
 21
883.2412488541644
 31
0.0
  0
ARC
  5
570
330
1F
100
AcDbEntity
  8
LAY-10
  6
CONTINUOUS
 62
     7
100
AcDbCircle
 10
1428.939906170248
 20
883.2412488541638
 30
0.0
 40
3.000000000000003
100
AcDbArc
 50
0.0
 51
91.73570458897835
  0
LINE
  5
571
330
1F
100
AcDbEntity
  8
LAY-10
  6
CONTINUOUS
 62
     7
100
AcDbLine
 10
1385.149038790326
 20
886.239872391601
 30
0.0
 11
1429.030773550173
 21
886.239872391601
 31
0.0
  0
ARC
  5
572
330
1F
100
AcDbEntity
  8
LAY-10
  6
CONTINUOUS
 62
     7
100
AcDbCircle
 10
1428.940797171217
 20
883.2403578531955
 30
0.0
 40
2.999108999030569
100
AcDbArc
 50
270.0000000000002
 51
0.0
  0
CIRCLE
  5
573
330
1F
100
AcDbEntity
  8
LAY-10
  6
CONTINUOUS
 62
     7
100
AcDbCircle
 10
864.6416881721675
 20
883.2412488541657
 30
0.0
 40
3.000000000000003
  0
LINE
  5
574
330
1F
100
AcDbEntity
  8
LAY-10
  6
CONTINUOUS
 62
     7
100
AcDbLine
 10
820.9407971711994
 20
886.2394668522257
 30
0.0
 11
820.7416881721697
 21
886.2394668522257
 31
0.0
  0
ARC
  5
575
330
1F
100
AcDbEntity
  8
LAY-10
  6
CONTINUOUS
 62
     7
100
AcDbCircle
 10
820.9416881721695
 20
883.2412488541655
 30
0.0
 40
4.0
100
AcDbArc
 50
48.56057832090708
 51
180.0
  0
ARC
  5
576
330
1F
100
AcDbEntity
  8
LAY-10
  6
CONTINUOUS
 62
     7
100
AcDbCircle
 10
816.9416881721704
 20
881.241248854166
 30
0.0
 40
1.0
100
AcDbArc
 50
270.0
 51
0.0
  0
LINE
  5
577
330
1F
100
AcDbEntity
  8
LAY-10
  6
CONTINUOUS
 62
     7
100
AcDbLine
 10
816.9416881721704
 20
883.2412488541661
 30
0.0
 11
816.9416881721704
 21
881.241248854166
 31
0.0
  0
LINE
  5
578
330
1F
100
AcDbEntity
  8
LAY-10
  6
CONTINUOUS
 62
     7
100
AcDbLine
 10
816.9416881721704
 20
881.241248854166
 30
0.0
 11
807.9416881721668
 21
881.2412488541662
 31
0.0
  0
LINE
  5
579
330
1F
100
AcDbEntity
  8
LAY-10
  6
CONTINUOUS
 62
     7
100
AcDbLine
 10
807.9416881721668
 20
881.2412488541662
 30
0.0
 11
807.9416881721668
 21
880.2412488541665
 31
0.0
  0
LINE
  5
57A
330
1F
100
AcDbEntity
  8
LAY-10
  6
CONTINUOUS
 62
     7
100
AcDbLine
 10
817.9416881721668
 20
881.241248854166
 30
0.0
 11
817.9416881721668
 21
883.2412488541661
 31
0.0
  0
ARC
  5
57B
330
1F
100
AcDbEntity
  8
LAY-10
  6
CONTINUOUS
 62
     7
100
AcDbCircle
 10
820.9416881721695
 20
883.2412488541655
 30
0.0
 40
3.000000000000003
100
AcDbArc
 50
88.26429541102151
 51
180.0
  0
LINE
  5
57C
330
1F
100
AcDbEntity
  8
LAY-10
  6
CONTINUOUS
 62
     7
100
AcDbLine
 10
864.7325555520916
 20
886.2398723916025
 30
0.0
 11
820.8508207922446
 21
886.2398723916027
 31
0.0
  0
ARC
  5
57D
330
1F
100
AcDbEntity
  8
LAY-10
  6
CONTINUOUS
 62
     7
100
AcDbCircle
 10
820.9407971712003
 20
883.2403578531972
 30
0.0
 40
2.999108999030569
100
AcDbArc
 50
180.0
 51
270.0
  0
LINE
  5
57E
330
1F
100
AcDbEntity
  8
LAY-10
  6
CONTINUOUS
 62
     7
100
AcDbLine
 10
950.4407971713
 20
1388.6412488548
 30
0.0
 11
1299.4407971713
 21
2346.6412488547
 31
0.0
  0
LINE
  5
57F
330
1F
100
AcDbEntity
  8
LAY-10
  6
CONTINUOUS
 62
     7
100
AcDbLine
 10
1566.940797171184
 20
2309.641248854757
 30
0.0
 11
1285.961673998014
 21
2309.64124885468
 31
0.0
  0
LINE
  5
580
330
1F
100
AcDbEntity
  8
LAY-10
  6
CONTINUOUS
 62
     7
100
AcDbLine
 10
1563.940797171209
 20
2306.641248854753
 30
0.0
 11
1284.868772119098
 21
2306.641248854678
 31
0.0
  0
LINE
  5
581
330
1F
100
AcDbEntity
  8
LAY-10
  6
CONTINUOUS
 62
     7
100
AcDbLine
 10
1293.61198715035
 20
2330.641248854502
 30
0.0
 11
1140.940797170869
 21
2330.641248854502
 31
0.0
  0
LINE
  5
582
330
1F
100
AcDbEntity
  8
LAY-10
  6
CONTINUOUS
 62
     7
100
AcDbLine
 10
1299.076496544914
 20
2345.641248854476
 30
0.0
 11
1125.940797170866
 21
2345.641248854454
 31
0.0
  0
LINE
  5
583
330
1F
100
AcDbEntity
  8
LAY-10
  6
CONTINUOUS
 62
     7
100
AcDbLine
 10
1265.940797170882
 20
2254.684228796255
 30
0.0
 11
1265.940797170882
 21
2330.641248854561
 31
0.0
  0
LINE
  5
584
330
1F
100
AcDbEntity
  8
LAY-10
  6
CONTINUOUS
 62
     7
100
AcDbLine
 10
1258.440797170882
 20
2234.096836246114
 30
0.0
 11
1258.440797170882
 21
2330.641248854561
 31
0.0
  0
LINE
  5
585
330
1F
100
AcDbEntity
  8
LAY-10
  6
CONTINUOUS
 62
     7
100
AcDbLine
 10
1233.440797170878
 20
2165.472194412299
 30
0.0
 11
1233.440797170878
 21
2330.641248854561
 31
0.0
  0
LINE
  5
586
330
1F
100
AcDbEntity
  8
LAY-10
  6
CONTINUOUS
 62
     7
100
AcDbLine
 10
1225.940797170878
 20
2144.884801862158
 30
0.0
 11
1225.940797170878
 21
2330.641248854561
 31
0.0
  0
LINE
  5
587
330
1F
100
AcDbEntity
  8
LAY-10
  6
CONTINUOUS
 62
     7
100
AcDbLine
 10
1140.940797170869
 20
2330.641248854454
 30
0.0
 11
1140.940797170869
 21
1911.5610196272
 31
0.0
  0
LINE
  5
588
330
1F
100
AcDbEntity
  8
LAY-10
  6
CONTINUOUS
 62
     7
100
AcDbLine
 10
1125.940797170869
 20
2345.641248854454
 30
0.0
 11
1125.940797170869
 21
1870.386234526918
 31
0.0
  0
LINE
  5
589
330
1F
100
AcDbEntity
  8
LAY-10
  6
CONTINUOUS
 62
     7
100
AcDbLine
 10
1123.94079717118
 20
1864.896263181067
 30
0.0
 11
1123.940797171049
 21
2345.641248854506
 31
0.0
  0
LINE
  5
58A
330
1F
100
AcDbEntity
  8
LAY-10
  6
CONTINUOUS
 62
     7
100
AcDbLine
 10
1108.940797171085
 20
1823.721478080524
 30
0.0
 11
1108.940797171016
 21
2330.641248854502
 31
0.0
  0
LINE
  5
58B
330
1F
100
AcDbEntity
  8
LAY-10
  6
CONTINUOUS
 62
     7
100
AcDbLine
 10
991.4407971713061
 20
1501.185661462255
 30
0.0
 11
991.4407971712781
 21
2330.641248854561
 31
0.0
  0
LINE
  5
58C
330
1F
100
AcDbEntity
  8
LAY-10
  6
CONTINUOUS
 62
     7
100
AcDbLine
 10
983.9407971712948
 20
1480.598268912083
 30
0.0
 11
983.9407971712781
 21
2330.641248854561
 31
0.0
  0
LINE
  5
58D
330
1F
100
AcDbEntity
  8
LAY-10
  6
CONTINUOUS
 62
     7
100
AcDbLine
 10
1016.440797171332
 20
1569.81030329613
 30
0.0
 11
1016.440797171281
 21
2330.641248854561
 31
0.0
  0
LINE
  5
58E
330
1F
100
AcDbEntity
  8
LAY-10
  6
CONTINUOUS
 62
     7
100
AcDbLine
 10
1023.940797171338
 20
1590.397695846288
 30
0.0
 11
1023.940797171281
 21
2330.641248854561
 31
0.0
  0
LINE
  5
58F
330
1F
100
AcDbEntity
  8
LAY-10
  6
CONTINUOUS
 62
     7
100
AcDbLine
 10
683.9407971712671
 20
1389.641248854553
 30
0.0
 11
950.8050977975149
 21
1389.641248854553
 31
0.0
  0
LINE
  5
590
330
1F
100
AcDbEntity
  8
LAY-10
  6
CONTINUOUS
 62
     7
100
AcDbLine
 10
1566.940797171184
 20
1425.641248854856
 30
0.0
 11
963.9199203445685
 21
1425.641248854771
 31
0.0
  0
LINE
  5
591
330
1F
100
AcDbEntity
  8
LAY-10
  6
CONTINUOUS
 62
     7
100
AcDbLine
 10
1563.940797171209
 20
1428.641248854859
 30
0.0
 11
965.0128222234836
 21
1428.641248854773
 31
0.0
  0
ARC
  5
592
330
1F
100
AcDbEntity
  8
LAY-10
  6
CONTINUOUS
 62
     7
100
AcDbCircle
 10
739.9407971712652
 20
870.0412488541664
 30
0.0
 40
4.0
100
AcDbArc
 50
90.00000000000001
 51
180.0
  0
ARC
  5
593
330
1F
100
AcDbEntity
  8
LAY-10
  6
CONTINUOUS
 62
     7
100
AcDbCircle
 10
760.9407971712653
 20
876.0412488541659
 30
0.0
 40
2.0
100
AcDbArc
 50
270.0000000000002
 51
0.0
  0
ARC
  5
594
330
1F
100
AcDbEntity
  8
LAY-10
  6
CONTINUOUS
 62
     7
100
AcDbCircle
 10
733.9407971712661
 20
849.0412488541655
 30
0.0
 40
2.0
100
AcDbArc
 50
270.0000000000002
 51
0.0
  0
LINE
  5
595
330
1F
100
AcDbEntity
  8
LAY-10
  6
CONTINUOUS
 62
     7
100
AcDbLine
 10
762.9407971712653
 20
877.041248854165
 30
0.0
 11
762.9407971712653
 21
876.0412488541659
 31
0.0
  0
LINE
  5
596
330
1F
100
AcDbEntity
  8
LAY-10
  6
CONTINUOUS
 62
     7
100
AcDbLine
 10
732.9407971712653
 20
877.041248854165
 30
0.0
 11
732.9407971712653
 21
847.0412488541655
 31
0.0
  0
LINE
  5
597
330
1F
100
AcDbEntity
  8
LAY-10
  6
CONTINUOUS
 62
     7
100
AcDbLine
 10
735.9407971712653
 20
870.0412488541664
 30
0.0
 11
735.9407971712653
 21
849.0412488541655
 31
0.0
  0
ARC
  5
598
330
1F
100
AcDbEntity
  8
LAY-10
  6
CONTINUOUS
 62
     7
100
AcDbCircle
 10
2120.597537416093
 20
1482.641248854695
 30
0.0
 40
4.0
100
AcDbArc
 50
180.0
 51
270.0
  0
ARC
  5
599
330
1F
100
AcDbEntity
  8
LAY-10
  6
CONTINUOUS
 62
     7
100
AcDbCircle
 10
2114.597537416094
 20
1503.641248854695
 30
0.0
 40
2.0
100
AcDbArc
 50
0.0000000000001719
 51
90.00000000000001
  0
ARC
  5
59A
330
1F
100
AcDbEntity
  8
LAY-10
  6
CONTINUOUS
 62
     7
100
AcDbCircle
 10
2141.597537416094
 20
1476.641248854696
 30
0.0
 40
2.0
100
AcDbArc
 50
0.0000000000001719
 51
90.00000000000001
  0
LINE
  5
59B
330
1F
100
AcDbEntity
  8
LAY-10
  6
CONTINUOUS
 62
     7
100
AcDbLine
 10
2113.597537416095
 20
1505.641248854695
 30
0.0
 11
2114.597537416094
 21
1505.641248854695
 31
0.0
  0
LINE
  5
59C
330
1F
100
AcDbEntity
  8
LAY-10
  6
CONTINUOUS
 62
     7
100
AcDbLine
 10
2113.597537416095
 20
1475.641248854695
 30
0.0
 11
2143.597537416094
 21
1475.641248854695
 31
0.0
  0
LINE
  5
59D
330
1F
100
AcDbEntity
  8
LAY-10
  6
CONTINUOUS
 62
     7
100
AcDbLine
 10
2120.597537416093
 20
1478.641248854695
 30
0.0
 11
2141.597537416094
 21
1478.641248854695
 31
0.0
  0
LINE
  5
59E
330
1F
100
AcDbEntity
  8
LAY-10
  6
CONTINUOUS
 62
     7
100
AcDbLine
 10
2110.397537416107
 20
1430.141248854707
 30
0.0
 11
2110.397537416107
 21
2305.14124885469
 31
0.0
  0
LINE
  5
59F
330
1F
100
AcDbEntity
  8
LAY-10
  6
CONTINUOUS
 62
     7
100
AcDbLine
 10
2113.597537416111
 20
2289.641248854704
 30
0.0
 11
2113.597537416111
 21
1445.641248854707
 31
0.0
  0
ARC
  5
5A0
330
1F
100
AcDbEntity
  8
LAY-10
  6
CONTINUOUS
 62
     7
100
AcDbCircle
 10
2120.597537416113
 20
2252.641248854711
 30
0.0
 40
4.0
100
AcDbArc
 50
90.00000000000001
 51
180.0
  0
ARC
  5
5A1
330
1F
100
AcDbEntity
  8
LAY-10
  6
CONTINUOUS
 62
     7
100
AcDbCircle
 10
2114.597537416113
 20
2231.641248854712
 30
0.0
 40
2.0
100
AcDbArc
 50
270.0
 51
0.0000000000001719
  0
ARC
  5
5A2
330
1F
100
AcDbEntity
  8
LAY-10
  6
CONTINUOUS
 62
     7
100
AcDbCircle
 10
2141.597537416113
 20
2258.641248854712
 30
0.0
 40
2.0
100
AcDbArc
 50
270.0
 51
0.0000000000001719
  0
LINE
  5
5A3
330
1F
100
AcDbEntity
  8
LAY-10
  6
CONTINUOUS
 62
     7
100
AcDbLine
 10
2143.597537416113
 20
2259.641248854712
 30
0.0
 11
2143.597537416113
 21
2258.641248854712
 31
0.0
  0
LINE
  5
5A4
330
1F
100
AcDbEntity
  8
LAY-10
  6
CONTINUOUS
 62
     7
100
AcDbLine
 10
2113.597537416113
 20
2229.641248854713
 30
0.0
 11
2114.597537416113
 21
2229.641248854713
 31
0.0
  0
LINE
  5
5A5
330
1F
100
AcDbEntity
  8
LAY-10
  6
CONTINUOUS
 62
     7
100
AcDbLine
 10
2120.597537416113
 20
2256.641248854712
 30
0.0
 11
2141.597537416113
 21
2256.641248854712
 31
0.0
  0
LINE
  5
5A6
330
1F
100
AcDbEntity
  8
LAY-10
  6
CONTINUOUS
 62
     7
100
AcDbLine
 10
2113.597537416113
 20
2259.641248854712
 30
0.0
 11
2143.597537416113
 21
2259.641248854712
 31
0.0
  0
POLYLINE
  5
5A7
330
1F
100
AcDbEntity
  8
LAY-10
  6
CONTINUOUS
 62
     7
100
AcDb2dPolyline
 66
     1
 10
0.0
 20
0.0
 30
0.0
 70
   128
  0
VERTEX
  5
5A8
330
5A7
100
AcDbEntity
  8
LAY-10
  6
CONTINUOUS
 62
     7
100
AcDbVertex
100
AcDb2dVertex
 10
2116.597537416094
 20
1482.641248854695
 30
0.0
  0
VERTEX
  5
5A9
330
5A7
100
AcDbEntity
  8
LAY-10
  6
CONTINUOUS
 62
     7
100
AcDbVertex
100
AcDb2dVertex
 10
2116.597537416133
 20
1716.141248854525
 30
0.0
  0
VERTEX
  5
5AA
330
5A7
100
AcDbEntity
  8
LAY-10
  6
CONTINUOUS
 62
     7
100
AcDbVertex
100
AcDb2dVertex
 10
2116.597537416113
 20
2252.641248854711
 30
0.0
  0
SEQEND
  5
5AB
330
5A7
100
AcDbEntity
  8
LAY-10
  6
CONTINUOUS
 62
     7
  0
LINE
  5
5AC
330
1F
100
AcDbEntity
  8
LAY-10
  6
CONTINUOUS
 62
     7
100
AcDbLine
 10
2143.597537416113
 20
2258.641248854712
 30
0.0
 11
2143.597537416094
 21
1475.641248854696
 31
0.0
  0
LINE
  5
5AD
330
1F
100
AcDbEntity
  8
LAY-10
  6
CONTINUOUS
 62
     7
100
AcDbLine
 10
1546.940797171151
 20
877.0412488541635
 30
0.0
 11
702.9407971712707
 21
877.0412488541635
 31
0.0
  0
ARC
  5
5AE
330
1F
100
AcDbEntity
  8
LAY-10
  6
CONTINUOUS
 62
     7
100
AcDbCircle
 10
1509.940797171081
 20
870.0412488541567
 30
0.0
 40
4.0
100
AcDbArc
 50
0.0
 51
90.00000000000001
  0
ARC
  5
5AF
330
1F
100
AcDbEntity
  8
LAY-10
  6
CONTINUOUS
 62
     7
100
AcDbCircle
 10
1488.940797171082
 20
876.0412488541568
 30
0.0
 40
2.0
100
AcDbArc
 50
180.0
 51
270.0000000000002
  0
ARC
  5
5B0
330
1F
100
AcDbEntity
  8
LAY-10
  6
CONTINUOUS
 62
     7
100
AcDbCircle
 10
1515.940797171082
 20
849.0412488541566
 30
0.0
 40
2.0
100
AcDbArc
 50
180.0
 51
270.0000000000002
  0
LINE
  5
5B1
330
1F
100
AcDbEntity
  8
LAY-10
  6
CONTINUOUS
 62
     7
100
AcDbLine
 10
1516.940797171082
 20
847.0412488541566
 30
0.0
 11
1515.940797171082
 21
847.0412488541566
 31
0.0
  0
LINE
  5
5B2
330
1F
100
AcDbEntity
  8
LAY-10
  6
CONTINUOUS
 62
     7
100
AcDbLine
 10
1486.940797171084
 20
877.0412488541567
 30
0.0
 11
1486.940797171084
 21
876.0412488541568
 31
0.0
  0
LINE
  5
5B3
330
1F
100
AcDbEntity
  8
LAY-10
  6
CONTINUOUS
 62
     7
100
AcDbLine
 10
1513.940797171083
 20
870.0412488541567
 30
0.0
 11
1513.940797171083
 21
849.0412488541566
 31
0.0
  0
LINE
  5
5B4
330
1F
100
AcDbEntity
  8
LAY-10
  6
CONTINUOUS
 62
     7
100
AcDbLine
 10
1516.940797171082
 20
877.0412488541567
 30
0.0
 11
1516.940797171082
 21
847.0412488541566
 31
0.0
  0
POLYLINE
  5
5B5
330
1F
100
AcDbEntity
  8
LAY-10
  6
CONTINUOUS
 62
     7
100
AcDb2dPolyline
 66
     1
 10
0.0
 20
0.0
 30
0.0
 70
   128
  0
VERTEX
  5
5B6
330
5B5
100
AcDbEntity
  8
LAY-10
  6
CONTINUOUS
 62
     7
100
AcDbVertex
100
AcDb2dVertex
 10
739.9407971712651
 20
874.0412488541655
 30
0.0
  0
VERTEX
  5
5B7
330
5B5
100
AcDbEntity
  8
LAY-10
  6
CONTINUOUS
 62
     7
100
AcDbVertex
100
AcDb2dVertex
 10
973.4407971710954
 20
874.0412488541264
 30
0.0
  0
VERTEX
  5
5B8
330
5B5
100
AcDbEntity
  8
LAY-10
  6
CONTINUOUS
 62
     7
100
AcDbVertex
100
AcDb2dVertex
 10
1509.940797171081
 20
874.0412488541564
 30
0.0
  0
SEQEND
  5
5B9
330
5B5
100
AcDbEntity
  8
LAY-10
  6
CONTINUOUS
 62
     7
  0
LINE
  5
5BA
330
1F
100
AcDbEntity
  8
LAY-10
  6
CONTINUOUS
 62
     7
100
AcDbLine
 10
1515.940797171082
 20
847.0412488541566
 30
0.0
 11
732.9407971712661
 21
847.0412488541655
 31
0.0
  0
LINE
  5
5BB
330
1F
100
AcDbEntity
  8
LAY-10
  6
CONTINUOUS
 62
     7
100
AcDbLine
 10
1566.9407971711
 20
964.8412488541601
 30
0.0
 11
1566.9407971711
 21
949.8412488541602
 31
0.0
  0
LINE
  5
5BC
330
1F
100
AcDbEntity
  8
LAY-10
  6
CONTINUOUS
 62
     7
100
AcDbLine
 10
1566.9407971711
 20
949.8412488541601
 30
0.0
 11
1569.9407971711
 21
949.8412488541601
 31
0.0
  0
LINE
  5
5BD
330
1F
100
AcDbEntity
  8
LAY-10
  6
CONTINUOUS
 62
     7
100
AcDbLine
 10
1566.9407971711
 20
964.8412488541601
 30
0.0
 11
1581.9407971711
 21
964.8412488541601
 31
0.0
  0
LINE
  5
5BE
330
1F
100
AcDbEntity
  8
LAY-10
  6
CONTINUOUS
 62
     7
100
AcDbLine
 10
1581.9407971711
 20
964.8412488541601
 30
0.0
 11
1581.9407971711
 21
961.8412488541602
 31
0.0
  0
LINE
  5
5BF
330
1F
100
AcDbEntity
  8
LAY-10
  6
CONTINUOUS
 62
     7
100
AcDbLine
 10
1581.9407971711
 20
961.84124885416
 30
0.0
 11
1569.9407971711
 21
961.84124885416
 31
0.0
  0
LINE
  5
5C0
330
1F
100
AcDbEntity
  8
LAY-10
  6
CONTINUOUS
 62
     7
100
AcDbLine
 10
667.94079717127
 20
964.8412488541601
 30
0.0
 11
682.94079717127
 21
964.8412488541601
 31
0.0
  0
LINE
  5
5C1
330
1F
100
AcDbEntity
  8
LAY-10
  6
CONTINUOUS
 62
     7
100
AcDbLine
 10
682.94079717127
 20
964.8412488541601
 30
0.0
 11
682.94079717127
 21
949.8412488541603
 31
0.0
  0
LINE
  5
5C2
330
1F
100
AcDbEntity
  8
LAY-10
  6
CONTINUOUS
 62
     7
100
AcDbLine
 10
682.94079717127
 20
949.8412488541601
 30
0.0
 11
679.94079717127
 21
949.8412488541601
 31
0.0
  0
LINE
  5
5C3
330
1F
100
AcDbEntity
  8
LAY-10
  6
CONTINUOUS
 62
     7
100
AcDbLine
 10
679.94079717127
 20
961.84124885416
 30
0.0
 11
667.94079717127
 21
961.84124885416
 31
0.0
  0
LINE
  5
5C4
330
1F
100
AcDbEntity
  8
LAY-10
  6
CONTINUOUS
 62
     7
100
AcDbLine
 10
667.94079717127
 20
961.84124885416
 30
0.0
 11
667.94079717127
 21
964.8412488541603
 31
0.0
  0
LINE
  5
5C5
330
1F
100
AcDbEntity
  8
LAY-10
  6
CONTINUOUS
 62
     7
100
AcDbLine
 10
2025.7975374161
 20
2346.6412488547
 30
0.0
 11
2040.7975374161
 21
2346.6412488547
 31
0.0
  0
LINE
  5
5C6
330
1F
100
AcDbEntity
  8
LAY-10
  6
CONTINUOUS
 62
     7
100
AcDbLine
 10
2040.7975374161
 20
2346.6412488547
 30
0.0
 11
2040.7975374161
 21
2349.6412488547
 31
0.0
  0
LINE
  5
5C7
330
1F
100
AcDbEntity
  8
LAY-10
  6
CONTINUOUS
 62
     7
100
AcDbLine
 10
2025.7975374161
 20
2346.6412488547
 30
0.0
 11
2025.7975374161
 21
2361.6412488547
 31
0.0
  0
LINE
  5
5C8
330
1F
100
AcDbEntity
  8
LAY-10
  6
CONTINUOUS
 62
     7
100
AcDbLine
 10
2025.7975374161
 20
2361.6412488547
 30
0.0
 11
2028.7975374161
 21
2361.6412488547
 31
0.0
  0
LINE
  5
5C9
330
1F
100
AcDbEntity
  8
LAY-10
  6
CONTINUOUS
 62
     7
100
AcDbLine
 10
2028.7975374161
 20
2361.6412488547
 30
0.0
 11
2028.7975374161
 21
2349.6412488547
 31
0.0
  0
LINE
  5
5CA
330
1F
100
AcDbEntity
  8
LAY-10
  6
CONTINUOUS
 62
     7
100
AcDbLine
 10
2040.7975374161
 20
1388.6412488547
 30
0.0
 11
2025.7975374161
 21
1388.6412488547
 31
0.0
  0
LINE
  5
5CB
330
1F
100
AcDbEntity
  8
LAY-10
  6
CONTINUOUS
 62
     7
100
AcDbLine
 10
2025.7975374161
 20
1388.6412488547
 30
0.0
 11
2025.7975374161
 21
1373.6412488547
 31
0.0
  0
LINE
  5
5CC
330
1F
100
AcDbEntity
  8
LAY-10
  6
CONTINUOUS
 62
     7
100
AcDbLine
 10
2025.7975374161
 20
1373.6412488547
 30
0.0
 11
2028.7975374161
 21
1373.6412488547
 31
0.0
  0
LINE
  5
5CD
330
1F
100
AcDbEntity
  8
LAY-10
  6
CONTINUOUS
 62
     7
100
AcDbLine
 10
2028.7975374161
 20
1373.6412488547
 30
0.0
 11
2028.7975374161
 21
1385.6412488547
 31
0.0
  0
LINE
  5
5CE
330
1F
100
AcDbEntity
  8
LAY-10
  6
CONTINUOUS
 62
     7
100
AcDbLine
 10
2040.7975374161
 20
1385.6412488547
 30
0.0
 11
2040.7975374161
 21
1388.6412488547
 31
0.0
  0
LINE
  5
5CF
330
1F
100
AcDbEntity
  8
LAY-10
  6
CONTINUOUS
 62
     7
100
AcDbLine
 10
687.4407971712689
 20
880.2412488541648
 30
0.0
 11
1562.4407971711
 21
880.241248854165
 31
0.0
  0
LINE
  5
5D0
330
1F
100
AcDbEntity
  8
LAY-10
  6
CONTINUOUS
 62
     7
100
AcDbLine
 10
956.2696071921514
 20
1404.641248854729
 30
0.0
 11
698.9407971712681
 21
1404.641248854557
 31
0.0
  0
LINE
  5
5D1
330
1F
100
AcDbEntity
  8
LAY-10
  6
CONTINUOUS
 62
     7
100
AcDbLine
 10
1108.940797170967
 20
2298.64124885452
 30
0.0
 11
1076.940797170969
 21
2298.64124885452
 31
0.0
  0
CIRCLE
  5
5D2
330
1F
100
AcDbEntity
  8
LAY-10
  6
CONTINUOUS
 62
     7
100
AcDbCircle
 10
1092.94079717102
 20
2314.64124885451
 30
0.0
 40
13.0
  0
LINE
  5
5D3
330
1F
100
AcDbEntity
  8
LAY-10
  6
CONTINUOUS
 62
     7
100
AcDbLine
 10
1092.940797170971
 20
2310.641248854487
 30
0.0
 11
1086.44079717097
 21
2314.641248854487
 31
0.0
  0
LINE
  5
5D4
330
1F
100
AcDbEntity
  8
LAY-10
  6
CONTINUOUS
 62
     7
100
AcDbLine
 10
1099.440797170971
 20
2314.641248854487
 30
0.0
 11
1092.940797170971
 21
2310.641248854487
 31
0.0
  0
LINE
  5
5D5
330
1F
100
AcDbEntity
  8
LAY-10
  6
CONTINUOUS
 62
     7
100
AcDbLine
 10
1092.940797170971
 20
2318.641248854487
 30
0.0
 11
1099.440797170971
 21
2314.641248854487
 31
0.0
  0
LINE
  5
5D6
330
1F
100
AcDbEntity
  8
LAY-10
  6
CONTINUOUS
 62
     7
100
AcDbLine
 10
1086.44079717097
 20
2314.641248854487
 30
0.0
 11
1092.940797170971
 21
2318.641248854487
 31
0.0
  0
ARC
  5
5D7
330
1F
100
AcDbEntity
  8
LAY-10
  6
CONTINUOUS
 62
     7
100
AcDbCircle
 10
1092.940797170971
 20
2314.641248854487
 30
0.0
 40
12.75000000000001
100
AcDbArc
 50
108.2838899404034
 51
71.71611005959663
  0
LINE
  5
5D8
330
1F
100
AcDbEntity
  8
LAY-10
  6
CONTINUOUS
 62
     7
100
AcDbLine
 10
1096.94079717097
 20
2325.141248854488
 30
0.0
 11
1088.940797170973
 21
2325.141248854488
 31
0.0
  0
LINE
  5
5D9
330
1F
100
AcDbEntity
  8
LAY-10
  6
CONTINUOUS
 62
     7
100
AcDbLine
 10
1096.94079717097
 20
2325.141248854488
 30
0.0
 11
1096.94079717097
 21
2326.747548867291
 31
0.0
  0
LINE
  5
5DA
330
1F
100
AcDbEntity
  8
LAY-10
  6
CONTINUOUS
 62
     7
100
AcDbLine
 10
1088.940797170973
 20
2325.141248854488
 30
0.0
 11
1088.940797170973
 21
2326.747548867291
 31
0.0
  0
LINE
  5
5DB
330
1F
100
AcDbEntity
  8
LAY-10
  6
CONTINUOUS
 62
     7
100
AcDbLine
 10
1076.940797170973
 20
2298.64124885452
 30
0.0
 11
1076.940797170973
 21
2330.64124885452
 31
0.0
  0
LINE
  5
5DC
330
1F
100
AcDbEntity
  8
LAY-10
  6
CENTER
 62
     2
100
AcDbLine
 10
874.9407971712594
 20
1373.641248854791
 30
0.0
 11
874.9407971712594
 21
1331.841248854792
 31
0.0
  0
LINE
  5
5DD
330
1F
100
AcDbEntity
  8
LAY-10
  6
CENTER
 62
     2
100
AcDbLine
 10
1138.340797171357
 20
1440.641248855027
 30
0.0
 11
1109.940797171355
 21
1440.641248855027
 31
0.0
  0
LINE
  5
5DE
330
1F
100
AcDbEntity
  8
LAY-10
  6
CENTER
 62
     2
100
AcDbLine
 10
1124.940797171356
 20
1455.641248855025
 30
0.0
 11
1124.940797171356
 21
1423.64124885503
 31
0.0
  0
LINE
  5
5DF
330
1F
100
AcDbEntity
  8
LAY-10
  6
CENTER
 62
     2
100
AcDbLine
 10
1024.940797171257
 20
1373.641248854801
 30
0.0
 11
1024.940797171257
 21
1439.841248854489
 31
0.0
  0
LINE
  5
5E0
330
1F
100
AcDbEntity
  8
LAY-10
  6
CENTER
 62
     2
100
AcDbLine
 10
874.9407971712594
 20
2361.641248854719
 30
0.0
 11
874.9407971712594
 21
2403.441248854718
 31
0.0
  0
LINE
  5
5E1
330
1F
100
AcDbEntity
  8
LAY-10
  6
CENTER
 62
     2
100
AcDbLine
 10
1124.940797171261
 20
1343.641248854806
 30
0.0
 11
1124.940797171261
 21
2391.641248854706
 31
0.0
  0
LINE
  5
5E2
330
1F
100
AcDbEntity
  8
LAY-10
  6
CENTER
 62
     2
100
AcDbLine
 10
667.9407971712308
 20
2117.641248854804
 30
0.0
 11
626.1407971712315
 21
2117.641248854804
 31
0.0
  0
LINE
  5
5E3
330
1F
100
AcDbEntity
  8
LAY-10
  6
CENTER
 62
     2
100
AcDbLine
 10
1551.94079717138
 20
1881.041248854798
 30
0.0
 11
1551.94079717138
 21
1852.641248854799
 31
0.0
  0
LINE
  5
5E4
330
1F
100
AcDbEntity
  8
LAY-10
  6
CENTER
 62
     2
100
AcDbLine
 10
1581.940797171292
 20
2117.641248854804
 30
0.0
 11
1623.740797171291
 21
2117.641248854804
 31
0.0
  0
LINE
  5
5E5
330
1F
100
AcDbEntity
  8
LAY-10
  6
CENTER
 62
     2
100
AcDbLine
 10
1565.340797171255
 20
1440.641248854881
 30
0.0
 11
1536.940797171256
 21
1440.641248854881
 31
0.0
  0
LINE
  5
5E6
330
1F
100
AcDbEntity
  8
LAY-10
  6
CENTER
 62
     2
100
AcDbLine
 10
1551.940797171255
 20
1425.64124885488
 30
0.0
 11
1551.940797171255
 21
1457.641248854879
 31
0.0
  0
LINE
  5
5E7
330
1F
100
AcDbEntity
  8
LAY-10
  6
CENTER
 62
     2
100
AcDbLine
 10
1535.940797170951
 20
2294.641248854804
 30
0.0
 11
1535.940797170951
 21
2294.34124885452
 31
0.0
  0
LINE
  5
5E8
330
1F
100
AcDbEntity
  8
LAY-10
  6
CENTER
 62
     2
100
AcDbLine
 10
1566.940797171184
 20
2294.641248854804
 30
0.0
 11
1534.940797171183
 21
2294.641248854804
 31
0.0
  0
LINE
  5
5E9
330
1F
100
AcDbEntity
  8
LAY-10
  6
CENTER
 62
     2
100
AcDbLine
 10
1551.940797171187
 20
2308.041248854802
 30
0.0
 11
1551.940797171187
 21
2279.641248854803
 31
0.0
  0
LINE
  5
5EA
330
1F
100
AcDbEntity
  8
LAY-10
  6
CENTER
 62
     2
100
AcDbLine
 10
637.9407971712671
 20
1867.641248854755
 30
0.0
 11
1611.940797171187
 21
1867.641248854755
 31
0.0
  0
LINE
  5
5EB
330
1F
100
AcDbEntity
  8
LAY-10
  6
CENTER
 62
     2
100
AcDbLine
 10
1374.940797171323
 20
2361.641248854717
 30
0.0
 11
1374.940797171323
 21
2403.441248854716
 31
0.0
  0
LINE
  5
5EC
330
1F
100
AcDbEntity
  8
LAY-10
  6
CENTER
 62
     2
100
AcDbLine
 10
1374.940797171323
 20
1373.641248854793
 30
0.0
 11
1374.940797171323
 21
1331.841248854794
 31
0.0
  0
LINE
  5
5ED
330
1F
100
AcDbEntity
  8
LAY-10
  6
CENTER
 62
     2
100
AcDbLine
 10
714.9407971712689
 20
1402.041248854496
 30
0.0
 11
714.9407971712689
 21
1440.941248854495
 31
0.0
  0
LINE
  5
5EE
330
1F
100
AcDbEntity
  8
LAY-10
  6
CENTER
 62
     2
100
AcDbLine
 10
696.4157971712675
 20
1420.641248854498
 30
0.0
 11
733.9157971712675
 21
1420.641248854498
 31
0.0
  0
LINE
  5
5EF
330
1F
100
AcDbEntity
  8
LAY-10
  6
CENTER
 62
     2
100
AcDbLine
 10
696.4157971712675
 20
2314.641248854518
 30
0.0
 11
733.9157971712675
 21
2314.641248854518
 31
0.0
  0
LINE
  5
5F0
330
1F
100
AcDbEntity
  8
LAY-10
  6
CENTER
 62
     2
100
AcDbLine
 10
714.9407971712689
 20
2333.241248854518
 30
0.0
 11
714.9407971712689
 21
2294.34124885452
 31
0.0
  0
LINE
  5
5F1
330
1F
100
AcDbEntity
  8
LAY-10
  6
CENTER
 62
     2
100
AcDbLine
 10
1138.415797170868
 20
2314.641248854518
 30
0.0
 11
1175.915797170868
 21
2314.641248854518
 31
0.0
  0
LINE
  5
5F2
330
1F
100
AcDbEntity
  8
LAY-10
  6
CENTER
 62
     2
100
AcDbLine
 10
1156.940797170869
 20
2333.241248854518
 30
0.0
 11
1156.940797170869
 21
2294.34124885452
 31
0.0
  0
LINE
  5
5F3
330
1F
100
AcDbEntity
  8
LAY-10
  6
CENTER
 62
     2
100
AcDbLine
 10
667.9407971712308
 20
1617.641248854706
 30
0.0
 11
626.1407971712315
 21
1617.641248854706
 31
0.0
  0
LINE
  5
5F4
330
1F
100
AcDbEntity
  8
LAY-10
  6
CENTER
 62
     2
100
AcDbLine
 10
1581.940797171292
 20
1617.641248854706
 30
0.0
 11
1623.740797171291
 21
1617.641248854706
 31
0.0
  0
LINE
  5
5F5
330
1F
100
AcDbEntity
  8
LAY-10
  6
CENTER
 62
     2
100
AcDbLine
 10
2087.69905260627
 20
1440.641248854708
 30
0.0
 11
2138.899052606268
 21
1440.641248854708
 31
0.0
  0
LINE
  5
5F6
330
1F
100
AcDbEntity
  8
LAY-10
  6
CENTER
 62
     2
100
AcDbLine
 10
2106.497537416105
 20
1379.341248854707
 30
0.0
 11
2106.497537416105
 21
1427.841248854709
 31
0.0
  0
LINE
  5
5F7
330
1F
100
AcDbEntity
  8
LAY-10
  6
CENTER
 62
     2
100
AcDbLine
 10
2087.69905260627
 20
2294.641248854704
 30
0.0
 11
2138.899052606268
 21
2294.641248854704
 31
0.0
  0
LINE
  5
5F8
330
1F
100
AcDbEntity
  8
LAY-10
  6
CENTER
 62
     2
100
AcDbLine
 10
2106.497537416105
 20
2355.941248854705
 30
0.0
 11
2106.497537416105
 21
2307.441248854704
 31
0.0
  0
LINE
  5
5F9
330
1F
100
AcDbEntity
  8
LAY-10
  6
CENTER
 62
     2
100
AcDbLine
 10
2006.699052606306
 20
1867.641248854706
 30
0.0
 11
2229.994360889811
 21
1867.641248854706
 31
0.0
  0
LINE
  5
5FA
330
1F
100
AcDbEntity
  8
LAY-10
  6
CENTER
 62
     2
100
AcDbLine
 10
697.9407971712707
 20
899.0412488541637
 30
0.0
 11
697.9407971712707
 21
851.9712488541638
 31
0.0
  0
LINE
  5
5FB
330
1F
100
AcDbEntity
  8
LAY-10
  6
CENTER
 62
     2
100
AcDbLine
 10
1551.940797171147
 20
899.0412488541637
 30
0.0
 11
1551.940797171147
 21
851.9712488541638
 31
0.0
  0
LINE
  5
5FC
330
1F
100
AcDbEntity
  8
LAY-10
  6
CENTER
 62
     2
100
AcDbLine
 10
1124.940797171209
 20
998.8412488541628
 30
0.0
 11
1124.940797171208
 21
764.62498917539
 31
0.0
  0
LINE
  5
5FD
330
1F
100
AcDbEntity
  8
LAY-10
  6
CENTER
 62
     2
100
AcDbLine
 10
1074.415797170968
 20
2314.641248854518
 30
0.0
 11
1111.915797170968
 21
2314.641248854518
 31
0.0
  0
LINE
  5
5FE
330
1F
100
AcDbEntity
  8
LAY-10
  6
CENTER
 62
     2
100
AcDbLine
 10
1092.940797170969
 20
2333.241248854518
 30
0.0
 11
1092.940797170969
 21
2294.34124885452
 31
0.0
  0
DIMENSION
  5
600
330
1F
100
AcDbEntity
  8
LAY-20
  6
CONTINUOUS
 62
     4
100
AcDbDimension
  2
*D23
 10
1581.94079717111
 20
1134.8412488542
 30
0.0
 11
1124.94079717121
 21
1159.8412488542
 31
0.0
 70
   160
  3
ISO-25
100
AcDbAlignedDimension
 13
667.9407971713099
 23
964.8412488541599
 33
0.0
 14
1581.94079717111
 24
964.8412488541599
 34
0.0
100
AcDbRotatedDimension
1001
ACAD
1000
DSTYLE
1002
{
1070
   270
1070
     2
1070
     6
1000
EX_BNORM
1070
     7
1000
EX_BNORM
1070
    41
1040
25.0
1070
    42
1040
15.0
1070
    44
1040
15.0
1070
    73
1070
     0
1070
    74
1070
     0
1070
    75
1070
     0
1070
    76
1070
     0
1070
    77
1070
     1
1070
    78
1070
     8
1070
   140
1040
31.181104
1070
   147
1040
0.0
1070
   173
1070
     1
1070
   176
1070
     4
1070
   177
1070
     4
1070
   178
1070
     7
1070
   271
1070
     1
1070
   277
1070
     2
1070
   279
1070
     2
1070
   280
1070
     0
1070
   287
1070
     5
1070
   340
1005
5FF
1002
}
  0
DIMENSION
  5
60E
330
1F
100
AcDbEntity
  8
LAY-20
  6
CONTINUOUS
 62
     4
100
AcDbDimension
  2
*D24
 10
683.9407971713363
 20
1064.8412488542
 30
0.0
 11
903.9407971713359
 21
1089.8412488542
 31
0.0
 70
   160
  3
ISO-25
100
AcDbAlignedDimension
 13
1123.940797171335
 23
964.8412488541879
 33
0.0
 14
683.9407971713363
 24
964.8412488541879
 34
0.0
100
AcDbRotatedDimension
1001
ACAD
1000
DSTYLE
1002
{
1070
   270
1070
     2
1070
     6
1000
EX_BNORM
1070
     7
1000
EX_BNORM
1070
    41
1040
25.0
1070
    42
1040
15.0
1070
    44
1040
15.0
1070
    73
1070
     0
1070
    74
1070
     0
1070
    75
1070
     0
1070
    76
1070
     0
1070
    77
1070
     1
1070
    78
1070
     8
1070
   140
1040
31.181104
1070
   147
1040
0.0
1070
   173
1070
     1
1070
   176
1070
     4
1070
   177
1070
     4
1070
   178
1070
     7
1070
   271
1070
     1
1070
   277
1070
     2
1070
   279
1070
     2
1070
   280
1070
     0
1070
   287
1070
     5
1070
   340
1005
5FF
1002
}
  0
DIMENSION
  5
61B
330
1F
100
AcDbEntity
  8
LAY-20
  6
CONTINUOUS
 62
     4
100
AcDbDimension
  2
*D25
 10
1474.94079717121
 20
674.84124885419
 30
0.0
 11
1124.94079717121
 21
699.84124885419
 31
0.0
 70
   160
  3
ISO-25
100
AcDbAlignedDimension
 13
774.94079717121
 23
774.8412488541902
 33
0.0
 14
1474.94079717121
 24
774.8412488541902
 34
0.0
100
AcDbRotatedDimension
1001
ACAD
1000
DSTYLE
1002
{
1070
   270
1070
     2
1070
     6
1000
EX_BNORM
1070
     7
1000
EX_BNORM
1070
    41
1040
25.0
1070
    42
1040
15.0
1070
    44
1040
15.0
1070
    73
1070
     0
1070
    74
1070
     0
1070
    75
1070
     0
1070
    76
1070
     0
1070
    77
1070
     1
1070
    78
1070
     8
1070
   140
1040
31.181104
1070
   147
1040
0.0
1070
   173
1070
     1
1070
   176
1070
     4
1070
   177
1070
     4
1070
   178
1070
     7
1070
   271
1070
     1
1070
   277
1070
     2
1070
   279
1070
     2
1070
   280
1070
     0
1070
   287
1070
     5
1070
   340
1005
5FF
1002
}
  0
DIMENSION
  5
628
330
1F
100
AcDbEntity
  8
LAY-20
  6
CONTINUOUS
 62
     4
100
AcDbDimension
  2
*D26
 10
1716.4961362305
 20
964.8412488541599
 30
0.0
 11
1691.4961362305
 21
869.8412488541746
 31
0.0
 70
   160
  3
ISO-25
100
AcDbAlignedDimension
 13
1521.14079717121
 23
774.8412488541902
 33
0.0
 14
1581.94079717111
 24
964.8412488541599
 34
0.0
 50
90.0
100
AcDbRotatedDimension
1001
ACAD
1000
DSTYLE
1002
{
1070
   270
1070
     2
1070
     6
1000
EX_BNORM
1070
     7
1000
EX_BNORM
1070
    41
1040
25.0
1070
    42
1040
15.0
1070
    44
1040
14.99999999999977
1070
    73
1070
     0
1070
    74
1070
     0
1070
    75
1070
     0
1070
    76
1070
     0
1070
    77
1070
     1
1070
    78
1070
     8
1070
   140
1040
31.181104
1070
   147
1040
0.0
1070
   173
1070
     1
1070
   176
1070
     4
1070
   177
1070
     4
1070
   178
1070
     7
1070
   271
1070
     1
1070
   277
1070
     2
1070
   279
1070
     2
1070
   280
1070
     0
1070
   287
1070
     5
1070
   340
1005
5FF
1002
}
  0
DIMENSION
  5
635
330
1F
100
AcDbEntity
  8
LAY-20
  6
CONTINUOUS
 62
     4
100
AcDbDimension
  2
*D27
 10
1855.7975374161
 20
2361.64124885469
 30
0.0
 11
1830.7975374161
 21
1867.6412488547
 31
0.0
 70
   160
  3
ISO-25
100
AcDbAlignedDimension
 13
2025.797537416111
 23
1373.64124885471
 33
0.0
 14
2025.797537416111
 24
2361.64124885469
 34
0.0
 50
90.0
100
AcDbRotatedDimension
1001
ACAD
1000
DSTYLE
1002
{
1070
   270
1070
     2
1070
     6
1000
EX_BNORM
1070
     7
1000
EX_BNORM
1070
    41
1040
25.0
1070
    42
1040
15.0
1070
    44
1040
14.99999999999955
1070
    73
1070
     0
1070
    74
1070
     0
1070
    75
1070
     0
1070
    76
1070
     0
1070
    77
1070
     1
1070
    78
1070
     8
1070
   140
1040
31.181104
1070
   147
1040
0.0
1070
   173
1070
     1
1070
   176
1070
     4
1070
   177
1070
     4
1070
   178
1070
     7
1070
   271
1070
     1
1070
   277
1070
     2
1070
   279
1070
     2
1070
   280
1070
     0
1070
   287
1070
     5
1070
   340
1005
5FF
1002
}
  0
DIMENSION
  5
642
330
1F
100
AcDbEntity
  8
LAY-20
  6
CONTINUOUS
 62
     4
100
AcDbDimension
  2
*D28
 10
1925.7975374161
 20
2345.641248854755
 30
0.0
 11
1900.7975374161
 21
1867.641248854705
 31
0.0
 70
   160
  3
ISO-25
100
AcDbAlignedDimension
 13
2025.797537416086
 23
1389.641248854655
 33
0.0
 14
2025.797537416086
 24
2345.641248854755
 34
0.0
 50
90.0
100
AcDbRotatedDimension
1001
ACAD
1000
DSTYLE
1002
{
1070
   270
1070
     2
1070
     6
1000
EX_BNORM
1070
     7
1000
EX_BNORM
1070
    41
1040
25.0
1070
    42
1040
15.0
1070
    44
1040
14.99999999999955
1070
    73
1070
     0
1070
    74
1070
     0
1070
    75
1070
     0
1070
    76
1070
     0
1070
    77
1070
     1
1070
    78
1070
     8
1070
   140
1040
31.181104
1070
   147
1040
0.0
1070
   173
1070
     1
1070
   176
1070
     4
1070
   177
1070
     4
1070
   178
1070
     7
1070
   271
1070
     1
1070
   277
1070
     2
1070
   279
1070
     2
1070
   280
1070
     0
1070
   287
1070
     5
1070
   340
1005
5FF
1002
}
  0
DIMENSION
  5
64F
330
1F
100
AcDbEntity
  8
LAY-20
  6
CONTINUOUS
 62
     4
100
AcDbDimension
  2
*D29
 10
2315.7975374161
 20
1517.6412488547
 30
0.0
 11
2290.7975374161
 21
1867.641248854694
 31
0.0
 70
   160
  3
ISO-25
100
AcDbAlignedDimension
 13
2215.797537416091
 23
2217.64124885469
 33
0.0
 14
2215.797537416091
 24
1517.6412488547
 34
0.0
 50
90.0
100
AcDbRotatedDimension
1001
ACAD
1000
DSTYLE
1002
{
1070
   270
1070
     2
1070
     6
1000
EX_BNORM
1070
     7
1000
EX_BNORM
1070
    41
1040
25.0
1070
    42
1040
15.0
1070
    44
1040
14.99999999999955
1070
    73
1070
     0
1070
    74
1070
     0
1070
    75
1070
     0
1070
    76
1070
     0
1070
    77
1070
     1
1070
    78
1070
     8
1070
   140
1040
31.181104
1070
   147
1040
0.0
1070
   173
1070
     1
1070
   176
1070
     4
1070
   177
1070
     4
1070
   178
1070
     7
1070
   271
1070
     1
1070
   277
1070
     2
1070
   279
1070
     2
1070
   280
1070
     0
1070
   287
1070
     5
1070
   340
1005
5FF
1002
}
  0
DIMENSION
  5
65C
330
1F
100
AcDbEntity
  8
LAY-20
  6
CONTINUOUS
 62
     4
100
AcDbDimension
  2
*D30
 10
2385.7975374161
 20
1382.4412488547
 30
0.0
 11
2360.7975374161
 21
1867.6412488547
 31
0.0
 70
   160
  3
ISO-25
100
AcDbAlignedDimension
 13
2073.1975374161
 23
2352.8412488547
 33
0.0
 14
2073.1975374161
 24
1382.4412488547
 34
0.0
 50
90.0
100
AcDbRotatedDimension
1001
ACAD
1000
DSTYLE
1002
{
1070
   270
1070
     2
1070
     6
1000
EX_BNORM
1070
     7
1000
EX_BNORM
1070
    41
1040
25.0
1070
    42
1040
15.0
1070
    44
1040
15.0
1070
    73
1070
     0
1070
    74
1070
     0
1070
    75
1070
     0
1070
    76
1070
     0
1070
    77
1070
     1
1070
    78
1070
     0
1070
   140
1040
31.181104
1070
   147
1040
0.0
1070
   173
1070
     1
1070
   176
1070
     4
1070
   177
1070
     4
1070
   178
1070
     7
1070
   271
1070
     0
1070
   277
1070
     2
1070
   279
1070
     2
1070
   280
1070
     0
1070
   287
1070
     5
1070
   340
1005
5FF
1002
}
  0
DIMENSION
  5
669
330
1F
100
AcDbEntity
  8
LAY-20
  6
CONTINUOUS
 62
     4
100
AcDbDimension
  2
*D31
 10
676.74079717127
 20
604.84124885419
 30
0.0
 11
1124.940797171185
 21
629.8412488541899
 31
0.0
 70
   160
  3
ISO-25
100
AcDbAlignedDimension
 13
1573.1407971711
 23
867.84124885416
 33
0.0
 14
676.74079717127
 24
867.84124885416
 34
0.0
100
AcDbRotatedDimension
1001
ACAD
1000
DSTYLE
1002
{
1070
   270
1070
     2
1070
     6
1000
EX_BNORM
1070
     7
1000
EX_BNORM
1070
    41
1040
25.0
1070
    42
1040
15.0
1070
    44
1040
15.0
1070
    73
1070
     0
1070
    74
1070
     0
1070
    75
1070
     0
1070
    76
1070
     0
1070
    77
1070
     1
1070
    78
1070
     0
1070
   140
1040
31.181104
1070
   147
1040
0.0
1070
   173
1070
     1
1070
   176
1070
     4
1070
   177
1070
     4
1070
   178
1070
     7
1070
   271
1070
     0
1070
   277
1070
     2
1070
   279
1070
     2
1070
   280
1070
     0
1070
   287
1070
     5
1070
   340
1005
5FF
1002
}
  0
DIMENSION
  5
676
330
1F
100
AcDbEntity
  8
LAY-20
  6
CONTINUOUS
 62
     4
100
AcDbDimension
  2
*D32
 10
1351.0
 20
964.84124885419
 30
0.0
 11
1326.0
 21
1024.84124885419
 31
0.0
 70
   160
  3
ISO-25
100
AcDbAlignedDimension
 13
1265.9407971713
 23
929.84124885419
 33
0.0
 14
1351.0
 24
964.84124885419
 34
0.0
 50
90.0
100
AcDbRotatedDimension
1001
ACAD
1000
DSTYLE
1002
{
1070
   270
1070
     2
1070
     6
1000
EX_BNORM
1070
     7
1000
EX_BNORM
1070
    41
1040
25.0
1070
    42
1040
15.0
1070
    44
1040
15.0
1070
    73
1070
     0
1070
    74
1070
     0
1070
    75
1070
     0
1070
    76
1070
     1
1070
    77
1070
     1
1070
    78
1070
     8
1070
   140
1040
31.181104
1070
   147
1040
0.0
1070
   173
1070
     1
1070
   176
1070
     4
1070
   177
1070
     4
1070
   178
1070
     7
1070
   271
1070
     1
1070
   277
1070
     2
1070
   279
1070
     2
1070
   280
1070
     2
1070
   287
1070
     5
1070
   340
1005
5FF
1002
}
  0
LINE
  5
684
330
1F
100
AcDbEntity
  8
LAY-255
  6
CONTINUOUS
 62
     7
100
AcDbLine
 10
3850.0
 20
219.9999999999999
 30
0.0
 11
2850.0
 21
219.9999999999999
 31
0.0
  0
LINE
  5
685
330
1F
100
AcDbEntity
  8
LAY-255
  6
CONTINUOUS
 62
     7
100
AcDbLine
 10
2888.0
 20
160.0
 30
0.0
 11
2968.0
 21
210.0
 31
0.0
  0
LINE
  5
686
330
1F
100
AcDbEntity
  8
LAY-255
  6
CONTINUOUS
 62
     7
100
AcDbLine
 10
2968.0
 20
210.0
 30
0.0
 11
3048.0
 21
160.0
 31
0.0
  0
LINE
  5
687
330
1F
100
AcDbEntity
  8
LAY-255
  6
CONTINUOUS
 62
     7
100
AcDbLine
 10
3048.0
 20
160.0
 30
0.0
 11
2968.0
 21
110.0
 31
0.0
  0
LINE
  5
688
330
1F
100
AcDbEntity
  8
LAY-255
  6
CONTINUOUS
 62
     7
100
AcDbLine
 10
2968.0
 20
110.0
 30
0.0
 11
2888.0
 21
160.0
 31
0.0
  0
LINE
  5
689
330
1F
100
AcDbEntity
  8
LAY-255
  6
CONTINUOUS
 62
     7
100
AcDbLine
 10
50.0
 20
100.0
 30
0.0
 11
3850.0
 21
100.0
 31
0.0
  0
LINE
  5
68A
330
1F
100
AcDbEntity
  8
LAY-255
  6
CONTINUOUS
 62
     7
100
AcDbLine
 10
50.0
 20
2800.0
 30
0.0
 11
3850.0
 21
2800.0
 31
0.0
  0
LINE
  5
68B
330
1F
100
AcDbEntity
  8
LAY-255
  6
CONTINUOUS
 62
     7
100
AcDbLine
 10
50.0
 20
100.0
 30
0.0
 11
50.0
 21
2800.0
 31
0.0
  0
LINE
  5
68C
330
1F
100
AcDbEntity
  8
LAY-255
  6
CONTINUOUS
 62
     7
100
AcDbLine
 10
3850.0
 20
100.0
 30
0.0
 11
3850.0
 21
2800.0
 31
0.0
  0
LINE
  5
68D
330
1F
100
AcDbEntity
  8
LAY-255
  6
CONTINUOUS
 62
     4
100
AcDbLine
 10
2850.0
 20
279.9999999999999
 30
0.0
 11
3850.0
 21
279.9999999999999
 31
0.0
  0
LINE
  5
68E
330
1F
100
AcDbEntity
  8
LAY-255
  6
CONTINUOUS
 62
     7
100
AcDbLine
 10
2850.0
 20
100.0
 30
0.0
 11
2850.0
 21
670.0
 31
0.0
  0
POINT
  5
68F
330
1F
100
AcDbEntity
  8
LAY-255
  6
CONTINUOUS
 62
     7
100
AcDbPoint
 10
2890.0
 20
399.9999999999999
 30
0.0
  0
LINE
  5
690
330
1F
100
AcDbEntity
  8
LAY-255
  6
CONTINUOUS
 62
     4
100
AcDbLine
 10
3350.0
 20
279.9999999999999
 30
0.0
 11
3350.0
 21
220.0
 31
0.0
  0
LINE
  5
691
330
1F
100
AcDbEntity
  8
LAY-255
  6
CONTINUOUS
 62
     7
100
AcDbLine
 10
3850.0
 20
670.0
 30
0.0
 11
2850.0
 21
670.0
 31
0.0
  0
LINE
  5
692
330
1F
100
AcDbEntity
  8
LAY-255
  6
CONTINUOUS
 62
     4
100
AcDbLine
 10
3830.0
 20
549.9999999999999
 30
0.0
 11
2870.0
 21
549.9999999999999
 31
0.0
  0
LINE
  5
693
330
1F
100
AcDbEntity
  8
LAY-255
  6
CONTINUOUS
 62
     4
100
AcDbLine
 10
3830.0
 20
610.0
 30
0.0
 11
2870.0
 21
610.0
 31
0.0
  0
POINT
  5
694
330
1F
100
AcDbEntity
  8
LAY-255
  6
CONTINUOUS
 62
     7
100
AcDbPoint
 10
2890.0
 20
499.9999999999999
 30
0.0
  0
POINT
  5
695
330
1F
100
AcDbEntity
  8
LAY-255
  6
CONTINUOUS
 62
     7
100
AcDbPoint
 10
3000.0
 20
559.9999999999999
 30
0.0
  0
POINT
  5
696
330
1F
100
AcDbEntity
  8
LAY-255
  6
CONTINUOUS
 62
     7
100
AcDbPoint
 10
3000.0
 20
620.0
 30
0.0
  0
POINT
  5
697
330
1F
100
AcDbEntity
  8
LAY-255
  6
CONTINUOUS
 62
     7
100
AcDbPoint
 10
2890.0
 20
349.9999999999999
 30
0.0
  0
POINT
  5
698
330
1F
100
AcDbEntity
  8
LAY-255
  6
CONTINUOUS
 62
     7
100
AcDbPoint
 10
2890.0
 20
449.9999999999999
 30
0.0
  0
POINT
  5
699
330
1F
100
AcDbEntity
  8
LAY-255
  6
CONTINUOUS
 62
     7
100
AcDbPoint
 10
2890.0
 20
299.9999999999998
 30
0.0
  0
POINT
  5
69A
330
1F
100
AcDbEntity
  8
LAY-255
  6
CONTINUOUS
 62
     7
100
AcDbPoint
 10
2890.0
 20
349.9999999999999
 30
0.0
  0
TEXT
  5
69B
330
1F
100
AcDbEntity
  8
LAY-255
  6
CONTINUOUS
 62
     7
100
AcDbText
 10
3081.3837890625
 20
155.4375
 30
0.0
 40
51.5625
  1
福西鋳物株式会社
 41
1.342691999659091
  7
EXCADSTD
100
AcDbText
  0
TEXT
  5
69C
330
1F
100
AcDbEntity
  8
LAY-255
  6
CONTINUOUS
 62
     7
100
AcDbText
 10
3085.09375
 20
119.8125
 30
0.0
 40
17.1875
  1
ＦＵＫＵＮＩＳＨＩ
 41
1.204799226045263
  7
EXCADSTD
100
AcDbText
  0
TEXT
  5
69D
330
1F
100
AcDbEntity
  8
LAY-255
  6
CONTINUOUS
 62
     7
100
AcDbText
 10
3327.191964285714
 20
119.8125
 30
0.0
 40
17.1875
  1
ＦＯＵＮＤＲＹ
 41
1.243252752978497
  7
EXCADSTD
100
AcDbText
  0
TEXT
  5
69E
330
1F
100
AcDbEntity
  8
LAY-255
  6
CONTINUOUS
 62
     7
100
AcDbText
 10
3519.945914381009
 20
119.8125
 30
0.0
 40
17.1875
  1
ＣＯ.,ＬＴＤ.
 41
1.243831036226633
  7
EXCADSTD
100
AcDbText
  0
TEXT
  5
69F
330
1F
100
AcDbEntity
  8
LAY-255
  6
CONTINUOUS
 62
     7
100
AcDbText
 10
2940.34375
 20
137.1875
 30
0.0
 40
51.5625
  1
S
 41
0.7582677563636363
  7
EXCADSTD
100
AcDbText
  0
TEXT
  5
6A0
330
1F
100
AcDbEntity
  8
LAY-255
  6
CONTINUOUS
 62
     7
100
AcDbText
 10
2971.046875
 20
137.4941037736
 30
0.0
 40
51.5625
  1
F
 41
0.7440945272727272
  7
EXCADSTD
100
AcDbText
  0
TEXT
  5
6A1
330
1F
100
AcDbEntity
  8
LAY-255
  6
CONTINUOUS
 62
     7
100
AcDbText
 10
3371.0546875
 20
244.2187499999999
 30
0.0
 40
25.78125
  1
縮尺
 41
1.080708718181818
  7
EXCADSTD
100
AcDbText
  0
TEXT
  5
6A2
330
1F
100
AcDbEntity
  8
LAY-255
  6
CONTINUOUS
 62
     7
100
AcDbText
 10
2872.65625
 20
565.6249999999999
 30
0.0
 40
34.375
  1
型式
 41
1.056348480681818
  7
EXCADSTD
100
AcDbText
  0
TEXT
  5
6A3
330
1F
100
AcDbEntity
  8
LAY-255
  6
CONTINUOUS
 62
     7
100
AcDbText
 10
2874.21875
 20
625.625
 30
0.0
 40
34.375
  1
品名
 41
0.9788386340909091
  7
EXCADSTD
100
AcDbText
  0
TEXT
  5
6A4
330
1F
100
AcDbEntity
  8
LAY-255
  6
CONTINUOUS
 62
     7
100
AcDbText
 10
2871.5234375
 20
244.2187499999999
 30
0.0
 40
25.78125
  1
作成日
 41
1.000629973818182
  7
EXCADSTD
100
AcDbText
  0
TEXT
  5
6A5
330
1F
100
AcDbEntity
  8
LAY-255
  6
CONTINUOUS
 62
     7
100
AcDbText
 10
2891.40625
 20
505.6249999999999
 30
0.0
 40
34.375
  1
材質：スチール
 41
1.029301719225037
  7
EXCADSTD
100
AcDbText
  0
TEXT
  5
6A6
330
1F
100
AcDbEntity
  8
LAY-255
  6
CONTINUOUS
 62
     7
100
AcDbText
 10
2892.03125
 20
405.6249999999999
 30
0.0
 40
34.375
  1
適用荷重：歩行用
 41
1.015410627012987
  7
EXCADSTD
100
AcDbText
  0
TEXT
  5
6A7
330
1F
100
AcDbEntity
  8
LAY-255
  6
CONTINUOUS
 62
     7
100
AcDbText
 10
3002.5
 20
625.625
 30
0.0
 40
34.375
  1
化粧用マシンハッチ
 41
1.014552031760644
  7
EXCADSTD
100
AcDbText
  0
TEXT
  5
6A8
330
1F
100
AcDbEntity
  8
LAY-255
  6
CONTINUOUS
 62
     7
100
AcDbText
 10
2892.03125
 20
355.6249999999999
 30
0.0
 40
34.375
  1
貼代：３５
 41
0.99542213615222
  7
EXCADSTD
100
AcDbText
  0
TEXT
  5
6A9
330
1F
100
AcDbEntity
  8
LAY-255
  6
CONTINUOUS
 62
     7
100
AcDbText
 10
2897.8125
 20
455.6249999999999
 30
0.0
 40
34.375
  1
目地：ステンレス鋼
 41
1.00154495443038
  7
EXCADSTD
100
AcDbText
  0
TEXT
  5
6AA
330
1F
100
AcDbEntity
  8
LAY-255
  6
CONTINUOUS
 62
     7
100
AcDbText
 10
3007.5
 20
565.6249999999999
 30
0.0
 40
34.375
  1
ＳＦ－７０ＢＭＰ－１Ｆ型
 41
1.00449418439108
  7
EXCADSTD
100
AcDbText
  0
TEXT
  5
6AB
330
1F
100
AcDbEntity
  8
LAY-255
  6
CONTINUOUS
 62
     7
100
AcDbText
 10
2892.65625
 20
305.6249999999999
 30
0.0
 40
34.375
  1
耐火材中蓋付き
 41
1.014779968107303
  7
EXCADSTD
100
AcDbText
  0
TEXT
  5
6AC
330
1F
100
AcDbEntity
  8
LAY-255
  6
CONTINUOUS
 62
     7
100
AcDbText
 10
3009.84375
 20
235.6249999999999
 30
0.0
 40
34.375
  1
２０／０２／１０
 41
0.9769404337662339
  7
EXCADSTD
100
AcDbText
  0
TEXT
  5
6AD
330
1F
100
AcDbEntity
  8
LAY-255
  6
CONTINUOUS
 62
     7
100
AcDbText
 10
3482.8125
 20
235.6249999999999
 30
0.0
 40
34.375
  1
１：１０
 41
0.9243863385026738
  7
EXCADSTD
100
AcDbText
  0
ENDSEC
  0
SECTION
  2
OBJECTS
  0
DICTIONARY
  5
C
330
0
100
AcDbDictionary
  3
ACAD_GROUP
350
D
  3
ACAD_LAYOUT
350
1A
  3
ACAD_MATERIAL
350
43
  3
ACAD_MLEADERSTYLE
350
6B
  3
ACAD_MLINESTYLE
350
17
  3
ACAD_PLOTSETTINGS
350
19
  3
ACAD_SCALELIST
350
47
  3
ACAD_VISUALSTYLE
350
2A
  3
ACDBHEADERROUNDTRIPXREC
350
6AE
  3
ACDBVARIABLEDICTIONARY
350
6CF
  0
DICTIONARY
  5
6DA
330
8
100
AcDbDictionary
280
     1
  3
ACAD_XREC_ROUNDTRIP
360
6DB
  0
DICTIONARY
  5
D
102
{ACAD_REACTORS
330
C
102
}
330
C
100
AcDbDictionary
  0
DICTIONARY
  5
1A
102
{ACAD_REACTORS
330
C
102
}
330
C
100
AcDbDictionary
  0
DICTIONARY
  5
43
102
{ACAD_REACTORS
330
C
102
}
330
C
100
AcDbDictionary
  3
BYBLOCK
350
45
  3
BYLAYER
350
44
  3
GLOBAL
350
46
  0
DICTIONARY
  5
6B
102
{ACAD_REACTORS
330
C
102
}
330
C
100
AcDbDictionary
  3
STANDARD
350
6C
  0
DICTIONARY
  5
17
102
{ACAD_REACTORS
330
C
102
}
330
C
100
AcDbDictionary
  3
STANDARD
350
18
  0
DICTIONARY
  5
19
102
{ACAD_REACTORS
330
C
102
}
330
C
100
AcDbDictionary
  0
DICTIONARY
  5
47
102
{ACAD_REACTORS
330
C
102
}
330
C
100
AcDbDictionary
  3
A0
350
48
  3
A1
350
49
  3
A2
350
4A
  3
A3
350
4B
  3
A4
350
4C
  3
A5
350
4D
  3
A6
350
4E
  3
A7
350
4F
  3
A8
350
50
  3
A9
350
51
  3
B0
350
52
  3
B1
350
53
  3
B2
350
54
  3
B3
350
55
  3
B4
350
56
  3
B5
350
57
  3
B6
350
58
  3
B7
350
59
  3
B8
350
5A
  3
B9
350
5B
  3
C0
350
5C
  3
C1
350
5D
  3
C2
350
5E
  3
C3
350
5F
  3
C4
350
60
  3
C5
350
61
  3
C6
350
62
  3
C7
350
63
  3
C8
350
64
  3
C9
350
65
  3
D0
350
66
  3
D1
350
67
  3
D2
350
68
  0
DICTIONARY
  5
2A
102
{ACAD_REACTORS
330
C
102
}
330
C
100
AcDbDictionary
  3
2DWIREFRAME
350
2F
  3
BASIC
350
32
  3
BRIGHTEN
350
36
  3
COLORCHANGE
350
3A
  3
CONCEPTUAL
350
34
  3
DIM
350
35
  3
EDGECOLOROFF
350
3D
  3
FACEPATTERN
350
39
  3
FLAT
350
2B
  3
FLATWITHEDGES
350
2C
  3
GOURAUD
350
2D
  3
GOURAUDWITHEDGES
350
2E
  3
HIDDEN
350
31
  3
JITTEROFF
350
3B
  3
LINEPATTERN
350
38
  3
OVERHANGOFF
350
3C
  3
REALISTIC
350
33
  3
SHADED
350
42
  3
SHADED_WITH_EDGES
350
41
  3
SHADES_OF_GRAY
350
3E
  3
SKETCHY
350
3F
  3
THICKEN
350
37
  3
WIREFRAME
350
30
  3
X-RAY
350
40
  0
DICTIONARY
  5
6AE
102
{ACAD_REACTORS
330
C
102
}
330
C
100
AcDbDictionary
  3
CEPSNID
350
6B8
  3
CEPSNTYPE
350
6B7
  3
DIMSTYLEDATA
350
6CE
  3
FINGERPRINTGUID
350
6B9
  3
HYPERLINKBASE
350
6B1
  3
INSUNITS
350
6B6
  3
LAYOUTDICT
350
6B3
  3
LWETCUNION
350
6B5
  3
PLOTSETDICT
350
6B4
  3
PSVPSCALE
350
6BB
  3
PUCSBASE
350
6BE
  3
PUCSORGBACK
350
6C4
  3
PUCSORGBOTTOM
350
6C0
  3
PUCSORGFRONT
350
6C3
  3
PUCSORGLEFT
350
6C1
  3
PUCSORGRIGHT
350
6C2
  3
PUCSORGTOP
350
6BF
  3
PUCSORTHOREF
350
6BC
  3
PUCSORTHOVIEW
350
6BD
  3
STYLESHEET
350
6B2
  3
TSTACKALIGN
350
6AF
  3
TSTACKSIZE
350
6B0
  3
UCSBASE
350
6C7
  3
UCSORGBACK
350
6CD
  3
UCSORGBOTTOM
350
6C9
  3
UCSORGFRONT
350
6CC
  3
UCSORGLEFT
350
6CA
  3
UCSORGRIGHT
350
6CB
  3
UCSORGTOP
350
6C8
  3
UCSORTHOREF
350
6C5
  3
UCSORTHOVIEW
350
6C6
  3
VERSIONGUID
350
6BA
  0
DICTIONARY
  5
6CF
102
{ACAD_REACTORS
330
C
102
}
330
C
100
AcDbDictionary
  3
CANNOSCALE
350
6DC
  3
CENTEREXE
350
6D6
  3
CENTERLTYPEFILE
350
6D7
  3
CMLEADERSTYLE
350
6D1
  3
CTABLESTYLE
350
6D0
  3
DIMASSOC
350
6D8
  3
HIDETEXT
350
6D9
  3
MSLTSCALE
350
6DD
  3
PSOLHEIGHT
350
6D3
  3
PSOLWIDTH
350
6D2
  0
XRECORD
  5
6DB
102
{ACAD_REACTORS
330
6DA
102
}
330
6DA
100
AcDbXrecord
102
VTR_0.000_0.000_1.000_1.000_VISUALSTYLE
340
2F
102
VTR_0.000_0.000_1.000_1.000_GRIDDISPLAY
 70
     3
102
VTR_0.000_0.000_1.000_1.000_GRIDMAJOR
 70
     5
102
VTR_0.000_0.000_1.000_1.000_DEFAULTLIGHTING
280
     1
102
VTR_0.000_0.000_1.000_1.000_DEFAULTLIGHTINGTYPE
 70
     1
102
VTR_0.000_0.000_1.000_1.000_BRIGHTNESS
141
0.0
102
VTR_0.000_0.000_1.000_1.000_CONTRAST
142
0.0
  0
MATERIAL
  5
45
102
{ACAD_REACTORS
330
43
102
}
102
{ACAD_XDICTIONARY
360
6E0
102
}
330
43
100
AcDbMaterial
  1
BYBLOCK
  0
MATERIAL
  5
44
102
{ACAD_REACTORS
330
43
102
}
102
{ACAD_XDICTIONARY
360
6DE
102
}
330
43
100
AcDbMaterial
  1
BYLAYER
  0
MATERIAL
  5
46
102
{ACAD_REACTORS
330
43
102
}
102
{ACAD_XDICTIONARY
360
6E2
102
}
330
43
100
AcDbMaterial
  1
GLOBAL
  0
ACAD_PROXY_OBJECT
  5
6C
102
{ACAD_REACTORS
330
6B
102
}
330
6B
100
AcDbProxyObject
 90
      499
 91
      505
 93
      610
310
40901902A4063FBFFFFFE0000000000000020400000000000020404214DD185B99185C990000000000000104090141901A00000000000004100000000000000041025764000000000000039000
340
14
340
0
340
11
340
0
 94
        0
1001
ACAD_MLEADERVER
1070
     2
  0
MLINESTYLE
  5
18
102
{ACAD_REACTORS
330
17
102
}
330
17
100
AcDbMlineStyle
  2
Standard
 70
     0
  3

 62
   256
 51
90.0
 52
90.0
 71
     2
 49
0.5
 62
   256
  6
BYLAYER
 49
-0.5
 62
   256
  6
BYLAYER
  0
ACAD_PROXY_OBJECT
  5
48
102
{ACAD_REACTORS
330
47
102
}
330
47
100
AcDbProxyObject
 90
      499
 91
      503
 93
       41
310
903313A31580
  0
ACAD_PROXY_OBJECT
  5
49
102
{ACAD_REACTORS
330
47
102
}
330
47
100
AcDbProxyObject
 90
      499
 91
      503
 93
      105
310
903313A324000000000000004000
  0
ACAD_PROXY_OBJECT
  5
4A
102
{ACAD_REACTORS
330
47
102
}
330
47
100
AcDbProxyObject
 90
      499
 91
      503
 93
      105
310
903313A344000000000000104000
  0
ACAD_PROXY_OBJECT
  5
4B
102
{ACAD_REACTORS
330
47
102
}
330
47
100
AcDbProxyObject
 90
      499
 91
      503
 93
      105
310
903313A354000000000000144000
  0
ACAD_PROXY_OBJECT
  5
4C
102
{ACAD_REACTORS
330
47
102
}
330
47
100
AcDbProxyObject
 90
      499
 91
      503
 93
      105
310
903313A384000000000000204000
  0
ACAD_PROXY_OBJECT
  5
4D
102
{ACAD_REACTORS
330
47
102
}
330
47
100
AcDbProxyObject
 90
      499
 91
      503
 93
      113
310
904313A31304000000000000244000
  0
ACAD_PROXY_OBJECT
  5
4E
102
{ACAD_REACTORS
330
47
102
}
330
47
100
AcDbProxyObject
 90
      499
 91
      503
 93
      113
310
904313A31364000000000000304000
  0
ACAD_PROXY_OBJECT
  5
4F
102
{ACAD_REACTORS
330
47
102
}
330
47
100
AcDbProxyObject
 90
      499
 91
      503
 93
      113
310
904313A32304000000000000344000
  0
ACAD_PROXY_OBJECT
  5
50
102
{ACAD_REACTORS
330
47
102
}
330
47
100
AcDbProxyObject
 90
      499
 91
      503
 93
      113
310
904313A333040000000000003E4000
  0
ACAD_PROXY_OBJECT
  5
51
102
{ACAD_REACTORS
330
47
102
}
330
47
100
AcDbProxyObject
 90
      499
 91
      503
 93
      113
310
904313A34304000000000000444000
  0
ACAD_PROXY_OBJECT
  5
52
102
{ACAD_REACTORS
330
47
102
}
330
47
100
AcDbProxyObject
 90
      499
 91
      503
 93
      113
310
904313A35304000000000000494000
  0
ACAD_PROXY_OBJECT
  5
53
102
{ACAD_REACTORS
330
47
102
}
330
47
100
AcDbProxyObject
 90
      499
 91
      503
 93
      121
310
905313A3130304000000000000594000
  0
ACAD_PROXY_OBJECT
  5
54
102
{ACAD_REACTORS
330
47
102
}
330
47
100
AcDbProxyObject
 90
      499
 91
      503
 93
      105
310
903323A310000000000000010100
  0
ACAD_PROXY_OBJECT
  5
55
102
{ACAD_REACTORS
330
47
102
}
330
47
100
AcDbProxyObject
 90
      499
 91
      503
 93
      105
310
903343A310000000000000410100
  0
ACAD_PROXY_OBJECT
  5
56
102
{ACAD_REACTORS
330
47
102
}
330
47
100
AcDbProxyObject
 90
      499
 91
      503
 93
      105
310
903383A310000000000000810100
  0
ACAD_PROXY_OBJECT
  5
57
102
{ACAD_REACTORS
330
47
102
}
330
47
100
AcDbProxyObject
 90
      499
 91
      503
 93
      113
310
90431303A310000000000000910100
  0
ACAD_PROXY_OBJECT
  5
58
102
{ACAD_REACTORS
330
47
102
}
330
47
100
AcDbProxyObject
 90
      499
 91
      503
 93
      121
310
9053130303A310000000000001650100
  0
ACAD_PROXY_OBJECT
  5
59
102
{ACAD_REACTORS
330
47
102
}
330
47
100
AcDbProxyObject
 90
      499
 91
      503
 93
      257
310
90E312F31323822203D2031272D3022000000000000200FC000000000000284000
  0
ACAD_PROXY_OBJECT
  5
5A
102
{ACAD_REACTORS
330
47
102
}
330
47
100
AcDbProxyObject
 90
      499
 91
      503
 93
      249
310
90D312F363422203D2031272D3022000000000000240FC000000000000284000
  0
ACAD_PROXY_OBJECT
  5
5B
102
{ACAD_REACTORS
330
47
102
}
330
47
100
AcDbProxyObject
 90
      499
 91
      503
 93
      249
310
90D312F333222203D2031272D3022000000000000280FC000000000000284000
  0
ACAD_PROXY_OBJECT
  5
5C
102
{ACAD_REACTORS
330
47
102
}
330
47
100
AcDbProxyObject
 90
      499
 91
      503
 93
      249
310
90D312F313622203D2031272D30220000000000002C0FC000000000000284000
  0
ACAD_PROXY_OBJECT
  5
5D
102
{ACAD_REACTORS
330
47
102
}
330
47
100
AcDbProxyObject
 90
      499
 91
      503
 93
      249
310
90D332F333222203D2031272D30220000000000002E0FC000000000000284000
  0
ACAD_PROXY_OBJECT
  5
5E
102
{ACAD_REACTORS
330
47
102
}
330
47
100
AcDbProxyObject
 90
      499
 91
      503
 93
      241
310
90C312F3822203D2031272D3022000000000000300FC000000000000284000
  0
ACAD_PROXY_OBJECT
  5
5F
102
{ACAD_REACTORS
330
47
102
}
330
47
100
AcDbProxyObject
 90
      499
 91
      503
 93
      249
310
90D332F313622203D2031272D3022000000000000320FC000000000000284000
  0
ACAD_PROXY_OBJECT
  5
60
102
{ACAD_REACTORS
330
47
102
}
330
47
100
AcDbProxyObject
 90
      499
 91
      503
 93
      241
310
90C312F3422203D2031272D3022000000000000340FC000000000000284000
  0
ACAD_PROXY_OBJECT
  5
61
102
{ACAD_REACTORS
330
47
102
}
330
47
100
AcDbProxyObject
 90
      499
 91
      503
 93
      241
310
90C332F3822203D2031272D3022000000000000360FC000000000000284000
  0
ACAD_PROXY_OBJECT
  5
62
102
{ACAD_REACTORS
330
47
102
}
330
47
100
AcDbProxyObject
 90
      499
 91
      503
 93
      241
310
90C312F3222203D2031272D3022000000000000380FC000000000000284000
  0
ACAD_PROXY_OBJECT
  5
63
102
{ACAD_REACTORS
330
47
102
}
330
47
100
AcDbProxyObject
 90
      499
 91
      503
 93
      241
310
90C332F3422203D2031272D30220000000000003A0FC000000000000284000
  0
ACAD_PROXY_OBJECT
  5
64
102
{ACAD_REACTORS
330
47
102
}
330
47
100
AcDbProxyObject
 90
      499
 91
      503
 93
      161
310
90A3122203D2031272D30224000000000000284000
  0
ACAD_PROXY_OBJECT
  5
65
102
{ACAD_REACTORS
330
47
102
}
330
47
100
AcDbProxyObject
 90
      499
 91
      503
 93
      257
310
90E312D312F3222203D2031272D30220000000000003E0FC000000000000284000
  0
ACAD_PROXY_OBJECT
  5
66
102
{ACAD_REACTORS
330
47
102
}
330
47
100
AcDbProxyObject
 90
      499
 91
      503
 93
      225
310
90A3322203D2031272D302200000000000002100000000000000284000
  0
ACAD_PROXY_OBJECT
  5
67
102
{ACAD_REACTORS
330
47
102
}
330
47
100
AcDbProxyObject
 90
      499
 91
      503
 93
      225
310
90A3622203D2031272D302200000000000006100000000000000284000
  0
ACAD_PROXY_OBJECT
  5
68
102
{ACAD_REACTORS
330
47
102
}
330
47
100
AcDbProxyObject
 90
      499
 91
      503
 93
      249
310
90D31272D3022203D2031272D30220000000000000A100000000000000284000
  0
ACAD_PROXY_OBJECT
  5
2F
102
{ACAD_REACTORS
330
2A
102
}
330
2A
100
AcDbProxyObject
 90
      499
 91
      501
 93
      436
310
42CC9915DA5C99599C985B595049028333333333333E33F0000000000000F90107901411070040501600405405064090741402480A0340
1001
ACAD
1000
AcDbSavedByObjectVersion
1070
     0
  0
ACAD_PROXY_OBJECT
  5
32
102
{ACAD_REACTORS
330
2A
102
}
330
2A
100
AcDbProxyObject
 90
      499
 91
      501
 93
      388
310
4150985CDA58D07406404333333333333E33F0000000000000F90107A41107004050150841D405064090741402480A0350
1001
ACAD
1000
AcDbSavedByObjectVersion
1070
     0
  0
ACAD_PROXY_OBJECT
  5
36
102
{ACAD_REACTORS
330
2A
102
}
330
2A
100
AcDbProxyObject
 90
      499
 91
      501
 93
      428
310
42109C9A59DA1D195B90C409028333333333333E33F0000000000000F9010790141107004050150841D405064090741402480A029950
1001
ACAD
1000
AcDbSavedByObjectVersion
1070
     0
  0
ACAD_PROXY_OBJECT
  5
3A
102
{ACAD_REACTORS
330
2A
102
}
330
2A
100
AcDbProxyObject
 90
      499
 91
      501
 93
      452
310
42D0DBDB1BDC90DA185B99D95104090240C333333333333E33F0000000000000F90108901411070040501508421405064090741402480A0350
1001
ACAD
1000
AcDbSavedByObjectVersion
1070
     0
  0
ACAD_PROXY_OBJECT
  5
34
102
{ACAD_REACTORS
330
2A
102
}
330
2A
100
AcDbProxyObject
 90
      499
 91
      501
 93
      500
310
4290DBDB98D95C1D1D585B10940D028333333333333E33F0000000000000F90107902409070040501000000000018199010841D405064090740C02480A0340
1001
ACAD
1000
AcDbSavedByObjectVersion
1070
     0
  0
ACAD_PROXY_OBJECT
  5
35
102
{ACAD_REACTORS
330
2A
102
}
330
2A
100
AcDbProxyObject
 90
      499
 91
      501
 93
      412
310
40D11A5B50B409028333333333333E33F0000000000000F9010790141107004050150841D405064090741402480A02677FFFFFD0
1001
ACAD
1000
AcDbSavedByObjectVersion
1070
     0
  0
ACAD_PROXY_OBJECT
  5
3D
102
{ACAD_REACTORS
330
2A
102
}
330
2A
100
AcDbProxyObject
 90
      499
 91
      501
 93
      452
310
43115919D950DBDB1BDC93D999916409028333333333333E33F0000000000000F9010790141107004050150841D405064090741402480A0350
1001
ACAD
1000
AcDbSavedByObjectVersion
1070
     0
  0
ACAD_PROXY_OBJECT
  5
39
102
{ACAD_REACTORS
330
2A
102
}
330
2A
100
AcDbProxyObject
 90
      499
 91
      501
 93
      444
310
42D19858D95C185D1D195C9B90F409028333333333333E33F0000000000000F9010790141107004050150841D405064090741402480A0350
1001
ACAD
1000
AcDbSavedByObjectVersion
1070
     0
  0
ACAD_PROXY_OBJECT
  5
2B
102
{ACAD_REACTORS
330
2A
102
}
330
2A
100
AcDbProxyObject
 90
      499
 91
      501
 93
      380
310
41119B185D240901404333333333333E33F0000000000000F9010740A907004050150841D405064090741402480A1B50
1001
ACAD
1000
AcDbSavedByObjectVersion
1070
     0
  0
ACAD_PROXY_OBJECT
  5
2C
102
{ACAD_REACTORS
330
2A
102
}
330
2A
100
AcDbProxyObject
 90
      499
 91
      501
 93
      468
310
43519B185D15DA5D1A115919D95CD0140901404333333333333E33F0000000000000F90107409019070040501600405405064090741402480A1B50
1001
ACAD
1000
AcDbSavedByObjectVersion
1070
     0
  0
ACAD_PROXY_OBJECT
  5
2D
102
{ACAD_REACTORS
330
2A
102
}
330
2A
100
AcDbProxyObject
 90
      499
 91
      501
 93
      404
310
41D1DBDD5C985D5910240902404333333333333E33F0000000000000F9010740A9070040501641D405064090741402480A1B50
1001
ACAD
1000
AcDbSavedByObjectVersion
1070
     0
  0
ACAD_PROXY_OBJECT
  5
2E
102
{ACAD_REACTORS
330
2A
102
}
330
2A
100
AcDbProxyObject
 90
      499
 91
      501
 93
      492
310
4411DBDD5C985D5915DA5D1A115919D95CD0340902404333333333333E33F0000000000000F90107409019070040501600405405064090741402480A1B50
1001
ACAD
1000
AcDbSavedByObjectVersion
1070
     0
  0
ACAD_PROXY_OBJECT
  5
31
102
{ACAD_REACTORS
330
2A
102
}
330
2A
100
AcDbProxyObject
 90
      499
 91
      501
 93
      476
310
41921A5919195B90640502408333333333333E33F0000000000000F901079024090700405020000000000001110200405405064090740C02480A0340
1001
ACAD
1000
AcDbSavedByObjectVersion
1070
     0
  0
ACAD_PROXY_OBJECT
  5
3B
102
{ACAD_REACTORS
330
2A
102
}
330
2A
100
AcDbProxyObject
 90
      499
 91
      501
 93
      428
310
42529A5D1D195C93D999914409028333333333333E33F0000000000000F9010790141107004050150A41D405064090741402480A0350
1001
ACAD
1000
AcDbSavedByObjectVersion
1070
     0
  0
ACAD_PROXY_OBJECT
  5
38
102
{ACAD_REACTORS
330
2A
102
}
330
2A
100
AcDbProxyObject
 90
      499
 91
      501
 93
      444
310
42D31A5B995C185D1D195C9B90E409028333333333333E33F0000000000000F9010790141107004050750841D405064090741402483A0350
1001
ACAD
1000
AcDbSavedByObjectVersion
1070
     0
  0
ACAD_PROXY_OBJECT
  5
3C
102
{ACAD_REACTORS
330
2A
102
}
330
2A
100
AcDbProxyObject
 90
      499
 91
      501
 93
      444
310
42D3DD995C9A185B99D3D999915409028333333333333E33F0000000000000F9010790141107004050150941D405064090741402480A0350
1001
ACAD
1000
AcDbSavedByObjectVersion
1070
     0
  0
ACAD_PROXY_OBJECT
  5
33
102
{ACAD_REACTORS
330
2A
102
}
330
2A
100
AcDbProxyObject
 90
      499
 91
      501
 93
      428
310
425499585B1A5CDD1A58D08409038333333333333E33F0000000000000F9010740A907004050150800405405064090740C02480A1B40
1001
ACAD
1000
AcDbSavedByObjectVersion
1070
     0
  0
ACAD_PROXY_OBJECT
  5
42
102
{ACAD_REACTORS
330
2A
102
}
330
2A
100
AcDbProxyObject
 90
      499
 91
      501
 93
      420
310
4194DA1859195911B40902404333333333333E33F0000000000000F9010740A41107004050150800405405064090840C02480A0B40
1001
ACAD
1000
AcDbSavedByObjectVersion
1070
     0
  0
ACAD_PROXY_OBJECT
  5
41
102
{ACAD_REACTORS
330
2A
102
}
330
2A
100
AcDbProxyObject
 90
      499
 91
      501
 93
      516
310
4454DA18591959081DDA5D1A08195919D95CD1A40902404333333333333E33F0000000000000F901074090142907004050250800405405064090740C02480A0B40
1001
ACAD
1000
AcDbSavedByObjectVersion
1070
     0
  0
ACAD_PROXY_OBJECT
  5
3E
102
{ACAD_REACTORS
330
2A
102
}
330
2A
100
AcDbProxyObject
 90
      499
 91
      501
 93
      532
310
4394DA1859195CC81BD98811DC985E5174090240C333333333333E33F0000000000000F901079024090741D01000000000000111010841D405064090740C02480A0340
1001
ACAD
1000
AcDbSavedByObjectVersion
1070
     0
  0
ACAD_PROXY_OBJECT
  5
3F
102
{ACAD_REACTORS
330
2A
102
}
330
2A
100
AcDbProxyObject
 90
      499
 91
      501
 93
      476
310
41D4DAD95D18DA1E51840502408333333333333E33F0000000000000F901079024090741D01000000000000111010B41D405064090741802480A0340
1001
ACAD
1000
AcDbSavedByObjectVersion
1070
     0
  0
ACAD_PROXY_OBJECT
  5
37
102
{ACAD_REACTORS
330
2A
102
}
330
2A
100
AcDbProxyObject
 90
      499
 91
      501
 93
      412
310
41D51A1A58DAD95B90D409028333333333333E33F0000000000000F9010790141107004050150C41D405064090741402480A0350
1001
ACAD
1000
AcDbSavedByObjectVersion
1070
     0
  0
ACAD_PROXY_OBJECT
  5
30
102
{ACAD_REACTORS
330
2A
102
}
330
2A
100
AcDbProxyObject
 90
      499
 91
      501
 93
      420
310
4255DA5C99599C985B595059028333333333333E33F0000000000000F90107901411070040501600405405064090740C02480A0340
1001
ACAD
1000
AcDbSavedByObjectVersion
1070
     0
  0
ACAD_PROXY_OBJECT
  5
40
102
{ACAD_REACTORS
330
2A
102
}
330
2A
100
AcDbProxyObject
 90
      499
 91
      501
 93
      404
310
41560B54985E51940902404000000000000E03F0000000000000F9010740501907004050150841D405064090740C02480A1B40
1001
ACAD
1000
AcDbSavedByObjectVersion
1070
     0
  0
XRECORD
  5
6B8
102
{ACAD_REACTORS
330
6AE
102
}
330
6AE
100
AcDbXrecord
340
0
  0
XRECORD
  5
6B7
102
{ACAD_REACTORS
330
6AE
102
}
330
6AE
100
AcDbXrecord
 90
        0
  0
XRECORD
  5
6CE
102
{ACAD_REACTORS
330
6AE
102
}
330
6AE
100
AcDbXrecord
1000
DSTYLE
1002
{
1070
   340
340
11
1002
}
  0
XRECORD
  5
6B9
102
{ACAD_REACTORS
330
6AE
102
}
330
6AE
100
AcDbXrecord
  1
{0257537f-1c31-4889-886a-ef5f9cffa539}
  0
XRECORD
  5
6B1
102
{ACAD_REACTORS
330
6AE
102
}
330
6AE
100
AcDbXrecord
  1

  0
XRECORD
  5
6B6
102
{ACAD_REACTORS
330
6AE
102
}
330
6AE
100
AcDbXrecord
 90
        4
  0
XRECORD
  5
6B3
102
{ACAD_REACTORS
330
6AE
102
}
330
6AE
100
AcDbXrecord
340
1A
  0
XRECORD
  5
6B5
102
{ACAD_REACTORS
330
6AE
102
}
330
6AE
100
AcDbXrecord
 90
    10781
  0
XRECORD
  5
6B4
102
{ACAD_REACTORS
330
6AE
102
}
330
6AE
100
AcDbXrecord
340
19
  0
XRECORD
  5
6BB
102
{ACAD_REACTORS
330
6AE
102
}
330
6AE
100
AcDbXrecord
 40
0.0
  0
XRECORD
  5
6BE
102
{ACAD_REACTORS
330
6AE
102
}
330
6AE
100
AcDbXrecord
340
0
  0
XRECORD
  5
6C4
102
{ACAD_REACTORS
330
6AE
102
}
330
6AE
100
AcDbXrecord
 10
0.0
 20
0.0
 30
0.0
  0
XRECORD
  5
6C0
102
{ACAD_REACTORS
330
6AE
102
}
330
6AE
100
AcDbXrecord
 10
0.0
 20
0.0
 30
0.0
  0
XRECORD
  5
6C3
102
{ACAD_REACTORS
330
6AE
102
}
330
6AE
100
AcDbXrecord
 10
0.0
 20
0.0
 30
0.0
  0
XRECORD
  5
6C1
102
{ACAD_REACTORS
330
6AE
102
}
330
6AE
100
AcDbXrecord
 10
0.0
 20
0.0
 30
0.0
  0
XRECORD
  5
6C2
102
{ACAD_REACTORS
330
6AE
102
}
330
6AE
100
AcDbXrecord
 10
0.0
 20
0.0
 30
0.0
  0
XRECORD
  5
6BF
102
{ACAD_REACTORS
330
6AE
102
}
330
6AE
100
AcDbXrecord
 10
0.0
 20
0.0
 30
0.0
  0
XRECORD
  5
6BC
102
{ACAD_REACTORS
330
6AE
102
}
330
6AE
100
AcDbXrecord
340
0
  0
XRECORD
  5
6BD
102
{ACAD_REACTORS
330
6AE
102
}
330
6AE
100
AcDbXrecord
 70
     0
  0
XRECORD
  5
6B2
102
{ACAD_REACTORS
330
6AE
102
}
330
6AE
100
AcDbXrecord
  1

  0
XRECORD
  5
6AF
102
{ACAD_REACTORS
330
6AE
102
}
330
6AE
100
AcDbXrecord
 90
        1
  0
XRECORD
  5
6B0
102
{ACAD_REACTORS
330
6AE
102
}
330
6AE
100
AcDbXrecord
 90
       70
  0
XRECORD
  5
6C7
102
{ACAD_REACTORS
330
6AE
102
}
330
6AE
100
AcDbXrecord
340
0
  0
XRECORD
  5
6CD
102
{ACAD_REACTORS
330
6AE
102
}
330
6AE
100
AcDbXrecord
 10
0.0
 20
0.0
 30
0.0
  0
XRECORD
  5
6C9
102
{ACAD_REACTORS
330
6AE
102
}
330
6AE
100
AcDbXrecord
 10
0.0
 20
0.0
 30
0.0
  0
XRECORD
  5
6CC
102
{ACAD_REACTORS
330
6AE
102
}
330
6AE
100
AcDbXrecord
 10
0.0
 20
0.0
 30
0.0
  0
XRECORD
  5
6CA
102
{ACAD_REACTORS
330
6AE
102
}
330
6AE
100
AcDbXrecord
 10
0.0
 20
0.0
 30
0.0
  0
XRECORD
  5
6CB
102
{ACAD_REACTORS
330
6AE
102
}
330
6AE
100
AcDbXrecord
 10
0.0
 20
0.0
 30
0.0
  0
XRECORD
  5
6C8
102
{ACAD_REACTORS
330
6AE
102
}
330
6AE
100
AcDbXrecord
 10
0.0
 20
0.0
 30
0.0
  0
XRECORD
  5
6C5
102
{ACAD_REACTORS
330
6AE
102
}
330
6AE
100
AcDbXrecord
340
0
  0
XRECORD
  5
6C6
102
{ACAD_REACTORS
330
6AE
102
}
330
6AE
100
AcDbXrecord
 70
     0
  0
XRECORD
  5
6BA
102
{ACAD_REACTORS
330
6AE
102
}
330
6AE
100
AcDbXrecord
  1
{FAEB1C32-E019-11D5-929B-00C0DF256EC4}
  0
DICTIONARYVAR
  5
6DC
102
{ACAD_REACTORS
330
6CF
102
}
330
6CF
100
DictionaryVariables
280
     0
  1
1:1
  0
DICTIONARYVAR
  5
6D6
102
{ACAD_REACTORS
330
6CF
102
}
330
6CF
100
DictionaryVariables
280
     0
  1
3.500000
  0
DICTIONARYVAR
  5
6D7
102
{ACAD_REACTORS
330
6CF
102
}
330
6CF
100
DictionaryVariables
280
     0
  1
acadiso.lin
  0
DICTIONARYVAR
  5
6D1
102
{ACAD_REACTORS
330
6CF
102
}
330
6CF
100
DictionaryVariables
280
     0
  1
Standard
  0
DICTIONARYVAR
  5
6D0
102
{ACAD_REACTORS
330
6CF
102
}
330
6CF
100
DictionaryVariables
280
     0
  1
Standard
  0
DICTIONARYVAR
  5
6D8
102
{ACAD_REACTORS
330
6CF
102
}
330
6CF
100
DictionaryVariables
280
     0
  1
2
  0
DICTIONARYVAR
  5
6D9
102
{ACAD_REACTORS
330
6CF
102
}
330
6CF
100
DictionaryVariables
280
     0
  1
1
  0
DICTIONARYVAR
  5
6DD
102
{ACAD_REACTORS
330
6CF
102
}
330
6CF
100
DictionaryVariables
280
     0
  1
1
  0
DICTIONARYVAR
  5
6D3
102
{ACAD_REACTORS
330
6CF
102
}
330
6CF
100
DictionaryVariables
280
     0
  1
80.000000
  0
DICTIONARYVAR
  5
6D2
102
{ACAD_REACTORS
330
6CF
102
}
330
6CF
100
DictionaryVariables
280
     0
  1
5.000000
  0
DICTIONARY
  5
6E0
330
45
100
AcDbDictionary
280
     1
  3
ACAD_XREC_ROUNDTRIP
360
6E1
  0
DICTIONARY
  5
6DE
330
44
100
AcDbDictionary
280
     1
  3
ACAD_XREC_ROUNDTRIP
360
6DF
  0
DICTIONARY
  5
6E2
330
46
100
AcDbDictionary
280
     1
  3
ACAD_XREC_ROUNDTRIP
360
6E3
  0
XRECORD
  5
6E1
102
{ACAD_REACTORS
330
6E0
102
}
330
6E0
100
AcDbXrecord
102
MATERIAL
148
0.0
149
0.0
149
0.0
 93
        0
 94
      127
282
     0
 72
     1
 77
     1
171
     1
175
     1
179
     1
273
     0
  0
XRECORD
  5
6DF
102
{ACAD_REACTORS
330
6DE
102
}
330
6DE
100
AcDbXrecord
102
MATERIAL
148
0.0
149
0.0
149
0.0
 93
        0
 94
      127
282
     0
 72
     1
 77
     1
171
     1
175
     1
179
     1
273
     0
  0
XRECORD
  5
6E3
102
{ACAD_REACTORS
330
6E2
102
}
330
6E2
100
AcDbXrecord
102
MATERIAL
148
0.0
149
0.0
149
0.0
 93
        0
 94
      127
282
     0
 72
     1
 77
     1
171
     1
175
     1
179
     1
273
     0
  0
ENDSEC
  0
EOF
