  0
SECTION
  2
HEADER
  9
$ACADVER
  1
AC1014
  9
$ACADMAINTVER
 70
     9
  9
$DWGCODEPAGE
  3
ANSI_932
  9
$INSBASE
 10
0.0
 20
0.0
 30
0.0
  9
$EXTMIN
 10
50.0
 20
100.0
 30
0.0
  9
$EXTMAX
 10
3850.0
 20
2800.0
 30
0.0
  9
$LIMMIN
 10
0.0
 20
0.0
  9
$LIMMAX
 10
420.0
 20
297.0
  9
$ORTHOMODE
 70
     0
  9
$REGENMODE
 70
     1
  9
$FILLMODE
 70
     1
  9
$QTEXTMODE
 70
     0
  9
$MIRRTEXT
 70
     1
  9
$DRAGMODE
 70
     2
  9
$LTSCALE
 40
0.2
  9
$OSMODE
 70
    37
  9
$ATTMODE
 70
     1
  9
$TEXTSIZE
 40
2.5
  9
$TRACEWID
 40
1.0
  9
$TEXTSTYLE
  7
STANDARD
  9
$CLAYER
  8
LAY-10
  9
$CELTYPE
  6
BYLAYER
  9
$CECOLOR
 62
   256
  9
$CELTSCALE
 40
1.0
  9
$DELOBJ
 70
     1
  9
$DISPSILH
 70
     0
  9
$DIMSCALE
 40
1.0
  9
$DIMASZ
 40
2.5
  9
$DIMEXO
 40
0.625
  9
$DIMDLI
 40
3.75
  9
$DIMRND
 40
0.0
  9
$DIMDLE
 40
0.0
  9
$DIMEXE
 40
1.25
  9
$DIMTP
 40
0.0
  9
$DIMTM
 40
0.0
  9
$DIMTXT
 40
2.5
  9
$DIMCEN
 40
2.5
  9
$DIMTSZ
 40
0.0
  9
$DIMTOL
 70
     0
  9
$DIMLIM
 70
     0
  9
$DIMTIH
 70
     0
  9
$DIMTOH
 70
     0
  9
$DIMSE1
 70
     0
  9
$DIMSE2
 70
     0
  9
$DIMTAD
 70
     1
  9
$DIMZIN
 70
     8
  9
$DIMBLK
  1

  9
$DIMASO
 70
     1
  9
$DIMSHO
 70
     1
  9
$DIMPOST
  1

  9
$DIMAPOST
  1

  9
$DIMALT
 70
     0
  9
$DIMALTD
 70
     3
  9
$DIMALTF
 40
0.03937007874016
  9
$DIMLFAC
 40
1.0
  9
$DIMTOFL
 70
     1
  9
$DIMTVP
 40
0.0
  9
$DIMTIX
 70
     0
  9
$DIMSOXD
 70
     0
  9
$DIMSAH
 70
     0
  9
$DIMBLK1
  1

  9
$DIMBLK2
  1

  9
$DIMSTYLE
  2
ISO-25
  9
$DIMCLRD
 70
     0
  9
$DIMCLRE
 70
     0
  9
$DIMCLRT
 70
     0
  9
$DIMTFAC
 40
1.0
  9
$DIMGAP
 40
0.625
  9
$DIMJUST
 70
     0
  9
$DIMSD1
 70
     0
  9
$DIMSD2
 70
     0
  9
$DIMTOLJ
 70
     0
  9
$DIMTZIN
 70
     8
  9
$DIMALTZ
 70
     0
  9
$DIMALTTZ
 70
     0
  9
$DIMFIT
 70
     3
  9
$DIMUPT
 70
     0
  9
$DIMUNIT
 70
     2
  9
$DIMDEC
 70
     2
  9
$DIMTDEC
 70
     2
  9
$DIMALTU
 70
     2
  9
$DIMALTTD
 70
     3
  9
$DIMTXSTY
  7
STANDARD
  9
$DIMAUNIT
 70
     0
  9
$LUNITS
 70
     2
  9
$LUPREC
 70
     4
  9
$SKETCHINC
 40
1.0
  9
$FILLETRAD
 40
10.0
  9
$AUNITS
 70
     0
  9
$AUPREC
 70
     0
  9
$MENU
  1
.
  9
$ELEVATION
 40
0.0
  9
$PELEVATION
 40
0.0
  9
$THICKNESS
 40
0.0
  9
$LIMCHECK
 70
     0
  9
$CHAMFERA
 40
0.0
  9
$CHAMFERB
 40
0.0
  9
$CHAMFERC
 40
0.0
  9
$CHAMFERD
 40
0.0
  9
$SKPOLY
 70
     0
  9
$TDCREATE
 40
2459229.333112107
  9
$TDUPDATE
 40
2459229.333113484
  9
$TDINDWG
 40
0.0000000116
  9
$TDUSRTIMER
 40
0.0000000116
  9
$USRTIMER
 70
     1
  9
$ANGBASE
 50
0.0
  9
$ANGDIR
 70
     0
  9
$PDMODE
 70
     0
  9
$PDSIZE
 40
0.0
  9
$PLINEWID
 40
0.0
  9
$COORDS
 70
     1
  9
$SPLFRAME
 70
     0
  9
$SPLINETYPE
 70
     6
  9
$SPLINESEGS
 70
     8
  9
$ATTDIA
 70
     0
  9
$ATTREQ
 70
     1
  9
$HANDLING
 70
     1
  9
$HANDSEED
  5
5ED
  9
$SURFTAB1
 70
     6
  9
$SURFTAB2
 70
     6
  9
$SURFTYPE
 70
     6
  9
$SURFU
 70
     6
  9
$SURFV
 70
     6
  9
$UCSNAME
  2

  9
$UCSORG
 10
0.0
 20
0.0
 30
0.0
  9
$UCSXDIR
 10
1.0
 20
0.0
 30
0.0
  9
$UCSYDIR
 10
0.0
 20
1.0
 30
0.0
  9
$PUCSNAME
  2

  9
$PUCSORG
 10
0.0
 20
0.0
 30
0.0
  9
$PUCSXDIR
 10
1.0
 20
0.0
 30
0.0
  9
$PUCSYDIR
 10
0.0
 20
1.0
 30
0.0
  9
$USERI1
 70
     0
  9
$USERI2
 70
     0
  9
$USERI3
 70
     0
  9
$USERI4
 70
     0
  9
$USERI5
 70
     0
  9
$USERR1
 40
0.0
  9
$USERR2
 40
0.0
  9
$USERR3
 40
0.0
  9
$USERR4
 40
0.0
  9
$USERR5
 40
0.0
  9
$WORLDVIEW
 70
     1
  9
$SHADEDGE
 70
     3
  9
$SHADEDIF
 70
    70
  9
$TILEMODE
 70
     1
  9
$MAXACTVP
 70
    64
  9
$PINSBASE
 10
0.0
 20
0.0
 30
0.0
  9
$PLIMCHECK
 70
     0
  9
$PEXTMIN
 10
1.000000000000000E+20
 20
1.000000000000000E+20
 30
1.000000000000000E+20
  9
$PEXTMAX
 10
-1.000000000000000E+20
 20
-1.000000000000000E+20
 30
-1.000000000000000E+20
  9
$PLIMMIN
 10
0.0
 20
0.0
  9
$PLIMMAX
 10
420.0
 20
297.0
  9
$UNITMODE
 70
     0
  9
$VISRETAIN
 70
     1
  9
$PLINEGEN
 70
     0
  9
$PSLTSCALE
 70
     1
  9
$TREEDEPTH
 70
  3020
  9
$PICKSTYLE
 70
     1
  9
$CMLSTYLE
  2
STANDARD
  9
$CMLJUST
 70
     0
  9
$CMLSCALE
 40
20.0
  9
$PROXYGRAPHICS
 70
     1
  9
$MEASUREMENT
 70
     1
  0
ENDSEC
  0
SECTION
  2
CLASSES
  0
CLASS
  1
ACDBDICTIONARYWDFLT
  2
AcDbDictionaryWithDefault
  3
ObjectDBX Classes
 90
        0
280
     0
281
     0
  0
CLASS
  1
VISUALSTYLE
  2
AcDbVisualStyle
  3
ObjectDBX Classes
 90
     4095
280
     0
281
     0
  0
CLASS
  1
MATERIAL
  2
AcDbMaterial
  3
ObjectDBX Classes
 90
     1153
280
     0
281
     0
  0
CLASS
  1
SCALE
  2
AcDbScale
  3
ObjectDBX Classes
 90
     1153
280
     0
281
     0
  0
CLASS
  1
TABLESTYLE
  2
AcDbTableStyle
  3
ObjectDBX Classes
 90
     4095
280
     0
281
     0
  0
CLASS
  1
MLEADERSTYLE
  2
AcDbMLeaderStyle
  3
ACDB_MLEADERSTYLE_CLASS
 90
     4095
280
     0
281
     0
  0
CLASS
  1
SUN
  2
AcDbSun
  3
SCENEOE
 90
     1153
280
     0
281
     0
  0
CLASS
  1
DICTIONARYVAR
  2
AcDbDictionaryVar
  3
ObjectDBX Classes
 90
        0
280
     0
281
     0
  0
CLASS
  1
XRECORD
  2
AcDbXrecord
  3
ObjectDBX Classes
 90
        0
280
     0
281
     0
  0
CLASS
  1
LWPOLYLINE
  2
AcDbPolyline
  3
ObjectDBX Classes
 90
        0
280
     0
281
     1
  0
CLASS
  1
HATCH
  2
AcDbHatch
  3
ObjectDBX Classes
 90
        0
280
     0
281
     1
  0
CLASS
  1
ACDBPLACEHOLDER
  2
AcDbPlaceHolder
  3
ObjectDBX Classes
 90
        0
280
     0
281
     0
  0
CLASS
  1
LAYOUT
  2
AcDbLayout
  3
ObjectDBX Classes
 90
        0
280
     0
281
     0
  0
ENDSEC
  0
SECTION
  2
TABLES
  0
TABLE
  2
VPORT
  5
8
102
{ACAD_XDICTIONARY
360
5E2
102
}
330
0
100
AcDbSymbolTable
 70
     1
  0
VPORT
  5
29
330
8
100
AcDbSymbolTableRecord
100
AcDbViewportTableRecord
  2
*ACTIVE
 70
     0
 10
0.0
 20
0.0
 11
1.0
 21
1.0
 12
1950.0
 22
1450.0
 13
0.0
 23
0.0
 14
10.0
 24
10.0
 15
10.0
 25
10.0
 16
0.0
 26
0.0
 36
1.0
 17
0.0
 27
0.0
 37
0.0
 40
2700.0
 41
1.407407407407408
 42
50.0
 43
0.0
 44
0.0
 50
0.0
 51
0.0
 71
     0
 72
  1000
 73
     1
 74
     3
 75
     0
 76
     0
 77
     0
 78
     0
  0
ENDTAB
  0
TABLE
  2
LTYPE
  5
5
330
0
100
AcDbSymbolTable
 70
     6
  0
LTYPE
  5
14
330
5
100
AcDbSymbolTableRecord
100
AcDbLinetypeTableRecord
  2
BYBLOCK
 70
     0
  3

 72
    65
 73
     0
 40
0.0
  0
LTYPE
  5
15
330
5
100
AcDbSymbolTableRecord
100
AcDbLinetypeTableRecord
  2
BYLAYER
 70
     0
  3

 72
    65
 73
     0
 40
0.0
  0
LTYPE
  5
16
330
5
100
AcDbSymbolTableRecord
100
AcDbLinetypeTableRecord
  2
CONTINUOUS
 70
     0
  3
Solid line
 72
    65
 73
     0
 40
0.0
  0
LTYPE
  5
6E
330
5
100
AcDbSymbolTableRecord
100
AcDbLinetypeTableRecord
  2
HIDDEN
 70
     0
  3
Hidden __ __ __ __ __ __ __ __ __ __ __ __ __ __
 72
    65
 73
     2
 40
9.524999999999999
 49
6.35
 74
     0
 49
-3.175
 74
     0
  0
LTYPE
  5
6F
330
5
100
AcDbSymbolTableRecord
100
AcDbLinetypeTableRecord
  2
CENTER
 70
     0
  3
Center ____ _ ____ _ ____ _ ____ _ ____ _ ____
 72
    65
 73
     4
 40
50.8
 49
31.75
 74
     0
 49
-6.35
 74
     0
 49
6.35
 74
     0
 49
-6.35
 74
     0
  0
LTYPE
  5
70
330
5
100
AcDbSymbolTableRecord
100
AcDbLinetypeTableRecord
  2
PHANTOM
 70
     0
  3
Phantom ______  __  __  ______  __  __  ______ 
 72
    65
 73
     6
 40
63.50000000000001
 49
31.75
 74
     0
 49
-6.35
 74
     0
 49
6.35
 74
     0
 49
-6.35
 74
     0
 49
6.35
 74
     0
 49
-6.35
 74
     0
  0
LTYPE
  5
71
330
5
100
AcDbSymbolTableRecord
100
AcDbLinetypeTableRecord
  2
ACAD_ISO06W100
 70
     0
  3
ISO long-dash triple-dot ____ ... ____ ... ____
 72
    65
 73
     8
 40
36.0
 49
24.0
 74
     0
 49
-3.0
 74
     0
 49
0.0
 74
     0
 49
-3.0
 74
     0
 49
0.0
 74
     0
 49
-3.0
 74
     0
 49
0.0
 74
     0
 49
-3.0
 74
     0
  0
LTYPE
  5
72
330
5
100
AcDbSymbolTableRecord
100
AcDbLinetypeTableRecord
  2
ACAD_ISO15W100
 70
     0
  3
ISO double-dash triple-dot __ __ . . . __ __ . .
 72
    65
 73
    10
 40
39.0
 49
12.0
 74
     0
 49
-3.0
 74
     0
 49
12.0
 74
     0
 49
-3.0
 74
     0
 49
0.0
 74
     0
 49
-3.0
 74
     0
 49
0.0
 74
     0
 49
-3.0
 74
     0
 49
0.0
 74
     0
 49
-3.0
 74
     0
  0
ENDTAB
  0
TABLE
  2
LAYER
  5
2
330
0
100
AcDbSymbolTable
 70
     6
  0
LAYER
  5
10
330
2
100
AcDbSymbolTableRecord
100
AcDbLayerTableRecord
  2
0
 70
     0
 62
     7
  6
CONTINUOUS
  0
LAYER
  5
75
330
2
100
AcDbSymbolTableRecord
100
AcDbLayerTableRecord
  2
LAY-10
 70
     0
 62
     7
  6
CONTINUOUS
  0
LAYER
  5
76
330
2
100
AcDbSymbolTableRecord
100
AcDbLayerTableRecord
  2
LAY-11
 70
     0
 62
     7
  6
CONTINUOUS
  0
LAYER
  5
77
330
2
100
AcDbSymbolTableRecord
100
AcDbLayerTableRecord
  2
LAY-20
 70
     0
 62
     7
  6
CONTINUOUS
  0
LAYER
  5
78
330
2
100
AcDbSymbolTableRecord
100
AcDbLayerTableRecord
  2
LAY-255
 70
     0
 62
     7
  6
CONTINUOUS
  0
LAYER
  5
50A
330
2
100
AcDbSymbolTableRecord
100
AcDbLayerTableRecord
  2
DEFPOINTS
 70
     0
 62
     7
  6
CONTINUOUS
  0
ENDTAB
  0
TABLE
  2
STYLE
  5
3
330
0
100
AcDbSymbolTable
 70
     4
  0
STYLE
  5
11
330
3
100
AcDbSymbolTableRecord
100
AcDbTextStyleTableRecord
  2
STANDARD
 70
     0
 40
0.0
 41
1.0
 50
0.0
 71
     0
 42
2.5
  3
simplex
  4
bigfont
  0
STYLE
  5
73
330
3
100
AcDbSymbolTableRecord
100
AcDbTextStyleTableRecord
  2
EXCADSTD
 70
     0
 40
0.0
 41
1.0
 50
0.0
 71
     0
 42
2.5
  3
simplex
  4
bigfont
  0
STYLE
  5
74
330
3
100
AcDbSymbolTableRecord
100
AcDbTextStyleTableRecord
  2
EXCADVERT
 70
     4
 40
0.0
 41
1.0
 50
0.0
 71
     0
 42
2.5
  3
simplex
  4
bigfont
  0
STYLE
  5
508
330
3
100
AcDbSymbolTableRecord
100
AcDbTextStyleTableRecord
  2
EXCADDIM1
 70
     0
 40
0.0
 41
0.84
 50
0.0
 71
     0
 42
2.5
  3
simplex
  4
bigfont
  0
ENDTAB
  0
TABLE
  2
VIEW
  5
6
330
0
100
AcDbSymbolTable
 70
     0
  0
ENDTAB
  0
TABLE
  2
UCS
  5
7
330
0
100
AcDbSymbolTable
 70
     0
  0
ENDTAB
  0
TABLE
  2
APPID
  5
9
330
0
100
AcDbSymbolTable
 70
     2
  0
APPID
  5
12
330
9
100
AcDbSymbolTableRecord
100
AcDbRegAppTableRecord
  2
ACAD
 70
     0
  0
APPID
  5
5EC
330
9
100
AcDbSymbolTableRecord
100
AcDbRegAppTableRecord
  2
ACAD_MLEADERVER
 70
     0
  0
ENDTAB
  0
TABLE
  2
DIMSTYLE
  5
A
330
0
100
AcDbSymbolTable
 70
     1
  0
DIMSTYLE
105
27
102
{ACAD_REACTORS
330
509
330
517
330
524
330
531
330
53E
330
54B
330
558
330
565
330
572
330
580
102
}
330
A
100
AcDbSymbolTableRecord
100
AcDbDimStyleTableRecord
  2
ISO-25
 70
     0
  3

  4

  5

  6

  7

 40
1.0
 41
2.5
 42
0.625
 43
3.75
 44
1.25
 45
0.0
 46
0.0
 47
0.0
 48
0.0
140
2.5
141
2.5
142
0.0
143
0.03937007874016
144
1.0
145
0.0
146
1.0
147
0.625
 71
     0
 72
     0
 73
     0
 74
     0
 75
     0
 76
     0
 77
     1
 78
     8
170
     0
171
     3
172
     1
173
     0
174
     0
175
     0
176
     0
177
     0
178
     0
270
     2
271
     2
272
     2
273
     2
274
     3
340
11
275
     0
280
     0
281
     0
282
     0
283
     0
284
     8
285
     0
286
     0
287
     5
288
     0
  0
ENDTAB
  0
TABLE
  2
BLOCK_RECORD
  5
1
330
0
100
AcDbSymbolTable
 70
    42
  0
BLOCK_RECORD
  5
1F
330
1
100
AcDbSymbolTableRecord
100
AcDbBlockTableRecord
  2
*MODEL_SPACE
  0
BLOCK_RECORD
  5
1B
330
1
100
AcDbSymbolTableRecord
100
AcDbBlockTableRecord
  2
*PAPER_SPACE
  0
BLOCK_RECORD
  5
79
330
1
100
AcDbSymbolTableRecord
100
AcDbBlockTableRecord
  2
EX_NORM
  0
BLOCK_RECORD
  5
7C
330
1
100
AcDbSymbolTableRecord
100
AcDbBlockTableRecord
  2
EX_BNORM
  0
BLOCK_RECORD
  5
7F
330
1
100
AcDbSymbolTableRecord
100
AcDbBlockTableRecord
  2
EX_BCIR
  0
BLOCK_RECORD
  5
82
330
1
100
AcDbSymbolTableRecord
100
AcDbBlockTableRecord
  2
EX_RCIVIL
  0
BLOCK_RECORD
  5
85
330
1
100
AcDbSymbolTableRecord
100
AcDbBlockTableRecord
  2
EX_SLANT
  0
BLOCK_RECORD
  5
88
330
1
100
AcDbSymbolTableRecord
100
AcDbBlockTableRecord
  2
EX_NONE
  0
BLOCK_RECORD
  5
8B
330
1
100
AcDbSymbolTableRecord
100
AcDbBlockTableRecord
  2
EX_CIVIL
  0
BLOCK_RECORD
  5
8E
330
1
100
AcDbSymbolTableRecord
100
AcDbBlockTableRecord
  2
EX_WCIR
  0
BLOCK_RECORD
  5
91
330
1
100
AcDbSymbolTableRecord
100
AcDbBlockTableRecord
  2
EX_WCIR2
  0
BLOCK_RECORD
  5
94
330
1
100
AcDbSymbolTableRecord
100
AcDbBlockTableRecord
  2
EX_WNORM
  0
BLOCK_RECORD
  5
97
330
1
100
AcDbSymbolTableRecord
100
AcDbBlockTableRecord
  2
EX_NNORM
  0
BLOCK_RECORD
  5
9A
330
1
100
AcDbSymbolTableRecord
100
AcDbBlockTableRecord
  2
EX_BBOX
  0
BLOCK_RECORD
  5
9D
330
1
100
AcDbSymbolTableRecord
100
AcDbBlockTableRecord
  2
EX_WBOX
  0
BLOCK_RECORD
  5
A0
330
1
100
AcDbSymbolTableRecord
100
AcDbBlockTableRecord
  2
EX_INTEGRAL
  0
BLOCK_RECORD
  5
A3
330
1
100
AcDbSymbolTableRecord
100
AcDbBlockTableRecord
  2
SYM-1
  0
BLOCK_RECORD
  5
A6
330
1
100
AcDbSymbolTableRecord
100
AcDbBlockTableRecord
  2
SYM-2
  0
BLOCK_RECORD
  5
A9
330
1
100
AcDbSymbolTableRecord
100
AcDbBlockTableRecord
  2
SYM-3
  0
BLOCK_RECORD
  5
AC
330
1
100
AcDbSymbolTableRecord
100
AcDbBlockTableRecord
  2
SYM-4
  0
BLOCK_RECORD
  5
AF
330
1
100
AcDbSymbolTableRecord
100
AcDbBlockTableRecord
  2
SYM-5
  0
BLOCK_RECORD
  5
B2
330
1
100
AcDbSymbolTableRecord
100
AcDbBlockTableRecord
  2
SYM-6
  0
BLOCK_RECORD
  5
B5
330
1
100
AcDbSymbolTableRecord
100
AcDbBlockTableRecord
  2
SYM-7
  0
BLOCK_RECORD
  5
B8
330
1
100
AcDbSymbolTableRecord
100
AcDbBlockTableRecord
  2
SYM-8
  0
BLOCK_RECORD
  5
BB
330
1
100
AcDbSymbolTableRecord
100
AcDbBlockTableRecord
  2
SYM-9
  0
BLOCK_RECORD
  5
BE
330
1
100
AcDbSymbolTableRecord
100
AcDbBlockTableRecord
  2
SYM-10
  0
BLOCK_RECORD
  5
C1
330
1
100
AcDbSymbolTableRecord
100
AcDbBlockTableRecord
  2
SYM-11
  0
BLOCK_RECORD
  5
C4
330
1
100
AcDbSymbolTableRecord
100
AcDbBlockTableRecord
  2
SYM-12
  0
BLOCK_RECORD
  5
C7
330
1
100
AcDbSymbolTableRecord
100
AcDbBlockTableRecord
  2
SYM-13
  0
BLOCK_RECORD
  5
CA
330
1
100
AcDbSymbolTableRecord
100
AcDbBlockTableRecord
  2
SYM-14
  0
BLOCK_RECORD
  5
CD
330
1
100
AcDbSymbolTableRecord
100
AcDbBlockTableRecord
  2
SYM-15
  0
BLOCK_RECORD
  5
D0
330
1
100
AcDbSymbolTableRecord
100
AcDbBlockTableRecord
  2
SYM-16
  0
BLOCK_RECORD
  5
D3
330
1
100
AcDbSymbolTableRecord
100
AcDbBlockTableRecord
  2
SYM-17
  0
BLOCK_RECORD
  5
D6
330
1
100
AcDbSymbolTableRecord
100
AcDbBlockTableRecord
  2
SYM-18
  0
BLOCK_RECORD
  5
50B
330
1
100
AcDbSymbolTableRecord
100
AcDbBlockTableRecord
  2
*D33
  0
BLOCK_RECORD
  5
518
330
1
100
AcDbSymbolTableRecord
100
AcDbBlockTableRecord
  2
*D34
  0
BLOCK_RECORD
  5
525
330
1
100
AcDbSymbolTableRecord
100
AcDbBlockTableRecord
  2
*D35
  0
BLOCK_RECORD
  5
532
330
1
100
AcDbSymbolTableRecord
100
AcDbBlockTableRecord
  2
*D36
  0
BLOCK_RECORD
  5
53F
330
1
100
AcDbSymbolTableRecord
100
AcDbBlockTableRecord
  2
*D37
  0
BLOCK_RECORD
  5
54C
330
1
100
AcDbSymbolTableRecord
100
AcDbBlockTableRecord
  2
*D38
  0
BLOCK_RECORD
  5
559
330
1
100
AcDbSymbolTableRecord
100
AcDbBlockTableRecord
  2
*D39
  0
BLOCK_RECORD
  5
566
330
1
100
AcDbSymbolTableRecord
100
AcDbBlockTableRecord
  2
*D40
  0
BLOCK_RECORD
  5
573
330
1
100
AcDbSymbolTableRecord
100
AcDbBlockTableRecord
  2
*D41
  0
BLOCK_RECORD
  5
581
330
1
100
AcDbSymbolTableRecord
100
AcDbBlockTableRecord
  2
*D42
  0
ENDTAB
  0
ENDSEC
  0
SECTION
  2
BLOCKS
  0
BLOCK
  5
20
330
1F
100
AcDbEntity
  8
0
100
AcDbBlockBegin
  2
*MODEL_SPACE
 70
     0
 10
0.0
 20
0.0
 30
0.0
  3
*MODEL_SPACE
  1

  0
ENDBLK
  5
21
330
1F
100
AcDbEntity
  8
0
100
AcDbBlockEnd
  0
BLOCK
  5
1C
330
1B
100
AcDbEntity
 67
     1
  8
0
100
AcDbBlockBegin
  2
*PAPER_SPACE
 70
     0
 10
0.0
 20
0.0
 30
0.0
  3
*PAPER_SPACE
  1

  0
ENDBLK
  5
1D
330
1B
100
AcDbEntity
 67
     1
  8
0
100
AcDbBlockEnd
  0
BLOCK
  5
7A
330
79
100
AcDbEntity
  8
0
100
AcDbBlockBegin
  2
EX_NORM
 70
     0
 10
0.0
 20
0.0
 30
0.0
  3
EX_NORM
  1

  0
LINE
  5
D9
330
79
100
AcDbEntity
  8
0
  6
CONTINUOUS
 62
     0
100
AcDbLine
 10
0.0
 20
0.0
 30
0.0
 11
-1.0
 21
0.0
 31
0.0
  0
LINE
  5
DA
330
79
100
AcDbEntity
  8
0
  6
CONTINUOUS
 62
     0
100
AcDbLine
 10
0.0
 20
0.0
 30
0.0
 11
-1.0
 21
0.166666667
 31
0.0
  0
LINE
  5
DB
330
79
100
AcDbEntity
  8
0
  6
CONTINUOUS
 62
     0
100
AcDbLine
 10
0.0
 20
0.0
 30
0.0
 11
-1.0
 21
-0.166666667
 31
0.0
  0
ENDBLK
  5
7B
330
79
100
AcDbEntity
  8
0
100
AcDbBlockEnd
  0
BLOCK
  5
7D
330
7C
100
AcDbEntity
  8
0
100
AcDbBlockBegin
  2
EX_BNORM
 70
     0
 10
0.0
 20
0.0
 30
0.0
  3
EX_BNORM
  1

  0
LINE
  5
DC
330
7C
100
AcDbEntity
  8
0
  6
CONTINUOUS
 62
     0
100
AcDbLine
 10
0.0
 20
0.0
 30
0.0
 11
-1.0
 21
0.0
 31
0.0
  0
LINE
  5
DD
330
7C
100
AcDbEntity
  8
0
  6
CONTINUOUS
 62
     0
100
AcDbLine
 10
0.0
 20
0.0
 30
0.0
 11
-1.0
 21
0.166666667
 31
0.0
  0
LINE
  5
DE
330
7C
100
AcDbEntity
  8
0
  6
CONTINUOUS
 62
     0
100
AcDbLine
 10
0.0
 20
0.0
 30
0.0
 11
-1.0
 21
-0.166666667
 31
0.0
  0
LINE
  5
DF
330
7C
100
AcDbEntity
  8
0
  6
CONTINUOUS
 62
     0
100
AcDbLine
 10
0.0
 20
0.0
 30
0.0
 11
-1.0
 21
0.083333333
 31
0.0
  0
LINE
  5
E0
330
7C
100
AcDbEntity
  8
0
  6
CONTINUOUS
 62
     0
100
AcDbLine
 10
0.0
 20
0.0
 30
0.0
 11
-1.0
 21
-0.083333333
 31
0.0
  0
LINE
  5
E1
330
7C
100
AcDbEntity
  8
0
  6
CONTINUOUS
 62
     0
100
AcDbLine
 10
-1.0
 20
0.166666667
 30
0.0
 11
-1.0
 21
-0.166666667
 31
0.0
  0
ENDBLK
  5
7E
330
7C
100
AcDbEntity
  8
0
100
AcDbBlockEnd
  0
BLOCK
  5
80
330
7F
100
AcDbEntity
  8
0
100
AcDbBlockBegin
  2
EX_BCIR
 70
     0
 10
0.0
 20
0.0
 30
0.0
  3
EX_BCIR
  1

  0
LINE
  5
E2
330
7F
100
AcDbEntity
  8
0
  6
CONTINUOUS
 62
     0
100
AcDbLine
 10
0.0
 20
0.0
 30
0.0
 11
-1.0
 21
0.0
 31
0.0
  0
CIRCLE
  5
E3
330
7F
100
AcDbEntity
  8
0
  6
CONTINUOUS
 62
     0
100
AcDbCircle
 10
0.0
 20
0.0
 30
0.0
 40
0.5
  0
CIRCLE
  5
E4
330
7F
100
AcDbEntity
  8
0
  6
CONTINUOUS
 62
     0
100
AcDbCircle
 10
0.0
 20
0.0
 30
0.0
 40
0.25
  0
ENDBLK
  5
81
330
7F
100
AcDbEntity
  8
0
100
AcDbBlockEnd
  0
BLOCK
  5
83
330
82
100
AcDbEntity
  8
0
100
AcDbBlockBegin
  2
EX_RCIVIL
 70
     0
 10
0.0
 20
0.0
 30
0.0
  3
EX_RCIVIL
  1

  0
LINE
  5
E5
330
82
100
AcDbEntity
  8
0
  6
CONTINUOUS
 62
     0
100
AcDbLine
 10
0.0
 20
0.0
 30
0.0
 11
-1.0
 21
0.0
 31
0.0
  0
LINE
  5
E6
330
82
100
AcDbEntity
  8
0
  6
CONTINUOUS
 62
     0
100
AcDbLine
 10
-1.0
 20
-0.25
 30
0.0
 11
0.0
 21
-0.25
 31
0.0
  0
LINE
  5
E7
330
82
100
AcDbEntity
  8
0
  6
CONTINUOUS
 62
     0
100
AcDbLine
 10
-1.0
 20
-0.125
 30
0.0
 11
0.0
 21
-0.125
 31
0.0
  0
ENDBLK
  5
84
330
82
100
AcDbEntity
  8
0
100
AcDbBlockEnd
  0
BLOCK
  5
86
330
85
100
AcDbEntity
  8
0
100
AcDbBlockBegin
  2
EX_SLANT
 70
     0
 10
0.0
 20
0.0
 30
0.0
  3
EX_SLANT
  1

  0
LINE
  5
E8
330
85
100
AcDbEntity
  8
0
  6
CONTINUOUS
 62
     0
100
AcDbLine
 10
0.0
 20
0.0
 30
0.0
 11
-1.0
 21
0.0
 31
0.0
  0
LINE
  5
E9
330
85
100
AcDbEntity
  8
0
  6
CONTINUOUS
 62
     0
100
AcDbLine
 10
0.707106781
 20
0.707106781
 30
0.0
 11
-0.707106781
 21
-0.707106781
 31
0.0
  0
ENDBLK
  5
87
330
85
100
AcDbEntity
  8
0
100
AcDbBlockEnd
  0
BLOCK
  5
89
330
88
100
AcDbEntity
  8
0
100
AcDbBlockBegin
  2
EX_NONE
 70
     0
 10
0.0
 20
0.0
 30
0.0
  3
EX_NONE
  1

  0
LINE
  5
EA
330
88
100
AcDbEntity
  8
0
  6
CONTINUOUS
 62
     0
100
AcDbLine
 10
0.0
 20
0.0
 30
0.0
 11
-1.0
 21
0.0
 31
0.0
  0
ENDBLK
  5
8A
330
88
100
AcDbEntity
  8
0
100
AcDbBlockEnd
  0
BLOCK
  5
8C
330
8B
100
AcDbEntity
  8
0
100
AcDbBlockBegin
  2
EX_CIVIL
 70
     0
 10
0.0
 20
0.0
 30
0.0
  3
EX_CIVIL
  1

  0
LINE
  5
EB
330
8B
100
AcDbEntity
  8
0
  6
CONTINUOUS
 62
     0
100
AcDbLine
 10
0.0
 20
0.0
 30
0.0
 11
-1.0
 21
0.0
 31
0.0
  0
LINE
  5
EC
330
8B
100
AcDbEntity
  8
0
  6
CONTINUOUS
 62
     0
100
AcDbLine
 10
-1.0
 20
0.25
 30
0.0
 11
0.0
 21
0.25
 31
0.0
  0
LINE
  5
ED
330
8B
100
AcDbEntity
  8
0
  6
CONTINUOUS
 62
     0
100
AcDbLine
 10
-1.0
 20
0.125
 30
0.0
 11
0.0
 21
0.125
 31
0.0
  0
ENDBLK
  5
8D
330
8B
100
AcDbEntity
  8
0
100
AcDbBlockEnd
  0
BLOCK
  5
8F
330
8E
100
AcDbEntity
  8
0
100
AcDbBlockBegin
  2
EX_WCIR
 70
     0
 10
0.0
 20
0.0
 30
0.0
  3
EX_WCIR
  1

  0
LINE
  5
EE
330
8E
100
AcDbEntity
  8
0
  6
CONTINUOUS
 62
     0
100
AcDbLine
 10
0.0
 20
0.0
 30
0.0
 11
-1.0
 21
0.0
 31
0.0
  0
CIRCLE
  5
EF
330
8E
100
AcDbEntity
  8
0
  6
CONTINUOUS
 62
     0
100
AcDbCircle
 10
0.0
 20
0.0
 30
0.0
 40
0.5
  0
ENDBLK
  5
90
330
8E
100
AcDbEntity
  8
0
100
AcDbBlockEnd
  0
BLOCK
  5
92
330
91
100
AcDbEntity
  8
0
100
AcDbBlockBegin
  2
EX_WCIR2
 70
     0
 10
0.0
 20
0.0
 30
0.0
  3
EX_WCIR2
  1

  0
LINE
  5
F0
330
91
100
AcDbEntity
  8
0
  6
CONTINUOUS
 62
     0
100
AcDbLine
 10
-0.5
 20
0.0
 30
0.0
 11
-1.0
 21
0.0
 31
0.0
  0
CIRCLE
  5
F1
330
91
100
AcDbEntity
  8
0
  6
CONTINUOUS
 62
     0
100
AcDbCircle
 10
0.0
 20
0.0
 30
0.0
 40
0.5
  0
ENDBLK
  5
93
330
91
100
AcDbEntity
  8
0
100
AcDbBlockEnd
  0
BLOCK
  5
95
330
94
100
AcDbEntity
  8
0
100
AcDbBlockBegin
  2
EX_WNORM
 70
     0
 10
0.0
 20
0.0
 30
0.0
  3
EX_WNORM
  1

  0
LINE
  5
F2
330
94
100
AcDbEntity
  8
0
  6
CONTINUOUS
 62
     0
100
AcDbLine
 10
-1.0
 20
0.0
 30
0.0
 11
-1.0
 21
0.0
 31
0.0
  0
LINE
  5
F3
330
94
100
AcDbEntity
  8
0
  6
CONTINUOUS
 62
     0
100
AcDbLine
 10
0.0
 20
0.0
 30
0.0
 11
-1.0
 21
0.166666667
 31
0.0
  0
LINE
  5
F4
330
94
100
AcDbEntity
  8
0
  6
CONTINUOUS
 62
     0
100
AcDbLine
 10
0.0
 20
0.0
 30
0.0
 11
-1.0
 21
-0.166666667
 31
0.0
  0
LINE
  5
F5
330
94
100
AcDbEntity
  8
0
  6
CONTINUOUS
 62
     0
100
AcDbLine
 10
-1.0
 20
0.166666667
 30
0.0
 11
-1.0
 21
-0.166666667
 31
0.0
  0
ENDBLK
  5
96
330
94
100
AcDbEntity
  8
0
100
AcDbBlockEnd
  0
BLOCK
  5
98
330
97
100
AcDbEntity
  8
0
100
AcDbBlockBegin
  2
EX_NNORM
 70
     0
 10
0.0
 20
0.0
 30
0.0
  3
EX_NNORM
  1

  0
LINE
  5
F6
330
97
100
AcDbEntity
  8
0
  6
CONTINUOUS
 62
     0
100
AcDbLine
 10
0.0
 20
0.0
 30
0.0
 11
-1.0
 21
0.0
 31
0.0
  0
LINE
  5
F7
330
97
100
AcDbEntity
  8
0
  6
CONTINUOUS
 62
     0
100
AcDbLine
 10
0.0
 20
0.0
 30
0.0
 11
-1.0
 21
0.166666667
 31
0.0
  0
LINE
  5
F8
330
97
100
AcDbEntity
  8
0
  6
CONTINUOUS
 62
     0
100
AcDbLine
 10
0.0
 20
0.0
 30
0.0
 11
-1.0
 21
-0.166666667
 31
0.0
  0
LINE
  5
F9
330
97
100
AcDbEntity
  8
0
  6
CONTINUOUS
 62
     0
100
AcDbLine
 10
-1.0
 20
0.166666667
 30
0.0
 11
-1.0
 21
-0.166666667
 31
0.0
  0
ENDBLK
  5
99
330
97
100
AcDbEntity
  8
0
100
AcDbBlockEnd
  0
BLOCK
  5
9B
330
9A
100
AcDbEntity
  8
0
100
AcDbBlockBegin
  2
EX_BBOX
 70
     0
 10
0.0
 20
0.0
 30
0.0
  3
EX_BBOX
  1

  0
LINE
  5
FA
330
9A
100
AcDbEntity
  8
0
  6
CONTINUOUS
 62
     0
100
AcDbLine
 10
0.0
 20
0.0
 30
0.0
 11
-1.0
 21
0.0
 31
0.0
  0
LINE
  5
FB
330
9A
100
AcDbEntity
  8
0
  6
CONTINUOUS
 62
     0
100
AcDbLine
 10
-0.5
 20
0.5
 30
0.0
 11
0.5
 21
0.5
 31
0.0
  0
LINE
  5
FC
330
9A
100
AcDbEntity
  8
0
  6
CONTINUOUS
 62
     0
100
AcDbLine
 10
0.5
 20
0.5
 30
0.0
 11
0.5
 21
-0.5
 31
0.0
  0
LINE
  5
FD
330
9A
100
AcDbEntity
  8
0
  6
CONTINUOUS
 62
     0
100
AcDbLine
 10
0.5
 20
-0.5
 30
0.0
 11
-0.5
 21
-0.5
 31
0.0
  0
LINE
  5
FE
330
9A
100
AcDbEntity
  8
0
  6
CONTINUOUS
 62
     0
100
AcDbLine
 10
-0.5
 20
-0.5
 30
0.0
 11
-0.5
 21
0.5
 31
0.0
  0
LINE
  5
FF
330
9A
100
AcDbEntity
  8
0
  6
CONTINUOUS
 62
     0
100
AcDbLine
 10
-0.25
 20
0.25
 30
0.0
 11
0.25
 21
0.25
 31
0.0
  0
LINE
  5
100
330
9A
100
AcDbEntity
  8
0
  6
CONTINUOUS
 62
     0
100
AcDbLine
 10
0.25
 20
0.25
 30
0.0
 11
0.25
 21
-0.25
 31
0.0
  0
LINE
  5
101
330
9A
100
AcDbEntity
  8
0
  6
CONTINUOUS
 62
     0
100
AcDbLine
 10
0.25
 20
-0.25
 30
0.0
 11
-0.25
 21
-0.25
 31
0.0
  0
LINE
  5
102
330
9A
100
AcDbEntity
  8
0
  6
CONTINUOUS
 62
     0
100
AcDbLine
 10
-0.25
 20
-0.25
 30
0.0
 11
-0.25
 21
0.25
 31
0.0
  0
ENDBLK
  5
9C
330
9A
100
AcDbEntity
  8
0
100
AcDbBlockEnd
  0
BLOCK
  5
9E
330
9D
100
AcDbEntity
  8
0
100
AcDbBlockBegin
  2
EX_WBOX
 70
     0
 10
0.0
 20
0.0
 30
0.0
  3
EX_WBOX
  1

  0
LINE
  5
103
330
9D
100
AcDbEntity
  8
0
  6
CONTINUOUS
 62
     0
100
AcDbLine
 10
-0.5
 20
0.0
 30
0.0
 11
-1.0
 21
0.0
 31
0.0
  0
LINE
  5
104
330
9D
100
AcDbEntity
  8
0
  6
CONTINUOUS
 62
     0
100
AcDbLine
 10
-0.5
 20
0.5
 30
0.0
 11
0.5
 21
0.5
 31
0.0
  0
LINE
  5
105
330
9D
100
AcDbEntity
  8
0
  6
CONTINUOUS
 62
     0
100
AcDbLine
 10
0.5
 20
0.5
 30
0.0
 11
0.5
 21
-0.5
 31
0.0
  0
LINE
  5
106
330
9D
100
AcDbEntity
  8
0
  6
CONTINUOUS
 62
     0
100
AcDbLine
 10
0.5
 20
-0.5
 30
0.0
 11
-0.5
 21
-0.5
 31
0.0
  0
LINE
  5
107
330
9D
100
AcDbEntity
  8
0
  6
CONTINUOUS
 62
     0
100
AcDbLine
 10
-0.5
 20
-0.5
 30
0.0
 11
-0.5
 21
0.5
 31
0.0
  0
ENDBLK
  5
9F
330
9D
100
AcDbEntity
  8
0
100
AcDbBlockEnd
  0
BLOCK
  5
A1
330
A0
100
AcDbEntity
  8
0
100
AcDbBlockBegin
  2
EX_INTEGRAL
 70
     0
 10
0.0
 20
0.0
 30
0.0
  3
EX_INTEGRAL
  1

  0
LINE
  5
108
330
A0
100
AcDbEntity
  8
0
  6
CONTINUOUS
 62
     0
100
AcDbLine
 10
0.0
 20
0.0
 30
0.0
 11
-1.0
 21
0.0
 31
0.0
  0
ARC
  5
109
330
A0
100
AcDbEntity
  8
0
  6
CONTINUOUS
 62
     0
100
AcDbCircle
 10
0.542115
 20
0.164992
 30
0.0
 40
0.56667
100
AcDbArc
 50
73.07249033629006
 51
196.9275130221199
  0
ARC
  5
10A
330
A0
100
AcDbEntity
  8
0
  6
CONTINUOUS
 62
     0
100
AcDbCircle
 10
-0.542115
 20
-0.164992
 30
0.0
 40
0.56667
100
AcDbArc
 50
253.0724869220464
 51
16.9275130559125
  0
ENDBLK
  5
A2
330
A0
100
AcDbEntity
  8
0
100
AcDbBlockEnd
  0
BLOCK
  5
A4
330
A3
100
AcDbEntity
  8
0
100
AcDbBlockBegin
  2
SYM-1
 70
     0
 10
0.0
 20
0.0
 30
0.0
  3
SYM-1
  1

  0
LINE
  5
10B
330
A3
100
AcDbEntity
  8
0
  6
CONTINUOUS
 62
     7
100
AcDbLine
 10
1685.000000000032
 20
776.9999999999991
 30
0.0
 11
1686.000000000033
 21
777.9999999999991
 31
0.0
  0
LINE
  5
10C
330
A3
100
AcDbEntity
  8
0
  6
CONTINUOUS
 62
     7
100
AcDbLine
 10
1695.000000000033
 20
776.9999999999991
 30
0.0
 11
1694.000000000032
 21
777.9999999999991
 31
0.0
  0
LINE
  5
10D
330
A3
100
AcDbEntity
  8
0
  6
CONTINUOUS
 62
     7
100
AcDbLine
 10
1686.000000000033
 20
777.9999999999991
 30
0.0
 11
1694.000000000032
 21
777.9999999999991
 31
0.0
  0
LINE
  5
10E
330
A3
100
AcDbEntity
  8
0
  6
CONTINUOUS
 62
     7
100
AcDbLine
 10
1695.000000000033
 20
773.7999999999994
 30
0.0
 11
1695.000000000033
 21
776.9999999999991
 31
0.0
  0
LINE
  5
10F
330
A3
100
AcDbEntity
  8
0
  6
CONTINUOUS
 62
     7
100
AcDbLine
 10
1685.000000000032
 20
773.7999999999994
 30
0.0
 11
1685.000000000032
 21
776.9999999999991
 31
0.0
  0
LINE
  5
110
330
A3
100
AcDbEntity
  8
0
  6
CONTINUOUS
 62
     7
100
AcDbLine
 10
1695.000000000033
 20
765.3999999999996
 30
0.0
 11
1695.000000000033
 21
772.8759999999994
 31
0.0
  0
LINE
  5
111
330
A3
100
AcDbEntity
  8
0
  6
CONTINUOUS
 62
     7
100
AcDbLine
 10
1685.000000000032
 20
765.3999999999996
 30
0.0
 11
1685.000000000032
 21
772.8759999999994
 31
0.0
  0
LINE
  5
112
330
A3
100
AcDbEntity
  8
0
  6
CONTINUOUS
 62
     7
100
AcDbLine
 10
1680.000000000033
 20
765.3999999999996
 30
0.0
 11
1680.000000000033
 21
772.8759999999994
 31
0.0
  0
ARC
  5
113
330
A3
100
AcDbEntity
  8
0
  6
CONTINUOUS
 62
     7
100
AcDbCircle
 10
1697.500000000032
 20
769.9559653679644
 30
0.0
 40
3.844034632034633
100
AcDbArc
 50
49.4313750266144
 51
130.5686249733918
  0
ARC
  5
114
330
A3
100
AcDbEntity
  8
0
  6
CONTINUOUS
 62
     7
100
AcDbCircle
 10
1690.000000000032
 20
759.8098614718606
 30
0.0
 40
13.99013852813853
100
AcDbArc
 50
69.05972439385523
 51
110.9402756061494
  0
ARC
  5
115
330
A3
100
AcDbEntity
  8
0
  6
CONTINUOUS
 62
     7
100
AcDbCircle
 10
1682.500000000032
 20
769.9559653679644
 30
0.0
 40
3.844034632034633
100
AcDbArc
 50
49.4313750266144
 51
130.5686249733918
  0
LINE
  5
116
330
A3
100
AcDbEntity
  8
0
  6
CONTINUOUS
 62
     7
100
AcDbLine
 10
1697.500000000032
 20
773.7999999999994
 30
0.0
 11
1682.500000000032
 21
773.7999999999994
 31
0.0
  0
LINE
  5
117
330
A3
100
AcDbEntity
  8
0
  6
CONTINUOUS
 62
     7
100
AcDbLine
 10
1679.500000000032
 20
765.3999999999996
 30
0.0
 11
1700.500000000033
 21
765.3999999999996
 31
0.0
  0
LINE
  5
118
330
A3
100
AcDbEntity
  8
0
  6
CONTINUOUS
 62
     7
100
AcDbLine
 10
1700.000000000032
 20
765.3999999999996
 30
0.0
 11
1700.000000000032
 21
772.8759999999994
 31
0.0
  0
LINE
  5
119
330
A3
100
AcDbEntity
  8
0
  6
CONTINUOUS
 62
     7
100
AcDbLine
 10
1679.500000000032
 20
765.3999999999996
 30
0.0
 11
1679.500000000032
 21
763.3999999999992
 31
0.0
  0
LINE
  5
11A
330
A3
100
AcDbEntity
  8
0
  6
CONTINUOUS
 62
     7
100
AcDbLine
 10
1700.500000000033
 20
765.3999999999996
 30
0.0
 11
1700.500000000033
 21
763.3999999999992
 31
0.0
  0
LINE
  5
11B
330
A3
100
AcDbEntity
  8
0
  6
CONTINUOUS
 62
     7
100
AcDbLine
 10
1685.000000000032
 20
742.3039999999992
 30
0.0
 11
1685.000000000032
 21
763.3999999999992
 31
0.0
  0
LINE
  5
11C
330
A3
100
AcDbEntity
  8
0
  6
CONTINUOUS
 62
     7
100
AcDbLine
 10
1695.000000000033
 20
742.3039999999992
 30
0.0
 11
1695.000000000033
 21
763.3999999999992
 31
0.0
  0
LINE
  5
11D
330
A3
100
AcDbEntity
  8
0
  6
CONTINUOUS
 62
     7
100
AcDbLine
 10
1695.000000000033
 20
752.9999999999986
 30
0.0
 11
1685.000000000032
 21
752.9999999999986
 31
0.0
  0
ARC
  5
11E
330
A3
100
AcDbEntity
  8
0
  6
CONTINUOUS
 62
     7
100
AcDbCircle
 10
1690.000000000032
 20
759.7076818181813
 30
0.0
 40
18.10768181818181
100
AcDbArc
 50
253.9708781133825
 51
286.0291218866138
  0
ARC
  5
11F
330
A3
100
AcDbEntity
  8
0
  6
CONTINUOUS
 62
     7
100
AcDbCircle
 10
1697.500000000032
 20
746.3909204545448
 30
0.0
 40
4.790920454545454
100
AcDbArc
 50
238.5455606612373
 51
301.4544393387538
  0
LINE
  5
120
330
A3
100
AcDbEntity
  8
0
  6
CONTINUOUS
 62
     7
100
AcDbLine
 10
1700.000000000032
 20
747.9999999999991
 30
0.0
 11
1700.000000000032
 21
742.3039999999992
 31
0.0
  0
LINE
  5
121
330
A3
100
AcDbEntity
  8
0
  6
CONTINUOUS
 62
     7
100
AcDbLine
 10
1682.500000000032
 20
741.5999999999995
 30
0.0
 11
1697.500000000032
 21
741.5999999999995
 31
0.0
  0
ARC
  5
122
330
A3
100
AcDbEntity
  8
0
  6
CONTINUOUS
 62
     7
100
AcDbCircle
 10
1682.500000000032
 20
746.3909204545448
 30
0.0
 40
4.790920454545454
100
AcDbArc
 50
238.5455606612373
 51
301.4544393387538
  0
LINE
  5
123
330
A3
100
AcDbEntity
  8
0
  6
CONTINUOUS
 62
     7
100
AcDbLine
 10
1680.000000000033
 20
747.9999999999991
 30
0.0
 11
1680.000000000033
 21
742.3039999999992
 31
0.0
  0
LINE
  5
124
330
A3
100
AcDbEntity
  8
0
  6
CONTINUOUS
 62
     7
100
AcDbLine
 10
1700.000000000037
 20
746.5857864376225
 30
0.0
 11
1700.456881618605
 21
746.1289048190542
 31
0.0
  0
LINE
  5
125
330
A3
100
AcDbEntity
  8
0
  6
CONTINUOUS
 62
     7
100
AcDbLine
 10
1700.000000000031
 20
747.2928932188156
 30
0.0
 11
1700.805843406705
 21
746.4870498121409
 31
0.0
  0
LINE
  5
126
330
A3
100
AcDbEntity
  8
0
  6
CONTINUOUS
 62
     7
100
AcDbLine
 10
1700.000000000035
 20
747.9999999999968
 30
0.0
 11
1701.154805194827
 21
746.8451948052052
 31
0.0
  0
LINE
  5
127
330
A3
100
AcDbEntity
  8
0
  6
CONTINUOUS
 62
     7
100
AcDbLine
 10
1700.707106781217
 20
748.0000000000018
 30
0.0
 11
1701.50376698295
 21
747.2033397982696
 31
0.0
  0
LINE
  5
128
330
A3
100
AcDbEntity
  8
0
  6
CONTINUOUS
 62
     7
100
AcDbLine
 10
1701.414213562399
 20
748.0000000000067
 30
0.0
 11
1701.852728771072
 21
747.5614847913334
 31
0.0
  0
LINE
  5
129
330
A3
100
AcDbEntity
  8
0
  6
CONTINUOUS
 62
     7
100
AcDbLine
 10
1700.000000000035
 20
745.6599999999994
 30
0.0
 11
1702.280000000035
 21
747.9999999999991
 31
0.0
  0
LINE
  5
12A
330
A3
100
AcDbEntity
  8
0
  6
CONTINUOUS
 62
     7
100
AcDbLine
 10
1700.00000000002
 20
745.8786796564527
 30
0.0
 11
1700.107919830485
 21
745.7707598259904
 31
0.0
  0
LINE
  5
12B
330
A3
100
AcDbEntity
  8
0
  6
CONTINUOUS
 62
     7
100
AcDbLine
 10
1702.12132034358
 20
748.0000000000118
 30
0.0
 11
1702.201690559182
 21
747.9196297844092
 31
0.0
  0
LINE
  5
12C
330
A3
100
AcDbEntity
  8
0
  6
CONTINUOUS
 62
     7
100
AcDbLine
 10
1678.081855006967
 20
747.5889617881185
 30
0.0
 11
1678.492893218845
 21
747.9999999999959
 31
0.0
  0
LINE
  5
12D
330
A3
100
AcDbEntity
  8
0
  6
CONTINUOUS
 62
     7
100
AcDbLine
 10
1678.440000000031
 20
747.2399999999961
 30
0.0
 11
1679.200000000037
 21
748.0000000000018
 31
0.0
  0
LINE
  5
12E
330
A3
100
AcDbEntity
  8
0
  6
CONTINUOUS
 62
     7
100
AcDbLine
 10
1678.798144993096
 20
746.8910382118738
 30
0.0
 11
1679.907106781207
 21
747.9999999999854
 31
0.0
  0
LINE
  5
12F
330
A3
100
AcDbEntity
  8
0
  6
CONTINUOUS
 62
     7
100
AcDbLine
 10
1679.156289986183
 20
746.5420764237751
 30
0.0
 11
1680.00000000002
 21
747.3857864376109
 31
0.0
  0
LINE
  5
130
330
A3
100
AcDbEntity
  8
0
  6
CONTINUOUS
 62
     7
100
AcDbLine
 10
1679.514434979247
 20
746.1931146356524
 30
0.0
 11
1680.000000000036
 21
746.678679656442
 31
0.0
  0
LINE
  5
131
330
A3
100
AcDbEntity
  8
0
  6
CONTINUOUS
 62
     7
100
AcDbLine
 10
1679.872579972311
 20
745.84415284753
 30
0.0
 11
1680.00000000003
 21
745.9715728752481
 31
0.0
  0
LINE
  5
132
330
A3
100
AcDbEntity
  8
0
  6
CONTINUOUS
 62
     7
100
AcDbLine
 10
1677.660000000032
 20
747.9999999999973
 30
0.0
 11
1680.000000000033
 21
745.7199999999984
 31
0.0
  0
LINE
  5
133
330
A3
100
AcDbEntity
  8
0
  6
CONTINUOUS
 62
     7
100
AcDbLine
 10
1677.723710013892
 20
747.937923576229
 30
0.0
 11
1677.785786437663
 21
748.0000000000009
 31
0.0
  0
LINE
  5
134
330
A3
100
AcDbEntity
  8
0
  6
CONTINUOUS
 62
     7
100
AcDbLine
 10
1685.000000000032
 20
776.9999999999991
 30
0.0
 11
1695.000000000033
 21
776.9999999999991
 31
0.0
  0
LINE
  5
135
330
A3
100
AcDbEntity
  8
0
  6
CONTINUOUS
 62
     7
100
AcDbLine
 10
1686.000000000033
 20
777.9999999999991
 30
0.0
 11
1686.000000000033
 21
773.7999999999994
 31
0.0
  0
LINE
  5
136
330
A3
100
AcDbEntity
  8
0
  6
CONTINUOUS
 62
     7
100
AcDbLine
 10
1694.000000000032
 20
777.9999999999991
 30
0.0
 11
1694.000000000032
 21
773.7999999999994
 31
0.0
  0
LINE
  5
137
330
A3
100
AcDbEntity
  8
0
  6
CONTINUOUS
 62
     7
100
AcDbLine
 10
1694.000000000032
 20
763.3999999999995
 30
0.0
 11
1694.000000000032
 21
752.9999999999986
 31
0.0
  0
LINE
  5
138
330
A3
100
AcDbEntity
  8
0
  6
CONTINUOUS
 62
     7
100
AcDbLine
 10
1686.000000000033
 20
763.3999999999995
 30
0.0
 11
1686.000000000033
 21
752.9999999999986
 31
0.0
  0
LINE
  5
139
330
A3
100
AcDbEntity
  8
0
  6
CONTINUOUS
 62
     7
100
AcDbLine
 10
1694.000000000032
 20
752.9999999999986
 30
0.0
 11
1695.000000000033
 21
751.9999999999991
 31
0.0
  0
LINE
  5
13A
330
A3
100
AcDbEntity
  8
0
  6
CONTINUOUS
 62
     7
100
AcDbLine
 10
1686.000000000033
 20
752.9999999999986
 30
0.0
 11
1685.000000000032
 21
751.9999999999991
 31
0.0
  0
ENDBLK
  5
A5
330
A3
100
AcDbEntity
  8
0
100
AcDbBlockEnd
  0
BLOCK
  5
A7
330
A6
100
AcDbEntity
  8
0
100
AcDbBlockBegin
  2
SYM-2
 70
     0
 10
0.0
 20
0.0
 30
0.0
  3
SYM-2
  1

  0
LINE
  5
13B
330
A6
100
AcDbEntity
  8
0
  6
CONTINUOUS
 62
     7
100
AcDbLine
 10
645.0000000000458
 20
773.7999999999994
 30
0.0
 11
645.0000000000458
 21
776.9999999999991
 31
0.0
  0
LINE
  5
13C
330
A6
100
AcDbEntity
  8
0
  6
CONTINUOUS
 62
     7
100
AcDbLine
 10
635.0000000000464
 20
773.7999999999994
 30
0.0
 11
635.0000000000464
 21
776.9999999999991
 31
0.0
  0
LINE
  5
13D
330
A6
100
AcDbEntity
  8
0
  6
CONTINUOUS
 62
     7
100
AcDbLine
 10
645.0000000000458
 20
765.3999999999996
 30
0.0
 11
645.0000000000458
 21
772.8759999999994
 31
0.0
  0
LINE
  5
13E
330
A6
100
AcDbEntity
  8
0
  6
CONTINUOUS
 62
     7
100
AcDbLine
 10
635.0000000000464
 20
765.3999999999996
 30
0.0
 11
635.0000000000464
 21
772.8759999999994
 31
0.0
  0
LINE
  5
13F
330
A6
100
AcDbEntity
  8
0
  6
CONTINUOUS
 62
     7
100
AcDbLine
 10
644.0000000000505
 20
777.9999999999991
 30
0.0
 11
636.0000000000514
 21
777.9999999999991
 31
0.0
  0
LINE
  5
140
330
A6
100
AcDbEntity
  8
0
  6
CONTINUOUS
 62
     7
100
AcDbLine
 10
635.0000000000505
 20
776.9999999999995
 30
0.0
 11
636.0000000000514
 21
777.9999999999991
 31
0.0
  0
LINE
  5
141
330
A6
100
AcDbEntity
  8
0
  6
CONTINUOUS
 62
     7
100
AcDbLine
 10
645.0000000000518
 20
776.9999999999995
 30
0.0
 11
644.0000000000505
 21
777.9999999999991
 31
0.0
  0
LINE
  5
142
330
A6
100
AcDbEntity
  8
0
  6
CONTINUOUS
 62
     7
100
AcDbLine
 10
650.0000000000464
 20
765.3999999999996
 30
0.0
 11
650.0000000000464
 21
772.8759999999994
 31
0.0
  0
LINE
  5
143
330
A6
100
AcDbEntity
  8
0
  6
CONTINUOUS
 62
     7
100
AcDbLine
 10
630.0000000000468
 20
765.3999999999996
 30
0.0
 11
630.0000000000468
 21
772.8759999999994
 31
0.0
  0
ARC
  5
144
330
A6
100
AcDbEntity
  8
0
  6
CONTINUOUS
 62
     7
100
AcDbCircle
 10
647.5000000000458
 20
769.9559653679644
 30
0.0
 40
3.844034632034633
100
AcDbArc
 50
49.43137502657837
 51
130.5686249733964
  0
ARC
  5
145
330
A6
100
AcDbEntity
  8
0
  6
CONTINUOUS
 62
     7
100
AcDbCircle
 10
640.0000000000458
 20
759.8098614718606
 30
0.0
 40
13.99013852813853
100
AcDbArc
 50
69.0597243938585
 51
110.9402756061383
  0
ARC
  5
146
330
A6
100
AcDbEntity
  8
0
  6
CONTINUOUS
 62
     7
100
AcDbCircle
 10
632.5000000000459
 20
769.9559653679644
 30
0.0
 40
3.844034632034633
100
AcDbArc
 50
49.43137502657837
 51
130.5686249733964
  0
LINE
  5
147
330
A6
100
AcDbEntity
  8
0
  6
CONTINUOUS
 62
     7
100
AcDbLine
 10
647.5000000000458
 20
773.7999999999994
 30
0.0
 11
632.5000000000459
 21
773.7999999999994
 31
0.0
  0
LINE
  5
148
330
A6
100
AcDbEntity
  8
0
  6
CONTINUOUS
 62
     7
100
AcDbLine
 10
650.5000000000459
 20
765.3999999999996
 30
0.0
 11
650.5000000000459
 21
763.3999999999992
 31
0.0
  0
LINE
  5
149
330
A6
100
AcDbEntity
  8
0
  6
CONTINUOUS
 62
     7
100
AcDbLine
 10
629.5000000000464
 20
765.3999999999996
 30
0.0
 11
650.5000000000459
 21
765.3999999999996
 31
0.0
  0
LINE
  5
14A
330
A6
100
AcDbEntity
  8
0
  6
CONTINUOUS
 62
     7
100
AcDbLine
 10
629.5000000000464
 20
765.3999999999996
 30
0.0
 11
629.5000000000464
 21
763.3999999999992
 31
0.0
  0
LINE
  5
14B
330
A6
100
AcDbEntity
  8
0
  6
CONTINUOUS
 62
     7
100
AcDbLine
 10
635.0000000000464
 20
742.3039999999992
 30
0.0
 11
635.0000000000464
 21
763.3999999999992
 31
0.0
  0
LINE
  5
14C
330
A6
100
AcDbEntity
  8
0
  6
CONTINUOUS
 62
     7
100
AcDbLine
 10
645.0000000000458
 20
742.3039999999992
 30
0.0
 11
645.0000000000458
 21
763.3999999999992
 31
0.0
  0
LINE
  5
14D
330
A6
100
AcDbEntity
  8
0
  6
CONTINUOUS
 62
     7
100
AcDbLine
 10
645.0000000000458
 20
752.9999999999986
 30
0.0
 11
635.0000000000464
 21
752.9999999999986
 31
0.0
  0
ARC
  5
14E
330
A6
100
AcDbEntity
  8
0
  6
CONTINUOUS
 62
     7
100
AcDbCircle
 10
647.5000000000458
 20
746.3909204545448
 30
0.0
 40
4.790920454545454
100
AcDbArc
 50
238.5455606612269
 51
301.4544393387824
  0
ARC
  5
14F
330
A6
100
AcDbEntity
  8
0
  6
CONTINUOUS
 62
     7
100
AcDbCircle
 10
640.0000000000458
 20
759.7076818181813
 30
0.0
 40
18.10768181818181
100
AcDbArc
 50
253.9708781133897
 51
286.0291218866135
  0
ARC
  5
150
330
A6
100
AcDbEntity
  8
0
  6
CONTINUOUS
 62
     7
100
AcDbCircle
 10
632.5000000000459
 20
746.3909204545448
 30
0.0
 40
4.790920454545454
100
AcDbArc
 50
238.5455606612384
 51
301.4544393387824
  0
LINE
  5
151
330
A6
100
AcDbEntity
  8
0
  6
CONTINUOUS
 62
     7
100
AcDbLine
 10
630.0000000000468
 20
747.9999999999991
 30
0.0
 11
630.0000000000468
 21
742.3039999999992
 31
0.0
  0
LINE
  5
152
330
A6
100
AcDbEntity
  8
0
  6
CONTINUOUS
 62
     7
100
AcDbLine
 10
650.0000000000464
 20
747.9999999999991
 30
0.0
 11
650.0000000000464
 21
742.3039999999992
 31
0.0
  0
LINE
  5
153
330
A6
100
AcDbEntity
  8
0
  6
CONTINUOUS
 62
     7
100
AcDbLine
 10
632.5000000000459
 20
741.5999999999995
 30
0.0
 11
647.5000000000458
 21
741.5999999999995
 31
0.0
  0
LINE
  5
154
330
A6
100
AcDbEntity
  8
0
  6
CONTINUOUS
 62
     7
100
AcDbLine
 10
650.0000000000491
 20
745.6599999999994
 30
0.0
 11
652.280000000047
 21
747.9999999999991
 31
0.0
  0
LINE
  5
155
330
A6
100
AcDbEntity
  8
0
  6
CONTINUOUS
 62
     7
100
AcDbLine
 10
652.1213203435972
 20
748.0000000000086
 30
0.0
 11
652.2016905592104
 21
747.9196297843941
 31
0.0
  0
LINE
  5
156
330
A6
100
AcDbEntity
  8
0
  6
CONTINUOUS
 62
     7
100
AcDbLine
 10
651.4142135624043
 20
748.0000000000155
 30
0.0
 11
651.8527287710893
 21
747.5614847913292
 31
0.0
  0
LINE
  5
157
330
A6
100
AcDbEntity
  8
0
  6
CONTINUOUS
 62
     7
100
AcDbLine
 10
650.7071067812226
 20
748.0000000000095
 30
0.0
 11
651.5037669829667
 21
747.2033397982655
 31
0.0
  0
LINE
  5
158
330
A6
100
AcDbEntity
  8
0
  6
CONTINUOUS
 62
     7
100
AcDbLine
 10
650.0000000000523
 20
747.9999999999927
 30
0.0
 11
651.1548051948561
 21
746.8451948051893
 31
0.0
  0
LINE
  5
159
330
A6
100
AcDbEntity
  8
0
  6
CONTINUOUS
 62
     7
100
AcDbLine
 10
650.0000000000582
 20
747.2928932187997
 30
0.0
 11
650.8058434067325
 21
746.4870498121254
 31
0.0
  0
LINE
  5
15A
330
A6
100
AcDbEntity
  8
0
  6
CONTINUOUS
 62
     7
100
AcDbLine
 10
650.0000000000541
 20
746.5857864376185
 30
0.0
 11
650.4568816186224
 21
746.1289048190497
 31
0.0
  0
LINE
  5
15B
330
A6
100
AcDbEntity
  8
0
  6
CONTINUOUS
 62
     7
100
AcDbLine
 10
650.0000000000491
 20
745.8786796564368
 30
0.0
 11
650.1079198305005
 21
745.7707598259854
 31
0.0
  0
LINE
  5
15C
330
A6
100
AcDbEntity
  8
0
  6
CONTINUOUS
 62
     7
100
AcDbLine
 10
627.6600000000467
 20
747.9999999999973
 30
0.0
 11
630.0000000000468
 21
745.7199999999984
 31
0.0
  0
LINE
  5
15D
330
A6
100
AcDbEntity
  8
0
  6
CONTINUOUS
 62
     7
100
AcDbLine
 10
627.7707598260495
 20
747.8920801695622
 30
0.0
 11
627.8786796564787
 21
747.9999999999908
 31
0.0
  0
LINE
  5
15E
330
A6
100
AcDbEntity
  8
0
  6
CONTINUOUS
 62
     7
100
AcDbLine
 10
628.1289048191143
 20
747.5431183814399
 30
0.0
 11
628.5857864376708
 21
747.9999999999973
 31
0.0
  0
LINE
  5
15F
330
A6
100
AcDbEntity
  8
0
  6
CONTINUOUS
 62
     7
100
AcDbLine
 10
628.4870498121786
 20
747.1941565933175
 30
0.0
 11
629.2928932188756
 21
748.0000000000155
 31
0.0
  0
LINE
  5
160
330
A6
100
AcDbEntity
  8
0
  6
CONTINUOUS
 62
     7
100
AcDbLine
 10
628.8451948052539
 20
746.845194805207
 30
0.0
 11
630.0000000000459
 21
747.9999999999982
 31
0.0
  0
LINE
  5
161
330
A6
100
AcDbEntity
  8
0
  6
CONTINUOUS
 62
     7
100
AcDbLine
 10
629.2033397983178
 20
746.4962330170852
 30
0.0
 11
630.0000000000391
 21
747.2928932188055
 31
0.0
  0
LINE
  5
162
330
A6
100
AcDbEntity
  8
0
  6
CONTINUOUS
 62
     7
100
AcDbLine
 10
629.561484791383
 20
746.1472712289624
 30
0.0
 11
630.0000000000441
 21
746.5857864376244
 31
0.0
  0
LINE
  5
163
330
A6
100
AcDbEntity
  8
0
  6
CONTINUOUS
 62
     7
100
AcDbLine
 10
629.9196297844469
 20
745.7983094408401
 30
0.0
 11
630.0000000000382
 21
745.8786796564309
 31
0.0
  0
LINE
  5
164
330
A6
100
AcDbEntity
  8
0
  6
CONTINUOUS
 62
     7
100
AcDbLine
 10
645.0000000000518
 20
776.9999999999995
 30
0.0
 11
635.0000000000505
 21
776.9999999999995
 31
0.0
  0
LINE
  5
165
330
A6
100
AcDbEntity
  8
0
  6
CONTINUOUS
 62
     7
100
AcDbLine
 10
636.0000000000464
 20
777.9999999999991
 30
0.0
 11
636.0000000000464
 21
773.7999999999994
 31
0.0
  0
LINE
  5
166
330
A6
100
AcDbEntity
  8
0
  6
CONTINUOUS
 62
     7
100
AcDbLine
 10
644.0000000000459
 20
777.9999999999991
 30
0.0
 11
644.0000000000459
 21
773.7999999999994
 31
0.0
  0
LINE
  5
167
330
A6
100
AcDbEntity
  8
0
  6
CONTINUOUS
 62
     7
100
AcDbLine
 10
636.0000000000464
 20
763.3999999999995
 30
0.0
 11
636.0000000000464
 21
752.9999999999986
 31
0.0
  0
LINE
  5
168
330
A6
100
AcDbEntity
  8
0
  6
CONTINUOUS
 62
     7
100
AcDbLine
 10
644.0000000000459
 20
763.3999999999995
 30
0.0
 11
644.0000000000459
 21
752.9999999999986
 31
0.0
  0
LINE
  5
169
330
A6
100
AcDbEntity
  8
0
  6
CONTINUOUS
 62
     7
100
AcDbLine
 10
644.0000000000459
 20
752.9999999999986
 30
0.0
 11
645.0000000000458
 21
751.9999999999991
 31
0.0
  0
LINE
  5
16A
330
A6
100
AcDbEntity
  8
0
  6
CONTINUOUS
 62
     7
100
AcDbLine
 10
636.0000000000464
 20
752.9999999999986
 30
0.0
 11
635.0000000000464
 21
751.9999999999991
 31
0.0
  0
ENDBLK
  5
A8
330
A6
100
AcDbEntity
  8
0
100
AcDbBlockEnd
  0
BLOCK
  5
AA
330
A9
100
AcDbEntity
  8
0
100
AcDbBlockBegin
  2
SYM-3
 70
     0
 10
0.0
 20
0.0
 30
0.0
  3
SYM-3
  1

  0
ELLIPSE
  5
16B
330
A9
100
AcDbEntity
  8
0
  6
CONTINUOUS
 62
     7
100
AcDbEllipse
 10
656.0800000000468
 20
755.716666666699
 30
0.0
 11
-5.809475019310011
 21
7.114554987124514E-16
 31
0.0
210
0.0
220
0.0
230
1.0
 40
0.774596669241632
 41
0.0
 42
6.283185307179586
  0
LINE
  5
16C
330
A9
100
AcDbEntity
  8
0
  6
CONTINUOUS
 62
     7
100
AcDbLine
 10
661.6836381353463
 20
756.9039087603996
 30
0.0
 11
658.964962151047
 21
759.6225847446995
 31
0.0
  0
LINE
  5
16D
330
A9
100
AcDbEntity
  8
0
  6
CONTINUOUS
 62
     7
100
AcDbLine
 10
661.865454789247
 20
755.3078785440994
 30
0.0
 11
657.0153785441466
 21
760.1579547892993
 31
0.0
  0
LINE
  5
16E
330
A9
100
AcDbEntity
  8
0
  6
CONTINUOUS
 62
     7
100
AcDbLine
 10
661.5525839265474
 20
754.2065358444987
 30
0.0
 11
655.5604824538473
 21
760.1986373171994
 31
0.0
  0
LINE
  5
16F
330
A9
100
AcDbEntity
  8
0
  6
CONTINUOUS
 62
     7
100
AcDbLine
 10
657.3606806992475
 20
751.3273712598993
 30
0.0
 11
650.913550916347
 21
757.7745010427989
 31
0.0
  0
LINE
  5
170
330
A9
100
AcDbEntity
  8
0
  6
CONTINUOUS
 62
     7
100
AcDbLine
 10
656.0571368818473
 20
751.2167015149989
 30
0.0
 11
650.4493277808469
 21
756.8245106159993
 31
0.0
  0
LINE
  5
171
330
A9
100
AcDbEntity
  8
0
  6
CONTINUOUS
 62
     7
100
AcDbLine
 10
654.4657483509468
 20
751.3938764834993
 30
0.0
 11
650.2729493587467
 21
755.5866754756994
 31
0.0
  0
LINE
  5
172
330
A9
100
AcDbEntity
  8
0
  6
CONTINUOUS
 62
     7
100
AcDbLine
 10
661.009464082847
 20
753.3354421257991
 30
0.0
 11
654.3358353446565
 21
760.0090708639912
 31
0.0
  0
LINE
  5
173
330
A9
100
AcDbEntity
  8
0
  6
CONTINUOUS
 62
     7
100
AcDbLine
 10
660.3037115074471
 20
752.6269811387991
 30
0.0
 11
653.2738209672457
 21
759.6568716793244
 31
0.0
  0
LINE
  5
174
330
A9
100
AcDbEntity
  8
0
  6
CONTINUOUS
 62
     7
100
AcDbLine
 10
659.4598581997475
 20
752.0566208841992
 30
0.0
 11
652.3499073216635
 21
759.1665717619734
 31
0.0
  0
LINE
  5
175
330
A9
100
AcDbEntity
  8
0
  6
CONTINUOUS
 62
     7
100
AcDbLine
 10
658.4826983599473
 20
751.6195671615992
 30
0.0
 11
651.5593002086371
 21
758.5429653129083
 31
0.0
  0
ENDBLK
  5
AB
330
A9
100
AcDbEntity
  8
0
100
AcDbBlockEnd
  0
BLOCK
  5
AD
330
AC
100
AcDbEntity
  8
0
100
AcDbBlockBegin
  2
SYM-4
 70
     0
 10
0.0
 20
0.0
 30
0.0
  3
SYM-4
  1

  0
ELLIPSE
  5
176
330
AC
100
AcDbEntity
  8
0
  6
CONTINUOUS
 62
     7
100
AcDbEllipse
 10
1673.920000000032
 20
755.716666666699
 30
0.0
 11
-5.809475019310011
 21
7.114554987124514E-16
 31
0.0
210
0.0
220
0.0
230
1.0
 40
0.774596669241632
 41
0.0
 42
6.283185307179586
  0
LINE
  5
177
330
AC
100
AcDbEntity
  8
0
  6
CONTINUOUS
 62
     7
100
AcDbLine
 10
1668.316361864732
 20
756.9039087603996
 30
0.0
 11
1671.035037849033
 21
759.6225847446995
 31
0.0
  0
LINE
  5
178
330
AC
100
AcDbEntity
  8
0
  6
CONTINUOUS
 62
     7
100
AcDbLine
 10
1668.134545210831
 20
755.3078785440994
 30
0.0
 11
1672.984621455931
 21
760.1579547892993
 31
0.0
  0
LINE
  5
179
330
AC
100
AcDbEntity
  8
0
  6
CONTINUOUS
 62
     7
100
AcDbLine
 10
1668.447416073531
 20
754.2065358444987
 30
0.0
 11
1674.439517546232
 21
760.1986373171994
 31
0.0
  0
LINE
  5
17A
330
AC
100
AcDbEntity
  8
0
  6
CONTINUOUS
 62
     7
100
AcDbLine
 10
1672.639319300831
 20
751.3273712598993
 30
0.0
 11
1679.086449083733
 21
757.7745010427989
 31
0.0
  0
LINE
  5
17B
330
AC
100
AcDbEntity
  8
0
  6
CONTINUOUS
 62
     7
100
AcDbLine
 10
1673.942863118231
 20
751.2167015149989
 30
0.0
 11
1679.550672219233
 21
756.8245106159993
 31
0.0
  0
LINE
  5
17C
330
AC
100
AcDbEntity
  8
0
  6
CONTINUOUS
 62
     7
100
AcDbLine
 10
1675.534251649132
 20
751.3938764834993
 30
0.0
 11
1679.727050641331
 21
755.5866754756994
 31
0.0
  0
LINE
  5
17D
330
AC
100
AcDbEntity
  8
0
  6
CONTINUOUS
 62
     7
100
AcDbLine
 10
1668.990535917231
 20
753.3354421257991
 30
0.0
 11
1675.664164655425
 21
760.0090708639905
 31
0.0
  0
LINE
  5
17E
330
AC
100
AcDbEntity
  8
0
  6
CONTINUOUS
 62
     7
100
AcDbLine
 10
1669.696288492631
 20
752.6269811387991
 30
0.0
 11
1676.726179032836
 21
759.6568716793232
 31
0.0
  0
LINE
  5
17F
330
AC
100
AcDbEntity
  8
0
  6
CONTINUOUS
 62
     7
100
AcDbLine
 10
1670.540141800333
 20
752.0566208841992
 30
0.0
 11
1677.650092678415
 21
759.1665717619734
 31
0.0
  0
LINE
  5
180
330
AC
100
AcDbEntity
  8
0
  6
CONTINUOUS
 62
     7
100
AcDbLine
 10
1671.517301640132
 20
751.6195671615992
 30
0.0
 11
1678.440699791441
 21
758.5429653129088
 31
0.0
  0
ENDBLK
  5
AE
330
AC
100
AcDbEntity
  8
0
100
AcDbBlockEnd
  0
BLOCK
  5
B0
330
AF
100
AcDbEntity
  8
0
100
AcDbBlockBegin
  2
SYM-5
 70
     0
 10
0.0
 20
0.0
 30
0.0
  3
SYM-5
  1

  0
ARC
  5
181
330
AF
100
AcDbEntity
  8
0
  6
CONTINUOUS
 62
     7
100
AcDbCircle
 10
717.5000000000117
 20
805.0
 30
0.0
 40
2.0
100
AcDbArc
 50
180.0
 51
270.0000000000002
  0
ARC
  5
182
330
AF
100
AcDbEntity
  8
0
  6
CONTINUOUS
 62
     7
100
AcDbCircle
 10
742.5000000000455
 20
805.0
 30
0.0
 40
2.0
100
AcDbArc
 50
270.0000000000002
 51
0.0
  0
LINE
  5
183
330
AF
100
AcDbEntity
  8
0
  6
CONTINUOUS
 62
     7
100
AcDbLine
 10
717.5000000000273
 20
805.0
 30
0.0
 11
742.5000000000276
 21
805.0
 31
0.0
  0
LINE
  5
184
330
AF
100
AcDbEntity
  8
0
  6
CONTINUOUS
 62
     7
100
AcDbLine
 10
710.0000000000273
 20
813.0000000000005
 30
0.0
 11
710.0000000000273
 21
811.0
 31
0.0
  0
LINE
  5
185
330
AF
100
AcDbEntity
  8
0
  6
CONTINUOUS
 62
     7
100
AcDbLine
 10
710.0000000000273
 20
811.0
 30
0.0
 11
715.5000000000123
 21
811.0
 31
0.0
  0
LINE
  5
186
330
AF
100
AcDbEntity
  8
0
  6
CONTINUOUS
 62
     7
100
AcDbLine
 10
715.5000000000123
 20
811.0
 30
0.0
 11
715.5000000000123
 21
805.0
 31
0.0
  0
LINE
  5
187
330
AF
100
AcDbEntity
  8
0
  6
CONTINUOUS
 62
     7
100
AcDbLine
 10
717.5000000000273
 20
811.0
 30
0.0
 11
717.5000000000273
 21
805.0
 31
0.0
  0
LINE
  5
188
330
AF
100
AcDbEntity
  8
0
  6
CONTINUOUS
 62
     7
100
AcDbLine
 10
710.0000000000273
 20
813.0000000000005
 30
0.0
 11
715.5000000000272
 21
813.0000000000005
 31
0.0
  0
ARC
  5
189
330
AF
100
AcDbEntity
  8
0
  6
CONTINUOUS
 62
     7
100
AcDbCircle
 10
715.5000000000272
 20
811.0
 30
0.0
 40
2.0
100
AcDbArc
 50
0.0
 51
90.00000000000001
  0
LINE
  5
18A
330
AF
100
AcDbEntity
  8
0
  6
CONTINUOUS
 62
     7
100
AcDbLine
 10
750.0000000000309
 20
813.0000000000005
 30
0.0
 11
750.0000000000309
 21
811.0
 31
0.0
  0
LINE
  5
18B
330
AF
100
AcDbEntity
  8
0
  6
CONTINUOUS
 62
     7
100
AcDbLine
 10
750.0000000000309
 20
811.0
 30
0.0
 11
744.5000000000459
 21
811.0
 31
0.0
  0
LINE
  5
18C
330
AF
100
AcDbEntity
  8
0
  6
CONTINUOUS
 62
     7
100
AcDbLine
 10
744.5000000000459
 20
811.0
 30
0.0
 11
744.5000000000459
 21
805.0
 31
0.0
  0
LINE
  5
18D
330
AF
100
AcDbEntity
  8
0
  6
CONTINUOUS
 62
     7
100
AcDbLine
 10
742.5000000000309
 20
811.0
 30
0.0
 11
742.5000000000309
 21
805.0
 31
0.0
  0
LINE
  5
18E
330
AF
100
AcDbEntity
  8
0
  6
CONTINUOUS
 62
     7
100
AcDbLine
 10
750.0000000000309
 20
813.0000000000005
 30
0.0
 11
744.5000000000304
 21
813.0000000000005
 31
0.0
  0
ARC
  5
18F
330
AF
100
AcDbEntity
  8
0
  6
CONTINUOUS
 62
     7
100
AcDbCircle
 10
744.5000000000304
 20
811.0
 30
0.0
 40
2.0
100
AcDbArc
 50
90.00000000000001
 51
180.0
  0
ENDBLK
  5
B1
330
AF
100
AcDbEntity
  8
0
100
AcDbBlockEnd
  0
BLOCK
  5
B3
330
B2
100
AcDbEntity
  8
0
100
AcDbBlockBegin
  2
SYM-6
 70
     0
 10
0.0
 20
0.0
 30
0.0
  3
SYM-6
  1

  0
ARC
  5
190
330
B2
100
AcDbEntity
  8
0
  6
CONTINUOUS
 62
     7
100
AcDbCircle
 10
892.5000000000642
 20
805.0
 30
0.0
 40
2.0
100
AcDbArc
 50
270.0000000000002
 51
0.0
  0
ARC
  5
191
330
B2
100
AcDbEntity
  8
0
  6
CONTINUOUS
 62
     7
100
AcDbCircle
 10
867.5000000000314
 20
805.0
 30
0.0
 40
2.0
100
AcDbArc
 50
180.0
 51
270.0000000000002
  0
LINE
  5
192
330
B2
100
AcDbEntity
  8
0
  6
CONTINUOUS
 62
     7
100
AcDbLine
 10
892.5000000000496
 20
805.0
 30
0.0
 11
867.50000000005
 21
805.0
 31
0.0
  0
LINE
  5
193
330
B2
100
AcDbEntity
  8
0
  6
CONTINUOUS
 62
     7
100
AcDbLine
 10
900.0000000000496
 20
813.0000000000001
 30
0.0
 11
900.0000000000496
 21
811.0
 31
0.0
  0
LINE
  5
194
330
B2
100
AcDbEntity
  8
0
  6
CONTINUOUS
 62
     7
100
AcDbLine
 10
900.0000000000496
 20
811.0
 30
0.0
 11
894.5000000000647
 21
811.0
 31
0.0
  0
LINE
  5
195
330
B2
100
AcDbEntity
  8
0
  6
CONTINUOUS
 62
     7
100
AcDbLine
 10
894.5000000000647
 20
811.0
 30
0.0
 11
894.5000000000647
 21
805.0
 31
0.0
  0
LINE
  5
196
330
B2
100
AcDbEntity
  8
0
  6
CONTINUOUS
 62
     7
100
AcDbLine
 10
892.5000000000496
 20
811.0
 30
0.0
 11
892.5000000000496
 21
805.0
 31
0.0
  0
LINE
  5
197
330
B2
100
AcDbEntity
  8
0
  6
CONTINUOUS
 62
     7
100
AcDbLine
 10
900.0000000000496
 20
813.0000000000001
 30
0.0
 11
894.50000000005
 21
813.0000000000001
 31
0.0
  0
ARC
  5
198
330
B2
100
AcDbEntity
  8
0
  6
CONTINUOUS
 62
     7
100
AcDbCircle
 10
894.50000000005
 20
811.0
 30
0.0
 40
2.0
100
AcDbArc
 50
90.00000000000001
 51
180.0
  0
LINE
  5
199
330
B2
100
AcDbEntity
  8
0
  6
CONTINUOUS
 62
     7
100
AcDbLine
 10
860.000000000046
 20
813.0000000000001
 30
0.0
 11
860.000000000046
 21
811.0
 31
0.0
  0
LINE
  5
19A
330
B2
100
AcDbEntity
  8
0
  6
CONTINUOUS
 62
     7
100
AcDbLine
 10
860.000000000046
 20
811.0
 30
0.0
 11
865.500000000032
 21
811.0
 31
0.0
  0
LINE
  5
19B
330
B2
100
AcDbEntity
  8
0
  6
CONTINUOUS
 62
     7
100
AcDbLine
 10
865.500000000032
 20
811.0
 30
0.0
 11
865.500000000032
 21
805.0
 31
0.0
  0
LINE
  5
19C
330
B2
100
AcDbEntity
  8
0
  6
CONTINUOUS
 62
     7
100
AcDbLine
 10
867.500000000046
 20
811.0
 30
0.0
 11
867.500000000046
 21
805.0
 31
0.0
  0
LINE
  5
19D
330
B2
100
AcDbEntity
  8
0
  6
CONTINUOUS
 62
     7
100
AcDbLine
 10
860.000000000046
 20
813.0000000000001
 30
0.0
 11
865.5000000000464
 21
813.0000000000001
 31
0.0
  0
ARC
  5
19E
330
B2
100
AcDbEntity
  8
0
  6
CONTINUOUS
 62
     7
100
AcDbCircle
 10
865.5000000000464
 20
811.0
 30
0.0
 40
2.0
100
AcDbArc
 50
0.0
 51
90.00000000000001
  0
ENDBLK
  5
B4
330
B2
100
AcDbEntity
  8
0
100
AcDbBlockEnd
  0
BLOCK
  5
B6
330
B5
100
AcDbEntity
  8
0
100
AcDbBlockBegin
  2
SYM-7
 70
     0
 10
0.0
 20
0.0
 30
0.0
  3
SYM-7
  1

  0
ARC
  5
19F
330
B5
100
AcDbEntity
  8
0
  6
CONTINUOUS
 62
     7
100
AcDbCircle
 10
1077.500000000001
 20
805.0
 30
0.0
 40
2.0
100
AcDbArc
 50
180.0
 51
270.0000000000002
  0
ARC
  5
1A0
330
B5
100
AcDbEntity
  8
0
  6
CONTINUOUS
 62
     7
100
AcDbCircle
 10
1102.500000000035
 20
805.0
 30
0.0
 40
2.0
100
AcDbArc
 50
270.0000000000002
 51
0.0
  0
LINE
  5
1A1
330
B5
100
AcDbEntity
  8
0
  6
CONTINUOUS
 62
     7
100
AcDbLine
 10
1077.500000000017
 20
805.0
 30
0.0
 11
1102.500000000018
 21
805.0
 31
0.0
  0
LINE
  5
1A2
330
B5
100
AcDbEntity
  8
0
  6
CONTINUOUS
 62
     7
100
AcDbLine
 10
1070.000000000017
 20
813.0000000000005
 30
0.0
 11
1070.000000000017
 21
811.0
 31
0.0
  0
LINE
  5
1A3
330
B5
100
AcDbEntity
  8
0
  6
CONTINUOUS
 62
     7
100
AcDbLine
 10
1070.000000000017
 20
811.0
 30
0.0
 11
1075.500000000002
 21
811.0
 31
0.0
  0
LINE
  5
1A4
330
B5
100
AcDbEntity
  8
0
  6
CONTINUOUS
 62
     7
100
AcDbLine
 10
1075.500000000002
 20
811.0
 30
0.0
 11
1075.500000000002
 21
805.0
 31
0.0
  0
LINE
  5
1A5
330
B5
100
AcDbEntity
  8
0
  6
CONTINUOUS
 62
     7
100
AcDbLine
 10
1077.500000000017
 20
811.0
 30
0.0
 11
1077.500000000017
 21
805.0
 31
0.0
  0
LINE
  5
1A6
330
B5
100
AcDbEntity
  8
0
  6
CONTINUOUS
 62
     7
100
AcDbLine
 10
1070.000000000017
 20
813.0000000000005
 30
0.0
 11
1075.500000000017
 21
813.0000000000005
 31
0.0
  0
ARC
  5
1A7
330
B5
100
AcDbEntity
  8
0
  6
CONTINUOUS
 62
     7
100
AcDbCircle
 10
1075.500000000017
 20
811.0
 30
0.0
 40
2.0
100
AcDbArc
 50
0.0
 51
90.00000000000001
  0
LINE
  5
1A8
330
B5
100
AcDbEntity
  8
0
  6
CONTINUOUS
 62
     7
100
AcDbLine
 10
1110.00000000002
 20
813.0000000000005
 30
0.0
 11
1110.00000000002
 21
811.0
 31
0.0
  0
LINE
  5
1A9
330
B5
100
AcDbEntity
  8
0
  6
CONTINUOUS
 62
     7
100
AcDbLine
 10
1110.00000000002
 20
811.0
 30
0.0
 11
1104.500000000036
 21
811.0
 31
0.0
  0
LINE
  5
1AA
330
B5
100
AcDbEntity
  8
0
  6
CONTINUOUS
 62
     7
100
AcDbLine
 10
1104.500000000036
 20
811.0
 30
0.0
 11
1104.500000000036
 21
805.0
 31
0.0
  0
LINE
  5
1AB
330
B5
100
AcDbEntity
  8
0
  6
CONTINUOUS
 62
     7
100
AcDbLine
 10
1102.50000000002
 20
811.0
 30
0.0
 11
1102.50000000002
 21
805.0
 31
0.0
  0
LINE
  5
1AC
330
B5
100
AcDbEntity
  8
0
  6
CONTINUOUS
 62
     7
100
AcDbLine
 10
1110.00000000002
 20
813.0000000000005
 30
0.0
 11
1104.50000000002
 21
813.0000000000005
 31
0.0
  0
ARC
  5
1AD
330
B5
100
AcDbEntity
  8
0
  6
CONTINUOUS
 62
     7
100
AcDbCircle
 10
1104.50000000002
 20
811.0
 30
0.0
 40
2.0
100
AcDbArc
 50
90.00000000000001
 51
180.0
  0
ENDBLK
  5
B7
330
B5
100
AcDbEntity
  8
0
100
AcDbBlockEnd
  0
BLOCK
  5
B9
330
B8
100
AcDbEntity
  8
0
100
AcDbBlockBegin
  2
SYM-8
 70
     0
 10
0.0
 20
0.0
 30
0.0
  3
SYM-8
  1

  0
ARC
  5
1AE
330
B8
100
AcDbEntity
  8
0
  6
CONTINUOUS
 62
     7
100
AcDbCircle
 10
1252.500000000054
 20
805.0
 30
0.0
 40
2.0
100
AcDbArc
 50
270.0000000000002
 51
0.0
  0
ARC
  5
1AF
330
B8
100
AcDbEntity
  8
0
  6
CONTINUOUS
 62
     7
100
AcDbCircle
 10
1227.500000000021
 20
805.0
 30
0.0
 40
2.0
100
AcDbArc
 50
180.0
 51
270.0000000000002
  0
LINE
  5
1B0
330
B8
100
AcDbEntity
  8
0
  6
CONTINUOUS
 62
     7
100
AcDbLine
 10
1252.50000000004
 20
805.0
 30
0.0
 11
1227.50000000004
 21
805.0
 31
0.0
  0
LINE
  5
1B1
330
B8
100
AcDbEntity
  8
0
  6
CONTINUOUS
 62
     7
100
AcDbLine
 10
1260.00000000004
 20
813.0000000000001
 30
0.0
 11
1260.00000000004
 21
811.0
 31
0.0
  0
LINE
  5
1B2
330
B8
100
AcDbEntity
  8
0
  6
CONTINUOUS
 62
     7
100
AcDbLine
 10
1260.00000000004
 20
811.0
 30
0.0
 11
1254.500000000055
 21
811.0
 31
0.0
  0
LINE
  5
1B3
330
B8
100
AcDbEntity
  8
0
  6
CONTINUOUS
 62
     7
100
AcDbLine
 10
1254.500000000055
 20
811.0
 30
0.0
 11
1254.500000000055
 21
805.0
 31
0.0
  0
LINE
  5
1B4
330
B8
100
AcDbEntity
  8
0
  6
CONTINUOUS
 62
     7
100
AcDbLine
 10
1252.50000000004
 20
811.0
 30
0.0
 11
1252.50000000004
 21
805.0
 31
0.0
  0
LINE
  5
1B5
330
B8
100
AcDbEntity
  8
0
  6
CONTINUOUS
 62
     7
100
AcDbLine
 10
1260.00000000004
 20
813.0000000000001
 30
0.0
 11
1254.50000000004
 21
813.0000000000001
 31
0.0
  0
ARC
  5
1B6
330
B8
100
AcDbEntity
  8
0
  6
CONTINUOUS
 62
     7
100
AcDbCircle
 10
1254.50000000004
 20
811.0
 30
0.0
 40
2.0
100
AcDbArc
 50
90.00000000000001
 51
180.0
  0
LINE
  5
1B7
330
B8
100
AcDbEntity
  8
0
  6
CONTINUOUS
 62
     7
100
AcDbLine
 10
1220.000000000036
 20
813.0000000000001
 30
0.0
 11
1220.000000000036
 21
811.0
 31
0.0
  0
LINE
  5
1B8
330
B8
100
AcDbEntity
  8
0
  6
CONTINUOUS
 62
     7
100
AcDbLine
 10
1220.000000000036
 20
811.0
 30
0.0
 11
1225.500000000022
 21
811.0
 31
0.0
  0
LINE
  5
1B9
330
B8
100
AcDbEntity
  8
0
  6
CONTINUOUS
 62
     7
100
AcDbLine
 10
1225.500000000022
 20
811.0
 30
0.0
 11
1225.500000000022
 21
805.0
 31
0.0
  0
LINE
  5
1BA
330
B8
100
AcDbEntity
  8
0
  6
CONTINUOUS
 62
     7
100
AcDbLine
 10
1227.500000000036
 20
811.0
 30
0.0
 11
1227.500000000036
 21
805.0
 31
0.0
  0
LINE
  5
1BB
330
B8
100
AcDbEntity
  8
0
  6
CONTINUOUS
 62
     7
100
AcDbLine
 10
1220.000000000036
 20
813.0000000000001
 30
0.0
 11
1225.500000000036
 21
813.0000000000001
 31
0.0
  0
ARC
  5
1BC
330
B8
100
AcDbEntity
  8
0
  6
CONTINUOUS
 62
     7
100
AcDbCircle
 10
1225.500000000036
 20
811.0
 30
0.0
 40
2.0
100
AcDbArc
 50
0.0
 51
90.00000000000001
  0
ENDBLK
  5
BA
330
B8
100
AcDbEntity
  8
0
100
AcDbBlockEnd
  0
BLOCK
  5
BC
330
BB
100
AcDbEntity
  8
0
100
AcDbBlockBegin
  2
SYM-9
 70
     0
 10
0.0
 20
0.0
 30
0.0
  3
SYM-9
  1

  0
ARC
  5
1BD
330
BB
100
AcDbEntity
  8
0
  6
CONTINUOUS
 62
     7
100
AcDbCircle
 10
1437.499999999972
 20
805.0
 30
0.0
 40
2.0
100
AcDbArc
 50
180.0
 51
270.0000000000002
  0
ARC
  5
1BE
330
BB
100
AcDbEntity
  8
0
  6
CONTINUOUS
 62
     7
100
AcDbCircle
 10
1462.500000000005
 20
805.0
 30
0.0
 40
2.0
100
AcDbArc
 50
270.0000000000002
 51
0.0
  0
LINE
  5
1BF
330
BB
100
AcDbEntity
  8
0
  6
CONTINUOUS
 62
     7
100
AcDbLine
 10
1437.499999999987
 20
805.0
 30
0.0
 11
1462.499999999988
 21
805.0
 31
0.0
  0
LINE
  5
1C0
330
BB
100
AcDbEntity
  8
0
  6
CONTINUOUS
 62
     7
100
AcDbLine
 10
1429.999999999987
 20
813.0000000000005
 30
0.0
 11
1429.999999999987
 21
811.0
 31
0.0
  0
LINE
  5
1C1
330
BB
100
AcDbEntity
  8
0
  6
CONTINUOUS
 62
     7
100
AcDbLine
 10
1429.999999999987
 20
811.0
 30
0.0
 11
1435.499999999972
 21
811.0
 31
0.0
  0
LINE
  5
1C2
330
BB
100
AcDbEntity
  8
0
  6
CONTINUOUS
 62
     7
100
AcDbLine
 10
1435.499999999972
 20
811.0
 30
0.0
 11
1435.499999999972
 21
805.0
 31
0.0
  0
LINE
  5
1C3
330
BB
100
AcDbEntity
  8
0
  6
CONTINUOUS
 62
     7
100
AcDbLine
 10
1437.499999999987
 20
811.0
 30
0.0
 11
1437.499999999987
 21
805.0
 31
0.0
  0
LINE
  5
1C4
330
BB
100
AcDbEntity
  8
0
  6
CONTINUOUS
 62
     7
100
AcDbLine
 10
1429.999999999987
 20
813.0000000000005
 30
0.0
 11
1435.499999999987
 21
813.0000000000005
 31
0.0
  0
ARC
  5
1C5
330
BB
100
AcDbEntity
  8
0
  6
CONTINUOUS
 62
     7
100
AcDbCircle
 10
1435.499999999987
 20
811.0
 30
0.0
 40
2.0
100
AcDbArc
 50
0.0
 51
90.00000000000001
  0
LINE
  5
1C6
330
BB
100
AcDbEntity
  8
0
  6
CONTINUOUS
 62
     7
100
AcDbLine
 10
1469.999999999991
 20
813.0000000000005
 30
0.0
 11
1469.999999999991
 21
811.0
 31
0.0
  0
LINE
  5
1C7
330
BB
100
AcDbEntity
  8
0
  6
CONTINUOUS
 62
     7
100
AcDbLine
 10
1469.999999999991
 20
811.0
 30
0.0
 11
1464.500000000006
 21
811.0
 31
0.0
  0
LINE
  5
1C8
330
BB
100
AcDbEntity
  8
0
  6
CONTINUOUS
 62
     7
100
AcDbLine
 10
1464.500000000006
 20
811.0
 30
0.0
 11
1464.500000000006
 21
805.0
 31
0.0
  0
LINE
  5
1C9
330
BB
100
AcDbEntity
  8
0
  6
CONTINUOUS
 62
     7
100
AcDbLine
 10
1462.499999999991
 20
811.0
 30
0.0
 11
1462.499999999991
 21
805.0
 31
0.0
  0
LINE
  5
1CA
330
BB
100
AcDbEntity
  8
0
  6
CONTINUOUS
 62
     7
100
AcDbLine
 10
1469.999999999991
 20
813.0000000000005
 30
0.0
 11
1464.49999999999
 21
813.0000000000005
 31
0.0
  0
ARC
  5
1CB
330
BB
100
AcDbEntity
  8
0
  6
CONTINUOUS
 62
     7
100
AcDbCircle
 10
1464.49999999999
 20
811.0
 30
0.0
 40
2.0
100
AcDbArc
 50
90.00000000000001
 51
180.0
  0
ENDBLK
  5
BD
330
BB
100
AcDbEntity
  8
0
100
AcDbBlockEnd
  0
BLOCK
  5
BF
330
BE
100
AcDbEntity
  8
0
100
AcDbBlockBegin
  2
SYM-10
 70
     0
 10
0.0
 20
0.0
 30
0.0
  3
SYM-10
  1

  0
ARC
  5
1CC
330
BE
100
AcDbEntity
  8
0
  6
CONTINUOUS
 62
     7
100
AcDbCircle
 10
1612.500000000024
 20
805.0
 30
0.0
 40
2.0
100
AcDbArc
 50
270.0000000000002
 51
0.0
  0
ARC
  5
1CD
330
BE
100
AcDbEntity
  8
0
  6
CONTINUOUS
 62
     7
100
AcDbCircle
 10
1587.499999999991
 20
805.0
 30
0.0
 40
2.0
100
AcDbArc
 50
180.0
 51
270.0000000000002
  0
LINE
  5
1CE
330
BE
100
AcDbEntity
  8
0
  6
CONTINUOUS
 62
     7
100
AcDbLine
 10
1612.50000000001
 20
805.0
 30
0.0
 11
1587.50000000001
 21
805.0
 31
0.0
  0
LINE
  5
1CF
330
BE
100
AcDbEntity
  8
0
  6
CONTINUOUS
 62
     7
100
AcDbLine
 10
1620.00000000001
 20
813.0000000000001
 30
0.0
 11
1620.00000000001
 21
811.0
 31
0.0
  0
LINE
  5
1D0
330
BE
100
AcDbEntity
  8
0
  6
CONTINUOUS
 62
     7
100
AcDbLine
 10
1620.00000000001
 20
811.0
 30
0.0
 11
1614.500000000025
 21
811.0
 31
0.0
  0
LINE
  5
1D1
330
BE
100
AcDbEntity
  8
0
  6
CONTINUOUS
 62
     7
100
AcDbLine
 10
1614.500000000025
 20
811.0
 30
0.0
 11
1614.500000000025
 21
805.0
 31
0.0
  0
LINE
  5
1D2
330
BE
100
AcDbEntity
  8
0
  6
CONTINUOUS
 62
     7
100
AcDbLine
 10
1612.50000000001
 20
811.0
 30
0.0
 11
1612.50000000001
 21
805.0
 31
0.0
  0
LINE
  5
1D3
330
BE
100
AcDbEntity
  8
0
  6
CONTINUOUS
 62
     7
100
AcDbLine
 10
1620.00000000001
 20
813.0000000000001
 30
0.0
 11
1614.50000000001
 21
813.0000000000001
 31
0.0
  0
ARC
  5
1D4
330
BE
100
AcDbEntity
  8
0
  6
CONTINUOUS
 62
     7
100
AcDbCircle
 10
1614.50000000001
 20
811.0
 30
0.0
 40
2.0
100
AcDbArc
 50
90.00000000000001
 51
180.0
  0
LINE
  5
1D5
330
BE
100
AcDbEntity
  8
0
  6
CONTINUOUS
 62
     7
100
AcDbLine
 10
1580.000000000006
 20
813.0000000000001
 30
0.0
 11
1580.000000000006
 21
811.0
 31
0.0
  0
LINE
  5
1D6
330
BE
100
AcDbEntity
  8
0
  6
CONTINUOUS
 62
     7
100
AcDbLine
 10
1580.000000000006
 20
811.0
 30
0.0
 11
1585.499999999992
 21
811.0
 31
0.0
  0
LINE
  5
1D7
330
BE
100
AcDbEntity
  8
0
  6
CONTINUOUS
 62
     7
100
AcDbLine
 10
1585.499999999992
 20
811.0
 30
0.0
 11
1585.499999999992
 21
805.0
 31
0.0
  0
LINE
  5
1D8
330
BE
100
AcDbEntity
  8
0
  6
CONTINUOUS
 62
     7
100
AcDbLine
 10
1587.500000000006
 20
811.0
 30
0.0
 11
1587.500000000006
 21
805.0
 31
0.0
  0
LINE
  5
1D9
330
BE
100
AcDbEntity
  8
0
  6
CONTINUOUS
 62
     7
100
AcDbLine
 10
1580.000000000006
 20
813.0000000000001
 30
0.0
 11
1585.500000000006
 21
813.0000000000001
 31
0.0
  0
ARC
  5
1DA
330
BE
100
AcDbEntity
  8
0
  6
CONTINUOUS
 62
     7
100
AcDbCircle
 10
1585.500000000006
 20
811.0
 30
0.0
 40
2.0
100
AcDbArc
 50
0.0
 51
90.00000000000001
  0
ENDBLK
  5
C0
330
BE
100
AcDbEntity
  8
0
100
AcDbBlockEnd
  0
BLOCK
  5
C2
330
C1
100
AcDbEntity
  8
0
100
AcDbBlockBegin
  2
SYM-11
 70
     0
 10
0.0
 20
0.0
 30
0.0
  3
SYM-11
  1

  0
CIRCLE
  5
1DB
330
C1
100
AcDbEntity
  8
0
  6
CONTINUOUS
 62
     7
100
AcDbCircle
 10
1690.000000000043
 20
2355.500000000048
 30
0.0
 40
10.50000000000041
  0
CIRCLE
  5
1DC
330
C1
100
AcDbEntity
  8
0
  6
CONTINUOUS
 62
     7
100
AcDbCircle
 10
1690.000000000043
 20
2355.500000000048
 30
0.0
 40
8.66025403784441
  0
LINE
  5
1DD
330
C1
100
AcDbEntity
  8
0
  6
CONTINUOUS
 62
     7
100
AcDbLine
 10
1681.339745962198
 20
2360.500000000048
 30
0.0
 11
1681.339745962198
 21
2350.500000000049
 31
0.0
  0
LINE
  5
1DE
330
C1
100
AcDbEntity
  8
0
  6
CONTINUOUS
 62
     7
100
AcDbLine
 10
1681.339745962198
 20
2350.500000000049
 30
0.0
 11
1690.000000000043
 21
2345.500000000048
 31
0.0
  0
LINE
  5
1DF
330
C1
100
AcDbEntity
  8
0
  6
CONTINUOUS
 62
     7
100
AcDbLine
 10
1690.000000000043
 20
2345.500000000048
 30
0.0
 11
1698.660254037885
 21
2350.500000000049
 31
0.0
  0
LINE
  5
1E0
330
C1
100
AcDbEntity
  8
0
  6
CONTINUOUS
 62
     7
100
AcDbLine
 10
1698.660254037885
 20
2360.500000000048
 30
0.0
 11
1690.000000000043
 21
2365.500000000049
 31
0.0
  0
LINE
  5
1E1
330
C1
100
AcDbEntity
  8
0
  6
CONTINUOUS
 62
     7
100
AcDbLine
 10
1690.000000000043
 20
2365.500000000049
 30
0.0
 11
1681.339745962198
 21
2360.500000000048
 31
0.0
  0
CIRCLE
  5
1E2
330
C1
100
AcDbEntity
  8
0
  6
CONTINUOUS
 62
     7
100
AcDbCircle
 10
1690.000000000043
 20
2355.500000000048
 30
0.0
 40
5.0
  0
CIRCLE
  5
1E3
330
C1
100
AcDbEntity
  8
0
  6
CONTINUOUS
 62
     7
100
AcDbCircle
 10
1690.000000000043
 20
2355.500000000048
 30
0.0
 40
4.0
  0
LINE
  5
1E4
330
C1
100
AcDbEntity
  8
0
  6
CONTINUOUS
 62
     7
100
AcDbLine
 10
1698.660254037885
 20
2350.500000000049
 30
0.0
 11
1698.660254037885
 21
2360.500000000048
 31
0.0
  0
ENDBLK
  5
C3
330
C1
100
AcDbEntity
  8
0
100
AcDbBlockEnd
  0
BLOCK
  5
C5
330
C4
100
AcDbEntity
  8
0
100
AcDbBlockBegin
  2
SYM-12
 70
     0
 10
0.0
 20
0.0
 30
0.0
  3
SYM-12
  1

  0
CIRCLE
  5
1E5
330
C4
100
AcDbEntity
  8
0
  6
CONTINUOUS
 62
     7
100
AcDbCircle
 10
1690.000000000043
 20
1830.500000000048
 30
0.0
 40
10.50000000000041
  0
CIRCLE
  5
1E6
330
C4
100
AcDbEntity
  8
0
  6
CONTINUOUS
 62
     7
100
AcDbCircle
 10
1690.000000000043
 20
1830.500000000048
 30
0.0
 40
8.66025403784441
  0
LINE
  5
1E7
330
C4
100
AcDbEntity
  8
0
  6
CONTINUOUS
 62
     7
100
AcDbLine
 10
1681.339745962198
 20
1835.500000000048
 30
0.0
 11
1681.339745962198
 21
1825.500000000049
 31
0.0
  0
LINE
  5
1E8
330
C4
100
AcDbEntity
  8
0
  6
CONTINUOUS
 62
     7
100
AcDbLine
 10
1681.339745962198
 20
1825.500000000049
 30
0.0
 11
1690.000000000043
 21
1820.500000000048
 31
0.0
  0
LINE
  5
1E9
330
C4
100
AcDbEntity
  8
0
  6
CONTINUOUS
 62
     7
100
AcDbLine
 10
1690.000000000043
 20
1820.500000000048
 30
0.0
 11
1698.660254037885
 21
1825.500000000049
 31
0.0
  0
LINE
  5
1EA
330
C4
100
AcDbEntity
  8
0
  6
CONTINUOUS
 62
     7
100
AcDbLine
 10
1698.660254037885
 20
1835.500000000048
 30
0.0
 11
1690.000000000043
 21
1840.500000000049
 31
0.0
  0
LINE
  5
1EB
330
C4
100
AcDbEntity
  8
0
  6
CONTINUOUS
 62
     7
100
AcDbLine
 10
1690.000000000043
 20
1840.500000000049
 30
0.0
 11
1681.339745962198
 21
1835.500000000048
 31
0.0
  0
CIRCLE
  5
1EC
330
C4
100
AcDbEntity
  8
0
  6
CONTINUOUS
 62
     7
100
AcDbCircle
 10
1690.000000000043
 20
1830.500000000048
 30
0.0
 40
5.0
  0
CIRCLE
  5
1ED
330
C4
100
AcDbEntity
  8
0
  6
CONTINUOUS
 62
     7
100
AcDbCircle
 10
1690.000000000043
 20
1830.500000000048
 30
0.0
 40
4.0
  0
LINE
  5
1EE
330
C4
100
AcDbEntity
  8
0
  6
CONTINUOUS
 62
     7
100
AcDbLine
 10
1698.660254037885
 20
1825.500000000049
 30
0.0
 11
1698.660254037885
 21
1835.500000000048
 31
0.0
  0
ENDBLK
  5
C6
330
C4
100
AcDbEntity
  8
0
100
AcDbBlockEnd
  0
BLOCK
  5
C8
330
C7
100
AcDbEntity
  8
0
100
AcDbBlockBegin
  2
SYM-13
 70
     0
 10
0.0
 20
0.0
 30
0.0
  3
SYM-13
  1

  0
CIRCLE
  5
1EF
330
C7
100
AcDbEntity
  8
0
  6
CONTINUOUS
 62
     7
100
AcDbCircle
 10
1690.000000000043
 20
1305.500000000068
 30
0.0
 40
10.50000000000041
  0
CIRCLE
  5
1F0
330
C7
100
AcDbEntity
  8
0
  6
CONTINUOUS
 62
     7
100
AcDbCircle
 10
1690.000000000043
 20
1305.500000000068
 30
0.0
 40
8.66025403784441
  0
LINE
  5
1F1
330
C7
100
AcDbEntity
  8
0
  6
CONTINUOUS
 62
     7
100
AcDbLine
 10
1681.339745962198
 20
1310.500000000068
 30
0.0
 11
1681.339745962198
 21
1300.500000000069
 31
0.0
  0
LINE
  5
1F2
330
C7
100
AcDbEntity
  8
0
  6
CONTINUOUS
 62
     7
100
AcDbLine
 10
1681.339745962198
 20
1300.500000000069
 30
0.0
 11
1690.000000000043
 21
1295.500000000068
 31
0.0
  0
LINE
  5
1F3
330
C7
100
AcDbEntity
  8
0
  6
CONTINUOUS
 62
     7
100
AcDbLine
 10
1690.000000000043
 20
1295.500000000068
 30
0.0
 11
1698.660254037885
 21
1300.500000000069
 31
0.0
  0
LINE
  5
1F4
330
C7
100
AcDbEntity
  8
0
  6
CONTINUOUS
 62
     7
100
AcDbLine
 10
1698.660254037885
 20
1310.500000000068
 30
0.0
 11
1690.000000000043
 21
1315.500000000069
 31
0.0
  0
LINE
  5
1F5
330
C7
100
AcDbEntity
  8
0
  6
CONTINUOUS
 62
     7
100
AcDbLine
 10
1690.000000000043
 20
1315.500000000069
 30
0.0
 11
1681.339745962198
 21
1310.500000000068
 31
0.0
  0
CIRCLE
  5
1F6
330
C7
100
AcDbEntity
  8
0
  6
CONTINUOUS
 62
     7
100
AcDbCircle
 10
1690.000000000043
 20
1305.500000000068
 30
0.0
 40
5.0
  0
CIRCLE
  5
1F7
330
C7
100
AcDbEntity
  8
0
  6
CONTINUOUS
 62
     7
100
AcDbCircle
 10
1690.000000000043
 20
1305.500000000068
 30
0.0
 40
4.0
  0
LINE
  5
1F8
330
C7
100
AcDbEntity
  8
0
  6
CONTINUOUS
 62
     7
100
AcDbLine
 10
1698.660254037885
 20
1300.500000000069
 30
0.0
 11
1698.660254037885
 21
1310.500000000068
 31
0.0
  0
ENDBLK
  5
C9
330
C7
100
AcDbEntity
  8
0
100
AcDbBlockEnd
  0
BLOCK
  5
CB
330
CA
100
AcDbEntity
  8
0
100
AcDbBlockBegin
  2
SYM-14
 70
     0
 10
0.0
 20
0.0
 30
0.0
  3
SYM-14
  1

  0
CIRCLE
  5
1F9
330
CA
100
AcDbEntity
  8
0
  6
CONTINUOUS
 62
     7
100
AcDbCircle
 10
1165.000000000042
 20
1305.500000000098
 30
0.0
 40
10.50000000000041
  0
CIRCLE
  5
1FA
330
CA
100
AcDbEntity
  8
0
  6
CONTINUOUS
 62
     7
100
AcDbCircle
 10
1165.000000000042
 20
1305.500000000098
 30
0.0
 40
8.66025403784441
  0
LINE
  5
1FB
330
CA
100
AcDbEntity
  8
0
  6
CONTINUOUS
 62
     7
100
AcDbLine
 10
1156.339745962198
 20
1310.500000000098
 30
0.0
 11
1156.339745962198
 21
1300.500000000099
 31
0.0
  0
LINE
  5
1FC
330
CA
100
AcDbEntity
  8
0
  6
CONTINUOUS
 62
     7
100
AcDbLine
 10
1156.339745962198
 20
1300.500000000099
 30
0.0
 11
1165.000000000042
 21
1295.500000000098
 31
0.0
  0
LINE
  5
1FD
330
CA
100
AcDbEntity
  8
0
  6
CONTINUOUS
 62
     7
100
AcDbLine
 10
1165.000000000042
 20
1295.500000000098
 30
0.0
 11
1173.660254037885
 21
1300.500000000099
 31
0.0
  0
LINE
  5
1FE
330
CA
100
AcDbEntity
  8
0
  6
CONTINUOUS
 62
     7
100
AcDbLine
 10
1173.660254037885
 20
1310.500000000098
 30
0.0
 11
1165.000000000042
 21
1315.500000000099
 31
0.0
  0
LINE
  5
1FF
330
CA
100
AcDbEntity
  8
0
  6
CONTINUOUS
 62
     7
100
AcDbLine
 10
1165.000000000042
 20
1315.500000000099
 30
0.0
 11
1156.339745962198
 21
1310.500000000098
 31
0.0
  0
CIRCLE
  5
200
330
CA
100
AcDbEntity
  8
0
  6
CONTINUOUS
 62
     7
100
AcDbCircle
 10
1165.000000000042
 20
1305.500000000098
 30
0.0
 40
5.0
  0
CIRCLE
  5
201
330
CA
100
AcDbEntity
  8
0
  6
CONTINUOUS
 62
     7
100
AcDbCircle
 10
1165.000000000042
 20
1305.500000000098
 30
0.0
 40
4.0
  0
LINE
  5
202
330
CA
100
AcDbEntity
  8
0
  6
CONTINUOUS
 62
     7
100
AcDbLine
 10
1173.660254037885
 20
1300.500000000099
 30
0.0
 11
1173.660254037885
 21
1310.500000000098
 31
0.0
  0
ENDBLK
  5
CC
330
CA
100
AcDbEntity
  8
0
100
AcDbBlockEnd
  0
BLOCK
  5
CE
330
CD
100
AcDbEntity
  8
0
100
AcDbBlockBegin
  2
SYM-15
 70
     0
 10
0.0
 20
0.0
 30
0.0
  3
SYM-15
  1

  0
LINE
  5
203
330
CD
100
AcDbEntity
  8
0
  6
CONTINUOUS
 62
     7
100
AcDbLine
 10
2167.533333333343
 20
1301.50000000005
 30
0.0
 11
2168.533333333343
 21
1300.500000000051
 31
0.0
  0
LINE
  5
204
330
CD
100
AcDbEntity
  8
0
  6
CONTINUOUS
 62
     7
100
AcDbLine
 10
2167.533333333343
 20
1309.50000000005
 30
0.0
 11
2168.533333333343
 21
1310.50000000005
 31
0.0
  0
LINE
  5
205
330
CD
100
AcDbEntity
  8
0
  6
CONTINUOUS
 62
     7
100
AcDbLine
 10
2157.13333333334
 20
1309.50000000005
 30
0.0
 11
2167.533333333343
 21
1309.50000000005
 31
0.0
  0
LINE
  5
206
330
CD
100
AcDbEntity
  8
0
  6
CONTINUOUS
 62
     7
100
AcDbLine
 10
2157.13333333334
 20
1301.50000000005
 30
0.0
 11
2167.533333333343
 21
1301.50000000005
 31
0.0
  0
LINE
  5
207
330
CD
100
AcDbEntity
  8
0
  6
CONTINUOUS
 62
     7
100
AcDbLine
 10
2142.533333333339
 20
1301.50000000005
 30
0.0
 11
2148.733333333338
 21
1301.50000000005
 31
0.0
  0
LINE
  5
208
330
CD
100
AcDbEntity
  8
0
  6
CONTINUOUS
 62
     7
100
AcDbLine
 10
2143.533333333341
 20
1300.500000000051
 30
0.0
 11
2143.533333333341
 21
1310.50000000005
 31
0.0
  0
LINE
  5
209
330
CD
100
AcDbEntity
  8
0
  6
CONTINUOUS
 62
     7
100
AcDbLine
 10
2142.533333333339
 20
1309.50000000005
 30
0.0
 11
2148.733333333338
 21
1309.50000000005
 31
0.0
  0
LINE
  5
20A
330
CD
100
AcDbEntity
  8
0
  6
CONTINUOUS
 62
     7
100
AcDbLine
 10
2172.533333333339
 20
1315.500000000051
 30
0.0
 11
2178.229333333339
 21
1315.500000000051
 31
0.0
  0
LINE
  5
20B
330
CD
100
AcDbEntity
  8
0
  6
CONTINUOUS
 62
     7
100
AcDbLine
 10
2174.873333333339
 20
1315.500000000052
 30
0.0
 11
2172.533333333339
 21
1317.780000000052
 31
0.0
  0
LINE
  5
20C
330
CD
100
AcDbEntity
  8
0
  6
CONTINUOUS
 62
     7
100
AcDbLine
 10
2172.533333333354
 20
1317.621320343622
 30
0.0
 11
2172.613703548933
 21
1317.701690559202
 31
0.0
  0
LINE
  5
20D
330
CD
100
AcDbEntity
  8
0
  6
CONTINUOUS
 62
     7
100
AcDbLine
 10
2172.533333333345
 20
1316.914213562429
 30
0.0
 11
2172.971848541997
 21
1317.352728771079
 31
0.0
  0
LINE
  5
20E
330
CD
100
AcDbEntity
  8
0
  6
CONTINUOUS
 62
     7
100
AcDbLine
 10
2172.533333333339
 20
1316.207106781237
 30
0.0
 11
2173.329993535071
 21
1317.003766982969
 31
0.0
  0
LINE
  5
20F
330
CD
100
AcDbEntity
  8
0
  6
CONTINUOUS
 62
     7
100
AcDbLine
 10
2172.533333333321
 20
1315.500000000031
 30
0.0
 11
2173.688138528137
 21
1316.654805194846
 31
0.0
  0
LINE
  5
210
330
CD
100
AcDbEntity
  8
0
  6
CONTINUOUS
 62
     7
100
AcDbLine
 10
2173.240440114517
 20
1315.500000000037
 30
0.0
 11
2174.046283521201
 21
1316.305843406723
 31
0.0
  0
LINE
  5
211
330
CD
100
AcDbEntity
  8
0
  6
CONTINUOUS
 62
     7
100
AcDbLine
 10
2173.947546895709
 20
1315.500000000045
 30
0.0
 11
2174.404428514275
 21
1315.956881618613
 31
0.0
  0
LINE
  5
212
330
CD
100
AcDbEntity
  8
0
  6
CONTINUOUS
 62
     7
100
AcDbLine
 10
2174.654653676888
 20
1315.500000000039
 30
0.0
 11
2174.762573507341
 21
1315.607919830491
 31
0.0
  0
LINE
  5
213
330
CD
100
AcDbEntity
  8
0
  6
CONTINUOUS
 62
     7
100
AcDbLine
 10
2172.533333333336
 20
1293.378679656496
 30
0.0
 11
2172.641253163786
 21
1293.270759826045
 31
0.0
  0
LINE
  5
214
330
CD
100
AcDbEntity
  8
0
  6
CONTINUOUS
 62
     7
100
AcDbLine
 10
2172.533333333341
 20
1293.160000000051
 30
0.0
 11
2174.81333333334
 21
1295.50000000005
 31
0.0
  0
LINE
  5
215
330
CD
100
AcDbEntity
  8
0
  6
CONTINUOUS
 62
     7
100
AcDbLine
 10
2174.654653676894
 20
1295.500000000055
 30
0.0
 11
2174.735023892498
 21
1295.419629784453
 31
0.0
  0
LINE
  5
216
330
CD
100
AcDbEntity
  8
0
  6
CONTINUOUS
 62
     7
100
AcDbLine
 10
2173.947546895714
 20
1295.50000000005
 30
0.0
 11
2174.386062104372
 21
1295.061484791388
 31
0.0
  0
LINE
  5
217
330
CD
100
AcDbEntity
  8
0
  6
CONTINUOUS
 62
     7
100
AcDbLine
 10
2173.24044011452
 20
1295.500000000057
 30
0.0
 11
2174.037100316263
 21
1294.703339798313
 31
0.0
  0
LINE
  5
218
330
CD
100
AcDbEntity
  8
0
  6
CONTINUOUS
 62
     7
100
AcDbLine
 10
2172.533333333328
 20
1295.500000000064
 30
0.0
 11
2173.688138528146
 21
1294.345194805249
 31
0.0
  0
LINE
  5
219
330
CD
100
AcDbEntity
  8
0
  6
CONTINUOUS
 62
     7
100
AcDbLine
 10
2172.533333333334
 20
1294.792893218871
 30
0.0
 11
2173.339176740018
 21
1293.987049812184
 31
0.0
  0
LINE
  5
21A
330
CD
100
AcDbEntity
  8
0
  6
CONTINUOUS
 62
     7
100
AcDbLine
 10
2172.533333333339
 20
1294.085786437679
 30
0.0
 11
2172.99021495191
 21
1293.628904819109
 31
0.0
  0
LINE
  5
21B
330
CD
100
AcDbEntity
  8
0
  6
CONTINUOUS
 62
     7
100
AcDbLine
 10
2172.533333333339
 20
1295.50000000005
 30
0.0
 11
2178.229333333339
 21
1295.50000000005
 31
0.0
  0
ARC
  5
21C
330
CD
100
AcDbEntity
  8
0
  6
CONTINUOUS
 62
     7
100
AcDbCircle
 10
2174.142412878796
 20
1298.000000000051
 30
0.0
 40
4.790920454545454
100
AcDbArc
 50
328.5455606612213
 51
31.45443933877633
  0
LINE
  5
21D
330
CD
100
AcDbEntity
  8
0
  6
CONTINUOUS
 62
     7
100
AcDbLine
 10
2178.933333333339
 20
1298.000000000051
 30
0.0
 11
2178.933333333339
 21
1313.00000000005
 31
0.0
  0
ARC
  5
21E
330
CD
100
AcDbEntity
  8
0
  6
CONTINUOUS
 62
     7
100
AcDbCircle
 10
2160.825651515158
 20
1305.50000000005
 30
0.0
 40
18.10768181818181
100
AcDbArc
 50
343.9708781133889
 51
16.02912188661214
  0
ARC
  5
21F
330
CD
100
AcDbEntity
  8
0
  6
CONTINUOUS
 62
     7
100
AcDbCircle
 10
2174.142412878796
 20
1313.00000000005
 30
0.0
 40
4.790920454545454
100
AcDbArc
 50
328.5455606612239
 51
31.45443933877633
  0
LINE
  5
220
330
CD
100
AcDbEntity
  8
0
  6
CONTINUOUS
 62
     7
100
AcDbLine
 10
2167.533333333343
 20
1310.50000000005
 30
0.0
 11
2167.533333333343
 21
1300.500000000051
 31
0.0
  0
LINE
  5
221
330
CD
100
AcDbEntity
  8
0
  6
CONTINUOUS
 62
     7
100
AcDbLine
 10
2178.229333333339
 20
1300.500000000051
 30
0.0
 11
2149.657333333339
 21
1300.500000000051
 31
0.0
  0
LINE
  5
222
330
CD
100
AcDbEntity
  8
0
  6
CONTINUOUS
 62
     7
100
AcDbLine
 10
2178.229333333339
 20
1310.50000000005
 30
0.0
 11
2149.657333333339
 21
1310.50000000005
 31
0.0
  0
LINE
  5
223
330
CD
100
AcDbEntity
  8
0
  6
CONTINUOUS
 62
     7
100
AcDbLine
 10
2143.533333333341
 20
1300.500000000051
 30
0.0
 11
2142.533333333339
 21
1301.50000000005
 31
0.0
  0
LINE
  5
224
330
CD
100
AcDbEntity
  8
0
  6
CONTINUOUS
 62
     7
100
AcDbLine
 10
2143.533333333341
 20
1310.50000000005
 30
0.0
 11
2142.533333333339
 21
1309.50000000005
 31
0.0
  0
LINE
  5
225
330
CD
100
AcDbEntity
  8
0
  6
CONTINUOUS
 62
     7
100
AcDbLine
 10
2142.533333333339
 20
1301.50000000005
 30
0.0
 11
2142.533333333339
 21
1309.50000000005
 31
0.0
  0
LINE
  5
226
330
CD
100
AcDbEntity
  8
0
  6
CONTINUOUS
 62
     7
100
AcDbLine
 10
2148.733333333338
 20
1310.50000000005
 30
0.0
 11
2143.533333333341
 21
1310.50000000005
 31
0.0
  0
LINE
  5
227
330
CD
100
AcDbEntity
  8
0
  6
CONTINUOUS
 62
     7
100
AcDbLine
 10
2148.733333333338
 20
1300.500000000051
 30
0.0
 11
2143.533333333341
 21
1300.500000000051
 31
0.0
  0
LINE
  5
228
330
CD
100
AcDbEntity
  8
0
  6
CONTINUOUS
 62
     7
100
AcDbLine
 10
2157.13333333334
 20
1315.50000000005
 30
0.0
 11
2149.657333333339
 21
1315.50000000005
 31
0.0
  0
LINE
  5
229
330
CD
100
AcDbEntity
  8
0
  6
CONTINUOUS
 62
     7
100
AcDbLine
 10
2157.13333333334
 20
1295.50000000005
 30
0.0
 11
2149.657333333339
 21
1295.50000000005
 31
0.0
  0
ARC
  5
22A
330
CD
100
AcDbEntity
  8
0
  6
CONTINUOUS
 62
     7
100
AcDbCircle
 10
2152.577367965377
 20
1313.00000000005
 30
0.0
 40
3.844034632034633
100
AcDbArc
 50
139.4313750266288
 51
220.5686249733687
  0
ARC
  5
22B
330
CD
100
AcDbEntity
  8
0
  6
CONTINUOUS
 62
     7
100
AcDbCircle
 10
2162.723471861477
 20
1305.50000000005
 30
0.0
 40
13.99013852813853
100
AcDbArc
 50
159.0597243938583
 51
200.9402756061408
  0
ARC
  5
22C
330
CD
100
AcDbEntity
  8
0
  6
CONTINUOUS
 62
     7
100
AcDbCircle
 10
2152.577367965377
 20
1298.00000000005
 30
0.0
 40
3.844034632034633
100
AcDbArc
 50
139.4313750266313
 51
220.5686249733714
  0
LINE
  5
22D
330
CD
100
AcDbEntity
  8
0
  6
CONTINUOUS
 62
     7
100
AcDbLine
 10
2148.733333333338
 20
1313.00000000005
 30
0.0
 11
2148.733333333338
 21
1298.00000000005
 31
0.0
  0
ENDBLK
  5
CF
330
CD
100
AcDbEntity
  8
0
100
AcDbBlockEnd
  0
BLOCK
  5
D1
330
D0
100
AcDbEntity
  8
0
100
AcDbBlockBegin
  2
SYM-16
 70
     0
 10
0.0
 20
0.0
 30
0.0
  3
SYM-16
  1

  0
LINE
  5
22E
330
D0
100
AcDbEntity
  8
0
  6
CONTINUOUS
 62
     7
100
AcDbLine
 10
2167.533333333343
 20
2351.500000000051
 30
0.0
 11
2168.533333333343
 21
2350.500000000049
 31
0.0
  0
LINE
  5
22F
330
D0
100
AcDbEntity
  8
0
  6
CONTINUOUS
 62
     7
100
AcDbLine
 10
2167.533333333343
 20
2359.500000000051
 30
0.0
 11
2168.533333333343
 21
2360.500000000051
 31
0.0
  0
LINE
  5
230
330
D0
100
AcDbEntity
  8
0
  6
CONTINUOUS
 62
     7
100
AcDbLine
 10
2157.13333333334
 20
2359.500000000051
 30
0.0
 11
2167.533333333343
 21
2359.500000000051
 31
0.0
  0
LINE
  5
231
330
D0
100
AcDbEntity
  8
0
  6
CONTINUOUS
 62
     7
100
AcDbLine
 10
2157.13333333334
 20
2351.500000000051
 30
0.0
 11
2167.533333333343
 21
2351.500000000051
 31
0.0
  0
LINE
  5
232
330
D0
100
AcDbEntity
  8
0
  6
CONTINUOUS
 62
     7
100
AcDbLine
 10
2142.533333333339
 20
2351.500000000051
 30
0.0
 11
2146.73333333334
 21
2351.500000000051
 31
0.0
  0
LINE
  5
233
330
D0
100
AcDbEntity
  8
0
  6
CONTINUOUS
 62
     7
100
AcDbLine
 10
2143.533333333341
 20
2350.500000000049
 30
0.0
 11
2143.533333333341
 21
2360.500000000051
 31
0.0
  0
LINE
  5
234
330
D0
100
AcDbEntity
  8
0
  6
CONTINUOUS
 62
     7
100
AcDbLine
 10
2142.533333333339
 20
2359.500000000051
 30
0.0
 11
2146.73333333334
 21
2359.500000000051
 31
0.0
  0
LINE
  5
235
330
D0
100
AcDbEntity
  8
0
  6
CONTINUOUS
 62
     7
100
AcDbLine
 10
2172.533333333328
 20
2343.378679656504
 30
0.0
 11
2172.641253163792
 21
2343.270759826042
 31
0.0
  0
LINE
  5
236
330
D0
100
AcDbEntity
  8
0
  6
CONTINUOUS
 62
     7
100
AcDbLine
 10
2172.533333333334
 20
2344.085786437687
 30
0.0
 11
2172.990214951901
 21
2343.628904819117
 31
0.0
  0
LINE
  5
237
330
D0
100
AcDbEntity
  8
0
  6
CONTINUOUS
 62
     7
100
AcDbLine
 10
2172.533333333339
 20
2344.792893218868
 30
0.0
 11
2173.339176740024
 21
2343.98704981218
 31
0.0
  0
LINE
  5
238
330
D0
100
AcDbEntity
  8
0
  6
CONTINUOUS
 62
     7
100
AcDbLine
 10
2172.53333333333
 20
2345.50000000006
 30
0.0
 11
2173.688138528146
 21
2344.345194805246
 31
0.0
  0
LINE
  5
239
330
D0
100
AcDbEntity
  8
0
  6
CONTINUOUS
 62
     7
100
AcDbLine
 10
2173.240440114526
 20
2345.500000000053
 30
0.0
 11
2174.037100316257
 21
2344.703339798321
 31
0.0
  0
LINE
  5
23A
330
D0
100
AcDbEntity
  8
0
  6
CONTINUOUS
 62
     7
100
AcDbLine
 10
2173.947546895705
 20
2345.50000000006
 30
0.0
 11
2174.386062104381
 21
2345.061484791386
 31
0.0
  0
LINE
  5
23B
330
D0
100
AcDbEntity
  8
0
  6
CONTINUOUS
 62
     7
100
AcDbLine
 10
2174.654653676901
 20
2345.500000000051
 30
0.0
 11
2174.735023892502
 21
2345.419629784448
 31
0.0
  0
LINE
  5
23C
330
D0
100
AcDbEntity
  8
0
  6
CONTINUOUS
 62
     7
100
AcDbLine
 10
2172.533333333341
 20
2343.160000000051
 30
0.0
 11
2174.81333333334
 21
2345.500000000051
 31
0.0
  0
LINE
  5
23D
330
D0
100
AcDbEntity
  8
0
  6
CONTINUOUS
 62
     7
100
AcDbLine
 10
2172.533333333339
 20
2345.500000000051
 30
0.0
 11
2178.229333333339
 21
2345.500000000051
 31
0.0
  0
ARC
  5
23E
330
D0
100
AcDbEntity
  8
0
  6
CONTINUOUS
 62
     7
100
AcDbCircle
 10
2174.142412878796
 20
2348.000000000051
 30
0.0
 40
4.790920454545454
100
AcDbArc
 50
328.5455606612239
 51
31.45443933877169
  0
ARC
  5
23F
330
D0
100
AcDbEntity
  8
0
  6
CONTINUOUS
 62
     7
100
AcDbCircle
 10
2160.825651515158
 20
2355.500000000051
 30
0.0
 40
18.10768181818181
100
AcDbArc
 50
343.9708781133803
 51
16.02912188661214
  0
LINE
  5
240
330
D0
100
AcDbEntity
  8
0
  6
CONTINUOUS
 62
     7
100
AcDbLine
 10
2178.933333333339
 20
2348.000000000051
 30
0.0
 11
2178.933333333339
 21
2363.000000000051
 31
0.0
  0
ARC
  5
241
330
D0
100
AcDbEntity
  8
0
  6
CONTINUOUS
 62
     7
100
AcDbCircle
 10
2174.142412878796
 20
2363.000000000051
 30
0.0
 40
4.790920454545454
100
AcDbArc
 50
328.5455606612239
 51
31.45443933877169
  0
LINE
  5
242
330
D0
100
AcDbEntity
  8
0
  6
CONTINUOUS
 62
     7
100
AcDbLine
 10
2172.533333333339
 20
2365.500000000049
 30
0.0
 11
2178.229333333339
 21
2365.500000000049
 31
0.0
  0
LINE
  5
243
330
D0
100
AcDbEntity
  8
0
  6
CONTINUOUS
 62
     7
100
AcDbLine
 10
2174.654653676897
 20
2365.500000000047
 30
0.0
 11
2174.762573507337
 21
2365.607919830487
 31
0.0
  0
LINE
  5
244
330
D0
100
AcDbEntity
  8
0
  6
CONTINUOUS
 62
     7
100
AcDbLine
 10
2173.947546895705
 20
2365.50000000004
 30
0.0
 11
2174.404428514271
 21
2365.956881618609
 31
0.0
  0
LINE
  5
245
330
D0
100
AcDbEntity
  8
0
  6
CONTINUOUS
 62
     7
100
AcDbLine
 10
2173.24044011451
 20
2365.500000000035
 30
0.0
 11
2174.046283521208
 21
2366.30584340673
 31
0.0
  0
LINE
  5
246
330
D0
100
AcDbEntity
  8
0
  6
CONTINUOUS
 62
     7
100
AcDbLine
 10
2172.53333333333
 20
2365.50000000004
 30
0.0
 11
2173.688138528131
 21
2366.654805194841
 31
0.0
  0
LINE
  5
247
330
D0
100
AcDbEntity
  8
0
  6
CONTINUOUS
 62
     7
100
AcDbLine
 10
2172.533333333345
 20
2366.207106781245
 30
0.0
 11
2173.329993535071
 21
2367.003766982965
 31
0.0
  0
LINE
  5
248
330
D0
100
AcDbEntity
  8
0
  6
CONTINUOUS
 62
     7
100
AcDbLine
 10
2172.533333333341
 20
2366.914213562426
 30
0.0
 11
2172.971848542004
 21
2367.352728771086
 31
0.0
  0
LINE
  5
249
330
D0
100
AcDbEntity
  8
0
  6
CONTINUOUS
 62
     7
100
AcDbLine
 10
2172.53333333335
 20
2367.621320343618
 30
0.0
 11
2172.613703548927
 21
2367.701690559199
 31
0.0
  0
LINE
  5
24A
330
D0
100
AcDbEntity
  8
0
  6
CONTINUOUS
 62
     7
100
AcDbLine
 10
2174.873333333339
 20
2365.500000000053
 30
0.0
 11
2172.533333333339
 21
2367.780000000052
 31
0.0
  0
LINE
  5
24B
330
D0
100
AcDbEntity
  8
0
  6
CONTINUOUS
 62
     7
100
AcDbLine
 10
2167.533333333343
 20
2360.500000000051
 30
0.0
 11
2167.533333333343
 21
2350.500000000049
 31
0.0
  0
LINE
  5
24C
330
D0
100
AcDbEntity
  8
0
  6
CONTINUOUS
 62
     7
100
AcDbLine
 10
2178.229333333339
 20
2360.500000000051
 30
0.0
 11
2157.13333333334
 21
2360.500000000051
 31
0.0
  0
LINE
  5
24D
330
D0
100
AcDbEntity
  8
0
  6
CONTINUOUS
 62
     7
100
AcDbLine
 10
2178.229333333339
 20
2350.500000000049
 30
0.0
 11
2157.13333333334
 21
2350.500000000049
 31
0.0
  0
LINE
  5
24E
330
D0
100
AcDbEntity
  8
0
  6
CONTINUOUS
 62
     7
100
AcDbLine
 10
2155.133333333341
 20
2345.000000000051
 30
0.0
 11
2157.13333333334
 21
2345.000000000051
 31
0.0
  0
LINE
  5
24F
330
D0
100
AcDbEntity
  8
0
  6
CONTINUOUS
 62
     7
100
AcDbLine
 10
2155.133333333341
 20
2366.000000000051
 30
0.0
 11
2157.13333333334
 21
2366.000000000051
 31
0.0
  0
LINE
  5
250
330
D0
100
AcDbEntity
  8
0
  6
CONTINUOUS
 62
     7
100
AcDbLine
 10
2155.133333333341
 20
2345.000000000051
 30
0.0
 11
2155.133333333341
 21
2366.000000000051
 31
0.0
  0
LINE
  5
251
330
D0
100
AcDbEntity
  8
0
  6
CONTINUOUS
 62
     7
100
AcDbLine
 10
2146.73333333334
 20
2363.000000000051
 30
0.0
 11
2146.73333333334
 21
2348.000000000051
 31
0.0
  0
ARC
  5
252
330
D0
100
AcDbEntity
  8
0
  6
CONTINUOUS
 62
     7
100
AcDbCircle
 10
2150.577367965375
 20
2348.000000000051
 30
0.0
 40
3.844034632034633
100
AcDbArc
 50
139.4313750265994
 51
220.5686249734146
  0
ARC
  5
253
330
D0
100
AcDbEntity
  8
0
  6
CONTINUOUS
 62
     7
100
AcDbCircle
 10
2160.723471861479
 20
2355.500000000051
 30
0.0
 40
13.99013852813853
100
AcDbArc
 50
159.0597243938601
 51
200.9402756061523
  0
ARC
  5
254
330
D0
100
AcDbEntity
  8
0
  6
CONTINUOUS
 62
     7
100
AcDbCircle
 10
2150.577367965375
 20
2363.000000000051
 30
0.0
 40
3.844034632034633
100
AcDbArc
 50
139.4313750265994
 51
220.5686249734146
  0
LINE
  5
255
330
D0
100
AcDbEntity
  8
0
  6
CONTINUOUS
 62
     7
100
AcDbLine
 10
2155.133333333341
 20
2345.500000000051
 30
0.0
 11
2147.657333333341
 21
2345.500000000051
 31
0.0
  0
LINE
  5
256
330
D0
100
AcDbEntity
  8
0
  6
CONTINUOUS
 62
     7
100
AcDbLine
 10
2155.133333333341
 20
2365.500000000049
 30
0.0
 11
2147.657333333341
 21
2365.500000000049
 31
0.0
  0
LINE
  5
257
330
D0
100
AcDbEntity
  8
0
  6
CONTINUOUS
 62
     7
100
AcDbLine
 10
2155.133333333341
 20
2350.500000000049
 30
0.0
 11
2147.657333333341
 21
2350.500000000049
 31
0.0
  0
LINE
  5
258
330
D0
100
AcDbEntity
  8
0
  6
CONTINUOUS
 62
     7
100
AcDbLine
 10
2155.133333333341
 20
2360.500000000051
 30
0.0
 11
2147.657333333341
 21
2360.500000000051
 31
0.0
  0
LINE
  5
259
330
D0
100
AcDbEntity
  8
0
  6
CONTINUOUS
 62
     7
100
AcDbLine
 10
2146.73333333334
 20
2350.500000000049
 30
0.0
 11
2143.533333333341
 21
2350.500000000049
 31
0.0
  0
LINE
  5
25A
330
D0
100
AcDbEntity
  8
0
  6
CONTINUOUS
 62
     7
100
AcDbLine
 10
2146.73333333334
 20
2360.500000000051
 30
0.0
 11
2143.533333333341
 21
2360.500000000051
 31
0.0
  0
LINE
  5
25B
330
D0
100
AcDbEntity
  8
0
  6
CONTINUOUS
 62
     7
100
AcDbLine
 10
2142.533333333339
 20
2351.500000000051
 30
0.0
 11
2142.533333333339
 21
2359.500000000051
 31
0.0
  0
LINE
  5
25C
330
D0
100
AcDbEntity
  8
0
  6
CONTINUOUS
 62
     7
100
AcDbLine
 10
2143.533333333341
 20
2360.500000000051
 30
0.0
 11
2142.533333333339
 21
2359.500000000051
 31
0.0
  0
LINE
  5
25D
330
D0
100
AcDbEntity
  8
0
  6
CONTINUOUS
 62
     7
100
AcDbLine
 10
2143.533333333341
 20
2350.500000000049
 30
0.0
 11
2142.533333333339
 21
2351.500000000051
 31
0.0
  0
ENDBLK
  5
D2
330
D0
100
AcDbEntity
  8
0
100
AcDbBlockEnd
  0
BLOCK
  5
D4
330
D3
100
AcDbEntity
  8
0
100
AcDbBlockBegin
  2
SYM-17
 70
     0
 10
0.0
 20
0.0
 30
0.0
  3
SYM-17
  1

  0
LINE
  5
25E
330
D3
100
AcDbEntity
  8
0
  6
CONTINUOUS
 62
     7
100
AcDbLine
 10
2168.91376617174
 20
2337.01730164015
 30
0.0
 11
2161.990368020435
 21
2343.94069979146
 31
0.0
  0
LINE
  5
25F
330
D3
100
AcDbEntity
  8
0
  6
CONTINUOUS
 62
     7
100
AcDbLine
 10
2168.47671244914
 20
2336.040141800349
 30
0.0
 11
2161.36676157137
 21
2343.150092678435
 31
0.0
  0
LINE
  5
260
330
D3
100
AcDbEntity
  8
0
  6
CONTINUOUS
 62
     7
100
AcDbLine
 10
2167.90635219454
 20
2335.196288492649
 30
0.0
 11
2160.876461654018
 21
2342.226179032852
 31
0.0
  0
LINE
  5
261
330
D3
100
AcDbEntity
  8
0
  6
CONTINUOUS
 62
     7
100
AcDbLine
 10
2167.197891207542
 20
2334.49053591725
 30
0.0
 11
2160.524262469351
 21
2341.164164655441
 31
0.0
  0
LINE
  5
262
330
D3
100
AcDbEntity
  8
0
  6
CONTINUOUS
 62
     7
100
AcDbLine
 10
2169.139456849841
 20
2341.034251649149
 30
0.0
 11
2164.94665785764
 21
2345.22705064135
 31
0.0
  0
LINE
  5
263
330
D3
100
AcDbEntity
  8
0
  6
CONTINUOUS
 62
     7
100
AcDbLine
 10
2169.31663181834
 20
2339.442863118251
 30
0.0
 11
2163.70882271734
 21
2345.050672219249
 31
0.0
  0
LINE
  5
264
330
D3
100
AcDbEntity
  8
0
  6
CONTINUOUS
 62
     7
100
AcDbLine
 10
2169.205962073443
 20
2338.13931930085
 30
0.0
 11
2162.75883229054
 21
2344.586449083748
 31
0.0
  0
LINE
  5
265
330
D3
100
AcDbEntity
  8
0
  6
CONTINUOUS
 62
     7
100
AcDbLine
 10
2166.326797488841
 20
2333.94741607355
 30
0.0
 11
2160.334696016143
 21
2339.93951754625
 31
0.0
  0
LINE
  5
266
330
D3
100
AcDbEntity
  8
0
  6
CONTINUOUS
 62
     7
100
AcDbLine
 10
2165.225454789242
 20
2333.634545210849
 30
0.0
 11
2160.375378544039
 21
2338.484621455949
 31
0.0
  0
LINE
  5
267
330
D3
100
AcDbEntity
  8
0
  6
CONTINUOUS
 62
     7
100
AcDbLine
 10
2163.62942457294
 20
2333.81636186475
 30
0.0
 11
2160.910748588642
 21
2336.535037849049
 31
0.0
  0
ELLIPSE
  5
268
330
D3
100
AcDbEntity
  8
0
  6
CONTINUOUS
 62
     7
100
AcDbEllipse
 10
2164.816666666643
 20
2339.420000000049
 30
0.0
 11
-1.067183248068677E-15
 21
-5.809475019310011
 31
0.0
210
0.0
220
0.0
230
1.0
 40
0.774596669241632
 41
0.0
 42
6.283185307179586
  0
ENDBLK
  5
D5
330
D3
100
AcDbEntity
  8
0
100
AcDbBlockEnd
  0
BLOCK
  5
D7
330
D6
100
AcDbEntity
  8
0
100
AcDbBlockBegin
  2
SYM-18
 70
     0
 10
0.0
 20
0.0
 30
0.0
  3
SYM-18
  1

  0
LINE
  5
269
330
D6
100
AcDbEntity
  8
0
  6
CONTINUOUS
 62
     7
100
AcDbLine
 10
2168.913766171753
 20
1323.982698359959
 30
0.0
 11
2161.990368020442
 21
1317.059300208651
 31
0.0
  0
LINE
  5
26A
330
D6
100
AcDbEntity
  8
0
  6
CONTINUOUS
 62
     7
100
AcDbLine
 10
2168.476712449138
 20
1324.959858199748
 30
0.0
 11
2161.366761571243
 21
1317.849907321851
 31
0.0
  0
LINE
  5
26B
330
D6
100
AcDbEntity
  8
0
  6
CONTINUOUS
 62
     7
100
AcDbLine
 10
2167.906352194416
 20
1325.803711507611
 30
0.0
 11
2160.876461654142
 21
1318.773820967051
 31
0.0
  0
LINE
  5
26C
330
D6
100
AcDbEntity
  8
0
  6
CONTINUOUS
 62
     7
100
AcDbLine
 10
2167.197891207508
 20
1326.509464082817
 30
0.0
 11
2160.524262469339
 21
1319.835835344651
 31
0.0
  0
LINE
  5
26D
330
D6
100
AcDbEntity
  8
0
  6
CONTINUOUS
 62
     7
100
AcDbLine
 10
2169.139456849841
 20
1319.965748350951
 30
0.0
 11
2164.94665785764
 21
1315.772949358751
 31
0.0
  0
LINE
  5
26E
330
D6
100
AcDbEntity
  8
0
  6
CONTINUOUS
 62
     7
100
AcDbLine
 10
2169.31663181834
 20
1321.557136881851
 30
0.0
 11
2163.70882271734
 21
1315.949327780851
 31
0.0
  0
LINE
  5
26F
330
D6
100
AcDbEntity
  8
0
  6
CONTINUOUS
 62
     7
100
AcDbLine
 10
2169.205962073443
 20
1322.860680699251
 30
0.0
 11
2162.75883229054
 21
1316.41355091635
 31
0.0
  0
LINE
  5
270
330
D6
100
AcDbEntity
  8
0
  6
CONTINUOUS
 62
     7
100
AcDbLine
 10
2166.326797488841
 20
1327.052583926551
 30
0.0
 11
2160.334696016143
 21
1321.060482453851
 31
0.0
  0
LINE
  5
271
330
D6
100
AcDbEntity
  8
0
  6
CONTINUOUS
 62
     7
100
AcDbLine
 10
2165.225454789242
 20
1327.365454789251
 30
0.0
 11
2160.375378544039
 21
1322.515378544151
 31
0.0
  0
LINE
  5
272
330
D6
100
AcDbEntity
  8
0
  6
CONTINUOUS
 62
     7
100
AcDbLine
 10
2163.62942457294
 20
1327.183638135351
 30
0.0
 11
2160.910748588642
 21
1324.464962151051
 31
0.0
  0
ELLIPSE
  5
273
330
D6
100
AcDbEntity
  8
0
  6
CONTINUOUS
 62
     7
100
AcDbEllipse
 10
2164.816666666643
 20
1321.580000000051
 30
0.0
 11
-2.224197421612835E-15
 21
5.809475019310011
 31
0.0
210
0.0
220
0.0
230
1.0
 40
0.774596669241632
 41
0.0
 42
6.283185307179586
  0
ENDBLK
  5
D8
330
D6
100
AcDbEntity
  8
0
100
AcDbBlockEnd
  0
BLOCK
  5
50C
330
50B
100
AcDbEntity
  8
0
100
AcDbBlockBegin
  2
*D33
 70
     1
 10
0.0
 20
0.0
 30
0.0
  3
*D33
  1

  0
LINE
  5
50E
330
50B
100
AcDbEntity
  8
LAY-20
  6
CONTINUOUS
 62
     4
100
AcDbLine
 10
610.00000000005
 20
863.0000000000001
 30
0.0
 11
610.00000000005
 21
1033.0
 31
0.0
  0
LINE
  5
50F
330
50B
100
AcDbEntity
  8
LAY-20
  6
CONTINUOUS
 62
     4
100
AcDbLine
 10
1720.0
 20
863.0000000000001
 30
0.0
 11
1720.0
 21
1033.0
 31
0.0
  0
LINE
  5
510
330
50B
100
AcDbEntity
  8
LAY-20
  6
CONTINUOUS
 62
     4
100
AcDbLine
 10
635.00000000005
 20
1018.0
 30
0.0
 11
1695.0
 21
1018.0
 31
0.0
  0
INSERT
  5
511
330
50B
100
AcDbEntity
  8
LAY-20
 62
     4
100
AcDbBlockReference
  2
EX_BNORM
 10
610.00000000005
 20
1018.0
 30
0.0
 41
25.0
 42
25.0
 43
25.0
 50
180.0
  0
INSERT
  5
512
330
50B
100
AcDbEntity
  8
LAY-20
 62
     4
100
AcDbBlockReference
  2
EX_BNORM
 10
1720.0
 20
1018.0
 30
0.0
 41
25.0
 42
25.0
 43
25.0
  0
MTEXT
  5
513
330
50B
100
AcDbEntity
  8
LAY-20
 62
     7
100
AcDbMText
 10
1165.000000000025
 20
1043.0
 30
0.0
 40
31.181104
 41
0.0
 71
     5
 72
     1
  1
1110
  7
EXCADDIM1
  0
POINT
  5
514
330
50B
100
AcDbEntity
  8
DEFPOINTS
 62
     0
100
AcDbPoint
 10
610.00000000005
 20
848.0000000000001
 30
0.0
  0
POINT
  5
515
330
50B
100
AcDbEntity
  8
DEFPOINTS
 62
     0
100
AcDbPoint
 10
1720.0
 20
848.0000000000001
 30
0.0
  0
POINT
  5
516
330
50B
100
AcDbEntity
  8
DEFPOINTS
 62
     0
100
AcDbPoint
 10
1720.0
 20
1018.0
 30
0.0
  0
ENDBLK
  5
50D
330
50B
100
AcDbEntity
  8
0
100
AcDbBlockEnd
  0
BLOCK
  5
519
330
518
100
AcDbEntity
  8
0
100
AcDbBlockBegin
  2
*D34
 70
     1
 10
0.0
 20
0.0
 30
0.0
  3
*D34
  1

  0
LINE
  5
51B
330
518
100
AcDbEntity
  8
LAY-20
  6
CONTINUOUS
 62
     4
100
AcDbLine
 10
984.0000000000255
 20
862.9999999999991
 30
0.0
 11
984.0000000000255
 21
963.0000000000001
 31
0.0
  0
LINE
  5
51C
330
518
100
AcDbEntity
  8
LAY-20
  6
CONTINUOUS
 62
     4
100
AcDbLine
 10
626.0000000000259
 20
862.9999999999995
 30
0.0
 11
626.0000000000259
 21
963.0000000000001
 31
0.0
  0
LINE
  5
51D
330
518
100
AcDbEntity
  8
LAY-20
  6
CONTINUOUS
 62
     4
100
AcDbLine
 10
959.0000000000255
 20
948.0000000000001
 30
0.0
 11
651.0000000000259
 21
948.0000000000001
 31
0.0
  0
INSERT
  5
51E
330
518
100
AcDbEntity
  8
LAY-20
 62
     4
100
AcDbBlockReference
  2
EX_BNORM
 10
984.0000000000255
 20
948.0000000000001
 30
0.0
 41
25.0
 42
25.0
 43
25.0
  0
INSERT
  5
51F
330
518
100
AcDbEntity
  8
LAY-20
 62
     4
100
AcDbBlockReference
  2
EX_BNORM
 10
626.0000000000259
 20
948.0000000000001
 30
0.0
 41
25.0
 42
25.0
 43
25.0
 50
180.0
  0
MTEXT
  5
520
330
518
100
AcDbEntity
  8
LAY-20
 62
     7
100
AcDbMText
 10
805.0000000000257
 20
973.0000000000003
 30
0.0
 40
31.181104
 41
0.0
 71
     5
 72
     1
  1
358
  7
EXCADDIM1
  0
POINT
  5
521
330
518
100
AcDbEntity
  8
DEFPOINTS
 62
     0
100
AcDbPoint
 10
984.0000000000255
 20
847.9999999999991
 30
0.0
  0
POINT
  5
522
330
518
100
AcDbEntity
  8
DEFPOINTS
 62
     0
100
AcDbPoint
 10
626.0000000000259
 20
847.9999999999995
 30
0.0
  0
POINT
  5
523
330
518
100
AcDbEntity
  8
DEFPOINTS
 62
     0
100
AcDbPoint
 10
626.0000000000259
 20
948.0000000000001
 30
0.0
  0
ENDBLK
  5
51A
330
518
100
AcDbEntity
  8
0
100
AcDbBlockEnd
  0
BLOCK
  5
526
330
525
100
AcDbEntity
  8
0
100
AcDbBlockBegin
  2
*D35
 70
     1
 10
0.0
 20
0.0
 30
0.0
  3
*D35
  1

  0
LINE
  5
528
330
525
100
AcDbEntity
  8
LAY-20
  6
CONTINUOUS
 62
     4
100
AcDbLine
 10
665.00000000006
 20
702.99999999999
 30
0.0
 11
665.00000000006
 21
603.0
 31
0.0
  0
LINE
  5
529
330
525
100
AcDbEntity
  8
LAY-20
  6
CONTINUOUS
 62
     4
100
AcDbLine
 10
1665.0
 20
702.99999999999
 30
0.0
 11
1665.0
 21
603.0
 31
0.0
  0
LINE
  5
52A
330
525
100
AcDbEntity
  8
LAY-20
  6
CONTINUOUS
 62
     4
100
AcDbLine
 10
690.00000000006
 20
618.0
 30
0.0
 11
1640.0
 21
618.0
 31
0.0
  0
INSERT
  5
52B
330
525
100
AcDbEntity
  8
LAY-20
 62
     4
100
AcDbBlockReference
  2
EX_BNORM
 10
665.00000000006
 20
618.0
 30
0.0
 41
25.0
 42
25.0
 43
25.0
 50
180.0
  0
INSERT
  5
52C
330
525
100
AcDbEntity
  8
LAY-20
 62
     4
100
AcDbBlockReference
  2
EX_BNORM
 10
1665.0
 20
618.0
 30
0.0
 41
25.0
 42
25.0
 43
25.0
  0
MTEXT
  5
52D
330
525
100
AcDbEntity
  8
LAY-20
 62
     7
100
AcDbMText
 10
1165.00000000003
 20
643.0
 30
0.0
 40
31.181104
 41
0.0
 71
     5
 72
     1
  1
1000
  7
EXCADDIM1
  0
POINT
  5
52E
330
525
100
AcDbEntity
  8
DEFPOINTS
 62
     0
100
AcDbPoint
 10
665.00000000006
 20
717.99999999999
 30
0.0
  0
POINT
  5
52F
330
525
100
AcDbEntity
  8
DEFPOINTS
 62
     0
100
AcDbPoint
 10
1665.0
 20
717.99999999999
 30
0.0
  0
POINT
  5
530
330
525
100
AcDbEntity
  8
DEFPOINTS
 62
     0
100
AcDbPoint
 10
1665.0
 20
618.0
 30
0.0
  0
ENDBLK
  5
527
330
525
100
AcDbEntity
  8
0
100
AcDbBlockEnd
  0
BLOCK
  5
533
330
532
100
AcDbEntity
  8
0
100
AcDbBlockBegin
  2
*D36
 70
     1
 10
0.0
 20
0.0
 30
0.0
  3
*D36
  1

  0
LINE
  5
535
330
532
100
AcDbEntity
  8
LAY-20
  6
CONTINUOUS
 62
     4
100
AcDbLine
 10
1735.0
 20
848.0000000000001
 30
0.0
 11
1886.1
 21
848.0000000000001
 31
0.0
  0
LINE
  5
536
330
532
100
AcDbEntity
  8
LAY-20
  6
CONTINUOUS
 62
     4
100
AcDbLine
 10
1717.28
 20
747.9999999999999
 30
0.0
 11
1886.1
 21
747.9999999999999
 31
0.0
  0
LINE
  5
537
330
532
100
AcDbEntity
  8
LAY-20
  6
CONTINUOUS
 62
     4
100
AcDbLine
 10
1871.1
 20
823.0000000000001
 30
0.0
 11
1871.1
 21
772.9999999999999
 31
0.0
  0
INSERT
  5
538
330
532
100
AcDbEntity
  8
LAY-20
 62
     4
100
AcDbBlockReference
  2
EX_BNORM
 10
1871.1
 20
848.0000000000001
 30
0.0
 41
25.0
 42
25.0
 43
25.0
 50
90.0
  0
INSERT
  5
539
330
532
100
AcDbEntity
  8
LAY-20
 62
     4
100
AcDbBlockReference
  2
EX_BNORM
 10
1871.1
 20
747.9999999999999
 30
0.0
 41
25.0
 42
25.0
 43
25.0
 50
270.0
  0
MTEXT
  5
53A
330
532
100
AcDbEntity
  8
LAY-20
 62
     7
100
AcDbMText
 10
1846.1
 20
798.0000000000002
 30
0.0
 40
31.181104
 41
0.0
 71
     5
 72
     1
  1
100
  7
EXCADDIM1
 11
0.0
 21
1.0
 31
0.0
  0
POINT
  5
53B
330
532
100
AcDbEntity
  8
DEFPOINTS
 62
     0
100
AcDbPoint
 10
1720.0
 20
848.0000000000001
 30
0.0
  0
POINT
  5
53C
330
532
100
AcDbEntity
  8
DEFPOINTS
 62
     0
100
AcDbPoint
 10
1702.28
 20
747.9999999999999
 30
0.0
  0
POINT
  5
53D
330
532
100
AcDbEntity
  8
DEFPOINTS
 62
     0
100
AcDbPoint
 10
1871.1
 20
747.9999999999999
 30
0.0
  0
ENDBLK
  5
534
330
532
100
AcDbEntity
  8
0
100
AcDbBlockEnd
  0
BLOCK
  5
540
330
53F
100
AcDbEntity
  8
0
100
AcDbBlockBegin
  2
*D37
 70
     1
 10
0.0
 20
0.0
 30
0.0
  3
*D37
  1

  0
LINE
  5
542
330
53F
100
AcDbEntity
  8
LAY-20
  6
CONTINUOUS
 62
     4
100
AcDbLine
 10
2057.333333333299
 20
1238.5
 30
0.0
 11
1887.33333333335
 21
1238.500000000001
 31
0.0
  0
LINE
  5
543
330
53F
100
AcDbEntity
  8
LAY-20
  6
CONTINUOUS
 62
     4
100
AcDbLine
 10
2057.333333333299
 20
2422.5000000001
 30
0.0
 11
1887.33333333335
 21
2422.5000000001
 31
0.0
  0
LINE
  5
544
330
53F
100
AcDbEntity
  8
LAY-20
  6
CONTINUOUS
 62
     4
100
AcDbLine
 10
1902.33333333335
 20
1263.500000000001
 30
0.0
 11
1902.33333333335
 21
2397.5000000001
 31
0.0
  0
INSERT
  5
545
330
53F
100
AcDbEntity
  8
LAY-20
 62
     4
100
AcDbBlockReference
  2
EX_BNORM
 10
1902.33333333335
 20
1238.500000000001
 30
0.0
 41
25.0
 42
25.0
 43
25.0
 50
270.0
  0
INSERT
  5
546
330
53F
100
AcDbEntity
  8
LAY-20
 62
     4
100
AcDbBlockReference
  2
EX_BNORM
 10
1902.33333333335
 20
2422.5000000001
 30
0.0
 41
25.0
 42
25.0
 43
25.0
 50
90.0
  0
MTEXT
  5
547
330
53F
100
AcDbEntity
  8
LAY-20
 62
     7
100
AcDbMText
 10
1877.333333333351
 20
1830.50000000005
 30
0.0
 40
31.181104
 41
0.0
 71
     5
 72
     1
  1
1184
  7
EXCADDIM1
 11
0.0
 21
1.0
 31
0.0
  0
POINT
  5
548
330
53F
100
AcDbEntity
  8
DEFPOINTS
 62
     0
100
AcDbPoint
 10
2072.333333333299
 20
1238.5
 30
0.0
  0
POINT
  5
549
330
53F
100
AcDbEntity
  8
DEFPOINTS
 62
     0
100
AcDbPoint
 10
2072.333333333299
 20
2422.5000000001
 30
0.0
  0
POINT
  5
54A
330
53F
100
AcDbEntity
  8
DEFPOINTS
 62
     0
100
AcDbPoint
 10
1902.33333333335
 20
2422.5000000001
 30
0.0
  0
ENDBLK
  5
541
330
53F
100
AcDbEntity
  8
0
100
AcDbBlockEnd
  0
BLOCK
  5
54D
330
54C
100
AcDbEntity
  8
0
100
AcDbBlockBegin
  2
*D38
 70
     1
 10
0.0
 20
0.0
 30
0.0
  3
*D38
  1

  0
LINE
  5
54F
330
54C
100
AcDbEntity
  8
LAY-20
  6
CONTINUOUS
 62
     4
100
AcDbLine
 10
2057.333333333346
 20
1254.50000000005
 30
0.0
 11
1957.33333333335
 21
1254.50000000005
 31
0.0
  0
LINE
  5
550
330
54C
100
AcDbEntity
  8
LAY-20
  6
CONTINUOUS
 62
     4
100
AcDbLine
 10
2057.333333333346
 20
2406.500000000051
 30
0.0
 11
1957.33333333335
 21
2406.500000000051
 31
0.0
  0
LINE
  5
551
330
54C
100
AcDbEntity
  8
LAY-20
  6
CONTINUOUS
 62
     4
100
AcDbLine
 10
1972.33333333335
 20
1279.50000000005
 30
0.0
 11
1972.33333333335
 21
2381.500000000051
 31
0.0
  0
INSERT
  5
552
330
54C
100
AcDbEntity
  8
LAY-20
 62
     4
100
AcDbBlockReference
  2
EX_BNORM
 10
1972.33333333335
 20
1254.50000000005
 30
0.0
 41
25.0
 42
25.0
 43
25.0
 50
270.0
  0
INSERT
  5
553
330
54C
100
AcDbEntity
  8
LAY-20
 62
     4
100
AcDbBlockReference
  2
EX_BNORM
 10
1972.33333333335
 20
2406.500000000051
 30
0.0
 41
25.0
 42
25.0
 43
25.0
 50
90.0
  0
MTEXT
  5
554
330
54C
100
AcDbEntity
  8
LAY-20
 62
     7
100
AcDbMText
 10
1947.333333333351
 20
1830.50000000005
 30
0.0
 40
31.181104
 41
0.0
 71
     5
 72
     1
  1
1152
  7
EXCADDIM1
 11
0.0
 21
1.0
 31
0.0
  0
POINT
  5
555
330
54C
100
AcDbEntity
  8
DEFPOINTS
 62
     0
100
AcDbPoint
 10
2072.333333333346
 20
1254.50000000005
 30
0.0
  0
POINT
  5
556
330
54C
100
AcDbEntity
  8
DEFPOINTS
 62
     0
100
AcDbPoint
 10
2072.333333333346
 20
2406.500000000051
 30
0.0
  0
POINT
  5
557
330
54C
100
AcDbEntity
  8
DEFPOINTS
 62
     0
100
AcDbPoint
 10
1972.33333333335
 20
2406.500000000051
 30
0.0
  0
ENDBLK
  5
54E
330
54C
100
AcDbEntity
  8
0
100
AcDbBlockEnd
  0
BLOCK
  5
55A
330
559
100
AcDbEntity
  8
0
100
AcDbBlockBegin
  2
*D39
 70
     1
 10
0.0
 20
0.0
 30
0.0
  3
*D39
  1

  0
LINE
  5
55C
330
559
100
AcDbEntity
  8
LAY-20
  6
CONTINUOUS
 62
     4
100
AcDbLine
 10
2217.5333333333
 20
2330.5
 30
0.0
 11
2317.53333333333
 21
2330.5
 31
0.0
  0
LINE
  5
55D
330
559
100
AcDbEntity
  8
LAY-20
  6
CONTINUOUS
 62
     4
100
AcDbLine
 10
2217.5333333333
 20
1330.5000000001
 30
0.0
 11
2317.53333333333
 21
1330.5000000001
 31
0.0
  0
LINE
  5
55E
330
559
100
AcDbEntity
  8
LAY-20
  6
CONTINUOUS
 62
     4
100
AcDbLine
 10
2302.53333333333
 20
2305.5
 30
0.0
 11
2302.53333333333
 21
1355.5000000001
 31
0.0
  0
INSERT
  5
55F
330
559
100
AcDbEntity
  8
LAY-20
 62
     4
100
AcDbBlockReference
  2
EX_BNORM
 10
2302.53333333333
 20
2330.5
 30
0.0
 41
25.0
 42
25.0
 43
25.0
 50
90.0
  0
INSERT
  5
560
330
559
100
AcDbEntity
  8
LAY-20
 62
     4
100
AcDbBlockReference
  2
EX_BNORM
 10
2302.53333333333
 20
1330.5000000001
 30
0.0
 41
25.0
 42
25.0
 43
25.0
 50
270.0
  0
MTEXT
  5
561
330
559
100
AcDbEntity
  8
LAY-20
 62
     7
100
AcDbMText
 10
2277.53333333333
 20
1830.50000000005
 30
0.0
 40
31.181104
 41
0.0
 71
     5
 72
     1
  1
1000
  7
EXCADDIM1
 11
0.0
 21
1.0
 31
0.0
  0
POINT
  5
562
330
559
100
AcDbEntity
  8
DEFPOINTS
 62
     0
100
AcDbPoint
 10
2202.5333333333
 20
2330.5
 30
0.0
  0
POINT
  5
563
330
559
100
AcDbEntity
  8
DEFPOINTS
 62
     0
100
AcDbPoint
 10
2202.5333333333
 20
1330.5000000001
 30
0.0
  0
POINT
  5
564
330
559
100
AcDbEntity
  8
DEFPOINTS
 62
     0
100
AcDbPoint
 10
2302.53333333333
 20
1330.5000000001
 30
0.0
  0
ENDBLK
  5
55B
330
559
100
AcDbEntity
  8
0
100
AcDbBlockEnd
  0
BLOCK
  5
567
330
566
100
AcDbEntity
  8
0
100
AcDbBlockBegin
  2
*D40
 70
     1
 10
0.0
 20
0.0
 30
0.0
  3
*D40
  1

  0
LINE
  5
569
330
566
100
AcDbEntity
  8
LAY-20
  6
CONTINUOUS
 62
     4
100
AcDbLine
 10
2134.7333333333
 20
2413.7
 30
0.0
 11
2387.5333333333
 21
2413.7
 31
0.0
  0
LINE
  5
56A
330
566
100
AcDbEntity
  8
LAY-20
  6
CONTINUOUS
 62
     4
100
AcDbLine
 10
2134.7333333333
 20
1247.3
 30
0.0
 11
2387.5333333333
 21
1247.3
 31
0.0
  0
LINE
  5
56B
330
566
100
AcDbEntity
  8
LAY-20
  6
CONTINUOUS
 62
     4
100
AcDbLine
 10
2372.5333333333
 20
2388.7
 30
0.0
 11
2372.5333333333
 21
1272.3
 31
0.0
  0
INSERT
  5
56C
330
566
100
AcDbEntity
  8
LAY-20
 62
     4
100
AcDbBlockReference
  2
EX_BNORM
 10
2372.5333333333
 20
2413.7
 30
0.0
 41
25.0
 42
25.0
 43
25.0
 50
90.0
  0
INSERT
  5
56D
330
566
100
AcDbEntity
  8
LAY-20
 62
     4
100
AcDbBlockReference
  2
EX_BNORM
 10
2372.5333333333
 20
1247.3
 30
0.0
 41
25.0
 42
25.0
 43
25.0
 50
270.0
  0
MTEXT
  5
56E
330
566
100
AcDbEntity
  8
LAY-20
 62
     7
100
AcDbMText
 10
2347.5333333333
 20
1830.5
 30
0.0
 40
31.181104
 41
0.0
 71
     5
 72
     1
  1
1166
  7
EXCADDIM1
 11
0.0
 21
1.0
 31
0.0
  0
POINT
  5
56F
330
566
100
AcDbEntity
  8
DEFPOINTS
 62
     0
100
AcDbPoint
 10
2119.7333333333
 20
2413.7
 30
0.0
  0
POINT
  5
570
330
566
100
AcDbEntity
  8
DEFPOINTS
 62
     0
100
AcDbPoint
 10
2119.7333333333
 20
1247.3
 30
0.0
  0
POINT
  5
571
330
566
100
AcDbEntity
  8
DEFPOINTS
 62
     0
100
AcDbPoint
 10
2372.5333333333
 20
1247.3
 30
0.0
  0
ENDBLK
  5
568
330
566
100
AcDbEntity
  8
0
100
AcDbBlockEnd
  0
BLOCK
  5
574
330
573
100
AcDbEntity
  8
0
100
AcDbBlockBegin
  2
*D41
 70
     1
 10
0.0
 20
0.0
 30
0.0
  3
*D41
  1

  0
LINE
  5
576
330
573
100
AcDbEntity
  8
LAY-20
  6
CONTINUOUS
 62
     4
100
AcDbLine
 10
1275.0
 20
813.0000000000001
 30
0.0
 11
1327.1
 21
813.0000000000001
 31
0.0
  0
LINE
  5
577
330
573
100
AcDbEntity
  8
LAY-20
  6
CONTINUOUS
 62
     4
100
AcDbLine
 10
1312.1
 20
813.0000000000001
 30
0.0
 11
1312.1
 21
848.0000000000001
 31
0.0
  0
LINE
  5
578
330
573
100
AcDbEntity
  8
LAY-20
  6
CONTINUOUS
 62
     4
100
AcDbLine
 10
1312.1
 20
788.0000000000001
 30
0.0
 11
1312.1
 21
763.0000000000001
 31
0.0
  0
LINE
  5
579
330
573
100
AcDbEntity
  8
LAY-20
  6
CONTINUOUS
 62
     4
100
AcDbLine
 10
1312.1
 20
873.0000000000001
 30
0.0
 11
1312.1
 21
898.0000000000001
 31
0.0
  0
INSERT
  5
57A
330
573
100
AcDbEntity
  8
LAY-20
 62
     4
100
AcDbBlockReference
  2
EX_BNORM
 10
1312.1
 20
813.0000000000001
 30
0.0
 41
25.0
 42
25.0
 43
25.0
 50
90.0
  0
INSERT
  5
57B
330
573
100
AcDbEntity
  8
LAY-20
 62
     4
100
AcDbBlockReference
  2
EX_BNORM
 10
1312.1
 20
848.0000000000001
 30
0.0
 41
25.0
 42
25.0
 43
25.0
 50
270.0
  0
MTEXT
  5
57C
330
573
100
AcDbEntity
  8
LAY-20
 62
     7
100
AcDbMText
 10
1287.1
 20
907.9999999999997
 30
0.0
 40
31.181104
 41
0.0
 71
     5
 72
     1
  1
35
  7
EXCADDIM1
 11
0.0
 21
1.0
 31
0.0
  0
POINT
  5
57D
330
573
100
AcDbEntity
  8
DEFPOINTS
 62
     0
100
AcDbPoint
 10
1260.0
 20
813.0000000000001
 30
0.0
  0
POINT
  5
57E
330
573
100
AcDbEntity
  8
DEFPOINTS
 62
     0
100
AcDbPoint
 10
1312.1
 20
848.0000000000001
 30
0.0
  0
POINT
  5
57F
330
573
100
AcDbEntity
  8
DEFPOINTS
 62
     0
100
AcDbPoint
 10
1312.1
 20
848.0000000000001
 30
0.0
  0
ENDBLK
  5
575
330
573
100
AcDbEntity
  8
0
100
AcDbBlockEnd
  0
BLOCK
  5
582
330
581
100
AcDbEntity
  8
0
100
AcDbBlockBegin
  2
*D42
 70
     1
 10
0.0
 20
0.0
 30
0.0
  3
*D42
  1

  0
LINE
  5
584
330
581
100
AcDbEntity
  8
LAY-20
  6
CONTINUOUS
 62
     4
100
AcDbLine
 10
1711.2
 20
736.0
 30
0.0
 11
1711.2
 21
533.00000000001
 31
0.0
  0
LINE
  5
585
330
581
100
AcDbEntity
  8
LAY-20
  6
CONTINUOUS
 62
     4
100
AcDbLine
 10
618.80000000005
 20
736.0
 30
0.0
 11
618.80000000005
 21
533.00000000001
 31
0.0
  0
LINE
  5
586
330
581
100
AcDbEntity
  8
LAY-20
  6
CONTINUOUS
 62
     4
100
AcDbLine
 10
1686.2
 20
548.00000000001
 30
0.0
 11
643.80000000005
 21
548.00000000001
 31
0.0
  0
INSERT
  5
587
330
581
100
AcDbEntity
  8
LAY-20
 62
     4
100
AcDbBlockReference
  2
EX_BNORM
 10
1711.2
 20
548.00000000001
 30
0.0
 41
25.0
 42
25.0
 43
25.0
  0
INSERT
  5
588
330
581
100
AcDbEntity
  8
LAY-20
 62
     4
100
AcDbBlockReference
  2
EX_BNORM
 10
618.80000000005
 20
548.00000000001
 30
0.0
 41
25.0
 42
25.0
 43
25.0
 50
180.0
  0
MTEXT
  5
589
330
581
100
AcDbEntity
  8
LAY-20
 62
     7
100
AcDbMText
 10
1165.000000000025
 20
573.00000000001
 30
0.0
 40
31.181104
 41
0.0
 71
     5
 72
     1
  1
1092
  7
EXCADDIM1
  0
POINT
  5
58A
330
581
100
AcDbEntity
  8
DEFPOINTS
 62
     0
100
AcDbPoint
 10
1711.2
 20
751.0
 30
0.0
  0
POINT
  5
58B
330
581
100
AcDbEntity
  8
DEFPOINTS
 62
     0
100
AcDbPoint
 10
618.80000000005
 20
751.0
 30
0.0
  0
POINT
  5
58C
330
581
100
AcDbEntity
  8
DEFPOINTS
 62
     0
100
AcDbPoint
 10
618.80000000005
 20
548.00000000001
 30
0.0
  0
ENDBLK
  5
583
330
581
100
AcDbEntity
  8
0
100
AcDbBlockEnd
  0
ENDSEC
  0
SECTION
  2
ENTITIES
  0
INSERT
  5
274
330
1F
100
AcDbEntity
  8
LAY-10
  6
CONTINUOUS
 62
     0
100
AcDbBlockReference
  2
SYM-1
 10
0.0
 20
0.0
 30
0.0
  0
INSERT
  5
275
330
1F
100
AcDbEntity
  8
LAY-10
  6
CONTINUOUS
 62
     0
100
AcDbBlockReference
  2
SYM-2
 10
0.0
 20
0.0
 30
0.0
  0
INSERT
  5
276
330
1F
100
AcDbEntity
  8
LAY-10
  6
CONTINUOUS
 62
     0
100
AcDbBlockReference
  2
SYM-3
 10
0.0
 20
0.0
 30
0.0
  0
INSERT
  5
277
330
1F
100
AcDbEntity
  8
LAY-10
  6
CONTINUOUS
 62
     0
100
AcDbBlockReference
  2
SYM-4
 10
0.0
 20
0.0
 30
0.0
  0
INSERT
  5
278
330
1F
100
AcDbEntity
  8
LAY-10
  6
CONTINUOUS
 62
     0
100
AcDbBlockReference
  2
SYM-5
 10
0.0
 20
0.0
 30
0.0
  0
INSERT
  5
279
330
1F
100
AcDbEntity
  8
LAY-10
  6
CONTINUOUS
 62
     0
100
AcDbBlockReference
  2
SYM-6
 10
0.0
 20
0.0
 30
0.0
  0
INSERT
  5
27A
330
1F
100
AcDbEntity
  8
LAY-10
  6
CONTINUOUS
 62
     0
100
AcDbBlockReference
  2
SYM-7
 10
0.0
 20
0.0
 30
0.0
  0
INSERT
  5
27B
330
1F
100
AcDbEntity
  8
LAY-10
  6
CONTINUOUS
 62
     0
100
AcDbBlockReference
  2
SYM-8
 10
0.0
 20
0.0
 30
0.0
  0
INSERT
  5
27C
330
1F
100
AcDbEntity
  8
LAY-10
  6
CONTINUOUS
 62
     0
100
AcDbBlockReference
  2
SYM-9
 10
0.0
 20
0.0
 30
0.0
  0
INSERT
  5
27D
330
1F
100
AcDbEntity
  8
LAY-10
  6
CONTINUOUS
 62
     0
100
AcDbBlockReference
  2
SYM-10
 10
0.0
 20
0.0
 30
0.0
  0
INSERT
  5
27E
330
1F
100
AcDbEntity
  8
LAY-10
  6
CONTINUOUS
 62
     0
100
AcDbBlockReference
  2
SYM-11
 10
0.0
 20
0.0
 30
0.0
  0
INSERT
  5
27F
330
1F
100
AcDbEntity
  8
LAY-10
  6
CONTINUOUS
 62
     0
100
AcDbBlockReference
  2
SYM-12
 10
0.0
 20
0.0
 30
0.0
  0
INSERT
  5
280
330
1F
100
AcDbEntity
  8
LAY-10
  6
CONTINUOUS
 62
     0
100
AcDbBlockReference
  2
SYM-13
 10
0.0
 20
0.0
 30
0.0
  0
INSERT
  5
281
330
1F
100
AcDbEntity
  8
LAY-10
  6
CONTINUOUS
 62
     0
100
AcDbBlockReference
  2
SYM-14
 10
0.0
 20
0.0
 30
0.0
  0
INSERT
  5
282
330
1F
100
AcDbEntity
  8
LAY-10
  6
CONTINUOUS
 62
     0
100
AcDbBlockReference
  2
SYM-15
 10
0.0
 20
0.0
 30
0.0
  0
INSERT
  5
283
330
1F
100
AcDbEntity
  8
LAY-10
  6
CONTINUOUS
 62
     0
100
AcDbBlockReference
  2
SYM-16
 10
0.0
 20
0.0
 30
0.0
  0
INSERT
  5
284
330
1F
100
AcDbEntity
  8
LAY-10
  6
CONTINUOUS
 62
     0
100
AcDbBlockReference
  2
SYM-17
 10
0.0
 20
0.0
 30
0.0
  0
INSERT
  5
285
330
1F
100
AcDbEntity
  8
LAY-10
  6
CONTINUOUS
 62
     0
100
AcDbBlockReference
  2
SYM-18
 10
0.0
 20
0.0
 30
0.0
  0
LINE
  5
286
330
1F
100
AcDbEntity
  8
LAY-10
  6
HIDDEN
 62
     7
100
AcDbLine
 10
1049.500000000041
 20
1251.300000000045
 30
0.0
 11
1049.500000000041
 21
1287.300000000045
 31
0.0
  0
LINE
  5
287
330
1F
100
AcDbEntity
  8
LAY-10
  6
HIDDEN
 62
     7
100
AcDbLine
 10
1049.500000000041
 20
1251.300000000045
 30
0.0
 11
1080.500000000039
 21
1251.300000000045
 31
0.0
  0
LINE
  5
288
330
1F
100
AcDbEntity
  8
LAY-10
  6
HIDDEN
 62
     7
100
AcDbLine
 10
1080.500000000039
 20
1251.300000000045
 30
0.0
 11
1080.50000000004
 21
1287.408633541085
 31
0.0
  0
LINE
  5
289
330
1F
100
AcDbEntity
  8
LAY-10
  6
HIDDEN
 62
     7
100
AcDbLine
 10
1033.80000000004
 20
1287.408633541085
 30
0.0
 11
1091.80000000004
 21
1287.408633541085
 31
0.0
  0
LINE
  5
28A
330
1F
100
AcDbEntity
  8
LAY-10
  6
CONTINUOUS
 62
     7
100
AcDbLine
 10
610.0000000000505
 20
2422.5
 30
0.0
 11
625.0000000000505
 21
2407.5
 31
0.0
  0
LINE
  5
28B
330
1F
100
AcDbEntity
  8
LAY-10
  6
CONTINUOUS
 62
     7
100
AcDbLine
 10
625.0000000000505
 20
1253.5
 30
0.0
 11
610.0000000000505
 21
1238.5
 31
0.0
  0
LINE
  5
28C
330
1F
100
AcDbEntity
  8
LAY-10
  6
CONTINUOUS
 62
     7
100
AcDbLine
 10
1705.000000000031
 20
2407.5
 30
0.0
 11
1720.000000000032
 21
2422.5
 31
0.0
  0
LINE
  5
28D
330
1F
100
AcDbEntity
  8
LAY-10
  6
CONTINUOUS
 62
     7
100
AcDbLine
 10
1705.000000000031
 20
1253.5
 30
0.0
 11
1720.000000000032
 21
1238.500000000001
 31
0.0
  0
LINE
  5
28E
330
1F
100
AcDbEntity
  8
LAY-10
  6
CONTINUOUS
 62
     7
100
AcDbLine
 10
1705.000000000031
 20
1253.499999999999
 30
0.0
 11
625.0000000000505
 21
1253.5
 31
0.0
  0
LINE
  5
28F
330
1F
100
AcDbEntity
  8
LAY-10
  6
CONTINUOUS
 62
     7
100
AcDbLine
 10
610.0000000000505
 20
1238.5
 30
0.0
 11
1720.000000000032
 21
1238.499999999999
 31
0.0
  0
LINE
  5
290
330
1F
100
AcDbEntity
  8
LAY-10
  6
CONTINUOUS
 62
     7
100
AcDbLine
 10
610.0000000000505
 20
2422.5
 30
0.0
 11
1720.000000000032
 21
2422.5
 31
0.0
  0
LINE
  5
291
330
1F
100
AcDbEntity
  8
LAY-10
  6
CONTINUOUS
 62
     7
100
AcDbLine
 10
625.0000000000505
 20
1253.5
 30
0.0
 11
625.0000000000505
 21
2407.5
 31
0.0
  0
LINE
  5
292
330
1F
100
AcDbEntity
  8
LAY-10
  6
CONTINUOUS
 62
     7
100
AcDbLine
 10
1705.000000000031
 20
2407.5
 30
0.0
 11
1705.000000000031
 21
1253.499999999999
 31
0.0
  0
LINE
  5
293
330
1F
100
AcDbEntity
  8
LAY-10
  6
CONTINUOUS
 62
     7
100
AcDbLine
 10
1720.000000000032
 20
1238.5
 30
0.0
 11
1720.000000000032
 21
2422.5
 31
0.0
  0
LINE
  5
294
330
1F
100
AcDbEntity
  8
LAY-10
  6
CONTINUOUS
 62
     7
100
AcDbLine
 10
610.0000000000505
 20
1238.5
 30
0.0
 11
610.0000000000505
 21
2422.5
 31
0.0
  0
LINE
  5
295
330
1F
100
AcDbEntity
  8
LAY-10
  6
CONTINUOUS
 62
     7
100
AcDbLine
 10
1705.000000000031
 20
2407.5
 30
0.0
 11
625.0000000000505
 21
2407.5
 31
0.0
  0
LINE
  5
296
330
1F
100
AcDbEntity
  8
LAY-10
  6
CONTINUOUS
 62
     7
100
AcDbLine
 10
641.0000000000277
 20
2391.500000000004
 30
0.0
 11
626.0000000000277
 21
2406.500000000002
 31
0.0
  0
LINE
  5
297
330
1F
100
AcDbEntity
  8
LAY-10
  6
CONTINUOUS
 62
     7
100
AcDbLine
 10
641.0000000000277
 20
1269.5
 30
0.0
 11
626.0000000000277
 21
1254.5
 31
0.0
  0
LINE
  5
298
330
1F
100
AcDbEntity
  8
LAY-10
  6
CONTINUOUS
 62
     7
100
AcDbLine
 10
641.0000000000277
 20
2391.500000000004
 30
0.0
 11
641.0000000000277
 21
1269.5
 31
0.0
  0
LINE
  5
299
330
1F
100
AcDbEntity
  8
LAY-10
  6
CONTINUOUS
 62
     7
100
AcDbLine
 10
626.0000000000277
 20
1254.5
 30
0.0
 11
626.0000000000277
 21
2406.500000000002
 31
0.0
  0
LINE
  5
29A
330
1F
100
AcDbEntity
  8
LAY-10
  6
CONTINUOUS
 62
     7
100
AcDbLine
 10
984.0000000000273
 20
2406.500000000002
 30
0.0
 11
969.0000000000282
 21
2391.500000000004
 31
0.0
  0
LINE
  5
29B
330
1F
100
AcDbEntity
  8
LAY-10
  6
CONTINUOUS
 62
     7
100
AcDbLine
 10
821.0000000000292
 20
1269.500000000001
 30
0.0
 11
821.0000000000292
 21
1301.5
 31
0.0
  0
LINE
  5
29C
330
1F
100
AcDbEntity
  8
LAY-10
  6
CONTINUOUS
 62
     7
100
AcDbLine
 10
789.000000000031
 20
1269.500000000001
 30
0.0
 11
789.000000000031
 21
1301.5
 31
0.0
  0
LINE
  5
29D
330
1F
100
AcDbEntity
  8
LAY-10
  6
CONTINUOUS
 62
     7
100
AcDbLine
 10
789.00000000003
 20
1301.5
 30
0.0
 11
821.00000000003
 21
1301.5
 31
0.0
  0
LINE
  5
29E
330
1F
100
AcDbEntity
  8
LAY-10
  6
CONTINUOUS
 62
     7
100
AcDbLine
 10
821.0000000000292
 20
2359.500000000001
 30
0.0
 11
821.0000000000292
 21
2391.5
 31
0.0
  0
LINE
  5
29F
330
1F
100
AcDbEntity
  8
LAY-10
  6
CONTINUOUS
 62
     7
100
AcDbLine
 10
789.000000000031
 20
2359.500000000001
 30
0.0
 11
789.000000000031
 21
2391.5
 31
0.0
  0
LINE
  5
2A0
330
1F
100
AcDbEntity
  8
LAY-10
  6
CONTINUOUS
 62
     7
100
AcDbLine
 10
821.00000000003
 20
2359.500000000001
 30
0.0
 11
789.00000000003
 21
2359.500000000001
 31
0.0
  0
LINE
  5
2A1
330
1F
100
AcDbEntity
  8
LAY-10
  6
CONTINUOUS
 62
     7
100
AcDbLine
 10
815.50000000003
 20
1289.499999999999
 30
0.0
 11
817.1063000128333
 21
1289.499999999999
 31
0.0
  0
LINE
  5
2A2
330
1F
100
AcDbEntity
  8
LAY-10
  6
CONTINUOUS
 62
     7
100
AcDbLine
 10
815.50000000003
 20
1281.500000000001
 30
0.0
 11
817.1063000128333
 21
1281.500000000001
 31
0.0
  0
LINE
  5
2A3
330
1F
100
AcDbEntity
  8
LAY-10
  6
CONTINUOUS
 62
     7
100
AcDbLine
 10
815.50000000003
 20
1281.500000000001
 30
0.0
 11
815.50000000003
 21
1289.499999999999
 31
0.0
  0
LINE
  5
2A4
330
1F
100
AcDbEntity
  8
LAY-10
  6
CONTINUOUS
 62
     7
100
AcDbLine
 10
805.0000000000301
 20
1292.0
 30
0.0
 11
809.00000000003
 21
1285.5
 31
0.0
  0
LINE
  5
2A5
330
1F
100
AcDbEntity
  8
LAY-10
  6
CONTINUOUS
 62
     7
100
AcDbLine
 10
809.00000000003
 20
1285.5
 30
0.0
 11
805.0000000000301
 21
1279.0
 31
0.0
  0
LINE
  5
2A6
330
1F
100
AcDbEntity
  8
LAY-10
  6
CONTINUOUS
 62
     7
100
AcDbLine
 10
805.0000000000301
 20
1279.0
 30
0.0
 11
801.00000000003
 21
1285.5
 31
0.0
  0
LINE
  5
2A7
330
1F
100
AcDbEntity
  8
LAY-10
  6
CONTINUOUS
 62
     7
100
AcDbLine
 10
801.00000000003
 20
1285.5
 30
0.0
 11
805.0000000000301
 21
1292.0
 31
0.0
  0
LINE
  5
2A8
330
1F
100
AcDbEntity
  8
LAY-10
  6
CONTINUOUS
 62
     7
100
AcDbLine
 10
815.50000000003
 20
2379.499999999999
 30
0.0
 11
817.1063000128333
 21
2379.499999999999
 31
0.0
  0
LINE
  5
2A9
330
1F
100
AcDbEntity
  8
LAY-10
  6
CONTINUOUS
 62
     7
100
AcDbLine
 10
815.50000000003
 20
2371.500000000001
 30
0.0
 11
817.1063000128333
 21
2371.500000000001
 31
0.0
  0
LINE
  5
2AA
330
1F
100
AcDbEntity
  8
LAY-10
  6
CONTINUOUS
 62
     7
100
AcDbLine
 10
815.50000000003
 20
2371.500000000001
 30
0.0
 11
815.50000000003
 21
2379.499999999999
 31
0.0
  0
LINE
  5
2AB
330
1F
100
AcDbEntity
  8
LAY-10
  6
CONTINUOUS
 62
     7
100
AcDbLine
 10
805.0000000000301
 20
2382.0
 30
0.0
 11
809.00000000003
 21
2375.5
 31
0.0
  0
LINE
  5
2AC
330
1F
100
AcDbEntity
  8
LAY-10
  6
CONTINUOUS
 62
     7
100
AcDbLine
 10
809.00000000003
 20
2375.5
 30
0.0
 11
805.0000000000301
 21
2369.0
 31
0.0
  0
LINE
  5
2AD
330
1F
100
AcDbEntity
  8
LAY-10
  6
CONTINUOUS
 62
     7
100
AcDbLine
 10
805.0000000000301
 20
2369.0
 30
0.0
 11
801.00000000003
 21
2375.5
 31
0.0
  0
LINE
  5
2AE
330
1F
100
AcDbEntity
  8
LAY-10
  6
CONTINUOUS
 62
     7
100
AcDbLine
 10
801.00000000003
 20
2375.5
 30
0.0
 11
805.0000000000301
 21
2382.0
 31
0.0
  0
LINE
  5
2AF
330
1F
100
AcDbEntity
  8
LAY-10
  6
CONTINUOUS
 62
     7
100
AcDbLine
 10
626.0000000000277
 20
2406.500000000002
 30
0.0
 11
984.0000000000273
 21
2406.500000000002
 31
0.0
  0
LINE
  5
2B0
330
1F
100
AcDbEntity
  8
LAY-10
  6
CONTINUOUS
 62
     7
100
AcDbLine
 10
641.0000000000277
 20
2391.499999999998
 30
0.0
 11
969.0000000000227
 21
2391.499999999998
 31
0.0
  0
LINE
  5
2B1
330
1F
100
AcDbEntity
  8
LAY-10
  6
CONTINUOUS
 62
     7
100
AcDbLine
 10
710.0000000000185
 20
1269.5
 30
0.0
 11
710.00000000002
 21
2391.500000000004
 31
0.0
  0
LINE
  5
2B2
330
1F
100
AcDbEntity
  8
LAY-10
  6
CONTINUOUS
 62
     7
100
AcDbLine
 10
717.5000000000185
 20
1269.5
 30
0.0
 11
717.50000000002
 21
2391.500000000004
 31
0.0
  0
LINE
  5
2B3
330
1F
100
AcDbEntity
  8
LAY-10
  6
CONTINUOUS
 62
     7
100
AcDbLine
 10
742.5000000000182
 20
1269.5
 30
0.0
 11
742.5000000000208
 21
2391.500000000004
 31
0.0
  0
LINE
  5
2B4
330
1F
100
AcDbEntity
  8
LAY-10
  6
CONTINUOUS
 62
     7
100
AcDbLine
 10
750.0000000000182
 20
1269.5
 30
0.0
 11
750.0000000000208
 21
2391.500000000004
 31
0.0
  0
LINE
  5
2B5
330
1F
100
AcDbEntity
  8
LAY-10
  6
CONTINUOUS
 62
     7
100
AcDbLine
 10
867.50000000004
 20
1269.5
 30
0.0
 11
867.50000000004
 21
2391.500000000004
 31
0.0
  0
LINE
  5
2B6
330
1F
100
AcDbEntity
  8
LAY-10
  6
CONTINUOUS
 62
     7
100
AcDbLine
 10
860.00000000004
 20
1269.5
 30
0.0
 11
860.00000000004
 21
2391.500000000004
 31
0.0
  0
CIRCLE
  5
2B7
330
1F
100
AcDbEntity
  8
LAY-10
  6
CONTINUOUS
 62
     7
100
AcDbCircle
 10
805.0000000000301
 20
1285.5
 30
0.0
 40
12.75000000000001
  0
CIRCLE
  5
2B8
330
1F
100
AcDbEntity
  8
LAY-10
  6
CONTINUOUS
 62
     7
100
AcDbCircle
 10
805.0000000000301
 20
2375.5
 30
0.0
 40
12.75000000000001
  0
LINE
  5
2B9
330
1F
100
AcDbEntity
  8
LAY-10
  6
CONTINUOUS
 62
     7
100
AcDbLine
 10
1001.000000000038
 20
2391.500000000004
 30
0.0
 11
986.0000000000377
 21
2406.500000000002
 31
0.0
  0
LINE
  5
2BA
330
1F
100
AcDbEntity
  8
LAY-10
  6
CONTINUOUS
 62
     7
100
AcDbLine
 10
1181.000000000039
 20
2359.500000000001
 30
0.0
 11
1181.000000000039
 21
2391.5
 31
0.0
  0
LINE
  5
2BB
330
1F
100
AcDbEntity
  8
LAY-10
  6
CONTINUOUS
 62
     7
100
AcDbLine
 10
1149.000000000041
 20
2359.500000000001
 30
0.0
 11
1149.000000000041
 21
2391.5
 31
0.0
  0
LINE
  5
2BC
330
1F
100
AcDbEntity
  8
LAY-10
  6
CONTINUOUS
 62
     7
100
AcDbLine
 10
1181.00000000004
 20
2359.500000000001
 30
0.0
 11
1149.00000000004
 21
2359.500000000001
 31
0.0
  0
LINE
  5
2BD
330
1F
100
AcDbEntity
  8
LAY-10
  6
CONTINUOUS
 62
     7
100
AcDbLine
 10
1175.50000000004
 20
2379.499999999999
 30
0.0
 11
1177.106300012843
 21
2379.499999999999
 31
0.0
  0
LINE
  5
2BE
330
1F
100
AcDbEntity
  8
LAY-10
  6
CONTINUOUS
 62
     7
100
AcDbLine
 10
1175.50000000004
 20
2371.500000000001
 30
0.0
 11
1177.106300012843
 21
2371.500000000001
 31
0.0
  0
LINE
  5
2BF
330
1F
100
AcDbEntity
  8
LAY-10
  6
CONTINUOUS
 62
     7
100
AcDbLine
 10
1175.50000000004
 20
2371.500000000001
 30
0.0
 11
1175.50000000004
 21
2379.499999999999
 31
0.0
  0
LINE
  5
2C0
330
1F
100
AcDbEntity
  8
LAY-10
  6
CONTINUOUS
 62
     7
100
AcDbLine
 10
1165.00000000004
 20
2382.0
 30
0.0
 11
1169.00000000004
 21
2375.5
 31
0.0
  0
LINE
  5
2C1
330
1F
100
AcDbEntity
  8
LAY-10
  6
CONTINUOUS
 62
     7
100
AcDbLine
 10
1169.00000000004
 20
2375.5
 30
0.0
 11
1165.00000000004
 21
2369.0
 31
0.0
  0
LINE
  5
2C2
330
1F
100
AcDbEntity
  8
LAY-10
  6
CONTINUOUS
 62
     7
100
AcDbLine
 10
1165.00000000004
 20
2369.0
 30
0.0
 11
1161.00000000004
 21
2375.5
 31
0.0
  0
LINE
  5
2C3
330
1F
100
AcDbEntity
  8
LAY-10
  6
CONTINUOUS
 62
     7
100
AcDbLine
 10
1161.00000000004
 20
2375.5
 30
0.0
 11
1165.00000000004
 21
2382.0
 31
0.0
  0
CIRCLE
  5
2C4
330
1F
100
AcDbEntity
  8
LAY-10
  6
CONTINUOUS
 62
     7
100
AcDbCircle
 10
1165.00000000004
 20
2375.5
 30
0.0
 40
12.75000000000001
  0
LINE
  5
2C5
330
1F
100
AcDbEntity
  8
LAY-10
  6
CONTINUOUS
 62
     7
100
AcDbLine
 10
1702.00000000002
 20
1293.5
 30
0.0
 11
1702.00000000002
 21
2367.5
 31
0.0
  0
LINE
  5
2C6
330
1F
100
AcDbEntity
  8
LAY-10
  6
CONTINUOUS
 62
     7
100
AcDbLine
 10
919.5000000000296
 20
2422.499999999999
 30
0.0
 11
919.5000000000296
 21
2451.398484809836
 31
0.0
  0
LINE
  5
2C7
330
1F
100
AcDbEntity
  8
LAY-10
  6
CONTINUOUS
 62
     7
100
AcDbLine
 10
910.5000000000286
 20
2422.499999999999
 30
0.0
 11
910.5000000000286
 21
2451.398484809836
 31
0.0
  0
LINE
  5
2C8
330
1F
100
AcDbEntity
  8
LAY-10
  6
CONTINUOUS
 62
     7
100
AcDbLine
 10
919.5000000000296
 20
2451.398484809836
 30
0.0
 11
910.5000000000286
 21
2451.398484809836
 31
0.0
  0
LINE
  5
2C9
330
1F
100
AcDbEntity
  8
LAY-10
  6
CONTINUOUS
 62
     7
100
AcDbLine
 10
1410.50000000003
 20
2422.499999999999
 30
0.0
 11
1410.50000000003
 21
2451.398484809836
 31
0.0
  0
LINE
  5
2CA
330
1F
100
AcDbEntity
  8
LAY-10
  6
CONTINUOUS
 62
     7
100
AcDbLine
 10
1419.50000000003
 20
2422.499999999999
 30
0.0
 11
1419.50000000003
 21
2451.398484809836
 31
0.0
  0
LINE
  5
2CB
330
1F
100
AcDbEntity
  8
LAY-10
  6
CONTINUOUS
 62
     7
100
AcDbLine
 10
1410.50000000003
 20
2451.398484809836
 30
0.0
 11
1419.50000000003
 21
2451.398484809836
 31
0.0
  0
LINE
  5
2CC
330
1F
100
AcDbEntity
  8
LAY-10
  6
CONTINUOUS
 62
     7
100
AcDbLine
 10
919.5000000000296
 20
1238.500000000002
 30
0.0
 11
919.5000000000296
 21
1209.601515190165
 31
0.0
  0
LINE
  5
2CD
330
1F
100
AcDbEntity
  8
LAY-10
  6
CONTINUOUS
 62
     7
100
AcDbLine
 10
910.5000000000286
 20
1238.500000000002
 30
0.0
 11
910.5000000000286
 21
1209.601515190165
 31
0.0
  0
LINE
  5
2CE
330
1F
100
AcDbEntity
  8
LAY-10
  6
CONTINUOUS
 62
     7
100
AcDbLine
 10
919.5000000000296
 20
1209.601515190165
 30
0.0
 11
910.5000000000286
 21
1209.601515190165
 31
0.0
  0
LINE
  5
2CF
330
1F
100
AcDbEntity
  8
LAY-10
  6
CONTINUOUS
 62
     7
100
AcDbLine
 10
1410.50000000003
 20
1238.500000000002
 30
0.0
 11
1410.50000000003
 21
1209.601515190165
 31
0.0
  0
LINE
  5
2D0
330
1F
100
AcDbEntity
  8
LAY-10
  6
CONTINUOUS
 62
     7
100
AcDbLine
 10
1419.500000000031
 20
1238.500000000002
 30
0.0
 11
1419.50000000003
 21
1209.601515190165
 31
0.0
  0
LINE
  5
2D1
330
1F
100
AcDbEntity
  8
LAY-10
  6
CONTINUOUS
 62
     7
100
AcDbLine
 10
1410.50000000003
 20
1209.601515190165
 30
0.0
 11
1419.50000000003
 21
1209.601515190165
 31
0.0
  0
LINE
  5
2D2
330
1F
100
AcDbEntity
  8
LAY-10
  6
CONTINUOUS
 62
     7
100
AcDbLine
 10
1719.999999999999
 20
2076.0
 30
0.0
 11
1748.898484809836
 21
2076.0
 31
0.0
  0
LINE
  5
2D3
330
1F
100
AcDbEntity
  8
LAY-10
  6
CONTINUOUS
 62
     7
100
AcDbLine
 10
1719.999999999999
 20
2085.000000000001
 30
0.0
 11
1748.898484809836
 21
2085.000000000001
 31
0.0
  0
LINE
  5
2D4
330
1F
100
AcDbEntity
  8
LAY-10
  6
CONTINUOUS
 62
     7
100
AcDbLine
 10
1748.898484809836
 20
2076.0
 30
0.0
 11
1748.898484809836
 21
2085.000000000001
 31
0.0
  0
LINE
  5
2D5
330
1F
100
AcDbEntity
  8
LAY-10
  6
CONTINUOUS
 62
     7
100
AcDbLine
 10
1719.999999999999
 20
1585.0
 30
0.0
 11
1748.898484809836
 21
1585.0
 31
0.0
  0
LINE
  5
2D6
330
1F
100
AcDbEntity
  8
LAY-10
  6
CONTINUOUS
 62
     7
100
AcDbLine
 10
1719.999999999999
 20
1575.999999999999
 30
0.0
 11
1748.898484809836
 21
1576.0
 31
0.0
  0
LINE
  5
2D7
330
1F
100
AcDbEntity
  8
LAY-10
  6
CONTINUOUS
 62
     7
100
AcDbLine
 10
1748.898484809836
 20
1585.0
 30
0.0
 11
1748.898484809836
 21
1576.0
 31
0.0
  0
LINE
  5
2D8
330
1F
100
AcDbEntity
  8
LAY-10
  6
CONTINUOUS
 62
     7
100
AcDbLine
 10
610.0000000000605
 20
2076.0
 30
0.0
 11
581.1015151902234
 21
2076.0
 31
0.0
  0
LINE
  5
2D9
330
1F
100
AcDbEntity
  8
LAY-10
  6
CONTINUOUS
 62
     7
100
AcDbLine
 10
610.0000000000605
 20
2085.000000000001
 30
0.0
 11
581.1015151902234
 21
2085.000000000001
 31
0.0
  0
LINE
  5
2DA
330
1F
100
AcDbEntity
  8
LAY-10
  6
CONTINUOUS
 62
     7
100
AcDbLine
 10
581.1015151902234
 20
2076.0
 30
0.0
 11
581.1015151902234
 21
2085.000000000001
 31
0.0
  0
LINE
  5
2DB
330
1F
100
AcDbEntity
  8
LAY-10
  6
CONTINUOUS
 62
     7
100
AcDbLine
 10
610.0000000000609
 20
1585.0
 30
0.0
 11
581.1015151902238
 21
1585.0
 31
0.0
  0
LINE
  5
2DC
330
1F
100
AcDbEntity
  8
LAY-10
  6
CONTINUOUS
 62
     7
100
AcDbLine
 10
610.0000000000609
 20
1575.999999999999
 30
0.0
 11
581.1015151902238
 21
1575.999999999999
 31
0.0
  0
LINE
  5
2DD
330
1F
100
AcDbEntity
  8
LAY-10
  6
CONTINUOUS
 62
     7
100
AcDbLine
 10
581.1015151902238
 20
1585.0
 30
0.0
 11
581.1015151902238
 21
1575.999999999999
 31
0.0
  0
LINE
  5
2DE
330
1F
100
AcDbEntity
  8
LAY-10
  6
CONTINUOUS
 62
     7
100
AcDbLine
 10
1563.999999999997
 20
2149.000000000045
 30
0.0
 11
1525.999999999997
 21
2149.000000000046
 31
0.0
  0
LINE
  5
2DF
330
1F
100
AcDbEntity
  8
LAY-10
  6
CONTINUOUS
 62
     7
100
AcDbLine
 10
1553.999999999997
 20
2174.000000000047
 30
0.0
 11
1553.999999999997
 21
2154.000000000046
 31
0.0
  0
LINE
  5
2E0
330
1F
100
AcDbEntity
  8
LAY-10
  6
CONTINUOUS
 62
     7
100
AcDbLine
 10
1579.699999999998
 20
2174.000000000047
 30
0.0
 11
1553.999999999997
 21
2174.000000000047
 31
0.0
  0
LINE
  5
2E1
330
1F
100
AcDbEntity
  8
LAY-10
  6
CONTINUOUS
 62
     7
100
AcDbLine
 10
1563.999999999997
 20
2184.000000000045
 30
0.0
 11
1563.999999999997
 21
2174.000000000047
 31
0.0
  0
LINE
  5
2E2
330
1F
100
AcDbEntity
  8
LAY-10
  6
CONTINUOUS
 62
     7
100
AcDbLine
 10
1579.699999999998
 20
2174.000000000047
 30
0.0
 11
1579.699999999998
 21
2154.000000000046
 31
0.0
  0
LINE
  5
2E3
330
1F
100
AcDbEntity
  8
LAY-10
  6
CONTINUOUS
 62
     7
100
AcDbLine
 10
1579.699999999998
 20
2154.000000000046
 30
0.0
 11
1553.999999999997
 21
2154.000000000046
 31
0.0
  0
LINE
  5
2E4
330
1F
100
AcDbEntity
  8
LAY-10
  6
CONTINUOUS
 62
     7
100
AcDbLine
 10
1569.999999999997
 20
2149.000000000045
 30
0.0
 11
1569.999999999997
 21
2154.000000000046
 31
0.0
  0
ARC
  5
2E5
330
1F
100
AcDbEntity
  8
LAY-10
  6
CONTINUOUS
 62
     7
100
AcDbCircle
 10
1563.999999999997
 20
2149.000000000045
 30
0.0
 40
6.000000000000005
100
AcDbArc
 50
270.0000000000002
 51
0.0
  0
LINE
  5
2E6
330
1F
100
AcDbEntity
  8
LAY-10
  6
CONTINUOUS
 62
     7
100
AcDbLine
 10
1563.999999999997
 20
2143.000000000048
 30
0.0
 11
1525.999999999997
 21
2143.000000000048
 31
0.0
  0
ARC
  5
2E7
330
1F
100
AcDbEntity
  8
LAY-10
  6
CONTINUOUS
 62
     7
100
AcDbCircle
 10
1525.999999999997
 20
2143.000000000048
 30
0.0
 40
6.000000000000005
100
AcDbArc
 50
90.00000000000001
 51
180.0
  0
LINE
  5
2E8
330
1F
100
AcDbEntity
  8
LAY-10
  6
CONTINUOUS
 62
     7
100
AcDbLine
 10
1563.999999999997
 20
2055.000000000045
 30
0.0
 11
1525.999999999997
 21
2055.000000000046
 31
0.0
  0
LINE
  5
2E9
330
1F
100
AcDbEntity
  8
LAY-10
  6
CONTINUOUS
 62
     7
100
AcDbLine
 10
1563.999999999997
 20
2049.000000000045
 30
0.0
 11
1525.999999999997
 21
2049.000000000046
 31
0.0
  0
ARC
  5
2EA
330
1F
100
AcDbEntity
  8
LAY-10
  6
CONTINUOUS
 62
     7
100
AcDbCircle
 10
1525.999999999997
 20
2055.000000000046
 30
0.0
 40
6.000000000000005
100
AcDbArc
 50
180.0
 51
270.0000000000002
  0
ARC
  5
2EB
330
1F
100
AcDbEntity
  8
LAY-10
  6
CONTINUOUS
 62
     7
100
AcDbCircle
 10
1563.999999999997
 20
2049.000000000045
 30
0.0
 40
6.000000000000005
100
AcDbArc
 50
0.0
 51
90.00000000000001
  0
LINE
  5
2EC
330
1F
100
AcDbEntity
  8
LAY-10
  6
CONTINUOUS
 62
     7
100
AcDbLine
 10
1563.999999999997
 20
2014.000000000046
 30
0.0
 11
1563.999999999997
 21
2024.000000000045
 31
0.0
  0
LINE
  5
2ED
330
1F
100
AcDbEntity
  8
LAY-10
  6
CONTINUOUS
 62
     7
100
AcDbLine
 10
1569.999999999997
 20
2049.000000000045
 30
0.0
 11
1569.999999999997
 21
2044.000000000046
 31
0.0
  0
LINE
  5
2EE
330
1F
100
AcDbEntity
  8
LAY-10
  6
CONTINUOUS
 62
     7
100
AcDbLine
 10
1579.699999999998
 20
2044.000000000046
 30
0.0
 11
1553.999999999997
 21
2044.000000000046
 31
0.0
  0
LINE
  5
2EF
330
1F
100
AcDbEntity
  8
LAY-10
  6
CONTINUOUS
 62
     7
100
AcDbLine
 10
1553.999999999997
 20
2024.000000000045
 30
0.0
 11
1553.999999999997
 21
2044.000000000046
 31
0.0
  0
LINE
  5
2F0
330
1F
100
AcDbEntity
  8
LAY-10
  6
CONTINUOUS
 62
     7
100
AcDbLine
 10
1579.699999999998
 20
2024.000000000045
 30
0.0
 11
1553.999999999997
 21
2024.000000000045
 31
0.0
  0
LINE
  5
2F1
330
1F
100
AcDbEntity
  8
LAY-10
  6
CONTINUOUS
 62
     7
100
AcDbLine
 10
1569.999999999997
 20
2014.000000000046
 30
0.0
 11
1563.999999999997
 21
2014.000000000046
 31
0.0
  0
LINE
  5
2F2
330
1F
100
AcDbEntity
  8
LAY-10
  6
CONTINUOUS
 62
     7
100
AcDbLine
 10
1570.999999999997
 20
2044.000000000046
 30
0.0
 11
1570.999999999997
 21
2024.000000000045
 31
0.0
  0
LINE
  5
2F3
330
1F
100
AcDbEntity
  8
LAY-10
  6
CONTINUOUS
 62
     7
100
AcDbLine
 10
1570.999999999997
 20
2154.000000000046
 30
0.0
 11
1570.999999999997
 21
2174.000000000047
 31
0.0
  0
LINE
  5
2F4
330
1F
100
AcDbEntity
  8
LAY-10
  6
CONTINUOUS
 62
     7
100
AcDbLine
 10
1562.999999999996
 20
2174.000000000047
 30
0.0
 11
1562.999999999996
 21
2154.000000000046
 31
0.0
  0
LINE
  5
2F5
330
1F
100
AcDbEntity
  8
LAY-10
  6
CONTINUOUS
 62
     7
100
AcDbLine
 10
1562.999999999996
 20
2044.000000000046
 30
0.0
 11
1562.999999999996
 21
2024.000000000045
 31
0.0
  0
LINE
  5
2F6
330
1F
100
AcDbEntity
  8
LAY-10
  6
CONTINUOUS
 62
     7
100
AcDbLine
 10
1579.699999999998
 20
2044.000000000046
 30
0.0
 11
1579.699999999998
 21
2024.000000000045
 31
0.0
  0
LINE
  5
2F7
330
1F
100
AcDbEntity
  8
LAY-10
  6
CONTINUOUS
 62
     7
100
AcDbLine
 10
1563.999999999997
 20
2154.000000000046
 30
0.0
 11
1563.999999999997
 21
2149.000000000045
 31
0.0
  0
LINE
  5
2F8
330
1F
100
AcDbEntity
  8
LAY-10
  6
CONTINUOUS
 62
     7
100
AcDbLine
 10
1569.999999999997
 20
2174.000000000047
 30
0.0
 11
1569.999999999997
 21
2184.000000000045
 31
0.0
  0
LINE
  5
2F9
330
1F
100
AcDbEntity
  8
LAY-10
  6
CONTINUOUS
 62
     7
100
AcDbLine
 10
1563.999999999997
 20
2044.000000000046
 30
0.0
 11
1563.999999999997
 21
2049.000000000045
 31
0.0
  0
LINE
  5
2FA
330
1F
100
AcDbEntity
  8
LAY-10
  6
CONTINUOUS
 62
     7
100
AcDbLine
 10
1519.999999999999
 20
2055.0
 30
0.0
 11
1519.999999999999
 21
2143.000000000048
 31
0.0
  0
LINE
  5
2FB
330
1F
100
AcDbEntity
  8
LAY-10
  6
CONTINUOUS
 62
     7
100
AcDbLine
 10
1525.999999999997
 20
2055.0
 30
0.0
 11
1525.999999999997
 21
2143.000000000048
 31
0.0
  0
LINE
  5
2FC
330
1F
100
AcDbEntity
  8
LAY-10
  6
CONTINUOUS
 62
     7
100
AcDbLine
 10
1563.999999999997
 20
1511.999999999956
 30
0.0
 11
1525.999999999997
 21
1511.999999999955
 31
0.0
  0
LINE
  5
2FD
330
1F
100
AcDbEntity
  8
LAY-10
  6
CONTINUOUS
 62
     7
100
AcDbLine
 10
1553.999999999997
 20
1486.999999999953
 30
0.0
 11
1553.999999999997
 21
1506.999999999955
 31
0.0
  0
LINE
  5
2FE
330
1F
100
AcDbEntity
  8
LAY-10
  6
CONTINUOUS
 62
     7
100
AcDbLine
 10
1579.699999999998
 20
1486.999999999953
 30
0.0
 11
1553.999999999997
 21
1486.999999999953
 31
0.0
  0
LINE
  5
2FF
330
1F
100
AcDbEntity
  8
LAY-10
  6
CONTINUOUS
 62
     7
100
AcDbLine
 10
1563.999999999997
 20
1476.999999999956
 30
0.0
 11
1563.999999999997
 21
1486.999999999953
 31
0.0
  0
LINE
  5
300
330
1F
100
AcDbEntity
  8
LAY-10
  6
CONTINUOUS
 62
     7
100
AcDbLine
 10
1579.699999999998
 20
1486.999999999953
 30
0.0
 11
1579.699999999998
 21
1506.999999999955
 31
0.0
  0
LINE
  5
301
330
1F
100
AcDbEntity
  8
LAY-10
  6
CONTINUOUS
 62
     7
100
AcDbLine
 10
1579.699999999998
 20
1506.999999999955
 30
0.0
 11
1553.999999999997
 21
1506.999999999955
 31
0.0
  0
LINE
  5
302
330
1F
100
AcDbEntity
  8
LAY-10
  6
CONTINUOUS
 62
     7
100
AcDbLine
 10
1569.999999999997
 20
1511.999999999956
 30
0.0
 11
1569.999999999997
 21
1506.999999999955
 31
0.0
  0
ARC
  5
303
330
1F
100
AcDbEntity
  8
LAY-10
  6
CONTINUOUS
 62
     7
100
AcDbCircle
 10
1563.999999999997
 20
1511.999999999956
 30
0.0
 40
6.000000000000005
100
AcDbArc
 50
0.0
 51
90.00000000000001
  0
LINE
  5
304
330
1F
100
AcDbEntity
  8
LAY-10
  6
CONTINUOUS
 62
     7
100
AcDbLine
 10
1563.999999999997
 20
1517.999999999952
 30
0.0
 11
1525.999999999997
 21
1517.999999999952
 31
0.0
  0
ARC
  5
305
330
1F
100
AcDbEntity
  8
LAY-10
  6
CONTINUOUS
 62
     7
100
AcDbCircle
 10
1525.999999999997
 20
1517.999999999952
 30
0.0
 40
6.000000000000005
100
AcDbArc
 50
180.0
 51
270.0000000000002
  0
LINE
  5
306
330
1F
100
AcDbEntity
  8
LAY-10
  6
CONTINUOUS
 62
     7
100
AcDbLine
 10
1563.999999999997
 20
1605.999999999956
 30
0.0
 11
1525.999999999997
 21
1605.999999999955
 31
0.0
  0
LINE
  5
307
330
1F
100
AcDbEntity
  8
LAY-10
  6
CONTINUOUS
 62
     7
100
AcDbLine
 10
1563.999999999997
 20
1611.999999999956
 30
0.0
 11
1525.999999999997
 21
1611.999999999955
 31
0.0
  0
ARC
  5
308
330
1F
100
AcDbEntity
  8
LAY-10
  6
CONTINUOUS
 62
     7
100
AcDbCircle
 10
1525.999999999997
 20
1605.999999999955
 30
0.0
 40
6.000000000000005
100
AcDbArc
 50
90.00000000000001
 51
180.0
  0
ARC
  5
309
330
1F
100
AcDbEntity
  8
LAY-10
  6
CONTINUOUS
 62
     7
100
AcDbCircle
 10
1563.999999999997
 20
1611.999999999956
 30
0.0
 40
6.000000000000005
100
AcDbArc
 50
270.0000000000002
 51
0.0
  0
LINE
  5
30A
330
1F
100
AcDbEntity
  8
LAY-10
  6
CONTINUOUS
 62
     7
100
AcDbLine
 10
1563.999999999997
 20
1646.999999999955
 30
0.0
 11
1563.999999999997
 21
1636.999999999955
 31
0.0
  0
LINE
  5
30B
330
1F
100
AcDbEntity
  8
LAY-10
  6
CONTINUOUS
 62
     7
100
AcDbLine
 10
1569.999999999997
 20
1611.999999999956
 30
0.0
 11
1569.999999999997
 21
1616.999999999955
 31
0.0
  0
LINE
  5
30C
330
1F
100
AcDbEntity
  8
LAY-10
  6
CONTINUOUS
 62
     7
100
AcDbLine
 10
1579.699999999998
 20
1616.999999999955
 30
0.0
 11
1553.999999999997
 21
1616.999999999955
 31
0.0
  0
LINE
  5
30D
330
1F
100
AcDbEntity
  8
LAY-10
  6
CONTINUOUS
 62
     7
100
AcDbLine
 10
1553.999999999997
 20
1636.999999999955
 30
0.0
 11
1553.999999999997
 21
1616.999999999955
 31
0.0
  0
LINE
  5
30E
330
1F
100
AcDbEntity
  8
LAY-10
  6
CONTINUOUS
 62
     7
100
AcDbLine
 10
1579.699999999998
 20
1636.999999999955
 30
0.0
 11
1553.999999999997
 21
1636.999999999955
 31
0.0
  0
LINE
  5
30F
330
1F
100
AcDbEntity
  8
LAY-10
  6
CONTINUOUS
 62
     7
100
AcDbLine
 10
1569.999999999997
 20
1646.999999999955
 30
0.0
 11
1563.999999999997
 21
1646.999999999955
 31
0.0
  0
LINE
  5
310
330
1F
100
AcDbEntity
  8
LAY-10
  6
CONTINUOUS
 62
     7
100
AcDbLine
 10
1570.999999999997
 20
1616.999999999955
 30
0.0
 11
1570.999999999997
 21
1636.999999999955
 31
0.0
  0
LINE
  5
311
330
1F
100
AcDbEntity
  8
LAY-10
  6
CONTINUOUS
 62
     7
100
AcDbLine
 10
1570.999999999997
 20
1506.999999999955
 30
0.0
 11
1570.999999999997
 21
1486.999999999953
 31
0.0
  0
LINE
  5
312
330
1F
100
AcDbEntity
  8
LAY-10
  6
CONTINUOUS
 62
     7
100
AcDbLine
 10
1562.999999999996
 20
1486.999999999953
 30
0.0
 11
1562.999999999996
 21
1506.999999999955
 31
0.0
  0
LINE
  5
313
330
1F
100
AcDbEntity
  8
LAY-10
  6
CONTINUOUS
 62
     7
100
AcDbLine
 10
1562.999999999996
 20
1616.999999999955
 30
0.0
 11
1562.999999999996
 21
1636.999999999955
 31
0.0
  0
LINE
  5
314
330
1F
100
AcDbEntity
  8
LAY-10
  6
CONTINUOUS
 62
     7
100
AcDbLine
 10
1579.699999999998
 20
1616.999999999955
 30
0.0
 11
1579.699999999998
 21
1636.999999999955
 31
0.0
  0
LINE
  5
315
330
1F
100
AcDbEntity
  8
LAY-10
  6
CONTINUOUS
 62
     7
100
AcDbLine
 10
1563.999999999997
 20
1506.999999999955
 30
0.0
 11
1563.999999999997
 21
1511.999999999956
 31
0.0
  0
LINE
  5
316
330
1F
100
AcDbEntity
  8
LAY-10
  6
CONTINUOUS
 62
     7
100
AcDbLine
 10
1569.999999999997
 20
1486.999999999953
 30
0.0
 11
1569.999999999997
 21
1476.999999999956
 31
0.0
  0
LINE
  5
317
330
1F
100
AcDbEntity
  8
LAY-10
  6
CONTINUOUS
 62
     7
100
AcDbLine
 10
1563.999999999997
 20
1616.999999999955
 30
0.0
 11
1563.999999999997
 21
1611.999999999956
 31
0.0
  0
LINE
  5
318
330
1F
100
AcDbEntity
  8
LAY-10
  6
CONTINUOUS
 62
     7
100
AcDbLine
 10
1519.999999999999
 20
1606.000000000001
 30
0.0
 11
1519.999999999999
 21
1517.999999999952
 31
0.0
  0
LINE
  5
319
330
1F
100
AcDbEntity
  8
LAY-10
  6
CONTINUOUS
 62
     7
100
AcDbLine
 10
1525.999999999997
 20
1606.000000000001
 30
0.0
 11
1525.999999999997
 21
1517.999999999952
 31
0.0
  0
LINE
  5
31A
330
1F
100
AcDbEntity
  8
LAY-10
  6
CONTINUOUS
 62
     7
100
AcDbLine
 10
2107.333333333358
 20
1301.500000000043
 30
0.0
 11
2107.333333333358
 21
2359.499999999984
 31
0.0
  0
LINE
  5
31B
330
1F
100
AcDbEntity
  8
LAY-10
  6
CONTINUOUS
 62
     7
100
AcDbLine
 10
2107.333333333358
 20
1260.700000000051
 30
0.0
 11
2107.333333333358
 21
1269.500000000051
 31
0.0
  0
LINE
  5
31C
330
1F
100
AcDbEntity
  8
LAY-10
  6
CONTINUOUS
 62
     7
100
AcDbLine
 10
2109.333333333358
 20
1301.500000000043
 30
0.0
 11
2109.333333333358
 21
2359.499999999984
 31
0.0
  0
LINE
  5
31D
330
1F
100
AcDbEntity
  8
LAY-10
  6
CONTINUOUS
 62
     7
100
AcDbLine
 10
2109.333333333358
 20
1260.700000000051
 30
0.0
 11
2109.333333333358
 21
1269.500000000051
 31
0.0
  0
LINE
  5
31E
330
1F
100
AcDbEntity
  8
LAY-10
  6
CONTINUOUS
 62
     7
100
AcDbLine
 10
2075.333333333348
 20
1269.500000000051
 30
0.0
 11
2117.333333333369
 21
1269.500000000051
 31
0.0
  0
LINE
  5
31F
330
1F
100
AcDbEntity
  8
LAY-10
  6
CONTINUOUS
 62
     7
100
AcDbLine
 10
2072.333333333346
 20
1301.500000000043
 30
0.0
 11
2117.333333333369
 21
1301.500000000043
 31
0.0
  0
LINE
  5
320
330
1F
100
AcDbEntity
  8
LAY-10
  6
CONTINUOUS
 62
     7
100
AcDbLine
 10
2139.533333333366
 20
1332.500000000053
 30
0.0
 11
2120.533333333368
 21
1332.500000000051
 31
0.0
  0
LINE
  5
321
330
1F
100
AcDbEntity
  8
LAY-10
  6
CONTINUOUS
 62
     7
100
AcDbLine
 10
2139.533333333366
 20
2328.500000000049
 30
0.0
 11
2120.533333333368
 21
2328.500000000051
 31
0.0
  0
LINE
  5
322
330
1F
100
AcDbEntity
  8
LAY-10
  6
CONTINUOUS
 62
     7
100
AcDbLine
 10
2107.333333333358
 20
2391.500000000051
 30
0.0
 11
2107.333333333358
 21
2400.300000000097
 31
0.0
  0
LINE
  5
323
330
1F
100
AcDbEntity
  8
LAY-10
  6
CONTINUOUS
 62
     7
100
AcDbLine
 10
2109.333333333358
 20
2391.500000000051
 30
0.0
 11
2109.333333333358
 21
2400.300000000097
 31
0.0
  0
LINE
  5
324
330
1F
100
AcDbEntity
  8
LAY-10
  6
CONTINUOUS
 62
     7
100
AcDbLine
 10
2072.333333333346
 20
2391.500000000051
 30
0.0
 11
2117.333333333369
 21
2391.500000000051
 31
0.0
  0
LINE
  5
325
330
1F
100
AcDbEntity
  8
LAY-10
  6
CONTINUOUS
 62
     7
100
AcDbLine
 10
2072.333333333346
 20
2359.499999999984
 30
0.0
 11
2117.333333333369
 21
2359.499999999984
 31
0.0
  0
ARC
  5
326
330
1F
100
AcDbEntity
  8
LAY-10
  6
CONTINUOUS
 62
     7
100
AcDbCircle
 10
2154.133333333343
 20
1608.700000000149
 30
0.0
 40
3.000000000000003
100
AcDbArc
 50
180.0
 51
0.0
  0
ARC
  5
327
330
1F
100
AcDbEntity
  8
LAY-10
  6
CONTINUOUS
 62
     7
100
AcDbCircle
 10
2154.133333333343
 20
1514.70000000015
 30
0.0
 40
3.000000000000003
100
AcDbArc
 50
0.0
 51
180.0
  0
LINE
  5
328
330
1F
100
AcDbEntity
  8
LAY-10
  6
CONTINUOUS
 62
     7
100
AcDbLine
 10
2156.133333333341
 20
1636.700000000151
 30
0.0
 11
2156.133333333341
 21
1616.700000000151
 31
0.0
  0
LINE
  5
329
330
1F
100
AcDbEntity
  8
LAY-10
  6
CONTINUOUS
 62
     7
100
AcDbLine
 10
2156.133333333341
 20
1506.700000000151
 30
0.0
 11
2156.133333333341
 21
1486.700000000151
 31
0.0
  0
LINE
  5
32A
330
1F
100
AcDbEntity
  8
LAY-10
  6
CONTINUOUS
 62
     7
100
AcDbLine
 10
2149.133333333338
 20
1486.700000000151
 30
0.0
 11
2157.13333333334
 21
1486.700000000151
 31
0.0
  0
LINE
  5
32B
330
1F
100
AcDbEntity
  8
LAY-10
  6
CONTINUOUS
 62
     7
100
AcDbLine
 10
2149.133333333338
 20
1636.700000000151
 30
0.0
 11
2157.13333333334
 21
1636.700000000151
 31
0.0
  0
LINE
  5
32C
330
1F
100
AcDbEntity
  8
LAY-10
  6
CONTINUOUS
 62
     7
100
AcDbLine
 10
2149.133333333338
 20
1616.700000000151
 30
0.0
 11
2157.13333333334
 21
1616.700000000151
 31
0.0
  0
LINE
  5
32D
330
1F
100
AcDbEntity
  8
LAY-10
  6
CONTINUOUS
 62
     7
100
AcDbLine
 10
2151.13333333334
 20
1636.700000000151
 30
0.0
 11
2151.13333333334
 21
1647.000000000148
 31
0.0
  0
LINE
  5
32E
330
1F
100
AcDbEntity
  8
LAY-10
  6
CONTINUOUS
 62
     7
100
AcDbLine
 10
2151.13333333334
 20
1506.700000000151
 30
0.0
 11
2151.13333333334
 21
1616.700000000151
 31
0.0
  0
LINE
  5
32F
330
1F
100
AcDbEntity
  8
LAY-10
  6
CONTINUOUS
 62
     7
100
AcDbLine
 10
2151.13333333334
 20
1476.700000000151
 30
0.0
 11
2151.13333333334
 21
1486.700000000151
 31
0.0
  0
LINE
  5
330
330
1F
100
AcDbEntity
  8
LAY-10
  6
CONTINUOUS
 62
     7
100
AcDbLine
 10
2149.133333333338
 20
1616.700000000151
 30
0.0
 11
2149.133333333338
 21
1636.700000000151
 31
0.0
  0
LINE
  5
331
330
1F
100
AcDbEntity
  8
LAY-10
  6
CONTINUOUS
 62
     7
100
AcDbLine
 10
2149.133333333338
 20
1486.700000000151
 30
0.0
 11
2149.133333333338
 21
1506.700000000151
 31
0.0
  0
LINE
  5
332
330
1F
100
AcDbEntity
  8
LAY-10
  6
CONTINUOUS
 62
     7
100
AcDbLine
 10
2149.133333333338
 20
1506.700000000151
 30
0.0
 11
2157.13333333334
 21
1506.700000000151
 31
0.0
  0
LINE
  5
333
330
1F
100
AcDbEntity
  8
LAY-10
  6
CONTINUOUS
 62
     7
100
AcDbLine
 10
2151.13333333334
 20
1647.000000000148
 30
0.0
 11
2157.13333333334
 21
1647.000000000148
 31
0.0
  0
LINE
  5
334
330
1F
100
AcDbEntity
  8
LAY-10
  6
CONTINUOUS
 62
     7
100
AcDbLine
 10
2151.13333333334
 20
1476.700000000151
 30
0.0
 11
2157.13333333334
 21
1476.700000000151
 31
0.0
  0
ARC
  5
335
330
1F
100
AcDbEntity
  8
LAY-10
  6
CONTINUOUS
 62
     7
100
AcDbCircle
 10
2154.133333333343
 20
2146.000000000049
 30
0.0
 40
3.000000000000003
100
AcDbArc
 50
180.0
 51
0.0
  0
ARC
  5
336
330
1F
100
AcDbEntity
  8
LAY-10
  6
CONTINUOUS
 62
     7
100
AcDbCircle
 10
2154.133333333343
 20
2052.00000000005
 30
0.0
 40
3.000000000000003
100
AcDbArc
 50
0.0
 51
180.0
  0
LINE
  5
337
330
1F
100
AcDbEntity
  8
LAY-10
  6
CONTINUOUS
 62
     7
100
AcDbLine
 10
2151.13333333334
 20
2014.000000000052
 30
0.0
 11
2157.13333333334
 21
2014.000000000052
 31
0.0
  0
LINE
  5
338
330
1F
100
AcDbEntity
  8
LAY-10
  6
CONTINUOUS
 62
     7
100
AcDbLine
 10
2151.13333333334
 20
2184.300000000048
 30
0.0
 11
2157.13333333334
 21
2184.300000000048
 31
0.0
  0
LINE
  5
339
330
1F
100
AcDbEntity
  8
LAY-10
  6
CONTINUOUS
 62
     7
100
AcDbLine
 10
2149.133333333338
 20
2044.000000000052
 30
0.0
 11
2157.13333333334
 21
2044.000000000052
 31
0.0
  0
LINE
  5
33A
330
1F
100
AcDbEntity
  8
LAY-10
  6
CONTINUOUS
 62
     7
100
AcDbLine
 10
2149.133333333338
 20
2024.000000000052
 30
0.0
 11
2149.133333333338
 21
2044.000000000052
 31
0.0
  0
LINE
  5
33B
330
1F
100
AcDbEntity
  8
LAY-10
  6
CONTINUOUS
 62
     7
100
AcDbLine
 10
2149.133333333338
 20
2154.000000000051
 30
0.0
 11
2149.133333333338
 21
2174.000000000051
 31
0.0
  0
LINE
  5
33C
330
1F
100
AcDbEntity
  8
LAY-10
  6
CONTINUOUS
 62
     7
100
AcDbLine
 10
2151.13333333334
 20
2014.000000000052
 30
0.0
 11
2151.13333333334
 21
2024.000000000052
 31
0.0
  0
LINE
  5
33D
330
1F
100
AcDbEntity
  8
LAY-10
  6
CONTINUOUS
 62
     7
100
AcDbLine
 10
2151.13333333334
 20
2044.000000000052
 30
0.0
 11
2151.13333333334
 21
2154.000000000051
 31
0.0
  0
LINE
  5
33E
330
1F
100
AcDbEntity
  8
LAY-10
  6
CONTINUOUS
 62
     7
100
AcDbLine
 10
2151.13333333334
 20
2174.000000000051
 30
0.0
 11
2151.13333333334
 21
2184.300000000048
 31
0.0
  0
LINE
  5
33F
330
1F
100
AcDbEntity
  8
LAY-10
  6
CONTINUOUS
 62
     7
100
AcDbLine
 10
2149.133333333338
 20
2154.000000000051
 30
0.0
 11
2157.13333333334
 21
2154.000000000051
 31
0.0
  0
LINE
  5
340
330
1F
100
AcDbEntity
  8
LAY-10
  6
CONTINUOUS
 62
     7
100
AcDbLine
 10
2149.133333333338
 20
2174.000000000051
 30
0.0
 11
2157.13333333334
 21
2174.000000000051
 31
0.0
  0
LINE
  5
341
330
1F
100
AcDbEntity
  8
LAY-10
  6
CONTINUOUS
 62
     7
100
AcDbLine
 10
2149.133333333338
 20
2024.000000000052
 30
0.0
 11
2157.13333333334
 21
2024.000000000052
 31
0.0
  0
LINE
  5
342
330
1F
100
AcDbEntity
  8
LAY-10
  6
CONTINUOUS
 62
     7
100
AcDbLine
 10
2156.133333333341
 20
2044.000000000052
 30
0.0
 11
2156.133333333341
 21
2024.000000000052
 31
0.0
  0
LINE
  5
343
330
1F
100
AcDbEntity
  8
LAY-10
  6
CONTINUOUS
 62
     7
100
AcDbLine
 10
2156.133333333341
 20
2174.000000000051
 30
0.0
 11
2156.133333333341
 21
2154.000000000051
 31
0.0
  0
LINE
  5
344
330
1F
100
AcDbEntity
  8
LAY-10
  6
CONTINUOUS
 62
     7
100
AcDbLine
 10
2125.7333333333
 20
2373.700000000048
 30
0.0
 11
2169.533333333343
 21
2373.700000000048
 31
0.0
  0
LINE
  5
345
330
1F
100
AcDbEntity
  8
LAY-10
  6
CONTINUOUS
 62
     7
100
AcDbLine
 10
2169.333333333342
 20
2370.500000000051
 30
0.0
 11
2125.533333333341
 21
2370.500000000051
 31
0.0
  0
LINE
  5
346
330
1F
100
AcDbEntity
  8
LAY-10
  6
CONTINUOUS
 62
     7
100
AcDbLine
 10
2160.33333333334
 20
2360.500000000051
 30
0.0
 11
2160.33333333334
 21
2364.500000000051
 31
0.0
  0
LINE
  5
347
330
1F
100
AcDbEntity
  8
LAY-10
  6
CONTINUOUS
 62
     7
100
AcDbLine
 10
2169.333333333342
 20
2360.500000000051
 30
0.0
 11
2169.333333333342
 21
2370.500000000051
 31
0.0
  0
LINE
  5
348
330
1F
100
AcDbEntity
  8
LAY-10
  6
CONTINUOUS
 62
     7
100
AcDbLine
 10
2169.333333333342
 20
2350.500000000049
 30
0.0
 11
2169.333333333342
 21
2320.500000000049
 31
0.0
  0
LINE
  5
349
330
1F
100
AcDbEntity
  8
LAY-10
  6
CONTINUOUS
 62
     7
100
AcDbLine
 10
2160.33333333334
 20
2350.500000000049
 30
0.0
 11
2160.33333333334
 21
1310.50000000005
 31
0.0
  0
LINE
  5
34A
330
1F
100
AcDbEntity
  8
LAY-10
  6
CONTINUOUS
 62
     7
100
AcDbLine
 10
2075.333333333348
 20
2403.500000000047
 30
0.0
 11
2114.533333333348
 21
2403.500000000047
 31
0.0
  0
LINE
  5
34B
330
1F
100
AcDbEntity
  8
LAY-10
  6
CONTINUOUS
 62
     7
100
AcDbLine
 10
2172.533333333339
 20
2320.500000000049
 30
0.0
 11
2172.533333333339
 21
2370.7000000001
 31
0.0
  0
LINE
  5
34C
330
1F
100
AcDbEntity
  8
LAY-10
  6
CONTINUOUS
 62
     7
100
AcDbLine
 10
2157.13333333334
 20
2366.000000000051
 30
0.0
 11
2157.13333333334
 21
1296.50000000005
 31
0.0
  0
LINE
  5
34D
330
1F
100
AcDbEntity
  8
LAY-10
  6
CONTINUOUS
 62
     7
100
AcDbLine
 10
2120.533333333368
 20
2398.500000000051
 30
0.0
 11
2120.533333333368
 21
1263.500000000051
 31
0.0
  0
LINE
  5
34E
330
1F
100
AcDbEntity
  8
LAY-10
  6
CONTINUOUS
 62
     7
100
AcDbLine
 10
2125.733333333342
 20
2410.3862915011
 30
0.0
 11
2125.733333333342
 21
2373.700000000048
 31
0.0
  0
LINE
  5
34F
330
1F
100
AcDbEntity
  8
LAY-10
  6
CONTINUOUS
 62
     7
100
AcDbLine
 10
2122.533333333344
 20
2407.500000000051
 30
0.0
 11
2122.533333333344
 21
2331.500000000051
 31
0.0
  0
LINE
  5
350
330
1F
100
AcDbEntity
  8
LAY-10
  6
CONTINUOUS
 62
     7
100
AcDbLine
 10
2122.533333333344
 20
1329.500000000049
 30
0.0
 11
2122.533333333344
 21
1253.500000000051
 31
0.0
  0
LINE
  5
351
330
1F
100
AcDbEntity
  8
LAY-10
  6
CONTINUOUS
 62
     7
100
AcDbLine
 10
2139.533333333366
 20
1637.000000000051
 30
0.0
 11
2120.533333333368
 21
1637.000000000051
 31
0.0
  0
LINE
  5
352
330
1F
100
AcDbEntity
  8
LAY-10
  6
CONTINUOUS
 62
     7
100
AcDbLine
 10
2139.533333333366
 20
1640.000000000052
 30
0.0
 11
2120.533333333368
 21
1640.000000000052
 31
0.0
  0
LINE
  5
353
330
1F
100
AcDbEntity
  8
LAY-10
  6
CONTINUOUS
 62
     7
100
AcDbLine
 10
2139.533333333366
 20
2024.000000000049
 30
0.0
 11
2120.533333333368
 21
2024.000000000051
 31
0.0
  0
LINE
  5
354
330
1F
100
AcDbEntity
  8
LAY-10
  6
CONTINUOUS
 62
     7
100
AcDbLine
 10
2139.533333333366
 20
2021.000000000049
 30
0.0
 11
2120.533333333368
 21
2021.000000000051
 31
0.0
  0
LINE
  5
355
330
1F
100
AcDbEntity
  8
LAY-10
  6
CONTINUOUS
 62
     7
100
AcDbLine
 10
2120.533333333368
 20
2331.500000000051
 30
0.0
 11
2139.533333333339
 21
2331.500000000051
 31
0.0
  0
LINE
  5
356
330
1F
100
AcDbEntity
  8
LAY-10
  6
CONTINUOUS
 62
     7
100
AcDbLine
 10
2120.533333333368
 20
1329.500000000049
 30
0.0
 11
2139.533333333339
 21
1329.500000000049
 31
0.0
  0
LINE
  5
357
330
1F
100
AcDbEntity
  8
LAY-10
  6
CONTINUOUS
 62
     7
100
AcDbLine
 10
2139.533333333339
 20
2331.500000000051
 30
0.0
 11
2139.533333333339
 21
1329.500000000049
 31
0.0
  0
LINE
  5
358
330
1F
100
AcDbEntity
  8
LAY-10
  6
CONTINUOUS
 62
     7
100
AcDbLine
 10
2114.333333333346
 20
2400.30000000005
 30
0.0
 11
2117.333333333346
 21
2397.30000000005
 31
0.0
  0
LINE
  5
359
330
1F
100
AcDbEntity
  8
LAY-10
  6
CONTINUOUS
 62
     7
100
AcDbLine
 10
2114.333333333346
 20
1260.700000000053
 30
0.0
 11
2117.333333333346
 21
1263.700000000053
 31
0.0
  0
LINE
  5
35A
330
1F
100
AcDbEntity
  8
LAY-10
  6
CONTINUOUS
 62
     7
100
AcDbLine
 10
2072.333333333346
 20
1254.50000000005
 30
0.0
 11
2072.333333333346
 21
2406.500000000051
 31
0.0
  0
LINE
  5
35B
330
1F
100
AcDbEntity
  8
LAY-10
  6
CONTINUOUS
 62
     7
100
AcDbLine
 10
2087.333333333346
 20
1254.50000000005
 30
0.0
 11
2087.333333333346
 21
1257.500000000049
 31
0.0
  0
LINE
  5
35C
330
1F
100
AcDbEntity
  8
LAY-10
  6
CONTINUOUS
 62
     7
100
AcDbLine
 10
2072.333333333346
 20
1269.50000000005
 30
0.0
 11
2075.333333333348
 21
1269.50000000005
 31
0.0
  0
LINE
  5
35D
330
1F
100
AcDbEntity
  8
LAY-10
  6
CONTINUOUS
 62
     7
100
AcDbLine
 10
2075.333333333348
 20
1257.500000000049
 30
0.0
 11
2075.333333333348
 21
1269.50000000005
 31
0.0
  0
LINE
  5
35E
330
1F
100
AcDbEntity
  8
LAY-10
  6
CONTINUOUS
 62
     7
100
AcDbLine
 10
2072.333333333346
 20
1254.50000000005
 30
0.0
 11
2087.333333333346
 21
1254.50000000005
 31
0.0
  0
LINE
  5
35F
330
1F
100
AcDbEntity
  8
LAY-10
  6
CONTINUOUS
 62
     7
100
AcDbLine
 10
2087.333333333346
 20
2406.500000000051
 30
0.0
 11
2087.333333333346
 21
2403.500000000047
 31
0.0
  0
LINE
  5
360
330
1F
100
AcDbEntity
  8
LAY-10
  6
CONTINUOUS
 62
     7
100
AcDbLine
 10
2075.333333333348
 20
2403.500000000047
 30
0.0
 11
2075.333333333348
 21
2391.500000000051
 31
0.0
  0
LINE
  5
361
330
1F
100
AcDbEntity
  8
LAY-10
  6
CONTINUOUS
 62
     7
100
AcDbLine
 10
2072.333333333346
 20
2406.500000000051
 30
0.0
 11
2087.333333333346
 21
2406.500000000051
 31
0.0
  0
LINE
  5
362
330
1F
100
AcDbEntity
  8
LAY-10
  6
CONTINUOUS
 62
     7
100
AcDbLine
 10
2117.333333333369
 20
1263.700000000051
 30
0.0
 11
2117.333333333369
 21
2397.30000000005
 31
0.0
  0
LINE
  5
363
330
1F
100
AcDbEntity
  8
LAY-10
  6
CONTINUOUS
 62
     7
100
AcDbLine
 10
2075.333333333348
 20
1257.500000000049
 30
0.0
 11
2114.533333333348
 21
1257.500000000049
 31
0.0
  0
LINE
  5
364
330
1F
100
AcDbEntity
  8
LAY-10
  6
CONTINUOUS
 62
     7
100
AcDbLine
 10
2075.333333333348
 20
1301.500000000043
 30
0.0
 11
2075.333333333348
 21
2359.499999999984
 31
0.0
  0
ARC
  5
365
330
1F
100
AcDbEntity
  8
LAY-10
  6
CONTINUOUS
 62
     7
100
AcDbCircle
 10
2114.533333333348
 20
1263.500000000051
 30
0.0
 40
6.000000000000005
100
AcDbArc
 50
270.0000000000002
 51
1.909152432987542
  0
ARC
  5
366
330
1F
100
AcDbEntity
  8
LAY-10
  6
CONTINUOUS
 62
     7
100
AcDbCircle
 10
2114.333333333346
 20
1263.700000000051
 30
0.0
 40
3.000000000000003
100
AcDbArc
 50
270.0000000000002
 51
0.0
  0
LINE
  5
367
330
1F
100
AcDbEntity
  8
LAY-10
  6
CONTINUOUS
 62
     7
100
AcDbLine
 10
2075.333333333348
 20
1260.700000000051
 30
0.0
 11
2114.333333333346
 21
1260.700000000051
 31
0.0
  0
ARC
  5
368
330
1F
100
AcDbEntity
  8
LAY-10
  6
CONTINUOUS
 62
     7
100
AcDbCircle
 10
2114.533333333348
 20
2397.500000000051
 30
0.0
 40
6.000000000000005
100
AcDbArc
 50
0.0
 51
90.00000000000001
  0
ARC
  5
369
330
1F
100
AcDbEntity
  8
LAY-10
  6
CONTINUOUS
 62
     7
100
AcDbCircle
 10
2114.333333333346
 20
2397.30000000005
 30
0.0
 40
3.000000000000003
100
AcDbArc
 50
0.0
 51
90.00000000000001
  0
LINE
  5
36A
330
1F
100
AcDbEntity
  8
LAY-10
  6
CONTINUOUS
 62
     7
100
AcDbLine
 10
2075.333333333348
 20
2400.30000000005
 30
0.0
 11
2114.333333333346
 21
2400.30000000005
 31
0.0
  0
LINE
  5
36B
330
1F
100
AcDbEntity
  8
LAY-10
  6
CONTINUOUS
 62
     7
100
AcDbLine
 10
2122.403391018453
 20
2373.500000000047
 30
0.0
 11
2122.533333333348
 21
2373.629942314947
 31
0.0
  0
LINE
  5
36C
330
1F
100
AcDbEntity
  8
LAY-10
  6
CONTINUOUS
 62
     7
100
AcDbLine
 10
2120.989177456088
 20
2373.500000000058
 30
0.0
 11
2122.533333333341
 21
2375.044155877309
 31
0.0
  0
LINE
  5
36D
330
1F
100
AcDbEntity
  8
LAY-10
  6
CONTINUOUS
 62
     7
100
AcDbLine
 10
2120.533333333372
 20
2374.458369439715
 30
0.0
 11
2122.533333333348
 21
2376.45836943969
 31
0.0
  0
LINE
  5
36E
330
1F
100
AcDbEntity
  8
LAY-10
  6
CONTINUOUS
 62
     7
100
AcDbLine
 10
2120.533333333361
 20
2375.872583002078
 30
0.0
 11
2122.533333333339
 21
2377.872583002052
 31
0.0
  0
LINE
  5
36F
330
1F
100
AcDbEntity
  8
LAY-10
  6
CONTINUOUS
 62
     7
100
AcDbLine
 10
2120.533333333372
 20
2377.286796564458
 30
0.0
 11
2122.533333333348
 21
2379.286796564436
 31
0.0
  0
LINE
  5
370
330
1F
100
AcDbEntity
  8
LAY-10
  6
CONTINUOUS
 62
     7
100
AcDbLine
 10
2120.533333333359
 20
2378.701010126821
 30
0.0
 11
2122.533333333339
 21
2380.701010126799
 31
0.0
  0
LINE
  5
371
330
1F
100
AcDbEntity
  8
LAY-10
  6
CONTINUOUS
 62
     7
100
AcDbLine
 10
2120.53333333337
 20
2380.115223689203
 30
0.0
 11
2122.533333333348
 21
2382.115223689181
 31
0.0
  0
LINE
  5
372
330
1F
100
AcDbEntity
  8
LAY-10
  6
CONTINUOUS
 62
     7
100
AcDbLine
 10
2120.533333333377
 20
2381.529437251585
 30
0.0
 11
2122.533333333334
 21
2383.529437251544
 31
0.0
  0
LINE
  5
373
330
1F
100
AcDbEntity
  8
LAY-10
  6
CONTINUOUS
 62
     7
100
AcDbLine
 10
2120.533333333368
 20
2382.943650813948
 30
0.0
 11
2122.533333333346
 21
2384.943650813926
 31
0.0
  0
LINE
  5
374
330
1F
100
AcDbEntity
  8
LAY-10
  6
CONTINUOUS
 62
     7
100
AcDbLine
 10
2120.533333333377
 20
2384.357864376332
 30
0.0
 11
2122.533333333352
 21
2386.357864376307
 31
0.0
  0
LINE
  5
375
330
1F
100
AcDbEntity
  8
LAY-10
  6
CONTINUOUS
 62
     7
100
AcDbLine
 10
2120.533333333368
 20
2385.772077938693
 30
0.0
 11
2122.533333333345
 21
2387.772077938671
 31
0.0
  0
LINE
  5
376
330
1F
100
AcDbEntity
  8
LAY-10
  6
CONTINUOUS
 62
     7
100
AcDbLine
 10
2120.533333333376
 20
2387.186291501075
 30
0.0
 11
2122.533333333352
 21
2389.186291501053
 31
0.0
  0
LINE
  5
377
330
1F
100
AcDbEntity
  8
LAY-10
  6
CONTINUOUS
 62
     7
100
AcDbLine
 10
2120.533333333363
 20
2388.600505063438
 30
0.0
 11
2122.533333333343
 21
2390.600505063416
 31
0.0
  0
LINE
  5
378
330
1F
100
AcDbEntity
  8
LAY-10
  6
CONTINUOUS
 62
     7
100
AcDbLine
 10
2120.533333333376
 20
2390.014718625822
 30
0.0
 11
2122.53333333335
 21
2392.014718625798
 31
0.0
  0
LINE
  5
379
330
1F
100
AcDbEntity
  8
LAY-10
  6
CONTINUOUS
 62
     7
100
AcDbLine
 10
2120.533333333363
 20
2391.428932188184
 30
0.0
 11
2122.533333333343
 21
2393.428932188159
 31
0.0
  0
LINE
  5
37A
330
1F
100
AcDbEntity
  8
LAY-10
  6
CONTINUOUS
 62
     7
100
AcDbLine
 10
2120.533333333374
 20
2392.843145750565
 30
0.0
 11
2122.533333333348
 21
2394.843145750543
 31
0.0
  0
LINE
  5
37B
330
1F
100
AcDbEntity
  8
LAY-10
  6
CONTINUOUS
 62
     7
100
AcDbLine
 10
2120.533333333363
 20
2394.257359312927
 30
0.0
 11
2122.533333333341
 21
2396.257359312905
 31
0.0
  0
LINE
  5
37C
330
1F
100
AcDbEntity
  8
LAY-10
  6
CONTINUOUS
 62
     7
100
AcDbLine
 10
2120.533333333372
 20
2395.671572875312
 30
0.0
 11
2122.533333333348
 21
2397.671572875288
 31
0.0
  0
LINE
  5
37D
330
1F
100
AcDbEntity
  8
LAY-10
  6
CONTINUOUS
 62
     7
100
AcDbLine
 10
2120.533333333361
 20
2397.085786437674
 30
0.0
 11
2121.947546895753
 21
2398.500000000065
 31
0.0
  0
LINE
  5
37E
330
1F
100
AcDbEntity
  8
LAY-10
  6
CONTINUOUS
 62
     7
100
AcDbLine
 10
2122.533333333343
 20
2398.500000000051
 30
0.0
 11
2120.533333333346
 21
2398.500000000051
 31
0.0
  0
LINE
  5
37F
330
1F
100
AcDbEntity
  8
LAY-10
  6
CONTINUOUS
 62
     7
100
AcDbLine
 10
2122.533333333343
 20
2373.500000000051
 30
0.0
 11
2120.533333333346
 21
2373.500000000051
 31
0.0
  0
LINE
  5
380
330
1F
100
AcDbEntity
  8
LAY-10
  6
CONTINUOUS
 62
     7
100
AcDbLine
 10
2121.947546895731
 20
1262.500000000044
 30
0.0
 11
2122.533333333334
 21
1263.085786437649
 31
0.0
  0
LINE
  5
381
330
1F
100
AcDbEntity
  8
LAY-10
  6
CONTINUOUS
 62
     7
100
AcDbLine
 10
2120.533333333365
 20
1262.500000000054
 30
0.0
 11
2122.533333333343
 21
1264.500000000032
 31
0.0
  0
LINE
  5
382
330
1F
100
AcDbEntity
  8
LAY-10
  6
CONTINUOUS
 62
     7
100
AcDbLine
 10
2120.533333333376
 20
1263.914213562436
 30
0.0
 11
2122.533333333352
 21
1265.914213562413
 31
0.0
  0
LINE
  5
383
330
1F
100
AcDbEntity
  8
LAY-10
  6
CONTINUOUS
 62
     7
100
AcDbLine
 10
2120.533333333363
 20
1265.328427124799
 30
0.0
 11
2122.533333333343
 21
1267.328427124775
 31
0.0
  0
LINE
  5
384
330
1F
100
AcDbEntity
  8
LAY-10
  6
CONTINUOUS
 62
     7
100
AcDbLine
 10
2120.533333333376
 20
1266.742640687181
 30
0.0
 11
2122.53333333335
 21
1268.742640687158
 31
0.0
  0
LINE
  5
385
330
1F
100
AcDbEntity
  8
LAY-10
  6
CONTINUOUS
 62
     7
100
AcDbLine
 10
2120.533333333363
 20
1268.156854249543
 30
0.0
 11
2122.533333333343
 21
1270.15685424952
 31
0.0
  0
LINE
  5
386
330
1F
100
AcDbEntity
  8
LAY-10
  6
CONTINUOUS
 62
     7
100
AcDbLine
 10
2120.533333333374
 20
1269.571067811926
 30
0.0
 11
2122.533333333348
 21
1271.571067811902
 31
0.0
  0
LINE
  5
387
330
1F
100
AcDbEntity
  8
LAY-10
  6
CONTINUOUS
 62
     7
100
AcDbLine
 10
2120.533333333363
 20
1270.985281374288
 30
0.0
 11
2122.533333333341
 21
1272.985281374265
 31
0.0
  0
LINE
  5
388
330
1F
100
AcDbEntity
  8
LAY-10
  6
CONTINUOUS
 62
     7
100
AcDbLine
 10
2120.533333333372
 20
1272.399494936671
 30
0.0
 11
2122.533333333348
 21
1274.399494936648
 31
0.0
  0
LINE
  5
389
330
1F
100
AcDbEntity
  8
LAY-10
  6
CONTINUOUS
 62
     7
100
AcDbLine
 10
2120.533333333361
 20
1273.813708499033
 30
0.0
 11
2122.533333333339
 21
1275.81370849901
 31
0.0
  0
LINE
  5
38A
330
1F
100
AcDbEntity
  8
LAY-10
  6
CONTINUOUS
 62
     7
100
AcDbLine
 10
2120.533333333372
 20
1275.227922061415
 30
0.0
 11
2122.533333333348
 21
1277.227922061392
 31
0.0
  0
LINE
  5
38B
330
1F
100
AcDbEntity
  8
LAY-10
  6
CONTINUOUS
 62
     7
100
AcDbLine
 10
2120.533333333359
 20
1276.642135623778
 30
0.0
 11
2122.533333333336
 21
1278.642135623756
 31
0.0
  0
LINE
  5
38C
330
1F
100
AcDbEntity
  8
LAY-10
  6
CONTINUOUS
 62
     7
100
AcDbLine
 10
2120.53333333337
 20
1278.056349186159
 30
0.0
 11
2122.533333333346
 21
1280.056349186137
 31
0.0
  0
LINE
  5
38D
330
1F
100
AcDbEntity
  8
LAY-10
  6
CONTINUOUS
 62
     7
100
AcDbLine
 10
2120.533333333377
 20
1279.470562748542
 30
0.0
 11
2122.533333333354
 21
1281.470562748519
 31
0.0
  0
LINE
  5
38E
330
1F
100
AcDbEntity
  8
LAY-10
  6
CONTINUOUS
 62
     7
100
AcDbLine
 10
2120.533333333368
 20
1280.884776310905
 30
0.0
 11
2122.533333333346
 21
1282.884776310882
 31
0.0
  0
LINE
  5
38F
330
1F
100
AcDbEntity
  8
LAY-10
  6
CONTINUOUS
 62
     7
100
AcDbLine
 10
2120.533333333377
 20
1282.298989873288
 30
0.0
 11
2122.533333333352
 21
1284.298989873264
 31
0.0
  0
LINE
  5
390
330
1F
100
AcDbEntity
  8
LAY-10
  6
CONTINUOUS
 62
     7
100
AcDbLine
 10
2120.533333333368
 20
1283.71320343565
 30
0.0
 11
2122.533333333345
 21
1285.713203435626
 31
0.0
  0
LINE
  5
391
330
1F
100
AcDbEntity
  8
LAY-10
  6
CONTINUOUS
 62
     7
100
AcDbLine
 10
2120.533333333377
 20
1285.127416998032
 30
0.0
 11
2122.533333333352
 21
1287.127416998009
 31
0.0
  0
LINE
  5
392
330
1F
100
AcDbEntity
  8
LAY-10
  6
CONTINUOUS
 62
     7
100
AcDbLine
 10
2120.533333333363
 20
1286.541630560394
 30
0.0
 11
2121.491702773027
 21
1287.500000000058
 31
0.0
  0
LINE
  5
393
330
1F
100
AcDbEntity
  8
LAY-10
  6
CONTINUOUS
 62
     7
100
AcDbLine
 10
2120.533333333363
 20
1262.500000000051
 30
0.0
 11
2120.533333333363
 21
1287.500000000049
 31
0.0
  0
LINE
  5
394
330
1F
100
AcDbEntity
  8
LAY-10
  6
CONTINUOUS
 62
     7
100
AcDbLine
 10
2122.533333333343
 20
1262.50000000005
 30
0.0
 11
2120.533333333348
 21
1262.50000000005
 31
0.0
  0
LINE
  5
395
330
1F
100
AcDbEntity
  8
LAY-10
  6
CONTINUOUS
 62
     7
100
AcDbLine
 10
2122.533333333343
 20
1287.500000000049
 30
0.0
 11
2120.533333333363
 21
1287.500000000049
 31
0.0
  0
LINE
  5
396
330
1F
100
AcDbEntity
  8
LAY-10
  6
CONTINUOUS
 62
     7
100
AcDbLine
 10
2137.652963117752
 20
1285.098309440903
 30
0.0
 11
2137.733333333331
 21
1285.178679656482
 31
0.0
  0
LINE
  5
397
330
1F
100
AcDbEntity
  8
LAY-10
  6
CONTINUOUS
 62
     7
100
AcDbLine
 10
2137.294818124675
 20
1285.447271229013
 30
0.0
 11
2137.733333333338
 21
1285.885786437676
 31
0.0
  0
LINE
  5
398
330
1F
100
AcDbEntity
  8
LAY-10
  6
CONTINUOUS
 62
     7
100
AcDbLine
 10
2136.936673131612
 20
1285.796233017135
 30
0.0
 11
2137.733333333322
 21
1286.592893218845
 31
0.0
  0
LINE
  5
399
330
1F
100
AcDbEntity
  8
LAY-10
  6
CONTINUOUS
 62
     7
100
AcDbLine
 10
2136.578528138546
 20
1286.145194805259
 30
0.0
 11
2137.733333333338
 21
1287.300000000049
 31
0.0
  0
LINE
  5
39A
330
1F
100
AcDbEntity
  8
LAY-10
  6
CONTINUOUS
 62
     7
100
AcDbLine
 10
2136.220383145469
 20
1286.49415659337
 30
0.0
 11
2137.026226552146
 21
1287.300000000044
 31
0.0
  0
LINE
  5
39B
330
1F
100
AcDbEntity
  8
LAY-10
  6
CONTINUOUS
 62
     7
100
AcDbLine
 10
2135.862238152406
 20
1286.843118381491
 30
0.0
 11
2136.319119770965
 21
1287.300000000049
 31
0.0
  0
LINE
  5
39C
330
1F
100
AcDbEntity
  8
LAY-10
  6
CONTINUOUS
 62
     7
100
AcDbLine
 10
2135.504093159342
 20
1287.192080169613
 30
0.0
 11
2135.612012989782
 21
1287.300000000054
 31
0.0
  0
LINE
  5
39D
330
1F
100
AcDbEntity
  8
LAY-10
  6
CONTINUOUS
 62
     7
100
AcDbLine
 10
2135.39333333334
 20
1287.300000000049
 30
0.0
 11
2137.73333333334
 21
1285.02000000005
 31
0.0
  0
LINE
  5
39E
330
1F
100
AcDbEntity
  8
LAY-10
  6
CONTINUOUS
 62
     7
100
AcDbLine
 10
2168.733333333344
 20
1285.178679656491
 30
0.0
 11
2168.863151879191
 21
1285.048861110647
 31
0.0
  0
LINE
  5
39F
330
1F
100
AcDbEntity
  8
LAY-10
  6
CONTINUOUS
 62
     7
100
AcDbLine
 10
2168.733333333358
 20
1285.885786437661
 30
0.0
 11
2169.192546479676
 21
1285.426573291345
 31
0.0
  0
LINE
  5
3A0
330
1F
100
AcDbEntity
  8
LAY-10
  6
CONTINUOUS
 62
     7
100
AcDbLine
 10
2168.733333333351
 20
1286.592893218855
 30
0.0
 11
2169.521941080165
 21
1285.804285472043
 31
0.0
  0
LINE
  5
3A1
330
1F
100
AcDbEntity
  8
LAY-10
  6
CONTINUOUS
 62
     7
100
AcDbLine
 10
2168.733333333347
 20
1287.300000000047
 30
0.0
 11
2169.85133568065
 21
1286.181997652743
 31
0.0
  0
LINE
  5
3A2
330
1F
100
AcDbEntity
  8
LAY-10
  6
CONTINUOUS
 62
     7
100
AcDbLine
 10
2169.440440114539
 20
1287.30000000004
 30
0.0
 11
2170.180730281126
 21
1286.559709833453
 31
0.0
  0
LINE
  5
3A3
330
1F
100
AcDbEntity
  8
LAY-10
  6
CONTINUOUS
 62
     7
100
AcDbLine
 10
2170.094579723714
 20
1287.352967172053
 30
0.0
 11
2170.510124881615
 21
1286.937422014151
 31
0.0
  0
LINE
  5
3A4
330
1F
100
AcDbEntity
  8
LAY-10
  6
CONTINUOUS
 62
     7
100
AcDbLine
 10
2170.642200027222
 20
1287.512453649729
 30
0.0
 11
2170.839519482103
 21
1287.31513419485
 31
0.0
  0
LINE
  5
3A5
330
1F
100
AcDbEntity
  8
LAY-10
  6
CONTINUOUS
 62
     7
100
AcDbLine
 10
2171.112495209117
 20
1287.749265249024
 30
0.0
 11
2171.16891408259
 21
1287.692846375548
 31
0.0
  0
LINE
  5
3A6
330
1F
100
AcDbEntity
  8
LAY-10
  6
CONTINUOUS
 62
     7
100
AcDbLine
 10
2168.733333333344
 20
1284.90000000005
 30
0.0
 11
2171.382258118315
 21
1287.937484997027
 31
0.0
  0
LINE
  5
3A7
330
1F
100
AcDbEntity
  8
LAY-10
  6
CONTINUOUS
 62
     7
100
AcDbLine
 10
2137.73333333334
 20
1251.300000000051
 30
0.0
 11
2168.733333333344
 21
1251.300000000051
 31
0.0
  0
LINE
  5
3A8
330
1F
100
AcDbEntity
  8
LAY-10
  6
CONTINUOUS
 62
     7
100
AcDbLine
 10
2168.733333333344
 20
1251.300000000051
 30
0.0
 11
2168.733333333344
 21
1287.300000000051
 31
0.0
  0
LINE
  5
3A9
330
1F
100
AcDbEntity
  8
LAY-10
  6
CONTINUOUS
 62
     7
100
AcDbLine
 10
2137.73333333334
 20
1251.300000000051
 30
0.0
 11
2137.73333333334
 21
1287.300000000049
 31
0.0
  0
LINE
  5
3AA
330
1F
100
AcDbEntity
  8
LAY-10
  6
CONTINUOUS
 62
     7
100
AcDbLine
 10
2137.73333333334
 20
2409.700000000052
 30
0.0
 11
2168.733333333344
 21
2409.700000000052
 31
0.0
  0
LINE
  5
3AB
330
1F
100
AcDbEntity
  8
LAY-10
  6
CONTINUOUS
 62
     7
100
AcDbLine
 10
2137.73333333334
 20
2409.700000000052
 30
0.0
 11
2137.73333333334
 21
2373.700000000048
 31
0.0
  0
LINE
  5
3AC
330
1F
100
AcDbEntity
  8
LAY-10
  6
CONTINUOUS
 62
     7
100
AcDbLine
 10
2168.733333333344
 20
2409.700000000052
 30
0.0
 11
2168.733333333344
 21
2373.700000000048
 31
0.0
  0
LINE
  5
3AD
330
1F
100
AcDbEntity
  8
LAY-10
  6
CONTINUOUS
 62
     7
100
AcDbLine
 10
2171.112495209117
 20
2373.250734751078
 30
0.0
 11
2171.168914082581
 21
2373.307153624542
 31
0.0
  0
LINE
  5
3AE
330
1F
100
AcDbEntity
  8
LAY-10
  6
CONTINUOUS
 62
     7
100
AcDbLine
 10
2170.642200027222
 20
2373.487546350374
 30
0.0
 11
2170.839519482092
 21
2373.68486580524
 31
0.0
  0
LINE
  5
3AF
330
1F
100
AcDbEntity
  8
LAY-10
  6
CONTINUOUS
 62
     7
100
AcDbLine
 10
2170.094579723714
 20
2373.647032828048
 30
0.0
 11
2170.510124881607
 21
2374.06257798594
 31
0.0
  0
LINE
  5
3B0
330
1F
100
AcDbEntity
  8
LAY-10
  6
CONTINUOUS
 62
     7
100
AcDbLine
 10
2169.440440114527
 20
2373.700000000052
 30
0.0
 11
2170.180730281128
 21
2374.440290166651
 31
0.0
  0
LINE
  5
3B1
330
1F
100
AcDbEntity
  8
LAY-10
  6
CONTINUOUS
 62
     7
100
AcDbLine
 10
2168.733333333347
 20
2373.700000000055
 30
0.0
 11
2169.851335680637
 21
2374.818002347349
 31
0.0
  0
LINE
  5
3B2
330
1F
100
AcDbEntity
  8
LAY-10
  6
CONTINUOUS
 62
     7
100
AcDbLine
 10
2168.733333333329
 20
2374.407106781226
 30
0.0
 11
2169.521941080152
 21
2375.195714528048
 31
0.0
  0
LINE
  5
3B3
330
1F
100
AcDbEntity
  8
LAY-10
  6
CONTINUOUS
 62
     7
100
AcDbLine
 10
2168.733333333334
 20
2375.114213562418
 30
0.0
 11
2169.192546479665
 21
2375.573426708746
 31
0.0
  0
LINE
  5
3B4
330
1F
100
AcDbEntity
  8
LAY-10
  6
CONTINUOUS
 62
     7
100
AcDbLine
 10
2168.733333333331
 20
2375.821320343603
 30
0.0
 11
2168.863151879198
 21
2375.951138889468
 31
0.0
  0
LINE
  5
3B5
330
1F
100
AcDbEntity
  8
LAY-10
  6
CONTINUOUS
 62
     7
100
AcDbLine
 10
2168.733333333344
 20
2376.100000000049
 30
0.0
 11
2171.382258118315
 21
2373.062515003072
 31
0.0
  0
LINE
  5
3B6
330
1F
100
AcDbEntity
  8
LAY-10
  6
CONTINUOUS
 62
     7
100
AcDbLine
 10
2135.504093159329
 20
2373.807919830502
 30
0.0
 11
2135.612012989782
 21
2373.700000000048
 31
0.0
  0
LINE
  5
3B7
330
1F
100
AcDbEntity
  8
LAY-10
  6
CONTINUOUS
 62
     7
100
AcDbLine
 10
2135.862238152394
 20
2374.156881618623
 30
0.0
 11
2136.319119770965
 21
2373.700000000055
 31
0.0
  0
LINE
  5
3B8
330
1F
100
AcDbEntity
  8
LAY-10
  6
CONTINUOUS
 62
     7
100
AcDbLine
 10
2136.220383145469
 20
2374.505843406734
 30
0.0
 11
2137.026226552157
 21
2373.700000000048
 31
0.0
  0
LINE
  5
3B9
330
1F
100
AcDbEntity
  8
LAY-10
  6
CONTINUOUS
 62
     7
100
AcDbLine
 10
2136.578528138535
 20
2374.854805194856
 30
0.0
 11
2137.733333333349
 21
2373.700000000041
 31
0.0
  0
LINE
  5
3BA
330
1F
100
AcDbEntity
  8
LAY-10
  6
CONTINUOUS
 62
     7
100
AcDbLine
 10
2136.936673131599
 20
2375.203766982977
 30
0.0
 11
2137.733333333344
 21
2374.407106781233
 31
0.0
  0
LINE
  5
3BB
330
1F
100
AcDbEntity
  8
LAY-10
  6
CONTINUOUS
 62
     7
100
AcDbLine
 10
2137.294818124673
 20
2375.55272877109
 30
0.0
 11
2137.733333333334
 21
2375.114213562425
 31
0.0
  0
LINE
  5
3BC
330
1F
100
AcDbEntity
  8
LAY-10
  6
CONTINUOUS
 62
     7
100
AcDbLine
 10
2137.652963117739
 20
2375.901690559211
 30
0.0
 11
2137.733333333344
 21
2375.82132034361
 31
0.0
  0
LINE
  5
3BD
330
1F
100
AcDbEntity
  8
LAY-10
  6
CONTINUOUS
 62
     7
100
AcDbLine
 10
2135.39333333334
 20
2373.700000000048
 30
0.0
 11
2137.73333333334
 21
2375.98000000005
 31
0.0
  0
LINE
  5
3BE
330
1F
100
AcDbEntity
  8
LAY-10
  6
CONTINUOUS
 62
     7
100
AcDbLine
 10
2125.733333333342
 20
1250.613708499035
 30
0.0
 11
2125.73333333334
 21
1253.300000000101
 31
0.0
  0
ARC
  5
3BF
330
1F
100
AcDbEntity
  8
LAY-10
  6
CONTINUOUS
 62
     7
100
AcDbCircle
 10
2133.733333333338
 20
2410.386291501065
 30
0.0
 40
8.0
100
AcDbArc
 50
134.9999999999862
 51
180.0
  0
LINE
  5
3C0
330
1F
100
AcDbEntity
  8
LAY-10
  6
CONTINUOUS
 62
     7
100
AcDbLine
 10
2133.733333333342
 20
2380.386291501067
 30
0.0
 11
2125.733333333342
 21
2380.386291501067
 31
0.0
  0
LINE
  5
3C1
330
1F
100
AcDbEntity
  8
LAY-10
  6
CONTINUOUS
 62
     7
100
AcDbLine
 10
2133.733333333342
 20
2410.386291501065
 30
0.0
 11
2133.733333333342
 21
2380.386291501067
 31
0.0
  0
LINE
  5
3C2
330
1F
100
AcDbEntity
  8
LAY-10
  6
CONTINUOUS
 62
     7
100
AcDbLine
 10
2169.088672392668
 20
2445.741630560391
 30
0.0
 11
2133.733333333342
 21
2410.386291501065
 31
0.0
  0
LINE
  5
3C3
330
1F
100
AcDbEntity
  8
LAY-10
  6
CONTINUOUS
 62
     7
100
AcDbLine
 10
2163.431818143174
 20
2451.398484809884
 30
0.0
 11
2169.088672392668
 21
2445.741630560391
 31
0.0
  0
LINE
  5
3C4
330
1F
100
AcDbEntity
  8
LAY-10
  6
CONTINUOUS
 62
     7
100
AcDbLine
 10
2163.431818143174
 20
2451.398484809884
 30
0.0
 11
2128.07647908385
 21
2416.043145750558
 31
0.0
  0
LINE
  5
3C5
330
1F
100
AcDbEntity
  8
LAY-10
  6
CONTINUOUS
 62
     7
100
AcDbLine
 10
2133.733333333342
 20
1280.613708499035
 30
0.0
 11
2125.733333333342
 21
1280.613708499035
 31
0.0
  0
LINE
  5
3C6
330
1F
100
AcDbEntity
  8
LAY-10
  6
CONTINUOUS
 62
     7
100
AcDbLine
 10
2163.431818143176
 20
1209.601515190215
 30
0.0
 11
2169.088672392668
 21
1215.258369439708
 31
0.0
  0
LINE
  5
3C7
330
1F
100
AcDbEntity
  8
LAY-10
  6
CONTINUOUS
 62
     7
100
AcDbLine
 10
2133.733333333342
 20
1250.613708499035
 30
0.0
 11
2133.733333333342
 21
1280.613708499035
 31
0.0
  0
LINE
  5
3C8
330
1F
100
AcDbEntity
  8
LAY-10
  6
CONTINUOUS
 62
     7
100
AcDbLine
 10
2169.088672392668
 20
1215.258369439708
 30
0.0
 11
2133.733333333342
 21
1250.613708499035
 31
0.0
  0
ARC
  5
3C9
330
1F
100
AcDbEntity
  8
LAY-10
  6
CONTINUOUS
 62
     7
100
AcDbCircle
 10
2133.733333333342
 20
1250.613708499035
 30
0.0
 40
8.0
100
AcDbArc
 50
180.0
 51
224.9999999999919
  0
LINE
  5
3CA
330
1F
100
AcDbEntity
  8
LAY-10
  6
CONTINUOUS
 62
     7
100
AcDbLine
 10
2163.431818143176
 20
1209.601515190215
 30
0.0
 11
2128.07647908385
 21
1244.956854249543
 31
0.0
  0
LINE
  5
3CB
330
1F
100
AcDbEntity
  8
LAY-10
  6
CONTINUOUS
 62
     7
100
AcDbLine
 10
2125.73333333334
 20
1253.300000000101
 30
0.0
 11
2125.733333333342
 21
1287.300000000049
 31
0.0
  0
LINE
  5
3CC
330
1F
100
AcDbEntity
  8
LAY-10
  6
CONTINUOUS
 62
     7
100
AcDbLine
 10
2163.333333333338
 20
1347.500000000051
 30
0.0
 11
2163.333333333338
 21
2313.500000000049
 31
0.0
  0
ARC
  5
3CD
330
1F
100
AcDbEntity
  8
LAY-10
  6
CONTINUOUS
 62
     7
100
AcDbCircle
 10
2167.333333333338
 20
1347.500000000051
 30
0.0
 40
4.0
100
AcDbArc
 50
180.0
 51
270.0000000000002
  0
ARC
  5
3CE
330
1F
100
AcDbEntity
  8
LAY-10
  6
CONTINUOUS
 62
     7
100
AcDbCircle
 10
2161.33333333334
 20
1368.500000000051
 30
0.0
 40
2.0
100
AcDbArc
 50
0.0
 51
90.00000000000001
  0
ARC
  5
3CF
330
1F
100
AcDbEntity
  8
LAY-10
  6
CONTINUOUS
 62
     7
100
AcDbCircle
 10
2188.33333333334
 20
1341.50000000005
 30
0.0
 40
2.0
100
AcDbArc
 50
0.0
 51
90.00000000000001
  0
LINE
  5
3D0
330
1F
100
AcDbEntity
  8
LAY-10
  6
CONTINUOUS
 62
     7
100
AcDbLine
 10
2190.33333333334
 20
1340.50000000005
 30
0.0
 11
2190.33333333334
 21
1341.50000000005
 31
0.0
  0
LINE
  5
3D1
330
1F
100
AcDbEntity
  8
LAY-10
  6
CONTINUOUS
 62
     7
100
AcDbLine
 10
2160.33333333334
 20
1370.50000000005
 30
0.0
 11
2161.33333333334
 21
1370.50000000005
 31
0.0
  0
LINE
  5
3D2
330
1F
100
AcDbEntity
  8
LAY-10
  6
CONTINUOUS
 62
     7
100
AcDbLine
 10
2167.333333333338
 20
1343.500000000051
 30
0.0
 11
2188.33333333334
 21
1343.500000000051
 31
0.0
  0
LINE
  5
3D3
330
1F
100
AcDbEntity
  8
LAY-10
  6
CONTINUOUS
 62
     7
100
AcDbLine
 10
2160.33333333334
 20
1340.50000000005
 30
0.0
 11
2190.33333333334
 21
1340.50000000005
 31
0.0
  0
ARC
  5
3D4
330
1F
100
AcDbEntity
  8
LAY-10
  6
CONTINUOUS
 62
     7
100
AcDbCircle
 10
2167.333333333338
 20
2313.500000000049
 30
0.0
 40
4.0
100
AcDbArc
 50
90.00000000000001
 51
180.0
  0
ARC
  5
3D5
330
1F
100
AcDbEntity
  8
LAY-10
  6
CONTINUOUS
 62
     7
100
AcDbCircle
 10
2161.33333333334
 20
2292.500000000051
 30
0.0
 40
2.0
100
AcDbArc
 50
270.0000000000002
 51
0.0
  0
ARC
  5
3D6
330
1F
100
AcDbEntity
  8
LAY-10
  6
CONTINUOUS
 62
     7
100
AcDbCircle
 10
2188.33333333334
 20
2319.500000000049
 30
0.0
 40
2.0
100
AcDbArc
 50
270.0000000000002
 51
0.0
  0
LINE
  5
3D7
330
1F
100
AcDbEntity
  8
LAY-10
  6
CONTINUOUS
 62
     7
100
AcDbLine
 10
2190.33333333334
 20
2320.500000000049
 30
0.0
 11
2190.33333333334
 21
2319.500000000049
 31
0.0
  0
LINE
  5
3D8
330
1F
100
AcDbEntity
  8
LAY-10
  6
CONTINUOUS
 62
     7
100
AcDbLine
 10
2160.33333333334
 20
2290.500000000051
 30
0.0
 11
2161.33333333334
 21
2290.500000000051
 31
0.0
  0
LINE
  5
3D9
330
1F
100
AcDbEntity
  8
LAY-10
  6
CONTINUOUS
 62
     7
100
AcDbLine
 10
2167.333333333338
 20
2317.500000000051
 30
0.0
 11
2188.33333333334
 21
2317.500000000051
 31
0.0
  0
LINE
  5
3DA
330
1F
100
AcDbEntity
  8
LAY-10
  6
CONTINUOUS
 62
     7
100
AcDbLine
 10
2160.33333333334
 20
2320.500000000049
 30
0.0
 11
2190.33333333334
 21
2320.500000000049
 31
0.0
  0
LINE
  5
3DB
330
1F
100
AcDbEntity
  8
LAY-10
  6
CONTINUOUS
 62
     7
100
AcDbLine
 10
2075.333333333342
 20
2410.500000000049
 30
0.0
 11
2119.533333333341
 21
2410.500000000049
 31
0.0
  0
LINE
  5
3DC
330
1F
100
AcDbEntity
  8
LAY-10
  6
CONTINUOUS
 62
     7
100
AcDbLine
 10
2072.333333333346
 20
2407.500000000051
 30
0.0
 11
2072.333333333346
 21
2422.500000000051
 31
0.0
  0
LINE
  5
3DD
330
1F
100
AcDbEntity
  8
LAY-10
  6
CONTINUOUS
 62
     7
100
AcDbLine
 10
2072.333333333346
 20
2422.500000000051
 30
0.0
 11
2075.333333333342
 21
2422.500000000051
 31
0.0
  0
LINE
  5
3DE
330
1F
100
AcDbEntity
  8
LAY-10
  6
CONTINUOUS
 62
     7
100
AcDbLine
 10
2087.333333333346
 20
2407.500000000051
 30
0.0
 11
2087.333333333346
 21
2410.500000000049
 31
0.0
  0
LINE
  5
3DF
330
1F
100
AcDbEntity
  8
LAY-10
  6
CONTINUOUS
 62
     7
100
AcDbLine
 10
2075.333333333342
 20
2410.500000000049
 30
0.0
 11
2075.333333333342
 21
2422.500000000051
 31
0.0
  0
LINE
  5
3E0
330
1F
100
AcDbEntity
  8
LAY-10
  6
CONTINUOUS
 62
     7
100
AcDbLine
 10
2072.333333333346
 20
2407.500000000051
 30
0.0
 11
2087.333333333346
 21
2407.500000000051
 31
0.0
  0
LINE
  5
3E1
330
1F
100
AcDbEntity
  8
LAY-10
  6
CONTINUOUS
 62
     7
100
AcDbLine
 10
2072.333333333346
 20
1238.50000000005
 30
0.0
 11
2075.333333333342
 21
1238.50000000005
 31
0.0
  0
LINE
  5
3E2
330
1F
100
AcDbEntity
  8
LAY-10
  6
CONTINUOUS
 62
     7
100
AcDbLine
 10
2087.333333333346
 20
1253.50000000005
 30
0.0
 11
2087.333333333346
 21
1250.50000000005
 31
0.0
  0
LINE
  5
3E3
330
1F
100
AcDbEntity
  8
LAY-10
  6
CONTINUOUS
 62
     7
100
AcDbLine
 10
2075.333333333342
 20
1250.50000000005
 30
0.0
 11
2075.333333333342
 21
1238.50000000005
 31
0.0
  0
LINE
  5
3E4
330
1F
100
AcDbEntity
  8
LAY-10
  6
CONTINUOUS
 62
     7
100
AcDbLine
 10
2072.333333333346
 20
1253.50000000005
 30
0.0
 11
2072.333333333346
 21
1238.50000000005
 31
0.0
  0
LINE
  5
3E5
330
1F
100
AcDbEntity
  8
LAY-10
  6
CONTINUOUS
 62
     7
100
AcDbLine
 10
2072.333333333346
 20
1253.50000000005
 30
0.0
 11
2087.333333333346
 21
1253.50000000005
 31
0.0
  0
LINE
  5
3E6
330
1F
100
AcDbEntity
  8
LAY-10
  6
CONTINUOUS
 62
     7
100
AcDbLine
 10
2202.533333333334
 20
2330.500000000051
 30
0.0
 11
2160.33333333334
 21
2330.500000000051
 31
0.0
  0
ARC
  5
3E7
330
1F
100
AcDbEntity
  8
LAY-10
  6
CONTINUOUS
 62
     7
100
AcDbCircle
 10
2200.533333333334
 20
2331.49999999996
 30
0.0
 40
2.0
100
AcDbArc
 50
0.0
 51
90.00000000000001
  0
LINE
  5
3E8
330
1F
100
AcDbEntity
  8
LAY-10
  6
CONTINUOUS
 62
     7
100
AcDbLine
 10
2202.533333333334
 20
2330.49999999996
 30
0.0
 11
2202.533333333334
 21
2331.49999999996
 31
0.0
  0
LINE
  5
3E9
330
1F
100
AcDbEntity
  8
LAY-10
  6
CONTINUOUS
 62
     7
100
AcDbLine
 10
2179.533333333336
 20
2333.49999999996
 30
0.0
 11
2200.533333333334
 21
2333.49999999996
 31
0.0
  0
LINE
  5
3EA
330
1F
100
AcDbEntity
  8
LAY-10
  6
CONTINUOUS
 62
     7
100
AcDbLine
 10
2202.533333333334
 20
1330.500000000051
 30
0.0
 11
2160.33333333334
 21
1330.500000000051
 31
0.0
  0
ARC
  5
3EB
330
1F
100
AcDbEntity
  8
LAY-10
  6
CONTINUOUS
 62
     7
100
AcDbCircle
 10
2200.533333333334
 20
1329.500000000142
 30
0.0
 40
2.0
100
AcDbArc
 50
270.0000000000002
 51
0.0
  0
LINE
  5
3EC
330
1F
100
AcDbEntity
  8
LAY-10
  6
CONTINUOUS
 62
     7
100
AcDbLine
 10
2202.533333333334
 20
1330.500000000142
 30
0.0
 11
2202.533333333334
 21
1329.500000000142
 31
0.0
  0
LINE
  5
3ED
330
1F
100
AcDbEntity
  8
LAY-10
  6
CONTINUOUS
 62
     7
100
AcDbLine
 10
2179.533333333336
 20
1327.500000000142
 30
0.0
 11
2200.533333333334
 21
1327.500000000142
 31
0.0
  0
LINE
  5
3EE
330
1F
100
AcDbEntity
  8
LAY-10
  6
CONTINUOUS
 62
     7
100
AcDbLine
 10
2075.333333333342
 20
1250.50000000005
 30
0.0
 11
2119.533333333341
 21
1250.50000000005
 31
0.0
  0
LINE
  5
3EF
330
1F
100
AcDbEntity
  8
LAY-10
  6
CONTINUOUS
 62
     7
100
AcDbLine
 10
2169.333333333342
 20
1300.500000000051
 30
0.0
 11
2169.333333333342
 21
1290.500000000051
 31
0.0
  0
LINE
  5
3F0
330
1F
100
AcDbEntity
  8
LAY-10
  6
CONTINUOUS
 62
     7
100
AcDbLine
 10
2169.333333333342
 20
1310.50000000005
 30
0.0
 11
2169.333333333342
 21
1340.50000000005
 31
0.0
  0
LINE
  5
3F1
330
1F
100
AcDbEntity
  8
LAY-10
  6
CONTINUOUS
 62
     7
100
AcDbLine
 10
2172.533333333339
 20
1340.50000000005
 30
0.0
 11
2172.533333333339
 21
1290.300000000051
 31
0.0
  0
LINE
  5
3F2
330
1F
100
AcDbEntity
  8
LAY-10
  6
CONTINUOUS
 62
     7
100
AcDbLine
 10
2125.533333333341
 20
1290.500000000051
 30
0.0
 11
2169.333333333342
 21
1290.500000000051
 31
0.0
  0
LINE
  5
3F3
330
1F
100
AcDbEntity
  8
LAY-10
  6
CONTINUOUS
 62
     7
100
AcDbLine
 10
2125.733333333342
 20
1287.300000000051
 30
0.0
 11
2169.533333333343
 21
1287.300000000051
 31
0.0
  0
ARC
  5
3F4
330
1F
100
AcDbEntity
  8
LAY-10
  6
CONTINUOUS
 62
     7
100
AcDbCircle
 10
2179.533333333336
 20
2337.49999999996
 30
0.0
 40
4.0
100
AcDbArc
 50
180.0
 51
270.0000000000002
  0
LINE
  5
3F5
330
1F
100
AcDbEntity
  8
LAY-10
  6
CONTINUOUS
 62
     7
100
AcDbLine
 10
2175.533333333336
 20
2337.49999999996
 30
0.0
 11
2175.533333333336
 21
2345.500000000007
 31
0.0
  0
ARC
  5
3F6
330
1F
100
AcDbEntity
  8
LAY-10
  6
CONTINUOUS
 62
     7
100
AcDbCircle
 10
2179.533333333336
 20
1323.500000000142
 30
0.0
 40
4.0
100
AcDbArc
 50
90.00000000000001
 51
180.0
  0
LINE
  5
3F7
330
1F
100
AcDbEntity
  8
LAY-10
  6
CONTINUOUS
 62
     7
100
AcDbLine
 10
2175.533333333336
 20
1323.500000000142
 30
0.0
 11
2175.533333333336
 21
1315.500000000093
 31
0.0
  0
LINE
  5
3F8
330
1F
100
AcDbEntity
  8
LAY-10
  6
CONTINUOUS
 62
     7
100
AcDbLine
 10
2190.33333333334
 20
1341.50000000005
 30
0.0
 11
2190.33333333334
 21
2319.500000000049
 31
0.0
  0
LINE
  5
3F9
330
1F
100
AcDbEntity
  8
LAY-10
  6
CONTINUOUS
 62
     7
100
AcDbLine
 10
2169.333333333342
 20
1327.500000000051
 30
0.0
 11
2160.33333333334
 21
1327.500000000051
 31
0.0
  0
LINE
  5
3FA
330
1F
100
AcDbEntity
  8
LAY-10
  6
CONTINUOUS
 62
     7
100
AcDbLine
 10
2169.333333333342
 20
2333.500000000051
 30
0.0
 11
2160.33333333334
 21
2333.500000000051
 31
0.0
  0
ARC
  5
3FB
330
1F
100
AcDbEntity
  8
LAY-10
  6
CONTINUOUS
 62
     7
100
AcDbCircle
 10
2125.533333333341
 20
1287.500000000049
 30
0.0
 40
3.000000000000003
100
AcDbArc
 50
90.00000000000001
 51
180.0
  0
ARC
  5
3FC
330
1F
100
AcDbEntity
  8
LAY-10
  6
CONTINUOUS
 62
     7
100
AcDbCircle
 10
2119.733333333338
 20
1253.300000000051
 30
0.0
 40
6.000000000000005
100
AcDbArc
 50
270.0000000000002
 51
0.0
  0
ARC
  5
3FD
330
1F
100
AcDbEntity
  8
LAY-10
  6
CONTINUOUS
 62
     7
100
AcDbCircle
 10
2119.533333333341
 20
1253.50000000005
 30
0.0
 40
3.000000000000003
100
AcDbArc
 50
270.0000000000002
 51
0.0
  0
ARC
  5
3FE
330
1F
100
AcDbEntity
  8
LAY-10
  6
CONTINUOUS
 62
     7
100
AcDbCircle
 10
2169.533333333343
 20
1290.300000000051
 30
0.0
 40
3.000000000000003
100
AcDbArc
 50
270.0000000000002
 51
0.0
  0
LINE
  5
3FF
330
1F
100
AcDbEntity
  8
LAY-10
  6
CONTINUOUS
 62
     7
100
AcDbLine
 10
2169.333333333342
 20
1293.500000000052
 30
0.0
 11
2160.133333333341
 21
1293.500000000052
 31
0.0
  0
LINE
  5
400
330
1F
100
AcDbEntity
  8
LAY-10
  6
CONTINUOUS
 62
     7
100
AcDbLine
 10
2119.733333333338
 20
1247.300000000049
 30
0.0
 11
2075.333333333342
 21
1247.300000000049
 31
0.0
  0
LINE
  5
401
330
1F
100
AcDbEntity
  8
LAY-10
  6
CONTINUOUS
 62
     7
100
AcDbLine
 10
2119.733333333338
 20
2413.700000000048
 30
0.0
 11
2075.333333333342
 21
2413.700000000048
 31
0.0
  0
ARC
  5
402
330
1F
100
AcDbEntity
  8
LAY-10
  6
CONTINUOUS
 62
     7
100
AcDbCircle
 10
2125.533333333341
 20
2373.500000000051
 30
0.0
 40
3.000000000000003
100
AcDbArc
 50
180.0
 51
270.0000000000002
  0
ARC
  5
403
330
1F
100
AcDbEntity
  8
LAY-10
  6
CONTINUOUS
 62
     7
100
AcDbCircle
 10
2119.733333333338
 20
2407.700000000048
 30
0.0
 40
6.000000000000005
100
AcDbArc
 50
0.0
 51
90.00000000000001
  0
ARC
  5
404
330
1F
100
AcDbEntity
  8
LAY-10
  6
CONTINUOUS
 62
     7
100
AcDbCircle
 10
2119.533333333341
 20
2407.500000000051
 30
0.0
 40
3.000000000000003
100
AcDbArc
 50
0.0
 51
90.00000000000001
  0
ARC
  5
405
330
1F
100
AcDbEntity
  8
LAY-10
  6
CONTINUOUS
 62
     7
100
AcDbCircle
 10
2160.133333333341
 20
1296.50000000005
 30
0.0
 40
3.000000000000003
100
AcDbArc
 50
180.0
 51
270.0000000000002
  0
LINE
  5
406
330
1F
100
AcDbEntity
  8
LAY-10
  6
CONTINUOUS
 62
     7
100
AcDbLine
 10
2169.333333333342
 20
1296.50000000005
 30
0.0
 11
2160.33333333334
 21
1296.50000000005
 31
0.0
  0
LINE
  5
407
330
1F
100
AcDbEntity
  8
LAY-10
  6
CONTINUOUS
 62
     7
100
AcDbLine
 10
2160.33333333334
 20
1299.50000000005
 30
0.0
 11
2157.13333333334
 21
1299.50000000005
 31
0.0
  0
LINE
  5
408
330
1F
100
AcDbEntity
  8
LAY-10
  6
CONTINUOUS
 62
     7
100
AcDbLine
 10
2160.33333333334
 20
1311.50000000005
 30
0.0
 11
2157.13333333334
 21
1311.50000000005
 31
0.0
  0
LINE
  5
409
330
1F
100
AcDbEntity
  8
LAY-10
  6
CONTINUOUS
 62
     7
100
AcDbLine
 10
2169.333333333342
 20
1299.50000000005
 30
0.0
 11
2172.533333333339
 21
1299.50000000005
 31
0.0
  0
LINE
  5
40A
330
1F
100
AcDbEntity
  8
LAY-10
  6
CONTINUOUS
 62
     7
100
AcDbLine
 10
2169.333333333342
 20
1311.50000000005
 30
0.0
 11
2172.533333333339
 21
1311.50000000005
 31
0.0
  0
ARC
  5
40B
330
1F
100
AcDbEntity
  8
LAY-10
  6
CONTINUOUS
 62
     7
100
AcDbCircle
 10
2160.133333333341
 20
2364.500000000051
 30
0.0
 40
3.000000000000003
100
AcDbArc
 50
90.00000000000001
 51
180.0
  0
LINE
  5
40C
330
1F
100
AcDbEntity
  8
LAY-10
  6
CONTINUOUS
 62
     7
100
AcDbLine
 10
2160.33333333334
 20
1300.500000000051
 30
0.0
 11
2160.33333333334
 21
1296.50000000005
 31
0.0
  0
ARC
  5
40D
330
1F
100
AcDbEntity
  8
LAY-10
  6
CONTINUOUS
 62
     7
100
AcDbCircle
 10
2169.533333333343
 20
2370.700000000052
 30
0.0
 40
3.000000000000003
100
AcDbArc
 50
0.0
 51
90.00000000000001
  0
LINE
  5
40E
330
1F
100
AcDbEntity
  8
LAY-10
  6
CONTINUOUS
 62
     7
100
AcDbLine
 10
2169.333333333342
 20
2364.500000000051
 30
0.0
 11
2160.33333333334
 21
2364.500000000051
 31
0.0
  0
LINE
  5
40F
330
1F
100
AcDbEntity
  8
LAY-10
  6
CONTINUOUS
 62
     7
100
AcDbLine
 10
2169.333333333342
 20
2367.500000000051
 30
0.0
 11
2160.133333333341
 21
2367.500000000051
 31
0.0
  0
LINE
  5
410
330
1F
100
AcDbEntity
  8
LAY-10
  6
CONTINUOUS
 62
     7
100
AcDbLine
 10
2160.33333333334
 20
2361.500000000051
 30
0.0
 11
2157.13333333334
 21
2361.500000000051
 31
0.0
  0
LINE
  5
411
330
1F
100
AcDbEntity
  8
LAY-10
  6
CONTINUOUS
 62
     7
100
AcDbLine
 10
2160.33333333334
 20
2349.500000000051
 30
0.0
 11
2157.13333333334
 21
2349.500000000051
 31
0.0
  0
LINE
  5
412
330
1F
100
AcDbEntity
  8
LAY-10
  6
CONTINUOUS
 62
     7
100
AcDbLine
 10
2169.333333333342
 20
2361.500000000051
 30
0.0
 11
2172.533333333339
 21
2361.500000000051
 31
0.0
  0
LINE
  5
413
330
1F
100
AcDbEntity
  8
LAY-10
  6
CONTINUOUS
 62
     7
100
AcDbLine
 10
2169.333333333342
 20
2349.500000000051
 30
0.0
 11
2172.533333333339
 21
2349.500000000051
 31
0.0
  0
LINE
  5
414
330
1F
100
AcDbEntity
  8
LAY-10
  6
CONTINUOUS
 62
     7
100
AcDbLine
 10
665.0000000000464
 20
747.9999999999991
 30
0.0
 11
665.0000000000464
 21
760.1999999999985
 31
0.0
  0
LINE
  5
415
330
1F
100
AcDbEntity
  8
LAY-10
  6
CONTINUOUS
 62
     7
100
AcDbLine
 10
646.0000000000459
 20
751.1999999999989
 30
0.0
 11
646.0000000000459
 21
747.9999999999991
 31
0.0
  0
LINE
  5
416
330
1F
100
AcDbEntity
  8
LAY-10
  6
CONTINUOUS
 62
     7
100
AcDbLine
 10
634.0000000000455
 20
751.1999999999989
 30
0.0
 11
634.0000000000455
 21
747.9999999999991
 31
0.0
  0
LINE
  5
417
330
1F
100
AcDbEntity
  8
LAY-10
  6
CONTINUOUS
 62
     7
100
AcDbLine
 10
646.0000000000459
 20
760.1999999999985
 30
0.0
 11
646.0000000000459
 21
763.3999999999992
 31
0.0
  0
LINE
  5
418
330
1F
100
AcDbEntity
  8
LAY-10
  6
CONTINUOUS
 62
     7
100
AcDbLine
 10
634.0000000000455
 20
760.1999999999985
 30
0.0
 11
634.0000000000455
 21
763.3999999999992
 31
0.0
  0
LINE
  5
419
330
1F
100
AcDbEntity
  8
LAY-10
  6
CONTINUOUS
 62
     7
100
AcDbLine
 10
635.0000000000464
 20
760.1999999999985
 30
0.0
 11
631.0000000000459
 21
760.1999999999985
 31
0.0
  0
LINE
  5
41A
330
1F
100
AcDbEntity
  8
LAY-10
  6
CONTINUOUS
 62
     7
100
AcDbLine
 10
628.0000000000468
 20
751.1999999999989
 30
0.0
 11
628.0000000000468
 21
760.3999999999992
 31
0.0
  0
LINE
  5
41B
330
1F
100
AcDbEntity
  8
LAY-10
  6
CONTINUOUS
 62
     7
100
AcDbLine
 10
631.0000000000459
 20
751.1999999999989
 30
0.0
 11
631.0000000000459
 21
760.1999999999985
 31
0.0
  0
LINE
  5
41C
330
1F
100
AcDbEntity
  8
LAY-10
  6
CONTINUOUS
 62
     7
100
AcDbLine
 10
622.0000000000473
 20
751.1999999999989
 30
0.0
 11
635.0000000000464
 21
751.1999999999989
 31
0.0
  0
LINE
  5
41D
330
1F
100
AcDbEntity
  8
LAY-10
  6
CONTINUOUS
 62
     7
100
AcDbLine
 10
1654.000000000032
 20
730.1999999999994
 30
0.0
 11
675.0000000000468
 21
730.1999999999989
 31
0.0
  0
ARC
  5
41E
330
1F
100
AcDbEntity
  8
LAY-10
  6
CONTINUOUS
 62
     7
100
AcDbCircle
 10
631.0000000000459
 20
760.3999999999992
 30
0.0
 40
3.000000000000003
100
AcDbArc
 50
90.00000000000001
 51
180.0
  0
LINE
  5
41F
330
1F
100
AcDbEntity
  8
LAY-10
  6
CONTINUOUS
 62
     7
100
AcDbLine
 10
1665.000000000033
 20
747.9999999999995
 30
0.0
 11
1665.000000000033
 21
760.1999999999994
 31
0.0
  0
LINE
  5
420
330
1F
100
AcDbEntity
  8
LAY-10
  6
CONTINUOUS
 62
     7
100
AcDbLine
 10
1684.000000000032
 20
751.1999999999989
 30
0.0
 11
1684.000000000032
 21
747.9999999999995
 31
0.0
  0
LINE
  5
421
330
1F
100
AcDbEntity
  8
LAY-10
  6
CONTINUOUS
 62
     7
100
AcDbLine
 10
1696.000000000034
 20
751.1999999999989
 30
0.0
 11
1696.000000000034
 21
747.9999999999995
 31
0.0
  0
LINE
  5
422
330
1F
100
AcDbEntity
  8
LAY-10
  6
CONTINUOUS
 62
     7
100
AcDbLine
 10
1684.000000000032
 20
760.1999999999994
 30
0.0
 11
1684.000000000032
 21
763.3999999999992
 31
0.0
  0
LINE
  5
423
330
1F
100
AcDbEntity
  8
LAY-10
  6
CONTINUOUS
 62
     7
100
AcDbLine
 10
1696.000000000034
 20
760.1999999999994
 30
0.0
 11
1696.000000000034
 21
763.3999999999992
 31
0.0
  0
LINE
  5
424
330
1F
100
AcDbEntity
  8
LAY-10
  6
CONTINUOUS
 62
     7
100
AcDbLine
 10
1699.000000000032
 20
751.1999999999989
 30
0.0
 11
1699.000000000032
 21
760.1999999999994
 31
0.0
  0
ARC
  5
425
330
1F
100
AcDbEntity
  8
LAY-10
  6
CONTINUOUS
 62
     7
100
AcDbCircle
 10
1699.000000000032
 20
760.4
 30
0.0
 40
3.000000000000003
100
AcDbArc
 50
0.0
 51
90.00000000000001
  0
LINE
  5
426
330
1F
100
AcDbEntity
  8
LAY-10
  6
CONTINUOUS
 62
     7
100
AcDbLine
 10
1711.200000000034
 20
751.0
 30
0.0
 11
1711.200000000034
 21
844.9999999999991
 31
0.0
  0
LINE
  5
427
330
1F
100
AcDbEntity
  8
LAY-10
  6
CONTINUOUS
 62
     7
100
AcDbLine
 10
1702.000000000032
 20
751.1999999999989
 30
0.0
 11
1702.000000000032
 21
760.3999999999992
 31
0.0
  0
LINE
  5
428
330
1F
100
AcDbEntity
  8
LAY-10
  6
CONTINUOUS
 62
     7
100
AcDbLine
 10
618.8000000000457
 20
750.9999999999991
 30
0.0
 11
618.8000000000457
 21
844.9999999999991
 31
0.0
  0
ARC
  5
429
330
1F
100
AcDbEntity
  8
LAY-10
  6
CONTINUOUS
 62
     7
100
AcDbCircle
 10
1708.200000000033
 20
751.0
 30
0.0
 40
3.000000000000003
100
AcDbArc
 50
270.0000000000002
 51
0.0
  0
ARC
  5
42A
330
1F
100
AcDbEntity
  8
LAY-10
  6
CONTINUOUS
 62
     7
100
AcDbCircle
 10
621.8000000000466
 20
750.9999999999991
 30
0.0
 40
3.000000000000003
100
AcDbArc
 50
180.0
 51
270.0000000000002
  0
LINE
  5
42B
330
1F
100
AcDbEntity
  8
LAY-10
  6
CONTINUOUS
 62
     7
100
AcDbLine
 10
1668.000000000033
 20
751.1999999999989
 30
0.0
 11
1668.000000000033
 21
760.1999999999994
 31
0.0
  0
LINE
  5
42C
330
1F
100
AcDbEntity
  8
LAY-10
  6
CONTINUOUS
 62
     7
100
AcDbLine
 10
662.0000000000468
 20
751.1999999999989
 30
0.0
 11
662.0000000000468
 21
760.1999999999994
 31
0.0
  0
POLYLINE
  5
42D
330
1F
100
AcDbEntity
  8
LAY-10
  6
CONTINUOUS
 62
     7
100
AcDb2dPolyline
 66
     1
 10
0.0
 20
0.0
 30
0.0
 70
   128
  0
VERTEX
  5
42E
330
42D
100
AcDbEntity
  8
LAY-10
  6
CONTINUOUS
 62
     7
100
AcDbVertex
100
AcDb2dVertex
 10
682.0000000000463
 20
757.1999999999989
 30
0.0
  0
VERTEX
  5
42F
330
42D
100
AcDbEntity
  8
LAY-10
  6
CONTINUOUS
 62
     7
100
AcDbVertex
100
AcDb2dVertex
 10
811.5000000000464
 20
757.1999999999998
 30
0.0
  0
VERTEX
  5
430
330
42D
100
AcDbEntity
  8
LAY-10
  6
CONTINUOUS
 62
     7
100
AcDbVertex
100
AcDb2dVertex
 10
1648.000000000031
 20
757.1999999999998
 30
0.0
  0
SEQEND
  5
431
330
42D
100
AcDbEntity
  8
LAY-10
  6
CONTINUOUS
 62
     7
  0
LINE
  5
432
330
1F
100
AcDbEntity
  8
LAY-10
  6
CONTINUOUS
 62
     7
100
AcDbLine
 10
1700.500000000033
 20
763.3999999999992
 30
0.0
 11
629.5000000000464
 21
763.3999999999992
 31
0.0
  0
LINE
  5
433
330
1F
100
AcDbEntity
  8
LAY-10
  6
CONTINUOUS
 62
     7
100
AcDbLine
 10
675.0000000000458
 20
747.9999999999991
 30
0.0
 11
621.8000000000466
 21
747.9999999999991
 31
0.0
  0
LINE
  5
434
330
1F
100
AcDbEntity
  8
LAY-10
  6
CONTINUOUS
 62
     7
100
AcDbLine
 10
645.0000000000458
 20
751.1999999999989
 30
0.0
 11
675.0000000000458
 21
751.1999999999989
 31
0.0
  0
LINE
  5
435
330
1F
100
AcDbEntity
  8
LAY-10
  6
CONTINUOUS
 62
     7
100
AcDbLine
 10
1685.000000000032
 20
751.1999999999989
 30
0.0
 11
1655.000000000032
 21
751.1999999999989
 31
0.0
  0
LINE
  5
436
330
1F
100
AcDbEntity
  8
LAY-10
  6
CONTINUOUS
 62
     7
100
AcDbLine
 10
1695.000000000033
 20
751.1999999999989
 30
0.0
 11
1708.000000000033
 21
751.1999999999989
 31
0.0
  0
LINE
  5
437
330
1F
100
AcDbEntity
  8
LAY-10
  6
CONTINUOUS
 62
     7
100
AcDbLine
 10
1708.000000000033
 20
844.9999999999991
 30
0.0
 11
1708.000000000033
 21
751.1999999999998
 31
0.0
  0
LINE
  5
438
330
1F
100
AcDbEntity
  8
LAY-10
  6
CONTINUOUS
 62
     7
100
AcDbLine
 10
622.0000000000473
 20
844.9999999999991
 30
0.0
 11
622.0000000000473
 21
751.1999999999992
 31
0.0
  0
LINE
  5
439
330
1F
100
AcDbEntity
  8
LAY-10
  6
CONTINUOUS
 62
     7
100
AcDbLine
 10
622.0000000000473
 20
799.8000000000002
 30
0.0
 11
1708.000000000033
 21
799.8000000000002
 31
0.0
  0
LINE
  5
43A
330
1F
100
AcDbEntity
  8
LAY-10
  6
CONTINUOUS
 62
     7
100
AcDbLine
 10
1655.000000000032
 20
747.9999999999995
 30
0.0
 11
1708.200000000033
 21
747.9999999999995
 31
0.0
  0
LINE
  5
43B
330
1F
100
AcDbEntity
  8
LAY-10
  6
CONTINUOUS
 62
     7
100
AcDbLine
 10
665.0000000000591
 20
717.9999999999941
 30
0.0
 11
665.0000000000595
 21
747.9999999999999
 31
0.0
  0
LINE
  5
43C
330
1F
100
AcDbEntity
  8
LAY-10
  6
CONTINUOUS
 62
     7
100
AcDbLine
 10
665.0000000000591
 20
717.9999999999941
 30
0.0
 11
765.0000000000591
 21
717.999999999995
 31
0.0
  0
LINE
  5
43D
330
1F
100
AcDbEntity
  8
LAY-10
  6
CONTINUOUS
 62
     7
100
AcDbLine
 10
765.0000000000591
 20
717.999999999995
 30
0.0
 11
765.0000000000595
 21
730.1999999999998
 31
0.0
  0
LINE
  5
43E
330
1F
100
AcDbEntity
  8
LAY-10
  6
CONTINUOUS
 62
     7
100
AcDbLine
 10
1565.000000000041
 20
717.999999999995
 30
0.0
 11
1565.000000000041
 21
730.1999999999998
 31
0.0
  0
LINE
  5
43F
330
1F
100
AcDbEntity
  8
LAY-10
  6
CONTINUOUS
 62
     7
100
AcDbLine
 10
1665.000000000041
 20
717.9999999999941
 30
0.0
 11
1565.000000000041
 21
717.999999999995
 31
0.0
  0
LINE
  5
440
330
1F
100
AcDbEntity
  8
LAY-10
  6
CONTINUOUS
 62
     7
100
AcDbLine
 10
1665.000000000041
 20
717.9999999999941
 30
0.0
 11
1665.000000000041
 21
747.9999999999999
 31
0.0
  0
LINE
  5
441
330
1F
100
AcDbEntity
  8
LAY-10
  6
CONTINUOUS
 62
     7
100
AcDbLine
 10
625.0000000000459
 20
847.9999999999986
 30
0.0
 11
625.0000000000459
 21
832.9999999999995
 31
0.0
  0
LINE
  5
442
330
1F
100
AcDbEntity
  8
LAY-10
  6
CONTINUOUS
 62
     7
100
AcDbLine
 10
622.0000000000455
 20
844.9999999999991
 30
0.0
 11
610.0000000000459
 21
844.9999999999991
 31
0.0
  0
LINE
  5
443
330
1F
100
AcDbEntity
  8
LAY-10
  6
CONTINUOUS
 62
     7
100
AcDbLine
 10
625.0000000000459
 20
832.9999999999995
 30
0.0
 11
622.0000000000455
 21
832.9999999999995
 31
0.0
  0
LINE
  5
444
330
1F
100
AcDbEntity
  8
LAY-10
  6
CONTINUOUS
 62
     7
100
AcDbLine
 10
610.0000000000459
 20
847.9999999999986
 30
0.0
 11
610.0000000000459
 21
844.9999999999991
 31
0.0
  0
LINE
  5
445
330
1F
100
AcDbEntity
  8
LAY-10
  6
CONTINUOUS
 62
     7
100
AcDbLine
 10
1705.000000000032
 20
847.9999999999986
 30
0.0
 11
1705.000000000032
 21
832.9999999999995
 31
0.0
  0
LINE
  5
446
330
1F
100
AcDbEntity
  8
LAY-10
  6
CONTINUOUS
 62
     7
100
AcDbLine
 10
1708.000000000033
 20
844.9999999999991
 30
0.0
 11
1720.000000000032
 21
844.9999999999991
 31
0.0
  0
LINE
  5
447
330
1F
100
AcDbEntity
  8
LAY-10
  6
CONTINUOUS
 62
     7
100
AcDbLine
 10
1705.000000000032
 20
832.9999999999995
 30
0.0
 11
1708.000000000033
 21
832.9999999999995
 31
0.0
  0
LINE
  5
448
330
1F
100
AcDbEntity
  8
LAY-10
  6
CONTINUOUS
 62
     7
100
AcDbLine
 10
1720.000000000032
 20
847.9999999999986
 30
0.0
 11
1720.000000000032
 21
844.9999999999991
 31
0.0
  0
LINE
  5
449
330
1F
100
AcDbEntity
  8
LAY-10
  6
CONTINUOUS
 62
     7
100
AcDbLine
 10
675.0000000000458
 20
760.1999999999985
 30
0.0
 11
675.0000000000458
 21
730.1999999999989
 31
0.0
  0
LINE
  5
44A
330
1F
100
AcDbEntity
  8
LAY-10
  6
CONTINUOUS
 62
     7
100
AcDbLine
 10
678.0000000000464
 20
753.1999999999997
 30
0.0
 11
678.0000000000464
 21
732.1999999999989
 31
0.0
  0
LINE
  5
44B
330
1F
100
AcDbEntity
  8
LAY-10
  6
CONTINUOUS
 62
     7
100
AcDbLine
 10
705.0000000000458
 20
760.1999999999985
 30
0.0
 11
705.0000000000458
 21
759.1999999999988
 31
0.0
  0
ARC
  5
44C
330
1F
100
AcDbEntity
  8
LAY-10
  6
CONTINUOUS
 62
     7
100
AcDbCircle
 10
676.0000000000468
 20
732.1999999999989
 30
0.0
 40
2.0
100
AcDbArc
 50
270.0000000000002
 51
0.0
  0
ARC
  5
44D
330
1F
100
AcDbEntity
  8
LAY-10
  6
CONTINUOUS
 62
     7
100
AcDbCircle
 10
703.0000000000459
 20
759.1999999999988
 30
0.0
 40
2.0
100
AcDbArc
 50
270.0000000000002
 51
0.0
  0
ARC
  5
44E
330
1F
100
AcDbEntity
  8
LAY-10
  6
CONTINUOUS
 62
     7
100
AcDbCircle
 10
682.0000000000463
 20
753.1999999999997
 30
0.0
 40
4.0
100
AcDbArc
 50
90.00000000000001
 51
180.0
  0
LINE
  5
44F
330
1F
100
AcDbEntity
  8
LAY-10
  6
CONTINUOUS
 62
     7
100
AcDbLine
 10
1655.000000000032
 20
760.1999999999994
 30
0.0
 11
1655.000000000032
 21
730.1999999999994
 31
0.0
  0
LINE
  5
450
330
1F
100
AcDbEntity
  8
LAY-10
  6
CONTINUOUS
 62
     7
100
AcDbLine
 10
1652.000000000033
 20
753.1999999999997
 30
0.0
 11
1652.000000000033
 21
732.1999999999994
 31
0.0
  0
LINE
  5
451
330
1F
100
AcDbEntity
  8
LAY-10
  6
CONTINUOUS
 62
     7
100
AcDbLine
 10
1625.000000000034
 20
760.1999999999994
 30
0.0
 11
1625.000000000034
 21
759.1999999999998
 31
0.0
  0
LINE
  5
452
330
1F
100
AcDbEntity
  8
LAY-10
  6
CONTINUOUS
 62
     7
100
AcDbLine
 10
1655.000000000032
 20
730.1999999999994
 30
0.0
 11
1654.000000000032
 21
730.1999999999994
 31
0.0
  0
ARC
  5
453
330
1F
100
AcDbEntity
  8
LAY-10
  6
CONTINUOUS
 62
     7
100
AcDbCircle
 10
1654.000000000032
 20
732.1999999999994
 30
0.0
 40
2.0
100
AcDbArc
 50
180.0
 51
270.0000000000002
  0
ARC
  5
454
330
1F
100
AcDbEntity
  8
LAY-10
  6
CONTINUOUS
 62
     7
100
AcDbCircle
 10
1627.000000000032
 20
759.1999999999998
 30
0.0
 40
2.0
100
AcDbArc
 50
180.0
 51
270.0000000000002
  0
ARC
  5
455
330
1F
100
AcDbEntity
  8
LAY-10
  6
CONTINUOUS
 62
     7
100
AcDbCircle
 10
1648.000000000031
 20
753.1999999999997
 30
0.0
 40
4.0
100
AcDbArc
 50
0.0
 51
90.00000000000001
  0
LINE
  5
456
330
1F
100
AcDbEntity
  8
LAY-10
  6
CONTINUOUS
 62
     7
100
AcDbLine
 10
610.00000000005
 20
848.0000000000001
 30
0.0
 11
625.00000000005
 21
848.0000000000001
 31
0.0
  0
LINE
  5
457
330
1F
100
AcDbEntity
  8
LAY-10
  6
CONTINUOUS
 62
     7
100
AcDbLine
 10
1705.0
 20
848.0000000000001
 30
0.0
 11
1720.0
 21
848.0000000000001
 31
0.0
  0
LINE
  5
458
330
1F
100
AcDbEntity
  8
LAY-10
  6
CONTINUOUS
 62
     7
100
AcDbLine
 10
632.2000000000262
 20
844.9999999999995
 30
0.0
 11
632.2000000000262
 21
805.9999999999991
 31
0.0
  0
ARC
  5
459
330
1F
100
AcDbEntity
  8
LAY-10
  6
CONTINUOUS
 62
     7
100
AcDbCircle
 10
635.2000000000262
 20
805.9999999999991
 30
0.0
 40
3.000000000000003
100
AcDbArc
 50
180.0
 51
270.0000000000002
  0
ARC
  5
45A
330
1F
100
AcDbEntity
  8
LAY-10
  6
CONTINUOUS
 62
     7
100
AcDbCircle
 10
635.0000000000264
 20
805.7999999999993
 30
0.0
 40
6.000000000000005
100
AcDbArc
 50
180.0
 51
270.0000000000002
  0
LINE
  5
45B
330
1F
100
AcDbEntity
  8
LAY-10
  6
CONTINUOUS
 62
     7
100
AcDbLine
 10
977.8000000000256
 20
845.0
 30
0.0
 11
977.8000000000256
 21
805.9999999999997
 31
0.0
  0
ARC
  5
45C
330
1F
100
AcDbEntity
  8
LAY-10
  6
CONTINUOUS
 62
     7
100
AcDbCircle
 10
974.8000000000252
 20
805.9999999999997
 30
0.0
 40
3.000000000000003
100
AcDbArc
 50
270.0000000000002
 51
0.0
  0
ARC
  5
45D
330
1F
100
AcDbEntity
  8
LAY-10
  6
CONTINUOUS
 62
     7
100
AcDbCircle
 10
975.000000000025
 20
805.7999999999998
 30
0.0
 40
6.000000000000005
100
AcDbArc
 50
270.0000000000002
 51
0.0
  0
LINE
  5
45E
330
1F
100
AcDbEntity
  8
LAY-10
  6
CONTINUOUS
 62
     7
100
AcDbLine
 10
789.0000000000255
 20
802.9999999999995
 30
0.0
 11
789.0000000000255
 21
847.9999999999991
 31
0.0
  0
LINE
  5
45F
330
1F
100
AcDbEntity
  8
LAY-10
  6
CONTINUOUS
 62
     7
100
AcDbLine
 10
821.0000000000255
 20
803.0000000000001
 30
0.0
 11
821.0000000000255
 21
847.9999999999991
 31
0.0
  0
LINE
  5
460
330
1F
100
AcDbEntity
  8
LAY-10
  6
CONTINUOUS
 62
     7
100
AcDbLine
 10
981.0000000000247
 20
845.0
 30
0.0
 11
981.0000000000247
 21
805.7999999999998
 31
0.0
  0
LINE
  5
461
330
1F
100
AcDbEntity
  8
LAY-10
  6
CONTINUOUS
 62
     7
100
AcDbLine
 10
629.0000000000259
 20
844.9999999999995
 30
0.0
 11
629.0000000000259
 21
805.7999999999993
 31
0.0
  0
LINE
  5
462
330
1F
100
AcDbEntity
  8
LAY-10
  6
CONTINUOUS
 62
     7
100
AcDbLine
 10
626.0000000000259
 20
847.9999999999995
 30
0.0
 11
626.0000000000259
 21
832.9999999999995
 31
0.0
  0
LINE
  5
463
330
1F
100
AcDbEntity
  8
LAY-10
  6
CONTINUOUS
 62
     7
100
AcDbLine
 10
641.0000000000273
 20
847.9999999999995
 30
0.0
 11
641.0000000000273
 21
844.9999999999995
 31
0.0
  0
LINE
  5
464
330
1F
100
AcDbEntity
  8
LAY-10
  6
CONTINUOUS
 62
     7
100
AcDbLine
 10
626.0000000000259
 20
832.9999999999995
 30
0.0
 11
629.0000000000259
 21
832.9999999999995
 31
0.0
  0
LINE
  5
465
330
1F
100
AcDbEntity
  8
LAY-10
  6
CONTINUOUS
 62
     7
100
AcDbLine
 10
629.0000000000259
 20
844.9999999999995
 30
0.0
 11
789.0000000000255
 21
844.9999999999995
 31
0.0
  0
LINE
  5
466
330
1F
100
AcDbEntity
  8
LAY-10
  6
CONTINUOUS
 62
     7
100
AcDbLine
 10
969.0000000000255
 20
848.0000000000001
 30
0.0
 11
969.0000000000255
 21
845.0
 31
0.0
  0
LINE
  5
467
330
1F
100
AcDbEntity
  8
LAY-10
  6
CONTINUOUS
 62
     7
100
AcDbLine
 10
984.0000000000255
 20
833.0000000000001
 30
0.0
 11
981.0000000000247
 21
833.0000000000001
 31
0.0
  0
LINE
  5
468
330
1F
100
AcDbEntity
  8
LAY-10
  6
CONTINUOUS
 62
     7
100
AcDbLine
 10
981.0000000000247
 20
845.0
 30
0.0
 11
821.0000000000255
 21
845.0
 31
0.0
  0
LINE
  5
469
330
1F
100
AcDbEntity
  8
LAY-10
  6
CONTINUOUS
 62
     7
100
AcDbLine
 10
881.5000000000401
 20
780.8
 30
0.0
 11
881.5000000000401
 21
799.8
 31
0.0
  0
LINE
  5
46A
330
1F
100
AcDbEntity
  8
LAY-10
  6
CONTINUOUS
 62
     7
100
AcDbLine
 10
878.50000000004
 20
780.799999999999
 30
0.0
 11
878.50000000004
 21
799.8
 31
0.0
  0
LINE
  5
46B
330
1F
100
AcDbEntity
  8
LAY-10
  6
CONTINUOUS
 62
     7
100
AcDbLine
 10
728.50000000004
 20
780.8
 30
0.0
 11
728.50000000004
 21
799.8
 31
0.0
  0
LINE
  5
46C
330
1F
100
AcDbEntity
  8
LAY-10
  6
CONTINUOUS
 62
     7
100
AcDbLine
 10
731.5000000000399
 20
780.799999999999
 30
0.0
 11
731.5000000000399
 21
799.8
 31
0.0
  0
LINE
  5
46D
330
1F
100
AcDbEntity
  8
LAY-10
  6
CONTINUOUS
 62
     7
100
AcDbLine
 10
728.50000000004
 20
780.799999999999
 30
0.0
 11
881.5000000000401
 21
780.799999999999
 31
0.0
  0
LINE
  5
46E
330
1F
100
AcDbEntity
  8
LAY-10
  6
CONTINUOUS
 62
     7
100
AcDbLine
 10
984.0000000000255
 20
847.9999999999991
 30
0.0
 11
626.0000000000259
 21
847.9999999999995
 31
0.0
  0
LINE
  5
46F
330
1F
100
AcDbEntity
  8
LAY-10
  6
CONTINUOUS
 62
     7
100
AcDbLine
 10
984.0000000000255
 20
848.0000000000001
 30
0.0
 11
984.0000000000255
 21
833.0000000000001
 31
0.0
  0
LINE
  5
470
330
1F
100
AcDbEntity
  8
LAY-10
  6
CONTINUOUS
 62
     7
100
AcDbLine
 10
635.2000000000262
 20
802.9999999999995
 30
0.0
 11
974.8000000000252
 21
803.0000000000001
 31
0.0
  0
LINE
  5
471
330
1F
100
AcDbEntity
  8
LAY-10
  6
CONTINUOUS
 62
     7
100
AcDbLine
 10
992.2000000000157
 20
844.9999999999995
 30
0.0
 11
992.2000000000157
 21
805.9999999999991
 31
0.0
  0
ARC
  5
472
330
1F
100
AcDbEntity
  8
LAY-10
  6
CONTINUOUS
 62
     7
100
AcDbCircle
 10
995.2000000000157
 20
805.9999999999991
 30
0.0
 40
3.000000000000003
100
AcDbArc
 50
180.0
 51
270.0000000000002
  0
ARC
  5
473
330
1F
100
AcDbEntity
  8
LAY-10
  6
CONTINUOUS
 62
     7
100
AcDbCircle
 10
995.0000000000159
 20
805.7999999999993
 30
0.0
 40
6.000000000000005
100
AcDbArc
 50
180.0
 51
270.0000000000002
  0
LINE
  5
474
330
1F
100
AcDbEntity
  8
LAY-10
  6
CONTINUOUS
 62
     7
100
AcDbLine
 10
1337.800000000016
 20
845.0
 30
0.0
 11
1337.800000000016
 21
805.9999999999997
 31
0.0
  0
ARC
  5
475
330
1F
100
AcDbEntity
  8
LAY-10
  6
CONTINUOUS
 62
     7
100
AcDbCircle
 10
1334.800000000015
 20
805.9999999999997
 30
0.0
 40
3.000000000000003
100
AcDbArc
 50
270.0000000000002
 51
0.0
  0
ARC
  5
476
330
1F
100
AcDbEntity
  8
LAY-10
  6
CONTINUOUS
 62
     7
100
AcDbCircle
 10
1335.000000000015
 20
805.7999999999998
 30
0.0
 40
6.000000000000005
100
AcDbArc
 50
270.0000000000002
 51
0.0
  0
LINE
  5
477
330
1F
100
AcDbEntity
  8
LAY-10
  6
CONTINUOUS
 62
     7
100
AcDbLine
 10
1149.000000000015
 20
802.9999999999995
 30
0.0
 11
1149.000000000015
 21
847.9999999999991
 31
0.0
  0
LINE
  5
478
330
1F
100
AcDbEntity
  8
LAY-10
  6
CONTINUOUS
 62
     7
100
AcDbLine
 10
1181.000000000015
 20
803.0000000000001
 30
0.0
 11
1181.000000000015
 21
847.9999999999991
 31
0.0
  0
LINE
  5
479
330
1F
100
AcDbEntity
  8
LAY-10
  6
CONTINUOUS
 62
     7
100
AcDbLine
 10
1341.000000000015
 20
845.0
 30
0.0
 11
1341.000000000015
 21
805.7999999999998
 31
0.0
  0
LINE
  5
47A
330
1F
100
AcDbEntity
  8
LAY-10
  6
CONTINUOUS
 62
     7
100
AcDbLine
 10
989.0000000000159
 20
844.9999999999995
 30
0.0
 11
989.0000000000159
 21
805.7999999999993
 31
0.0
  0
LINE
  5
47B
330
1F
100
AcDbEntity
  8
LAY-10
  6
CONTINUOUS
 62
     7
100
AcDbLine
 10
986.0000000000159
 20
847.9999999999995
 30
0.0
 11
986.0000000000159
 21
832.9999999999995
 31
0.0
  0
LINE
  5
47C
330
1F
100
AcDbEntity
  8
LAY-10
  6
CONTINUOUS
 62
     7
100
AcDbLine
 10
1001.000000000017
 20
847.9999999999995
 30
0.0
 11
1001.000000000017
 21
844.9999999999995
 31
0.0
  0
LINE
  5
47D
330
1F
100
AcDbEntity
  8
LAY-10
  6
CONTINUOUS
 62
     7
100
AcDbLine
 10
986.0000000000159
 20
832.9999999999995
 30
0.0
 11
989.0000000000159
 21
832.9999999999995
 31
0.0
  0
LINE
  5
47E
330
1F
100
AcDbEntity
  8
LAY-10
  6
CONTINUOUS
 62
     7
100
AcDbLine
 10
989.0000000000159
 20
844.9999999999995
 30
0.0
 11
1149.000000000015
 21
844.9999999999995
 31
0.0
  0
LINE
  5
47F
330
1F
100
AcDbEntity
  8
LAY-10
  6
CONTINUOUS
 62
     7
100
AcDbLine
 10
1329.000000000015
 20
848.0000000000001
 30
0.0
 11
1329.000000000015
 21
845.0
 31
0.0
  0
LINE
  5
480
330
1F
100
AcDbEntity
  8
LAY-10
  6
CONTINUOUS
 62
     7
100
AcDbLine
 10
1344.000000000015
 20
833.0000000000001
 30
0.0
 11
1341.000000000015
 21
833.0000000000001
 31
0.0
  0
LINE
  5
481
330
1F
100
AcDbEntity
  8
LAY-10
  6
CONTINUOUS
 62
     7
100
AcDbLine
 10
1341.000000000015
 20
845.0
 30
0.0
 11
1181.000000000015
 21
845.0
 31
0.0
  0
LINE
  5
482
330
1F
100
AcDbEntity
  8
LAY-10
  6
CONTINUOUS
 62
     7
100
AcDbLine
 10
1241.50000000003
 20
780.8
 30
0.0
 11
1241.50000000003
 21
799.8
 31
0.0
  0
LINE
  5
483
330
1F
100
AcDbEntity
  8
LAY-10
  6
CONTINUOUS
 62
     7
100
AcDbLine
 10
1238.50000000003
 20
780.799999999999
 30
0.0
 11
1238.50000000003
 21
799.8
 31
0.0
  0
LINE
  5
484
330
1F
100
AcDbEntity
  8
LAY-10
  6
CONTINUOUS
 62
     7
100
AcDbLine
 10
1088.50000000003
 20
780.8
 30
0.0
 11
1088.50000000003
 21
799.8
 31
0.0
  0
LINE
  5
485
330
1F
100
AcDbEntity
  8
LAY-10
  6
CONTINUOUS
 62
     7
100
AcDbLine
 10
1091.50000000003
 20
780.799999999999
 30
0.0
 11
1091.50000000003
 21
799.8
 31
0.0
  0
LINE
  5
486
330
1F
100
AcDbEntity
  8
LAY-10
  6
CONTINUOUS
 62
     7
100
AcDbLine
 10
1088.50000000003
 20
780.799999999999
 30
0.0
 11
1241.50000000003
 21
780.799999999999
 31
0.0
  0
LINE
  5
487
330
1F
100
AcDbEntity
  8
LAY-10
  6
CONTINUOUS
 62
     7
100
AcDbLine
 10
1344.000000000015
 20
847.9999999999991
 30
0.0
 11
986.0000000000159
 21
847.9999999999995
 31
0.0
  0
LINE
  5
488
330
1F
100
AcDbEntity
  8
LAY-10
  6
CONTINUOUS
 62
     7
100
AcDbLine
 10
1344.000000000015
 20
848.0000000000001
 30
0.0
 11
1344.000000000015
 21
833.0000000000001
 31
0.0
  0
LINE
  5
489
330
1F
100
AcDbEntity
  8
LAY-10
  6
CONTINUOUS
 62
     7
100
AcDbLine
 10
995.2000000000157
 20
802.9999999999995
 30
0.0
 11
1334.800000000015
 21
803.0000000000001
 31
0.0
  0
LINE
  5
48A
330
1F
100
AcDbEntity
  8
LAY-10
  6
CONTINUOUS
 62
     7
100
AcDbLine
 10
1352.199999999986
 20
844.9999999999995
 30
0.0
 11
1352.199999999986
 21
805.9999999999991
 31
0.0
  0
ARC
  5
48B
330
1F
100
AcDbEntity
  8
LAY-10
  6
CONTINUOUS
 62
     7
100
AcDbCircle
 10
1355.199999999986
 20
805.9999999999991
 30
0.0
 40
3.000000000000003
100
AcDbArc
 50
180.0
 51
270.0000000000002
  0
ARC
  5
48C
330
1F
100
AcDbEntity
  8
LAY-10
  6
CONTINUOUS
 62
     7
100
AcDbCircle
 10
1354.999999999986
 20
805.7999999999993
 30
0.0
 40
6.000000000000005
100
AcDbArc
 50
180.0
 51
270.0000000000002
  0
LINE
  5
48D
330
1F
100
AcDbEntity
  8
LAY-10
  6
CONTINUOUS
 62
     7
100
AcDbLine
 10
1697.799999999986
 20
845.0
 30
0.0
 11
1697.799999999986
 21
805.9999999999997
 31
0.0
  0
ARC
  5
48E
330
1F
100
AcDbEntity
  8
LAY-10
  6
CONTINUOUS
 62
     7
100
AcDbCircle
 10
1694.799999999985
 20
805.9999999999997
 30
0.0
 40
3.000000000000003
100
AcDbArc
 50
270.0000000000002
 51
0.0
  0
ARC
  5
48F
330
1F
100
AcDbEntity
  8
LAY-10
  6
CONTINUOUS
 62
     7
100
AcDbCircle
 10
1694.999999999985
 20
805.7999999999998
 30
0.0
 40
6.000000000000005
100
AcDbArc
 50
270.0000000000002
 51
0.0
  0
LINE
  5
490
330
1F
100
AcDbEntity
  8
LAY-10
  6
CONTINUOUS
 62
     7
100
AcDbLine
 10
1508.999999999985
 20
802.9999999999995
 30
0.0
 11
1508.999999999985
 21
847.9999999999991
 31
0.0
  0
LINE
  5
491
330
1F
100
AcDbEntity
  8
LAY-10
  6
CONTINUOUS
 62
     7
100
AcDbLine
 10
1540.999999999985
 20
803.0000000000001
 30
0.0
 11
1540.999999999985
 21
847.9999999999991
 31
0.0
  0
LINE
  5
492
330
1F
100
AcDbEntity
  8
LAY-10
  6
CONTINUOUS
 62
     7
100
AcDbLine
 10
1700.999999999985
 20
845.0
 30
0.0
 11
1700.999999999985
 21
805.7999999999998
 31
0.0
  0
LINE
  5
493
330
1F
100
AcDbEntity
  8
LAY-10
  6
CONTINUOUS
 62
     7
100
AcDbLine
 10
1348.999999999986
 20
844.9999999999995
 30
0.0
 11
1348.999999999986
 21
805.7999999999993
 31
0.0
  0
LINE
  5
494
330
1F
100
AcDbEntity
  8
LAY-10
  6
CONTINUOUS
 62
     7
100
AcDbLine
 10
1345.999999999986
 20
847.9999999999995
 30
0.0
 11
1345.999999999986
 21
832.9999999999995
 31
0.0
  0
LINE
  5
495
330
1F
100
AcDbEntity
  8
LAY-10
  6
CONTINUOUS
 62
     7
100
AcDbLine
 10
1360.999999999987
 20
847.9999999999995
 30
0.0
 11
1360.999999999987
 21
844.9999999999995
 31
0.0
  0
LINE
  5
496
330
1F
100
AcDbEntity
  8
LAY-10
  6
CONTINUOUS
 62
     7
100
AcDbLine
 10
1345.999999999986
 20
832.9999999999995
 30
0.0
 11
1348.999999999986
 21
832.9999999999995
 31
0.0
  0
LINE
  5
497
330
1F
100
AcDbEntity
  8
LAY-10
  6
CONTINUOUS
 62
     7
100
AcDbLine
 10
1348.999999999986
 20
844.9999999999995
 30
0.0
 11
1508.999999999985
 21
844.9999999999995
 31
0.0
  0
LINE
  5
498
330
1F
100
AcDbEntity
  8
LAY-10
  6
CONTINUOUS
 62
     7
100
AcDbLine
 10
1688.999999999985
 20
848.0000000000001
 30
0.0
 11
1688.999999999985
 21
845.0
 31
0.0
  0
LINE
  5
499
330
1F
100
AcDbEntity
  8
LAY-10
  6
CONTINUOUS
 62
     7
100
AcDbLine
 10
1703.999999999985
 20
833.0000000000001
 30
0.0
 11
1700.999999999985
 21
833.0000000000001
 31
0.0
  0
LINE
  5
49A
330
1F
100
AcDbEntity
  8
LAY-10
  6
CONTINUOUS
 62
     7
100
AcDbLine
 10
1700.999999999985
 20
845.0
 30
0.0
 11
1540.999999999985
 21
845.0
 31
0.0
  0
LINE
  5
49B
330
1F
100
AcDbEntity
  8
LAY-10
  6
CONTINUOUS
 62
     7
100
AcDbLine
 10
1601.5
 20
780.8
 30
0.0
 11
1601.5
 21
799.8
 31
0.0
  0
LINE
  5
49C
330
1F
100
AcDbEntity
  8
LAY-10
  6
CONTINUOUS
 62
     7
100
AcDbLine
 10
1598.5
 20
780.799999999999
 30
0.0
 11
1598.5
 21
799.8
 31
0.0
  0
LINE
  5
49D
330
1F
100
AcDbEntity
  8
LAY-10
  6
CONTINUOUS
 62
     7
100
AcDbLine
 10
1448.5
 20
780.8
 30
0.0
 11
1448.5
 21
799.8
 31
0.0
  0
LINE
  5
49E
330
1F
100
AcDbEntity
  8
LAY-10
  6
CONTINUOUS
 62
     7
100
AcDbLine
 10
1451.5
 20
780.799999999999
 30
0.0
 11
1451.5
 21
799.8
 31
0.0
  0
LINE
  5
49F
330
1F
100
AcDbEntity
  8
LAY-10
  6
CONTINUOUS
 62
     7
100
AcDbLine
 10
1448.5
 20
780.799999999999
 30
0.0
 11
1601.5
 21
780.799999999999
 31
0.0
  0
LINE
  5
4A0
330
1F
100
AcDbEntity
  8
LAY-10
  6
CONTINUOUS
 62
     7
100
AcDbLine
 10
1703.999999999985
 20
847.9999999999991
 30
0.0
 11
1345.999999999986
 21
847.9999999999995
 31
0.0
  0
LINE
  5
4A1
330
1F
100
AcDbEntity
  8
LAY-10
  6
CONTINUOUS
 62
     7
100
AcDbLine
 10
1703.999999999985
 20
848.0000000000001
 30
0.0
 11
1703.999999999985
 21
833.0000000000001
 31
0.0
  0
LINE
  5
4A2
330
1F
100
AcDbEntity
  8
LAY-10
  6
CONTINUOUS
 62
     7
100
AcDbLine
 10
1355.199999999986
 20
802.9999999999995
 30
0.0
 11
1694.799999999985
 21
803.0000000000001
 31
0.0
  0
LINE
  5
4A3
330
1F
100
AcDbEntity
  8
LAY-10
  6
CONTINUOUS
 62
     7
100
AcDbLine
 10
1601.5
 20
797.7999999999993
 30
0.0
 11
1708.000000000033
 21
797.7999999999993
 31
0.0
  0
LINE
  5
4A4
330
1F
100
AcDbEntity
  8
LAY-10
  6
CONTINUOUS
 62
     7
100
AcDbLine
 10
1241.50000000003
 20
797.7999999999993
 30
0.0
 11
1448.5
 21
797.7999999999993
 31
0.0
  0
LINE
  5
4A5
330
1F
100
AcDbEntity
  8
LAY-10
  6
CONTINUOUS
 62
     7
100
AcDbLine
 10
881.5000000000401
 20
797.7999999999993
 30
0.0
 11
1088.50000000003
 21
797.7999999999993
 31
0.0
  0
LINE
  5
4A6
330
1F
100
AcDbEntity
  8
LAY-10
  6
CONTINUOUS
 62
     7
100
AcDbLine
 10
622.0000000000473
 20
797.7999999999993
 30
0.0
 11
728.50000000004
 21
797.7999999999993
 31
0.0
  0
LINE
  5
4A7
330
1F
100
AcDbEntity
  8
LAY-10
  6
HIDDEN
 62
     7
100
AcDbLine
 10
1565.000000000043
 20
747.9999999999999
 30
0.0
 11
1655.00000000005
 21
747.9999999999999
 31
0.0
  0
LINE
  5
4A8
330
1F
100
AcDbEntity
  8
LAY-10
  6
HIDDEN
 62
     7
100
AcDbLine
 10
1565.000000000043
 20
730.2000000000007
 30
0.0
 11
1565.000000000043
 21
747.9999999999999
 31
0.0
  0
LINE
  5
4A9
330
1F
100
AcDbEntity
  8
LAY-10
  6
HIDDEN
 62
     7
100
AcDbLine
 10
765.0000000000578
 20
747.9999999999999
 30
0.0
 11
675.0000000000504
 21
747.9999999999999
 31
0.0
  0
LINE
  5
4AA
330
1F
100
AcDbEntity
  8
LAY-10
  6
HIDDEN
 62
     7
100
AcDbLine
 10
765.0000000000578
 20
730.2000000000007
 30
0.0
 11
765.0000000000578
 21
747.9999999999999
 31
0.0
  0
LINE
  5
4AB
330
1F
100
AcDbEntity
  8
LAY-10
  6
CONTINUOUS
 62
     7
100
AcDbLine
 10
1695.000000000033
 20
760.1999999999994
 30
0.0
 11
1699.000000000032
 21
760.1999999999994
 31
0.0
  0
LINE
  5
4AC
330
1F
100
AcDbEntity
  8
LAY-10
  6
CONTINUOUS
 62
     7
100
AcDbLine
 10
645.0000000000458
 20
760.1999999999985
 30
0.0
 11
1685.000000000032
 21
760.1999999999987
 31
0.0
  0
LINE
  5
4AD
330
1F
100
AcDbEntity
  8
LAY-10
  6
CONTINUOUS
 62
     7
100
AcDbLine
 10
999.4000000000001
 20
1253.5
 30
0.0
 11
1330.6
 21
2407.5
 31
0.0
  0
LINE
  5
4AE
330
1F
100
AcDbEntity
  8
LAY-10
  6
CONTINUOUS
 62
     7
100
AcDbLine
 10
1001.000000000038
 20
2391.499999999998
 30
0.0
 11
1326.007972270364
 21
2391.499999999998
 31
0.0
  0
LINE
  5
4AF
330
1F
100
AcDbEntity
  8
LAY-10
  6
CONTINUOUS
 62
     7
100
AcDbLine
 10
986.0000000000377
 20
2406.500000000002
 30
0.0
 11
1330.312998266898
 21
2406.500000000002
 31
0.0
  0
LINE
  5
4B0
330
1F
100
AcDbEntity
  8
LAY-10
  6
CONTINUOUS
 62
     7
100
AcDbLine
 10
1705.000000000031
 20
2370.500000000001
 30
0.0
 11
1319.980935875217
 21
2370.500000000001
 31
0.0
  0
LINE
  5
4B1
330
1F
100
AcDbEntity
  8
LAY-10
  6
CONTINUOUS
 62
     7
100
AcDbLine
 10
1702.00000000002
 20
2367.5
 30
0.0
 11
1319.11993067591
 21
2367.5
 31
0.0
  0
LINE
  5
4B2
330
1F
100
AcDbEntity
  8
LAY-10
  6
CONTINUOUS
 62
     7
100
AcDbLine
 10
1227.50000000005
 20
2048.268719806938
 30
0.0
 11
1227.50000000005
 21
2391.500000000004
 31
0.0
  0
LINE
  5
4B3
330
1F
100
AcDbEntity
  8
LAY-10
  6
CONTINUOUS
 62
     7
100
AcDbLine
 10
1260.00000000005
 20
2161.508454106454
 30
0.0
 11
1260.00000000005
 21
2391.500000000004
 31
0.0
  0
LINE
  5
4B4
330
1F
100
AcDbEntity
  8
LAY-10
  6
CONTINUOUS
 62
     7
100
AcDbLine
 10
1252.50000000005
 20
2135.376207729642
 30
0.0
 11
1252.50000000005
 21
2391.500000000004
 31
0.0
  0
LINE
  5
4B5
330
1F
100
AcDbEntity
  8
LAY-10
  6
CONTINUOUS
 62
     7
100
AcDbLine
 10
1220.00000000005
 20
2022.136473430127
 30
0.0
 11
1220.00000000005
 21
2391.500000000004
 31
0.0
  0
LINE
  5
4B6
330
1F
100
AcDbEntity
  8
LAY-10
  6
CONTINUOUS
 62
     7
100
AcDbLine
 10
1070.000000000029
 20
1499.491545893819
 30
0.0
 11
1070.00000000003
 21
2391.500000000004
 31
0.0
  0
LINE
  5
4B7
330
1F
100
AcDbEntity
  8
LAY-10
  6
CONTINUOUS
 62
     7
100
AcDbLine
 10
1077.500000000029
 20
1525.623792270631
 30
0.0
 11
1077.50000000003
 21
2391.500000000004
 31
0.0
  0
LINE
  5
4B8
330
1F
100
AcDbEntity
  8
LAY-10
  6
CONTINUOUS
 62
     7
100
AcDbLine
 10
1102.500000000029
 20
1612.731280193337
 30
0.0
 11
1102.500000000031
 21
2391.500000000004
 31
0.0
  0
LINE
  5
4B9
330
1F
100
AcDbEntity
  8
LAY-10
  6
CONTINUOUS
 62
     7
100
AcDbLine
 10
1110.000000000029
 20
1638.863526570149
 30
0.0
 11
1110.000000000031
 21
2391.500000000004
 31
0.0
  0
LINE
  5
4BA
330
1F
100
AcDbEntity
  8
LAY-10
  6
CONTINUOUS
 62
     7
100
AcDbLine
 10
1702.00000000002
 20
1293.5
 30
0.0
 11
1010.88006932409
 21
1293.5
 31
0.0
  0
LINE
  5
4BB
330
1F
100
AcDbEntity
  8
LAY-10
  6
CONTINUOUS
 62
     7
100
AcDbLine
 10
1705.000000000031
 20
1290.5
 30
0.0
 11
1010.019064124784
 21
1290.5
 31
0.0
  0
LINE
  5
4BC
330
1F
100
AcDbEntity
  8
LAY-10
  6
CONTINUOUS
 62
     7
100
AcDbLine
 10
641.0000000000282
 20
1269.5
 30
0.0
 11
969.0000000000282
 21
1269.5
 31
0.0
  0
LINE
  5
4BD
330
1F
100
AcDbEntity
  8
LAY-10
  6
CONTINUOUS
 62
     7
100
AcDbLine
 10
969.0000000000282
 20
1269.5
 30
0.0
 11
969.0000000000282
 21
2391.500000000004
 31
0.0
  0
LINE
  5
4BE
330
1F
100
AcDbEntity
  8
LAY-10
  6
CONTINUOUS
 62
     7
100
AcDbLine
 10
626.0000000000282
 20
1254.5
 30
0.0
 11
984.0000000000277
 21
1254.5
 31
0.0
  0
LINE
  5
4BF
330
1F
100
AcDbEntity
  8
LAY-10
  6
CONTINUOUS
 62
     7
100
AcDbLine
 10
984.0000000000277
 20
1254.5
 30
0.0
 11
984.0000000000277
 21
2406.500000000002
 31
0.0
  0
LINE
  5
4C0
330
1F
100
AcDbEntity
  8
LAY-10
  6
CONTINUOUS
 62
     7
100
AcDbLine
 10
969.0
 20
1269.5
 30
0.0
 11
984.0
 21
1254.5
 31
0.0
  0
LINE
  5
4C1
330
1F
100
AcDbEntity
  8
LAY-10
  6
CONTINUOUS
 62
     7
100
AcDbLine
 10
900.0000000000396
 20
1269.5
 30
0.0
 11
900.0000000000396
 21
2391.500000000004
 31
0.0
  0
LINE
  5
4C2
330
1F
100
AcDbEntity
  8
LAY-10
  6
CONTINUOUS
 62
     7
100
AcDbLine
 10
892.5000000000396
 20
1269.5
 30
0.0
 11
892.5000000000396
 21
2391.500000000004
 31
0.0
  0
LINE
  5
4C3
330
1F
100
AcDbEntity
  8
LAY-10
  6
CONTINUOUS
 62
     7
100
AcDbLine
 10
986.0000000000377
 20
1254.499999999999
 30
0.0
 11
999.6870017331021
 21
1254.499999999999
 31
0.0
  0
LINE
  5
4C4
330
1F
100
AcDbEntity
  8
LAY-10
  6
CONTINUOUS
 62
     7
100
AcDbLine
 10
986.0000000000377
 20
1254.499999999999
 30
0.0
 11
986.0000000000377
 21
2406.500000000002
 31
0.0
  0
LINE
  5
4C5
330
1F
100
AcDbEntity
  8
LAY-10
  6
CONTINUOUS
 62
     7
100
AcDbLine
 10
1001.000000000038
 20
1269.5
 30
0.0
 11
1003.992027729636
 21
1269.5
 31
0.0
  0
LINE
  5
4C6
330
1F
100
AcDbEntity
  8
LAY-10
  6
CONTINUOUS
 62
     7
100
AcDbLine
 10
1001.000000000038
 20
2391.500000000004
 30
0.0
 11
1001.000000000038
 21
1269.5
 31
0.0
  0
LINE
  5
4C7
330
1F
100
AcDbEntity
  8
LAY-10
  6
CONTINUOUS
 62
     7
100
AcDbLine
 10
1001.0
 20
1269.5
 30
0.0
 11
986.0
 21
1254.5
 31
0.0
  0
LINE
  5
4C8
330
1F
100
AcDbEntity
  8
LAY-10
  6
CONTINUOUS
 62
     7
100
AcDbLine
 10
1569.999999999997
 20
1476.999999999956
 30
0.0
 11
1563.999999999997
 21
1476.999999999956
 31
0.0
  0
LINE
  5
4C9
330
1F
100
AcDbEntity
  8
LAY-10
  6
CONTINUOUS
 62
     7
100
AcDbLine
 10
1569.999999999997
 20
1636.999999999955
 30
0.0
 11
1569.999999999997
 21
1647.0
 31
0.0
  0
LINE
  5
4CA
330
1F
100
AcDbEntity
  8
LAY-10
  6
CONTINUOUS
 62
     7
100
AcDbLine
 10
1569.999999999997
 20
2024.000000000045
 30
0.0
 11
1569.999999999997
 21
2014.0
 31
0.0
  0
LINE
  5
4CB
330
1F
100
AcDbEntity
  8
LAY-10
  6
CONTINUOUS
 62
     7
100
AcDbLine
 10
1570.0
 20
2184.000000000045
 30
0.0
 11
1563.999999999997
 21
2184.000000000045
 31
0.0
  0
CIRCLE
  5
4CC
330
1F
100
AcDbEntity
  8
LAY-10
  6
CONTINUOUS
 62
     7
100
AcDbCircle
 10
1523.300000000034
 20
766.3999999999987
 30
0.0
 40
3.000000000000003
  0
ARC
  5
4CD
330
1F
100
AcDbEntity
  8
LAY-10
  6
CONTINUOUS
 62
     7
100
AcDbCircle
 10
1567.000000000033
 20
766.3999999999987
 30
0.0
 40
4.0
100
AcDbArc
 50
0.0
 51
131.439421679092
  0
ARC
  5
4CE
330
1F
100
AcDbEntity
  8
LAY-10
  6
CONTINUOUS
 62
     7
100
AcDbCircle
 10
1571.000000000033
 20
764.3999999999986
 30
0.0
 40
1.0
100
AcDbArc
 50
180.0
 51
270.0000000000002
  0
LINE
  5
4CF
330
1F
100
AcDbEntity
  8
LAY-10
  6
CONTINUOUS
 62
     7
100
AcDbLine
 10
1571.000000000033
 20
766.3999999999987
 30
0.0
 11
1571.000000000033
 21
764.3999999999986
 31
0.0
  0
LINE
  5
4D0
330
1F
100
AcDbEntity
  8
LAY-10
  6
CONTINUOUS
 62
     7
100
AcDbLine
 10
1571.000000000033
 20
764.3999999999986
 30
0.0
 11
1580.000000000034
 21
764.3999999999996
 31
0.0
  0
LINE
  5
4D1
330
1F
100
AcDbEntity
  8
LAY-10
  6
CONTINUOUS
 62
     7
100
AcDbLine
 10
1580.000000000034
 20
764.3999999999996
 30
0.0
 11
1580.000000000034
 21
763.3999999999992
 31
0.0
  0
LINE
  5
4D2
330
1F
100
AcDbEntity
  8
LAY-10
  6
CONTINUOUS
 62
     7
100
AcDbLine
 10
1570.000000000034
 20
764.3999999999986
 30
0.0
 11
1570.000000000034
 21
766.3999999999987
 31
0.0
  0
LINE
  5
4D3
330
1F
100
AcDbEntity
  8
LAY-10
  6
CONTINUOUS
 62
     7
100
AcDbLine
 10
1523.209132620111
 20
769.3986235374355
 30
0.0
 11
1566.909132620115
 21
769.398623537435
 31
0.0
  0
ARC
  5
4D4
330
1F
100
AcDbEntity
  8
LAY-10
  6
CONTINUOUS
 62
     7
100
AcDbCircle
 10
1567.000000000033
 20
766.3999999999987
 30
0.0
 40
3.000000000000003
100
AcDbArc
 50
270.0000000000002
 51
91.73570458884814
  0
CIRCLE
  5
4D5
330
1F
100
AcDbEntity
  8
LAY-10
  6
CONTINUOUS
 62
     7
100
AcDbCircle
 10
806.7000000001269
 20
766.3999999999988
 30
0.0
 40
3.000000000000003
  0
ARC
  5
4D6
330
1F
100
AcDbEntity
  8
LAY-10
  6
CONTINUOUS
 62
     7
100
AcDbCircle
 10
763.000000000128
 20
766.3999999999988
 30
0.0
 40
4.0
100
AcDbArc
 50
48.56057832090708
 51
180.0
  0
ARC
  5
4D7
330
1F
100
AcDbEntity
  8
LAY-10
  6
CONTINUOUS
 62
     7
100
AcDbCircle
 10
759.000000000128
 20
764.3999999999988
 30
0.0
 40
1.0
100
AcDbArc
 50
270.0
 51
0.0
  0
LINE
  5
4D8
330
1F
100
AcDbEntity
  8
LAY-10
  6
CONTINUOUS
 62
     7
100
AcDbLine
 10
759.000000000128
 20
766.3999999999988
 30
0.0
 11
759.000000000128
 21
764.3999999999988
 31
0.0
  0
LINE
  5
4D9
330
1F
100
AcDbEntity
  8
LAY-10
  6
CONTINUOUS
 62
     7
100
AcDbLine
 10
759.000000000128
 20
764.3999999999988
 30
0.0
 11
750.0000000001271
 21
764.3999999999997
 31
0.0
  0
LINE
  5
4DA
330
1F
100
AcDbEntity
  8
LAY-10
  6
CONTINUOUS
 62
     7
100
AcDbLine
 10
750.0000000001271
 20
764.3999999999997
 30
0.0
 11
750.0000000001271
 21
763.3999999999993
 31
0.0
  0
LINE
  5
4DB
330
1F
100
AcDbEntity
  8
LAY-10
  6
CONTINUOUS
 62
     7
100
AcDbLine
 10
760.0000000001271
 20
764.3999999999988
 30
0.0
 11
760.0000000001271
 21
766.3999999999988
 31
0.0
  0
LINE
  5
4DC
330
1F
100
AcDbEntity
  8
LAY-10
  6
CONTINUOUS
 62
     7
100
AcDbLine
 10
806.79086738005
 20
769.3986235374356
 30
0.0
 11
763.0908673800457
 21
769.3986235374351
 31
0.0
  0
ARC
  5
4DD
330
1F
100
AcDbEntity
  8
LAY-10
  6
CONTINUOUS
 62
     7
100
AcDbCircle
 10
763.000000000128
 20
766.3999999999988
 30
0.0
 40
3.000000000000003
100
AcDbArc
 50
88.26429541115186
 51
270.0
  0
LINE
  5
4DE
330
1F
100
AcDbEntity
  8
LAY-10
  6
CONTINUOUS
 62
     7
100
AcDbLine
 10
1719.200000000031
 20
818.9999999999964
 30
0.0
 11
1711.20000000003
 21
818.9999999999964
 31
0.0
  0
LINE
  5
4DF
330
1F
100
AcDbEntity
  8
LAY-10
  6
CONTINUOUS
 62
     7
100
AcDbLine
 10
1719.200000000031
 20
792.3137084989808
 30
0.0
 11
1719.200000000031
 21
818.9999999999964
 31
0.0
  0
LINE
  5
4E0
330
1F
100
AcDbEntity
  8
LAY-10
  6
CONTINUOUS
 62
     7
100
AcDbLine
 10
1754.555339059358
 20
756.9583694396542
 30
0.0
 11
1719.200000000031
 21
792.3137084989808
 31
0.0
  0
ARC
  5
4E1
330
1F
100
AcDbEntity
  8
LAY-10
  6
CONTINUOUS
 62
     7
100
AcDbCircle
 10
1719.200000000031
 20
792.3137084989808
 30
0.0
 40
8.0
100
AcDbArc
 50
180.0
 51
224.9999999999971
  0
LINE
  5
4E2
330
1F
100
AcDbEntity
  8
LAY-10
  6
CONTINUOUS
 62
     7
100
AcDbLine
 10
1748.898484809868
 20
751.3015151901618
 30
0.0
 11
1713.543145750539
 21
786.6568542494892
 31
0.0
  0
LINE
  5
4E3
330
1F
100
AcDbEntity
  8
LAY-10
  6
CONTINUOUS
 62
     7
100
AcDbLine
 10
1748.898484809868
 20
751.3015151901618
 30
0.0
 11
1754.555339059358
 21
756.9583694396542
 31
0.0
  0
LINE
  5
4E4
330
1F
100
AcDbEntity
  8
LAY-10
  6
CONTINUOUS
 62
     7
100
AcDbLine
 10
610.8000000000461
 20
818.9999999999964
 30
0.0
 11
618.8000000000475
 21
818.9999999999964
 31
0.0
  0
LINE
  5
4E5
330
1F
100
AcDbEntity
  8
LAY-10
  6
CONTINUOUS
 62
     7
100
AcDbLine
 10
610.8000000000461
 20
792.3137084989808
 30
0.0
 11
610.8000000000461
 21
818.9999999999964
 31
0.0
  0
LINE
  5
4E6
330
1F
100
AcDbEntity
  8
LAY-10
  6
CONTINUOUS
 62
     7
100
AcDbLine
 10
575.4446609407196
 20
756.9583694396542
 30
0.0
 11
610.8000000000461
 21
792.3137084989808
 31
0.0
  0
ARC
  5
4E7
330
1F
100
AcDbEntity
  8
LAY-10
  6
CONTINUOUS
 62
     7
100
AcDbCircle
 10
610.8000000000461
 20
792.3137084989808
 30
0.0
 40
8.0
100
AcDbArc
 50
315.0000000000145
 51
0.0
  0
LINE
  5
4E8
330
1F
100
AcDbEntity
  8
LAY-10
  6
CONTINUOUS
 62
     7
100
AcDbLine
 10
581.1015151902116
 20
751.3015151901618
 30
0.0
 11
616.456854249539
 21
786.6568542494892
 31
0.0
  0
LINE
  5
4E9
330
1F
100
AcDbEntity
  8
LAY-10
  6
CONTINUOUS
 62
     7
100
AcDbLine
 10
581.1015151902116
 20
751.3015151901618
 30
0.0
 11
575.4446609407196
 21
756.9583694396542
 31
0.0
  0
LINE
  5
4EA
330
1F
100
AcDbEntity
  8
LAY-10
  6
CENTER
 62
     2
100
AcDbLine
 10
1165.00000000003
 20
1194.6015151901
 30
0.0
 11
1165.00000000003
 21
2466.3984848099
 31
0.0
  0
LINE
  5
4EB
330
1F
100
AcDbEntity
  8
LAY-10
  6
CENTER
 62
     2
100
AcDbLine
 10
1146.47500000004
 20
2375.499999999998
 30
0.0
 11
1183.97500000004
 21
2375.499999999998
 31
0.0
  0
LINE
  5
4EC
330
1F
100
AcDbEntity
  8
LAY-10
  6
CENTER
 62
     2
100
AcDbLine
 10
805.0000000000301
 20
2394.1
 30
0.0
 11
805.0000000000301
 21
2355.2
 31
0.0
  0
LINE
  5
4ED
330
1F
100
AcDbEntity
  8
LAY-10
  6
CENTER
 62
     2
100
AcDbLine
 10
786.4750000000299
 20
2375.499999999998
 30
0.0
 11
823.9750000000299
 21
2375.499999999998
 31
0.0
  0
LINE
  5
4EE
330
1F
100
AcDbEntity
  8
LAY-10
  6
CENTER
 62
     2
100
AcDbLine
 10
805.0000000000301
 20
1304.1
 30
0.0
 11
805.0000000000301
 21
1265.2
 31
0.0
  0
LINE
  5
4EF
330
1F
100
AcDbEntity
  8
LAY-10
  6
CENTER
 62
     2
100
AcDbLine
 10
786.4750000000299
 20
1285.499999999999
 30
0.0
 11
823.9750000000299
 21
1285.499999999999
 31
0.0
  0
LINE
  5
4F0
330
1F
100
AcDbEntity
  8
LAY-10
  6
CENTER
 62
     2
100
AcDbLine
 10
1065.00000000005
 20
1287.354316770599
 30
0.0
 11
1065.00000000005
 21
1245.5543167706
 31
0.0
  0
LINE
  5
4F1
330
1F
100
AcDbEntity
  8
LAY-10
  6
CENTER
 62
     2
100
AcDbLine
 10
1180.000000000019
 20
1305.500000000045
 30
0.0
 11
1148.00000000002
 21
1305.500000000045
 31
0.0
  0
LINE
  5
4F2
330
1F
100
AcDbEntity
  8
LAY-10
  6
CENTER
 62
     2
100
AcDbLine
 10
1703.400000000069
 20
1305.500000000025
 30
0.0
 11
1675.000000000069
 21
1305.500000000025
 31
0.0
  0
LINE
  5
4F3
330
1F
100
AcDbEntity
  8
LAY-10
  6
CENTER
 62
     2
100
AcDbLine
 10
1690.000000000068
 20
1290.500000000025
 30
0.0
 11
1690.000000000069
 21
1322.500000000023
 31
0.0
  0
LINE
  5
4F4
330
1F
100
AcDbEntity
  8
LAY-10
  6
CENTER
 62
     2
100
AcDbLine
 10
1689.999999999995
 20
1817.100000000044
 30
0.0
 11
1689.999999999995
 21
1845.500000000045
 31
0.0
  0
LINE
  5
4F5
330
1F
100
AcDbEntity
  8
LAY-10
  6
CENTER
 62
     2
100
AcDbLine
 10
1704.999999999995
 20
2355.500000000048
 30
0.0
 11
1672.999999999996
 21
2355.500000000049
 31
0.0
  0
LINE
  5
4F6
330
1F
100
AcDbEntity
  8
LAY-10
  6
CENTER
 62
     2
100
AcDbLine
 10
1689.999999999995
 20
2368.900000000049
 30
0.0
 11
1689.999999999995
 21
2340.500000000049
 31
0.0
  0
LINE
  5
4F7
330
1F
100
AcDbEntity
  8
LAY-10
  6
CENTER
 62
     2
100
AcDbLine
 10
566.1015151901697
 20
1830.500000000001
 30
0.0
 11
1763.8984848099
 21
1830.500000000001
 31
0.0
  0
LINE
  5
4F8
330
1F
100
AcDbEntity
  8
LAY-10
  6
CENTER
 62
     2
100
AcDbLine
 10
915.0000000000296
 20
2422.499999999999
 30
0.0
 11
915.0000000000296
 21
2464.299999999998
 31
0.0
  0
LINE
  5
4F9
330
1F
100
AcDbEntity
  8
LAY-10
  6
CENTER
 62
     2
100
AcDbLine
 10
1415.00000000003
 20
2422.499999999999
 30
0.0
 11
1415.00000000003
 21
2464.299999999998
 31
0.0
  0
LINE
  5
4FA
330
1F
100
AcDbEntity
  8
LAY-10
  6
CENTER
 62
     2
100
AcDbLine
 10
915.0000000000296
 20
1238.500000000002
 30
0.0
 11
915.0000000000296
 21
1196.700000000003
 31
0.0
  0
LINE
  5
4FB
330
1F
100
AcDbEntity
  8
LAY-10
  6
CENTER
 62
     2
100
AcDbLine
 10
1415.00000000003
 20
1238.500000000002
 30
0.0
 11
1415.00000000003
 21
1196.700000000003
 31
0.0
  0
LINE
  5
4FC
330
1F
100
AcDbEntity
  8
LAY-10
  6
CENTER
 62
     2
100
AcDbLine
 10
1719.999999999999
 20
2080.5
 30
0.0
 11
1761.799999999998
 21
2080.5
 31
0.0
  0
LINE
  5
4FD
330
1F
100
AcDbEntity
  8
LAY-10
  6
CENTER
 62
     2
100
AcDbLine
 10
1719.999999999999
 20
1580.5
 30
0.0
 11
1761.799999999998
 21
1580.500000000001
 31
0.0
  0
LINE
  5
4FE
330
1F
100
AcDbEntity
  8
LAY-10
  6
CENTER
 62
     2
100
AcDbLine
 10
610.0000000000605
 20
2080.5
 30
0.0
 11
568.2000000000612
 21
2080.5
 31
0.0
  0
LINE
  5
4FF
330
1F
100
AcDbEntity
  8
LAY-10
  6
CENTER
 62
     2
100
AcDbLine
 10
610.0000000000609
 20
1580.5
 30
0.0
 11
568.2000000000617
 21
1580.5
 31
0.0
  0
LINE
  5
500
330
1F
100
AcDbEntity
  8
LAY-10
  6
CENTER
 62
     2
100
AcDbLine
 10
2134.434848523501
 20
2355.500000000051
 30
0.0
 11
2185.634848523504
 21
2355.500000000051
 31
0.0
  0
LINE
  5
501
330
1F
100
AcDbEntity
  8
LAY-10
  6
CENTER
 62
     2
100
AcDbLine
 10
2153.23333333334
 20
2416.800000000047
 30
0.0
 11
2153.23333333334
 21
2368.30000000005
 31
0.0
  0
LINE
  5
502
330
1F
100
AcDbEntity
  8
LAY-10
  6
CENTER
 62
     2
100
AcDbLine
 10
2153.23333333334
 20
1244.200000000051
 30
0.0
 11
2153.23333333334
 21
1292.700000000052
 31
0.0
  0
LINE
  5
503
330
1F
100
AcDbEntity
  8
LAY-10
  6
CENTER
 62
     2
100
AcDbLine
 10
2134.434848523501
 20
1305.50000000005
 30
0.0
 11
2185.634848523504
 21
1305.50000000005
 31
0.0
  0
LINE
  5
504
330
1F
100
AcDbEntity
  8
LAY-10
  6
CENTER
 62
     2
100
AcDbLine
 10
2042.234848523506
 20
1830.500000000051
 30
0.0
 11
2221.234848523508
 21
1830.500000000051
 31
0.0
  0
LINE
  5
505
330
1F
100
AcDbEntity
  8
LAY-10
  6
CENTER
 62
     2
100
AcDbLine
 10
1165.00000000008
 20
878.098484809902
 30
0.0
 11
1165.00000000008
 21
699.0984848099029
 31
0.0
  0
LINE
  5
506
330
1F
100
AcDbEntity
  8
LAY-10
  6
CENTER
 62
     2
100
AcDbLine
 10
1690.000000000032
 20
781.7700000000004
 30
0.0
 11
1690.000000000032
 21
730.3800000000001
 31
0.0
  0
LINE
  5
507
330
1F
100
AcDbEntity
  8
LAY-10
  6
CENTER
 62
     2
100
AcDbLine
 10
640.0000000000458
 20
786.0984848098369
 30
0.0
 11
640.0000000000458
 21
734.8984848098371
 31
0.0
  0
DIMENSION
  5
509
330
1F
100
AcDbEntity
  8
LAY-20
  6
CONTINUOUS
 62
     4
100
AcDbDimension
  2
*D33
 10
1720.0
 20
1018.0
 30
0.0
 11
1165.000000000025
 21
1043.0
 31
0.0
 70
   160
  3
ISO-25
100
AcDbAlignedDimension
 13
610.00000000005
 23
848.0000000000001
 33
0.0
 14
1720.0
 24
848.0000000000001
 34
0.0
100
AcDbRotatedDimension
1001
ACAD
1000
DSTYLE
1002
{
1070
   270
1070
     2
1070
     6
1000
EX_BNORM
1070
     7
1000
EX_BNORM
1070
    41
1040
25.0
1070
    42
1040
15.0
1070
    44
1040
14.99999999999989
1070
    73
1070
     0
1070
    74
1070
     0
1070
    75
1070
     0
1070
    76
1070
     0
1070
    77
1070
     1
1070
    78
1070
     8
1070
   140
1040
31.181104
1070
   147
1040
0.0
1070
   173
1070
     1
1070
   176
1070
     4
1070
   177
1070
     4
1070
   178
1070
     7
1070
   271
1070
     1
1070
   277
1070
     2
1070
   279
1070
     2
1070
   280
1070
     0
1070
   287
1070
     5
1070
   340
1005
508
1002
}
  0
DIMENSION
  5
517
330
1F
100
AcDbEntity
  8
LAY-20
  6
CONTINUOUS
 62
     4
100
AcDbDimension
  2
*D34
 10
626.0000000000259
 20
948.0000000000001
 30
0.0
 11
805.0000000000257
 21
973.0000000000003
 31
0.0
 70
   160
  3
ISO-25
100
AcDbAlignedDimension
 13
984.0000000000255
 23
847.9999999999991
 33
0.0
 14
626.0000000000259
 24
847.9999999999995
 34
0.0
100
AcDbRotatedDimension
1001
ACAD
1000
DSTYLE
1002
{
1070
   270
1070
     2
1070
     6
1000
EX_BNORM
1070
     7
1000
EX_BNORM
1070
    41
1040
25.0
1070
    42
1040
15.0
1070
    44
1040
15.0
1070
    73
1070
     0
1070
    74
1070
     0
1070
    75
1070
     0
1070
    76
1070
     0
1070
    77
1070
     1
1070
    78
1070
     8
1070
   140
1040
31.181104
1070
   147
1040
0.0
1070
   173
1070
     1
1070
   176
1070
     4
1070
   177
1070
     4
1070
   178
1070
     7
1070
   271
1070
     1
1070
   277
1070
     2
1070
   279
1070
     2
1070
   280
1070
     0
1070
   287
1070
     5
1070
   340
1005
508
1002
}
  0
DIMENSION
  5
524
330
1F
100
AcDbEntity
  8
LAY-20
  6
CONTINUOUS
 62
     4
100
AcDbDimension
  2
*D35
 10
1665.0
 20
618.0
 30
0.0
 11
1165.00000000003
 21
643.0
 31
0.0
 70
   160
  3
ISO-25
100
AcDbAlignedDimension
 13
665.00000000006
 23
717.99999999999
 33
0.0
 14
1665.0
 24
717.99999999999
 34
0.0
100
AcDbRotatedDimension
1001
ACAD
1000
DSTYLE
1002
{
1070
   270
1070
     2
1070
     6
1000
EX_BNORM
1070
     7
1000
EX_BNORM
1070
    41
1040
25.0
1070
    42
1040
15.0
1070
    44
1040
15.0
1070
    73
1070
     0
1070
    74
1070
     0
1070
    75
1070
     0
1070
    76
1070
     0
1070
    77
1070
     1
1070
    78
1070
     8
1070
   140
1040
31.181104
1070
   147
1040
0.0
1070
   173
1070
     1
1070
   176
1070
     4
1070
   177
1070
     4
1070
   178
1070
     7
1070
   271
1070
     1
1070
   277
1070
     2
1070
   279
1070
     2
1070
   280
1070
     0
1070
   287
1070
     5
1070
   340
1005
508
1002
}
  0
DIMENSION
  5
531
330
1F
100
AcDbEntity
  8
LAY-20
  6
CONTINUOUS
 62
     4
100
AcDbDimension
  2
*D36
 10
1871.1
 20
747.9999999999999
 30
0.0
 11
1846.1
 21
798.0000000000002
 31
0.0
 70
   160
  3
ISO-25
100
AcDbAlignedDimension
 13
1720.0
 23
848.0000000000001
 33
0.0
 14
1702.28
 24
747.9999999999999
 34
0.0
 50
90.0
100
AcDbRotatedDimension
1001
ACAD
1000
DSTYLE
1002
{
1070
   270
1070
     2
1070
     6
1000
EX_BNORM
1070
     7
1000
EX_BNORM
1070
    41
1040
25.0
1070
    42
1040
15.0
1070
    44
1040
15.0
1070
    73
1070
     0
1070
    74
1070
     0
1070
    75
1070
     0
1070
    76
1070
     0
1070
    77
1070
     1
1070
    78
1070
     8
1070
   140
1040
31.181104
1070
   147
1040
0.0
1070
   173
1070
     1
1070
   176
1070
     4
1070
   177
1070
     4
1070
   178
1070
     7
1070
   271
1070
     1
1070
   277
1070
     2
1070
   279
1070
     2
1070
   280
1070
     0
1070
   287
1070
     5
1070
   340
1005
508
1002
}
  0
DIMENSION
  5
53E
330
1F
100
AcDbEntity
  8
LAY-20
  6
CONTINUOUS
 62
     4
100
AcDbDimension
  2
*D37
 10
1902.33333333335
 20
2422.5000000001
 30
0.0
 11
1877.333333333351
 21
1830.50000000005
 31
0.0
 70
   160
  3
ISO-25
100
AcDbAlignedDimension
 13
2072.333333333299
 23
1238.5
 33
0.0
 14
2072.333333333299
 24
2422.5000000001
 34
0.0
 50
90.0
100
AcDbRotatedDimension
1001
ACAD
1000
DSTYLE
1002
{
1070
   270
1070
     2
1070
     6
1000
EX_BNORM
1070
     7
1000
EX_BNORM
1070
    41
1040
25.0
1070
    42
1040
15.0
1070
    44
1040
15.0
1070
    73
1070
     0
1070
    74
1070
     0
1070
    75
1070
     0
1070
    76
1070
     0
1070
    77
1070
     1
1070
    78
1070
     8
1070
   140
1040
31.181104
1070
   147
1040
0.0
1070
   173
1070
     1
1070
   176
1070
     4
1070
   177
1070
     4
1070
   178
1070
     7
1070
   271
1070
     1
1070
   277
1070
     2
1070
   279
1070
     2
1070
   280
1070
     0
1070
   287
1070
     5
1070
   340
1005
508
1002
}
  0
DIMENSION
  5
54B
330
1F
100
AcDbEntity
  8
LAY-20
  6
CONTINUOUS
 62
     4
100
AcDbDimension
  2
*D38
 10
1972.33333333335
 20
2406.500000000051
 30
0.0
 11
1947.333333333351
 21
1830.50000000005
 31
0.0
 70
   160
  3
ISO-25
100
AcDbAlignedDimension
 13
2072.333333333346
 23
1254.50000000005
 33
0.0
 14
2072.333333333346
 24
2406.500000000051
 34
0.0
 50
90.0
100
AcDbRotatedDimension
1001
ACAD
1000
DSTYLE
1002
{
1070
   270
1070
     2
1070
     6
1000
EX_BNORM
1070
     7
1000
EX_BNORM
1070
    41
1040
25.0
1070
    42
1040
15.0
1070
    44
1040
15.0
1070
    73
1070
     0
1070
    74
1070
     0
1070
    75
1070
     0
1070
    76
1070
     0
1070
    77
1070
     1
1070
    78
1070
     8
1070
   140
1040
31.181104
1070
   147
1040
0.0
1070
   173
1070
     1
1070
   176
1070
     4
1070
   177
1070
     4
1070
   178
1070
     7
1070
   271
1070
     1
1070
   277
1070
     2
1070
   279
1070
     2
1070
   280
1070
     0
1070
   287
1070
     5
1070
   340
1005
508
1002
}
  0
DIMENSION
  5
558
330
1F
100
AcDbEntity
  8
LAY-20
  6
CONTINUOUS
 62
     4
100
AcDbDimension
  2
*D39
 10
2302.53333333333
 20
1330.5000000001
 30
0.0
 11
2277.53333333333
 21
1830.50000000005
 31
0.0
 70
   160
  3
ISO-25
100
AcDbAlignedDimension
 13
2202.5333333333
 23
2330.5
 33
0.0
 14
2202.5333333333
 24
1330.5000000001
 34
0.0
 50
90.0
100
AcDbRotatedDimension
1001
ACAD
1000
DSTYLE
1002
{
1070
   270
1070
     2
1070
     6
1000
EX_BNORM
1070
     7
1000
EX_BNORM
1070
    41
1040
25.0
1070
    42
1040
15.0
1070
    44
1040
15.0
1070
    73
1070
     0
1070
    74
1070
     0
1070
    75
1070
     0
1070
    76
1070
     0
1070
    77
1070
     1
1070
    78
1070
     8
1070
   140
1040
31.181104
1070
   147
1040
0.0
1070
   173
1070
     1
1070
   176
1070
     4
1070
   177
1070
     4
1070
   178
1070
     7
1070
   271
1070
     1
1070
   277
1070
     2
1070
   279
1070
     2
1070
   280
1070
     0
1070
   287
1070
     5
1070
   340
1005
508
1002
}
  0
DIMENSION
  5
565
330
1F
100
AcDbEntity
  8
LAY-20
  6
CONTINUOUS
 62
     4
100
AcDbDimension
  2
*D40
 10
2372.5333333333
 20
1247.3
 30
0.0
 11
2347.5333333333
 21
1830.5
 31
0.0
 70
   160
  3
ISO-25
100
AcDbAlignedDimension
 13
2119.7333333333
 23
2413.7
 33
0.0
 14
2119.7333333333
 24
1247.3
 34
0.0
 50
90.0
100
AcDbRotatedDimension
1001
ACAD
1000
DSTYLE
1002
{
1070
   270
1070
     2
1070
     6
1000
EX_BNORM
1070
     7
1000
EX_BNORM
1070
    41
1040
25.0
1070
    42
1040
15.0
1070
    44
1040
15.0
1070
    73
1070
     0
1070
    74
1070
     0
1070
    75
1070
     0
1070
    76
1070
     0
1070
    77
1070
     1
1070
    78
1070
     0
1070
   140
1040
31.181104
1070
   147
1040
0.0
1070
   173
1070
     1
1070
   176
1070
     4
1070
   177
1070
     4
1070
   178
1070
     7
1070
   271
1070
     0
1070
   277
1070
     2
1070
   279
1070
     2
1070
   280
1070
     0
1070
   287
1070
     5
1070
   340
1005
508
1002
}
  0
DIMENSION
  5
572
330
1F
100
AcDbEntity
  8
LAY-20
  6
CONTINUOUS
 62
     4
100
AcDbDimension
  2
*D41
 10
1312.1
 20
848.0000000000001
 30
0.0
 11
1287.1
 21
907.9999999999997
 31
0.0
 70
   160
  3
ISO-25
100
AcDbAlignedDimension
 13
1260.0
 23
813.0000000000001
 33
0.0
 14
1312.1
 24
848.0000000000001
 34
0.0
 50
90.0
100
AcDbRotatedDimension
1001
ACAD
1000
DSTYLE
1002
{
1070
   270
1070
     2
1070
     6
1000
EX_BNORM
1070
     7
1000
EX_BNORM
1070
    41
1040
25.0
1070
    42
1040
15.0
1070
    44
1040
15.0
1070
    73
1070
     0
1070
    74
1070
     0
1070
    75
1070
     0
1070
    76
1070
     1
1070
    77
1070
     1
1070
    78
1070
     8
1070
   140
1040
31.181104
1070
   147
1040
0.0
1070
   173
1070
     1
1070
   176
1070
     4
1070
   177
1070
     4
1070
   178
1070
     7
1070
   271
1070
     1
1070
   277
1070
     2
1070
   279
1070
     2
1070
   280
1070
     2
1070
   287
1070
     5
1070
   340
1005
508
1002
}
  0
DIMENSION
  5
580
330
1F
100
AcDbEntity
  8
LAY-20
  6
CONTINUOUS
 62
     4
100
AcDbDimension
  2
*D42
 10
618.80000000005
 20
548.00000000001
 30
0.0
 11
1165.000000000025
 21
573.00000000001
 31
0.0
 70
   160
  3
ISO-25
100
AcDbAlignedDimension
 13
1711.2
 23
751.0
 33
0.0
 14
618.80000000005
 24
751.0
 34
0.0
100
AcDbRotatedDimension
1001
ACAD
1000
DSTYLE
1002
{
1070
   270
1070
     2
1070
     6
1000
EX_BNORM
1070
     7
1000
EX_BNORM
1070
    41
1040
25.0
1070
    42
1040
15.0
1070
    44
1040
15.0
1070
    73
1070
     0
1070
    74
1070
     0
1070
    75
1070
     0
1070
    76
1070
     0
1070
    77
1070
     1
1070
    78
1070
     0
1070
   140
1040
31.181104
1070
   147
1040
0.0
1070
   173
1070
     1
1070
   176
1070
     4
1070
   177
1070
     4
1070
   178
1070
     7
1070
   271
1070
     0
1070
   277
1070
     2
1070
   279
1070
     2
1070
   280
1070
     0
1070
   287
1070
     5
1070
   340
1005
508
1002
}
  0
LINE
  5
58D
330
1F
100
AcDbEntity
  8
LAY-255
  6
CONTINUOUS
 62
     7
100
AcDbLine
 10
3850.0
 20
219.9999999999999
 30
0.0
 11
2850.0
 21
219.9999999999999
 31
0.0
  0
LINE
  5
58E
330
1F
100
AcDbEntity
  8
LAY-255
  6
CONTINUOUS
 62
     7
100
AcDbLine
 10
2888.0
 20
160.0
 30
0.0
 11
2968.0
 21
210.0
 31
0.0
  0
LINE
  5
58F
330
1F
100
AcDbEntity
  8
LAY-255
  6
CONTINUOUS
 62
     7
100
AcDbLine
 10
2968.0
 20
210.0
 30
0.0
 11
3048.0
 21
160.0
 31
0.0
  0
LINE
  5
590
330
1F
100
AcDbEntity
  8
LAY-255
  6
CONTINUOUS
 62
     7
100
AcDbLine
 10
3048.0
 20
160.0
 30
0.0
 11
2968.0
 21
110.0
 31
0.0
  0
LINE
  5
591
330
1F
100
AcDbEntity
  8
LAY-255
  6
CONTINUOUS
 62
     7
100
AcDbLine
 10
2968.0
 20
110.0
 30
0.0
 11
2888.0
 21
160.0
 31
0.0
  0
LINE
  5
592
330
1F
100
AcDbEntity
  8
LAY-255
  6
CONTINUOUS
 62
     7
100
AcDbLine
 10
50.0
 20
100.0
 30
0.0
 11
3850.0
 21
100.0
 31
0.0
  0
LINE
  5
593
330
1F
100
AcDbEntity
  8
LAY-255
  6
CONTINUOUS
 62
     7
100
AcDbLine
 10
50.0
 20
2800.0
 30
0.0
 11
3850.0
 21
2800.0
 31
0.0
  0
LINE
  5
594
330
1F
100
AcDbEntity
  8
LAY-255
  6
CONTINUOUS
 62
     7
100
AcDbLine
 10
50.0
 20
100.0
 30
0.0
 11
50.0
 21
2800.0
 31
0.0
  0
LINE
  5
595
330
1F
100
AcDbEntity
  8
LAY-255
  6
CONTINUOUS
 62
     7
100
AcDbLine
 10
3850.0
 20
100.0
 30
0.0
 11
3850.0
 21
2800.0
 31
0.0
  0
LINE
  5
596
330
1F
100
AcDbEntity
  8
LAY-255
  6
CONTINUOUS
 62
     4
100
AcDbLine
 10
2850.0
 20
279.9999999999999
 30
0.0
 11
3850.0
 21
279.9999999999999
 31
0.0
  0
LINE
  5
597
330
1F
100
AcDbEntity
  8
LAY-255
  6
CONTINUOUS
 62
     7
100
AcDbLine
 10
2850.0
 20
100.0
 30
0.0
 11
2850.0
 21
670.0
 31
0.0
  0
POINT
  5
598
330
1F
100
AcDbEntity
  8
LAY-255
  6
CONTINUOUS
 62
     7
100
AcDbPoint
 10
2890.0
 20
399.9999999999999
 30
0.0
  0
LINE
  5
599
330
1F
100
AcDbEntity
  8
LAY-255
  6
CONTINUOUS
 62
     4
100
AcDbLine
 10
3350.0
 20
279.9999999999999
 30
0.0
 11
3350.0
 21
220.0
 31
0.0
  0
LINE
  5
59A
330
1F
100
AcDbEntity
  8
LAY-255
  6
CONTINUOUS
 62
     7
100
AcDbLine
 10
3850.0
 20
670.0
 30
0.0
 11
2850.0
 21
670.0
 31
0.0
  0
LINE
  5
59B
330
1F
100
AcDbEntity
  8
LAY-255
  6
CONTINUOUS
 62
     4
100
AcDbLine
 10
3830.0
 20
549.9999999999999
 30
0.0
 11
2870.0
 21
549.9999999999999
 31
0.0
  0
LINE
  5
59C
330
1F
100
AcDbEntity
  8
LAY-255
  6
CONTINUOUS
 62
     4
100
AcDbLine
 10
3830.0
 20
610.0
 30
0.0
 11
2870.0
 21
610.0
 31
0.0
  0
POINT
  5
59D
330
1F
100
AcDbEntity
  8
LAY-255
  6
CONTINUOUS
 62
     7
100
AcDbPoint
 10
2890.0
 20
499.9999999999999
 30
0.0
  0
POINT
  5
59E
330
1F
100
AcDbEntity
  8
LAY-255
  6
CONTINUOUS
 62
     7
100
AcDbPoint
 10
3000.0
 20
559.9999999999999
 30
0.0
  0
POINT
  5
59F
330
1F
100
AcDbEntity
  8
LAY-255
  6
CONTINUOUS
 62
     7
100
AcDbPoint
 10
3000.0
 20
620.0
 30
0.0
  0
POINT
  5
5A0
330
1F
100
AcDbEntity
  8
LAY-255
  6
CONTINUOUS
 62
     7
100
AcDbPoint
 10
2890.0
 20
349.9999999999999
 30
0.0
  0
POINT
  5
5A1
330
1F
100
AcDbEntity
  8
LAY-255
  6
CONTINUOUS
 62
     7
100
AcDbPoint
 10
2890.0
 20
449.9999999999999
 30
0.0
  0
POINT
  5
5A2
330
1F
100
AcDbEntity
  8
LAY-255
  6
CONTINUOUS
 62
     7
100
AcDbPoint
 10
2890.0
 20
299.9999999999998
 30
0.0
  0
POINT
  5
5A3
330
1F
100
AcDbEntity
  8
LAY-255
  6
CONTINUOUS
 62
     7
100
AcDbPoint
 10
2890.0
 20
349.9999999999999
 30
0.0
  0
TEXT
  5
5A4
330
1F
100
AcDbEntity
  8
LAY-255
  6
CONTINUOUS
 62
     7
100
AcDbText
 10
3081.3837890625
 20
155.4375
 30
0.0
 40
51.5625
  1
福西鋳物株式会社
 41
1.342691999659091
  7
EXCADSTD
100
AcDbText
  0
TEXT
  5
5A5
330
1F
100
AcDbEntity
  8
LAY-255
  6
CONTINUOUS
 62
     7
100
AcDbText
 10
3085.09375
 20
119.8125
 30
0.0
 40
17.1875
  1
ＦＵＫＵＮＩＳＨＩ
 41
1.204799226045263
  7
EXCADSTD
100
AcDbText
  0
TEXT
  5
5A6
330
1F
100
AcDbEntity
  8
LAY-255
  6
CONTINUOUS
 62
     7
100
AcDbText
 10
3327.191964285714
 20
119.8125
 30
0.0
 40
17.1875
  1
ＦＯＵＮＤＲＹ
 41
1.243252752978497
  7
EXCADSTD
100
AcDbText
  0
TEXT
  5
5A7
330
1F
100
AcDbEntity
  8
LAY-255
  6
CONTINUOUS
 62
     7
100
AcDbText
 10
3519.945914381009
 20
119.8125
 30
0.0
 40
17.1875
  1
ＣＯ.,ＬＴＤ.
 41
1.243831036226633
  7
EXCADSTD
100
AcDbText
  0
TEXT
  5
5A8
330
1F
100
AcDbEntity
  8
LAY-255
  6
CONTINUOUS
 62
     7
100
AcDbText
 10
2940.34375
 20
137.1875
 30
0.0
 40
51.5625
  1
S
 41
0.7582677563636363
  7
EXCADSTD
100
AcDbText
  0
TEXT
  5
5A9
330
1F
100
AcDbEntity
  8
LAY-255
  6
CONTINUOUS
 62
     7
100
AcDbText
 10
2971.046875
 20
137.4941037736
 30
0.0
 40
51.5625
  1
F
 41
0.7440945272727272
  7
EXCADSTD
100
AcDbText
  0
TEXT
  5
5AA
330
1F
100
AcDbEntity
  8
LAY-255
  6
CONTINUOUS
 62
     7
100
AcDbText
 10
3371.0546875
 20
244.2187499999999
 30
0.0
 40
25.78125
  1
縮尺
 41
1.080708718181818
  7
EXCADSTD
100
AcDbText
  0
TEXT
  5
5AB
330
1F
100
AcDbEntity
  8
LAY-255
  6
CONTINUOUS
 62
     7
100
AcDbText
 10
2872.65625
 20
565.6249999999999
 30
0.0
 40
34.375
  1
型式
 41
1.056348480681818
  7
EXCADSTD
100
AcDbText
  0
TEXT
  5
5AC
330
1F
100
AcDbEntity
  8
LAY-255
  6
CONTINUOUS
 62
     7
100
AcDbText
 10
2874.21875
 20
625.625
 30
0.0
 40
34.375
  1
品名
 41
0.9788386340909091
  7
EXCADSTD
100
AcDbText
  0
TEXT
  5
5AD
330
1F
100
AcDbEntity
  8
LAY-255
  6
CONTINUOUS
 62
     7
100
AcDbText
 10
2871.5234375
 20
244.2187499999999
 30
0.0
 40
25.78125
  1
作成日
 41
1.000629973818182
  7
EXCADSTD
100
AcDbText
  0
TEXT
  5
5AE
330
1F
100
AcDbEntity
  8
LAY-255
  6
CONTINUOUS
 62
     7
100
AcDbText
 10
2891.40625
 20
505.6249999999999
 30
0.0
 40
34.375
  1
材質：スチール
 41
1.029301719225037
  7
EXCADSTD
100
AcDbText
  0
TEXT
  5
5AF
330
1F
100
AcDbEntity
  8
LAY-255
  6
CONTINUOUS
 62
     7
100
AcDbText
 10
2892.03125
 20
405.6249999999999
 30
0.0
 40
34.375
  1
適用荷重：歩行用
 41
1.015410627012987
  7
EXCADSTD
100
AcDbText
  0
TEXT
  5
5B0
330
1F
100
AcDbEntity
  8
LAY-255
  6
CONTINUOUS
 62
     7
100
AcDbText
 10
3002.5
 20
625.625
 30
0.0
 40
34.375
  1
化粧用マシンハッチ
 41
1.014552031760644
  7
EXCADSTD
100
AcDbText
  0
TEXT
  5
5B1
330
1F
100
AcDbEntity
  8
LAY-255
  6
CONTINUOUS
 62
     7
100
AcDbText
 10
3007.5
 20
565.6249999999999
 30
0.0
 40
34.375
  1
ＳＦ－１００ＢＭＰ－１型
 41
1.00449418439108
  7
EXCADSTD
100
AcDbText
  0
TEXT
  5
5B2
330
1F
100
AcDbEntity
  8
LAY-255
  6
CONTINUOUS
 62
     7
100
AcDbText
 10
2892.03125
 20
355.6249999999999
 30
0.0
 40
34.375
  1
貼代：３５
 41
0.99542213615222
  7
EXCADSTD
100
AcDbText
  0
TEXT
  5
5B3
330
1F
100
AcDbEntity
  8
LAY-255
  6
CONTINUOUS
 62
     7
100
AcDbText
 10
2897.8125
 20
455.6249999999999
 30
0.0
 40
34.375
  1
目地：ステンレス鋼
 41
1.00154495443038
  7
EXCADSTD
100
AcDbText
  0
TEXT
  5
5B4
330
1F
100
AcDbEntity
  8
LAY-255
  6
CONTINUOUS
 62
     7
100
AcDbText
 10
3008.90625
 20
235.6249999999999
 30
0.0
 40
34.375
  1
０９／０３／２５
 41
0.9779528072727273
  7
EXCADSTD
100
AcDbText
  0
TEXT
  5
5B5
330
1F
100
AcDbEntity
  8
LAY-255
  6
CONTINUOUS
 62
     7
100
AcDbText
 10
3482.8125
 20
235.6249999999999
 30
0.0
 40
34.375
  1
１：１０
 41
0.9243863385026738
  7
EXCADSTD
100
AcDbText
  0
ENDSEC
  0
SECTION
  2
OBJECTS
  0
DICTIONARY
  5
C
330
0
100
AcDbDictionary
  3
ACAD_GROUP
350
D
  3
ACAD_LAYOUT
350
1A
  3
ACAD_MATERIAL
350
43
  3
ACAD_MLEADERSTYLE
350
6B
  3
ACAD_MLINESTYLE
350
17
  3
ACAD_PLOTSETTINGS
350
19
  3
ACAD_SCALELIST
350
47
  3
ACAD_VISUALSTYLE
350
2A
  3
ACDBHEADERROUNDTRIPXREC
350
5B6
  3
ACDBVARIABLEDICTIONARY
350
5D7
  0
DICTIONARY
  5
5E2
330
8
100
AcDbDictionary
280
     1
  3
ACAD_XREC_ROUNDTRIP
360
5E3
  0
DICTIONARY
  5
D
102
{ACAD_REACTORS
330
C
102
}
330
C
100
AcDbDictionary
  0
DICTIONARY
  5
1A
102
{ACAD_REACTORS
330
C
102
}
330
C
100
AcDbDictionary
  0
DICTIONARY
  5
43
102
{ACAD_REACTORS
330
C
102
}
330
C
100
AcDbDictionary
  3
BYBLOCK
350
45
  3
BYLAYER
350
44
  3
GLOBAL
350
46
  0
DICTIONARY
  5
6B
102
{ACAD_REACTORS
330
C
102
}
330
C
100
AcDbDictionary
  3
STANDARD
350
6C
  0
DICTIONARY
  5
17
102
{ACAD_REACTORS
330
C
102
}
330
C
100
AcDbDictionary
  3
STANDARD
350
18
  0
DICTIONARY
  5
19
102
{ACAD_REACTORS
330
C
102
}
330
C
100
AcDbDictionary
  0
DICTIONARY
  5
47
102
{ACAD_REACTORS
330
C
102
}
330
C
100
AcDbDictionary
  3
A0
350
48
  3
A1
350
49
  3
A2
350
4A
  3
A3
350
4B
  3
A4
350
4C
  3
A5
350
4D
  3
A6
350
4E
  3
A7
350
4F
  3
A8
350
50
  3
A9
350
51
  3
B0
350
52
  3
B1
350
53
  3
B2
350
54
  3
B3
350
55
  3
B4
350
56
  3
B5
350
57
  3
B6
350
58
  3
B7
350
59
  3
B8
350
5A
  3
B9
350
5B
  3
C0
350
5C
  3
C1
350
5D
  3
C2
350
5E
  3
C3
350
5F
  3
C4
350
60
  3
C5
350
61
  3
C6
350
62
  3
C7
350
63
  3
C8
350
64
  3
C9
350
65
  3
D0
350
66
  3
D1
350
67
  3
D2
350
68
  0
DICTIONARY
  5
2A
102
{ACAD_REACTORS
330
C
102
}
330
C
100
AcDbDictionary
  3
2DWIREFRAME
350
2F
  3
BASIC
350
32
  3
BRIGHTEN
350
36
  3
COLORCHANGE
350
3A
  3
CONCEPTUAL
350
34
  3
DIM
350
35
  3
EDGECOLOROFF
350
3D
  3
FACEPATTERN
350
39
  3
FLAT
350
2B
  3
FLATWITHEDGES
350
2C
  3
GOURAUD
350
2D
  3
GOURAUDWITHEDGES
350
2E
  3
HIDDEN
350
31
  3
JITTEROFF
350
3B
  3
LINEPATTERN
350
38
  3
OVERHANGOFF
350
3C
  3
REALISTIC
350
33
  3
SHADED
350
42
  3
SHADED_WITH_EDGES
350
41
  3
SHADES_OF_GRAY
350
3E
  3
SKETCHY
350
3F
  3
THICKEN
350
37
  3
WIREFRAME
350
30
  3
X-RAY
350
40
  0
DICTIONARY
  5
5B6
102
{ACAD_REACTORS
330
C
102
}
330
C
100
AcDbDictionary
  3
CEPSNID
350
5C0
  3
CEPSNTYPE
350
5BF
  3
DIMSTYLEDATA
350
5D6
  3
FINGERPRINTGUID
350
5C1
  3
HYPERLINKBASE
350
5B9
  3
INSUNITS
350
5BE
  3
LAYOUTDICT
350
5BB
  3
LWETCUNION
350
5BD
  3
PLOTSETDICT
350
5BC
  3
PSVPSCALE
350
5C3
  3
PUCSBASE
350
5C6
  3
PUCSORGBACK
350
5CC
  3
PUCSORGBOTTOM
350
5C8
  3
PUCSORGFRONT
350
5CB
  3
PUCSORGLEFT
350
5C9
  3
PUCSORGRIGHT
350
5CA
  3
PUCSORGTOP
350
5C7
  3
PUCSORTHOREF
350
5C4
  3
PUCSORTHOVIEW
350
5C5
  3
STYLESHEET
350
5BA
  3
TSTACKALIGN
350
5B7
  3
TSTACKSIZE
350
5B8
  3
UCSBASE
350
5CF
  3
UCSORGBACK
350
5D5
  3
UCSORGBOTTOM
350
5D1
  3
UCSORGFRONT
350
5D4
  3
UCSORGLEFT
350
5D2
  3
UCSORGRIGHT
350
5D3
  3
UCSORGTOP
350
5D0
  3
UCSORTHOREF
350
5CD
  3
UCSORTHOVIEW
350
5CE
  3
VERSIONGUID
350
5C2
  0
DICTIONARY
  5
5D7
102
{ACAD_REACTORS
330
C
102
}
330
C
100
AcDbDictionary
  3
CANNOSCALE
350
5E4
  3
CENTEREXE
350
5DE
  3
CENTERLTYPEFILE
350
5DF
  3
CMLEADERSTYLE
350
5D9
  3
CTABLESTYLE
350
5D8
  3
DIMASSOC
350
5E0
  3
HIDETEXT
350
5E1
  3
MSLTSCALE
350
5E5
  3
PSOLHEIGHT
350
5DB
  3
PSOLWIDTH
350
5DA
  0
XRECORD
  5
5E3
102
{ACAD_REACTORS
330
5E2
102
}
330
5E2
100
AcDbXrecord
102
VTR_0.000_0.000_1.000_1.000_VISUALSTYLE
340
2F
102
VTR_0.000_0.000_1.000_1.000_GRIDDISPLAY
 70
     3
102
VTR_0.000_0.000_1.000_1.000_GRIDMAJOR
 70
     5
102
VTR_0.000_0.000_1.000_1.000_DEFAULTLIGHTING
280
     1
102
VTR_0.000_0.000_1.000_1.000_DEFAULTLIGHTINGTYPE
 70
     1
102
VTR_0.000_0.000_1.000_1.000_BRIGHTNESS
141
0.0
102
VTR_0.000_0.000_1.000_1.000_CONTRAST
142
0.0
  0
MATERIAL
  5
45
102
{ACAD_REACTORS
330
43
102
}
102
{ACAD_XDICTIONARY
360
5E8
102
}
330
43
100
AcDbMaterial
  1
BYBLOCK
  0
MATERIAL
  5
44
102
{ACAD_REACTORS
330
43
102
}
102
{ACAD_XDICTIONARY
360
5E6
102
}
330
43
100
AcDbMaterial
  1
BYLAYER
  0
MATERIAL
  5
46
102
{ACAD_REACTORS
330
43
102
}
102
{ACAD_XDICTIONARY
360
5EA
102
}
330
43
100
AcDbMaterial
  1
GLOBAL
  0
ACAD_PROXY_OBJECT
  5
6C
102
{ACAD_REACTORS
330
6B
102
}
330
6B
100
AcDbProxyObject
 90
      499
 91
      505
 93
      610
310
40901902A4063FBFFFFFE0000000000000020400000000000020404214DD185B99185C990000000000000104090141901A00000000000004100000000000000041025764000000000000039000
340
14
340
0
340
11
340
0
 94
        0
1001
ACAD_MLEADERVER
1070
     2
  0
MLINESTYLE
  5
18
102
{ACAD_REACTORS
330
17
102
}
330
17
100
AcDbMlineStyle
  2
Standard
 70
     0
  3

 62
   256
 51
90.0
 52
90.0
 71
     2
 49
0.5
 62
   256
  6
BYLAYER
 49
-0.5
 62
   256
  6
BYLAYER
  0
ACAD_PROXY_OBJECT
  5
48
102
{ACAD_REACTORS
330
47
102
}
330
47
100
AcDbProxyObject
 90
      499
 91
      503
 93
       41
310
903313A31580
  0
ACAD_PROXY_OBJECT
  5
49
102
{ACAD_REACTORS
330
47
102
}
330
47
100
AcDbProxyObject
 90
      499
 91
      503
 93
      105
310
903313A324000000000000004000
  0
ACAD_PROXY_OBJECT
  5
4A
102
{ACAD_REACTORS
330
47
102
}
330
47
100
AcDbProxyObject
 90
      499
 91
      503
 93
      105
310
903313A344000000000000104000
  0
ACAD_PROXY_OBJECT
  5
4B
102
{ACAD_REACTORS
330
47
102
}
330
47
100
AcDbProxyObject
 90
      499
 91
      503
 93
      105
310
903313A354000000000000144000
  0
ACAD_PROXY_OBJECT
  5
4C
102
{ACAD_REACTORS
330
47
102
}
330
47
100
AcDbProxyObject
 90
      499
 91
      503
 93
      105
310
903313A384000000000000204000
  0
ACAD_PROXY_OBJECT
  5
4D
102
{ACAD_REACTORS
330
47
102
}
330
47
100
AcDbProxyObject
 90
      499
 91
      503
 93
      113
310
904313A31304000000000000244000
  0
ACAD_PROXY_OBJECT
  5
4E
102
{ACAD_REACTORS
330
47
102
}
330
47
100
AcDbProxyObject
 90
      499
 91
      503
 93
      113
310
904313A31364000000000000304000
  0
ACAD_PROXY_OBJECT
  5
4F
102
{ACAD_REACTORS
330
47
102
}
330
47
100
AcDbProxyObject
 90
      499
 91
      503
 93
      113
310
904313A32304000000000000344000
  0
ACAD_PROXY_OBJECT
  5
50
102
{ACAD_REACTORS
330
47
102
}
330
47
100
AcDbProxyObject
 90
      499
 91
      503
 93
      113
310
904313A333040000000000003E4000
  0
ACAD_PROXY_OBJECT
  5
51
102
{ACAD_REACTORS
330
47
102
}
330
47
100
AcDbProxyObject
 90
      499
 91
      503
 93
      113
310
904313A34304000000000000444000
  0
ACAD_PROXY_OBJECT
  5
52
102
{ACAD_REACTORS
330
47
102
}
330
47
100
AcDbProxyObject
 90
      499
 91
      503
 93
      113
310
904313A35304000000000000494000
  0
ACAD_PROXY_OBJECT
  5
53
102
{ACAD_REACTORS
330
47
102
}
330
47
100
AcDbProxyObject
 90
      499
 91
      503
 93
      121
310
905313A3130304000000000000594000
  0
ACAD_PROXY_OBJECT
  5
54
102
{ACAD_REACTORS
330
47
102
}
330
47
100
AcDbProxyObject
 90
      499
 91
      503
 93
      105
310
903323A310000000000000010100
  0
ACAD_PROXY_OBJECT
  5
55
102
{ACAD_REACTORS
330
47
102
}
330
47
100
AcDbProxyObject
 90
      499
 91
      503
 93
      105
310
903343A310000000000000410100
  0
ACAD_PROXY_OBJECT
  5
56
102
{ACAD_REACTORS
330
47
102
}
330
47
100
AcDbProxyObject
 90
      499
 91
      503
 93
      105
310
903383A310000000000000810100
  0
ACAD_PROXY_OBJECT
  5
57
102
{ACAD_REACTORS
330
47
102
}
330
47
100
AcDbProxyObject
 90
      499
 91
      503
 93
      113
310
90431303A310000000000000910100
  0
ACAD_PROXY_OBJECT
  5
58
102
{ACAD_REACTORS
330
47
102
}
330
47
100
AcDbProxyObject
 90
      499
 91
      503
 93
      121
310
9053130303A310000000000001650100
  0
ACAD_PROXY_OBJECT
  5
59
102
{ACAD_REACTORS
330
47
102
}
330
47
100
AcDbProxyObject
 90
      499
 91
      503
 93
      257
310
90E312F31323822203D2031272D3022000000000000200FC000000000000284000
  0
ACAD_PROXY_OBJECT
  5
5A
102
{ACAD_REACTORS
330
47
102
}
330
47
100
AcDbProxyObject
 90
      499
 91
      503
 93
      249
310
90D312F363422203D2031272D3022000000000000240FC000000000000284000
  0
ACAD_PROXY_OBJECT
  5
5B
102
{ACAD_REACTORS
330
47
102
}
330
47
100
AcDbProxyObject
 90
      499
 91
      503
 93
      249
310
90D312F333222203D2031272D3022000000000000280FC000000000000284000
  0
ACAD_PROXY_OBJECT
  5
5C
102
{ACAD_REACTORS
330
47
102
}
330
47
100
AcDbProxyObject
 90
      499
 91
      503
 93
      249
310
90D312F313622203D2031272D30220000000000002C0FC000000000000284000
  0
ACAD_PROXY_OBJECT
  5
5D
102
{ACAD_REACTORS
330
47
102
}
330
47
100
AcDbProxyObject
 90
      499
 91
      503
 93
      249
310
90D332F333222203D2031272D30220000000000002E0FC000000000000284000
  0
ACAD_PROXY_OBJECT
  5
5E
102
{ACAD_REACTORS
330
47
102
}
330
47
100
AcDbProxyObject
 90
      499
 91
      503
 93
      241
310
90C312F3822203D2031272D3022000000000000300FC000000000000284000
  0
ACAD_PROXY_OBJECT
  5
5F
102
{ACAD_REACTORS
330
47
102
}
330
47
100
AcDbProxyObject
 90
      499
 91
      503
 93
      249
310
90D332F313622203D2031272D3022000000000000320FC000000000000284000
  0
ACAD_PROXY_OBJECT
  5
60
102
{ACAD_REACTORS
330
47
102
}
330
47
100
AcDbProxyObject
 90
      499
 91
      503
 93
      241
310
90C312F3422203D2031272D3022000000000000340FC000000000000284000
  0
ACAD_PROXY_OBJECT
  5
61
102
{ACAD_REACTORS
330
47
102
}
330
47
100
AcDbProxyObject
 90
      499
 91
      503
 93
      241
310
90C332F3822203D2031272D3022000000000000360FC000000000000284000
  0
ACAD_PROXY_OBJECT
  5
62
102
{ACAD_REACTORS
330
47
102
}
330
47
100
AcDbProxyObject
 90
      499
 91
      503
 93
      241
310
90C312F3222203D2031272D3022000000000000380FC000000000000284000
  0
ACAD_PROXY_OBJECT
  5
63
102
{ACAD_REACTORS
330
47
102
}
330
47
100
AcDbProxyObject
 90
      499
 91
      503
 93
      241
310
90C332F3422203D2031272D30220000000000003A0FC000000000000284000
  0
ACAD_PROXY_OBJECT
  5
64
102
{ACAD_REACTORS
330
47
102
}
330
47
100
AcDbProxyObject
 90
      499
 91
      503
 93
      161
310
90A3122203D2031272D30224000000000000284000
  0
ACAD_PROXY_OBJECT
  5
65
102
{ACAD_REACTORS
330
47
102
}
330
47
100
AcDbProxyObject
 90
      499
 91
      503
 93
      257
310
90E312D312F3222203D2031272D30220000000000003E0FC000000000000284000
  0
ACAD_PROXY_OBJECT
  5
66
102
{ACAD_REACTORS
330
47
102
}
330
47
100
AcDbProxyObject
 90
      499
 91
      503
 93
      225
310
90A3322203D2031272D302200000000000002100000000000000284000
  0
ACAD_PROXY_OBJECT
  5
67
102
{ACAD_REACTORS
330
47
102
}
330
47
100
AcDbProxyObject
 90
      499
 91
      503
 93
      225
310
90A3622203D2031272D302200000000000006100000000000000284000
  0
ACAD_PROXY_OBJECT
  5
68
102
{ACAD_REACTORS
330
47
102
}
330
47
100
AcDbProxyObject
 90
      499
 91
      503
 93
      249
310
90D31272D3022203D2031272D30220000000000000A100000000000000284000
  0
ACAD_PROXY_OBJECT
  5
2F
102
{ACAD_REACTORS
330
2A
102
}
330
2A
100
AcDbProxyObject
 90
      499
 91
      501
 93
      436
310
42CC9915DA5C99599C985B595049028333333333333E33F0000000000000F90107901411070040501600405405064090741402480A0340
1001
ACAD
1000
AcDbSavedByObjectVersion
1070
     0
  0
ACAD_PROXY_OBJECT
  5
32
102
{ACAD_REACTORS
330
2A
102
}
330
2A
100
AcDbProxyObject
 90
      499
 91
      501
 93
      388
310
4150985CDA58D07406404333333333333E33F0000000000000F90107A41107004050150841D405064090741402480A0350
1001
ACAD
1000
AcDbSavedByObjectVersion
1070
     0
  0
ACAD_PROXY_OBJECT
  5
36
102
{ACAD_REACTORS
330
2A
102
}
330
2A
100
AcDbProxyObject
 90
      499
 91
      501
 93
      428
310
42109C9A59DA1D195B90C409028333333333333E33F0000000000000F9010790141107004050150841D405064090741402480A029950
1001
ACAD
1000
AcDbSavedByObjectVersion
1070
     0
  0
ACAD_PROXY_OBJECT
  5
3A
102
{ACAD_REACTORS
330
2A
102
}
330
2A
100
AcDbProxyObject
 90
      499
 91
      501
 93
      452
310
42D0DBDB1BDC90DA185B99D95104090240C333333333333E33F0000000000000F90108901411070040501508421405064090741402480A0350
1001
ACAD
1000
AcDbSavedByObjectVersion
1070
     0
  0
ACAD_PROXY_OBJECT
  5
34
102
{ACAD_REACTORS
330
2A
102
}
330
2A
100
AcDbProxyObject
 90
      499
 91
      501
 93
      500
310
4290DBDB98D95C1D1D585B10940D028333333333333E33F0000000000000F90107902409070040501000000000018199010841D405064090740C02480A0340
1001
ACAD
1000
AcDbSavedByObjectVersion
1070
     0
  0
ACAD_PROXY_OBJECT
  5
35
102
{ACAD_REACTORS
330
2A
102
}
330
2A
100
AcDbProxyObject
 90
      499
 91
      501
 93
      412
310
40D11A5B50B409028333333333333E33F0000000000000F9010790141107004050150841D405064090741402480A02677FFFFFD0
1001
ACAD
1000
AcDbSavedByObjectVersion
1070
     0
  0
ACAD_PROXY_OBJECT
  5
3D
102
{ACAD_REACTORS
330
2A
102
}
330
2A
100
AcDbProxyObject
 90
      499
 91
      501
 93
      452
310
43115919D950DBDB1BDC93D999916409028333333333333E33F0000000000000F9010790141107004050150841D405064090741402480A0350
1001
ACAD
1000
AcDbSavedByObjectVersion
1070
     0
  0
ACAD_PROXY_OBJECT
  5
39
102
{ACAD_REACTORS
330
2A
102
}
330
2A
100
AcDbProxyObject
 90
      499
 91
      501
 93
      444
310
42D19858D95C185D1D195C9B90F409028333333333333E33F0000000000000F9010790141107004050150841D405064090741402480A0350
1001
ACAD
1000
AcDbSavedByObjectVersion
1070
     0
  0
ACAD_PROXY_OBJECT
  5
2B
102
{ACAD_REACTORS
330
2A
102
}
330
2A
100
AcDbProxyObject
 90
      499
 91
      501
 93
      380
310
41119B185D240901404333333333333E33F0000000000000F9010740A907004050150841D405064090741402480A1B50
1001
ACAD
1000
AcDbSavedByObjectVersion
1070
     0
  0
ACAD_PROXY_OBJECT
  5
2C
102
{ACAD_REACTORS
330
2A
102
}
330
2A
100
AcDbProxyObject
 90
      499
 91
      501
 93
      468
310
43519B185D15DA5D1A115919D95CD0140901404333333333333E33F0000000000000F90107409019070040501600405405064090741402480A1B50
1001
ACAD
1000
AcDbSavedByObjectVersion
1070
     0
  0
ACAD_PROXY_OBJECT
  5
2D
102
{ACAD_REACTORS
330
2A
102
}
330
2A
100
AcDbProxyObject
 90
      499
 91
      501
 93
      404
310
41D1DBDD5C985D5910240902404333333333333E33F0000000000000F9010740A9070040501641D405064090741402480A1B50
1001
ACAD
1000
AcDbSavedByObjectVersion
1070
     0
  0
ACAD_PROXY_OBJECT
  5
2E
102
{ACAD_REACTORS
330
2A
102
}
330
2A
100
AcDbProxyObject
 90
      499
 91
      501
 93
      492
310
4411DBDD5C985D5915DA5D1A115919D95CD0340902404333333333333E33F0000000000000F90107409019070040501600405405064090741402480A1B50
1001
ACAD
1000
AcDbSavedByObjectVersion
1070
     0
  0
ACAD_PROXY_OBJECT
  5
31
102
{ACAD_REACTORS
330
2A
102
}
330
2A
100
AcDbProxyObject
 90
      499
 91
      501
 93
      476
310
41921A5919195B90640502408333333333333E33F0000000000000F901079024090700405020000000000001110200405405064090740C02480A0340
1001
ACAD
1000
AcDbSavedByObjectVersion
1070
     0
  0
ACAD_PROXY_OBJECT
  5
3B
102
{ACAD_REACTORS
330
2A
102
}
330
2A
100
AcDbProxyObject
 90
      499
 91
      501
 93
      428
310
42529A5D1D195C93D999914409028333333333333E33F0000000000000F9010790141107004050150A41D405064090741402480A0350
1001
ACAD
1000
AcDbSavedByObjectVersion
1070
     0
  0
ACAD_PROXY_OBJECT
  5
38
102
{ACAD_REACTORS
330
2A
102
}
330
2A
100
AcDbProxyObject
 90
      499
 91
      501
 93
      444
310
42D31A5B995C185D1D195C9B90E409028333333333333E33F0000000000000F9010790141107004050750841D405064090741402483A0350
1001
ACAD
1000
AcDbSavedByObjectVersion
1070
     0
  0
ACAD_PROXY_OBJECT
  5
3C
102
{ACAD_REACTORS
330
2A
102
}
330
2A
100
AcDbProxyObject
 90
      499
 91
      501
 93
      444
310
42D3DD995C9A185B99D3D999915409028333333333333E33F0000000000000F9010790141107004050150941D405064090741402480A0350
1001
ACAD
1000
AcDbSavedByObjectVersion
1070
     0
  0
ACAD_PROXY_OBJECT
  5
33
102
{ACAD_REACTORS
330
2A
102
}
330
2A
100
AcDbProxyObject
 90
      499
 91
      501
 93
      428
310
425499585B1A5CDD1A58D08409038333333333333E33F0000000000000F9010740A907004050150800405405064090740C02480A1B40
1001
ACAD
1000
AcDbSavedByObjectVersion
1070
     0
  0
ACAD_PROXY_OBJECT
  5
42
102
{ACAD_REACTORS
330
2A
102
}
330
2A
100
AcDbProxyObject
 90
      499
 91
      501
 93
      420
310
4194DA1859195911B40902404333333333333E33F0000000000000F9010740A41107004050150800405405064090840C02480A0B40
1001
ACAD
1000
AcDbSavedByObjectVersion
1070
     0
  0
ACAD_PROXY_OBJECT
  5
41
102
{ACAD_REACTORS
330
2A
102
}
330
2A
100
AcDbProxyObject
 90
      499
 91
      501
 93
      516
310
4454DA18591959081DDA5D1A08195919D95CD1A40902404333333333333E33F0000000000000F901074090142907004050250800405405064090740C02480A0B40
1001
ACAD
1000
AcDbSavedByObjectVersion
1070
     0
  0
ACAD_PROXY_OBJECT
  5
3E
102
{ACAD_REACTORS
330
2A
102
}
330
2A
100
AcDbProxyObject
 90
      499
 91
      501
 93
      532
310
4394DA1859195CC81BD98811DC985E5174090240C333333333333E33F0000000000000F901079024090741D01000000000000111010841D405064090740C02480A0340
1001
ACAD
1000
AcDbSavedByObjectVersion
1070
     0
  0
ACAD_PROXY_OBJECT
  5
3F
102
{ACAD_REACTORS
330
2A
102
}
330
2A
100
AcDbProxyObject
 90
      499
 91
      501
 93
      476
310
41D4DAD95D18DA1E51840502408333333333333E33F0000000000000F901079024090741D01000000000000111010B41D405064090741802480A0340
1001
ACAD
1000
AcDbSavedByObjectVersion
1070
     0
  0
ACAD_PROXY_OBJECT
  5
37
102
{ACAD_REACTORS
330
2A
102
}
330
2A
100
AcDbProxyObject
 90
      499
 91
      501
 93
      412
310
41D51A1A58DAD95B90D409028333333333333E33F0000000000000F9010790141107004050150C41D405064090741402480A0350
1001
ACAD
1000
AcDbSavedByObjectVersion
1070
     0
  0
ACAD_PROXY_OBJECT
  5
30
102
{ACAD_REACTORS
330
2A
102
}
330
2A
100
AcDbProxyObject
 90
      499
 91
      501
 93
      420
310
4255DA5C99599C985B595059028333333333333E33F0000000000000F90107901411070040501600405405064090740C02480A0340
1001
ACAD
1000
AcDbSavedByObjectVersion
1070
     0
  0
ACAD_PROXY_OBJECT
  5
40
102
{ACAD_REACTORS
330
2A
102
}
330
2A
100
AcDbProxyObject
 90
      499
 91
      501
 93
      404
310
41560B54985E51940902404000000000000E03F0000000000000F9010740501907004050150841D405064090740C02480A1B40
1001
ACAD
1000
AcDbSavedByObjectVersion
1070
     0
  0
XRECORD
  5
5C0
102
{ACAD_REACTORS
330
5B6
102
}
330
5B6
100
AcDbXrecord
340
0
  0
XRECORD
  5
5BF
102
{ACAD_REACTORS
330
5B6
102
}
330
5B6
100
AcDbXrecord
 90
        0
  0
XRECORD
  5
5D6
102
{ACAD_REACTORS
330
5B6
102
}
330
5B6
100
AcDbXrecord
1000
DSTYLE
1002
{
1070
   340
340
11
1002
}
  0
XRECORD
  5
5C1
102
{ACAD_REACTORS
330
5B6
102
}
330
5B6
100
AcDbXrecord
  1
{2904a94b-749a-4a6e-a006-59add029a634}
  0
XRECORD
  5
5B9
102
{ACAD_REACTORS
330
5B6
102
}
330
5B6
100
AcDbXrecord
  1

  0
XRECORD
  5
5BE
102
{ACAD_REACTORS
330
5B6
102
}
330
5B6
100
AcDbXrecord
 90
        4
  0
XRECORD
  5
5BB
102
{ACAD_REACTORS
330
5B6
102
}
330
5B6
100
AcDbXrecord
340
1A
  0
XRECORD
  5
5BD
102
{ACAD_REACTORS
330
5B6
102
}
330
5B6
100
AcDbXrecord
 90
    10781
  0
XRECORD
  5
5BC
102
{ACAD_REACTORS
330
5B6
102
}
330
5B6
100
AcDbXrecord
340
19
  0
XRECORD
  5
5C3
102
{ACAD_REACTORS
330
5B6
102
}
330
5B6
100
AcDbXrecord
 40
0.0
  0
XRECORD
  5
5C6
102
{ACAD_REACTORS
330
5B6
102
}
330
5B6
100
AcDbXrecord
340
0
  0
XRECORD
  5
5CC
102
{ACAD_REACTORS
330
5B6
102
}
330
5B6
100
AcDbXrecord
 10
0.0
 20
0.0
 30
0.0
  0
XRECORD
  5
5C8
102
{ACAD_REACTORS
330
5B6
102
}
330
5B6
100
AcDbXrecord
 10
0.0
 20
0.0
 30
0.0
  0
XRECORD
  5
5CB
102
{ACAD_REACTORS
330
5B6
102
}
330
5B6
100
AcDbXrecord
 10
0.0
 20
0.0
 30
0.0
  0
XRECORD
  5
5C9
102
{ACAD_REACTORS
330
5B6
102
}
330
5B6
100
AcDbXrecord
 10
0.0
 20
0.0
 30
0.0
  0
XRECORD
  5
5CA
102
{ACAD_REACTORS
330
5B6
102
}
330
5B6
100
AcDbXrecord
 10
0.0
 20
0.0
 30
0.0
  0
XRECORD
  5
5C7
102
{ACAD_REACTORS
330
5B6
102
}
330
5B6
100
AcDbXrecord
 10
0.0
 20
0.0
 30
0.0
  0
XRECORD
  5
5C4
102
{ACAD_REACTORS
330
5B6
102
}
330
5B6
100
AcDbXrecord
340
0
  0
XRECORD
  5
5C5
102
{ACAD_REACTORS
330
5B6
102
}
330
5B6
100
AcDbXrecord
 70
     0
  0
XRECORD
  5
5BA
102
{ACAD_REACTORS
330
5B6
102
}
330
5B6
100
AcDbXrecord
  1

  0
XRECORD
  5
5B7
102
{ACAD_REACTORS
330
5B6
102
}
330
5B6
100
AcDbXrecord
 90
        1
  0
XRECORD
  5
5B8
102
{ACAD_REACTORS
330
5B6
102
}
330
5B6
100
AcDbXrecord
 90
       70
  0
XRECORD
  5
5CF
102
{ACAD_REACTORS
330
5B6
102
}
330
5B6
100
AcDbXrecord
340
0
  0
XRECORD
  5
5D5
102
{ACAD_REACTORS
330
5B6
102
}
330
5B6
100
AcDbXrecord
 10
0.0
 20
0.0
 30
0.0
  0
XRECORD
  5
5D1
102
{ACAD_REACTORS
330
5B6
102
}
330
5B6
100
AcDbXrecord
 10
0.0
 20
0.0
 30
0.0
  0
XRECORD
  5
5D4
102
{ACAD_REACTORS
330
5B6
102
}
330
5B6
100
AcDbXrecord
 10
0.0
 20
0.0
 30
0.0
  0
XRECORD
  5
5D2
102
{ACAD_REACTORS
330
5B6
102
}
330
5B6
100
AcDbXrecord
 10
0.0
 20
0.0
 30
0.0
  0
XRECORD
  5
5D3
102
{ACAD_REACTORS
330
5B6
102
}
330
5B6
100
AcDbXrecord
 10
0.0
 20
0.0
 30
0.0
  0
XRECORD
  5
5D0
102
{ACAD_REACTORS
330
5B6
102
}
330
5B6
100
AcDbXrecord
 10
0.0
 20
0.0
 30
0.0
  0
XRECORD
  5
5CD
102
{ACAD_REACTORS
330
5B6
102
}
330
5B6
100
AcDbXrecord
340
0
  0
XRECORD
  5
5CE
102
{ACAD_REACTORS
330
5B6
102
}
330
5B6
100
AcDbXrecord
 70
     0
  0
XRECORD
  5
5C2
102
{ACAD_REACTORS
330
5B6
102
}
330
5B6
100
AcDbXrecord
  1
{FAEB1C32-E019-11D5-929B-00C0DF256EC4}
  0
DICTIONARYVAR
  5
5E4
102
{ACAD_REACTORS
330
5D7
102
}
330
5D7
100
DictionaryVariables
280
     0
  1
1:1
  0
DICTIONARYVAR
  5
5DE
102
{ACAD_REACTORS
330
5D7
102
}
330
5D7
100
DictionaryVariables
280
     0
  1
3.500000
  0
DICTIONARYVAR
  5
5DF
102
{ACAD_REACTORS
330
5D7
102
}
330
5D7
100
DictionaryVariables
280
     0
  1
acadiso.lin
  0
DICTIONARYVAR
  5
5D9
102
{ACAD_REACTORS
330
5D7
102
}
330
5D7
100
DictionaryVariables
280
     0
  1
Standard
  0
DICTIONARYVAR
  5
5D8
102
{ACAD_REACTORS
330
5D7
102
}
330
5D7
100
DictionaryVariables
280
     0
  1
Standard
  0
DICTIONARYVAR
  5
5E0
102
{ACAD_REACTORS
330
5D7
102
}
330
5D7
100
DictionaryVariables
280
     0
  1
2
  0
DICTIONARYVAR
  5
5E1
102
{ACAD_REACTORS
330
5D7
102
}
330
5D7
100
DictionaryVariables
280
     0
  1
1
  0
DICTIONARYVAR
  5
5E5
102
{ACAD_REACTORS
330
5D7
102
}
330
5D7
100
DictionaryVariables
280
     0
  1
1
  0
DICTIONARYVAR
  5
5DB
102
{ACAD_REACTORS
330
5D7
102
}
330
5D7
100
DictionaryVariables
280
     0
  1
80.000000
  0
DICTIONARYVAR
  5
5DA
102
{ACAD_REACTORS
330
5D7
102
}
330
5D7
100
DictionaryVariables
280
     0
  1
5.000000
  0
DICTIONARY
  5
5E8
330
45
100
AcDbDictionary
280
     1
  3
ACAD_XREC_ROUNDTRIP
360
5E9
  0
DICTIONARY
  5
5E6
330
44
100
AcDbDictionary
280
     1
  3
ACAD_XREC_ROUNDTRIP
360
5E7
  0
DICTIONARY
  5
5EA
330
46
100
AcDbDictionary
280
     1
  3
ACAD_XREC_ROUNDTRIP
360
5EB
  0
XRECORD
  5
5E9
102
{ACAD_REACTORS
330
5E8
102
}
330
5E8
100
AcDbXrecord
102
MATERIAL
148
0.0
149
0.0
149
0.0
 93
        0
 94
      127
282
     0
 72
     1
 77
     1
171
     1
175
     1
179
     1
273
     0
  0
XRECORD
  5
5E7
102
{ACAD_REACTORS
330
5E6
102
}
330
5E6
100
AcDbXrecord
102
MATERIAL
148
0.0
149
0.0
149
0.0
 93
        0
 94
      127
282
     0
 72
     1
 77
     1
171
     1
175
     1
179
     1
273
     0
  0
XRECORD
  5
5EB
102
{ACAD_REACTORS
330
5EA
102
}
330
5EA
100
AcDbXrecord
102
MATERIAL
148
0.0
149
0.0
149
0.0
 93
        0
 94
      127
282
     0
 72
     1
 77
     1
171
     1
175
     1
179
     1
273
     0
  0
ENDSEC
  0
EOF
