  0
SECTION
  2
HEADER
  9
$ACADVER
  1
AC1014
  9
$ACADMAINTVER
 70
     9
  9
$DWGCODEPAGE
  3
ANSI_932
  9
$INSBASE
 10
0.0
 20
0.0
 30
0.0
  9
$EXTMIN
 10
50.0
 20
100.0
 30
0.0
  9
$EXTMAX
 10
3850.0
 20
2800.0
 30
0.0
  9
$LIMMIN
 10
0.0
 20
0.0
  9
$LIMMAX
 10
420.0
 20
297.0
  9
$ORTHOMODE
 70
     0
  9
$REGENMODE
 70
     1
  9
$FILLMODE
 70
     1
  9
$QTEXTMODE
 70
     0
  9
$MIRRTEXT
 70
     1
  9
$DRAGMODE
 70
     2
  9
$LTSCALE
 40
0.2
  9
$OSMODE
 70
    37
  9
$ATTMODE
 70
     1
  9
$TEXTSIZE
 40
2.5
  9
$TRACEWID
 40
1.0
  9
$TEXTSTYLE
  7
STANDARD
  9
$CLAYER
  8
LAY-10
  9
$CELTYPE
  6
BYLAYER
  9
$CECOLOR
 62
   256
  9
$CELTSCALE
 40
1.0
  9
$DELOBJ
 70
     1
  9
$DISPSILH
 70
     0
  9
$DIMSCALE
 40
1.0
  9
$DIMASZ
 40
2.5
  9
$DIMEXO
 40
0.625
  9
$DIMDLI
 40
3.75
  9
$DIMRND
 40
0.0
  9
$DIMDLE
 40
0.0
  9
$DIMEXE
 40
1.25
  9
$DIMTP
 40
0.0
  9
$DIMTM
 40
0.0
  9
$DIMTXT
 40
2.5
  9
$DIMCEN
 40
2.5
  9
$DIMTSZ
 40
0.0
  9
$DIMTOL
 70
     0
  9
$DIMLIM
 70
     0
  9
$DIMTIH
 70
     0
  9
$DIMTOH
 70
     0
  9
$DIMSE1
 70
     0
  9
$DIMSE2
 70
     0
  9
$DIMTAD
 70
     1
  9
$DIMZIN
 70
     8
  9
$DIMBLK
  1

  9
$DIMASO
 70
     1
  9
$DIMSHO
 70
     1
  9
$DIMPOST
  1

  9
$DIMAPOST
  1

  9
$DIMALT
 70
     0
  9
$DIMALTD
 70
     3
  9
$DIMALTF
 40
0.03937007874016
  9
$DIMLFAC
 40
1.0
  9
$DIMTOFL
 70
     1
  9
$DIMTVP
 40
0.0
  9
$DIMTIX
 70
     0
  9
$DIMSOXD
 70
     0
  9
$DIMSAH
 70
     0
  9
$DIMBLK1
  1

  9
$DIMBLK2
  1

  9
$DIMSTYLE
  2
ISO-25
  9
$DIMCLRD
 70
     0
  9
$DIMCLRE
 70
     0
  9
$DIMCLRT
 70
     0
  9
$DIMTFAC
 40
1.0
  9
$DIMGAP
 40
0.625
  9
$DIMJUST
 70
     0
  9
$DIMSD1
 70
     0
  9
$DIMSD2
 70
     0
  9
$DIMTOLJ
 70
     0
  9
$DIMTZIN
 70
     8
  9
$DIMALTZ
 70
     0
  9
$DIMALTTZ
 70
     0
  9
$DIMFIT
 70
     3
  9
$DIMUPT
 70
     0
  9
$DIMUNIT
 70
     2
  9
$DIMDEC
 70
     2
  9
$DIMTDEC
 70
     2
  9
$DIMALTU
 70
     2
  9
$DIMALTTD
 70
     3
  9
$DIMTXSTY
  7
STANDARD
  9
$DIMAUNIT
 70
     0
  9
$LUNITS
 70
     2
  9
$LUPREC
 70
     4
  9
$SKETCHINC
 40
1.0
  9
$FILLETRAD
 40
10.0
  9
$AUNITS
 70
     0
  9
$AUPREC
 70
     0
  9
$MENU
  1
.
  9
$ELEVATION
 40
0.0
  9
$PELEVATION
 40
0.0
  9
$THICKNESS
 40
0.0
  9
$LIMCHECK
 70
     0
  9
$CHAMFERA
 40
0.0
  9
$CHAMFERB
 40
0.0
  9
$CHAMFERC
 40
0.0
  9
$CHAMFERD
 40
0.0
  9
$SKPOLY
 70
     0
  9
$TDCREATE
 40
2459229.333114757
  9
$TDUPDATE
 40
2459229.333115683
  9
$TDINDWG
 40
0.0000000116
  9
$TDUSRTIMER
 40
0.0000000116
  9
$USRTIMER
 70
     1
  9
$ANGBASE
 50
0.0
  9
$ANGDIR
 70
     0
  9
$PDMODE
 70
     0
  9
$PDSIZE
 40
0.0
  9
$PLINEWID
 40
0.0
  9
$COORDS
 70
     1
  9
$SPLFRAME
 70
     0
  9
$SPLINETYPE
 70
     6
  9
$SPLINESEGS
 70
     8
  9
$ATTDIA
 70
     0
  9
$ATTREQ
 70
     1
  9
$HANDLING
 70
     1
  9
$HANDSEED
  5
710
  9
$SURFTAB1
 70
     6
  9
$SURFTAB2
 70
     6
  9
$SURFTYPE
 70
     6
  9
$SURFU
 70
     6
  9
$SURFV
 70
     6
  9
$UCSNAME
  2

  9
$UCSORG
 10
0.0
 20
0.0
 30
0.0
  9
$UCSXDIR
 10
1.0
 20
0.0
 30
0.0
  9
$UCSYDIR
 10
0.0
 20
1.0
 30
0.0
  9
$PUCSNAME
  2

  9
$PUCSORG
 10
0.0
 20
0.0
 30
0.0
  9
$PUCSXDIR
 10
1.0
 20
0.0
 30
0.0
  9
$PUCSYDIR
 10
0.0
 20
1.0
 30
0.0
  9
$USERI1
 70
     0
  9
$USERI2
 70
     0
  9
$USERI3
 70
     0
  9
$USERI4
 70
     0
  9
$USERI5
 70
     0
  9
$USERR1
 40
0.0
  9
$USERR2
 40
0.0
  9
$USERR3
 40
0.0
  9
$USERR4
 40
0.0
  9
$USERR5
 40
0.0
  9
$WORLDVIEW
 70
     1
  9
$SHADEDGE
 70
     3
  9
$SHADEDIF
 70
    70
  9
$TILEMODE
 70
     1
  9
$MAXACTVP
 70
    64
  9
$PINSBASE
 10
0.0
 20
0.0
 30
0.0
  9
$PLIMCHECK
 70
     0
  9
$PEXTMIN
 10
1.000000000000000E+20
 20
1.000000000000000E+20
 30
1.000000000000000E+20
  9
$PEXTMAX
 10
-1.000000000000000E+20
 20
-1.000000000000000E+20
 30
-1.000000000000000E+20
  9
$PLIMMIN
 10
0.0
 20
0.0
  9
$PLIMMAX
 10
420.0
 20
297.0
  9
$UNITMODE
 70
     0
  9
$VISRETAIN
 70
     1
  9
$PLINEGEN
 70
     0
  9
$PSLTSCALE
 70
     1
  9
$TREEDEPTH
 70
  3020
  9
$PICKSTYLE
 70
     1
  9
$CMLSTYLE
  2
STANDARD
  9
$CMLJUST
 70
     0
  9
$CMLSCALE
 40
20.0
  9
$PROXYGRAPHICS
 70
     1
  9
$MEASUREMENT
 70
     1
  0
ENDSEC
  0
SECTION
  2
CLASSES
  0
CLASS
  1
ACDBDICTIONARYWDFLT
  2
AcDbDictionaryWithDefault
  3
ObjectDBX Classes
 90
        0
280
     0
281
     0
  0
CLASS
  1
VISUALSTYLE
  2
AcDbVisualStyle
  3
ObjectDBX Classes
 90
     4095
280
     0
281
     0
  0
CLASS
  1
MATERIAL
  2
AcDbMaterial
  3
ObjectDBX Classes
 90
     1153
280
     0
281
     0
  0
CLASS
  1
SCALE
  2
AcDbScale
  3
ObjectDBX Classes
 90
     1153
280
     0
281
     0
  0
CLASS
  1
TABLESTYLE
  2
AcDbTableStyle
  3
ObjectDBX Classes
 90
     4095
280
     0
281
     0
  0
CLASS
  1
MLEADERSTYLE
  2
AcDbMLeaderStyle
  3
ACDB_MLEADERSTYLE_CLASS
 90
     4095
280
     0
281
     0
  0
CLASS
  1
SUN
  2
AcDbSun
  3
SCENEOE
 90
     1153
280
     0
281
     0
  0
CLASS
  1
DICTIONARYVAR
  2
AcDbDictionaryVar
  3
ObjectDBX Classes
 90
        0
280
     0
281
     0
  0
CLASS
  1
XRECORD
  2
AcDbXrecord
  3
ObjectDBX Classes
 90
        0
280
     0
281
     0
  0
CLASS
  1
LWPOLYLINE
  2
AcDbPolyline
  3
ObjectDBX Classes
 90
        0
280
     0
281
     1
  0
CLASS
  1
HATCH
  2
AcDbHatch
  3
ObjectDBX Classes
 90
        0
280
     0
281
     1
  0
CLASS
  1
ACDBPLACEHOLDER
  2
AcDbPlaceHolder
  3
ObjectDBX Classes
 90
        0
280
     0
281
     0
  0
CLASS
  1
LAYOUT
  2
AcDbLayout
  3
ObjectDBX Classes
 90
        0
280
     0
281
     0
  0
ENDSEC
  0
SECTION
  2
TABLES
  0
TABLE
  2
VPORT
  5
8
102
{ACAD_XDICTIONARY
360
705
102
}
330
0
100
AcDbSymbolTable
 70
     1
  0
VPORT
  5
29
330
8
100
AcDbSymbolTableRecord
100
AcDbViewportTableRecord
  2
*ACTIVE
 70
     0
 10
0.0
 20
0.0
 11
1.0
 21
1.0
 12
1950.0
 22
1450.0
 13
0.0
 23
0.0
 14
10.0
 24
10.0
 15
10.0
 25
10.0
 16
0.0
 26
0.0
 36
1.0
 17
0.0
 27
0.0
 37
0.0
 40
2700.0
 41
1.407407407407408
 42
50.0
 43
0.0
 44
0.0
 50
0.0
 51
0.0
 71
     0
 72
  1000
 73
     1
 74
     3
 75
     0
 76
     0
 77
     0
 78
     0
  0
ENDTAB
  0
TABLE
  2
LTYPE
  5
5
330
0
100
AcDbSymbolTable
 70
     6
  0
LTYPE
  5
14
330
5
100
AcDbSymbolTableRecord
100
AcDbLinetypeTableRecord
  2
BYBLOCK
 70
     0
  3

 72
    65
 73
     0
 40
0.0
  0
LTYPE
  5
15
330
5
100
AcDbSymbolTableRecord
100
AcDbLinetypeTableRecord
  2
BYLAYER
 70
     0
  3

 72
    65
 73
     0
 40
0.0
  0
LTYPE
  5
16
330
5
100
AcDbSymbolTableRecord
100
AcDbLinetypeTableRecord
  2
CONTINUOUS
 70
     0
  3
Solid line
 72
    65
 73
     0
 40
0.0
  0
LTYPE
  5
6E
330
5
100
AcDbSymbolTableRecord
100
AcDbLinetypeTableRecord
  2
HIDDEN
 70
     0
  3
Hidden __ __ __ __ __ __ __ __ __ __ __ __ __ __
 72
    65
 73
     2
 40
9.524999999999999
 49
6.35
 74
     0
 49
-3.175
 74
     0
  0
LTYPE
  5
6F
330
5
100
AcDbSymbolTableRecord
100
AcDbLinetypeTableRecord
  2
CENTER
 70
     0
  3
Center ____ _ ____ _ ____ _ ____ _ ____ _ ____
 72
    65
 73
     4
 40
50.8
 49
31.75
 74
     0
 49
-6.35
 74
     0
 49
6.35
 74
     0
 49
-6.35
 74
     0
  0
LTYPE
  5
70
330
5
100
AcDbSymbolTableRecord
100
AcDbLinetypeTableRecord
  2
PHANTOM
 70
     0
  3
Phantom ______  __  __  ______  __  __  ______ 
 72
    65
 73
     6
 40
63.50000000000001
 49
31.75
 74
     0
 49
-6.35
 74
     0
 49
6.35
 74
     0
 49
-6.35
 74
     0
 49
6.35
 74
     0
 49
-6.35
 74
     0
  0
LTYPE
  5
71
330
5
100
AcDbSymbolTableRecord
100
AcDbLinetypeTableRecord
  2
ACAD_ISO06W100
 70
     0
  3
ISO long-dash triple-dot ____ ... ____ ... ____
 72
    65
 73
     8
 40
36.0
 49
24.0
 74
     0
 49
-3.0
 74
     0
 49
0.0
 74
     0
 49
-3.0
 74
     0
 49
0.0
 74
     0
 49
-3.0
 74
     0
 49
0.0
 74
     0
 49
-3.0
 74
     0
  0
LTYPE
  5
72
330
5
100
AcDbSymbolTableRecord
100
AcDbLinetypeTableRecord
  2
ACAD_ISO15W100
 70
     0
  3
ISO double-dash triple-dot __ __ . . . __ __ . .
 72
    65
 73
    10
 40
39.0
 49
12.0
 74
     0
 49
-3.0
 74
     0
 49
12.0
 74
     0
 49
-3.0
 74
     0
 49
0.0
 74
     0
 49
-3.0
 74
     0
 49
0.0
 74
     0
 49
-3.0
 74
     0
 49
0.0
 74
     0
 49
-3.0
 74
     0
  0
ENDTAB
  0
TABLE
  2
LAYER
  5
2
330
0
100
AcDbSymbolTable
 70
     6
  0
LAYER
  5
10
330
2
100
AcDbSymbolTableRecord
100
AcDbLayerTableRecord
  2
0
 70
     0
 62
     7
  6
CONTINUOUS
  0
LAYER
  5
75
330
2
100
AcDbSymbolTableRecord
100
AcDbLayerTableRecord
  2
LAY-10
 70
     0
 62
     7
  6
CONTINUOUS
  0
LAYER
  5
76
330
2
100
AcDbSymbolTableRecord
100
AcDbLayerTableRecord
  2
LAY-11
 70
     0
 62
     7
  6
CONTINUOUS
  0
LAYER
  5
77
330
2
100
AcDbSymbolTableRecord
100
AcDbLayerTableRecord
  2
LAY-20
 70
     0
 62
     7
  6
CONTINUOUS
  0
LAYER
  5
78
330
2
100
AcDbSymbolTableRecord
100
AcDbLayerTableRecord
  2
LAY-255
 70
     0
 62
     7
  6
CONTINUOUS
  0
LAYER
  5
62D
330
2
100
AcDbSymbolTableRecord
100
AcDbLayerTableRecord
  2
DEFPOINTS
 70
     0
 62
     7
  6
CONTINUOUS
  0
ENDTAB
  0
TABLE
  2
STYLE
  5
3
330
0
100
AcDbSymbolTable
 70
     4
  0
STYLE
  5
11
330
3
100
AcDbSymbolTableRecord
100
AcDbTextStyleTableRecord
  2
STANDARD
 70
     0
 40
0.0
 41
1.0
 50
0.0
 71
     0
 42
2.5
  3
simplex
  4
bigfont
  0
STYLE
  5
73
330
3
100
AcDbSymbolTableRecord
100
AcDbTextStyleTableRecord
  2
EXCADSTD
 70
     0
 40
0.0
 41
1.0
 50
0.0
 71
     0
 42
2.5
  3
simplex
  4
bigfont
  0
STYLE
  5
74
330
3
100
AcDbSymbolTableRecord
100
AcDbTextStyleTableRecord
  2
EXCADVERT
 70
     4
 40
0.0
 41
1.0
 50
0.0
 71
     0
 42
2.5
  3
simplex
  4
bigfont
  0
STYLE
  5
62B
330
3
100
AcDbSymbolTableRecord
100
AcDbTextStyleTableRecord
  2
EXCADDIM1
 70
     0
 40
0.0
 41
0.84
 50
0.0
 71
     0
 42
2.5
  3
simplex
  4
bigfont
  0
ENDTAB
  0
TABLE
  2
VIEW
  5
6
330
0
100
AcDbSymbolTable
 70
     0
  0
ENDTAB
  0
TABLE
  2
UCS
  5
7
330
0
100
AcDbSymbolTable
 70
     0
  0
ENDTAB
  0
TABLE
  2
APPID
  5
9
330
0
100
AcDbSymbolTable
 70
     2
  0
APPID
  5
12
330
9
100
AcDbSymbolTableRecord
100
AcDbRegAppTableRecord
  2
ACAD
 70
     0
  0
APPID
  5
70F
330
9
100
AcDbSymbolTableRecord
100
AcDbRegAppTableRecord
  2
ACAD_MLEADERVER
 70
     0
  0
ENDTAB
  0
TABLE
  2
DIMSTYLE
  5
A
330
0
100
AcDbSymbolTable
 70
     1
  0
DIMSTYLE
105
27
102
{ACAD_REACTORS
330
62C
330
63A
330
647
330
654
330
661
330
66E
330
67B
330
688
330
695
330
6A3
102
}
330
A
100
AcDbSymbolTableRecord
100
AcDbDimStyleTableRecord
  2
ISO-25
 70
     0
  3

  4

  5

  6

  7

 40
1.0
 41
2.5
 42
0.625
 43
3.75
 44
1.25
 45
0.0
 46
0.0
 47
0.0
 48
0.0
140
2.5
141
2.5
142
0.0
143
0.03937007874016
144
1.0
145
0.0
146
1.0
147
0.625
 71
     0
 72
     0
 73
     0
 74
     0
 75
     0
 76
     0
 77
     1
 78
     8
170
     0
171
     3
172
     1
173
     0
174
     0
175
     0
176
     0
177
     0
178
     0
270
     2
271
     2
272
     2
273
     2
274
     3
340
11
275
     0
280
     0
281
     0
282
     0
283
     0
284
     8
285
     0
286
     0
287
     5
288
     0
  0
ENDTAB
  0
TABLE
  2
BLOCK_RECORD
  5
1
330
0
100
AcDbSymbolTable
 70
    48
  0
BLOCK_RECORD
  5
1F
330
1
100
AcDbSymbolTableRecord
100
AcDbBlockTableRecord
  2
*MODEL_SPACE
  0
BLOCK_RECORD
  5
1B
330
1
100
AcDbSymbolTableRecord
100
AcDbBlockTableRecord
  2
*PAPER_SPACE
  0
BLOCK_RECORD
  5
79
330
1
100
AcDbSymbolTableRecord
100
AcDbBlockTableRecord
  2
EX_NORM
  0
BLOCK_RECORD
  5
7C
330
1
100
AcDbSymbolTableRecord
100
AcDbBlockTableRecord
  2
EX_BNORM
  0
BLOCK_RECORD
  5
7F
330
1
100
AcDbSymbolTableRecord
100
AcDbBlockTableRecord
  2
EX_BCIR
  0
BLOCK_RECORD
  5
82
330
1
100
AcDbSymbolTableRecord
100
AcDbBlockTableRecord
  2
EX_RCIVIL
  0
BLOCK_RECORD
  5
85
330
1
100
AcDbSymbolTableRecord
100
AcDbBlockTableRecord
  2
EX_SLANT
  0
BLOCK_RECORD
  5
88
330
1
100
AcDbSymbolTableRecord
100
AcDbBlockTableRecord
  2
EX_NONE
  0
BLOCK_RECORD
  5
8B
330
1
100
AcDbSymbolTableRecord
100
AcDbBlockTableRecord
  2
EX_CIVIL
  0
BLOCK_RECORD
  5
8E
330
1
100
AcDbSymbolTableRecord
100
AcDbBlockTableRecord
  2
EX_WCIR
  0
BLOCK_RECORD
  5
91
330
1
100
AcDbSymbolTableRecord
100
AcDbBlockTableRecord
  2
EX_WCIR2
  0
BLOCK_RECORD
  5
94
330
1
100
AcDbSymbolTableRecord
100
AcDbBlockTableRecord
  2
EX_WNORM
  0
BLOCK_RECORD
  5
97
330
1
100
AcDbSymbolTableRecord
100
AcDbBlockTableRecord
  2
EX_NNORM
  0
BLOCK_RECORD
  5
9A
330
1
100
AcDbSymbolTableRecord
100
AcDbBlockTableRecord
  2
EX_BBOX
  0
BLOCK_RECORD
  5
9D
330
1
100
AcDbSymbolTableRecord
100
AcDbBlockTableRecord
  2
EX_WBOX
  0
BLOCK_RECORD
  5
A0
330
1
100
AcDbSymbolTableRecord
100
AcDbBlockTableRecord
  2
EX_INTEGRAL
  0
BLOCK_RECORD
  5
A3
330
1
100
AcDbSymbolTableRecord
100
AcDbBlockTableRecord
  2
SYM-1
  0
BLOCK_RECORD
  5
A6
330
1
100
AcDbSymbolTableRecord
100
AcDbBlockTableRecord
  2
SYM-2
  0
BLOCK_RECORD
  5
A9
330
1
100
AcDbSymbolTableRecord
100
AcDbBlockTableRecord
  2
SYM-3
  0
BLOCK_RECORD
  5
AC
330
1
100
AcDbSymbolTableRecord
100
AcDbBlockTableRecord
  2
SYM-4
  0
BLOCK_RECORD
  5
AF
330
1
100
AcDbSymbolTableRecord
100
AcDbBlockTableRecord
  2
SYM-5
  0
BLOCK_RECORD
  5
B2
330
1
100
AcDbSymbolTableRecord
100
AcDbBlockTableRecord
  2
SYM-6
  0
BLOCK_RECORD
  5
B5
330
1
100
AcDbSymbolTableRecord
100
AcDbBlockTableRecord
  2
SYM-7
  0
BLOCK_RECORD
  5
B8
330
1
100
AcDbSymbolTableRecord
100
AcDbBlockTableRecord
  2
SYM-8
  0
BLOCK_RECORD
  5
BB
330
1
100
AcDbSymbolTableRecord
100
AcDbBlockTableRecord
  2
SYM-9
  0
BLOCK_RECORD
  5
BE
330
1
100
AcDbSymbolTableRecord
100
AcDbBlockTableRecord
  2
SYM-10
  0
BLOCK_RECORD
  5
C1
330
1
100
AcDbSymbolTableRecord
100
AcDbBlockTableRecord
  2
SYM-11
  0
BLOCK_RECORD
  5
C4
330
1
100
AcDbSymbolTableRecord
100
AcDbBlockTableRecord
  2
SYM-12
  0
BLOCK_RECORD
  5
C7
330
1
100
AcDbSymbolTableRecord
100
AcDbBlockTableRecord
  2
SYM-13
  0
BLOCK_RECORD
  5
CA
330
1
100
AcDbSymbolTableRecord
100
AcDbBlockTableRecord
  2
SYM-14
  0
BLOCK_RECORD
  5
CD
330
1
100
AcDbSymbolTableRecord
100
AcDbBlockTableRecord
  2
SYM-15
  0
BLOCK_RECORD
  5
D0
330
1
100
AcDbSymbolTableRecord
100
AcDbBlockTableRecord
  2
SYM-16
  0
BLOCK_RECORD
  5
D3
330
1
100
AcDbSymbolTableRecord
100
AcDbBlockTableRecord
  2
SYM-17
  0
BLOCK_RECORD
  5
D6
330
1
100
AcDbSymbolTableRecord
100
AcDbBlockTableRecord
  2
SYM-18
  0
BLOCK_RECORD
  5
D9
330
1
100
AcDbSymbolTableRecord
100
AcDbBlockTableRecord
  2
SYM-19
  0
BLOCK_RECORD
  5
DC
330
1
100
AcDbSymbolTableRecord
100
AcDbBlockTableRecord
  2
SYM-20
  0
BLOCK_RECORD
  5
DF
330
1
100
AcDbSymbolTableRecord
100
AcDbBlockTableRecord
  2
SYM-21
  0
BLOCK_RECORD
  5
E2
330
1
100
AcDbSymbolTableRecord
100
AcDbBlockTableRecord
  2
SYM-22
  0
BLOCK_RECORD
  5
E5
330
1
100
AcDbSymbolTableRecord
100
AcDbBlockTableRecord
  2
SYM-23
  0
BLOCK_RECORD
  5
E8
330
1
100
AcDbSymbolTableRecord
100
AcDbBlockTableRecord
  2
SYM-24
  0
BLOCK_RECORD
  5
62E
330
1
100
AcDbSymbolTableRecord
100
AcDbBlockTableRecord
  2
*D39
  0
BLOCK_RECORD
  5
63B
330
1
100
AcDbSymbolTableRecord
100
AcDbBlockTableRecord
  2
*D40
  0
BLOCK_RECORD
  5
648
330
1
100
AcDbSymbolTableRecord
100
AcDbBlockTableRecord
  2
*D41
  0
BLOCK_RECORD
  5
655
330
1
100
AcDbSymbolTableRecord
100
AcDbBlockTableRecord
  2
*D42
  0
BLOCK_RECORD
  5
662
330
1
100
AcDbSymbolTableRecord
100
AcDbBlockTableRecord
  2
*D43
  0
BLOCK_RECORD
  5
66F
330
1
100
AcDbSymbolTableRecord
100
AcDbBlockTableRecord
  2
*D44
  0
BLOCK_RECORD
  5
67C
330
1
100
AcDbSymbolTableRecord
100
AcDbBlockTableRecord
  2
*D45
  0
BLOCK_RECORD
  5
689
330
1
100
AcDbSymbolTableRecord
100
AcDbBlockTableRecord
  2
*D46
  0
BLOCK_RECORD
  5
696
330
1
100
AcDbSymbolTableRecord
100
AcDbBlockTableRecord
  2
*D47
  0
BLOCK_RECORD
  5
6A4
330
1
100
AcDbSymbolTableRecord
100
AcDbBlockTableRecord
  2
*D48
  0
ENDTAB
  0
ENDSEC
  0
SECTION
  2
BLOCKS
  0
BLOCK
  5
20
330
1F
100
AcDbEntity
  8
0
100
AcDbBlockBegin
  2
*MODEL_SPACE
 70
     0
 10
0.0
 20
0.0
 30
0.0
  3
*MODEL_SPACE
  1

  0
ENDBLK
  5
21
330
1F
100
AcDbEntity
  8
0
100
AcDbBlockEnd
  0
BLOCK
  5
1C
330
1B
100
AcDbEntity
 67
     1
  8
0
100
AcDbBlockBegin
  2
*PAPER_SPACE
 70
     0
 10
0.0
 20
0.0
 30
0.0
  3
*PAPER_SPACE
  1

  0
ENDBLK
  5
1D
330
1B
100
AcDbEntity
 67
     1
  8
0
100
AcDbBlockEnd
  0
BLOCK
  5
7A
330
79
100
AcDbEntity
  8
0
100
AcDbBlockBegin
  2
EX_NORM
 70
     0
 10
0.0
 20
0.0
 30
0.0
  3
EX_NORM
  1

  0
LINE
  5
EB
330
79
100
AcDbEntity
  8
0
  6
CONTINUOUS
 62
     0
100
AcDbLine
 10
0.0
 20
0.0
 30
0.0
 11
-1.0
 21
0.0
 31
0.0
  0
LINE
  5
EC
330
79
100
AcDbEntity
  8
0
  6
CONTINUOUS
 62
     0
100
AcDbLine
 10
0.0
 20
0.0
 30
0.0
 11
-1.0
 21
0.166666667
 31
0.0
  0
LINE
  5
ED
330
79
100
AcDbEntity
  8
0
  6
CONTINUOUS
 62
     0
100
AcDbLine
 10
0.0
 20
0.0
 30
0.0
 11
-1.0
 21
-0.166666667
 31
0.0
  0
ENDBLK
  5
7B
330
79
100
AcDbEntity
  8
0
100
AcDbBlockEnd
  0
BLOCK
  5
7D
330
7C
100
AcDbEntity
  8
0
100
AcDbBlockBegin
  2
EX_BNORM
 70
     0
 10
0.0
 20
0.0
 30
0.0
  3
EX_BNORM
  1

  0
LINE
  5
EE
330
7C
100
AcDbEntity
  8
0
  6
CONTINUOUS
 62
     0
100
AcDbLine
 10
0.0
 20
0.0
 30
0.0
 11
-1.0
 21
0.0
 31
0.0
  0
LINE
  5
EF
330
7C
100
AcDbEntity
  8
0
  6
CONTINUOUS
 62
     0
100
AcDbLine
 10
0.0
 20
0.0
 30
0.0
 11
-1.0
 21
0.166666667
 31
0.0
  0
LINE
  5
F0
330
7C
100
AcDbEntity
  8
0
  6
CONTINUOUS
 62
     0
100
AcDbLine
 10
0.0
 20
0.0
 30
0.0
 11
-1.0
 21
-0.166666667
 31
0.0
  0
LINE
  5
F1
330
7C
100
AcDbEntity
  8
0
  6
CONTINUOUS
 62
     0
100
AcDbLine
 10
0.0
 20
0.0
 30
0.0
 11
-1.0
 21
0.083333333
 31
0.0
  0
LINE
  5
F2
330
7C
100
AcDbEntity
  8
0
  6
CONTINUOUS
 62
     0
100
AcDbLine
 10
0.0
 20
0.0
 30
0.0
 11
-1.0
 21
-0.083333333
 31
0.0
  0
LINE
  5
F3
330
7C
100
AcDbEntity
  8
0
  6
CONTINUOUS
 62
     0
100
AcDbLine
 10
-1.0
 20
0.166666667
 30
0.0
 11
-1.0
 21
-0.166666667
 31
0.0
  0
ENDBLK
  5
7E
330
7C
100
AcDbEntity
  8
0
100
AcDbBlockEnd
  0
BLOCK
  5
80
330
7F
100
AcDbEntity
  8
0
100
AcDbBlockBegin
  2
EX_BCIR
 70
     0
 10
0.0
 20
0.0
 30
0.0
  3
EX_BCIR
  1

  0
LINE
  5
F4
330
7F
100
AcDbEntity
  8
0
  6
CONTINUOUS
 62
     0
100
AcDbLine
 10
0.0
 20
0.0
 30
0.0
 11
-1.0
 21
0.0
 31
0.0
  0
CIRCLE
  5
F5
330
7F
100
AcDbEntity
  8
0
  6
CONTINUOUS
 62
     0
100
AcDbCircle
 10
0.0
 20
0.0
 30
0.0
 40
0.5
  0
CIRCLE
  5
F6
330
7F
100
AcDbEntity
  8
0
  6
CONTINUOUS
 62
     0
100
AcDbCircle
 10
0.0
 20
0.0
 30
0.0
 40
0.25
  0
ENDBLK
  5
81
330
7F
100
AcDbEntity
  8
0
100
AcDbBlockEnd
  0
BLOCK
  5
83
330
82
100
AcDbEntity
  8
0
100
AcDbBlockBegin
  2
EX_RCIVIL
 70
     0
 10
0.0
 20
0.0
 30
0.0
  3
EX_RCIVIL
  1

  0
LINE
  5
F7
330
82
100
AcDbEntity
  8
0
  6
CONTINUOUS
 62
     0
100
AcDbLine
 10
0.0
 20
0.0
 30
0.0
 11
-1.0
 21
0.0
 31
0.0
  0
LINE
  5
F8
330
82
100
AcDbEntity
  8
0
  6
CONTINUOUS
 62
     0
100
AcDbLine
 10
-1.0
 20
-0.25
 30
0.0
 11
0.0
 21
-0.25
 31
0.0
  0
LINE
  5
F9
330
82
100
AcDbEntity
  8
0
  6
CONTINUOUS
 62
     0
100
AcDbLine
 10
-1.0
 20
-0.125
 30
0.0
 11
0.0
 21
-0.125
 31
0.0
  0
ENDBLK
  5
84
330
82
100
AcDbEntity
  8
0
100
AcDbBlockEnd
  0
BLOCK
  5
86
330
85
100
AcDbEntity
  8
0
100
AcDbBlockBegin
  2
EX_SLANT
 70
     0
 10
0.0
 20
0.0
 30
0.0
  3
EX_SLANT
  1

  0
LINE
  5
FA
330
85
100
AcDbEntity
  8
0
  6
CONTINUOUS
 62
     0
100
AcDbLine
 10
0.0
 20
0.0
 30
0.0
 11
-1.0
 21
0.0
 31
0.0
  0
LINE
  5
FB
330
85
100
AcDbEntity
  8
0
  6
CONTINUOUS
 62
     0
100
AcDbLine
 10
0.707106781
 20
0.707106781
 30
0.0
 11
-0.707106781
 21
-0.707106781
 31
0.0
  0
ENDBLK
  5
87
330
85
100
AcDbEntity
  8
0
100
AcDbBlockEnd
  0
BLOCK
  5
89
330
88
100
AcDbEntity
  8
0
100
AcDbBlockBegin
  2
EX_NONE
 70
     0
 10
0.0
 20
0.0
 30
0.0
  3
EX_NONE
  1

  0
LINE
  5
FC
330
88
100
AcDbEntity
  8
0
  6
CONTINUOUS
 62
     0
100
AcDbLine
 10
0.0
 20
0.0
 30
0.0
 11
-1.0
 21
0.0
 31
0.0
  0
ENDBLK
  5
8A
330
88
100
AcDbEntity
  8
0
100
AcDbBlockEnd
  0
BLOCK
  5
8C
330
8B
100
AcDbEntity
  8
0
100
AcDbBlockBegin
  2
EX_CIVIL
 70
     0
 10
0.0
 20
0.0
 30
0.0
  3
EX_CIVIL
  1

  0
LINE
  5
FD
330
8B
100
AcDbEntity
  8
0
  6
CONTINUOUS
 62
     0
100
AcDbLine
 10
0.0
 20
0.0
 30
0.0
 11
-1.0
 21
0.0
 31
0.0
  0
LINE
  5
FE
330
8B
100
AcDbEntity
  8
0
  6
CONTINUOUS
 62
     0
100
AcDbLine
 10
-1.0
 20
0.25
 30
0.0
 11
0.0
 21
0.25
 31
0.0
  0
LINE
  5
FF
330
8B
100
AcDbEntity
  8
0
  6
CONTINUOUS
 62
     0
100
AcDbLine
 10
-1.0
 20
0.125
 30
0.0
 11
0.0
 21
0.125
 31
0.0
  0
ENDBLK
  5
8D
330
8B
100
AcDbEntity
  8
0
100
AcDbBlockEnd
  0
BLOCK
  5
8F
330
8E
100
AcDbEntity
  8
0
100
AcDbBlockBegin
  2
EX_WCIR
 70
     0
 10
0.0
 20
0.0
 30
0.0
  3
EX_WCIR
  1

  0
LINE
  5
100
330
8E
100
AcDbEntity
  8
0
  6
CONTINUOUS
 62
     0
100
AcDbLine
 10
0.0
 20
0.0
 30
0.0
 11
-1.0
 21
0.0
 31
0.0
  0
CIRCLE
  5
101
330
8E
100
AcDbEntity
  8
0
  6
CONTINUOUS
 62
     0
100
AcDbCircle
 10
0.0
 20
0.0
 30
0.0
 40
0.5
  0
ENDBLK
  5
90
330
8E
100
AcDbEntity
  8
0
100
AcDbBlockEnd
  0
BLOCK
  5
92
330
91
100
AcDbEntity
  8
0
100
AcDbBlockBegin
  2
EX_WCIR2
 70
     0
 10
0.0
 20
0.0
 30
0.0
  3
EX_WCIR2
  1

  0
LINE
  5
102
330
91
100
AcDbEntity
  8
0
  6
CONTINUOUS
 62
     0
100
AcDbLine
 10
-0.5
 20
0.0
 30
0.0
 11
-1.0
 21
0.0
 31
0.0
  0
CIRCLE
  5
103
330
91
100
AcDbEntity
  8
0
  6
CONTINUOUS
 62
     0
100
AcDbCircle
 10
0.0
 20
0.0
 30
0.0
 40
0.5
  0
ENDBLK
  5
93
330
91
100
AcDbEntity
  8
0
100
AcDbBlockEnd
  0
BLOCK
  5
95
330
94
100
AcDbEntity
  8
0
100
AcDbBlockBegin
  2
EX_WNORM
 70
     0
 10
0.0
 20
0.0
 30
0.0
  3
EX_WNORM
  1

  0
LINE
  5
104
330
94
100
AcDbEntity
  8
0
  6
CONTINUOUS
 62
     0
100
AcDbLine
 10
-1.0
 20
0.0
 30
0.0
 11
-1.0
 21
0.0
 31
0.0
  0
LINE
  5
105
330
94
100
AcDbEntity
  8
0
  6
CONTINUOUS
 62
     0
100
AcDbLine
 10
0.0
 20
0.0
 30
0.0
 11
-1.0
 21
0.166666667
 31
0.0
  0
LINE
  5
106
330
94
100
AcDbEntity
  8
0
  6
CONTINUOUS
 62
     0
100
AcDbLine
 10
0.0
 20
0.0
 30
0.0
 11
-1.0
 21
-0.166666667
 31
0.0
  0
LINE
  5
107
330
94
100
AcDbEntity
  8
0
  6
CONTINUOUS
 62
     0
100
AcDbLine
 10
-1.0
 20
0.166666667
 30
0.0
 11
-1.0
 21
-0.166666667
 31
0.0
  0
ENDBLK
  5
96
330
94
100
AcDbEntity
  8
0
100
AcDbBlockEnd
  0
BLOCK
  5
98
330
97
100
AcDbEntity
  8
0
100
AcDbBlockBegin
  2
EX_NNORM
 70
     0
 10
0.0
 20
0.0
 30
0.0
  3
EX_NNORM
  1

  0
LINE
  5
108
330
97
100
AcDbEntity
  8
0
  6
CONTINUOUS
 62
     0
100
AcDbLine
 10
0.0
 20
0.0
 30
0.0
 11
-1.0
 21
0.0
 31
0.0
  0
LINE
  5
109
330
97
100
AcDbEntity
  8
0
  6
CONTINUOUS
 62
     0
100
AcDbLine
 10
0.0
 20
0.0
 30
0.0
 11
-1.0
 21
0.166666667
 31
0.0
  0
LINE
  5
10A
330
97
100
AcDbEntity
  8
0
  6
CONTINUOUS
 62
     0
100
AcDbLine
 10
0.0
 20
0.0
 30
0.0
 11
-1.0
 21
-0.166666667
 31
0.0
  0
LINE
  5
10B
330
97
100
AcDbEntity
  8
0
  6
CONTINUOUS
 62
     0
100
AcDbLine
 10
-1.0
 20
0.166666667
 30
0.0
 11
-1.0
 21
-0.166666667
 31
0.0
  0
ENDBLK
  5
99
330
97
100
AcDbEntity
  8
0
100
AcDbBlockEnd
  0
BLOCK
  5
9B
330
9A
100
AcDbEntity
  8
0
100
AcDbBlockBegin
  2
EX_BBOX
 70
     0
 10
0.0
 20
0.0
 30
0.0
  3
EX_BBOX
  1

  0
LINE
  5
10C
330
9A
100
AcDbEntity
  8
0
  6
CONTINUOUS
 62
     0
100
AcDbLine
 10
0.0
 20
0.0
 30
0.0
 11
-1.0
 21
0.0
 31
0.0
  0
LINE
  5
10D
330
9A
100
AcDbEntity
  8
0
  6
CONTINUOUS
 62
     0
100
AcDbLine
 10
-0.5
 20
0.5
 30
0.0
 11
0.5
 21
0.5
 31
0.0
  0
LINE
  5
10E
330
9A
100
AcDbEntity
  8
0
  6
CONTINUOUS
 62
     0
100
AcDbLine
 10
0.5
 20
0.5
 30
0.0
 11
0.5
 21
-0.5
 31
0.0
  0
LINE
  5
10F
330
9A
100
AcDbEntity
  8
0
  6
CONTINUOUS
 62
     0
100
AcDbLine
 10
0.5
 20
-0.5
 30
0.0
 11
-0.5
 21
-0.5
 31
0.0
  0
LINE
  5
110
330
9A
100
AcDbEntity
  8
0
  6
CONTINUOUS
 62
     0
100
AcDbLine
 10
-0.5
 20
-0.5
 30
0.0
 11
-0.5
 21
0.5
 31
0.0
  0
LINE
  5
111
330
9A
100
AcDbEntity
  8
0
  6
CONTINUOUS
 62
     0
100
AcDbLine
 10
-0.25
 20
0.25
 30
0.0
 11
0.25
 21
0.25
 31
0.0
  0
LINE
  5
112
330
9A
100
AcDbEntity
  8
0
  6
CONTINUOUS
 62
     0
100
AcDbLine
 10
0.25
 20
0.25
 30
0.0
 11
0.25
 21
-0.25
 31
0.0
  0
LINE
  5
113
330
9A
100
AcDbEntity
  8
0
  6
CONTINUOUS
 62
     0
100
AcDbLine
 10
0.25
 20
-0.25
 30
0.0
 11
-0.25
 21
-0.25
 31
0.0
  0
LINE
  5
114
330
9A
100
AcDbEntity
  8
0
  6
CONTINUOUS
 62
     0
100
AcDbLine
 10
-0.25
 20
-0.25
 30
0.0
 11
-0.25
 21
0.25
 31
0.0
  0
ENDBLK
  5
9C
330
9A
100
AcDbEntity
  8
0
100
AcDbBlockEnd
  0
BLOCK
  5
9E
330
9D
100
AcDbEntity
  8
0
100
AcDbBlockBegin
  2
EX_WBOX
 70
     0
 10
0.0
 20
0.0
 30
0.0
  3
EX_WBOX
  1

  0
LINE
  5
115
330
9D
100
AcDbEntity
  8
0
  6
CONTINUOUS
 62
     0
100
AcDbLine
 10
-0.5
 20
0.0
 30
0.0
 11
-1.0
 21
0.0
 31
0.0
  0
LINE
  5
116
330
9D
100
AcDbEntity
  8
0
  6
CONTINUOUS
 62
     0
100
AcDbLine
 10
-0.5
 20
0.5
 30
0.0
 11
0.5
 21
0.5
 31
0.0
  0
LINE
  5
117
330
9D
100
AcDbEntity
  8
0
  6
CONTINUOUS
 62
     0
100
AcDbLine
 10
0.5
 20
0.5
 30
0.0
 11
0.5
 21
-0.5
 31
0.0
  0
LINE
  5
118
330
9D
100
AcDbEntity
  8
0
  6
CONTINUOUS
 62
     0
100
AcDbLine
 10
0.5
 20
-0.5
 30
0.0
 11
-0.5
 21
-0.5
 31
0.0
  0
LINE
  5
119
330
9D
100
AcDbEntity
  8
0
  6
CONTINUOUS
 62
     0
100
AcDbLine
 10
-0.5
 20
-0.5
 30
0.0
 11
-0.5
 21
0.5
 31
0.0
  0
ENDBLK
  5
9F
330
9D
100
AcDbEntity
  8
0
100
AcDbBlockEnd
  0
BLOCK
  5
A1
330
A0
100
AcDbEntity
  8
0
100
AcDbBlockBegin
  2
EX_INTEGRAL
 70
     0
 10
0.0
 20
0.0
 30
0.0
  3
EX_INTEGRAL
  1

  0
LINE
  5
11A
330
A0
100
AcDbEntity
  8
0
  6
CONTINUOUS
 62
     0
100
AcDbLine
 10
0.0
 20
0.0
 30
0.0
 11
-1.0
 21
0.0
 31
0.0
  0
ARC
  5
11B
330
A0
100
AcDbEntity
  8
0
  6
CONTINUOUS
 62
     0
100
AcDbCircle
 10
0.542115
 20
0.164992
 30
0.0
 40
0.56667
100
AcDbArc
 50
73.07249033629006
 51
196.9275130221199
  0
ARC
  5
11C
330
A0
100
AcDbEntity
  8
0
  6
CONTINUOUS
 62
     0
100
AcDbCircle
 10
-0.542115
 20
-0.164992
 30
0.0
 40
0.56667
100
AcDbArc
 50
253.0724869220464
 51
16.9275130559125
  0
ENDBLK
  5
A2
330
A0
100
AcDbEntity
  8
0
100
AcDbBlockEnd
  0
BLOCK
  5
A4
330
A3
100
AcDbEntity
  8
0
100
AcDbBlockBegin
  2
SYM-1
 70
     0
 10
0.0
 20
0.0
 30
0.0
  3
SYM-1
  1

  0
LINE
  5
11D
330
A3
100
AcDbEntity
  8
0
  6
CONTINUOUS
 62
     7
100
AcDbLine
 10
2289.281080329915
 20
876.8067066789496
 30
0.0
 11
2290.281080329915
 21
877.8067066789496
 31
0.0
  0
LINE
  5
11E
330
A3
100
AcDbEntity
  8
0
  6
CONTINUOUS
 62
     7
100
AcDbLine
 10
2299.281080329915
 20
876.8067066789496
 30
0.0
 11
2298.281080329913
 21
877.8067066789496
 31
0.0
  0
LINE
  5
11F
330
A3
100
AcDbEntity
  8
0
  6
CONTINUOUS
 62
     7
100
AcDbLine
 10
2290.281080329915
 20
877.8067066789496
 30
0.0
 11
2298.281080329913
 21
877.8067066789496
 31
0.0
  0
LINE
  5
120
330
A3
100
AcDbEntity
  8
0
  6
CONTINUOUS
 62
     7
100
AcDbLine
 10
2299.281080329915
 20
873.6067066789498
 30
0.0
 11
2299.281080329915
 21
876.8067066789496
 31
0.0
  0
LINE
  5
121
330
A3
100
AcDbEntity
  8
0
  6
CONTINUOUS
 62
     7
100
AcDbLine
 10
2289.281080329915
 20
873.6067066789498
 30
0.0
 11
2289.281080329915
 21
876.8067066789496
 31
0.0
  0
LINE
  5
122
330
A3
100
AcDbEntity
  8
0
  6
CONTINUOUS
 62
     7
100
AcDbLine
 10
2299.281080329915
 20
865.2067066789501
 30
0.0
 11
2299.281080329915
 21
872.6827066789498
 31
0.0
  0
LINE
  5
123
330
A3
100
AcDbEntity
  8
0
  6
CONTINUOUS
 62
     7
100
AcDbLine
 10
2289.281080329915
 20
865.2067066789501
 30
0.0
 11
2289.281080329915
 21
872.6827066789498
 31
0.0
  0
LINE
  5
124
330
A3
100
AcDbEntity
  8
0
  6
CONTINUOUS
 62
     7
100
AcDbLine
 10
2284.281080329915
 20
865.2067066789501
 30
0.0
 11
2284.281080329915
 21
872.6827066789498
 31
0.0
  0
ARC
  5
125
330
A3
100
AcDbEntity
  8
0
  6
CONTINUOUS
 62
     7
100
AcDbCircle
 10
2301.781080329913
 20
869.7626720469149
 30
0.0
 40
3.844034632034633
100
AcDbArc
 50
49.4313750266144
 51
130.5686249733918
  0
ARC
  5
126
330
A3
100
AcDbEntity
  8
0
  6
CONTINUOUS
 62
     7
100
AcDbCircle
 10
2294.281080329913
 20
859.6165681508115
 30
0.0
 40
13.99013852813853
100
AcDbArc
 50
69.05972439385523
 51
110.9402756061494
  0
ARC
  5
127
330
A3
100
AcDbEntity
  8
0
  6
CONTINUOUS
 62
     7
100
AcDbCircle
 10
2286.781080329913
 20
869.7626720469149
 30
0.0
 40
3.844034632034633
100
AcDbArc
 50
49.4313750266144
 51
130.5686249733918
  0
LINE
  5
128
330
A3
100
AcDbEntity
  8
0
  6
CONTINUOUS
 62
     7
100
AcDbLine
 10
2301.781080329913
 20
873.6067066789498
 30
0.0
 11
2286.781080329913
 21
873.6067066789498
 31
0.0
  0
LINE
  5
129
330
A3
100
AcDbEntity
  8
0
  6
CONTINUOUS
 62
     7
100
AcDbLine
 10
2283.781080329915
 20
865.2067066789501
 30
0.0
 11
2304.781080329915
 21
865.2067066789501
 31
0.0
  0
LINE
  5
12A
330
A3
100
AcDbEntity
  8
0
  6
CONTINUOUS
 62
     7
100
AcDbLine
 10
2304.281080329915
 20
865.2067066789501
 30
0.0
 11
2304.281080329915
 21
872.6827066789498
 31
0.0
  0
LINE
  5
12B
330
A3
100
AcDbEntity
  8
0
  6
CONTINUOUS
 62
     7
100
AcDbLine
 10
2283.781080329915
 20
865.2067066789501
 30
0.0
 11
2283.781080329915
 21
863.2067066789492
 31
0.0
  0
LINE
  5
12C
330
A3
100
AcDbEntity
  8
0
  6
CONTINUOUS
 62
     7
100
AcDbLine
 10
2304.781080329915
 20
865.2067066789501
 30
0.0
 11
2304.781080329915
 21
863.2067066789492
 31
0.0
  0
LINE
  5
12D
330
A3
100
AcDbEntity
  8
0
  6
CONTINUOUS
 62
     7
100
AcDbLine
 10
2289.281080329915
 20
842.1107066789497
 30
0.0
 11
2289.281080329915
 21
863.2067066789492
 31
0.0
  0
LINE
  5
12E
330
A3
100
AcDbEntity
  8
0
  6
CONTINUOUS
 62
     7
100
AcDbLine
 10
2299.281080329915
 20
842.1107066789497
 30
0.0
 11
2299.281080329915
 21
863.2067066789492
 31
0.0
  0
LINE
  5
12F
330
A3
100
AcDbEntity
  8
0
  6
CONTINUOUS
 62
     7
100
AcDbLine
 10
2299.281080329915
 20
852.8067066789496
 30
0.0
 11
2289.281080329915
 21
852.8067066789496
 31
0.0
  0
ARC
  5
130
330
A3
100
AcDbEntity
  8
0
  6
CONTINUOUS
 62
     7
100
AcDbCircle
 10
2294.281080329913
 20
859.5143884971318
 30
0.0
 40
18.10768181818181
100
AcDbArc
 50
253.9708781133825
 51
286.0291218866138
  0
ARC
  5
131
330
A3
100
AcDbEntity
  8
0
  6
CONTINUOUS
 62
     7
100
AcDbCircle
 10
2301.781080329913
 20
846.1976271334948
 30
0.0
 40
4.790920454545454
100
AcDbArc
 50
238.5455606612373
 51
301.4544393387538
  0
LINE
  5
132
330
A3
100
AcDbEntity
  8
0
  6
CONTINUOUS
 62
     7
100
AcDbLine
 10
2304.281080329915
 20
847.8067066789496
 30
0.0
 11
2304.281080329915
 21
842.1107066789497
 31
0.0
  0
LINE
  5
133
330
A3
100
AcDbEntity
  8
0
  6
CONTINUOUS
 62
     7
100
AcDbLine
 10
2286.781080329913
 20
841.40670667895
 30
0.0
 11
2301.781080329913
 21
841.40670667895
 31
0.0
  0
ARC
  5
134
330
A3
100
AcDbEntity
  8
0
  6
CONTINUOUS
 62
     7
100
AcDbCircle
 10
2286.781080329913
 20
846.1976271334948
 30
0.0
 40
4.790920454545454
100
AcDbArc
 50
238.5455606612373
 51
301.4544393387538
  0
LINE
  5
135
330
A3
100
AcDbEntity
  8
0
  6
CONTINUOUS
 62
     7
100
AcDbLine
 10
2284.281080329915
 20
847.8067066789496
 30
0.0
 11
2284.281080329915
 21
842.1107066789497
 31
0.0
  0
LINE
  5
136
330
A3
100
AcDbEntity
  8
0
  6
CONTINUOUS
 62
     7
100
AcDbLine
 10
2304.281080329921
 20
846.3924931165726
 30
0.0
 11
2304.737961948486
 21
845.9356114980052
 31
0.0
  0
LINE
  5
137
330
A3
100
AcDbEntity
  8
0
  6
CONTINUOUS
 62
     7
100
AcDbLine
 10
2304.281080329913
 20
847.0995998977666
 30
0.0
 11
2305.086923736585
 21
846.2937564910914
 31
0.0
  0
LINE
  5
138
330
A3
100
AcDbEntity
  8
0
  6
CONTINUOUS
 62
     7
100
AcDbLine
 10
2304.281080329917
 20
847.8067066789478
 30
0.0
 11
2305.435885524711
 21
846.6519014841557
 31
0.0
  0
LINE
  5
139
330
A3
100
AcDbEntity
  8
0
  6
CONTINUOUS
 62
     7
100
AcDbLine
 10
2304.988187111098
 20
847.8067066789523
 30
0.0
 11
2305.784847312832
 21
847.0100464772202
 31
0.0
  0
LINE
  5
13A
330
A3
100
AcDbEntity
  8
0
  6
CONTINUOUS
 62
     7
100
AcDbLine
 10
2305.695293892281
 20
847.8067066789569
 30
0.0
 11
2306.133809100954
 21
847.3681914702844
 31
0.0
  0
LINE
  5
13B
330
A3
100
AcDbEntity
  8
0
  6
CONTINUOUS
 62
     7
100
AcDbLine
 10
2304.281080329917
 20
845.4667066789494
 30
0.0
 11
2306.561080329918
 21
847.8067066789496
 31
0.0
  0
LINE
  5
13C
330
A3
100
AcDbEntity
  8
0
  6
CONTINUOUS
 62
     7
100
AcDbLine
 10
2304.281080329901
 20
845.6853863354032
 30
0.0
 11
2304.389000160368
 21
845.577466504941
 31
0.0
  0
LINE
  5
13D
330
A3
100
AcDbEntity
  8
0
  6
CONTINUOUS
 62
     7
100
AcDbLine
 10
2306.402400673463
 20
847.8067066789623
 30
0.0
 11
2306.482770889063
 21
847.7263364633598
 31
0.0
  0
LINE
  5
13E
330
A3
100
AcDbEntity
  8
0
  6
CONTINUOUS
 62
     7
100
AcDbLine
 10
2282.362935336848
 20
847.3956684670691
 30
0.0
 11
2282.773973548726
 21
847.806706678946
 31
0.0
  0
LINE
  5
13F
330
A3
100
AcDbEntity
  8
0
  6
CONTINUOUS
 62
     7
100
AcDbLine
 10
2282.721080329914
 20
847.0467066789467
 30
0.0
 11
2283.481080329918
 21
847.8067066789523
 31
0.0
  0
LINE
  5
140
330
A3
100
AcDbEntity
  8
0
  6
CONTINUOUS
 62
     7
100
AcDbLine
 10
2283.07922532298
 20
846.6977448908244
 30
0.0
 11
2284.188187111088
 21
847.8067066789359
 31
0.0
  0
LINE
  5
141
330
A3
100
AcDbEntity
  8
0
  6
CONTINUOUS
 62
     7
100
AcDbLine
 10
2283.437370316066
 20
846.3487831027256
 30
0.0
 11
2284.281080329903
 21
847.192493116561
 31
0.0
  0
LINE
  5
142
330
A3
100
AcDbEntity
  8
0
  6
CONTINUOUS
 62
     7
100
AcDbLine
 10
2283.795515309131
 20
845.9998213146025
 30
0.0
 11
2284.281080329917
 21
846.4853863353926
 31
0.0
  0
LINE
  5
143
330
A3
100
AcDbEntity
  8
0
  6
CONTINUOUS
 62
     7
100
AcDbLine
 10
2284.153660302193
 20
845.6508595264802
 30
0.0
 11
2284.281080329912
 21
845.7782795541985
 31
0.0
  0
LINE
  5
144
330
A3
100
AcDbEntity
  8
0
  6
CONTINUOUS
 62
     7
100
AcDbLine
 10
2281.941080329913
 20
847.8067066789478
 30
0.0
 11
2284.281080329915
 21
845.5267066789489
 31
0.0
  0
LINE
  5
145
330
A3
100
AcDbEntity
  8
0
  6
CONTINUOUS
 62
     7
100
AcDbLine
 10
2282.004790343774
 20
847.7446302551795
 30
0.0
 11
2282.066866767546
 21
847.8067066789515
 31
0.0
  0
LINE
  5
146
330
A3
100
AcDbEntity
  8
0
  6
CONTINUOUS
 62
     7
100
AcDbLine
 10
2289.281080329915
 20
876.8067066789496
 30
0.0
 11
2299.281080329915
 21
876.8067066789496
 31
0.0
  0
LINE
  5
147
330
A3
100
AcDbEntity
  8
0
  6
CONTINUOUS
 62
     7
100
AcDbLine
 10
2298.281080329913
 20
877.8067066789496
 30
0.0
 11
2298.281080329913
 21
873.6067066789498
 31
0.0
  0
LINE
  5
148
330
A3
100
AcDbEntity
  8
0
  6
CONTINUOUS
 62
     7
100
AcDbLine
 10
2290.281080329915
 20
877.8067066789496
 30
0.0
 11
2290.281080329915
 21
873.6067066789498
 31
0.0
  0
LINE
  5
149
330
A3
100
AcDbEntity
  8
0
  6
CONTINUOUS
 62
     7
100
AcDbLine
 10
2290.281080329915
 20
863.2067066789501
 30
0.0
 11
2290.281080329915
 21
852.8067066789496
 31
0.0
  0
LINE
  5
14A
330
A3
100
AcDbEntity
  8
0
  6
CONTINUOUS
 62
     7
100
AcDbLine
 10
2298.281080329913
 20
863.2067066789501
 30
0.0
 11
2298.281080329913
 21
852.8067066789496
 31
0.0
  0
LINE
  5
14B
330
A3
100
AcDbEntity
  8
0
  6
CONTINUOUS
 62
     7
100
AcDbLine
 10
2290.281080329915
 20
852.8067066789496
 30
0.0
 11
2289.281080329915
 21
851.8067066789496
 31
0.0
  0
LINE
  5
14C
330
A3
100
AcDbEntity
  8
0
  6
CONTINUOUS
 62
     7
100
AcDbLine
 10
2298.281080329913
 20
852.8067066789496
 30
0.0
 11
2299.281080329915
 21
851.8067066789496
 31
0.0
  0
ENDBLK
  5
A5
330
A3
100
AcDbEntity
  8
0
100
AcDbBlockEnd
  0
BLOCK
  5
A7
330
A6
100
AcDbEntity
  8
0
100
AcDbBlockBegin
  2
SYM-2
 70
     0
 10
0.0
 20
0.0
 30
0.0
  3
SYM-2
  1

  0
LINE
  5
14D
330
A6
100
AcDbEntity
  8
0
  6
CONTINUOUS
 62
     7
100
AcDbLine
 10
249.2810803299263
 20
873.6067066789498
 30
0.0
 11
249.2810803299263
 21
876.8067066789496
 31
0.0
  0
LINE
  5
14E
330
A6
100
AcDbEntity
  8
0
  6
CONTINUOUS
 62
     7
100
AcDbLine
 10
239.281080329929
 20
873.6067066789498
 30
0.0
 11
239.281080329929
 21
876.8067066789496
 31
0.0
  0
LINE
  5
14F
330
A6
100
AcDbEntity
  8
0
  6
CONTINUOUS
 62
     7
100
AcDbLine
 10
249.2810803299263
 20
865.2067066789501
 30
0.0
 11
249.2810803299263
 21
872.6827066789498
 31
0.0
  0
LINE
  5
150
330
A6
100
AcDbEntity
  8
0
  6
CONTINUOUS
 62
     7
100
AcDbLine
 10
239.281080329929
 20
865.2067066789501
 30
0.0
 11
239.281080329929
 21
872.6827066789498
 31
0.0
  0
LINE
  5
151
330
A6
100
AcDbEntity
  8
0
  6
CONTINUOUS
 62
     7
100
AcDbLine
 10
248.2810803299326
 20
877.8067066789496
 30
0.0
 11
240.2810803299344
 21
877.8067066789496
 31
0.0
  0
LINE
  5
152
330
A6
100
AcDbEntity
  8
0
  6
CONTINUOUS
 62
     7
100
AcDbLine
 10
239.2810803299326
 20
876.8067066789496
 30
0.0
 11
240.2810803299344
 21
877.8067066789496
 31
0.0
  0
LINE
  5
153
330
A6
100
AcDbEntity
  8
0
  6
CONTINUOUS
 62
     7
100
AcDbLine
 10
249.2810803299353
 20
876.8067066789496
 30
0.0
 11
248.2810803299326
 21
877.8067066789496
 31
0.0
  0
LINE
  5
154
330
A6
100
AcDbEntity
  8
0
  6
CONTINUOUS
 62
     7
100
AcDbLine
 10
254.281080329929
 20
865.2067066789501
 30
0.0
 11
254.281080329929
 21
872.6827066789498
 31
0.0
  0
LINE
  5
155
330
A6
100
AcDbEntity
  8
0
  6
CONTINUOUS
 62
     7
100
AcDbLine
 10
234.2810803299299
 20
865.2067066789501
 30
0.0
 11
234.2810803299299
 21
872.6827066789498
 31
0.0
  0
ARC
  5
156
330
A6
100
AcDbEntity
  8
0
  6
CONTINUOUS
 62
     7
100
AcDbCircle
 10
251.781080329928
 20
869.7626720469149
 30
0.0
 40
3.844034632034633
100
AcDbArc
 50
49.43137502657837
 51
130.5686249733964
  0
ARC
  5
157
330
A6
100
AcDbEntity
  8
0
  6
CONTINUOUS
 62
     7
100
AcDbCircle
 10
244.281080329928
 20
859.6165681508115
 30
0.0
 40
13.99013852813853
100
AcDbArc
 50
69.0597243938585
 51
110.9402756061383
  0
ARC
  5
158
330
A6
100
AcDbEntity
  8
0
  6
CONTINUOUS
 62
     7
100
AcDbCircle
 10
236.781080329928
 20
869.7626720469149
 30
0.0
 40
3.844034632034633
100
AcDbArc
 50
49.43137502657837
 51
130.5686249733964
  0
LINE
  5
159
330
A6
100
AcDbEntity
  8
0
  6
CONTINUOUS
 62
     7
100
AcDbLine
 10
251.781080329928
 20
873.6067066789498
 30
0.0
 11
236.781080329928
 21
873.6067066789498
 31
0.0
  0
LINE
  5
15A
330
A6
100
AcDbEntity
  8
0
  6
CONTINUOUS
 62
     7
100
AcDbLine
 10
254.7810803299271
 20
865.2067066789501
 30
0.0
 11
254.7810803299271
 21
863.2067066789492
 31
0.0
  0
LINE
  5
15B
330
A6
100
AcDbEntity
  8
0
  6
CONTINUOUS
 62
     7
100
AcDbLine
 10
233.781080329929
 20
865.2067066789501
 30
0.0
 11
254.7810803299271
 21
865.2067066789501
 31
0.0
  0
LINE
  5
15C
330
A6
100
AcDbEntity
  8
0
  6
CONTINUOUS
 62
     7
100
AcDbLine
 10
233.781080329929
 20
865.2067066789501
 30
0.0
 11
233.781080329929
 21
863.2067066789492
 31
0.0
  0
LINE
  5
15D
330
A6
100
AcDbEntity
  8
0
  6
CONTINUOUS
 62
     7
100
AcDbLine
 10
239.281080329929
 20
842.1107066789497
 30
0.0
 11
239.281080329929
 21
863.2067066789492
 31
0.0
  0
LINE
  5
15E
330
A6
100
AcDbEntity
  8
0
  6
CONTINUOUS
 62
     7
100
AcDbLine
 10
249.2810803299263
 20
842.1107066789497
 30
0.0
 11
249.2810803299263
 21
863.2067066789492
 31
0.0
  0
LINE
  5
15F
330
A6
100
AcDbEntity
  8
0
  6
CONTINUOUS
 62
     7
100
AcDbLine
 10
249.2810803299263
 20
852.8067066789496
 30
0.0
 11
239.281080329929
 21
852.8067066789496
 31
0.0
  0
ARC
  5
160
330
A6
100
AcDbEntity
  8
0
  6
CONTINUOUS
 62
     7
100
AcDbCircle
 10
251.781080329928
 20
846.1976271334948
 30
0.0
 40
4.790920454545454
100
AcDbArc
 50
238.5455606612269
 51
301.4544393387824
  0
ARC
  5
161
330
A6
100
AcDbEntity
  8
0
  6
CONTINUOUS
 62
     7
100
AcDbCircle
 10
244.281080329928
 20
859.5143884971318
 30
0.0
 40
18.10768181818181
100
AcDbArc
 50
253.9708781133897
 51
286.0291218866135
  0
ARC
  5
162
330
A6
100
AcDbEntity
  8
0
  6
CONTINUOUS
 62
     7
100
AcDbCircle
 10
236.781080329928
 20
846.1976271334948
 30
0.0
 40
4.790920454545454
100
AcDbArc
 50
238.5455606612384
 51
301.4544393387824
  0
LINE
  5
163
330
A6
100
AcDbEntity
  8
0
  6
CONTINUOUS
 62
     7
100
AcDbLine
 10
234.2810803299299
 20
847.8067066789496
 30
0.0
 11
234.2810803299299
 21
842.1107066789497
 31
0.0
  0
LINE
  5
164
330
A6
100
AcDbEntity
  8
0
  6
CONTINUOUS
 62
     7
100
AcDbLine
 10
254.281080329929
 20
847.8067066789496
 30
0.0
 11
254.281080329929
 21
842.1107066789497
 31
0.0
  0
LINE
  5
165
330
A6
100
AcDbEntity
  8
0
  6
CONTINUOUS
 62
     7
100
AcDbLine
 10
236.781080329928
 20
841.40670667895
 30
0.0
 11
251.781080329928
 21
841.40670667895
 31
0.0
  0
LINE
  5
166
330
A6
100
AcDbEntity
  8
0
  6
CONTINUOUS
 62
     7
100
AcDbLine
 10
254.2810803299308
 20
845.4667066789494
 30
0.0
 11
256.5610803299296
 21
847.8067066789496
 31
0.0
  0
LINE
  5
167
330
A6
100
AcDbEntity
  8
0
  6
CONTINUOUS
 62
     7
100
AcDbLine
 10
256.4024006734799
 20
847.8067066789587
 30
0.0
 11
256.4827708890934
 21
847.7263364633451
 31
0.0
  0
LINE
  5
168
330
A6
100
AcDbEntity
  8
0
  6
CONTINUOUS
 62
     7
100
AcDbLine
 10
255.6952938922859
 20
847.806706678966
 30
0.0
 11
256.133809100972
 21
847.3681914702798
 31
0.0
  0
LINE
  5
169
330
A6
100
AcDbEntity
  8
0
  6
CONTINUOUS
 62
     7
100
AcDbLine
 10
254.9881871111056
 20
847.8067066789606
 30
0.0
 11
255.7848473128488
 21
847.0100464772164
 31
0.0
  0
LINE
  5
16A
330
A6
100
AcDbEntity
  8
0
  6
CONTINUOUS
 62
     7
100
AcDbLine
 10
254.2810803299344
 20
847.8067066789432
 30
0.0
 11
255.4358855247401
 21
846.6519014841393
 31
0.0
  0
LINE
  5
16B
330
A6
100
AcDbEntity
  8
0
  6
CONTINUOUS
 62
     7
100
AcDbLine
 10
254.2810803299408
 20
847.0995998977503
 30
0.0
 11
255.0869237366151
 21
846.293756491076
 31
0.0
  0
LINE
  5
16C
330
A6
100
AcDbEntity
  8
0
  6
CONTINUOUS
 62
     7
100
AcDbLine
 10
254.2810803299353
 20
846.392493116569
 30
0.0
 11
254.7379619485055
 21
845.9356114979997
 31
0.0
  0
LINE
  5
16D
330
A6
100
AcDbEntity
  8
0
  6
CONTINUOUS
 62
     7
100
AcDbLine
 10
254.2810803299308
 20
845.6853863353878
 30
0.0
 11
254.3890001603832
 21
845.5774665049354
 31
0.0
  0
LINE
  5
16E
330
A6
100
AcDbEntity
  8
0
  6
CONTINUOUS
 62
     7
100
AcDbLine
 10
231.9410803299288
 20
847.8067066789478
 30
0.0
 11
234.2810803299299
 21
845.5267066789489
 31
0.0
  0
LINE
  5
16F
330
A6
100
AcDbEntity
  8
0
  6
CONTINUOUS
 62
     7
100
AcDbLine
 10
232.051840155932
 20
847.6987868485128
 30
0.0
 11
232.1597599863626
 21
847.8067066789414
 31
0.0
  0
LINE
  5
170
330
A6
100
AcDbEntity
  8
0
  6
CONTINUOUS
 62
     7
100
AcDbLine
 10
232.4099851489982
 20
847.3498250603905
 30
0.0
 11
232.8668667675547
 21
847.8067066789478
 31
0.0
  0
LINE
  5
171
330
A6
100
AcDbEntity
  8
0
  6
CONTINUOUS
 62
     7
100
AcDbLine
 10
232.7681301420616
 20
847.0008632722681
 30
0.0
 11
233.5739735487569
 21
847.806706678966
 31
0.0
  0
LINE
  5
172
330
A6
100
AcDbEntity
  8
0
  6
CONTINUOUS
 62
     7
100
AcDbLine
 10
233.1262751351378
 20
846.6519014841575
 30
0.0
 11
234.2810803299263
 21
847.8067066789487
 31
0.0
  0
LINE
  5
173
330
A6
100
AcDbEntity
  8
0
  6
CONTINUOUS
 62
     7
100
AcDbLine
 10
233.4844201282003
 20
846.3029396960352
 30
0.0
 11
234.2810803299217
 21
847.0995998977556
 31
0.0
  0
LINE
  5
174
330
A6
100
AcDbEntity
  8
0
  6
CONTINUOUS
 62
     7
100
AcDbLine
 10
233.8425651212665
 20
845.9539779079129
 30
0.0
 11
234.2810803299263
 21
846.3924931165744
 31
0.0
  0
LINE
  5
175
330
A6
100
AcDbEntity
  8
0
  6
CONTINUOUS
 62
     7
100
AcDbLine
 10
234.20071011433
 20
845.6050161197905
 30
0.0
 11
234.2810803299199
 21
845.6853863353814
 31
0.0
  0
LINE
  5
176
330
A6
100
AcDbEntity
  8
0
  6
CONTINUOUS
 62
     7
100
AcDbLine
 10
249.2810803299353
 20
876.8067066789496
 30
0.0
 11
239.2810803299326
 21
876.8067066789496
 31
0.0
  0
LINE
  5
177
330
A6
100
AcDbEntity
  8
0
  6
CONTINUOUS
 62
     7
100
AcDbLine
 10
248.2810803299272
 20
877.8067066789496
 30
0.0
 11
248.2810803299272
 21
873.6067066789498
 31
0.0
  0
LINE
  5
178
330
A6
100
AcDbEntity
  8
0
  6
CONTINUOUS
 62
     7
100
AcDbLine
 10
240.2810803299299
 20
877.8067066789496
 30
0.0
 11
240.2810803299299
 21
873.6067066789498
 31
0.0
  0
LINE
  5
179
330
A6
100
AcDbEntity
  8
0
  6
CONTINUOUS
 62
     7
100
AcDbLine
 10
240.2810803299299
 20
863.2067066789501
 30
0.0
 11
240.2810803299299
 21
852.8067066789496
 31
0.0
  0
LINE
  5
17A
330
A6
100
AcDbEntity
  8
0
  6
CONTINUOUS
 62
     7
100
AcDbLine
 10
248.2810803299272
 20
863.2067066789501
 30
0.0
 11
248.2810803299272
 21
852.8067066789496
 31
0.0
  0
LINE
  5
17B
330
A6
100
AcDbEntity
  8
0
  6
CONTINUOUS
 62
     7
100
AcDbLine
 10
240.2810803299299
 20
852.8067066789496
 30
0.0
 11
239.281080329929
 21
851.8067066789496
 31
0.0
  0
LINE
  5
17C
330
A6
100
AcDbEntity
  8
0
  6
CONTINUOUS
 62
     7
100
AcDbLine
 10
248.2810803299272
 20
852.8067066789496
 30
0.0
 11
249.2810803299263
 21
851.8067066789496
 31
0.0
  0
ENDBLK
  5
A8
330
A6
100
AcDbEntity
  8
0
100
AcDbBlockEnd
  0
BLOCK
  5
AA
330
A9
100
AcDbEntity
  8
0
100
AcDbBlockBegin
  2
SYM-3
 70
     0
 10
0.0
 20
0.0
 30
0.0
  3
SYM-3
  1

  0
ELLIPSE
  5
17D
330
A9
100
AcDbEntity
  8
0
  6
CONTINUOUS
 62
     7
100
AcDbEllipse
 10
2278.201080329915
 20
855.5233733456495
 30
0.0
 11
-5.809475019310011
 21
7.114554987124514E-16
 31
0.0
210
0.0
220
0.0
230
1.0
 40
0.774596669241632
 41
0.0
 42
6.283185307179586
  0
LINE
  5
17E
330
A9
100
AcDbEntity
  8
0
  6
CONTINUOUS
 62
     7
100
AcDbLine
 10
2272.597442194613
 20
856.7106154393502
 30
0.0
 11
2275.316118178914
 21
859.4292914236499
 31
0.0
  0
LINE
  5
17F
330
A9
100
AcDbEntity
  8
0
  6
CONTINUOUS
 62
     7
100
AcDbLine
 10
2272.415625540712
 20
855.1145852230499
 30
0.0
 11
2277.265701785812
 21
859.9646614682493
 31
0.0
  0
LINE
  5
180
330
A9
100
AcDbEntity
  8
0
  6
CONTINUOUS
 62
     7
100
AcDbLine
 10
2272.728496403412
 20
854.0132425234493
 30
0.0
 11
2278.720597876115
 21
860.0053439961499
 31
0.0
  0
LINE
  5
181
330
A9
100
AcDbEntity
  8
0
  6
CONTINUOUS
 62
     7
100
AcDbLine
 10
2276.920399630712
 20
851.1340779388498
 30
0.0
 11
2283.367529413613
 21
857.5812077217495
 31
0.0
  0
LINE
  5
182
330
A9
100
AcDbEntity
  8
0
  6
CONTINUOUS
 62
     7
100
AcDbLine
 10
2278.223943448113
 20
851.0234081939495
 30
0.0
 11
2283.831752549116
 21
856.6312172949498
 31
0.0
  0
LINE
  5
183
330
A9
100
AcDbEntity
  8
0
  6
CONTINUOUS
 62
     7
100
AcDbLine
 10
2279.815331979014
 20
851.2005831624498
 30
0.0
 11
2284.008130971212
 21
855.3933821546503
 31
0.0
  0
LINE
  5
184
330
A9
100
AcDbEntity
  8
0
  6
CONTINUOUS
 62
     7
100
AcDbLine
 10
2273.271616247112
 20
853.1421488047496
 30
0.0
 11
2279.945244985309
 21
859.8157775429409
 31
0.0
  0
LINE
  5
185
330
A9
100
AcDbEntity
  8
0
  6
CONTINUOUS
 62
     7
100
AcDbLine
 10
2273.977368822511
 20
852.4336878177496
 30
0.0
 11
2281.007259362716
 21
859.4635783582754
 31
0.0
  0
LINE
  5
186
330
A9
100
AcDbEntity
  8
0
  6
CONTINUOUS
 62
     7
100
AcDbLine
 10
2274.821222130216
 20
851.8633275631498
 30
0.0
 11
2281.931173008298
 21
858.9732784409244
 31
0.0
  0
LINE
  5
187
330
A9
100
AcDbEntity
  8
0
  6
CONTINUOUS
 62
     7
100
AcDbLine
 10
2275.798381970014
 20
851.42627384055
 30
0.0
 11
2282.721780121324
 21
858.34967199186
 31
0.0
  0
ENDBLK
  5
AB
330
A9
100
AcDbEntity
  8
0
100
AcDbBlockEnd
  0
BLOCK
  5
AD
330
AC
100
AcDbEntity
  8
0
100
AcDbBlockBegin
  2
SYM-4
 70
     0
 10
0.0
 20
0.0
 30
0.0
  3
SYM-4
  1

  0
ELLIPSE
  5
188
330
AC
100
AcDbEntity
  8
0
  6
CONTINUOUS
 62
     7
100
AcDbEllipse
 10
260.3610803299298
 20
855.5233733456495
 30
0.0
 11
-5.809475019310011
 21
7.114554987124514E-16
 31
0.0
210
0.0
220
0.0
230
1.0
 40
0.774596669241632
 41
0.0
 42
6.283185307179586
  0
LINE
  5
189
330
AC
100
AcDbEntity
  8
0
  6
CONTINUOUS
 62
     7
100
AcDbLine
 10
265.9647184652304
 20
856.7106154393502
 30
0.0
 11
263.2460424809296
 21
859.4292914236499
 31
0.0
  0
LINE
  5
18A
330
AC
100
AcDbEntity
  8
0
  6
CONTINUOUS
 62
     7
100
AcDbLine
 10
266.1465351191291
 20
855.1145852230499
 30
0.0
 11
261.2964588740297
 21
859.9646614682493
 31
0.0
  0
LINE
  5
18B
330
AC
100
AcDbEntity
  8
0
  6
CONTINUOUS
 62
     7
100
AcDbLine
 10
265.8336642564309
 20
854.0132425234493
 30
0.0
 11
259.8415627837285
 21
860.0053439961499
 31
0.0
  0
LINE
  5
18C
330
AC
100
AcDbEntity
  8
0
  6
CONTINUOUS
 62
     7
100
AcDbLine
 10
261.641761029131
 20
851.1340779388498
 30
0.0
 11
255.1946312462296
 21
857.5812077217495
 31
0.0
  0
LINE
  5
18D
330
AC
100
AcDbEntity
  8
0
  6
CONTINUOUS
 62
     7
100
AcDbLine
 10
260.338217211729
 20
851.0234081939495
 30
0.0
 11
254.7304081107295
 21
856.6312172949498
 31
0.0
  0
LINE
  5
18E
330
AC
100
AcDbEntity
  8
0
  6
CONTINUOUS
 62
     7
100
AcDbLine
 10
258.7468286808289
 20
851.2005831624498
 30
0.0
 11
254.5540296886293
 21
855.3933821546503
 31
0.0
  0
LINE
  5
18F
330
AC
100
AcDbEntity
  8
0
  6
CONTINUOUS
 62
     7
100
AcDbLine
 10
265.29054441273
 20
853.1421488047496
 30
0.0
 11
258.6169156745382
 21
859.8157775429414
 31
0.0
  0
LINE
  5
190
330
AC
100
AcDbEntity
  8
0
  6
CONTINUOUS
 62
     7
100
AcDbLine
 10
264.5847918373292
 20
852.4336878177496
 30
0.0
 11
257.5549012971305
 21
859.4635783582756
 31
0.0
  0
LINE
  5
191
330
AC
100
AcDbEntity
  8
0
  6
CONTINUOUS
 62
     7
100
AcDbLine
 10
263.7409385296291
 20
851.8633275631498
 30
0.0
 11
256.6309876515484
 21
858.973278440925
 31
0.0
  0
LINE
  5
192
330
AC
100
AcDbEntity
  8
0
  6
CONTINUOUS
 62
     7
100
AcDbLine
 10
262.7637786898285
 20
851.42627384055
 30
0.0
 11
255.8403805385174
 21
858.3496719918562
 31
0.0
  0
ENDBLK
  5
AE
330
AC
100
AcDbEntity
  8
0
100
AcDbBlockEnd
  0
BLOCK
  5
B0
330
AF
100
AcDbEntity
  8
0
100
AcDbBlockBegin
  2
SYM-5
 70
     0
 10
0.0
 20
0.0
 30
0.0
  3
SYM-5
  1

  0
LINE
  5
193
330
AF
100
AcDbEntity
  8
0
  6
CONTINUOUS
 62
     7
100
AcDbLine
 10
2753.014413663238
 20
1371.30670667895
 30
0.0
 11
2753.014413663238
 21
1356.30670667895
 31
0.0
  0
ARC
  5
194
330
AF
100
AcDbEntity
  8
0
  6
CONTINUOUS
 62
     7
100
AcDbCircle
 10
2756.858448295276
 20
1356.30670667895
 30
0.0
 40
3.844034632034633
100
AcDbArc
 50
139.4313750266313
 51
220.5686249733714
  0
ARC
  5
195
330
AF
100
AcDbEntity
  8
0
  6
CONTINUOUS
 62
     7
100
AcDbCircle
 10
2767.004552191377
 20
1363.80670667895
 30
0.0
 40
13.99013852813853
100
AcDbArc
 50
159.0597243938583
 51
200.9402756061408
  0
ARC
  5
196
330
AF
100
AcDbEntity
  8
0
  6
CONTINUOUS
 62
     7
100
AcDbCircle
 10
2756.858448295276
 20
1371.30670667895
 30
0.0
 40
3.844034632034633
100
AcDbArc
 50
139.4313750266288
 51
220.5686249733687
  0
LINE
  5
197
330
AF
100
AcDbEntity
  8
0
  6
CONTINUOUS
 62
     7
100
AcDbLine
 10
2761.414413663239
 20
1353.80670667895
 30
0.0
 11
2753.938413663239
 21
1353.80670667895
 31
0.0
  0
LINE
  5
198
330
AF
100
AcDbEntity
  8
0
  6
CONTINUOUS
 62
     7
100
AcDbLine
 10
2761.414413663239
 20
1373.80670667895
 30
0.0
 11
2753.938413663239
 21
1373.80670667895
 31
0.0
  0
LINE
  5
199
330
AF
100
AcDbEntity
  8
0
  6
CONTINUOUS
 62
     7
100
AcDbLine
 10
2753.014413663238
 20
1358.806706678951
 30
0.0
 11
2747.814413663241
 21
1358.806706678951
 31
0.0
  0
LINE
  5
19A
330
AF
100
AcDbEntity
  8
0
  6
CONTINUOUS
 62
     7
100
AcDbLine
 10
2753.014413663238
 20
1368.80670667895
 30
0.0
 11
2747.814413663241
 21
1368.80670667895
 31
0.0
  0
LINE
  5
19B
330
AF
100
AcDbEntity
  8
0
  6
CONTINUOUS
 62
     7
100
AcDbLine
 10
2746.814413663239
 20
1359.80670667895
 30
0.0
 11
2746.814413663239
 21
1367.80670667895
 31
0.0
  0
LINE
  5
19C
330
AF
100
AcDbEntity
  8
0
  6
CONTINUOUS
 62
     7
100
AcDbLine
 10
2747.814413663241
 20
1368.80670667895
 30
0.0
 11
2746.814413663239
 21
1367.80670667895
 31
0.0
  0
LINE
  5
19D
330
AF
100
AcDbEntity
  8
0
  6
CONTINUOUS
 62
     7
100
AcDbLine
 10
2747.814413663241
 20
1358.806706678951
 30
0.0
 11
2746.814413663239
 21
1359.80670667895
 31
0.0
  0
LINE
  5
19E
330
AF
100
AcDbEntity
  8
0
  6
CONTINUOUS
 62
     7
100
AcDbLine
 10
2782.510413663239
 20
1368.80670667895
 30
0.0
 11
2753.938413663239
 21
1368.80670667895
 31
0.0
  0
LINE
  5
19F
330
AF
100
AcDbEntity
  8
0
  6
CONTINUOUS
 62
     7
100
AcDbLine
 10
2782.510413663239
 20
1358.806706678951
 30
0.0
 11
2753.938413663239
 21
1358.806706678951
 31
0.0
  0
LINE
  5
1A0
330
AF
100
AcDbEntity
  8
0
  6
CONTINUOUS
 62
     7
100
AcDbLine
 10
2771.814413663243
 20
1368.80670667895
 30
0.0
 11
2771.814413663243
 21
1358.806706678951
 31
0.0
  0
ARC
  5
1A1
330
AF
100
AcDbEntity
  8
0
  6
CONTINUOUS
 62
     7
100
AcDbCircle
 10
2778.423493208696
 20
1371.30670667895
 30
0.0
 40
4.790920454545454
100
AcDbArc
 50
328.5455606612239
 51
31.45443933877633
  0
ARC
  5
1A2
330
AF
100
AcDbEntity
  8
0
  6
CONTINUOUS
 62
     7
100
AcDbCircle
 10
2765.106731845058
 20
1363.80670667895
 30
0.0
 40
18.10768181818181
100
AcDbArc
 50
343.9708781133889
 51
16.02912188661214
  0
LINE
  5
1A3
330
AF
100
AcDbEntity
  8
0
  6
CONTINUOUS
 62
     7
100
AcDbLine
 10
2783.214413663239
 20
1356.306706678951
 30
0.0
 11
2783.214413663239
 21
1371.30670667895
 31
0.0
  0
ARC
  5
1A4
330
AF
100
AcDbEntity
  8
0
  6
CONTINUOUS
 62
     7
100
AcDbCircle
 10
2778.423493208696
 20
1356.306706678951
 30
0.0
 40
4.790920454545454
100
AcDbArc
 50
328.5455606612213
 51
31.45443933877633
  0
LINE
  5
1A5
330
AF
100
AcDbEntity
  8
0
  6
CONTINUOUS
 62
     7
100
AcDbLine
 10
2776.814413663239
 20
1353.80670667895
 30
0.0
 11
2782.510413663239
 21
1353.80670667895
 31
0.0
  0
LINE
  5
1A6
330
AF
100
AcDbEntity
  8
0
  6
CONTINUOUS
 62
     7
100
AcDbLine
 10
2776.814413663239
 20
1352.392493116578
 30
0.0
 11
2777.27129528181
 21
1351.935611498009
 31
0.0
  0
LINE
  5
1A7
330
AF
100
AcDbEntity
  8
0
  6
CONTINUOUS
 62
     7
100
AcDbLine
 10
2776.814413663234
 20
1353.09959989777
 30
0.0
 11
2777.620257069917
 21
1352.293756491083
 31
0.0
  0
LINE
  5
1A8
330
AF
100
AcDbEntity
  8
0
  6
CONTINUOUS
 62
     7
100
AcDbLine
 10
2776.814413663228
 20
1353.806706678963
 30
0.0
 11
2777.969218858046
 21
1352.651901484149
 31
0.0
  0
LINE
  5
1A9
330
AF
100
AcDbEntity
  8
0
  6
CONTINUOUS
 62
     7
100
AcDbLine
 10
2777.52152044442
 20
1353.806706678957
 30
0.0
 11
2778.318180646162
 21
1353.010046477213
 31
0.0
  0
LINE
  5
1AA
330
AF
100
AcDbEntity
  8
0
  6
CONTINUOUS
 62
     7
100
AcDbLine
 10
2778.228627225614
 20
1353.80670667895
 30
0.0
 11
2778.667142434272
 21
1353.368191470288
 31
0.0
  0
LINE
  5
1AB
330
AF
100
AcDbEntity
  8
0
  6
CONTINUOUS
 62
     7
100
AcDbLine
 10
2778.935734006794
 20
1353.806706678955
 30
0.0
 11
2779.016104222398
 21
1353.726336463352
 31
0.0
  0
LINE
  5
1AC
330
AF
100
AcDbEntity
  8
0
  6
CONTINUOUS
 62
     7
100
AcDbLine
 10
2776.814413663241
 20
1351.46670667895
 30
0.0
 11
2779.094413663239
 21
1353.80670667895
 31
0.0
  0
LINE
  5
1AD
330
AF
100
AcDbEntity
  8
0
  6
CONTINUOUS
 62
     7
100
AcDbLine
 10
2776.814413663235
 20
1351.685386335396
 30
0.0
 11
2776.922333493686
 21
1351.577466504945
 31
0.0
  0
LINE
  5
1AE
330
AF
100
AcDbEntity
  8
0
  6
CONTINUOUS
 62
     7
100
AcDbLine
 10
2778.935734006788
 20
1373.806706678939
 30
0.0
 11
2779.04365383724
 21
1373.914626509391
 31
0.0
  0
LINE
  5
1AF
330
AF
100
AcDbEntity
  8
0
  6
CONTINUOUS
 62
     7
100
AcDbLine
 10
2778.228627225609
 20
1373.806706678944
 30
0.0
 11
2778.685508844174
 21
1374.263588297512
 31
0.0
  0
LINE
  5
1B0
330
AF
100
AcDbEntity
  8
0
  6
CONTINUOUS
 62
     7
100
AcDbLine
 10
2777.521520444417
 20
1373.806706678937
 30
0.0
 11
2778.3273638511
 21
1374.612550085623
 31
0.0
  0
LINE
  5
1B1
330
AF
100
AcDbEntity
  8
0
  6
CONTINUOUS
 62
     7
100
AcDbLine
 10
2776.81441366322
 20
1373.806706678931
 30
0.0
 11
2777.969218858037
 21
1374.961511873745
 31
0.0
  0
LINE
  5
1B2
330
AF
100
AcDbEntity
  8
0
  6
CONTINUOUS
 62
     7
100
AcDbLine
 10
2776.814413663239
 20
1374.513813460136
 30
0.0
 11
2777.61107386497
 21
1375.310473661869
 31
0.0
  0
LINE
  5
1B3
330
AF
100
AcDbEntity
  8
0
  6
CONTINUOUS
 62
     7
100
AcDbLine
 10
2776.814413663245
 20
1375.220920241328
 30
0.0
 11
2777.252928871897
 21
1375.659435449979
 31
0.0
  0
LINE
  5
1B4
330
AF
100
AcDbEntity
  8
0
  6
CONTINUOUS
 62
     7
100
AcDbLine
 10
2776.814413663254
 20
1375.928027022522
 30
0.0
 11
2776.894783878833
 21
1376.008397238101
 31
0.0
  0
LINE
  5
1B5
330
AF
100
AcDbEntity
  8
0
  6
CONTINUOUS
 62
     7
100
AcDbLine
 10
2779.154413663239
 20
1373.806706678951
 30
0.0
 11
2776.814413663239
 21
1376.086706678951
 31
0.0
  0
LINE
  5
1B6
330
AF
100
AcDbEntity
  8
0
  6
CONTINUOUS
 62
     7
100
AcDbLine
 10
2776.814413663239
 20
1373.806706678951
 30
0.0
 11
2782.510413663239
 21
1373.806706678951
 31
0.0
  0
LINE
  5
1B7
330
AF
100
AcDbEntity
  8
0
  6
CONTINUOUS
 62
     7
100
AcDbLine
 10
2746.814413663239
 20
1367.80670667895
 30
0.0
 11
2753.014413663238
 21
1367.80670667895
 31
0.0
  0
LINE
  5
1B8
330
AF
100
AcDbEntity
  8
0
  6
CONTINUOUS
 62
     7
100
AcDbLine
 10
2747.814413663241
 20
1358.806706678951
 30
0.0
 11
2747.814413663241
 21
1368.80670667895
 31
0.0
  0
LINE
  5
1B9
330
AF
100
AcDbEntity
  8
0
  6
CONTINUOUS
 62
     7
100
AcDbLine
 10
2746.814413663239
 20
1359.80670667895
 30
0.0
 11
2753.014413663238
 21
1359.80670667895
 31
0.0
  0
LINE
  5
1BA
330
AF
100
AcDbEntity
  8
0
  6
CONTINUOUS
 62
     7
100
AcDbLine
 10
2761.414413663239
 20
1359.80670667895
 30
0.0
 11
2771.814413663243
 21
1359.80670667895
 31
0.0
  0
LINE
  5
1BB
330
AF
100
AcDbEntity
  8
0
  6
CONTINUOUS
 62
     7
100
AcDbLine
 10
2761.414413663239
 20
1367.80670667895
 30
0.0
 11
2771.814413663243
 21
1367.80670667895
 31
0.0
  0
LINE
  5
1BC
330
AF
100
AcDbEntity
  8
0
  6
CONTINUOUS
 62
     7
100
AcDbLine
 10
2771.814413663243
 20
1367.80670667895
 30
0.0
 11
2772.814413663242
 21
1368.80670667895
 31
0.0
  0
LINE
  5
1BD
330
AF
100
AcDbEntity
  8
0
  6
CONTINUOUS
 62
     7
100
AcDbLine
 10
2771.814413663243
 20
1359.80670667895
 30
0.0
 11
2772.814413663242
 21
1358.806706678951
 31
0.0
  0
ENDBLK
  5
B1
330
AF
100
AcDbEntity
  8
0
100
AcDbBlockEnd
  0
BLOCK
  5
B3
330
B2
100
AcDbEntity
  8
0
100
AcDbBlockBegin
  2
SYM-6
 70
     0
 10
0.0
 20
0.0
 30
0.0
  3
SYM-6
  1

  0
LINE
  5
1BE
330
B2
100
AcDbEntity
  8
0
  6
CONTINUOUS
 62
     7
100
AcDbLine
 10
2747.814413663241
 20
2408.806706678949
 30
0.0
 11
2746.814413663239
 21
2409.806706678951
 31
0.0
  0
LINE
  5
1BF
330
B2
100
AcDbEntity
  8
0
  6
CONTINUOUS
 62
     7
100
AcDbLine
 10
2747.814413663241
 20
2418.806706678951
 30
0.0
 11
2746.814413663239
 21
2417.806706678951
 31
0.0
  0
LINE
  5
1C0
330
B2
100
AcDbEntity
  8
0
  6
CONTINUOUS
 62
     7
100
AcDbLine
 10
2746.814413663239
 20
2409.806706678951
 30
0.0
 11
2746.814413663239
 21
2417.806706678951
 31
0.0
  0
LINE
  5
1C1
330
B2
100
AcDbEntity
  8
0
  6
CONTINUOUS
 62
     7
100
AcDbLine
 10
2751.014413663239
 20
2418.806706678951
 30
0.0
 11
2747.814413663241
 21
2418.806706678951
 31
0.0
  0
LINE
  5
1C2
330
B2
100
AcDbEntity
  8
0
  6
CONTINUOUS
 62
     7
100
AcDbLine
 10
2751.014413663239
 20
2408.806706678949
 30
0.0
 11
2747.814413663241
 21
2408.806706678949
 31
0.0
  0
LINE
  5
1C3
330
B2
100
AcDbEntity
  8
0
  6
CONTINUOUS
 62
     7
100
AcDbLine
 10
2759.414413663241
 20
2418.806706678951
 30
0.0
 11
2751.938413663241
 21
2418.806706678951
 31
0.0
  0
LINE
  5
1C4
330
B2
100
AcDbEntity
  8
0
  6
CONTINUOUS
 62
     7
100
AcDbLine
 10
2759.414413663241
 20
2408.806706678949
 30
0.0
 11
2751.938413663241
 21
2408.806706678949
 31
0.0
  0
LINE
  5
1C5
330
B2
100
AcDbEntity
  8
0
  6
CONTINUOUS
 62
     7
100
AcDbLine
 10
2759.414413663241
 20
2423.806706678949
 30
0.0
 11
2751.938413663241
 21
2423.806706678949
 31
0.0
  0
LINE
  5
1C6
330
B2
100
AcDbEntity
  8
0
  6
CONTINUOUS
 62
     7
100
AcDbLine
 10
2759.414413663241
 20
2403.806706678951
 30
0.0
 11
2751.938413663241
 21
2403.806706678951
 31
0.0
  0
ARC
  5
1C7
330
B2
100
AcDbEntity
  8
0
  6
CONTINUOUS
 62
     7
100
AcDbCircle
 10
2754.858448295275
 20
2421.306706678951
 30
0.0
 40
3.844034632034633
100
AcDbArc
 50
139.4313750265994
 51
220.5686249734146
  0
ARC
  5
1C8
330
B2
100
AcDbEntity
  8
0
  6
CONTINUOUS
 62
     7
100
AcDbCircle
 10
2765.004552191379
 20
2413.806706678951
 30
0.0
 40
13.99013852813853
100
AcDbArc
 50
159.0597243938601
 51
200.9402756061523
  0
ARC
  5
1C9
330
B2
100
AcDbEntity
  8
0
  6
CONTINUOUS
 62
     7
100
AcDbCircle
 10
2754.858448295275
 20
2406.306706678951
 30
0.0
 40
3.844034632034633
100
AcDbArc
 50
139.4313750265994
 51
220.5686249734146
  0
LINE
  5
1CA
330
B2
100
AcDbEntity
  8
0
  6
CONTINUOUS
 62
     7
100
AcDbLine
 10
2751.014413663239
 20
2421.306706678951
 30
0.0
 11
2751.014413663239
 21
2406.306706678951
 31
0.0
  0
LINE
  5
1CB
330
B2
100
AcDbEntity
  8
0
  6
CONTINUOUS
 62
     7
100
AcDbLine
 10
2759.414413663241
 20
2403.306706678951
 30
0.0
 11
2759.414413663241
 21
2424.306706678951
 31
0.0
  0
LINE
  5
1CC
330
B2
100
AcDbEntity
  8
0
  6
CONTINUOUS
 62
     7
100
AcDbLine
 10
2759.414413663241
 20
2424.306706678951
 30
0.0
 11
2761.414413663239
 21
2424.306706678951
 31
0.0
  0
LINE
  5
1CD
330
B2
100
AcDbEntity
  8
0
  6
CONTINUOUS
 62
     7
100
AcDbLine
 10
2759.414413663241
 20
2403.306706678951
 30
0.0
 11
2761.414413663239
 21
2403.306706678951
 31
0.0
  0
LINE
  5
1CE
330
B2
100
AcDbEntity
  8
0
  6
CONTINUOUS
 62
     7
100
AcDbLine
 10
2782.510413663239
 20
2408.806706678949
 30
0.0
 11
2761.414413663239
 21
2408.806706678949
 31
0.0
  0
LINE
  5
1CF
330
B2
100
AcDbEntity
  8
0
  6
CONTINUOUS
 62
     7
100
AcDbLine
 10
2782.510413663239
 20
2418.806706678951
 30
0.0
 11
2761.414413663239
 21
2418.806706678951
 31
0.0
  0
LINE
  5
1D0
330
B2
100
AcDbEntity
  8
0
  6
CONTINUOUS
 62
     7
100
AcDbLine
 10
2771.814413663243
 20
2418.806706678951
 30
0.0
 11
2771.814413663243
 21
2408.806706678949
 31
0.0
  0
LINE
  5
1D1
330
B2
100
AcDbEntity
  8
0
  6
CONTINUOUS
 62
     7
100
AcDbLine
 10
2779.154413663239
 20
2423.806706678953
 30
0.0
 11
2776.814413663239
 21
2426.086706678951
 31
0.0
  0
LINE
  5
1D2
330
B2
100
AcDbEntity
  8
0
  6
CONTINUOUS
 62
     7
100
AcDbLine
 10
2776.81441366325
 20
2425.928027022518
 30
0.0
 11
2776.894783878827
 21
2426.008397238099
 31
0.0
  0
LINE
  5
1D3
330
B2
100
AcDbEntity
  8
0
  6
CONTINUOUS
 62
     7
100
AcDbLine
 10
2776.814413663241
 20
2425.220920241326
 30
0.0
 11
2777.252928871904
 21
2425.659435449986
 31
0.0
  0
LINE
  5
1D4
330
B2
100
AcDbEntity
  8
0
  6
CONTINUOUS
 62
     7
100
AcDbLine
 10
2776.814413663245
 20
2424.513813460145
 30
0.0
 11
2777.61107386497
 21
2425.310473661865
 31
0.0
  0
LINE
  5
1D5
330
B2
100
AcDbEntity
  8
0
  6
CONTINUOUS
 62
     7
100
AcDbLine
 10
2776.81441366323
 20
2423.80670667894
 30
0.0
 11
2777.969218858031
 21
2424.961511873741
 31
0.0
  0
LINE
  5
1D6
330
B2
100
AcDbEntity
  8
0
  6
CONTINUOUS
 62
     7
100
AcDbLine
 10
2777.521520444409
 20
2423.806706678934
 30
0.0
 11
2778.327363851108
 21
2424.61255008563
 31
0.0
  0
LINE
  5
1D7
330
B2
100
AcDbEntity
  8
0
  6
CONTINUOUS
 62
     7
100
AcDbLine
 10
2778.228627225605
 20
2423.80670667894
 30
0.0
 11
2778.68550884417
 21
2424.263588297509
 31
0.0
  0
LINE
  5
1D8
330
B2
100
AcDbEntity
  8
0
  6
CONTINUOUS
 62
     7
100
AcDbLine
 10
2778.935734006797
 20
2423.806706678947
 30
0.0
 11
2779.043653837237
 21
2423.914626509387
 31
0.0
  0
LINE
  5
1D9
330
B2
100
AcDbEntity
  8
0
  6
CONTINUOUS
 62
     7
100
AcDbLine
 10
2776.814413663239
 20
2423.806706678949
 30
0.0
 11
2782.510413663239
 21
2423.806706678949
 31
0.0
  0
ARC
  5
1DA
330
B2
100
AcDbEntity
  8
0
  6
CONTINUOUS
 62
     7
100
AcDbCircle
 10
2778.423493208696
 20
2421.306706678951
 30
0.0
 40
4.790920454545454
100
AcDbArc
 50
328.5455606612239
 51
31.45443933877169
  0
LINE
  5
1DB
330
B2
100
AcDbEntity
  8
0
  6
CONTINUOUS
 62
     7
100
AcDbLine
 10
2783.214413663239
 20
2406.306706678951
 30
0.0
 11
2783.214413663239
 21
2421.306706678951
 31
0.0
  0
ARC
  5
1DC
330
B2
100
AcDbEntity
  8
0
  6
CONTINUOUS
 62
     7
100
AcDbCircle
 10
2765.106731845058
 20
2413.806706678951
 30
0.0
 40
18.10768181818181
100
AcDbArc
 50
343.9708781133803
 51
16.02912188661214
  0
ARC
  5
1DD
330
B2
100
AcDbEntity
  8
0
  6
CONTINUOUS
 62
     7
100
AcDbCircle
 10
2778.423493208696
 20
2406.306706678951
 30
0.0
 40
4.790920454545454
100
AcDbArc
 50
328.5455606612239
 51
31.45443933877169
  0
LINE
  5
1DE
330
B2
100
AcDbEntity
  8
0
  6
CONTINUOUS
 62
     7
100
AcDbLine
 10
2776.814413663239
 20
2403.806706678951
 30
0.0
 11
2782.510413663239
 21
2403.806706678951
 31
0.0
  0
LINE
  5
1DF
330
B2
100
AcDbEntity
  8
0
  6
CONTINUOUS
 62
     7
100
AcDbLine
 10
2776.814413663241
 20
2401.466706678951
 30
0.0
 11
2779.094413663239
 21
2403.806706678951
 31
0.0
  0
LINE
  5
1E0
330
B2
100
AcDbEntity
  8
0
  6
CONTINUOUS
 62
     7
100
AcDbLine
 10
2778.935734006801
 20
2403.806706678951
 30
0.0
 11
2779.016104222402
 21
2403.726336463348
 31
0.0
  0
LINE
  5
1E1
330
B2
100
AcDbEntity
  8
0
  6
CONTINUOUS
 62
     7
100
AcDbLine
 10
2778.228627225605
 20
2403.80670667896
 30
0.0
 11
2778.667142434281
 21
2403.368191470286
 31
0.0
  0
LINE
  5
1E2
330
B2
100
AcDbEntity
  8
0
  6
CONTINUOUS
 62
     7
100
AcDbLine
 10
2777.521520444426
 20
2403.806706678953
 30
0.0
 11
2778.318180646157
 21
2403.010046477221
 31
0.0
  0
LINE
  5
1E3
330
B2
100
AcDbEntity
  8
0
  6
CONTINUOUS
 62
     7
100
AcDbLine
 10
2776.81441366323
 20
2403.80670667896
 30
0.0
 11
2777.969218858046
 21
2402.651901484146
 31
0.0
  0
LINE
  5
1E4
330
B2
100
AcDbEntity
  8
0
  6
CONTINUOUS
 62
     7
100
AcDbLine
 10
2776.814413663239
 20
2403.099599897768
 30
0.0
 11
2777.620257069923
 21
2402.29375649108
 31
0.0
  0
LINE
  5
1E5
330
B2
100
AcDbEntity
  8
0
  6
CONTINUOUS
 62
     7
100
AcDbLine
 10
2776.814413663234
 20
2402.392493116587
 30
0.0
 11
2777.271295281801
 21
2401.935611498017
 31
0.0
  0
LINE
  5
1E6
330
B2
100
AcDbEntity
  8
0
  6
CONTINUOUS
 62
     7
100
AcDbLine
 10
2776.814413663228
 20
2401.685386335404
 30
0.0
 11
2776.922333493691
 21
2401.577466504942
 31
0.0
  0
LINE
  5
1E7
330
B2
100
AcDbEntity
  8
0
  6
CONTINUOUS
 62
     7
100
AcDbLine
 10
2746.814413663239
 20
2417.806706678951
 30
0.0
 11
2751.014413663239
 21
2417.806706678951
 31
0.0
  0
LINE
  5
1E8
330
B2
100
AcDbEntity
  8
0
  6
CONTINUOUS
 62
     7
100
AcDbLine
 10
2747.814413663241
 20
2408.806706678949
 30
0.0
 11
2747.814413663241
 21
2418.806706678951
 31
0.0
  0
LINE
  5
1E9
330
B2
100
AcDbEntity
  8
0
  6
CONTINUOUS
 62
     7
100
AcDbLine
 10
2746.814413663239
 20
2409.806706678951
 30
0.0
 11
2751.014413663239
 21
2409.806706678951
 31
0.0
  0
LINE
  5
1EA
330
B2
100
AcDbEntity
  8
0
  6
CONTINUOUS
 62
     7
100
AcDbLine
 10
2761.414413663239
 20
2409.806706678951
 30
0.0
 11
2771.814413663243
 21
2409.806706678951
 31
0.0
  0
LINE
  5
1EB
330
B2
100
AcDbEntity
  8
0
  6
CONTINUOUS
 62
     7
100
AcDbLine
 10
2761.414413663239
 20
2417.806706678951
 30
0.0
 11
2771.814413663243
 21
2417.806706678951
 31
0.0
  0
LINE
  5
1EC
330
B2
100
AcDbEntity
  8
0
  6
CONTINUOUS
 62
     7
100
AcDbLine
 10
2771.814413663243
 20
2417.806706678951
 30
0.0
 11
2772.814413663242
 21
2418.806706678951
 31
0.0
  0
LINE
  5
1ED
330
B2
100
AcDbEntity
  8
0
  6
CONTINUOUS
 62
     7
100
AcDbLine
 10
2771.814413663243
 20
2409.806706678951
 30
0.0
 11
2772.814413663242
 21
2408.806706678949
 31
0.0
  0
ENDBLK
  5
B4
330
B2
100
AcDbEntity
  8
0
100
AcDbBlockEnd
  0
BLOCK
  5
B6
330
B5
100
AcDbEntity
  8
0
100
AcDbBlockBegin
  2
SYM-7
 70
     0
 10
0.0
 20
0.0
 30
0.0
  3
SYM-7
  1

  0
ELLIPSE
  5
1EE
330
B5
100
AcDbEntity
  8
0
  6
CONTINUOUS
 62
     7
100
AcDbEllipse
 10
2769.097746996543
 20
2397.726706678949
 30
0.0
 11
-1.067183248068677E-15
 21
-5.809475019310011
 31
0.0
210
0.0
220
0.0
230
1.0
 40
0.774596669241632
 41
0.0
 42
6.283185307179586
  0
LINE
  5
1EF
330
B5
100
AcDbEntity
  8
0
  6
CONTINUOUS
 62
     7
100
AcDbLine
 10
2767.910504902839
 20
2392.12306854365
 30
0.0
 11
2765.191828918542
 21
2394.841744527949
 31
0.0
  0
LINE
  5
1F0
330
B5
100
AcDbEntity
  8
0
  6
CONTINUOUS
 62
     7
100
AcDbLine
 10
2769.506535119141
 20
2391.941251889749
 30
0.0
 11
2764.656458873939
 21
2396.791328134849
 31
0.0
  0
LINE
  5
1F1
330
B5
100
AcDbEntity
  8
0
  6
CONTINUOUS
 62
     7
100
AcDbLine
 10
2770.607877818741
 20
2392.25412275245
 30
0.0
 11
2764.615776346042
 21
2398.24622422515
 31
0.0
  0
LINE
  5
1F2
330
B5
100
AcDbEntity
  8
0
  6
CONTINUOUS
 62
     7
100
AcDbLine
 10
2773.487042403342
 20
2396.44602597975
 30
0.0
 11
2767.03991262044
 21
2402.893155762648
 31
0.0
  0
LINE
  5
1F3
330
B5
100
AcDbEntity
  8
0
  6
CONTINUOUS
 62
     7
100
AcDbLine
 10
2773.59771214824
 20
2397.749569797151
 30
0.0
 11
2767.98990304724
 21
2403.357378898149
 31
0.0
  0
LINE
  5
1F4
330
B5
100
AcDbEntity
  8
0
  6
CONTINUOUS
 62
     7
100
AcDbLine
 10
2773.420537179741
 20
2399.340958328049
 30
0.0
 11
2769.22773818754
 21
2403.53375732025
 31
0.0
  0
LINE
  5
1F5
330
B5
100
AcDbEntity
  8
0
  6
CONTINUOUS
 62
     7
100
AcDbLine
 10
2771.478971537441
 20
2392.79724259615
 30
0.0
 11
2764.805342799251
 21
2399.470871334341
 31
0.0
  0
LINE
  5
1F6
330
B5
100
AcDbEntity
  8
0
  6
CONTINUOUS
 62
     7
100
AcDbLine
 10
2772.187432524439
 20
2393.502995171549
 30
0.0
 11
2765.157541983918
 21
2400.532885711752
 31
0.0
  0
LINE
  5
1F7
330
B5
100
AcDbEntity
  8
0
  6
CONTINUOUS
 62
     7
100
AcDbLine
 10
2772.75779277904
 20
2394.346848479249
 30
0.0
 11
2765.64784190127
 21
2401.456799357335
 31
0.0
  0
LINE
  5
1F8
330
B5
100
AcDbEntity
  8
0
  6
CONTINUOUS
 62
     7
100
AcDbLine
 10
2773.19484650164
 20
2395.324008319049
 30
0.0
 11
2766.271448350335
 21
2402.24740647036
 31
0.0
  0
ENDBLK
  5
B7
330
B5
100
AcDbEntity
  8
0
100
AcDbBlockEnd
  0
BLOCK
  5
B9
330
B8
100
AcDbEntity
  8
0
100
AcDbBlockBegin
  2
SYM-8
 70
     0
 10
0.0
 20
0.0
 30
0.0
  3
SYM-8
  1

  0
ELLIPSE
  5
1F9
330
B8
100
AcDbEntity
  8
0
  6
CONTINUOUS
 62
     7
100
AcDbEllipse
 10
2769.097746996543
 20
1379.886706678951
 30
0.0
 11
-2.224197421612835E-15
 21
5.809475019310011
 31
0.0
210
0.0
220
0.0
230
1.0
 40
0.774596669241632
 41
0.0
 42
6.283185307179586
  0
LINE
  5
1FA
330
B8
100
AcDbEntity
  8
0
  6
CONTINUOUS
 62
     7
100
AcDbLine
 10
2767.910504902839
 20
1385.49034481425
 30
0.0
 11
2765.191828918542
 21
1382.77166882995
 31
0.0
  0
LINE
  5
1FB
330
B8
100
AcDbEntity
  8
0
  6
CONTINUOUS
 62
     7
100
AcDbLine
 10
2769.506535119141
 20
1385.672161468151
 30
0.0
 11
2764.656458873939
 21
1380.82208522305
 31
0.0
  0
LINE
  5
1FC
330
B8
100
AcDbEntity
  8
0
  6
CONTINUOUS
 62
     7
100
AcDbLine
 10
2770.607877818741
 20
1385.359290605451
 30
0.0
 11
2764.615776346042
 21
1379.367189132751
 31
0.0
  0
LINE
  5
1FD
330
B8
100
AcDbEntity
  8
0
  6
CONTINUOUS
 62
     7
100
AcDbLine
 10
2773.487042403342
 20
1381.167387378151
 30
0.0
 11
2767.03991262044
 21
1374.72025759525
 31
0.0
  0
LINE
  5
1FE
330
B8
100
AcDbEntity
  8
0
  6
CONTINUOUS
 62
     7
100
AcDbLine
 10
2773.59771214824
 20
1379.863843560751
 30
0.0
 11
2767.98990304724
 21
1374.256034459751
 31
0.0
  0
LINE
  5
1FF
330
B8
100
AcDbEntity
  8
0
  6
CONTINUOUS
 62
     7
100
AcDbLine
 10
2773.420537179741
 20
1378.27245502985
 30
0.0
 11
2769.22773818754
 21
1374.079656037651
 31
0.0
  0
LINE
  5
200
330
B8
100
AcDbEntity
  8
0
  6
CONTINUOUS
 62
     7
100
AcDbLine
 10
2771.478971537408
 20
1384.816170761718
 30
0.0
 11
2764.805342799239
 21
1378.142542023551
 31
0.0
  0
LINE
  5
201
330
B8
100
AcDbEntity
  8
0
  6
CONTINUOUS
 62
     7
100
AcDbLine
 10
2772.187432524317
 20
1384.110418186511
 30
0.0
 11
2765.157541984041
 21
1377.08052764595
 31
0.0
  0
LINE
  5
202
330
B8
100
AcDbEntity
  8
0
  6
CONTINUOUS
 62
     7
100
AcDbLine
 10
2772.757792779038
 20
1383.266564878648
 30
0.0
 11
2765.647841901142
 21
1376.156614000751
 31
0.0
  0
LINE
  5
203
330
B8
100
AcDbEntity
  8
0
  6
CONTINUOUS
 62
     7
100
AcDbLine
 10
2773.194846501653
 20
1382.289405038859
 30
0.0
 11
2766.271448350341
 21
1375.36600688755
 31
0.0
  0
ENDBLK
  5
BA
330
B8
100
AcDbEntity
  8
0
100
AcDbBlockEnd
  0
BLOCK
  5
BC
330
BB
100
AcDbEntity
  8
0
100
AcDbBlockBegin
  2
SYM-9
 70
     0
 10
0.0
 20
0.0
 30
0.0
  3
SYM-9
  1

  0
ARC
  5
204
330
BB
100
AcDbEntity
  8
0
  6
CONTINUOUS
 62
     7
100
AcDbCircle
 10
324.7810803299062
 20
904.8067066790169
 30
0.0
 40
2.0
100
AcDbArc
 50
180.0
 51
270.0000000000002
  0
ARC
  5
205
330
BB
100
AcDbEntity
  8
0
  6
CONTINUOUS
 62
     7
100
AcDbCircle
 10
349.7810803299371
 20
904.8067066790169
 30
0.0
 40
2.0
100
AcDbArc
 50
270.0000000000002
 51
0.0
  0
LINE
  5
206
330
BB
100
AcDbEntity
  8
0
  6
CONTINUOUS
 62
     7
100
AcDbLine
 10
324.781080329919
 20
904.8067066790169
 30
0.0
 11
349.781080329919
 21
904.8067066790169
 31
0.0
  0
LINE
  5
207
330
BB
100
AcDbEntity
  8
0
  6
CONTINUOUS
 62
     7
100
AcDbLine
 10
317.281080329919
 20
912.8067066790178
 30
0.0
 11
317.281080329919
 21
910.806706679017
 31
0.0
  0
LINE
  5
208
330
BB
100
AcDbEntity
  8
0
  6
CONTINUOUS
 62
     7
100
AcDbLine
 10
317.281080329919
 20
910.806706679017
 30
0.0
 11
322.7810803299062
 21
910.806706679017
 31
0.0
  0
LINE
  5
209
330
BB
100
AcDbEntity
  8
0
  6
CONTINUOUS
 62
     7
100
AcDbLine
 10
322.7810803299062
 20
910.806706679017
 30
0.0
 11
322.7810803299062
 21
904.8067066790169
 31
0.0
  0
LINE
  5
20A
330
BB
100
AcDbEntity
  8
0
  6
CONTINUOUS
 62
     7
100
AcDbLine
 10
324.781080329919
 20
910.806706679017
 30
0.0
 11
324.781080329919
 21
904.8067066790169
 31
0.0
  0
LINE
  5
20B
330
BB
100
AcDbEntity
  8
0
  6
CONTINUOUS
 62
     7
100
AcDbLine
 10
317.281080329919
 20
912.8067066790178
 30
0.0
 11
322.781080329919
 21
912.8067066790178
 31
0.0
  0
ARC
  5
20C
330
BB
100
AcDbEntity
  8
0
  6
CONTINUOUS
 62
     7
100
AcDbCircle
 10
322.781080329919
 20
910.806706679017
 30
0.0
 40
2.0
100
AcDbArc
 50
0.0
 51
90.00000000000001
  0
LINE
  5
20D
330
BB
100
AcDbEntity
  8
0
  6
CONTINUOUS
 62
     7
100
AcDbLine
 10
357.2810803299244
 20
912.8067066790178
 30
0.0
 11
357.2810803299244
 21
910.806706679017
 31
0.0
  0
LINE
  5
20E
330
BB
100
AcDbEntity
  8
0
  6
CONTINUOUS
 62
     7
100
AcDbLine
 10
357.2810803299244
 20
910.806706679017
 30
0.0
 11
351.7810803299371
 21
910.806706679017
 31
0.0
  0
LINE
  5
20F
330
BB
100
AcDbEntity
  8
0
  6
CONTINUOUS
 62
     7
100
AcDbLine
 10
351.7810803299371
 20
910.806706679017
 30
0.0
 11
351.7810803299371
 21
904.8067066790169
 31
0.0
  0
LINE
  5
210
330
BB
100
AcDbEntity
  8
0
  6
CONTINUOUS
 62
     7
100
AcDbLine
 10
349.7810803299244
 20
910.806706679017
 30
0.0
 11
349.7810803299244
 21
904.8067066790169
 31
0.0
  0
LINE
  5
211
330
BB
100
AcDbEntity
  8
0
  6
CONTINUOUS
 62
     7
100
AcDbLine
 10
357.2810803299244
 20
912.8067066790178
 30
0.0
 11
351.7810803299244
 21
912.8067066790178
 31
0.0
  0
ARC
  5
212
330
BB
100
AcDbEntity
  8
0
  6
CONTINUOUS
 62
     7
100
AcDbCircle
 10
351.7810803299244
 20
910.806706679017
 30
0.0
 40
2.0
100
AcDbArc
 50
90.00000000000001
 51
180.0
  0
ENDBLK
  5
BD
330
BB
100
AcDbEntity
  8
0
100
AcDbBlockEnd
  0
BLOCK
  5
BF
330
BE
100
AcDbEntity
  8
0
100
AcDbBlockBegin
  2
SYM-10
 70
     0
 10
0.0
 20
0.0
 30
0.0
  3
SYM-10
  1

  0
ARC
  5
213
330
BE
100
AcDbEntity
  8
0
  6
CONTINUOUS
 62
     7
100
AcDbCircle
 10
549.7810803299571
 20
904.8067066790169
 30
0.0
 40
2.0
100
AcDbArc
 50
270.0000000000002
 51
0.0
  0
ARC
  5
214
330
BE
100
AcDbEntity
  8
0
  6
CONTINUOUS
 62
     7
100
AcDbCircle
 10
524.7810803299244
 20
904.8067066790169
 30
0.0
 40
2.0
100
AcDbArc
 50
180.0
 51
270.0000000000002
  0
LINE
  5
215
330
BE
100
AcDbEntity
  8
0
  6
CONTINUOUS
 62
     7
100
AcDbLine
 10
549.7810803299426
 20
904.8067066790169
 30
0.0
 11
524.7810803299426
 21
904.8067066790169
 31
0.0
  0
LINE
  5
216
330
BE
100
AcDbEntity
  8
0
  6
CONTINUOUS
 62
     7
100
AcDbLine
 10
557.2810803299426
 20
912.8067066790169
 30
0.0
 11
557.2810803299426
 21
910.806706679017
 31
0.0
  0
LINE
  5
217
330
BE
100
AcDbEntity
  8
0
  6
CONTINUOUS
 62
     7
100
AcDbLine
 10
557.2810803299426
 20
910.806706679017
 30
0.0
 11
551.7810803299571
 21
910.806706679017
 31
0.0
  0
LINE
  5
218
330
BE
100
AcDbEntity
  8
0
  6
CONTINUOUS
 62
     7
100
AcDbLine
 10
551.7810803299571
 20
910.806706679017
 30
0.0
 11
551.7810803299571
 21
904.8067066790169
 31
0.0
  0
LINE
  5
219
330
BE
100
AcDbEntity
  8
0
  6
CONTINUOUS
 62
     7
100
AcDbLine
 10
549.7810803299426
 20
910.806706679017
 30
0.0
 11
549.7810803299426
 21
904.8067066790169
 31
0.0
  0
LINE
  5
21A
330
BE
100
AcDbEntity
  8
0
  6
CONTINUOUS
 62
     7
100
AcDbLine
 10
557.2810803299426
 20
912.8067066790169
 30
0.0
 11
551.7810803299426
 21
912.8067066790169
 31
0.0
  0
ARC
  5
21B
330
BE
100
AcDbEntity
  8
0
  6
CONTINUOUS
 62
     7
100
AcDbCircle
 10
551.7810803299426
 20
910.806706679017
 30
0.0
 40
2.0
100
AcDbArc
 50
90.00000000000001
 51
180.0
  0
LINE
  5
21C
330
BE
100
AcDbEntity
  8
0
  6
CONTINUOUS
 62
     7
100
AcDbLine
 10
517.281080329939
 20
912.8067066790169
 30
0.0
 11
517.281080329939
 21
910.806706679017
 31
0.0
  0
LINE
  5
21D
330
BE
100
AcDbEntity
  8
0
  6
CONTINUOUS
 62
     7
100
AcDbLine
 10
517.281080329939
 20
910.806706679017
 30
0.0
 11
522.7810803299244
 21
910.806706679017
 31
0.0
  0
LINE
  5
21E
330
BE
100
AcDbEntity
  8
0
  6
CONTINUOUS
 62
     7
100
AcDbLine
 10
522.7810803299244
 20
910.806706679017
 30
0.0
 11
522.7810803299244
 21
904.8067066790169
 31
0.0
  0
LINE
  5
21F
330
BE
100
AcDbEntity
  8
0
  6
CONTINUOUS
 62
     7
100
AcDbLine
 10
524.781080329939
 20
910.806706679017
 30
0.0
 11
524.781080329939
 21
904.8067066790169
 31
0.0
  0
LINE
  5
220
330
BE
100
AcDbEntity
  8
0
  6
CONTINUOUS
 62
     7
100
AcDbLine
 10
517.281080329939
 20
912.8067066790169
 30
0.0
 11
522.781080329939
 21
912.8067066790169
 31
0.0
  0
ARC
  5
221
330
BE
100
AcDbEntity
  8
0
  6
CONTINUOUS
 62
     7
100
AcDbCircle
 10
522.781080329939
 20
910.806706679017
 30
0.0
 40
2.0
100
AcDbArc
 50
0.0
 51
90.00000000000001
  0
ENDBLK
  5
C0
330
BE
100
AcDbEntity
  8
0
100
AcDbBlockEnd
  0
BLOCK
  5
C2
330
C1
100
AcDbEntity
  8
0
100
AcDbBlockBegin
  2
SYM-11
 70
     0
 10
0.0
 20
0.0
 30
0.0
  3
SYM-11
  1

  0
ARC
  5
222
330
C1
100
AcDbEntity
  8
0
  6
CONTINUOUS
 62
     7
100
AcDbCircle
 10
740.7810803299062
 20
904.8067066790169
 30
0.0
 40
2.0
100
AcDbArc
 50
180.0
 51
270.0000000000002
  0
ARC
  5
223
330
C1
100
AcDbEntity
  8
0
  6
CONTINUOUS
 62
     7
100
AcDbCircle
 10
765.781080329937
 20
904.8067066790169
 30
0.0
 40
2.0
100
AcDbArc
 50
270.0000000000002
 51
0.0
  0
LINE
  5
224
330
C1
100
AcDbEntity
  8
0
  6
CONTINUOUS
 62
     7
100
AcDbLine
 10
740.7810803299188
 20
904.8067066790169
 30
0.0
 11
765.7810803299188
 21
904.8067066790169
 31
0.0
  0
LINE
  5
225
330
C1
100
AcDbEntity
  8
0
  6
CONTINUOUS
 62
     7
100
AcDbLine
 10
733.2810803299188
 20
912.8067066790178
 30
0.0
 11
733.2810803299188
 21
910.806706679017
 31
0.0
  0
LINE
  5
226
330
C1
100
AcDbEntity
  8
0
  6
CONTINUOUS
 62
     7
100
AcDbLine
 10
733.2810803299188
 20
910.806706679017
 30
0.0
 11
738.7810803299062
 21
910.806706679017
 31
0.0
  0
LINE
  5
227
330
C1
100
AcDbEntity
  8
0
  6
CONTINUOUS
 62
     7
100
AcDbLine
 10
738.7810803299062
 20
910.806706679017
 30
0.0
 11
738.7810803299062
 21
904.8067066790169
 31
0.0
  0
LINE
  5
228
330
C1
100
AcDbEntity
  8
0
  6
CONTINUOUS
 62
     7
100
AcDbLine
 10
740.7810803299188
 20
910.806706679017
 30
0.0
 11
740.7810803299188
 21
904.8067066790169
 31
0.0
  0
LINE
  5
229
330
C1
100
AcDbEntity
  8
0
  6
CONTINUOUS
 62
     7
100
AcDbLine
 10
733.2810803299188
 20
912.8067066790178
 30
0.0
 11
738.781080329919
 21
912.8067066790178
 31
0.0
  0
ARC
  5
22A
330
C1
100
AcDbEntity
  8
0
  6
CONTINUOUS
 62
     7
100
AcDbCircle
 10
738.781080329919
 20
910.806706679017
 30
0.0
 40
2.0
100
AcDbArc
 50
0.0
 51
90.00000000000001
  0
LINE
  5
22B
330
C1
100
AcDbEntity
  8
0
  6
CONTINUOUS
 62
     7
100
AcDbLine
 10
773.2810803299244
 20
912.8067066790178
 30
0.0
 11
773.2810803299244
 21
910.806706679017
 31
0.0
  0
LINE
  5
22C
330
C1
100
AcDbEntity
  8
0
  6
CONTINUOUS
 62
     7
100
AcDbLine
 10
773.2810803299244
 20
910.806706679017
 30
0.0
 11
767.7810803299371
 21
910.806706679017
 31
0.0
  0
LINE
  5
22D
330
C1
100
AcDbEntity
  8
0
  6
CONTINUOUS
 62
     7
100
AcDbLine
 10
767.7810803299371
 20
910.806706679017
 30
0.0
 11
767.7810803299371
 21
904.8067066790169
 31
0.0
  0
LINE
  5
22E
330
C1
100
AcDbEntity
  8
0
  6
CONTINUOUS
 62
     7
100
AcDbLine
 10
765.7810803299244
 20
910.806706679017
 30
0.0
 11
765.7810803299244
 21
904.8067066790169
 31
0.0
  0
LINE
  5
22F
330
C1
100
AcDbEntity
  8
0
  6
CONTINUOUS
 62
     7
100
AcDbLine
 10
773.2810803299244
 20
912.8067066790178
 30
0.0
 11
767.7810803299244
 21
912.8067066790178
 31
0.0
  0
ARC
  5
230
330
C1
100
AcDbEntity
  8
0
  6
CONTINUOUS
 62
     7
100
AcDbCircle
 10
767.7810803299244
 20
910.806706679017
 30
0.0
 40
2.0
100
AcDbArc
 50
90.00000000000001
 51
180.0
  0
ENDBLK
  5
C3
330
C1
100
AcDbEntity
  8
0
100
AcDbBlockEnd
  0
BLOCK
  5
C5
330
C4
100
AcDbEntity
  8
0
100
AcDbBlockBegin
  2
SYM-12
 70
     0
 10
0.0
 20
0.0
 30
0.0
  3
SYM-12
  1

  0
ARC
  5
231
330
C4
100
AcDbEntity
  8
0
  6
CONTINUOUS
 62
     7
100
AcDbCircle
 10
965.7810803299571
 20
904.8067066790169
 30
0.0
 40
2.0
100
AcDbArc
 50
270.0000000000002
 51
0.0
  0
ARC
  5
232
330
C4
100
AcDbEntity
  8
0
  6
CONTINUOUS
 62
     7
100
AcDbCircle
 10
940.7810803299244
 20
904.8067066790169
 30
0.0
 40
2.0
100
AcDbArc
 50
180.0
 51
270.0000000000002
  0
LINE
  5
233
330
C4
100
AcDbEntity
  8
0
  6
CONTINUOUS
 62
     7
100
AcDbLine
 10
965.7810803299426
 20
904.8067066790169
 30
0.0
 11
940.7810803299426
 21
904.8067066790169
 31
0.0
  0
LINE
  5
234
330
C4
100
AcDbEntity
  8
0
  6
CONTINUOUS
 62
     7
100
AcDbLine
 10
973.2810803299426
 20
912.8067066790169
 30
0.0
 11
973.2810803299426
 21
910.806706679017
 31
0.0
  0
LINE
  5
235
330
C4
100
AcDbEntity
  8
0
  6
CONTINUOUS
 62
     7
100
AcDbLine
 10
973.2810803299426
 20
910.806706679017
 30
0.0
 11
967.7810803299571
 21
910.806706679017
 31
0.0
  0
LINE
  5
236
330
C4
100
AcDbEntity
  8
0
  6
CONTINUOUS
 62
     7
100
AcDbLine
 10
967.7810803299571
 20
910.806706679017
 30
0.0
 11
967.7810803299571
 21
904.8067066790169
 31
0.0
  0
LINE
  5
237
330
C4
100
AcDbEntity
  8
0
  6
CONTINUOUS
 62
     7
100
AcDbLine
 10
965.7810803299426
 20
910.806706679017
 30
0.0
 11
965.7810803299426
 21
904.8067066790169
 31
0.0
  0
LINE
  5
238
330
C4
100
AcDbEntity
  8
0
  6
CONTINUOUS
 62
     7
100
AcDbLine
 10
973.2810803299426
 20
912.8067066790169
 30
0.0
 11
967.7810803299426
 21
912.8067066790169
 31
0.0
  0
ARC
  5
239
330
C4
100
AcDbEntity
  8
0
  6
CONTINUOUS
 62
     7
100
AcDbCircle
 10
967.7810803299426
 20
910.806706679017
 30
0.0
 40
2.0
100
AcDbArc
 50
90.00000000000001
 51
180.0
  0
LINE
  5
23A
330
C4
100
AcDbEntity
  8
0
  6
CONTINUOUS
 62
     7
100
AcDbLine
 10
933.281080329939
 20
912.8067066790169
 30
0.0
 11
933.281080329939
 21
910.806706679017
 31
0.0
  0
LINE
  5
23B
330
C4
100
AcDbEntity
  8
0
  6
CONTINUOUS
 62
     7
100
AcDbLine
 10
933.281080329939
 20
910.806706679017
 30
0.0
 11
938.7810803299244
 21
910.806706679017
 31
0.0
  0
LINE
  5
23C
330
C4
100
AcDbEntity
  8
0
  6
CONTINUOUS
 62
     7
100
AcDbLine
 10
938.7810803299244
 20
910.806706679017
 30
0.0
 11
938.7810803299244
 21
904.8067066790169
 31
0.0
  0
LINE
  5
23D
330
C4
100
AcDbEntity
  8
0
  6
CONTINUOUS
 62
     7
100
AcDbLine
 10
940.781080329939
 20
910.806706679017
 30
0.0
 11
940.781080329939
 21
904.8067066790169
 31
0.0
  0
LINE
  5
23E
330
C4
100
AcDbEntity
  8
0
  6
CONTINUOUS
 62
     7
100
AcDbLine
 10
933.281080329939
 20
912.8067066790169
 30
0.0
 11
938.7810803299391
 21
912.8067066790169
 31
0.0
  0
ARC
  5
23F
330
C4
100
AcDbEntity
  8
0
  6
CONTINUOUS
 62
     7
100
AcDbCircle
 10
938.7810803299391
 20
910.806706679017
 30
0.0
 40
2.0
100
AcDbArc
 50
0.0
 51
90.00000000000001
  0
ENDBLK
  5
C6
330
C4
100
AcDbEntity
  8
0
100
AcDbBlockEnd
  0
BLOCK
  5
C8
330
C7
100
AcDbEntity
  8
0
100
AcDbBlockBegin
  2
SYM-13
 70
     0
 10
0.0
 20
0.0
 30
0.0
  3
SYM-13
  1

  0
ARC
  5
240
330
C7
100
AcDbEntity
  8
0
  6
CONTINUOUS
 62
     7
100
AcDbCircle
 10
1156.781080329906
 20
904.8067066790169
 30
0.0
 40
2.0
100
AcDbArc
 50
180.0
 51
270.0000000000002
  0
ARC
  5
241
330
C7
100
AcDbEntity
  8
0
  6
CONTINUOUS
 62
     7
100
AcDbCircle
 10
1181.781080329937
 20
904.8067066790169
 30
0.0
 40
2.0
100
AcDbArc
 50
270.0000000000002
 51
0.0
  0
LINE
  5
242
330
C7
100
AcDbEntity
  8
0
  6
CONTINUOUS
 62
     7
100
AcDbLine
 10
1156.781080329919
 20
904.8067066790169
 30
0.0
 11
1181.781080329919
 21
904.8067066790169
 31
0.0
  0
LINE
  5
243
330
C7
100
AcDbEntity
  8
0
  6
CONTINUOUS
 62
     7
100
AcDbLine
 10
1149.281080329919
 20
912.8067066790178
 30
0.0
 11
1149.281080329919
 21
910.806706679017
 31
0.0
  0
LINE
  5
244
330
C7
100
AcDbEntity
  8
0
  6
CONTINUOUS
 62
     7
100
AcDbLine
 10
1149.281080329919
 20
910.806706679017
 30
0.0
 11
1154.781080329906
 21
910.806706679017
 31
0.0
  0
LINE
  5
245
330
C7
100
AcDbEntity
  8
0
  6
CONTINUOUS
 62
     7
100
AcDbLine
 10
1154.781080329906
 20
910.806706679017
 30
0.0
 11
1154.781080329906
 21
904.8067066790169
 31
0.0
  0
LINE
  5
246
330
C7
100
AcDbEntity
  8
0
  6
CONTINUOUS
 62
     7
100
AcDbLine
 10
1156.781080329919
 20
910.806706679017
 30
0.0
 11
1156.781080329919
 21
904.8067066790169
 31
0.0
  0
LINE
  5
247
330
C7
100
AcDbEntity
  8
0
  6
CONTINUOUS
 62
     7
100
AcDbLine
 10
1149.281080329919
 20
912.8067066790178
 30
0.0
 11
1154.781080329919
 21
912.8067066790178
 31
0.0
  0
ARC
  5
248
330
C7
100
AcDbEntity
  8
0
  6
CONTINUOUS
 62
     7
100
AcDbCircle
 10
1154.781080329919
 20
910.806706679017
 30
0.0
 40
2.0
100
AcDbArc
 50
0.0
 51
90.00000000000001
  0
LINE
  5
249
330
C7
100
AcDbEntity
  8
0
  6
CONTINUOUS
 62
     7
100
AcDbLine
 10
1189.281080329924
 20
912.8067066790178
 30
0.0
 11
1189.281080329924
 21
910.806706679017
 31
0.0
  0
LINE
  5
24A
330
C7
100
AcDbEntity
  8
0
  6
CONTINUOUS
 62
     7
100
AcDbLine
 10
1189.281080329924
 20
910.806706679017
 30
0.0
 11
1183.781080329937
 21
910.806706679017
 31
0.0
  0
LINE
  5
24B
330
C7
100
AcDbEntity
  8
0
  6
CONTINUOUS
 62
     7
100
AcDbLine
 10
1183.781080329937
 20
910.806706679017
 30
0.0
 11
1183.781080329937
 21
904.8067066790169
 31
0.0
  0
LINE
  5
24C
330
C7
100
AcDbEntity
  8
0
  6
CONTINUOUS
 62
     7
100
AcDbLine
 10
1181.781080329924
 20
910.806706679017
 30
0.0
 11
1181.781080329924
 21
904.8067066790169
 31
0.0
  0
LINE
  5
24D
330
C7
100
AcDbEntity
  8
0
  6
CONTINUOUS
 62
     7
100
AcDbLine
 10
1189.281080329924
 20
912.8067066790178
 30
0.0
 11
1183.781080329924
 21
912.8067066790178
 31
0.0
  0
ARC
  5
24E
330
C7
100
AcDbEntity
  8
0
  6
CONTINUOUS
 62
     7
100
AcDbCircle
 10
1183.781080329924
 20
910.806706679017
 30
0.0
 40
2.0
100
AcDbArc
 50
90.00000000000001
 51
180.0
  0
ENDBLK
  5
C9
330
C7
100
AcDbEntity
  8
0
100
AcDbBlockEnd
  0
BLOCK
  5
CB
330
CA
100
AcDbEntity
  8
0
100
AcDbBlockBegin
  2
SYM-14
 70
     0
 10
0.0
 20
0.0
 30
0.0
  3
SYM-14
  1

  0
ARC
  5
24F
330
CA
100
AcDbEntity
  8
0
  6
CONTINUOUS
 62
     7
100
AcDbCircle
 10
1381.781080329957
 20
904.8067066790169
 30
0.0
 40
2.0
100
AcDbArc
 50
270.0000000000002
 51
0.0
  0
ARC
  5
250
330
CA
100
AcDbEntity
  8
0
  6
CONTINUOUS
 62
     7
100
AcDbCircle
 10
1356.781080329924
 20
904.8067066790169
 30
0.0
 40
2.0
100
AcDbArc
 50
180.0
 51
270.0000000000002
  0
LINE
  5
251
330
CA
100
AcDbEntity
  8
0
  6
CONTINUOUS
 62
     7
100
AcDbLine
 10
1381.781080329943
 20
904.8067066790169
 30
0.0
 11
1356.781080329943
 21
904.8067066790169
 31
0.0
  0
LINE
  5
252
330
CA
100
AcDbEntity
  8
0
  6
CONTINUOUS
 62
     7
100
AcDbLine
 10
1389.281080329943
 20
912.8067066790169
 30
0.0
 11
1389.281080329943
 21
910.806706679017
 31
0.0
  0
LINE
  5
253
330
CA
100
AcDbEntity
  8
0
  6
CONTINUOUS
 62
     7
100
AcDbLine
 10
1389.281080329943
 20
910.806706679017
 30
0.0
 11
1383.781080329957
 21
910.806706679017
 31
0.0
  0
LINE
  5
254
330
CA
100
AcDbEntity
  8
0
  6
CONTINUOUS
 62
     7
100
AcDbLine
 10
1383.781080329957
 20
910.806706679017
 30
0.0
 11
1383.781080329957
 21
904.8067066790169
 31
0.0
  0
LINE
  5
255
330
CA
100
AcDbEntity
  8
0
  6
CONTINUOUS
 62
     7
100
AcDbLine
 10
1381.781080329943
 20
910.806706679017
 30
0.0
 11
1381.781080329943
 21
904.8067066790169
 31
0.0
  0
LINE
  5
256
330
CA
100
AcDbEntity
  8
0
  6
CONTINUOUS
 62
     7
100
AcDbLine
 10
1389.281080329943
 20
912.8067066790169
 30
0.0
 11
1383.781080329943
 21
912.8067066790169
 31
0.0
  0
ARC
  5
257
330
CA
100
AcDbEntity
  8
0
  6
CONTINUOUS
 62
     7
100
AcDbCircle
 10
1383.781080329943
 20
910.806706679017
 30
0.0
 40
2.0
100
AcDbArc
 50
90.00000000000001
 51
180.0
  0
LINE
  5
258
330
CA
100
AcDbEntity
  8
0
  6
CONTINUOUS
 62
     7
100
AcDbLine
 10
1349.281080329939
 20
912.8067066790169
 30
0.0
 11
1349.281080329939
 21
910.806706679017
 31
0.0
  0
LINE
  5
259
330
CA
100
AcDbEntity
  8
0
  6
CONTINUOUS
 62
     7
100
AcDbLine
 10
1349.281080329939
 20
910.806706679017
 30
0.0
 11
1354.781080329924
 21
910.806706679017
 31
0.0
  0
LINE
  5
25A
330
CA
100
AcDbEntity
  8
0
  6
CONTINUOUS
 62
     7
100
AcDbLine
 10
1354.781080329924
 20
910.806706679017
 30
0.0
 11
1354.781080329924
 21
904.8067066790169
 31
0.0
  0
LINE
  5
25B
330
CA
100
AcDbEntity
  8
0
  6
CONTINUOUS
 62
     7
100
AcDbLine
 10
1356.781080329939
 20
910.806706679017
 30
0.0
 11
1356.781080329939
 21
904.8067066790169
 31
0.0
  0
LINE
  5
25C
330
CA
100
AcDbEntity
  8
0
  6
CONTINUOUS
 62
     7
100
AcDbLine
 10
1349.281080329939
 20
912.8067066790169
 30
0.0
 11
1354.781080329939
 21
912.8067066790169
 31
0.0
  0
ARC
  5
25D
330
CA
100
AcDbEntity
  8
0
  6
CONTINUOUS
 62
     7
100
AcDbCircle
 10
1354.781080329939
 20
910.806706679017
 30
0.0
 40
2.0
100
AcDbArc
 50
0.0
 51
90.00000000000001
  0
ENDBLK
  5
CC
330
CA
100
AcDbEntity
  8
0
100
AcDbBlockEnd
  0
BLOCK
  5
CE
330
CD
100
AcDbEntity
  8
0
100
AcDbBlockBegin
  2
SYM-15
 70
     0
 10
0.0
 20
0.0
 30
0.0
  3
SYM-15
  1

  0
ARC
  5
25E
330
CD
100
AcDbEntity
  8
0
  6
CONTINUOUS
 62
     7
100
AcDbCircle
 10
1572.781080329906
 20
904.8067066790169
 30
0.0
 40
2.0
100
AcDbArc
 50
180.0
 51
270.0000000000002
  0
ARC
  5
25F
330
CD
100
AcDbEntity
  8
0
  6
CONTINUOUS
 62
     7
100
AcDbCircle
 10
1597.781080329937
 20
904.8067066790169
 30
0.0
 40
2.0
100
AcDbArc
 50
270.0000000000002
 51
0.0
  0
LINE
  5
260
330
CD
100
AcDbEntity
  8
0
  6
CONTINUOUS
 62
     7
100
AcDbLine
 10
1572.781080329919
 20
904.8067066790169
 30
0.0
 11
1597.781080329919
 21
904.8067066790169
 31
0.0
  0
LINE
  5
261
330
CD
100
AcDbEntity
  8
0
  6
CONTINUOUS
 62
     7
100
AcDbLine
 10
1565.281080329919
 20
912.8067066790178
 30
0.0
 11
1565.281080329919
 21
910.806706679017
 31
0.0
  0
LINE
  5
262
330
CD
100
AcDbEntity
  8
0
  6
CONTINUOUS
 62
     7
100
AcDbLine
 10
1565.281080329919
 20
910.806706679017
 30
0.0
 11
1570.781080329906
 21
910.806706679017
 31
0.0
  0
LINE
  5
263
330
CD
100
AcDbEntity
  8
0
  6
CONTINUOUS
 62
     7
100
AcDbLine
 10
1570.781080329906
 20
910.806706679017
 30
0.0
 11
1570.781080329906
 21
904.8067066790169
 31
0.0
  0
LINE
  5
264
330
CD
100
AcDbEntity
  8
0
  6
CONTINUOUS
 62
     7
100
AcDbLine
 10
1572.781080329919
 20
910.806706679017
 30
0.0
 11
1572.781080329919
 21
904.8067066790169
 31
0.0
  0
LINE
  5
265
330
CD
100
AcDbEntity
  8
0
  6
CONTINUOUS
 62
     7
100
AcDbLine
 10
1565.281080329919
 20
912.8067066790178
 30
0.0
 11
1570.781080329919
 21
912.8067066790178
 31
0.0
  0
ARC
  5
266
330
CD
100
AcDbEntity
  8
0
  6
CONTINUOUS
 62
     7
100
AcDbCircle
 10
1570.781080329919
 20
910.806706679017
 30
0.0
 40
2.0
100
AcDbArc
 50
0.0
 51
90.00000000000001
  0
LINE
  5
267
330
CD
100
AcDbEntity
  8
0
  6
CONTINUOUS
 62
     7
100
AcDbLine
 10
1605.281080329925
 20
912.8067066790178
 30
0.0
 11
1605.281080329925
 21
910.806706679017
 31
0.0
  0
LINE
  5
268
330
CD
100
AcDbEntity
  8
0
  6
CONTINUOUS
 62
     7
100
AcDbLine
 10
1605.281080329925
 20
910.806706679017
 30
0.0
 11
1599.781080329937
 21
910.806706679017
 31
0.0
  0
LINE
  5
269
330
CD
100
AcDbEntity
  8
0
  6
CONTINUOUS
 62
     7
100
AcDbLine
 10
1599.781080329937
 20
910.806706679017
 30
0.0
 11
1599.781080329937
 21
904.8067066790169
 31
0.0
  0
LINE
  5
26A
330
CD
100
AcDbEntity
  8
0
  6
CONTINUOUS
 62
     7
100
AcDbLine
 10
1597.781080329925
 20
910.806706679017
 30
0.0
 11
1597.781080329925
 21
904.8067066790169
 31
0.0
  0
LINE
  5
26B
330
CD
100
AcDbEntity
  8
0
  6
CONTINUOUS
 62
     7
100
AcDbLine
 10
1605.281080329925
 20
912.8067066790178
 30
0.0
 11
1599.781080329924
 21
912.8067066790178
 31
0.0
  0
ARC
  5
26C
330
CD
100
AcDbEntity
  8
0
  6
CONTINUOUS
 62
     7
100
AcDbCircle
 10
1599.781080329924
 20
910.806706679017
 30
0.0
 40
2.0
100
AcDbArc
 50
90.00000000000001
 51
180.0
  0
ENDBLK
  5
CF
330
CD
100
AcDbEntity
  8
0
100
AcDbBlockEnd
  0
BLOCK
  5
D1
330
D0
100
AcDbEntity
  8
0
100
AcDbBlockBegin
  2
SYM-16
 70
     0
 10
0.0
 20
0.0
 30
0.0
  3
SYM-16
  1

  0
ARC
  5
26D
330
D0
100
AcDbEntity
  8
0
  6
CONTINUOUS
 62
     7
100
AcDbCircle
 10
1797.781080329957
 20
904.8067066790169
 30
0.0
 40
2.0
100
AcDbArc
 50
270.0000000000002
 51
0.0
  0
ARC
  5
26E
330
D0
100
AcDbEntity
  8
0
  6
CONTINUOUS
 62
     7
100
AcDbCircle
 10
1772.781080329925
 20
904.8067066790169
 30
0.0
 40
2.0
100
AcDbArc
 50
180.0
 51
270.0000000000002
  0
LINE
  5
26F
330
D0
100
AcDbEntity
  8
0
  6
CONTINUOUS
 62
     7
100
AcDbLine
 10
1797.781080329943
 20
904.8067066790169
 30
0.0
 11
1772.781080329943
 21
904.8067066790169
 31
0.0
  0
LINE
  5
270
330
D0
100
AcDbEntity
  8
0
  6
CONTINUOUS
 62
     7
100
AcDbLine
 10
1805.281080329943
 20
912.8067066790169
 30
0.0
 11
1805.281080329943
 21
910.806706679017
 31
0.0
  0
LINE
  5
271
330
D0
100
AcDbEntity
  8
0
  6
CONTINUOUS
 62
     7
100
AcDbLine
 10
1805.281080329943
 20
910.806706679017
 30
0.0
 11
1799.781080329957
 21
910.806706679017
 31
0.0
  0
LINE
  5
272
330
D0
100
AcDbEntity
  8
0
  6
CONTINUOUS
 62
     7
100
AcDbLine
 10
1799.781080329957
 20
910.806706679017
 30
0.0
 11
1799.781080329957
 21
904.8067066790169
 31
0.0
  0
LINE
  5
273
330
D0
100
AcDbEntity
  8
0
  6
CONTINUOUS
 62
     7
100
AcDbLine
 10
1797.781080329943
 20
910.806706679017
 30
0.0
 11
1797.781080329943
 21
904.8067066790169
 31
0.0
  0
LINE
  5
274
330
D0
100
AcDbEntity
  8
0
  6
CONTINUOUS
 62
     7
100
AcDbLine
 10
1805.281080329943
 20
912.8067066790169
 30
0.0
 11
1799.781080329943
 21
912.8067066790169
 31
0.0
  0
ARC
  5
275
330
D0
100
AcDbEntity
  8
0
  6
CONTINUOUS
 62
     7
100
AcDbCircle
 10
1799.781080329943
 20
910.806706679017
 30
0.0
 40
2.0
100
AcDbArc
 50
90.00000000000001
 51
180.0
  0
LINE
  5
276
330
D0
100
AcDbEntity
  8
0
  6
CONTINUOUS
 62
     7
100
AcDbLine
 10
1765.281080329939
 20
912.8067066790169
 30
0.0
 11
1765.281080329939
 21
910.806706679017
 31
0.0
  0
LINE
  5
277
330
D0
100
AcDbEntity
  8
0
  6
CONTINUOUS
 62
     7
100
AcDbLine
 10
1765.281080329939
 20
910.806706679017
 30
0.0
 11
1770.781080329924
 21
910.806706679017
 31
0.0
  0
LINE
  5
278
330
D0
100
AcDbEntity
  8
0
  6
CONTINUOUS
 62
     7
100
AcDbLine
 10
1770.781080329924
 20
910.806706679017
 30
0.0
 11
1770.781080329924
 21
904.8067066790169
 31
0.0
  0
LINE
  5
279
330
D0
100
AcDbEntity
  8
0
  6
CONTINUOUS
 62
     7
100
AcDbLine
 10
1772.781080329939
 20
910.806706679017
 30
0.0
 11
1772.781080329939
 21
904.8067066790169
 31
0.0
  0
LINE
  5
27A
330
D0
100
AcDbEntity
  8
0
  6
CONTINUOUS
 62
     7
100
AcDbLine
 10
1765.281080329939
 20
912.8067066790169
 30
0.0
 11
1770.781080329939
 21
912.8067066790169
 31
0.0
  0
ARC
  5
27B
330
D0
100
AcDbEntity
  8
0
  6
CONTINUOUS
 62
     7
100
AcDbCircle
 10
1770.781080329939
 20
910.806706679017
 30
0.0
 40
2.0
100
AcDbArc
 50
0.0
 51
90.00000000000001
  0
ENDBLK
  5
D2
330
D0
100
AcDbEntity
  8
0
100
AcDbBlockEnd
  0
BLOCK
  5
D4
330
D3
100
AcDbEntity
  8
0
100
AcDbBlockBegin
  2
SYM-17
 70
     0
 10
0.0
 20
0.0
 30
0.0
  3
SYM-17
  1

  0
ARC
  5
27C
330
D3
100
AcDbEntity
  8
0
  6
CONTINUOUS
 62
     7
100
AcDbCircle
 10
1988.781080329907
 20
904.8067066790169
 30
0.0
 40
2.0
100
AcDbArc
 50
180.0
 51
270.0000000000002
  0
ARC
  5
27D
330
D3
100
AcDbEntity
  8
0
  6
CONTINUOUS
 62
     7
100
AcDbCircle
 10
2013.781080329939
 20
904.8067066790169
 30
0.0
 40
2.0
100
AcDbArc
 50
270.0000000000002
 51
0.0
  0
LINE
  5
27E
330
D3
100
AcDbEntity
  8
0
  6
CONTINUOUS
 62
     7
100
AcDbLine
 10
1988.78108032992
 20
904.8067066790169
 30
0.0
 11
2013.78108032992
 21
904.8067066790169
 31
0.0
  0
LINE
  5
27F
330
D3
100
AcDbEntity
  8
0
  6
CONTINUOUS
 62
     7
100
AcDbLine
 10
1981.28108032992
 20
912.8067066790178
 30
0.0
 11
1981.28108032992
 21
910.806706679017
 31
0.0
  0
LINE
  5
280
330
D3
100
AcDbEntity
  8
0
  6
CONTINUOUS
 62
     7
100
AcDbLine
 10
1981.28108032992
 20
910.806706679017
 30
0.0
 11
1986.781080329907
 21
910.806706679017
 31
0.0
  0
LINE
  5
281
330
D3
100
AcDbEntity
  8
0
  6
CONTINUOUS
 62
     7
100
AcDbLine
 10
1986.781080329907
 20
910.806706679017
 30
0.0
 11
1986.781080329907
 21
904.8067066790169
 31
0.0
  0
LINE
  5
282
330
D3
100
AcDbEntity
  8
0
  6
CONTINUOUS
 62
     7
100
AcDbLine
 10
1988.78108032992
 20
910.806706679017
 30
0.0
 11
1988.78108032992
 21
904.8067066790169
 31
0.0
  0
LINE
  5
283
330
D3
100
AcDbEntity
  8
0
  6
CONTINUOUS
 62
     7
100
AcDbLine
 10
1981.28108032992
 20
912.8067066790178
 30
0.0
 11
1986.78108032992
 21
912.8067066790178
 31
0.0
  0
ARC
  5
284
330
D3
100
AcDbEntity
  8
0
  6
CONTINUOUS
 62
     7
100
AcDbCircle
 10
1986.78108032992
 20
910.806706679017
 30
0.0
 40
2.0
100
AcDbArc
 50
0.0
 51
90.00000000000001
  0
LINE
  5
285
330
D3
100
AcDbEntity
  8
0
  6
CONTINUOUS
 62
     7
100
AcDbLine
 10
2021.281080329926
 20
912.8067066790178
 30
0.0
 11
2021.281080329926
 21
910.806706679017
 31
0.0
  0
LINE
  5
286
330
D3
100
AcDbEntity
  8
0
  6
CONTINUOUS
 62
     7
100
AcDbLine
 10
2021.281080329926
 20
910.806706679017
 30
0.0
 11
2015.781080329938
 21
910.806706679017
 31
0.0
  0
LINE
  5
287
330
D3
100
AcDbEntity
  8
0
  6
CONTINUOUS
 62
     7
100
AcDbLine
 10
2015.781080329938
 20
910.806706679017
 30
0.0
 11
2015.781080329938
 21
904.8067066790169
 31
0.0
  0
LINE
  5
288
330
D3
100
AcDbEntity
  8
0
  6
CONTINUOUS
 62
     7
100
AcDbLine
 10
2013.781080329926
 20
910.806706679017
 30
0.0
 11
2013.781080329926
 21
904.8067066790169
 31
0.0
  0
LINE
  5
289
330
D3
100
AcDbEntity
  8
0
  6
CONTINUOUS
 62
     7
100
AcDbLine
 10
2021.281080329926
 20
912.8067066790178
 30
0.0
 11
2015.781080329926
 21
912.8067066790178
 31
0.0
  0
ARC
  5
28A
330
D3
100
AcDbEntity
  8
0
  6
CONTINUOUS
 62
     7
100
AcDbCircle
 10
2015.781080329926
 20
910.806706679017
 30
0.0
 40
2.0
100
AcDbArc
 50
90.00000000000001
 51
180.0
  0
ENDBLK
  5
D5
330
D3
100
AcDbEntity
  8
0
100
AcDbBlockEnd
  0
BLOCK
  5
D7
330
D6
100
AcDbEntity
  8
0
100
AcDbBlockBegin
  2
SYM-18
 70
     0
 10
0.0
 20
0.0
 30
0.0
  3
SYM-18
  1

  0
ARC
  5
28B
330
D6
100
AcDbEntity
  8
0
  6
CONTINUOUS
 62
     7
100
AcDbCircle
 10
2213.781080329958
 20
904.8067066790169
 30
0.0
 40
2.0
100
AcDbArc
 50
270.0000000000002
 51
0.0
  0
ARC
  5
28C
330
D6
100
AcDbEntity
  8
0
  6
CONTINUOUS
 62
     7
100
AcDbCircle
 10
2188.781080329925
 20
904.8067066790169
 30
0.0
 40
2.0
100
AcDbArc
 50
180.0
 51
270.0000000000002
  0
LINE
  5
28D
330
D6
100
AcDbEntity
  8
0
  6
CONTINUOUS
 62
     7
100
AcDbLine
 10
2213.781080329944
 20
904.8067066790169
 30
0.0
 11
2188.781080329944
 21
904.8067066790169
 31
0.0
  0
LINE
  5
28E
330
D6
100
AcDbEntity
  8
0
  6
CONTINUOUS
 62
     7
100
AcDbLine
 10
2221.281080329944
 20
912.8067066790169
 30
0.0
 11
2221.281080329944
 21
910.806706679017
 31
0.0
  0
LINE
  5
28F
330
D6
100
AcDbEntity
  8
0
  6
CONTINUOUS
 62
     7
100
AcDbLine
 10
2221.281080329944
 20
910.806706679017
 30
0.0
 11
2215.781080329958
 21
910.806706679017
 31
0.0
  0
LINE
  5
290
330
D6
100
AcDbEntity
  8
0
  6
CONTINUOUS
 62
     7
100
AcDbLine
 10
2215.781080329958
 20
910.806706679017
 30
0.0
 11
2215.781080329958
 21
904.8067066790169
 31
0.0
  0
LINE
  5
291
330
D6
100
AcDbEntity
  8
0
  6
CONTINUOUS
 62
     7
100
AcDbLine
 10
2213.781080329944
 20
910.806706679017
 30
0.0
 11
2213.781080329944
 21
904.8067066790169
 31
0.0
  0
LINE
  5
292
330
D6
100
AcDbEntity
  8
0
  6
CONTINUOUS
 62
     7
100
AcDbLine
 10
2221.281080329944
 20
912.8067066790169
 30
0.0
 11
2215.781080329944
 21
912.8067066790169
 31
0.0
  0
ARC
  5
293
330
D6
100
AcDbEntity
  8
0
  6
CONTINUOUS
 62
     7
100
AcDbCircle
 10
2215.781080329944
 20
910.806706679017
 30
0.0
 40
2.0
100
AcDbArc
 50
90.00000000000001
 51
180.0
  0
LINE
  5
294
330
D6
100
AcDbEntity
  8
0
  6
CONTINUOUS
 62
     7
100
AcDbLine
 10
2181.28108032994
 20
912.8067066790169
 30
0.0
 11
2181.28108032994
 21
910.806706679017
 31
0.0
  0
LINE
  5
295
330
D6
100
AcDbEntity
  8
0
  6
CONTINUOUS
 62
     7
100
AcDbLine
 10
2181.28108032994
 20
910.806706679017
 30
0.0
 11
2186.781080329925
 21
910.806706679017
 31
0.0
  0
LINE
  5
296
330
D6
100
AcDbEntity
  8
0
  6
CONTINUOUS
 62
     7
100
AcDbLine
 10
2186.781080329925
 20
910.806706679017
 30
0.0
 11
2186.781080329925
 21
904.8067066790169
 31
0.0
  0
LINE
  5
297
330
D6
100
AcDbEntity
  8
0
  6
CONTINUOUS
 62
     7
100
AcDbLine
 10
2188.78108032994
 20
910.806706679017
 30
0.0
 11
2188.78108032994
 21
904.8067066790169
 31
0.0
  0
LINE
  5
298
330
D6
100
AcDbEntity
  8
0
  6
CONTINUOUS
 62
     7
100
AcDbLine
 10
2181.28108032994
 20
912.8067066790169
 30
0.0
 11
2186.78108032994
 21
912.8067066790169
 31
0.0
  0
ARC
  5
299
330
D6
100
AcDbEntity
  8
0
  6
CONTINUOUS
 62
     7
100
AcDbCircle
 10
2186.78108032994
 20
910.806706679017
 30
0.0
 40
2.0
100
AcDbArc
 50
0.0
 51
90.00000000000001
  0
ENDBLK
  5
D8
330
D6
100
AcDbEntity
  8
0
100
AcDbBlockEnd
  0
BLOCK
  5
DA
330
D9
100
AcDbEntity
  8
0
100
AcDbBlockBegin
  2
SYM-19
 70
     0
 10
0.0
 20
0.0
 30
0.0
  3
SYM-19
  1

  0
CIRCLE
  5
29A
330
D9
100
AcDbEntity
  8
0
  6
CONTINUOUS
 62
     7
100
AcDbCircle
 10
2294.281080329926
 20
2413.806706678933
 30
0.0
 40
10.50000000000041
  0
CIRCLE
  5
29B
330
D9
100
AcDbEntity
  8
0
  6
CONTINUOUS
 62
     7
100
AcDbCircle
 10
2294.281080329926
 20
2413.806706678933
 30
0.0
 40
8.66025403784441
  0
LINE
  5
29C
330
D9
100
AcDbEntity
  8
0
  6
CONTINUOUS
 62
     7
100
AcDbLine
 10
2285.620826292082
 20
2418.806706678933
 30
0.0
 11
2285.620826292082
 21
2408.806706678934
 31
0.0
  0
LINE
  5
29D
330
D9
100
AcDbEntity
  8
0
  6
CONTINUOUS
 62
     7
100
AcDbLine
 10
2285.620826292082
 20
2408.806706678934
 30
0.0
 11
2294.281080329926
 21
2403.806706678933
 31
0.0
  0
LINE
  5
29E
330
D9
100
AcDbEntity
  8
0
  6
CONTINUOUS
 62
     7
100
AcDbLine
 10
2294.281080329926
 20
2403.806706678933
 30
0.0
 11
2302.941334367763
 21
2408.806706678934
 31
0.0
  0
LINE
  5
29F
330
D9
100
AcDbEntity
  8
0
  6
CONTINUOUS
 62
     7
100
AcDbLine
 10
2302.941334367763
 20
2418.806706678933
 30
0.0
 11
2294.281080329926
 21
2423.806706678934
 31
0.0
  0
LINE
  5
2A0
330
D9
100
AcDbEntity
  8
0
  6
CONTINUOUS
 62
     7
100
AcDbLine
 10
2294.281080329926
 20
2423.806706678934
 30
0.0
 11
2285.620826292082
 21
2418.806706678933
 31
0.0
  0
CIRCLE
  5
2A1
330
D9
100
AcDbEntity
  8
0
  6
CONTINUOUS
 62
     7
100
AcDbCircle
 10
2294.281080329926
 20
2413.806706678933
 30
0.0
 40
5.0
  0
CIRCLE
  5
2A2
330
D9
100
AcDbEntity
  8
0
  6
CONTINUOUS
 62
     7
100
AcDbCircle
 10
2294.281080329926
 20
2413.806706678933
 30
0.0
 40
4.0
  0
LINE
  5
2A3
330
D9
100
AcDbEntity
  8
0
  6
CONTINUOUS
 62
     7
100
AcDbLine
 10
2302.941334367763
 20
2408.806706678934
 30
0.0
 11
2302.941334367763
 21
2418.806706678933
 31
0.0
  0
ENDBLK
  5
DB
330
D9
100
AcDbEntity
  8
0
100
AcDbBlockEnd
  0
BLOCK
  5
DD
330
DC
100
AcDbEntity
  8
0
100
AcDbBlockBegin
  2
SYM-20
 70
     0
 10
0.0
 20
0.0
 30
0.0
  3
SYM-20
  1

  0
CIRCLE
  5
2A4
330
DC
100
AcDbEntity
  8
0
  6
CONTINUOUS
 62
     7
100
AcDbCircle
 10
2294.281080329926
 20
1363.806706678952
 30
0.0
 40
10.50000000000041
  0
CIRCLE
  5
2A5
330
DC
100
AcDbEntity
  8
0
  6
CONTINUOUS
 62
     7
100
AcDbCircle
 10
2294.281080329926
 20
1363.806706678952
 30
0.0
 40
8.66025403784441
  0
LINE
  5
2A6
330
DC
100
AcDbEntity
  8
0
  6
CONTINUOUS
 62
     7
100
AcDbLine
 10
2285.620826292082
 20
1368.806706678952
 30
0.0
 11
2285.620826292082
 21
1358.806706678953
 31
0.0
  0
LINE
  5
2A7
330
DC
100
AcDbEntity
  8
0
  6
CONTINUOUS
 62
     7
100
AcDbLine
 10
2285.620826292082
 20
1358.806706678953
 30
0.0
 11
2294.281080329926
 21
1353.806706678952
 31
0.0
  0
LINE
  5
2A8
330
DC
100
AcDbEntity
  8
0
  6
CONTINUOUS
 62
     7
100
AcDbLine
 10
2294.281080329926
 20
1353.806706678952
 30
0.0
 11
2302.941334367763
 21
1358.806706678953
 31
0.0
  0
LINE
  5
2A9
330
DC
100
AcDbEntity
  8
0
  6
CONTINUOUS
 62
     7
100
AcDbLine
 10
2302.941334367763
 20
1368.806706678952
 30
0.0
 11
2294.281080329926
 21
1373.806706678953
 31
0.0
  0
LINE
  5
2AA
330
DC
100
AcDbEntity
  8
0
  6
CONTINUOUS
 62
     7
100
AcDbLine
 10
2294.281080329926
 20
1373.806706678953
 30
0.0
 11
2285.620826292082
 21
1368.806706678952
 31
0.0
  0
CIRCLE
  5
2AB
330
DC
100
AcDbEntity
  8
0
  6
CONTINUOUS
 62
     7
100
AcDbCircle
 10
2294.281080329926
 20
1363.806706678952
 30
0.0
 40
5.0
  0
CIRCLE
  5
2AC
330
DC
100
AcDbEntity
  8
0
  6
CONTINUOUS
 62
     7
100
AcDbCircle
 10
2294.281080329926
 20
1363.806706678952
 30
0.0
 40
4.0
  0
LINE
  5
2AD
330
DC
100
AcDbEntity
  8
0
  6
CONTINUOUS
 62
     7
100
AcDbLine
 10
2302.941334367763
 20
1358.806706678953
 30
0.0
 11
2302.941334367763
 21
1368.806706678952
 31
0.0
  0
ENDBLK
  5
DE
330
DC
100
AcDbEntity
  8
0
100
AcDbBlockEnd
  0
BLOCK
  5
E0
330
DF
100
AcDbEntity
  8
0
100
AcDbBlockBegin
  2
SYM-21
 70
     0
 10
0.0
 20
0.0
 30
0.0
  3
SYM-21
  1

  0
CIRCLE
  5
2AE
330
DF
100
AcDbEntity
  8
0
  6
CONTINUOUS
 62
     7
100
AcDbCircle
 10
1781.781080329926
 20
2413.806706678933
 30
0.0
 40
10.50000000000041
  0
CIRCLE
  5
2AF
330
DF
100
AcDbEntity
  8
0
  6
CONTINUOUS
 62
     7
100
AcDbCircle
 10
1781.781080329926
 20
2413.806706678933
 30
0.0
 40
8.66025403784441
  0
LINE
  5
2B0
330
DF
100
AcDbEntity
  8
0
  6
CONTINUOUS
 62
     7
100
AcDbLine
 10
1773.120826292081
 20
2418.806706678933
 30
0.0
 11
1773.120826292081
 21
2408.806706678934
 31
0.0
  0
LINE
  5
2B1
330
DF
100
AcDbEntity
  8
0
  6
CONTINUOUS
 62
     7
100
AcDbLine
 10
1773.120826292081
 20
2408.806706678934
 30
0.0
 11
1781.781080329926
 21
2403.806706678933
 31
0.0
  0
LINE
  5
2B2
330
DF
100
AcDbEntity
  8
0
  6
CONTINUOUS
 62
     7
100
AcDbLine
 10
1781.781080329926
 20
2403.806706678933
 30
0.0
 11
1790.441334367766
 21
2408.806706678934
 31
0.0
  0
LINE
  5
2B3
330
DF
100
AcDbEntity
  8
0
  6
CONTINUOUS
 62
     7
100
AcDbLine
 10
1790.441334367766
 20
2418.806706678933
 30
0.0
 11
1781.781080329926
 21
2423.806706678934
 31
0.0
  0
LINE
  5
2B4
330
DF
100
AcDbEntity
  8
0
  6
CONTINUOUS
 62
     7
100
AcDbLine
 10
1781.781080329926
 20
2423.806706678934
 30
0.0
 11
1773.120826292081
 21
2418.806706678933
 31
0.0
  0
CIRCLE
  5
2B5
330
DF
100
AcDbEntity
  8
0
  6
CONTINUOUS
 62
     7
100
AcDbCircle
 10
1781.781080329926
 20
2413.806706678933
 30
0.0
 40
5.0
  0
CIRCLE
  5
2B6
330
DF
100
AcDbEntity
  8
0
  6
CONTINUOUS
 62
     7
100
AcDbCircle
 10
1781.781080329926
 20
2413.806706678933
 30
0.0
 40
4.0
  0
LINE
  5
2B7
330
DF
100
AcDbEntity
  8
0
  6
CONTINUOUS
 62
     7
100
AcDbLine
 10
1790.441334367766
 20
2408.806706678934
 30
0.0
 11
1790.441334367766
 21
2418.806706678933
 31
0.0
  0
ENDBLK
  5
E1
330
DF
100
AcDbEntity
  8
0
100
AcDbBlockEnd
  0
BLOCK
  5
E3
330
E2
100
AcDbEntity
  8
0
100
AcDbBlockBegin
  2
SYM-22
 70
     0
 10
0.0
 20
0.0
 30
0.0
  3
SYM-22
  1

  0
CIRCLE
  5
2B8
330
E2
100
AcDbEntity
  8
0
  6
CONTINUOUS
 62
     7
100
AcDbCircle
 10
1781.781080329926
 20
1363.806706678838
 30
0.0
 40
10.50000000000041
  0
CIRCLE
  5
2B9
330
E2
100
AcDbEntity
  8
0
  6
CONTINUOUS
 62
     7
100
AcDbCircle
 10
1781.781080329926
 20
1363.806706678838
 30
0.0
 40
8.66025403784441
  0
LINE
  5
2BA
330
E2
100
AcDbEntity
  8
0
  6
CONTINUOUS
 62
     7
100
AcDbLine
 10
1773.120826292082
 20
1358.806706678838
 30
0.0
 11
1773.120826292082
 21
1368.806706678837
 31
0.0
  0
LINE
  5
2BB
330
E2
100
AcDbEntity
  8
0
  6
CONTINUOUS
 62
     7
100
AcDbLine
 10
1773.120826292082
 20
1368.806706678837
 30
0.0
 11
1781.781080329926
 21
1373.806706678838
 31
0.0
  0
LINE
  5
2BC
330
E2
100
AcDbEntity
  8
0
  6
CONTINUOUS
 62
     7
100
AcDbLine
 10
1781.781080329926
 20
1373.806706678838
 30
0.0
 11
1790.441334367767
 21
1368.806706678837
 31
0.0
  0
LINE
  5
2BD
330
E2
100
AcDbEntity
  8
0
  6
CONTINUOUS
 62
     7
100
AcDbLine
 10
1790.441334367767
 20
1358.806706678838
 30
0.0
 11
1781.781080329926
 21
1353.806706678837
 31
0.0
  0
LINE
  5
2BE
330
E2
100
AcDbEntity
  8
0
  6
CONTINUOUS
 62
     7
100
AcDbLine
 10
1781.781080329926
 20
1353.806706678837
 30
0.0
 11
1773.120826292082
 21
1358.806706678838
 31
0.0
  0
CIRCLE
  5
2BF
330
E2
100
AcDbEntity
  8
0
  6
CONTINUOUS
 62
     7
100
AcDbCircle
 10
1781.781080329926
 20
1363.806706678838
 30
0.0
 40
5.0
  0
CIRCLE
  5
2C0
330
E2
100
AcDbEntity
  8
0
  6
CONTINUOUS
 62
     7
100
AcDbCircle
 10
1781.781080329926
 20
1363.806706678838
 30
0.0
 40
4.0
  0
LINE
  5
2C1
330
E2
100
AcDbEntity
  8
0
  6
CONTINUOUS
 62
     7
100
AcDbLine
 10
1790.441334367767
 20
1368.806706678837
 30
0.0
 11
1790.441334367767
 21
1358.806706678838
 31
0.0
  0
ENDBLK
  5
E4
330
E2
100
AcDbEntity
  8
0
100
AcDbBlockEnd
  0
BLOCK
  5
E6
330
E5
100
AcDbEntity
  8
0
100
AcDbBlockBegin
  2
SYM-23
 70
     0
 10
0.0
 20
0.0
 30
0.0
  3
SYM-23
  1

  0
CIRCLE
  5
2C2
330
E5
100
AcDbEntity
  8
0
  6
CONTINUOUS
 62
     7
100
AcDbCircle
 10
2294.281080330075
 20
1888.806706678922
 30
0.0
 40
10.50000000000041
  0
CIRCLE
  5
2C3
330
E5
100
AcDbEntity
  8
0
  6
CONTINUOUS
 62
     7
100
AcDbCircle
 10
2294.281080330075
 20
1888.806706678922
 30
0.0
 40
8.66025403784441
  0
LINE
  5
2C4
330
E5
100
AcDbEntity
  8
0
  6
CONTINUOUS
 62
     7
100
AcDbLine
 10
2302.94133436792
 20
1893.806706678922
 30
0.0
 11
2302.94133436792
 21
1883.806706678923
 31
0.0
  0
LINE
  5
2C5
330
E5
100
AcDbEntity
  8
0
  6
CONTINUOUS
 62
     7
100
AcDbLine
 10
2302.94133436792
 20
1883.806706678923
 30
0.0
 11
2294.281080330075
 21
1878.806706678922
 31
0.0
  0
LINE
  5
2C6
330
E5
100
AcDbEntity
  8
0
  6
CONTINUOUS
 62
     7
100
AcDbLine
 10
2294.281080330075
 20
1878.806706678922
 30
0.0
 11
2285.620826292235
 21
1883.806706678923
 31
0.0
  0
LINE
  5
2C7
330
E5
100
AcDbEntity
  8
0
  6
CONTINUOUS
 62
     7
100
AcDbLine
 10
2285.620826292235
 20
1893.806706678922
 30
0.0
 11
2294.281080330075
 21
1898.806706678923
 31
0.0
  0
LINE
  5
2C8
330
E5
100
AcDbEntity
  8
0
  6
CONTINUOUS
 62
     7
100
AcDbLine
 10
2294.281080330075
 20
1898.806706678923
 30
0.0
 11
2302.94133436792
 21
1893.806706678922
 31
0.0
  0
CIRCLE
  5
2C9
330
E5
100
AcDbEntity
  8
0
  6
CONTINUOUS
 62
     7
100
AcDbCircle
 10
2294.281080330075
 20
1888.806706678922
 30
0.0
 40
5.0
  0
CIRCLE
  5
2CA
330
E5
100
AcDbEntity
  8
0
  6
CONTINUOUS
 62
     7
100
AcDbCircle
 10
2294.281080330075
 20
1888.806706678922
 30
0.0
 40
4.0
  0
LINE
  5
2CB
330
E5
100
AcDbEntity
  8
0
  6
CONTINUOUS
 62
     7
100
AcDbLine
 10
2285.620826292235
 20
1883.806706678923
 30
0.0
 11
2285.620826292235
 21
1893.806706678922
 31
0.0
  0
ENDBLK
  5
E7
330
E5
100
AcDbEntity
  8
0
100
AcDbBlockEnd
  0
BLOCK
  5
E9
330
E8
100
AcDbEntity
  8
0
100
AcDbBlockBegin
  2
SYM-24
 70
     0
 10
0.0
 20
0.0
 30
0.0
  3
SYM-24
  1

  0
CIRCLE
  5
2CC
330
E8
100
AcDbEntity
  8
0
  6
CONTINUOUS
 62
     7
100
AcDbCircle
 10
1269.281080329826
 20
1363.806706678838
 30
0.0
 40
10.50000000000041
  0
CIRCLE
  5
2CD
330
E8
100
AcDbEntity
  8
0
  6
CONTINUOUS
 62
     7
100
AcDbCircle
 10
1269.281080329826
 20
1363.806706678838
 30
0.0
 40
8.66025403784441
  0
LINE
  5
2CE
330
E8
100
AcDbEntity
  8
0
  6
CONTINUOUS
 62
     7
100
AcDbLine
 10
1260.620826291982
 20
1358.806706678838
 30
0.0
 11
1260.620826291982
 21
1368.806706678837
 31
0.0
  0
LINE
  5
2CF
330
E8
100
AcDbEntity
  8
0
  6
CONTINUOUS
 62
     7
100
AcDbLine
 10
1260.620826291982
 20
1368.806706678837
 30
0.0
 11
1269.281080329826
 21
1373.806706678838
 31
0.0
  0
LINE
  5
2D0
330
E8
100
AcDbEntity
  8
0
  6
CONTINUOUS
 62
     7
100
AcDbLine
 10
1269.281080329826
 20
1373.806706678838
 30
0.0
 11
1277.941334367667
 21
1368.806706678837
 31
0.0
  0
LINE
  5
2D1
330
E8
100
AcDbEntity
  8
0
  6
CONTINUOUS
 62
     7
100
AcDbLine
 10
1277.941334367667
 20
1358.806706678838
 30
0.0
 11
1269.281080329826
 21
1353.806706678837
 31
0.0
  0
LINE
  5
2D2
330
E8
100
AcDbEntity
  8
0
  6
CONTINUOUS
 62
     7
100
AcDbLine
 10
1269.281080329826
 20
1353.806706678837
 30
0.0
 11
1260.620826291982
 21
1358.806706678838
 31
0.0
  0
CIRCLE
  5
2D3
330
E8
100
AcDbEntity
  8
0
  6
CONTINUOUS
 62
     7
100
AcDbCircle
 10
1269.281080329826
 20
1363.806706678838
 30
0.0
 40
5.0
  0
CIRCLE
  5
2D4
330
E8
100
AcDbEntity
  8
0
  6
CONTINUOUS
 62
     7
100
AcDbCircle
 10
1269.281080329826
 20
1363.806706678838
 30
0.0
 40
4.0
  0
LINE
  5
2D5
330
E8
100
AcDbEntity
  8
0
  6
CONTINUOUS
 62
     7
100
AcDbLine
 10
1277.941334367667
 20
1368.806706678837
 30
0.0
 11
1277.941334367667
 21
1358.806706678838
 31
0.0
  0
ENDBLK
  5
EA
330
E8
100
AcDbEntity
  8
0
100
AcDbBlockEnd
  0
BLOCK
  5
62F
330
62E
100
AcDbEntity
  8
0
100
AcDbBlockBegin
  2
*D39
 70
     1
 10
0.0
 20
0.0
 30
0.0
  3
*D39
  1

  0
LINE
  5
631
330
62E
100
AcDbEntity
  8
LAY-20
  6
CONTINUOUS
 62
     4
100
AcDbLine
 10
214.281080329929
 20
962.8067066790001
 30
0.0
 11
214.281080329929
 21
1132.80670667902
 31
0.0
  0
LINE
  5
632
330
62E
100
AcDbEntity
  8
LAY-20
  6
CONTINUOUS
 62
     4
100
AcDbLine
 10
2324.2810803299
 20
962.8067066790001
 30
0.0
 11
2324.2810803299
 21
1132.80670667902
 31
0.0
  0
LINE
  5
633
330
62E
100
AcDbEntity
  8
LAY-20
  6
CONTINUOUS
 62
     4
100
AcDbLine
 10
239.281080329929
 20
1117.80670667902
 30
0.0
 11
2299.2810803299
 21
1117.80670667902
 31
0.0
  0
INSERT
  5
634
330
62E
100
AcDbEntity
  8
LAY-20
 62
     4
100
AcDbBlockReference
  2
EX_BNORM
 10
214.281080329929
 20
1117.80670667902
 30
0.0
 41
25.0
 42
25.0
 43
25.0
 50
180.0
  0
INSERT
  5
635
330
62E
100
AcDbEntity
  8
LAY-20
 62
     4
100
AcDbBlockReference
  2
EX_BNORM
 10
2324.2810803299
 20
1117.80670667902
 30
0.0
 41
25.0
 42
25.0
 43
25.0
  0
MTEXT
  5
636
330
62E
100
AcDbEntity
  8
LAY-20
 62
     7
100
AcDbMText
 10
1269.281080329914
 20
1142.80670667902
 30
0.0
 40
31.181104
 41
0.0
 71
     5
 72
     1
  1
2110
  7
EXCADDIM1
  0
POINT
  5
637
330
62E
100
AcDbEntity
  8
DEFPOINTS
 62
     0
100
AcDbPoint
 10
214.281080329929
 20
947.8067066790001
 30
0.0
  0
POINT
  5
638
330
62E
100
AcDbEntity
  8
DEFPOINTS
 62
     0
100
AcDbPoint
 10
2324.2810803299
 20
947.8067066790001
 30
0.0
  0
POINT
  5
639
330
62E
100
AcDbEntity
  8
DEFPOINTS
 62
     0
100
AcDbPoint
 10
2324.2810803299
 20
1117.80670667902
 30
0.0
  0
ENDBLK
  5
630
330
62E
100
AcDbEntity
  8
0
100
AcDbBlockEnd
  0
BLOCK
  5
63C
330
63B
100
AcDbEntity
  8
0
100
AcDbBlockBegin
  2
*D40
 70
     1
 10
0.0
 20
0.0
 30
0.0
  3
*D40
  1

  0
LINE
  5
63E
330
63B
100
AcDbEntity
  8
LAY-20
  6
CONTINUOUS
 62
     4
100
AcDbLine
 10
644.281080329919
 20
962.806706679016
 30
0.0
 11
644.281080329919
 21
1062.80670667902
 31
0.0
  0
LINE
  5
63F
330
63B
100
AcDbEntity
  8
LAY-20
  6
CONTINUOUS
 62
     4
100
AcDbLine
 10
230.281080329919
 20
962.806706679016
 30
0.0
 11
230.281080329919
 21
1062.80670667902
 31
0.0
  0
LINE
  5
640
330
63B
100
AcDbEntity
  8
LAY-20
  6
CONTINUOUS
 62
     4
100
AcDbLine
 10
619.281080329919
 20
1047.80670667902
 30
0.0
 11
255.281080329919
 21
1047.80670667902
 31
0.0
  0
INSERT
  5
641
330
63B
100
AcDbEntity
  8
LAY-20
 62
     4
100
AcDbBlockReference
  2
EX_BNORM
 10
644.281080329919
 20
1047.80670667902
 30
0.0
 41
25.0
 42
25.0
 43
25.0
  0
INSERT
  5
642
330
63B
100
AcDbEntity
  8
LAY-20
 62
     4
100
AcDbBlockReference
  2
EX_BNORM
 10
230.281080329919
 20
1047.80670667902
 30
0.0
 41
25.0
 42
25.0
 43
25.0
 50
180.0
  0
MTEXT
  5
643
330
63B
100
AcDbEntity
  8
LAY-20
 62
     7
100
AcDbMText
 10
437.281080329919
 20
1072.80670667902
 30
0.0
 40
31.181104
 41
0.0
 71
     5
 72
     1
  1
414
  7
EXCADDIM1
  0
POINT
  5
644
330
63B
100
AcDbEntity
  8
DEFPOINTS
 62
     0
100
AcDbPoint
 10
644.281080329919
 20
947.806706679016
 30
0.0
  0
POINT
  5
645
330
63B
100
AcDbEntity
  8
DEFPOINTS
 62
     0
100
AcDbPoint
 10
230.281080329919
 20
947.806706679016
 30
0.0
  0
POINT
  5
646
330
63B
100
AcDbEntity
  8
DEFPOINTS
 62
     0
100
AcDbPoint
 10
230.281080329919
 20
1047.80670667902
 30
0.0
  0
ENDBLK
  5
63D
330
63B
100
AcDbEntity
  8
0
100
AcDbBlockEnd
  0
BLOCK
  5
649
330
648
100
AcDbEntity
  8
0
100
AcDbBlockBegin
  2
*D41
 70
     1
 10
0.0
 20
0.0
 30
0.0
  3
*D41
  1

  0
LINE
  5
64B
330
648
100
AcDbEntity
  8
LAY-20
  6
CONTINUOUS
 62
     4
100
AcDbLine
 10
269.2810803299394
 20
817.8067066789
 30
0.0
 11
269.2810803299394
 21
717.8067066789699
 31
0.0
  0
LINE
  5
64C
330
648
100
AcDbEntity
  8
LAY-20
  6
CONTINUOUS
 62
     4
100
AcDbLine
 10
2269.2810803299
 20
817.8067066789
 30
0.0
 11
2269.2810803299
 21
717.8067066789699
 31
0.0
  0
LINE
  5
64D
330
648
100
AcDbEntity
  8
LAY-20
  6
CONTINUOUS
 62
     4
100
AcDbLine
 10
294.2810803299394
 20
717.8067066789699
 30
0.0
 11
2244.2810803299
 21
717.8067066789699
 31
0.0
  0
INSERT
  5
64E
330
648
100
AcDbEntity
  8
LAY-20
 62
     4
100
AcDbBlockReference
  2
EX_BNORM
 10
269.2810803299394
 20
717.8067066789699
 30
0.0
 41
25.0
 42
25.0
 43
25.0
 50
180.0
  0
INSERT
  5
64F
330
648
100
AcDbEntity
  8
LAY-20
 62
     4
100
AcDbBlockReference
  2
EX_BNORM
 10
2269.2810803299
 20
717.8067066789699
 30
0.0
 41
25.0
 42
25.0
 43
25.0
  0
MTEXT
  5
650
330
648
100
AcDbEntity
  8
LAY-20
 62
     7
100
AcDbMText
 10
1269.28108032992
 20
742.8067066789699
 30
0.0
 40
31.181104
 41
0.0
 71
     5
 72
     1
  1
2000
  7
EXCADDIM1
  0
POINT
  5
651
330
648
100
AcDbEntity
  8
DEFPOINTS
 62
     0
100
AcDbPoint
 10
269.2810803299394
 20
817.8067066789
 30
0.0
  0
POINT
  5
652
330
648
100
AcDbEntity
  8
DEFPOINTS
 62
     0
100
AcDbPoint
 10
2269.2810803299
 20
817.8067066789
 30
0.0
  0
POINT
  5
653
330
648
100
AcDbEntity
  8
DEFPOINTS
 62
     0
100
AcDbPoint
 10
2269.2810803299
 20
717.8067066789699
 30
0.0
  0
ENDBLK
  5
64A
330
648
100
AcDbEntity
  8
0
100
AcDbBlockEnd
  0
BLOCK
  5
656
330
655
100
AcDbEntity
  8
0
100
AcDbBlockBegin
  2
*D42
 70
     1
 10
0.0
 20
0.0
 30
0.0
  3
*D42
  1

  0
LINE
  5
658
330
655
100
AcDbEntity
  8
LAY-20
  6
CONTINUOUS
 62
     4
100
AcDbLine
 10
2339.2810803299
 20
947.8067066790001
 30
0.0
 11
2503.836419389299
 21
947.8067066790001
 31
0.0
  0
LINE
  5
659
330
655
100
AcDbEntity
  8
LAY-20
  6
CONTINUOUS
 62
     4
100
AcDbLine
 10
2327.4810803299
 20
847.8067066789
 30
0.0
 11
2503.836419389299
 21
847.8067066789
 31
0.0
  0
LINE
  5
65A
330
655
100
AcDbEntity
  8
LAY-20
  6
CONTINUOUS
 62
     4
100
AcDbLine
 10
2488.836419389299
 20
922.8067066790001
 30
0.0
 11
2488.836419389299
 21
872.8067066789
 31
0.0
  0
INSERT
  5
65B
330
655
100
AcDbEntity
  8
LAY-20
 62
     4
100
AcDbBlockReference
  2
EX_BNORM
 10
2488.836419389299
 20
947.8067066790001
 30
0.0
 41
25.0
 42
25.0
 43
25.0
 50
90.0
  0
INSERT
  5
65C
330
655
100
AcDbEntity
  8
LAY-20
 62
     4
100
AcDbBlockReference
  2
EX_BNORM
 10
2488.836419389299
 20
847.8067066789
 30
0.0
 41
25.0
 42
25.0
 43
25.0
 50
270.0
  0
MTEXT
  5
65D
330
655
100
AcDbEntity
  8
LAY-20
 62
     7
100
AcDbMText
 10
2463.836419389299
 20
897.80670667895
 30
0.0
 40
31.181104
 41
0.0
 71
     5
 72
     1
  1
100
  7
EXCADDIM1
 11
0.0
 21
1.0
 31
0.0
  0
POINT
  5
65E
330
655
100
AcDbEntity
  8
DEFPOINTS
 62
     0
100
AcDbPoint
 10
2324.2810803299
 20
947.8067066790001
 30
0.0
  0
POINT
  5
65F
330
655
100
AcDbEntity
  8
DEFPOINTS
 62
     0
100
AcDbPoint
 10
2312.4810803299
 20
847.8067066789
 30
0.0
  0
POINT
  5
660
330
655
100
AcDbEntity
  8
DEFPOINTS
 62
     0
100
AcDbPoint
 10
2488.836419389299
 20
847.8067066789
 30
0.0
  0
ENDBLK
  5
657
330
655
100
AcDbEntity
  8
0
100
AcDbBlockEnd
  0
BLOCK
  5
663
330
662
100
AcDbEntity
  8
0
100
AcDbBlockBegin
  2
*D43
 70
     1
 10
0.0
 20
0.0
 30
0.0
  3
*D43
  1

  0
LINE
  5
665
330
662
100
AcDbEntity
  8
LAY-20
  6
CONTINUOUS
 62
     4
100
AcDbLine
 10
2661.614413663199
 20
1296.8067066789
 30
0.0
 11
2491.61441366325
 21
1296.806706678901
 31
0.0
  0
LINE
  5
666
330
662
100
AcDbEntity
  8
LAY-20
  6
CONTINUOUS
 62
     4
100
AcDbLine
 10
2661.614413663199
 20
2480.806706679
 30
0.0
 11
2491.61441366325
 21
2480.806706679
 31
0.0
  0
LINE
  5
667
330
662
100
AcDbEntity
  8
LAY-20
  6
CONTINUOUS
 62
     4
100
AcDbLine
 10
2506.61441366325
 20
1321.806706678901
 30
0.0
 11
2506.61441366325
 21
2455.806706679
 31
0.0
  0
INSERT
  5
668
330
662
100
AcDbEntity
  8
LAY-20
 62
     4
100
AcDbBlockReference
  2
EX_BNORM
 10
2506.61441366325
 20
1296.806706678901
 30
0.0
 41
25.0
 42
25.0
 43
25.0
 50
270.0
  0
INSERT
  5
669
330
662
100
AcDbEntity
  8
LAY-20
 62
     4
100
AcDbBlockReference
  2
EX_BNORM
 10
2506.61441366325
 20
2480.806706679
 30
0.0
 41
25.0
 42
25.0
 43
25.0
 50
90.0
  0
MTEXT
  5
66A
330
662
100
AcDbEntity
  8
LAY-20
 62
     7
100
AcDbMText
 10
2481.61441366325
 20
1888.80670667895
 30
0.0
 40
31.181104
 41
0.0
 71
     5
 72
     1
  1
1184
  7
EXCADDIM1
 11
0.0
 21
1.0
 31
0.0
  0
POINT
  5
66B
330
662
100
AcDbEntity
  8
DEFPOINTS
 62
     0
100
AcDbPoint
 10
2676.614413663199
 20
1296.8067066789
 30
0.0
  0
POINT
  5
66C
330
662
100
AcDbEntity
  8
DEFPOINTS
 62
     0
100
AcDbPoint
 10
2676.614413663199
 20
2480.806706679
 30
0.0
  0
POINT
  5
66D
330
662
100
AcDbEntity
  8
DEFPOINTS
 62
     0
100
AcDbPoint
 10
2506.61441366325
 20
2480.806706679
 30
0.0
  0
ENDBLK
  5
664
330
662
100
AcDbEntity
  8
0
100
AcDbBlockEnd
  0
BLOCK
  5
670
330
66F
100
AcDbEntity
  8
0
100
AcDbBlockBegin
  2
*D44
 70
     1
 10
0.0
 20
0.0
 30
0.0
  3
*D44
  1

  0
LINE
  5
672
330
66F
100
AcDbEntity
  8
LAY-20
  6
CONTINUOUS
 62
     4
100
AcDbLine
 10
2661.614413663246
 20
1312.80670667895
 30
0.0
 11
2561.61441366325
 21
1312.80670667895
 31
0.0
  0
LINE
  5
673
330
66F
100
AcDbEntity
  8
LAY-20
  6
CONTINUOUS
 62
     4
100
AcDbLine
 10
2661.614413663246
 20
2464.806706678951
 30
0.0
 11
2561.61441366325
 21
2464.806706678951
 31
0.0
  0
LINE
  5
674
330
66F
100
AcDbEntity
  8
LAY-20
  6
CONTINUOUS
 62
     4
100
AcDbLine
 10
2576.61441366325
 20
1337.80670667895
 30
0.0
 11
2576.61441366325
 21
2439.806706678951
 31
0.0
  0
INSERT
  5
675
330
66F
100
AcDbEntity
  8
LAY-20
 62
     4
100
AcDbBlockReference
  2
EX_BNORM
 10
2576.61441366325
 20
1312.80670667895
 30
0.0
 41
25.0
 42
25.0
 43
25.0
 50
270.0
  0
INSERT
  5
676
330
66F
100
AcDbEntity
  8
LAY-20
 62
     4
100
AcDbBlockReference
  2
EX_BNORM
 10
2576.61441366325
 20
2464.806706678951
 30
0.0
 41
25.0
 42
25.0
 43
25.0
 50
90.0
  0
MTEXT
  5
677
330
66F
100
AcDbEntity
  8
LAY-20
 62
     7
100
AcDbMText
 10
2551.61441366325
 20
1888.806706678951
 30
0.0
 40
31.181104
 41
0.0
 71
     5
 72
     1
  1
1152
  7
EXCADDIM1
 11
0.0
 21
1.0
 31
0.0
  0
POINT
  5
678
330
66F
100
AcDbEntity
  8
DEFPOINTS
 62
     0
100
AcDbPoint
 10
2676.614413663246
 20
1312.80670667895
 30
0.0
  0
POINT
  5
679
330
66F
100
AcDbEntity
  8
DEFPOINTS
 62
     0
100
AcDbPoint
 10
2676.614413663246
 20
2464.806706678951
 30
0.0
  0
POINT
  5
67A
330
66F
100
AcDbEntity
  8
DEFPOINTS
 62
     0
100
AcDbPoint
 10
2576.61441366325
 20
2464.806706678951
 30
0.0
  0
ENDBLK
  5
671
330
66F
100
AcDbEntity
  8
0
100
AcDbBlockEnd
  0
BLOCK
  5
67D
330
67C
100
AcDbEntity
  8
0
100
AcDbBlockBegin
  2
*D45
 70
     1
 10
0.0
 20
0.0
 30
0.0
  3
*D45
  1

  0
LINE
  5
67F
330
67C
100
AcDbEntity
  8
LAY-20
  6
CONTINUOUS
 62
     4
100
AcDbLine
 10
2821.8144136632
 20
2388.8067066789
 30
0.0
 11
2921.81441366323
 21
2388.8067066789
 31
0.0
  0
LINE
  5
680
330
67C
100
AcDbEntity
  8
LAY-20
  6
CONTINUOUS
 62
     4
100
AcDbLine
 10
2821.8144136632
 20
1388.806706679
 30
0.0
 11
2921.81441366323
 21
1388.806706679
 31
0.0
  0
LINE
  5
681
330
67C
100
AcDbEntity
  8
LAY-20
  6
CONTINUOUS
 62
     4
100
AcDbLine
 10
2906.81441366323
 20
2363.8067066789
 30
0.0
 11
2906.81441366323
 21
1413.806706679
 31
0.0
  0
INSERT
  5
682
330
67C
100
AcDbEntity
  8
LAY-20
 62
     4
100
AcDbBlockReference
  2
EX_BNORM
 10
2906.81441366323
 20
2388.8067066789
 30
0.0
 41
25.0
 42
25.0
 43
25.0
 50
90.0
  0
INSERT
  5
683
330
67C
100
AcDbEntity
  8
LAY-20
 62
     4
100
AcDbBlockReference
  2
EX_BNORM
 10
2906.81441366323
 20
1388.806706679
 30
0.0
 41
25.0
 42
25.0
 43
25.0
 50
270.0
  0
MTEXT
  5
684
330
67C
100
AcDbEntity
  8
LAY-20
 62
     7
100
AcDbMText
 10
2881.81441366323
 20
1888.806706678951
 30
0.0
 40
31.181104
 41
0.0
 71
     5
 72
     1
  1
1000
  7
EXCADDIM1
 11
0.0
 21
1.0
 31
0.0
  0
POINT
  5
685
330
67C
100
AcDbEntity
  8
DEFPOINTS
 62
     0
100
AcDbPoint
 10
2806.8144136632
 20
2388.8067066789
 30
0.0
  0
POINT
  5
686
330
67C
100
AcDbEntity
  8
DEFPOINTS
 62
     0
100
AcDbPoint
 10
2806.8144136632
 20
1388.806706679
 30
0.0
  0
POINT
  5
687
330
67C
100
AcDbEntity
  8
DEFPOINTS
 62
     0
100
AcDbPoint
 10
2906.81441366323
 20
1388.806706679
 30
0.0
  0
ENDBLK
  5
67E
330
67C
100
AcDbEntity
  8
0
100
AcDbBlockEnd
  0
BLOCK
  5
68A
330
689
100
AcDbEntity
  8
0
100
AcDbBlockBegin
  2
*D46
 70
     1
 10
0.0
 20
0.0
 30
0.0
  3
*D46
  1

  0
LINE
  5
68C
330
689
100
AcDbEntity
  8
LAY-20
  6
CONTINUOUS
 62
     4
100
AcDbLine
 10
2315.4810803299
 20
835.8067066789499
 30
0.0
 11
2315.4810803299
 21
632.8067066789899
 31
0.0
  0
LINE
  5
68D
330
689
100
AcDbEntity
  8
LAY-20
  6
CONTINUOUS
 62
     4
100
AcDbLine
 10
223.0810803299001
 20
835.8067066789499
 30
0.0
 11
223.0810803299001
 21
632.8067066789899
 31
0.0
  0
LINE
  5
68E
330
689
100
AcDbEntity
  8
LAY-20
  6
CONTINUOUS
 62
     4
100
AcDbLine
 10
2290.4810803299
 20
647.8067066789899
 30
0.0
 11
248.0810803299001
 21
647.8067066789899
 31
0.0
  0
INSERT
  5
68F
330
689
100
AcDbEntity
  8
LAY-20
 62
     4
100
AcDbBlockReference
  2
EX_BNORM
 10
2315.4810803299
 20
647.8067066789899
 30
0.0
 41
25.0
 42
25.0
 43
25.0
  0
INSERT
  5
690
330
689
100
AcDbEntity
  8
LAY-20
 62
     4
100
AcDbBlockReference
  2
EX_BNORM
 10
223.0810803299001
 20
647.8067066789899
 30
0.0
 41
25.0
 42
25.0
 43
25.0
 50
180.0
  0
MTEXT
  5
691
330
689
100
AcDbEntity
  8
LAY-20
 62
     7
100
AcDbMText
 10
1269.2810803299
 20
672.8067066789899
 30
0.0
 40
31.181104
 41
0.0
 71
     5
 72
     1
  1
2092
  7
EXCADDIM1
  0
POINT
  5
692
330
689
100
AcDbEntity
  8
DEFPOINTS
 62
     0
100
AcDbPoint
 10
2315.4810803299
 20
850.8067066789499
 30
0.0
  0
POINT
  5
693
330
689
100
AcDbEntity
  8
DEFPOINTS
 62
     0
100
AcDbPoint
 10
223.0810803299001
 20
850.8067066789499
 30
0.0
  0
POINT
  5
694
330
689
100
AcDbEntity
  8
DEFPOINTS
 62
     0
100
AcDbPoint
 10
223.0810803299001
 20
647.8067066789899
 30
0.0
  0
ENDBLK
  5
68B
330
689
100
AcDbEntity
  8
0
100
AcDbBlockEnd
  0
BLOCK
  5
697
330
696
100
AcDbEntity
  8
0
100
AcDbBlockBegin
  2
*D47
 70
     1
 10
0.0
 20
0.0
 30
0.0
  3
*D47
  1

  0
LINE
  5
699
330
696
100
AcDbEntity
  8
LAY-20
  6
CONTINUOUS
 62
     4
100
AcDbLine
 10
788.2810803298999
 20
912.80670667902
 30
0.0
 11
886.0
 21
912.80670667902
 31
0.0
  0
LINE
  5
69A
330
696
100
AcDbEntity
  8
LAY-20
  6
CONTINUOUS
 62
     4
100
AcDbLine
 10
871.0
 20
912.80670667902
 30
0.0
 11
871.0
 21
947.80670667902
 31
0.0
  0
LINE
  5
69B
330
696
100
AcDbEntity
  8
LAY-20
  6
CONTINUOUS
 62
     4
100
AcDbLine
 10
871.0
 20
887.80670667902
 30
0.0
 11
871.0
 21
862.80670667902
 31
0.0
  0
LINE
  5
69C
330
696
100
AcDbEntity
  8
LAY-20
  6
CONTINUOUS
 62
     4
100
AcDbLine
 10
871.0
 20
972.80670667902
 30
0.0
 11
871.0
 21
997.80670667902
 31
0.0
  0
INSERT
  5
69D
330
696
100
AcDbEntity
  8
LAY-20
 62
     4
100
AcDbBlockReference
  2
EX_BNORM
 10
871.0
 20
912.80670667902
 30
0.0
 41
25.0
 42
25.0
 43
25.0
 50
90.0
  0
INSERT
  5
69E
330
696
100
AcDbEntity
  8
LAY-20
 62
     4
100
AcDbBlockReference
  2
EX_BNORM
 10
871.0
 20
947.80670667902
 30
0.0
 41
25.0
 42
25.0
 43
25.0
 50
270.0
  0
MTEXT
  5
69F
330
696
100
AcDbEntity
  8
LAY-20
 62
     7
100
AcDbMText
 10
846.0000000000002
 20
1007.80670667902
 30
0.0
 40
31.181104
 41
0.0
 71
     5
 72
     1
  1
35
  7
EXCADDIM1
 11
0.0
 21
1.0
 31
0.0
  0
POINT
  5
6A0
330
696
100
AcDbEntity
  8
DEFPOINTS
 62
     0
100
AcDbPoint
 10
773.2810803298999
 20
912.80670667902
 30
0.0
  0
POINT
  5
6A1
330
696
100
AcDbEntity
  8
DEFPOINTS
 62
     0
100
AcDbPoint
 10
871.0
 20
947.80670667902
 30
0.0
  0
POINT
  5
6A2
330
696
100
AcDbEntity
  8
DEFPOINTS
 62
     0
100
AcDbPoint
 10
871.0
 20
947.80670667902
 30
0.0
  0
ENDBLK
  5
698
330
696
100
AcDbEntity
  8
0
100
AcDbBlockEnd
  0
BLOCK
  5
6A5
330
6A4
100
AcDbEntity
  8
0
100
AcDbBlockBegin
  2
*D48
 70
     1
 10
0.0
 20
0.0
 30
0.0
  3
*D48
  1

  0
LINE
  5
6A7
330
6A4
100
AcDbEntity
  8
LAY-20
  6
CONTINUOUS
 62
     4
100
AcDbLine
 10
2739.0144136632
 20
2472.0067066789
 30
0.0
 11
2991.8144136632
 21
2472.0067066789
 31
0.0
  0
LINE
  5
6A8
330
6A4
100
AcDbEntity
  8
LAY-20
  6
CONTINUOUS
 62
     4
100
AcDbLine
 10
2739.0144136632
 20
1305.6067066789
 30
0.0
 11
2991.8144136632
 21
1305.6067066789
 31
0.0
  0
LINE
  5
6A9
330
6A4
100
AcDbEntity
  8
LAY-20
  6
CONTINUOUS
 62
     4
100
AcDbLine
 10
2976.8144136632
 20
2447.0067066789
 30
0.0
 11
2976.8144136632
 21
1330.6067066789
 31
0.0
  0
INSERT
  5
6AA
330
6A4
100
AcDbEntity
  8
LAY-20
 62
     4
100
AcDbBlockReference
  2
EX_BNORM
 10
2976.8144136632
 20
2472.0067066789
 30
0.0
 41
25.0
 42
25.0
 43
25.0
 50
90.0
  0
INSERT
  5
6AB
330
6A4
100
AcDbEntity
  8
LAY-20
 62
     4
100
AcDbBlockReference
  2
EX_BNORM
 10
2976.8144136632
 20
1305.6067066789
 30
0.0
 41
25.0
 42
25.0
 43
25.0
 50
270.0
  0
MTEXT
  5
6AC
330
6A4
100
AcDbEntity
  8
LAY-20
 62
     7
100
AcDbMText
 10
2951.8144136632
 20
1888.8067066789
 30
0.0
 40
31.181104
 41
0.0
 71
     5
 72
     1
  1
1166
  7
EXCADDIM1
 11
0.0
 21
1.0
 31
0.0
  0
POINT
  5
6AD
330
6A4
100
AcDbEntity
  8
DEFPOINTS
 62
     0
100
AcDbPoint
 10
2724.0144136632
 20
2472.0067066789
 30
0.0
  0
POINT
  5
6AE
330
6A4
100
AcDbEntity
  8
DEFPOINTS
 62
     0
100
AcDbPoint
 10
2724.0144136632
 20
1305.6067066789
 30
0.0
  0
POINT
  5
6AF
330
6A4
100
AcDbEntity
  8
DEFPOINTS
 62
     0
100
AcDbPoint
 10
2976.8144136632
 20
1305.6067066789
 30
0.0
  0
ENDBLK
  5
6A6
330
6A4
100
AcDbEntity
  8
0
100
AcDbBlockEnd
  0
ENDSEC
  0
SECTION
  2
ENTITIES
  0
INSERT
  5
2D6
330
1F
100
AcDbEntity
  8
LAY-10
  6
CONTINUOUS
 62
     0
100
AcDbBlockReference
  2
SYM-1
 10
0.0
 20
0.0
 30
0.0
  0
INSERT
  5
2D7
330
1F
100
AcDbEntity
  8
LAY-10
  6
CONTINUOUS
 62
     0
100
AcDbBlockReference
  2
SYM-2
 10
0.0
 20
0.0
 30
0.0
  0
INSERT
  5
2D8
330
1F
100
AcDbEntity
  8
LAY-10
  6
CONTINUOUS
 62
     0
100
AcDbBlockReference
  2
SYM-3
 10
0.0
 20
0.0
 30
0.0
  0
INSERT
  5
2D9
330
1F
100
AcDbEntity
  8
LAY-10
  6
CONTINUOUS
 62
     0
100
AcDbBlockReference
  2
SYM-4
 10
0.0
 20
0.0
 30
0.0
  0
INSERT
  5
2DA
330
1F
100
AcDbEntity
  8
LAY-10
  6
CONTINUOUS
 62
     0
100
AcDbBlockReference
  2
SYM-5
 10
0.0
 20
0.0
 30
0.0
  0
INSERT
  5
2DB
330
1F
100
AcDbEntity
  8
LAY-10
  6
CONTINUOUS
 62
     0
100
AcDbBlockReference
  2
SYM-6
 10
0.0
 20
0.0
 30
0.0
  0
INSERT
  5
2DC
330
1F
100
AcDbEntity
  8
LAY-10
  6
CONTINUOUS
 62
     0
100
AcDbBlockReference
  2
SYM-7
 10
0.0
 20
0.0
 30
0.0
  0
INSERT
  5
2DD
330
1F
100
AcDbEntity
  8
LAY-10
  6
CONTINUOUS
 62
     0
100
AcDbBlockReference
  2
SYM-8
 10
0.0
 20
0.0
 30
0.0
  0
INSERT
  5
2DE
330
1F
100
AcDbEntity
  8
LAY-10
  6
CONTINUOUS
 62
     0
100
AcDbBlockReference
  2
SYM-9
 10
0.0
 20
0.0
 30
0.0
  0
INSERT
  5
2DF
330
1F
100
AcDbEntity
  8
LAY-10
  6
CONTINUOUS
 62
     0
100
AcDbBlockReference
  2
SYM-10
 10
0.0
 20
0.0
 30
0.0
  0
INSERT
  5
2E0
330
1F
100
AcDbEntity
  8
LAY-10
  6
CONTINUOUS
 62
     0
100
AcDbBlockReference
  2
SYM-11
 10
0.0
 20
0.0
 30
0.0
  0
INSERT
  5
2E1
330
1F
100
AcDbEntity
  8
LAY-10
  6
CONTINUOUS
 62
     0
100
AcDbBlockReference
  2
SYM-12
 10
0.0
 20
0.0
 30
0.0
  0
INSERT
  5
2E2
330
1F
100
AcDbEntity
  8
LAY-10
  6
CONTINUOUS
 62
     0
100
AcDbBlockReference
  2
SYM-13
 10
0.0
 20
0.0
 30
0.0
  0
INSERT
  5
2E3
330
1F
100
AcDbEntity
  8
LAY-10
  6
CONTINUOUS
 62
     0
100
AcDbBlockReference
  2
SYM-14
 10
0.0
 20
0.0
 30
0.0
  0
INSERT
  5
2E4
330
1F
100
AcDbEntity
  8
LAY-10
  6
CONTINUOUS
 62
     0
100
AcDbBlockReference
  2
SYM-15
 10
0.0
 20
0.0
 30
0.0
  0
INSERT
  5
2E5
330
1F
100
AcDbEntity
  8
LAY-10
  6
CONTINUOUS
 62
     0
100
AcDbBlockReference
  2
SYM-16
 10
0.0
 20
0.0
 30
0.0
  0
INSERT
  5
2E6
330
1F
100
AcDbEntity
  8
LAY-10
  6
CONTINUOUS
 62
     0
100
AcDbBlockReference
  2
SYM-17
 10
0.0
 20
0.0
 30
0.0
  0
INSERT
  5
2E7
330
1F
100
AcDbEntity
  8
LAY-10
  6
CONTINUOUS
 62
     0
100
AcDbBlockReference
  2
SYM-18
 10
0.0
 20
0.0
 30
0.0
  0
INSERT
  5
2E8
330
1F
100
AcDbEntity
  8
LAY-10
  6
CONTINUOUS
 62
     0
100
AcDbBlockReference
  2
SYM-19
 10
0.0
 20
0.0
 30
0.0
  0
INSERT
  5
2E9
330
1F
100
AcDbEntity
  8
LAY-10
  6
CONTINUOUS
 62
     0
100
AcDbBlockReference
  2
SYM-20
 10
0.0
 20
0.0
 30
0.0
  0
INSERT
  5
2EA
330
1F
100
AcDbEntity
  8
LAY-10
  6
CONTINUOUS
 62
     0
100
AcDbBlockReference
  2
SYM-21
 10
0.0
 20
0.0
 30
0.0
  0
INSERT
  5
2EB
330
1F
100
AcDbEntity
  8
LAY-10
  6
CONTINUOUS
 62
     0
100
AcDbBlockReference
  2
SYM-22
 10
0.0
 20
0.0
 30
0.0
  0
INSERT
  5
2EC
330
1F
100
AcDbEntity
  8
LAY-10
  6
CONTINUOUS
 62
     0
100
AcDbBlockReference
  2
SYM-23
 10
0.0
 20
0.0
 30
0.0
  0
INSERT
  5
2ED
330
1F
100
AcDbEntity
  8
LAY-10
  6
CONTINUOUS
 62
     0
100
AcDbBlockReference
  2
SYM-24
 10
0.0
 20
0.0
 30
0.0
  0
LINE
  5
2EE
330
1F
100
AcDbEntity
  8
LAY-10
  6
HIDDEN
 62
     7
100
AcDbLine
 10
1184.781080329921
 20
1309.606706678995
 30
0.0
 11
1184.781080329924
 21
1345.715340220034
 31
0.0
  0
LINE
  5
2EF
330
1F
100
AcDbEntity
  8
LAY-10
  6
HIDDEN
 62
     7
100
AcDbLine
 10
1138.081080329924
 20
1345.715340220034
 30
0.0
 11
1196.081080329924
 21
1345.715340220034
 31
0.0
  0
LINE
  5
2F0
330
1F
100
AcDbEntity
  8
LAY-10
  6
HIDDEN
 62
     7
100
AcDbLine
 10
1153.781080329924
 20
1309.606706678995
 30
0.0
 11
1153.781080329924
 21
1345.606706678994
 31
0.0
  0
LINE
  5
2F1
330
1F
100
AcDbEntity
  8
LAY-10
  6
HIDDEN
 62
     7
100
AcDbLine
 10
1153.781080329924
 20
1309.606706678995
 30
0.0
 11
1184.781080329921
 21
1309.606706678995
 31
0.0
  0
LINE
  5
2F2
330
1F
100
AcDbEntity
  8
LAY-10
  6
CONTINUOUS
 62
     7
100
AcDbLine
 10
1256.247746996602
 20
1664.140040012237
 30
0.0
 11
1257.247746996602
 21
1663.140040012237
 31
0.0
  0
LINE
  5
2F3
330
1F
100
AcDbEntity
  8
LAY-10
  6
CONTINUOUS
 62
     7
100
AcDbLine
 10
214.2810803299326
 20
2480.806706678951
 30
0.0
 11
229.2810803299326
 21
2465.806706678951
 31
0.0
  0
LINE
  5
2F4
330
1F
100
AcDbEntity
  8
LAY-10
  6
CONTINUOUS
 62
     7
100
AcDbLine
 10
229.2810803299326
 20
1311.806706678951
 30
0.0
 11
214.2810803299326
 21
1296.806706678951
 31
0.0
  0
LINE
  5
2F5
330
1F
100
AcDbEntity
  8
LAY-10
  6
CONTINUOUS
 62
     7
100
AcDbLine
 10
229.2810803299326
 20
1311.806706678951
 30
0.0
 11
229.2810803299326
 21
2465.806706678951
 31
0.0
  0
LINE
  5
2F6
330
1F
100
AcDbEntity
  8
LAY-10
  6
CONTINUOUS
 62
     7
100
AcDbLine
 10
214.2810803299326
 20
1296.806706678951
 30
0.0
 11
214.2810803299326
 21
2480.806706678951
 31
0.0
  0
LINE
  5
2F7
330
1F
100
AcDbEntity
  8
LAY-10
  6
CONTINUOUS
 62
     7
100
AcDbLine
 10
2309.281080329912
 20
2465.806706678951
 30
0.0
 11
2324.281080329913
 21
2480.806706678951
 31
0.0
  0
LINE
  5
2F8
330
1F
100
AcDbEntity
  8
LAY-10
  6
CONTINUOUS
 62
     7
100
AcDbLine
 10
2309.281080329912
 20
1311.806706678951
 30
0.0
 11
2324.281080329913
 21
1296.806706678952
 31
0.0
  0
LINE
  5
2F9
330
1F
100
AcDbEntity
  8
LAY-10
  6
CONTINUOUS
 62
     7
100
AcDbLine
 10
2309.281080329912
 20
2465.806706678951
 30
0.0
 11
2309.281080329912
 21
1311.806706678949
 31
0.0
  0
LINE
  5
2FA
330
1F
100
AcDbEntity
  8
LAY-10
  6
CONTINUOUS
 62
     7
100
AcDbLine
 10
2324.281080329913
 20
1296.806706678951
 30
0.0
 11
2324.281080329913
 21
2480.806706678951
 31
0.0
  0
LINE
  5
2FB
330
1F
100
AcDbEntity
  8
LAY-10
  6
CONTINUOUS
 62
     7
100
AcDbLine
 10
2309.281080329912
 20
1311.806706678949
 30
0.0
 11
229.2810803299326
 21
1311.806706678951
 31
0.0
  0
LINE
  5
2FC
330
1F
100
AcDbEntity
  8
LAY-10
  6
CONTINUOUS
 62
     7
100
AcDbLine
 10
214.2810803299326
 20
1296.806706678951
 30
0.0
 11
2324.281080329913
 21
1296.806706678949
 31
0.0
  0
LINE
  5
2FD
330
1F
100
AcDbEntity
  8
LAY-10
  6
CONTINUOUS
 62
     7
100
AcDbLine
 10
214.2810803299326
 20
2480.806706678951
 30
0.0
 11
2324.281080329913
 21
2480.806706678951
 31
0.0
  0
LINE
  5
2FE
330
1F
100
AcDbEntity
  8
LAY-10
  6
CONTINUOUS
 62
     7
100
AcDbLine
 10
2309.281080329912
 20
2465.806706678951
 30
0.0
 11
229.2810803299326
 21
2465.806706678951
 31
0.0
  0
LINE
  5
2FF
330
1F
100
AcDbEntity
  8
LAY-10
  6
CONTINUOUS
 62
     7
100
AcDbLine
 10
245.2810803299208
 20
2449.806706678887
 30
0.0
 11
230.2810803299208
 21
2464.806706678885
 31
0.0
  0
LINE
  5
300
330
1F
100
AcDbEntity
  8
LAY-10
  6
CONTINUOUS
 62
     7
100
AcDbLine
 10
245.2810803299208
 20
1327.806706678884
 30
0.0
 11
230.2810803299208
 21
1312.806706678884
 31
0.0
  0
LINE
  5
301
330
1F
100
AcDbEntity
  8
LAY-10
  6
CONTINUOUS
 62
     7
100
AcDbLine
 10
245.2810803299208
 20
2449.806706678887
 30
0.0
 11
245.2810803299208
 21
1327.806706678884
 31
0.0
  0
LINE
  5
302
330
1F
100
AcDbEntity
  8
LAY-10
  6
CONTINUOUS
 62
     7
100
AcDbLine
 10
230.2810803299208
 20
1312.806706678884
 30
0.0
 11
230.2810803299208
 21
2464.806706678885
 31
0.0
  0
LINE
  5
303
330
1F
100
AcDbEntity
  8
LAY-10
  6
CONTINUOUS
 62
     7
100
AcDbLine
 10
644.2810803299208
 20
2464.806706678885
 30
0.0
 11
629.2810803299208
 21
2449.806706678887
 31
0.0
  0
LINE
  5
304
330
1F
100
AcDbEntity
  8
LAY-10
  6
CONTINUOUS
 62
     7
100
AcDbLine
 10
629.2810803299208
 20
1327.806706678884
 30
0.0
 11
629.2810803299208
 21
2449.806706678887
 31
0.0
  0
LINE
  5
305
330
1F
100
AcDbEntity
  8
LAY-10
  6
CONTINUOUS
 62
     7
100
AcDbLine
 10
644.2810803299208
 20
1312.806706678884
 30
0.0
 11
644.2810803299208
 21
2464.806706678885
 31
0.0
  0
LINE
  5
306
330
1F
100
AcDbEntity
  8
LAY-10
  6
CONTINUOUS
 62
     7
100
AcDbLine
 10
230.2810803299208
 20
2464.806706678885
 30
0.0
 11
644.2810803299208
 21
2464.806706678885
 31
0.0
  0
LINE
  5
307
330
1F
100
AcDbEntity
  8
LAY-10
  6
CONTINUOUS
 62
     7
100
AcDbLine
 10
245.2810803299208
 20
2449.806706678882
 30
0.0
 11
629.2810803299171
 21
2449.806706678882
 31
0.0
  0
LINE
  5
308
330
1F
100
AcDbEntity
  8
LAY-10
  6
CONTINUOUS
 62
     7
100
AcDbLine
 10
230.2810803299208
 20
1312.806706678884
 30
0.0
 11
644.2810803299335
 21
1312.806706678884
 31
0.0
  0
LINE
  5
309
330
1F
100
AcDbEntity
  8
LAY-10
  6
CONTINUOUS
 62
     7
100
AcDbLine
 10
245.2810803299208
 20
1327.806706678884
 30
0.0
 11
629.2810803299335
 21
1327.806706678884
 31
0.0
  0
LINE
  5
30A
330
1F
100
AcDbEntity
  8
LAY-10
  6
CONTINUOUS
 62
     7
100
AcDbLine
 10
629.2810803299335
 20
1327.806706678884
 30
0.0
 11
644.2810803299335
 21
1312.806706678884
 31
0.0
  0
LINE
  5
30B
330
1F
100
AcDbEntity
  8
LAY-10
  6
CONTINUOUS
 62
     7
100
AcDbLine
 10
317.2810803299117
 20
1327.806706678884
 30
0.0
 11
317.2810803299135
 21
2449.806706678887
 31
0.0
  0
LINE
  5
30C
330
1F
100
AcDbEntity
  8
LAY-10
  6
CONTINUOUS
 62
     7
100
AcDbLine
 10
324.7810803299116
 20
1327.806706678884
 30
0.0
 11
324.7810803299135
 21
2449.806706678887
 31
0.0
  0
LINE
  5
30D
330
1F
100
AcDbEntity
  8
LAY-10
  6
CONTINUOUS
 62
     7
100
AcDbLine
 10
349.7810803299099
 20
1327.806706678884
 30
0.0
 11
349.7810803299116
 21
2449.806706678887
 31
0.0
  0
LINE
  5
30E
330
1F
100
AcDbEntity
  8
LAY-10
  6
CONTINUOUS
 62
     7
100
AcDbLine
 10
357.2810803299099
 20
1327.806706678884
 30
0.0
 11
357.2810803299116
 21
2449.806706678887
 31
0.0
  0
LINE
  5
30F
330
1F
100
AcDbEntity
  8
LAY-10
  6
CONTINUOUS
 62
     7
100
AcDbLine
 10
517.2810803299335
 20
1327.806706678884
 30
0.0
 11
517.2810803299335
 21
2449.806706678887
 31
0.0
  0
LINE
  5
310
330
1F
100
AcDbEntity
  8
LAY-10
  6
CONTINUOUS
 62
     7
100
AcDbLine
 10
524.7810803299335
 20
1327.806706678884
 30
0.0
 11
524.7810803299335
 21
2449.806706678887
 31
0.0
  0
LINE
  5
311
330
1F
100
AcDbEntity
  8
LAY-10
  6
CONTINUOUS
 62
     7
100
AcDbLine
 10
549.7810803299335
 20
1327.806706678884
 30
0.0
 11
549.7810803299335
 21
2449.806706678887
 31
0.0
  0
LINE
  5
312
330
1F
100
AcDbEntity
  8
LAY-10
  6
CONTINUOUS
 62
     7
100
AcDbLine
 10
557.2810803299335
 20
1327.806706678884
 30
0.0
 11
557.2810803299335
 21
2449.806706678887
 31
0.0
  0
LINE
  5
313
330
1F
100
AcDbEntity
  8
LAY-10
  6
CONTINUOUS
 62
     7
100
AcDbLine
 10
277.2810803299217
 20
2417.806706678885
 30
0.0
 11
277.2810803299217
 21
2449.806706678884
 31
0.0
  0
LINE
  5
314
330
1F
100
AcDbEntity
  8
LAY-10
  6
CONTINUOUS
 62
     7
100
AcDbLine
 10
277.2810803299235
 20
2417.806706678885
 30
0.0
 11
245.2810803299235
 21
2417.806706678885
 31
0.0
  0
LINE
  5
315
330
1F
100
AcDbEntity
  8
LAY-10
  6
CONTINUOUS
 62
     7
100
AcDbLine
 10
271.7810803299235
 20
2437.806706678884
 30
0.0
 11
273.387380342725
 21
2437.806706678884
 31
0.0
  0
LINE
  5
316
330
1F
100
AcDbEntity
  8
LAY-10
  6
CONTINUOUS
 62
     7
100
AcDbLine
 10
271.7810803299235
 20
2429.806706678885
 30
0.0
 11
273.387380342725
 21
2429.806706678885
 31
0.0
  0
LINE
  5
317
330
1F
100
AcDbEntity
  8
LAY-10
  6
CONTINUOUS
 62
     7
100
AcDbLine
 10
271.7810803299235
 20
2429.806706678885
 30
0.0
 11
271.7810803299235
 21
2437.806706678884
 31
0.0
  0
LINE
  5
318
330
1F
100
AcDbEntity
  8
LAY-10
  6
CONTINUOUS
 62
     7
100
AcDbLine
 10
261.2810803299235
 20
2440.306706678884
 30
0.0
 11
265.2810803299235
 21
2433.806706678884
 31
0.0
  0
LINE
  5
319
330
1F
100
AcDbEntity
  8
LAY-10
  6
CONTINUOUS
 62
     7
100
AcDbLine
 10
265.2810803299235
 20
2433.806706678884
 30
0.0
 11
261.2810803299235
 21
2427.306706678884
 31
0.0
  0
LINE
  5
31A
330
1F
100
AcDbEntity
  8
LAY-10
  6
CONTINUOUS
 62
     7
100
AcDbLine
 10
261.2810803299235
 20
2427.306706678884
 30
0.0
 11
257.2810803299235
 21
2433.806706678884
 31
0.0
  0
LINE
  5
31B
330
1F
100
AcDbEntity
  8
LAY-10
  6
CONTINUOUS
 62
     7
100
AcDbLine
 10
257.2810803299235
 20
2433.806706678884
 30
0.0
 11
261.2810803299235
 21
2440.306706678884
 31
0.0
  0
CIRCLE
  5
31C
330
1F
100
AcDbEntity
  8
LAY-10
  6
CONTINUOUS
 62
     7
100
AcDbCircle
 10
261.2810803299235
 20
2433.806706678884
 30
0.0
 40
12.75000000000001
  0
LINE
  5
31D
330
1F
100
AcDbEntity
  8
LAY-10
  6
CONTINUOUS
 62
     7
100
AcDbLine
 10
597.2810803299244
 20
2417.806706678885
 30
0.0
 11
597.2810803299244
 21
2449.806706678884
 31
0.0
  0
LINE
  5
31E
330
1F
100
AcDbEntity
  8
LAY-10
  6
CONTINUOUS
 62
     7
100
AcDbLine
 10
629.2810803299244
 20
2417.806706678885
 30
0.0
 11
597.2810803299244
 21
2417.806706678885
 31
0.0
  0
LINE
  5
31F
330
1F
100
AcDbEntity
  8
LAY-10
  6
CONTINUOUS
 62
     7
100
AcDbLine
 10
623.7810803299244
 20
2437.806706678884
 30
0.0
 11
625.3873803427259
 21
2437.806706678884
 31
0.0
  0
LINE
  5
320
330
1F
100
AcDbEntity
  8
LAY-10
  6
CONTINUOUS
 62
     7
100
AcDbLine
 10
623.7810803299244
 20
2429.806706678885
 30
0.0
 11
625.3873803427259
 21
2429.806706678885
 31
0.0
  0
LINE
  5
321
330
1F
100
AcDbEntity
  8
LAY-10
  6
CONTINUOUS
 62
     7
100
AcDbLine
 10
623.7810803299244
 20
2429.806706678885
 30
0.0
 11
623.7810803299244
 21
2437.806706678884
 31
0.0
  0
LINE
  5
322
330
1F
100
AcDbEntity
  8
LAY-10
  6
CONTINUOUS
 62
     7
100
AcDbLine
 10
613.2810803299244
 20
2440.306706678884
 30
0.0
 11
617.2810803299244
 21
2433.806706678884
 31
0.0
  0
LINE
  5
323
330
1F
100
AcDbEntity
  8
LAY-10
  6
CONTINUOUS
 62
     7
100
AcDbLine
 10
617.2810803299244
 20
2433.806706678884
 30
0.0
 11
613.2810803299244
 21
2427.306706678884
 31
0.0
  0
LINE
  5
324
330
1F
100
AcDbEntity
  8
LAY-10
  6
CONTINUOUS
 62
     7
100
AcDbLine
 10
613.2810803299244
 20
2427.306706678884
 30
0.0
 11
609.2810803299244
 21
2433.806706678884
 31
0.0
  0
LINE
  5
325
330
1F
100
AcDbEntity
  8
LAY-10
  6
CONTINUOUS
 62
     7
100
AcDbLine
 10
609.2810803299244
 20
2433.806706678884
 30
0.0
 11
613.2810803299244
 21
2440.306706678884
 31
0.0
  0
CIRCLE
  5
326
330
1F
100
AcDbEntity
  8
LAY-10
  6
CONTINUOUS
 62
     7
100
AcDbCircle
 10
613.2810803299244
 20
2433.806706678884
 30
0.0
 40
12.75000000000001
  0
LINE
  5
327
330
1F
100
AcDbEntity
  8
LAY-10
  6
CONTINUOUS
 62
     7
100
AcDbLine
 10
277.2810803299217
 20
1327.806706678885
 30
0.0
 11
277.2810803299217
 21
1359.806706678884
 31
0.0
  0
LINE
  5
328
330
1F
100
AcDbEntity
  8
LAY-10
  6
CONTINUOUS
 62
     7
100
AcDbLine
 10
245.2810803299235
 20
1359.806706678884
 30
0.0
 11
277.2810803299235
 21
1359.806706678884
 31
0.0
  0
LINE
  5
329
330
1F
100
AcDbEntity
  8
LAY-10
  6
CONTINUOUS
 62
     7
100
AcDbLine
 10
271.7810803299235
 20
1347.806706678883
 30
0.0
 11
273.387380342725
 21
1347.806706678883
 31
0.0
  0
LINE
  5
32A
330
1F
100
AcDbEntity
  8
LAY-10
  6
CONTINUOUS
 62
     7
100
AcDbLine
 10
271.7810803299235
 20
1339.806706678885
 30
0.0
 11
273.387380342725
 21
1339.806706678885
 31
0.0
  0
LINE
  5
32B
330
1F
100
AcDbEntity
  8
LAY-10
  6
CONTINUOUS
 62
     7
100
AcDbLine
 10
271.7810803299235
 20
1339.806706678885
 30
0.0
 11
271.7810803299235
 21
1347.806706678883
 31
0.0
  0
LINE
  5
32C
330
1F
100
AcDbEntity
  8
LAY-10
  6
CONTINUOUS
 62
     7
100
AcDbLine
 10
261.2810803299235
 20
1350.306706678884
 30
0.0
 11
265.2810803299235
 21
1343.806706678884
 31
0.0
  0
LINE
  5
32D
330
1F
100
AcDbEntity
  8
LAY-10
  6
CONTINUOUS
 62
     7
100
AcDbLine
 10
265.2810803299235
 20
1343.806706678884
 30
0.0
 11
261.2810803299235
 21
1337.306706678884
 31
0.0
  0
LINE
  5
32E
330
1F
100
AcDbEntity
  8
LAY-10
  6
CONTINUOUS
 62
     7
100
AcDbLine
 10
261.2810803299235
 20
1337.306706678884
 30
0.0
 11
257.2810803299235
 21
1343.806706678884
 31
0.0
  0
LINE
  5
32F
330
1F
100
AcDbEntity
  8
LAY-10
  6
CONTINUOUS
 62
     7
100
AcDbLine
 10
257.2810803299235
 20
1343.806706678884
 30
0.0
 11
261.2810803299235
 21
1350.306706678884
 31
0.0
  0
CIRCLE
  5
330
330
1F
100
AcDbEntity
  8
LAY-10
  6
CONTINUOUS
 62
     7
100
AcDbCircle
 10
261.2810803299235
 20
1343.806706678884
 30
0.0
 40
12.75000000000001
  0
LINE
  5
331
330
1F
100
AcDbEntity
  8
LAY-10
  6
CONTINUOUS
 62
     7
100
AcDbLine
 10
597.2810803299244
 20
1327.806706678885
 30
0.0
 11
597.2810803299244
 21
1359.806706678884
 31
0.0
  0
LINE
  5
332
330
1F
100
AcDbEntity
  8
LAY-10
  6
CONTINUOUS
 62
     7
100
AcDbLine
 10
597.2810803299244
 20
1359.806706678884
 30
0.0
 11
629.2810803299244
 21
1359.806706678884
 31
0.0
  0
LINE
  5
333
330
1F
100
AcDbEntity
  8
LAY-10
  6
CONTINUOUS
 62
     7
100
AcDbLine
 10
623.7810803299244
 20
1347.806706678883
 30
0.0
 11
625.3873803427259
 21
1347.806706678883
 31
0.0
  0
LINE
  5
334
330
1F
100
AcDbEntity
  8
LAY-10
  6
CONTINUOUS
 62
     7
100
AcDbLine
 10
623.7810803299244
 20
1339.806706678885
 30
0.0
 11
625.3873803427259
 21
1339.806706678885
 31
0.0
  0
LINE
  5
335
330
1F
100
AcDbEntity
  8
LAY-10
  6
CONTINUOUS
 62
     7
100
AcDbLine
 10
623.7810803299244
 20
1339.806706678885
 30
0.0
 11
623.7810803299244
 21
1347.806706678883
 31
0.0
  0
LINE
  5
336
330
1F
100
AcDbEntity
  8
LAY-10
  6
CONTINUOUS
 62
     7
100
AcDbLine
 10
613.2810803299244
 20
1350.306706678884
 30
0.0
 11
617.2810803299244
 21
1343.806706678884
 31
0.0
  0
LINE
  5
337
330
1F
100
AcDbEntity
  8
LAY-10
  6
CONTINUOUS
 62
     7
100
AcDbLine
 10
617.2810803299244
 20
1343.806706678884
 30
0.0
 11
613.2810803299244
 21
1337.306706678884
 31
0.0
  0
LINE
  5
338
330
1F
100
AcDbEntity
  8
LAY-10
  6
CONTINUOUS
 62
     7
100
AcDbLine
 10
613.2810803299244
 20
1337.306706678884
 30
0.0
 11
609.2810803299244
 21
1343.806706678884
 31
0.0
  0
LINE
  5
339
330
1F
100
AcDbEntity
  8
LAY-10
  6
CONTINUOUS
 62
     7
100
AcDbLine
 10
609.2810803299244
 20
1343.806706678884
 30
0.0
 11
613.2810803299244
 21
1350.306706678884
 31
0.0
  0
CIRCLE
  5
33A
330
1F
100
AcDbEntity
  8
LAY-10
  6
CONTINUOUS
 62
     7
100
AcDbCircle
 10
613.2810803299244
 20
1343.806706678884
 30
0.0
 40
12.75000000000001
  0
LINE
  5
33B
330
1F
100
AcDbEntity
  8
LAY-10
  6
CONTINUOUS
 62
     7
100
AcDbLine
 10
661.2810803299207
 20
2449.806706678887
 30
0.0
 11
646.2810803299207
 21
2464.806706678885
 31
0.0
  0
LINE
  5
33C
330
1F
100
AcDbEntity
  8
LAY-10
  6
CONTINUOUS
 62
     7
100
AcDbLine
 10
661.2810803299207
 20
1327.806706678884
 30
0.0
 11
646.2810803299207
 21
1312.806706678884
 31
0.0
  0
LINE
  5
33D
330
1F
100
AcDbEntity
  8
LAY-10
  6
CONTINUOUS
 62
     7
100
AcDbLine
 10
661.2810803299207
 20
2449.806706678887
 30
0.0
 11
661.2810803299207
 21
1327.806706678884
 31
0.0
  0
LINE
  5
33E
330
1F
100
AcDbEntity
  8
LAY-10
  6
CONTINUOUS
 62
     7
100
AcDbLine
 10
646.2810803299207
 20
1312.806706678884
 30
0.0
 11
646.2810803299207
 21
2464.806706678885
 31
0.0
  0
LINE
  5
33F
330
1F
100
AcDbEntity
  8
LAY-10
  6
CONTINUOUS
 62
     7
100
AcDbLine
 10
1060.281080329921
 20
2464.806706678885
 30
0.0
 11
1045.281080329921
 21
2449.806706678887
 31
0.0
  0
LINE
  5
340
330
1F
100
AcDbEntity
  8
LAY-10
  6
CONTINUOUS
 62
     7
100
AcDbLine
 10
646.2810803299207
 20
2464.806706678885
 30
0.0
 11
1060.281080329921
 21
2464.806706678885
 31
0.0
  0
LINE
  5
341
330
1F
100
AcDbEntity
  8
LAY-10
  6
CONTINUOUS
 62
     7
100
AcDbLine
 10
661.2810803299207
 20
2449.806706678882
 30
0.0
 11
1045.281080329917
 21
2449.806706678882
 31
0.0
  0
LINE
  5
342
330
1F
100
AcDbEntity
  8
LAY-10
  6
CONTINUOUS
 62
     7
100
AcDbLine
 10
733.2810803299117
 20
1327.806706678884
 30
0.0
 11
733.2810803299135
 21
2449.806706678887
 31
0.0
  0
LINE
  5
343
330
1F
100
AcDbEntity
  8
LAY-10
  6
CONTINUOUS
 62
     7
100
AcDbLine
 10
740.7810803299117
 20
1327.806706678884
 30
0.0
 11
740.7810803299135
 21
2449.806706678887
 31
0.0
  0
LINE
  5
344
330
1F
100
AcDbEntity
  8
LAY-10
  6
CONTINUOUS
 62
     7
100
AcDbLine
 10
765.7810803299097
 20
1327.806706678884
 30
0.0
 11
765.7810803299117
 21
2449.806706678887
 31
0.0
  0
LINE
  5
345
330
1F
100
AcDbEntity
  8
LAY-10
  6
CONTINUOUS
 62
     7
100
AcDbLine
 10
773.28108032991
 20
1327.806706678884
 30
0.0
 11
773.2810803299117
 21
2449.806706678887
 31
0.0
  0
LINE
  5
346
330
1F
100
AcDbEntity
  8
LAY-10
  6
CONTINUOUS
 62
     7
100
AcDbLine
 10
933.2810803299335
 20
1327.806706678884
 30
0.0
 11
933.2810803299335
 21
2449.806706678887
 31
0.0
  0
LINE
  5
347
330
1F
100
AcDbEntity
  8
LAY-10
  6
CONTINUOUS
 62
     7
100
AcDbLine
 10
940.7810803299335
 20
1327.806706678884
 30
0.0
 11
940.7810803299335
 21
2449.806706678887
 31
0.0
  0
LINE
  5
348
330
1F
100
AcDbEntity
  8
LAY-10
  6
CONTINUOUS
 62
     7
100
AcDbLine
 10
965.7810803299335
 20
1327.806706678884
 30
0.0
 11
965.7810803299335
 21
2449.806706678887
 31
0.0
  0
LINE
  5
349
330
1F
100
AcDbEntity
  8
LAY-10
  6
CONTINUOUS
 62
     7
100
AcDbLine
 10
973.2810803299335
 20
1327.806706678884
 30
0.0
 11
973.2810803299335
 21
2449.806706678887
 31
0.0
  0
LINE
  5
34A
330
1F
100
AcDbEntity
  8
LAY-10
  6
CONTINUOUS
 62
     7
100
AcDbLine
 10
693.2810803299217
 20
2417.806706678885
 30
0.0
 11
693.2810803299217
 21
2449.806706678884
 31
0.0
  0
LINE
  5
34B
330
1F
100
AcDbEntity
  8
LAY-10
  6
CONTINUOUS
 62
     7
100
AcDbLine
 10
693.2810803299234
 20
2417.806706678885
 30
0.0
 11
661.2810803299235
 21
2417.806706678885
 31
0.0
  0
LINE
  5
34C
330
1F
100
AcDbEntity
  8
LAY-10
  6
CONTINUOUS
 62
     7
100
AcDbLine
 10
687.7810803299235
 20
2437.806706678884
 30
0.0
 11
689.387380342725
 21
2437.806706678884
 31
0.0
  0
LINE
  5
34D
330
1F
100
AcDbEntity
  8
LAY-10
  6
CONTINUOUS
 62
     7
100
AcDbLine
 10
687.7810803299235
 20
2429.806706678885
 30
0.0
 11
689.387380342725
 21
2429.806706678885
 31
0.0
  0
LINE
  5
34E
330
1F
100
AcDbEntity
  8
LAY-10
  6
CONTINUOUS
 62
     7
100
AcDbLine
 10
687.7810803299235
 20
2429.806706678885
 30
0.0
 11
687.7810803299235
 21
2437.806706678884
 31
0.0
  0
LINE
  5
34F
330
1F
100
AcDbEntity
  8
LAY-10
  6
CONTINUOUS
 62
     7
100
AcDbLine
 10
677.2810803299235
 20
2440.306706678884
 30
0.0
 11
681.2810803299235
 21
2433.806706678884
 31
0.0
  0
LINE
  5
350
330
1F
100
AcDbEntity
  8
LAY-10
  6
CONTINUOUS
 62
     7
100
AcDbLine
 10
681.2810803299235
 20
2433.806706678884
 30
0.0
 11
677.2810803299235
 21
2427.306706678884
 31
0.0
  0
LINE
  5
351
330
1F
100
AcDbEntity
  8
LAY-10
  6
CONTINUOUS
 62
     7
100
AcDbLine
 10
677.2810803299235
 20
2427.306706678884
 30
0.0
 11
673.2810803299234
 21
2433.806706678884
 31
0.0
  0
LINE
  5
352
330
1F
100
AcDbEntity
  8
LAY-10
  6
CONTINUOUS
 62
     7
100
AcDbLine
 10
673.2810803299234
 20
2433.806706678884
 30
0.0
 11
677.2810803299235
 21
2440.306706678884
 31
0.0
  0
CIRCLE
  5
353
330
1F
100
AcDbEntity
  8
LAY-10
  6
CONTINUOUS
 62
     7
100
AcDbCircle
 10
677.2810803299235
 20
2433.806706678884
 30
0.0
 40
12.75000000000001
  0
LINE
  5
354
330
1F
100
AcDbEntity
  8
LAY-10
  6
CONTINUOUS
 62
     7
100
AcDbLine
 10
1013.281080329924
 20
2417.806706678885
 30
0.0
 11
1013.281080329924
 21
2449.806706678884
 31
0.0
  0
LINE
  5
355
330
1F
100
AcDbEntity
  8
LAY-10
  6
CONTINUOUS
 62
     7
100
AcDbLine
 10
1045.281080329924
 20
2417.806706678885
 30
0.0
 11
1013.281080329924
 21
2417.806706678885
 31
0.0
  0
LINE
  5
356
330
1F
100
AcDbEntity
  8
LAY-10
  6
CONTINUOUS
 62
     7
100
AcDbLine
 10
1039.781080329924
 20
2437.806706678884
 30
0.0
 11
1041.387380342726
 21
2437.806706678884
 31
0.0
  0
LINE
  5
357
330
1F
100
AcDbEntity
  8
LAY-10
  6
CONTINUOUS
 62
     7
100
AcDbLine
 10
1039.781080329924
 20
2429.806706678885
 30
0.0
 11
1041.387380342726
 21
2429.806706678885
 31
0.0
  0
LINE
  5
358
330
1F
100
AcDbEntity
  8
LAY-10
  6
CONTINUOUS
 62
     7
100
AcDbLine
 10
1039.781080329924
 20
2429.806706678885
 30
0.0
 11
1039.781080329924
 21
2437.806706678884
 31
0.0
  0
LINE
  5
359
330
1F
100
AcDbEntity
  8
LAY-10
  6
CONTINUOUS
 62
     7
100
AcDbLine
 10
1029.281080329924
 20
2440.306706678884
 30
0.0
 11
1033.281080329924
 21
2433.806706678884
 31
0.0
  0
LINE
  5
35A
330
1F
100
AcDbEntity
  8
LAY-10
  6
CONTINUOUS
 62
     7
100
AcDbLine
 10
1033.281080329924
 20
2433.806706678884
 30
0.0
 11
1029.281080329924
 21
2427.306706678884
 31
0.0
  0
LINE
  5
35B
330
1F
100
AcDbEntity
  8
LAY-10
  6
CONTINUOUS
 62
     7
100
AcDbLine
 10
1029.281080329924
 20
2427.306706678884
 30
0.0
 11
1025.281080329924
 21
2433.806706678884
 31
0.0
  0
LINE
  5
35C
330
1F
100
AcDbEntity
  8
LAY-10
  6
CONTINUOUS
 62
     7
100
AcDbLine
 10
1025.281080329924
 20
2433.806706678884
 30
0.0
 11
1029.281080329924
 21
2440.306706678884
 31
0.0
  0
CIRCLE
  5
35D
330
1F
100
AcDbEntity
  8
LAY-10
  6
CONTINUOUS
 62
     7
100
AcDbCircle
 10
1029.281080329924
 20
2433.806706678884
 30
0.0
 40
12.75000000000001
  0
LINE
  5
35E
330
1F
100
AcDbEntity
  8
LAY-10
  6
CONTINUOUS
 62
     7
100
AcDbLine
 10
693.2810803299217
 20
1327.806706678885
 30
0.0
 11
693.2810803299217
 21
1359.806706678884
 31
0.0
  0
LINE
  5
35F
330
1F
100
AcDbEntity
  8
LAY-10
  6
CONTINUOUS
 62
     7
100
AcDbLine
 10
661.2810803299235
 20
1359.806706678884
 30
0.0
 11
693.2810803299234
 21
1359.806706678884
 31
0.0
  0
LINE
  5
360
330
1F
100
AcDbEntity
  8
LAY-10
  6
CONTINUOUS
 62
     7
100
AcDbLine
 10
687.7810803299235
 20
1347.806706678883
 30
0.0
 11
689.387380342725
 21
1347.806706678883
 31
0.0
  0
LINE
  5
361
330
1F
100
AcDbEntity
  8
LAY-10
  6
CONTINUOUS
 62
     7
100
AcDbLine
 10
687.7810803299235
 20
1339.806706678885
 30
0.0
 11
689.387380342725
 21
1339.806706678885
 31
0.0
  0
LINE
  5
362
330
1F
100
AcDbEntity
  8
LAY-10
  6
CONTINUOUS
 62
     7
100
AcDbLine
 10
687.7810803299235
 20
1339.806706678885
 30
0.0
 11
687.7810803299235
 21
1347.806706678883
 31
0.0
  0
LINE
  5
363
330
1F
100
AcDbEntity
  8
LAY-10
  6
CONTINUOUS
 62
     7
100
AcDbLine
 10
677.2810803299235
 20
1350.306706678884
 30
0.0
 11
681.2810803299235
 21
1343.806706678884
 31
0.0
  0
LINE
  5
364
330
1F
100
AcDbEntity
  8
LAY-10
  6
CONTINUOUS
 62
     7
100
AcDbLine
 10
681.2810803299235
 20
1343.806706678884
 30
0.0
 11
677.2810803299235
 21
1337.306706678884
 31
0.0
  0
LINE
  5
365
330
1F
100
AcDbEntity
  8
LAY-10
  6
CONTINUOUS
 62
     7
100
AcDbLine
 10
677.2810803299235
 20
1337.306706678884
 30
0.0
 11
673.2810803299234
 21
1343.806706678884
 31
0.0
  0
LINE
  5
366
330
1F
100
AcDbEntity
  8
LAY-10
  6
CONTINUOUS
 62
     7
100
AcDbLine
 10
673.2810803299234
 20
1343.806706678884
 30
0.0
 11
677.2810803299235
 21
1350.306706678884
 31
0.0
  0
CIRCLE
  5
367
330
1F
100
AcDbEntity
  8
LAY-10
  6
CONTINUOUS
 62
     7
100
AcDbCircle
 10
677.2810803299235
 20
1343.806706678884
 30
0.0
 40
12.75000000000001
  0
LINE
  5
368
330
1F
100
AcDbEntity
  8
LAY-10
  6
CONTINUOUS
 62
     7
100
AcDbLine
 10
1077.281080329921
 20
2449.806706678887
 30
0.0
 11
1062.281080329921
 21
2464.806706678885
 31
0.0
  0
LINE
  5
369
330
1F
100
AcDbEntity
  8
LAY-10
  6
CONTINUOUS
 62
     7
100
AcDbLine
 10
1109.281080329922
 20
2417.806706678885
 30
0.0
 11
1109.281080329922
 21
2449.806706678884
 31
0.0
  0
LINE
  5
36A
330
1F
100
AcDbEntity
  8
LAY-10
  6
CONTINUOUS
 62
     7
100
AcDbLine
 10
1109.281080329923
 20
2417.806706678885
 30
0.0
 11
1077.281080329923
 21
2417.806706678885
 31
0.0
  0
LINE
  5
36B
330
1F
100
AcDbEntity
  8
LAY-10
  6
CONTINUOUS
 62
     7
100
AcDbLine
 10
1103.781080329923
 20
2437.806706678884
 30
0.0
 11
1105.387380342725
 21
2437.806706678884
 31
0.0
  0
LINE
  5
36C
330
1F
100
AcDbEntity
  8
LAY-10
  6
CONTINUOUS
 62
     7
100
AcDbLine
 10
1103.781080329923
 20
2429.806706678885
 30
0.0
 11
1105.387380342725
 21
2429.806706678885
 31
0.0
  0
LINE
  5
36D
330
1F
100
AcDbEntity
  8
LAY-10
  6
CONTINUOUS
 62
     7
100
AcDbLine
 10
1103.781080329923
 20
2429.806706678885
 30
0.0
 11
1103.781080329923
 21
2437.806706678884
 31
0.0
  0
LINE
  5
36E
330
1F
100
AcDbEntity
  8
LAY-10
  6
CONTINUOUS
 62
     7
100
AcDbLine
 10
1093.281080329923
 20
2440.306706678884
 30
0.0
 11
1097.281080329923
 21
2433.806706678884
 31
0.0
  0
LINE
  5
36F
330
1F
100
AcDbEntity
  8
LAY-10
  6
CONTINUOUS
 62
     7
100
AcDbLine
 10
1097.281080329923
 20
2433.806706678884
 30
0.0
 11
1093.281080329923
 21
2427.306706678884
 31
0.0
  0
LINE
  5
370
330
1F
100
AcDbEntity
  8
LAY-10
  6
CONTINUOUS
 62
     7
100
AcDbLine
 10
1093.281080329923
 20
2427.306706678884
 30
0.0
 11
1089.281080329923
 21
2433.806706678884
 31
0.0
  0
LINE
  5
371
330
1F
100
AcDbEntity
  8
LAY-10
  6
CONTINUOUS
 62
     7
100
AcDbLine
 10
1089.281080329923
 20
2433.806706678884
 30
0.0
 11
1093.281080329923
 21
2440.306706678884
 31
0.0
  0
CIRCLE
  5
372
330
1F
100
AcDbEntity
  8
LAY-10
  6
CONTINUOUS
 62
     7
100
AcDbCircle
 10
1093.281080329923
 20
2433.806706678884
 30
0.0
 40
12.75000000000001
  0
LINE
  5
373
330
1F
100
AcDbEntity
  8
LAY-10
  6
CONTINUOUS
 62
     7
100
AcDbLine
 10
2306.281080329901
 20
1351.806706678884
 30
0.0
 11
2306.281080329901
 21
2425.806706678884
 31
0.0
  0
LINE
  5
374
330
1F
100
AcDbEntity
  8
LAY-10
  6
CONTINUOUS
 62
     7
100
AcDbLine
 10
1014.781080329915
 20
2480.806706679047
 30
0.0
 11
1014.781080329915
 21
2509.705191488884
 31
0.0
  0
LINE
  5
375
330
1F
100
AcDbEntity
  8
LAY-10
  6
CONTINUOUS
 62
     7
100
AcDbLine
 10
1023.781080329915
 20
2480.806706679047
 30
0.0
 11
1023.781080329915
 21
2509.705191488884
 31
0.0
  0
LINE
  5
376
330
1F
100
AcDbEntity
  8
LAY-10
  6
CONTINUOUS
 62
     7
100
AcDbLine
 10
1014.781080329915
 20
2509.705191488884
 30
0.0
 11
1023.781080329915
 21
2509.705191488884
 31
0.0
  0
LINE
  5
377
330
1F
100
AcDbEntity
  8
LAY-10
  6
CONTINUOUS
 62
     7
100
AcDbLine
 10
1514.781080329915
 20
2480.806706679047
 30
0.0
 11
1514.781080329915
 21
2509.705191488884
 31
0.0
  0
LINE
  5
378
330
1F
100
AcDbEntity
  8
LAY-10
  6
CONTINUOUS
 62
     7
100
AcDbLine
 10
1523.781080329915
 20
2480.806706679047
 30
0.0
 11
1523.781080329915
 21
2509.705191488884
 31
0.0
  0
LINE
  5
379
330
1F
100
AcDbEntity
  8
LAY-10
  6
CONTINUOUS
 62
     7
100
AcDbLine
 10
1514.781080329915
 20
2509.705191488884
 30
0.0
 11
1523.781080329915
 21
2509.705191488884
 31
0.0
  0
LINE
  5
37A
330
1F
100
AcDbEntity
  8
LAY-10
  6
CONTINUOUS
 62
     7
100
AcDbLine
 10
2014.781080329915
 20
2480.806706679047
 30
0.0
 11
2014.781080329915
 21
2509.705191488884
 31
0.0
  0
LINE
  5
37B
330
1F
100
AcDbEntity
  8
LAY-10
  6
CONTINUOUS
 62
     7
100
AcDbLine
 10
2023.781080329915
 20
2480.806706679047
 30
0.0
 11
2023.781080329915
 21
2509.705191488884
 31
0.0
  0
LINE
  5
37C
330
1F
100
AcDbEntity
  8
LAY-10
  6
CONTINUOUS
 62
     7
100
AcDbLine
 10
2014.781080329915
 20
2509.705191488884
 30
0.0
 11
2023.781080329915
 21
2509.705191488884
 31
0.0
  0
LINE
  5
37D
330
1F
100
AcDbEntity
  8
LAY-10
  6
CONTINUOUS
 62
     7
100
AcDbLine
 10
523.7810803298535
 20
2480.806706679047
 30
0.0
 11
523.7810803298535
 21
2509.705191488884
 31
0.0
  0
LINE
  5
37E
330
1F
100
AcDbEntity
  8
LAY-10
  6
CONTINUOUS
 62
     7
100
AcDbLine
 10
514.7810803298535
 20
2480.806706679047
 30
0.0
 11
514.7810803298535
 21
2509.705191488884
 31
0.0
  0
LINE
  5
37F
330
1F
100
AcDbEntity
  8
LAY-10
  6
CONTINUOUS
 62
     7
100
AcDbLine
 10
523.7810803298535
 20
2509.705191488884
 30
0.0
 11
514.7810803298535
 21
2509.705191488884
 31
0.0
  0
LINE
  5
380
330
1F
100
AcDbEntity
  8
LAY-10
  6
CONTINUOUS
 62
     7
100
AcDbLine
 10
1014.781080329915
 20
1296.806706678851
 30
0.0
 11
1014.781080329915
 21
1267.908221869014
 31
0.0
  0
LINE
  5
381
330
1F
100
AcDbEntity
  8
LAY-10
  6
CONTINUOUS
 62
     7
100
AcDbLine
 10
1023.781080329915
 20
1296.806706678851
 30
0.0
 11
1023.781080329915
 21
1267.908221869014
 31
0.0
  0
LINE
  5
382
330
1F
100
AcDbEntity
  8
LAY-10
  6
CONTINUOUS
 62
     7
100
AcDbLine
 10
1014.781080329915
 20
1267.908221869014
 30
0.0
 11
1023.781080329915
 21
1267.908221869014
 31
0.0
  0
LINE
  5
383
330
1F
100
AcDbEntity
  8
LAY-10
  6
CONTINUOUS
 62
     7
100
AcDbLine
 10
1514.781080329915
 20
1296.806706678851
 30
0.0
 11
1514.781080329915
 21
1267.908221869014
 31
0.0
  0
LINE
  5
384
330
1F
100
AcDbEntity
  8
LAY-10
  6
CONTINUOUS
 62
     7
100
AcDbLine
 10
1523.781080329915
 20
1296.806706678851
 30
0.0
 11
1523.781080329915
 21
1267.908221869014
 31
0.0
  0
LINE
  5
385
330
1F
100
AcDbEntity
  8
LAY-10
  6
CONTINUOUS
 62
     7
100
AcDbLine
 10
1514.781080329915
 20
1267.908221869014
 30
0.0
 11
1523.781080329915
 21
1267.908221869014
 31
0.0
  0
LINE
  5
386
330
1F
100
AcDbEntity
  8
LAY-10
  6
CONTINUOUS
 62
     7
100
AcDbLine
 10
2014.781080329915
 20
1296.806706678851
 30
0.0
 11
2014.781080329915
 21
1267.908221869014
 31
0.0
  0
LINE
  5
387
330
1F
100
AcDbEntity
  8
LAY-10
  6
CONTINUOUS
 62
     7
100
AcDbLine
 10
2023.781080329915
 20
1296.806706678851
 30
0.0
 11
2023.781080329915
 21
1267.908221869014
 31
0.0
  0
LINE
  5
388
330
1F
100
AcDbEntity
  8
LAY-10
  6
CONTINUOUS
 62
     7
100
AcDbLine
 10
2014.781080329915
 20
1267.908221869014
 30
0.0
 11
2023.781080329915
 21
1267.908221869014
 31
0.0
  0
LINE
  5
389
330
1F
100
AcDbEntity
  8
LAY-10
  6
CONTINUOUS
 62
     7
100
AcDbLine
 10
523.7810803298535
 20
1296.806706678851
 30
0.0
 11
523.7810803298535
 21
1267.908221869014
 31
0.0
  0
LINE
  5
38A
330
1F
100
AcDbEntity
  8
LAY-10
  6
CONTINUOUS
 62
     7
100
AcDbLine
 10
514.7810803298535
 20
1296.806706678851
 30
0.0
 11
514.7810803298535
 21
1267.908221869014
 31
0.0
  0
LINE
  5
38B
330
1F
100
AcDbEntity
  8
LAY-10
  6
CONTINUOUS
 62
     7
100
AcDbLine
 10
523.7810803298535
 20
1267.908221869014
 30
0.0
 11
514.7810803298535
 21
1267.908221869014
 31
0.0
  0
LINE
  5
38C
330
1F
100
AcDbEntity
  8
LAY-10
  6
CONTINUOUS
 62
     7
100
AcDbLine
 10
214.281080329888
 20
2143.30670667892
 30
0.0
 11
179.7257412705503
 21
2143.306706678921
 31
0.0
  0
LINE
  5
38D
330
1F
100
AcDbEntity
  8
LAY-10
  6
CONTINUOUS
 62
     7
100
AcDbLine
 10
214.281080329888
 20
2134.306706678918
 30
0.0
 11
179.7257412705503
 21
2134.306706678919
 31
0.0
  0
LINE
  5
38E
330
1F
100
AcDbEntity
  8
LAY-10
  6
CONTINUOUS
 62
     7
100
AcDbLine
 10
179.7257412705503
 20
2143.306706678921
 30
0.0
 11
179.7257412705503
 21
2134.306706678919
 31
0.0
  0
LINE
  5
38F
330
1F
100
AcDbEntity
  8
LAY-10
  6
CONTINUOUS
 62
     7
100
AcDbLine
 10
214.281080329888
 20
1634.306706678978
 30
0.0
 11
179.7257412705503
 21
1634.306706678977
 31
0.0
  0
LINE
  5
390
330
1F
100
AcDbEntity
  8
LAY-10
  6
CONTINUOUS
 62
     7
100
AcDbLine
 10
214.281080329888
 20
1643.30670667898
 30
0.0
 11
179.7257412705503
 21
1643.306706678979
 31
0.0
  0
LINE
  5
391
330
1F
100
AcDbEntity
  8
LAY-10
  6
CONTINUOUS
 62
     7
100
AcDbLine
 10
179.7257412705503
 20
1634.306706678977
 30
0.0
 11
179.7257412705503
 21
1643.306706678979
 31
0.0
  0
LINE
  5
392
330
1F
100
AcDbEntity
  8
LAY-10
  6
CONTINUOUS
 62
     7
100
AcDbLine
 10
2324.281080329881
 20
2143.30670667892
 30
0.0
 11
2358.836419389218
 21
2143.306706678921
 31
0.0
  0
LINE
  5
393
330
1F
100
AcDbEntity
  8
LAY-10
  6
CONTINUOUS
 62
     7
100
AcDbLine
 10
2324.281080329881
 20
2134.306706678918
 30
0.0
 11
2358.836419389218
 21
2134.306706678919
 31
0.0
  0
LINE
  5
394
330
1F
100
AcDbEntity
  8
LAY-10
  6
CONTINUOUS
 62
     7
100
AcDbLine
 10
2358.836419389218
 20
2143.306706678921
 30
0.0
 11
2358.836419389218
 21
2134.306706678919
 31
0.0
  0
LINE
  5
395
330
1F
100
AcDbEntity
  8
LAY-10
  6
CONTINUOUS
 62
     7
100
AcDbLine
 10
2324.281080329881
 20
1634.306706678978
 30
0.0
 11
2358.836419389218
 21
1634.306706678977
 31
0.0
  0
LINE
  5
396
330
1F
100
AcDbEntity
  8
LAY-10
  6
CONTINUOUS
 62
     7
100
AcDbLine
 10
2324.281080329881
 20
1643.30670667898
 30
0.0
 11
2358.836419389218
 21
1643.306706678979
 31
0.0
  0
LINE
  5
397
330
1F
100
AcDbEntity
  8
LAY-10
  6
CONTINUOUS
 62
     7
100
AcDbLine
 10
2358.836419389218
 20
1634.306706678977
 30
0.0
 11
2358.836419389218
 21
1643.306706678979
 31
0.0
  0
LINE
  5
398
330
1F
100
AcDbEntity
  8
LAY-10
  6
CONTINUOUS
 62
     7
100
AcDbLine
 10
2168.281080329777
 20
2107.306706678921
 30
0.0
 11
2130.281080329777
 21
2107.306706678919
 31
0.0
  0
LINE
  5
399
330
1F
100
AcDbEntity
  8
LAY-10
  6
CONTINUOUS
 62
     7
100
AcDbLine
 10
2158.281080329777
 20
2082.306706678919
 30
0.0
 11
2158.281080329777
 21
2102.306706678919
 31
0.0
  0
LINE
  5
39A
330
1F
100
AcDbEntity
  8
LAY-10
  6
CONTINUOUS
 62
     7
100
AcDbLine
 10
2183.981080329781
 20
2082.306706678919
 30
0.0
 11
2158.281080329777
 21
2082.306706678919
 31
0.0
  0
LINE
  5
39B
330
1F
100
AcDbEntity
  8
LAY-10
  6
CONTINUOUS
 62
     7
100
AcDbLine
 10
2173.981080329778
 20
2072.306706678921
 30
0.0
 11
2168.281080329777
 21
2072.306706678921
 31
0.0
  0
LINE
  5
39C
330
1F
100
AcDbEntity
  8
LAY-10
  6
CONTINUOUS
 62
     7
100
AcDbLine
 10
2168.281080329777
 20
2072.306706678921
 30
0.0
 11
2168.281080329777
 21
2082.306706678919
 31
0.0
  0
LINE
  5
39D
330
1F
100
AcDbEntity
  8
LAY-10
  6
CONTINUOUS
 62
     7
100
AcDbLine
 10
2183.981080329781
 20
2082.306706678919
 30
0.0
 11
2183.981080329781
 21
2102.306706678919
 31
0.0
  0
LINE
  5
39E
330
1F
100
AcDbEntity
  8
LAY-10
  6
CONTINUOUS
 62
     7
100
AcDbLine
 10
2183.981080329781
 20
2102.306706678919
 30
0.0
 11
2158.281080329777
 21
2102.306706678919
 31
0.0
  0
LINE
  5
39F
330
1F
100
AcDbEntity
  8
LAY-10
  6
CONTINUOUS
 62
     7
100
AcDbLine
 10
2174.281080329777
 20
2107.306706678921
 30
0.0
 11
2174.281080329777
 21
2102.306706678919
 31
0.0
  0
ARC
  5
3A0
330
1F
100
AcDbEntity
  8
LAY-10
  6
CONTINUOUS
 62
     7
100
AcDbCircle
 10
2168.281080329777
 20
2107.306706678921
 30
0.0
 40
6.000000000000005
100
AcDbArc
 50
0.0
 51
90.00000000000001
  0
LINE
  5
3A1
330
1F
100
AcDbEntity
  8
LAY-10
  6
CONTINUOUS
 62
     7
100
AcDbLine
 10
2168.281080329777
 20
2113.306706678918
 30
0.0
 11
2130.281080329777
 21
2113.306706678918
 31
0.0
  0
ARC
  5
3A2
330
1F
100
AcDbEntity
  8
LAY-10
  6
CONTINUOUS
 62
     7
100
AcDbCircle
 10
2130.281080329777
 20
2113.306706678918
 30
0.0
 40
6.000000000000005
100
AcDbArc
 50
180.0
 51
270.0000000000002
  0
LINE
  5
3A3
330
1F
100
AcDbEntity
  8
LAY-10
  6
CONTINUOUS
 62
     7
100
AcDbLine
 10
2168.281080329777
 20
2201.306706678921
 30
0.0
 11
2130.281080329777
 21
2201.306706678919
 31
0.0
  0
LINE
  5
3A4
330
1F
100
AcDbEntity
  8
LAY-10
  6
CONTINUOUS
 62
     7
100
AcDbLine
 10
2168.281080329777
 20
2207.306706678921
 30
0.0
 11
2130.281080329777
 21
2207.306706678919
 31
0.0
  0
ARC
  5
3A5
330
1F
100
AcDbEntity
  8
LAY-10
  6
CONTINUOUS
 62
     7
100
AcDbCircle
 10
2130.281080329777
 20
2201.306706678919
 30
0.0
 40
6.000000000000005
100
AcDbArc
 50
90.00000000000001
 51
180.0
  0
ARC
  5
3A6
330
1F
100
AcDbEntity
  8
LAY-10
  6
CONTINUOUS
 62
     7
100
AcDbCircle
 10
2168.281080329777
 20
2207.306706678921
 30
0.0
 40
6.000000000000005
100
AcDbArc
 50
270.0000000000002
 51
0.0
  0
LINE
  5
3A7
330
1F
100
AcDbEntity
  8
LAY-10
  6
CONTINUOUS
 62
     7
100
AcDbLine
 10
2168.281080329777
 20
2242.306706678919
 30
0.0
 11
2168.281080329777
 21
2232.306706678921
 31
0.0
  0
LINE
  5
3A8
330
1F
100
AcDbEntity
  8
LAY-10
  6
CONTINUOUS
 62
     7
100
AcDbLine
 10
2174.281080329777
 20
2207.306706678921
 30
0.0
 11
2174.281080329777
 21
2212.306706678921
 31
0.0
  0
LINE
  5
3A9
330
1F
100
AcDbEntity
  8
LAY-10
  6
CONTINUOUS
 62
     7
100
AcDbLine
 10
2183.981080329781
 20
2212.306706678921
 30
0.0
 11
2158.281080329777
 21
2212.306706678921
 31
0.0
  0
LINE
  5
3AA
330
1F
100
AcDbEntity
  8
LAY-10
  6
CONTINUOUS
 62
     7
100
AcDbLine
 10
2158.281080329777
 20
2232.306706678921
 30
0.0
 11
2158.281080329777
 21
2212.306706678921
 31
0.0
  0
LINE
  5
3AB
330
1F
100
AcDbEntity
  8
LAY-10
  6
CONTINUOUS
 62
     7
100
AcDbLine
 10
2183.981080329781
 20
2232.306706678921
 30
0.0
 11
2158.281080329777
 21
2232.306706678921
 31
0.0
  0
LINE
  5
3AC
330
1F
100
AcDbEntity
  8
LAY-10
  6
CONTINUOUS
 62
     7
100
AcDbLine
 10
2174.281080329777
 20
2242.306706678919
 30
0.0
 11
2168.281080329777
 21
2242.306706678919
 31
0.0
  0
LINE
  5
3AD
330
1F
100
AcDbEntity
  8
LAY-10
  6
CONTINUOUS
 62
     7
100
AcDbLine
 10
2175.281080329777
 20
2212.306706678921
 30
0.0
 11
2175.281080329777
 21
2232.306706678921
 31
0.0
  0
LINE
  5
3AE
330
1F
100
AcDbEntity
  8
LAY-10
  6
CONTINUOUS
 62
     7
100
AcDbLine
 10
2175.281080329777
 20
2102.306706678919
 30
0.0
 11
2175.281080329777
 21
2082.306706678919
 31
0.0
  0
LINE
  5
3AF
330
1F
100
AcDbEntity
  8
LAY-10
  6
CONTINUOUS
 62
     7
100
AcDbLine
 10
2167.281080329777
 20
2082.306706678919
 30
0.0
 11
2167.281080329777
 21
2102.306706678919
 31
0.0
  0
LINE
  5
3B0
330
1F
100
AcDbEntity
  8
LAY-10
  6
CONTINUOUS
 62
     7
100
AcDbLine
 10
2167.281080329777
 20
2212.306706678921
 30
0.0
 11
2167.281080329777
 21
2232.306706678921
 31
0.0
  0
LINE
  5
3B1
330
1F
100
AcDbEntity
  8
LAY-10
  6
CONTINUOUS
 62
     7
100
AcDbLine
 10
2183.981080329781
 20
2212.306706678921
 30
0.0
 11
2183.981080329781
 21
2232.306706678921
 31
0.0
  0
LINE
  5
3B2
330
1F
100
AcDbEntity
  8
LAY-10
  6
CONTINUOUS
 62
     7
100
AcDbLine
 10
2168.281080329777
 20
2102.306706678919
 30
0.0
 11
2168.281080329777
 21
2107.306706678921
 31
0.0
  0
LINE
  5
3B3
330
1F
100
AcDbEntity
  8
LAY-10
  6
CONTINUOUS
 62
     7
100
AcDbLine
 10
2174.281080329777
 20
2082.306706678919
 30
0.0
 11
2174.281080329777
 21
2072.306706678921
 31
0.0
  0
LINE
  5
3B4
330
1F
100
AcDbEntity
  8
LAY-10
  6
CONTINUOUS
 62
     7
100
AcDbLine
 10
2168.281080329777
 20
2212.306706678921
 30
0.0
 11
2168.281080329777
 21
2207.306706678921
 31
0.0
  0
LINE
  5
3B5
330
1F
100
AcDbEntity
  8
LAY-10
  6
CONTINUOUS
 62
     7
100
AcDbLine
 10
2174.281080329777
 20
2232.306706678921
 30
0.0
 11
2174.281080329777
 21
2242.606706678921
 31
0.0
  0
LINE
  5
3B6
330
1F
100
AcDbEntity
  8
LAY-10
  6
CONTINUOUS
 62
     7
100
AcDbLine
 10
2130.281080329777
 20
2113.306706678918
 30
0.0
 11
2130.281080329777
 21
2201.306706678919
 31
0.0
  0
LINE
  5
3B7
330
1F
100
AcDbEntity
  8
LAY-10
  6
CONTINUOUS
 62
     7
100
AcDbLine
 10
2124.281080329781
 20
2113.306706678918
 30
0.0
 11
2124.281080329781
 21
2201.306706678919
 31
0.0
  0
LINE
  5
3B8
330
1F
100
AcDbEntity
  8
LAY-10
  6
CONTINUOUS
 62
     7
100
AcDbLine
 10
2168.281080329777
 20
1670.306706678977
 30
0.0
 11
2130.281080329777
 21
1670.306706678979
 31
0.0
  0
LINE
  5
3B9
330
1F
100
AcDbEntity
  8
LAY-10
  6
CONTINUOUS
 62
     7
100
AcDbLine
 10
2158.281080329777
 20
1695.306706678979
 30
0.0
 11
2158.281080329777
 21
1675.306706678979
 31
0.0
  0
LINE
  5
3BA
330
1F
100
AcDbEntity
  8
LAY-10
  6
CONTINUOUS
 62
     7
100
AcDbLine
 10
2183.981080329781
 20
1695.306706678979
 30
0.0
 11
2158.281080329777
 21
1695.306706678979
 31
0.0
  0
LINE
  5
3BB
330
1F
100
AcDbEntity
  8
LAY-10
  6
CONTINUOUS
 62
     7
100
AcDbLine
 10
2173.981080329778
 20
1705.306706678977
 30
0.0
 11
2168.281080329777
 21
1705.306706678977
 31
0.0
  0
LINE
  5
3BC
330
1F
100
AcDbEntity
  8
LAY-10
  6
CONTINUOUS
 62
     7
100
AcDbLine
 10
2168.281080329777
 20
1705.306706678977
 30
0.0
 11
2168.281080329777
 21
1695.306706678979
 31
0.0
  0
LINE
  5
3BD
330
1F
100
AcDbEntity
  8
LAY-10
  6
CONTINUOUS
 62
     7
100
AcDbLine
 10
2183.981080329781
 20
1695.306706678979
 30
0.0
 11
2183.981080329781
 21
1675.306706678979
 31
0.0
  0
LINE
  5
3BE
330
1F
100
AcDbEntity
  8
LAY-10
  6
CONTINUOUS
 62
     7
100
AcDbLine
 10
2183.981080329781
 20
1675.306706678979
 30
0.0
 11
2158.281080329777
 21
1675.306706678979
 31
0.0
  0
LINE
  5
3BF
330
1F
100
AcDbEntity
  8
LAY-10
  6
CONTINUOUS
 62
     7
100
AcDbLine
 10
2174.281080329777
 20
1670.306706678977
 30
0.0
 11
2174.281080329777
 21
1675.306706678979
 31
0.0
  0
ARC
  5
3C0
330
1F
100
AcDbEntity
  8
LAY-10
  6
CONTINUOUS
 62
     7
100
AcDbCircle
 10
2168.281080329777
 20
1670.306706678977
 30
0.0
 40
6.000000000000005
100
AcDbArc
 50
270.0
 51
0.0
  0
LINE
  5
3C1
330
1F
100
AcDbEntity
  8
LAY-10
  6
CONTINUOUS
 62
     7
100
AcDbLine
 10
2168.281080329777
 20
1664.306706678981
 30
0.0
 11
2130.281080329777
 21
1664.306706678981
 31
0.0
  0
ARC
  5
3C2
330
1F
100
AcDbEntity
  8
LAY-10
  6
CONTINUOUS
 62
     7
100
AcDbCircle
 10
2130.281080329777
 20
1664.306706678981
 30
0.0
 40
6.000000000000005
100
AcDbArc
 50
90.00000000000001
 51
180.0
  0
LINE
  5
3C3
330
1F
100
AcDbEntity
  8
LAY-10
  6
CONTINUOUS
 62
     7
100
AcDbLine
 10
2168.281080329777
 20
1576.306706678977
 30
0.0
 11
2130.281080329777
 21
1576.306706678979
 31
0.0
  0
LINE
  5
3C4
330
1F
100
AcDbEntity
  8
LAY-10
  6
CONTINUOUS
 62
     7
100
AcDbLine
 10
2168.281080329777
 20
1570.306706678977
 30
0.0
 11
2130.281080329777
 21
1570.306706678979
 31
0.0
  0
ARC
  5
3C5
330
1F
100
AcDbEntity
  8
LAY-10
  6
CONTINUOUS
 62
     7
100
AcDbCircle
 10
2130.281080329777
 20
1576.306706678979
 30
0.0
 40
6.000000000000005
100
AcDbArc
 50
180.0
 51
270.0
  0
ARC
  5
3C6
330
1F
100
AcDbEntity
  8
LAY-10
  6
CONTINUOUS
 62
     7
100
AcDbCircle
 10
2168.281080329777
 20
1570.306706678977
 30
0.0
 40
6.000000000000005
100
AcDbArc
 50
0.0
 51
90.00000000000001
  0
LINE
  5
3C7
330
1F
100
AcDbEntity
  8
LAY-10
  6
CONTINUOUS
 62
     7
100
AcDbLine
 10
2168.281080329777
 20
1535.306706678979
 30
0.0
 11
2168.281080329777
 21
1545.306706678977
 31
0.0
  0
LINE
  5
3C8
330
1F
100
AcDbEntity
  8
LAY-10
  6
CONTINUOUS
 62
     7
100
AcDbLine
 10
2174.281080329777
 20
1570.306706678977
 30
0.0
 11
2174.281080329777
 21
1565.306706678977
 31
0.0
  0
LINE
  5
3C9
330
1F
100
AcDbEntity
  8
LAY-10
  6
CONTINUOUS
 62
     7
100
AcDbLine
 10
2183.981080329781
 20
1565.306706678977
 30
0.0
 11
2158.281080329777
 21
1565.306706678977
 31
0.0
  0
LINE
  5
3CA
330
1F
100
AcDbEntity
  8
LAY-10
  6
CONTINUOUS
 62
     7
100
AcDbLine
 10
2158.281080329777
 20
1545.306706678977
 30
0.0
 11
2158.281080329777
 21
1565.306706678977
 31
0.0
  0
LINE
  5
3CB
330
1F
100
AcDbEntity
  8
LAY-10
  6
CONTINUOUS
 62
     7
100
AcDbLine
 10
2183.981080329781
 20
1545.306706678977
 30
0.0
 11
2158.281080329777
 21
1545.306706678977
 31
0.0
  0
LINE
  5
3CC
330
1F
100
AcDbEntity
  8
LAY-10
  6
CONTINUOUS
 62
     7
100
AcDbLine
 10
2174.281080329777
 20
1535.306706678979
 30
0.0
 11
2168.281080329777
 21
1535.306706678979
 31
0.0
  0
LINE
  5
3CD
330
1F
100
AcDbEntity
  8
LAY-10
  6
CONTINUOUS
 62
     7
100
AcDbLine
 10
2175.281080329777
 20
1565.306706678977
 30
0.0
 11
2175.281080329777
 21
1545.306706678977
 31
0.0
  0
LINE
  5
3CE
330
1F
100
AcDbEntity
  8
LAY-10
  6
CONTINUOUS
 62
     7
100
AcDbLine
 10
2175.281080329777
 20
1675.306706678979
 30
0.0
 11
2175.281080329777
 21
1695.306706678979
 31
0.0
  0
LINE
  5
3CF
330
1F
100
AcDbEntity
  8
LAY-10
  6
CONTINUOUS
 62
     7
100
AcDbLine
 10
2167.281080329777
 20
1695.306706678979
 30
0.0
 11
2167.281080329777
 21
1675.306706678979
 31
0.0
  0
LINE
  5
3D0
330
1F
100
AcDbEntity
  8
LAY-10
  6
CONTINUOUS
 62
     7
100
AcDbLine
 10
2167.281080329777
 20
1565.306706678977
 30
0.0
 11
2167.281080329777
 21
1545.306706678977
 31
0.0
  0
LINE
  5
3D1
330
1F
100
AcDbEntity
  8
LAY-10
  6
CONTINUOUS
 62
     7
100
AcDbLine
 10
2183.981080329781
 20
1565.306706678977
 30
0.0
 11
2183.981080329781
 21
1545.306706678977
 31
0.0
  0
LINE
  5
3D2
330
1F
100
AcDbEntity
  8
LAY-10
  6
CONTINUOUS
 62
     7
100
AcDbLine
 10
2168.281080329777
 20
1675.306706678979
 30
0.0
 11
2168.281080329777
 21
1670.306706678977
 31
0.0
  0
LINE
  5
3D3
330
1F
100
AcDbEntity
  8
LAY-10
  6
CONTINUOUS
 62
     7
100
AcDbLine
 10
2174.281080329777
 20
1695.306706678979
 30
0.0
 11
2174.281080329777
 21
1705.306706678977
 31
0.0
  0
LINE
  5
3D4
330
1F
100
AcDbEntity
  8
LAY-10
  6
CONTINUOUS
 62
     7
100
AcDbLine
 10
2168.281080329777
 20
1565.306706678977
 30
0.0
 11
2168.281080329777
 21
1570.306706678977
 31
0.0
  0
LINE
  5
3D5
330
1F
100
AcDbEntity
  8
LAY-10
  6
CONTINUOUS
 62
     7
100
AcDbLine
 10
2174.281080329777
 20
1545.306706678977
 30
0.0
 11
2174.281080329777
 21
1535.006706678978
 31
0.0
  0
LINE
  5
3D6
330
1F
100
AcDbEntity
  8
LAY-10
  6
CONTINUOUS
 62
     7
100
AcDbLine
 10
2130.281080329777
 20
1664.306706678981
 30
0.0
 11
2130.281080329777
 21
1576.306706678979
 31
0.0
  0
LINE
  5
3D7
330
1F
100
AcDbEntity
  8
LAY-10
  6
CONTINUOUS
 62
     7
100
AcDbLine
 10
2124.281080329781
 20
1664.306706678981
 30
0.0
 11
2124.281080329781
 21
1576.306706678979
 31
0.0
  0
LINE
  5
3D8
330
1F
100
AcDbEntity
  8
LAY-10
  6
CONTINUOUS
 62
     7
100
AcDbLine
 10
1103.2810803299
 20
1311.8067066789
 30
0.0
 11
1435.2810803299
 21
2465.806706679
 31
0.0
  0
LINE
  5
3D9
330
1F
100
AcDbEntity
  8
LAY-10
  6
CONTINUOUS
 62
     7
100
AcDbLine
 10
1429.281080329924
 20
2444.951284992337
 30
0.0
 11
1429.281080329924
 21
2449.806706678884
 31
0.0
  0
LINE
  5
3DA
330
1F
100
AcDbEntity
  8
LAY-10
  6
CONTINUOUS
 62
     7
100
AcDbLine
 10
1077.281080329921
 20
2449.806706678882
 30
0.0
 11
1430.677960745811
 21
2449.806706678882
 31
0.0
  0
LINE
  5
3DB
330
1F
100
AcDbEntity
  8
LAY-10
  6
CONTINUOUS
 62
     7
100
AcDbLine
 10
1062.281080329921
 20
2464.806706678885
 30
0.0
 11
1434.993385355863
 21
2464.806706678885
 31
0.0
  0
LINE
  5
3DC
330
1F
100
AcDbEntity
  8
LAY-10
  6
CONTINUOUS
 62
     7
100
AcDbLine
 10
1349.281080329934
 20
2166.878995835718
 30
0.0
 11
1349.281080329934
 21
2449.806706678887
 31
0.0
  0
LINE
  5
3DD
330
1F
100
AcDbEntity
  8
LAY-10
  6
CONTINUOUS
 62
     7
100
AcDbLine
 10
1356.781080329934
 20
2192.948272944154
 30
0.0
 11
1356.781080329934
 21
2449.806706678887
 31
0.0
  0
LINE
  5
3DE
330
1F
100
AcDbEntity
  8
LAY-10
  6
CONTINUOUS
 62
     7
100
AcDbLine
 10
1381.781080329934
 20
2279.845863305607
 30
0.0
 11
1381.781080329934
 21
2449.806706678887
 31
0.0
  0
LINE
  5
3DF
330
1F
100
AcDbEntity
  8
LAY-10
  6
CONTINUOUS
 62
     7
100
AcDbLine
 10
1389.281080329934
 20
2305.915140414043
 30
0.0
 11
1389.281080329934
 21
2449.806706678887
 31
0.0
  0
LINE
  5
3E0
330
1F
100
AcDbEntity
  8
LAY-10
  6
CONTINUOUS
 62
     7
100
AcDbLine
 10
1156.781080329913
 20
1497.767550052454
 30
0.0
 11
1156.781080329913
 21
2449.806706678887
 31
0.0
  0
LINE
  5
3E1
330
1F
100
AcDbEntity
  8
LAY-10
  6
CONTINUOUS
 62
     7
100
AcDbLine
 10
1149.281080329913
 20
1471.698272944018
 30
0.0
 11
1149.281080329913
 21
2449.806706678887
 31
0.0
  0
LINE
  5
3E2
330
1F
100
AcDbEntity
  8
LAY-10
  6
CONTINUOUS
 62
     7
100
AcDbLine
 10
1189.28108032991
 20
1610.734417522334
 30
0.0
 11
1189.281080329911
 21
2449.806706678887
 31
0.0
  0
LINE
  5
3E3
330
1F
100
AcDbEntity
  8
LAY-10
  6
CONTINUOUS
 62
     7
100
AcDbLine
 10
1181.78108032991
 20
1584.665140413898
 30
0.0
 11
1181.781080329911
 21
2449.806706678887
 31
0.0
  0
LINE
  5
3E4
330
1F
100
AcDbEntity
  8
LAY-10
  6
CONTINUOUS
 62
     7
100
AcDbLine
 10
1045.281080329921
 20
1327.806706678885
 30
0.0
 11
1045.281080329921
 21
2449.806706678887
 31
0.0
  0
LINE
  5
3E5
330
1F
100
AcDbEntity
  8
LAY-10
  6
CONTINUOUS
 62
     7
100
AcDbLine
 10
1077.281080329921
 20
2449.806706678887
 30
0.0
 11
1077.281080329921
 21
1327.806706678885
 31
0.0
  0
LINE
  5
3E6
330
1F
100
AcDbEntity
  8
LAY-10
  6
CONTINUOUS
 62
     7
100
AcDbLine
 10
2309.281080329913
 20
1348.806706678951
 30
0.0
 11
1113.925794368042
 21
1348.806706678951
 31
0.0
  0
LINE
  5
3E7
330
1F
100
AcDbEntity
  8
LAY-10
  6
CONTINUOUS
 62
     7
100
AcDbLine
 10
2306.281080329901
 20
1351.806706678884
 30
0.0
 11
1114.788879290033
 21
1351.806706678884
 31
0.0
  0
LINE
  5
3E8
330
1F
100
AcDbEntity
  8
LAY-10
  6
CONTINUOUS
 62
     7
100
AcDbLine
 10
661.2810803299212
 20
1327.806706678885
 30
0.0
 11
1045.281080329921
 21
1327.806706678885
 31
0.0
  0
LINE
  5
3E9
330
1F
100
AcDbEntity
  8
LAY-10
  6
CONTINUOUS
 62
     7
100
AcDbLine
 10
646.2810803299212
 20
1312.806706678885
 30
0.0
 11
1060.281080329921
 21
1312.806706678885
 31
0.0
  0
LINE
  5
3EA
330
1F
100
AcDbEntity
  8
LAY-10
  6
CONTINUOUS
 62
     7
100
AcDbLine
 10
1060.281080329921
 20
1312.806706678885
 30
0.0
 11
1060.281080329921
 21
2464.806706678885
 31
0.0
  0
LINE
  5
3EB
330
1F
100
AcDbEntity
  8
LAY-10
  6
CONTINUOUS
 62
     7
100
AcDbLine
 10
1045.2810803299
 20
1327.8067066789
 30
0.0
 11
1060.2810803299
 21
1312.8067066789
 31
0.0
  0
LINE
  5
3EC
330
1F
100
AcDbEntity
  8
LAY-10
  6
CONTINUOUS
 62
     7
100
AcDbLine
 10
1013.281080329924
 20
1359.806706679013
 30
0.0
 11
1013.281080329924
 21
1327.806706679014
 31
0.0
  0
LINE
  5
3ED
330
1F
100
AcDbEntity
  8
LAY-10
  6
CONTINUOUS
 62
     7
100
AcDbLine
 10
1045.281080329924
 20
1359.806706679013
 30
0.0
 11
1013.281080329924
 21
1359.806706679013
 31
0.0
  0
LINE
  5
3EE
330
1F
100
AcDbEntity
  8
LAY-10
  6
CONTINUOUS
 62
     7
100
AcDbLine
 10
1039.781080329924
 20
1339.806706679014
 30
0.0
 11
1041.387380342726
 21
1339.806706679014
 31
0.0
  0
LINE
  5
3EF
330
1F
100
AcDbEntity
  8
LAY-10
  6
CONTINUOUS
 62
     7
100
AcDbLine
 10
1039.781080329924
 20
1347.806706679012
 30
0.0
 11
1041.387380342726
 21
1347.806706679012
 31
0.0
  0
LINE
  5
3F0
330
1F
100
AcDbEntity
  8
LAY-10
  6
CONTINUOUS
 62
     7
100
AcDbLine
 10
1039.781080329924
 20
1347.806706679012
 30
0.0
 11
1039.781080329924
 21
1339.806706679014
 31
0.0
  0
LINE
  5
3F1
330
1F
100
AcDbEntity
  8
LAY-10
  6
CONTINUOUS
 62
     7
100
AcDbLine
 10
1029.281080329924
 20
1337.306706679014
 30
0.0
 11
1033.281080329924
 21
1343.806706679014
 31
0.0
  0
LINE
  5
3F2
330
1F
100
AcDbEntity
  8
LAY-10
  6
CONTINUOUS
 62
     7
100
AcDbLine
 10
1033.281080329924
 20
1343.806706679014
 30
0.0
 11
1029.281080329924
 21
1350.306706679014
 31
0.0
  0
LINE
  5
3F3
330
1F
100
AcDbEntity
  8
LAY-10
  6
CONTINUOUS
 62
     7
100
AcDbLine
 10
1029.281080329924
 20
1350.306706679014
 30
0.0
 11
1025.281080329924
 21
1343.806706679014
 31
0.0
  0
LINE
  5
3F4
330
1F
100
AcDbEntity
  8
LAY-10
  6
CONTINUOUS
 62
     7
100
AcDbLine
 10
1025.281080329924
 20
1343.806706679014
 30
0.0
 11
1029.281080329924
 21
1337.306706679014
 31
0.0
  0
CIRCLE
  5
3F5
330
1F
100
AcDbEntity
  8
LAY-10
  6
CONTINUOUS
 62
     7
100
AcDbCircle
 10
1029.281080329924
 20
1343.806706679014
 30
0.0
 40
12.75000000000001
  0
LINE
  5
3F6
330
1F
100
AcDbEntity
  8
LAY-10
  6
CONTINUOUS
 62
     7
100
AcDbLine
 10
1109.281080329923
 20
1359.806706679013
 30
0.0
 11
1077.281080329923
 21
1359.806706679013
 31
0.0
  0
LINE
  5
3F7
330
1F
100
AcDbEntity
  8
LAY-10
  6
CONTINUOUS
 62
     7
100
AcDbLine
 10
1103.781080329923
 20
1339.806706679014
 30
0.0
 11
1105.387380342725
 21
1339.806706679014
 31
0.0
  0
LINE
  5
3F8
330
1F
100
AcDbEntity
  8
LAY-10
  6
CONTINUOUS
 62
     7
100
AcDbLine
 10
1103.781080329923
 20
1347.806706679012
 30
0.0
 11
1105.387380342725
 21
1347.806706679012
 31
0.0
  0
LINE
  5
3F9
330
1F
100
AcDbEntity
  8
LAY-10
  6
CONTINUOUS
 62
     7
100
AcDbLine
 10
1103.781080329923
 20
1347.806706679012
 30
0.0
 11
1103.781080329923
 21
1339.806706679014
 31
0.0
  0
LINE
  5
3FA
330
1F
100
AcDbEntity
  8
LAY-10
  6
CONTINUOUS
 62
     7
100
AcDbLine
 10
1093.281080329923
 20
1337.306706679014
 30
0.0
 11
1097.281080329923
 21
1343.806706679014
 31
0.0
  0
LINE
  5
3FB
330
1F
100
AcDbEntity
  8
LAY-10
  6
CONTINUOUS
 62
     7
100
AcDbLine
 10
1097.281080329923
 20
1343.806706679014
 30
0.0
 11
1093.281080329923
 21
1350.306706679014
 31
0.0
  0
LINE
  5
3FC
330
1F
100
AcDbEntity
  8
LAY-10
  6
CONTINUOUS
 62
     7
100
AcDbLine
 10
1093.281080329923
 20
1350.306706679014
 30
0.0
 11
1089.281080329923
 21
1343.806706679014
 31
0.0
  0
LINE
  5
3FD
330
1F
100
AcDbEntity
  8
LAY-10
  6
CONTINUOUS
 62
     7
100
AcDbLine
 10
1089.281080329923
 20
1343.806706679014
 30
0.0
 11
1093.281080329923
 21
1337.306706679014
 31
0.0
  0
CIRCLE
  5
3FE
330
1F
100
AcDbEntity
  8
LAY-10
  6
CONTINUOUS
 62
     7
100
AcDbCircle
 10
1093.281080329923
 20
1343.806706679014
 30
0.0
 40
12.75000000000001
  0
LINE
  5
3FF
330
1F
100
AcDbEntity
  8
LAY-10
  6
CONTINUOUS
 62
     7
100
AcDbLine
 10
1077.281080329921
 20
1327.806706679011
 30
0.0
 11
1062.281080329921
 21
1312.806706679012
 31
0.0
  0
LINE
  5
400
330
1F
100
AcDbEntity
  8
LAY-10
  6
CONTINUOUS
 62
     7
100
AcDbLine
 10
1062.281080329921
 20
1312.806706679012
 30
0.0
 11
1062.281080329921
 21
2464.806706678885
 31
0.0
  0
LINE
  5
401
330
1F
100
AcDbEntity
  8
LAY-10
  6
CONTINUOUS
 62
     7
100
AcDbLine
 10
1109.281080329922
 20
1359.806706679013
 30
0.0
 11
1109.281080329922
 21
1332.662128365725
 31
0.0
  0
LINE
  5
402
330
1F
100
AcDbEntity
  8
LAY-10
  6
CONTINUOUS
 62
     7
100
AcDbLine
 10
1077.2810803299
 20
1327.806706679
 30
0.0
 11
1107.884199913984
 21
1327.806706679
 31
0.0
  0
LINE
  5
403
330
1F
100
AcDbEntity
  8
LAY-10
  6
CONTINUOUS
 62
     7
100
AcDbLine
 10
1062.2810803299
 20
1312.806706679
 30
0.0
 11
1103.568775303932
 21
1312.806706679
 31
0.0
  0
LINE
  5
404
330
1F
100
AcDbEntity
  8
LAY-10
  6
CONTINUOUS
 62
     7
100
AcDbLine
 10
2309.281080329913
 20
2428.806706678951
 30
0.0
 11
1424.636366291758
 21
2428.806706678951
 31
0.0
  0
LINE
  5
405
330
1F
100
AcDbEntity
  8
LAY-10
  6
CONTINUOUS
 62
     7
100
AcDbLine
 10
2306.281080329901
 20
2425.806706678884
 30
0.0
 11
1423.773281369729
 21
2425.806706678884
 31
0.0
  0
LINE
  5
406
330
1F
100
AcDbEntity
  8
LAY-10
  6
CONTINUOUS
 62
     7
100
AcDbLine
 10
2773.614413663242
 20
2407.806706678951
 30
0.0
 11
2776.814413663239
 21
2407.806706678951
 31
0.0
  0
LINE
  5
407
330
1F
100
AcDbEntity
  8
LAY-10
  6
CONTINUOUS
 62
     7
100
AcDbLine
 10
2773.614413663242
 20
2419.806706678951
 30
0.0
 11
2776.814413663239
 21
2419.806706678951
 31
0.0
  0
LINE
  5
408
330
1F
100
AcDbEntity
  8
LAY-10
  6
CONTINUOUS
 62
     7
100
AcDbLine
 10
2764.61441366324
 20
2407.806706678951
 30
0.0
 11
2761.414413663239
 21
2407.806706678951
 31
0.0
  0
LINE
  5
409
330
1F
100
AcDbEntity
  8
LAY-10
  6
CONTINUOUS
 62
     7
100
AcDbLine
 10
2764.61441366324
 20
2419.806706678951
 30
0.0
 11
2761.414413663239
 21
2419.806706678951
 31
0.0
  0
LINE
  5
40A
330
1F
100
AcDbEntity
  8
LAY-10
  6
CONTINUOUS
 62
     7
100
AcDbLine
 10
2773.614413663242
 20
2425.806706678951
 30
0.0
 11
2764.414413663241
 21
2425.806706678951
 31
0.0
  0
LINE
  5
40B
330
1F
100
AcDbEntity
  8
LAY-10
  6
CONTINUOUS
 62
     7
100
AcDbLine
 10
2773.614413663242
 20
2422.806706678951
 30
0.0
 11
2764.61441366324
 21
2422.806706678951
 31
0.0
  0
ARC
  5
40C
330
1F
100
AcDbEntity
  8
LAY-10
  6
CONTINUOUS
 62
     7
100
AcDbCircle
 10
2773.814413663243
 20
2429.006706678952
 30
0.0
 40
3.000000000000003
100
AcDbArc
 50
0.0
 51
90.00000000000001
  0
LINE
  5
40D
330
1F
100
AcDbEntity
  8
LAY-10
  6
CONTINUOUS
 62
     7
100
AcDbLine
 10
2764.61441366324
 20
1358.806706678951
 30
0.0
 11
2764.61441366324
 21
1354.80670667895
 31
0.0
  0
ARC
  5
40E
330
1F
100
AcDbEntity
  8
LAY-10
  6
CONTINUOUS
 62
     7
100
AcDbCircle
 10
2764.414413663241
 20
2422.806706678951
 30
0.0
 40
3.000000000000003
100
AcDbArc
 50
90.00000000000001
 51
180.0
  0
LINE
  5
40F
330
1F
100
AcDbEntity
  8
LAY-10
  6
CONTINUOUS
 62
     7
100
AcDbLine
 10
2773.614413663242
 20
1369.80670667895
 30
0.0
 11
2776.814413663239
 21
1369.80670667895
 31
0.0
  0
LINE
  5
410
330
1F
100
AcDbEntity
  8
LAY-10
  6
CONTINUOUS
 62
     7
100
AcDbLine
 10
2773.614413663242
 20
1357.80670667895
 30
0.0
 11
2776.814413663239
 21
1357.80670667895
 31
0.0
  0
LINE
  5
411
330
1F
100
AcDbEntity
  8
LAY-10
  6
CONTINUOUS
 62
     7
100
AcDbLine
 10
2764.61441366324
 20
1369.80670667895
 30
0.0
 11
2761.414413663239
 21
1369.80670667895
 31
0.0
  0
LINE
  5
412
330
1F
100
AcDbEntity
  8
LAY-10
  6
CONTINUOUS
 62
     7
100
AcDbLine
 10
2764.61441366324
 20
1357.80670667895
 30
0.0
 11
2761.414413663239
 21
1357.80670667895
 31
0.0
  0
LINE
  5
413
330
1F
100
AcDbEntity
  8
LAY-10
  6
CONTINUOUS
 62
     7
100
AcDbLine
 10
2773.614413663242
 20
1354.80670667895
 30
0.0
 11
2764.61441366324
 21
1354.80670667895
 31
0.0
  0
ARC
  5
414
330
1F
100
AcDbEntity
  8
LAY-10
  6
CONTINUOUS
 62
     7
100
AcDbCircle
 10
2764.414413663241
 20
1354.80670667895
 30
0.0
 40
3.000000000000003
100
AcDbArc
 50
180.0
 51
270.0000000000002
  0
ARC
  5
415
330
1F
100
AcDbEntity
  8
LAY-10
  6
CONTINUOUS
 62
     7
100
AcDbCircle
 10
2723.814413663241
 20
2465.806706678951
 30
0.0
 40
3.000000000000003
100
AcDbArc
 50
0.0
 51
90.00000000000001
  0
ARC
  5
416
330
1F
100
AcDbEntity
  8
LAY-10
  6
CONTINUOUS
 62
     7
100
AcDbCircle
 10
2724.014413663238
 20
2466.006706678948
 30
0.0
 40
6.000000000000005
100
AcDbArc
 50
0.0
 51
90.00000000000001
  0
ARC
  5
417
330
1F
100
AcDbEntity
  8
LAY-10
  6
CONTINUOUS
 62
     7
100
AcDbCircle
 10
2729.81441366324
 20
2431.806706678951
 30
0.0
 40
3.000000000000003
100
AcDbArc
 50
180.0
 51
270.0000000000002
  0
LINE
  5
418
330
1F
100
AcDbEntity
  8
LAY-10
  6
CONTINUOUS
 62
     7
100
AcDbLine
 10
2724.014413663238
 20
2472.006706678948
 30
0.0
 11
2679.614413663242
 21
2472.006706678948
 31
0.0
  0
LINE
  5
419
330
1F
100
AcDbEntity
  8
LAY-10
  6
CONTINUOUS
 62
     7
100
AcDbLine
 10
2724.014413663238
 20
1305.606706678949
 30
0.0
 11
2679.614413663242
 21
1305.606706678949
 31
0.0
  0
LINE
  5
41A
330
1F
100
AcDbEntity
  8
LAY-10
  6
CONTINUOUS
 62
     7
100
AcDbLine
 10
2773.614413663242
 20
1351.806706678952
 30
0.0
 11
2764.414413663241
 21
1351.806706678952
 31
0.0
  0
ARC
  5
41B
330
1F
100
AcDbEntity
  8
LAY-10
  6
CONTINUOUS
 62
     7
100
AcDbCircle
 10
2773.814413663243
 20
1348.606706678951
 30
0.0
 40
3.000000000000003
100
AcDbArc
 50
270.0000000000002
 51
0.0
  0
ARC
  5
41C
330
1F
100
AcDbEntity
  8
LAY-10
  6
CONTINUOUS
 62
     7
100
AcDbCircle
 10
2723.814413663241
 20
1311.80670667895
 30
0.0
 40
3.000000000000003
100
AcDbArc
 50
270.0000000000002
 51
0.0
  0
ARC
  5
41D
330
1F
100
AcDbEntity
  8
LAY-10
  6
CONTINUOUS
 62
     7
100
AcDbCircle
 10
2724.014413663238
 20
1311.606706678951
 30
0.0
 40
6.000000000000005
100
AcDbArc
 50
270.0000000000002
 51
0.0
  0
ARC
  5
41E
330
1F
100
AcDbEntity
  8
LAY-10
  6
CONTINUOUS
 62
     7
100
AcDbCircle
 10
2729.81441366324
 20
1345.806706678949
 30
0.0
 40
3.000000000000003
100
AcDbArc
 50
90.00000000000001
 51
180.0
  0
LINE
  5
41F
330
1F
100
AcDbEntity
  8
LAY-10
  6
CONTINUOUS
 62
     7
100
AcDbLine
 10
2773.614413663242
 20
2391.806706678951
 30
0.0
 11
2764.61441366324
 21
2391.806706678951
 31
0.0
  0
LINE
  5
420
330
1F
100
AcDbEntity
  8
LAY-10
  6
CONTINUOUS
 62
     7
100
AcDbLine
 10
2773.614413663242
 20
1385.806706678951
 30
0.0
 11
2764.61441366324
 21
1385.806706678951
 31
0.0
  0
LINE
  5
421
330
1F
100
AcDbEntity
  8
LAY-10
  6
CONTINUOUS
 62
     7
100
AcDbLine
 10
2794.61441366324
 20
1399.80670667895
 30
0.0
 11
2794.61441366324
 21
2377.806706678949
 31
0.0
  0
LINE
  5
422
330
1F
100
AcDbEntity
  8
LAY-10
  6
CONTINUOUS
 62
     7
100
AcDbLine
 10
2779.814413663235
 20
1381.806706679042
 30
0.0
 11
2779.814413663235
 21
1373.806706678993
 31
0.0
  0
ARC
  5
423
330
1F
100
AcDbEntity
  8
LAY-10
  6
CONTINUOUS
 62
     7
100
AcDbCircle
 10
2783.814413663235
 20
1381.806706679042
 30
0.0
 40
4.0
100
AcDbArc
 50
90.00000000000001
 51
180.0
  0
LINE
  5
424
330
1F
100
AcDbEntity
  8
LAY-10
  6
CONTINUOUS
 62
     7
100
AcDbLine
 10
2779.814413663235
 20
2395.80670667886
 30
0.0
 11
2779.814413663235
 21
2403.806706678907
 31
0.0
  0
ARC
  5
425
330
1F
100
AcDbEntity
  8
LAY-10
  6
CONTINUOUS
 62
     7
100
AcDbCircle
 10
2783.814413663235
 20
2395.80670667886
 30
0.0
 40
4.0
100
AcDbArc
 50
180.0
 51
270.0000000000002
  0
LINE
  5
426
330
1F
100
AcDbEntity
  8
LAY-10
  6
CONTINUOUS
 62
     7
100
AcDbLine
 10
2730.014413663242
 20
1345.606706678951
 30
0.0
 11
2773.814413663243
 21
1345.606706678951
 31
0.0
  0
LINE
  5
427
330
1F
100
AcDbEntity
  8
LAY-10
  6
CONTINUOUS
 62
     7
100
AcDbLine
 10
2729.81441366324
 20
1348.806706678951
 30
0.0
 11
2773.614413663242
 21
1348.806706678951
 31
0.0
  0
LINE
  5
428
330
1F
100
AcDbEntity
  8
LAY-10
  6
CONTINUOUS
 62
     7
100
AcDbLine
 10
2776.814413663239
 20
1398.80670667895
 30
0.0
 11
2776.814413663239
 21
1348.606706678951
 31
0.0
  0
LINE
  5
429
330
1F
100
AcDbEntity
  8
LAY-10
  6
CONTINUOUS
 62
     7
100
AcDbLine
 10
2773.614413663242
 20
1368.80670667895
 30
0.0
 11
2773.614413663242
 21
1398.80670667895
 31
0.0
  0
LINE
  5
42A
330
1F
100
AcDbEntity
  8
LAY-10
  6
CONTINUOUS
 62
     7
100
AcDbLine
 10
2773.614413663242
 20
1358.806706678951
 30
0.0
 11
2773.614413663242
 21
1348.806706678951
 31
0.0
  0
LINE
  5
42B
330
1F
100
AcDbEntity
  8
LAY-10
  6
CONTINUOUS
 62
     7
100
AcDbLine
 10
2679.614413663242
 20
1308.80670667895
 30
0.0
 11
2723.814413663241
 21
1308.80670667895
 31
0.0
  0
LINE
  5
42C
330
1F
100
AcDbEntity
  8
LAY-10
  6
CONTINUOUS
 62
     7
100
AcDbLine
 10
2783.814413663235
 20
1385.806706679042
 30
0.0
 11
2804.814413663234
 21
1385.806706679042
 31
0.0
  0
LINE
  5
42D
330
1F
100
AcDbEntity
  8
LAY-10
  6
CONTINUOUS
 62
     7
100
AcDbLine
 10
2806.814413663234
 20
1388.806706679042
 30
0.0
 11
2806.814413663234
 21
1387.806706679042
 31
0.0
  0
ARC
  5
42E
330
1F
100
AcDbEntity
  8
LAY-10
  6
CONTINUOUS
 62
     7
100
AcDbCircle
 10
2804.814413663234
 20
1387.806706679042
 30
0.0
 40
2.0
100
AcDbArc
 50
270.0000000000002
 51
0.0
  0
LINE
  5
42F
330
1F
100
AcDbEntity
  8
LAY-10
  6
CONTINUOUS
 62
     7
100
AcDbLine
 10
2806.814413663234
 20
1388.806706678951
 30
0.0
 11
2764.61441366324
 21
1388.806706678951
 31
0.0
  0
LINE
  5
430
330
1F
100
AcDbEntity
  8
LAY-10
  6
CONTINUOUS
 62
     7
100
AcDbLine
 10
2783.814413663235
 20
2391.80670667886
 30
0.0
 11
2804.814413663234
 21
2391.80670667886
 31
0.0
  0
LINE
  5
431
330
1F
100
AcDbEntity
  8
LAY-10
  6
CONTINUOUS
 62
     7
100
AcDbLine
 10
2806.814413663234
 20
2388.80670667886
 30
0.0
 11
2806.814413663234
 21
2389.80670667886
 31
0.0
  0
ARC
  5
432
330
1F
100
AcDbEntity
  8
LAY-10
  6
CONTINUOUS
 62
     7
100
AcDbCircle
 10
2804.814413663234
 20
2389.80670667886
 30
0.0
 40
2.0
100
AcDbArc
 50
0.0
 51
90.00000000000001
  0
LINE
  5
433
330
1F
100
AcDbEntity
  8
LAY-10
  6
CONTINUOUS
 62
     7
100
AcDbLine
 10
2806.814413663234
 20
2388.806706678951
 30
0.0
 11
2764.61441366324
 21
2388.806706678951
 31
0.0
  0
LINE
  5
434
330
1F
100
AcDbEntity
  8
LAY-10
  6
CONTINUOUS
 62
     7
100
AcDbLine
 10
2676.614413663246
 20
1311.80670667895
 30
0.0
 11
2691.614413663246
 21
1311.80670667895
 31
0.0
  0
LINE
  5
435
330
1F
100
AcDbEntity
  8
LAY-10
  6
CONTINUOUS
 62
     7
100
AcDbLine
 10
2676.614413663246
 20
1311.80670667895
 30
0.0
 11
2676.614413663246
 21
1296.80670667895
 31
0.0
  0
LINE
  5
436
330
1F
100
AcDbEntity
  8
LAY-10
  6
CONTINUOUS
 62
     7
100
AcDbLine
 10
2679.614413663242
 20
1308.80670667895
 30
0.0
 11
2679.614413663242
 21
1296.80670667895
 31
0.0
  0
LINE
  5
437
330
1F
100
AcDbEntity
  8
LAY-10
  6
CONTINUOUS
 62
     7
100
AcDbLine
 10
2691.614413663246
 20
1311.80670667895
 30
0.0
 11
2691.614413663246
 21
1308.80670667895
 31
0.0
  0
LINE
  5
438
330
1F
100
AcDbEntity
  8
LAY-10
  6
CONTINUOUS
 62
     7
100
AcDbLine
 10
2676.614413663246
 20
1296.80670667895
 30
0.0
 11
2679.614413663242
 21
1296.80670667895
 31
0.0
  0
LINE
  5
439
330
1F
100
AcDbEntity
  8
LAY-10
  6
CONTINUOUS
 62
     7
100
AcDbLine
 10
2676.614413663246
 20
2465.806706678951
 30
0.0
 11
2691.614413663246
 21
2465.806706678951
 31
0.0
  0
LINE
  5
43A
330
1F
100
AcDbEntity
  8
LAY-10
  6
CONTINUOUS
 62
     7
100
AcDbLine
 10
2679.614413663242
 20
2468.806706678949
 30
0.0
 11
2679.614413663242
 21
2480.806706678951
 31
0.0
  0
LINE
  5
43B
330
1F
100
AcDbEntity
  8
LAY-10
  6
CONTINUOUS
 62
     7
100
AcDbLine
 10
2691.614413663246
 20
2465.806706678951
 30
0.0
 11
2691.614413663246
 21
2468.806706678949
 31
0.0
  0
LINE
  5
43C
330
1F
100
AcDbEntity
  8
LAY-10
  6
CONTINUOUS
 62
     7
100
AcDbLine
 10
2676.614413663246
 20
2480.806706678951
 30
0.0
 11
2679.614413663242
 21
2480.806706678951
 31
0.0
  0
LINE
  5
43D
330
1F
100
AcDbEntity
  8
LAY-10
  6
CONTINUOUS
 62
     7
100
AcDbLine
 10
2676.614413663246
 20
2465.806706678951
 30
0.0
 11
2676.614413663246
 21
2480.806706678951
 31
0.0
  0
LINE
  5
43E
330
1F
100
AcDbEntity
  8
LAY-10
  6
CONTINUOUS
 62
     7
100
AcDbLine
 10
2679.614413663242
 20
2468.806706678949
 30
0.0
 11
2723.814413663241
 21
2468.806706678949
 31
0.0
  0
LINE
  5
43F
330
1F
100
AcDbEntity
  8
LAY-10
  6
CONTINUOUS
 62
     7
100
AcDbLine
 10
2764.61441366324
 20
2378.806706678949
 30
0.0
 11
2794.61441366324
 21
2378.806706678949
 31
0.0
  0
LINE
  5
440
330
1F
100
AcDbEntity
  8
LAY-10
  6
CONTINUOUS
 62
     7
100
AcDbLine
 10
2771.614413663238
 20
2375.806706678951
 30
0.0
 11
2792.61441366324
 21
2375.806706678951
 31
0.0
  0
LINE
  5
441
330
1F
100
AcDbEntity
  8
LAY-10
  6
CONTINUOUS
 62
     7
100
AcDbLine
 10
2764.61441366324
 20
2348.806706678951
 30
0.0
 11
2765.61441366324
 21
2348.806706678951
 31
0.0
  0
LINE
  5
442
330
1F
100
AcDbEntity
  8
LAY-10
  6
CONTINUOUS
 62
     7
100
AcDbLine
 10
2794.61441366324
 20
2378.806706678949
 30
0.0
 11
2794.61441366324
 21
2377.806706678949
 31
0.0
  0
ARC
  5
443
330
1F
100
AcDbEntity
  8
LAY-10
  6
CONTINUOUS
 62
     7
100
AcDbCircle
 10
2792.61441366324
 20
2377.806706678949
 30
0.0
 40
2.0
100
AcDbArc
 50
270.0000000000002
 51
0.0
  0
ARC
  5
444
330
1F
100
AcDbEntity
  8
LAY-10
  6
CONTINUOUS
 62
     7
100
AcDbCircle
 10
2765.61441366324
 20
2350.806706678951
 30
0.0
 40
2.0
100
AcDbArc
 50
270.0000000000002
 51
0.0
  0
ARC
  5
445
330
1F
100
AcDbEntity
  8
LAY-10
  6
CONTINUOUS
 62
     7
100
AcDbCircle
 10
2771.614413663238
 20
2371.806706678949
 30
0.0
 40
4.0
100
AcDbArc
 50
90.00000000000001
 51
180.0
  0
LINE
  5
446
330
1F
100
AcDbEntity
  8
LAY-10
  6
CONTINUOUS
 62
     7
100
AcDbLine
 10
2764.61441366324
 20
1398.80670667895
 30
0.0
 11
2794.61441366324
 21
1398.80670667895
 31
0.0
  0
LINE
  5
447
330
1F
100
AcDbEntity
  8
LAY-10
  6
CONTINUOUS
 62
     7
100
AcDbLine
 10
2771.614413663238
 20
1401.806706678951
 30
0.0
 11
2792.61441366324
 21
1401.806706678951
 31
0.0
  0
LINE
  5
448
330
1F
100
AcDbEntity
  8
LAY-10
  6
CONTINUOUS
 62
     7
100
AcDbLine
 10
2764.61441366324
 20
1428.80670667895
 30
0.0
 11
2765.61441366324
 21
1428.80670667895
 31
0.0
  0
LINE
  5
449
330
1F
100
AcDbEntity
  8
LAY-10
  6
CONTINUOUS
 62
     7
100
AcDbLine
 10
2794.61441366324
 20
1398.80670667895
 30
0.0
 11
2794.61441366324
 21
1399.80670667895
 31
0.0
  0
ARC
  5
44A
330
1F
100
AcDbEntity
  8
LAY-10
  6
CONTINUOUS
 62
     7
100
AcDbCircle
 10
2792.61441366324
 20
1399.80670667895
 30
0.0
 40
2.0
100
AcDbArc
 50
0.0
 51
90.00000000000001
  0
ARC
  5
44B
330
1F
100
AcDbEntity
  8
LAY-10
  6
CONTINUOUS
 62
     7
100
AcDbCircle
 10
2765.61441366324
 20
1426.806706678951
 30
0.0
 40
2.0
100
AcDbArc
 50
0.0
 51
90.00000000000001
  0
ARC
  5
44C
330
1F
100
AcDbEntity
  8
LAY-10
  6
CONTINUOUS
 62
     7
100
AcDbCircle
 10
2771.614413663238
 20
1405.806706678951
 30
0.0
 40
4.0
100
AcDbArc
 50
180.0
 51
270.0000000000002
  0
LINE
  5
44D
330
1F
100
AcDbEntity
  8
LAY-10
  6
CONTINUOUS
 62
     7
100
AcDbLine
 10
2767.614413663238
 20
1405.806706678951
 30
0.0
 11
2767.614413663238
 21
2371.806706678949
 31
0.0
  0
LINE
  5
44E
330
1F
100
AcDbEntity
  8
LAY-10
  6
CONTINUOUS
 62
     7
100
AcDbLine
 10
2730.01441366324
 20
1311.606706679001
 30
0.0
 11
2730.014413663242
 21
1345.606706678949
 31
0.0
  0
LINE
  5
44F
330
1F
100
AcDbEntity
  8
LAY-10
  6
CONTINUOUS
 62
     7
100
AcDbLine
 10
2767.712898473076
 20
1267.908221869114
 30
0.0
 11
2732.35755941375
 21
1303.263560928442
 31
0.0
  0
ARC
  5
450
330
1F
100
AcDbEntity
  8
LAY-10
  6
CONTINUOUS
 62
     7
100
AcDbCircle
 10
2738.014413663242
 20
1308.920415177935
 30
0.0
 40
8.0
100
AcDbArc
 50
180.0
 51
224.9999999999919
  0
LINE
  5
451
330
1F
100
AcDbEntity
  8
LAY-10
  6
CONTINUOUS
 62
     7
100
AcDbLine
 10
2773.369752722568
 20
1273.565076118608
 30
0.0
 11
2738.014413663242
 21
1308.920415177935
 31
0.0
  0
LINE
  5
452
330
1F
100
AcDbEntity
  8
LAY-10
  6
CONTINUOUS
 62
     7
100
AcDbLine
 10
2738.014413663242
 20
1308.920415177935
 30
0.0
 11
2738.014413663242
 21
1338.920415177935
 31
0.0
  0
LINE
  5
453
330
1F
100
AcDbEntity
  8
LAY-10
  6
CONTINUOUS
 62
     7
100
AcDbLine
 10
2767.712898473076
 20
1267.908221869114
 30
0.0
 11
2773.369752722568
 21
1273.565076118608
 31
0.0
  0
LINE
  5
454
330
1F
100
AcDbEntity
  8
LAY-10
  6
CONTINUOUS
 62
     7
100
AcDbLine
 10
2738.014413663242
 20
1338.920415177935
 30
0.0
 11
2730.014413663242
 21
1338.920415177935
 31
0.0
  0
LINE
  5
455
330
1F
100
AcDbEntity
  8
LAY-10
  6
CONTINUOUS
 62
     7
100
AcDbLine
 10
2767.712898473074
 20
2509.705191488784
 30
0.0
 11
2732.35755941375
 21
2474.349852429458
 31
0.0
  0
LINE
  5
456
330
1F
100
AcDbEntity
  8
LAY-10
  6
CONTINUOUS
 62
     7
100
AcDbLine
 10
2767.712898473074
 20
2509.705191488784
 30
0.0
 11
2773.369752722568
 21
2504.048337239291
 31
0.0
  0
LINE
  5
457
330
1F
100
AcDbEntity
  8
LAY-10
  6
CONTINUOUS
 62
     7
100
AcDbLine
 10
2773.369752722568
 20
2504.048337239291
 30
0.0
 11
2738.014413663242
 21
2468.692998179965
 31
0.0
  0
LINE
  5
458
330
1F
100
AcDbEntity
  8
LAY-10
  6
CONTINUOUS
 62
     7
100
AcDbLine
 10
2738.014413663242
 20
2468.692998179965
 30
0.0
 11
2738.014413663242
 21
2438.692998179967
 31
0.0
  0
LINE
  5
459
330
1F
100
AcDbEntity
  8
LAY-10
  6
CONTINUOUS
 62
     7
100
AcDbLine
 10
2738.014413663242
 20
2438.692998179967
 30
0.0
 11
2730.014413663242
 21
2438.692998179967
 31
0.0
  0
ARC
  5
45A
330
1F
100
AcDbEntity
  8
LAY-10
  6
CONTINUOUS
 62
     7
100
AcDbCircle
 10
2738.014413663238
 20
2468.692998179965
 30
0.0
 40
8.0
100
AcDbArc
 50
134.9999999999862
 51
180.0
  0
LINE
  5
45B
330
1F
100
AcDbEntity
  8
LAY-10
  6
CONTINUOUS
 62
     7
100
AcDbLine
 10
2730.014413663242
 20
1308.920415177935
 30
0.0
 11
2730.01441366324
 21
1311.606706679001
 31
0.0
  0
LINE
  5
45C
330
1F
100
AcDbEntity
  8
LAY-10
  6
CONTINUOUS
 62
     7
100
AcDbLine
 10
2739.674413663239
 20
2432.006706678948
 30
0.0
 11
2742.01441366324
 21
2434.28670667895
 31
0.0
  0
LINE
  5
45D
330
1F
100
AcDbEntity
  8
LAY-10
  6
CONTINUOUS
 62
     7
100
AcDbLine
 10
2741.934043447639
 20
2434.208397238111
 30
0.0
 11
2742.014413663243
 21
2434.12802702251
 31
0.0
  0
LINE
  5
45E
330
1F
100
AcDbEntity
  8
LAY-10
  6
CONTINUOUS
 62
     7
100
AcDbLine
 10
2741.575898454572
 20
2433.85943544999
 30
0.0
 11
2742.014413663234
 21
2433.420920241325
 31
0.0
  0
LINE
  5
45F
330
1F
100
AcDbEntity
  8
LAY-10
  6
CONTINUOUS
 62
     7
100
AcDbLine
 10
2741.217753461499
 20
2433.510473661877
 30
0.0
 11
2742.014413663243
 21
2432.713813460133
 31
0.0
  0
LINE
  5
460
330
1F
100
AcDbEntity
  8
LAY-10
  6
CONTINUOUS
 62
     7
100
AcDbLine
 10
2740.859608468435
 20
2433.161511873756
 30
0.0
 11
2742.014413663249
 21
2432.006706678941
 31
0.0
  0
LINE
  5
461
330
1F
100
AcDbEntity
  8
LAY-10
  6
CONTINUOUS
 62
     7
100
AcDbLine
 10
2740.501463475369
 20
2432.812550085634
 30
0.0
 11
2741.307306882057
 21
2432.006706678948
 31
0.0
  0
LINE
  5
462
330
1F
100
AcDbEntity
  8
LAY-10
  6
CONTINUOUS
 62
     7
100
AcDbLine
 10
2740.143318482293
 20
2432.463588297523
 30
0.0
 11
2740.600200100865
 21
2432.006706678955
 31
0.0
  0
LINE
  5
463
330
1F
100
AcDbEntity
  8
LAY-10
  6
CONTINUOUS
 62
     7
100
AcDbLine
 10
2739.785173489229
 20
2432.114626509402
 30
0.0
 11
2739.893093319682
 21
2432.006706678948
 31
0.0
  0
LINE
  5
464
330
1F
100
AcDbEntity
  8
LAY-10
  6
CONTINUOUS
 62
     7
100
AcDbLine
 10
2773.014413663243
 20
2434.406706678949
 30
0.0
 11
2775.663338448215
 21
2431.369221681972
 31
0.0
  0
LINE
  5
465
330
1F
100
AcDbEntity
  8
LAY-10
  6
CONTINUOUS
 62
     7
100
AcDbLine
 10
2773.014413663231
 20
2434.128027022502
 30
0.0
 11
2773.144232209098
 21
2434.257845568368
 31
0.0
  0
LINE
  5
466
330
1F
100
AcDbEntity
  8
LAY-10
  6
CONTINUOUS
 62
     7
100
AcDbLine
 10
2773.014413663234
 20
2433.420920241318
 30
0.0
 11
2773.473626809565
 21
2433.880133387646
 31
0.0
  0
LINE
  5
467
330
1F
100
AcDbEntity
  8
LAY-10
  6
CONTINUOUS
 62
     7
100
AcDbLine
 10
2773.014413663228
 20
2432.713813460125
 30
0.0
 11
2773.803021410052
 21
2433.502421206948
 31
0.0
  0
LINE
  5
468
330
1F
100
AcDbEntity
  8
LAY-10
  6
CONTINUOUS
 62
     7
100
AcDbLine
 10
2773.014413663247
 20
2432.006706678955
 30
0.0
 11
2774.132416010537
 21
2433.124709026249
 31
0.0
  0
LINE
  5
469
330
1F
100
AcDbEntity
  8
LAY-10
  6
CONTINUOUS
 62
     7
100
AcDbLine
 10
2773.721520444426
 20
2432.006706678952
 30
0.0
 11
2774.461810611027
 21
2432.746996845551
 31
0.0
  0
LINE
  5
46A
330
1F
100
AcDbEntity
  8
LAY-10
  6
CONTINUOUS
 62
     7
100
AcDbLine
 10
2774.375660053614
 20
2431.953739506948
 30
0.0
 11
2774.791205211507
 21
2432.36928466484
 31
0.0
  0
LINE
  5
46B
330
1F
100
AcDbEntity
  8
LAY-10
  6
CONTINUOUS
 62
     7
100
AcDbLine
 10
2774.923280357122
 20
2431.794253029274
 30
0.0
 11
2775.120599811992
 21
2431.99157248414
 31
0.0
  0
LINE
  5
46C
330
1F
100
AcDbEntity
  8
LAY-10
  6
CONTINUOUS
 62
     7
100
AcDbLine
 10
2775.393575539016
 20
2431.557441429978
 30
0.0
 11
2775.44999441248
 21
2431.613860303442
 31
0.0
  0
LINE
  5
46D
330
1F
100
AcDbEntity
  8
LAY-10
  6
CONTINUOUS
 62
     7
100
AcDbLine
 10
2773.014413663243
 20
2468.006706678952
 30
0.0
 11
2773.014413663243
 21
2432.006706678948
 31
0.0
  0
LINE
  5
46E
330
1F
100
AcDbEntity
  8
LAY-10
  6
CONTINUOUS
 62
     7
100
AcDbLine
 10
2742.01441366324
 20
2468.006706678952
 30
0.0
 11
2742.01441366324
 21
2432.006706678948
 31
0.0
  0
LINE
  5
46F
330
1F
100
AcDbEntity
  8
LAY-10
  6
CONTINUOUS
 62
     7
100
AcDbLine
 10
2742.01441366324
 20
2468.006706678952
 30
0.0
 11
2773.014413663243
 21
2468.006706678952
 31
0.0
  0
LINE
  5
470
330
1F
100
AcDbEntity
  8
LAY-10
  6
CONTINUOUS
 62
     7
100
AcDbLine
 10
2742.01441366324
 20
1309.606706678951
 30
0.0
 11
2742.01441366324
 21
1345.606706678949
 31
0.0
  0
LINE
  5
471
330
1F
100
AcDbEntity
  8
LAY-10
  6
CONTINUOUS
 62
     7
100
AcDbLine
 10
2773.014413663243
 20
1309.606706678951
 30
0.0
 11
2773.014413663243
 21
1345.606706678951
 31
0.0
  0
LINE
  5
472
330
1F
100
AcDbEntity
  8
LAY-10
  6
CONTINUOUS
 62
     7
100
AcDbLine
 10
2742.01441366324
 20
1309.606706678951
 30
0.0
 11
2773.014413663243
 21
1309.606706678951
 31
0.0
  0
LINE
  5
473
330
1F
100
AcDbEntity
  8
LAY-10
  6
CONTINUOUS
 62
     7
100
AcDbLine
 10
2773.014413663243
 20
1343.206706678949
 30
0.0
 11
2775.663338448215
 21
1346.244191675927
 31
0.0
  0
LINE
  5
474
330
1F
100
AcDbEntity
  8
LAY-10
  6
CONTINUOUS
 62
     7
100
AcDbLine
 10
2775.393575539016
 20
1346.055971927923
 30
0.0
 11
2775.44999441249
 21
1345.999553054447
 31
0.0
  0
LINE
  5
475
330
1F
100
AcDbEntity
  8
LAY-10
  6
CONTINUOUS
 62
     7
100
AcDbLine
 10
2774.923280357122
 20
1345.819160328628
 30
0.0
 11
2775.120599812003
 21
1345.621840873749
 31
0.0
  0
LINE
  5
476
330
1F
100
AcDbEntity
  8
LAY-10
  6
CONTINUOUS
 62
     7
100
AcDbLine
 10
2774.375660053614
 20
1345.659673850953
 30
0.0
 11
2774.791205211514
 21
1345.24412869305
 31
0.0
  0
LINE
  5
477
330
1F
100
AcDbEntity
  8
LAY-10
  6
CONTINUOUS
 62
     7
100
AcDbLine
 10
2773.721520444439
 20
1345.60670667894
 30
0.0
 11
2774.461810611025
 21
1344.866416512353
 31
0.0
  0
LINE
  5
478
330
1F
100
AcDbEntity
  8
LAY-10
  6
CONTINUOUS
 62
     7
100
AcDbLine
 10
2773.014413663247
 20
1345.606706678947
 30
0.0
 11
2774.132416010549
 21
1344.488704331643
 31
0.0
  0
LINE
  5
479
330
1F
100
AcDbEntity
  8
LAY-10
  6
CONTINUOUS
 62
     7
100
AcDbLine
 10
2773.014413663251
 20
1344.899599897755
 30
0.0
 11
2773.803021410064
 21
1344.110992150943
 31
0.0
  0
LINE
  5
47A
330
1F
100
AcDbEntity
  8
LAY-10
  6
CONTINUOUS
 62
     7
100
AcDbLine
 10
2773.014413663258
 20
1344.192493116561
 30
0.0
 11
2773.473626809576
 21
1343.733279970245
 31
0.0
  0
LINE
  5
47B
330
1F
100
AcDbEntity
  8
LAY-10
  6
CONTINUOUS
 62
     7
100
AcDbLine
 10
2773.014413663243
 20
1343.485386335391
 30
0.0
 11
2773.144232209091
 21
1343.355567789546
 31
0.0
  0
LINE
  5
47C
330
1F
100
AcDbEntity
  8
LAY-10
  6
CONTINUOUS
 62
     7
100
AcDbLine
 10
2739.674413663239
 20
1345.606706678949
 30
0.0
 11
2742.01441366324
 21
1343.32670667895
 31
0.0
  0
LINE
  5
47D
330
1F
100
AcDbEntity
  8
LAY-10
  6
CONTINUOUS
 62
     7
100
AcDbLine
 10
2739.785173489242
 20
1345.498786848513
 30
0.0
 11
2739.893093319682
 21
1345.606706678954
 31
0.0
  0
LINE
  5
47E
330
1F
100
AcDbEntity
  8
LAY-10
  6
CONTINUOUS
 62
     7
100
AcDbLine
 10
2740.143318482306
 20
1345.149825060391
 30
0.0
 11
2740.600200100865
 21
1345.606706678949
 31
0.0
  0
LINE
  5
47F
330
1F
100
AcDbEntity
  8
LAY-10
  6
CONTINUOUS
 62
     7
100
AcDbLine
 10
2740.501463475369
 20
1344.800863272269
 30
0.0
 11
2741.307306882046
 21
1345.606706678944
 31
0.0
  0
LINE
  5
480
330
1F
100
AcDbEntity
  8
LAY-10
  6
CONTINUOUS
 62
     7
100
AcDbLine
 10
2740.859608468446
 20
1344.451901484159
 30
0.0
 11
2742.014413663238
 21
1345.606706678949
 31
0.0
  0
LINE
  5
481
330
1F
100
AcDbEntity
  8
LAY-10
  6
CONTINUOUS
 62
     7
100
AcDbLine
 10
2741.217753461512
 20
1344.102939696035
 30
0.0
 11
2742.014413663222
 21
1344.899599897745
 31
0.0
  0
LINE
  5
482
330
1F
100
AcDbEntity
  8
LAY-10
  6
CONTINUOUS
 62
     7
100
AcDbLine
 10
2741.575898454575
 20
1343.753977907912
 30
0.0
 11
2742.014413663238
 21
1344.192493116576
 31
0.0
  0
LINE
  5
483
330
1F
100
AcDbEntity
  8
LAY-10
  6
CONTINUOUS
 62
     7
100
AcDbLine
 10
2741.934043447651
 20
1343.405016119803
 30
0.0
 11
2742.014413663231
 21
1343.485386335382
 31
0.0
  0
LINE
  5
484
330
1F
100
AcDbEntity
  8
LAY-10
  6
CONTINUOUS
 62
     7
100
AcDbLine
 10
2726.814413663243
 20
1345.806706678949
 30
0.0
 11
2724.814413663263
 21
1345.806706678949
 31
0.0
  0
LINE
  5
485
330
1F
100
AcDbEntity
  8
LAY-10
  6
CONTINUOUS
 62
     7
100
AcDbLine
 10
2726.814413663243
 20
1320.806706678949
 30
0.0
 11
2724.814413663248
 21
1320.806706678949
 31
0.0
  0
LINE
  5
486
330
1F
100
AcDbEntity
  8
LAY-10
  6
CONTINUOUS
 62
     7
100
AcDbLine
 10
2724.814413663263
 20
1320.806706678951
 30
0.0
 11
2724.814413663263
 21
1345.806706678949
 31
0.0
  0
LINE
  5
487
330
1F
100
AcDbEntity
  8
LAY-10
  6
CONTINUOUS
 62
     7
100
AcDbLine
 10
2724.814413663263
 20
1344.848337239294
 30
0.0
 11
2725.772783102926
 21
1345.806706678958
 31
0.0
  0
LINE
  5
488
330
1F
100
AcDbEntity
  8
LAY-10
  6
CONTINUOUS
 62
     7
100
AcDbLine
 10
2724.814413663277
 20
1343.434123676931
 30
0.0
 11
2726.814413663252
 21
1345.434123676908
 31
0.0
  0
LINE
  5
489
330
1F
100
AcDbEntity
  8
LAY-10
  6
CONTINUOUS
 62
     7
100
AcDbLine
 10
2724.814413663268
 20
1342.019910114549
 30
0.0
 11
2726.814413663245
 21
1344.019910114526
 31
0.0
  0
LINE
  5
48A
330
1F
100
AcDbEntity
  8
LAY-10
  6
CONTINUOUS
 62
     7
100
AcDbLine
 10
2724.814413663277
 20
1340.605696552187
 30
0.0
 11
2726.814413663252
 21
1342.605696552163
 31
0.0
  0
LINE
  5
48B
330
1F
100
AcDbEntity
  8
LAY-10
  6
CONTINUOUS
 62
     7
100
AcDbLine
 10
2724.814413663268
 20
1339.191482989805
 30
0.0
 11
2726.814413663246
 21
1341.191482989781
 31
0.0
  0
LINE
  5
48C
330
1F
100
AcDbEntity
  8
LAY-10
  6
CONTINUOUS
 62
     7
100
AcDbLine
 10
2724.814413663277
 20
1337.777269427442
 30
0.0
 11
2726.814413663254
 21
1339.777269427419
 31
0.0
  0
LINE
  5
48D
330
1F
100
AcDbEntity
  8
LAY-10
  6
CONTINUOUS
 62
     7
100
AcDbLine
 10
2724.81441366327
 20
1336.363055865059
 30
0.0
 11
2726.814413663246
 21
1338.363055865036
 31
0.0
  0
LINE
  5
48E
330
1F
100
AcDbEntity
  8
LAY-10
  6
CONTINUOUS
 62
     7
100
AcDbLine
 10
2724.814413663259
 20
1334.948842302678
 30
0.0
 11
2726.814413663235
 21
1336.948842302656
 31
0.0
  0
LINE
  5
48F
330
1F
100
AcDbEntity
  8
LAY-10
  6
CONTINUOUS
 62
     7
100
AcDbLine
 10
2724.814413663272
 20
1333.534628740315
 30
0.0
 11
2726.814413663248
 21
1335.534628740292
 31
0.0
  0
LINE
  5
490
330
1F
100
AcDbEntity
  8
LAY-10
  6
CONTINUOUS
 62
     7
100
AcDbLine
 10
2724.814413663261
 20
1332.120415177933
 30
0.0
 11
2726.814413663239
 21
1334.12041517791
 31
0.0
  0
LINE
  5
491
330
1F
100
AcDbEntity
  8
LAY-10
  6
CONTINUOUS
 62
     7
100
AcDbLine
 10
2724.814413663272
 20
1330.70620161557
 30
0.0
 11
2726.814413663248
 21
1332.706201615548
 31
0.0
  0
LINE
  5
492
330
1F
100
AcDbEntity
  8
LAY-10
  6
CONTINUOUS
 62
     7
100
AcDbLine
 10
2724.814413663263
 20
1329.291988053188
 30
0.0
 11
2726.814413663241
 21
1331.291988053165
 31
0.0
  0
LINE
  5
493
330
1F
100
AcDbEntity
  8
LAY-10
  6
CONTINUOUS
 62
     7
100
AcDbLine
 10
2724.814413663274
 20
1327.877774490825
 30
0.0
 11
2726.814413663248
 21
1329.877774490802
 31
0.0
  0
LINE
  5
494
330
1F
100
AcDbEntity
  8
LAY-10
  6
CONTINUOUS
 62
     7
100
AcDbLine
 10
2724.814413663263
 20
1326.463560928443
 30
0.0
 11
2726.814413663243
 21
1328.463560928419
 31
0.0
  0
LINE
  5
495
330
1F
100
AcDbEntity
  8
LAY-10
  6
CONTINUOUS
 62
     7
100
AcDbLine
 10
2724.814413663275
 20
1325.049347366081
 30
0.0
 11
2726.81441366325
 21
1327.049347366058
 31
0.0
  0
LINE
  5
496
330
1F
100
AcDbEntity
  8
LAY-10
  6
CONTINUOUS
 62
     7
100
AcDbLine
 10
2724.814413663263
 20
1323.635133803698
 30
0.0
 11
2726.814413663243
 21
1325.635133803675
 31
0.0
  0
LINE
  5
497
330
1F
100
AcDbEntity
  8
LAY-10
  6
CONTINUOUS
 62
     7
100
AcDbLine
 10
2724.814413663275
 20
1322.220920241336
 30
0.0
 11
2726.814413663252
 21
1324.220920241313
 31
0.0
  0
LINE
  5
498
330
1F
100
AcDbEntity
  8
LAY-10
  6
CONTINUOUS
 62
     7
100
AcDbLine
 10
2724.814413663265
 20
1320.806706678953
 30
0.0
 11
2726.814413663243
 21
1322.806706678932
 31
0.0
  0
LINE
  5
499
330
1F
100
AcDbEntity
  8
LAY-10
  6
CONTINUOUS
 62
     7
100
AcDbLine
 10
2726.228627225631
 20
1320.806706678943
 30
0.0
 11
2726.814413663234
 21
1321.392493116549
 31
0.0
  0
LINE
  5
49A
330
1F
100
AcDbEntity
  8
LAY-10
  6
CONTINUOUS
 62
     7
100
AcDbLine
 10
2726.814413663243
 20
2431.806706678951
 30
0.0
 11
2724.814413663246
 21
2431.806706678951
 31
0.0
  0
LINE
  5
49B
330
1F
100
AcDbEntity
  8
LAY-10
  6
CONTINUOUS
 62
     7
100
AcDbLine
 10
2726.814413663243
 20
2456.806706678951
 30
0.0
 11
2724.814413663246
 21
2456.806706678951
 31
0.0
  0
LINE
  5
49C
330
1F
100
AcDbEntity
  8
LAY-10
  6
CONTINUOUS
 62
     7
100
AcDbLine
 10
2724.814413663261
 20
2455.392493116574
 30
0.0
 11
2726.228627225652
 21
2456.806706678965
 31
0.0
  0
LINE
  5
49D
330
1F
100
AcDbEntity
  8
LAY-10
  6
CONTINUOUS
 62
     7
100
AcDbLine
 10
2724.814413663272
 20
2453.978279554211
 30
0.0
 11
2726.814413663248
 21
2455.978279554188
 31
0.0
  0
LINE
  5
49E
330
1F
100
AcDbEntity
  8
LAY-10
  6
CONTINUOUS
 62
     7
100
AcDbLine
 10
2724.814413663263
 20
2452.564065991827
 30
0.0
 11
2726.814413663241
 21
2454.564065991805
 31
0.0
  0
LINE
  5
49F
330
1F
100
AcDbEntity
  8
LAY-10
  6
CONTINUOUS
 62
     7
100
AcDbLine
 10
2724.814413663274
 20
2451.149852429465
 30
0.0
 11
2726.814413663248
 21
2453.149852429443
 31
0.0
  0
LINE
  5
4A0
330
1F
100
AcDbEntity
  8
LAY-10
  6
CONTINUOUS
 62
     7
100
AcDbLine
 10
2724.814413663263
 20
2449.735638867084
 30
0.0
 11
2726.814413663243
 21
2451.735638867059
 31
0.0
  0
LINE
  5
4A1
330
1F
100
AcDbEntity
  8
LAY-10
  6
CONTINUOUS
 62
     7
100
AcDbLine
 10
2724.814413663275
 20
2448.321425304722
 30
0.0
 11
2726.81441366325
 21
2450.321425304698
 31
0.0
  0
LINE
  5
4A2
330
1F
100
AcDbEntity
  8
LAY-10
  6
CONTINUOUS
 62
     7
100
AcDbLine
 10
2724.814413663263
 20
2446.907211742337
 30
0.0
 11
2726.814413663243
 21
2448.907211742316
 31
0.0
  0
LINE
  5
4A3
330
1F
100
AcDbEntity
  8
LAY-10
  6
CONTINUOUS
 62
     7
100
AcDbLine
 10
2724.814413663275
 20
2445.492998179975
 30
0.0
 11
2726.814413663252
 21
2447.492998179953
 31
0.0
  0
LINE
  5
4A4
330
1F
100
AcDbEntity
  8
LAY-10
  6
CONTINUOUS
 62
     7
100
AcDbLine
 10
2724.814413663268
 20
2444.078784617593
 30
0.0
 11
2726.814413663245
 21
2446.078784617571
 31
0.0
  0
LINE
  5
4A5
330
1F
100
AcDbEntity
  8
LAY-10
  6
CONTINUOUS
 62
     7
100
AcDbLine
 10
2724.814413663277
 20
2442.664571055232
 30
0.0
 11
2726.814413663252
 21
2444.664571055207
 31
0.0
  0
LINE
  5
4A6
330
1F
100
AcDbEntity
  8
LAY-10
  6
CONTINUOUS
 62
     7
100
AcDbLine
 10
2724.814413663268
 20
2441.250357492848
 30
0.0
 11
2726.814413663246
 21
2443.250357492826
 31
0.0
  0
LINE
  5
4A7
330
1F
100
AcDbEntity
  8
LAY-10
  6
CONTINUOUS
 62
     7
100
AcDbLine
 10
2724.814413663277
 20
2439.836143930485
 30
0.0
 11
2726.814413663234
 21
2441.836143930444
 31
0.0
  0
LINE
  5
4A8
330
1F
100
AcDbEntity
  8
LAY-10
  6
CONTINUOUS
 62
     7
100
AcDbLine
 10
2724.81441366327
 20
2438.421930368103
 30
0.0
 11
2726.814413663248
 21
2440.421930368081
 31
0.0
  0
LINE
  5
4A9
330
1F
100
AcDbEntity
  8
LAY-10
  6
CONTINUOUS
 62
     7
100
AcDbLine
 10
2724.814413663259
 20
2437.007716805721
 30
0.0
 11
2726.814413663239
 21
2439.007716805699
 31
0.0
  0
LINE
  5
4AA
330
1F
100
AcDbEntity
  8
LAY-10
  6
CONTINUOUS
 62
     7
100
AcDbLine
 10
2724.814413663272
 20
2435.593503243358
 30
0.0
 11
2726.814413663248
 21
2437.593503243336
 31
0.0
  0
LINE
  5
4AB
330
1F
100
AcDbEntity
  8
LAY-10
  6
CONTINUOUS
 62
     7
100
AcDbLine
 10
2724.814413663261
 20
2434.179289680977
 30
0.0
 11
2726.814413663239
 21
2436.179289680952
 31
0.0
  0
LINE
  5
4AC
330
1F
100
AcDbEntity
  8
LAY-10
  6
CONTINUOUS
 62
     7
100
AcDbLine
 10
2724.814413663272
 20
2432.765076118615
 30
0.0
 11
2726.814413663248
 21
2434.76507611859
 31
0.0
  0
LINE
  5
4AD
330
1F
100
AcDbEntity
  8
LAY-10
  6
CONTINUOUS
 62
     7
100
AcDbLine
 10
2725.270257785988
 20
2431.806706678958
 30
0.0
 11
2726.814413663241
 21
2433.350862556209
 31
0.0
  0
LINE
  5
4AE
330
1F
100
AcDbEntity
  8
LAY-10
  6
CONTINUOUS
 62
     7
100
AcDbLine
 10
2726.684471348352
 20
2431.806706678947
 30
0.0
 11
2726.814413663248
 21
2431.936648993847
 31
0.0
  0
LINE
  5
4AF
330
1F
100
AcDbEntity
  8
LAY-10
  6
CONTINUOUS
 62
     7
100
AcDbLine
 10
2679.614413663247
 20
2458.60670667895
 30
0.0
 11
2718.614413663246
 21
2458.60670667895
 31
0.0
  0
ARC
  5
4B0
330
1F
100
AcDbEntity
  8
LAY-10
  6
CONTINUOUS
 62
     7
100
AcDbCircle
 10
2718.614413663246
 20
2455.60670667895
 30
0.0
 40
3.000000000000003
100
AcDbArc
 50
0.0
 51
90.00000000000001
  0
ARC
  5
4B1
330
1F
100
AcDbEntity
  8
LAY-10
  6
CONTINUOUS
 62
     7
100
AcDbCircle
 10
2718.814413663248
 20
2455.806706678951
 30
0.0
 40
6.000000000000005
100
AcDbArc
 50
0.0
 51
90.00000000000001
  0
LINE
  5
4B2
330
1F
100
AcDbEntity
  8
LAY-10
  6
CONTINUOUS
 62
     7
100
AcDbLine
 10
2679.614413663247
 20
1319.00670667895
 30
0.0
 11
2718.614413663246
 21
1319.00670667895
 31
0.0
  0
ARC
  5
4B3
330
1F
100
AcDbEntity
  8
LAY-10
  6
CONTINUOUS
 62
     7
100
AcDbCircle
 10
2718.614413663246
 20
1322.00670667895
 30
0.0
 40
3.000000000000003
100
AcDbArc
 50
270.0000000000002
 51
0.0
  0
ARC
  5
4B4
330
1F
100
AcDbEntity
  8
LAY-10
  6
CONTINUOUS
 62
     7
100
AcDbCircle
 10
2718.814413663248
 20
1321.806706678951
 30
0.0
 40
6.000000000000005
100
AcDbArc
 50
270.0000000000002
 51
1.909152432987542
  0
LINE
  5
4B5
330
1F
100
AcDbEntity
  8
LAY-10
  6
CONTINUOUS
 62
     7
100
AcDbLine
 10
2679.614413663247
 20
1359.806706678942
 30
0.0
 11
2679.614413663247
 21
2417.806706678884
 31
0.0
  0
LINE
  5
4B6
330
1F
100
AcDbEntity
  8
LAY-10
  6
CONTINUOUS
 62
     7
100
AcDbLine
 10
2679.614413663247
 20
1315.806706678949
 30
0.0
 11
2718.814413663248
 21
1315.806706678949
 31
0.0
  0
LINE
  5
4B7
330
1F
100
AcDbEntity
  8
LAY-10
  6
CONTINUOUS
 62
     7
100
AcDbLine
 10
2721.614413663269
 20
1322.00670667895
 30
0.0
 11
2721.614413663269
 21
2455.60670667895
 31
0.0
  0
LINE
  5
4B8
330
1F
100
AcDbEntity
  8
LAY-10
  6
CONTINUOUS
 62
     7
100
AcDbLine
 10
2676.614413663246
 20
2464.806706678951
 30
0.0
 11
2691.614413663246
 21
2464.806706678951
 31
0.0
  0
LINE
  5
4B9
330
1F
100
AcDbEntity
  8
LAY-10
  6
CONTINUOUS
 62
     7
100
AcDbLine
 10
2679.614413663247
 20
2461.806706678947
 30
0.0
 11
2679.614413663247
 21
2449.806706678951
 31
0.0
  0
LINE
  5
4BA
330
1F
100
AcDbEntity
  8
LAY-10
  6
CONTINUOUS
 62
     7
100
AcDbLine
 10
2691.614413663246
 20
2464.806706678951
 30
0.0
 11
2691.614413663246
 21
2461.806706678947
 31
0.0
  0
LINE
  5
4BB
330
1F
100
AcDbEntity
  8
LAY-10
  6
CONTINUOUS
 62
     7
100
AcDbLine
 10
2676.614413663246
 20
1312.80670667895
 30
0.0
 11
2691.614413663246
 21
1312.80670667895
 31
0.0
  0
LINE
  5
4BC
330
1F
100
AcDbEntity
  8
LAY-10
  6
CONTINUOUS
 62
     7
100
AcDbLine
 10
2679.614413663247
 20
1315.806706678949
 30
0.0
 11
2679.614413663247
 21
1327.80670667895
 31
0.0
  0
LINE
  5
4BD
330
1F
100
AcDbEntity
  8
LAY-10
  6
CONTINUOUS
 62
     7
100
AcDbLine
 10
2676.614413663246
 20
1327.80670667895
 30
0.0
 11
2679.614413663247
 21
1327.80670667895
 31
0.0
  0
LINE
  5
4BE
330
1F
100
AcDbEntity
  8
LAY-10
  6
CONTINUOUS
 62
     7
100
AcDbLine
 10
2691.614413663246
 20
1312.80670667895
 30
0.0
 11
2691.614413663246
 21
1315.806706678949
 31
0.0
  0
LINE
  5
4BF
330
1F
100
AcDbEntity
  8
LAY-10
  6
CONTINUOUS
 62
     7
100
AcDbLine
 10
2676.614413663246
 20
1312.80670667895
 30
0.0
 11
2676.614413663246
 21
2464.806706678951
 31
0.0
  0
LINE
  5
4C0
330
1F
100
AcDbEntity
  8
LAY-10
  6
CONTINUOUS
 62
     7
100
AcDbLine
 10
2718.614413663246
 20
1319.006706678952
 30
0.0
 11
2721.614413663246
 21
1322.006706678952
 31
0.0
  0
LINE
  5
4C1
330
1F
100
AcDbEntity
  8
LAY-10
  6
CONTINUOUS
 62
     7
100
AcDbLine
 10
2718.614413663246
 20
2458.60670667895
 30
0.0
 11
2721.614413663246
 21
2455.60670667895
 31
0.0
  0
LINE
  5
4C2
330
1F
100
AcDbEntity
  8
LAY-10
  6
CONTINUOUS
 62
     7
100
AcDbLine
 10
2743.814413663239
 20
2389.806706678951
 30
0.0
 11
2743.814413663239
 21
1387.806706678949
 31
0.0
  0
LINE
  5
4C3
330
1F
100
AcDbEntity
  8
LAY-10
  6
CONTINUOUS
 62
     7
100
AcDbLine
 10
2724.814413663268
 20
1387.806706678949
 30
0.0
 11
2743.814413663239
 21
1387.806706678949
 31
0.0
  0
LINE
  5
4C4
330
1F
100
AcDbEntity
  8
LAY-10
  6
CONTINUOUS
 62
     7
100
AcDbLine
 10
2724.814413663268
 20
2389.806706678951
 30
0.0
 11
2743.814413663239
 21
2389.806706678951
 31
0.0
  0
LINE
  5
4C5
330
1F
100
AcDbEntity
  8
LAY-10
  6
CONTINUOUS
 62
     7
100
AcDbLine
 10
2743.814413663266
 20
2079.306706678949
 30
0.0
 11
2724.814413663268
 21
2079.306706678951
 31
0.0
  0
LINE
  5
4C6
330
1F
100
AcDbEntity
  8
LAY-10
  6
CONTINUOUS
 62
     7
100
AcDbLine
 10
2743.814413663266
 20
2082.306706678949
 30
0.0
 11
2724.814413663268
 21
2082.306706678951
 31
0.0
  0
LINE
  5
4C7
330
1F
100
AcDbEntity
  8
LAY-10
  6
CONTINUOUS
 62
     7
100
AcDbLine
 10
2743.814413663266
 20
1698.306706678952
 30
0.0
 11
2724.814413663268
 21
1698.306706678952
 31
0.0
  0
LINE
  5
4C8
330
1F
100
AcDbEntity
  8
LAY-10
  6
CONTINUOUS
 62
     7
100
AcDbLine
 10
2743.814413663266
 20
1695.306706678951
 30
0.0
 11
2724.814413663268
 21
1695.306706678951
 31
0.0
  0
LINE
  5
4C9
330
1F
100
AcDbEntity
  8
LAY-10
  6
CONTINUOUS
 62
     7
100
AcDbLine
 10
2726.814413663243
 20
1387.806706678949
 30
0.0
 11
2726.814413663243
 21
1311.806706678951
 31
0.0
  0
LINE
  5
4CA
330
1F
100
AcDbEntity
  8
LAY-10
  6
CONTINUOUS
 62
     7
100
AcDbLine
 10
2726.814413663243
 20
2465.806706678951
 30
0.0
 11
2726.814413663243
 21
2389.806706678951
 31
0.0
  0
LINE
  5
4CB
330
1F
100
AcDbEntity
  8
LAY-10
  6
CONTINUOUS
 62
     7
100
AcDbLine
 10
2730.014413663242
 20
2468.69299818
 30
0.0
 11
2730.014413663242
 21
2432.006706678948
 31
0.0
  0
LINE
  5
4CC
330
1F
100
AcDbEntity
  8
LAY-10
  6
CONTINUOUS
 62
     7
100
AcDbLine
 10
2724.814413663268
 20
2456.806706678951
 30
0.0
 11
2724.814413663268
 21
1321.806706678951
 31
0.0
  0
LINE
  5
4CD
330
1F
100
AcDbEntity
  8
LAY-10
  6
CONTINUOUS
 62
     7
100
AcDbLine
 10
2761.414413663239
 20
2424.306706678951
 30
0.0
 11
2761.414413663239
 21
1354.80670667895
 31
0.0
  0
LINE
  5
4CE
330
1F
100
AcDbEntity
  8
LAY-10
  6
CONTINUOUS
 62
     7
100
AcDbLine
 10
2776.814413663239
 20
2378.806706678949
 30
0.0
 11
2776.814413663239
 21
2429.006706679
 31
0.0
  0
LINE
  5
4CF
330
1F
100
AcDbEntity
  8
LAY-10
  6
CONTINUOUS
 62
     7
100
AcDbLine
 10
2679.614413663247
 20
2461.806706678947
 30
0.0
 11
2718.814413663248
 21
2461.806706678947
 31
0.0
  0
LINE
  5
4D0
330
1F
100
AcDbEntity
  8
LAY-10
  6
CONTINUOUS
 62
     7
100
AcDbLine
 10
2764.61441366324
 20
2408.806706678949
 30
0.0
 11
2764.61441366324
 21
1368.806706678949
 31
0.0
  0
LINE
  5
4D1
330
1F
100
AcDbEntity
  8
LAY-10
  6
CONTINUOUS
 62
     7
100
AcDbLine
 10
2773.614413663242
 20
2408.806706678949
 30
0.0
 11
2773.614413663242
 21
2378.806706678949
 31
0.0
  0
LINE
  5
4D2
330
1F
100
AcDbEntity
  8
LAY-10
  6
CONTINUOUS
 62
     7
100
AcDbLine
 10
2773.614413663242
 20
2418.806706678951
 30
0.0
 11
2773.614413663242
 21
2428.806706678951
 31
0.0
  0
LINE
  5
4D3
330
1F
100
AcDbEntity
  8
LAY-10
  6
CONTINUOUS
 62
     7
100
AcDbLine
 10
2764.61441366324
 20
2418.806706678951
 30
0.0
 11
2764.61441366324
 21
2422.806706678951
 31
0.0
  0
LINE
  5
4D4
330
1F
100
AcDbEntity
  8
LAY-10
  6
CONTINUOUS
 62
     7
100
AcDbLine
 10
2773.614413663242
 20
2428.806706678951
 30
0.0
 11
2729.81441366324
 21
2428.806706678951
 31
0.0
  0
LINE
  5
4D5
330
1F
100
AcDbEntity
  8
LAY-10
  6
CONTINUOUS
 62
     7
100
AcDbLine
 10
2730.014413663199
 20
2432.006706678948
 30
0.0
 11
2773.814413663243
 21
2432.006706678948
 31
0.0
  0
LINE
  5
4D6
330
1F
100
AcDbEntity
  8
LAY-10
  6
CONTINUOUS
 62
     7
100
AcDbLine
 10
2760.414413663241
 20
2232.306706678951
 30
0.0
 11
2760.414413663241
 21
2212.306706678951
 31
0.0
  0
LINE
  5
4D7
330
1F
100
AcDbEntity
  8
LAY-10
  6
CONTINUOUS
 62
     7
100
AcDbLine
 10
2760.414413663241
 20
2102.306706678952
 30
0.0
 11
2760.414413663241
 21
2082.306706678952
 31
0.0
  0
LINE
  5
4D8
330
1F
100
AcDbEntity
  8
LAY-10
  6
CONTINUOUS
 62
     7
100
AcDbLine
 10
2753.414413663237
 20
2082.306706678952
 30
0.0
 11
2761.414413663239
 21
2082.306706678952
 31
0.0
  0
LINE
  5
4D9
330
1F
100
AcDbEntity
  8
LAY-10
  6
CONTINUOUS
 62
     7
100
AcDbLine
 10
2753.414413663237
 20
2232.306706678951
 30
0.0
 11
2761.414413663239
 21
2232.306706678951
 31
0.0
  0
LINE
  5
4DA
330
1F
100
AcDbEntity
  8
LAY-10
  6
CONTINUOUS
 62
     7
100
AcDbLine
 10
2753.414413663237
 20
2212.306706678951
 30
0.0
 11
2761.414413663239
 21
2212.306706678951
 31
0.0
  0
LINE
  5
4DB
330
1F
100
AcDbEntity
  8
LAY-10
  6
CONTINUOUS
 62
     7
100
AcDbLine
 10
2755.414413663239
 20
2232.306706678951
 30
0.0
 11
2755.414413663239
 21
2242.606706678948
 31
0.0
  0
LINE
  5
4DC
330
1F
100
AcDbEntity
  8
LAY-10
  6
CONTINUOUS
 62
     7
100
AcDbLine
 10
2755.414413663239
 20
2102.306706678952
 30
0.0
 11
2755.414413663239
 21
2212.306706678951
 31
0.0
  0
LINE
  5
4DD
330
1F
100
AcDbEntity
  8
LAY-10
  6
CONTINUOUS
 62
     7
100
AcDbLine
 10
2755.414413663239
 20
2072.306706678952
 30
0.0
 11
2755.414413663239
 21
2082.306706678952
 31
0.0
  0
LINE
  5
4DE
330
1F
100
AcDbEntity
  8
LAY-10
  6
CONTINUOUS
 62
     7
100
AcDbLine
 10
2753.414413663237
 20
2212.306706678951
 30
0.0
 11
2753.414413663237
 21
2232.306706678951
 31
0.0
  0
LINE
  5
4DF
330
1F
100
AcDbEntity
  8
LAY-10
  6
CONTINUOUS
 62
     7
100
AcDbLine
 10
2753.414413663237
 20
2082.306706678952
 30
0.0
 11
2753.414413663237
 21
2102.306706678952
 31
0.0
  0
LINE
  5
4E0
330
1F
100
AcDbEntity
  8
LAY-10
  6
CONTINUOUS
 62
     7
100
AcDbLine
 10
2753.414413663237
 20
2102.306706678952
 30
0.0
 11
2761.414413663239
 21
2102.306706678952
 31
0.0
  0
LINE
  5
4E1
330
1F
100
AcDbEntity
  8
LAY-10
  6
CONTINUOUS
 62
     7
100
AcDbLine
 10
2755.414413663239
 20
2242.606706678948
 30
0.0
 11
2761.414413663239
 21
2242.606706678948
 31
0.0
  0
LINE
  5
4E2
330
1F
100
AcDbEntity
  8
LAY-10
  6
CONTINUOUS
 62
     7
100
AcDbLine
 10
2755.414413663239
 20
2072.306706678952
 30
0.0
 11
2761.414413663239
 21
2072.306706678952
 31
0.0
  0
ARC
  5
4E3
330
1F
100
AcDbEntity
  8
LAY-10
  6
CONTINUOUS
 62
     7
100
AcDbCircle
 10
2758.414413663243
 20
2110.30670667895
 30
0.0
 40
3.000000000000003
100
AcDbArc
 50
0.0
 51
180.0
  0
ARC
  5
4E4
330
1F
100
AcDbEntity
  8
LAY-10
  6
CONTINUOUS
 62
     7
100
AcDbCircle
 10
2758.414413663243
 20
2204.306706678949
 30
0.0
 40
3.000000000000003
100
AcDbArc
 50
180.0
 51
0.0
  0
LINE
  5
4E5
330
1F
100
AcDbEntity
  8
LAY-10
  6
CONTINUOUS
 62
     7
100
AcDbLine
 10
2755.414413663239
 20
1535.006706679051
 30
0.0
 11
2761.414413663239
 21
1535.006706679051
 31
0.0
  0
LINE
  5
4E6
330
1F
100
AcDbEntity
  8
LAY-10
  6
CONTINUOUS
 62
     7
100
AcDbLine
 10
2755.414413663239
 20
1705.306706679048
 30
0.0
 11
2761.414413663239
 21
1705.306706679048
 31
0.0
  0
LINE
  5
4E7
330
1F
100
AcDbEntity
  8
LAY-10
  6
CONTINUOUS
 62
     7
100
AcDbLine
 10
2753.414413663237
 20
1565.006706679052
 30
0.0
 11
2761.414413663239
 21
1565.006706679052
 31
0.0
  0
LINE
  5
4E8
330
1F
100
AcDbEntity
  8
LAY-10
  6
CONTINUOUS
 62
     7
100
AcDbLine
 10
2753.414413663237
 20
1545.006706679052
 30
0.0
 11
2753.414413663237
 21
1565.006706679052
 31
0.0
  0
LINE
  5
4E9
330
1F
100
AcDbEntity
  8
LAY-10
  6
CONTINUOUS
 62
     7
100
AcDbLine
 10
2753.414413663237
 20
1675.006706679051
 30
0.0
 11
2753.414413663237
 21
1695.006706679051
 31
0.0
  0
LINE
  5
4EA
330
1F
100
AcDbEntity
  8
LAY-10
  6
CONTINUOUS
 62
     7
100
AcDbLine
 10
2755.414413663239
 20
1535.006706679051
 30
0.0
 11
2755.414413663239
 21
1545.006706679052
 31
0.0
  0
LINE
  5
4EB
330
1F
100
AcDbEntity
  8
LAY-10
  6
CONTINUOUS
 62
     7
100
AcDbLine
 10
2755.414413663239
 20
1565.006706679052
 30
0.0
 11
2755.414413663239
 21
1675.006706679051
 31
0.0
  0
LINE
  5
4EC
330
1F
100
AcDbEntity
  8
LAY-10
  6
CONTINUOUS
 62
     7
100
AcDbLine
 10
2755.414413663239
 20
1695.006706679051
 30
0.0
 11
2755.414413663239
 21
1705.306706679048
 31
0.0
  0
LINE
  5
4ED
330
1F
100
AcDbEntity
  8
LAY-10
  6
CONTINUOUS
 62
     7
100
AcDbLine
 10
2753.414413663237
 20
1675.006706679051
 30
0.0
 11
2761.414413663239
 21
1675.006706679051
 31
0.0
  0
LINE
  5
4EE
330
1F
100
AcDbEntity
  8
LAY-10
  6
CONTINUOUS
 62
     7
100
AcDbLine
 10
2753.414413663237
 20
1695.006706679051
 30
0.0
 11
2761.414413663239
 21
1695.006706679051
 31
0.0
  0
LINE
  5
4EF
330
1F
100
AcDbEntity
  8
LAY-10
  6
CONTINUOUS
 62
     7
100
AcDbLine
 10
2753.414413663237
 20
1545.006706679052
 30
0.0
 11
2761.414413663239
 21
1545.006706679052
 31
0.0
  0
LINE
  5
4F0
330
1F
100
AcDbEntity
  8
LAY-10
  6
CONTINUOUS
 62
     7
100
AcDbLine
 10
2760.414413663241
 20
1565.006706679052
 30
0.0
 11
2760.414413663241
 21
1545.006706679052
 31
0.0
  0
LINE
  5
4F1
330
1F
100
AcDbEntity
  8
LAY-10
  6
CONTINUOUS
 62
     7
100
AcDbLine
 10
2760.414413663241
 20
1695.006706679051
 30
0.0
 11
2760.414413663241
 21
1675.006706679051
 31
0.0
  0
ARC
  5
4F2
330
1F
100
AcDbEntity
  8
LAY-10
  6
CONTINUOUS
 62
     7
100
AcDbCircle
 10
2758.414413663243
 20
1573.00670667905
 30
0.0
 40
3.000000000000003
100
AcDbArc
 50
0.0
 51
180.0
  0
ARC
  5
4F3
330
1F
100
AcDbEntity
  8
LAY-10
  6
CONTINUOUS
 62
     7
100
AcDbCircle
 10
2758.414413663243
 20
1667.006706679049
 30
0.0
 40
3.000000000000003
100
AcDbArc
 50
180.0
 51
0.0
  0
LINE
  5
4F4
330
1F
100
AcDbEntity
  8
LAY-10
  6
CONTINUOUS
 62
     7
100
AcDbLine
 10
2676.614413663246
 20
2417.806706678884
 30
0.0
 11
2721.61441366327
 21
2417.806706678884
 31
0.0
  0
LINE
  5
4F5
330
1F
100
AcDbEntity
  8
LAY-10
  6
CONTINUOUS
 62
     7
100
AcDbLine
 10
2676.614413663246
 20
2449.806706678951
 30
0.0
 11
2721.61441366327
 21
2449.806706678951
 31
0.0
  0
LINE
  5
4F6
330
1F
100
AcDbEntity
  8
LAY-10
  6
CONTINUOUS
 62
     7
100
AcDbLine
 10
2713.614413663259
 20
2449.806706678951
 30
0.0
 11
2713.614413663258
 21
2458.606706678997
 31
0.0
  0
LINE
  5
4F7
330
1F
100
AcDbEntity
  8
LAY-10
  6
CONTINUOUS
 62
     7
100
AcDbLine
 10
2711.614413663259
 20
2449.806706678951
 30
0.0
 11
2711.614413663258
 21
2458.606706678997
 31
0.0
  0
LINE
  5
4F8
330
1F
100
AcDbEntity
  8
LAY-10
  6
CONTINUOUS
 62
     7
100
AcDbLine
 10
2743.814413663266
 20
2386.806706678949
 30
0.0
 11
2724.814413663268
 21
2386.806706678951
 31
0.0
  0
LINE
  5
4F9
330
1F
100
AcDbEntity
  8
LAY-10
  6
CONTINUOUS
 62
     7
100
AcDbLine
 10
2743.814413663266
 20
1390.806706678953
 30
0.0
 11
2724.814413663268
 21
1390.806706678951
 31
0.0
  0
LINE
  5
4FA
330
1F
100
AcDbEntity
  8
LAY-10
  6
CONTINUOUS
 62
     7
100
AcDbLine
 10
2676.614413663246
 20
1359.806706678942
 30
0.0
 11
2721.614413663269
 21
1359.806706678942
 31
0.0
  0
LINE
  5
4FB
330
1F
100
AcDbEntity
  8
LAY-10
  6
CONTINUOUS
 62
     7
100
AcDbLine
 10
2679.614413663247
 20
1327.806706678951
 30
0.0
 11
2721.614413663269
 21
1327.806706678951
 31
0.0
  0
LINE
  5
4FC
330
1F
100
AcDbEntity
  8
LAY-10
  6
CONTINUOUS
 62
     7
100
AcDbLine
 10
2713.614413663258
 20
1319.00670667895
 30
0.0
 11
2713.614413663258
 21
1327.806706678951
 31
0.0
  0
LINE
  5
4FD
330
1F
100
AcDbEntity
  8
LAY-10
  6
CONTINUOUS
 62
     7
100
AcDbLine
 10
2713.614413663258
 20
1359.806706678942
 30
0.0
 11
2713.614413663259
 21
2417.806706678884
 31
0.0
  0
LINE
  5
4FE
330
1F
100
AcDbEntity
  8
LAY-10
  6
CONTINUOUS
 62
     7
100
AcDbLine
 10
2711.614413663258
 20
1319.00670667895
 30
0.0
 11
2711.614413663258
 21
1327.806706678951
 31
0.0
  0
LINE
  5
4FF
330
1F
100
AcDbEntity
  8
LAY-10
  6
CONTINUOUS
 62
     7
100
AcDbLine
 10
2711.614413663258
 20
1359.806706678942
 30
0.0
 11
2711.614413663259
 21
2417.806706678884
 31
0.0
  0
ARC
  5
500
330
1F
100
AcDbEntity
  8
LAY-10
  6
CONTINUOUS
 62
     7
100
AcDbCircle
 10
476.9810803299524
 20
561.1112246744593
 30
0.0
 40
9.999999999999998
100
AcDbArc
 50
264.7191290276113
 51
264.7321512822377
  0
LINE
  5
501
330
1F
100
AcDbEntity
  8
LAY-10
  6
CONTINUOUS
 62
     7
100
AcDbLine
 10
269.281080329929
 20
847.8067066789496
 30
0.0
 11
269.281080329929
 21
860.0067066789485
 31
0.0
  0
LINE
  5
502
330
1F
100
AcDbEntity
  8
LAY-10
  6
CONTINUOUS
 62
     7
100
AcDbLine
 10
250.2810803299271
 20
851.0067066789494
 30
0.0
 11
250.2810803299271
 21
847.8067066789496
 31
0.0
  0
LINE
  5
503
330
1F
100
AcDbEntity
  8
LAY-10
  6
CONTINUOUS
 62
     7
100
AcDbLine
 10
238.281080329928
 20
851.0067066789494
 30
0.0
 11
238.281080329928
 21
847.8067066789496
 31
0.0
  0
LINE
  5
504
330
1F
100
AcDbEntity
  8
LAY-10
  6
CONTINUOUS
 62
     7
100
AcDbLine
 10
250.2810803299271
 20
860.0067066789485
 30
0.0
 11
250.2810803299271
 21
863.2067066789492
 31
0.0
  0
LINE
  5
505
330
1F
100
AcDbEntity
  8
LAY-10
  6
CONTINUOUS
 62
     7
100
AcDbLine
 10
238.281080329928
 20
860.0067066789485
 30
0.0
 11
238.281080329928
 21
863.2067066789492
 31
0.0
  0
LINE
  5
506
330
1F
100
AcDbEntity
  8
LAY-10
  6
CONTINUOUS
 62
     7
100
AcDbLine
 10
239.281080329929
 20
860.0067066789485
 30
0.0
 11
235.2810803299271
 21
860.0067066789485
 31
0.0
  0
LINE
  5
507
330
1F
100
AcDbEntity
  8
LAY-10
  6
CONTINUOUS
 62
     7
100
AcDbLine
 10
232.2810803299281
 20
851.0067066789494
 30
0.0
 11
232.2810803299281
 21
860.2067066789493
 31
0.0
  0
LINE
  5
508
330
1F
100
AcDbEntity
  8
LAY-10
  6
CONTINUOUS
 62
     7
100
AcDbLine
 10
235.2810803299271
 20
851.0067066789494
 30
0.0
 11
235.2810803299271
 21
860.0067066789485
 31
0.0
  0
LINE
  5
509
330
1F
100
AcDbEntity
  8
LAY-10
  6
CONTINUOUS
 62
     7
100
AcDbLine
 10
226.281080329929
 20
851.0067066789494
 30
0.0
 11
239.281080329929
 21
851.0067066789494
 31
0.0
  0
ARC
  5
50A
330
1F
100
AcDbEntity
  8
LAY-10
  6
CONTINUOUS
 62
     7
100
AcDbCircle
 10
235.2810803299271
 20
860.2067066789493
 30
0.0
 40
3.000000000000003
100
AcDbArc
 50
90.00000000000001
 51
180.0
  0
LINE
  5
50B
330
1F
100
AcDbEntity
  8
LAY-10
  6
CONTINUOUS
 62
     7
100
AcDbLine
 10
223.0810803299282
 20
850.8067066789496
 30
0.0
 11
223.0810803299282
 21
944.8067066789497
 31
0.0
  0
ARC
  5
50C
330
1F
100
AcDbEntity
  8
LAY-10
  6
CONTINUOUS
 62
     7
100
AcDbCircle
 10
226.0810803299292
 20
850.8067066789496
 30
0.0
 40
3.000000000000003
100
AcDbArc
 50
180.0
 51
270.0000000000002
  0
LINE
  5
50D
330
1F
100
AcDbEntity
  8
LAY-10
  6
CONTINUOUS
 62
     7
100
AcDbLine
 10
266.2810803299299
 20
851.0067066789494
 30
0.0
 11
266.2810803299299
 21
860.0067066789503
 31
0.0
  0
LINE
  5
50E
330
1F
100
AcDbEntity
  8
LAY-10
  6
CONTINUOUS
 62
     7
100
AcDbLine
 10
279.2810803299262
 20
847.8067066789496
 30
0.0
 11
226.0810803299292
 21
847.8067066789496
 31
0.0
  0
LINE
  5
50F
330
1F
100
AcDbEntity
  8
LAY-10
  6
CONTINUOUS
 62
     7
100
AcDbLine
 10
249.2810803299263
 20
851.0067066789494
 30
0.0
 11
279.2810803299262
 21
851.0067066789494
 31
0.0
  0
LINE
  5
510
330
1F
100
AcDbEntity
  8
LAY-10
  6
CONTINUOUS
 62
     7
100
AcDbLine
 10
226.281080329929
 20
944.8067066789497
 30
0.0
 11
226.281080329929
 21
851.0067066789503
 31
0.0
  0
LINE
  5
511
330
1F
100
AcDbEntity
  8
LAY-10
  6
CONTINUOUS
 62
     7
100
AcDbLine
 10
229.281080329928
 20
947.8067066789496
 30
0.0
 11
229.281080329928
 21
932.8067066789496
 31
0.0
  0
LINE
  5
512
330
1F
100
AcDbEntity
  8
LAY-10
  6
CONTINUOUS
 62
     7
100
AcDbLine
 10
226.2810803299271
 20
944.8067066789497
 30
0.0
 11
214.281080329928
 21
944.8067066789497
 31
0.0
  0
LINE
  5
513
330
1F
100
AcDbEntity
  8
LAY-10
  6
CONTINUOUS
 62
     7
100
AcDbLine
 10
229.281080329928
 20
932.8067066789496
 30
0.0
 11
226.2810803299271
 21
932.8067066789496
 31
0.0
  0
LINE
  5
514
330
1F
100
AcDbEntity
  8
LAY-10
  6
CONTINUOUS
 62
     7
100
AcDbLine
 10
214.281080329928
 20
947.8067066789496
 30
0.0
 11
214.281080329928
 21
944.8067066789497
 31
0.0
  0
LINE
  5
515
330
1F
100
AcDbEntity
  8
LAY-10
  6
CONTINUOUS
 62
     7
100
AcDbLine
 10
279.2810803299262
 20
860.0067066789485
 30
0.0
 11
279.2810803299262
 21
830.0067066789495
 31
0.0
  0
LINE
  5
516
330
1F
100
AcDbEntity
  8
LAY-10
  6
CONTINUOUS
 62
     7
100
AcDbLine
 10
282.281080329929
 20
853.0067066789503
 30
0.0
 11
282.281080329929
 21
832.0067066789494
 31
0.0
  0
LINE
  5
517
330
1F
100
AcDbEntity
  8
LAY-10
  6
CONTINUOUS
 62
     7
100
AcDbLine
 10
309.2810803299262
 20
860.0067066789485
 30
0.0
 11
309.2810803299262
 21
859.0067066789494
 31
0.0
  0
ARC
  5
518
330
1F
100
AcDbEntity
  8
LAY-10
  6
CONTINUOUS
 62
     7
100
AcDbCircle
 10
280.281080329929
 20
832.0067066789494
 30
0.0
 40
2.0
100
AcDbArc
 50
270.0000000000002
 51
0.0
  0
ARC
  5
519
330
1F
100
AcDbEntity
  8
LAY-10
  6
CONTINUOUS
 62
     7
100
AcDbCircle
 10
307.2810803299271
 20
859.0067066789494
 30
0.0
 40
2.0
100
AcDbArc
 50
270.0000000000002
 51
0.0
  0
ARC
  5
51A
330
1F
100
AcDbEntity
  8
LAY-10
  6
CONTINUOUS
 62
     7
100
AcDbCircle
 10
286.281080329929
 20
853.0067066789503
 30
0.0
 40
4.0
100
AcDbArc
 50
90.00000000000001
 51
180.0
  0
LINE
  5
51B
330
1F
100
AcDbEntity
  8
LAY-10
  6
CONTINUOUS
 62
     7
100
AcDbLine
 10
214.2810803299326
 20
947.8067066790005
 30
0.0
 11
229.2810803299326
 21
947.8067066790005
 31
0.0
  0
LINE
  5
51C
330
1F
100
AcDbEntity
  8
LAY-10
  6
CONTINUOUS
 62
     7
100
AcDbLine
 10
2269.281080329915
 20
847.8067066789496
 30
0.0
 11
2269.281080329915
 21
860.0067066789503
 31
0.0
  0
LINE
  5
51D
330
1F
100
AcDbEntity
  8
LAY-10
  6
CONTINUOUS
 62
     7
100
AcDbLine
 10
2288.281080329913
 20
851.0067066789494
 30
0.0
 11
2288.281080329913
 21
847.8067066789496
 31
0.0
  0
LINE
  5
51E
330
1F
100
AcDbEntity
  8
LAY-10
  6
CONTINUOUS
 62
     7
100
AcDbLine
 10
2300.281080329917
 20
851.0067066789494
 30
0.0
 11
2300.281080329917
 21
847.8067066789496
 31
0.0
  0
LINE
  5
51F
330
1F
100
AcDbEntity
  8
LAY-10
  6
CONTINUOUS
 62
     7
100
AcDbLine
 10
2288.281080329913
 20
860.0067066789503
 30
0.0
 11
2288.281080329913
 21
863.2067066789492
 31
0.0
  0
LINE
  5
520
330
1F
100
AcDbEntity
  8
LAY-10
  6
CONTINUOUS
 62
     7
100
AcDbLine
 10
2300.281080329917
 20
860.0067066789503
 30
0.0
 11
2300.281080329917
 21
863.2067066789492
 31
0.0
  0
LINE
  5
521
330
1F
100
AcDbEntity
  8
LAY-10
  6
CONTINUOUS
 62
     7
100
AcDbLine
 10
2303.281080329913
 20
851.0067066789494
 30
0.0
 11
2303.281080329913
 21
860.0067066789503
 31
0.0
  0
ARC
  5
522
330
1F
100
AcDbEntity
  8
LAY-10
  6
CONTINUOUS
 62
     7
100
AcDbCircle
 10
2303.281080329913
 20
860.206706678951
 30
0.0
 40
3.000000000000003
100
AcDbArc
 50
0.0
 51
90.00000000000001
  0
LINE
  5
523
330
1F
100
AcDbEntity
  8
LAY-10
  6
CONTINUOUS
 62
     7
100
AcDbLine
 10
2315.481080329916
 20
850.8067066789505
 30
0.0
 11
2315.481080329916
 21
944.8067066789497
 31
0.0
  0
LINE
  5
524
330
1F
100
AcDbEntity
  8
LAY-10
  6
CONTINUOUS
 62
     7
100
AcDbLine
 10
2306.281080329915
 20
851.0067066789494
 30
0.0
 11
2306.281080329915
 21
860.2067066789493
 31
0.0
  0
ARC
  5
525
330
1F
100
AcDbEntity
  8
LAY-10
  6
CONTINUOUS
 62
     7
100
AcDbCircle
 10
2312.481080329914
 20
850.8067066789505
 30
0.0
 40
3.000000000000003
100
AcDbArc
 50
270.0000000000002
 51
0.0
  0
LINE
  5
526
330
1F
100
AcDbEntity
  8
LAY-10
  6
CONTINUOUS
 62
     7
100
AcDbLine
 10
2272.281080329915
 20
851.0067066789494
 30
0.0
 11
2272.281080329915
 21
860.0067066789503
 31
0.0
  0
LINE
  5
527
330
1F
100
AcDbEntity
  8
LAY-10
  6
CONTINUOUS
 62
     7
100
AcDbLine
 10
2289.281080329915
 20
851.0067066789494
 30
0.0
 11
2259.281080329915
 21
851.0067066789494
 31
0.0
  0
LINE
  5
528
330
1F
100
AcDbEntity
  8
LAY-10
  6
CONTINUOUS
 62
     7
100
AcDbLine
 10
2299.281080329915
 20
851.0067066789494
 30
0.0
 11
2312.281080329915
 21
851.0067066789494
 31
0.0
  0
LINE
  5
529
330
1F
100
AcDbEntity
  8
LAY-10
  6
CONTINUOUS
 62
     7
100
AcDbLine
 10
2312.281080329915
 20
944.8067066789497
 30
0.0
 11
2312.281080329915
 21
851.0067066789503
 31
0.0
  0
LINE
  5
52A
330
1F
100
AcDbEntity
  8
LAY-10
  6
CONTINUOUS
 62
     7
100
AcDbLine
 10
2259.281080329915
 20
847.8067066789496
 30
0.0
 11
2312.481080329914
 21
847.8067066789496
 31
0.0
  0
LINE
  5
52B
330
1F
100
AcDbEntity
  8
LAY-10
  6
CONTINUOUS
 62
     7
100
AcDbLine
 10
2309.281080329913
 20
947.8067066789496
 30
0.0
 11
2309.281080329913
 21
932.8067066789496
 31
0.0
  0
LINE
  5
52C
330
1F
100
AcDbEntity
  8
LAY-10
  6
CONTINUOUS
 62
     7
100
AcDbLine
 10
2312.281080329915
 20
944.8067066789497
 30
0.0
 11
2324.281080329913
 21
944.8067066789497
 31
0.0
  0
LINE
  5
52D
330
1F
100
AcDbEntity
  8
LAY-10
  6
CONTINUOUS
 62
     7
100
AcDbLine
 10
2309.281080329913
 20
932.8067066789496
 30
0.0
 11
2312.281080329915
 21
932.8067066789496
 31
0.0
  0
LINE
  5
52E
330
1F
100
AcDbEntity
  8
LAY-10
  6
CONTINUOUS
 62
     7
100
AcDbLine
 10
2324.281080329913
 20
947.8067066789496
 30
0.0
 11
2324.281080329913
 21
944.8067066789497
 31
0.0
  0
LINE
  5
52F
330
1F
100
AcDbEntity
  8
LAY-10
  6
CONTINUOUS
 62
     7
100
AcDbLine
 10
2259.281080329915
 20
860.0067066789503
 30
0.0
 11
2259.281080329915
 21
830.0067066789503
 31
0.0
  0
LINE
  5
530
330
1F
100
AcDbEntity
  8
LAY-10
  6
CONTINUOUS
 62
     7
100
AcDbLine
 10
2256.281080329915
 20
853.0067066789503
 30
0.0
 11
2256.281080329915
 21
832.0067066789503
 31
0.0
  0
LINE
  5
531
330
1F
100
AcDbEntity
  8
LAY-10
  6
CONTINUOUS
 62
     7
100
AcDbLine
 10
2229.281080329917
 20
860.0067066789503
 30
0.0
 11
2229.281080329917
 21
859.0067066789504
 31
0.0
  0
LINE
  5
532
330
1F
100
AcDbEntity
  8
LAY-10
  6
CONTINUOUS
 62
     7
100
AcDbLine
 10
2259.281080329915
 20
830.0067066789503
 30
0.0
 11
2258.281080329913
 21
830.0067066789503
 31
0.0
  0
ARC
  5
533
330
1F
100
AcDbEntity
  8
LAY-10
  6
CONTINUOUS
 62
     7
100
AcDbCircle
 10
2258.281080329913
 20
832.0067066789503
 30
0.0
 40
2.0
100
AcDbArc
 50
180.0
 51
270.0000000000002
  0
ARC
  5
534
330
1F
100
AcDbEntity
  8
LAY-10
  6
CONTINUOUS
 62
     7
100
AcDbCircle
 10
2231.281080329915
 20
859.0067066789504
 30
0.0
 40
2.0
100
AcDbArc
 50
180.0
 51
270.0000000000002
  0
ARC
  5
535
330
1F
100
AcDbEntity
  8
LAY-10
  6
CONTINUOUS
 62
     7
100
AcDbCircle
 10
2252.281080329913
 20
853.0067066789503
 30
0.0
 40
4.0
100
AcDbArc
 50
0.0
 51
90.00000000000001
  0
LINE
  5
536
330
1F
100
AcDbEntity
  8
LAY-10
  6
CONTINUOUS
 62
     7
100
AcDbLine
 10
2309.281080329932
 20
947.8067066790005
 30
0.0
 11
2324.281080329932
 21
947.8067066790005
 31
0.0
  0
LINE
  5
537
330
1F
100
AcDbEntity
  8
LAY-10
  6
CONTINUOUS
 62
     7
100
AcDbLine
 10
2258.281080329913
 20
830.0067066789503
 30
0.0
 11
279.2810803299299
 21
830.0067066789495
 31
0.0
  0
POLYLINE
  5
538
330
1F
100
AcDbEntity
  8
LAY-10
  6
CONTINUOUS
 62
     7
100
AcDb2dPolyline
 66
     1
 10
0.0
 20
0.0
 30
0.0
 70
   128
  0
VERTEX
  5
539
330
538
100
AcDbEntity
  8
LAY-10
  6
CONTINUOUS
 62
     7
100
AcDbVertex
100
AcDb2dVertex
 10
286.281080329929
 20
857.0067066789494
 30
0.0
  0
VERTEX
  5
53A
330
538
100
AcDbEntity
  8
LAY-10
  6
CONTINUOUS
 62
     7
100
AcDbVertex
100
AcDb2dVertex
 10
415.781080329929
 20
857.0067066789503
 30
0.0
  0
VERTEX
  5
53B
330
538
100
AcDbEntity
  8
LAY-10
  6
CONTINUOUS
 62
     7
100
AcDbVertex
100
AcDb2dVertex
 10
2252.281080329913
 20
857.0067066789503
 30
0.0
  0
SEQEND
  5
53C
330
538
100
AcDbEntity
  8
LAY-10
  6
CONTINUOUS
 62
     7
  0
LINE
  5
53D
330
1F
100
AcDbEntity
  8
LAY-10
  6
CONTINUOUS
 62
     7
100
AcDbLine
 10
2304.781080329915
 20
863.2067066789492
 30
0.0
 11
233.781080329929
 21
863.2067066789492
 31
0.0
  0
LINE
  5
53E
330
1F
100
AcDbEntity
  8
LAY-10
  6
CONTINUOUS
 62
     7
100
AcDbLine
 10
236.4810803299197
 20
944.806706679016
 30
0.0
 11
236.4810803299197
 21
905.806706679016
 31
0.0
  0
ARC
  5
53F
330
1F
100
AcDbEntity
  8
LAY-10
  6
CONTINUOUS
 62
     7
100
AcDbCircle
 10
239.4810803299197
 20
905.806706679016
 30
0.0
 40
3.000000000000003
100
AcDbArc
 50
180.0
 51
270.0000000000002
  0
ARC
  5
540
330
1F
100
AcDbEntity
  8
LAY-10
  6
CONTINUOUS
 62
     7
100
AcDbCircle
 10
239.2810803299208
 20
905.6067066790162
 30
0.0
 40
6.000000000000005
100
AcDbArc
 50
180.0
 51
270.0000000000002
  0
LINE
  5
541
330
1F
100
AcDbEntity
  8
LAY-10
  6
CONTINUOUS
 62
     7
100
AcDbLine
 10
233.281080329919
 20
944.806706679016
 30
0.0
 11
233.281080329919
 21
905.6067066790162
 31
0.0
  0
LINE
  5
542
330
1F
100
AcDbEntity
  8
LAY-10
  6
CONTINUOUS
 62
     7
100
AcDbLine
 10
230.281080329919
 20
947.806706679016
 30
0.0
 11
230.281080329919
 21
932.806706679016
 31
0.0
  0
LINE
  5
543
330
1F
100
AcDbEntity
  8
LAY-10
  6
CONTINUOUS
 62
     7
100
AcDbLine
 10
230.281080329919
 20
932.806706679016
 30
0.0
 11
233.281080329919
 21
932.806706679016
 31
0.0
  0
LINE
  5
544
330
1F
100
AcDbEntity
  8
LAY-10
  6
CONTINUOUS
 62
     7
100
AcDbLine
 10
638.0810803299219
 20
944.8067066790169
 30
0.0
 11
638.0810803299219
 21
905.806706679016
 31
0.0
  0
ARC
  5
545
330
1F
100
AcDbEntity
  8
LAY-10
  6
CONTINUOUS
 62
     7
100
AcDbCircle
 10
635.0810803299182
 20
905.806706679016
 30
0.0
 40
3.000000000000003
100
AcDbArc
 50
270.0000000000002
 51
0.0
  0
ARC
  5
546
330
1F
100
AcDbEntity
  8
LAY-10
  6
CONTINUOUS
 62
     7
100
AcDbCircle
 10
635.281080329919
 20
905.6067066790172
 30
0.0
 40
6.000000000000005
100
AcDbArc
 50
270.0000000000002
 51
0.0
  0
LINE
  5
547
330
1F
100
AcDbEntity
  8
LAY-10
  6
CONTINUOUS
 62
     7
100
AcDbLine
 10
641.281080329919
 20
944.8067066790169
 30
0.0
 11
641.281080329919
 21
905.6067066790172
 31
0.0
  0
LINE
  5
548
330
1F
100
AcDbEntity
  8
LAY-10
  6
CONTINUOUS
 62
     7
100
AcDbLine
 10
644.281080329919
 20
947.8067066790169
 30
0.0
 11
644.281080329919
 21
932.8067066790169
 31
0.0
  0
LINE
  5
549
330
1F
100
AcDbEntity
  8
LAY-10
  6
CONTINUOUS
 62
     7
100
AcDbLine
 10
644.281080329919
 20
932.8067066790169
 30
0.0
 11
641.281080329919
 21
932.8067066790169
 31
0.0
  0
LINE
  5
54A
330
1F
100
AcDbEntity
  8
LAY-10
  6
CONTINUOUS
 62
     7
100
AcDbLine
 10
644.281080329919
 20
947.806706679016
 30
0.0
 11
230.281080329919
 21
947.806706679016
 31
0.0
  0
LINE
  5
54B
330
1F
100
AcDbEntity
  8
LAY-10
  6
CONTINUOUS
 62
     7
100
AcDbLine
 10
335.7810803299317
 20
880.6067066790172
 30
0.0
 11
335.7810803299317
 21
899.6067066790171
 31
0.0
  0
LINE
  5
54C
330
1F
100
AcDbEntity
  8
LAY-10
  6
CONTINUOUS
 62
     7
100
AcDbLine
 10
338.7810803299317
 20
880.6067066790162
 30
0.0
 11
338.7810803299317
 21
899.6067066790171
 31
0.0
  0
LINE
  5
54D
330
1F
100
AcDbEntity
  8
LAY-10
  6
CONTINUOUS
 62
     7
100
AcDbLine
 10
652.4810803299196
 20
944.806706679016
 30
0.0
 11
652.4810803299196
 21
905.806706679016
 31
0.0
  0
ARC
  5
54E
330
1F
100
AcDbEntity
  8
LAY-10
  6
CONTINUOUS
 62
     7
100
AcDbCircle
 10
655.4810803299197
 20
905.806706679016
 30
0.0
 40
3.000000000000003
100
AcDbArc
 50
180.0
 51
270.0000000000002
  0
ARC
  5
54F
330
1F
100
AcDbEntity
  8
LAY-10
  6
CONTINUOUS
 62
     7
100
AcDbCircle
 10
655.2810803299208
 20
905.6067066790162
 30
0.0
 40
6.000000000000005
100
AcDbArc
 50
180.0
 51
270.0000000000002
  0
LINE
  5
550
330
1F
100
AcDbEntity
  8
LAY-10
  6
CONTINUOUS
 62
     7
100
AcDbLine
 10
649.281080329919
 20
944.806706679016
 30
0.0
 11
649.281080329919
 21
905.6067066790162
 31
0.0
  0
LINE
  5
551
330
1F
100
AcDbEntity
  8
LAY-10
  6
CONTINUOUS
 62
     7
100
AcDbLine
 10
646.281080329919
 20
947.806706679016
 30
0.0
 11
646.281080329919
 21
932.806706679016
 31
0.0
  0
LINE
  5
552
330
1F
100
AcDbEntity
  8
LAY-10
  6
CONTINUOUS
 62
     7
100
AcDbLine
 10
646.281080329919
 20
932.806706679016
 30
0.0
 11
649.281080329919
 21
932.806706679016
 31
0.0
  0
LINE
  5
553
330
1F
100
AcDbEntity
  8
LAY-10
  6
CONTINUOUS
 62
     7
100
AcDbLine
 10
1054.081080329922
 20
944.8067066790169
 30
0.0
 11
1054.081080329922
 21
905.806706679016
 31
0.0
  0
ARC
  5
554
330
1F
100
AcDbEntity
  8
LAY-10
  6
CONTINUOUS
 62
     7
100
AcDbCircle
 10
1051.081080329918
 20
905.806706679016
 30
0.0
 40
3.000000000000003
100
AcDbArc
 50
270.0000000000002
 51
0.0
  0
ARC
  5
555
330
1F
100
AcDbEntity
  8
LAY-10
  6
CONTINUOUS
 62
     7
100
AcDbCircle
 10
1051.281080329919
 20
905.6067066790172
 30
0.0
 40
6.000000000000005
100
AcDbArc
 50
270.0000000000002
 51
0.0
  0
LINE
  5
556
330
1F
100
AcDbEntity
  8
LAY-10
  6
CONTINUOUS
 62
     7
100
AcDbLine
 10
1057.281080329919
 20
944.8067066790169
 30
0.0
 11
1057.281080329919
 21
905.6067066790172
 31
0.0
  0
LINE
  5
557
330
1F
100
AcDbEntity
  8
LAY-10
  6
CONTINUOUS
 62
     7
100
AcDbLine
 10
1060.281080329919
 20
947.8067066790169
 30
0.0
 11
1060.281080329919
 21
932.8067066790169
 31
0.0
  0
LINE
  5
558
330
1F
100
AcDbEntity
  8
LAY-10
  6
CONTINUOUS
 62
     7
100
AcDbLine
 10
1060.281080329919
 20
932.8067066790169
 30
0.0
 11
1057.281080329919
 21
932.8067066790169
 31
0.0
  0
LINE
  5
559
330
1F
100
AcDbEntity
  8
LAY-10
  6
CONTINUOUS
 62
     7
100
AcDbLine
 10
1060.281080329919
 20
947.806706679016
 30
0.0
 11
646.281080329919
 21
947.806706679016
 31
0.0
  0
LINE
  5
55A
330
1F
100
AcDbEntity
  8
LAY-10
  6
CONTINUOUS
 62
     7
100
AcDbLine
 10
751.7810803299316
 20
880.6067066790172
 30
0.0
 11
751.7810803299316
 21
899.6067066790171
 31
0.0
  0
LINE
  5
55B
330
1F
100
AcDbEntity
  8
LAY-10
  6
CONTINUOUS
 62
     7
100
AcDbLine
 10
754.7810803299317
 20
880.6067066790162
 30
0.0
 11
754.7810803299317
 21
899.6067066790171
 31
0.0
  0
LINE
  5
55C
330
1F
100
AcDbEntity
  8
LAY-10
  6
CONTINUOUS
 62
     7
100
AcDbLine
 10
1068.48108032992
 20
944.806706679016
 30
0.0
 11
1068.48108032992
 21
905.806706679016
 31
0.0
  0
ARC
  5
55D
330
1F
100
AcDbEntity
  8
LAY-10
  6
CONTINUOUS
 62
     7
100
AcDbCircle
 10
1071.48108032992
 20
905.806706679016
 30
0.0
 40
3.000000000000003
100
AcDbArc
 50
180.0
 51
270.0000000000002
  0
ARC
  5
55E
330
1F
100
AcDbEntity
  8
LAY-10
  6
CONTINUOUS
 62
     7
100
AcDbCircle
 10
1071.281080329921
 20
905.6067066790162
 30
0.0
 40
6.000000000000005
100
AcDbArc
 50
180.0
 51
270.0000000000002
  0
LINE
  5
55F
330
1F
100
AcDbEntity
  8
LAY-10
  6
CONTINUOUS
 62
     7
100
AcDbLine
 10
1065.281080329919
 20
944.806706679016
 30
0.0
 11
1065.281080329919
 21
905.6067066790162
 31
0.0
  0
LINE
  5
560
330
1F
100
AcDbEntity
  8
LAY-10
  6
CONTINUOUS
 62
     7
100
AcDbLine
 10
1062.281080329919
 20
947.806706679016
 30
0.0
 11
1062.281080329919
 21
932.806706679016
 31
0.0
  0
LINE
  5
561
330
1F
100
AcDbEntity
  8
LAY-10
  6
CONTINUOUS
 62
     7
100
AcDbLine
 10
1062.281080329919
 20
932.806706679016
 30
0.0
 11
1065.281080329919
 21
932.806706679016
 31
0.0
  0
LINE
  5
562
330
1F
100
AcDbEntity
  8
LAY-10
  6
CONTINUOUS
 62
     7
100
AcDbLine
 10
1470.081080329922
 20
944.8067066790169
 30
0.0
 11
1470.081080329922
 21
905.806706679016
 31
0.0
  0
ARC
  5
563
330
1F
100
AcDbEntity
  8
LAY-10
  6
CONTINUOUS
 62
     7
100
AcDbCircle
 10
1467.081080329918
 20
905.806706679016
 30
0.0
 40
3.000000000000003
100
AcDbArc
 50
270.0000000000002
 51
0.0
  0
ARC
  5
564
330
1F
100
AcDbEntity
  8
LAY-10
  6
CONTINUOUS
 62
     7
100
AcDbCircle
 10
1467.281080329919
 20
905.6067066790172
 30
0.0
 40
6.000000000000005
100
AcDbArc
 50
270.0000000000002
 51
0.0
  0
LINE
  5
565
330
1F
100
AcDbEntity
  8
LAY-10
  6
CONTINUOUS
 62
     7
100
AcDbLine
 10
1473.281080329919
 20
944.8067066790169
 30
0.0
 11
1473.281080329919
 21
905.6067066790172
 31
0.0
  0
LINE
  5
566
330
1F
100
AcDbEntity
  8
LAY-10
  6
CONTINUOUS
 62
     7
100
AcDbLine
 10
1476.281080329919
 20
947.8067066790169
 30
0.0
 11
1476.281080329919
 21
932.8067066790169
 31
0.0
  0
LINE
  5
567
330
1F
100
AcDbEntity
  8
LAY-10
  6
CONTINUOUS
 62
     7
100
AcDbLine
 10
1476.281080329919
 20
932.8067066790169
 30
0.0
 11
1473.281080329919
 21
932.8067066790169
 31
0.0
  0
LINE
  5
568
330
1F
100
AcDbEntity
  8
LAY-10
  6
CONTINUOUS
 62
     7
100
AcDbLine
 10
1476.281080329919
 20
947.806706679016
 30
0.0
 11
1062.281080329919
 21
947.806706679016
 31
0.0
  0
LINE
  5
569
330
1F
100
AcDbEntity
  8
LAY-10
  6
CONTINUOUS
 62
     7
100
AcDbLine
 10
1167.781080329932
 20
880.6067066790172
 30
0.0
 11
1167.781080329932
 21
899.6067066790171
 31
0.0
  0
LINE
  5
56A
330
1F
100
AcDbEntity
  8
LAY-10
  6
CONTINUOUS
 62
     7
100
AcDbLine
 10
1170.781080329932
 20
880.6067066790162
 30
0.0
 11
1170.781080329932
 21
899.6067066790171
 31
0.0
  0
LINE
  5
56B
330
1F
100
AcDbEntity
  8
LAY-10
  6
CONTINUOUS
 62
     7
100
AcDbLine
 10
1484.48108032992
 20
944.806706679016
 30
0.0
 11
1484.48108032992
 21
905.806706679016
 31
0.0
  0
ARC
  5
56C
330
1F
100
AcDbEntity
  8
LAY-10
  6
CONTINUOUS
 62
     7
100
AcDbCircle
 10
1487.48108032992
 20
905.806706679016
 30
0.0
 40
3.000000000000003
100
AcDbArc
 50
180.0
 51
270.0000000000002
  0
ARC
  5
56D
330
1F
100
AcDbEntity
  8
LAY-10
  6
CONTINUOUS
 62
     7
100
AcDbCircle
 10
1487.281080329921
 20
905.6067066790162
 30
0.0
 40
6.000000000000005
100
AcDbArc
 50
180.0
 51
270.0000000000002
  0
LINE
  5
56E
330
1F
100
AcDbEntity
  8
LAY-10
  6
CONTINUOUS
 62
     7
100
AcDbLine
 10
1481.281080329919
 20
944.806706679016
 30
0.0
 11
1481.281080329919
 21
905.6067066790162
 31
0.0
  0
LINE
  5
56F
330
1F
100
AcDbEntity
  8
LAY-10
  6
CONTINUOUS
 62
     7
100
AcDbLine
 10
1478.281080329919
 20
947.806706679016
 30
0.0
 11
1478.281080329919
 21
932.806706679016
 31
0.0
  0
LINE
  5
570
330
1F
100
AcDbEntity
  8
LAY-10
  6
CONTINUOUS
 62
     7
100
AcDbLine
 10
1478.281080329919
 20
932.806706679016
 30
0.0
 11
1481.281080329919
 21
932.806706679016
 31
0.0
  0
LINE
  5
571
330
1F
100
AcDbEntity
  8
LAY-10
  6
CONTINUOUS
 62
     7
100
AcDbLine
 10
1886.081080329922
 20
944.8067066790169
 30
0.0
 11
1886.081080329922
 21
905.806706679016
 31
0.0
  0
ARC
  5
572
330
1F
100
AcDbEntity
  8
LAY-10
  6
CONTINUOUS
 62
     7
100
AcDbCircle
 10
1883.081080329919
 20
905.806706679016
 30
0.0
 40
3.000000000000003
100
AcDbArc
 50
270.0000000000002
 51
0.0
  0
ARC
  5
573
330
1F
100
AcDbEntity
  8
LAY-10
  6
CONTINUOUS
 62
     7
100
AcDbCircle
 10
1883.281080329919
 20
905.6067066790172
 30
0.0
 40
6.000000000000005
100
AcDbArc
 50
270.0000000000002
 51
0.0
  0
LINE
  5
574
330
1F
100
AcDbEntity
  8
LAY-10
  6
CONTINUOUS
 62
     7
100
AcDbLine
 10
1892.281080329919
 20
947.8067066790169
 30
0.0
 11
1892.281080329919
 21
932.8067066790169
 31
0.0
  0
LINE
  5
575
330
1F
100
AcDbEntity
  8
LAY-10
  6
CONTINUOUS
 62
     7
100
AcDbLine
 10
1892.281080329919
 20
932.8067066790169
 30
0.0
 11
1889.281080329919
 21
932.8067066790169
 31
0.0
  0
LINE
  5
576
330
1F
100
AcDbEntity
  8
LAY-10
  6
CONTINUOUS
 62
     7
100
AcDbLine
 10
1892.281080329919
 20
947.806706679016
 30
0.0
 11
1478.281080329919
 21
947.806706679016
 31
0.0
  0
LINE
  5
577
330
1F
100
AcDbEntity
  8
LAY-10
  6
CONTINUOUS
 62
     7
100
AcDbLine
 10
1583.781080329932
 20
880.6067066790172
 30
0.0
 11
1583.781080329932
 21
899.6067066790171
 31
0.0
  0
LINE
  5
578
330
1F
100
AcDbEntity
  8
LAY-10
  6
CONTINUOUS
 62
     7
100
AcDbLine
 10
1586.781080329932
 20
880.6067066790162
 30
0.0
 11
1586.781080329932
 21
899.6067066790171
 31
0.0
  0
LINE
  5
579
330
1F
100
AcDbEntity
  8
LAY-10
  6
CONTINUOUS
 62
     7
100
AcDbLine
 10
1900.481080329921
 20
944.806706679016
 30
0.0
 11
1900.481080329921
 21
905.806706679016
 31
0.0
  0
ARC
  5
57A
330
1F
100
AcDbEntity
  8
LAY-10
  6
CONTINUOUS
 62
     7
100
AcDbCircle
 10
1903.481080329921
 20
905.806706679016
 30
0.0
 40
3.000000000000003
100
AcDbArc
 50
180.0
 51
270.0000000000002
  0
ARC
  5
57B
330
1F
100
AcDbEntity
  8
LAY-10
  6
CONTINUOUS
 62
     7
100
AcDbCircle
 10
1903.281080329922
 20
905.6067066790162
 30
0.0
 40
6.000000000000005
100
AcDbArc
 50
180.0
 51
270.0000000000002
  0
LINE
  5
57C
330
1F
100
AcDbEntity
  8
LAY-10
  6
CONTINUOUS
 62
     7
100
AcDbLine
 10
1897.28108032992
 20
944.806706679016
 30
0.0
 11
1897.28108032992
 21
905.6067066790162
 31
0.0
  0
LINE
  5
57D
330
1F
100
AcDbEntity
  8
LAY-10
  6
CONTINUOUS
 62
     7
100
AcDbLine
 10
1894.28108032992
 20
947.806706679016
 30
0.0
 11
1894.28108032992
 21
932.806706679016
 31
0.0
  0
LINE
  5
57E
330
1F
100
AcDbEntity
  8
LAY-10
  6
CONTINUOUS
 62
     7
100
AcDbLine
 10
1894.28108032992
 20
932.806706679016
 30
0.0
 11
1897.28108032992
 21
932.806706679016
 31
0.0
  0
LINE
  5
57F
330
1F
100
AcDbEntity
  8
LAY-10
  6
CONTINUOUS
 62
     7
100
AcDbLine
 10
2302.081080329923
 20
944.8067066790169
 30
0.0
 11
2302.081080329923
 21
905.806706679016
 31
0.0
  0
ARC
  5
580
330
1F
100
AcDbEntity
  8
LAY-10
  6
CONTINUOUS
 62
     7
100
AcDbCircle
 10
2299.081080329919
 20
905.806706679016
 30
0.0
 40
3.000000000000003
100
AcDbArc
 50
270.0000000000002
 51
0.0
  0
ARC
  5
581
330
1F
100
AcDbEntity
  8
LAY-10
  6
CONTINUOUS
 62
     7
100
AcDbCircle
 10
2299.28108032992
 20
905.6067066790172
 30
0.0
 40
6.000000000000005
100
AcDbArc
 50
270.0000000000002
 51
0.0
  0
LINE
  5
582
330
1F
100
AcDbEntity
  8
LAY-10
  6
CONTINUOUS
 62
     7
100
AcDbLine
 10
2305.28108032992
 20
944.8067066790169
 30
0.0
 11
2305.28108032992
 21
905.6067066790172
 31
0.0
  0
LINE
  5
583
330
1F
100
AcDbEntity
  8
LAY-10
  6
CONTINUOUS
 62
     7
100
AcDbLine
 10
2308.28108032992
 20
947.8067066790169
 30
0.0
 11
2308.28108032992
 21
932.8067066790169
 31
0.0
  0
LINE
  5
584
330
1F
100
AcDbEntity
  8
LAY-10
  6
CONTINUOUS
 62
     7
100
AcDbLine
 10
2308.28108032992
 20
932.8067066790169
 30
0.0
 11
2305.28108032992
 21
932.8067066790169
 31
0.0
  0
LINE
  5
585
330
1F
100
AcDbEntity
  8
LAY-10
  6
CONTINUOUS
 62
     7
100
AcDbLine
 10
2308.28108032992
 20
947.806706679016
 30
0.0
 11
1894.28108032992
 21
947.806706679016
 31
0.0
  0
LINE
  5
586
330
1F
100
AcDbEntity
  8
LAY-10
  6
CONTINUOUS
 62
     7
100
AcDbLine
 10
1999.781080329933
 20
880.6067066790172
 30
0.0
 11
1999.781080329933
 21
899.6067066790171
 31
0.0
  0
LINE
  5
587
330
1F
100
AcDbEntity
  8
LAY-10
  6
CONTINUOUS
 62
     7
100
AcDbLine
 10
2002.781080329933
 20
880.6067066790162
 30
0.0
 11
2002.781080329933
 21
899.6067066790171
 31
0.0
  0
LINE
  5
588
330
1F
100
AcDbEntity
  8
LAY-10
  6
CONTINUOUS
 62
     7
100
AcDbLine
 10
226.281080329929
 20
897.6067066789498
 30
0.0
 11
335.7810803299317
 21
897.6067066789498
 31
0.0
  0
LINE
  5
589
330
1F
100
AcDbEntity
  8
LAY-10
  6
CONTINUOUS
 62
     7
100
AcDbLine
 10
239.4810803299197
 20
902.806706679016
 30
0.0
 11
635.0810803299182
 21
902.8067066790169
 31
0.0
  0
LINE
  5
58A
330
1F
100
AcDbEntity
  8
LAY-10
  6
CONTINUOUS
 62
     7
100
AcDbLine
 10
538.7810803299335
 20
880.6067066790172
 30
0.0
 11
538.7810803299335
 21
899.6067066790171
 31
0.0
  0
LINE
  5
58B
330
1F
100
AcDbEntity
  8
LAY-10
  6
CONTINUOUS
 62
     7
100
AcDbLine
 10
535.7810803299335
 20
880.6067066790162
 30
0.0
 11
535.7810803299335
 21
899.6067066790171
 31
0.0
  0
LINE
  5
58C
330
1F
100
AcDbEntity
  8
LAY-10
  6
CONTINUOUS
 62
     7
100
AcDbLine
 10
335.7810803299317
 20
880.6067066790162
 30
0.0
 11
538.7810803299335
 21
880.6067066790162
 31
0.0
  0
LINE
  5
58D
330
1F
100
AcDbEntity
  8
LAY-10
  6
CONTINUOUS
 62
     7
100
AcDbLine
 10
538.7810803299335
 20
897.6067066789498
 30
0.0
 11
751.7810803299316
 21
897.6067066789498
 31
0.0
  0
LINE
  5
58E
330
1F
100
AcDbEntity
  8
LAY-10
  6
CONTINUOUS
 62
     7
100
AcDbLine
 10
655.4810803299197
 20
902.806706679016
 30
0.0
 11
1051.081080329918
 21
902.8067066790169
 31
0.0
  0
LINE
  5
58F
330
1F
100
AcDbEntity
  8
LAY-10
  6
CONTINUOUS
 62
     7
100
AcDbLine
 10
954.7810803299336
 20
880.6067066790172
 30
0.0
 11
954.7810803299336
 21
899.6067066790171
 31
0.0
  0
LINE
  5
590
330
1F
100
AcDbEntity
  8
LAY-10
  6
CONTINUOUS
 62
     7
100
AcDbLine
 10
951.7810803299335
 20
880.6067066790162
 30
0.0
 11
951.7810803299335
 21
899.6067066790171
 31
0.0
  0
LINE
  5
591
330
1F
100
AcDbEntity
  8
LAY-10
  6
CONTINUOUS
 62
     7
100
AcDbLine
 10
751.7810803299316
 20
880.6067066790162
 30
0.0
 11
954.7810803299336
 21
880.6067066790162
 31
0.0
  0
LINE
  5
592
330
1F
100
AcDbEntity
  8
LAY-10
  6
CONTINUOUS
 62
     7
100
AcDbLine
 10
954.7810803299336
 20
897.6067066789498
 30
0.0
 11
1167.781080329932
 21
897.6067066789498
 31
0.0
  0
LINE
  5
593
330
1F
100
AcDbEntity
  8
LAY-10
  6
CONTINUOUS
 62
     7
100
AcDbLine
 10
1071.48108032992
 20
902.806706679016
 30
0.0
 11
1467.081080329918
 21
902.8067066790169
 31
0.0
  0
LINE
  5
594
330
1F
100
AcDbEntity
  8
LAY-10
  6
CONTINUOUS
 62
     7
100
AcDbLine
 10
1370.781080329934
 20
880.6067066790172
 30
0.0
 11
1370.781080329934
 21
899.6067066790171
 31
0.0
  0
LINE
  5
595
330
1F
100
AcDbEntity
  8
LAY-10
  6
CONTINUOUS
 62
     7
100
AcDbLine
 10
1367.781080329933
 20
880.6067066790162
 30
0.0
 11
1367.781080329933
 21
899.6067066790171
 31
0.0
  0
LINE
  5
596
330
1F
100
AcDbEntity
  8
LAY-10
  6
CONTINUOUS
 62
     7
100
AcDbLine
 10
1167.781080329932
 20
880.6067066790162
 30
0.0
 11
1370.781080329934
 21
880.6067066790162
 31
0.0
  0
LINE
  5
597
330
1F
100
AcDbEntity
  8
LAY-10
  6
CONTINUOUS
 62
     7
100
AcDbLine
 10
1370.781080329934
 20
897.6067066789498
 30
0.0
 11
1583.781080329932
 21
897.6067066789498
 31
0.0
  0
LINE
  5
598
330
1F
100
AcDbEntity
  8
LAY-10
  6
CONTINUOUS
 62
     7
100
AcDbLine
 10
1487.48108032992
 20
902.806706679016
 30
0.0
 11
1883.081080329919
 21
902.8067066790169
 31
0.0
  0
LINE
  5
599
330
1F
100
AcDbEntity
  8
LAY-10
  6
CONTINUOUS
 62
     7
100
AcDbLine
 10
1786.781080329934
 20
880.6067066790172
 30
0.0
 11
1786.781080329934
 21
899.6067066790171
 31
0.0
  0
LINE
  5
59A
330
1F
100
AcDbEntity
  8
LAY-10
  6
CONTINUOUS
 62
     7
100
AcDbLine
 10
1783.781080329934
 20
880.6067066790162
 30
0.0
 11
1783.781080329934
 21
899.6067066790171
 31
0.0
  0
LINE
  5
59B
330
1F
100
AcDbEntity
  8
LAY-10
  6
CONTINUOUS
 62
     7
100
AcDbLine
 10
1583.781080329932
 20
880.6067066790162
 30
0.0
 11
1786.781080329934
 21
880.6067066790162
 31
0.0
  0
LINE
  5
59C
330
1F
100
AcDbEntity
  8
LAY-10
  6
CONTINUOUS
 62
     7
100
AcDbLine
 10
1786.781080329934
 20
897.6067066789498
 30
0.0
 11
1999.781080329933
 21
897.6067066789498
 31
0.0
  0
LINE
  5
59D
330
1F
100
AcDbEntity
  8
LAY-10
  6
CONTINUOUS
 62
     7
100
AcDbLine
 10
1903.481080329921
 20
902.806706679016
 30
0.0
 11
2299.081080329919
 21
902.8067066790169
 31
0.0
  0
LINE
  5
59E
330
1F
100
AcDbEntity
  8
LAY-10
  6
CONTINUOUS
 62
     7
100
AcDbLine
 10
2202.781080329934
 20
880.6067066790172
 30
0.0
 11
2202.781080329934
 21
899.6067066790171
 31
0.0
  0
LINE
  5
59F
330
1F
100
AcDbEntity
  8
LAY-10
  6
CONTINUOUS
 62
     7
100
AcDbLine
 10
2199.781080329934
 20
880.6067066790162
 30
0.0
 11
2199.781080329934
 21
899.6067066790171
 31
0.0
  0
LINE
  5
5A0
330
1F
100
AcDbEntity
  8
LAY-10
  6
CONTINUOUS
 62
     7
100
AcDbLine
 10
1999.781080329933
 20
880.6067066790162
 30
0.0
 11
2202.781080329934
 21
880.6067066790162
 31
0.0
  0
LINE
  5
5A1
330
1F
100
AcDbEntity
  8
LAY-10
  6
CONTINUOUS
 62
     7
100
AcDbLine
 10
2202.781080329934
 20
897.6067066789498
 30
0.0
 11
2312.281080329915
 21
897.6067066789498
 31
0.0
  0
LINE
  5
5A2
330
1F
100
AcDbEntity
  8
LAY-10
  6
CONTINUOUS
 62
     7
100
AcDbLine
 10
226.281080329929
 20
899.6067066789507
 30
0.0
 11
2312.281080329915
 21
899.6067066789507
 31
0.0
  0
LINE
  5
5A3
330
1F
100
AcDbEntity
  8
LAY-10
  6
CONTINUOUS
 62
     7
100
AcDbLine
 10
245.281080329919
 20
902.806706679016
 30
0.0
 11
245.281080329919
 21
947.806706679016
 31
0.0
  0
LINE
  5
5A4
330
1F
100
AcDbEntity
  8
LAY-10
  6
CONTINUOUS
 62
     7
100
AcDbLine
 10
277.281080329919
 20
902.8067066790169
 30
0.0
 11
277.281080329919
 21
947.806706679016
 31
0.0
  0
LINE
  5
5A5
330
1F
100
AcDbEntity
  8
LAY-10
  6
CONTINUOUS
 62
     7
100
AcDbLine
 10
661.281080329929
 20
902.806706679016
 30
0.0
 11
661.281080329929
 21
947.806706679016
 31
0.0
  0
LINE
  5
5A6
330
1F
100
AcDbEntity
  8
LAY-10
  6
CONTINUOUS
 62
     7
100
AcDbLine
 10
693.281080329929
 20
902.8067066790169
 30
0.0
 11
693.281080329929
 21
947.806706679016
 31
0.0
  0
LINE
  5
5A7
330
1F
100
AcDbEntity
  8
LAY-10
  6
CONTINUOUS
 62
     7
100
AcDbLine
 10
1077.281080329929
 20
902.806706679016
 30
0.0
 11
1077.281080329929
 21
947.806706679016
 31
0.0
  0
LINE
  5
5A8
330
1F
100
AcDbEntity
  8
LAY-10
  6
CONTINUOUS
 62
     7
100
AcDbLine
 10
1109.281080329929
 20
902.8067066790169
 30
0.0
 11
1109.281080329929
 21
947.806706679016
 31
0.0
  0
LINE
  5
5A9
330
1F
100
AcDbEntity
  8
LAY-10
  6
CONTINUOUS
 62
     7
100
AcDbLine
 10
1493.281080329929
 20
902.806706679016
 30
0.0
 11
1493.281080329929
 21
947.806706679016
 31
0.0
  0
LINE
  5
5AA
330
1F
100
AcDbEntity
  8
LAY-10
  6
CONTINUOUS
 62
     7
100
AcDbLine
 10
1525.281080329929
 20
902.8067066790169
 30
0.0
 11
1525.281080329929
 21
947.806706679016
 31
0.0
  0
LINE
  5
5AB
330
1F
100
AcDbEntity
  8
LAY-10
  6
CONTINUOUS
 62
     7
100
AcDbLine
 10
1909.281080329929
 20
902.806706679016
 30
0.0
 11
1909.281080329929
 21
947.806706679016
 31
0.0
  0
LINE
  5
5AC
330
1F
100
AcDbEntity
  8
LAY-10
  6
CONTINUOUS
 62
     7
100
AcDbLine
 10
1941.281080329929
 20
902.8067066790169
 30
0.0
 11
1941.281080329929
 21
947.806706679016
 31
0.0
  0
LINE
  5
5AD
330
1F
100
AcDbEntity
  8
LAY-10
  6
CONTINUOUS
 62
     7
100
AcDbLine
 10
629.281080329919
 20
902.8067066790169
 30
0.0
 11
629.281080329919
 21
947.806706679016
 31
0.0
  0
LINE
  5
5AE
330
1F
100
AcDbEntity
  8
LAY-10
  6
CONTINUOUS
 62
     7
100
AcDbLine
 10
597.281080329919
 20
902.806706679016
 30
0.0
 11
597.281080329919
 21
947.806706679016
 31
0.0
  0
LINE
  5
5AF
330
1F
100
AcDbEntity
  8
LAY-10
  6
CONTINUOUS
 62
     7
100
AcDbLine
 10
1045.281080329929
 20
902.8067066790169
 30
0.0
 11
1045.281080329929
 21
947.806706679016
 31
0.0
  0
LINE
  5
5B0
330
1F
100
AcDbEntity
  8
LAY-10
  6
CONTINUOUS
 62
     7
100
AcDbLine
 10
1013.281080329929
 20
902.806706679016
 30
0.0
 11
1013.281080329929
 21
947.806706679016
 31
0.0
  0
LINE
  5
5B1
330
1F
100
AcDbEntity
  8
LAY-10
  6
CONTINUOUS
 62
     7
100
AcDbLine
 10
1461.281080329929
 20
902.8067066790169
 30
0.0
 11
1461.281080329929
 21
947.806706679016
 31
0.0
  0
LINE
  5
5B2
330
1F
100
AcDbEntity
  8
LAY-10
  6
CONTINUOUS
 62
     7
100
AcDbLine
 10
1429.281080329929
 20
902.806706679016
 30
0.0
 11
1429.281080329929
 21
947.806706679016
 31
0.0
  0
LINE
  5
5B3
330
1F
100
AcDbEntity
  8
LAY-10
  6
CONTINUOUS
 62
     7
100
AcDbLine
 10
1877.281080329929
 20
902.8067066790169
 30
0.0
 11
1877.281080329929
 21
947.806706679016
 31
0.0
  0
LINE
  5
5B4
330
1F
100
AcDbEntity
  8
LAY-10
  6
CONTINUOUS
 62
     7
100
AcDbLine
 10
1845.281080329929
 20
902.806706679016
 30
0.0
 11
1845.281080329929
 21
947.806706679016
 31
0.0
  0
LINE
  5
5B5
330
1F
100
AcDbEntity
  8
LAY-10
  6
CONTINUOUS
 62
     7
100
AcDbLine
 10
2293.281080329929
 20
902.8067066790169
 30
0.0
 11
2293.281080329929
 21
947.806706679016
 31
0.0
  0
LINE
  5
5B6
330
1F
100
AcDbEntity
  8
LAY-10
  6
CONTINUOUS
 62
     7
100
AcDbLine
 10
2261.281080329929
 20
902.806706679016
 30
0.0
 11
2261.281080329929
 21
947.806706679016
 31
0.0
  0
LINE
  5
5B7
330
1F
100
AcDbEntity
  8
LAY-10
  6
CONTINUOUS
 62
     7
100
AcDbLine
 10
2305.28108032992
 20
944.8067066790169
 30
0.0
 11
2293.28108032992
 21
944.8067066790169
 31
0.0
  0
LINE
  5
5B8
330
1F
100
AcDbEntity
  8
LAY-10
  6
CONTINUOUS
 62
     7
100
AcDbLine
 10
2261.281080329929
 20
944.8067066790169
 30
0.0
 11
1941.281080329929
 21
944.8067066790164
 31
0.0
  0
LINE
  5
5B9
330
1F
100
AcDbEntity
  8
LAY-10
  6
CONTINUOUS
 62
     7
100
AcDbLine
 10
1909.281080329929
 20
944.806706679016
 30
0.0
 11
1897.28108032992
 21
944.806706679016
 31
0.0
  0
POLYLINE
  5
5BA
330
1F
100
AcDbEntity
  8
LAY-10
  6
CONTINUOUS
 62
     7
100
AcDb2dPolyline
 66
     1
 10
0.0
 20
0.0
 30
0.0
 70
   128
  0
VERTEX
  5
5BB
330
5BA
100
AcDbEntity
  8
LAY-10
  6
CONTINUOUS
 62
     7
100
AcDbVertex
100
AcDb2dVertex
 10
1877.281080329919
 20
944.806706679016
 30
0.0
  0
VERTEX
  5
5BC
330
5BA
100
AcDbEntity
  8
LAY-10
  6
CONTINUOUS
 62
     7
100
AcDbVertex
100
AcDb2dVertex
 10
1889.281080329919
 20
944.8067066790169
 30
0.0
  0
VERTEX
  5
5BD
330
5BA
100
AcDbEntity
  8
LAY-10
  6
CONTINUOUS
 62
     7
100
AcDbVertex
100
AcDb2dVertex
 10
1889.281080329919
 20
905.6067066790172
 30
0.0
  0
SEQEND
  5
5BE
330
5BA
100
AcDbEntity
  8
LAY-10
  6
CONTINUOUS
 62
     7
  0
LINE
  5
5BF
330
1F
100
AcDbEntity
  8
LAY-10
  6
CONTINUOUS
 62
     7
100
AcDbLine
 10
1481.281080329919
 20
944.806706679016
 30
0.0
 11
1493.281080329929
 21
944.806706679016
 31
0.0
  0
LINE
  5
5C0
330
1F
100
AcDbEntity
  8
LAY-10
  6
CONTINUOUS
 62
     7
100
AcDbLine
 10
1525.281080329929
 20
944.806706679016
 30
0.0
 11
1845.281080329929
 21
944.806706679016
 31
0.0
  0
LINE
  5
5C1
330
1F
100
AcDbEntity
  8
LAY-10
  6
CONTINUOUS
 62
     7
100
AcDbLine
 10
1461.281080329919
 20
944.8067066790169
 30
0.0
 11
1473.281080329919
 21
944.8067066790169
 31
0.0
  0
LINE
  5
5C2
330
1F
100
AcDbEntity
  8
LAY-10
  6
CONTINUOUS
 62
     7
100
AcDbLine
 10
1065.281080329919
 20
944.806706679016
 30
0.0
 11
1077.281080329929
 21
944.806706679016
 31
0.0
  0
LINE
  5
5C3
330
1F
100
AcDbEntity
  8
LAY-10
  6
CONTINUOUS
 62
     7
100
AcDbLine
 10
1109.281080329929
 20
944.806706679016
 30
0.0
 11
1429.281080329929
 21
944.8067066790169
 31
0.0
  0
LINE
  5
5C4
330
1F
100
AcDbEntity
  8
LAY-10
  6
CONTINUOUS
 62
     7
100
AcDbLine
 10
1057.281080329919
 20
944.8067066790169
 30
0.0
 11
1045.281080329919
 21
944.8067066790169
 31
0.0
  0
LINE
  5
5C5
330
1F
100
AcDbEntity
  8
LAY-10
  6
CONTINUOUS
 62
     7
100
AcDbLine
 10
1013.281080329929
 20
944.8067066790169
 30
0.0
 11
693.281080329929
 21
944.8067066790164
 31
0.0
  0
LINE
  5
5C6
330
1F
100
AcDbEntity
  8
LAY-10
  6
CONTINUOUS
 62
     7
100
AcDbLine
 10
661.281080329929
 20
944.806706679016
 30
0.0
 11
649.281080329919
 21
944.806706679016
 31
0.0
  0
LINE
  5
5C7
330
1F
100
AcDbEntity
  8
LAY-10
  6
CONTINUOUS
 62
     7
100
AcDbLine
 10
629.281080329919
 20
944.8067066790169
 30
0.0
 11
641.281080329919
 21
944.8067066790169
 31
0.0
  0
LINE
  5
5C8
330
1F
100
AcDbEntity
  8
LAY-10
  6
CONTINUOUS
 62
     7
100
AcDbLine
 10
233.281080329919
 20
944.806706679016
 30
0.0
 11
245.2810803299208
 21
944.806706679016
 31
0.0
  0
LINE
  5
5C9
330
1F
100
AcDbEntity
  8
LAY-10
  6
CONTINUOUS
 62
     7
100
AcDbLine
 10
277.281080329919
 20
944.806706679016
 30
0.0
 11
597.281080329919
 21
944.8067066790169
 31
0.0
  0
CIRCLE
  5
5CA
330
1F
100
AcDbEntity
  8
LAY-10
  6
CONTINUOUS
 62
     7
100
AcDbCircle
 10
2127.281080329816
 20
866.2067066789492
 30
0.0
 40
3.000000000000003
  0
ARC
  5
5CB
330
1F
100
AcDbEntity
  8
LAY-10
  6
CONTINUOUS
 62
     7
100
AcDbCircle
 10
2170.981080329817
 20
866.2067066789492
 30
0.0
 40
4.0
100
AcDbArc
 50
0.0
 51
131.439421679092
  0
ARC
  5
5CC
330
1F
100
AcDbEntity
  8
LAY-10
  6
CONTINUOUS
 62
     7
100
AcDbCircle
 10
2174.981080329815
 20
864.2067066789492
 30
0.0
 40
1.0
100
AcDbArc
 50
180.0
 51
270.0000000000002
  0
LINE
  5
5CD
330
1F
100
AcDbEntity
  8
LAY-10
  6
CONTINUOUS
 62
     7
100
AcDbLine
 10
2174.981080329815
 20
866.2067066789492
 30
0.0
 11
2174.981080329815
 21
864.2067066789492
 31
0.0
  0
LINE
  5
5CE
330
1F
100
AcDbEntity
  8
LAY-10
  6
CONTINUOUS
 62
     7
100
AcDbLine
 10
2174.981080329815
 20
864.2067066789492
 30
0.0
 11
2183.981080329817
 21
864.2067066789502
 31
0.0
  0
LINE
  5
5CF
330
1F
100
AcDbEntity
  8
LAY-10
  6
CONTINUOUS
 62
     7
100
AcDbLine
 10
2183.981080329817
 20
864.2067066789502
 30
0.0
 11
2183.981080329817
 21
863.2067066789492
 31
0.0
  0
LINE
  5
5D0
330
1F
100
AcDbEntity
  8
LAY-10
  6
CONTINUOUS
 62
     7
100
AcDbLine
 10
2173.981080329815
 20
864.2067066789492
 30
0.0
 11
2173.981080329815
 21
866.2067066789492
 31
0.0
  0
LINE
  5
5D1
330
1F
100
AcDbEntity
  8
LAY-10
  6
CONTINUOUS
 62
     7
100
AcDbLine
 10
2127.190212949892
 20
869.2053302163856
 30
0.0
 11
2170.890212949897
 21
869.2053302163856
 31
0.0
  0
ARC
  5
5D2
330
1F
100
AcDbEntity
  8
LAY-10
  6
CONTINUOUS
 62
     7
100
AcDbCircle
 10
2170.981080329817
 20
866.2067066789492
 30
0.0
 40
3.000000000000003
100
AcDbArc
 50
270.0000000000002
 51
91.73570458884814
  0
CIRCLE
  5
5D3
330
1F
100
AcDbEntity
  8
LAY-10
  6
CONTINUOUS
 62
     7
100
AcDbCircle
 10
411.2810803299526
 20
866.2067066789496
 30
0.0
 40
3.000000000000003
  0
ARC
  5
5D4
330
1F
100
AcDbEntity
  8
LAY-10
  6
CONTINUOUS
 62
     7
100
AcDbCircle
 10
367.5810803299519
 20
866.2067066789496
 30
0.0
 40
4.0
100
AcDbArc
 50
48.56057832090708
 51
180.0
  0
ARC
  5
5D5
330
1F
100
AcDbEntity
  8
LAY-10
  6
CONTINUOUS
 62
     7
100
AcDbCircle
 10
363.5810803299536
 20
864.2067066789494
 30
0.0
 40
1.0
100
AcDbArc
 50
270.0000000000002
 51
0.0
  0
LINE
  5
5D6
330
1F
100
AcDbEntity
  8
LAY-10
  6
CONTINUOUS
 62
     7
100
AcDbLine
 10
363.5810803299536
 20
866.2067066789496
 30
0.0
 11
363.5810803299536
 21
864.2067066789494
 31
0.0
  0
LINE
  5
5D7
330
1F
100
AcDbEntity
  8
LAY-10
  6
CONTINUOUS
 62
     7
100
AcDbLine
 10
363.5810803299536
 20
864.2067066789494
 30
0.0
 11
354.5810803299519
 21
864.2067066789504
 31
0.0
  0
LINE
  5
5D8
330
1F
100
AcDbEntity
  8
LAY-10
  6
CONTINUOUS
 62
     7
100
AcDbLine
 10
354.5810803299519
 20
864.2067066789504
 30
0.0
 11
354.5810803299519
 21
863.2067066789494
 31
0.0
  0
LINE
  5
5D9
330
1F
100
AcDbEntity
  8
LAY-10
  6
CONTINUOUS
 62
     7
100
AcDbLine
 10
364.5810803299537
 20
864.2067066789494
 30
0.0
 11
364.5810803299537
 21
866.2067066789496
 31
0.0
  0
LINE
  5
5DA
330
1F
100
AcDbEntity
  8
LAY-10
  6
CONTINUOUS
 62
     7
100
AcDbLine
 10
411.3719477098766
 20
869.2053302163857
 30
0.0
 11
367.6719477098722
 21
869.2053302163857
 31
0.0
  0
ARC
  5
5DB
330
1F
100
AcDbEntity
  8
LAY-10
  6
CONTINUOUS
 62
     7
100
AcDbCircle
 10
367.5810803299519
 20
866.2067066789496
 30
0.0
 40
3.000000000000003
100
AcDbArc
 50
88.26429541115186
 51
270.0000000000002
  0
LINE
  5
5DC
330
1F
100
AcDbEntity
  8
LAY-10
  6
CONTINUOUS
 62
     7
100
AcDbLine
 10
2303.281080329913
 20
860.0067066789503
 30
0.0
 11
2299.281080329912
 21
860.0067066789503
 31
0.0
  0
LINE
  5
5DD
330
1F
100
AcDbEntity
  8
LAY-10
  6
CONTINUOUS
 62
     7
100
AcDbLine
 10
249.2810803299263
 20
860.0067066789485
 30
0.0
 11
2289.281080329915
 21
860.006706678949
 31
0.0
  0
LINE
  5
5DE
330
1F
100
AcDbEntity
  8
LAY-10
  6
HIDDEN
 62
     7
100
AcDbLine
 10
1719.281080329892
 20
830.0067066789677
 30
0.0
 11
1719.281080329892
 21
847.8067066789669
 31
0.0
  0
LINE
  5
5DF
330
1F
100
AcDbEntity
  8
LAY-10
  6
CONTINUOUS
 62
     7
100
AcDbLine
 10
1819.28108032989
 20
817.8067066789606
 30
0.0
 11
1719.28108032989
 21
817.8067066789623
 31
0.0
  0
LINE
  5
5E0
330
1F
100
AcDbEntity
  8
LAY-10
  6
CONTINUOUS
 62
     7
100
AcDbLine
 10
1719.28108032989
 20
817.8067066789623
 30
0.0
 11
1719.28108032989
 21
830.0067066789667
 31
0.0
  0
LINE
  5
5E1
330
1F
100
AcDbEntity
  8
LAY-10
  6
CONTINUOUS
 62
     7
100
AcDbLine
 10
1819.28108032989
 20
817.8067066789606
 30
0.0
 11
1819.28108032989
 21
830.0067066789667
 31
0.0
  0
LINE
  5
5E2
330
1F
100
AcDbEntity
  8
LAY-10
  6
HIDDEN
 62
     7
100
AcDbLine
 10
1819.281080329892
 20
830.0067066789677
 30
0.0
 11
1819.281080329892
 21
847.8067066789669
 31
0.0
  0
LINE
  5
5E3
330
1F
100
AcDbEntity
  8
LAY-10
  6
HIDDEN
 62
     7
100
AcDbLine
 10
1719.281080329892
 20
847.8067066789669
 30
0.0
 11
1819.281080329901
 21
847.8067066789669
 31
0.0
  0
LINE
  5
5E4
330
1F
100
AcDbEntity
  8
LAY-10
  6
HIDDEN
 62
     7
100
AcDbLine
 10
819.2810803298103
 20
830.0067066789677
 30
0.0
 11
819.2810803298103
 21
847.8067066789669
 31
0.0
  0
LINE
  5
5E5
330
1F
100
AcDbEntity
  8
LAY-10
  6
CONTINUOUS
 62
     7
100
AcDbLine
 10
719.2810803298121
 20
817.8067066789606
 30
0.0
 11
819.2810803298121
 21
817.8067066789623
 31
0.0
  0
LINE
  5
5E6
330
1F
100
AcDbEntity
  8
LAY-10
  6
CONTINUOUS
 62
     7
100
AcDbLine
 10
819.2810803298121
 20
817.8067066789623
 30
0.0
 11
819.2810803298121
 21
830.0067066789667
 31
0.0
  0
LINE
  5
5E7
330
1F
100
AcDbEntity
  8
LAY-10
  6
CONTINUOUS
 62
     7
100
AcDbLine
 10
719.2810803298121
 20
817.8067066789606
 30
0.0
 11
719.2810803298121
 21
830.0067066789667
 31
0.0
  0
LINE
  5
5E8
330
1F
100
AcDbEntity
  8
LAY-10
  6
HIDDEN
 62
     7
100
AcDbLine
 10
719.2810803298103
 20
830.0067066789677
 30
0.0
 11
719.2810803298103
 21
847.8067066789669
 31
0.0
  0
LINE
  5
5E9
330
1F
100
AcDbEntity
  8
LAY-10
  6
HIDDEN
 62
     7
100
AcDbLine
 10
819.2810803298103
 20
847.8067066789674
 30
0.0
 11
719.281080329802
 21
847.8067066789674
 31
0.0
  0
LINE
  5
5EA
330
1F
100
AcDbEntity
  8
LAY-10
  6
CONTINUOUS
 62
     7
100
AcDbLine
 10
179.7257412706022
 20
856.7650761186543
 30
0.0
 11
215.0810803299291
 21
892.1204151779813
 31
0.0
  0
LINE
  5
5EB
330
1F
100
AcDbEntity
  8
LAY-10
  6
CONTINUOUS
 62
     7
100
AcDbLine
 10
185.3825955200927
 20
851.1082218691628
 30
0.0
 11
179.7257412706022
 21
856.7650761186543
 31
0.0
  0
LINE
  5
5EC
330
1F
100
AcDbEntity
  8
LAY-10
  6
CONTINUOUS
 62
     7
100
AcDbLine
 10
185.3825955200927
 20
851.1082218691628
 30
0.0
 11
220.7379345794216
 21
886.4635609284898
 31
0.0
  0
LINE
  5
5ED
330
1F
100
AcDbEntity
  8
LAY-10
  6
CONTINUOUS
 62
     7
100
AcDbLine
 10
215.0810803299291
 20
892.1204151779813
 30
0.0
 11
215.0810803299291
 21
918.8067066789973
 31
0.0
  0
LINE
  5
5EE
330
1F
100
AcDbEntity
  8
LAY-10
  6
CONTINUOUS
 62
     7
100
AcDbLine
 10
215.0810803299291
 20
918.8067066789973
 30
0.0
 11
223.08108032993
 21
918.8067066789973
 31
0.0
  0
ARC
  5
5EF
330
1F
100
AcDbEntity
  8
LAY-10
  6
CONTINUOUS
 62
     7
100
AcDbCircle
 10
215.0810803299291
 20
892.1204151779813
 30
0.0
 40
8.0
100
AcDbArc
 50
315.0000000000145
 51
0.0
  0
LINE
  5
5F0
330
1F
100
AcDbEntity
  8
LAY-10
  6
CONTINUOUS
 62
     7
100
AcDbLine
 10
2323.481080329912
 20
918.8067066789973
 30
0.0
 11
2315.481080329912
 21
918.8067066789973
 31
0.0
  0
LINE
  5
5F1
330
1F
100
AcDbEntity
  8
LAY-10
  6
CONTINUOUS
 62
     7
100
AcDbLine
 10
2323.481080329912
 20
892.1204151779813
 30
0.0
 11
2323.481080329912
 21
918.8067066789973
 31
0.0
  0
LINE
  5
5F2
330
1F
100
AcDbEntity
  8
LAY-10
  6
CONTINUOUS
 62
     7
100
AcDbLine
 10
2358.836419389238
 20
856.7650761186543
 30
0.0
 11
2323.481080329912
 21
892.1204151779813
 31
0.0
  0
LINE
  5
5F3
330
1F
100
AcDbEntity
  8
LAY-10
  6
CONTINUOUS
 62
     7
100
AcDbLine
 10
2353.179565139751
 20
851.1082218691628
 30
0.0
 11
2317.824226080421
 21
886.4635609284898
 31
0.0
  0
LINE
  5
5F4
330
1F
100
AcDbEntity
  8
LAY-10
  6
CONTINUOUS
 62
     7
100
AcDbLine
 10
2353.179565139751
 20
851.1082218691628
 30
0.0
 11
2358.836419389238
 21
856.7650761186543
 31
0.0
  0
ARC
  5
5F5
330
1F
100
AcDbEntity
  8
LAY-10
  6
CONTINUOUS
 62
     7
100
AcDbCircle
 10
2323.481080329912
 20
892.1204151779813
 30
0.0
 40
8.0
100
AcDbArc
 50
180.0
 51
224.9999999999971
  0
LINE
  5
5F6
330
1F
100
AcDbEntity
  8
LAY-10
  6
CENTER
 62
     2
100
AcDbLine
 10
1269.281080329884
 20
1252.908221869101
 30
0.0
 11
1269.281080329884
 21
2524.705191488801
 31
0.0
  0
LINE
  5
5F7
330
1F
100
AcDbEntity
  8
LAY-10
  6
CENTER
 62
     2
100
AcDbLine
 10
1074.756080329922
 20
2433.806706678882
 30
0.0
 11
1112.256080329922
 21
2433.806706678882
 31
0.0
  0
LINE
  5
5F8
330
1F
100
AcDbEntity
  8
LAY-10
  6
CENTER
 62
     2
100
AcDbLine
 10
1093.281080329923
 20
2452.406706678884
 30
0.0
 11
1093.281080329923
 21
2413.506706678884
 31
0.0
  0
LINE
  5
5F9
330
1F
100
AcDbEntity
  8
LAY-10
  6
CENTER
 62
     2
100
AcDbLine
 10
1010.756080329923
 20
2433.806706678882
 30
0.0
 11
1048.256080329923
 21
2433.806706678882
 31
0.0
  0
LINE
  5
5FA
330
1F
100
AcDbEntity
  8
LAY-10
  6
CENTER
 62
     2
100
AcDbLine
 10
1029.281080329924
 20
2452.406706678884
 30
0.0
 11
1029.281080329924
 21
2413.506706678884
 31
0.0
  0
LINE
  5
5FB
330
1F
100
AcDbEntity
  8
LAY-10
  6
CENTER
 62
     2
100
AcDbLine
 10
677.2810803299235
 20
2452.406706678884
 30
0.0
 11
677.2810803299235
 21
2413.506706678884
 31
0.0
  0
LINE
  5
5FC
330
1F
100
AcDbEntity
  8
LAY-10
  6
CENTER
 62
     2
100
AcDbLine
 10
658.756080329922
 20
2433.806706678882
 30
0.0
 11
696.256080329922
 21
2433.806706678882
 31
0.0
  0
LINE
  5
5FD
330
1F
100
AcDbEntity
  8
LAY-10
  6
CENTER
 62
     2
100
AcDbLine
 10
594.756080329923
 20
2433.806706678882
 30
0.0
 11
632.256080329923
 21
2433.806706678882
 31
0.0
  0
LINE
  5
5FE
330
1F
100
AcDbEntity
  8
LAY-10
  6
CENTER
 62
     2
100
AcDbLine
 10
613.2810803299244
 20
2452.406706678884
 30
0.0
 11
613.2810803299244
 21
2413.506706678884
 31
0.0
  0
LINE
  5
5FF
330
1F
100
AcDbEntity
  8
LAY-10
  6
CENTER
 62
     2
100
AcDbLine
 10
242.756080329922
 20
2433.806706678882
 30
0.0
 11
280.256080329922
 21
2433.806706678882
 31
0.0
  0
LINE
  5
600
330
1F
100
AcDbEntity
  8
LAY-10
  6
CENTER
 62
     2
100
AcDbLine
 10
261.2810803299235
 20
2452.406706678884
 30
0.0
 11
261.2810803299235
 21
2413.506706678884
 31
0.0
  0
LINE
  5
601
330
1F
100
AcDbEntity
  8
LAY-10
  6
CENTER
 62
     2
100
AcDbLine
 10
261.2810803299235
 20
1362.406706678884
 30
0.0
 11
261.2810803299235
 21
1323.506706678884
 31
0.0
  0
LINE
  5
602
330
1F
100
AcDbEntity
  8
LAY-10
  6
CENTER
 62
     2
100
AcDbLine
 10
242.756080329922
 20
1343.806706678883
 30
0.0
 11
280.256080329922
 21
1343.806706678883
 31
0.0
  0
LINE
  5
603
330
1F
100
AcDbEntity
  8
LAY-10
  6
CENTER
 62
     2
100
AcDbLine
 10
613.2810803299244
 20
1362.406706678884
 30
0.0
 11
613.2810803299244
 21
1323.506706678884
 31
0.0
  0
LINE
  5
604
330
1F
100
AcDbEntity
  8
LAY-10
  6
CENTER
 62
     2
100
AcDbLine
 10
594.756080329923
 20
1343.806706678883
 30
0.0
 11
632.256080329923
 21
1343.806706678883
 31
0.0
  0
LINE
  5
605
330
1F
100
AcDbEntity
  8
LAY-10
  6
CENTER
 62
     2
100
AcDbLine
 10
658.756080329922
 20
1343.806706678883
 30
0.0
 11
696.256080329922
 21
1343.806706678883
 31
0.0
  0
LINE
  5
606
330
1F
100
AcDbEntity
  8
LAY-10
  6
CENTER
 62
     2
100
AcDbLine
 10
677.2810803299235
 20
1362.406706678884
 30
0.0
 11
677.2810803299235
 21
1323.506706678884
 31
0.0
  0
LINE
  5
607
330
1F
100
AcDbEntity
  8
LAY-10
  6
CENTER
 62
     2
100
AcDbLine
 10
1169.281080329932
 20
1345.661023449549
 30
0.0
 11
1169.281080329932
 21
1303.86102344955
 31
0.0
  0
LINE
  5
608
330
1F
100
AcDbEntity
  8
LAY-10
  6
CENTER
 62
     2
100
AcDbLine
 10
2294.281080329952
 20
1348.806706678909
 30
0.0
 11
2294.281080329952
 21
1380.806706678908
 31
0.0
  0
LINE
  5
609
330
1F
100
AcDbEntity
  8
LAY-10
  6
CENTER
 62
     2
100
AcDbLine
 10
2307.68108032995
 20
1363.806706678909
 30
0.0
 11
2279.281080329952
 21
1363.806706678909
 31
0.0
  0
LINE
  5
60A
330
1F
100
AcDbEntity
  8
LAY-10
  6
CENTER
 62
     2
100
AcDbLine
 10
2294.281080330075
 20
1902.206706678923
 30
0.0
 11
2294.281080330075
 21
1873.806706678923
 31
0.0
  0
LINE
  5
60B
330
1F
100
AcDbEntity
  8
LAY-10
  6
CENTER
 62
     2
100
AcDbLine
 10
2309.281080329879
 20
2413.806706678933
 30
0.0
 11
2277.281080329879
 21
2413.806706678934
 31
0.0
  0
LINE
  5
60C
330
1F
100
AcDbEntity
  8
LAY-10
  6
CENTER
 62
     2
100
AcDbLine
 10
2294.281080329879
 20
2427.206706678933
 30
0.0
 11
2294.281080329879
 21
2398.806706678934
 31
0.0
  0
LINE
  5
60D
330
1F
100
AcDbEntity
  8
LAY-10
  6
CENTER
 62
     2
100
AcDbLine
 10
170.3825955200318
 20
1888.806706678949
 30
0.0
 11
2368.179565139834
 21
1888.806706678949
 31
0.0
  0
LINE
  5
60E
330
1F
100
AcDbEntity
  8
LAY-10
  6
CENTER
 62
     2
100
AcDbLine
 10
1019.281080329915
 20
2480.806706679047
 30
0.0
 11
1019.281080329915
 21
2522.606706679046
 31
0.0
  0
LINE
  5
60F
330
1F
100
AcDbEntity
  8
LAY-10
  6
CENTER
 62
     2
100
AcDbLine
 10
1519.281080329915
 20
2480.806706679047
 30
0.0
 11
1519.281080329915
 21
2522.606706679046
 31
0.0
  0
LINE
  5
610
330
1F
100
AcDbEntity
  8
LAY-10
  6
CENTER
 62
     2
100
AcDbLine
 10
2019.281080329915
 20
2480.806706679047
 30
0.0
 11
2019.281080329915
 21
2522.606706679046
 31
0.0
  0
LINE
  5
611
330
1F
100
AcDbEntity
  8
LAY-10
  6
CENTER
 62
     2
100
AcDbLine
 10
519.2810803298535
 20
2480.806706679047
 30
0.0
 11
519.2810803298535
 21
2522.606706679046
 31
0.0
  0
LINE
  5
612
330
1F
100
AcDbEntity
  8
LAY-10
  6
CENTER
 62
     2
100
AcDbLine
 10
1019.281080329915
 20
1296.806706678851
 30
0.0
 11
1019.281080329915
 21
1255.006706678852
 31
0.0
  0
LINE
  5
613
330
1F
100
AcDbEntity
  8
LAY-10
  6
CENTER
 62
     2
100
AcDbLine
 10
1519.281080329915
 20
1296.806706678851
 30
0.0
 11
1519.281080329915
 21
1255.006706678852
 31
0.0
  0
LINE
  5
614
330
1F
100
AcDbEntity
  8
LAY-10
  6
CENTER
 62
     2
100
AcDbLine
 10
2019.281080329915
 20
1296.806706678851
 30
0.0
 11
2019.281080329915
 21
1255.006706678852
 31
0.0
  0
LINE
  5
615
330
1F
100
AcDbEntity
  8
LAY-10
  6
CENTER
 62
     2
100
AcDbLine
 10
519.2810803298535
 20
1296.806706678851
 30
0.0
 11
519.2810803298535
 21
1255.006706678852
 31
0.0
  0
LINE
  5
616
330
1F
100
AcDbEntity
  8
LAY-10
  6
CENTER
 62
     2
100
AcDbLine
 10
214.281080329888
 20
2138.80670667892
 30
0.0
 11
172.4810803298888
 21
2138.80670667892
 31
0.0
  0
LINE
  5
617
330
1F
100
AcDbEntity
  8
LAY-10
  6
CENTER
 62
     2
100
AcDbLine
 10
214.281080329888
 20
1638.806706678978
 30
0.0
 11
172.4810803298888
 21
1638.806706678978
 31
0.0
  0
LINE
  5
618
330
1F
100
AcDbEntity
  8
LAY-10
  6
CENTER
 62
     2
100
AcDbLine
 10
2324.281080329881
 20
2138.80670667892
 30
0.0
 11
2366.08108032988
 21
2138.80670667892
 31
0.0
  0
LINE
  5
619
330
1F
100
AcDbEntity
  8
LAY-10
  6
CENTER
 62
     2
100
AcDbLine
 10
2324.281080329881
 20
1638.806706678978
 30
0.0
 11
2366.08108032988
 21
1638.806706678978
 31
0.0
  0
LINE
  5
61A
330
1F
100
AcDbEntity
  8
LAY-10
  6
CENTER
 62
     2
100
AcDbLine
 10
1766.781080329926
 20
1363.806706678838
 30
0.0
 11
1798.781080329923
 21
1363.806706678837
 31
0.0
  0
LINE
  5
61B
330
1F
100
AcDbEntity
  8
LAY-10
  6
CENTER
 62
     2
100
AcDbLine
 10
1781.781080329926
 20
1350.406706678837
 30
0.0
 11
1781.781080329926
 21
1378.806706678837
 31
0.0
  0
LINE
  5
61C
330
1F
100
AcDbEntity
  8
LAY-10
  6
CENTER
 62
     2
100
AcDbLine
 10
1781.781080329926
 20
2427.206706678933
 30
0.0
 11
1781.781080329926
 21
2398.806706678934
 31
0.0
  0
LINE
  5
61D
330
1F
100
AcDbEntity
  8
LAY-10
  6
CENTER
 62
     2
100
AcDbLine
 10
1766.781080329926
 20
2413.806706678933
 30
0.0
 11
1798.781080329925
 21
2413.806706678934
 31
0.0
  0
LINE
  5
61E
330
1F
100
AcDbEntity
  8
LAY-10
  6
CENTER
 62
     2
100
AcDbLine
 10
1254.281080329826
 20
1363.806706678838
 30
0.0
 11
1286.281080329823
 21
1363.806706678837
 31
0.0
  0
LINE
  5
61F
330
1F
100
AcDbEntity
  8
LAY-10
  6
CENTER
 62
     2
100
AcDbLine
 10
1074.756080329922
 20
1343.806706679016
 30
0.0
 11
1112.256080329922
 21
1343.806706679016
 31
0.0
  0
LINE
  5
620
330
1F
100
AcDbEntity
  8
LAY-10
  6
CENTER
 62
     2
100
AcDbLine
 10
1093.281080329923
 20
1325.206706679014
 30
0.0
 11
1093.281080329923
 21
1364.106706679014
 31
0.0
  0
LINE
  5
621
330
1F
100
AcDbEntity
  8
LAY-10
  6
CENTER
 62
     2
100
AcDbLine
 10
1010.756080329923
 20
1343.806706679016
 30
0.0
 11
1048.256080329923
 21
1343.806706679016
 31
0.0
  0
LINE
  5
622
330
1F
100
AcDbEntity
  8
LAY-10
  6
CENTER
 62
     2
100
AcDbLine
 10
1029.281080329924
 20
1325.206706679014
 30
0.0
 11
1029.281080329924
 21
1364.106706679014
 31
0.0
  0
LINE
  5
623
330
1F
100
AcDbEntity
  8
LAY-10
  6
CENTER
 62
     2
100
AcDbLine
 10
2646.515928853406
 20
1888.806706678951
 30
0.0
 11
2825.515928853407
 21
1888.806706678951
 31
0.0
  0
LINE
  5
624
330
1F
100
AcDbEntity
  8
LAY-10
  6
CENTER
 62
     2
100
AcDbLine
 10
2738.715928853401
 20
1363.80670667895
 30
0.0
 11
2789.915928853403
 21
1363.80670667895
 31
0.0
  0
LINE
  5
625
330
1F
100
AcDbEntity
  8
LAY-10
  6
CENTER
 62
     2
100
AcDbLine
 10
2757.51441366324
 20
1302.50670667895
 30
0.0
 11
2757.51441366324
 21
1351.006706678951
 31
0.0
  0
LINE
  5
626
330
1F
100
AcDbEntity
  8
LAY-10
  6
CENTER
 62
     2
100
AcDbLine
 10
2757.51441366324
 20
2475.106706678946
 30
0.0
 11
2757.51441366324
 21
2426.60670667895
 31
0.0
  0
LINE
  5
627
330
1F
100
AcDbEntity
  8
LAY-10
  6
CENTER
 62
     2
100
AcDbLine
 10
2738.715928853401
 20
2413.806706678951
 30
0.0
 11
2789.915928853403
 21
2413.806706678951
 31
0.0
  0
LINE
  5
628
330
1F
100
AcDbEntity
  8
LAY-10
  6
CENTER
 62
     2
100
AcDbLine
 10
1269.281080329884
 20
977.9051914888574
 30
0.0
 11
1269.281080329884
 21
798.9051914888583
 31
0.0
  0
LINE
  5
629
330
1F
100
AcDbEntity
  8
LAY-10
  6
CENTER
 62
     2
100
AcDbLine
 10
2294.281080329913
 20
881.576706678951
 30
0.0
 11
2294.281080329913
 21
830.1867066789506
 31
0.0
  0
LINE
  5
62A
330
1F
100
AcDbEntity
  8
LAY-10
  6
CENTER
 62
     2
100
AcDbLine
 10
244.281080329928
 20
885.9051914887874
 30
0.0
 11
244.281080329928
 21
834.7051914887876
 31
0.0
  0
DIMENSION
  5
62C
330
1F
100
AcDbEntity
  8
LAY-20
  6
CONTINUOUS
 62
     4
100
AcDbDimension
  2
*D39
 10
2324.2810803299
 20
1117.80670667902
 30
0.0
 11
1269.281080329914
 21
1142.80670667902
 31
0.0
 70
   160
  3
ISO-25
100
AcDbAlignedDimension
 13
214.281080329929
 23
947.8067066790001
 33
0.0
 14
2324.2810803299
 24
947.8067066790001
 34
0.0
100
AcDbRotatedDimension
1001
ACAD
1000
DSTYLE
1002
{
1070
   270
1070
     2
1070
     6
1000
EX_BNORM
1070
     7
1000
EX_BNORM
1070
    41
1040
25.0
1070
    42
1040
15.0
1070
    44
1040
15.0
1070
    73
1070
     0
1070
    74
1070
     0
1070
    75
1070
     0
1070
    76
1070
     0
1070
    77
1070
     1
1070
    78
1070
     8
1070
   140
1040
31.181104
1070
   147
1040
0.0
1070
   173
1070
     1
1070
   176
1070
     4
1070
   177
1070
     4
1070
   178
1070
     7
1070
   271
1070
     1
1070
   277
1070
     2
1070
   279
1070
     2
1070
   280
1070
     0
1070
   287
1070
     5
1070
   340
1005
62B
1002
}
  0
DIMENSION
  5
63A
330
1F
100
AcDbEntity
  8
LAY-20
  6
CONTINUOUS
 62
     4
100
AcDbDimension
  2
*D40
 10
230.281080329919
 20
1047.80670667902
 30
0.0
 11
437.281080329919
 21
1072.80670667902
 31
0.0
 70
   160
  3
ISO-25
100
AcDbAlignedDimension
 13
644.281080329919
 23
947.806706679016
 33
0.0
 14
230.281080329919
 24
947.806706679016
 34
0.0
100
AcDbRotatedDimension
1001
ACAD
1000
DSTYLE
1002
{
1070
   270
1070
     2
1070
     6
1000
EX_BNORM
1070
     7
1000
EX_BNORM
1070
    41
1040
25.0
1070
    42
1040
15.0
1070
    44
1040
15.0
1070
    73
1070
     0
1070
    74
1070
     0
1070
    75
1070
     0
1070
    76
1070
     0
1070
    77
1070
     1
1070
    78
1070
     8
1070
   140
1040
31.181104
1070
   147
1040
0.0
1070
   173
1070
     1
1070
   176
1070
     4
1070
   177
1070
     4
1070
   178
1070
     7
1070
   271
1070
     1
1070
   277
1070
     2
1070
   279
1070
     2
1070
   280
1070
     0
1070
   287
1070
     5
1070
   340
1005
62B
1002
}
  0
DIMENSION
  5
647
330
1F
100
AcDbEntity
  8
LAY-20
  6
CONTINUOUS
 62
     4
100
AcDbDimension
  2
*D41
 10
2269.2810803299
 20
717.8067066789699
 30
0.0
 11
1269.28108032992
 21
742.8067066789699
 31
0.0
 70
   160
  3
ISO-25
100
AcDbAlignedDimension
 13
269.2810803299394
 23
817.8067066789
 33
0.0
 14
2269.2810803299
 24
817.8067066789
 34
0.0
100
AcDbRotatedDimension
1001
ACAD
1000
DSTYLE
1002
{
1070
   270
1070
     2
1070
     6
1000
EX_BNORM
1070
     7
1000
EX_BNORM
1070
    41
1040
25.0
1070
    42
1040
0.0
1070
    44
1040
0.0
1070
    73
1070
     0
1070
    74
1070
     0
1070
    75
1070
     0
1070
    76
1070
     0
1070
    77
1070
     1
1070
    78
1070
     8
1070
   140
1040
31.181104
1070
   147
1040
0.0
1070
   173
1070
     1
1070
   176
1070
     4
1070
   177
1070
     4
1070
   178
1070
     7
1070
   271
1070
     1
1070
   277
1070
     2
1070
   279
1070
     2
1070
   280
1070
     0
1070
   287
1070
     5
1070
   340
1005
62B
1002
}
  0
DIMENSION
  5
654
330
1F
100
AcDbEntity
  8
LAY-20
  6
CONTINUOUS
 62
     4
100
AcDbDimension
  2
*D42
 10
2488.836419389299
 20
847.8067066789
 30
0.0
 11
2463.836419389299
 21
897.80670667895
 31
0.0
 70
   160
  3
ISO-25
100
AcDbAlignedDimension
 13
2324.2810803299
 23
947.8067066790001
 33
0.0
 14
2312.4810803299
 24
847.8067066789
 34
0.0
 50
90.0
100
AcDbRotatedDimension
1001
ACAD
1000
DSTYLE
1002
{
1070
   270
1070
     2
1070
     6
1000
EX_BNORM
1070
     7
1000
EX_BNORM
1070
    41
1040
25.0
1070
    42
1040
15.0
1070
    44
1040
15.0
1070
    73
1070
     0
1070
    74
1070
     0
1070
    75
1070
     0
1070
    76
1070
     0
1070
    77
1070
     1
1070
    78
1070
     8
1070
   140
1040
31.181104
1070
   147
1040
0.0
1070
   173
1070
     1
1070
   176
1070
     4
1070
   177
1070
     4
1070
   178
1070
     7
1070
   271
1070
     1
1070
   277
1070
     2
1070
   279
1070
     2
1070
   280
1070
     0
1070
   287
1070
     5
1070
   340
1005
62B
1002
}
  0
DIMENSION
  5
661
330
1F
100
AcDbEntity
  8
LAY-20
  6
CONTINUOUS
 62
     4
100
AcDbDimension
  2
*D43
 10
2506.61441366325
 20
2480.806706679
 30
0.0
 11
2481.61441366325
 21
1888.80670667895
 31
0.0
 70
   160
  3
ISO-25
100
AcDbAlignedDimension
 13
2676.614413663199
 23
1296.8067066789
 33
0.0
 14
2676.614413663199
 24
2480.806706679
 34
0.0
 50
90.0
100
AcDbRotatedDimension
1001
ACAD
1000
DSTYLE
1002
{
1070
   270
1070
     2
1070
     6
1000
EX_BNORM
1070
     7
1000
EX_BNORM
1070
    41
1040
25.0
1070
    42
1040
15.0
1070
    44
1040
15.0
1070
    73
1070
     0
1070
    74
1070
     0
1070
    75
1070
     0
1070
    76
1070
     0
1070
    77
1070
     1
1070
    78
1070
     8
1070
   140
1040
31.181104
1070
   147
1040
0.0
1070
   173
1070
     1
1070
   176
1070
     4
1070
   177
1070
     4
1070
   178
1070
     7
1070
   271
1070
     1
1070
   277
1070
     2
1070
   279
1070
     2
1070
   280
1070
     0
1070
   287
1070
     5
1070
   340
1005
62B
1002
}
  0
DIMENSION
  5
66E
330
1F
100
AcDbEntity
  8
LAY-20
  6
CONTINUOUS
 62
     4
100
AcDbDimension
  2
*D44
 10
2576.61441366325
 20
2464.806706678951
 30
0.0
 11
2551.61441366325
 21
1888.806706678951
 31
0.0
 70
   160
  3
ISO-25
100
AcDbAlignedDimension
 13
2676.614413663246
 23
1312.80670667895
 33
0.0
 14
2676.614413663246
 24
2464.806706678951
 34
0.0
 50
90.0
100
AcDbRotatedDimension
1001
ACAD
1000
DSTYLE
1002
{
1070
   270
1070
     2
1070
     6
1000
EX_BNORM
1070
     7
1000
EX_BNORM
1070
    41
1040
25.0
1070
    42
1040
15.0
1070
    44
1040
15.0
1070
    73
1070
     0
1070
    74
1070
     0
1070
    75
1070
     0
1070
    76
1070
     0
1070
    77
1070
     1
1070
    78
1070
     8
1070
   140
1040
31.181104
1070
   147
1040
0.0
1070
   173
1070
     1
1070
   176
1070
     4
1070
   177
1070
     4
1070
   178
1070
     7
1070
   271
1070
     1
1070
   277
1070
     2
1070
   279
1070
     2
1070
   280
1070
     0
1070
   287
1070
     5
1070
   340
1005
62B
1002
}
  0
DIMENSION
  5
67B
330
1F
100
AcDbEntity
  8
LAY-20
  6
CONTINUOUS
 62
     4
100
AcDbDimension
  2
*D45
 10
2906.81441366323
 20
1388.806706679
 30
0.0
 11
2881.81441366323
 21
1888.806706678951
 31
0.0
 70
   160
  3
ISO-25
100
AcDbAlignedDimension
 13
2806.8144136632
 23
2388.8067066789
 33
0.0
 14
2806.8144136632
 24
1388.806706679
 34
0.0
 50
90.0
100
AcDbRotatedDimension
1001
ACAD
1000
DSTYLE
1002
{
1070
   270
1070
     2
1070
     6
1000
EX_BNORM
1070
     7
1000
EX_BNORM
1070
    41
1040
25.0
1070
    42
1040
15.0
1070
    44
1040
15.0
1070
    73
1070
     0
1070
    74
1070
     0
1070
    75
1070
     0
1070
    76
1070
     0
1070
    77
1070
     1
1070
    78
1070
     8
1070
   140
1040
31.181104
1070
   147
1040
0.0
1070
   173
1070
     1
1070
   176
1070
     4
1070
   177
1070
     4
1070
   178
1070
     7
1070
   271
1070
     1
1070
   277
1070
     2
1070
   279
1070
     2
1070
   280
1070
     0
1070
   287
1070
     5
1070
   340
1005
62B
1002
}
  0
DIMENSION
  5
688
330
1F
100
AcDbEntity
  8
LAY-20
  6
CONTINUOUS
 62
     4
100
AcDbDimension
  2
*D46
 10
223.0810803299001
 20
647.8067066789899
 30
0.0
 11
1269.2810803299
 21
672.8067066789899
 31
0.0
 70
   160
  3
ISO-25
100
AcDbAlignedDimension
 13
2315.4810803299
 23
850.8067066789499
 33
0.0
 14
223.0810803299001
 24
850.8067066789499
 34
0.0
100
AcDbRotatedDimension
1001
ACAD
1000
DSTYLE
1002
{
1070
   270
1070
     2
1070
     6
1000
EX_BNORM
1070
     7
1000
EX_BNORM
1070
    41
1040
25.0
1070
    42
1040
15.0
1070
    44
1040
15.0
1070
    73
1070
     0
1070
    74
1070
     0
1070
    75
1070
     0
1070
    76
1070
     0
1070
    77
1070
     1
1070
    78
1070
     0
1070
   140
1040
31.181104
1070
   147
1040
0.0
1070
   173
1070
     1
1070
   176
1070
     4
1070
   177
1070
     4
1070
   178
1070
     7
1070
   271
1070
     0
1070
   277
1070
     2
1070
   279
1070
     2
1070
   280
1070
     0
1070
   287
1070
     5
1070
   340
1005
62B
1002
}
  0
DIMENSION
  5
695
330
1F
100
AcDbEntity
  8
LAY-20
  6
CONTINUOUS
 62
     4
100
AcDbDimension
  2
*D47
 10
871.0
 20
947.80670667902
 30
0.0
 11
846.0000000000002
 21
1007.80670667902
 31
0.0
 70
   160
  3
ISO-25
100
AcDbAlignedDimension
 13
773.2810803298999
 23
912.80670667902
 33
0.0
 14
871.0
 24
947.80670667902
 34
0.0
 50
90.0
100
AcDbRotatedDimension
1001
ACAD
1000
DSTYLE
1002
{
1070
   270
1070
     2
1070
     6
1000
EX_BNORM
1070
     7
1000
EX_BNORM
1070
    41
1040
25.0
1070
    42
1040
15.0
1070
    44
1040
15.0
1070
    73
1070
     0
1070
    74
1070
     0
1070
    75
1070
     0
1070
    76
1070
     1
1070
    77
1070
     1
1070
    78
1070
     8
1070
   140
1040
31.181104
1070
   147
1040
0.0
1070
   173
1070
     1
1070
   176
1070
     4
1070
   177
1070
     4
1070
   178
1070
     7
1070
   271
1070
     1
1070
   277
1070
     2
1070
   279
1070
     2
1070
   280
1070
     2
1070
   287
1070
     5
1070
   340
1005
62B
1002
}
  0
DIMENSION
  5
6A3
330
1F
100
AcDbEntity
  8
LAY-20
  6
CONTINUOUS
 62
     4
100
AcDbDimension
  2
*D48
 10
2976.8144136632
 20
1305.6067066789
 30
0.0
 11
2951.8144136632
 21
1888.8067066789
 31
0.0
 70
   160
  3
ISO-25
100
AcDbAlignedDimension
 13
2724.0144136632
 23
2472.0067066789
 33
0.0
 14
2724.0144136632
 24
1305.6067066789
 34
0.0
 50
90.0
100
AcDbRotatedDimension
1001
ACAD
1000
DSTYLE
1002
{
1070
   270
1070
     2
1070
     6
1000
EX_BNORM
1070
     7
1000
EX_BNORM
1070
    41
1040
25.0
1070
    42
1040
15.0
1070
    44
1040
15.0
1070
    73
1070
     0
1070
    74
1070
     0
1070
    75
1070
     0
1070
    76
1070
     0
1070
    77
1070
     1
1070
    78
1070
     0
1070
   140
1040
31.181104
1070
   147
1040
0.0
1070
   173
1070
     1
1070
   176
1070
     4
1070
   177
1070
     4
1070
   178
1070
     7
1070
   271
1070
     0
1070
   277
1070
     2
1070
   279
1070
     2
1070
   280
1070
     0
1070
   287
1070
     5
1070
   340
1005
62B
1002
}
  0
LINE
  5
6B0
330
1F
100
AcDbEntity
  8
LAY-255
  6
CONTINUOUS
 62
     7
100
AcDbLine
 10
3850.0
 20
219.9999999999999
 30
0.0
 11
2850.0
 21
219.9999999999999
 31
0.0
  0
LINE
  5
6B1
330
1F
100
AcDbEntity
  8
LAY-255
  6
CONTINUOUS
 62
     7
100
AcDbLine
 10
2888.0
 20
160.0
 30
0.0
 11
2968.0
 21
210.0
 31
0.0
  0
LINE
  5
6B2
330
1F
100
AcDbEntity
  8
LAY-255
  6
CONTINUOUS
 62
     7
100
AcDbLine
 10
2968.0
 20
210.0
 30
0.0
 11
3048.0
 21
160.0
 31
0.0
  0
LINE
  5
6B3
330
1F
100
AcDbEntity
  8
LAY-255
  6
CONTINUOUS
 62
     7
100
AcDbLine
 10
3048.0
 20
160.0
 30
0.0
 11
2968.0
 21
110.0
 31
0.0
  0
LINE
  5
6B4
330
1F
100
AcDbEntity
  8
LAY-255
  6
CONTINUOUS
 62
     7
100
AcDbLine
 10
2968.0
 20
110.0
 30
0.0
 11
2888.0
 21
160.0
 31
0.0
  0
LINE
  5
6B5
330
1F
100
AcDbEntity
  8
LAY-255
  6
CONTINUOUS
 62
     7
100
AcDbLine
 10
50.0
 20
100.0
 30
0.0
 11
3850.0
 21
100.0
 31
0.0
  0
LINE
  5
6B6
330
1F
100
AcDbEntity
  8
LAY-255
  6
CONTINUOUS
 62
     7
100
AcDbLine
 10
50.0
 20
2800.0
 30
0.0
 11
3850.0
 21
2800.0
 31
0.0
  0
LINE
  5
6B7
330
1F
100
AcDbEntity
  8
LAY-255
  6
CONTINUOUS
 62
     7
100
AcDbLine
 10
50.0
 20
100.0
 30
0.0
 11
50.0
 21
2800.0
 31
0.0
  0
LINE
  5
6B8
330
1F
100
AcDbEntity
  8
LAY-255
  6
CONTINUOUS
 62
     7
100
AcDbLine
 10
3850.0
 20
100.0
 30
0.0
 11
3850.0
 21
2800.0
 31
0.0
  0
LINE
  5
6B9
330
1F
100
AcDbEntity
  8
LAY-255
  6
CONTINUOUS
 62
     4
100
AcDbLine
 10
2850.0
 20
279.9999999999999
 30
0.0
 11
3850.0
 21
279.9999999999999
 31
0.0
  0
LINE
  5
6BA
330
1F
100
AcDbEntity
  8
LAY-255
  6
CONTINUOUS
 62
     7
100
AcDbLine
 10
2850.0
 20
100.0
 30
0.0
 11
2850.0
 21
670.0
 31
0.0
  0
POINT
  5
6BB
330
1F
100
AcDbEntity
  8
LAY-255
  6
CONTINUOUS
 62
     7
100
AcDbPoint
 10
2890.0
 20
399.9999999999999
 30
0.0
  0
LINE
  5
6BC
330
1F
100
AcDbEntity
  8
LAY-255
  6
CONTINUOUS
 62
     4
100
AcDbLine
 10
3350.0
 20
279.9999999999999
 30
0.0
 11
3350.0
 21
220.0
 31
0.0
  0
LINE
  5
6BD
330
1F
100
AcDbEntity
  8
LAY-255
  6
CONTINUOUS
 62
     7
100
AcDbLine
 10
3850.0
 20
670.0
 30
0.0
 11
2850.0
 21
670.0
 31
0.0
  0
LINE
  5
6BE
330
1F
100
AcDbEntity
  8
LAY-255
  6
CONTINUOUS
 62
     4
100
AcDbLine
 10
3830.0
 20
549.9999999999999
 30
0.0
 11
2870.0
 21
549.9999999999999
 31
0.0
  0
LINE
  5
6BF
330
1F
100
AcDbEntity
  8
LAY-255
  6
CONTINUOUS
 62
     4
100
AcDbLine
 10
3830.0
 20
610.0
 30
0.0
 11
2870.0
 21
610.0
 31
0.0
  0
POINT
  5
6C0
330
1F
100
AcDbEntity
  8
LAY-255
  6
CONTINUOUS
 62
     7
100
AcDbPoint
 10
2890.0
 20
499.9999999999999
 30
0.0
  0
POINT
  5
6C1
330
1F
100
AcDbEntity
  8
LAY-255
  6
CONTINUOUS
 62
     7
100
AcDbPoint
 10
3000.0
 20
559.9999999999999
 30
0.0
  0
POINT
  5
6C2
330
1F
100
AcDbEntity
  8
LAY-255
  6
CONTINUOUS
 62
     7
100
AcDbPoint
 10
3000.0
 20
620.0
 30
0.0
  0
POINT
  5
6C3
330
1F
100
AcDbEntity
  8
LAY-255
  6
CONTINUOUS
 62
     7
100
AcDbPoint
 10
2890.0
 20
349.9999999999999
 30
0.0
  0
POINT
  5
6C4
330
1F
100
AcDbEntity
  8
LAY-255
  6
CONTINUOUS
 62
     7
100
AcDbPoint
 10
2890.0
 20
449.9999999999999
 30
0.0
  0
POINT
  5
6C5
330
1F
100
AcDbEntity
  8
LAY-255
  6
CONTINUOUS
 62
     7
100
AcDbPoint
 10
2890.0
 20
299.9999999999998
 30
0.0
  0
POINT
  5
6C6
330
1F
100
AcDbEntity
  8
LAY-255
  6
CONTINUOUS
 62
     7
100
AcDbPoint
 10
2890.0
 20
349.9999999999999
 30
0.0
  0
TEXT
  5
6C7
330
1F
100
AcDbEntity
  8
LAY-255
  6
CONTINUOUS
 62
     7
100
AcDbText
 10
3081.3837890625
 20
155.4375
 30
0.0
 40
51.5625
  1
福西鋳物株式会社
 41
1.342691999659091
  7
EXCADSTD
100
AcDbText
  0
TEXT
  5
6C8
330
1F
100
AcDbEntity
  8
LAY-255
  6
CONTINUOUS
 62
     7
100
AcDbText
 10
3085.09375
 20
119.8125
 30
0.0
 40
17.1875
  1
ＦＵＫＵＮＩＳＨＩ
 41
1.204799226045263
  7
EXCADSTD
100
AcDbText
  0
TEXT
  5
6C9
330
1F
100
AcDbEntity
  8
LAY-255
  6
CONTINUOUS
 62
     7
100
AcDbText
 10
3327.191964285714
 20
119.8125
 30
0.0
 40
17.1875
  1
ＦＯＵＮＤＲＹ
 41
1.243252752978497
  7
EXCADSTD
100
AcDbText
  0
TEXT
  5
6CA
330
1F
100
AcDbEntity
  8
LAY-255
  6
CONTINUOUS
 62
     7
100
AcDbText
 10
3519.945914381009
 20
119.8125
 30
0.0
 40
17.1875
  1
ＣＯ.,ＬＴＤ.
 41
1.243831036226633
  7
EXCADSTD
100
AcDbText
  0
TEXT
  5
6CB
330
1F
100
AcDbEntity
  8
LAY-255
  6
CONTINUOUS
 62
     7
100
AcDbText
 10
2940.34375
 20
137.1875
 30
0.0
 40
51.5625
  1
S
 41
0.7582677563636363
  7
EXCADSTD
100
AcDbText
  0
TEXT
  5
6CC
330
1F
100
AcDbEntity
  8
LAY-255
  6
CONTINUOUS
 62
     7
100
AcDbText
 10
2971.046875
 20
137.4941037736
 30
0.0
 40
51.5625
  1
F
 41
0.7440945272727272
  7
EXCADSTD
100
AcDbText
  0
TEXT
  5
6CD
330
1F
100
AcDbEntity
  8
LAY-255
  6
CONTINUOUS
 62
     7
100
AcDbText
 10
3371.0546875
 20
244.2187499999999
 30
0.0
 40
25.78125
  1
縮尺
 41
1.080708718181818
  7
EXCADSTD
100
AcDbText
  0
TEXT
  5
6CE
330
1F
100
AcDbEntity
  8
LAY-255
  6
CONTINUOUS
 62
     7
100
AcDbText
 10
2872.65625
 20
565.6249999999999
 30
0.0
 40
34.375
  1
型式
 41
1.056348480681818
  7
EXCADSTD
100
AcDbText
  0
TEXT
  5
6CF
330
1F
100
AcDbEntity
  8
LAY-255
  6
CONTINUOUS
 62
     7
100
AcDbText
 10
2874.21875
 20
625.625
 30
0.0
 40
34.375
  1
品名
 41
0.9788386340909091
  7
EXCADSTD
100
AcDbText
  0
TEXT
  5
6D0
330
1F
100
AcDbEntity
  8
LAY-255
  6
CONTINUOUS
 62
     7
100
AcDbText
 10
2871.5234375
 20
244.2187499999999
 30
0.0
 40
25.78125
  1
作成日
 41
1.000629973818182
  7
EXCADSTD
100
AcDbText
  0
TEXT
  5
6D1
330
1F
100
AcDbEntity
  8
LAY-255
  6
CONTINUOUS
 62
     7
100
AcDbText
 10
2891.40625
 20
505.6249999999999
 30
0.0
 40
34.375
  1
材質：スチール
 41
1.029301719225037
  7
EXCADSTD
100
AcDbText
  0
TEXT
  5
6D2
330
1F
100
AcDbEntity
  8
LAY-255
  6
CONTINUOUS
 62
     7
100
AcDbText
 10
2892.03125
 20
405.6249999999999
 30
0.0
 40
34.375
  1
適用荷重：歩行用
 41
1.015410627012987
  7
EXCADSTD
100
AcDbText
  0
TEXT
  5
6D3
330
1F
100
AcDbEntity
  8
LAY-255
  6
CONTINUOUS
 62
     7
100
AcDbText
 10
3002.5
 20
625.625
 30
0.0
 40
34.375
  1
化粧用マシンハッチ
 41
1.014552031760644
  7
EXCADSTD
100
AcDbText
  0
TEXT
  5
6D4
330
1F
100
AcDbEntity
  8
LAY-255
  6
CONTINUOUS
 62
     7
100
AcDbText
 10
3007.5
 20
565.6249999999999
 30
0.0
 40
34.375
  1
ＳＦ－１００×２００ＢＭＰ－１型
 41
1.005351056466069
  7
EXCADSTD
100
AcDbText
  0
TEXT
  5
6D5
330
1F
100
AcDbEntity
  8
LAY-255
  6
CONTINUOUS
 62
     7
100
AcDbText
 10
2892.03125
 20
355.6249999999999
 30
0.0
 40
34.375
  1
貼代：３５
 41
0.99542213615222
  7
EXCADSTD
100
AcDbText
  0
TEXT
  5
6D6
330
1F
100
AcDbEntity
  8
LAY-255
  6
CONTINUOUS
 62
     7
100
AcDbText
 10
2897.8125
 20
455.6249999999999
 30
0.0
 40
34.375
  1
目地：ステンレス鋼
 41
1.00154495443038
  7
EXCADSTD
100
AcDbText
  0
TEXT
  5
6D7
330
1F
100
AcDbEntity
  8
LAY-255
  6
CONTINUOUS
 62
     7
100
AcDbText
 10
3008.90625
 20
235.6249999999999
 30
0.0
 40
34.375
  1
０９／０３／２５
 41
0.9779528072727273
  7
EXCADSTD
100
AcDbText
  0
TEXT
  5
6D8
330
1F
100
AcDbEntity
  8
LAY-255
  6
CONTINUOUS
 62
     7
100
AcDbText
 10
3482.8125
 20
235.6249999999999
 30
0.0
 40
34.375
  1
１：１０
 41
0.9243863385026738
  7
EXCADSTD
100
AcDbText
  0
ENDSEC
  0
SECTION
  2
OBJECTS
  0
DICTIONARY
  5
C
330
0
100
AcDbDictionary
  3
ACAD_GROUP
350
D
  3
ACAD_LAYOUT
350
1A
  3
ACAD_MATERIAL
350
43
  3
ACAD_MLEADERSTYLE
350
6B
  3
ACAD_MLINESTYLE
350
17
  3
ACAD_PLOTSETTINGS
350
19
  3
ACAD_SCALELIST
350
47
  3
ACAD_VISUALSTYLE
350
2A
  3
ACDBHEADERROUNDTRIPXREC
350
6D9
  3
ACDBVARIABLEDICTIONARY
350
6FA
  0
DICTIONARY
  5
705
330
8
100
AcDbDictionary
280
     1
  3
ACAD_XREC_ROUNDTRIP
360
706
  0
DICTIONARY
  5
D
102
{ACAD_REACTORS
330
C
102
}
330
C
100
AcDbDictionary
  0
DICTIONARY
  5
1A
102
{ACAD_REACTORS
330
C
102
}
330
C
100
AcDbDictionary
  0
DICTIONARY
  5
43
102
{ACAD_REACTORS
330
C
102
}
330
C
100
AcDbDictionary
  3
BYBLOCK
350
45
  3
BYLAYER
350
44
  3
GLOBAL
350
46
  0
DICTIONARY
  5
6B
102
{ACAD_REACTORS
330
C
102
}
330
C
100
AcDbDictionary
  3
STANDARD
350
6C
  0
DICTIONARY
  5
17
102
{ACAD_REACTORS
330
C
102
}
330
C
100
AcDbDictionary
  3
STANDARD
350
18
  0
DICTIONARY
  5
19
102
{ACAD_REACTORS
330
C
102
}
330
C
100
AcDbDictionary
  0
DICTIONARY
  5
47
102
{ACAD_REACTORS
330
C
102
}
330
C
100
AcDbDictionary
  3
A0
350
48
  3
A1
350
49
  3
A2
350
4A
  3
A3
350
4B
  3
A4
350
4C
  3
A5
350
4D
  3
A6
350
4E
  3
A7
350
4F
  3
A8
350
50
  3
A9
350
51
  3
B0
350
52
  3
B1
350
53
  3
B2
350
54
  3
B3
350
55
  3
B4
350
56
  3
B5
350
57
  3
B6
350
58
  3
B7
350
59
  3
B8
350
5A
  3
B9
350
5B
  3
C0
350
5C
  3
C1
350
5D
  3
C2
350
5E
  3
C3
350
5F
  3
C4
350
60
  3
C5
350
61
  3
C6
350
62
  3
C7
350
63
  3
C8
350
64
  3
C9
350
65
  3
D0
350
66
  3
D1
350
67
  3
D2
350
68
  0
DICTIONARY
  5
2A
102
{ACAD_REACTORS
330
C
102
}
330
C
100
AcDbDictionary
  3
2DWIREFRAME
350
2F
  3
BASIC
350
32
  3
BRIGHTEN
350
36
  3
COLORCHANGE
350
3A
  3
CONCEPTUAL
350
34
  3
DIM
350
35
  3
EDGECOLOROFF
350
3D
  3
FACEPATTERN
350
39
  3
FLAT
350
2B
  3
FLATWITHEDGES
350
2C
  3
GOURAUD
350
2D
  3
GOURAUDWITHEDGES
350
2E
  3
HIDDEN
350
31
  3
JITTEROFF
350
3B
  3
LINEPATTERN
350
38
  3
OVERHANGOFF
350
3C
  3
REALISTIC
350
33
  3
SHADED
350
42
  3
SHADED_WITH_EDGES
350
41
  3
SHADES_OF_GRAY
350
3E
  3
SKETCHY
350
3F
  3
THICKEN
350
37
  3
WIREFRAME
350
30
  3
X-RAY
350
40
  0
DICTIONARY
  5
6D9
102
{ACAD_REACTORS
330
C
102
}
330
C
100
AcDbDictionary
  3
CEPSNID
350
6E3
  3
CEPSNTYPE
350
6E2
  3
DIMSTYLEDATA
350
6F9
  3
FINGERPRINTGUID
350
6E4
  3
HYPERLINKBASE
350
6DC
  3
INSUNITS
350
6E1
  3
LAYOUTDICT
350
6DE
  3
LWETCUNION
350
6E0
  3
PLOTSETDICT
350
6DF
  3
PSVPSCALE
350
6E6
  3
PUCSBASE
350
6E9
  3
PUCSORGBACK
350
6EF
  3
PUCSORGBOTTOM
350
6EB
  3
PUCSORGFRONT
350
6EE
  3
PUCSORGLEFT
350
6EC
  3
PUCSORGRIGHT
350
6ED
  3
PUCSORGTOP
350
6EA
  3
PUCSORTHOREF
350
6E7
  3
PUCSORTHOVIEW
350
6E8
  3
STYLESHEET
350
6DD
  3
TSTACKALIGN
350
6DA
  3
TSTACKSIZE
350
6DB
  3
UCSBASE
350
6F2
  3
UCSORGBACK
350
6F8
  3
UCSORGBOTTOM
350
6F4
  3
UCSORGFRONT
350
6F7
  3
UCSORGLEFT
350
6F5
  3
UCSORGRIGHT
350
6F6
  3
UCSORGTOP
350
6F3
  3
UCSORTHOREF
350
6F0
  3
UCSORTHOVIEW
350
6F1
  3
VERSIONGUID
350
6E5
  0
DICTIONARY
  5
6FA
102
{ACAD_REACTORS
330
C
102
}
330
C
100
AcDbDictionary
  3
CANNOSCALE
350
707
  3
CENTEREXE
350
701
  3
CENTERLTYPEFILE
350
702
  3
CMLEADERSTYLE
350
6FC
  3
CTABLESTYLE
350
6FB
  3
DIMASSOC
350
703
  3
HIDETEXT
350
704
  3
MSLTSCALE
350
708
  3
PSOLHEIGHT
350
6FE
  3
PSOLWIDTH
350
6FD
  0
XRECORD
  5
706
102
{ACAD_REACTORS
330
705
102
}
330
705
100
AcDbXrecord
102
VTR_0.000_0.000_1.000_1.000_VISUALSTYLE
340
2F
102
VTR_0.000_0.000_1.000_1.000_GRIDDISPLAY
 70
     3
102
VTR_0.000_0.000_1.000_1.000_GRIDMAJOR
 70
     5
102
VTR_0.000_0.000_1.000_1.000_DEFAULTLIGHTING
280
     1
102
VTR_0.000_0.000_1.000_1.000_DEFAULTLIGHTINGTYPE
 70
     1
102
VTR_0.000_0.000_1.000_1.000_BRIGHTNESS
141
0.0
102
VTR_0.000_0.000_1.000_1.000_CONTRAST
142
0.0
  0
MATERIAL
  5
45
102
{ACAD_REACTORS
330
43
102
}
102
{ACAD_XDICTIONARY
360
70B
102
}
330
43
100
AcDbMaterial
  1
BYBLOCK
  0
MATERIAL
  5
44
102
{ACAD_REACTORS
330
43
102
}
102
{ACAD_XDICTIONARY
360
709
102
}
330
43
100
AcDbMaterial
  1
BYLAYER
  0
MATERIAL
  5
46
102
{ACAD_REACTORS
330
43
102
}
102
{ACAD_XDICTIONARY
360
70D
102
}
330
43
100
AcDbMaterial
  1
GLOBAL
  0
ACAD_PROXY_OBJECT
  5
6C
102
{ACAD_REACTORS
330
6B
102
}
330
6B
100
AcDbProxyObject
 90
      499
 91
      505
 93
      610
310
40901902A4063FBFFFFFE0000000000000020400000000000020404214DD185B99185C990000000000000104090141901A00000000000004100000000000000041025764000000000000039000
340
14
340
0
340
11
340
0
 94
        0
1001
ACAD_MLEADERVER
1070
     2
  0
MLINESTYLE
  5
18
102
{ACAD_REACTORS
330
17
102
}
330
17
100
AcDbMlineStyle
  2
Standard
 70
     0
  3

 62
   256
 51
90.0
 52
90.0
 71
     2
 49
0.5
 62
   256
  6
BYLAYER
 49
-0.5
 62
   256
  6
BYLAYER
  0
ACAD_PROXY_OBJECT
  5
48
102
{ACAD_REACTORS
330
47
102
}
330
47
100
AcDbProxyObject
 90
      499
 91
      503
 93
       41
310
903313A31580
  0
ACAD_PROXY_OBJECT
  5
49
102
{ACAD_REACTORS
330
47
102
}
330
47
100
AcDbProxyObject
 90
      499
 91
      503
 93
      105
310
903313A324000000000000004000
  0
ACAD_PROXY_OBJECT
  5
4A
102
{ACAD_REACTORS
330
47
102
}
330
47
100
AcDbProxyObject
 90
      499
 91
      503
 93
      105
310
903313A344000000000000104000
  0
ACAD_PROXY_OBJECT
  5
4B
102
{ACAD_REACTORS
330
47
102
}
330
47
100
AcDbProxyObject
 90
      499
 91
      503
 93
      105
310
903313A354000000000000144000
  0
ACAD_PROXY_OBJECT
  5
4C
102
{ACAD_REACTORS
330
47
102
}
330
47
100
AcDbProxyObject
 90
      499
 91
      503
 93
      105
310
903313A384000000000000204000
  0
ACAD_PROXY_OBJECT
  5
4D
102
{ACAD_REACTORS
330
47
102
}
330
47
100
AcDbProxyObject
 90
      499
 91
      503
 93
      113
310
904313A31304000000000000244000
  0
ACAD_PROXY_OBJECT
  5
4E
102
{ACAD_REACTORS
330
47
102
}
330
47
100
AcDbProxyObject
 90
      499
 91
      503
 93
      113
310
904313A31364000000000000304000
  0
ACAD_PROXY_OBJECT
  5
4F
102
{ACAD_REACTORS
330
47
102
}
330
47
100
AcDbProxyObject
 90
      499
 91
      503
 93
      113
310
904313A32304000000000000344000
  0
ACAD_PROXY_OBJECT
  5
50
102
{ACAD_REACTORS
330
47
102
}
330
47
100
AcDbProxyObject
 90
      499
 91
      503
 93
      113
310
904313A333040000000000003E4000
  0
ACAD_PROXY_OBJECT
  5
51
102
{ACAD_REACTORS
330
47
102
}
330
47
100
AcDbProxyObject
 90
      499
 91
      503
 93
      113
310
904313A34304000000000000444000
  0
ACAD_PROXY_OBJECT
  5
52
102
{ACAD_REACTORS
330
47
102
}
330
47
100
AcDbProxyObject
 90
      499
 91
      503
 93
      113
310
904313A35304000000000000494000
  0
ACAD_PROXY_OBJECT
  5
53
102
{ACAD_REACTORS
330
47
102
}
330
47
100
AcDbProxyObject
 90
      499
 91
      503
 93
      121
310
905313A3130304000000000000594000
  0
ACAD_PROXY_OBJECT
  5
54
102
{ACAD_REACTORS
330
47
102
}
330
47
100
AcDbProxyObject
 90
      499
 91
      503
 93
      105
310
903323A310000000000000010100
  0
ACAD_PROXY_OBJECT
  5
55
102
{ACAD_REACTORS
330
47
102
}
330
47
100
AcDbProxyObject
 90
      499
 91
      503
 93
      105
310
903343A310000000000000410100
  0
ACAD_PROXY_OBJECT
  5
56
102
{ACAD_REACTORS
330
47
102
}
330
47
100
AcDbProxyObject
 90
      499
 91
      503
 93
      105
310
903383A310000000000000810100
  0
ACAD_PROXY_OBJECT
  5
57
102
{ACAD_REACTORS
330
47
102
}
330
47
100
AcDbProxyObject
 90
      499
 91
      503
 93
      113
310
90431303A310000000000000910100
  0
ACAD_PROXY_OBJECT
  5
58
102
{ACAD_REACTORS
330
47
102
}
330
47
100
AcDbProxyObject
 90
      499
 91
      503
 93
      121
310
9053130303A310000000000001650100
  0
ACAD_PROXY_OBJECT
  5
59
102
{ACAD_REACTORS
330
47
102
}
330
47
100
AcDbProxyObject
 90
      499
 91
      503
 93
      257
310
90E312F31323822203D2031272D3022000000000000200FC000000000000284000
  0
ACAD_PROXY_OBJECT
  5
5A
102
{ACAD_REACTORS
330
47
102
}
330
47
100
AcDbProxyObject
 90
      499
 91
      503
 93
      249
310
90D312F363422203D2031272D3022000000000000240FC000000000000284000
  0
ACAD_PROXY_OBJECT
  5
5B
102
{ACAD_REACTORS
330
47
102
}
330
47
100
AcDbProxyObject
 90
      499
 91
      503
 93
      249
310
90D312F333222203D2031272D3022000000000000280FC000000000000284000
  0
ACAD_PROXY_OBJECT
  5
5C
102
{ACAD_REACTORS
330
47
102
}
330
47
100
AcDbProxyObject
 90
      499
 91
      503
 93
      249
310
90D312F313622203D2031272D30220000000000002C0FC000000000000284000
  0
ACAD_PROXY_OBJECT
  5
5D
102
{ACAD_REACTORS
330
47
102
}
330
47
100
AcDbProxyObject
 90
      499
 91
      503
 93
      249
310
90D332F333222203D2031272D30220000000000002E0FC000000000000284000
  0
ACAD_PROXY_OBJECT
  5
5E
102
{ACAD_REACTORS
330
47
102
}
330
47
100
AcDbProxyObject
 90
      499
 91
      503
 93
      241
310
90C312F3822203D2031272D3022000000000000300FC000000000000284000
  0
ACAD_PROXY_OBJECT
  5
5F
102
{ACAD_REACTORS
330
47
102
}
330
47
100
AcDbProxyObject
 90
      499
 91
      503
 93
      249
310
90D332F313622203D2031272D3022000000000000320FC000000000000284000
  0
ACAD_PROXY_OBJECT
  5
60
102
{ACAD_REACTORS
330
47
102
}
330
47
100
AcDbProxyObject
 90
      499
 91
      503
 93
      241
310
90C312F3422203D2031272D3022000000000000340FC000000000000284000
  0
ACAD_PROXY_OBJECT
  5
61
102
{ACAD_REACTORS
330
47
102
}
330
47
100
AcDbProxyObject
 90
      499
 91
      503
 93
      241
310
90C332F3822203D2031272D3022000000000000360FC000000000000284000
  0
ACAD_PROXY_OBJECT
  5
62
102
{ACAD_REACTORS
330
47
102
}
330
47
100
AcDbProxyObject
 90
      499
 91
      503
 93
      241
310
90C312F3222203D2031272D3022000000000000380FC000000000000284000
  0
ACAD_PROXY_OBJECT
  5
63
102
{ACAD_REACTORS
330
47
102
}
330
47
100
AcDbProxyObject
 90
      499
 91
      503
 93
      241
310
90C332F3422203D2031272D30220000000000003A0FC000000000000284000
  0
ACAD_PROXY_OBJECT
  5
64
102
{ACAD_REACTORS
330
47
102
}
330
47
100
AcDbProxyObject
 90
      499
 91
      503
 93
      161
310
90A3122203D2031272D30224000000000000284000
  0
ACAD_PROXY_OBJECT
  5
65
102
{ACAD_REACTORS
330
47
102
}
330
47
100
AcDbProxyObject
 90
      499
 91
      503
 93
      257
310
90E312D312F3222203D2031272D30220000000000003E0FC000000000000284000
  0
ACAD_PROXY_OBJECT
  5
66
102
{ACAD_REACTORS
330
47
102
}
330
47
100
AcDbProxyObject
 90
      499
 91
      503
 93
      225
310
90A3322203D2031272D302200000000000002100000000000000284000
  0
ACAD_PROXY_OBJECT
  5
67
102
{ACAD_REACTORS
330
47
102
}
330
47
100
AcDbProxyObject
 90
      499
 91
      503
 93
      225
310
90A3622203D2031272D302200000000000006100000000000000284000
  0
ACAD_PROXY_OBJECT
  5
68
102
{ACAD_REACTORS
330
47
102
}
330
47
100
AcDbProxyObject
 90
      499
 91
      503
 93
      249
310
90D31272D3022203D2031272D30220000000000000A100000000000000284000
  0
ACAD_PROXY_OBJECT
  5
2F
102
{ACAD_REACTORS
330
2A
102
}
330
2A
100
AcDbProxyObject
 90
      499
 91
      501
 93
      436
310
42CC9915DA5C99599C985B595049028333333333333E33F0000000000000F90107901411070040501600405405064090741402480A0340
1001
ACAD
1000
AcDbSavedByObjectVersion
1070
     0
  0
ACAD_PROXY_OBJECT
  5
32
102
{ACAD_REACTORS
330
2A
102
}
330
2A
100
AcDbProxyObject
 90
      499
 91
      501
 93
      388
310
4150985CDA58D07406404333333333333E33F0000000000000F90107A41107004050150841D405064090741402480A0350
1001
ACAD
1000
AcDbSavedByObjectVersion
1070
     0
  0
ACAD_PROXY_OBJECT
  5
36
102
{ACAD_REACTORS
330
2A
102
}
330
2A
100
AcDbProxyObject
 90
      499
 91
      501
 93
      428
310
42109C9A59DA1D195B90C409028333333333333E33F0000000000000F9010790141107004050150841D405064090741402480A029950
1001
ACAD
1000
AcDbSavedByObjectVersion
1070
     0
  0
ACAD_PROXY_OBJECT
  5
3A
102
{ACAD_REACTORS
330
2A
102
}
330
2A
100
AcDbProxyObject
 90
      499
 91
      501
 93
      452
310
42D0DBDB1BDC90DA185B99D95104090240C333333333333E33F0000000000000F90108901411070040501508421405064090741402480A0350
1001
ACAD
1000
AcDbSavedByObjectVersion
1070
     0
  0
ACAD_PROXY_OBJECT
  5
34
102
{ACAD_REACTORS
330
2A
102
}
330
2A
100
AcDbProxyObject
 90
      499
 91
      501
 93
      500
310
4290DBDB98D95C1D1D585B10940D028333333333333E33F0000000000000F90107902409070040501000000000018199010841D405064090740C02480A0340
1001
ACAD
1000
AcDbSavedByObjectVersion
1070
     0
  0
ACAD_PROXY_OBJECT
  5
35
102
{ACAD_REACTORS
330
2A
102
}
330
2A
100
AcDbProxyObject
 90
      499
 91
      501
 93
      412
310
40D11A5B50B409028333333333333E33F0000000000000F9010790141107004050150841D405064090741402480A02677FFFFFD0
1001
ACAD
1000
AcDbSavedByObjectVersion
1070
     0
  0
ACAD_PROXY_OBJECT
  5
3D
102
{ACAD_REACTORS
330
2A
102
}
330
2A
100
AcDbProxyObject
 90
      499
 91
      501
 93
      452
310
43115919D950DBDB1BDC93D999916409028333333333333E33F0000000000000F9010790141107004050150841D405064090741402480A0350
1001
ACAD
1000
AcDbSavedByObjectVersion
1070
     0
  0
ACAD_PROXY_OBJECT
  5
39
102
{ACAD_REACTORS
330
2A
102
}
330
2A
100
AcDbProxyObject
 90
      499
 91
      501
 93
      444
310
42D19858D95C185D1D195C9B90F409028333333333333E33F0000000000000F9010790141107004050150841D405064090741402480A0350
1001
ACAD
1000
AcDbSavedByObjectVersion
1070
     0
  0
ACAD_PROXY_OBJECT
  5
2B
102
{ACAD_REACTORS
330
2A
102
}
330
2A
100
AcDbProxyObject
 90
      499
 91
      501
 93
      380
310
41119B185D240901404333333333333E33F0000000000000F9010740A907004050150841D405064090741402480A1B50
1001
ACAD
1000
AcDbSavedByObjectVersion
1070
     0
  0
ACAD_PROXY_OBJECT
  5
2C
102
{ACAD_REACTORS
330
2A
102
}
330
2A
100
AcDbProxyObject
 90
      499
 91
      501
 93
      468
310
43519B185D15DA5D1A115919D95CD0140901404333333333333E33F0000000000000F90107409019070040501600405405064090741402480A1B50
1001
ACAD
1000
AcDbSavedByObjectVersion
1070
     0
  0
ACAD_PROXY_OBJECT
  5
2D
102
{ACAD_REACTORS
330
2A
102
}
330
2A
100
AcDbProxyObject
 90
      499
 91
      501
 93
      404
310
41D1DBDD5C985D5910240902404333333333333E33F0000000000000F9010740A9070040501641D405064090741402480A1B50
1001
ACAD
1000
AcDbSavedByObjectVersion
1070
     0
  0
ACAD_PROXY_OBJECT
  5
2E
102
{ACAD_REACTORS
330
2A
102
}
330
2A
100
AcDbProxyObject
 90
      499
 91
      501
 93
      492
310
4411DBDD5C985D5915DA5D1A115919D95CD0340902404333333333333E33F0000000000000F90107409019070040501600405405064090741402480A1B50
1001
ACAD
1000
AcDbSavedByObjectVersion
1070
     0
  0
ACAD_PROXY_OBJECT
  5
31
102
{ACAD_REACTORS
330
2A
102
}
330
2A
100
AcDbProxyObject
 90
      499
 91
      501
 93
      476
310
41921A5919195B90640502408333333333333E33F0000000000000F901079024090700405020000000000001110200405405064090740C02480A0340
1001
ACAD
1000
AcDbSavedByObjectVersion
1070
     0
  0
ACAD_PROXY_OBJECT
  5
3B
102
{ACAD_REACTORS
330
2A
102
}
330
2A
100
AcDbProxyObject
 90
      499
 91
      501
 93
      428
310
42529A5D1D195C93D999914409028333333333333E33F0000000000000F9010790141107004050150A41D405064090741402480A0350
1001
ACAD
1000
AcDbSavedByObjectVersion
1070
     0
  0
ACAD_PROXY_OBJECT
  5
38
102
{ACAD_REACTORS
330
2A
102
}
330
2A
100
AcDbProxyObject
 90
      499
 91
      501
 93
      444
310
42D31A5B995C185D1D195C9B90E409028333333333333E33F0000000000000F9010790141107004050750841D405064090741402483A0350
1001
ACAD
1000
AcDbSavedByObjectVersion
1070
     0
  0
ACAD_PROXY_OBJECT
  5
3C
102
{ACAD_REACTORS
330
2A
102
}
330
2A
100
AcDbProxyObject
 90
      499
 91
      501
 93
      444
310
42D3DD995C9A185B99D3D999915409028333333333333E33F0000000000000F9010790141107004050150941D405064090741402480A0350
1001
ACAD
1000
AcDbSavedByObjectVersion
1070
     0
  0
ACAD_PROXY_OBJECT
  5
33
102
{ACAD_REACTORS
330
2A
102
}
330
2A
100
AcDbProxyObject
 90
      499
 91
      501
 93
      428
310
425499585B1A5CDD1A58D08409038333333333333E33F0000000000000F9010740A907004050150800405405064090740C02480A1B40
1001
ACAD
1000
AcDbSavedByObjectVersion
1070
     0
  0
ACAD_PROXY_OBJECT
  5
42
102
{ACAD_REACTORS
330
2A
102
}
330
2A
100
AcDbProxyObject
 90
      499
 91
      501
 93
      420
310
4194DA1859195911B40902404333333333333E33F0000000000000F9010740A41107004050150800405405064090840C02480A0B40
1001
ACAD
1000
AcDbSavedByObjectVersion
1070
     0
  0
ACAD_PROXY_OBJECT
  5
41
102
{ACAD_REACTORS
330
2A
102
}
330
2A
100
AcDbProxyObject
 90
      499
 91
      501
 93
      516
310
4454DA18591959081DDA5D1A08195919D95CD1A40902404333333333333E33F0000000000000F901074090142907004050250800405405064090740C02480A0B40
1001
ACAD
1000
AcDbSavedByObjectVersion
1070
     0
  0
ACAD_PROXY_OBJECT
  5
3E
102
{ACAD_REACTORS
330
2A
102
}
330
2A
100
AcDbProxyObject
 90
      499
 91
      501
 93
      532
310
4394DA1859195CC81BD98811DC985E5174090240C333333333333E33F0000000000000F901079024090741D01000000000000111010841D405064090740C02480A0340
1001
ACAD
1000
AcDbSavedByObjectVersion
1070
     0
  0
ACAD_PROXY_OBJECT
  5
3F
102
{ACAD_REACTORS
330
2A
102
}
330
2A
100
AcDbProxyObject
 90
      499
 91
      501
 93
      476
310
41D4DAD95D18DA1E51840502408333333333333E33F0000000000000F901079024090741D01000000000000111010B41D405064090741802480A0340
1001
ACAD
1000
AcDbSavedByObjectVersion
1070
     0
  0
ACAD_PROXY_OBJECT
  5
37
102
{ACAD_REACTORS
330
2A
102
}
330
2A
100
AcDbProxyObject
 90
      499
 91
      501
 93
      412
310
41D51A1A58DAD95B90D409028333333333333E33F0000000000000F9010790141107004050150C41D405064090741402480A0350
1001
ACAD
1000
AcDbSavedByObjectVersion
1070
     0
  0
ACAD_PROXY_OBJECT
  5
30
102
{ACAD_REACTORS
330
2A
102
}
330
2A
100
AcDbProxyObject
 90
      499
 91
      501
 93
      420
310
4255DA5C99599C985B595059028333333333333E33F0000000000000F90107901411070040501600405405064090740C02480A0340
1001
ACAD
1000
AcDbSavedByObjectVersion
1070
     0
  0
ACAD_PROXY_OBJECT
  5
40
102
{ACAD_REACTORS
330
2A
102
}
330
2A
100
AcDbProxyObject
 90
      499
 91
      501
 93
      404
310
41560B54985E51940902404000000000000E03F0000000000000F9010740501907004050150841D405064090740C02480A1B40
1001
ACAD
1000
AcDbSavedByObjectVersion
1070
     0
  0
XRECORD
  5
6E3
102
{ACAD_REACTORS
330
6D9
102
}
330
6D9
100
AcDbXrecord
340
0
  0
XRECORD
  5
6E2
102
{ACAD_REACTORS
330
6D9
102
}
330
6D9
100
AcDbXrecord
 90
        0
  0
XRECORD
  5
6F9
102
{ACAD_REACTORS
330
6D9
102
}
330
6D9
100
AcDbXrecord
1000
DSTYLE
1002
{
1070
   340
340
11
1002
}
  0
XRECORD
  5
6E4
102
{ACAD_REACTORS
330
6D9
102
}
330
6D9
100
AcDbXrecord
  1
{4b513405-6001-42c4-9558-429b1d540585}
  0
XRECORD
  5
6DC
102
{ACAD_REACTORS
330
6D9
102
}
330
6D9
100
AcDbXrecord
  1

  0
XRECORD
  5
6E1
102
{ACAD_REACTORS
330
6D9
102
}
330
6D9
100
AcDbXrecord
 90
        4
  0
XRECORD
  5
6DE
102
{ACAD_REACTORS
330
6D9
102
}
330
6D9
100
AcDbXrecord
340
1A
  0
XRECORD
  5
6E0
102
{ACAD_REACTORS
330
6D9
102
}
330
6D9
100
AcDbXrecord
 90
    10781
  0
XRECORD
  5
6DF
102
{ACAD_REACTORS
330
6D9
102
}
330
6D9
100
AcDbXrecord
340
19
  0
XRECORD
  5
6E6
102
{ACAD_REACTORS
330
6D9
102
}
330
6D9
100
AcDbXrecord
 40
0.0
  0
XRECORD
  5
6E9
102
{ACAD_REACTORS
330
6D9
102
}
330
6D9
100
AcDbXrecord
340
0
  0
XRECORD
  5
6EF
102
{ACAD_REACTORS
330
6D9
102
}
330
6D9
100
AcDbXrecord
 10
0.0
 20
0.0
 30
0.0
  0
XRECORD
  5
6EB
102
{ACAD_REACTORS
330
6D9
102
}
330
6D9
100
AcDbXrecord
 10
0.0
 20
0.0
 30
0.0
  0
XRECORD
  5
6EE
102
{ACAD_REACTORS
330
6D9
102
}
330
6D9
100
AcDbXrecord
 10
0.0
 20
0.0
 30
0.0
  0
XRECORD
  5
6EC
102
{ACAD_REACTORS
330
6D9
102
}
330
6D9
100
AcDbXrecord
 10
0.0
 20
0.0
 30
0.0
  0
XRECORD
  5
6ED
102
{ACAD_REACTORS
330
6D9
102
}
330
6D9
100
AcDbXrecord
 10
0.0
 20
0.0
 30
0.0
  0
XRECORD
  5
6EA
102
{ACAD_REACTORS
330
6D9
102
}
330
6D9
100
AcDbXrecord
 10
0.0
 20
0.0
 30
0.0
  0
XRECORD
  5
6E7
102
{ACAD_REACTORS
330
6D9
102
}
330
6D9
100
AcDbXrecord
340
0
  0
XRECORD
  5
6E8
102
{ACAD_REACTORS
330
6D9
102
}
330
6D9
100
AcDbXrecord
 70
     0
  0
XRECORD
  5
6DD
102
{ACAD_REACTORS
330
6D9
102
}
330
6D9
100
AcDbXrecord
  1

  0
XRECORD
  5
6DA
102
{ACAD_REACTORS
330
6D9
102
}
330
6D9
100
AcDbXrecord
 90
        1
  0
XRECORD
  5
6DB
102
{ACAD_REACTORS
330
6D9
102
}
330
6D9
100
AcDbXrecord
 90
       70
  0
XRECORD
  5
6F2
102
{ACAD_REACTORS
330
6D9
102
}
330
6D9
100
AcDbXrecord
340
0
  0
XRECORD
  5
6F8
102
{ACAD_REACTORS
330
6D9
102
}
330
6D9
100
AcDbXrecord
 10
0.0
 20
0.0
 30
0.0
  0
XRECORD
  5
6F4
102
{ACAD_REACTORS
330
6D9
102
}
330
6D9
100
AcDbXrecord
 10
0.0
 20
0.0
 30
0.0
  0
XRECORD
  5
6F7
102
{ACAD_REACTORS
330
6D9
102
}
330
6D9
100
AcDbXrecord
 10
0.0
 20
0.0
 30
0.0
  0
XRECORD
  5
6F5
102
{ACAD_REACTORS
330
6D9
102
}
330
6D9
100
AcDbXrecord
 10
0.0
 20
0.0
 30
0.0
  0
XRECORD
  5
6F6
102
{ACAD_REACTORS
330
6D9
102
}
330
6D9
100
AcDbXrecord
 10
0.0
 20
0.0
 30
0.0
  0
XRECORD
  5
6F3
102
{ACAD_REACTORS
330
6D9
102
}
330
6D9
100
AcDbXrecord
 10
0.0
 20
0.0
 30
0.0
  0
XRECORD
  5
6F0
102
{ACAD_REACTORS
330
6D9
102
}
330
6D9
100
AcDbXrecord
340
0
  0
XRECORD
  5
6F1
102
{ACAD_REACTORS
330
6D9
102
}
330
6D9
100
AcDbXrecord
 70
     0
  0
XRECORD
  5
6E5
102
{ACAD_REACTORS
330
6D9
102
}
330
6D9
100
AcDbXrecord
  1
{FAEB1C32-E019-11D5-929B-00C0DF256EC4}
  0
DICTIONARYVAR
  5
707
102
{ACAD_REACTORS
330
6FA
102
}
330
6FA
100
DictionaryVariables
280
     0
  1
1:1
  0
DICTIONARYVAR
  5
701
102
{ACAD_REACTORS
330
6FA
102
}
330
6FA
100
DictionaryVariables
280
     0
  1
3.500000
  0
DICTIONARYVAR
  5
702
102
{ACAD_REACTORS
330
6FA
102
}
330
6FA
100
DictionaryVariables
280
     0
  1
acadiso.lin
  0
DICTIONARYVAR
  5
6FC
102
{ACAD_REACTORS
330
6FA
102
}
330
6FA
100
DictionaryVariables
280
     0
  1
Standard
  0
DICTIONARYVAR
  5
6FB
102
{ACAD_REACTORS
330
6FA
102
}
330
6FA
100
DictionaryVariables
280
     0
  1
Standard
  0
DICTIONARYVAR
  5
703
102
{ACAD_REACTORS
330
6FA
102
}
330
6FA
100
DictionaryVariables
280
     0
  1
2
  0
DICTIONARYVAR
  5
704
102
{ACAD_REACTORS
330
6FA
102
}
330
6FA
100
DictionaryVariables
280
     0
  1
1
  0
DICTIONARYVAR
  5
708
102
{ACAD_REACTORS
330
6FA
102
}
330
6FA
100
DictionaryVariables
280
     0
  1
1
  0
DICTIONARYVAR
  5
6FE
102
{ACAD_REACTORS
330
6FA
102
}
330
6FA
100
DictionaryVariables
280
     0
  1
80.000000
  0
DICTIONARYVAR
  5
6FD
102
{ACAD_REACTORS
330
6FA
102
}
330
6FA
100
DictionaryVariables
280
     0
  1
5.000000
  0
DICTIONARY
  5
70B
330
45
100
AcDbDictionary
280
     1
  3
ACAD_XREC_ROUNDTRIP
360
70C
  0
DICTIONARY
  5
709
330
44
100
AcDbDictionary
280
     1
  3
ACAD_XREC_ROUNDTRIP
360
70A
  0
DICTIONARY
  5
70D
330
46
100
AcDbDictionary
280
     1
  3
ACAD_XREC_ROUNDTRIP
360
70E
  0
XRECORD
  5
70C
102
{ACAD_REACTORS
330
70B
102
}
330
70B
100
AcDbXrecord
102
MATERIAL
148
0.0
149
0.0
149
0.0
 93
        0
 94
      127
282
     0
 72
     1
 77
     1
171
     1
175
     1
179
     1
273
     0
  0
XRECORD
  5
70A
102
{ACAD_REACTORS
330
709
102
}
330
709
100
AcDbXrecord
102
MATERIAL
148
0.0
149
0.0
149
0.0
 93
        0
 94
      127
282
     0
 72
     1
 77
     1
171
     1
175
     1
179
     1
273
     0
  0
XRECORD
  5
70E
102
{ACAD_REACTORS
330
70D
102
}
330
70D
100
AcDbXrecord
102
MATERIAL
148
0.0
149
0.0
149
0.0
 93
        0
 94
      127
282
     0
 72
     1
 77
     1
171
     1
175
     1
179
     1
273
     0
  0
ENDSEC
  0
EOF
