  0
SECTION
  2
HEADER
  9
$ACADVER
  1
AC1014
  9
$ACADMAINTVER
 70
     9
  9
$DWGCODEPAGE
  3
ANSI_932
  9
$INSBASE
 10
0.0
 20
0.0
 30
0.0
  9
$EXTMIN
 10
50.0
 20
100.0
 30
0.0
  9
$EXTMAX
 10
3850.0
 20
2800.0
 30
0.0
  9
$LIMMIN
 10
0.0
 20
0.0
  9
$LIMMAX
 10
420.0
 20
297.0
  9
$ORTHOMODE
 70
     0
  9
$REGENMODE
 70
     1
  9
$FILLMODE
 70
     1
  9
$QTEXTMODE
 70
     0
  9
$MIRRTEXT
 70
     1
  9
$DRAGMODE
 70
     2
  9
$LTSCALE
 40
0.2
  9
$OSMODE
 70
    37
  9
$ATTMODE
 70
     1
  9
$TEXTSIZE
 40
2.5
  9
$TRACEWID
 40
1.0
  9
$TEXTSTYLE
  7
STANDARD
  9
$CLAYER
  8
LAY-10
  9
$CELTYPE
  6
BYLAYER
  9
$CECOLOR
 62
   256
  9
$CELTSCALE
 40
1.0
  9
$DELOBJ
 70
     1
  9
$DISPSILH
 70
     0
  9
$DIMSCALE
 40
1.0
  9
$DIMASZ
 40
2.5
  9
$DIMEXO
 40
0.625
  9
$DIMDLI
 40
3.75
  9
$DIMRND
 40
0.0
  9
$DIMDLE
 40
0.0
  9
$DIMEXE
 40
1.25
  9
$DIMTP
 40
0.0
  9
$DIMTM
 40
0.0
  9
$DIMTXT
 40
2.5
  9
$DIMCEN
 40
2.5
  9
$DIMTSZ
 40
0.0
  9
$DIMTOL
 70
     0
  9
$DIMLIM
 70
     0
  9
$DIMTIH
 70
     0
  9
$DIMTOH
 70
     0
  9
$DIMSE1
 70
     0
  9
$DIMSE2
 70
     0
  9
$DIMTAD
 70
     1
  9
$DIMZIN
 70
     8
  9
$DIMBLK
  1

  9
$DIMASO
 70
     1
  9
$DIMSHO
 70
     1
  9
$DIMPOST
  1

  9
$DIMAPOST
  1

  9
$DIMALT
 70
     0
  9
$DIMALTD
 70
     3
  9
$DIMALTF
 40
0.03937007874016
  9
$DIMLFAC
 40
1.0
  9
$DIMTOFL
 70
     1
  9
$DIMTVP
 40
0.0
  9
$DIMTIX
 70
     0
  9
$DIMSOXD
 70
     0
  9
$DIMSAH
 70
     0
  9
$DIMBLK1
  1

  9
$DIMBLK2
  1

  9
$DIMSTYLE
  2
ISO-25
  9
$DIMCLRD
 70
     0
  9
$DIMCLRE
 70
     0
  9
$DIMCLRT
 70
     0
  9
$DIMTFAC
 40
1.0
  9
$DIMGAP
 40
0.625
  9
$DIMJUST
 70
     0
  9
$DIMSD1
 70
     0
  9
$DIMSD2
 70
     0
  9
$DIMTOLJ
 70
     0
  9
$DIMTZIN
 70
     8
  9
$DIMALTZ
 70
     0
  9
$DIMALTTZ
 70
     0
  9
$DIMFIT
 70
     3
  9
$DIMUPT
 70
     0
  9
$DIMUNIT
 70
     2
  9
$DIMDEC
 70
     2
  9
$DIMTDEC
 70
     2
  9
$DIMALTU
 70
     2
  9
$DIMALTTD
 70
     3
  9
$DIMTXSTY
  7
STANDARD
  9
$DIMAUNIT
 70
     0
  9
$LUNITS
 70
     2
  9
$LUPREC
 70
     4
  9
$SKETCHINC
 40
1.0
  9
$FILLETRAD
 40
10.0
  9
$AUNITS
 70
     0
  9
$AUPREC
 70
     0
  9
$MENU
  1
.
  9
$ELEVATION
 40
0.0
  9
$PELEVATION
 40
0.0
  9
$THICKNESS
 40
0.0
  9
$LIMCHECK
 70
     0
  9
$CHAMFERA
 40
0.0
  9
$CHAMFERB
 40
0.0
  9
$CHAMFERC
 40
0.0
  9
$CHAMFERD
 40
0.0
  9
$SKPOLY
 70
     0
  9
$TDCREATE
 40
2459229.333119769
  9
$TDUPDATE
 40
2459229.333121447
  9
$TDINDWG
 40
0.0000000116
  9
$TDUSRTIMER
 40
0.0000000116
  9
$USRTIMER
 70
     1
  9
$ANGBASE
 50
0.0
  9
$ANGDIR
 70
     0
  9
$PDMODE
 70
     0
  9
$PDSIZE
 40
0.0
  9
$PLINEWID
 40
0.0
  9
$COORDS
 70
     1
  9
$SPLFRAME
 70
     0
  9
$SPLINETYPE
 70
     6
  9
$SPLINESEGS
 70
     8
  9
$ATTDIA
 70
     0
  9
$ATTREQ
 70
     1
  9
$HANDLING
 70
     1
  9
$HANDSEED
  5
696
  9
$SURFTAB1
 70
     6
  9
$SURFTAB2
 70
     6
  9
$SURFTYPE
 70
     6
  9
$SURFU
 70
     6
  9
$SURFV
 70
     6
  9
$UCSNAME
  2

  9
$UCSORG
 10
0.0
 20
0.0
 30
0.0
  9
$UCSXDIR
 10
1.0
 20
0.0
 30
0.0
  9
$UCSYDIR
 10
0.0
 20
1.0
 30
0.0
  9
$PUCSNAME
  2

  9
$PUCSORG
 10
0.0
 20
0.0
 30
0.0
  9
$PUCSXDIR
 10
1.0
 20
0.0
 30
0.0
  9
$PUCSYDIR
 10
0.0
 20
1.0
 30
0.0
  9
$USERI1
 70
     0
  9
$USERI2
 70
     0
  9
$USERI3
 70
     0
  9
$USERI4
 70
     0
  9
$USERI5
 70
     0
  9
$USERR1
 40
0.0
  9
$USERR2
 40
0.0
  9
$USERR3
 40
0.0
  9
$USERR4
 40
0.0
  9
$USERR5
 40
0.0
  9
$WORLDVIEW
 70
     1
  9
$SHADEDGE
 70
     3
  9
$SHADEDIF
 70
    70
  9
$TILEMODE
 70
     1
  9
$MAXACTVP
 70
    64
  9
$PINSBASE
 10
0.0
 20
0.0
 30
0.0
  9
$PLIMCHECK
 70
     0
  9
$PEXTMIN
 10
1.000000000000000E+20
 20
1.000000000000000E+20
 30
1.000000000000000E+20
  9
$PEXTMAX
 10
-1.000000000000000E+20
 20
-1.000000000000000E+20
 30
-1.000000000000000E+20
  9
$PLIMMIN
 10
0.0
 20
0.0
  9
$PLIMMAX
 10
420.0
 20
297.0
  9
$UNITMODE
 70
     0
  9
$VISRETAIN
 70
     1
  9
$PLINEGEN
 70
     0
  9
$PSLTSCALE
 70
     1
  9
$TREEDEPTH
 70
  3020
  9
$PICKSTYLE
 70
     1
  9
$CMLSTYLE
  2
STANDARD
  9
$CMLJUST
 70
     0
  9
$CMLSCALE
 40
20.0
  9
$PROXYGRAPHICS
 70
     1
  9
$MEASUREMENT
 70
     1
  0
ENDSEC
  0
SECTION
  2
CLASSES
  0
CLASS
  1
ACDBDICTIONARYWDFLT
  2
AcDbDictionaryWithDefault
  3
ObjectDBX Classes
 90
        0
280
     0
281
     0
  0
CLASS
  1
VISUALSTYLE
  2
AcDbVisualStyle
  3
ObjectDBX Classes
 90
     4095
280
     0
281
     0
  0
CLASS
  1
MATERIAL
  2
AcDbMaterial
  3
ObjectDBX Classes
 90
     1153
280
     0
281
     0
  0
CLASS
  1
SCALE
  2
AcDbScale
  3
ObjectDBX Classes
 90
     1153
280
     0
281
     0
  0
CLASS
  1
TABLESTYLE
  2
AcDbTableStyle
  3
ObjectDBX Classes
 90
     4095
280
     0
281
     0
  0
CLASS
  1
MLEADERSTYLE
  2
AcDbMLeaderStyle
  3
ACDB_MLEADERSTYLE_CLASS
 90
     4095
280
     0
281
     0
  0
CLASS
  1
SUN
  2
AcDbSun
  3
SCENEOE
 90
     1153
280
     0
281
     0
  0
CLASS
  1
DICTIONARYVAR
  2
AcDbDictionaryVar
  3
ObjectDBX Classes
 90
        0
280
     0
281
     0
  0
CLASS
  1
XRECORD
  2
AcDbXrecord
  3
ObjectDBX Classes
 90
        0
280
     0
281
     0
  0
CLASS
  1
LWPOLYLINE
  2
AcDbPolyline
  3
ObjectDBX Classes
 90
        0
280
     0
281
     1
  0
CLASS
  1
HATCH
  2
AcDbHatch
  3
ObjectDBX Classes
 90
        0
280
     0
281
     1
  0
CLASS
  1
ACDBPLACEHOLDER
  2
AcDbPlaceHolder
  3
ObjectDBX Classes
 90
        0
280
     0
281
     0
  0
CLASS
  1
LAYOUT
  2
AcDbLayout
  3
ObjectDBX Classes
 90
        0
280
     0
281
     0
  0
ENDSEC
  0
SECTION
  2
TABLES
  0
TABLE
  2
VPORT
  5
8
102
{ACAD_XDICTIONARY
360
68B
102
}
330
0
100
AcDbSymbolTable
 70
     1
  0
VPORT
  5
29
330
8
100
AcDbSymbolTableRecord
100
AcDbViewportTableRecord
  2
*ACTIVE
 70
     0
 10
0.0
 20
0.0
 11
1.0
 21
1.0
 12
1950.0
 22
1450.0
 13
0.0
 23
0.0
 14
10.0
 24
10.0
 15
10.0
 25
10.0
 16
0.0
 26
0.0
 36
1.0
 17
0.0
 27
0.0
 37
0.0
 40
2700.0
 41
1.407407407407408
 42
50.0
 43
0.0
 44
0.0
 50
0.0
 51
0.0
 71
     0
 72
  1000
 73
     1
 74
     3
 75
     0
 76
     0
 77
     0
 78
     0
  0
ENDTAB
  0
TABLE
  2
LTYPE
  5
5
330
0
100
AcDbSymbolTable
 70
     6
  0
LTYPE
  5
14
330
5
100
AcDbSymbolTableRecord
100
AcDbLinetypeTableRecord
  2
BYBLOCK
 70
     0
  3

 72
    65
 73
     0
 40
0.0
  0
LTYPE
  5
15
330
5
100
AcDbSymbolTableRecord
100
AcDbLinetypeTableRecord
  2
BYLAYER
 70
     0
  3

 72
    65
 73
     0
 40
0.0
  0
LTYPE
  5
16
330
5
100
AcDbSymbolTableRecord
100
AcDbLinetypeTableRecord
  2
CONTINUOUS
 70
     0
  3
Solid line
 72
    65
 73
     0
 40
0.0
  0
LTYPE
  5
6E
330
5
100
AcDbSymbolTableRecord
100
AcDbLinetypeTableRecord
  2
HIDDEN
 70
     0
  3
Hidden __ __ __ __ __ __ __ __ __ __ __ __ __ __
 72
    65
 73
     2
 40
9.524999999999999
 49
6.35
 74
     0
 49
-3.175
 74
     0
  0
LTYPE
  5
6F
330
5
100
AcDbSymbolTableRecord
100
AcDbLinetypeTableRecord
  2
CENTER
 70
     0
  3
Center ____ _ ____ _ ____ _ ____ _ ____ _ ____
 72
    65
 73
     4
 40
50.8
 49
31.75
 74
     0
 49
-6.35
 74
     0
 49
6.35
 74
     0
 49
-6.35
 74
     0
  0
LTYPE
  5
70
330
5
100
AcDbSymbolTableRecord
100
AcDbLinetypeTableRecord
  2
PHANTOM
 70
     0
  3
Phantom ______  __  __  ______  __  __  ______ 
 72
    65
 73
     6
 40
63.50000000000001
 49
31.75
 74
     0
 49
-6.35
 74
     0
 49
6.35
 74
     0
 49
-6.35
 74
     0
 49
6.35
 74
     0
 49
-6.35
 74
     0
  0
LTYPE
  5
71
330
5
100
AcDbSymbolTableRecord
100
AcDbLinetypeTableRecord
  2
ACAD_ISO06W100
 70
     0
  3
ISO long-dash triple-dot ____ ... ____ ... ____
 72
    65
 73
     8
 40
36.0
 49
24.0
 74
     0
 49
-3.0
 74
     0
 49
0.0
 74
     0
 49
-3.0
 74
     0
 49
0.0
 74
     0
 49
-3.0
 74
     0
 49
0.0
 74
     0
 49
-3.0
 74
     0
  0
LTYPE
  5
72
330
5
100
AcDbSymbolTableRecord
100
AcDbLinetypeTableRecord
  2
ACAD_ISO15W100
 70
     0
  3
ISO double-dash triple-dot __ __ . . . __ __ . .
 72
    65
 73
    10
 40
39.0
 49
12.0
 74
     0
 49
-3.0
 74
     0
 49
12.0
 74
     0
 49
-3.0
 74
     0
 49
0.0
 74
     0
 49
-3.0
 74
     0
 49
0.0
 74
     0
 49
-3.0
 74
     0
 49
0.0
 74
     0
 49
-3.0
 74
     0
  0
ENDTAB
  0
TABLE
  2
LAYER
  5
2
330
0
100
AcDbSymbolTable
 70
     6
  0
LAYER
  5
10
330
2
100
AcDbSymbolTableRecord
100
AcDbLayerTableRecord
  2
0
 70
     0
 62
     7
  6
CONTINUOUS
  0
LAYER
  5
75
330
2
100
AcDbSymbolTableRecord
100
AcDbLayerTableRecord
  2
LAY-10
 70
     0
 62
     7
  6
CONTINUOUS
  0
LAYER
  5
76
330
2
100
AcDbSymbolTableRecord
100
AcDbLayerTableRecord
  2
LAY-11
 70
     0
 62
     7
  6
CONTINUOUS
  0
LAYER
  5
77
330
2
100
AcDbSymbolTableRecord
100
AcDbLayerTableRecord
  2
LAY-20
 70
     0
 62
     7
  6
CONTINUOUS
  0
LAYER
  5
78
330
2
100
AcDbSymbolTableRecord
100
AcDbLayerTableRecord
  2
LAY-255
 70
     0
 62
     7
  6
CONTINUOUS
  0
LAYER
  5
5B3
330
2
100
AcDbSymbolTableRecord
100
AcDbLayerTableRecord
  2
DEFPOINTS
 70
     0
 62
     7
  6
CONTINUOUS
  0
ENDTAB
  0
TABLE
  2
STYLE
  5
3
330
0
100
AcDbSymbolTable
 70
     4
  0
STYLE
  5
11
330
3
100
AcDbSymbolTableRecord
100
AcDbTextStyleTableRecord
  2
STANDARD
 70
     0
 40
0.0
 41
1.0
 50
0.0
 71
     0
 42
2.5
  3
simplex
  4
bigfont
  0
STYLE
  5
73
330
3
100
AcDbSymbolTableRecord
100
AcDbTextStyleTableRecord
  2
EXCADSTD
 70
     0
 40
0.0
 41
1.0
 50
0.0
 71
     0
 42
2.5
  3
simplex
  4
bigfont
  0
STYLE
  5
74
330
3
100
AcDbSymbolTableRecord
100
AcDbTextStyleTableRecord
  2
EXCADVERT
 70
     4
 40
0.0
 41
1.0
 50
0.0
 71
     0
 42
2.5
  3
simplex
  4
bigfont
  0
STYLE
  5
5B1
330
3
100
AcDbSymbolTableRecord
100
AcDbTextStyleTableRecord
  2
EXCADDIM1
 70
     0
 40
0.0
 41
0.84
 50
0.0
 71
     0
 42
2.5
  3
simplex
  4
bigfont
  0
ENDTAB
  0
TABLE
  2
VIEW
  5
6
330
0
100
AcDbSymbolTable
 70
     0
  0
ENDTAB
  0
TABLE
  2
UCS
  5
7
330
0
100
AcDbSymbolTable
 70
     0
  0
ENDTAB
  0
TABLE
  2
APPID
  5
9
330
0
100
AcDbSymbolTable
 70
     2
  0
APPID
  5
12
330
9
100
AcDbSymbolTableRecord
100
AcDbRegAppTableRecord
  2
ACAD
 70
     0
  0
APPID
  5
695
330
9
100
AcDbSymbolTableRecord
100
AcDbRegAppTableRecord
  2
ACAD_MLEADERVER
 70
     0
  0
ENDTAB
  0
TABLE
  2
DIMSTYLE
  5
A
330
0
100
AcDbSymbolTable
 70
     1
  0
DIMSTYLE
105
27
102
{ACAD_REACTORS
330
5B2
330
5C0
330
5CD
330
5DA
330
5E7
330
5F4
330
601
330
60E
330
61B
330
628
102
}
330
A
100
AcDbSymbolTableRecord
100
AcDbDimStyleTableRecord
  2
ISO-25
 70
     0
  3

  4

  5

  6

  7

 40
1.0
 41
2.5
 42
0.625
 43
3.75
 44
1.25
 45
0.0
 46
0.0
 47
0.0
 48
0.0
140
2.5
141
2.5
142
0.0
143
0.03937007874016
144
1.0
145
0.0
146
1.0
147
0.625
 71
     0
 72
     0
 73
     0
 74
     0
 75
     0
 76
     0
 77
     1
 78
     8
170
     0
171
     3
172
     1
173
     0
174
     0
175
     0
176
     0
177
     0
178
     0
270
     2
271
     2
272
     2
273
     2
274
     3
340
11
275
     0
280
     0
281
     0
282
     0
283
     0
284
     8
285
     0
286
     0
287
     5
288
     0
  0
ENDTAB
  0
TABLE
  2
BLOCK_RECORD
  5
1
330
0
100
AcDbSymbolTable
 70
    42
  0
BLOCK_RECORD
  5
1F
330
1
100
AcDbSymbolTableRecord
100
AcDbBlockTableRecord
  2
*MODEL_SPACE
  0
BLOCK_RECORD
  5
1B
330
1
100
AcDbSymbolTableRecord
100
AcDbBlockTableRecord
  2
*PAPER_SPACE
  0
BLOCK_RECORD
  5
79
330
1
100
AcDbSymbolTableRecord
100
AcDbBlockTableRecord
  2
EX_NORM
  0
BLOCK_RECORD
  5
7C
330
1
100
AcDbSymbolTableRecord
100
AcDbBlockTableRecord
  2
EX_BNORM
  0
BLOCK_RECORD
  5
7F
330
1
100
AcDbSymbolTableRecord
100
AcDbBlockTableRecord
  2
EX_BCIR
  0
BLOCK_RECORD
  5
82
330
1
100
AcDbSymbolTableRecord
100
AcDbBlockTableRecord
  2
EX_RCIVIL
  0
BLOCK_RECORD
  5
85
330
1
100
AcDbSymbolTableRecord
100
AcDbBlockTableRecord
  2
EX_SLANT
  0
BLOCK_RECORD
  5
88
330
1
100
AcDbSymbolTableRecord
100
AcDbBlockTableRecord
  2
EX_NONE
  0
BLOCK_RECORD
  5
8B
330
1
100
AcDbSymbolTableRecord
100
AcDbBlockTableRecord
  2
EX_CIVIL
  0
BLOCK_RECORD
  5
8E
330
1
100
AcDbSymbolTableRecord
100
AcDbBlockTableRecord
  2
EX_WCIR
  0
BLOCK_RECORD
  5
91
330
1
100
AcDbSymbolTableRecord
100
AcDbBlockTableRecord
  2
EX_WCIR2
  0
BLOCK_RECORD
  5
94
330
1
100
AcDbSymbolTableRecord
100
AcDbBlockTableRecord
  2
EX_WNORM
  0
BLOCK_RECORD
  5
97
330
1
100
AcDbSymbolTableRecord
100
AcDbBlockTableRecord
  2
EX_NNORM
  0
BLOCK_RECORD
  5
9A
330
1
100
AcDbSymbolTableRecord
100
AcDbBlockTableRecord
  2
EX_BBOX
  0
BLOCK_RECORD
  5
9D
330
1
100
AcDbSymbolTableRecord
100
AcDbBlockTableRecord
  2
EX_WBOX
  0
BLOCK_RECORD
  5
A0
330
1
100
AcDbSymbolTableRecord
100
AcDbBlockTableRecord
  2
EX_INTEGRAL
  0
BLOCK_RECORD
  5
A3
330
1
100
AcDbSymbolTableRecord
100
AcDbBlockTableRecord
  2
SYM-1
  0
BLOCK_RECORD
  5
A6
330
1
100
AcDbSymbolTableRecord
100
AcDbBlockTableRecord
  2
SYM-2
  0
BLOCK_RECORD
  5
A9
330
1
100
AcDbSymbolTableRecord
100
AcDbBlockTableRecord
  2
SYM-3
  0
BLOCK_RECORD
  5
AC
330
1
100
AcDbSymbolTableRecord
100
AcDbBlockTableRecord
  2
SYM-4
  0
BLOCK_RECORD
  5
AF
330
1
100
AcDbSymbolTableRecord
100
AcDbBlockTableRecord
  2
SYM-5
  0
BLOCK_RECORD
  5
B2
330
1
100
AcDbSymbolTableRecord
100
AcDbBlockTableRecord
  2
SYM-6
  0
BLOCK_RECORD
  5
B5
330
1
100
AcDbSymbolTableRecord
100
AcDbBlockTableRecord
  2
SYM-7
  0
BLOCK_RECORD
  5
B8
330
1
100
AcDbSymbolTableRecord
100
AcDbBlockTableRecord
  2
SYM-8
  0
BLOCK_RECORD
  5
BB
330
1
100
AcDbSymbolTableRecord
100
AcDbBlockTableRecord
  2
SYM-9
  0
BLOCK_RECORD
  5
BE
330
1
100
AcDbSymbolTableRecord
100
AcDbBlockTableRecord
  2
SYM-10
  0
BLOCK_RECORD
  5
C1
330
1
100
AcDbSymbolTableRecord
100
AcDbBlockTableRecord
  2
SYM-11
  0
BLOCK_RECORD
  5
C4
330
1
100
AcDbSymbolTableRecord
100
AcDbBlockTableRecord
  2
SYM-12
  0
BLOCK_RECORD
  5
C7
330
1
100
AcDbSymbolTableRecord
100
AcDbBlockTableRecord
  2
SYM-13
  0
BLOCK_RECORD
  5
CA
330
1
100
AcDbSymbolTableRecord
100
AcDbBlockTableRecord
  2
SYM-14
  0
BLOCK_RECORD
  5
CD
330
1
100
AcDbSymbolTableRecord
100
AcDbBlockTableRecord
  2
SYM-15
  0
BLOCK_RECORD
  5
D0
330
1
100
AcDbSymbolTableRecord
100
AcDbBlockTableRecord
  2
SYM-16
  0
BLOCK_RECORD
  5
D3
330
1
100
AcDbSymbolTableRecord
100
AcDbBlockTableRecord
  2
SYM-17
  0
BLOCK_RECORD
  5
D6
330
1
100
AcDbSymbolTableRecord
100
AcDbBlockTableRecord
  2
SYM-18
  0
BLOCK_RECORD
  5
5B4
330
1
100
AcDbSymbolTableRecord
100
AcDbBlockTableRecord
  2
*D33
  0
BLOCK_RECORD
  5
5C1
330
1
100
AcDbSymbolTableRecord
100
AcDbBlockTableRecord
  2
*D34
  0
BLOCK_RECORD
  5
5CE
330
1
100
AcDbSymbolTableRecord
100
AcDbBlockTableRecord
  2
*D35
  0
BLOCK_RECORD
  5
5DB
330
1
100
AcDbSymbolTableRecord
100
AcDbBlockTableRecord
  2
*D36
  0
BLOCK_RECORD
  5
5E8
330
1
100
AcDbSymbolTableRecord
100
AcDbBlockTableRecord
  2
*D37
  0
BLOCK_RECORD
  5
5F5
330
1
100
AcDbSymbolTableRecord
100
AcDbBlockTableRecord
  2
*D38
  0
BLOCK_RECORD
  5
602
330
1
100
AcDbSymbolTableRecord
100
AcDbBlockTableRecord
  2
*D39
  0
BLOCK_RECORD
  5
60F
330
1
100
AcDbSymbolTableRecord
100
AcDbBlockTableRecord
  2
*D40
  0
BLOCK_RECORD
  5
61C
330
1
100
AcDbSymbolTableRecord
100
AcDbBlockTableRecord
  2
*D41
  0
BLOCK_RECORD
  5
629
330
1
100
AcDbSymbolTableRecord
100
AcDbBlockTableRecord
  2
*D42
  0
ENDTAB
  0
ENDSEC
  0
SECTION
  2
BLOCKS
  0
BLOCK
  5
20
330
1F
100
AcDbEntity
  8
0
100
AcDbBlockBegin
  2
*MODEL_SPACE
 70
     0
 10
0.0
 20
0.0
 30
0.0
  3
*MODEL_SPACE
  1

  0
ENDBLK
  5
21
330
1F
100
AcDbEntity
  8
0
100
AcDbBlockEnd
  0
BLOCK
  5
1C
330
1B
100
AcDbEntity
 67
     1
  8
0
100
AcDbBlockBegin
  2
*PAPER_SPACE
 70
     0
 10
0.0
 20
0.0
 30
0.0
  3
*PAPER_SPACE
  1

  0
ENDBLK
  5
1D
330
1B
100
AcDbEntity
 67
     1
  8
0
100
AcDbBlockEnd
  0
BLOCK
  5
7A
330
79
100
AcDbEntity
  8
0
100
AcDbBlockBegin
  2
EX_NORM
 70
     0
 10
0.0
 20
0.0
 30
0.0
  3
EX_NORM
  1

  0
LINE
  5
D9
330
79
100
AcDbEntity
  8
0
  6
CONTINUOUS
 62
     0
100
AcDbLine
 10
0.0
 20
0.0
 30
0.0
 11
-1.0
 21
0.0
 31
0.0
  0
LINE
  5
DA
330
79
100
AcDbEntity
  8
0
  6
CONTINUOUS
 62
     0
100
AcDbLine
 10
0.0
 20
0.0
 30
0.0
 11
-1.0
 21
0.166666667
 31
0.0
  0
LINE
  5
DB
330
79
100
AcDbEntity
  8
0
  6
CONTINUOUS
 62
     0
100
AcDbLine
 10
0.0
 20
0.0
 30
0.0
 11
-1.0
 21
-0.166666667
 31
0.0
  0
ENDBLK
  5
7B
330
79
100
AcDbEntity
  8
0
100
AcDbBlockEnd
  0
BLOCK
  5
7D
330
7C
100
AcDbEntity
  8
0
100
AcDbBlockBegin
  2
EX_BNORM
 70
     0
 10
0.0
 20
0.0
 30
0.0
  3
EX_BNORM
  1

  0
LINE
  5
DC
330
7C
100
AcDbEntity
  8
0
  6
CONTINUOUS
 62
     0
100
AcDbLine
 10
0.0
 20
0.0
 30
0.0
 11
-1.0
 21
0.0
 31
0.0
  0
LINE
  5
DD
330
7C
100
AcDbEntity
  8
0
  6
CONTINUOUS
 62
     0
100
AcDbLine
 10
0.0
 20
0.0
 30
0.0
 11
-1.0
 21
0.166666667
 31
0.0
  0
LINE
  5
DE
330
7C
100
AcDbEntity
  8
0
  6
CONTINUOUS
 62
     0
100
AcDbLine
 10
0.0
 20
0.0
 30
0.0
 11
-1.0
 21
-0.166666667
 31
0.0
  0
LINE
  5
DF
330
7C
100
AcDbEntity
  8
0
  6
CONTINUOUS
 62
     0
100
AcDbLine
 10
0.0
 20
0.0
 30
0.0
 11
-1.0
 21
0.083333333
 31
0.0
  0
LINE
  5
E0
330
7C
100
AcDbEntity
  8
0
  6
CONTINUOUS
 62
     0
100
AcDbLine
 10
0.0
 20
0.0
 30
0.0
 11
-1.0
 21
-0.083333333
 31
0.0
  0
LINE
  5
E1
330
7C
100
AcDbEntity
  8
0
  6
CONTINUOUS
 62
     0
100
AcDbLine
 10
-1.0
 20
0.166666667
 30
0.0
 11
-1.0
 21
-0.166666667
 31
0.0
  0
ENDBLK
  5
7E
330
7C
100
AcDbEntity
  8
0
100
AcDbBlockEnd
  0
BLOCK
  5
80
330
7F
100
AcDbEntity
  8
0
100
AcDbBlockBegin
  2
EX_BCIR
 70
     0
 10
0.0
 20
0.0
 30
0.0
  3
EX_BCIR
  1

  0
LINE
  5
E2
330
7F
100
AcDbEntity
  8
0
  6
CONTINUOUS
 62
     0
100
AcDbLine
 10
0.0
 20
0.0
 30
0.0
 11
-1.0
 21
0.0
 31
0.0
  0
CIRCLE
  5
E3
330
7F
100
AcDbEntity
  8
0
  6
CONTINUOUS
 62
     0
100
AcDbCircle
 10
0.0
 20
0.0
 30
0.0
 40
0.5
  0
CIRCLE
  5
E4
330
7F
100
AcDbEntity
  8
0
  6
CONTINUOUS
 62
     0
100
AcDbCircle
 10
0.0
 20
0.0
 30
0.0
 40
0.25
  0
ENDBLK
  5
81
330
7F
100
AcDbEntity
  8
0
100
AcDbBlockEnd
  0
BLOCK
  5
83
330
82
100
AcDbEntity
  8
0
100
AcDbBlockBegin
  2
EX_RCIVIL
 70
     0
 10
0.0
 20
0.0
 30
0.0
  3
EX_RCIVIL
  1

  0
LINE
  5
E5
330
82
100
AcDbEntity
  8
0
  6
CONTINUOUS
 62
     0
100
AcDbLine
 10
0.0
 20
0.0
 30
0.0
 11
-1.0
 21
0.0
 31
0.0
  0
LINE
  5
E6
330
82
100
AcDbEntity
  8
0
  6
CONTINUOUS
 62
     0
100
AcDbLine
 10
-1.0
 20
-0.25
 30
0.0
 11
0.0
 21
-0.25
 31
0.0
  0
LINE
  5
E7
330
82
100
AcDbEntity
  8
0
  6
CONTINUOUS
 62
     0
100
AcDbLine
 10
-1.0
 20
-0.125
 30
0.0
 11
0.0
 21
-0.125
 31
0.0
  0
ENDBLK
  5
84
330
82
100
AcDbEntity
  8
0
100
AcDbBlockEnd
  0
BLOCK
  5
86
330
85
100
AcDbEntity
  8
0
100
AcDbBlockBegin
  2
EX_SLANT
 70
     0
 10
0.0
 20
0.0
 30
0.0
  3
EX_SLANT
  1

  0
LINE
  5
E8
330
85
100
AcDbEntity
  8
0
  6
CONTINUOUS
 62
     0
100
AcDbLine
 10
0.0
 20
0.0
 30
0.0
 11
-1.0
 21
0.0
 31
0.0
  0
LINE
  5
E9
330
85
100
AcDbEntity
  8
0
  6
CONTINUOUS
 62
     0
100
AcDbLine
 10
0.707106781
 20
0.707106781
 30
0.0
 11
-0.707106781
 21
-0.707106781
 31
0.0
  0
ENDBLK
  5
87
330
85
100
AcDbEntity
  8
0
100
AcDbBlockEnd
  0
BLOCK
  5
89
330
88
100
AcDbEntity
  8
0
100
AcDbBlockBegin
  2
EX_NONE
 70
     0
 10
0.0
 20
0.0
 30
0.0
  3
EX_NONE
  1

  0
LINE
  5
EA
330
88
100
AcDbEntity
  8
0
  6
CONTINUOUS
 62
     0
100
AcDbLine
 10
0.0
 20
0.0
 30
0.0
 11
-1.0
 21
0.0
 31
0.0
  0
ENDBLK
  5
8A
330
88
100
AcDbEntity
  8
0
100
AcDbBlockEnd
  0
BLOCK
  5
8C
330
8B
100
AcDbEntity
  8
0
100
AcDbBlockBegin
  2
EX_CIVIL
 70
     0
 10
0.0
 20
0.0
 30
0.0
  3
EX_CIVIL
  1

  0
LINE
  5
EB
330
8B
100
AcDbEntity
  8
0
  6
CONTINUOUS
 62
     0
100
AcDbLine
 10
0.0
 20
0.0
 30
0.0
 11
-1.0
 21
0.0
 31
0.0
  0
LINE
  5
EC
330
8B
100
AcDbEntity
  8
0
  6
CONTINUOUS
 62
     0
100
AcDbLine
 10
-1.0
 20
0.25
 30
0.0
 11
0.0
 21
0.25
 31
0.0
  0
LINE
  5
ED
330
8B
100
AcDbEntity
  8
0
  6
CONTINUOUS
 62
     0
100
AcDbLine
 10
-1.0
 20
0.125
 30
0.0
 11
0.0
 21
0.125
 31
0.0
  0
ENDBLK
  5
8D
330
8B
100
AcDbEntity
  8
0
100
AcDbBlockEnd
  0
BLOCK
  5
8F
330
8E
100
AcDbEntity
  8
0
100
AcDbBlockBegin
  2
EX_WCIR
 70
     0
 10
0.0
 20
0.0
 30
0.0
  3
EX_WCIR
  1

  0
LINE
  5
EE
330
8E
100
AcDbEntity
  8
0
  6
CONTINUOUS
 62
     0
100
AcDbLine
 10
0.0
 20
0.0
 30
0.0
 11
-1.0
 21
0.0
 31
0.0
  0
CIRCLE
  5
EF
330
8E
100
AcDbEntity
  8
0
  6
CONTINUOUS
 62
     0
100
AcDbCircle
 10
0.0
 20
0.0
 30
0.0
 40
0.5
  0
ENDBLK
  5
90
330
8E
100
AcDbEntity
  8
0
100
AcDbBlockEnd
  0
BLOCK
  5
92
330
91
100
AcDbEntity
  8
0
100
AcDbBlockBegin
  2
EX_WCIR2
 70
     0
 10
0.0
 20
0.0
 30
0.0
  3
EX_WCIR2
  1

  0
LINE
  5
F0
330
91
100
AcDbEntity
  8
0
  6
CONTINUOUS
 62
     0
100
AcDbLine
 10
-0.5
 20
0.0
 30
0.0
 11
-1.0
 21
0.0
 31
0.0
  0
CIRCLE
  5
F1
330
91
100
AcDbEntity
  8
0
  6
CONTINUOUS
 62
     0
100
AcDbCircle
 10
0.0
 20
0.0
 30
0.0
 40
0.5
  0
ENDBLK
  5
93
330
91
100
AcDbEntity
  8
0
100
AcDbBlockEnd
  0
BLOCK
  5
95
330
94
100
AcDbEntity
  8
0
100
AcDbBlockBegin
  2
EX_WNORM
 70
     0
 10
0.0
 20
0.0
 30
0.0
  3
EX_WNORM
  1

  0
LINE
  5
F2
330
94
100
AcDbEntity
  8
0
  6
CONTINUOUS
 62
     0
100
AcDbLine
 10
-1.0
 20
0.0
 30
0.0
 11
-1.0
 21
0.0
 31
0.0
  0
LINE
  5
F3
330
94
100
AcDbEntity
  8
0
  6
CONTINUOUS
 62
     0
100
AcDbLine
 10
0.0
 20
0.0
 30
0.0
 11
-1.0
 21
0.166666667
 31
0.0
  0
LINE
  5
F4
330
94
100
AcDbEntity
  8
0
  6
CONTINUOUS
 62
     0
100
AcDbLine
 10
0.0
 20
0.0
 30
0.0
 11
-1.0
 21
-0.166666667
 31
0.0
  0
LINE
  5
F5
330
94
100
AcDbEntity
  8
0
  6
CONTINUOUS
 62
     0
100
AcDbLine
 10
-1.0
 20
0.166666667
 30
0.0
 11
-1.0
 21
-0.166666667
 31
0.0
  0
ENDBLK
  5
96
330
94
100
AcDbEntity
  8
0
100
AcDbBlockEnd
  0
BLOCK
  5
98
330
97
100
AcDbEntity
  8
0
100
AcDbBlockBegin
  2
EX_NNORM
 70
     0
 10
0.0
 20
0.0
 30
0.0
  3
EX_NNORM
  1

  0
LINE
  5
F6
330
97
100
AcDbEntity
  8
0
  6
CONTINUOUS
 62
     0
100
AcDbLine
 10
0.0
 20
0.0
 30
0.0
 11
-1.0
 21
0.0
 31
0.0
  0
LINE
  5
F7
330
97
100
AcDbEntity
  8
0
  6
CONTINUOUS
 62
     0
100
AcDbLine
 10
0.0
 20
0.0
 30
0.0
 11
-1.0
 21
0.166666667
 31
0.0
  0
LINE
  5
F8
330
97
100
AcDbEntity
  8
0
  6
CONTINUOUS
 62
     0
100
AcDbLine
 10
0.0
 20
0.0
 30
0.0
 11
-1.0
 21
-0.166666667
 31
0.0
  0
LINE
  5
F9
330
97
100
AcDbEntity
  8
0
  6
CONTINUOUS
 62
     0
100
AcDbLine
 10
-1.0
 20
0.166666667
 30
0.0
 11
-1.0
 21
-0.166666667
 31
0.0
  0
ENDBLK
  5
99
330
97
100
AcDbEntity
  8
0
100
AcDbBlockEnd
  0
BLOCK
  5
9B
330
9A
100
AcDbEntity
  8
0
100
AcDbBlockBegin
  2
EX_BBOX
 70
     0
 10
0.0
 20
0.0
 30
0.0
  3
EX_BBOX
  1

  0
LINE
  5
FA
330
9A
100
AcDbEntity
  8
0
  6
CONTINUOUS
 62
     0
100
AcDbLine
 10
0.0
 20
0.0
 30
0.0
 11
-1.0
 21
0.0
 31
0.0
  0
LINE
  5
FB
330
9A
100
AcDbEntity
  8
0
  6
CONTINUOUS
 62
     0
100
AcDbLine
 10
-0.5
 20
0.5
 30
0.0
 11
0.5
 21
0.5
 31
0.0
  0
LINE
  5
FC
330
9A
100
AcDbEntity
  8
0
  6
CONTINUOUS
 62
     0
100
AcDbLine
 10
0.5
 20
0.5
 30
0.0
 11
0.5
 21
-0.5
 31
0.0
  0
LINE
  5
FD
330
9A
100
AcDbEntity
  8
0
  6
CONTINUOUS
 62
     0
100
AcDbLine
 10
0.5
 20
-0.5
 30
0.0
 11
-0.5
 21
-0.5
 31
0.0
  0
LINE
  5
FE
330
9A
100
AcDbEntity
  8
0
  6
CONTINUOUS
 62
     0
100
AcDbLine
 10
-0.5
 20
-0.5
 30
0.0
 11
-0.5
 21
0.5
 31
0.0
  0
LINE
  5
FF
330
9A
100
AcDbEntity
  8
0
  6
CONTINUOUS
 62
     0
100
AcDbLine
 10
-0.25
 20
0.25
 30
0.0
 11
0.25
 21
0.25
 31
0.0
  0
LINE
  5
100
330
9A
100
AcDbEntity
  8
0
  6
CONTINUOUS
 62
     0
100
AcDbLine
 10
0.25
 20
0.25
 30
0.0
 11
0.25
 21
-0.25
 31
0.0
  0
LINE
  5
101
330
9A
100
AcDbEntity
  8
0
  6
CONTINUOUS
 62
     0
100
AcDbLine
 10
0.25
 20
-0.25
 30
0.0
 11
-0.25
 21
-0.25
 31
0.0
  0
LINE
  5
102
330
9A
100
AcDbEntity
  8
0
  6
CONTINUOUS
 62
     0
100
AcDbLine
 10
-0.25
 20
-0.25
 30
0.0
 11
-0.25
 21
0.25
 31
0.0
  0
ENDBLK
  5
9C
330
9A
100
AcDbEntity
  8
0
100
AcDbBlockEnd
  0
BLOCK
  5
9E
330
9D
100
AcDbEntity
  8
0
100
AcDbBlockBegin
  2
EX_WBOX
 70
     0
 10
0.0
 20
0.0
 30
0.0
  3
EX_WBOX
  1

  0
LINE
  5
103
330
9D
100
AcDbEntity
  8
0
  6
CONTINUOUS
 62
     0
100
AcDbLine
 10
-0.5
 20
0.0
 30
0.0
 11
-1.0
 21
0.0
 31
0.0
  0
LINE
  5
104
330
9D
100
AcDbEntity
  8
0
  6
CONTINUOUS
 62
     0
100
AcDbLine
 10
-0.5
 20
0.5
 30
0.0
 11
0.5
 21
0.5
 31
0.0
  0
LINE
  5
105
330
9D
100
AcDbEntity
  8
0
  6
CONTINUOUS
 62
     0
100
AcDbLine
 10
0.5
 20
0.5
 30
0.0
 11
0.5
 21
-0.5
 31
0.0
  0
LINE
  5
106
330
9D
100
AcDbEntity
  8
0
  6
CONTINUOUS
 62
     0
100
AcDbLine
 10
0.5
 20
-0.5
 30
0.0
 11
-0.5
 21
-0.5
 31
0.0
  0
LINE
  5
107
330
9D
100
AcDbEntity
  8
0
  6
CONTINUOUS
 62
     0
100
AcDbLine
 10
-0.5
 20
-0.5
 30
0.0
 11
-0.5
 21
0.5
 31
0.0
  0
ENDBLK
  5
9F
330
9D
100
AcDbEntity
  8
0
100
AcDbBlockEnd
  0
BLOCK
  5
A1
330
A0
100
AcDbEntity
  8
0
100
AcDbBlockBegin
  2
EX_INTEGRAL
 70
     0
 10
0.0
 20
0.0
 30
0.0
  3
EX_INTEGRAL
  1

  0
LINE
  5
108
330
A0
100
AcDbEntity
  8
0
  6
CONTINUOUS
 62
     0
100
AcDbLine
 10
0.0
 20
0.0
 30
0.0
 11
-1.0
 21
0.0
 31
0.0
  0
ARC
  5
109
330
A0
100
AcDbEntity
  8
0
  6
CONTINUOUS
 62
     0
100
AcDbCircle
 10
0.542115
 20
0.164992
 30
0.0
 40
0.56667
100
AcDbArc
 50
73.07249033629006
 51
196.9275130221199
  0
ARC
  5
10A
330
A0
100
AcDbEntity
  8
0
  6
CONTINUOUS
 62
     0
100
AcDbCircle
 10
-0.542115
 20
-0.164992
 30
0.0
 40
0.56667
100
AcDbArc
 50
253.0724869220464
 51
16.9275130559125
  0
ENDBLK
  5
A2
330
A0
100
AcDbEntity
  8
0
100
AcDbBlockEnd
  0
BLOCK
  5
A4
330
A3
100
AcDbEntity
  8
0
100
AcDbBlockBegin
  2
SYM-1
 70
     0
 10
0.0
 20
0.0
 30
0.0
  3
SYM-1
  1

  0
CIRCLE
  5
10B
330
A3
100
AcDbEntity
  8
0
  6
CONTINUOUS
 62
     7
100
AcDbCircle
 10
1905.734848523422
 20
2543.499999999975
 30
0.0
 40
10.50000000000041
  0
CIRCLE
  5
10C
330
A3
100
AcDbEntity
  8
0
  6
CONTINUOUS
 62
     7
100
AcDbCircle
 10
1905.734848523422
 20
2543.499999999975
 30
0.0
 40
8.66025403784441
  0
LINE
  5
10D
330
A3
100
AcDbEntity
  8
0
  6
CONTINUOUS
 62
     7
100
AcDbLine
 10
1897.074594485578
 20
2548.499999999975
 30
0.0
 11
1897.074594485578
 21
2538.499999999976
 31
0.0
  0
LINE
  5
10E
330
A3
100
AcDbEntity
  8
0
  6
CONTINUOUS
 62
     7
100
AcDbLine
 10
1897.074594485578
 20
2538.499999999976
 30
0.0
 11
1905.734848523422
 21
2533.499999999975
 31
0.0
  0
LINE
  5
10F
330
A3
100
AcDbEntity
  8
0
  6
CONTINUOUS
 62
     7
100
AcDbLine
 10
1905.734848523422
 20
2533.499999999975
 30
0.0
 11
1914.395102561264
 21
2538.499999999976
 31
0.0
  0
LINE
  5
110
330
A3
100
AcDbEntity
  8
0
  6
CONTINUOUS
 62
     7
100
AcDbLine
 10
1914.395102561264
 20
2548.499999999975
 30
0.0
 11
1905.734848523422
 21
2553.499999999976
 31
0.0
  0
LINE
  5
111
330
A3
100
AcDbEntity
  8
0
  6
CONTINUOUS
 62
     7
100
AcDbLine
 10
1905.734848523422
 20
2553.499999999976
 30
0.0
 11
1897.074594485578
 21
2548.499999999975
 31
0.0
  0
CIRCLE
  5
112
330
A3
100
AcDbEntity
  8
0
  6
CONTINUOUS
 62
     7
100
AcDbCircle
 10
1905.734848523422
 20
2543.499999999975
 30
0.0
 40
5.0
  0
CIRCLE
  5
113
330
A3
100
AcDbEntity
  8
0
  6
CONTINUOUS
 62
     7
100
AcDbCircle
 10
1905.734848523422
 20
2543.499999999975
 30
0.0
 40
4.0
  0
LINE
  5
114
330
A3
100
AcDbEntity
  8
0
  6
CONTINUOUS
 62
     7
100
AcDbLine
 10
1914.395102561264
 20
2538.499999999976
 30
0.0
 11
1914.395102561264
 21
2548.499999999975
 31
0.0
  0
ENDBLK
  5
A5
330
A3
100
AcDbEntity
  8
0
100
AcDbBlockEnd
  0
BLOCK
  5
A7
330
A6
100
AcDbEntity
  8
0
100
AcDbBlockBegin
  2
SYM-2
 70
     0
 10
0.0
 20
0.0
 30
0.0
  3
SYM-2
  1

  0
CIRCLE
  5
115
330
A6
100
AcDbEntity
  8
0
  6
CONTINUOUS
 62
     7
100
AcDbCircle
 10
1905.734848523422
 20
993.4999999999955
 30
0.0
 40
10.50000000000041
  0
CIRCLE
  5
116
330
A6
100
AcDbEntity
  8
0
  6
CONTINUOUS
 62
     7
100
AcDbCircle
 10
1905.734848523422
 20
993.4999999999955
 30
0.0
 40
8.66025403784441
  0
LINE
  5
117
330
A6
100
AcDbEntity
  8
0
  6
CONTINUOUS
 62
     7
100
AcDbLine
 10
1897.074594485578
 20
998.4999999999955
 30
0.0
 11
1897.074594485578
 21
988.4999999999964
 31
0.0
  0
LINE
  5
118
330
A6
100
AcDbEntity
  8
0
  6
CONTINUOUS
 62
     7
100
AcDbLine
 10
1897.074594485578
 20
988.4999999999964
 30
0.0
 11
1905.734848523422
 21
983.4999999999955
 31
0.0
  0
LINE
  5
119
330
A6
100
AcDbEntity
  8
0
  6
CONTINUOUS
 62
     7
100
AcDbLine
 10
1905.734848523422
 20
983.4999999999955
 30
0.0
 11
1914.395102561264
 21
988.4999999999964
 31
0.0
  0
LINE
  5
11A
330
A6
100
AcDbEntity
  8
0
  6
CONTINUOUS
 62
     7
100
AcDbLine
 10
1914.395102561264
 20
998.4999999999955
 30
0.0
 11
1905.734848523422
 21
1003.499999999996
 31
0.0
  0
LINE
  5
11B
330
A6
100
AcDbEntity
  8
0
  6
CONTINUOUS
 62
     7
100
AcDbLine
 10
1905.734848523422
 20
1003.499999999996
 30
0.0
 11
1897.074594485578
 21
998.4999999999955
 31
0.0
  0
CIRCLE
  5
11C
330
A6
100
AcDbEntity
  8
0
  6
CONTINUOUS
 62
     7
100
AcDbCircle
 10
1905.734848523422
 20
993.4999999999955
 30
0.0
 40
5.0
  0
CIRCLE
  5
11D
330
A6
100
AcDbEntity
  8
0
  6
CONTINUOUS
 62
     7
100
AcDbCircle
 10
1905.734848523422
 20
993.4999999999955
 30
0.0
 40
4.0
  0
LINE
  5
11E
330
A6
100
AcDbEntity
  8
0
  6
CONTINUOUS
 62
     7
100
AcDbLine
 10
1914.395102561264
 20
988.4999999999964
 30
0.0
 11
1914.395102561264
 21
998.4999999999955
 31
0.0
  0
ENDBLK
  5
A8
330
A6
100
AcDbEntity
  8
0
100
AcDbBlockEnd
  0
BLOCK
  5
AA
330
A9
100
AcDbEntity
  8
0
100
AcDbBlockBegin
  2
SYM-3
 70
     0
 10
0.0
 20
0.0
 30
0.0
  3
SYM-3
  1

  0
CIRCLE
  5
11F
330
A9
100
AcDbEntity
  8
0
  6
CONTINUOUS
 62
     7
100
AcDbCircle
 10
1389.068181856721
 20
993.4999999998809
 30
0.0
 40
10.50000000000041
  0
CIRCLE
  5
120
330
A9
100
AcDbEntity
  8
0
  6
CONTINUOUS
 62
     7
100
AcDbCircle
 10
1389.068181856721
 20
993.4999999998809
 30
0.0
 40
8.66025403784441
  0
LINE
  5
121
330
A9
100
AcDbEntity
  8
0
  6
CONTINUOUS
 62
     7
100
AcDbLine
 10
1380.407927818879
 20
988.4999999998809
 30
0.0
 11
1380.407927818879
 21
998.49999999988
 31
0.0
  0
LINE
  5
122
330
A9
100
AcDbEntity
  8
0
  6
CONTINUOUS
 62
     7
100
AcDbLine
 10
1380.407927818879
 20
998.49999999988
 30
0.0
 11
1389.068181856721
 21
1003.499999999881
 31
0.0
  0
LINE
  5
123
330
A9
100
AcDbEntity
  8
0
  6
CONTINUOUS
 62
     7
100
AcDbLine
 10
1389.068181856721
 20
1003.499999999881
 30
0.0
 11
1397.728435894566
 21
998.49999999988
 31
0.0
  0
LINE
  5
124
330
A9
100
AcDbEntity
  8
0
  6
CONTINUOUS
 62
     7
100
AcDbLine
 10
1397.728435894566
 20
988.4999999998809
 30
0.0
 11
1389.068181856721
 21
983.49999999988
 31
0.0
  0
LINE
  5
125
330
A9
100
AcDbEntity
  8
0
  6
CONTINUOUS
 62
     7
100
AcDbLine
 10
1389.068181856721
 20
983.49999999988
 30
0.0
 11
1380.407927818879
 21
988.4999999998809
 31
0.0
  0
CIRCLE
  5
126
330
A9
100
AcDbEntity
  8
0
  6
CONTINUOUS
 62
     7
100
AcDbCircle
 10
1389.068181856721
 20
993.4999999998809
 30
0.0
 40
5.0
  0
CIRCLE
  5
127
330
A9
100
AcDbEntity
  8
0
  6
CONTINUOUS
 62
     7
100
AcDbCircle
 10
1389.068181856721
 20
993.4999999998809
 30
0.0
 40
4.0
  0
LINE
  5
128
330
A9
100
AcDbEntity
  8
0
  6
CONTINUOUS
 62
     7
100
AcDbLine
 10
1397.728435894566
 20
998.49999999988
 30
0.0
 11
1397.728435894566
 21
988.4999999998809
 31
0.0
  0
ENDBLK
  5
AB
330
A9
100
AcDbEntity
  8
0
100
AcDbBlockEnd
  0
BLOCK
  5
AD
330
AC
100
AcDbEntity
  8
0
100
AcDbBlockBegin
  2
SYM-4
 70
     0
 10
0.0
 20
0.0
 30
0.0
  3
SYM-4
  1

  0
CIRCLE
  5
129
330
AC
100
AcDbEntity
  8
0
  6
CONTINUOUS
 62
     7
100
AcDbCircle
 10
1905.734848523376
 20
2026.833333333255
 30
0.0
 40
10.50000000000041
  0
CIRCLE
  5
12A
330
AC
100
AcDbEntity
  8
0
  6
CONTINUOUS
 62
     7
100
AcDbCircle
 10
1905.734848523376
 20
2026.833333333255
 30
0.0
 40
8.66025403784441
  0
LINE
  5
12B
330
AC
100
AcDbEntity
  8
0
  6
CONTINUOUS
 62
     7
100
AcDbLine
 10
1914.395102561219
 20
2031.833333333255
 30
0.0
 11
1914.395102561219
 21
2021.833333333257
 31
0.0
  0
LINE
  5
12C
330
AC
100
AcDbEntity
  8
0
  6
CONTINUOUS
 62
     7
100
AcDbLine
 10
1914.395102561219
 20
2021.833333333257
 30
0.0
 11
1905.734848523376
 21
2016.833333333255
 31
0.0
  0
LINE
  5
12D
330
AC
100
AcDbEntity
  8
0
  6
CONTINUOUS
 62
     7
100
AcDbLine
 10
1905.734848523376
 20
2016.833333333255
 30
0.0
 11
1897.074594485534
 21
2021.833333333257
 31
0.0
  0
LINE
  5
12E
330
AC
100
AcDbEntity
  8
0
  6
CONTINUOUS
 62
     7
100
AcDbLine
 10
1897.074594485534
 20
2031.833333333255
 30
0.0
 11
1905.734848523376
 21
2036.833333333257
 31
0.0
  0
LINE
  5
12F
330
AC
100
AcDbEntity
  8
0
  6
CONTINUOUS
 62
     7
100
AcDbLine
 10
1905.734848523376
 20
2036.833333333257
 30
0.0
 11
1914.395102561219
 21
2031.833333333255
 31
0.0
  0
CIRCLE
  5
130
330
AC
100
AcDbEntity
  8
0
  6
CONTINUOUS
 62
     7
100
AcDbCircle
 10
1905.734848523376
 20
2026.833333333255
 30
0.0
 40
5.0
  0
CIRCLE
  5
131
330
AC
100
AcDbEntity
  8
0
  6
CONTINUOUS
 62
     7
100
AcDbCircle
 10
1905.734848523376
 20
2026.833333333255
 30
0.0
 40
4.0
  0
LINE
  5
132
330
AC
100
AcDbEntity
  8
0
  6
CONTINUOUS
 62
     7
100
AcDbLine
 10
1897.074594485534
 20
2021.833333333257
 30
0.0
 11
1897.074594485534
 21
2031.833333333255
 31
0.0
  0
ENDBLK
  5
AE
330
AC
100
AcDbEntity
  8
0
100
AcDbBlockEnd
  0
BLOCK
  5
B0
330
AF
100
AcDbEntity
  8
0
100
AcDbBlockBegin
  2
SYM-5
 70
     0
 10
0.0
 20
0.0
 30
0.0
  3
SYM-5
  1

  0
CIRCLE
  5
133
330
AF
100
AcDbEntity
  8
0
  6
CONTINUOUS
 62
     7
100
AcDbCircle
 10
1905.734848523376
 20
1510.166666666797
 30
0.0
 40
10.50000000000041
  0
CIRCLE
  5
134
330
AF
100
AcDbEntity
  8
0
  6
CONTINUOUS
 62
     7
100
AcDbCircle
 10
1905.734848523376
 20
1510.166666666797
 30
0.0
 40
8.66025403784441
  0
LINE
  5
135
330
AF
100
AcDbEntity
  8
0
  6
CONTINUOUS
 62
     7
100
AcDbLine
 10
1914.395102561219
 20
1505.166666666797
 30
0.0
 11
1914.395102561219
 21
1515.166666666796
 31
0.0
  0
LINE
  5
136
330
AF
100
AcDbEntity
  8
0
  6
CONTINUOUS
 62
     7
100
AcDbLine
 10
1914.395102561219
 20
1515.166666666796
 30
0.0
 11
1905.734848523376
 21
1520.166666666797
 31
0.0
  0
LINE
  5
137
330
AF
100
AcDbEntity
  8
0
  6
CONTINUOUS
 62
     7
100
AcDbLine
 10
1905.734848523376
 20
1520.166666666797
 30
0.0
 11
1897.074594485534
 21
1515.166666666796
 31
0.0
  0
LINE
  5
138
330
AF
100
AcDbEntity
  8
0
  6
CONTINUOUS
 62
     7
100
AcDbLine
 10
1897.074594485534
 20
1505.166666666797
 30
0.0
 11
1905.734848523376
 21
1500.166666666796
 31
0.0
  0
LINE
  5
139
330
AF
100
AcDbEntity
  8
0
  6
CONTINUOUS
 62
     7
100
AcDbLine
 10
1905.734848523376
 20
1500.166666666796
 30
0.0
 11
1914.395102561219
 21
1505.166666666797
 31
0.0
  0
CIRCLE
  5
13A
330
AF
100
AcDbEntity
  8
0
  6
CONTINUOUS
 62
     7
100
AcDbCircle
 10
1905.734848523376
 20
1510.166666666797
 30
0.0
 40
5.0
  0
CIRCLE
  5
13B
330
AF
100
AcDbEntity
  8
0
  6
CONTINUOUS
 62
     7
100
AcDbCircle
 10
1905.734848523376
 20
1510.166666666797
 30
0.0
 40
4.0
  0
LINE
  5
13C
330
AF
100
AcDbEntity
  8
0
  6
CONTINUOUS
 62
     7
100
AcDbLine
 10
1897.074594485534
 20
1515.166666666796
 30
0.0
 11
1897.074594485534
 21
1505.166666666797
 31
0.0
  0
ENDBLK
  5
B1
330
AF
100
AcDbEntity
  8
0
100
AcDbBlockEnd
  0
BLOCK
  5
B3
330
B2
100
AcDbEntity
  8
0
100
AcDbBlockBegin
  2
SYM-6
 70
     0
 10
0.0
 20
0.0
 30
0.0
  3
SYM-6
  1

  0
ARC
  5
13D
330
B2
100
AcDbEntity
  8
0
  6
CONTINUOUS
 62
     7
100
AcDbCircle
 10
625.7348485235291
 20
517.50000000001
 30
0.0
 40
2.0
100
AcDbArc
 50
270.0000000000002
 51
0.0
  0
ARC
  5
13E
330
B2
100
AcDbEntity
  8
0
  6
CONTINUOUS
 62
     7
100
AcDbCircle
 10
600.7348485234963
 20
517.50000000001
 30
0.0
 40
2.0
100
AcDbArc
 50
180.0
 51
270.0000000000002
  0
LINE
  5
13F
330
B2
100
AcDbEntity
  8
0
  6
CONTINUOUS
 62
     7
100
AcDbLine
 10
625.7348485235145
 20
517.50000000001
 30
0.0
 11
600.7348485235145
 21
517.50000000001
 31
0.0
  0
LINE
  5
140
330
B2
100
AcDbEntity
  8
0
  6
CONTINUOUS
 62
     7
100
AcDbLine
 10
633.2348485235145
 20
525.50000000001
 30
0.0
 11
633.2348485235145
 21
523.50000000001
 31
0.0
  0
LINE
  5
141
330
B2
100
AcDbEntity
  8
0
  6
CONTINUOUS
 62
     7
100
AcDbLine
 10
633.2348485235145
 20
523.50000000001
 30
0.0
 11
627.7348485235291
 21
523.50000000001
 31
0.0
  0
LINE
  5
142
330
B2
100
AcDbEntity
  8
0
  6
CONTINUOUS
 62
     7
100
AcDbLine
 10
627.7348485235291
 20
523.50000000001
 30
0.0
 11
627.7348485235291
 21
517.50000000001
 31
0.0
  0
LINE
  5
143
330
B2
100
AcDbEntity
  8
0
  6
CONTINUOUS
 62
     7
100
AcDbLine
 10
625.7348485235145
 20
523.50000000001
 30
0.0
 11
625.7348485235145
 21
517.50000000001
 31
0.0
  0
LINE
  5
144
330
B2
100
AcDbEntity
  8
0
  6
CONTINUOUS
 62
     7
100
AcDbLine
 10
633.2348485235145
 20
525.50000000001
 30
0.0
 11
627.7348485235145
 21
525.50000000001
 31
0.0
  0
ARC
  5
145
330
B2
100
AcDbEntity
  8
0
  6
CONTINUOUS
 62
     7
100
AcDbCircle
 10
627.7348485235145
 20
523.50000000001
 30
0.0
 40
2.0
100
AcDbArc
 50
90.00000000000001
 51
180.0
  0
LINE
  5
146
330
B2
100
AcDbEntity
  8
0
  6
CONTINUOUS
 62
     7
100
AcDbLine
 10
593.2348485235109
 20
525.50000000001
 30
0.0
 11
593.2348485235109
 21
523.50000000001
 31
0.0
  0
LINE
  5
147
330
B2
100
AcDbEntity
  8
0
  6
CONTINUOUS
 62
     7
100
AcDbLine
 10
593.2348485235109
 20
523.50000000001
 30
0.0
 11
598.7348485234963
 21
523.50000000001
 31
0.0
  0
LINE
  5
148
330
B2
100
AcDbEntity
  8
0
  6
CONTINUOUS
 62
     7
100
AcDbLine
 10
598.7348485234963
 20
523.50000000001
 30
0.0
 11
598.7348485234963
 21
517.50000000001
 31
0.0
  0
LINE
  5
149
330
B2
100
AcDbEntity
  8
0
  6
CONTINUOUS
 62
     7
100
AcDbLine
 10
600.7348485235109
 20
523.50000000001
 30
0.0
 11
600.7348485235109
 21
517.50000000001
 31
0.0
  0
LINE
  5
14A
330
B2
100
AcDbEntity
  8
0
  6
CONTINUOUS
 62
     7
100
AcDbLine
 10
593.2348485235109
 20
525.50000000001
 30
0.0
 11
598.7348485235109
 21
525.50000000001
 31
0.0
  0
ARC
  5
14B
330
B2
100
AcDbEntity
  8
0
  6
CONTINUOUS
 62
     7
100
AcDbCircle
 10
598.7348485235109
 20
523.50000000001
 30
0.0
 40
2.0
100
AcDbArc
 50
0.0
 51
90.00000000000001
  0
ENDBLK
  5
B4
330
B2
100
AcDbEntity
  8
0
100
AcDbBlockEnd
  0
BLOCK
  5
B6
330
B5
100
AcDbEntity
  8
0
100
AcDbBlockBegin
  2
SYM-7
 70
     0
 10
0.0
 20
0.0
 30
0.0
  3
SYM-7
  1

  0
ARC
  5
14C
330
B5
100
AcDbEntity
  8
0
  6
CONTINUOUS
 62
     7
100
AcDbCircle
 10
450.7348485234763
 20
517.50000000001
 30
0.0
 40
2.0
100
AcDbArc
 50
180.0
 51
270.0000000000002
  0
ARC
  5
14D
330
B5
100
AcDbEntity
  8
0
  6
CONTINUOUS
 62
     7
100
AcDbCircle
 10
475.7348485235091
 20
517.50000000001
 30
0.0
 40
2.0
100
AcDbArc
 50
270.0000000000002
 51
0.0
  0
LINE
  5
14E
330
B5
100
AcDbEntity
  8
0
  6
CONTINUOUS
 62
     7
100
AcDbLine
 10
450.7348485234909
 20
517.50000000001
 30
0.0
 11
475.7348485234918
 21
517.50000000001
 31
0.0
  0
LINE
  5
14F
330
B5
100
AcDbEntity
  8
0
  6
CONTINUOUS
 62
     7
100
AcDbLine
 10
443.2348485234909
 20
525.5000000000105
 30
0.0
 11
443.2348485234909
 21
523.50000000001
 31
0.0
  0
LINE
  5
150
330
B5
100
AcDbEntity
  8
0
  6
CONTINUOUS
 62
     7
100
AcDbLine
 10
443.2348485234909
 20
523.50000000001
 30
0.0
 11
448.7348485234763
 21
523.50000000001
 31
0.0
  0
LINE
  5
151
330
B5
100
AcDbEntity
  8
0
  6
CONTINUOUS
 62
     7
100
AcDbLine
 10
448.7348485234763
 20
523.50000000001
 30
0.0
 11
448.7348485234763
 21
517.50000000001
 31
0.0
  0
LINE
  5
152
330
B5
100
AcDbEntity
  8
0
  6
CONTINUOUS
 62
     7
100
AcDbLine
 10
450.7348485234909
 20
523.50000000001
 30
0.0
 11
450.7348485234909
 21
517.50000000001
 31
0.0
  0
LINE
  5
153
330
B5
100
AcDbEntity
  8
0
  6
CONTINUOUS
 62
     7
100
AcDbLine
 10
443.2348485234909
 20
525.5000000000105
 30
0.0
 11
448.7348485234909
 21
525.5000000000105
 31
0.0
  0
ARC
  5
154
330
B5
100
AcDbEntity
  8
0
  6
CONTINUOUS
 62
     7
100
AcDbCircle
 10
448.7348485234909
 20
523.50000000001
 30
0.0
 40
2.0
100
AcDbArc
 50
0.0
 51
90.00000000000001
  0
LINE
  5
155
330
B5
100
AcDbEntity
  8
0
  6
CONTINUOUS
 62
     7
100
AcDbLine
 10
483.2348485234945
 20
525.5000000000105
 30
0.0
 11
483.2348485234945
 21
523.50000000001
 31
0.0
  0
LINE
  5
156
330
B5
100
AcDbEntity
  8
0
  6
CONTINUOUS
 62
     7
100
AcDbLine
 10
483.2348485234945
 20
523.50000000001
 30
0.0
 11
477.73484852351
 21
523.50000000001
 31
0.0
  0
LINE
  5
157
330
B5
100
AcDbEntity
  8
0
  6
CONTINUOUS
 62
     7
100
AcDbLine
 10
477.73484852351
 20
523.50000000001
 30
0.0
 11
477.73484852351
 21
517.50000000001
 31
0.0
  0
LINE
  5
158
330
B5
100
AcDbEntity
  8
0
  6
CONTINUOUS
 62
     7
100
AcDbLine
 10
475.7348485234945
 20
523.50000000001
 30
0.0
 11
475.7348485234945
 21
517.50000000001
 31
0.0
  0
LINE
  5
159
330
B5
100
AcDbEntity
  8
0
  6
CONTINUOUS
 62
     7
100
AcDbLine
 10
483.2348485234945
 20
525.5000000000105
 30
0.0
 11
477.7348485234945
 21
525.5000000000105
 31
0.0
  0
ARC
  5
15A
330
B5
100
AcDbEntity
  8
0
  6
CONTINUOUS
 62
     7
100
AcDbCircle
 10
477.7348485234945
 20
523.50000000001
 30
0.0
 40
2.0
100
AcDbArc
 50
90.00000000000001
 51
180.0
  0
ENDBLK
  5
B7
330
B5
100
AcDbEntity
  8
0
100
AcDbBlockEnd
  0
BLOCK
  5
B9
330
B8
100
AcDbEntity
  8
0
100
AcDbBlockBegin
  2
SYM-8
 70
     0
 10
0.0
 20
0.0
 30
0.0
  3
SYM-8
  1

  0
ARC
  5
15B
330
B8
100
AcDbEntity
  8
0
  6
CONTINUOUS
 62
     7
100
AcDbCircle
 10
1020.734848523529
 20
517.50000000001
 30
0.0
 40
2.0
100
AcDbArc
 50
270.0000000000002
 51
0.0
  0
ARC
  5
15C
330
B8
100
AcDbEntity
  8
0
  6
CONTINUOUS
 62
     7
100
AcDbCircle
 10
995.7348485234963
 20
517.50000000001
 30
0.0
 40
2.0
100
AcDbArc
 50
180.0
 51
270.0000000000002
  0
LINE
  5
15D
330
B8
100
AcDbEntity
  8
0
  6
CONTINUOUS
 62
     7
100
AcDbLine
 10
1020.734848523515
 20
517.50000000001
 30
0.0
 11
995.7348485235145
 21
517.50000000001
 31
0.0
  0
LINE
  5
15E
330
B8
100
AcDbEntity
  8
0
  6
CONTINUOUS
 62
     7
100
AcDbLine
 10
1028.234848523515
 20
525.50000000001
 30
0.0
 11
1028.234848523515
 21
523.50000000001
 31
0.0
  0
LINE
  5
15F
330
B8
100
AcDbEntity
  8
0
  6
CONTINUOUS
 62
     7
100
AcDbLine
 10
1028.234848523515
 20
523.50000000001
 30
0.0
 11
1022.734848523529
 21
523.50000000001
 31
0.0
  0
LINE
  5
160
330
B8
100
AcDbEntity
  8
0
  6
CONTINUOUS
 62
     7
100
AcDbLine
 10
1022.734848523529
 20
523.50000000001
 30
0.0
 11
1022.734848523529
 21
517.50000000001
 31
0.0
  0
LINE
  5
161
330
B8
100
AcDbEntity
  8
0
  6
CONTINUOUS
 62
     7
100
AcDbLine
 10
1020.734848523515
 20
523.50000000001
 30
0.0
 11
1020.734848523515
 21
517.50000000001
 31
0.0
  0
LINE
  5
162
330
B8
100
AcDbEntity
  8
0
  6
CONTINUOUS
 62
     7
100
AcDbLine
 10
1028.234848523515
 20
525.50000000001
 30
0.0
 11
1022.734848523515
 21
525.50000000001
 31
0.0
  0
ARC
  5
163
330
B8
100
AcDbEntity
  8
0
  6
CONTINUOUS
 62
     7
100
AcDbCircle
 10
1022.734848523515
 20
523.50000000001
 30
0.0
 40
2.0
100
AcDbArc
 50
90.00000000000001
 51
180.0
  0
LINE
  5
164
330
B8
100
AcDbEntity
  8
0
  6
CONTINUOUS
 62
     7
100
AcDbLine
 10
988.234848523511
 20
525.50000000001
 30
0.0
 11
988.234848523511
 21
523.50000000001
 31
0.0
  0
LINE
  5
165
330
B8
100
AcDbEntity
  8
0
  6
CONTINUOUS
 62
     7
100
AcDbLine
 10
988.234848523511
 20
523.50000000001
 30
0.0
 11
993.7348485234963
 21
523.50000000001
 31
0.0
  0
LINE
  5
166
330
B8
100
AcDbEntity
  8
0
  6
CONTINUOUS
 62
     7
100
AcDbLine
 10
993.7348485234963
 20
523.50000000001
 30
0.0
 11
993.7348485234963
 21
517.50000000001
 31
0.0
  0
LINE
  5
167
330
B8
100
AcDbEntity
  8
0
  6
CONTINUOUS
 62
     7
100
AcDbLine
 10
995.734848523511
 20
523.50000000001
 30
0.0
 11
995.734848523511
 21
517.50000000001
 31
0.0
  0
LINE
  5
168
330
B8
100
AcDbEntity
  8
0
  6
CONTINUOUS
 62
     7
100
AcDbLine
 10
988.234848523511
 20
525.50000000001
 30
0.0
 11
993.7348485235109
 21
525.50000000001
 31
0.0
  0
ARC
  5
169
330
B8
100
AcDbEntity
  8
0
  6
CONTINUOUS
 62
     7
100
AcDbCircle
 10
993.7348485235109
 20
523.50000000001
 30
0.0
 40
2.0
100
AcDbArc
 50
0.0
 51
90.00000000000001
  0
ENDBLK
  5
BA
330
B8
100
AcDbEntity
  8
0
100
AcDbBlockEnd
  0
BLOCK
  5
BC
330
BB
100
AcDbEntity
  8
0
100
AcDbBlockBegin
  2
SYM-9
 70
     0
 10
0.0
 20
0.0
 30
0.0
  3
SYM-9
  1

  0
ARC
  5
16A
330
BB
100
AcDbEntity
  8
0
  6
CONTINUOUS
 62
     7
100
AcDbCircle
 10
845.7348485234763
 20
517.50000000001
 30
0.0
 40
2.0
100
AcDbArc
 50
180.0
 51
270.0000000000002
  0
ARC
  5
16B
330
BB
100
AcDbEntity
  8
0
  6
CONTINUOUS
 62
     7
100
AcDbCircle
 10
870.7348485235091
 20
517.50000000001
 30
0.0
 40
2.0
100
AcDbArc
 50
270.0000000000002
 51
0.0
  0
LINE
  5
16C
330
BB
100
AcDbEntity
  8
0
  6
CONTINUOUS
 62
     7
100
AcDbLine
 10
845.7348485234909
 20
517.50000000001
 30
0.0
 11
870.7348485234928
 21
517.50000000001
 31
0.0
  0
LINE
  5
16D
330
BB
100
AcDbEntity
  8
0
  6
CONTINUOUS
 62
     7
100
AcDbLine
 10
838.2348485234909
 20
525.5000000000105
 30
0.0
 11
838.2348485234909
 21
523.50000000001
 31
0.0
  0
LINE
  5
16E
330
BB
100
AcDbEntity
  8
0
  6
CONTINUOUS
 62
     7
100
AcDbLine
 10
838.2348485234909
 20
523.50000000001
 30
0.0
 11
843.7348485234764
 21
523.50000000001
 31
0.0
  0
LINE
  5
16F
330
BB
100
AcDbEntity
  8
0
  6
CONTINUOUS
 62
     7
100
AcDbLine
 10
843.7348485234764
 20
523.50000000001
 30
0.0
 11
843.7348485234764
 21
517.50000000001
 31
0.0
  0
LINE
  5
170
330
BB
100
AcDbEntity
  8
0
  6
CONTINUOUS
 62
     7
100
AcDbLine
 10
845.7348485234909
 20
523.50000000001
 30
0.0
 11
845.7348485234909
 21
517.50000000001
 31
0.0
  0
LINE
  5
171
330
BB
100
AcDbEntity
  8
0
  6
CONTINUOUS
 62
     7
100
AcDbLine
 10
838.2348485234909
 20
525.5000000000105
 30
0.0
 11
843.7348485234909
 21
525.5000000000105
 31
0.0
  0
ARC
  5
172
330
BB
100
AcDbEntity
  8
0
  6
CONTINUOUS
 62
     7
100
AcDbCircle
 10
843.7348485234909
 20
523.50000000001
 30
0.0
 40
2.0
100
AcDbArc
 50
0.0
 51
90.00000000000001
  0
LINE
  5
173
330
BB
100
AcDbEntity
  8
0
  6
CONTINUOUS
 62
     7
100
AcDbLine
 10
878.2348485234945
 20
525.5000000000105
 30
0.0
 11
878.2348485234945
 21
523.50000000001
 31
0.0
  0
LINE
  5
174
330
BB
100
AcDbEntity
  8
0
  6
CONTINUOUS
 62
     7
100
AcDbLine
 10
878.2348485234945
 20
523.50000000001
 30
0.0
 11
872.7348485235109
 21
523.50000000001
 31
0.0
  0
LINE
  5
175
330
BB
100
AcDbEntity
  8
0
  6
CONTINUOUS
 62
     7
100
AcDbLine
 10
872.7348485235109
 20
523.50000000001
 30
0.0
 11
872.7348485235109
 21
517.50000000001
 31
0.0
  0
LINE
  5
176
330
BB
100
AcDbEntity
  8
0
  6
CONTINUOUS
 62
     7
100
AcDbLine
 10
870.7348485234945
 20
523.50000000001
 30
0.0
 11
870.7348485234945
 21
517.50000000001
 31
0.0
  0
LINE
  5
177
330
BB
100
AcDbEntity
  8
0
  6
CONTINUOUS
 62
     7
100
AcDbLine
 10
878.2348485234945
 20
525.5000000000105
 30
0.0
 11
872.7348485234945
 21
525.5000000000105
 31
0.0
  0
ARC
  5
178
330
BB
100
AcDbEntity
  8
0
  6
CONTINUOUS
 62
     7
100
AcDbCircle
 10
872.7348485234945
 20
523.50000000001
 30
0.0
 40
2.0
100
AcDbArc
 50
90.00000000000001
 51
180.0
  0
ENDBLK
  5
BD
330
BB
100
AcDbEntity
  8
0
100
AcDbBlockEnd
  0
BLOCK
  5
BF
330
BE
100
AcDbEntity
  8
0
100
AcDbBlockBegin
  2
SYM-10
 70
     0
 10
0.0
 20
0.0
 30
0.0
  3
SYM-10
  1

  0
ARC
  5
179
330
BE
100
AcDbEntity
  8
0
  6
CONTINUOUS
 62
     7
100
AcDbCircle
 10
1415.734848523538
 20
517.50000000001
 30
0.0
 40
2.0
100
AcDbArc
 50
270.0000000000002
 51
0.0
  0
ARC
  5
17A
330
BE
100
AcDbEntity
  8
0
  6
CONTINUOUS
 62
     7
100
AcDbCircle
 10
1390.734848523505
 20
517.50000000001
 30
0.0
 40
2.0
100
AcDbArc
 50
180.0
 51
270.0000000000002
  0
LINE
  5
17B
330
BE
100
AcDbEntity
  8
0
  6
CONTINUOUS
 62
     7
100
AcDbLine
 10
1415.734848523524
 20
517.50000000001
 30
0.0
 11
1390.734848523524
 21
517.50000000001
 31
0.0
  0
LINE
  5
17C
330
BE
100
AcDbEntity
  8
0
  6
CONTINUOUS
 62
     7
100
AcDbLine
 10
1423.234848523524
 20
525.50000000001
 30
0.0
 11
1423.234848523524
 21
523.50000000001
 31
0.0
  0
LINE
  5
17D
330
BE
100
AcDbEntity
  8
0
  6
CONTINUOUS
 62
     7
100
AcDbLine
 10
1423.234848523524
 20
523.50000000001
 30
0.0
 11
1417.734848523538
 21
523.50000000001
 31
0.0
  0
LINE
  5
17E
330
BE
100
AcDbEntity
  8
0
  6
CONTINUOUS
 62
     7
100
AcDbLine
 10
1417.734848523538
 20
523.50000000001
 30
0.0
 11
1417.734848523538
 21
517.50000000001
 31
0.0
  0
LINE
  5
17F
330
BE
100
AcDbEntity
  8
0
  6
CONTINUOUS
 62
     7
100
AcDbLine
 10
1415.734848523524
 20
523.50000000001
 30
0.0
 11
1415.734848523524
 21
517.50000000001
 31
0.0
  0
LINE
  5
180
330
BE
100
AcDbEntity
  8
0
  6
CONTINUOUS
 62
     7
100
AcDbLine
 10
1423.234848523524
 20
525.50000000001
 30
0.0
 11
1417.734848523524
 21
525.50000000001
 31
0.0
  0
ARC
  5
181
330
BE
100
AcDbEntity
  8
0
  6
CONTINUOUS
 62
     7
100
AcDbCircle
 10
1417.734848523524
 20
523.50000000001
 30
0.0
 40
2.0
100
AcDbArc
 50
90.00000000000001
 51
180.0
  0
LINE
  5
182
330
BE
100
AcDbEntity
  8
0
  6
CONTINUOUS
 62
     7
100
AcDbLine
 10
1383.23484852352
 20
525.50000000001
 30
0.0
 11
1383.23484852352
 21
523.50000000001
 31
0.0
  0
LINE
  5
183
330
BE
100
AcDbEntity
  8
0
  6
CONTINUOUS
 62
     7
100
AcDbLine
 10
1383.23484852352
 20
523.50000000001
 30
0.0
 11
1388.734848523505
 21
523.50000000001
 31
0.0
  0
LINE
  5
184
330
BE
100
AcDbEntity
  8
0
  6
CONTINUOUS
 62
     7
100
AcDbLine
 10
1388.734848523505
 20
523.50000000001
 30
0.0
 11
1388.734848523505
 21
517.50000000001
 31
0.0
  0
LINE
  5
185
330
BE
100
AcDbEntity
  8
0
  6
CONTINUOUS
 62
     7
100
AcDbLine
 10
1390.73484852352
 20
523.50000000001
 30
0.0
 11
1390.73484852352
 21
517.50000000001
 31
0.0
  0
LINE
  5
186
330
BE
100
AcDbEntity
  8
0
  6
CONTINUOUS
 62
     7
100
AcDbLine
 10
1383.23484852352
 20
525.50000000001
 30
0.0
 11
1388.73484852352
 21
525.50000000001
 31
0.0
  0
ARC
  5
187
330
BE
100
AcDbEntity
  8
0
  6
CONTINUOUS
 62
     7
100
AcDbCircle
 10
1388.73484852352
 20
523.50000000001
 30
0.0
 40
2.0
100
AcDbArc
 50
0.0
 51
90.00000000000001
  0
ENDBLK
  5
C0
330
BE
100
AcDbEntity
  8
0
100
AcDbBlockEnd
  0
BLOCK
  5
C2
330
C1
100
AcDbEntity
  8
0
100
AcDbBlockBegin
  2
SYM-11
 70
     0
 10
0.0
 20
0.0
 30
0.0
  3
SYM-11
  1

  0
ARC
  5
188
330
C1
100
AcDbEntity
  8
0
  6
CONTINUOUS
 62
     7
100
AcDbCircle
 10
1240.734848523485
 20
517.50000000001
 30
0.0
 40
2.0
100
AcDbArc
 50
180.0
 51
270.0000000000002
  0
ARC
  5
189
330
C1
100
AcDbEntity
  8
0
  6
CONTINUOUS
 62
     7
100
AcDbCircle
 10
1265.73484852352
 20
517.50000000001
 30
0.0
 40
2.0
100
AcDbArc
 50
270.0000000000002
 51
0.0
  0
LINE
  5
18A
330
C1
100
AcDbEntity
  8
0
  6
CONTINUOUS
 62
     7
100
AcDbLine
 10
1240.734848523502
 20
517.50000000001
 30
0.0
 11
1265.734848523502
 21
517.50000000001
 31
0.0
  0
LINE
  5
18B
330
C1
100
AcDbEntity
  8
0
  6
CONTINUOUS
 62
     7
100
AcDbLine
 10
1233.234848523502
 20
525.5000000000105
 30
0.0
 11
1233.234848523502
 21
523.50000000001
 31
0.0
  0
LINE
  5
18C
330
C1
100
AcDbEntity
  8
0
  6
CONTINUOUS
 62
     7
100
AcDbLine
 10
1233.234848523502
 20
523.50000000001
 30
0.0
 11
1238.734848523485
 21
523.50000000001
 31
0.0
  0
LINE
  5
18D
330
C1
100
AcDbEntity
  8
0
  6
CONTINUOUS
 62
     7
100
AcDbLine
 10
1238.734848523485
 20
523.50000000001
 30
0.0
 11
1238.734848523485
 21
517.50000000001
 31
0.0
  0
LINE
  5
18E
330
C1
100
AcDbEntity
  8
0
  6
CONTINUOUS
 62
     7
100
AcDbLine
 10
1240.734848523502
 20
523.50000000001
 30
0.0
 11
1240.734848523502
 21
517.50000000001
 31
0.0
  0
LINE
  5
18F
330
C1
100
AcDbEntity
  8
0
  6
CONTINUOUS
 62
     7
100
AcDbLine
 10
1233.234848523502
 20
525.5000000000105
 30
0.0
 11
1238.734848523502
 21
525.5000000000105
 31
0.0
  0
ARC
  5
190
330
C1
100
AcDbEntity
  8
0
  6
CONTINUOUS
 62
     7
100
AcDbCircle
 10
1238.734848523502
 20
523.50000000001
 30
0.0
 40
2.0
100
AcDbArc
 50
0.0
 51
90.00000000000001
  0
LINE
  5
191
330
C1
100
AcDbEntity
  8
0
  6
CONTINUOUS
 62
     7
100
AcDbLine
 10
1273.234848523505
 20
525.5000000000105
 30
0.0
 11
1273.234848523505
 21
523.50000000001
 31
0.0
  0
LINE
  5
192
330
C1
100
AcDbEntity
  8
0
  6
CONTINUOUS
 62
     7
100
AcDbLine
 10
1273.234848523505
 20
523.50000000001
 30
0.0
 11
1267.73484852352
 21
523.50000000001
 31
0.0
  0
LINE
  5
193
330
C1
100
AcDbEntity
  8
0
  6
CONTINUOUS
 62
     7
100
AcDbLine
 10
1267.73484852352
 20
523.50000000001
 30
0.0
 11
1267.73484852352
 21
517.50000000001
 31
0.0
  0
LINE
  5
194
330
C1
100
AcDbEntity
  8
0
  6
CONTINUOUS
 62
     7
100
AcDbLine
 10
1265.734848523505
 20
523.50000000001
 30
0.0
 11
1265.734848523505
 21
517.50000000001
 31
0.0
  0
LINE
  5
195
330
C1
100
AcDbEntity
  8
0
  6
CONTINUOUS
 62
     7
100
AcDbLine
 10
1273.234848523505
 20
525.5000000000105
 30
0.0
 11
1267.734848523504
 21
525.5000000000105
 31
0.0
  0
ARC
  5
196
330
C1
100
AcDbEntity
  8
0
  6
CONTINUOUS
 62
     7
100
AcDbCircle
 10
1267.734848523504
 20
523.50000000001
 30
0.0
 40
2.0
100
AcDbArc
 50
90.00000000000001
 51
180.0
  0
ENDBLK
  5
C3
330
C1
100
AcDbEntity
  8
0
100
AcDbBlockEnd
  0
BLOCK
  5
C5
330
C4
100
AcDbEntity
  8
0
100
AcDbBlockBegin
  2
SYM-12
 70
     0
 10
0.0
 20
0.0
 30
0.0
  3
SYM-12
  1

  0
ARC
  5
197
330
C4
100
AcDbEntity
  8
0
  6
CONTINUOUS
 62
     7
100
AcDbCircle
 10
1810.734848523438
 20
517.50000000001
 30
0.0
 40
2.0
100
AcDbArc
 50
270.0000000000002
 51
0.0
  0
ARC
  5
198
330
C4
100
AcDbEntity
  8
0
  6
CONTINUOUS
 62
     7
100
AcDbCircle
 10
1785.734848523405
 20
517.50000000001
 30
0.0
 40
2.0
100
AcDbArc
 50
180.0
 51
270.0000000000002
  0
LINE
  5
199
330
C4
100
AcDbEntity
  8
0
  6
CONTINUOUS
 62
     7
100
AcDbLine
 10
1810.734848523424
 20
517.50000000001
 30
0.0
 11
1785.734848523424
 21
517.50000000001
 31
0.0
  0
LINE
  5
19A
330
C4
100
AcDbEntity
  8
0
  6
CONTINUOUS
 62
     7
100
AcDbLine
 10
1818.234848523424
 20
525.50000000001
 30
0.0
 11
1818.234848523424
 21
523.50000000001
 31
0.0
  0
LINE
  5
19B
330
C4
100
AcDbEntity
  8
0
  6
CONTINUOUS
 62
     7
100
AcDbLine
 10
1818.234848523424
 20
523.50000000001
 30
0.0
 11
1812.734848523438
 21
523.50000000001
 31
0.0
  0
LINE
  5
19C
330
C4
100
AcDbEntity
  8
0
  6
CONTINUOUS
 62
     7
100
AcDbLine
 10
1812.734848523438
 20
523.50000000001
 30
0.0
 11
1812.734848523438
 21
517.50000000001
 31
0.0
  0
LINE
  5
19D
330
C4
100
AcDbEntity
  8
0
  6
CONTINUOUS
 62
     7
100
AcDbLine
 10
1810.734848523424
 20
523.50000000001
 30
0.0
 11
1810.734848523424
 21
517.50000000001
 31
0.0
  0
LINE
  5
19E
330
C4
100
AcDbEntity
  8
0
  6
CONTINUOUS
 62
     7
100
AcDbLine
 10
1818.234848523424
 20
525.50000000001
 30
0.0
 11
1812.734848523424
 21
525.50000000001
 31
0.0
  0
ARC
  5
19F
330
C4
100
AcDbEntity
  8
0
  6
CONTINUOUS
 62
     7
100
AcDbCircle
 10
1812.734848523424
 20
523.50000000001
 30
0.0
 40
2.0
100
AcDbArc
 50
90.00000000000001
 51
180.0
  0
LINE
  5
1A0
330
C4
100
AcDbEntity
  8
0
  6
CONTINUOUS
 62
     7
100
AcDbLine
 10
1778.23484852342
 20
525.50000000001
 30
0.0
 11
1778.23484852342
 21
523.50000000001
 31
0.0
  0
LINE
  5
1A1
330
C4
100
AcDbEntity
  8
0
  6
CONTINUOUS
 62
     7
100
AcDbLine
 10
1778.23484852342
 20
523.50000000001
 30
0.0
 11
1783.734848523405
 21
523.50000000001
 31
0.0
  0
LINE
  5
1A2
330
C4
100
AcDbEntity
  8
0
  6
CONTINUOUS
 62
     7
100
AcDbLine
 10
1783.734848523405
 20
523.50000000001
 30
0.0
 11
1783.734848523405
 21
517.50000000001
 31
0.0
  0
LINE
  5
1A3
330
C4
100
AcDbEntity
  8
0
  6
CONTINUOUS
 62
     7
100
AcDbLine
 10
1785.73484852342
 20
523.50000000001
 30
0.0
 11
1785.73484852342
 21
517.50000000001
 31
0.0
  0
LINE
  5
1A4
330
C4
100
AcDbEntity
  8
0
  6
CONTINUOUS
 62
     7
100
AcDbLine
 10
1778.23484852342
 20
525.50000000001
 30
0.0
 11
1783.73484852342
 21
525.50000000001
 31
0.0
  0
ARC
  5
1A5
330
C4
100
AcDbEntity
  8
0
  6
CONTINUOUS
 62
     7
100
AcDbCircle
 10
1783.73484852342
 20
523.50000000001
 30
0.0
 40
2.0
100
AcDbArc
 50
0.0
 51
90.00000000000001
  0
ENDBLK
  5
C6
330
C4
100
AcDbEntity
  8
0
100
AcDbBlockEnd
  0
BLOCK
  5
C8
330
C7
100
AcDbEntity
  8
0
100
AcDbBlockBegin
  2
SYM-13
 70
     0
 10
0.0
 20
0.0
 30
0.0
  3
SYM-13
  1

  0
ARC
  5
1A6
330
C7
100
AcDbEntity
  8
0
  6
CONTINUOUS
 62
     7
100
AcDbCircle
 10
1635.734848523385
 20
517.50000000001
 30
0.0
 40
2.0
100
AcDbArc
 50
180.0
 51
270.0000000000002
  0
ARC
  5
1A7
330
C7
100
AcDbEntity
  8
0
  6
CONTINUOUS
 62
     7
100
AcDbCircle
 10
1660.73484852342
 20
517.50000000001
 30
0.0
 40
2.0
100
AcDbArc
 50
270.0000000000002
 51
0.0
  0
LINE
  5
1A8
330
C7
100
AcDbEntity
  8
0
  6
CONTINUOUS
 62
     7
100
AcDbLine
 10
1635.734848523402
 20
517.50000000001
 30
0.0
 11
1660.734848523402
 21
517.50000000001
 31
0.0
  0
LINE
  5
1A9
330
C7
100
AcDbEntity
  8
0
  6
CONTINUOUS
 62
     7
100
AcDbLine
 10
1628.234848523402
 20
525.5000000000105
 30
0.0
 11
1628.234848523402
 21
523.50000000001
 31
0.0
  0
LINE
  5
1AA
330
C7
100
AcDbEntity
  8
0
  6
CONTINUOUS
 62
     7
100
AcDbLine
 10
1628.234848523402
 20
523.50000000001
 30
0.0
 11
1633.734848523387
 21
523.50000000001
 31
0.0
  0
LINE
  5
1AB
330
C7
100
AcDbEntity
  8
0
  6
CONTINUOUS
 62
     7
100
AcDbLine
 10
1633.734848523387
 20
523.50000000001
 30
0.0
 11
1633.734848523387
 21
517.50000000001
 31
0.0
  0
LINE
  5
1AC
330
C7
100
AcDbEntity
  8
0
  6
CONTINUOUS
 62
     7
100
AcDbLine
 10
1635.734848523402
 20
523.50000000001
 30
0.0
 11
1635.734848523402
 21
517.50000000001
 31
0.0
  0
LINE
  5
1AD
330
C7
100
AcDbEntity
  8
0
  6
CONTINUOUS
 62
     7
100
AcDbLine
 10
1628.234848523402
 20
525.5000000000105
 30
0.0
 11
1633.734848523402
 21
525.5000000000105
 31
0.0
  0
ARC
  5
1AE
330
C7
100
AcDbEntity
  8
0
  6
CONTINUOUS
 62
     7
100
AcDbCircle
 10
1633.734848523402
 20
523.50000000001
 30
0.0
 40
2.0
100
AcDbArc
 50
0.0
 51
90.00000000000001
  0
LINE
  5
1AF
330
C7
100
AcDbEntity
  8
0
  6
CONTINUOUS
 62
     7
100
AcDbLine
 10
1668.234848523405
 20
525.5000000000105
 30
0.0
 11
1668.234848523405
 21
523.50000000001
 31
0.0
  0
LINE
  5
1B0
330
C7
100
AcDbEntity
  8
0
  6
CONTINUOUS
 62
     7
100
AcDbLine
 10
1668.234848523405
 20
523.50000000001
 30
0.0
 11
1662.73484852342
 21
523.50000000001
 31
0.0
  0
LINE
  5
1B1
330
C7
100
AcDbEntity
  8
0
  6
CONTINUOUS
 62
     7
100
AcDbLine
 10
1662.73484852342
 20
523.50000000001
 30
0.0
 11
1662.73484852342
 21
517.50000000001
 31
0.0
  0
LINE
  5
1B2
330
C7
100
AcDbEntity
  8
0
  6
CONTINUOUS
 62
     7
100
AcDbLine
 10
1660.734848523405
 20
523.50000000001
 30
0.0
 11
1660.734848523405
 21
517.50000000001
 31
0.0
  0
LINE
  5
1B3
330
C7
100
AcDbEntity
  8
0
  6
CONTINUOUS
 62
     7
100
AcDbLine
 10
1668.234848523405
 20
525.5000000000105
 30
0.0
 11
1662.734848523405
 21
525.5000000000105
 31
0.0
  0
ARC
  5
1B4
330
C7
100
AcDbEntity
  8
0
  6
CONTINUOUS
 62
     7
100
AcDbCircle
 10
1662.734848523405
 20
523.50000000001
 30
0.0
 40
2.0
100
AcDbArc
 50
90.00000000000001
 51
180.0
  0
ENDBLK
  5
C9
330
C7
100
AcDbEntity
  8
0
100
AcDbBlockEnd
  0
BLOCK
  5
CB
330
CA
100
AcDbEntity
  8
0
100
AcDbBlockBegin
  2
SYM-14
 70
     0
 10
0.0
 20
0.0
 30
0.0
  3
SYM-14
  1

  0
LINE
  5
1B5
330
CA
100
AcDbEntity
  8
0
  6
CONTINUOUS
 62
     7
100
AcDbLine
 10
2346.134848523474
 20
1001.00000000001
 30
0.0
 11
2346.134848523474
 21
986.0000000000095
 31
0.0
  0
ARC
  5
1B6
330
CA
100
AcDbEntity
  8
0
  6
CONTINUOUS
 62
     7
100
AcDbCircle
 10
2349.978883155512
 20
986.0000000000095
 30
0.0
 40
3.844034632034633
100
AcDbArc
 50
139.4313750266313
 51
220.5686249733714
  0
ARC
  5
1B7
330
CA
100
AcDbEntity
  8
0
  6
CONTINUOUS
 62
     7
100
AcDbCircle
 10
2360.124987051613
 20
993.5000000000095
 30
0.0
 40
13.99013852813853
100
AcDbArc
 50
159.0597243938583
 51
200.9402756061408
  0
ARC
  5
1B8
330
CA
100
AcDbEntity
  8
0
  6
CONTINUOUS
 62
     7
100
AcDbCircle
 10
2349.978883155512
 20
1001.00000000001
 30
0.0
 40
3.844034632034633
100
AcDbArc
 50
139.4313750266288
 51
220.5686249733687
  0
LINE
  5
1B9
330
CA
100
AcDbEntity
  8
0
  6
CONTINUOUS
 62
     7
100
AcDbLine
 10
2354.534848523475
 20
983.5000000000095
 30
0.0
 11
2347.058848523475
 21
983.5000000000095
 31
0.0
  0
LINE
  5
1BA
330
CA
100
AcDbEntity
  8
0
  6
CONTINUOUS
 62
     7
100
AcDbLine
 10
2354.534848523475
 20
1003.50000000001
 30
0.0
 11
2347.058848523475
 21
1003.50000000001
 31
0.0
  0
LINE
  5
1BB
330
CA
100
AcDbEntity
  8
0
  6
CONTINUOUS
 62
     7
100
AcDbLine
 10
2346.134848523474
 20
988.5000000000105
 30
0.0
 11
2340.934848523475
 21
988.5000000000105
 31
0.0
  0
LINE
  5
1BC
330
CA
100
AcDbEntity
  8
0
  6
CONTINUOUS
 62
     7
100
AcDbLine
 10
2346.134848523474
 20
998.5000000000095
 30
0.0
 11
2340.934848523475
 21
998.5000000000095
 31
0.0
  0
LINE
  5
1BD
330
CA
100
AcDbEntity
  8
0
  6
CONTINUOUS
 62
     7
100
AcDbLine
 10
2339.934848523475
 20
989.5000000000095
 30
0.0
 11
2339.934848523475
 21
997.5000000000097
 31
0.0
  0
LINE
  5
1BE
330
CA
100
AcDbEntity
  8
0
  6
CONTINUOUS
 62
     7
100
AcDbLine
 10
2340.934848523475
 20
998.5000000000095
 30
0.0
 11
2339.934848523475
 21
997.5000000000097
 31
0.0
  0
LINE
  5
1BF
330
CA
100
AcDbEntity
  8
0
  6
CONTINUOUS
 62
     7
100
AcDbLine
 10
2340.934848523475
 20
988.5000000000105
 30
0.0
 11
2339.934848523475
 21
989.5000000000095
 31
0.0
  0
LINE
  5
1C0
330
CA
100
AcDbEntity
  8
0
  6
CONTINUOUS
 62
     7
100
AcDbLine
 10
2375.630848523475
 20
998.5000000000095
 30
0.0
 11
2347.058848523475
 21
998.5000000000095
 31
0.0
  0
LINE
  5
1C1
330
CA
100
AcDbEntity
  8
0
  6
CONTINUOUS
 62
     7
100
AcDbLine
 10
2375.630848523475
 20
988.5000000000105
 30
0.0
 11
2347.058848523475
 21
988.5000000000105
 31
0.0
  0
LINE
  5
1C2
330
CA
100
AcDbEntity
  8
0
  6
CONTINUOUS
 62
     7
100
AcDbLine
 10
2364.934848523475
 20
998.5000000000095
 30
0.0
 11
2364.934848523475
 21
988.5000000000105
 31
0.0
  0
ARC
  5
1C3
330
CA
100
AcDbEntity
  8
0
  6
CONTINUOUS
 62
     7
100
AcDbCircle
 10
2371.543928068932
 20
1001.00000000001
 30
0.0
 40
4.790920454545454
100
AcDbArc
 50
328.5455606612239
 51
31.45443933877633
  0
ARC
  5
1C4
330
CA
100
AcDbEntity
  8
0
  6
CONTINUOUS
 62
     7
100
AcDbCircle
 10
2358.227166705292
 20
993.5000000000095
 30
0.0
 40
18.10768181818181
100
AcDbArc
 50
343.9708781133889
 51
16.02912188661214
  0
LINE
  5
1C5
330
CA
100
AcDbEntity
  8
0
  6
CONTINUOUS
 62
     7
100
AcDbLine
 10
2376.334848523475
 20
986.0000000000105
 30
0.0
 11
2376.334848523475
 21
1001.00000000001
 31
0.0
  0
ARC
  5
1C6
330
CA
100
AcDbEntity
  8
0
  6
CONTINUOUS
 62
     7
100
AcDbCircle
 10
2371.543928068932
 20
986.0000000000105
 30
0.0
 40
4.790920454545454
100
AcDbArc
 50
328.5455606612213
 51
31.45443933877633
  0
LINE
  5
1C7
330
CA
100
AcDbEntity
  8
0
  6
CONTINUOUS
 62
     7
100
AcDbLine
 10
2369.934848523475
 20
983.5000000000095
 30
0.0
 11
2375.630848523475
 21
983.5000000000095
 31
0.0
  0
LINE
  5
1C8
330
CA
100
AcDbEntity
  8
0
  6
CONTINUOUS
 62
     7
100
AcDbLine
 10
2369.934848523475
 20
982.0857864376381
 30
0.0
 11
2370.391730142044
 21
981.6289048190688
 31
0.0
  0
LINE
  5
1C9
330
CA
100
AcDbEntity
  8
0
  6
CONTINUOUS
 62
     7
100
AcDbLine
 10
2369.93484852347
 20
982.7928932188303
 30
0.0
 11
2370.740691930154
 21
981.9870498121431
 31
0.0
  0
LINE
  5
1CA
330
CA
100
AcDbEntity
  8
0
  6
CONTINUOUS
 62
     7
100
AcDbLine
 10
2369.934848523462
 20
983.5000000000232
 30
0.0
 11
2371.08965371828
 21
982.3451948052084
 31
0.0
  0
LINE
  5
1CB
330
CA
100
AcDbEntity
  8
0
  6
CONTINUOUS
 62
     7
100
AcDbLine
 10
2370.641955304654
 20
983.5000000000164
 30
0.0
 11
2371.438615506398
 21
982.7033397982723
 31
0.0
  0
LINE
  5
1CC
330
CA
100
AcDbEntity
  8
0
  6
CONTINUOUS
 62
     7
100
AcDbLine
 10
2371.349062085848
 20
983.5000000000095
 30
0.0
 11
2371.78757729451
 21
983.061484791348
 31
0.0
  0
LINE
  5
1CD
330
CA
100
AcDbEntity
  8
0
  6
CONTINUOUS
 62
     7
100
AcDbLine
 10
2372.05616886703
 20
983.500000000015
 30
0.0
 11
2372.136539082634
 21
983.4196297844125
 31
0.0
  0
LINE
  5
1CE
330
CA
100
AcDbEntity
  8
0
  6
CONTINUOUS
 62
     7
100
AcDbLine
 10
2369.934848523477
 20
981.1600000000103
 30
0.0
 11
2372.214848523476
 21
983.5000000000095
 31
0.0
  0
LINE
  5
1CF
330
CA
100
AcDbEntity
  8
0
  6
CONTINUOUS
 62
     7
100
AcDbLine
 10
2369.934848523471
 20
981.3786796564559
 30
0.0
 11
2370.042768353922
 21
981.2707598260045
 31
0.0
  0
LINE
  5
1D0
330
CA
100
AcDbEntity
  8
0
  6
CONTINUOUS
 62
     7
100
AcDbLine
 10
2372.056168867024
 20
1003.499999999999
 30
0.0
 11
2372.164088697476
 21
1003.607919830451
 31
0.0
  0
LINE
  5
1D1
330
CA
100
AcDbEntity
  8
0
  6
CONTINUOUS
 62
     7
100
AcDbLine
 10
2371.349062085841
 20
1003.500000000004
 30
0.0
 11
2371.80594370441
 21
1003.956881618572
 31
0.0
  0
LINE
  5
1D2
330
CA
100
AcDbEntity
  8
0
  6
CONTINUOUS
 62
     7
100
AcDbLine
 10
2370.641955304649
 20
1003.499999999997
 30
0.0
 11
2371.447798711333
 21
1004.305843406683
 31
0.0
  0
LINE
  5
1D3
330
CA
100
AcDbEntity
  8
0
  6
CONTINUOUS
 62
     7
100
AcDbLine
 10
2369.934848523457
 20
1003.499999999991
 30
0.0
 11
2371.089653718273
 21
1004.654805194805
 31
0.0
  0
LINE
  5
1D4
330
CA
100
AcDbEntity
  8
0
  6
CONTINUOUS
 62
     7
100
AcDbLine
 10
2369.934848523475
 20
1004.207106781196
 30
0.0
 11
2370.731508725206
 21
1005.003766982928
 31
0.0
  0
LINE
  5
1D5
330
CA
100
AcDbEntity
  8
0
  6
CONTINUOUS
 62
     7
100
AcDbLine
 10
2369.93484852348
 20
1004.914213562388
 30
0.0
 11
2370.373363732131
 21
1005.352728771039
 31
0.0
  0
LINE
  5
1D6
330
CA
100
AcDbEntity
  8
0
  6
CONTINUOUS
 62
     7
100
AcDbLine
 10
2369.934848523488
 20
1005.621320343581
 30
0.0
 11
2370.015218739069
 21
1005.701690559161
 31
0.0
  0
LINE
  5
1D7
330
CA
100
AcDbEntity
  8
0
  6
CONTINUOUS
 62
     7
100
AcDbLine
 10
2372.274848523473
 20
1003.500000000012
 30
0.0
 11
2369.934848523475
 21
1005.780000000011
 31
0.0
  0
LINE
  5
1D8
330
CA
100
AcDbEntity
  8
0
  6
CONTINUOUS
 62
     7
100
AcDbLine
 10
2369.934848523475
 20
1003.50000000001
 30
0.0
 11
2375.630848523475
 21
1003.50000000001
 31
0.0
  0
LINE
  5
1D9
330
CA
100
AcDbEntity
  8
0
  6
CONTINUOUS
 62
     7
100
AcDbLine
 10
2339.934848523475
 20
997.5000000000097
 30
0.0
 11
2346.134848523474
 21
997.5000000000097
 31
0.0
  0
LINE
  5
1DA
330
CA
100
AcDbEntity
  8
0
  6
CONTINUOUS
 62
     7
100
AcDbLine
 10
2340.934848523475
 20
988.5000000000105
 30
0.0
 11
2340.934848523475
 21
998.5000000000095
 31
0.0
  0
LINE
  5
1DB
330
CA
100
AcDbEntity
  8
0
  6
CONTINUOUS
 62
     7
100
AcDbLine
 10
2339.934848523475
 20
989.5000000000095
 30
0.0
 11
2346.134848523474
 21
989.5000000000095
 31
0.0
  0
LINE
  5
1DC
330
CA
100
AcDbEntity
  8
0
  6
CONTINUOUS
 62
     7
100
AcDbLine
 10
2354.534848523475
 20
989.5000000000095
 30
0.0
 11
2364.934848523475
 21
989.5000000000095
 31
0.0
  0
LINE
  5
1DD
330
CA
100
AcDbEntity
  8
0
  6
CONTINUOUS
 62
     7
100
AcDbLine
 10
2354.534848523475
 20
997.5000000000097
 30
0.0
 11
2364.934848523475
 21
997.5000000000097
 31
0.0
  0
LINE
  5
1DE
330
CA
100
AcDbEntity
  8
0
  6
CONTINUOUS
 62
     7
100
AcDbLine
 10
2364.934848523475
 20
997.5000000000097
 30
0.0
 11
2365.934848523479
 21
998.5000000000095
 31
0.0
  0
LINE
  5
1DF
330
CA
100
AcDbEntity
  8
0
  6
CONTINUOUS
 62
     7
100
AcDbLine
 10
2364.934848523475
 20
989.5000000000095
 30
0.0
 11
2365.934848523479
 21
988.5000000000105
 31
0.0
  0
ENDBLK
  5
CC
330
CA
100
AcDbEntity
  8
0
100
AcDbBlockEnd
  0
BLOCK
  5
CE
330
CD
100
AcDbEntity
  8
0
100
AcDbBlockBegin
  2
SYM-15
 70
     0
 10
0.0
 20
0.0
 30
0.0
  3
SYM-15
  1

  0
ELLIPSE
  5
1E0
330
CD
100
AcDbEntity
  8
0
  6
CONTINUOUS
 62
     7
100
AcDbEllipse
 10
2362.218181856777
 20
1009.580000000011
 30
0.0
 11
-2.224197421612835E-15
 21
5.809475019310011
 31
0.0
210
0.0
220
0.0
230
1.0
 40
0.774596669241632
 41
0.0
 42
6.283185307179586
  0
LINE
  5
1E1
330
CD
100
AcDbEntity
  8
0
  6
CONTINUOUS
 62
     7
100
AcDbLine
 10
2361.030939763075
 20
1015.18363813531
 30
0.0
 11
2358.312263778778
 21
1012.46496215101
 31
0.0
  0
LINE
  5
1E2
330
CD
100
AcDbEntity
  8
0
  6
CONTINUOUS
 62
     7
100
AcDbLine
 10
2362.626969979376
 20
1015.365454789211
 30
0.0
 11
2357.776893734175
 21
1010.51537854411
 31
0.0
  0
LINE
  5
1E3
330
CD
100
AcDbEntity
  8
0
  6
CONTINUOUS
 62
     7
100
AcDbLine
 10
2363.728312678977
 20
1015.052583926511
 30
0.0
 11
2357.736211206278
 21
1009.060482453811
 31
0.0
  0
LINE
  5
1E4
330
CD
100
AcDbEntity
  8
0
  6
CONTINUOUS
 62
     7
100
AcDbLine
 10
2366.607477263577
 20
1010.86068069921
 30
0.0
 11
2360.160347480676
 21
1004.413550916311
 31
0.0
  0
LINE
  5
1E5
330
CD
100
AcDbEntity
  8
0
  6
CONTINUOUS
 62
     7
100
AcDbLine
 10
2366.718147008476
 20
1009.55713688181
 30
0.0
 11
2361.110337907476
 21
1003.949327780811
 31
0.0
  0
LINE
  5
1E6
330
CD
100
AcDbEntity
  8
0
  6
CONTINUOUS
 62
     7
100
AcDbLine
 10
2366.540972039975
 20
1007.96574835091
 30
0.0
 11
2362.348173047776
 21
1003.772949358711
 31
0.0
  0
LINE
  5
1E7
330
CD
100
AcDbEntity
  8
0
  6
CONTINUOUS
 62
     7
100
AcDbLine
 10
2364.599406397642
 20
1014.509464082778
 30
0.0
 11
2357.925777659477
 21
1007.835835344611
 31
0.0
  0
LINE
  5
1E8
330
CD
100
AcDbEntity
  8
0
  6
CONTINUOUS
 62
     7
100
AcDbLine
 10
2365.307867384552
 20
1013.80371150757
 30
0.0
 11
2358.277976844278
 21
1006.77382096701
 31
0.0
  0
LINE
  5
1E9
330
CD
100
AcDbEntity
  8
0
  6
CONTINUOUS
 62
     7
100
AcDbLine
 10
2365.878227639273
 20
1012.959858199706
 30
0.0
 11
2358.768276761375
 21
1005.84990732181
 31
0.0
  0
LINE
  5
1EA
330
CD
100
AcDbEntity
  8
0
  6
CONTINUOUS
 62
     7
100
AcDbLine
 10
2366.315281361887
 20
1011.982698359919
 30
0.0
 11
2359.391883210576
 21
1005.05930020861
 31
0.0
  0
ENDBLK
  5
CF
330
CD
100
AcDbEntity
  8
0
100
AcDbBlockEnd
  0
BLOCK
  5
D1
330
D0
100
AcDbEntity
  8
0
100
AcDbBlockBegin
  2
SYM-16
 70
     0
 10
0.0
 20
0.0
 30
0.0
  3
SYM-16
  1

  0
LINE
  5
1EB
330
D0
100
AcDbEntity
  8
0
  6
CONTINUOUS
 62
     7
100
AcDbLine
 10
2340.934848523475
 20
2538.50000000001
 30
0.0
 11
2339.934848523475
 21
2539.500000000012
 31
0.0
  0
LINE
  5
1EC
330
D0
100
AcDbEntity
  8
0
  6
CONTINUOUS
 62
     7
100
AcDbLine
 10
2340.934848523475
 20
2548.500000000011
 30
0.0
 11
2339.934848523475
 21
2547.500000000012
 31
0.0
  0
LINE
  5
1ED
330
D0
100
AcDbEntity
  8
0
  6
CONTINUOUS
 62
     7
100
AcDbLine
 10
2339.934848523475
 20
2539.500000000012
 30
0.0
 11
2339.934848523475
 21
2547.500000000012
 31
0.0
  0
LINE
  5
1EE
330
D0
100
AcDbEntity
  8
0
  6
CONTINUOUS
 62
     7
100
AcDbLine
 10
2344.134848523476
 20
2548.500000000011
 30
0.0
 11
2340.934848523475
 21
2548.500000000011
 31
0.0
  0
LINE
  5
1EF
330
D0
100
AcDbEntity
  8
0
  6
CONTINUOUS
 62
     7
100
AcDbLine
 10
2344.134848523476
 20
2538.50000000001
 30
0.0
 11
2340.934848523475
 21
2538.50000000001
 31
0.0
  0
LINE
  5
1F0
330
D0
100
AcDbEntity
  8
0
  6
CONTINUOUS
 62
     7
100
AcDbLine
 10
2352.534848523477
 20
2548.500000000011
 30
0.0
 11
2345.058848523477
 21
2548.500000000011
 31
0.0
  0
LINE
  5
1F1
330
D0
100
AcDbEntity
  8
0
  6
CONTINUOUS
 62
     7
100
AcDbLine
 10
2352.534848523477
 20
2538.50000000001
 30
0.0
 11
2345.058848523477
 21
2538.50000000001
 31
0.0
  0
LINE
  5
1F2
330
D0
100
AcDbEntity
  8
0
  6
CONTINUOUS
 62
     7
100
AcDbLine
 10
2352.534848523477
 20
2553.50000000001
 30
0.0
 11
2345.058848523477
 21
2553.50000000001
 31
0.0
  0
LINE
  5
1F3
330
D0
100
AcDbEntity
  8
0
  6
CONTINUOUS
 62
     7
100
AcDbLine
 10
2352.534848523477
 20
2533.500000000011
 30
0.0
 11
2345.058848523477
 21
2533.500000000011
 31
0.0
  0
ARC
  5
1F4
330
D0
100
AcDbEntity
  8
0
  6
CONTINUOUS
 62
     7
100
AcDbCircle
 10
2347.978883155511
 20
2551.000000000011
 30
0.0
 40
3.844034632034633
100
AcDbArc
 50
139.4313750265994
 51
220.5686249734146
  0
ARC
  5
1F5
330
D0
100
AcDbEntity
  8
0
  6
CONTINUOUS
 62
     7
100
AcDbCircle
 10
2358.124987051615
 20
2543.500000000011
 30
0.0
 40
13.99013852813853
100
AcDbArc
 50
159.0597243938601
 51
200.9402756061523
  0
ARC
  5
1F6
330
D0
100
AcDbEntity
  8
0
  6
CONTINUOUS
 62
     7
100
AcDbCircle
 10
2347.978883155511
 20
2536.000000000011
 30
0.0
 40
3.844034632034633
100
AcDbArc
 50
139.4313750265994
 51
220.5686249734146
  0
LINE
  5
1F7
330
D0
100
AcDbEntity
  8
0
  6
CONTINUOUS
 62
     7
100
AcDbLine
 10
2344.134848523476
 20
2551.000000000011
 30
0.0
 11
2344.134848523476
 21
2536.000000000011
 31
0.0
  0
LINE
  5
1F8
330
D0
100
AcDbEntity
  8
0
  6
CONTINUOUS
 62
     7
100
AcDbLine
 10
2352.534848523477
 20
2533.000000000011
 30
0.0
 11
2352.534848523477
 21
2554.000000000011
 31
0.0
  0
LINE
  5
1F9
330
D0
100
AcDbEntity
  8
0
  6
CONTINUOUS
 62
     7
100
AcDbLine
 10
2352.534848523477
 20
2554.000000000011
 30
0.0
 11
2354.534848523475
 21
2554.000000000011
 31
0.0
  0
LINE
  5
1FA
330
D0
100
AcDbEntity
  8
0
  6
CONTINUOUS
 62
     7
100
AcDbLine
 10
2352.534848523477
 20
2533.000000000011
 30
0.0
 11
2354.534848523475
 21
2533.000000000011
 31
0.0
  0
LINE
  5
1FB
330
D0
100
AcDbEntity
  8
0
  6
CONTINUOUS
 62
     7
100
AcDbLine
 10
2375.630848523475
 20
2538.50000000001
 30
0.0
 11
2354.534848523475
 21
2538.50000000001
 31
0.0
  0
LINE
  5
1FC
330
D0
100
AcDbEntity
  8
0
  6
CONTINUOUS
 62
     7
100
AcDbLine
 10
2375.630848523475
 20
2548.500000000011
 30
0.0
 11
2354.534848523475
 21
2548.500000000011
 31
0.0
  0
LINE
  5
1FD
330
D0
100
AcDbEntity
  8
0
  6
CONTINUOUS
 62
     7
100
AcDbLine
 10
2364.934848523475
 20
2548.500000000011
 30
0.0
 11
2364.934848523475
 21
2538.50000000001
 31
0.0
  0
LINE
  5
1FE
330
D0
100
AcDbEntity
  8
0
  6
CONTINUOUS
 62
     7
100
AcDbLine
 10
2372.274848523473
 20
2553.500000000013
 30
0.0
 11
2369.934848523475
 21
2555.780000000012
 31
0.0
  0
LINE
  5
1FF
330
D0
100
AcDbEntity
  8
0
  6
CONTINUOUS
 62
     7
100
AcDbLine
 10
2369.934848523482
 20
2555.621320343579
 30
0.0
 11
2370.015218739063
 21
2555.701690559159
 31
0.0
  0
LINE
  5
200
330
D0
100
AcDbEntity
  8
0
  6
CONTINUOUS
 62
     7
100
AcDbLine
 10
2369.934848523477
 20
2554.914213562387
 30
0.0
 11
2370.37336373214
 21
2555.352728771047
 31
0.0
  0
LINE
  5
201
330
D0
100
AcDbEntity
  8
0
  6
CONTINUOUS
 62
     7
100
AcDbLine
 10
2369.934848523482
 20
2554.207106781205
 30
0.0
 11
2370.731508725206
 21
2555.003766982926
 31
0.0
  0
LINE
  5
202
330
D0
100
AcDbEntity
  8
0
  6
CONTINUOUS
 62
     7
100
AcDbLine
 10
2369.934848523464
 20
2553.5
 30
0.0
 11
2371.089653718267
 21
2554.654805194802
 31
0.0
  0
LINE
  5
203
330
D0
100
AcDbEntity
  8
0
  6
CONTINUOUS
 62
     7
100
AcDbLine
 10
2370.641955304645
 20
2553.499999999995
 30
0.0
 11
2371.447798711342
 21
2554.305843406691
 31
0.0
  0
LINE
  5
204
330
D0
100
AcDbEntity
  8
0
  6
CONTINUOUS
 62
     7
100
AcDbLine
 10
2371.349062085837
 20
2553.5
 30
0.0
 11
2371.805943704407
 21
2553.95688161857
 31
0.0
  0
LINE
  5
205
330
D0
100
AcDbEntity
  8
0
  6
CONTINUOUS
 62
     7
100
AcDbLine
 10
2372.056168867033
 20
2553.500000000007
 30
0.0
 11
2372.164088697473
 21
2553.607919830448
 31
0.0
  0
LINE
  5
206
330
D0
100
AcDbEntity
  8
0
  6
CONTINUOUS
 62
     7
100
AcDbLine
 10
2369.934848523475
 20
2553.50000000001
 30
0.0
 11
2375.630848523475
 21
2553.50000000001
 31
0.0
  0
ARC
  5
207
330
D0
100
AcDbEntity
  8
0
  6
CONTINUOUS
 62
     7
100
AcDbCircle
 10
2371.543928068932
 20
2551.000000000011
 30
0.0
 40
4.790920454545454
100
AcDbArc
 50
328.5455606612239
 51
31.45443933877169
  0
LINE
  5
208
330
D0
100
AcDbEntity
  8
0
  6
CONTINUOUS
 62
     7
100
AcDbLine
 10
2376.334848523475
 20
2536.000000000011
 30
0.0
 11
2376.334848523475
 21
2551.000000000011
 31
0.0
  0
ARC
  5
209
330
D0
100
AcDbEntity
  8
0
  6
CONTINUOUS
 62
     7
100
AcDbCircle
 10
2358.227166705292
 20
2543.500000000011
 30
0.0
 40
18.10768181818181
100
AcDbArc
 50
343.9708781133803
 51
16.02912188661214
  0
ARC
  5
20A
330
D0
100
AcDbEntity
  8
0
  6
CONTINUOUS
 62
     7
100
AcDbCircle
 10
2371.543928068932
 20
2536.000000000011
 30
0.0
 40
4.790920454545454
100
AcDbArc
 50
328.5455606612239
 51
31.45443933877169
  0
LINE
  5
20B
330
D0
100
AcDbEntity
  8
0
  6
CONTINUOUS
 62
     7
100
AcDbLine
 10
2369.934848523475
 20
2533.500000000011
 30
0.0
 11
2375.630848523475
 21
2533.500000000011
 31
0.0
  0
LINE
  5
20C
330
D0
100
AcDbEntity
  8
0
  6
CONTINUOUS
 62
     7
100
AcDbLine
 10
2369.934848523477
 20
2531.160000000012
 30
0.0
 11
2372.214848523476
 21
2533.500000000011
 31
0.0
  0
LINE
  5
20D
330
D0
100
AcDbEntity
  8
0
  6
CONTINUOUS
 62
     7
100
AcDbLine
 10
2372.056168867033
 20
2533.500000000012
 30
0.0
 11
2372.136539082638
 21
2533.419629784409
 31
0.0
  0
LINE
  5
20E
330
D0
100
AcDbEntity
  8
0
  6
CONTINUOUS
 62
     7
100
AcDbLine
 10
2371.349062085841
 20
2533.50000000002
 30
0.0
 11
2371.787577294515
 21
2533.061484791347
 31
0.0
  0
LINE
  5
20F
330
D0
100
AcDbEntity
  8
0
  6
CONTINUOUS
 62
     7
100
AcDbLine
 10
2370.641955304662
 20
2533.500000000014
 30
0.0
 11
2371.438615506393
 21
2532.703339798282
 31
0.0
  0
LINE
  5
210
330
D0
100
AcDbEntity
  8
0
  6
CONTINUOUS
 62
     7
100
AcDbLine
 10
2369.934848523466
 20
2533.50000000002
 30
0.0
 11
2371.08965371828
 21
2532.345194805206
 31
0.0
  0
LINE
  5
211
330
D0
100
AcDbEntity
  8
0
  6
CONTINUOUS
 62
     7
100
AcDbLine
 10
2369.934848523475
 20
2532.792893218828
 30
0.0
 11
2370.740691930159
 21
2531.98704981214
 31
0.0
  0
LINE
  5
212
330
D0
100
AcDbEntity
  8
0
  6
CONTINUOUS
 62
     7
100
AcDbLine
 10
2369.93484852347
 20
2532.085786437647
 30
0.0
 11
2370.391730142037
 21
2531.628904819077
 31
0.0
  0
LINE
  5
213
330
D0
100
AcDbEntity
  8
0
  6
CONTINUOUS
 62
     7
100
AcDbLine
 10
2369.934848523462
 20
2531.378679656465
 30
0.0
 11
2370.042768353927
 21
2531.270759826003
 31
0.0
  0
LINE
  5
214
330
D0
100
AcDbEntity
  8
0
  6
CONTINUOUS
 62
     7
100
AcDbLine
 10
2354.534848523475
 20
2547.500000000012
 30
0.0
 11
2364.934848523475
 21
2547.500000000012
 31
0.0
  0
LINE
  5
215
330
D0
100
AcDbEntity
  8
0
  6
CONTINUOUS
 62
     7
100
AcDbLine
 10
2354.534848523475
 20
2539.500000000012
 30
0.0
 11
2364.934848523475
 21
2539.500000000012
 31
0.0
  0
LINE
  5
216
330
D0
100
AcDbEntity
  8
0
  6
CONTINUOUS
 62
     7
100
AcDbLine
 10
2364.934848523475
 20
2539.500000000012
 30
0.0
 11
2365.934848523479
 21
2538.50000000001
 31
0.0
  0
LINE
  5
217
330
D0
100
AcDbEntity
  8
0
  6
CONTINUOUS
 62
     7
100
AcDbLine
 10
2364.934848523475
 20
2547.500000000012
 30
0.0
 11
2365.934848523479
 21
2548.500000000011
 31
0.0
  0
LINE
  5
218
330
D0
100
AcDbEntity
  8
0
  6
CONTINUOUS
 62
     7
100
AcDbLine
 10
2339.934848523475
 20
2547.500000000012
 30
0.0
 11
2344.134848523476
 21
2547.500000000012
 31
0.0
  0
LINE
  5
219
330
D0
100
AcDbEntity
  8
0
  6
CONTINUOUS
 62
     7
100
AcDbLine
 10
2340.934848523475
 20
2538.50000000001
 30
0.0
 11
2340.934848523475
 21
2548.500000000011
 31
0.0
  0
LINE
  5
21A
330
D0
100
AcDbEntity
  8
0
  6
CONTINUOUS
 62
     7
100
AcDbLine
 10
2339.934848523475
 20
2539.500000000012
 30
0.0
 11
2344.134848523476
 21
2539.500000000012
 31
0.0
  0
ENDBLK
  5
D2
330
D0
100
AcDbEntity
  8
0
100
AcDbBlockEnd
  0
BLOCK
  5
D4
330
D3
100
AcDbEntity
  8
0
100
AcDbBlockBegin
  2
SYM-17
 70
     0
 10
0.0
 20
0.0
 30
0.0
  3
SYM-17
  1

  0
ELLIPSE
  5
21B
330
D3
100
AcDbEntity
  8
0
  6
CONTINUOUS
 62
     7
100
AcDbEllipse
 10
2362.218181856777
 20
2527.42000000001
 30
0.0
 11
-1.067183248068677E-15
 21
-5.809475019310011
 31
0.0
210
0.0
220
0.0
230
1.0
 40
0.774596669241632
 41
0.0
 42
6.283185307179586
  0
LINE
  5
21C
330
D3
100
AcDbEntity
  8
0
  6
CONTINUOUS
 62
     7
100
AcDbLine
 10
2361.030939763075
 20
2521.81636186471
 30
0.0
 11
2358.312263778778
 21
2524.53503784901
 31
0.0
  0
LINE
  5
21D
330
D3
100
AcDbEntity
  8
0
  6
CONTINUOUS
 62
     7
100
AcDbLine
 10
2362.626969979376
 20
2521.63454521081
 30
0.0
 11
2357.776893734175
 21
2526.48462145591
 31
0.0
  0
LINE
  5
21E
330
D3
100
AcDbEntity
  8
0
  6
CONTINUOUS
 62
     7
100
AcDbLine
 10
2363.728312678977
 20
2521.947416073511
 30
0.0
 11
2357.736211206278
 21
2527.939517546211
 31
0.0
  0
LINE
  5
21F
330
D3
100
AcDbEntity
  8
0
  6
CONTINUOUS
 62
     7
100
AcDbLine
 10
2366.607477263577
 20
2526.13931930081
 30
0.0
 11
2360.160347480676
 21
2532.586449083709
 31
0.0
  0
LINE
  5
220
330
D3
100
AcDbEntity
  8
0
  6
CONTINUOUS
 62
     7
100
AcDbLine
 10
2366.718147008476
 20
2527.442863118211
 30
0.0
 11
2361.110337907476
 21
2533.050672219209
 31
0.0
  0
LINE
  5
221
330
D3
100
AcDbEntity
  8
0
  6
CONTINUOUS
 62
     7
100
AcDbLine
 10
2366.540972039975
 20
2529.03425164911
 30
0.0
 11
2362.348173047776
 21
2533.227050641311
 31
0.0
  0
LINE
  5
222
330
D3
100
AcDbEntity
  8
0
  6
CONTINUOUS
 62
     7
100
AcDbLine
 10
2364.599406397678
 20
2522.49053591721
 30
0.0
 11
2357.925777659485
 21
2529.164164655401
 31
0.0
  0
LINE
  5
223
330
D3
100
AcDbEntity
  8
0
  6
CONTINUOUS
 62
     7
100
AcDbLine
 10
2365.307867384676
 20
2523.19628849261
 30
0.0
 11
2358.277976844153
 21
2530.226179032813
 31
0.0
  0
LINE
  5
224
330
D3
100
AcDbEntity
  8
0
  6
CONTINUOUS
 62
     7
100
AcDbLine
 10
2365.878227639276
 20
2524.040141800309
 30
0.0
 11
2358.768276761504
 21
2531.150092678395
 31
0.0
  0
LINE
  5
225
330
D3
100
AcDbEntity
  8
0
  6
CONTINUOUS
 62
     7
100
AcDbLine
 10
2366.315281361876
 20
2525.01730164011
 30
0.0
 11
2359.391883210568
 21
2531.94069979142
 31
0.0
  0
ENDBLK
  5
D5
330
D3
100
AcDbEntity
  8
0
100
AcDbBlockEnd
  0
BLOCK
  5
D7
330
D6
100
AcDbEntity
  8
0
100
AcDbBlockBegin
  2
SYM-18
 70
     0
 10
0.0
 20
0.0
 30
0.0
  3
SYM-18
  1

  0
CIRCLE
  5
226
330
D6
100
AcDbEntity
  8
0
  6
CONTINUOUS
 62
     7
100
AcDbCircle
 10
1389.068181856721
 20
2543.500000000172
 30
0.0
 40
10.50000000000041
  0
CIRCLE
  5
227
330
D6
100
AcDbEntity
  8
0
  6
CONTINUOUS
 62
     7
100
AcDbCircle
 10
1389.068181856721
 20
2543.500000000172
 30
0.0
 40
8.66025403784441
  0
LINE
  5
228
330
D6
100
AcDbEntity
  8
0
  6
CONTINUOUS
 62
     7
100
AcDbLine
 10
1380.407927818879
 20
2548.500000000172
 30
0.0
 11
1380.407927818879
 21
2538.500000000173
 31
0.0
  0
LINE
  5
229
330
D6
100
AcDbEntity
  8
0
  6
CONTINUOUS
 62
     7
100
AcDbLine
 10
1380.407927818879
 20
2538.500000000173
 30
0.0
 11
1389.068181856721
 21
2533.500000000172
 31
0.0
  0
LINE
  5
22A
330
D6
100
AcDbEntity
  8
0
  6
CONTINUOUS
 62
     7
100
AcDbLine
 10
1389.068181856721
 20
2533.500000000172
 30
0.0
 11
1397.728435894566
 21
2538.500000000173
 31
0.0
  0
LINE
  5
22B
330
D6
100
AcDbEntity
  8
0
  6
CONTINUOUS
 62
     7
100
AcDbLine
 10
1397.728435894566
 20
2548.500000000172
 30
0.0
 11
1389.068181856721
 21
2553.500000000173
 31
0.0
  0
LINE
  5
22C
330
D6
100
AcDbEntity
  8
0
  6
CONTINUOUS
 62
     7
100
AcDbLine
 10
1389.068181856721
 20
2553.500000000173
 30
0.0
 11
1380.407927818879
 21
2548.500000000172
 31
0.0
  0
CIRCLE
  5
22D
330
D6
100
AcDbEntity
  8
0
  6
CONTINUOUS
 62
     7
100
AcDbCircle
 10
1389.068181856721
 20
2543.500000000172
 30
0.0
 40
5.0
  0
CIRCLE
  5
22E
330
D6
100
AcDbEntity
  8
0
  6
CONTINUOUS
 62
     7
100
AcDbCircle
 10
1389.068181856721
 20
2543.500000000172
 30
0.0
 40
4.0
  0
LINE
  5
22F
330
D6
100
AcDbEntity
  8
0
  6
CONTINUOUS
 62
     7
100
AcDbLine
 10
1397.728435894566
 20
2538.500000000173
 30
0.0
 11
1397.728435894566
 21
2548.500000000172
 31
0.0
  0
ENDBLK
  5
D8
330
D6
100
AcDbEntity
  8
0
100
AcDbBlockEnd
  0
BLOCK
  5
5B5
330
5B4
100
AcDbEntity
  8
0
100
AcDbBlockBegin
  2
*D33
 70
     1
 10
0.0
 20
0.0
 30
0.0
  3
*D33
  1

  0
LINE
  5
5B7
330
5B4
100
AcDbEntity
  8
LAY-20
  6
CONTINUOUS
 62
     4
100
AcDbLine
 10
325.7348485235
 20
575.50000000003
 30
0.0
 11
325.7348485235
 21
745.50000000001
 31
0.0
  0
LINE
  5
5B8
330
5B4
100
AcDbEntity
  8
LAY-20
  6
CONTINUOUS
 62
     4
100
AcDbLine
 10
1935.7348485235
 20
575.50000000003
 30
0.0
 11
1935.7348485235
 21
745.50000000001
 31
0.0
  0
LINE
  5
5B9
330
5B4
100
AcDbEntity
  8
LAY-20
  6
CONTINUOUS
 62
     4
100
AcDbLine
 10
350.7348485235
 20
730.50000000001
 30
0.0
 11
1910.7348485235
 21
730.50000000001
 31
0.0
  0
INSERT
  5
5BA
330
5B4
100
AcDbEntity
  8
LAY-20
 62
     4
100
AcDbBlockReference
  2
EX_BNORM
 10
325.7348485235
 20
730.50000000001
 30
0.0
 41
25.0
 42
25.0
 43
25.0
 50
180.0
  0
INSERT
  5
5BB
330
5B4
100
AcDbEntity
  8
LAY-20
 62
     4
100
AcDbBlockReference
  2
EX_BNORM
 10
1935.7348485235
 20
730.50000000001
 30
0.0
 41
25.0
 42
25.0
 43
25.0
  0
MTEXT
  5
5BC
330
5B4
100
AcDbEntity
  8
LAY-20
 62
     7
100
AcDbMText
 10
1130.7348485235
 20
755.50000000001
 30
0.0
 40
31.181104
 41
0.0
 71
     5
 72
     1
  1
1610
  7
EXCADDIM1
  0
POINT
  5
5BD
330
5B4
100
AcDbEntity
  8
DEFPOINTS
 62
     0
100
AcDbPoint
 10
325.7348485235
 20
560.50000000003
 30
0.0
  0
POINT
  5
5BE
330
5B4
100
AcDbEntity
  8
DEFPOINTS
 62
     0
100
AcDbPoint
 10
1935.7348485235
 20
560.50000000003
 30
0.0
  0
POINT
  5
5BF
330
5B4
100
AcDbEntity
  8
DEFPOINTS
 62
     0
100
AcDbPoint
 10
1935.7348485235
 20
730.50000000001
 30
0.0
  0
ENDBLK
  5
5B6
330
5B4
100
AcDbEntity
  8
0
100
AcDbBlockEnd
  0
BLOCK
  5
5C2
330
5C1
100
AcDbEntity
  8
0
100
AcDbBlockBegin
  2
*D34
 70
     1
 10
0.0
 20
0.0
 30
0.0
  3
*D34
  1

  0
LINE
  5
5C4
330
5C1
100
AcDbEntity
  8
LAY-20
  6
CONTINUOUS
 62
     4
100
AcDbLine
 10
734.734848523489
 20
575.5000000000091
 30
0.0
 11
734.734848523489
 21
675.50000000001
 31
0.0
  0
LINE
  5
5C5
330
5C1
100
AcDbEntity
  8
LAY-20
  6
CONTINUOUS
 62
     4
100
AcDbLine
 10
341.73484852349
 20
575.5000000000095
 30
0.0
 11
341.73484852349
 21
675.50000000001
 31
0.0
  0
LINE
  5
5C6
330
5C1
100
AcDbEntity
  8
LAY-20
  6
CONTINUOUS
 62
     4
100
AcDbLine
 10
709.734848523489
 20
660.50000000001
 30
0.0
 11
366.73484852349
 21
660.50000000001
 31
0.0
  0
INSERT
  5
5C7
330
5C1
100
AcDbEntity
  8
LAY-20
 62
     4
100
AcDbBlockReference
  2
EX_BNORM
 10
734.734848523489
 20
660.50000000001
 30
0.0
 41
25.0
 42
25.0
 43
25.0
  0
INSERT
  5
5C8
330
5C1
100
AcDbEntity
  8
LAY-20
 62
     4
100
AcDbBlockReference
  2
EX_BNORM
 10
341.73484852349
 20
660.50000000001
 30
0.0
 41
25.0
 42
25.0
 43
25.0
 50
180.0
  0
MTEXT
  5
5C9
330
5C1
100
AcDbEntity
  8
LAY-20
 62
     7
100
AcDbMText
 10
538.2348485234896
 20
685.50000000001
 30
0.0
 40
31.181104
 41
0.0
 71
     5
 72
     1
  1
393
  7
EXCADDIM1
  0
POINT
  5
5CA
330
5C1
100
AcDbEntity
  8
DEFPOINTS
 62
     0
100
AcDbPoint
 10
734.734848523489
 20
560.5000000000091
 30
0.0
  0
POINT
  5
5CB
330
5C1
100
AcDbEntity
  8
DEFPOINTS
 62
     0
100
AcDbPoint
 10
341.73484852349
 20
560.5000000000095
 30
0.0
  0
POINT
  5
5CC
330
5C1
100
AcDbEntity
  8
DEFPOINTS
 62
     0
100
AcDbPoint
 10
341.73484852349
 20
660.50000000001
 30
0.0
  0
ENDBLK
  5
5C3
330
5C1
100
AcDbEntity
  8
0
100
AcDbBlockEnd
  0
BLOCK
  5
5CF
330
5CE
100
AcDbEntity
  8
0
100
AcDbBlockBegin
  2
*D35
 70
     1
 10
0.0
 20
0.0
 30
0.0
  3
*D35
  1

  0
LINE
  5
5D1
330
5CE
100
AcDbEntity
  8
LAY-20
  6
CONTINUOUS
 62
     4
100
AcDbLine
 10
380.7348485235
 20
430.50000000003
 30
0.0
 11
380.7348485235
 21
330.500000000046
 31
0.0
  0
LINE
  5
5D2
330
5CE
100
AcDbEntity
  8
LAY-20
  6
CONTINUOUS
 62
     4
100
AcDbLine
 10
1880.7348485235
 20
430.50000000003
 30
0.0
 11
1880.7348485235
 21
330.500000000046
 31
0.0
  0
LINE
  5
5D3
330
5CE
100
AcDbEntity
  8
LAY-20
  6
CONTINUOUS
 62
     4
100
AcDbLine
 10
405.7348485235
 20
330.500000000046
 30
0.0
 11
1855.7348485235
 21
330.500000000046
 31
0.0
  0
INSERT
  5
5D4
330
5CE
100
AcDbEntity
  8
LAY-20
 62
     4
100
AcDbBlockReference
  2
EX_BNORM
 10
380.7348485235
 20
330.500000000046
 30
0.0
 41
25.0
 42
25.0
 43
25.0
 50
180.0
  0
INSERT
  5
5D5
330
5CE
100
AcDbEntity
  8
LAY-20
 62
     4
100
AcDbBlockReference
  2
EX_BNORM
 10
1880.7348485235
 20
330.500000000046
 30
0.0
 41
25.0
 42
25.0
 43
25.0
  0
MTEXT
  5
5D6
330
5CE
100
AcDbEntity
  8
LAY-20
 62
     7
100
AcDbMText
 10
1130.7348485235
 20
355.500000000046
 30
0.0
 40
31.181104
 41
0.0
 71
     5
 72
     1
  1
1500
  7
EXCADDIM1
  0
POINT
  5
5D7
330
5CE
100
AcDbEntity
  8
DEFPOINTS
 62
     0
100
AcDbPoint
 10
380.7348485235
 20
430.50000000003
 30
0.0
  0
POINT
  5
5D8
330
5CE
100
AcDbEntity
  8
DEFPOINTS
 62
     0
100
AcDbPoint
 10
1880.7348485235
 20
430.50000000003
 30
0.0
  0
POINT
  5
5D9
330
5CE
100
AcDbEntity
  8
DEFPOINTS
 62
     0
100
AcDbPoint
 10
1880.7348485235
 20
330.500000000046
 30
0.0
  0
ENDBLK
  5
5D0
330
5CE
100
AcDbEntity
  8
0
100
AcDbBlockEnd
  0
BLOCK
  5
5DC
330
5DB
100
AcDbEntity
  8
0
100
AcDbBlockBegin
  2
*D36
 70
     1
 10
0.0
 20
0.0
 30
0.0
  3
*D36
  1

  0
LINE
  5
5DE
330
5DB
100
AcDbEntity
  8
LAY-20
  6
CONTINUOUS
 62
     4
100
AcDbLine
 10
1950.7348485235
 20
560.50000000003
 30
0.0
 11
2085.290187582799
 21
560.50000000003
 31
0.0
  0
LINE
  5
5DF
330
5DB
100
AcDbEntity
  8
LAY-20
  6
CONTINUOUS
 62
     4
100
AcDbLine
 10
1938.934848523501
 20
460.50000000003
 30
0.0
 11
2085.290187582799
 21
460.50000000003
 31
0.0
  0
LINE
  5
5E0
330
5DB
100
AcDbEntity
  8
LAY-20
  6
CONTINUOUS
 62
     4
100
AcDbLine
 10
2070.290187582799
 20
535.50000000003
 30
0.0
 11
2070.290187582799
 21
485.50000000003
 31
0.0
  0
INSERT
  5
5E1
330
5DB
100
AcDbEntity
  8
LAY-20
 62
     4
100
AcDbBlockReference
  2
EX_BNORM
 10
2070.290187582799
 20
560.50000000003
 30
0.0
 41
25.0
 42
25.0
 43
25.0
 50
90.0
  0
INSERT
  5
5E2
330
5DB
100
AcDbEntity
  8
LAY-20
 62
     4
100
AcDbBlockReference
  2
EX_BNORM
 10
2070.290187582799
 20
460.50000000003
 30
0.0
 41
25.0
 42
25.0
 43
25.0
 50
270.0
  0
MTEXT
  5
5E3
330
5DB
100
AcDbEntity
  8
LAY-20
 62
     7
100
AcDbMText
 10
2045.290187582799
 20
510.50000000003
 30
0.0
 40
31.181104
 41
0.0
 71
     5
 72
     1
  1
100
  7
EXCADDIM1
 11
0.0
 21
1.0
 31
0.0
  0
POINT
  5
5E4
330
5DB
100
AcDbEntity
  8
DEFPOINTS
 62
     0
100
AcDbPoint
 10
1935.7348485235
 20
560.50000000003
 30
0.0
  0
POINT
  5
5E5
330
5DB
100
AcDbEntity
  8
DEFPOINTS
 62
     0
100
AcDbPoint
 10
1923.934848523501
 20
460.50000000003
 30
0.0
  0
POINT
  5
5E6
330
5DB
100
AcDbEntity
  8
DEFPOINTS
 62
     0
100
AcDbPoint
 10
2070.290187582799
 20
460.50000000003
 30
0.0
  0
ENDBLK
  5
5DD
330
5DB
100
AcDbEntity
  8
0
100
AcDbBlockEnd
  0
BLOCK
  5
5E9
330
5E8
100
AcDbEntity
  8
0
100
AcDbBlockBegin
  2
*D37
 70
     1
 10
0.0
 20
0.0
 30
0.0
  3
*D37
  1

  0
LINE
  5
5EB
330
5E8
100
AcDbEntity
  8
LAY-20
  6
CONTINUOUS
 62
     4
100
AcDbLine
 10
2414.9348485235
 20
2518.49999999991
 30
0.0
 11
2496.7348485235
 21
2518.49999999991
 31
0.0
  0
LINE
  5
5EC
330
5E8
100
AcDbEntity
  8
LAY-20
  6
CONTINUOUS
 62
     4
100
AcDbLine
 10
2414.9348485235
 20
1018.5000000001
 30
0.0
 11
2496.7348485235
 21
1018.5000000001
 31
0.0
  0
LINE
  5
5ED
330
5E8
100
AcDbEntity
  8
LAY-20
  6
CONTINUOUS
 62
     4
100
AcDbLine
 10
2481.7348485235
 20
2493.49999999991
 30
0.0
 11
2481.7348485235
 21
1043.5000000001
 31
0.0
  0
INSERT
  5
5EE
330
5E8
100
AcDbEntity
  8
LAY-20
 62
     4
100
AcDbBlockReference
  2
EX_BNORM
 10
2481.7348485235
 20
2518.49999999991
 30
0.0
 41
25.0
 42
25.0
 43
25.0
 50
90.0
  0
INSERT
  5
5EF
330
5E8
100
AcDbEntity
  8
LAY-20
 62
     4
100
AcDbBlockReference
  2
EX_BNORM
 10
2481.7348485235
 20
1018.5000000001
 30
0.0
 41
25.0
 42
25.0
 43
25.0
 50
270.0
  0
MTEXT
  5
5F0
330
5E8
100
AcDbEntity
  8
LAY-20
 62
     7
100
AcDbMText
 10
2456.7348485235
 20
1768.500000000005
 30
0.0
 40
31.181104
 41
0.0
 71
     5
 72
     1
  1
1500
  7
EXCADDIM1
 11
0.0
 21
1.0
 31
0.0
  0
POINT
  5
5F1
330
5E8
100
AcDbEntity
  8
DEFPOINTS
 62
     0
100
AcDbPoint
 10
2399.9348485235
 20
2518.49999999991
 30
0.0
  0
POINT
  5
5F2
330
5E8
100
AcDbEntity
  8
DEFPOINTS
 62
     0
100
AcDbPoint
 10
2399.9348485235
 20
1018.5000000001
 30
0.0
  0
POINT
  5
5F3
330
5E8
100
AcDbEntity
  8
DEFPOINTS
 62
     0
100
AcDbPoint
 10
2481.7348485235
 20
1018.5000000001
 30
0.0
  0
ENDBLK
  5
5EA
330
5E8
100
AcDbEntity
  8
0
100
AcDbBlockEnd
  0
BLOCK
  5
5F6
330
5F5
100
AcDbEntity
  8
0
100
AcDbBlockBegin
  2
*D38
 70
     1
 10
0.0
 20
0.0
 30
0.0
  3
*D38
  1

  0
LINE
  5
5F8
330
5F5
100
AcDbEntity
  8
LAY-20
  6
CONTINUOUS
 62
     4
100
AcDbLine
 10
2254.7348485235
 20
2610.50000000001
 30
0.0
 11
2084.7348485235
 21
2610.50000000001
 31
0.0
  0
LINE
  5
5F9
330
5F5
100
AcDbEntity
  8
LAY-20
  6
CONTINUOUS
 62
     4
100
AcDbLine
 10
2254.7348485235
 20
926.50000000001
 30
0.0
 11
2084.7348485235
 21
926.50000000001
 31
0.0
  0
LINE
  5
5FA
330
5F5
100
AcDbEntity
  8
LAY-20
  6
CONTINUOUS
 62
     4
100
AcDbLine
 10
2099.7348485235
 20
2585.50000000001
 30
0.0
 11
2099.7348485235
 21
951.50000000001
 31
0.0
  0
INSERT
  5
5FB
330
5F5
100
AcDbEntity
  8
LAY-20
 62
     4
100
AcDbBlockReference
  2
EX_BNORM
 10
2099.7348485235
 20
2610.50000000001
 30
0.0
 41
25.0
 42
25.0
 43
25.0
 50
90.0
  0
INSERT
  5
5FC
330
5F5
100
AcDbEntity
  8
LAY-20
 62
     4
100
AcDbBlockReference
  2
EX_BNORM
 10
2099.7348485235
 20
926.50000000001
 30
0.0
 41
25.0
 42
25.0
 43
25.0
 50
270.0
  0
MTEXT
  5
5FD
330
5F5
100
AcDbEntity
  8
LAY-20
 62
     7
100
AcDbMText
 10
2074.7348485235
 20
1768.50000000001
 30
0.0
 40
31.181104
 41
0.0
 71
     5
 72
     1
  1
1684
  7
EXCADDIM1
 11
0.0
 21
1.0
 31
0.0
  0
POINT
  5
5FE
330
5F5
100
AcDbEntity
  8
DEFPOINTS
 62
     0
100
AcDbPoint
 10
2269.7348485235
 20
2610.50000000001
 30
0.0
  0
POINT
  5
5FF
330
5F5
100
AcDbEntity
  8
DEFPOINTS
 62
     0
100
AcDbPoint
 10
2269.7348485235
 20
926.50000000001
 30
0.0
  0
POINT
  5
600
330
5F5
100
AcDbEntity
  8
DEFPOINTS
 62
     0
100
AcDbPoint
 10
2099.7348485235
 20
926.50000000001
 30
0.0
  0
ENDBLK
  5
5F7
330
5F5
100
AcDbEntity
  8
0
100
AcDbBlockEnd
  0
BLOCK
  5
603
330
602
100
AcDbEntity
  8
0
100
AcDbBlockBegin
  2
*D39
 70
     1
 10
0.0
 20
0.0
 30
0.0
  3
*D39
  1

  0
LINE
  5
605
330
602
100
AcDbEntity
  8
LAY-20
  6
CONTINUOUS
 62
     4
100
AcDbLine
 10
2254.73484852348
 20
942.5000000000091
 30
0.0
 11
2154.7348485235
 21
942.5000000000091
 31
0.0
  0
LINE
  5
606
330
602
100
AcDbEntity
  8
LAY-20
  6
CONTINUOUS
 62
     4
100
AcDbLine
 10
2254.73484852348
 20
2594.50000000001
 30
0.0
 11
2154.7348485235
 21
2594.50000000001
 31
0.0
  0
LINE
  5
607
330
602
100
AcDbEntity
  8
LAY-20
  6
CONTINUOUS
 62
     4
100
AcDbLine
 10
2169.7348485235
 20
967.5000000000091
 30
0.0
 11
2169.7348485235
 21
2569.50000000001
 31
0.0
  0
INSERT
  5
608
330
602
100
AcDbEntity
  8
LAY-20
 62
     4
100
AcDbBlockReference
  2
EX_BNORM
 10
2169.7348485235
 20
942.5000000000091
 30
0.0
 41
25.0
 42
25.0
 43
25.0
 50
270.0
  0
INSERT
  5
609
330
602
100
AcDbEntity
  8
LAY-20
 62
     4
100
AcDbBlockReference
  2
EX_BNORM
 10
2169.7348485235
 20
2594.50000000001
 30
0.0
 41
25.0
 42
25.0
 43
25.0
 50
90.0
  0
MTEXT
  5
60A
330
602
100
AcDbEntity
  8
LAY-20
 62
     7
100
AcDbMText
 10
2144.7348485235
 20
1768.50000000001
 30
0.0
 40
31.181104
 41
0.0
 71
     5
 72
     1
  1
1652
  7
EXCADDIM1
 11
0.0
 21
1.0
 31
0.0
  0
POINT
  5
60B
330
602
100
AcDbEntity
  8
DEFPOINTS
 62
     0
100
AcDbPoint
 10
2269.73484852348
 20
942.5000000000091
 30
0.0
  0
POINT
  5
60C
330
602
100
AcDbEntity
  8
DEFPOINTS
 62
     0
100
AcDbPoint
 10
2269.73484852348
 20
2594.50000000001
 30
0.0
  0
POINT
  5
60D
330
602
100
AcDbEntity
  8
DEFPOINTS
 62
     0
100
AcDbPoint
 10
2169.7348485235
 20
2594.50000000001
 30
0.0
  0
ENDBLK
  5
604
330
602
100
AcDbEntity
  8
0
100
AcDbBlockEnd
  0
BLOCK
  5
610
330
60F
100
AcDbEntity
  8
0
100
AcDbBlockBegin
  2
*D40
 70
     1
 10
0.0
 20
0.0
 30
0.0
  3
*D40
  1

  0
LINE
  5
612
330
60F
100
AcDbEntity
  8
LAY-20
  6
CONTINUOUS
 62
     4
100
AcDbLine
 10
334.5348485235
 20
448.5000000000301
 30
0.0
 11
334.5348485234999
 21
245.50000000004
 31
0.0
  0
LINE
  5
613
330
60F
100
AcDbEntity
  8
LAY-20
  6
CONTINUOUS
 62
     4
100
AcDbLine
 10
1926.9348485235
 20
448.5000000000301
 30
0.0
 11
1926.9348485235
 21
245.50000000004
 31
0.0
  0
LINE
  5
614
330
60F
100
AcDbEntity
  8
LAY-20
  6
CONTINUOUS
 62
     4
100
AcDbLine
 10
359.5348485234999
 20
260.50000000004
 30
0.0
 11
1901.9348485235
 21
260.50000000004
 31
0.0
  0
INSERT
  5
615
330
60F
100
AcDbEntity
  8
LAY-20
 62
     4
100
AcDbBlockReference
  2
EX_BNORM
 10
334.5348485234999
 20
260.50000000004
 30
0.0
 41
25.0
 42
25.0
 43
25.0
 50
180.0
  0
INSERT
  5
616
330
60F
100
AcDbEntity
  8
LAY-20
 62
     4
100
AcDbBlockReference
  2
EX_BNORM
 10
1926.9348485235
 20
260.50000000004
 30
0.0
 41
25.0
 42
25.0
 43
25.0
  0
MTEXT
  5
617
330
60F
100
AcDbEntity
  8
LAY-20
 62
     7
100
AcDbMText
 10
1130.7348485235
 20
285.50000000004
 30
0.0
 40
31.181104
 41
0.0
 71
     5
 72
     1
  1
1592
  7
EXCADDIM1
  0
POINT
  5
618
330
60F
100
AcDbEntity
  8
DEFPOINTS
 62
     0
100
AcDbPoint
 10
334.5348485235
 20
463.5000000000301
 30
0.0
  0
POINT
  5
619
330
60F
100
AcDbEntity
  8
DEFPOINTS
 62
     0
100
AcDbPoint
 10
1926.9348485235
 20
463.5000000000301
 30
0.0
  0
POINT
  5
61A
330
60F
100
AcDbEntity
  8
DEFPOINTS
 62
     0
100
AcDbPoint
 10
1926.9348485235
 20
260.50000000004
 30
0.0
  0
ENDBLK
  5
611
330
60F
100
AcDbEntity
  8
0
100
AcDbBlockEnd
  0
BLOCK
  5
61D
330
61C
100
AcDbEntity
  8
0
100
AcDbBlockBegin
  2
*D41
 70
     1
 10
0.0
 20
0.0
 30
0.0
  3
*D41
  1

  0
LINE
  5
61F
330
61C
100
AcDbEntity
  8
LAY-20
  6
CONTINUOUS
 62
     4
100
AcDbLine
 10
2332.1348485235
 20
935.30000000001
 30
0.0
 11
2566.7348485235
 21
935.3000000000102
 31
0.0
  0
LINE
  5
620
330
61C
100
AcDbEntity
  8
LAY-20
  6
CONTINUOUS
 62
     4
100
AcDbLine
 10
2332.1348485235
 20
2601.7
 30
0.0
 11
2566.7348485235
 21
2601.7
 31
0.0
  0
LINE
  5
621
330
61C
100
AcDbEntity
  8
LAY-20
  6
CONTINUOUS
 62
     4
100
AcDbLine
 10
2551.7348485235
 20
960.3000000000102
 30
0.0
 11
2551.7348485235
 21
2576.7
 31
0.0
  0
INSERT
  5
622
330
61C
100
AcDbEntity
  8
LAY-20
 62
     4
100
AcDbBlockReference
  2
EX_BNORM
 10
2551.7348485235
 20
935.3000000000102
 30
0.0
 41
25.0
 42
25.0
 43
25.0
 50
270.0
  0
INSERT
  5
623
330
61C
100
AcDbEntity
  8
LAY-20
 62
     4
100
AcDbBlockReference
  2
EX_BNORM
 10
2551.7348485235
 20
2601.7
 30
0.0
 41
25.0
 42
25.0
 43
25.0
 50
90.0
  0
MTEXT
  5
624
330
61C
100
AcDbEntity
  8
LAY-20
 62
     7
100
AcDbMText
 10
2526.7348485235
 20
1768.500000000005
 30
0.0
 40
31.181104
 41
0.0
 71
     5
 72
     1
  1
1666
  7
EXCADDIM1
 11
0.0
 21
1.0
 31
0.0
  0
POINT
  5
625
330
61C
100
AcDbEntity
  8
DEFPOINTS
 62
     0
100
AcDbPoint
 10
2317.1348485235
 20
935.30000000001
 30
0.0
  0
POINT
  5
626
330
61C
100
AcDbEntity
  8
DEFPOINTS
 62
     0
100
AcDbPoint
 10
2317.1348485235
 20
2601.7
 30
0.0
  0
POINT
  5
627
330
61C
100
AcDbEntity
  8
DEFPOINTS
 62
     0
100
AcDbPoint
 10
2551.7348485235
 20
2601.7
 30
0.0
  0
ENDBLK
  5
61E
330
61C
100
AcDbEntity
  8
0
100
AcDbBlockEnd
  0
BLOCK
  5
62A
330
629
100
AcDbEntity
  8
0
100
AcDbBlockBegin
  2
*D42
 70
     1
 10
0.0
 20
0.0
 30
0.0
  3
*D42
  1

  0
LINE
  5
62C
330
629
100
AcDbEntity
  8
LAY-20
  6
CONTINUOUS
 62
     4
100
AcDbLine
 10
893.23484852349
 20
525.50000000001
 30
0.0
 11
976.0
 21
525.5000000000099
 31
0.0
  0
LINE
  5
62D
330
629
100
AcDbEntity
  8
LAY-20
  6
CONTINUOUS
 62
     4
100
AcDbLine
 10
961.0
 20
525.5000000000099
 30
0.0
 11
961.0
 21
560.50000000001
 31
0.0
  0
LINE
  5
62E
330
629
100
AcDbEntity
  8
LAY-20
  6
CONTINUOUS
 62
     4
100
AcDbLine
 10
961.0
 20
500.5000000000099
 30
0.0
 11
961.0
 21
475.5000000000099
 31
0.0
  0
LINE
  5
62F
330
629
100
AcDbEntity
  8
LAY-20
  6
CONTINUOUS
 62
     4
100
AcDbLine
 10
961.0
 20
585.50000000001
 30
0.0
 11
961.0
 21
610.50000000001
 31
0.0
  0
INSERT
  5
630
330
629
100
AcDbEntity
  8
LAY-20
 62
     4
100
AcDbBlockReference
  2
EX_BNORM
 10
961.0
 20
525.5000000000099
 30
0.0
 41
25.0
 42
25.0
 43
25.0
 50
90.0
  0
INSERT
  5
631
330
629
100
AcDbEntity
  8
LAY-20
 62
     4
100
AcDbBlockReference
  2
EX_BNORM
 10
961.0
 20
560.50000000001
 30
0.0
 41
25.0
 42
25.0
 43
25.0
 50
270.0
  0
MTEXT
  5
632
330
629
100
AcDbEntity
  8
LAY-20
 62
     7
100
AcDbMText
 10
936.0000000000002
 20
620.5000000000098
 30
0.0
 40
31.181104
 41
0.0
 71
     5
 72
     1
  1
35
  7
EXCADDIM1
 11
0.0
 21
1.0
 31
0.0
  0
POINT
  5
633
330
629
100
AcDbEntity
  8
DEFPOINTS
 62
     0
100
AcDbPoint
 10
878.23484852349
 20
525.50000000001
 30
0.0
  0
POINT
  5
634
330
629
100
AcDbEntity
  8
DEFPOINTS
 62
     0
100
AcDbPoint
 10
961.0
 20
560.50000000001
 30
0.0
  0
POINT
  5
635
330
629
100
AcDbEntity
  8
DEFPOINTS
 62
     0
100
AcDbPoint
 10
961.0
 20
560.50000000001
 30
0.0
  0
ENDBLK
  5
62B
330
629
100
AcDbEntity
  8
0
100
AcDbBlockEnd
  0
ENDSEC
  0
SECTION
  2
ENTITIES
  0
INSERT
  5
230
330
1F
100
AcDbEntity
  8
LAY-10
  6
CONTINUOUS
 62
     0
100
AcDbBlockReference
  2
SYM-1
 10
0.0
 20
0.0
 30
0.0
  0
INSERT
  5
231
330
1F
100
AcDbEntity
  8
LAY-10
  6
CONTINUOUS
 62
     0
100
AcDbBlockReference
  2
SYM-2
 10
0.0
 20
0.0
 30
0.0
  0
INSERT
  5
232
330
1F
100
AcDbEntity
  8
LAY-10
  6
CONTINUOUS
 62
     0
100
AcDbBlockReference
  2
SYM-3
 10
0.0
 20
0.0
 30
0.0
  0
INSERT
  5
233
330
1F
100
AcDbEntity
  8
LAY-10
  6
CONTINUOUS
 62
     0
100
AcDbBlockReference
  2
SYM-4
 10
0.0
 20
0.0
 30
0.0
  0
INSERT
  5
234
330
1F
100
AcDbEntity
  8
LAY-10
  6
CONTINUOUS
 62
     0
100
AcDbBlockReference
  2
SYM-5
 10
0.0
 20
0.0
 30
0.0
  0
INSERT
  5
235
330
1F
100
AcDbEntity
  8
LAY-10
  6
CONTINUOUS
 62
     0
100
AcDbBlockReference
  2
SYM-6
 10
0.0
 20
0.0
 30
0.0
  0
INSERT
  5
236
330
1F
100
AcDbEntity
  8
LAY-10
  6
CONTINUOUS
 62
     0
100
AcDbBlockReference
  2
SYM-7
 10
0.0
 20
0.0
 30
0.0
  0
INSERT
  5
237
330
1F
100
AcDbEntity
  8
LAY-10
  6
CONTINUOUS
 62
     0
100
AcDbBlockReference
  2
SYM-8
 10
0.0
 20
0.0
 30
0.0
  0
INSERT
  5
238
330
1F
100
AcDbEntity
  8
LAY-10
  6
CONTINUOUS
 62
     0
100
AcDbBlockReference
  2
SYM-9
 10
0.0
 20
0.0
 30
0.0
  0
INSERT
  5
239
330
1F
100
AcDbEntity
  8
LAY-10
  6
CONTINUOUS
 62
     0
100
AcDbBlockReference
  2
SYM-10
 10
0.0
 20
0.0
 30
0.0
  0
INSERT
  5
23A
330
1F
100
AcDbEntity
  8
LAY-10
  6
CONTINUOUS
 62
     0
100
AcDbBlockReference
  2
SYM-11
 10
0.0
 20
0.0
 30
0.0
  0
INSERT
  5
23B
330
1F
100
AcDbEntity
  8
LAY-10
  6
CONTINUOUS
 62
     0
100
AcDbBlockReference
  2
SYM-12
 10
0.0
 20
0.0
 30
0.0
  0
INSERT
  5
23C
330
1F
100
AcDbEntity
  8
LAY-10
  6
CONTINUOUS
 62
     0
100
AcDbBlockReference
  2
SYM-13
 10
0.0
 20
0.0
 30
0.0
  0
INSERT
  5
23D
330
1F
100
AcDbEntity
  8
LAY-10
  6
CONTINUOUS
 62
     0
100
AcDbBlockReference
  2
SYM-14
 10
0.0
 20
0.0
 30
0.0
  0
INSERT
  5
23E
330
1F
100
AcDbEntity
  8
LAY-10
  6
CONTINUOUS
 62
     0
100
AcDbBlockReference
  2
SYM-15
 10
0.0
 20
0.0
 30
0.0
  0
INSERT
  5
23F
330
1F
100
AcDbEntity
  8
LAY-10
  6
CONTINUOUS
 62
     0
100
AcDbBlockReference
  2
SYM-16
 10
0.0
 20
0.0
 30
0.0
  0
INSERT
  5
240
330
1F
100
AcDbEntity
  8
LAY-10
  6
CONTINUOUS
 62
     0
100
AcDbBlockReference
  2
SYM-17
 10
0.0
 20
0.0
 30
0.0
  0
INSERT
  5
241
330
1F
100
AcDbEntity
  8
LAY-10
  6
CONTINUOUS
 62
     0
100
AcDbBlockReference
  2
SYM-18
 10
0.0
 20
0.0
 30
0.0
  0
LINE
  5
242
330
1F
100
AcDbEntity
  8
LAY-10
  6
CONTINUOUS
 62
     7
100
AcDbLine
 10
325.7348485234991
 20
2610.500000000028
 30
0.0
 11
340.7348485234991
 21
2595.500000000028
 31
0.0
  0
LINE
  5
243
330
1F
100
AcDbEntity
  8
LAY-10
  6
CONTINUOUS
 62
     7
100
AcDbLine
 10
1920.73484852348
 20
2595.500000000028
 30
0.0
 11
1935.734848523482
 21
2610.500000000028
 31
0.0
  0
LINE
  5
244
330
1F
100
AcDbEntity
  8
LAY-10
  6
CONTINUOUS
 62
     7
100
AcDbLine
 10
325.7348485234991
 20
2610.500000000028
 30
0.0
 11
1935.734848523482
 21
2610.500000000028
 31
0.0
  0
LINE
  5
245
330
1F
100
AcDbEntity
  8
LAY-10
  6
CONTINUOUS
 62
     7
100
AcDbLine
 10
1920.73484852348
 20
2595.500000000028
 30
0.0
 11
340.7348485234991
 21
2595.500000000028
 31
0.0
  0
LINE
  5
246
330
1F
100
AcDbEntity
  8
LAY-10
  6
CONTINUOUS
 62
     7
100
AcDbLine
 10
341.7348485234872
 20
2594.499999999929
 30
0.0
 11
734.734848523489
 21
2594.499999999929
 31
0.0
  0
LINE
  5
247
330
1F
100
AcDbEntity
  8
LAY-10
  6
CONTINUOUS
 62
     7
100
AcDbLine
 10
736.7348485234871
 20
2594.499999999929
 30
0.0
 11
1129.734848523489
 21
2594.499999999929
 31
0.0
  0
LINE
  5
248
330
1F
100
AcDbEntity
  8
LAY-10
  6
CONTINUOUS
 62
     7
100
AcDbLine
 10
635.2348485235109
 20
2610.500000000045
 30
0.0
 11
635.2348485235109
 21
2639.398484809881
 31
0.0
  0
LINE
  5
249
330
1F
100
AcDbEntity
  8
LAY-10
  6
CONTINUOUS
 62
     7
100
AcDbLine
 10
626.2348485235127
 20
2610.500000000045
 30
0.0
 11
626.2348485235127
 21
2639.398484809881
 31
0.0
  0
LINE
  5
24A
330
1F
100
AcDbEntity
  8
LAY-10
  6
CONTINUOUS
 62
     7
100
AcDbLine
 10
635.2348485235109
 20
2639.398484809881
 30
0.0
 11
626.2348485235127
 21
2639.398484809881
 31
0.0
  0
LINE
  5
24B
330
1F
100
AcDbEntity
  8
LAY-10
  6
CONTINUOUS
 62
     7
100
AcDbLine
 10
1135.234848523511
 20
2610.500000000045
 30
0.0
 11
1135.234848523511
 21
2639.398484809881
 31
0.0
  0
LINE
  5
24C
330
1F
100
AcDbEntity
  8
LAY-10
  6
CONTINUOUS
 62
     7
100
AcDbLine
 10
1126.234848523513
 20
2610.500000000045
 30
0.0
 11
1126.234848523513
 21
2639.398484809881
 31
0.0
  0
LINE
  5
24D
330
1F
100
AcDbEntity
  8
LAY-10
  6
CONTINUOUS
 62
     7
100
AcDbLine
 10
1135.234848523511
 20
2639.398484809881
 30
0.0
 11
1126.234848523513
 21
2639.398484809881
 31
0.0
  0
LINE
  5
24E
330
1F
100
AcDbEntity
  8
LAY-10
  6
CONTINUOUS
 62
     7
100
AcDbLine
 10
1626.234848523513
 20
2610.500000000046
 30
0.0
 11
1626.234848523513
 21
2639.398484809882
 31
0.0
  0
LINE
  5
24F
330
1F
100
AcDbEntity
  8
LAY-10
  6
CONTINUOUS
 62
     7
100
AcDbLine
 10
1635.234848523513
 20
2610.500000000046
 30
0.0
 11
1635.234848523513
 21
2639.398484809882
 31
0.0
  0
LINE
  5
250
330
1F
100
AcDbEntity
  8
LAY-10
  6
CONTINUOUS
 62
     7
100
AcDbLine
 10
1626.234848523513
 20
2639.398484809882
 30
0.0
 11
1635.234848523513
 21
2639.398484809882
 31
0.0
  0
LINE
  5
251
330
1F
100
AcDbEntity
  8
LAY-10
  6
HIDDEN
 62
     7
100
AcDbLine
 10
1046.234848523489
 20
939.3000000000711
 30
0.0
 11
1046.234848523489
 21
975.4086335411112
 31
0.0
  0
LINE
  5
252
330
1F
100
AcDbEntity
  8
LAY-10
  6
HIDDEN
 62
     7
100
AcDbLine
 10
999.5348485234883
 20
975.4086335411112
 30
0.0
 11
1057.534848523488
 21
975.4086335411112
 31
0.0
  0
LINE
  5
253
330
1F
100
AcDbEntity
  8
LAY-10
  6
HIDDEN
 62
     7
100
AcDbLine
 10
1015.234848523491
 20
939.3000000000711
 30
0.0
 11
1015.234848523491
 21
975.3000000000702
 31
0.0
  0
LINE
  5
254
330
1F
100
AcDbEntity
  8
LAY-10
  6
HIDDEN
 62
     7
100
AcDbLine
 10
1015.234848523491
 20
939.3000000000711
 30
0.0
 11
1046.234848523489
 21
939.3000000000711
 31
0.0
  0
LINE
  5
255
330
1F
100
AcDbEntity
  8
LAY-10
  6
CONTINUOUS
 62
     7
100
AcDbLine
 10
1117.701515190171
 20
1243.833333333314
 30
0.0
 11
1118.701515190171
 21
1242.833333333314
 31
0.0
  0
LINE
  5
256
330
1F
100
AcDbEntity
  8
LAY-10
  6
CONTINUOUS
 62
     7
100
AcDbLine
 10
340.7348485234991
 20
941.5000000000265
 30
0.0
 11
325.7348485234991
 21
926.5000000000265
 31
0.0
  0
LINE
  5
257
330
1F
100
AcDbEntity
  8
LAY-10
  6
CONTINUOUS
 62
     7
100
AcDbLine
 10
1920.73484852348
 20
941.5000000000265
 30
0.0
 11
1935.734848523482
 21
926.5000000000273
 31
0.0
  0
LINE
  5
258
330
1F
100
AcDbEntity
  8
LAY-10
  6
CONTINUOUS
 62
     7
100
AcDbLine
 10
1920.73484852348
 20
941.5000000000255
 30
0.0
 11
340.7348485234991
 21
941.5000000000265
 31
0.0
  0
LINE
  5
259
330
1F
100
AcDbEntity
  8
LAY-10
  6
CONTINUOUS
 62
     7
100
AcDbLine
 10
325.7348485234991
 20
926.5000000000265
 30
0.0
 11
1935.734848523482
 21
926.5000000000255
 31
0.0
  0
LINE
  5
25A
330
1F
100
AcDbEntity
  8
LAY-10
  6
CONTINUOUS
 62
     7
100
AcDbLine
 10
341.7348485234872
 20
942.4999999999272
 30
0.0
 11
734.7348485235
 21
942.4999999999272
 31
0.0
  0
LINE
  5
25B
330
1F
100
AcDbEntity
  8
LAY-10
  6
CONTINUOUS
 62
     7
100
AcDbLine
 10
635.2348485235109
 20
926.5000000000073
 30
0.0
 11
635.2348485235109
 21
897.6015151901711
 31
0.0
  0
LINE
  5
25C
330
1F
100
AcDbEntity
  8
LAY-10
  6
CONTINUOUS
 62
     7
100
AcDbLine
 10
626.2348485235127
 20
926.5000000000073
 30
0.0
 11
626.2348485235127
 21
897.6015151901711
 31
0.0
  0
LINE
  5
25D
330
1F
100
AcDbEntity
  8
LAY-10
  6
CONTINUOUS
 62
     7
100
AcDbLine
 10
635.2348485235109
 20
897.6015151901711
 30
0.0
 11
626.2348485235127
 21
897.6015151901711
 31
0.0
  0
LINE
  5
25E
330
1F
100
AcDbEntity
  8
LAY-10
  6
CONTINUOUS
 62
     7
100
AcDbLine
 10
1135.234848523511
 20
926.5000000000073
 30
0.0
 11
1135.234848523511
 21
897.6015151901711
 31
0.0
  0
LINE
  5
25F
330
1F
100
AcDbEntity
  8
LAY-10
  6
CONTINUOUS
 62
     7
100
AcDbLine
 10
1126.234848523513
 20
926.5000000000073
 30
0.0
 11
1126.234848523513
 21
897.6015151901711
 31
0.0
  0
LINE
  5
260
330
1F
100
AcDbEntity
  8
LAY-10
  6
CONTINUOUS
 62
     7
100
AcDbLine
 10
1135.234848523511
 20
897.6015151901711
 30
0.0
 11
1126.234848523513
 21
897.6015151901711
 31
0.0
  0
LINE
  5
261
330
1F
100
AcDbEntity
  8
LAY-10
  6
CONTINUOUS
 62
     7
100
AcDbLine
 10
1626.234848523513
 20
926.5000000000064
 30
0.0
 11
1626.234848523513
 21
897.6015151901703
 31
0.0
  0
LINE
  5
262
330
1F
100
AcDbEntity
  8
LAY-10
  6
CONTINUOUS
 62
     7
100
AcDbLine
 10
1635.234848523513
 20
926.5000000000064
 30
0.0
 11
1635.234848523513
 21
897.6015151901703
 31
0.0
  0
LINE
  5
263
330
1F
100
AcDbEntity
  8
LAY-10
  6
CONTINUOUS
 62
     7
100
AcDbLine
 10
1626.234848523513
 20
897.6015151901703
 30
0.0
 11
1635.234848523513
 21
897.6015151901703
 31
0.0
  0
LINE
  5
264
330
1F
100
AcDbEntity
  8
LAY-10
  6
CONTINUOUS
 62
     7
100
AcDbLine
 10
361.7348485234954
 20
463.7000000000317
 30
0.0
 11
361.7348485234954
 21
460.5000000000318
 31
0.0
  0
LINE
  5
265
330
1F
100
AcDbEntity
  8
LAY-10
  6
CONTINUOUS
 62
     7
100
AcDbLine
 10
349.7348485234945
 20
463.7000000000317
 30
0.0
 11
349.7348485234945
 21
460.5000000000318
 31
0.0
  0
LINE
  5
266
330
1F
100
AcDbEntity
  8
LAY-10
  6
CONTINUOUS
 62
     7
100
AcDbLine
 10
361.7348485234954
 20
472.7000000000308
 30
0.0
 11
361.7348485234954
 21
475.9000000000315
 31
0.0
  0
LINE
  5
267
330
1F
100
AcDbEntity
  8
LAY-10
  6
CONTINUOUS
 62
     7
100
AcDbLine
 10
349.7348485234945
 20
472.7000000000308
 30
0.0
 11
349.7348485234945
 21
475.9000000000315
 31
0.0
  0
LINE
  5
268
330
1F
100
AcDbEntity
  8
LAY-10
  6
CONTINUOUS
 62
     7
100
AcDbLine
 10
350.7348485234972
 20
472.7000000000308
 30
0.0
 11
346.7348485234954
 21
472.7000000000308
 31
0.0
  0
LINE
  5
269
330
1F
100
AcDbEntity
  8
LAY-10
  6
CONTINUOUS
 62
     7
100
AcDbLine
 10
343.7348485234972
 20
463.7000000000317
 30
0.0
 11
343.7348485234972
 21
472.9000000000315
 31
0.0
  0
LINE
  5
26A
330
1F
100
AcDbEntity
  8
LAY-10
  6
CONTINUOUS
 62
     7
100
AcDbLine
 10
346.7348485234954
 20
463.7000000000317
 30
0.0
 11
346.7348485234954
 21
472.7000000000308
 31
0.0
  0
LINE
  5
26B
330
1F
100
AcDbEntity
  8
LAY-10
  6
CONTINUOUS
 62
     7
100
AcDbLine
 10
337.7348485234972
 20
463.7000000000317
 30
0.0
 11
350.7348485234972
 21
463.7000000000317
 31
0.0
  0
ARC
  5
26C
330
1F
100
AcDbEntity
  8
LAY-10
  6
CONTINUOUS
 62
     7
100
AcDbCircle
 10
346.7348485234954
 20
472.9000000000315
 30
0.0
 40
3.000000000000003
100
AcDbArc
 50
90.00000000000001
 51
180.0
  0
ARC
  5
26D
330
1F
100
AcDbEntity
  8
LAY-10
  6
CONTINUOUS
 62
     7
100
AcDbCircle
 10
337.5348485234965
 20
463.5000000000318
 30
0.0
 40
3.000000000000003
100
AcDbArc
 50
180.0
 51
270.0000000000002
  0
LINE
  5
26E
330
1F
100
AcDbEntity
  8
LAY-10
  6
CONTINUOUS
 62
     7
100
AcDbLine
 10
360.7348485234954
 20
463.7000000000317
 30
0.0
 11
390.7348485234954
 21
463.7000000000317
 31
0.0
  0
LINE
  5
26F
330
1F
100
AcDbEntity
  8
LAY-10
  6
CONTINUOUS
 62
     7
100
AcDbLine
 10
390.7348485234954
 20
472.7000000000308
 30
0.0
 11
390.7348485234954
 21
442.7000000000317
 31
0.0
  0
LINE
  5
270
330
1F
100
AcDbEntity
  8
LAY-10
  6
CONTINUOUS
 62
     7
100
AcDbLine
 10
393.7348485234972
 20
465.7000000000326
 30
0.0
 11
393.7348485234972
 21
444.7000000000317
 31
0.0
  0
LINE
  5
271
330
1F
100
AcDbEntity
  8
LAY-10
  6
CONTINUOUS
 62
     7
100
AcDbLine
 10
420.7348485234954
 20
472.7000000000308
 30
0.0
 11
420.7348485234954
 21
471.7000000000317
 31
0.0
  0
ARC
  5
272
330
1F
100
AcDbEntity
  8
LAY-10
  6
CONTINUOUS
 62
     7
100
AcDbCircle
 10
391.7348485234963
 20
444.7000000000317
 30
0.0
 40
2.0
100
AcDbArc
 50
270.0000000000002
 51
0.0
  0
ARC
  5
273
330
1F
100
AcDbEntity
  8
LAY-10
  6
CONTINUOUS
 62
     7
100
AcDbCircle
 10
418.7348485234963
 20
471.7000000000317
 30
0.0
 40
2.0
100
AcDbArc
 50
270.0000000000002
 51
0.0
  0
ARC
  5
274
330
1F
100
AcDbEntity
  8
LAY-10
  6
CONTINUOUS
 62
     7
100
AcDbCircle
 10
397.7348485234972
 20
465.7000000000326
 30
0.0
 40
4.0
100
AcDbArc
 50
90.00000000000001
 51
180.0
  0
LINE
  5
275
330
1F
100
AcDbEntity
  8
LAY-10
  6
CONTINUOUS
 62
     7
100
AcDbLine
 10
1899.734848523482
 20
463.7000000000317
 30
0.0
 11
1899.734848523482
 21
460.5000000000318
 31
0.0
  0
LINE
  5
276
330
1F
100
AcDbEntity
  8
LAY-10
  6
CONTINUOUS
 62
     7
100
AcDbLine
 10
1911.734848523484
 20
463.7000000000317
 30
0.0
 11
1911.734848523484
 21
460.5000000000318
 31
0.0
  0
LINE
  5
277
330
1F
100
AcDbEntity
  8
LAY-10
  6
CONTINUOUS
 62
     7
100
AcDbLine
 10
1899.734848523482
 20
472.7000000000326
 30
0.0
 11
1899.734848523482
 21
475.9000000000315
 31
0.0
  0
LINE
  5
278
330
1F
100
AcDbEntity
  8
LAY-10
  6
CONTINUOUS
 62
     7
100
AcDbLine
 10
1911.734848523484
 20
472.7000000000326
 30
0.0
 11
1911.734848523484
 21
475.9000000000315
 31
0.0
  0
LINE
  5
279
330
1F
100
AcDbEntity
  8
LAY-10
  6
CONTINUOUS
 62
     7
100
AcDbLine
 10
1914.734848523482
 20
463.7000000000317
 30
0.0
 11
1914.734848523482
 21
472.7000000000326
 31
0.0
  0
ARC
  5
27A
330
1F
100
AcDbEntity
  8
LAY-10
  6
CONTINUOUS
 62
     7
100
AcDbCircle
 10
1914.734848523482
 20
472.9000000000333
 30
0.0
 40
3.000000000000003
100
AcDbArc
 50
0.0
 51
90.00000000000001
  0
LINE
  5
27B
330
1F
100
AcDbEntity
  8
LAY-10
  6
CONTINUOUS
 62
     7
100
AcDbLine
 10
1917.734848523482
 20
463.7000000000317
 30
0.0
 11
1917.734848523482
 21
472.9000000000315
 31
0.0
  0
ARC
  5
27C
330
1F
100
AcDbEntity
  8
LAY-10
  6
CONTINUOUS
 62
     7
100
AcDbCircle
 10
1923.934848523483
 20
463.5000000000327
 30
0.0
 40
3.000000000000003
100
AcDbArc
 50
270.0000000000002
 51
0.0
  0
LINE
  5
27D
330
1F
100
AcDbEntity
  8
LAY-10
  6
CONTINUOUS
 62
     7
100
AcDbLine
 10
1900.734848523482
 20
463.7000000000317
 30
0.0
 11
1870.734848523482
 21
463.7000000000317
 31
0.0
  0
LINE
  5
27E
330
1F
100
AcDbEntity
  8
LAY-10
  6
CONTINUOUS
 62
     7
100
AcDbLine
 10
1910.734848523482
 20
463.7000000000317
 30
0.0
 11
1923.734848523482
 21
463.7000000000317
 31
0.0
  0
LINE
  5
27F
330
1F
100
AcDbEntity
  8
LAY-10
  6
CONTINUOUS
 62
     7
100
AcDbLine
 10
1870.734848523482
 20
460.5000000000318
 30
0.0
 11
1923.934848523483
 21
460.5000000000318
 31
0.0
  0
LINE
  5
280
330
1F
100
AcDbEntity
  8
LAY-10
  6
CONTINUOUS
 62
     7
100
AcDbLine
 10
1870.734848523482
 20
472.7000000000326
 30
0.0
 11
1870.734848523482
 21
442.7000000000326
 31
0.0
  0
LINE
  5
281
330
1F
100
AcDbEntity
  8
LAY-10
  6
CONTINUOUS
 62
     7
100
AcDbLine
 10
1867.734848523482
 20
465.7000000000326
 30
0.0
 11
1867.734848523482
 21
444.7000000000326
 31
0.0
  0
LINE
  5
282
330
1F
100
AcDbEntity
  8
LAY-10
  6
CONTINUOUS
 62
     7
100
AcDbLine
 10
1840.734848523485
 20
472.7000000000326
 30
0.0
 11
1840.734848523485
 21
471.7000000000326
 31
0.0
  0
LINE
  5
283
330
1F
100
AcDbEntity
  8
LAY-10
  6
CONTINUOUS
 62
     7
100
AcDbLine
 10
1870.734848523482
 20
442.7000000000326
 30
0.0
 11
1869.734848523482
 21
442.7000000000326
 31
0.0
  0
ARC
  5
284
330
1F
100
AcDbEntity
  8
LAY-10
  6
CONTINUOUS
 62
     7
100
AcDbCircle
 10
1869.734848523482
 20
444.7000000000326
 30
0.0
 40
2.0
100
AcDbArc
 50
180.0
 51
270.0000000000002
  0
ARC
  5
285
330
1F
100
AcDbEntity
  8
LAY-10
  6
CONTINUOUS
 62
     7
100
AcDbCircle
 10
1842.734848523482
 20
471.7000000000326
 30
0.0
 40
2.0
100
AcDbArc
 50
180.0
 51
270.0000000000002
  0
ARC
  5
286
330
1F
100
AcDbEntity
  8
LAY-10
  6
CONTINUOUS
 62
     7
100
AcDbCircle
 10
1863.734848523482
 20
465.7000000000326
 30
0.0
 40
4.0
100
AcDbArc
 50
0.0
 51
90.00000000000001
  0
LINE
  5
287
330
1F
100
AcDbEntity
  8
LAY-10
  6
CONTINUOUS
 62
     7
100
AcDbLine
 10
1869.734848523482
 20
442.7000000000326
 30
0.0
 11
390.7348485234963
 21
442.7000000000317
 31
0.0
  0
POLYLINE
  5
288
330
1F
100
AcDbEntity
  8
LAY-10
  6
CONTINUOUS
 62
     7
100
AcDb2dPolyline
 66
     1
 10
0.0
 20
0.0
 30
0.0
 70
   128
  0
VERTEX
  5
289
330
288
100
AcDbEntity
  8
LAY-10
  6
CONTINUOUS
 62
     7
100
AcDbVertex
100
AcDb2dVertex
 10
397.7348485234972
 20
469.7000000000317
 30
0.0
  0
VERTEX
  5
28A
330
288
100
AcDbEntity
  8
LAY-10
  6
CONTINUOUS
 62
     7
100
AcDbVertex
100
AcDb2dVertex
 10
527.2348485234972
 20
469.7000000000326
 30
0.0
  0
VERTEX
  5
28B
330
288
100
AcDbEntity
  8
LAY-10
  6
CONTINUOUS
 62
     7
100
AcDbVertex
100
AcDb2dVertex
 10
1863.734848523482
 20
469.7000000000326
 30
0.0
  0
SEQEND
  5
28C
330
288
100
AcDbEntity
  8
LAY-10
  6
CONTINUOUS
 62
     7
  0
LINE
  5
28D
330
1F
100
AcDbEntity
  8
LAY-10
  6
CONTINUOUS
 62
     7
100
AcDbLine
 10
1914.734848523482
 20
472.7000000000326
 30
0.0
 11
1910.734848523482
 21
472.7000000000326
 31
0.0
  0
LINE
  5
28E
330
1F
100
AcDbEntity
  8
LAY-10
  6
CONTINUOUS
 62
     7
100
AcDbLine
 10
1900.734848523482
 20
489.5000000000318
 30
0.0
 11
1901.734848523484
 21
490.5000000000318
 31
0.0
  0
LINE
  5
28F
330
1F
100
AcDbEntity
  8
LAY-10
  6
CONTINUOUS
 62
     7
100
AcDbLine
 10
1910.734848523482
 20
489.5000000000318
 30
0.0
 11
1909.734848523482
 21
490.5000000000318
 31
0.0
  0
LINE
  5
290
330
1F
100
AcDbEntity
  8
LAY-10
  6
CONTINUOUS
 62
     7
100
AcDbLine
 10
1901.734848523484
 20
490.5000000000318
 30
0.0
 11
1909.734848523482
 21
490.5000000000318
 31
0.0
  0
LINE
  5
291
330
1F
100
AcDbEntity
  8
LAY-10
  6
CONTINUOUS
 62
     7
100
AcDbLine
 10
1910.734848523482
 20
486.3000000000321
 30
0.0
 11
1910.734848523482
 21
489.5000000000318
 31
0.0
  0
LINE
  5
292
330
1F
100
AcDbEntity
  8
LAY-10
  6
CONTINUOUS
 62
     7
100
AcDbLine
 10
1900.734848523482
 20
486.3000000000321
 30
0.0
 11
1900.734848523482
 21
489.5000000000318
 31
0.0
  0
LINE
  5
293
330
1F
100
AcDbEntity
  8
LAY-10
  6
CONTINUOUS
 62
     7
100
AcDbLine
 10
1910.734848523482
 20
477.9000000000324
 30
0.0
 11
1910.734848523482
 21
485.3760000000321
 31
0.0
  0
LINE
  5
294
330
1F
100
AcDbEntity
  8
LAY-10
  6
CONTINUOUS
 62
     7
100
AcDbLine
 10
1900.734848523482
 20
477.9000000000324
 30
0.0
 11
1900.734848523482
 21
485.3760000000321
 31
0.0
  0
LINE
  5
295
330
1F
100
AcDbEntity
  8
LAY-10
  6
CONTINUOUS
 62
     7
100
AcDbLine
 10
1895.734848523482
 20
477.9000000000324
 30
0.0
 11
1895.734848523482
 21
485.3760000000321
 31
0.0
  0
ARC
  5
296
330
1F
100
AcDbEntity
  8
LAY-10
  6
CONTINUOUS
 62
     7
100
AcDbCircle
 10
1913.234848523482
 20
482.4559653679971
 30
0.0
 40
3.844034632034633
100
AcDbArc
 50
49.4313750266144
 51
130.5686249733918
  0
ARC
  5
297
330
1F
100
AcDbEntity
  8
LAY-10
  6
CONTINUOUS
 62
     7
100
AcDbCircle
 10
1905.734848523482
 20
472.3098614718938
 30
0.0
 40
13.99013852813853
100
AcDbArc
 50
69.05972439385523
 51
110.9402756061494
  0
ARC
  5
298
330
1F
100
AcDbEntity
  8
LAY-10
  6
CONTINUOUS
 62
     7
100
AcDbCircle
 10
1898.234848523482
 20
482.4559653679971
 30
0.0
 40
3.844034632034633
100
AcDbArc
 50
49.4313750266144
 51
130.5686249733918
  0
LINE
  5
299
330
1F
100
AcDbEntity
  8
LAY-10
  6
CONTINUOUS
 62
     7
100
AcDbLine
 10
1913.234848523482
 20
486.3000000000321
 30
0.0
 11
1898.234848523482
 21
486.3000000000321
 31
0.0
  0
LINE
  5
29A
330
1F
100
AcDbEntity
  8
LAY-10
  6
CONTINUOUS
 62
     7
100
AcDbLine
 10
1895.234848523482
 20
477.9000000000324
 30
0.0
 11
1916.234848523482
 21
477.9000000000324
 31
0.0
  0
LINE
  5
29B
330
1F
100
AcDbEntity
  8
LAY-10
  6
CONTINUOUS
 62
     7
100
AcDbLine
 10
1915.734848523482
 20
477.9000000000324
 30
0.0
 11
1915.734848523482
 21
485.3760000000321
 31
0.0
  0
LINE
  5
29C
330
1F
100
AcDbEntity
  8
LAY-10
  6
CONTINUOUS
 62
     7
100
AcDbLine
 10
1895.234848523482
 20
477.9000000000324
 30
0.0
 11
1895.234848523482
 21
475.9000000000315
 31
0.0
  0
LINE
  5
29D
330
1F
100
AcDbEntity
  8
LAY-10
  6
CONTINUOUS
 62
     7
100
AcDbLine
 10
1916.234848523482
 20
477.9000000000324
 30
0.0
 11
1916.234848523482
 21
475.9000000000315
 31
0.0
  0
LINE
  5
29E
330
1F
100
AcDbEntity
  8
LAY-10
  6
CONTINUOUS
 62
     7
100
AcDbLine
 10
1900.734848523482
 20
454.8040000000319
 30
0.0
 11
1900.734848523482
 21
475.9000000000315
 31
0.0
  0
LINE
  5
29F
330
1F
100
AcDbEntity
  8
LAY-10
  6
CONTINUOUS
 62
     7
100
AcDbLine
 10
1910.734848523482
 20
454.8040000000319
 30
0.0
 11
1910.734848523482
 21
475.9000000000315
 31
0.0
  0
LINE
  5
2A0
330
1F
100
AcDbEntity
  8
LAY-10
  6
CONTINUOUS
 62
     7
100
AcDbLine
 10
1910.734848523482
 20
465.5000000000318
 30
0.0
 11
1900.734848523482
 21
465.5000000000318
 31
0.0
  0
ARC
  5
2A1
330
1F
100
AcDbEntity
  8
LAY-10
  6
CONTINUOUS
 62
     7
100
AcDbCircle
 10
1905.734848523482
 20
472.207681818214
 30
0.0
 40
18.10768181818181
100
AcDbArc
 50
253.9708781133825
 51
286.0291218866138
  0
ARC
  5
2A2
330
1F
100
AcDbEntity
  8
LAY-10
  6
CONTINUOUS
 62
     7
100
AcDbCircle
 10
1913.234848523482
 20
458.8909204545772
 30
0.0
 40
4.790920454545454
100
AcDbArc
 50
238.5455606612373
 51
301.4544393387538
  0
LINE
  5
2A3
330
1F
100
AcDbEntity
  8
LAY-10
  6
CONTINUOUS
 62
     7
100
AcDbLine
 10
1915.734848523482
 20
460.5000000000318
 30
0.0
 11
1915.734848523482
 21
454.8040000000319
 31
0.0
  0
LINE
  5
2A4
330
1F
100
AcDbEntity
  8
LAY-10
  6
CONTINUOUS
 62
     7
100
AcDbLine
 10
1898.234848523482
 20
454.1000000000322
 30
0.0
 11
1913.234848523482
 21
454.1000000000322
 31
0.0
  0
ARC
  5
2A5
330
1F
100
AcDbEntity
  8
LAY-10
  6
CONTINUOUS
 62
     7
100
AcDbCircle
 10
1898.234848523482
 20
458.8909204545772
 30
0.0
 40
4.790920454545454
100
AcDbArc
 50
238.5455606612373
 51
301.4544393387538
  0
LINE
  5
2A6
330
1F
100
AcDbEntity
  8
LAY-10
  6
CONTINUOUS
 62
     7
100
AcDbLine
 10
1895.734848523482
 20
460.5000000000318
 30
0.0
 11
1895.734848523482
 21
454.8040000000319
 31
0.0
  0
LINE
  5
2A7
330
1F
100
AcDbEntity
  8
LAY-10
  6
CONTINUOUS
 62
     7
100
AcDbLine
 10
1915.734848523485
 20
459.0857864376549
 30
0.0
 11
1916.191730142057
 21
458.6289048190875
 31
0.0
  0
LINE
  5
2A8
330
1F
100
AcDbEntity
  8
LAY-10
  6
CONTINUOUS
 62
     7
100
AcDbLine
 10
1915.73484852348
 20
459.7928932188488
 30
0.0
 11
1916.540691930155
 21
458.9870498121736
 31
0.0
  0
LINE
  5
2A9
330
1F
100
AcDbEntity
  8
LAY-10
  6
CONTINUOUS
 62
     7
100
AcDbLine
 10
1915.734848523485
 20
460.50000000003
 30
0.0
 11
1916.889653718277
 21
459.345194805238
 31
0.0
  0
LINE
  5
2AA
330
1F
100
AcDbEntity
  8
LAY-10
  6
CONTINUOUS
 62
     7
100
AcDbLine
 10
1916.441955304667
 20
460.5000000000346
 30
0.0
 11
1917.2386155064
 21
459.7033397983023
 31
0.0
  0
LINE
  5
2AB
330
1F
100
AcDbEntity
  8
LAY-10
  6
CONTINUOUS
 62
     7
100
AcDbLine
 10
1917.149062085848
 20
460.5000000000391
 30
0.0
 11
1917.58757729452
 21
460.0614847913667
 31
0.0
  0
LINE
  5
2AC
330
1F
100
AcDbEntity
  8
LAY-10
  6
CONTINUOUS
 62
     7
100
AcDbLine
 10
1915.734848523485
 20
458.1600000000317
 30
0.0
 11
1918.014848523484
 21
460.5000000000318
 31
0.0
  0
LINE
  5
2AD
330
1F
100
AcDbEntity
  8
LAY-10
  6
CONTINUOUS
 62
     7
100
AcDbLine
 10
1915.734848523471
 20
458.3786796564855
 30
0.0
 11
1915.842768353936
 21
458.2707598260231
 31
0.0
  0
LINE
  5
2AE
330
1F
100
AcDbEntity
  8
LAY-10
  6
CONTINUOUS
 62
     7
100
AcDbLine
 10
1917.856168867029
 20
460.5000000000446
 30
0.0
 11
1917.936539082632
 21
460.4196297844419
 31
0.0
  0
LINE
  5
2AF
330
1F
100
AcDbEntity
  8
LAY-10
  6
CONTINUOUS
 62
     7
100
AcDbLine
 10
1893.816703530416
 20
460.0889617881512
 30
0.0
 11
1894.227741742294
 21
460.5000000000283
 31
0.0
  0
LINE
  5
2B0
330
1F
100
AcDbEntity
  8
LAY-10
  6
CONTINUOUS
 62
     7
100
AcDbLine
 10
1894.17484852348
 20
459.7400000000289
 30
0.0
 11
1894.934848523486
 21
460.5000000000346
 31
0.0
  0
LINE
  5
2B1
330
1F
100
AcDbEntity
  8
LAY-10
  6
CONTINUOUS
 62
     7
100
AcDbLine
 10
1894.532993516547
 20
459.3910382119066
 30
0.0
 11
1895.641955304657
 21
460.5000000000182
 31
0.0
  0
LINE
  5
2B2
330
1F
100
AcDbEntity
  8
LAY-10
  6
CONTINUOUS
 62
     7
100
AcDbLine
 10
1894.891138509635
 20
459.0420764238079
 30
0.0
 11
1895.734848523469
 21
459.8857864376433
 31
0.0
  0
LINE
  5
2B3
330
1F
100
AcDbEntity
  8
LAY-10
  6
CONTINUOUS
 62
     7
100
AcDbLine
 10
1895.249283502695
 20
458.6931146356847
 30
0.0
 11
1895.734848523485
 21
459.1786796564747
 31
0.0
  0
LINE
  5
2B4
330
1F
100
AcDbEntity
  8
LAY-10
  6
CONTINUOUS
 62
     7
100
AcDbLine
 10
1895.60742849576
 20
458.3441528475623
 30
0.0
 11
1895.73484852348
 21
458.4715728752808
 31
0.0
  0
LINE
  5
2B5
330
1F
100
AcDbEntity
  8
LAY-10
  6
CONTINUOUS
 62
     7
100
AcDbLine
 10
1893.394848523482
 20
460.50000000003
 30
0.0
 11
1895.734848523482
 21
458.2200000000312
 31
0.0
  0
LINE
  5
2B6
330
1F
100
AcDbEntity
  8
LAY-10
  6
CONTINUOUS
 62
     7
100
AcDbLine
 10
1893.458558537341
 20
460.4379235762617
 30
0.0
 11
1893.520634961113
 21
460.5000000000337
 31
0.0
  0
LINE
  5
2B7
330
1F
100
AcDbEntity
  8
LAY-10
  6
CONTINUOUS
 62
     7
100
AcDbLine
 10
1901.734848523484
 20
465.5000000000318
 30
0.0
 11
1900.734848523482
 21
464.5000000000318
 31
0.0
  0
LINE
  5
2B8
330
1F
100
AcDbEntity
  8
LAY-10
  6
CONTINUOUS
 62
     7
100
AcDbLine
 10
1909.734848523482
 20
465.5000000000318
 30
0.0
 11
1910.734848523482
 21
464.5000000000318
 31
0.0
  0
LINE
  5
2B9
330
1F
100
AcDbEntity
  8
LAY-10
  6
CONTINUOUS
 62
     7
100
AcDbLine
 10
360.7348485234954
 20
486.3000000000321
 30
0.0
 11
360.7348485234954
 21
489.5000000000318
 31
0.0
  0
LINE
  5
2BA
330
1F
100
AcDbEntity
  8
LAY-10
  6
CONTINUOUS
 62
     7
100
AcDbLine
 10
350.7348485234972
 20
486.3000000000321
 30
0.0
 11
350.7348485234972
 21
489.5000000000318
 31
0.0
  0
LINE
  5
2BB
330
1F
100
AcDbEntity
  8
LAY-10
  6
CONTINUOUS
 62
     7
100
AcDbLine
 10
360.7348485234954
 20
477.9000000000324
 30
0.0
 11
360.7348485234954
 21
485.3760000000321
 31
0.0
  0
LINE
  5
2BC
330
1F
100
AcDbEntity
  8
LAY-10
  6
CONTINUOUS
 62
     7
100
AcDbLine
 10
350.7348485234972
 20
477.9000000000324
 30
0.0
 11
350.7348485234972
 21
485.3760000000321
 31
0.0
  0
LINE
  5
2BD
330
1F
100
AcDbEntity
  8
LAY-10
  6
CONTINUOUS
 62
     7
100
AcDbLine
 10
359.7348485235009
 20
490.5000000000318
 30
0.0
 11
351.7348485235017
 21
490.5000000000318
 31
0.0
  0
LINE
  5
2BE
330
1F
100
AcDbEntity
  8
LAY-10
  6
CONTINUOUS
 62
     7
100
AcDbLine
 10
350.7348485235009
 20
489.5000000000318
 30
0.0
 11
351.7348485235017
 21
490.5000000000318
 31
0.0
  0
LINE
  5
2BF
330
1F
100
AcDbEntity
  8
LAY-10
  6
CONTINUOUS
 62
     7
100
AcDbLine
 10
360.7348485235026
 20
489.5000000000318
 30
0.0
 11
359.7348485235009
 21
490.5000000000318
 31
0.0
  0
LINE
  5
2C0
330
1F
100
AcDbEntity
  8
LAY-10
  6
CONTINUOUS
 62
     7
100
AcDbLine
 10
365.7348485234972
 20
477.9000000000324
 30
0.0
 11
365.7348485234972
 21
485.3760000000321
 31
0.0
  0
LINE
  5
2C1
330
1F
100
AcDbEntity
  8
LAY-10
  6
CONTINUOUS
 62
     7
100
AcDbLine
 10
345.7348485234963
 20
477.9000000000324
 30
0.0
 11
345.7348485234963
 21
485.3760000000321
 31
0.0
  0
ARC
  5
2C2
330
1F
100
AcDbEntity
  8
LAY-10
  6
CONTINUOUS
 62
     7
100
AcDbCircle
 10
363.2348485234963
 20
482.4559653679971
 30
0.0
 40
3.844034632034633
100
AcDbArc
 50
49.43137502657837
 51
130.5686249733964
  0
ARC
  5
2C3
330
1F
100
AcDbEntity
  8
LAY-10
  6
CONTINUOUS
 62
     7
100
AcDbCircle
 10
355.7348485234963
 20
472.3098614718938
 30
0.0
 40
13.99013852813853
100
AcDbArc
 50
69.0597243938585
 51
110.9402756061383
  0
ARC
  5
2C4
330
1F
100
AcDbEntity
  8
LAY-10
  6
CONTINUOUS
 62
     7
100
AcDbCircle
 10
348.2348485234963
 20
482.4559653679971
 30
0.0
 40
3.844034632034633
100
AcDbArc
 50
49.43137502657837
 51
130.5686249733964
  0
LINE
  5
2C5
330
1F
100
AcDbEntity
  8
LAY-10
  6
CONTINUOUS
 62
     7
100
AcDbLine
 10
363.2348485234963
 20
486.3000000000321
 30
0.0
 11
348.2348485234963
 21
486.3000000000321
 31
0.0
  0
LINE
  5
2C6
330
1F
100
AcDbEntity
  8
LAY-10
  6
CONTINUOUS
 62
     7
100
AcDbLine
 10
366.2348485234963
 20
477.9000000000324
 30
0.0
 11
366.2348485234963
 21
475.9000000000315
 31
0.0
  0
LINE
  5
2C7
330
1F
100
AcDbEntity
  8
LAY-10
  6
CONTINUOUS
 62
     7
100
AcDbLine
 10
345.2348485234972
 20
477.9000000000324
 30
0.0
 11
366.2348485234963
 21
477.9000000000324
 31
0.0
  0
LINE
  5
2C8
330
1F
100
AcDbEntity
  8
LAY-10
  6
CONTINUOUS
 62
     7
100
AcDbLine
 10
345.2348485234972
 20
477.9000000000324
 30
0.0
 11
345.2348485234972
 21
475.9000000000315
 31
0.0
  0
LINE
  5
2C9
330
1F
100
AcDbEntity
  8
LAY-10
  6
CONTINUOUS
 62
     7
100
AcDbLine
 10
350.7348485234972
 20
454.8040000000319
 30
0.0
 11
350.7348485234972
 21
475.9000000000315
 31
0.0
  0
LINE
  5
2CA
330
1F
100
AcDbEntity
  8
LAY-10
  6
CONTINUOUS
 62
     7
100
AcDbLine
 10
360.7348485234954
 20
454.8040000000319
 30
0.0
 11
360.7348485234954
 21
475.9000000000315
 31
0.0
  0
LINE
  5
2CB
330
1F
100
AcDbEntity
  8
LAY-10
  6
CONTINUOUS
 62
     7
100
AcDbLine
 10
360.7348485234954
 20
465.5000000000318
 30
0.0
 11
350.7348485234972
 21
465.5000000000318
 31
0.0
  0
ARC
  5
2CC
330
1F
100
AcDbEntity
  8
LAY-10
  6
CONTINUOUS
 62
     7
100
AcDbCircle
 10
363.2348485234963
 20
458.8909204545772
 30
0.0
 40
4.790920454545454
100
AcDbArc
 50
238.5455606612269
 51
301.4544393387824
  0
ARC
  5
2CD
330
1F
100
AcDbEntity
  8
LAY-10
  6
CONTINUOUS
 62
     7
100
AcDbCircle
 10
355.7348485234963
 20
472.207681818214
 30
0.0
 40
18.10768181818181
100
AcDbArc
 50
253.9708781133897
 51
286.0291218866135
  0
ARC
  5
2CE
330
1F
100
AcDbEntity
  8
LAY-10
  6
CONTINUOUS
 62
     7
100
AcDbCircle
 10
348.2348485234963
 20
458.8909204545772
 30
0.0
 40
4.790920454545454
100
AcDbArc
 50
238.5455606612384
 51
301.4544393387824
  0
LINE
  5
2CF
330
1F
100
AcDbEntity
  8
LAY-10
  6
CONTINUOUS
 62
     7
100
AcDbLine
 10
345.7348485234963
 20
460.5000000000318
 30
0.0
 11
345.7348485234963
 21
454.8040000000319
 31
0.0
  0
LINE
  5
2D0
330
1F
100
AcDbEntity
  8
LAY-10
  6
CONTINUOUS
 62
     7
100
AcDbLine
 10
365.7348485234972
 20
460.5000000000318
 30
0.0
 11
365.7348485234972
 21
454.8040000000319
 31
0.0
  0
LINE
  5
2D1
330
1F
100
AcDbEntity
  8
LAY-10
  6
CONTINUOUS
 62
     7
100
AcDbLine
 10
348.2348485234963
 20
454.1000000000322
 30
0.0
 11
363.2348485234963
 21
454.1000000000322
 31
0.0
  0
LINE
  5
2D2
330
1F
100
AcDbEntity
  8
LAY-10
  6
CONTINUOUS
 62
     7
100
AcDbLine
 10
365.7348485234991
 20
458.1600000000317
 30
0.0
 11
368.0148485234979
 21
460.5000000000318
 31
0.0
  0
LINE
  5
2D3
330
1F
100
AcDbEntity
  8
LAY-10
  6
CONTINUOUS
 62
     7
100
AcDbLine
 10
367.8561688670482
 20
460.5000000000409
 30
0.0
 11
367.9365390826608
 21
460.4196297844274
 31
0.0
  0
LINE
  5
2D4
330
1F
100
AcDbEntity
  8
LAY-10
  6
CONTINUOUS
 62
     7
100
AcDbLine
 10
367.1490620858542
 20
460.5000000000482
 30
0.0
 11
367.5875772945394
 21
460.0614847913621
 31
0.0
  0
LINE
  5
2D5
330
1F
100
AcDbEntity
  8
LAY-10
  6
CONTINUOUS
 62
     7
100
AcDbLine
 10
366.441955304672
 20
460.5000000000427
 30
0.0
 11
367.2386155064162
 21
459.7033397982987
 31
0.0
  0
LINE
  5
2D6
330
1F
100
AcDbEntity
  8
LAY-10
  6
CONTINUOUS
 62
     7
100
AcDbLine
 10
365.7348485235026
 20
460.5000000000255
 30
0.0
 11
366.8896537183066
 21
459.3451948052216
 31
0.0
  0
LINE
  5
2D7
330
1F
100
AcDbEntity
  8
LAY-10
  6
CONTINUOUS
 62
     7
100
AcDbLine
 10
365.7348485235072
 20
459.7928932188324
 30
0.0
 11
366.5406919301834
 21
458.9870498121581
 31
0.0
  0
LINE
  5
2D8
330
1F
100
AcDbEntity
  8
LAY-10
  6
CONTINUOUS
 62
     7
100
AcDbLine
 10
365.7348485235045
 20
459.0857864376512
 30
0.0
 11
366.1917301420728
 21
458.628904819082
 31
0.0
  0
LINE
  5
2D9
330
1F
100
AcDbEntity
  8
LAY-10
  6
CONTINUOUS
 62
     7
100
AcDbLine
 10
365.7348485234991
 20
458.3786796564701
 30
0.0
 11
365.8427683539514
 21
458.2707598260177
 31
0.0
  0
LINE
  5
2DA
330
1F
100
AcDbEntity
  8
LAY-10
  6
CONTINUOUS
 62
     7
100
AcDbLine
 10
343.3948485234962
 20
460.50000000003
 30
0.0
 11
345.7348485234963
 21
458.2200000000312
 31
0.0
  0
LINE
  5
2DB
330
1F
100
AcDbEntity
  8
LAY-10
  6
CONTINUOUS
 62
     7
100
AcDbLine
 10
343.5056083494994
 20
460.3920801695949
 30
0.0
 11
343.6135281799291
 21
460.5000000000237
 31
0.0
  0
LINE
  5
2DC
330
1F
100
AcDbEntity
  8
LAY-10
  6
CONTINUOUS
 62
     7
100
AcDbLine
 10
343.8637533425647
 20
460.0431183814726
 30
0.0
 11
344.3206349611212
 21
460.50000000003
 31
0.0
  0
LINE
  5
2DD
330
1F
100
AcDbEntity
  8
LAY-10
  6
CONTINUOUS
 62
     7
100
AcDbLine
 10
344.221898335629
 20
459.6941565933503
 30
0.0
 11
345.027741742326
 21
460.5000000000482
 31
0.0
  0
LINE
  5
2DE
330
1F
100
AcDbEntity
  8
LAY-10
  6
CONTINUOUS
 62
     7
100
AcDbLine
 10
344.5800433287034
 20
459.3451948052398
 30
0.0
 11
345.7348485234954
 21
460.5000000000309
 31
0.0
  0
LINE
  5
2DF
330
1F
100
AcDbEntity
  8
LAY-10
  6
CONTINUOUS
 62
     7
100
AcDbLine
 10
344.9381883217667
 20
458.9962330171174
 30
0.0
 11
345.73484852349
 21
459.7928932188379
 31
0.0
  0
LINE
  5
2E0
330
1F
100
AcDbEntity
  8
LAY-10
  6
CONTINUOUS
 62
     7
100
AcDbLine
 10
345.2963333148339
 20
458.6472712289951
 30
0.0
 11
345.7348485234945
 21
459.0857864376567
 31
0.0
  0
LINE
  5
2E1
330
1F
100
AcDbEntity
  8
LAY-10
  6
CONTINUOUS
 62
     7
100
AcDbLine
 10
345.6544783078973
 20
458.2983094408728
 30
0.0
 11
345.7348485234882
 21
458.3786796564636
 31
0.0
  0
LINE
  5
2E2
330
1F
100
AcDbEntity
  8
LAY-10
  6
CONTINUOUS
 62
     7
100
AcDbLine
 10
359.7348485234963
 20
465.5000000000318
 30
0.0
 11
360.7348485234954
 21
464.5000000000318
 31
0.0
  0
LINE
  5
2E3
330
1F
100
AcDbEntity
  8
LAY-10
  6
CONTINUOUS
 62
     7
100
AcDbLine
 10
351.7348485234972
 20
465.5000000000318
 30
0.0
 11
350.7348485234972
 21
464.5000000000318
 31
0.0
  0
LINE
  5
2E4
330
1F
100
AcDbEntity
  8
LAY-10
  6
CONTINUOUS
 62
     7
100
AcDbLine
 10
1900.734848523482
 20
489.5000000000318
 30
0.0
 11
1910.734848523482
 21
489.5000000000318
 31
0.0
  0
LINE
  5
2E5
330
1F
100
AcDbEntity
  8
LAY-10
  6
CONTINUOUS
 62
     7
100
AcDbLine
 10
1901.734848523484
 20
490.5000000000318
 30
0.0
 11
1901.734848523484
 21
486.3000000000321
 31
0.0
  0
LINE
  5
2E6
330
1F
100
AcDbEntity
  8
LAY-10
  6
CONTINUOUS
 62
     7
100
AcDbLine
 10
1909.734848523482
 20
490.5000000000318
 30
0.0
 11
1909.734848523482
 21
486.3000000000321
 31
0.0
  0
LINE
  5
2E7
330
1F
100
AcDbEntity
  8
LAY-10
  6
CONTINUOUS
 62
     7
100
AcDbLine
 10
1901.734848523484
 20
475.9000000000324
 30
0.0
 11
1901.734848523484
 21
465.5000000000318
 31
0.0
  0
LINE
  5
2E8
330
1F
100
AcDbEntity
  8
LAY-10
  6
CONTINUOUS
 62
     7
100
AcDbLine
 10
1909.734848523482
 20
475.9000000000324
 30
0.0
 11
1909.734848523482
 21
465.5000000000318
 31
0.0
  0
LINE
  5
2E9
330
1F
100
AcDbEntity
  8
LAY-10
  6
CONTINUOUS
 62
     7
100
AcDbLine
 10
360.7348485235026
 20
489.5000000000318
 30
0.0
 11
350.7348485235009
 21
489.5000000000318
 31
0.0
  0
LINE
  5
2EA
330
1F
100
AcDbEntity
  8
LAY-10
  6
CONTINUOUS
 62
     7
100
AcDbLine
 10
351.7348485234972
 20
490.5000000000318
 30
0.0
 11
351.7348485234972
 21
486.3000000000321
 31
0.0
  0
LINE
  5
2EB
330
1F
100
AcDbEntity
  8
LAY-10
  6
CONTINUOUS
 62
     7
100
AcDbLine
 10
359.7348485234963
 20
490.5000000000318
 30
0.0
 11
359.7348485234963
 21
486.3000000000321
 31
0.0
  0
LINE
  5
2EC
330
1F
100
AcDbEntity
  8
LAY-10
  6
CONTINUOUS
 62
     7
100
AcDbLine
 10
351.7348485234972
 20
475.9000000000324
 30
0.0
 11
351.7348485234972
 21
465.5000000000318
 31
0.0
  0
LINE
  5
2ED
330
1F
100
AcDbEntity
  8
LAY-10
  6
CONTINUOUS
 62
     7
100
AcDbLine
 10
359.7348485234963
 20
475.9000000000324
 30
0.0
 11
359.7348485234963
 21
465.5000000000318
 31
0.0
  0
LINE
  5
2EE
330
1F
100
AcDbEntity
  8
LAY-10
  6
CONTINUOUS
 62
     7
100
AcDbLine
 10
360.7348485234954
 20
472.7000000000353
 30
0.0
 11
1900.734848523482
 21
472.7000000000357
 31
0.0
  0
LINE
  5
2EF
330
1F
100
AcDbEntity
  8
LAY-10
  6
CONTINUOUS
 62
     7
100
AcDbLine
 10
1916.234848523482
 20
475.9000000000315
 30
0.0
 11
346.7348485235
 21
475.9000000000315
 31
0.0
  0
LINE
  5
2F0
330
1F
100
AcDbEntity
  8
LAY-10
  6
CONTINUOUS
 62
     7
100
AcDbLine
 10
390.7348485234954
 20
460.5000000000318
 30
0.0
 11
337.5348485234965
 21
460.5000000000318
 31
0.0
  0
LINE
  5
2F1
330
1F
100
AcDbEntity
  8
LAY-10
  6
CONTINUOUS
 62
     7
100
AcDbLine
 10
340.7348485234991
 20
941.5000000000265
 30
0.0
 11
340.7348485234991
 21
2595.500000000028
 31
0.0
  0
LINE
  5
2F2
330
1F
100
AcDbEntity
  8
LAY-10
  6
CONTINUOUS
 62
     7
100
AcDbLine
 10
325.7348485234991
 20
926.5000000000265
 30
0.0
 11
325.7348485234991
 21
2610.500000000028
 31
0.0
  0
LINE
  5
2F3
330
1F
100
AcDbEntity
  8
LAY-10
  6
CONTINUOUS
 62
     7
100
AcDbLine
 10
1920.73484852348
 20
2595.500000000028
 30
0.0
 11
1920.73484852348
 21
941.5000000000255
 31
0.0
  0
LINE
  5
2F4
330
1F
100
AcDbEntity
  8
LAY-10
  6
CONTINUOUS
 62
     7
100
AcDbLine
 10
1935.734848523482
 20
926.5000000000265
 30
0.0
 11
1935.734848523482
 21
2610.500000000028
 31
0.0
  0
LINE
  5
2F5
330
1F
100
AcDbEntity
  8
LAY-10
  6
CONTINUOUS
 62
     7
100
AcDbLine
 10
341.7348485234872
 20
942.4999999999272
 30
0.0
 11
341.7348485234872
 21
2594.499999999929
 31
0.0
  0
LINE
  5
2F6
330
1F
100
AcDbEntity
  8
LAY-10
  6
CONTINUOUS
 62
     7
100
AcDbLine
 10
734.734848523489
 20
942.4999999999272
 30
0.0
 11
734.734848523489
 21
2594.499999999929
 31
0.0
  0
LINE
  5
2F7
330
1F
100
AcDbEntity
  8
LAY-10
  6
CONTINUOUS
 62
     7
100
AcDbLine
 10
736.7348485234871
 20
942.4999999999272
 30
0.0
 11
736.7348485234871
 21
2594.499999999929
 31
0.0
  0
LINE
  5
2F8
330
1F
100
AcDbEntity
  8
LAY-10
  6
CONTINUOUS
 62
     7
100
AcDbLine
 10
1917.7348485234
 20
981.4999999999272
 30
0.0
 11
1917.7348485234
 21
2555.499999999927
 31
0.0
  0
LINE
  5
2F9
330
1F
100
AcDbEntity
  8
LAY-10
  6
CONTINUOUS
 62
     7
100
AcDbLine
 10
1937.101515190136
 20
2263.999999999998
 30
0.0
 11
1965.999999999971
 21
2263.999999999998
 31
0.0
  0
LINE
  5
2FA
330
1F
100
AcDbEntity
  8
LAY-10
  6
CONTINUOUS
 62
     7
100
AcDbLine
 10
1937.101515190136
 20
2272.999999999997
 30
0.0
 11
1965.999999999971
 21
2272.999999999997
 31
0.0
  0
LINE
  5
2FB
330
1F
100
AcDbEntity
  8
LAY-10
  6
CONTINUOUS
 62
     7
100
AcDbLine
 10
1965.999999999971
 20
2263.999999999998
 30
0.0
 11
1965.999999999971
 21
2272.999999999997
 31
0.0
  0
LINE
  5
2FC
330
1F
100
AcDbEntity
  8
LAY-10
  6
CONTINUOUS
 62
     7
100
AcDbLine
 10
1937.101515190136
 20
1763.999999999999
 30
0.0
 11
1965.999999999971
 21
1763.999999999999
 31
0.0
  0
LINE
  5
2FD
330
1F
100
AcDbEntity
  8
LAY-10
  6
CONTINUOUS
 62
     7
100
AcDbLine
 10
1937.101515190136
 20
1772.999999999998
 30
0.0
 11
1965.999999999971
 21
1772.999999999998
 31
0.0
  0
LINE
  5
2FE
330
1F
100
AcDbEntity
  8
LAY-10
  6
CONTINUOUS
 62
     7
100
AcDbLine
 10
1965.999999999971
 20
1763.999999999999
 30
0.0
 11
1965.999999999971
 21
1772.999999999998
 31
0.0
  0
LINE
  5
2FF
330
1F
100
AcDbEntity
  8
LAY-10
  6
CONTINUOUS
 62
     7
100
AcDbLine
 10
1937.101515190136
 20
1272.999999999997
 30
0.0
 11
1965.999999999973
 21
1272.999999999997
 31
0.0
  0
LINE
  5
300
330
1F
100
AcDbEntity
  8
LAY-10
  6
CONTINUOUS
 62
     7
100
AcDbLine
 10
1937.101515190136
 20
1263.999999999998
 30
0.0
 11
1965.999999999973
 21
1263.999999999998
 31
0.0
  0
LINE
  5
301
330
1F
100
AcDbEntity
  8
LAY-10
  6
CONTINUOUS
 62
     7
100
AcDbLine
 10
1965.999999999973
 20
1272.999999999997
 30
0.0
 11
1965.999999999973
 21
1263.999999999998
 31
0.0
  0
LINE
  5
302
330
1F
100
AcDbEntity
  8
LAY-10
  6
CONTINUOUS
 62
     7
100
AcDbLine
 10
324.3681818568641
 20
1273.000000000022
 30
0.0
 11
295.4696970470288
 21
1273.000000000022
 31
0.0
  0
LINE
  5
303
330
1F
100
AcDbEntity
  8
LAY-10
  6
CONTINUOUS
 62
     7
100
AcDbLine
 10
324.3681818568641
 20
1264.000000000023
 30
0.0
 11
295.4696970470288
 21
1264.000000000023
 31
0.0
  0
LINE
  5
304
330
1F
100
AcDbEntity
  8
LAY-10
  6
CONTINUOUS
 62
     7
100
AcDbLine
 10
295.4696970470288
 20
1273.000000000022
 30
0.0
 11
295.4696970470288
 21
1264.000000000023
 31
0.0
  0
LINE
  5
305
330
1F
100
AcDbEntity
  8
LAY-10
  6
CONTINUOUS
 62
     7
100
AcDbLine
 10
324.3681818568641
 20
1773.000000000021
 30
0.0
 11
295.4696970470288
 21
1773.000000000021
 31
0.0
  0
LINE
  5
306
330
1F
100
AcDbEntity
  8
LAY-10
  6
CONTINUOUS
 62
     7
100
AcDbLine
 10
324.3681818568641
 20
1764.000000000023
 30
0.0
 11
295.4696970470288
 21
1764.000000000023
 31
0.0
  0
LINE
  5
307
330
1F
100
AcDbEntity
  8
LAY-10
  6
CONTINUOUS
 62
     7
100
AcDbLine
 10
295.4696970470288
 20
1773.000000000021
 30
0.0
 11
295.4696970470288
 21
1764.000000000023
 31
0.0
  0
LINE
  5
308
330
1F
100
AcDbEntity
  8
LAY-10
  6
CONTINUOUS
 62
     7
100
AcDbLine
 10
324.3681818568632
 20
2264.000000000023
 30
0.0
 11
295.469697047027
 21
2264.000000000023
 31
0.0
  0
LINE
  5
309
330
1F
100
AcDbEntity
  8
LAY-10
  6
CONTINUOUS
 62
     7
100
AcDbLine
 10
324.3681818568632
 20
2273.000000000022
 30
0.0
 11
295.469697047027
 21
2273.000000000022
 31
0.0
  0
LINE
  5
30A
330
1F
100
AcDbEntity
  8
LAY-10
  6
CONTINUOUS
 62
     7
100
AcDbLine
 10
295.469697047027
 20
2264.000000000023
 30
0.0
 11
295.469697047027
 21
2273.000000000022
 31
0.0
  0
LINE
  5
30B
330
1F
100
AcDbEntity
  8
LAY-10
  6
CONTINUOUS
 62
     7
100
AcDbLine
 10
1920.734848523482
 20
560.4999999999818
 30
0.0
 11
1920.734848523482
 21
545.4999999999818
 31
0.0
  0
LINE
  5
30C
330
1F
100
AcDbEntity
  8
LAY-10
  6
CONTINUOUS
 62
     7
100
AcDbLine
 10
1923.734848523482
 20
557.4999999999818
 30
0.0
 11
1935.734848523482
 21
557.4999999999818
 31
0.0
  0
LINE
  5
30D
330
1F
100
AcDbEntity
  8
LAY-10
  6
CONTINUOUS
 62
     7
100
AcDbLine
 10
1920.734848523482
 20
545.4999999999818
 30
0.0
 11
1923.734848523482
 21
545.4999999999818
 31
0.0
  0
LINE
  5
30E
330
1F
100
AcDbEntity
  8
LAY-10
  6
CONTINUOUS
 62
     7
100
AcDbLine
 10
1935.734848523482
 20
560.4999999999818
 30
0.0
 11
1935.734848523482
 21
557.4999999999818
 31
0.0
  0
LINE
  5
30F
330
1F
100
AcDbEntity
  8
LAY-10
  6
CONTINUOUS
 62
     7
100
AcDbLine
 10
1920.7348485235
 20
560.5000000000327
 30
0.0
 11
1935.7348485235
 21
560.5000000000327
 31
0.0
  0
LINE
  5
310
330
1F
100
AcDbEntity
  8
LAY-10
  6
CONTINUOUS
 62
     7
100
AcDbLine
 10
1923.734848523482
 20
557.4999999999818
 30
0.0
 11
1923.734848523482
 21
463.7000000000326
 31
0.0
  0
LINE
  5
311
330
1F
100
AcDbEntity
  8
LAY-10
  6
CONTINUOUS
 62
     7
100
AcDbLine
 10
1926.934848523483
 20
463.5000000000327
 30
0.0
 11
1926.934848523483
 21
557.4999999999818
 31
0.0
  0
LINE
  5
312
330
1F
100
AcDbEntity
  8
LAY-10
  6
CONTINUOUS
 62
     7
100
AcDbLine
 10
340.7348485234963
 20
560.4999999999818
 30
0.0
 11
340.7348485234963
 21
545.4999999999818
 31
0.0
  0
LINE
  5
313
330
1F
100
AcDbEntity
  8
LAY-10
  6
CONTINUOUS
 62
     7
100
AcDbLine
 10
337.7348485234954
 20
557.4999999999818
 30
0.0
 11
325.7348485234963
 21
557.4999999999818
 31
0.0
  0
LINE
  5
314
330
1F
100
AcDbEntity
  8
LAY-10
  6
CONTINUOUS
 62
     7
100
AcDbLine
 10
340.7348485234963
 20
545.4999999999818
 30
0.0
 11
337.7348485234954
 21
545.4999999999818
 31
0.0
  0
LINE
  5
315
330
1F
100
AcDbEntity
  8
LAY-10
  6
CONTINUOUS
 62
     7
100
AcDbLine
 10
325.7348485234963
 20
560.4999999999818
 30
0.0
 11
325.7348485234963
 21
557.4999999999818
 31
0.0
  0
LINE
  5
316
330
1F
100
AcDbEntity
  8
LAY-10
  6
CONTINUOUS
 62
     7
100
AcDbLine
 10
325.7348485235
 20
560.5000000000327
 30
0.0
 11
340.7348485235
 21
560.5000000000327
 31
0.0
  0
LINE
  5
317
330
1F
100
AcDbEntity
  8
LAY-10
  6
CONTINUOUS
 62
     7
100
AcDbLine
 10
334.5348485234965
 20
463.5000000000318
 30
0.0
 11
334.5348485234965
 21
557.4999999999854
 31
0.0
  0
LINE
  5
318
330
1F
100
AcDbEntity
  8
LAY-10
  6
CONTINUOUS
 62
     7
100
AcDbLine
 10
337.7348485234972
 20
557.4999999999818
 30
0.0
 11
337.7348485234972
 21
463.7000000000326
 31
0.0
  0
LINE
  5
319
330
1F
100
AcDbEntity
  8
LAY-10
  6
CONTINUOUS
 62
     7
100
AcDbLine
 10
350.9348485234898
 20
515.5000000000095
 30
0.0
 11
725.5348485234882
 21
515.50000000001
 31
0.0
  0
LINE
  5
31A
330
1F
100
AcDbEntity
  8
LAY-10
  6
CONTINUOUS
 62
     7
100
AcDbLine
 10
734.734848523489
 20
560.5000000000091
 30
0.0
 11
341.73484852349
 21
560.5000000000095
 31
0.0
  0
LINE
  5
31B
330
1F
100
AcDbEntity
  8
LAY-10
  6
CONTINUOUS
 62
     7
100
AcDbLine
 10
341.73484852349
 20
545.5000000000095
 30
0.0
 11
344.7348485234899
 21
545.5000000000095
 31
0.0
  0
LINE
  5
31C
330
1F
100
AcDbEntity
  8
LAY-10
  6
CONTINUOUS
 62
     7
100
AcDbLine
 10
341.73484852349
 20
560.5000000000095
 30
0.0
 11
341.73484852349
 21
545.5000000000095
 31
0.0
  0
LINE
  5
31D
330
1F
100
AcDbEntity
  8
LAY-10
  6
CONTINUOUS
 62
     7
100
AcDbLine
 10
344.7348485234899
 20
557.5000000000095
 30
0.0
 11
344.7348485234899
 21
518.3000000000093
 31
0.0
  0
ARC
  5
31E
330
1F
100
AcDbEntity
  8
LAY-10
  6
CONTINUOUS
 62
     7
100
AcDbCircle
 10
350.7348485234909
 20
518.3000000000093
 30
0.0
 40
6.000000000000005
100
AcDbArc
 50
180.0
 51
270.0000000000002
  0
ARC
  5
31F
330
1F
100
AcDbEntity
  8
LAY-10
  6
CONTINUOUS
 62
     7
100
AcDbCircle
 10
350.9348485234898
 20
518.5000000000091
 30
0.0
 40
3.000000000000003
100
AcDbArc
 50
180.0
 51
270.0000000000002
  0
LINE
  5
320
330
1F
100
AcDbEntity
  8
LAY-10
  6
CONTINUOUS
 62
     7
100
AcDbLine
 10
347.9348485234898
 20
557.5000000000095
 30
0.0
 11
347.9348485234898
 21
518.5000000000091
 31
0.0
  0
LINE
  5
321
330
1F
100
AcDbEntity
  8
LAY-10
  6
CONTINUOUS
 62
     7
100
AcDbLine
 10
734.734848523489
 20
560.50000000001
 30
0.0
 11
734.734848523489
 21
545.50000000001
 31
0.0
  0
LINE
  5
322
330
1F
100
AcDbEntity
  8
LAY-10
  6
CONTINUOUS
 62
     7
100
AcDbLine
 10
734.734848523489
 20
545.50000000001
 30
0.0
 11
731.7348485234891
 21
545.50000000001
 31
0.0
  0
LINE
  5
323
330
1F
100
AcDbEntity
  8
LAY-10
  6
CONTINUOUS
 62
     7
100
AcDbLine
 10
731.7348485234891
 20
557.50000000001
 30
0.0
 11
731.7348485234891
 21
518.3000000000097
 31
0.0
  0
ARC
  5
324
330
1F
100
AcDbEntity
  8
LAY-10
  6
CONTINUOUS
 62
     7
100
AcDbCircle
 10
725.7348485234891
 20
518.3000000000097
 30
0.0
 40
6.000000000000005
100
AcDbArc
 50
270.0000000000002
 51
0.0
  0
ARC
  5
325
330
1F
100
AcDbEntity
  8
LAY-10
  6
CONTINUOUS
 62
     7
100
AcDbCircle
 10
725.5348485234882
 20
518.5000000000095
 30
0.0
 40
3.000000000000003
100
AcDbArc
 50
270.0000000000002
 51
0.0
  0
LINE
  5
326
330
1F
100
AcDbEntity
  8
LAY-10
  6
CONTINUOUS
 62
     7
100
AcDbLine
 10
728.53484852349
 20
557.50000000001
 30
0.0
 11
728.53484852349
 21
518.5000000000095
 31
0.0
  0
LINE
  5
327
330
1F
100
AcDbEntity
  8
LAY-10
  6
CONTINUOUS
 62
     7
100
AcDbLine
 10
461.7348485235036
 20
493.3000000000093
 30
0.0
 11
614.7348485235036
 21
493.3000000000093
 31
0.0
  0
LINE
  5
328
330
1F
100
AcDbEntity
  8
LAY-10
  6
CONTINUOUS
 62
     7
100
AcDbLine
 10
464.7348485235037
 20
493.3000000000093
 30
0.0
 11
464.7348485235037
 21
512.3000000000102
 31
0.0
  0
LINE
  5
329
330
1F
100
AcDbEntity
  8
LAY-10
  6
CONTINUOUS
 62
     7
100
AcDbLine
 10
461.7348485235036
 20
493.3000000000102
 30
0.0
 11
461.7348485235036
 21
512.3000000000102
 31
0.0
  0
LINE
  5
32A
330
1F
100
AcDbEntity
  8
LAY-10
  6
CONTINUOUS
 62
     7
100
AcDbLine
 10
611.7348485235036
 20
493.3000000000093
 30
0.0
 11
611.7348485235036
 21
512.3000000000102
 31
0.0
  0
LINE
  5
32B
330
1F
100
AcDbEntity
  8
LAY-10
  6
CONTINUOUS
 62
     7
100
AcDbLine
 10
614.7348485235036
 20
493.3000000000102
 30
0.0
 11
614.7348485235036
 21
512.3000000000102
 31
0.0
  0
LINE
  5
32C
330
1F
100
AcDbEntity
  8
LAY-10
  6
CONTINUOUS
 62
     7
100
AcDbLine
 10
745.9348485234898
 20
515.5000000000095
 30
0.0
 11
1120.534848523488
 21
515.50000000001
 31
0.0
  0
LINE
  5
32D
330
1F
100
AcDbEntity
  8
LAY-10
  6
CONTINUOUS
 62
     7
100
AcDbLine
 10
1129.734848523489
 20
560.5000000000091
 30
0.0
 11
736.7348485234891
 21
560.5000000000095
 31
0.0
  0
LINE
  5
32E
330
1F
100
AcDbEntity
  8
LAY-10
  6
CONTINUOUS
 62
     7
100
AcDbLine
 10
736.7348485234891
 20
545.5000000000095
 30
0.0
 11
739.734848523489
 21
545.5000000000095
 31
0.0
  0
LINE
  5
32F
330
1F
100
AcDbEntity
  8
LAY-10
  6
CONTINUOUS
 62
     7
100
AcDbLine
 10
736.7348485234891
 20
560.5000000000095
 30
0.0
 11
736.7348485234891
 21
545.5000000000095
 31
0.0
  0
LINE
  5
330
330
1F
100
AcDbEntity
  8
LAY-10
  6
CONTINUOUS
 62
     7
100
AcDbLine
 10
739.734848523489
 20
557.5000000000095
 30
0.0
 11
739.734848523489
 21
518.3000000000093
 31
0.0
  0
ARC
  5
331
330
1F
100
AcDbEntity
  8
LAY-10
  6
CONTINUOUS
 62
     7
100
AcDbCircle
 10
745.7348485234909
 20
518.3000000000093
 30
0.0
 40
6.000000000000005
100
AcDbArc
 50
180.0
 51
270.0000000000002
  0
ARC
  5
332
330
1F
100
AcDbEntity
  8
LAY-10
  6
CONTINUOUS
 62
     7
100
AcDbCircle
 10
745.9348485234898
 20
518.5000000000091
 30
0.0
 40
3.000000000000003
100
AcDbArc
 50
180.0
 51
270.0000000000002
  0
LINE
  5
333
330
1F
100
AcDbEntity
  8
LAY-10
  6
CONTINUOUS
 62
     7
100
AcDbLine
 10
742.9348485234898
 20
557.5000000000095
 30
0.0
 11
742.9348485234898
 21
518.5000000000091
 31
0.0
  0
LINE
  5
334
330
1F
100
AcDbEntity
  8
LAY-10
  6
CONTINUOUS
 62
     7
100
AcDbLine
 10
1129.734848523489
 20
560.50000000001
 30
0.0
 11
1129.734848523489
 21
545.50000000001
 31
0.0
  0
LINE
  5
335
330
1F
100
AcDbEntity
  8
LAY-10
  6
CONTINUOUS
 62
     7
100
AcDbLine
 10
1129.734848523489
 20
545.50000000001
 30
0.0
 11
1126.734848523489
 21
545.50000000001
 31
0.0
  0
LINE
  5
336
330
1F
100
AcDbEntity
  8
LAY-10
  6
CONTINUOUS
 62
     7
100
AcDbLine
 10
1126.734848523489
 20
557.50000000001
 30
0.0
 11
1126.734848523489
 21
518.3000000000097
 31
0.0
  0
ARC
  5
337
330
1F
100
AcDbEntity
  8
LAY-10
  6
CONTINUOUS
 62
     7
100
AcDbCircle
 10
1120.734848523489
 20
518.3000000000097
 30
0.0
 40
6.000000000000005
100
AcDbArc
 50
270.0000000000002
 51
0.0
  0
ARC
  5
338
330
1F
100
AcDbEntity
  8
LAY-10
  6
CONTINUOUS
 62
     7
100
AcDbCircle
 10
1120.534848523488
 20
518.5000000000095
 30
0.0
 40
3.000000000000003
100
AcDbArc
 50
270.0000000000002
 51
0.0
  0
LINE
  5
339
330
1F
100
AcDbEntity
  8
LAY-10
  6
CONTINUOUS
 62
     7
100
AcDbLine
 10
1123.53484852349
 20
557.50000000001
 30
0.0
 11
1123.53484852349
 21
518.5000000000095
 31
0.0
  0
LINE
  5
33A
330
1F
100
AcDbEntity
  8
LAY-10
  6
CONTINUOUS
 62
     7
100
AcDbLine
 10
856.7348485235036
 20
493.3000000000093
 30
0.0
 11
1009.734848523504
 21
493.3000000000093
 31
0.0
  0
LINE
  5
33B
330
1F
100
AcDbEntity
  8
LAY-10
  6
CONTINUOUS
 62
     7
100
AcDbLine
 10
859.7348485235036
 20
493.3000000000093
 30
0.0
 11
859.7348485235036
 21
512.3000000000102
 31
0.0
  0
LINE
  5
33C
330
1F
100
AcDbEntity
  8
LAY-10
  6
CONTINUOUS
 62
     7
100
AcDbLine
 10
856.7348485235036
 20
493.3000000000102
 30
0.0
 11
856.7348485235036
 21
512.3000000000102
 31
0.0
  0
LINE
  5
33D
330
1F
100
AcDbEntity
  8
LAY-10
  6
CONTINUOUS
 62
     7
100
AcDbLine
 10
1006.734848523504
 20
493.3000000000093
 30
0.0
 11
1006.734848523504
 21
512.3000000000102
 31
0.0
  0
LINE
  5
33E
330
1F
100
AcDbEntity
  8
LAY-10
  6
CONTINUOUS
 62
     7
100
AcDbLine
 10
1009.734848523504
 20
493.3000000000102
 30
0.0
 11
1009.734848523504
 21
512.3000000000102
 31
0.0
  0
LINE
  5
33F
330
1F
100
AcDbEntity
  8
LAY-10
  6
CONTINUOUS
 62
     7
100
AcDbLine
 10
1140.934848523501
 20
515.5000000000095
 30
0.0
 11
1515.534848523499
 21
515.50000000001
 31
0.0
  0
LINE
  5
340
330
1F
100
AcDbEntity
  8
LAY-10
  6
CONTINUOUS
 62
     7
100
AcDbLine
 10
1524.7348485235
 20
560.5000000000091
 30
0.0
 11
1131.7348485235
 21
560.5000000000095
 31
0.0
  0
LINE
  5
341
330
1F
100
AcDbEntity
  8
LAY-10
  6
CONTINUOUS
 62
     7
100
AcDbLine
 10
1131.7348485235
 20
545.5000000000095
 30
0.0
 11
1134.7348485235
 21
545.5000000000095
 31
0.0
  0
LINE
  5
342
330
1F
100
AcDbEntity
  8
LAY-10
  6
CONTINUOUS
 62
     7
100
AcDbLine
 10
1131.7348485235
 20
560.5000000000095
 30
0.0
 11
1131.7348485235
 21
545.5000000000095
 31
0.0
  0
LINE
  5
343
330
1F
100
AcDbEntity
  8
LAY-10
  6
CONTINUOUS
 62
     7
100
AcDbLine
 10
1134.7348485235
 20
557.5000000000095
 30
0.0
 11
1134.7348485235
 21
518.3000000000093
 31
0.0
  0
ARC
  5
344
330
1F
100
AcDbEntity
  8
LAY-10
  6
CONTINUOUS
 62
     7
100
AcDbCircle
 10
1140.7348485235
 20
518.3000000000093
 30
0.0
 40
6.000000000000005
100
AcDbArc
 50
180.0
 51
270.0000000000002
  0
ARC
  5
345
330
1F
100
AcDbEntity
  8
LAY-10
  6
CONTINUOUS
 62
     7
100
AcDbCircle
 10
1140.934848523501
 20
518.5000000000091
 30
0.0
 40
3.000000000000003
100
AcDbArc
 50
180.0
 51
270.0000000000002
  0
LINE
  5
346
330
1F
100
AcDbEntity
  8
LAY-10
  6
CONTINUOUS
 62
     7
100
AcDbLine
 10
1137.934848523501
 20
557.5000000000095
 30
0.0
 11
1137.934848523501
 21
518.5000000000091
 31
0.0
  0
LINE
  5
347
330
1F
100
AcDbEntity
  8
LAY-10
  6
CONTINUOUS
 62
     7
100
AcDbLine
 10
1524.7348485235
 20
560.50000000001
 30
0.0
 11
1524.7348485235
 21
545.50000000001
 31
0.0
  0
LINE
  5
348
330
1F
100
AcDbEntity
  8
LAY-10
  6
CONTINUOUS
 62
     7
100
AcDbLine
 10
1524.7348485235
 20
545.50000000001
 30
0.0
 11
1521.734848523498
 21
545.50000000001
 31
0.0
  0
LINE
  5
349
330
1F
100
AcDbEntity
  8
LAY-10
  6
CONTINUOUS
 62
     7
100
AcDbLine
 10
1521.734848523498
 20
557.50000000001
 30
0.0
 11
1521.734848523498
 21
518.3000000000097
 31
0.0
  0
ARC
  5
34A
330
1F
100
AcDbEntity
  8
LAY-10
  6
CONTINUOUS
 62
     7
100
AcDbCircle
 10
1515.7348485235
 20
518.3000000000097
 30
0.0
 40
6.000000000000005
100
AcDbArc
 50
270.0000000000002
 51
0.0
  0
ARC
  5
34B
330
1F
100
AcDbEntity
  8
LAY-10
  6
CONTINUOUS
 62
     7
100
AcDbCircle
 10
1515.534848523499
 20
518.5000000000095
 30
0.0
 40
3.000000000000003
100
AcDbArc
 50
270.0000000000002
 51
0.0
  0
LINE
  5
34C
330
1F
100
AcDbEntity
  8
LAY-10
  6
CONTINUOUS
 62
     7
100
AcDbLine
 10
1518.534848523499
 20
557.50000000001
 30
0.0
 11
1518.534848523499
 21
518.5000000000095
 31
0.0
  0
LINE
  5
34D
330
1F
100
AcDbEntity
  8
LAY-10
  6
CONTINUOUS
 62
     7
100
AcDbLine
 10
1251.734848523515
 20
493.3000000000093
 30
0.0
 11
1404.734848523514
 21
493.3000000000093
 31
0.0
  0
LINE
  5
34E
330
1F
100
AcDbEntity
  8
LAY-10
  6
CONTINUOUS
 62
     7
100
AcDbLine
 10
1254.734848523515
 20
493.3000000000093
 30
0.0
 11
1254.734848523515
 21
512.3000000000102
 31
0.0
  0
LINE
  5
34F
330
1F
100
AcDbEntity
  8
LAY-10
  6
CONTINUOUS
 62
     7
100
AcDbLine
 10
1251.734848523515
 20
493.3000000000102
 30
0.0
 11
1251.734848523515
 21
512.3000000000102
 31
0.0
  0
LINE
  5
350
330
1F
100
AcDbEntity
  8
LAY-10
  6
CONTINUOUS
 62
     7
100
AcDbLine
 10
1401.734848523515
 20
493.3000000000093
 30
0.0
 11
1401.734848523515
 21
512.3000000000102
 31
0.0
  0
LINE
  5
351
330
1F
100
AcDbEntity
  8
LAY-10
  6
CONTINUOUS
 62
     7
100
AcDbLine
 10
1404.734848523514
 20
493.3000000000102
 30
0.0
 11
1404.734848523514
 21
512.3000000000102
 31
0.0
  0
LINE
  5
352
330
1F
100
AcDbEntity
  8
LAY-10
  6
CONTINUOUS
 62
     7
100
AcDbLine
 10
1535.934848523401
 20
515.5000000000095
 30
0.0
 11
1910.534848523399
 21
515.50000000001
 31
0.0
  0
LINE
  5
353
330
1F
100
AcDbEntity
  8
LAY-10
  6
CONTINUOUS
 62
     7
100
AcDbLine
 10
1919.7348485234
 20
560.5000000000091
 30
0.0
 11
1526.7348485234
 21
560.5000000000095
 31
0.0
  0
LINE
  5
354
330
1F
100
AcDbEntity
  8
LAY-10
  6
CONTINUOUS
 62
     7
100
AcDbLine
 10
1526.7348485234
 20
545.5000000000095
 30
0.0
 11
1529.7348485234
 21
545.5000000000095
 31
0.0
  0
LINE
  5
355
330
1F
100
AcDbEntity
  8
LAY-10
  6
CONTINUOUS
 62
     7
100
AcDbLine
 10
1526.7348485234
 20
560.5000000000095
 30
0.0
 11
1526.7348485234
 21
545.5000000000095
 31
0.0
  0
LINE
  5
356
330
1F
100
AcDbEntity
  8
LAY-10
  6
CONTINUOUS
 62
     7
100
AcDbLine
 10
1529.7348485234
 20
557.5000000000095
 30
0.0
 11
1529.7348485234
 21
518.3000000000093
 31
0.0
  0
ARC
  5
357
330
1F
100
AcDbEntity
  8
LAY-10
  6
CONTINUOUS
 62
     7
100
AcDbCircle
 10
1535.7348485234
 20
518.3000000000093
 30
0.0
 40
6.000000000000005
100
AcDbArc
 50
180.0
 51
270.0000000000002
  0
ARC
  5
358
330
1F
100
AcDbEntity
  8
LAY-10
  6
CONTINUOUS
 62
     7
100
AcDbCircle
 10
1535.934848523401
 20
518.5000000000091
 30
0.0
 40
3.000000000000003
100
AcDbArc
 50
180.0
 51
270.0000000000002
  0
LINE
  5
359
330
1F
100
AcDbEntity
  8
LAY-10
  6
CONTINUOUS
 62
     7
100
AcDbLine
 10
1532.934848523401
 20
557.5000000000095
 30
0.0
 11
1532.934848523401
 21
518.5000000000091
 31
0.0
  0
LINE
  5
35A
330
1F
100
AcDbEntity
  8
LAY-10
  6
CONTINUOUS
 62
     7
100
AcDbLine
 10
1919.7348485234
 20
560.50000000001
 30
0.0
 11
1919.7348485234
 21
545.50000000001
 31
0.0
  0
LINE
  5
35B
330
1F
100
AcDbEntity
  8
LAY-10
  6
CONTINUOUS
 62
     7
100
AcDbLine
 10
1919.7348485234
 20
545.50000000001
 30
0.0
 11
1916.734848523398
 21
545.50000000001
 31
0.0
  0
LINE
  5
35C
330
1F
100
AcDbEntity
  8
LAY-10
  6
CONTINUOUS
 62
     7
100
AcDbLine
 10
1916.734848523398
 20
557.50000000001
 30
0.0
 11
1916.734848523398
 21
518.3000000000097
 31
0.0
  0
ARC
  5
35D
330
1F
100
AcDbEntity
  8
LAY-10
  6
CONTINUOUS
 62
     7
100
AcDbCircle
 10
1910.734848523398
 20
518.3000000000097
 30
0.0
 40
6.000000000000005
100
AcDbArc
 50
270.0000000000002
 51
0.0
  0
ARC
  5
35E
330
1F
100
AcDbEntity
  8
LAY-10
  6
CONTINUOUS
 62
     7
100
AcDbCircle
 10
1910.534848523399
 20
518.5000000000095
 30
0.0
 40
3.000000000000003
100
AcDbArc
 50
270.0000000000002
 51
0.0
  0
LINE
  5
35F
330
1F
100
AcDbEntity
  8
LAY-10
  6
CONTINUOUS
 62
     7
100
AcDbLine
 10
1913.534848523399
 20
557.50000000001
 30
0.0
 11
1913.534848523399
 21
518.5000000000095
 31
0.0
  0
LINE
  5
360
330
1F
100
AcDbEntity
  8
LAY-10
  6
CONTINUOUS
 62
     7
100
AcDbLine
 10
1646.734848523414
 20
493.3000000000093
 30
0.0
 11
1799.734848523415
 21
493.3000000000093
 31
0.0
  0
LINE
  5
361
330
1F
100
AcDbEntity
  8
LAY-10
  6
CONTINUOUS
 62
     7
100
AcDbLine
 10
1649.734848523415
 20
493.3000000000093
 30
0.0
 11
1649.734848523415
 21
512.3000000000102
 31
0.0
  0
LINE
  5
362
330
1F
100
AcDbEntity
  8
LAY-10
  6
CONTINUOUS
 62
     7
100
AcDbLine
 10
1646.734848523414
 20
493.3000000000102
 30
0.0
 11
1646.734848523414
 21
512.3000000000102
 31
0.0
  0
LINE
  5
363
330
1F
100
AcDbEntity
  8
LAY-10
  6
CONTINUOUS
 62
     7
100
AcDbLine
 10
1796.734848523414
 20
493.3000000000093
 30
0.0
 11
1796.734848523414
 21
512.3000000000102
 31
0.0
  0
LINE
  5
364
330
1F
100
AcDbEntity
  8
LAY-10
  6
CONTINUOUS
 62
     7
100
AcDbLine
 10
1799.734848523415
 20
493.3000000000102
 30
0.0
 11
1799.734848523415
 21
512.3000000000102
 31
0.0
  0
LINE
  5
365
330
1F
100
AcDbEntity
  8
LAY-10
  6
CONTINUOUS
 62
     7
100
AcDbLine
 10
337.7348485234972
 20
512.3000000000102
 30
0.0
 11
1923.734848523482
 21
512.3000000000102
 31
0.0
  0
LINE
  5
366
330
1F
100
AcDbEntity
  8
LAY-10
  6
CONTINUOUS
 62
     7
100
AcDbLine
 10
337.7348485235
 20
510.3000000000102
 30
0.0
 11
461.7348485235
 21
510.3000000000102
 31
0.0
  0
LINE
  5
367
330
1F
100
AcDbEntity
  8
LAY-10
  6
CONTINUOUS
 62
     7
100
AcDbLine
 10
1799.7348485234
 20
510.3000000000102
 30
0.0
 11
1923.7348485234
 21
510.3000000000102
 31
0.0
  0
LINE
  5
368
330
1F
100
AcDbEntity
  8
LAY-10
  6
CONTINUOUS
 62
     7
100
AcDbLine
 10
1404.7348485235
 20
510.3000000000102
 30
0.0
 11
1646.734848523414
 21
510.3000000000102
 31
0.0
  0
LINE
  5
369
330
1F
100
AcDbEntity
  8
LAY-10
  6
CONTINUOUS
 62
     7
100
AcDbLine
 10
1009.7348485235
 20
510.3000000000102
 30
0.0
 11
1251.734848523515
 21
510.3000000000102
 31
0.0
  0
LINE
  5
36A
330
1F
100
AcDbEntity
  8
LAY-10
  6
CONTINUOUS
 62
     7
100
AcDbLine
 10
614.7348485235
 20
510.3000000000102
 30
0.0
 11
856.7348485235
 21
510.3000000000102
 31
0.0
  0
LINE
  5
36B
330
1F
100
AcDbEntity
  8
LAY-10
  6
CONTINUOUS
 62
     7
100
AcDbLine
 10
2366.734848523478
 20
2537.500000000012
 30
0.0
 11
2369.934848523475
 21
2537.500000000012
 31
0.0
  0
LINE
  5
36C
330
1F
100
AcDbEntity
  8
LAY-10
  6
CONTINUOUS
 62
     7
100
AcDbLine
 10
2366.734848523478
 20
2549.500000000011
 30
0.0
 11
2369.934848523475
 21
2549.500000000011
 31
0.0
  0
LINE
  5
36D
330
1F
100
AcDbEntity
  8
LAY-10
  6
CONTINUOUS
 62
     7
100
AcDbLine
 10
2357.734848523476
 20
2537.500000000012
 30
0.0
 11
2354.534848523475
 21
2537.500000000012
 31
0.0
  0
LINE
  5
36E
330
1F
100
AcDbEntity
  8
LAY-10
  6
CONTINUOUS
 62
     7
100
AcDbLine
 10
2357.734848523476
 20
2549.500000000011
 30
0.0
 11
2354.534848523475
 21
2549.500000000011
 31
0.0
  0
LINE
  5
36F
330
1F
100
AcDbEntity
  8
LAY-10
  6
CONTINUOUS
 62
     7
100
AcDbLine
 10
2366.734848523478
 20
2555.500000000011
 30
0.0
 11
2357.534848523475
 21
2555.500000000011
 31
0.0
  0
LINE
  5
370
330
1F
100
AcDbEntity
  8
LAY-10
  6
CONTINUOUS
 62
     7
100
AcDbLine
 10
2366.734848523478
 20
2552.50000000001
 30
0.0
 11
2357.734848523476
 21
2552.50000000001
 31
0.0
  0
ARC
  5
371
330
1F
100
AcDbEntity
  8
LAY-10
  6
CONTINUOUS
 62
     7
100
AcDbCircle
 10
2366.934848523477
 20
2558.700000000011
 30
0.0
 40
3.000000000000003
100
AcDbArc
 50
0.0
 51
90.00000000000001
  0
ARC
  5
372
330
1F
100
AcDbEntity
  8
LAY-10
  6
CONTINUOUS
 62
     7
100
AcDbCircle
 10
2357.534848523475
 20
2552.50000000001
 30
0.0
 40
3.000000000000003
100
AcDbArc
 50
90.00000000000001
 51
180.0
  0
LINE
  5
373
330
1F
100
AcDbEntity
  8
LAY-10
  6
CONTINUOUS
 62
     7
100
AcDbLine
 10
2366.134848523478
 20
2597.700000000011
 30
0.0
 11
2366.134848523478
 21
2561.700000000009
 31
0.0
  0
LINE
  5
374
330
1F
100
AcDbEntity
  8
LAY-10
  6
CONTINUOUS
 62
     7
100
AcDbLine
 10
2366.134848523478
 20
2564.100000000011
 30
0.0
 11
2368.783773308451
 21
2561.062515003033
 31
0.0
  0
LINE
  5
375
330
1F
100
AcDbEntity
  8
LAY-10
  6
CONTINUOUS
 62
     7
100
AcDbLine
 10
2335.134848523476
 20
2597.700000000011
 30
0.0
 11
2335.134848523476
 21
2561.700000000009
 31
0.0
  0
LINE
  5
376
330
1F
100
AcDbEntity
  8
LAY-10
  6
CONTINUOUS
 62
     7
100
AcDbLine
 10
2332.794848523476
 20
2561.700000000009
 30
0.0
 11
2335.134848523476
 21
2563.98000000001
 31
0.0
  0
ARC
  5
377
330
1F
100
AcDbEntity
  8
LAY-10
  6
CONTINUOUS
 62
     7
100
AcDbCircle
 10
2316.934848523477
 20
2595.50000000001
 30
0.0
 40
3.000000000000003
100
AcDbArc
 50
0.0
 51
90.00000000000001
  0
ARC
  5
378
330
1F
100
AcDbEntity
  8
LAY-10
  6
CONTINUOUS
 62
     7
100
AcDbCircle
 10
2317.134848523476
 20
2595.700000000009
 30
0.0
 40
6.000000000000005
100
AcDbArc
 50
0.0
 51
90.00000000000001
  0
ARC
  5
379
330
1F
100
AcDbEntity
  8
LAY-10
  6
CONTINUOUS
 62
     7
100
AcDbCircle
 10
2322.934848523475
 20
2561.50000000001
 30
0.0
 40
3.000000000000003
100
AcDbArc
 50
180.0
 51
270.0000000000002
  0
LINE
  5
37A
330
1F
100
AcDbEntity
  8
LAY-10
  6
CONTINUOUS
 62
     7
100
AcDbLine
 10
2319.934848523475
 20
2561.50000000001
 30
0.0
 11
2317.93484852348
 21
2561.50000000001
 31
0.0
  0
LINE
  5
37B
330
1F
100
AcDbEntity
  8
LAY-10
  6
CONTINUOUS
 62
     7
100
AcDbLine
 10
2360.83333333331
 20
2639.398484809846
 30
0.0
 11
2366.490187582802
 21
2633.741630560352
 31
0.0
  0
LINE
  5
37C
330
1F
100
AcDbEntity
  8
LAY-10
  6
CONTINUOUS
 62
     7
100
AcDbLine
 10
2360.83333333331
 20
2639.398484809846
 30
0.0
 11
2325.477994273982
 21
2604.043145750518
 31
0.0
  0
ARC
  5
37D
330
1F
100
AcDbEntity
  8
LAY-10
  6
CONTINUOUS
 62
     7
100
AcDbCircle
 10
2331.134848523474
 20
2598.386291501025
 30
0.0
 40
8.0
100
AcDbArc
 50
134.9999999999862
 51
180.0
  0
LINE
  5
37E
330
1F
100
AcDbEntity
  8
LAY-10
  6
CONTINUOUS
 62
     7
100
AcDbLine
 10
2366.490187582802
 20
2633.741630560352
 30
0.0
 11
2331.134848523478
 21
2598.386291501025
 31
0.0
  0
LINE
  5
37F
330
1F
100
AcDbEntity
  8
LAY-10
  6
CONTINUOUS
 62
     7
100
AcDbLine
 10
2331.134848523478
 20
2568.386291501027
 30
0.0
 11
2323.134848523476
 21
2568.386291501027
 31
0.0
  0
LINE
  5
380
330
1F
100
AcDbEntity
  8
LAY-10
  6
CONTINUOUS
 62
     7
100
AcDbLine
 10
2331.134848523478
 20
2598.386291501025
 30
0.0
 11
2331.134848523478
 21
2568.386291501027
 31
0.0
  0
LINE
  5
381
330
1F
100
AcDbEntity
  8
LAY-10
  6
CONTINUOUS
 62
     7
100
AcDbLine
 10
2317.134848523476
 20
2601.700000000009
 30
0.0
 11
2272.734848523478
 21
2601.700000000009
 31
0.0
  0
LINE
  5
382
330
1F
100
AcDbEntity
  8
LAY-10
  6
CONTINUOUS
 62
     7
100
AcDbLine
 10
2335.134848523476
 20
2597.700000000011
 30
0.0
 11
2366.134848523478
 21
2597.700000000011
 31
0.0
  0
LINE
  5
383
330
1F
100
AcDbEntity
  8
LAY-10
  6
CONTINUOUS
 62
     7
100
AcDbLine
 10
2366.734848523478
 20
2521.50000000001
 30
0.0
 11
2357.734848523476
 21
2521.50000000001
 31
0.0
  0
LINE
  5
384
330
1F
100
AcDbEntity
  8
LAY-10
  6
CONTINUOUS
 62
     7
100
AcDbLine
 10
2372.93484852347
 20
2525.49999999992
 30
0.0
 11
2372.93484852347
 21
2533.499999999968
 31
0.0
  0
ARC
  5
385
330
1F
100
AcDbEntity
  8
LAY-10
  6
CONTINUOUS
 62
     7
100
AcDbCircle
 10
2376.93484852347
 20
2525.49999999992
 30
0.0
 40
4.0
100
AcDbArc
 50
180.0
 51
270.0000000000002
  0
LINE
  5
386
330
1F
100
AcDbEntity
  8
LAY-10
  6
CONTINUOUS
 62
     7
100
AcDbLine
 10
2376.93484852347
 20
2521.49999999992
 30
0.0
 11
2397.93484852347
 21
2521.49999999992
 31
0.0
  0
LINE
  5
387
330
1F
100
AcDbEntity
  8
LAY-10
  6
CONTINUOUS
 62
     7
100
AcDbLine
 10
2399.93484852347
 20
2518.49999999992
 30
0.0
 11
2399.93484852347
 21
2519.49999999992
 31
0.0
  0
ARC
  5
388
330
1F
100
AcDbEntity
  8
LAY-10
  6
CONTINUOUS
 62
     7
100
AcDbCircle
 10
2397.93484852347
 20
2519.49999999992
 30
0.0
 40
2.0
100
AcDbArc
 50
0.0
 51
90.00000000000001
  0
LINE
  5
389
330
1F
100
AcDbEntity
  8
LAY-10
  6
CONTINUOUS
 62
     7
100
AcDbLine
 10
2399.93484852347
 20
2518.500000000011
 30
0.0
 11
2357.734848523476
 21
2518.500000000011
 31
0.0
  0
LINE
  5
38A
330
1F
100
AcDbEntity
  8
LAY-10
  6
CONTINUOUS
 62
     7
100
AcDbLine
 10
2319.934848523475
 20
2586.50000000001
 30
0.0
 11
2317.93484852348
 21
2586.50000000001
 31
0.0
  0
LINE
  5
38B
330
1F
100
AcDbEntity
  8
LAY-10
  6
CONTINUOUS
 62
     7
100
AcDbLine
 10
2269.73484852348
 20
2595.50000000001
 30
0.0
 11
2284.73484852348
 21
2595.50000000001
 31
0.0
  0
LINE
  5
38C
330
1F
100
AcDbEntity
  8
LAY-10
  6
CONTINUOUS
 62
     7
100
AcDbLine
 10
2272.734848523478
 20
2598.50000000001
 30
0.0
 11
2272.734848523478
 21
2610.50000000001
 31
0.0
  0
LINE
  5
38D
330
1F
100
AcDbEntity
  8
LAY-10
  6
CONTINUOUS
 62
     7
100
AcDbLine
 10
2284.73484852348
 20
2595.50000000001
 30
0.0
 11
2284.73484852348
 21
2598.50000000001
 31
0.0
  0
LINE
  5
38E
330
1F
100
AcDbEntity
  8
LAY-10
  6
CONTINUOUS
 62
     7
100
AcDbLine
 10
2269.73484852348
 20
2610.50000000001
 30
0.0
 11
2272.734848523478
 21
2610.50000000001
 31
0.0
  0
LINE
  5
38F
330
1F
100
AcDbEntity
  8
LAY-10
  6
CONTINUOUS
 62
     7
100
AcDbLine
 10
2269.73484852348
 20
2595.50000000001
 30
0.0
 11
2269.73484852348
 21
2610.50000000001
 31
0.0
  0
LINE
  5
390
330
1F
100
AcDbEntity
  8
LAY-10
  6
CONTINUOUS
 62
     7
100
AcDbLine
 10
2272.734848523478
 20
2598.50000000001
 30
0.0
 11
2316.934848523477
 21
2598.50000000001
 31
0.0
  0
LINE
  5
391
330
1F
100
AcDbEntity
  8
LAY-10
  6
CONTINUOUS
 62
     7
100
AcDbLine
 10
2357.734848523476
 20
2508.50000000001
 30
0.0
 11
2387.734848523476
 21
2508.50000000001
 31
0.0
  0
LINE
  5
392
330
1F
100
AcDbEntity
  8
LAY-10
  6
CONTINUOUS
 62
     7
100
AcDbLine
 10
2364.734848523474
 20
2505.500000000011
 30
0.0
 11
2385.734848523476
 21
2505.500000000011
 31
0.0
  0
LINE
  5
393
330
1F
100
AcDbEntity
  8
LAY-10
  6
CONTINUOUS
 62
     7
100
AcDbLine
 10
2357.734848523476
 20
2478.500000000011
 30
0.0
 11
2358.734848523476
 21
2478.500000000011
 31
0.0
  0
LINE
  5
394
330
1F
100
AcDbEntity
  8
LAY-10
  6
CONTINUOUS
 62
     7
100
AcDbLine
 10
2387.734848523476
 20
2508.50000000001
 30
0.0
 11
2387.734848523476
 21
2507.50000000001
 31
0.0
  0
ARC
  5
395
330
1F
100
AcDbEntity
  8
LAY-10
  6
CONTINUOUS
 62
     7
100
AcDbCircle
 10
2385.734848523476
 20
2507.50000000001
 30
0.0
 40
2.0
100
AcDbArc
 50
270.0000000000002
 51
0.0
  0
ARC
  5
396
330
1F
100
AcDbEntity
  8
LAY-10
  6
CONTINUOUS
 62
     7
100
AcDbCircle
 10
2358.734848523476
 20
2480.500000000011
 30
0.0
 40
2.0
100
AcDbArc
 50
270.0000000000002
 51
0.0
  0
ARC
  5
397
330
1F
100
AcDbEntity
  8
LAY-10
  6
CONTINUOUS
 62
     7
100
AcDbCircle
 10
2364.734848523474
 20
2501.500000000009
 30
0.0
 40
4.0
100
AcDbArc
 50
90.00000000000001
 51
180.0
  0
LINE
  5
398
330
1F
100
AcDbEntity
  8
LAY-10
  6
CONTINUOUS
 62
     7
100
AcDbLine
 10
2335.054478307875
 20
2563.901690559172
 30
0.0
 11
2335.134848523479
 21
2563.821320343569
 31
0.0
  0
LINE
  5
399
330
1F
100
AcDbEntity
  8
LAY-10
  6
CONTINUOUS
 62
     7
100
AcDbLine
 10
2334.696333314809
 20
2563.55272877105
 30
0.0
 11
2335.13484852347
 21
2563.114213562386
 31
0.0
  0
LINE
  5
39A
330
1F
100
AcDbEntity
  8
LAY-10
  6
CONTINUOUS
 62
     7
100
AcDbLine
 10
2334.338188321733
 20
2563.203766982938
 30
0.0
 11
2335.134848523479
 21
2562.407106781194
 31
0.0
  0
LINE
  5
39B
330
1F
100
AcDbEntity
  8
LAY-10
  6
CONTINUOUS
 62
     7
100
AcDbLine
 10
2333.980043328671
 20
2562.854805194816
 30
0.0
 11
2335.134848523485
 21
2561.700000000002
 31
0.0
  0
LINE
  5
39C
330
1F
100
AcDbEntity
  8
LAY-10
  6
CONTINUOUS
 62
     7
100
AcDbLine
 10
2333.621898335605
 20
2562.505843406695
 30
0.0
 11
2334.427741742293
 21
2561.700000000008
 31
0.0
  0
LINE
  5
39D
330
1F
100
AcDbEntity
  8
LAY-10
  6
CONTINUOUS
 62
     7
100
AcDbLine
 10
2333.26375334253
 20
2562.156881618584
 30
0.0
 11
2333.720634961101
 21
2561.700000000015
 31
0.0
  0
LINE
  5
39E
330
1F
100
AcDbEntity
  8
LAY-10
  6
CONTINUOUS
 62
     7
100
AcDbLine
 10
2332.905608349463
 20
2561.807919830461
 30
0.0
 11
2333.013528179916
 21
2561.700000000009
 31
0.0
  0
LINE
  5
39F
330
1F
100
AcDbEntity
  8
LAY-10
  6
CONTINUOUS
 62
     7
100
AcDbLine
 10
2366.134848523467
 20
2563.821320343562
 30
0.0
 11
2366.264667069334
 21
2563.951138889429
 31
0.0
  0
LINE
  5
3A0
330
1F
100
AcDbEntity
  8
LAY-10
  6
CONTINUOUS
 62
     7
100
AcDbLine
 10
2366.134848523472
 20
2563.114213562379
 30
0.0
 11
2366.594061669801
 21
2563.573426708707
 31
0.0
  0
LINE
  5
3A1
330
1F
100
AcDbEntity
  8
LAY-10
  6
CONTINUOUS
 62
     7
100
AcDbLine
 10
2366.134848523465
 20
2562.407106781187
 30
0.0
 11
2366.923456270286
 21
2563.195714528009
 31
0.0
  0
LINE
  5
3A2
330
1F
100
AcDbEntity
  8
LAY-10
  6
CONTINUOUS
 62
     7
100
AcDbLine
 10
2366.134848523481
 20
2561.700000000016
 30
0.0
 11
2367.252850870775
 21
2562.818002347309
 31
0.0
  0
LINE
  5
3A3
330
1F
100
AcDbEntity
  8
LAY-10
  6
CONTINUOUS
 62
     7
100
AcDbLine
 10
2366.841955304664
 20
2561.700000000013
 30
0.0
 11
2367.582245471263
 21
2562.440290166611
 31
0.0
  0
LINE
  5
3A4
330
1F
100
AcDbEntity
  8
LAY-10
  6
CONTINUOUS
 62
     7
100
AcDbLine
 10
2367.496094913848
 20
2561.647032828008
 30
0.0
 11
2367.911640071741
 21
2562.062577985901
 31
0.0
  0
LINE
  5
3A5
330
1F
100
AcDbEntity
  8
LAY-10
  6
CONTINUOUS
 62
     7
100
AcDbLine
 10
2368.043715217358
 20
2561.487546350334
 30
0.0
 11
2368.241034672228
 21
2561.684865805202
 31
0.0
  0
LINE
  5
3A6
330
1F
100
AcDbEntity
  8
LAY-10
  6
CONTINUOUS
 62
     7
100
AcDbLine
 10
2368.514010399253
 20
2561.250734751039
 30
0.0
 11
2368.570429272717
 21
2561.307153624503
 31
0.0
  0
LINE
  5
3A7
330
1F
100
AcDbEntity
  8
LAY-10
  6
CONTINUOUS
 62
     7
100
AcDbLine
 10
2317.934848523497
 20
2585.085786437633
 30
0.0
 11
2319.349062085888
 21
2586.500000000025
 31
0.0
  0
LINE
  5
3A8
330
1F
100
AcDbEntity
  8
LAY-10
  6
CONTINUOUS
 62
     7
100
AcDbLine
 10
2317.934848523506
 20
2583.671572875271
 30
0.0
 11
2319.934848523482
 21
2585.671572875248
 31
0.0
  0
LINE
  5
3A9
330
1F
100
AcDbEntity
  8
LAY-10
  6
CONTINUOUS
 62
     7
100
AcDbLine
 10
2317.934848523497
 20
2582.257359312888
 30
0.0
 11
2319.934848523475
 21
2584.257359312866
 31
0.0
  0
LINE
  5
3AA
330
1F
100
AcDbEntity
  8
LAY-10
  6
CONTINUOUS
 62
     7
100
AcDbLine
 10
2317.934848523508
 20
2580.843145750526
 30
0.0
 11
2319.934848523484
 21
2582.843145750503
 31
0.0
  0
LINE
  5
3AB
330
1F
100
AcDbEntity
  8
LAY-10
  6
CONTINUOUS
 62
     7
100
AcDbLine
 10
2317.934848523499
 20
2579.428932188144
 30
0.0
 11
2319.934848523475
 21
2581.42893218812
 31
0.0
  0
LINE
  5
3AC
330
1F
100
AcDbEntity
  8
LAY-10
  6
CONTINUOUS
 62
     7
100
AcDbLine
 10
2317.934848523508
 20
2578.014718625781
 30
0.0
 11
2319.934848523486
 21
2580.014718625759
 31
0.0
  0
LINE
  5
3AD
330
1F
100
AcDbEntity
  8
LAY-10
  6
CONTINUOUS
 62
     7
100
AcDbLine
 10
2317.9348485235
 20
2576.600505063399
 30
0.0
 11
2319.934848523479
 21
2578.600505063376
 31
0.0
  0
LINE
  5
3AE
330
1F
100
AcDbEntity
  8
LAY-10
  6
CONTINUOUS
 62
     7
100
AcDbLine
 10
2317.934848523511
 20
2575.186291501037
 30
0.0
 11
2319.934848523486
 21
2577.186291501014
 31
0.0
  0
LINE
  5
3AF
330
1F
100
AcDbEntity
  8
LAY-10
  6
CONTINUOUS
 62
     7
100
AcDbLine
 10
2317.9348485235
 20
2573.772077938653
 30
0.0
 11
2319.934848523479
 21
2575.772077938631
 31
0.0
  0
LINE
  5
3B0
330
1F
100
AcDbEntity
  8
LAY-10
  6
CONTINUOUS
 62
     7
100
AcDbLine
 10
2317.934848523511
 20
2572.357864376292
 30
0.0
 11
2319.93484852349
 21
2574.357864376267
 31
0.0
  0
LINE
  5
3B1
330
1F
100
AcDbEntity
  8
LAY-10
  6
CONTINUOUS
 62
     7
100
AcDbLine
 10
2317.934848523504
 20
2570.943650813909
 30
0.0
 11
2319.93484852348
 21
2572.943650813885
 31
0.0
  0
LINE
  5
3B2
330
1F
100
AcDbEntity
  8
LAY-10
  6
CONTINUOUS
 62
     7
100
AcDbLine
 10
2317.934848523511
 20
2569.529437251545
 30
0.0
 11
2319.934848523471
 21
2571.529437251504
 31
0.0
  0
LINE
  5
3B3
330
1F
100
AcDbEntity
  8
LAY-10
  6
CONTINUOUS
 62
     7
100
AcDbLine
 10
2317.934848523504
 20
2568.115223689163
 30
0.0
 11
2319.934848523482
 21
2570.115223689142
 31
0.0
  0
LINE
  5
3B4
330
1F
100
AcDbEntity
  8
LAY-10
  6
CONTINUOUS
 62
     7
100
AcDbLine
 10
2317.934848523495
 20
2566.701010126782
 30
0.0
 11
2319.934848523471
 21
2568.701010126759
 31
0.0
  0
LINE
  5
3B5
330
1F
100
AcDbEntity
  8
LAY-10
  6
CONTINUOUS
 62
     7
100
AcDbLine
 10
2317.934848523506
 20
2565.286796564418
 30
0.0
 11
2319.934848523482
 21
2567.286796564396
 31
0.0
  0
LINE
  5
3B6
330
1F
100
AcDbEntity
  8
LAY-10
  6
CONTINUOUS
 62
     7
100
AcDbLine
 10
2317.934848523497
 20
2563.872583002037
 30
0.0
 11
2319.934848523473
 21
2565.872583002013
 31
0.0
  0
LINE
  5
3B7
330
1F
100
AcDbEntity
  8
LAY-10
  6
CONTINUOUS
 62
     7
100
AcDbLine
 10
2317.934848523508
 20
2562.458369439675
 30
0.0
 11
2319.934848523484
 21
2564.458369439651
 31
0.0
  0
LINE
  5
3B8
330
1F
100
AcDbEntity
  8
LAY-10
  6
CONTINUOUS
 62
     7
100
AcDbLine
 10
2318.390692646224
 20
2561.500000000018
 30
0.0
 11
2319.934848523475
 21
2563.044155877268
 31
0.0
  0
LINE
  5
3B9
330
1F
100
AcDbEntity
  8
LAY-10
  6
CONTINUOUS
 62
     7
100
AcDbLine
 10
2319.804906208588
 20
2561.500000000009
 30
0.0
 11
2319.934848523486
 21
2561.629942314906
 31
0.0
  0
LINE
  5
3BA
330
1F
100
AcDbEntity
  8
LAY-10
  6
CONTINUOUS
 62
     7
100
AcDbLine
 10
2272.734848523478
 20
2588.300000000009
 30
0.0
 11
2311.734848523478
 21
2588.300000000009
 31
0.0
  0
ARC
  5
3BB
330
1F
100
AcDbEntity
  8
LAY-10
  6
CONTINUOUS
 62
     7
100
AcDbCircle
 10
2311.734848523478
 20
2585.300000000009
 30
0.0
 40
3.000000000000003
100
AcDbArc
 50
0.0
 51
90.00000000000001
  0
ARC
  5
3BC
330
1F
100
AcDbEntity
  8
LAY-10
  6
CONTINUOUS
 62
     7
100
AcDbCircle
 10
2311.934848523479
 20
2585.50000000001
 30
0.0
 40
6.000000000000005
100
AcDbArc
 50
0.0
 51
90.00000000000001
  0
LINE
  5
3BD
330
1F
100
AcDbEntity
  8
LAY-10
  6
CONTINUOUS
 62
     7
100
AcDbLine
 10
2311.73484852348
 20
2588.300000000009
 30
0.0
 11
2314.73484852348
 21
2585.300000000009
 31
0.0
  0
LINE
  5
3BE
330
1F
100
AcDbEntity
  8
LAY-10
  6
CONTINUOUS
 62
     7
100
AcDbLine
 10
2269.73484852348
 20
2594.50000000001
 30
0.0
 11
2284.73484852348
 21
2594.50000000001
 31
0.0
  0
LINE
  5
3BF
330
1F
100
AcDbEntity
  8
LAY-10
  6
CONTINUOUS
 62
     7
100
AcDbLine
 10
2272.734848523478
 20
2591.500000000008
 30
0.0
 11
2272.734848523478
 21
2579.50000000001
 31
0.0
  0
LINE
  5
3C0
330
1F
100
AcDbEntity
  8
LAY-10
  6
CONTINUOUS
 62
     7
100
AcDbLine
 10
2284.73484852348
 20
2594.50000000001
 30
0.0
 11
2284.73484852348
 21
2591.500000000008
 31
0.0
  0
LINE
  5
3C1
330
1F
100
AcDbEntity
  8
LAY-10
  6
CONTINUOUS
 62
     7
100
AcDbLine
 10
2317.9348485235
 20
2519.500000000012
 30
0.0
 11
2336.934848523473
 21
2519.500000000012
 31
0.0
  0
LINE
  5
3C2
330
1F
100
AcDbEntity
  8
LAY-10
  6
CONTINUOUS
 62
     7
100
AcDbLine
 10
2319.934848523475
 20
2595.50000000001
 30
0.0
 11
2319.934848523475
 21
2519.500000000012
 31
0.0
  0
LINE
  5
3C3
330
1F
100
AcDbEntity
  8
LAY-10
  6
CONTINUOUS
 62
     7
100
AcDbLine
 10
2369.934848523475
 20
2508.50000000001
 30
0.0
 11
2369.934848523475
 21
2558.70000000001
 31
0.0
  0
LINE
  5
3C4
330
1F
100
AcDbEntity
  8
LAY-10
  6
CONTINUOUS
 62
     7
100
AcDbLine
 10
2272.734848523478
 20
2591.500000000008
 30
0.0
 11
2311.934848523479
 21
2591.500000000008
 31
0.0
  0
LINE
  5
3C5
330
1F
100
AcDbEntity
  8
LAY-10
  6
CONTINUOUS
 62
     7
100
AcDbLine
 10
2323.134848523476
 20
2598.38629150101
 30
0.0
 11
2323.134848523476
 21
2561.700000000009
 31
0.0
  0
LINE
  5
3C6
330
1F
100
AcDbEntity
  8
LAY-10
  6
CONTINUOUS
 62
     7
100
AcDbLine
 10
2366.734848523478
 20
2538.50000000001
 30
0.0
 11
2366.734848523478
 21
2508.50000000001
 31
0.0
  0
LINE
  5
3C7
330
1F
100
AcDbEntity
  8
LAY-10
  6
CONTINUOUS
 62
     7
100
AcDbLine
 10
2366.734848523478
 20
2548.500000000011
 30
0.0
 11
2366.734848523478
 21
2558.500000000011
 31
0.0
  0
LINE
  5
3C8
330
1F
100
AcDbEntity
  8
LAY-10
  6
CONTINUOUS
 62
     7
100
AcDbLine
 10
2357.734848523476
 20
2548.500000000011
 30
0.0
 11
2357.734848523476
 21
2552.50000000001
 31
0.0
  0
LINE
  5
3C9
330
1F
100
AcDbEntity
  8
LAY-10
  6
CONTINUOUS
 62
     7
100
AcDbLine
 10
2366.734848523478
 20
2558.500000000011
 30
0.0
 11
2322.934848523475
 21
2558.500000000011
 31
0.0
  0
LINE
  5
3CA
330
1F
100
AcDbEntity
  8
LAY-10
  6
CONTINUOUS
 62
     7
100
AcDbLine
 10
2323.134848523499
 20
2561.700000000009
 30
0.0
 11
2366.934848523477
 21
2561.700000000009
 31
0.0
  0
LINE
  5
3CB
330
1F
100
AcDbEntity
  8
LAY-10
  6
CONTINUOUS
 62
     7
100
AcDbLine
 10
2357.734848523476
 20
988.5000000000105
 30
0.0
 11
2357.734848523476
 21
984.5000000000101
 31
0.0
  0
LINE
  5
3CC
330
1F
100
AcDbEntity
  8
LAY-10
  6
CONTINUOUS
 62
     7
100
AcDbLine
 10
2366.734848523478
 20
999.5000000000095
 30
0.0
 11
2369.934848523475
 21
999.5000000000095
 31
0.0
  0
LINE
  5
3CD
330
1F
100
AcDbEntity
  8
LAY-10
  6
CONTINUOUS
 62
     7
100
AcDbLine
 10
2366.734848523478
 20
987.5000000000097
 30
0.0
 11
2369.934848523475
 21
987.5000000000097
 31
0.0
  0
LINE
  5
3CE
330
1F
100
AcDbEntity
  8
LAY-10
  6
CONTINUOUS
 62
     7
100
AcDbLine
 10
2357.734848523476
 20
999.5000000000095
 30
0.0
 11
2354.534848523475
 21
999.5000000000095
 31
0.0
  0
LINE
  5
3CF
330
1F
100
AcDbEntity
  8
LAY-10
  6
CONTINUOUS
 62
     7
100
AcDbLine
 10
2357.734848523476
 20
987.5000000000097
 30
0.0
 11
2354.534848523475
 21
987.5000000000097
 31
0.0
  0
LINE
  5
3D0
330
1F
100
AcDbEntity
  8
LAY-10
  6
CONTINUOUS
 62
     7
100
AcDbLine
 10
2366.734848523478
 20
984.5000000000101
 30
0.0
 11
2357.734848523476
 21
984.5000000000101
 31
0.0
  0
ARC
  5
3D1
330
1F
100
AcDbEntity
  8
LAY-10
  6
CONTINUOUS
 62
     7
100
AcDbCircle
 10
2357.534848523475
 20
984.5000000000101
 30
0.0
 40
3.000000000000003
100
AcDbArc
 50
180.0
 51
270.0000000000002
  0
LINE
  5
3D2
330
1F
100
AcDbEntity
  8
LAY-10
  6
CONTINUOUS
 62
     7
100
AcDbLine
 10
2317.134848523476
 20
935.3000000000094
 30
0.0
 11
2272.734848523478
 21
935.3000000000094
 31
0.0
  0
LINE
  5
3D3
330
1F
100
AcDbEntity
  8
LAY-10
  6
CONTINUOUS
 62
     7
100
AcDbLine
 10
2366.734848523478
 20
981.5000000000114
 30
0.0
 11
2357.534848523475
 21
981.5000000000114
 31
0.0
  0
ARC
  5
3D4
330
1F
100
AcDbEntity
  8
LAY-10
  6
CONTINUOUS
 62
     7
100
AcDbCircle
 10
2366.934848523477
 20
978.3000000000106
 30
0.0
 40
3.000000000000003
100
AcDbArc
 50
270.0000000000002
 51
0.0
  0
LINE
  5
3D5
330
1F
100
AcDbEntity
  8
LAY-10
  6
CONTINUOUS
 62
     7
100
AcDbLine
 10
2366.134848523478
 20
939.3000000000103
 30
0.0
 11
2366.134848523478
 21
975.3000000000106
 31
0.0
  0
LINE
  5
3D6
330
1F
100
AcDbEntity
  8
LAY-10
  6
CONTINUOUS
 62
     7
100
AcDbLine
 10
2366.134848523478
 20
972.9000000000093
 30
0.0
 11
2368.783773308451
 21
975.9374849969873
 31
0.0
  0
LINE
  5
3D7
330
1F
100
AcDbEntity
  8
LAY-10
  6
CONTINUOUS
 62
     7
100
AcDbLine
 10
2335.134848523476
 20
939.3000000000103
 30
0.0
 11
2335.134848523476
 21
975.3000000000088
 31
0.0
  0
LINE
  5
3D8
330
1F
100
AcDbEntity
  8
LAY-10
  6
CONTINUOUS
 62
     7
100
AcDbLine
 10
2332.794848523476
 20
975.3000000000088
 30
0.0
 11
2335.134848523476
 21
973.02000000001
 31
0.0
  0
ARC
  5
3D9
330
1F
100
AcDbEntity
  8
LAY-10
  6
CONTINUOUS
 62
     7
100
AcDbCircle
 10
2316.934848523477
 20
941.50000000001
 30
0.0
 40
3.000000000000003
100
AcDbArc
 50
270.0000000000002
 51
0.0
  0
ARC
  5
3DA
330
1F
100
AcDbEntity
  8
LAY-10
  6
CONTINUOUS
 62
     7
100
AcDbCircle
 10
2317.134848523476
 20
941.3000000000102
 30
0.0
 40
6.000000000000005
100
AcDbArc
 50
270.0000000000002
 51
0.0
  0
ARC
  5
3DB
330
1F
100
AcDbEntity
  8
LAY-10
  6
CONTINUOUS
 62
     7
100
AcDbCircle
 10
2322.934848523475
 20
975.5000000000086
 30
0.0
 40
3.000000000000003
100
AcDbArc
 50
90.00000000000001
 51
180.0
  0
LINE
  5
3DC
330
1F
100
AcDbEntity
  8
LAY-10
  6
CONTINUOUS
 62
     7
100
AcDbLine
 10
2360.833333333312
 20
897.6015151901743
 30
0.0
 11
2366.490187582802
 21
903.2583694396681
 31
0.0
  0
LINE
  5
3DD
330
1F
100
AcDbEntity
  8
LAY-10
  6
CONTINUOUS
 62
     7
100
AcDbLine
 10
2360.833333333312
 20
897.6015151901743
 30
0.0
 11
2325.477994273982
 21
932.9568542495022
 31
0.0
  0
ARC
  5
3DE
330
1F
100
AcDbEntity
  8
LAY-10
  6
CONTINUOUS
 62
     7
100
AcDbCircle
 10
2331.134848523478
 20
938.6137084989946
 30
0.0
 40
8.0
100
AcDbArc
 50
180.0
 51
224.9999999999919
  0
LINE
  5
3DF
330
1F
100
AcDbEntity
  8
LAY-10
  6
CONTINUOUS
 62
     7
100
AcDbLine
 10
2366.490187582802
 20
903.2583694396681
 30
0.0
 11
2331.134848523478
 21
938.6137084989946
 31
0.0
  0
LINE
  5
3E0
330
1F
100
AcDbEntity
  8
LAY-10
  6
CONTINUOUS
 62
     7
100
AcDbLine
 10
2331.134848523478
 20
968.6137084989946
 30
0.0
 11
2323.134848523476
 21
968.6137084989946
 31
0.0
  0
LINE
  5
3E1
330
1F
100
AcDbEntity
  8
LAY-10
  6
CONTINUOUS
 62
     7
100
AcDbLine
 10
2331.134848523478
 20
938.6137084989946
 30
0.0
 11
2331.134848523478
 21
968.6137084989946
 31
0.0
  0
LINE
  5
3E2
330
1F
100
AcDbEntity
  8
LAY-10
  6
CONTINUOUS
 62
     7
100
AcDbLine
 10
2335.134848523476
 20
939.3000000000103
 30
0.0
 11
2366.134848523478
 21
939.3000000000103
 31
0.0
  0
LINE
  5
3E3
330
1F
100
AcDbEntity
  8
LAY-10
  6
CONTINUOUS
 62
     7
100
AcDbLine
 10
2366.734848523478
 20
1015.50000000001
 30
0.0
 11
2357.734848523476
 21
1015.50000000001
 31
0.0
  0
LINE
  5
3E4
330
1F
100
AcDbEntity
  8
LAY-10
  6
CONTINUOUS
 62
     7
100
AcDbLine
 10
2372.93484852347
 20
1011.500000000102
 30
0.0
 11
2372.93484852347
 21
1003.500000000054
 31
0.0
  0
ARC
  5
3E5
330
1F
100
AcDbEntity
  8
LAY-10
  6
CONTINUOUS
 62
     7
100
AcDbCircle
 10
2376.93484852347
 20
1011.500000000102
 30
0.0
 40
4.0
100
AcDbArc
 50
90.00000000000001
 51
180.0
  0
LINE
  5
3E6
330
1F
100
AcDbEntity
  8
LAY-10
  6
CONTINUOUS
 62
     7
100
AcDbLine
 10
2323.134848523476
 20
975.3000000000106
 30
0.0
 11
2366.934848523477
 21
975.3000000000106
 31
0.0
  0
LINE
  5
3E7
330
1F
100
AcDbEntity
  8
LAY-10
  6
CONTINUOUS
 62
     7
100
AcDbLine
 10
2322.934848523475
 20
978.5000000000105
 30
0.0
 11
2366.734848523478
 21
978.5000000000105
 31
0.0
  0
LINE
  5
3E8
330
1F
100
AcDbEntity
  8
LAY-10
  6
CONTINUOUS
 62
     7
100
AcDbLine
 10
2369.934848523475
 20
1028.50000000001
 30
0.0
 11
2369.934848523475
 21
978.3000000000106
 31
0.0
  0
LINE
  5
3E9
330
1F
100
AcDbEntity
  8
LAY-10
  6
CONTINUOUS
 62
     7
100
AcDbLine
 10
2366.734848523478
 20
998.5000000000095
 30
0.0
 11
2366.734848523478
 21
1028.50000000001
 31
0.0
  0
LINE
  5
3EA
330
1F
100
AcDbEntity
  8
LAY-10
  6
CONTINUOUS
 62
     7
100
AcDbLine
 10
2366.734848523478
 20
988.5000000000105
 30
0.0
 11
2366.734848523478
 21
978.5000000000105
 31
0.0
  0
LINE
  5
3EB
330
1F
100
AcDbEntity
  8
LAY-10
  6
CONTINUOUS
 62
     7
100
AcDbLine
 10
2272.734848523478
 20
938.5000000000095
 30
0.0
 11
2316.934848523477
 21
938.5000000000095
 31
0.0
  0
LINE
  5
3EC
330
1F
100
AcDbEntity
  8
LAY-10
  6
CONTINUOUS
 62
     7
100
AcDbLine
 10
2323.134848523476
 20
938.6137084989946
 30
0.0
 11
2323.134848523476
 21
975.3000000000088
 31
0.0
  0
LINE
  5
3ED
330
1F
100
AcDbEntity
  8
LAY-10
  6
CONTINUOUS
 62
     7
100
AcDbLine
 10
2319.934848523475
 20
975.5000000000086
 30
0.0
 11
2317.9348485235
 21
975.5000000000086
 31
0.0
  0
LINE
  5
3EE
330
1F
100
AcDbEntity
  8
LAY-10
  6
CONTINUOUS
 62
     7
100
AcDbLine
 10
2376.93484852347
 20
1015.500000000101
 30
0.0
 11
2397.934848523468
 21
1015.500000000101
 31
0.0
  0
LINE
  5
3EF
330
1F
100
AcDbEntity
  8
LAY-10
  6
CONTINUOUS
 62
     7
100
AcDbLine
 10
2399.934848523468
 20
1018.500000000101
 30
0.0
 11
2399.934848523468
 21
1017.500000000101
 31
0.0
  0
ARC
  5
3F0
330
1F
100
AcDbEntity
  8
LAY-10
  6
CONTINUOUS
 62
     7
100
AcDbCircle
 10
2397.934848523468
 20
1017.500000000101
 30
0.0
 40
2.0
100
AcDbArc
 50
270.0000000000002
 51
0.0
  0
LINE
  5
3F1
330
1F
100
AcDbEntity
  8
LAY-10
  6
CONTINUOUS
 62
     7
100
AcDbLine
 10
2399.934848523468
 20
1018.50000000001
 30
0.0
 11
2357.734848523476
 21
1018.50000000001
 31
0.0
  0
LINE
  5
3F2
330
1F
100
AcDbEntity
  8
LAY-10
  6
CONTINUOUS
 62
     7
100
AcDbLine
 10
2319.934848523475
 20
950.50000000001
 30
0.0
 11
2317.934848523482
 21
950.50000000001
 31
0.0
  0
LINE
  5
3F3
330
1F
100
AcDbEntity
  8
LAY-10
  6
CONTINUOUS
 62
     7
100
AcDbLine
 10
2269.73484852348
 20
941.50000000001
 30
0.0
 11
2284.73484852348
 21
941.50000000001
 31
0.0
  0
LINE
  5
3F4
330
1F
100
AcDbEntity
  8
LAY-10
  6
CONTINUOUS
 62
     7
100
AcDbLine
 10
2269.73484852348
 20
941.50000000001
 30
0.0
 11
2269.73484852348
 21
926.50000000001
 31
0.0
  0
LINE
  5
3F5
330
1F
100
AcDbEntity
  8
LAY-10
  6
CONTINUOUS
 62
     7
100
AcDbLine
 10
2272.734848523478
 20
938.5000000000095
 30
0.0
 11
2272.734848523478
 21
926.50000000001
 31
0.0
  0
LINE
  5
3F6
330
1F
100
AcDbEntity
  8
LAY-10
  6
CONTINUOUS
 62
     7
100
AcDbLine
 10
2284.73484852348
 20
941.50000000001
 30
0.0
 11
2284.73484852348
 21
938.5000000000095
 31
0.0
  0
LINE
  5
3F7
330
1F
100
AcDbEntity
  8
LAY-10
  6
CONTINUOUS
 62
     7
100
AcDbLine
 10
2269.73484852348
 20
926.50000000001
 30
0.0
 11
2272.734848523478
 21
926.50000000001
 31
0.0
  0
LINE
  5
3F8
330
1F
100
AcDbEntity
  8
LAY-10
  6
CONTINUOUS
 62
     7
100
AcDbLine
 10
2357.734848523476
 20
1028.50000000001
 30
0.0
 11
2387.734848523476
 21
1028.50000000001
 31
0.0
  0
LINE
  5
3F9
330
1F
100
AcDbEntity
  8
LAY-10
  6
CONTINUOUS
 62
     7
100
AcDbLine
 10
2364.734848523474
 20
1031.50000000001
 30
0.0
 11
2385.734848523476
 21
1031.50000000001
 31
0.0
  0
LINE
  5
3FA
330
1F
100
AcDbEntity
  8
LAY-10
  6
CONTINUOUS
 62
     7
100
AcDbLine
 10
2357.734848523476
 20
1058.50000000001
 30
0.0
 11
2358.734848523474
 21
1058.50000000001
 31
0.0
  0
LINE
  5
3FB
330
1F
100
AcDbEntity
  8
LAY-10
  6
CONTINUOUS
 62
     7
100
AcDbLine
 10
2387.734848523476
 20
1028.50000000001
 30
0.0
 11
2387.734848523476
 21
1029.50000000001
 31
0.0
  0
ARC
  5
3FC
330
1F
100
AcDbEntity
  8
LAY-10
  6
CONTINUOUS
 62
     7
100
AcDbCircle
 10
2385.734848523476
 20
1029.50000000001
 30
0.0
 40
2.0
100
AcDbArc
 50
0.0
 51
90.00000000000001
  0
ARC
  5
3FD
330
1F
100
AcDbEntity
  8
LAY-10
  6
CONTINUOUS
 62
     7
100
AcDbCircle
 10
2358.734848523474
 20
1056.50000000001
 30
0.0
 40
2.0
100
AcDbArc
 50
0.0
 51
90.00000000000001
  0
ARC
  5
3FE
330
1F
100
AcDbEntity
  8
LAY-10
  6
CONTINUOUS
 62
     7
100
AcDbCircle
 10
2364.734848523474
 20
1035.50000000001
 30
0.0
 40
4.0
100
AcDbArc
 50
180.0
 51
270.0000000000002
  0
LINE
  5
3FF
330
1F
100
AcDbEntity
  8
LAY-10
  6
CONTINUOUS
 62
     7
100
AcDbLine
 10
2368.514010399253
 20
975.7492652489833
 30
0.0
 11
2368.570429272726
 21
975.6928463755077
 31
0.0
  0
LINE
  5
400
330
1F
100
AcDbEntity
  8
LAY-10
  6
CONTINUOUS
 62
     7
100
AcDbLine
 10
2368.043715217358
 20
975.5124536496879
 30
0.0
 11
2368.241034672237
 21
975.3151341948097
 31
0.0
  0
LINE
  5
401
330
1F
100
AcDbEntity
  8
LAY-10
  6
CONTINUOUS
 62
     7
100
AcDbLine
 10
2367.496094913848
 20
975.352967172013
 30
0.0
 11
2367.91164007175
 21
974.9374220141103
 31
0.0
  0
LINE
  5
402
330
1F
100
AcDbEntity
  8
LAY-10
  6
CONTINUOUS
 62
     7
100
AcDbLine
 10
2366.841955304673
 20
975.3000000000003
 30
0.0
 11
2367.582245471262
 21
974.5597098334124
 31
0.0
  0
LINE
  5
403
330
1F
100
AcDbEntity
  8
LAY-10
  6
CONTINUOUS
 62
     7
100
AcDbLine
 10
2366.134848523481
 20
975.3000000000071
 30
0.0
 11
2367.252850870786
 21
974.1819976527023
 31
0.0
  0
LINE
  5
404
330
1F
100
AcDbEntity
  8
LAY-10
  6
CONTINUOUS
 62
     7
100
AcDbLine
 10
2366.134848523487
 20
974.5928932188144
 30
0.0
 11
2366.9234562703
 21
973.8042854720029
 31
0.0
  0
LINE
  5
405
330
1F
100
AcDbEntity
  8
LAY-10
  6
CONTINUOUS
 62
     7
100
AcDbLine
 10
2366.134848523494
 20
973.8857864376206
 30
0.0
 11
2366.594061669812
 21
973.426573291305
 31
0.0
  0
LINE
  5
406
330
1F
100
AcDbEntity
  8
LAY-10
  6
CONTINUOUS
 62
     7
100
AcDbLine
 10
2366.134848523478
 20
973.1786796564512
 30
0.0
 11
2366.264667069325
 21
973.0488611106063
 31
0.0
  0
LINE
  5
407
330
1F
100
AcDbEntity
  8
LAY-10
  6
CONTINUOUS
 62
     7
100
AcDbLine
 10
2332.905608349478
 20
975.1920801695729
 30
0.0
 11
2333.013528179916
 21
975.3000000000134
 31
0.0
  0
LINE
  5
408
330
1F
100
AcDbEntity
  8
LAY-10
  6
CONTINUOUS
 62
     7
100
AcDbLine
 10
2333.263753342542
 20
974.8431183814506
 30
0.0
 11
2333.720634961101
 21
975.3000000000088
 31
0.0
  0
LINE
  5
409
330
1F
100
AcDbEntity
  8
LAY-10
  6
CONTINUOUS
 62
     7
100
AcDbLine
 10
2333.621898335607
 20
974.4941565933291
 30
0.0
 11
2334.427741742282
 21
975.3000000000034
 31
0.0
  0
LINE
  5
40A
330
1F
100
AcDbEntity
  8
LAY-10
  6
CONTINUOUS
 62
     7
100
AcDbLine
 10
2333.980043328682
 20
974.1451948052181
 30
0.0
 11
2335.134848523474
 21
975.3000000000094
 31
0.0
  0
LINE
  5
40B
330
1F
100
AcDbEntity
  8
LAY-10
  6
CONTINUOUS
 62
     7
100
AcDbLine
 10
2334.338188321748
 20
973.796233017095
 30
0.0
 11
2335.134848523458
 21
974.5928932188049
 31
0.0
  0
LINE
  5
40C
330
1F
100
AcDbEntity
  8
LAY-10
  6
CONTINUOUS
 62
     7
100
AcDbLine
 10
2334.696333314811
 20
973.4472712289727
 30
0.0
 11
2335.134848523474
 21
973.885786437635
 31
0.0
  0
LINE
  5
40D
330
1F
100
AcDbEntity
  8
LAY-10
  6
CONTINUOUS
 62
     7
100
AcDbLine
 10
2335.054478307886
 20
973.0983094408625
 30
0.0
 11
2335.134848523465
 21
973.1786796564421
 31
0.0
  0
LINE
  5
40E
330
1F
100
AcDbEntity
  8
LAY-10
  6
CONTINUOUS
 62
     7
100
AcDbLine
 10
2317.9348485235
 20
974.5416305603535
 30
0.0
 11
2318.893217963165
 21
975.5000000000177
 31
0.0
  0
LINE
  5
40F
330
1F
100
AcDbEntity
  8
LAY-10
  6
CONTINUOUS
 62
     7
100
AcDbLine
 10
2317.934848523511
 20
973.1274169979912
 30
0.0
 11
2319.934848523488
 21
975.1274169979679
 31
0.0
  0
LINE
  5
410
330
1F
100
AcDbEntity
  8
LAY-10
  6
CONTINUOUS
 62
     7
100
AcDbLine
 10
2317.9348485235
 20
971.7132034356092
 30
0.0
 11
2319.934848523479
 21
973.7132034355859
 31
0.0
  0
LINE
  5
411
330
1F
100
AcDbEntity
  8
LAY-10
  6
CONTINUOUS
 62
     7
100
AcDbLine
 10
2317.934848523511
 20
970.2989898732467
 30
0.0
 11
2319.93484852349
 21
972.2989898732235
 31
0.0
  0
LINE
  5
412
330
1F
100
AcDbEntity
  8
LAY-10
  6
CONTINUOUS
 62
     7
100
AcDbLine
 10
2317.934848523502
 20
968.8847763108647
 30
0.0
 11
2319.93484852348
 21
970.8847763108415
 31
0.0
  0
LINE
  5
413
330
1F
100
AcDbEntity
  8
LAY-10
  6
CONTINUOUS
 62
     7
100
AcDbLine
 10
2317.934848523511
 20
967.4705627485014
 30
0.0
 11
2319.93484852349
 21
969.4705627484791
 31
0.0
  0
LINE
  5
414
330
1F
100
AcDbEntity
  8
LAY-10
  6
CONTINUOUS
 62
     7
100
AcDbLine
 10
2317.934848523504
 20
966.056349186119
 30
0.0
 11
2319.934848523482
 21
968.0563491860967
 31
0.0
  0
LINE
  5
415
330
1F
100
AcDbEntity
  8
LAY-10
  6
CONTINUOUS
 62
     7
100
AcDbLine
 10
2317.934848523495
 20
964.6421356237374
 30
0.0
 11
2319.934848523471
 21
966.6421356237151
 31
0.0
  0
LINE
  5
416
330
1F
100
AcDbEntity
  8
LAY-10
  6
CONTINUOUS
 62
     7
100
AcDbLine
 10
2317.934848523506
 20
963.2279220613746
 30
0.0
 11
2319.934848523482
 21
965.2279220613514
 31
0.0
  0
LINE
  5
417
330
1F
100
AcDbEntity
  8
LAY-10
  6
CONTINUOUS
 62
     7
100
AcDbLine
 10
2317.934848523497
 20
961.813708498993
 30
0.0
 11
2319.934848523473
 21
963.81370849897
 31
0.0
  0
LINE
  5
418
330
1F
100
AcDbEntity
  8
LAY-10
  6
CONTINUOUS
 62
     7
100
AcDbLine
 10
2317.934848523506
 20
960.3994949366297
 30
0.0
 11
2319.934848523482
 21
962.3994949366074
 31
0.0
  0
LINE
  5
419
330
1F
100
AcDbEntity
  8
LAY-10
  6
CONTINUOUS
 62
     7
100
AcDbLine
 10
2317.934848523497
 20
958.9852813742473
 30
0.0
 11
2319.934848523475
 21
960.985281374225
 31
0.0
  0
LINE
  5
41A
330
1F
100
AcDbEntity
  8
LAY-10
  6
CONTINUOUS
 62
     7
100
AcDbLine
 10
2317.934848523508
 20
957.571067811885
 30
0.0
 11
2319.934848523484
 21
959.5710678118617
 31
0.0
  0
LINE
  5
41B
330
1F
100
AcDbEntity
  8
LAY-10
  6
CONTINUOUS
 62
     7
100
AcDbLine
 10
2317.934848523499
 20
956.156854249503
 30
0.0
 11
2319.934848523475
 21
958.1568542494797
 31
0.0
  0
LINE
  5
41C
330
1F
100
AcDbEntity
  8
LAY-10
  6
CONTINUOUS
 62
     7
100
AcDbLine
 10
2317.934848523508
 20
954.7426406871405
 30
0.0
 11
2319.934848523486
 21
956.7426406871177
 31
0.0
  0
LINE
  5
41D
330
1F
100
AcDbEntity
  8
LAY-10
  6
CONTINUOUS
 62
     7
100
AcDbLine
 10
2317.934848523499
 20
953.328427124758
 30
0.0
 11
2319.934848523477
 21
955.328427124735
 31
0.0
  0
LINE
  5
41E
330
1F
100
AcDbEntity
  8
LAY-10
  6
CONTINUOUS
 62
     7
100
AcDbLine
 10
2317.934848523511
 20
951.9142135623952
 30
0.0
 11
2319.934848523486
 21
953.9142135623729
 31
0.0
  0
LINE
  5
41F
330
1F
100
AcDbEntity
  8
LAY-10
  6
CONTINUOUS
 62
     7
100
AcDbLine
 10
2317.9348485235
 20
950.5000000000132
 30
0.0
 11
2319.934848523479
 21
952.4999999999909
 31
0.0
  0
LINE
  5
420
330
1F
100
AcDbEntity
  8
LAY-10
  6
CONTINUOUS
 62
     7
100
AcDbLine
 10
2319.349062085863
 20
950.5000000000032
 30
0.0
 11
2319.93484852347
 21
951.0857864376085
 31
0.0
  0
LINE
  5
421
330
1F
100
AcDbEntity
  8
LAY-10
  6
CONTINUOUS
 62
     7
100
AcDbLine
 10
2272.734848523478
 20
948.7000000000098
 30
0.0
 11
2311.734848523478
 21
948.7000000000098
 31
0.0
  0
ARC
  5
422
330
1F
100
AcDbEntity
  8
LAY-10
  6
CONTINUOUS
 62
     7
100
AcDbCircle
 10
2311.734848523478
 20
951.7000000000098
 30
0.0
 40
3.000000000000003
100
AcDbArc
 50
270.0000000000002
 51
0.0
  0
ARC
  5
423
330
1F
100
AcDbEntity
  8
LAY-10
  6
CONTINUOUS
 62
     7
100
AcDbCircle
 10
2311.934848523479
 20
951.50000000001
 30
0.0
 40
6.000000000000005
100
AcDbArc
 50
270.0000000000002
 51
1.909152432987542
  0
LINE
  5
424
330
1F
100
AcDbEntity
  8
LAY-10
  6
CONTINUOUS
 62
     7
100
AcDbLine
 10
2311.73484852348
 20
948.7000000000112
 30
0.0
 11
2314.73484852348
 21
951.7000000000112
 31
0.0
  0
LINE
  5
425
330
1F
100
AcDbEntity
  8
LAY-10
  6
CONTINUOUS
 62
     7
100
AcDbLine
 10
2272.734848523478
 20
945.5000000000082
 30
0.0
 11
2311.934848523479
 21
945.5000000000082
 31
0.0
  0
LINE
  5
426
330
1F
100
AcDbEntity
  8
LAY-10
  6
CONTINUOUS
 62
     7
100
AcDbLine
 10
2269.73484852348
 20
942.5000000000091
 30
0.0
 11
2284.73484852348
 21
942.5000000000091
 31
0.0
  0
LINE
  5
427
330
1F
100
AcDbEntity
  8
LAY-10
  6
CONTINUOUS
 62
     7
100
AcDbLine
 10
2272.734848523478
 20
945.5000000000082
 30
0.0
 11
2272.734848523478
 21
957.5000000000091
 31
0.0
  0
LINE
  5
428
330
1F
100
AcDbEntity
  8
LAY-10
  6
CONTINUOUS
 62
     7
100
AcDbLine
 10
2269.73484852348
 20
957.5000000000091
 30
0.0
 11
2272.734848523478
 21
957.5000000000091
 31
0.0
  0
LINE
  5
429
330
1F
100
AcDbEntity
  8
LAY-10
  6
CONTINUOUS
 62
     7
100
AcDbLine
 10
2284.73484852348
 20
942.5000000000091
 30
0.0
 11
2284.73484852348
 21
945.5000000000082
 31
0.0
  0
LINE
  5
42A
330
1F
100
AcDbEntity
  8
LAY-10
  6
CONTINUOUS
 62
     7
100
AcDbLine
 10
2317.9348485235
 20
1017.500000000008
 30
0.0
 11
2336.934848523473
 21
1017.500000000008
 31
0.0
  0
LINE
  5
42B
330
1F
100
AcDbEntity
  8
LAY-10
  6
CONTINUOUS
 62
     7
100
AcDbLine
 10
2319.934848523475
 20
1017.500000000008
 30
0.0
 11
2319.934848523475
 21
941.5000000000106
 31
0.0
  0
LINE
  5
42C
330
1F
100
AcDbEntity
  8
LAY-10
  6
CONTINUOUS
 62
     7
100
AcDbLine
 10
2387.734848523476
 20
1029.50000000001
 30
0.0
 11
2387.734848523476
 21
2507.50000000001
 31
0.0
  0
LINE
  5
42D
330
1F
100
AcDbEntity
  8
LAY-10
  6
CONTINUOUS
 62
     7
100
AcDbLine
 10
2360.734848523474
 20
1035.50000000001
 30
0.0
 11
2360.734848523474
 21
2501.50000000001
 31
0.0
  0
LINE
  5
42E
330
1F
100
AcDbEntity
  8
LAY-10
  6
CONTINUOUS
 62
     7
100
AcDbLine
 10
2272.734848523478
 20
989.5000000000014
 30
0.0
 11
2272.734848523478
 21
2547.499999999943
 31
0.0
  0
LINE
  5
42F
330
1F
100
AcDbEntity
  8
LAY-10
  6
CONTINUOUS
 62
     7
100
AcDbLine
 10
2314.7348485235
 20
951.7000000000098
 30
0.0
 11
2314.7348485235
 21
2585.30000000001
 31
0.0
  0
LINE
  5
430
330
1F
100
AcDbEntity
  8
LAY-10
  6
CONTINUOUS
 62
     7
100
AcDbLine
 10
2269.73484852348
 20
942.5000000000091
 30
0.0
 11
2269.73484852348
 21
2594.50000000001
 31
0.0
  0
LINE
  5
431
330
1F
100
AcDbEntity
  8
LAY-10
  6
CONTINUOUS
 62
     7
100
AcDbLine
 10
2336.934848523473
 20
2519.50000000001
 30
0.0
 11
2336.934848523473
 21
1017.500000000008
 31
0.0
  0
LINE
  5
432
330
1F
100
AcDbEntity
  8
LAY-10
  6
CONTINUOUS
 62
     7
100
AcDbLine
 10
2354.534848523475
 20
2554.00000000001
 30
0.0
 11
2354.534848523475
 21
984.5000000000105
 31
0.0
  0
LINE
  5
433
330
1F
100
AcDbEntity
  8
LAY-10
  6
CONTINUOUS
 62
     7
100
AcDbLine
 10
2317.9348485235
 20
2586.50000000001
 30
0.0
 11
2317.9348485235
 21
950.50000000001
 31
0.0
  0
LINE
  5
434
330
1F
100
AcDbEntity
  8
LAY-10
  6
CONTINUOUS
 62
     7
100
AcDbLine
 10
2357.734848523476
 20
2538.50000000001
 30
0.0
 11
2357.734848523476
 21
998.5000000000095
 31
0.0
  0
LINE
  5
435
330
1F
100
AcDbEntity
  8
LAY-10
  6
CONTINUOUS
 62
     7
100
AcDbLine
 10
2336.934848523499
 20
2017.00000000001
 30
0.0
 11
2317.9348485235
 21
2017.00000000001
 31
0.0
  0
LINE
  5
436
330
1F
100
AcDbEntity
  8
LAY-10
  6
CONTINUOUS
 62
     7
100
AcDbLine
 10
2336.934848523499
 20
2020.00000000001
 30
0.0
 11
2317.9348485235
 21
2020.00000000001
 31
0.0
  0
LINE
  5
437
330
1F
100
AcDbEntity
  8
LAY-10
  6
CONTINUOUS
 62
     7
100
AcDbLine
 10
2336.934848523499
 20
1520.000000000012
 30
0.0
 11
2317.9348485235
 21
1520.000000000012
 31
0.0
  0
LINE
  5
438
330
1F
100
AcDbEntity
  8
LAY-10
  6
CONTINUOUS
 62
     7
100
AcDbLine
 10
2336.934848523499
 20
1517.000000000012
 30
0.0
 11
2317.9348485235
 21
1517.000000000012
 31
0.0
  0
LINE
  5
439
330
1F
100
AcDbEntity
  8
LAY-10
  6
CONTINUOUS
 62
     7
100
AcDbLine
 10
719.734848523489
 20
2579.499999999929
 30
0.0
 11
356.7348485234872
 21
2579.499999999929
 31
0.0
  0
LINE
  5
43A
330
1F
100
AcDbEntity
  8
LAY-10
  6
CONTINUOUS
 62
     7
100
AcDbLine
 10
356.7348485234872
 20
2579.499999999929
 30
0.0
 11
356.7348485234872
 21
957.4999999999272
 31
0.0
  0
LINE
  5
43B
330
1F
100
AcDbEntity
  8
LAY-10
  6
CONTINUOUS
 62
     7
100
AcDbLine
 10
356.7348485234872
 20
957.4999999999272
 30
0.0
 11
719.734848523489
 21
957.4999999999272
 31
0.0
  0
LINE
  5
43C
330
1F
100
AcDbEntity
  8
LAY-10
  6
CONTINUOUS
 62
     7
100
AcDbLine
 10
719.734848523489
 20
957.4999999999272
 30
0.0
 11
719.734848523489
 21
2579.499999999929
 31
0.0
  0
LINE
  5
43D
330
1F
100
AcDbEntity
  8
LAY-10
  6
CONTINUOUS
 62
     7
100
AcDbLine
 10
443.2348485234781
 20
957.4999999999272
 30
0.0
 11
443.23484852348
 21
2579.499999999934
 31
0.0
  0
LINE
  5
43E
330
1F
100
AcDbEntity
  8
LAY-10
  6
CONTINUOUS
 62
     7
100
AcDbLine
 10
450.7348485234781
 20
957.4999999999272
 30
0.0
 11
450.73484852348
 21
2579.499999999934
 31
0.0
  0
LINE
  5
43F
330
1F
100
AcDbEntity
  8
LAY-10
  6
CONTINUOUS
 62
     7
100
AcDbLine
 10
475.7348485234781
 20
957.4999999999272
 30
0.0
 11
475.7348485234809
 21
2579.499999999934
 31
0.0
  0
LINE
  5
440
330
1F
100
AcDbEntity
  8
LAY-10
  6
CONTINUOUS
 62
     7
100
AcDbLine
 10
483.2348485234781
 20
957.4999999999272
 30
0.0
 11
483.2348485234809
 21
2579.499999999934
 31
0.0
  0
LINE
  5
441
330
1F
100
AcDbEntity
  8
LAY-10
  6
CONTINUOUS
 62
     7
100
AcDbLine
 10
600.7348485235
 20
957.4999999999272
 30
0.0
 11
600.7348485235
 21
2579.499999999934
 31
0.0
  0
LINE
  5
442
330
1F
100
AcDbEntity
  8
LAY-10
  6
CONTINUOUS
 62
     7
100
AcDbLine
 10
593.2348485235
 20
957.4999999999272
 30
0.0
 11
593.2348485235
 21
2579.499999999934
 31
0.0
  0
LINE
  5
443
330
1F
100
AcDbEntity
  8
LAY-10
  6
CONTINUOUS
 62
     7
100
AcDbLine
 10
633.2348485235
 20
957.4999999999272
 30
0.0
 11
633.2348485235
 21
2579.499999999934
 31
0.0
  0
LINE
  5
444
330
1F
100
AcDbEntity
  8
LAY-10
  6
CONTINUOUS
 62
     7
100
AcDbLine
 10
625.7348485235
 20
957.4999999999272
 30
0.0
 11
625.7348485235
 21
2579.499999999934
 31
0.0
  0
LINE
  5
445
330
1F
100
AcDbEntity
  8
LAY-10
  6
CONTINUOUS
 62
     7
100
AcDbLine
 10
356.73484852349
 20
2579.49999999993
 30
0.0
 11
341.73484852349
 21
2594.49999999993
 31
0.0
  0
LINE
  5
446
330
1F
100
AcDbEntity
  8
LAY-10
  6
CONTINUOUS
 62
     7
100
AcDbLine
 10
719.734848523489
 20
2579.49999999993
 30
0.0
 11
734.734848523489
 21
2594.49999999993
 31
0.0
  0
LINE
  5
447
330
1F
100
AcDbEntity
  8
LAY-10
  6
CONTINUOUS
 62
     7
100
AcDbLine
 10
719.734848523489
 20
957.49999999991
 30
0.0
 11
734.734848523489
 21
942.49999999991
 31
0.0
  0
LINE
  5
448
330
1F
100
AcDbEntity
  8
LAY-10
  6
CONTINUOUS
 62
     7
100
AcDbLine
 10
356.73484852349
 20
957.49999999991
 30
0.0
 11
341.73484852349
 21
942.49999999991
 31
0.0
  0
LINE
  5
449
330
1F
100
AcDbEntity
  8
LAY-10
  6
CONTINUOUS
 62
     7
100
AcDbLine
 10
751.7348485234871
 20
2579.499999999929
 30
0.0
 11
1114.734848523487
 21
2579.499999999929
 31
0.0
  0
LINE
  5
44A
330
1F
100
AcDbEntity
  8
LAY-10
  6
CONTINUOUS
 62
     7
100
AcDbLine
 10
751.7348485234891
 20
2579.49999999993
 30
0.0
 11
736.7348485234891
 21
2594.49999999993
 31
0.0
  0
LINE
  5
44B
330
1F
100
AcDbEntity
  8
LAY-10
  6
CONTINUOUS
 62
     7
100
AcDbLine
 10
1114.7348485235
 20
2579.49999999993
 30
0.0
 11
1129.7348485235
 21
2594.49999999993
 31
0.0
  0
LINE
  5
44C
330
1F
100
AcDbEntity
  8
LAY-10
  6
CONTINUOUS
 62
     7
100
AcDbLine
 10
751.7348485234871
 20
957.49999999991
 30
0.0
 11
751.7348485234871
 21
2579.499999999929
 31
0.0
  0
LINE
  5
44D
330
1F
100
AcDbEntity
  8
LAY-10
  6
CONTINUOUS
 62
     7
100
AcDbLine
 10
751.7348485234891
 20
957.49999999991
 30
0.0
 11
736.7348485234891
 21
942.49999999991
 31
0.0
  0
LINE
  5
44E
330
1F
100
AcDbEntity
  8
LAY-10
  6
CONTINUOUS
 62
     7
100
AcDbLine
 10
838.2348485234891
 20
957.4999999999272
 30
0.0
 11
838.2348485234891
 21
2579.499999999934
 31
0.0
  0
LINE
  5
44F
330
1F
100
AcDbEntity
  8
LAY-10
  6
CONTINUOUS
 62
     7
100
AcDbLine
 10
845.7348485234891
 20
957.4999999999272
 30
0.0
 11
845.7348485234891
 21
2579.499999999934
 31
0.0
  0
LINE
  5
450
330
1F
100
AcDbEntity
  8
LAY-10
  6
CONTINUOUS
 62
     7
100
AcDbLine
 10
388.7348485234891
 20
515.50000000001
 30
0.0
 11
388.7348485234891
 21
560.5000000000091
 31
0.0
  0
LINE
  5
451
330
1F
100
AcDbEntity
  8
LAY-10
  6
CONTINUOUS
 62
     7
100
AcDbLine
 10
356.7348485234909
 20
560.5000000000095
 30
0.0
 11
356.7348485234909
 21
515.5000000000095
 31
0.0
  0
LINE
  5
452
330
1F
100
AcDbEntity
  8
LAY-10
  6
CONTINUOUS
 62
     7
100
AcDbLine
 10
344.7348485234899
 20
557.5000000000095
 30
0.0
 11
356.7348485234909
 21
557.5000000000095
 31
0.0
  0
LINE
  5
453
330
1F
100
AcDbEntity
  8
LAY-10
  6
CONTINUOUS
 62
     7
100
AcDbLine
 10
687.7348485234218
 20
560.5000000000091
 30
0.0
 11
687.7348485234218
 21
515.50000000001
 31
0.0
  0
LINE
  5
454
330
1F
100
AcDbEntity
  8
LAY-10
  6
CONTINUOUS
 62
     7
100
AcDbLine
 10
719.734848523489
 20
560.50000000001
 30
0.0
 11
719.734848523489
 21
515.50000000001
 31
0.0
  0
LINE
  5
455
330
1F
100
AcDbEntity
  8
LAY-10
  6
CONTINUOUS
 62
     7
100
AcDbLine
 10
731.7348485234891
 20
557.50000000001
 30
0.0
 11
719.734848523489
 21
557.50000000001
 31
0.0
  0
LINE
  5
456
330
1F
100
AcDbEntity
  8
LAY-10
  6
CONTINUOUS
 62
     7
100
AcDbLine
 10
687.7348485234218
 20
557.50000000001
 30
0.0
 11
388.7348485234891
 21
557.50000000001
 31
0.0
  0
LINE
  5
457
330
1F
100
AcDbEntity
  8
LAY-10
  6
CONTINUOUS
 62
     7
100
AcDbLine
 10
388.7348485234891
 20
989.5000000001215
 30
0.0
 11
388.7348485234891
 21
957.5000000001223
 31
0.0
  0
LINE
  5
458
330
1F
100
AcDbEntity
  8
LAY-10
  6
CONTINUOUS
 62
     7
100
AcDbLine
 10
388.73484852349
 20
989.5000000001215
 30
0.0
 11
356.73484852349
 21
989.5000000001215
 31
0.0
  0
LINE
  5
459
330
1F
100
AcDbEntity
  8
LAY-10
  6
CONTINUOUS
 62
     7
100
AcDbLine
 10
383.23484852349
 20
969.5000000001232
 30
0.0
 11
384.8411485362934
 21
969.5000000001232
 31
0.0
  0
LINE
  5
45A
330
1F
100
AcDbEntity
  8
LAY-10
  6
CONTINUOUS
 62
     7
100
AcDbLine
 10
383.23484852349
 20
977.5000000001214
 30
0.0
 11
384.8411485362934
 21
977.5000000001214
 31
0.0
  0
LINE
  5
45B
330
1F
100
AcDbEntity
  8
LAY-10
  6
CONTINUOUS
 62
     7
100
AcDbLine
 10
383.23484852349
 20
977.5000000001214
 30
0.0
 11
383.23484852349
 21
969.5000000001232
 31
0.0
  0
LINE
  5
45C
330
1F
100
AcDbEntity
  8
LAY-10
  6
CONTINUOUS
 62
     7
100
AcDbLine
 10
372.73484852349
 20
967.0000000001223
 30
0.0
 11
376.73484852349
 21
973.5000000001224
 31
0.0
  0
LINE
  5
45D
330
1F
100
AcDbEntity
  8
LAY-10
  6
CONTINUOUS
 62
     7
100
AcDbLine
 10
376.73484852349
 20
973.5000000001224
 30
0.0
 11
372.73484852349
 21
980.0000000001223
 31
0.0
  0
LINE
  5
45E
330
1F
100
AcDbEntity
  8
LAY-10
  6
CONTINUOUS
 62
     7
100
AcDbLine
 10
372.73484852349
 20
980.0000000001223
 30
0.0
 11
368.73484852349
 21
973.5000000001224
 31
0.0
  0
LINE
  5
45F
330
1F
100
AcDbEntity
  8
LAY-10
  6
CONTINUOUS
 62
     7
100
AcDbLine
 10
368.73484852349
 20
973.5000000001224
 30
0.0
 11
372.73484852349
 21
967.0000000001223
 31
0.0
  0
CIRCLE
  5
460
330
1F
100
AcDbEntity
  8
LAY-10
  6
CONTINUOUS
 62
     7
100
AcDbCircle
 10
372.73484852349
 20
973.5000000001224
 30
0.0
 40
12.75000000000001
  0
LINE
  5
461
330
1F
100
AcDbEntity
  8
LAY-10
  6
CONTINUOUS
 62
     7
100
AcDbLine
 10
388.7348485234891
 20
2547.499999999931
 30
0.0
 11
388.7348485234891
 21
2579.49999999993
 31
0.0
  0
LINE
  5
462
330
1F
100
AcDbEntity
  8
LAY-10
  6
CONTINUOUS
 62
     7
100
AcDbLine
 10
388.73484852349
 20
2547.499999999931
 30
0.0
 11
356.73484852349
 21
2547.499999999931
 31
0.0
  0
LINE
  5
463
330
1F
100
AcDbEntity
  8
LAY-10
  6
CONTINUOUS
 62
     7
100
AcDbLine
 10
383.23484852349
 20
2567.499999999929
 30
0.0
 11
384.8411485362934
 21
2567.499999999929
 31
0.0
  0
LINE
  5
464
330
1F
100
AcDbEntity
  8
LAY-10
  6
CONTINUOUS
 62
     7
100
AcDbLine
 10
383.23484852349
 20
2559.499999999931
 30
0.0
 11
384.8411485362934
 21
2559.499999999931
 31
0.0
  0
LINE
  5
465
330
1F
100
AcDbEntity
  8
LAY-10
  6
CONTINUOUS
 62
     7
100
AcDbLine
 10
383.23484852349
 20
2559.499999999931
 30
0.0
 11
383.23484852349
 21
2567.499999999929
 31
0.0
  0
LINE
  5
466
330
1F
100
AcDbEntity
  8
LAY-10
  6
CONTINUOUS
 62
     7
100
AcDbLine
 10
372.73484852349
 20
2569.99999999993
 30
0.0
 11
376.73484852349
 21
2563.49999999993
 31
0.0
  0
LINE
  5
467
330
1F
100
AcDbEntity
  8
LAY-10
  6
CONTINUOUS
 62
     7
100
AcDbLine
 10
376.73484852349
 20
2563.49999999993
 30
0.0
 11
372.73484852349
 21
2556.99999999993
 31
0.0
  0
LINE
  5
468
330
1F
100
AcDbEntity
  8
LAY-10
  6
CONTINUOUS
 62
     7
100
AcDbLine
 10
372.73484852349
 20
2556.99999999993
 30
0.0
 11
368.73484852349
 21
2563.49999999993
 31
0.0
  0
LINE
  5
469
330
1F
100
AcDbEntity
  8
LAY-10
  6
CONTINUOUS
 62
     7
100
AcDbLine
 10
368.73484852349
 20
2563.49999999993
 30
0.0
 11
372.73484852349
 21
2569.99999999993
 31
0.0
  0
CIRCLE
  5
46A
330
1F
100
AcDbEntity
  8
LAY-10
  6
CONTINUOUS
 62
     7
100
AcDbCircle
 10
372.73484852349
 20
2563.49999999993
 30
0.0
 40
12.75000000000001
  0
LINE
  5
46B
330
1F
100
AcDbEntity
  8
LAY-10
  6
CONTINUOUS
 62
     7
100
AcDbLine
 10
687.7348485234908
 20
989.499999999909
 30
0.0
 11
687.7348485234908
 21
957.49999999991
 31
0.0
  0
LINE
  5
46C
330
1F
100
AcDbEntity
  8
LAY-10
  6
CONTINUOUS
 62
     7
100
AcDbLine
 10
687.7348485234891
 20
989.499999999909
 30
0.0
 11
719.734848523489
 21
989.499999999909
 31
0.0
  0
LINE
  5
46D
330
1F
100
AcDbEntity
  8
LAY-10
  6
CONTINUOUS
 62
     7
100
AcDbLine
 10
693.2348485234891
 20
969.4999999999109
 30
0.0
 11
691.6285485106876
 21
969.4999999999109
 31
0.0
  0
LINE
  5
46E
330
1F
100
AcDbEntity
  8
LAY-10
  6
CONTINUOUS
 62
     7
100
AcDbLine
 10
693.2348485234891
 20
977.499999999909
 30
0.0
 11
691.6285485106876
 21
977.499999999909
 31
0.0
  0
LINE
  5
46F
330
1F
100
AcDbEntity
  8
LAY-10
  6
CONTINUOUS
 62
     7
100
AcDbLine
 10
693.2348485234891
 20
977.499999999909
 30
0.0
 11
693.2348485234891
 21
969.4999999999109
 31
0.0
  0
LINE
  5
470
330
1F
100
AcDbEntity
  8
LAY-10
  6
CONTINUOUS
 62
     7
100
AcDbLine
 10
703.7348485234891
 20
966.9999999999101
 30
0.0
 11
699.734848523489
 21
973.49999999991
 31
0.0
  0
LINE
  5
471
330
1F
100
AcDbEntity
  8
LAY-10
  6
CONTINUOUS
 62
     7
100
AcDbLine
 10
699.734848523489
 20
973.49999999991
 30
0.0
 11
703.7348485234891
 21
979.99999999991
 31
0.0
  0
LINE
  5
472
330
1F
100
AcDbEntity
  8
LAY-10
  6
CONTINUOUS
 62
     7
100
AcDbLine
 10
703.7348485234891
 20
979.99999999991
 30
0.0
 11
707.7348485234891
 21
973.49999999991
 31
0.0
  0
LINE
  5
473
330
1F
100
AcDbEntity
  8
LAY-10
  6
CONTINUOUS
 62
     7
100
AcDbLine
 10
707.7348485234891
 20
973.49999999991
 30
0.0
 11
703.7348485234891
 21
966.9999999999101
 31
0.0
  0
CIRCLE
  5
474
330
1F
100
AcDbEntity
  8
LAY-10
  6
CONTINUOUS
 62
     7
100
AcDbCircle
 10
703.7348485234891
 20
973.49999999991
 30
0.0
 40
12.75000000000001
  0
LINE
  5
475
330
1F
100
AcDbEntity
  8
LAY-10
  6
CONTINUOUS
 62
     7
100
AcDbLine
 10
687.7348485234908
 20
2547.500000000143
 30
0.0
 11
687.7348485234908
 21
2579.500000000142
 31
0.0
  0
LINE
  5
476
330
1F
100
AcDbEntity
  8
LAY-10
  6
CONTINUOUS
 62
     7
100
AcDbLine
 10
687.7348485234891
 20
2547.500000000143
 30
0.0
 11
719.734848523489
 21
2547.500000000143
 31
0.0
  0
LINE
  5
477
330
1F
100
AcDbEntity
  8
LAY-10
  6
CONTINUOUS
 62
     7
100
AcDbLine
 10
693.2348485234891
 20
2567.500000000141
 30
0.0
 11
691.6285485106876
 21
2567.500000000141
 31
0.0
  0
LINE
  5
478
330
1F
100
AcDbEntity
  8
LAY-10
  6
CONTINUOUS
 62
     7
100
AcDbLine
 10
693.2348485234891
 20
2559.500000000143
 30
0.0
 11
691.6285485106876
 21
2559.500000000143
 31
0.0
  0
LINE
  5
479
330
1F
100
AcDbEntity
  8
LAY-10
  6
CONTINUOUS
 62
     7
100
AcDbLine
 10
693.2348485234891
 20
2559.500000000143
 30
0.0
 11
693.2348485234891
 21
2567.500000000141
 31
0.0
  0
LINE
  5
47A
330
1F
100
AcDbEntity
  8
LAY-10
  6
CONTINUOUS
 62
     7
100
AcDbLine
 10
703.7348485234891
 20
2570.000000000142
 30
0.0
 11
699.734848523489
 21
2563.500000000142
 31
0.0
  0
LINE
  5
47B
330
1F
100
AcDbEntity
  8
LAY-10
  6
CONTINUOUS
 62
     7
100
AcDbLine
 10
699.734848523489
 20
2563.500000000142
 30
0.0
 11
703.7348485234891
 21
2557.000000000142
 31
0.0
  0
LINE
  5
47C
330
1F
100
AcDbEntity
  8
LAY-10
  6
CONTINUOUS
 62
     7
100
AcDbLine
 10
703.7348485234891
 20
2557.000000000142
 30
0.0
 11
707.7348485234891
 21
2563.500000000142
 31
0.0
  0
LINE
  5
47D
330
1F
100
AcDbEntity
  8
LAY-10
  6
CONTINUOUS
 62
     7
100
AcDbLine
 10
707.7348485234891
 20
2563.500000000142
 30
0.0
 11
703.7348485234891
 21
2570.000000000142
 31
0.0
  0
CIRCLE
  5
47E
330
1F
100
AcDbEntity
  8
LAY-10
  6
CONTINUOUS
 62
     7
100
AcDbCircle
 10
703.7348485234891
 20
2563.500000000142
 30
0.0
 40
12.75000000000001
  0
LINE
  5
47F
330
1F
100
AcDbEntity
  8
LAY-10
  6
CONTINUOUS
 62
     7
100
AcDbLine
 10
783.7348485234891
 20
2547.499999999931
 30
0.0
 11
783.7348485234891
 21
2579.49999999993
 31
0.0
  0
LINE
  5
480
330
1F
100
AcDbEntity
  8
LAY-10
  6
CONTINUOUS
 62
     7
100
AcDbLine
 10
783.7348485234891
 20
2547.499999999931
 30
0.0
 11
751.7348485234891
 21
2547.499999999931
 31
0.0
  0
LINE
  5
481
330
1F
100
AcDbEntity
  8
LAY-10
  6
CONTINUOUS
 62
     7
100
AcDbLine
 10
778.2348485234891
 20
2567.499999999929
 30
0.0
 11
779.8411485362942
 21
2567.499999999929
 31
0.0
  0
LINE
  5
482
330
1F
100
AcDbEntity
  8
LAY-10
  6
CONTINUOUS
 62
     7
100
AcDbLine
 10
778.2348485234891
 20
2559.499999999931
 30
0.0
 11
779.8411485362942
 21
2559.499999999931
 31
0.0
  0
LINE
  5
483
330
1F
100
AcDbEntity
  8
LAY-10
  6
CONTINUOUS
 62
     7
100
AcDbLine
 10
778.2348485234891
 20
2559.499999999931
 30
0.0
 11
778.2348485234891
 21
2567.499999999929
 31
0.0
  0
LINE
  5
484
330
1F
100
AcDbEntity
  8
LAY-10
  6
CONTINUOUS
 62
     7
100
AcDbLine
 10
767.7348485234891
 20
2569.99999999993
 30
0.0
 11
771.7348485234891
 21
2563.49999999993
 31
0.0
  0
LINE
  5
485
330
1F
100
AcDbEntity
  8
LAY-10
  6
CONTINUOUS
 62
     7
100
AcDbLine
 10
771.7348485234891
 20
2563.49999999993
 30
0.0
 11
767.7348485234891
 21
2556.99999999993
 31
0.0
  0
LINE
  5
486
330
1F
100
AcDbEntity
  8
LAY-10
  6
CONTINUOUS
 62
     7
100
AcDbLine
 10
767.7348485234891
 20
2556.99999999993
 30
0.0
 11
763.7348485234891
 21
2563.49999999993
 31
0.0
  0
LINE
  5
487
330
1F
100
AcDbEntity
  8
LAY-10
  6
CONTINUOUS
 62
     7
100
AcDbLine
 10
763.7348485234891
 20
2563.49999999993
 30
0.0
 11
767.7348485234891
 21
2569.99999999993
 31
0.0
  0
CIRCLE
  5
488
330
1F
100
AcDbEntity
  8
LAY-10
  6
CONTINUOUS
 62
     7
100
AcDbCircle
 10
767.7348485234891
 20
2563.49999999993
 30
0.0
 40
12.75000000000001
  0
LINE
  5
489
330
1F
100
AcDbEntity
  8
LAY-10
  6
CONTINUOUS
 62
     7
100
AcDbLine
 10
1082.7348485235
 20
2547.500000000143
 30
0.0
 11
1082.7348485235
 21
2579.500000000142
 31
0.0
  0
LINE
  5
48A
330
1F
100
AcDbEntity
  8
LAY-10
  6
CONTINUOUS
 62
     7
100
AcDbLine
 10
1082.7348485235
 20
2547.500000000143
 30
0.0
 11
1114.7348485235
 21
2547.500000000143
 31
0.0
  0
LINE
  5
48B
330
1F
100
AcDbEntity
  8
LAY-10
  6
CONTINUOUS
 62
     7
100
AcDbLine
 10
1088.2348485235
 20
2567.500000000141
 30
0.0
 11
1086.628548510697
 21
2567.500000000141
 31
0.0
  0
LINE
  5
48C
330
1F
100
AcDbEntity
  8
LAY-10
  6
CONTINUOUS
 62
     7
100
AcDbLine
 10
1088.2348485235
 20
2559.500000000143
 30
0.0
 11
1086.628548510697
 21
2559.500000000143
 31
0.0
  0
LINE
  5
48D
330
1F
100
AcDbEntity
  8
LAY-10
  6
CONTINUOUS
 62
     7
100
AcDbLine
 10
1088.2348485235
 20
2559.500000000143
 30
0.0
 11
1088.2348485235
 21
2567.500000000141
 31
0.0
  0
LINE
  5
48E
330
1F
100
AcDbEntity
  8
LAY-10
  6
CONTINUOUS
 62
     7
100
AcDbLine
 10
1098.7348485235
 20
2570.000000000142
 30
0.0
 11
1094.7348485235
 21
2563.500000000142
 31
0.0
  0
LINE
  5
48F
330
1F
100
AcDbEntity
  8
LAY-10
  6
CONTINUOUS
 62
     7
100
AcDbLine
 10
1094.7348485235
 20
2563.500000000142
 30
0.0
 11
1098.7348485235
 21
2557.000000000142
 31
0.0
  0
LINE
  5
490
330
1F
100
AcDbEntity
  8
LAY-10
  6
CONTINUOUS
 62
     7
100
AcDbLine
 10
1098.7348485235
 20
2557.000000000142
 30
0.0
 11
1102.7348485235
 21
2563.500000000142
 31
0.0
  0
LINE
  5
491
330
1F
100
AcDbEntity
  8
LAY-10
  6
CONTINUOUS
 62
     7
100
AcDbLine
 10
1102.7348485235
 20
2563.500000000142
 30
0.0
 11
1098.7348485235
 21
2570.000000000142
 31
0.0
  0
CIRCLE
  5
492
330
1F
100
AcDbEntity
  8
LAY-10
  6
CONTINUOUS
 62
     7
100
AcDbCircle
 10
1098.7348485235
 20
2563.500000000142
 30
0.0
 40
12.75000000000001
  0
LINE
  5
493
330
1F
100
AcDbEntity
  8
LAY-10
  6
CONTINUOUS
 62
     7
100
AcDbLine
 10
783.7348485234891
 20
989.5000000001215
 30
0.0
 11
783.7348485234891
 21
957.5000000001223
 31
0.0
  0
LINE
  5
494
330
1F
100
AcDbEntity
  8
LAY-10
  6
CONTINUOUS
 62
     7
100
AcDbLine
 10
783.7348485234891
 20
989.5000000001215
 30
0.0
 11
751.7348485234891
 21
989.5000000001215
 31
0.0
  0
LINE
  5
495
330
1F
100
AcDbEntity
  8
LAY-10
  6
CONTINUOUS
 62
     7
100
AcDbLine
 10
778.2348485234891
 20
969.5000000001232
 30
0.0
 11
779.8411485362942
 21
969.5000000001232
 31
0.0
  0
LINE
  5
496
330
1F
100
AcDbEntity
  8
LAY-10
  6
CONTINUOUS
 62
     7
100
AcDbLine
 10
778.2348485234891
 20
977.5000000001214
 30
0.0
 11
779.8411485362942
 21
977.5000000001214
 31
0.0
  0
LINE
  5
497
330
1F
100
AcDbEntity
  8
LAY-10
  6
CONTINUOUS
 62
     7
100
AcDbLine
 10
778.2348485234891
 20
977.5000000001214
 30
0.0
 11
778.2348485234891
 21
969.5000000001232
 31
0.0
  0
LINE
  5
498
330
1F
100
AcDbEntity
  8
LAY-10
  6
CONTINUOUS
 62
     7
100
AcDbLine
 10
767.7348485234891
 20
967.0000000001223
 30
0.0
 11
771.7348485234891
 21
973.5000000001224
 31
0.0
  0
LINE
  5
499
330
1F
100
AcDbEntity
  8
LAY-10
  6
CONTINUOUS
 62
     7
100
AcDbLine
 10
771.7348485234891
 20
973.5000000001224
 30
0.0
 11
767.7348485234891
 21
980.0000000001223
 31
0.0
  0
LINE
  5
49A
330
1F
100
AcDbEntity
  8
LAY-10
  6
CONTINUOUS
 62
     7
100
AcDbLine
 10
767.7348485234891
 20
980.0000000001223
 30
0.0
 11
763.7348485234891
 21
973.5000000001224
 31
0.0
  0
LINE
  5
49B
330
1F
100
AcDbEntity
  8
LAY-10
  6
CONTINUOUS
 62
     7
100
AcDbLine
 10
763.7348485234891
 20
973.5000000001224
 30
0.0
 11
767.7348485234891
 21
967.0000000001223
 31
0.0
  0
CIRCLE
  5
49C
330
1F
100
AcDbEntity
  8
LAY-10
  6
CONTINUOUS
 62
     7
100
AcDbCircle
 10
767.7348485234891
 20
973.5000000001224
 30
0.0
 40
12.75000000000001
  0
LINE
  5
49D
330
1F
100
AcDbEntity
  8
LAY-10
  6
CONTINUOUS
 62
     7
100
AcDbLine
 10
783.7348485234891
 20
515.50000000001
 30
0.0
 11
783.7348485234891
 21
560.5000000000091
 31
0.0
  0
LINE
  5
49E
330
1F
100
AcDbEntity
  8
LAY-10
  6
CONTINUOUS
 62
     7
100
AcDbLine
 10
751.7348485234909
 20
560.5000000000095
 30
0.0
 11
751.7348485234909
 21
515.5000000000095
 31
0.0
  0
LINE
  5
49F
330
1F
100
AcDbEntity
  8
LAY-10
  6
CONTINUOUS
 62
     7
100
AcDbLine
 10
751.7348485234909
 20
557.50000000001
 30
0.0
 11
739.734848523489
 21
557.50000000001
 31
0.0
  0
LINE
  5
4A0
330
1F
100
AcDbEntity
  8
LAY-10
  6
CONTINUOUS
 62
     7
100
AcDbLine
 10
1114.734848523489
 20
560.50000000001
 30
0.0
 11
1114.734848523489
 21
515.50000000001
 31
0.0
  0
LINE
  5
4A1
330
1F
100
AcDbEntity
  8
LAY-10
  6
CONTINUOUS
 62
     7
100
AcDbLine
 10
1082.734848523489
 20
560.5000000000091
 30
0.0
 11
1082.734848523489
 21
515.50000000001
 31
0.0
  0
LINE
  5
4A2
330
1F
100
AcDbEntity
  8
LAY-10
  6
CONTINUOUS
 62
     7
100
AcDbLine
 10
1126.734848523489
 20
557.50000000001
 30
0.0
 11
1114.734848523489
 21
557.50000000001
 31
0.0
  0
LINE
  5
4A3
330
1F
100
AcDbEntity
  8
LAY-10
  6
CONTINUOUS
 62
     7
100
AcDbLine
 10
1082.734848523489
 20
557.50000000001
 30
0.0
 11
783.7348485234891
 21
557.50000000001
 31
0.0
  0
LINE
  5
4A4
330
1F
100
AcDbEntity
  8
LAY-10
  6
CONTINUOUS
 62
     7
100
AcDbLine
 10
1146.734848523502
 20
560.5000000000095
 30
0.0
 11
1146.734848523502
 21
515.5000000000095
 31
0.0
  0
LINE
  5
4A5
330
1F
100
AcDbEntity
  8
LAY-10
  6
CONTINUOUS
 62
     7
100
AcDbLine
 10
1178.7348485235
 20
515.50000000001
 30
0.0
 11
1178.7348485235
 21
560.5000000000091
 31
0.0
  0
LINE
  5
4A6
330
1F
100
AcDbEntity
  8
LAY-10
  6
CONTINUOUS
 62
     7
100
AcDbLine
 10
1146.734848523502
 20
557.50000000001
 30
0.0
 11
1134.7348485235
 21
557.50000000001
 31
0.0
  0
LINE
  5
4A7
330
1F
100
AcDbEntity
  8
LAY-10
  6
CONTINUOUS
 62
     7
100
AcDbLine
 10
1477.734848523489
 20
560.5000000000091
 30
0.0
 11
1477.734848523489
 21
515.50000000001
 31
0.0
  0
LINE
  5
4A8
330
1F
100
AcDbEntity
  8
LAY-10
  6
CONTINUOUS
 62
     7
100
AcDbLine
 10
1509.7348485235
 20
560.50000000001
 30
0.0
 11
1509.7348485235
 21
515.50000000001
 31
0.0
  0
LINE
  5
4A9
330
1F
100
AcDbEntity
  8
LAY-10
  6
CONTINUOUS
 62
     7
100
AcDbLine
 10
1521.734848523498
 20
557.50000000001
 30
0.0
 11
1509.7348485235
 21
557.50000000001
 31
0.0
  0
LINE
  5
4AA
330
1F
100
AcDbEntity
  8
LAY-10
  6
CONTINUOUS
 62
     7
100
AcDbLine
 10
1477.734848523489
 20
557.50000000001
 30
0.0
 11
1178.7348485235
 21
557.50000000001
 31
0.0
  0
LINE
  5
4AB
330
1F
100
AcDbEntity
  8
LAY-10
  6
CONTINUOUS
 62
     7
100
AcDbLine
 10
1541.734848523402
 20
560.5000000000095
 30
0.0
 11
1541.734848523402
 21
515.5000000000095
 31
0.0
  0
LINE
  5
4AC
330
1F
100
AcDbEntity
  8
LAY-10
  6
CONTINUOUS
 62
     7
100
AcDbLine
 10
1573.734848523396
 20
560.50000000001
 30
0.0
 11
1573.734848523396
 21
515.50000000001
 31
0.0
  0
LINE
  5
4AD
330
1F
100
AcDbEntity
  8
LAY-10
  6
CONTINUOUS
 62
     7
100
AcDbLine
 10
1541.734848523402
 20
557.50000000001
 30
0.0
 11
1529.7348485234
 21
557.50000000001
 31
0.0
  0
LINE
  5
4AE
330
1F
100
AcDbEntity
  8
LAY-10
  6
CONTINUOUS
 62
     7
100
AcDbLine
 10
1904.7348485234
 20
560.50000000001
 30
0.0
 11
1904.7348485234
 21
515.50000000001
 31
0.0
  0
LINE
  5
4AF
330
1F
100
AcDbEntity
  8
LAY-10
  6
CONTINUOUS
 62
     7
100
AcDbLine
 10
1872.734848523396
 20
560.50000000001
 30
0.0
 11
1872.734848523396
 21
515.50000000001
 31
0.0
  0
LINE
  5
4B0
330
1F
100
AcDbEntity
  8
LAY-10
  6
CONTINUOUS
 62
     7
100
AcDbLine
 10
1916.734848523398
 20
557.50000000001
 30
0.0
 11
1904.7348485234
 21
557.50000000001
 31
0.0
  0
LINE
  5
4B1
330
1F
100
AcDbEntity
  8
LAY-10
  6
CONTINUOUS
 62
     7
100
AcDbLine
 10
1872.734848523396
 20
557.50000000001
 30
0.0
 11
1573.734848523396
 21
557.50000000001
 31
0.0
  0
LINE
  5
4B2
330
1F
100
AcDbEntity
  8
LAY-10
  6
CONTINUOUS
 62
     7
100
AcDbLine
 10
1146.7348485235
 20
2579.49999999993
 30
0.0
 11
1131.7348485235
 21
2594.49999999993
 31
0.0
  0
LINE
  5
4B3
330
1F
100
AcDbEntity
  8
LAY-10
  6
CONTINUOUS
 62
     7
100
AcDbLine
 10
1178.7348485235
 20
2547.499999999931
 30
0.0
 11
1178.7348485235
 21
2579.49999999993
 31
0.0
  0
LINE
  5
4B4
330
1F
100
AcDbEntity
  8
LAY-10
  6
CONTINUOUS
 62
     7
100
AcDbLine
 10
1178.7348485235
 20
2547.499999999931
 30
0.0
 11
1146.7348485235
 21
2547.499999999931
 31
0.0
  0
LINE
  5
4B5
330
1F
100
AcDbEntity
  8
LAY-10
  6
CONTINUOUS
 62
     7
100
AcDbLine
 10
1173.2348485235
 20
2567.499999999929
 30
0.0
 11
1174.841148536303
 21
2567.499999999929
 31
0.0
  0
LINE
  5
4B6
330
1F
100
AcDbEntity
  8
LAY-10
  6
CONTINUOUS
 62
     7
100
AcDbLine
 10
1173.2348485235
 20
2559.499999999931
 30
0.0
 11
1174.841148536303
 21
2559.499999999931
 31
0.0
  0
LINE
  5
4B7
330
1F
100
AcDbEntity
  8
LAY-10
  6
CONTINUOUS
 62
     7
100
AcDbLine
 10
1173.2348485235
 20
2559.499999999931
 30
0.0
 11
1173.2348485235
 21
2567.499999999929
 31
0.0
  0
LINE
  5
4B8
330
1F
100
AcDbEntity
  8
LAY-10
  6
CONTINUOUS
 62
     7
100
AcDbLine
 10
1162.7348485235
 20
2569.99999999993
 30
0.0
 11
1166.7348485235
 21
2563.49999999993
 31
0.0
  0
LINE
  5
4B9
330
1F
100
AcDbEntity
  8
LAY-10
  6
CONTINUOUS
 62
     7
100
AcDbLine
 10
1166.7348485235
 20
2563.49999999993
 30
0.0
 11
1162.7348485235
 21
2556.99999999993
 31
0.0
  0
LINE
  5
4BA
330
1F
100
AcDbEntity
  8
LAY-10
  6
CONTINUOUS
 62
     7
100
AcDbLine
 10
1162.7348485235
 20
2556.99999999993
 30
0.0
 11
1158.7348485235
 21
2563.49999999993
 31
0.0
  0
LINE
  5
4BB
330
1F
100
AcDbEntity
  8
LAY-10
  6
CONTINUOUS
 62
     7
100
AcDbLine
 10
1158.7348485235
 20
2563.49999999993
 30
0.0
 11
1162.7348485235
 21
2569.99999999993
 31
0.0
  0
CIRCLE
  5
4BC
330
1F
100
AcDbEntity
  8
LAY-10
  6
CONTINUOUS
 62
     7
100
AcDbCircle
 10
1162.7348485235
 20
2563.49999999993
 30
0.0
 40
12.75000000000001
  0
LINE
  5
4BD
330
1F
100
AcDbEntity
  8
LAY-10
  6
CONTINUOUS
 62
     7
100
AcDbLine
 10
1779.734848523378
 20
1424.999999999972
 30
0.0
 11
1741.734848523377
 21
1424.999999999973
 31
0.0
  0
LINE
  5
4BE
330
1F
100
AcDbEntity
  8
LAY-10
  6
CONTINUOUS
 62
     7
100
AcDbLine
 10
1769.734848523376
 20
1449.999999999975
 30
0.0
 11
1769.734848523376
 21
1429.999999999973
 31
0.0
  0
LINE
  5
4BF
330
1F
100
AcDbEntity
  8
LAY-10
  6
CONTINUOUS
 62
     7
100
AcDbLine
 10
1795.434848523377
 20
1449.999999999975
 30
0.0
 11
1769.734848523376
 21
1449.999999999975
 31
0.0
  0
LINE
  5
4C0
330
1F
100
AcDbEntity
  8
LAY-10
  6
CONTINUOUS
 62
     7
100
AcDbLine
 10
1779.734848523378
 20
1459.999999999972
 30
0.0
 11
1779.734848523378
 21
1449.999999999975
 31
0.0
  0
LINE
  5
4C1
330
1F
100
AcDbEntity
  8
LAY-10
  6
CONTINUOUS
 62
     7
100
AcDbLine
 10
1795.434848523377
 20
1449.999999999975
 30
0.0
 11
1795.434848523377
 21
1429.999999999973
 31
0.0
  0
LINE
  5
4C2
330
1F
100
AcDbEntity
  8
LAY-10
  6
CONTINUOUS
 62
     7
100
AcDbLine
 10
1795.434848523377
 20
1429.999999999973
 30
0.0
 11
1769.734848523376
 21
1429.999999999973
 31
0.0
  0
LINE
  5
4C3
330
1F
100
AcDbEntity
  8
LAY-10
  6
CONTINUOUS
 62
     7
100
AcDbLine
 10
1785.734848523376
 20
1424.999999999972
 30
0.0
 11
1785.734848523376
 21
1429.999999999973
 31
0.0
  0
ARC
  5
4C4
330
1F
100
AcDbEntity
  8
LAY-10
  6
CONTINUOUS
 62
     7
100
AcDbCircle
 10
1779.734848523378
 20
1424.999999999972
 30
0.0
 40
6.000000000000006
100
AcDbArc
 50
270.0000000000002
 51
0.0
  0
LINE
  5
4C5
330
1F
100
AcDbEntity
  8
LAY-10
  6
CONTINUOUS
 62
     7
100
AcDbLine
 10
1779.734848523378
 20
1418.999999999975
 30
0.0
 11
1741.734848523377
 21
1418.999999999975
 31
0.0
  0
ARC
  5
4C6
330
1F
100
AcDbEntity
  8
LAY-10
  6
CONTINUOUS
 62
     7
100
AcDbCircle
 10
1741.734848523377
 20
1418.999999999975
 30
0.0
 40
6.000000000000006
100
AcDbArc
 50
90.00000000000001
 51
180.0
  0
LINE
  5
4C7
330
1F
100
AcDbEntity
  8
LAY-10
  6
CONTINUOUS
 62
     7
100
AcDbLine
 10
1779.734848523378
 20
1330.999999999972
 30
0.0
 11
1741.734848523377
 21
1330.999999999973
 31
0.0
  0
LINE
  5
4C8
330
1F
100
AcDbEntity
  8
LAY-10
  6
CONTINUOUS
 62
     7
100
AcDbLine
 10
1779.734848523378
 20
1324.999999999972
 30
0.0
 11
1741.734848523377
 21
1324.999999999973
 31
0.0
  0
ARC
  5
4C9
330
1F
100
AcDbEntity
  8
LAY-10
  6
CONTINUOUS
 62
     7
100
AcDbCircle
 10
1741.734848523377
 20
1330.999999999973
 30
0.0
 40
6.000000000000006
100
AcDbArc
 50
180.0
 51
270.0000000000002
  0
ARC
  5
4CA
330
1F
100
AcDbEntity
  8
LAY-10
  6
CONTINUOUS
 62
     7
100
AcDbCircle
 10
1779.734848523378
 20
1324.999999999972
 30
0.0
 40
6.000000000000006
100
AcDbArc
 50
0.0
 51
90.00000000000001
  0
LINE
  5
4CB
330
1F
100
AcDbEntity
  8
LAY-10
  6
CONTINUOUS
 62
     7
100
AcDbLine
 10
1779.734848523378
 20
1289.999999999973
 30
0.0
 11
1779.734848523378
 21
1299.999999999973
 31
0.0
  0
LINE
  5
4CC
330
1F
100
AcDbEntity
  8
LAY-10
  6
CONTINUOUS
 62
     7
100
AcDbLine
 10
1785.734848523376
 20
1324.999999999972
 30
0.0
 11
1785.734848523376
 21
1319.999999999973
 31
0.0
  0
LINE
  5
4CD
330
1F
100
AcDbEntity
  8
LAY-10
  6
CONTINUOUS
 62
     7
100
AcDbLine
 10
1795.434848523377
 20
1319.999999999973
 30
0.0
 11
1769.734848523376
 21
1319.999999999973
 31
0.0
  0
LINE
  5
4CE
330
1F
100
AcDbEntity
  8
LAY-10
  6
CONTINUOUS
 62
     7
100
AcDbLine
 10
1769.734848523376
 20
1299.999999999973
 30
0.0
 11
1769.734848523376
 21
1319.999999999973
 31
0.0
  0
LINE
  5
4CF
330
1F
100
AcDbEntity
  8
LAY-10
  6
CONTINUOUS
 62
     7
100
AcDbLine
 10
1795.434848523377
 20
1299.999999999973
 30
0.0
 11
1769.734848523376
 21
1299.999999999973
 31
0.0
  0
LINE
  5
4D0
330
1F
100
AcDbEntity
  8
LAY-10
  6
CONTINUOUS
 62
     7
100
AcDbLine
 10
1785.734848523376
 20
1289.999999999973
 30
0.0
 11
1779.734848523378
 21
1289.999999999973
 31
0.0
  0
LINE
  5
4D1
330
1F
100
AcDbEntity
  8
LAY-10
  6
CONTINUOUS
 62
     7
100
AcDbLine
 10
1786.734848523377
 20
1319.999999999973
 30
0.0
 11
1786.734848523377
 21
1299.999999999973
 31
0.0
  0
LINE
  5
4D2
330
1F
100
AcDbEntity
  8
LAY-10
  6
CONTINUOUS
 62
     7
100
AcDbLine
 10
1786.734848523377
 20
1429.999999999973
 30
0.0
 11
1786.734848523377
 21
1449.999999999975
 31
0.0
  0
LINE
  5
4D3
330
1F
100
AcDbEntity
  8
LAY-10
  6
CONTINUOUS
 62
     7
100
AcDbLine
 10
1778.734848523375
 20
1449.999999999975
 30
0.0
 11
1778.734848523375
 21
1429.999999999973
 31
0.0
  0
LINE
  5
4D4
330
1F
100
AcDbEntity
  8
LAY-10
  6
CONTINUOUS
 62
     7
100
AcDbLine
 10
1778.734848523375
 20
1319.999999999973
 30
0.0
 11
1778.734848523375
 21
1299.999999999973
 31
0.0
  0
LINE
  5
4D5
330
1F
100
AcDbEntity
  8
LAY-10
  6
CONTINUOUS
 62
     7
100
AcDbLine
 10
1795.434848523377
 20
1319.999999999973
 30
0.0
 11
1795.434848523377
 21
1299.999999999973
 31
0.0
  0
LINE
  5
4D6
330
1F
100
AcDbEntity
  8
LAY-10
  6
CONTINUOUS
 62
     7
100
AcDbLine
 10
1779.734848523378
 20
1429.999999999973
 30
0.0
 11
1779.734848523378
 21
1424.999999999972
 31
0.0
  0
LINE
  5
4D7
330
1F
100
AcDbEntity
  8
LAY-10
  6
CONTINUOUS
 62
     7
100
AcDbLine
 10
1785.734848523376
 20
1449.999999999975
 30
0.0
 11
1785.734848523376
 21
1459.999999999972
 31
0.0
  0
LINE
  5
4D8
330
1F
100
AcDbEntity
  8
LAY-10
  6
CONTINUOUS
 62
     7
100
AcDbLine
 10
1779.734848523378
 20
1319.999999999973
 30
0.0
 11
1779.734848523378
 21
1324.999999999972
 31
0.0
  0
LINE
  5
4D9
330
1F
100
AcDbEntity
  8
LAY-10
  6
CONTINUOUS
 62
     7
100
AcDbLine
 10
1741.734848523374
 20
1330.999999999973
 30
0.0
 11
1741.734848523377
 21
1418.999999999975
 31
0.0
  0
LINE
  5
4DA
330
1F
100
AcDbEntity
  8
LAY-10
  6
CONTINUOUS
 62
     7
100
AcDbLine
 10
1735.734848523378
 20
1331.00000000001
 30
0.0
 11
1735.734848523378
 21
1418.999999999975
 31
0.0
  0
LINE
  5
4DB
330
1F
100
AcDbEntity
  8
LAY-10
  6
CONTINUOUS
 62
     7
100
AcDbLine
 10
1785.7348485234
 20
1459.999999999972
 30
0.0
 11
1779.734848523378
 21
1459.999999999972
 31
0.0
  0
LINE
  5
4DC
330
1F
100
AcDbEntity
  8
LAY-10
  6
CONTINUOUS
 62
     7
100
AcDbLine
 10
1785.734848523376
 20
1299.999999999973
 30
0.0
 11
1785.734848523376
 21
1290.0
 31
0.0
  0
LINE
  5
4DD
330
1F
100
AcDbEntity
  8
LAY-10
  6
CONTINUOUS
 62
     7
100
AcDbLine
 10
2348.534848523475
 20
1289.699999999971
 30
0.0
 11
2354.534848523475
 21
1289.699999999971
 31
0.0
  0
LINE
  5
4DE
330
1F
100
AcDbEntity
  8
LAY-10
  6
CONTINUOUS
 62
     7
100
AcDbLine
 10
2348.534848523475
 20
1459.999999999968
 30
0.0
 11
2354.534848523475
 21
1459.999999999968
 31
0.0
  0
LINE
  5
4DF
330
1F
100
AcDbEntity
  8
LAY-10
  6
CONTINUOUS
 62
     7
100
AcDbLine
 10
2346.534848523474
 20
1319.699999999971
 30
0.0
 11
2354.534848523475
 21
1319.699999999971
 31
0.0
  0
LINE
  5
4E0
330
1F
100
AcDbEntity
  8
LAY-10
  6
CONTINUOUS
 62
     7
100
AcDbLine
 10
2346.534848523474
 20
1299.699999999971
 30
0.0
 11
2346.534848523474
 21
1319.699999999971
 31
0.0
  0
LINE
  5
4E1
330
1F
100
AcDbEntity
  8
LAY-10
  6
CONTINUOUS
 62
     7
100
AcDbLine
 10
2346.534848523474
 20
1429.699999999972
 30
0.0
 11
2346.534848523474
 21
1449.699999999971
 31
0.0
  0
LINE
  5
4E2
330
1F
100
AcDbEntity
  8
LAY-10
  6
CONTINUOUS
 62
     7
100
AcDbLine
 10
2348.534848523475
 20
1289.699999999971
 30
0.0
 11
2348.534848523475
 21
1299.699999999971
 31
0.0
  0
LINE
  5
4E3
330
1F
100
AcDbEntity
  8
LAY-10
  6
CONTINUOUS
 62
     7
100
AcDbLine
 10
2348.534848523475
 20
1319.699999999971
 30
0.0
 11
2348.534848523475
 21
1429.699999999972
 31
0.0
  0
LINE
  5
4E4
330
1F
100
AcDbEntity
  8
LAY-10
  6
CONTINUOUS
 62
     7
100
AcDbLine
 10
2348.534848523475
 20
1449.699999999971
 30
0.0
 11
2348.534848523475
 21
1459.999999999968
 31
0.0
  0
LINE
  5
4E5
330
1F
100
AcDbEntity
  8
LAY-10
  6
CONTINUOUS
 62
     7
100
AcDbLine
 10
2346.534848523474
 20
1429.699999999972
 30
0.0
 11
2354.534848523475
 21
1429.699999999972
 31
0.0
  0
LINE
  5
4E6
330
1F
100
AcDbEntity
  8
LAY-10
  6
CONTINUOUS
 62
     7
100
AcDbLine
 10
2346.534848523474
 20
1449.699999999971
 30
0.0
 11
2354.534848523475
 21
1449.699999999971
 31
0.0
  0
LINE
  5
4E7
330
1F
100
AcDbEntity
  8
LAY-10
  6
CONTINUOUS
 62
     7
100
AcDbLine
 10
2346.534848523474
 20
1299.699999999971
 30
0.0
 11
2354.534848523475
 21
1299.699999999971
 31
0.0
  0
LINE
  5
4E8
330
1F
100
AcDbEntity
  8
LAY-10
  6
CONTINUOUS
 62
     7
100
AcDbLine
 10
2353.534848523475
 20
1319.699999999971
 30
0.0
 11
2353.534848523475
 21
1299.699999999971
 31
0.0
  0
LINE
  5
4E9
330
1F
100
AcDbEntity
  8
LAY-10
  6
CONTINUOUS
 62
     7
100
AcDbLine
 10
2353.534848523475
 20
1449.699999999971
 30
0.0
 11
2353.534848523475
 21
1429.699999999972
 31
0.0
  0
ARC
  5
4EA
330
1F
100
AcDbEntity
  8
LAY-10
  6
CONTINUOUS
 62
     7
100
AcDbCircle
 10
2351.534848523477
 20
1327.699999999969
 30
0.0
 40
3.000000000000003
100
AcDbArc
 50
0.0
 51
180.0
  0
ARC
  5
4EB
330
1F
100
AcDbEntity
  8
LAY-10
  6
CONTINUOUS
 62
     7
100
AcDbCircle
 10
2351.534848523477
 20
1421.699999999969
 30
0.0
 40
3.000000000000003
100
AcDbArc
 50
180.0
 51
0.0
  0
LINE
  5
4EC
330
1F
100
AcDbEntity
  8
LAY-10
  6
CONTINUOUS
 62
     7
100
AcDbLine
 10
1779.734848523378
 20
2112.000000000081
 30
0.0
 11
1741.734848523377
 21
2112.00000000008
 31
0.0
  0
LINE
  5
4ED
330
1F
100
AcDbEntity
  8
LAY-10
  6
CONTINUOUS
 62
     7
100
AcDbLine
 10
1769.734848523376
 20
2087.000000000078
 30
0.0
 11
1769.734848523376
 21
2107.00000000008
 31
0.0
  0
LINE
  5
4EE
330
1F
100
AcDbEntity
  8
LAY-10
  6
CONTINUOUS
 62
     7
100
AcDbLine
 10
1795.434848523377
 20
2087.000000000078
 30
0.0
 11
1769.734848523376
 21
2087.000000000078
 31
0.0
  0
LINE
  5
4EF
330
1F
100
AcDbEntity
  8
LAY-10
  6
CONTINUOUS
 62
     7
100
AcDbLine
 10
1779.734848523378
 20
2077.000000000081
 30
0.0
 11
1779.734848523378
 21
2087.000000000078
 31
0.0
  0
LINE
  5
4F0
330
1F
100
AcDbEntity
  8
LAY-10
  6
CONTINUOUS
 62
     7
100
AcDbLine
 10
1795.434848523377
 20
2087.000000000078
 30
0.0
 11
1795.434848523377
 21
2107.00000000008
 31
0.0
  0
LINE
  5
4F1
330
1F
100
AcDbEntity
  8
LAY-10
  6
CONTINUOUS
 62
     7
100
AcDbLine
 10
1795.434848523377
 20
2107.00000000008
 30
0.0
 11
1769.734848523376
 21
2107.00000000008
 31
0.0
  0
LINE
  5
4F2
330
1F
100
AcDbEntity
  8
LAY-10
  6
CONTINUOUS
 62
     7
100
AcDbLine
 10
1785.734848523376
 20
2112.000000000081
 30
0.0
 11
1785.734848523376
 21
2107.00000000008
 31
0.0
  0
ARC
  5
4F3
330
1F
100
AcDbEntity
  8
LAY-10
  6
CONTINUOUS
 62
     7
100
AcDbCircle
 10
1779.734848523378
 20
2112.000000000081
 30
0.0
 40
6.000000000000006
100
AcDbArc
 50
0.0
 51
90.00000000000001
  0
LINE
  5
4F4
330
1F
100
AcDbEntity
  8
LAY-10
  6
CONTINUOUS
 62
     7
100
AcDbLine
 10
1779.734848523378
 20
2118.000000000077
 30
0.0
 11
1741.734848523377
 21
2118.000000000077
 31
0.0
  0
ARC
  5
4F5
330
1F
100
AcDbEntity
  8
LAY-10
  6
CONTINUOUS
 62
     7
100
AcDbCircle
 10
1741.734848523377
 20
2118.000000000077
 30
0.0
 40
6.000000000000006
100
AcDbArc
 50
180.0
 51
270.0
  0
LINE
  5
4F6
330
1F
100
AcDbEntity
  8
LAY-10
  6
CONTINUOUS
 62
     7
100
AcDbLine
 10
1779.734848523378
 20
2206.000000000081
 30
0.0
 11
1741.734848523377
 21
2206.00000000008
 31
0.0
  0
LINE
  5
4F7
330
1F
100
AcDbEntity
  8
LAY-10
  6
CONTINUOUS
 62
     7
100
AcDbLine
 10
1779.734848523378
 20
2212.000000000081
 30
0.0
 11
1741.734848523377
 21
2212.000000000079
 31
0.0
  0
ARC
  5
4F8
330
1F
100
AcDbEntity
  8
LAY-10
  6
CONTINUOUS
 62
     7
100
AcDbCircle
 10
1741.734848523377
 20
2206.00000000008
 30
0.0
 40
6.000000000000006
100
AcDbArc
 50
90.00000000000001
 51
180.0
  0
ARC
  5
4F9
330
1F
100
AcDbEntity
  8
LAY-10
  6
CONTINUOUS
 62
     7
100
AcDbCircle
 10
1779.734848523378
 20
2212.000000000081
 30
0.0
 40
6.000000000000006
100
AcDbArc
 50
270.0
 51
0.0
  0
LINE
  5
4FA
330
1F
100
AcDbEntity
  8
LAY-10
  6
CONTINUOUS
 62
     7
100
AcDbLine
 10
1779.734848523378
 20
2247.000000000079
 30
0.0
 11
1779.734848523378
 21
2237.00000000008
 31
0.0
  0
LINE
  5
4FB
330
1F
100
AcDbEntity
  8
LAY-10
  6
CONTINUOUS
 62
     7
100
AcDbLine
 10
1785.734848523376
 20
2212.000000000081
 30
0.0
 11
1785.734848523376
 21
2217.000000000079
 31
0.0
  0
LINE
  5
4FC
330
1F
100
AcDbEntity
  8
LAY-10
  6
CONTINUOUS
 62
     7
100
AcDbLine
 10
1795.434848523377
 20
2217.000000000079
 30
0.0
 11
1769.734848523376
 21
2217.000000000079
 31
0.0
  0
LINE
  5
4FD
330
1F
100
AcDbEntity
  8
LAY-10
  6
CONTINUOUS
 62
     7
100
AcDbLine
 10
1769.734848523376
 20
2237.00000000008
 30
0.0
 11
1769.734848523376
 21
2217.000000000079
 31
0.0
  0
LINE
  5
4FE
330
1F
100
AcDbEntity
  8
LAY-10
  6
CONTINUOUS
 62
     7
100
AcDbLine
 10
1795.434848523377
 20
2237.00000000008
 30
0.0
 11
1769.734848523376
 21
2237.00000000008
 31
0.0
  0
LINE
  5
4FF
330
1F
100
AcDbEntity
  8
LAY-10
  6
CONTINUOUS
 62
     7
100
AcDbLine
 10
1785.734848523376
 20
2247.000000000079
 30
0.0
 11
1779.734848523378
 21
2247.000000000079
 31
0.0
  0
LINE
  5
500
330
1F
100
AcDbEntity
  8
LAY-10
  6
CONTINUOUS
 62
     7
100
AcDbLine
 10
1786.734848523377
 20
2217.000000000079
 30
0.0
 11
1786.734848523377
 21
2237.00000000008
 31
0.0
  0
LINE
  5
501
330
1F
100
AcDbEntity
  8
LAY-10
  6
CONTINUOUS
 62
     7
100
AcDbLine
 10
1786.734848523377
 20
2107.00000000008
 30
0.0
 11
1786.734848523377
 21
2087.000000000078
 31
0.0
  0
LINE
  5
502
330
1F
100
AcDbEntity
  8
LAY-10
  6
CONTINUOUS
 62
     7
100
AcDbLine
 10
1778.734848523375
 20
2087.000000000078
 30
0.0
 11
1778.734848523375
 21
2107.00000000008
 31
0.0
  0
LINE
  5
503
330
1F
100
AcDbEntity
  8
LAY-10
  6
CONTINUOUS
 62
     7
100
AcDbLine
 10
1778.734848523375
 20
2217.000000000079
 30
0.0
 11
1778.734848523375
 21
2237.00000000008
 31
0.0
  0
LINE
  5
504
330
1F
100
AcDbEntity
  8
LAY-10
  6
CONTINUOUS
 62
     7
100
AcDbLine
 10
1795.434848523377
 20
2217.000000000079
 30
0.0
 11
1795.434848523377
 21
2237.00000000008
 31
0.0
  0
LINE
  5
505
330
1F
100
AcDbEntity
  8
LAY-10
  6
CONTINUOUS
 62
     7
100
AcDbLine
 10
1779.734848523378
 20
2107.00000000008
 30
0.0
 11
1779.734848523378
 21
2112.000000000081
 31
0.0
  0
LINE
  5
506
330
1F
100
AcDbEntity
  8
LAY-10
  6
CONTINUOUS
 62
     7
100
AcDbLine
 10
1785.734848523376
 20
2087.000000000078
 30
0.0
 11
1785.734848523376
 21
2077.000000000081
 31
0.0
  0
LINE
  5
507
330
1F
100
AcDbEntity
  8
LAY-10
  6
CONTINUOUS
 62
     7
100
AcDbLine
 10
1779.734848523378
 20
2217.000000000079
 30
0.0
 11
1779.734848523378
 21
2212.000000000081
 31
0.0
  0
LINE
  5
508
330
1F
100
AcDbEntity
  8
LAY-10
  6
CONTINUOUS
 62
     7
100
AcDbLine
 10
1741.734848523374
 20
2206.00000000008
 30
0.0
 11
1741.734848523377
 21
2118.000000000077
 31
0.0
  0
LINE
  5
509
330
1F
100
AcDbEntity
  8
LAY-10
  6
CONTINUOUS
 62
     7
100
AcDbLine
 10
1735.734848523378
 20
2206.000000000043
 30
0.0
 11
1735.734848523378
 21
2118.000000000077
 31
0.0
  0
LINE
  5
50A
330
1F
100
AcDbEntity
  8
LAY-10
  6
CONTINUOUS
 62
     7
100
AcDbLine
 10
1785.7348485234
 20
2077.000000000081
 30
0.0
 11
1779.734848523378
 21
2077.000000000081
 31
0.0
  0
LINE
  5
50B
330
1F
100
AcDbEntity
  8
LAY-10
  6
CONTINUOUS
 62
     7
100
AcDbLine
 10
1785.734848523376
 20
2237.00000000008
 30
0.0
 11
1785.734848523376
 21
2247.000000000053
 31
0.0
  0
LINE
  5
50C
330
1F
100
AcDbEntity
  8
LAY-10
  6
CONTINUOUS
 62
     7
100
AcDbLine
 10
2348.534848523475
 20
2247.300000000082
 30
0.0
 11
2354.534848523475
 21
2247.300000000082
 31
0.0
  0
LINE
  5
50D
330
1F
100
AcDbEntity
  8
LAY-10
  6
CONTINUOUS
 62
     7
100
AcDbLine
 10
2348.534848523475
 20
2077.000000000085
 30
0.0
 11
2354.534848523475
 21
2077.000000000085
 31
0.0
  0
LINE
  5
50E
330
1F
100
AcDbEntity
  8
LAY-10
  6
CONTINUOUS
 62
     7
100
AcDbLine
 10
2346.534848523474
 20
2217.300000000082
 30
0.0
 11
2354.534848523475
 21
2217.300000000082
 31
0.0
  0
LINE
  5
50F
330
1F
100
AcDbEntity
  8
LAY-10
  6
CONTINUOUS
 62
     7
100
AcDbLine
 10
2346.534848523474
 20
2237.300000000082
 30
0.0
 11
2346.534848523474
 21
2217.300000000082
 31
0.0
  0
LINE
  5
510
330
1F
100
AcDbEntity
  8
LAY-10
  6
CONTINUOUS
 62
     7
100
AcDbLine
 10
2346.534848523474
 20
2107.300000000081
 30
0.0
 11
2346.534848523474
 21
2087.300000000082
 31
0.0
  0
LINE
  5
511
330
1F
100
AcDbEntity
  8
LAY-10
  6
CONTINUOUS
 62
     7
100
AcDbLine
 10
2348.534848523475
 20
2247.300000000082
 30
0.0
 11
2348.534848523475
 21
2237.300000000082
 31
0.0
  0
LINE
  5
512
330
1F
100
AcDbEntity
  8
LAY-10
  6
CONTINUOUS
 62
     7
100
AcDbLine
 10
2348.534848523475
 20
2217.300000000082
 30
0.0
 11
2348.534848523475
 21
2107.300000000081
 31
0.0
  0
LINE
  5
513
330
1F
100
AcDbEntity
  8
LAY-10
  6
CONTINUOUS
 62
     7
100
AcDbLine
 10
2348.534848523475
 20
2087.300000000082
 30
0.0
 11
2348.534848523475
 21
2077.000000000085
 31
0.0
  0
LINE
  5
514
330
1F
100
AcDbEntity
  8
LAY-10
  6
CONTINUOUS
 62
     7
100
AcDbLine
 10
2346.534848523474
 20
2107.300000000081
 30
0.0
 11
2354.534848523475
 21
2107.300000000081
 31
0.0
  0
LINE
  5
515
330
1F
100
AcDbEntity
  8
LAY-10
  6
CONTINUOUS
 62
     7
100
AcDbLine
 10
2346.534848523474
 20
2087.300000000082
 30
0.0
 11
2354.534848523475
 21
2087.300000000082
 31
0.0
  0
LINE
  5
516
330
1F
100
AcDbEntity
  8
LAY-10
  6
CONTINUOUS
 62
     7
100
AcDbLine
 10
2346.534848523474
 20
2237.300000000082
 30
0.0
 11
2354.534848523475
 21
2237.300000000082
 31
0.0
  0
LINE
  5
517
330
1F
100
AcDbEntity
  8
LAY-10
  6
CONTINUOUS
 62
     7
100
AcDbLine
 10
2353.534848523475
 20
2217.300000000082
 30
0.0
 11
2353.534848523475
 21
2237.300000000082
 31
0.0
  0
LINE
  5
518
330
1F
100
AcDbEntity
  8
LAY-10
  6
CONTINUOUS
 62
     7
100
AcDbLine
 10
2353.534848523475
 20
2087.300000000082
 30
0.0
 11
2353.534848523475
 21
2107.300000000081
 31
0.0
  0
ARC
  5
519
330
1F
100
AcDbEntity
  8
LAY-10
  6
CONTINUOUS
 62
     7
100
AcDbCircle
 10
2351.534848523477
 20
2209.300000000084
 30
0.0
 40
3.000000000000003
100
AcDbArc
 50
180.0
 51
0.0
  0
ARC
  5
51A
330
1F
100
AcDbEntity
  8
LAY-10
  6
CONTINUOUS
 62
     7
100
AcDbCircle
 10
2351.534848523477
 20
2115.300000000084
 30
0.0
 40
3.000000000000003
100
AcDbArc
 50
0.0
 51
180.0
  0
CIRCLE
  5
51B
330
1F
100
AcDbEntity
  8
LAY-10
  6
CONTINUOUS
 62
     7
100
AcDbCircle
 10
1739.034848523384
 20
478.9000000000315
 30
0.0
 40
3.000000000000003
  0
ARC
  5
51C
330
1F
100
AcDbEntity
  8
LAY-10
  6
CONTINUOUS
 62
     7
100
AcDbCircle
 10
1782.734848523384
 20
478.9000000000315
 30
0.0
 40
4.0
100
AcDbArc
 50
0.0
 51
131.439421679092
  0
ARC
  5
51D
330
1F
100
AcDbEntity
  8
LAY-10
  6
CONTINUOUS
 62
     7
100
AcDbCircle
 10
1786.734848523382
 20
476.9000000000315
 30
0.0
 40
1.0
100
AcDbArc
 50
180.0
 51
270.0000000000002
  0
LINE
  5
51E
330
1F
100
AcDbEntity
  8
LAY-10
  6
CONTINUOUS
 62
     7
100
AcDbLine
 10
1786.734848523382
 20
478.9000000000315
 30
0.0
 11
1786.734848523382
 21
476.9000000000315
 31
0.0
  0
LINE
  5
51F
330
1F
100
AcDbEntity
  8
LAY-10
  6
CONTINUOUS
 62
     7
100
AcDbLine
 10
1786.734848523382
 20
476.9000000000315
 30
0.0
 11
1795.734848523384
 21
476.9000000000324
 31
0.0
  0
LINE
  5
520
330
1F
100
AcDbEntity
  8
LAY-10
  6
CONTINUOUS
 62
     7
100
AcDbLine
 10
1795.734848523384
 20
476.9000000000324
 30
0.0
 11
1795.734848523384
 21
475.9000000000315
 31
0.0
  0
LINE
  5
521
330
1F
100
AcDbEntity
  8
LAY-10
  6
CONTINUOUS
 62
     7
100
AcDbLine
 10
1785.734848523384
 20
476.9000000000315
 30
0.0
 11
1785.734848523384
 21
478.9000000000315
 31
0.0
  0
ARC
  5
522
330
1F
100
AcDbEntity
  8
LAY-10
  6
CONTINUOUS
 62
     7
100
AcDbCircle
 10
1782.734848523384
 20
478.9000000000315
 30
0.0
 40
3.000000000000003
100
AcDbArc
 50
270.0000000000002
 51
91.73570458884814
  0
LINE
  5
523
330
1F
100
AcDbEntity
  8
LAY-10
  6
CONTINUOUS
 62
     7
100
AcDbLine
 10
1738.943981143459
 20
481.8986235374678
 30
0.0
 11
1782.6439811435
 21
481.8986235374678
 31
0.0
  0
CIRCLE
  5
524
330
1F
100
AcDbEntity
  8
LAY-10
  6
CONTINUOUS
 62
     7
100
AcDbCircle
 10
522.4348485235182
 20
478.9000000000316
 30
0.0
 40
3.000000000000003
  0
ARC
  5
525
330
1F
100
AcDbEntity
  8
LAY-10
  6
CONTINUOUS
 62
     7
100
AcDbCircle
 10
478.7348485235175
 20
478.9000000000317
 30
0.0
 40
4.0
100
AcDbArc
 50
48.5605783209076
 51
180.0
  0
ARC
  5
526
330
1F
100
AcDbEntity
  8
LAY-10
  6
CONTINUOUS
 62
     7
100
AcDbCircle
 10
474.7348485235193
 20
476.9000000000316
 30
0.0
 40
1.0
100
AcDbArc
 50
270.0
 51
0.0
  0
LINE
  5
527
330
1F
100
AcDbEntity
  8
LAY-10
  6
CONTINUOUS
 62
     7
100
AcDbLine
 10
474.7348485235193
 20
478.9000000000317
 30
0.0
 11
474.7348485235193
 21
476.9000000000316
 31
0.0
  0
LINE
  5
528
330
1F
100
AcDbEntity
  8
LAY-10
  6
CONTINUOUS
 62
     7
100
AcDbLine
 10
474.7348485235193
 20
476.9000000000316
 30
0.0
 11
465.7348485235175
 21
476.9000000000325
 31
0.0
  0
LINE
  5
529
330
1F
100
AcDbEntity
  8
LAY-10
  6
CONTINUOUS
 62
     7
100
AcDbLine
 10
465.7348485235175
 20
476.9000000000325
 30
0.0
 11
465.7348485235175
 21
475.9000000000316
 31
0.0
  0
LINE
  5
52A
330
1F
100
AcDbEntity
  8
LAY-10
  6
CONTINUOUS
 62
     7
100
AcDbLine
 10
475.7348485235175
 20
476.9000000000316
 30
0.0
 11
475.7348485235175
 21
478.9000000000317
 31
0.0
  0
ARC
  5
52B
330
1F
100
AcDbEntity
  8
LAY-10
  6
CONTINUOUS
 62
     7
100
AcDbCircle
 10
478.7348485235175
 20
478.9000000000317
 30
0.0
 40
3.000000000000003
100
AcDbArc
 50
88.26429541115186
 51
270.0
  0
LINE
  5
52C
330
1F
100
AcDbEntity
  8
LAY-10
  6
CONTINUOUS
 62
     7
100
AcDbLine
 10
522.5257159034422
 20
481.8986235374679
 30
0.0
 11
478.8257159034015
 21
481.8986235374679
 31
0.0
  0
LINE
  5
52D
330
1F
100
AcDbEntity
  8
LAY-10
  6
HIDDEN
 62
     7
100
AcDbLine
 10
1580.734848523493
 20
442.7000000000335
 30
0.0
 11
1580.734848523493
 21
460.5000000000328
 31
0.0
  0
LINE
  5
52E
330
1F
100
AcDbEntity
  8
LAY-10
  6
CONTINUOUS
 62
     7
100
AcDbLine
 10
1580.734848523491
 20
430.5000000000283
 30
0.0
 11
1580.734848523491
 21
442.7000000000326
 31
0.0
  0
LINE
  5
52F
330
1F
100
AcDbEntity
  8
LAY-10
  6
CONTINUOUS
 62
     7
100
AcDbLine
 10
1680.734848523491
 20
430.5000000000264
 30
0.0
 11
1580.734848523491
 21
430.5000000000283
 31
0.0
  0
LINE
  5
530
330
1F
100
AcDbEntity
  8
LAY-10
  6
CONTINUOUS
 62
     7
100
AcDbLine
 10
1880.734848523491
 20
460.5000000000318
 30
0.0
 11
1880.734848523491
 21
472.7000000000357
 31
0.0
  0
LINE
  5
531
330
1F
100
AcDbEntity
  8
LAY-10
  6
HIDDEN
 62
     7
100
AcDbLine
 10
1680.734848523493
 20
442.7000000000335
 30
0.0
 11
1680.734848523493
 21
460.5000000000328
 31
0.0
  0
LINE
  5
532
330
1F
100
AcDbEntity
  8
LAY-10
  6
CONTINUOUS
 62
     7
100
AcDbLine
 10
1680.734848523491
 20
430.5000000000283
 30
0.0
 11
1680.734848523491
 21
442.7000000000326
 31
0.0
  0
LINE
  5
533
330
1F
100
AcDbEntity
  8
LAY-10
  6
HIDDEN
 62
     7
100
AcDbLine
 10
1580.734848523493
 20
460.5000000000328
 30
0.0
 11
1680.7348485235
 21
460.5000000000328
 31
0.0
  0
LINE
  5
534
330
1F
100
AcDbEntity
  8
LAY-10
  6
CONTINUOUS
 62
     7
100
AcDbLine
 10
380.73484852351
 20
460.5000000000318
 30
0.0
 11
380.73484852351
 21
472.7000000000353
 31
0.0
  0
LINE
  5
535
330
1F
100
AcDbEntity
  8
LAY-10
  6
HIDDEN
 62
     7
100
AcDbLine
 10
680.7348485234127
 20
442.7000000000336
 30
0.0
 11
680.7348485234127
 21
460.5000000000329
 31
0.0
  0
LINE
  5
536
330
1F
100
AcDbEntity
  8
LAY-10
  6
CONTINUOUS
 62
     7
100
AcDbLine
 10
680.7348485234145
 20
430.5000000000283
 30
0.0
 11
680.7348485234145
 21
442.7000000000327
 31
0.0
  0
LINE
  5
537
330
1F
100
AcDbEntity
  8
LAY-10
  6
CONTINUOUS
 62
     7
100
AcDbLine
 10
580.7348485234145
 20
430.5000000000265
 30
0.0
 11
680.7348485234145
 21
430.5000000000283
 31
0.0
  0
LINE
  5
538
330
1F
100
AcDbEntity
  8
LAY-10
  6
HIDDEN
 62
     7
100
AcDbLine
 10
580.7348485234127
 20
442.7000000000336
 30
0.0
 11
580.7348485234127
 21
460.5000000000329
 31
0.0
  0
LINE
  5
539
330
1F
100
AcDbEntity
  8
LAY-10
  6
CONTINUOUS
 62
     7
100
AcDbLine
 10
580.7348485234145
 20
430.5000000000283
 30
0.0
 11
580.7348485234145
 21
442.7000000000327
 31
0.0
  0
LINE
  5
53A
330
1F
100
AcDbEntity
  8
LAY-10
  6
HIDDEN
 62
     7
100
AcDbLine
 10
680.7348485234127
 20
460.5000000000329
 30
0.0
 11
580.7348485234052
 21
460.500000000033
 31
0.0
  0
LINE
  5
53B
330
1F
100
AcDbEntity
  8
LAY-10
  6
CONTINUOUS
 62
     7
100
AcDbLine
 10
377.7348485234963
 20
463.7000000000317
 30
0.0
 11
377.7348485234963
 21
472.7000000000326
 31
0.0
  0
ELLIPSE
  5
53C
330
1F
100
AcDbEntity
  8
LAY-10
  6
CONTINUOUS
 62
     7
100
AcDbEllipse
 10
371.8148485234972
 20
468.2166666667317
 30
0.0
 11
-5.809475019310011
 21
7.114554987124514E-16
 31
0.0
210
0.0
220
0.0
230
1.0
 40
0.774596669241632
 41
0.0
 42
6.283185307179586
  0
LINE
  5
53D
330
1F
100
AcDbEntity
  8
LAY-10
  6
CONTINUOUS
 62
     7
100
AcDbLine
 10
373.0955292226984
 20
463.8273712599321
 30
0.0
 11
366.6483994397979
 21
470.2745010428316
 31
0.0
  0
LINE
  5
53E
330
1F
100
AcDbEntity
  8
LAY-10
  6
CONTINUOUS
 62
     7
100
AcDbLine
 10
371.7919854052973
 20
463.7167015150317
 30
0.0
 11
366.1841763042959
 21
469.3245106160321
 31
0.0
  0
LINE
  5
53F
330
1F
100
AcDbEntity
  8
LAY-10
  6
CONTINUOUS
 62
     7
100
AcDbLine
 10
370.2005968743971
 20
463.893876483532
 30
0.0
 11
366.0077978821967
 21
468.0866754757326
 31
0.0
  0
LINE
  5
540
330
1F
100
AcDbEntity
  8
LAY-10
  6
CONTINUOUS
 62
     7
100
AcDbLine
 10
377.4184866587968
 20
469.4039087604324
 30
0.0
 11
374.699810674497
 21
472.1225847447322
 31
0.0
  0
LINE
  5
541
330
1F
100
AcDbEntity
  8
LAY-10
  6
CONTINUOUS
 62
     7
100
AcDbLine
 10
377.6003033126965
 20
467.8078785441321
 30
0.0
 11
372.7502270675971
 21
472.6579547893316
 31
0.0
  0
LINE
  5
542
330
1F
100
AcDbEntity
  8
LAY-10
  6
CONTINUOUS
 62
     7
100
AcDbLine
 10
377.2874324499982
 20
466.7065358445316
 30
0.0
 11
371.2953309772977
 21
472.6986373172322
 31
0.0
  0
LINE
  5
543
330
1F
100
AcDbEntity
  8
LAY-10
  6
CONTINUOUS
 62
     7
100
AcDbLine
 10
376.7443126062973
 20
465.8354421258318
 30
0.0
 11
370.0706838681057
 21
472.5090708640236
 31
0.0
  0
LINE
  5
544
330
1F
100
AcDbEntity
  8
LAY-10
  6
CONTINUOUS
 62
     7
100
AcDbLine
 10
376.0385600308966
 20
465.126981138832
 30
0.0
 11
369.0086694906997
 21
472.1568716793587
 31
0.0
  0
LINE
  5
545
330
1F
100
AcDbEntity
  8
LAY-10
  6
CONTINUOUS
 62
     7
100
AcDbLine
 10
375.194706723196
 20
464.556620884232
 30
0.0
 11
368.0847558451164
 21
471.6665717620077
 31
0.0
  0
LINE
  5
546
330
1F
100
AcDbEntity
  8
LAY-10
  6
CONTINUOUS
 62
     7
100
AcDbLine
 10
374.2175468833968
 20
464.1195671616325
 30
0.0
 11
367.2941487320854
 21
471.0429653129391
 31
0.0
  0
ELLIPSE
  5
547
330
1F
100
AcDbEntity
  8
LAY-10
  6
CONTINUOUS
 62
     7
100
AcDbEllipse
 10
1889.654848523484
 20
468.2166666667317
 30
0.0
 11
-5.809475019310011
 21
7.114554987124514E-16
 31
0.0
210
0.0
220
0.0
230
1.0
 40
0.774596669241632
 41
0.0
 42
6.283185307179586
  0
LINE
  5
548
330
1F
100
AcDbEntity
  8
LAY-10
  6
CONTINUOUS
 62
     7
100
AcDbLine
 10
1888.374167824281
 20
463.8273712599321
 30
0.0
 11
1894.821297607183
 21
470.2745010428316
 31
0.0
  0
LINE
  5
549
330
1F
100
AcDbEntity
  8
LAY-10
  6
CONTINUOUS
 62
     7
100
AcDbLine
 10
1889.67771164168
 20
463.7167015150317
 30
0.0
 11
1895.285520742682
 21
469.3245106160321
 31
0.0
  0
LINE
  5
54A
330
1F
100
AcDbEntity
  8
LAY-10
  6
CONTINUOUS
 62
     7
100
AcDbLine
 10
1891.269100172582
 20
463.893876483532
 30
0.0
 11
1895.461899164781
 21
468.0866754757326
 31
0.0
  0
LINE
  5
54B
330
1F
100
AcDbEntity
  8
LAY-10
  6
CONTINUOUS
 62
     7
100
AcDbLine
 10
1883.734848523482
 20
463.7000000000317
 30
0.0
 11
1883.734848523482
 21
472.7000000000326
 31
0.0
  0
LINE
  5
54C
330
1F
100
AcDbEntity
  8
LAY-10
  6
CONTINUOUS
 62
     7
100
AcDbLine
 10
1884.182264596981
 20
466.7065358445316
 30
0.0
 11
1890.174366069683
 21
472.6986373172322
 31
0.0
  0
LINE
  5
54D
330
1F
100
AcDbEntity
  8
LAY-10
  6
CONTINUOUS
 62
     7
100
AcDbLine
 10
1883.869393734282
 20
467.8078785441321
 30
0.0
 11
1888.71946997938
 21
472.6579547893316
 31
0.0
  0
LINE
  5
54E
330
1F
100
AcDbEntity
  8
LAY-10
  6
CONTINUOUS
 62
     7
100
AcDbLine
 10
1884.051210388182
 20
469.4039087604324
 30
0.0
 11
1886.769886372482
 21
472.1225847447322
 31
0.0
  0
LINE
  5
54F
330
1F
100
AcDbEntity
  8
LAY-10
  6
CONTINUOUS
 62
     7
100
AcDbLine
 10
1887.25215016358
 20
464.1195671616325
 30
0.0
 11
1894.175548314894
 21
471.0429653129408
 31
0.0
  0
LINE
  5
550
330
1F
100
AcDbEntity
  8
LAY-10
  6
CONTINUOUS
 62
     7
100
AcDbLine
 10
1886.274990323782
 20
464.556620884232
 30
0.0
 11
1893.384941201864
 21
471.6665717620077
 31
0.0
  0
LINE
  5
551
330
1F
100
AcDbEntity
  8
LAY-10
  6
CONTINUOUS
 62
     7
100
AcDbLine
 10
1885.431137016081
 20
465.126981138832
 30
0.0
 11
1892.461027556285
 21
472.1568716793569
 31
0.0
  0
LINE
  5
552
330
1F
100
AcDbEntity
  8
LAY-10
  6
CONTINUOUS
 62
     7
100
AcDbLine
 10
1884.725384440683
 20
465.8354421258318
 30
0.0
 11
1891.399013178874
 21
472.5090708640239
 31
0.0
  0
LINE
  5
553
330
1F
100
AcDbEntity
  8
LAY-10
  6
CONTINUOUS
 62
     7
100
AcDbLine
 10
2269.73484852348
 20
2547.499999999943
 30
0.0
 11
2314.7348485235
 21
2547.499999999943
 31
0.0
  0
LINE
  5
554
330
1F
100
AcDbEntity
  8
LAY-10
  6
CONTINUOUS
 62
     7
100
AcDbLine
 10
2269.73484852348
 20
2579.50000000001
 30
0.0
 11
2314.7348485235
 21
2579.50000000001
 31
0.0
  0
LINE
  5
555
330
1F
100
AcDbEntity
  8
LAY-10
  6
CONTINUOUS
 62
     7
100
AcDbLine
 10
2306.734848523492
 20
2579.50000000001
 30
0.0
 11
2306.734848523492
 21
2588.300000000057
 31
0.0
  0
LINE
  5
556
330
1F
100
AcDbEntity
  8
LAY-10
  6
CONTINUOUS
 62
     7
100
AcDbLine
 10
2304.734848523492
 20
2579.50000000001
 30
0.0
 11
2304.734848523492
 21
2588.300000000057
 31
0.0
  0
LINE
  5
557
330
1F
100
AcDbEntity
  8
LAY-10
  6
CONTINUOUS
 62
     7
100
AcDbLine
 10
2272.73484852348
 20
957.50000000001
 30
0.0
 11
2314.7348485235
 21
957.50000000001
 31
0.0
  0
LINE
  5
558
330
1F
100
AcDbEntity
  8
LAY-10
  6
CONTINUOUS
 62
     7
100
AcDbLine
 10
2269.73484852348
 20
989.5000000000014
 30
0.0
 11
2314.7348485235
 21
989.5000000000014
 31
0.0
  0
LINE
  5
559
330
1F
100
AcDbEntity
  8
LAY-10
  6
CONTINUOUS
 62
     7
100
AcDbLine
 10
2306.734848523492
 20
948.7000000000098
 30
0.0
 11
2306.734848523492
 21
957.50000000001
 31
0.0
  0
LINE
  5
55A
330
1F
100
AcDbEntity
  8
LAY-10
  6
CONTINUOUS
 62
     7
100
AcDbLine
 10
2306.734848523492
 20
989.5000000000014
 30
0.0
 11
2306.734848523492
 21
2547.499999999943
 31
0.0
  0
LINE
  5
55B
330
1F
100
AcDbEntity
  8
LAY-10
  6
CONTINUOUS
 62
     7
100
AcDbLine
 10
2304.734848523492
 20
948.7000000000098
 30
0.0
 11
2304.734848523492
 21
957.50000000001
 31
0.0
  0
LINE
  5
55C
330
1F
100
AcDbEntity
  8
LAY-10
  6
CONTINUOUS
 62
     7
100
AcDbLine
 10
2304.734848523492
 20
989.5000000000014
 30
0.0
 11
2304.734848523492
 21
2547.499999999943
 31
0.0
  0
LINE
  5
55D
330
1F
100
AcDbEntity
  8
LAY-10
  6
CONTINUOUS
 62
     7
100
AcDbLine
 10
896.5348485234
 20
941.50000000003
 30
0.0
 11
1364.9348485234
 21
2595.5
 31
0.0
  0
LINE
  5
55E
330
1F
100
AcDbEntity
  8
LAY-10
  6
CONTINUOUS
 62
     7
100
AcDbLine
 10
1920.73484852348
 20
2558.500000000028
 30
0.0
 11
1354.456734859562
 21
2558.500000000028
 31
0.0
  0
LINE
  5
55F
330
1F
100
AcDbEntity
  8
LAY-10
  6
CONTINUOUS
 62
     7
100
AcDbLine
 10
1917.7348485234
 20
2555.499999999927
 30
0.0
 11
1353.607158075979
 21
2555.499999999927
 31
0.0
  0
LINE
  5
560
330
1F
100
AcDbEntity
  8
LAY-10
  6
CONTINUOUS
 62
     7
100
AcDbLine
 10
1146.7348485235
 20
2579.499999999929
 30
0.0
 11
1360.40377234442
 21
2579.499999999929
 31
0.0
  0
LINE
  5
561
330
1F
100
AcDbEntity
  8
LAY-10
  6
CONTINUOUS
 62
     7
100
AcDbLine
 10
1131.734848523485
 20
2594.499999999929
 30
0.0
 11
1364.651656262195
 21
2594.499999999929
 31
0.0
  0
LINE
  5
562
330
1F
100
AcDbEntity
  8
LAY-10
  6
CONTINUOUS
 62
     7
100
AcDbLine
 10
1233.2348485235
 20
2130.444918873121
 30
0.0
 11
1233.2348485235
 21
2579.499999999934
 31
0.0
  0
LINE
  5
563
330
1F
100
AcDbEntity
  8
LAY-10
  6
CONTINUOUS
 62
     7
100
AcDbLine
 10
1240.7348485235
 20
2156.928693424786
 30
0.0
 11
1240.7348485235
 21
2579.499999999934
 31
0.0
  0
LINE
  5
564
330
1F
100
AcDbEntity
  8
LAY-10
  6
CONTINUOUS
 62
     7
100
AcDbLine
 10
1265.7348485235
 20
2245.207941930335
 30
0.0
 11
1265.7348485235
 21
2579.499999999934
 31
0.0
  0
LINE
  5
565
330
1F
100
AcDbEntity
  8
LAY-10
  6
CONTINUOUS
 62
     7
100
AcDbLine
 10
1273.2348485235
 20
2271.691716482
 30
0.0
 11
1273.2348485235
 21
2579.499999999934
 31
0.0
  0
LINE
  5
566
330
1F
100
AcDbEntity
  8
LAY-10
  6
CONTINUOUS
 62
     7
100
AcDbLine
 10
1129.734848523487
 20
1764.968830060102
 30
0.0
 11
1129.734848523487
 21
2594.499999999929
 31
0.0
  0
LINE
  5
567
330
1F
100
AcDbEntity
  8
LAY-10
  6
CONTINUOUS
 62
     7
100
AcDbLine
 10
1131.734848523486
 20
1772.03116994054
 30
0.0
 11
1131.734848523485
 21
2594.499999999929
 31
0.0
  0
LINE
  5
568
330
1F
100
AcDbEntity
  8
LAY-10
  6
CONTINUOUS
 62
     7
100
AcDbLine
 10
1114.734848523487
 20
2579.499999999929
 30
0.0
 11
1114.734848523487
 21
1712.001280956772
 31
0.0
  0
LINE
  5
569
330
1F
100
AcDbEntity
  8
LAY-10
  6
CONTINUOUS
 62
     7
100
AcDbLine
 10
1146.734848523486
 20
1824.998719043869
 30
0.0
 11
1146.734848523485
 21
2579.49999999993
 31
0.0
  0
LINE
  5
56A
330
1F
100
AcDbEntity
  8
LAY-10
  6
CONTINUOUS
 62
     7
100
AcDbLine
 10
1028.234848523509
 20
1406.555081127649
 30
0.0
 11
1028.234848523509
 21
2579.499999999934
 31
0.0
  0
LINE
  5
56B
330
1F
100
AcDbEntity
  8
LAY-10
  6
CONTINUOUS
 62
     7
100
AcDbLine
 10
1020.734848523509
 20
1380.071306575985
 30
0.0
 11
1020.734848523509
 21
2579.499999999934
 31
0.0
  0
LINE
  5
56C
330
1F
100
AcDbEntity
  8
LAY-10
  6
CONTINUOUS
 62
     7
100
AcDbLine
 10
995.7348485235111
 20
1291.792058070442
 30
0.0
 11
995.734848523511
 21
2579.499999999934
 31
0.0
  0
LINE
  5
56D
330
1F
100
AcDbEntity
  8
LAY-10
  6
CONTINUOUS
 62
     7
100
AcDbLine
 10
988.2348485235111
 20
1265.308283518777
 30
0.0
 11
988.234848523511
 21
2579.499999999934
 31
0.0
  0
LINE
  5
56E
330
1F
100
AcDbEntity
  8
LAY-10
  6
CONTINUOUS
 62
     7
100
AcDbLine
 10
736.7348485234871
 20
942.4999999999272
 30
0.0
 11
896.8180407845559
 21
942.4999999999272
 31
0.0
  0
LINE
  5
56F
330
1F
100
AcDbEntity
  8
LAY-10
  6
CONTINUOUS
 62
     7
100
AcDbLine
 10
751.7348485234891
 20
957.49999999991
 30
0.0
 11
901.0659247023261
 21
957.49999999991
 31
0.0
  0
LINE
  5
570
330
1F
100
AcDbEntity
  8
LAY-10
  6
CONTINUOUS
 62
     7
100
AcDbLine
 10
1920.73484852348
 20
978.5000000000264
 30
0.0
 11
907.0129621872445
 21
978.5000000000264
 31
0.0
  0
LINE
  5
571
330
1F
100
AcDbEntity
  8
LAY-10
  6
CONTINUOUS
 62
     7
100
AcDbLine
 10
1917.7348485234
 20
981.4999999999272
 30
0.0
 11
907.8625389707713
 21
981.4999999999272
 31
0.0
  0
LINE
  5
572
330
1F
100
AcDbEntity
  8
LAY-10
  6
CONTINUOUS
 62
     7
100
AcDbLine
 10
878.2348485234892
 20
957.49999999991
 30
0.0
 11
878.2348485234909
 21
2579.499999999934
 31
0.0
  0
LINE
  5
573
330
1F
100
AcDbEntity
  8
LAY-10
  6
CONTINUOUS
 62
     7
100
AcDbLine
 10
870.7348485234891
 20
957.49999999991
 30
0.0
 11
870.7348485234909
 21
2579.499999999934
 31
0.0
  0
LINE
  5
574
330
1F
100
AcDbEntity
  8
LAY-10
  6
CONTINUOUS
 62
     7
100
AcDbLine
 10
1934.934848523483
 20
531.5000000000296
 30
0.0
 11
1926.934848523479
 21
531.5000000000296
 31
0.0
  0
LINE
  5
575
330
1F
100
AcDbEntity
  8
LAY-10
  6
CONTINUOUS
 62
     7
100
AcDbLine
 10
1934.934848523483
 20
504.8137084990135
 30
0.0
 11
1934.934848523483
 21
531.5000000000296
 31
0.0
  0
LINE
  5
576
330
1F
100
AcDbEntity
  8
LAY-10
  6
CONTINUOUS
 62
     7
100
AcDbLine
 10
1970.290187582809
 20
469.4583694396866
 30
0.0
 11
1934.934848523483
 21
504.8137084990135
 31
0.0
  0
LINE
  5
577
330
1F
100
AcDbEntity
  8
LAY-10
  6
CONTINUOUS
 62
     7
100
AcDbLine
 10
1964.633333333319
 20
463.8015151901951
 30
0.0
 11
1929.277994273989
 21
499.156854249522
 31
0.0
  0
LINE
  5
578
330
1F
100
AcDbEntity
  8
LAY-10
  6
CONTINUOUS
 62
     7
100
AcDbLine
 10
1964.633333333319
 20
463.8015151901951
 30
0.0
 11
1970.290187582809
 21
469.4583694396866
 31
0.0
  0
ARC
  5
579
330
1F
100
AcDbEntity
  8
LAY-10
  6
CONTINUOUS
 62
     7
100
AcDbCircle
 10
1934.934848523483
 20
504.8137084990135
 30
0.0
 40
8.0
100
AcDbArc
 50
180.0
 51
224.9999999999971
  0
LINE
  5
57A
330
1F
100
AcDbEntity
  8
LAY-10
  6
CONTINUOUS
 62
     7
100
AcDbLine
 10
291.1795094641705
 20
469.4583694396866
 30
0.0
 11
326.5348485234965
 21
504.8137084990135
 31
0.0
  0
LINE
  5
57B
330
1F
100
AcDbEntity
  8
LAY-10
  6
CONTINUOUS
 62
     7
100
AcDbLine
 10
296.836363713662
 20
463.8015151901951
 30
0.0
 11
291.1795094641705
 21
469.4583694396866
 31
0.0
  0
LINE
  5
57C
330
1F
100
AcDbEntity
  8
LAY-10
  6
CONTINUOUS
 62
     7
100
AcDbLine
 10
296.836363713662
 20
463.8015151901951
 30
0.0
 11
332.1917027729899
 21
499.156854249522
 31
0.0
  0
LINE
  5
57D
330
1F
100
AcDbEntity
  8
LAY-10
  6
CONTINUOUS
 62
     7
100
AcDbLine
 10
326.5348485234965
 20
504.8137084990135
 30
0.0
 11
326.5348485234965
 21
531.5000000000296
 31
0.0
  0
LINE
  5
57E
330
1F
100
AcDbEntity
  8
LAY-10
  6
CONTINUOUS
 62
     7
100
AcDbLine
 10
326.5348485234965
 20
531.5000000000296
 30
0.0
 11
334.5348485234983
 21
531.5000000000296
 31
0.0
  0
ARC
  5
57F
330
1F
100
AcDbEntity
  8
LAY-10
  6
CONTINUOUS
 62
     7
100
AcDbCircle
 10
326.5348485234965
 20
504.8137084990135
 30
0.0
 40
8.0
100
AcDbArc
 50
315.0000000000145
 51
0.0
  0
LINE
  5
580
330
1F
100
AcDbEntity
  8
LAY-10
  6
CENTER
 62
     2
100
AcDbLine
 10
281.8363637136001
 20
1768.500000000026
 30
0.0
 11
1979.633333333399
 21
1768.500000000026
 31
0.0
  0
LINE
  5
581
330
1F
100
AcDbEntity
  8
LAY-10
  6
CENTER
 62
     2
100
AcDbLine
 10
1905.734848523374
 20
2556.899999999976
 30
0.0
 11
1905.734848523374
 21
2528.499999999976
 31
0.0
  0
LINE
  5
582
330
1F
100
AcDbEntity
  8
LAY-10
  6
CENTER
 62
     2
100
AcDbLine
 10
1920.734848523374
 20
2543.499999999975
 30
0.0
 11
1888.734848523375
 21
2543.499999999976
 31
0.0
  0
LINE
  5
583
330
1F
100
AcDbEntity
  8
LAY-10
  6
CENTER
 62
     2
100
AcDbLine
 10
1630.734848523513
 20
2610.500000000046
 30
0.0
 11
1630.734848523513
 21
2652.300000000045
 31
0.0
  0
LINE
  5
584
330
1F
100
AcDbEntity
  8
LAY-10
  6
CENTER
 62
     2
100
AcDbLine
 10
630.7348485235127
 20
2610.500000000045
 30
0.0
 11
630.7348485235127
 21
2652.300000000044
 31
0.0
  0
LINE
  5
585
330
1F
100
AcDbEntity
  8
LAY-10
  6
CENTER
 62
     2
100
AcDbLine
 10
1030.7348485235
 20
975.3543167706249
 30
0.0
 11
1030.7348485235
 21
933.554316770626
 31
0.0
  0
LINE
  5
586
330
1F
100
AcDbEntity
  8
LAY-10
  6
CENTER
 62
     2
100
AcDbLine
 10
1374.068181856721
 20
993.4999999998809
 30
0.0
 11
1406.068181856721
 21
993.49999999988
 31
0.0
  0
LINE
  5
587
330
1F
100
AcDbEntity
  8
LAY-10
  6
CENTER
 62
     2
100
AcDbLine
 10
1389.068181856721
 20
980.0999999998803
 30
0.0
 11
1389.068181856721
 21
1008.49999999988
 31
0.0
  0
LINE
  5
588
330
1F
100
AcDbEntity
  8
LAY-10
  6
CENTER
 62
     2
100
AcDbLine
 10
1919.134848523449
 20
993.4999999999513
 30
0.0
 11
1890.734848523447
 21
993.4999999999513
 31
0.0
  0
LINE
  5
589
330
1F
100
AcDbEntity
  8
LAY-10
  6
CENTER
 62
     2
100
AcDbLine
 10
1905.734848523447
 20
978.4999999999513
 30
0.0
 11
1905.734848523447
 21
1010.499999999951
 31
0.0
  0
LINE
  5
58A
330
1F
100
AcDbEntity
  8
LAY-10
  6
CENTER
 62
     2
100
AcDbLine
 10
630.7348485235127
 20
926.5000000000073
 30
0.0
 11
630.7348485235127
 21
884.7000000000089
 31
0.0
  0
LINE
  5
58B
330
1F
100
AcDbEntity
  8
LAY-10
  6
CENTER
 62
     2
100
AcDbLine
 10
1630.734848523513
 20
926.5000000000064
 30
0.0
 11
1630.734848523513
 21
884.700000000008
 31
0.0
  0
LINE
  5
58C
330
1F
100
AcDbEntity
  8
LAY-10
  6
CENTER
 62
     2
100
AcDbLine
 10
355.7348485234963
 20
498.5984848098697
 30
0.0
 11
355.7348485234963
 21
447.3984848098698
 31
0.0
  0
LINE
  5
58D
330
1F
100
AcDbEntity
  8
LAY-10
  6
CENTER
 62
     2
100
AcDbLine
 10
1905.734848523482
 20
494.2700000000332
 30
0.0
 11
1905.734848523482
 21
442.8800000000329
 31
0.0
  0
LINE
  5
58E
330
1F
100
AcDbEntity
  8
LAY-10
  6
CENTER
 62
     2
100
AcDbLine
 10
1130.734848523449
 20
882.6015151901765
 30
0.0
 11
1130.734848523449
 21
2654.398484809878
 31
0.0
  0
LINE
  5
58F
330
1F
100
AcDbEntity
  8
LAY-10
  6
CENTER
 62
     2
100
AcDbLine
 10
1937.101515190136
 20
1268.499999999998
 30
0.0
 11
1978.901515190135
 21
1268.499999999998
 31
0.0
  0
LINE
  5
590
330
1F
100
AcDbEntity
  8
LAY-10
  6
CENTER
 62
     2
100
AcDbLine
 10
1937.101515190136
 20
2268.499999999997
 30
0.0
 11
1978.901515190133
 21
2268.499999999997
 31
0.0
  0
LINE
  5
591
330
1F
100
AcDbEntity
  8
LAY-10
  6
CENTER
 62
     2
100
AcDbLine
 10
324.3681818568632
 20
2268.500000000023
 30
0.0
 11
282.5681818568648
 21
2268.500000000023
 31
0.0
  0
LINE
  5
592
330
1F
100
AcDbEntity
  8
LAY-10
  6
CENTER
 62
     2
100
AcDbLine
 10
324.3681818568641
 20
1268.500000000023
 30
0.0
 11
282.5681818568667
 21
1268.500000000023
 31
0.0
  0
LINE
  5
593
330
1F
100
AcDbEntity
  8
LAY-10
  6
CENTER
 62
     2
100
AcDbLine
 10
1905.734848523376
 20
2040.233333333256
 30
0.0
 11
1905.734848523376
 21
2011.833333333257
 31
0.0
  0
LINE
  5
594
330
1F
100
AcDbEntity
  8
LAY-10
  6
CENTER
 62
     2
100
AcDbLine
 10
1905.734848523376
 20
1496.766666666796
 30
0.0
 11
1905.734848523376
 21
1525.166666666796
 31
0.0
  0
LINE
  5
595
330
1F
100
AcDbEntity
  8
LAY-10
  6
CENTER
 62
     2
100
AcDbLine
 10
1920.734848523374
 20
2026.833333333175
 30
0.0
 11
1888.734848523375
 21
2026.833333333176
 31
0.0
  0
LINE
  5
596
330
1F
100
AcDbEntity
  8
LAY-10
  6
CENTER
 62
     2
100
AcDbLine
 10
1920.734848523374
 20
1510.166666666776
 30
0.0
 11
1888.734848523375
 21
1510.166666666776
 31
0.0
  0
LINE
  5
597
330
1F
100
AcDbEntity
  8
LAY-10
  6
CENTER
 62
     2
100
AcDbLine
 10
1130.734848523451
 20
600.5984848099342
 30
0.0
 11
1130.734848523451
 21
411.5984848099351
 31
0.0
  0
LINE
  5
598
330
1F
100
AcDbEntity
  8
LAY-10
  6
CENTER
 62
     2
100
AcDbLine
 10
1130.734848523453
 20
600.5984848099397
 30
0.0
 11
1130.734848523453
 21
411.5984848099406
 31
0.0
  0
LINE
  5
599
330
1F
100
AcDbEntity
  8
LAY-10
  6
CENTER
 62
     2
100
AcDbLine
 10
1130.734848523453
 20
600.5984848099397
 30
0.0
 11
1130.734848523453
 21
411.5984848099406
 31
0.0
  0
LINE
  5
59A
330
1F
100
AcDbEntity
  8
LAY-10
  6
CENTER
 62
     2
100
AcDbLine
 10
2239.636363713644
 20
1768.500000000011
 30
0.0
 11
2418.636363713642
 21
1768.500000000011
 31
0.0
  0
LINE
  5
59B
330
1F
100
AcDbEntity
  8
LAY-10
  6
CENTER
 62
     2
100
AcDbLine
 10
2350.634848523476
 20
2604.800000000008
 30
0.0
 11
2350.634848523476
 21
2556.300000000011
 31
0.0
  0
LINE
  5
59C
330
1F
100
AcDbEntity
  8
LAY-10
  6
CENTER
 62
     2
100
AcDbLine
 10
2331.836363713637
 20
2543.500000000011
 30
0.0
 11
2383.03636371364
 21
2543.500000000011
 31
0.0
  0
LINE
  5
59D
330
1F
100
AcDbEntity
  8
LAY-10
  6
CENTER
 62
     2
100
AcDbLine
 10
2350.634848523476
 20
932.2000000000099
 30
0.0
 11
2350.634848523476
 21
980.7000000000113
 31
0.0
  0
LINE
  5
59E
330
1F
100
AcDbEntity
  8
LAY-10
  6
CENTER
 62
     2
100
AcDbLine
 10
2331.836363713637
 20
993.5000000000095
 30
0.0
 11
2383.03636371364
 21
993.5000000000095
 31
0.0
  0
LINE
  5
59F
330
1F
100
AcDbEntity
  8
LAY-10
  6
CENTER
 62
     2
100
AcDbLine
 10
372.73484852349
 20
954.900000000122
 30
0.0
 11
372.73484852349
 21
993.8000000001222
 31
0.0
  0
LINE
  5
5A0
330
1F
100
AcDbEntity
  8
LAY-10
  6
CENTER
 62
     2
100
AcDbLine
 10
354.2098485234894
 20
973.5000000001241
 30
0.0
 11
391.7098485234894
 21
973.5000000001241
 31
0.0
  0
LINE
  5
5A1
330
1F
100
AcDbEntity
  8
LAY-10
  6
CENTER
 62
     2
100
AcDbLine
 10
372.73484852349
 20
2582.09999999993
 30
0.0
 11
372.73484852349
 21
2543.19999999993
 31
0.0
  0
LINE
  5
5A2
330
1F
100
AcDbEntity
  8
LAY-10
  6
CENTER
 62
     2
100
AcDbLine
 10
354.2098485234894
 20
2563.499999999928
 30
0.0
 11
391.7098485234894
 21
2563.499999999928
 31
0.0
  0
LINE
  5
5A3
330
1F
100
AcDbEntity
  8
LAY-10
  6
CENTER
 62
     2
100
AcDbLine
 10
703.7348485234891
 20
954.8999999999097
 30
0.0
 11
703.7348485234891
 21
993.7999999999097
 31
0.0
  0
LINE
  5
5A4
330
1F
100
AcDbEntity
  8
LAY-10
  6
CENTER
 62
     2
100
AcDbLine
 10
722.2598485234905
 20
973.4999999999118
 30
0.0
 11
684.7598485234905
 21
973.4999999999118
 31
0.0
  0
LINE
  5
5A5
330
1F
100
AcDbEntity
  8
LAY-10
  6
CENTER
 62
     2
100
AcDbLine
 10
703.7348485234891
 20
2582.100000000143
 30
0.0
 11
703.7348485234891
 21
2543.200000000143
 31
0.0
  0
LINE
  5
5A6
330
1F
100
AcDbEntity
  8
LAY-10
  6
CENTER
 62
     2
100
AcDbLine
 10
722.2598485234905
 20
2563.500000000141
 30
0.0
 11
684.7598485234905
 21
2563.500000000141
 31
0.0
  0
LINE
  5
5A7
330
1F
100
AcDbEntity
  8
LAY-10
  6
CENTER
 62
     2
100
AcDbLine
 10
767.7348485234891
 20
2582.09999999993
 30
0.0
 11
767.7348485234891
 21
2543.19999999993
 31
0.0
  0
LINE
  5
5A8
330
1F
100
AcDbEntity
  8
LAY-10
  6
CENTER
 62
     2
100
AcDbLine
 10
749.2098485234894
 20
2563.499999999928
 30
0.0
 11
786.7098485234894
 21
2563.499999999928
 31
0.0
  0
LINE
  5
5A9
330
1F
100
AcDbEntity
  8
LAY-10
  6
CENTER
 62
     2
100
AcDbLine
 10
1098.7348485235
 20
2582.100000000143
 30
0.0
 11
1098.7348485235
 21
2543.200000000143
 31
0.0
  0
LINE
  5
5AA
330
1F
100
AcDbEntity
  8
LAY-10
  6
CENTER
 62
     2
100
AcDbLine
 10
1117.2598485235
 20
2563.500000000141
 30
0.0
 11
1079.7598485235
 21
2563.500000000141
 31
0.0
  0
LINE
  5
5AB
330
1F
100
AcDbEntity
  8
LAY-10
  6
CENTER
 62
     2
100
AcDbLine
 10
767.7348485234891
 20
954.900000000122
 30
0.0
 11
767.7348485234891
 21
993.8000000001222
 31
0.0
  0
LINE
  5
5AC
330
1F
100
AcDbEntity
  8
LAY-10
  6
CENTER
 62
     2
100
AcDbLine
 10
749.2098485234894
 20
973.5000000001241
 30
0.0
 11
786.7098485234894
 21
973.5000000001241
 31
0.0
  0
LINE
  5
5AD
330
1F
100
AcDbEntity
  8
LAY-10
  6
CENTER
 62
     2
100
AcDbLine
 10
1162.7348485235
 20
2582.09999999993
 30
0.0
 11
1162.7348485235
 21
2543.19999999993
 31
0.0
  0
LINE
  5
5AE
330
1F
100
AcDbEntity
  8
LAY-10
  6
CENTER
 62
     2
100
AcDbLine
 10
1144.2098485235
 20
2563.499999999928
 30
0.0
 11
1181.7098485235
 21
2563.499999999928
 31
0.0
  0
LINE
  5
5AF
330
1F
100
AcDbEntity
  8
LAY-10
  6
CENTER
 62
     2
100
AcDbLine
 10
1374.068181856721
 20
2543.500000000172
 30
0.0
 11
1406.068181856721
 21
2543.500000000173
 31
0.0
  0
LINE
  5
5B0
330
1F
100
AcDbEntity
  8
LAY-10
  6
CENTER
 62
     2
100
AcDbLine
 10
1389.068181856721
 20
2556.900000000172
 30
0.0
 11
1389.068181856721
 21
2528.500000000173
 31
0.0
  0
DIMENSION
  5
5B2
330
1F
100
AcDbEntity
  8
LAY-20
  6
CONTINUOUS
 62
     4
100
AcDbDimension
  2
*D33
 10
1935.7348485235
 20
730.50000000001
 30
0.0
 11
1130.7348485235
 21
755.50000000001
 31
0.0
 70
   160
  3
ISO-25
100
AcDbAlignedDimension
 13
325.7348485235
 23
560.50000000003
 33
0.0
 14
1935.7348485235
 24
560.50000000003
 34
0.0
100
AcDbRotatedDimension
1001
ACAD
1000
DSTYLE
1002
{
1070
   270
1070
     2
1070
     6
1000
EX_BNORM
1070
     7
1000
EX_BNORM
1070
    41
1040
25.0
1070
    42
1040
15.0
1070
    44
1040
15.0
1070
    73
1070
     0
1070
    74
1070
     0
1070
    75
1070
     0
1070
    76
1070
     0
1070
    77
1070
     1
1070
    78
1070
     8
1070
   140
1040
31.181104
1070
   147
1040
0.0
1070
   173
1070
     1
1070
   176
1070
     4
1070
   177
1070
     4
1070
   178
1070
     7
1070
   271
1070
     1
1070
   277
1070
     2
1070
   279
1070
     2
1070
   280
1070
     0
1070
   287
1070
     5
1070
   340
1005
5B1
1002
}
  0
DIMENSION
  5
5C0
330
1F
100
AcDbEntity
  8
LAY-20
  6
CONTINUOUS
 62
     4
100
AcDbDimension
  2
*D34
 10
341.73484852349
 20
660.50000000001
 30
0.0
 11
538.2348485234896
 21
685.50000000001
 31
0.0
 70
   160
  3
ISO-25
100
AcDbAlignedDimension
 13
734.734848523489
 23
560.5000000000091
 33
0.0
 14
341.73484852349
 24
560.5000000000095
 34
0.0
100
AcDbRotatedDimension
1001
ACAD
1000
DSTYLE
1002
{
1070
   270
1070
     2
1070
     6
1000
EX_BNORM
1070
     7
1000
EX_BNORM
1070
    41
1040
25.0
1070
    42
1040
15.0
1070
    44
1040
15.0
1070
    73
1070
     0
1070
    74
1070
     0
1070
    75
1070
     0
1070
    76
1070
     0
1070
    77
1070
     1
1070
    78
1070
     8
1070
   140
1040
31.181104
1070
   147
1040
0.0
1070
   173
1070
     1
1070
   176
1070
     4
1070
   177
1070
     4
1070
   178
1070
     7
1070
   271
1070
     1
1070
   277
1070
     2
1070
   279
1070
     2
1070
   280
1070
     0
1070
   287
1070
     5
1070
   340
1005
5B1
1002
}
  0
DIMENSION
  5
5CD
330
1F
100
AcDbEntity
  8
LAY-20
  6
CONTINUOUS
 62
     4
100
AcDbDimension
  2
*D35
 10
1880.7348485235
 20
330.500000000046
 30
0.0
 11
1130.7348485235
 21
355.500000000046
 31
0.0
 70
   160
  3
ISO-25
100
AcDbAlignedDimension
 13
380.7348485235
 23
430.50000000003
 33
0.0
 14
1880.7348485235
 24
430.50000000003
 34
0.0
100
AcDbRotatedDimension
1001
ACAD
1000
DSTYLE
1002
{
1070
   270
1070
     2
1070
     6
1000
EX_BNORM
1070
     7
1000
EX_BNORM
1070
    41
1040
25.0
1070
    42
1040
0.0
1070
    44
1040
0.0
1070
    73
1070
     0
1070
    74
1070
     0
1070
    75
1070
     0
1070
    76
1070
     0
1070
    77
1070
     1
1070
    78
1070
     8
1070
   140
1040
31.181104
1070
   147
1040
0.0
1070
   173
1070
     1
1070
   176
1070
     4
1070
   177
1070
     4
1070
   178
1070
     7
1070
   271
1070
     1
1070
   277
1070
     2
1070
   279
1070
     2
1070
   280
1070
     0
1070
   287
1070
     5
1070
   340
1005
5B1
1002
}
  0
DIMENSION
  5
5DA
330
1F
100
AcDbEntity
  8
LAY-20
  6
CONTINUOUS
 62
     4
100
AcDbDimension
  2
*D36
 10
2070.290187582799
 20
460.50000000003
 30
0.0
 11
2045.290187582799
 21
510.50000000003
 31
0.0
 70
   160
  3
ISO-25
100
AcDbAlignedDimension
 13
1935.7348485235
 23
560.50000000003
 33
0.0
 14
1923.934848523501
 24
460.50000000003
 34
0.0
 50
90.0
100
AcDbRotatedDimension
1001
ACAD
1000
DSTYLE
1002
{
1070
   270
1070
     2
1070
     6
1000
EX_BNORM
1070
     7
1000
EX_BNORM
1070
    41
1040
25.0
1070
    42
1040
15.0
1070
    44
1040
15.0
1070
    73
1070
     0
1070
    74
1070
     0
1070
    75
1070
     0
1070
    76
1070
     0
1070
    77
1070
     1
1070
    78
1070
     8
1070
   140
1040
31.181104
1070
   147
1040
0.0
1070
   173
1070
     1
1070
   176
1070
     4
1070
   177
1070
     4
1070
   178
1070
     7
1070
   271
1070
     1
1070
   277
1070
     2
1070
   279
1070
     2
1070
   280
1070
     0
1070
   287
1070
     5
1070
   340
1005
5B1
1002
}
  0
DIMENSION
  5
5E7
330
1F
100
AcDbEntity
  8
LAY-20
  6
CONTINUOUS
 62
     4
100
AcDbDimension
  2
*D37
 10
2481.7348485235
 20
1018.5000000001
 30
0.0
 11
2456.7348485235
 21
1768.500000000005
 31
0.0
 70
   160
  3
ISO-25
100
AcDbAlignedDimension
 13
2399.9348485235
 23
2518.49999999991
 33
0.0
 14
2399.9348485235
 24
1018.5000000001
 34
0.0
 50
90.0
100
AcDbRotatedDimension
1001
ACAD
1000
DSTYLE
1002
{
1070
   270
1070
     2
1070
     6
1000
EX_BNORM
1070
     7
1000
EX_BNORM
1070
    41
1040
25.0
1070
    42
1040
15.0
1070
    44
1040
15.0
1070
    73
1070
     0
1070
    74
1070
     0
1070
    75
1070
     0
1070
    76
1070
     0
1070
    77
1070
     1
1070
    78
1070
     8
1070
   140
1040
31.181104
1070
   147
1040
0.0
1070
   173
1070
     1
1070
   176
1070
     4
1070
   177
1070
     4
1070
   178
1070
     7
1070
   271
1070
     1
1070
   277
1070
     2
1070
   279
1070
     2
1070
   280
1070
     0
1070
   287
1070
     5
1070
   340
1005
5B1
1002
}
  0
DIMENSION
  5
5F4
330
1F
100
AcDbEntity
  8
LAY-20
  6
CONTINUOUS
 62
     4
100
AcDbDimension
  2
*D38
 10
2099.7348485235
 20
926.50000000001
 30
0.0
 11
2074.7348485235
 21
1768.50000000001
 31
0.0
 70
   160
  3
ISO-25
100
AcDbAlignedDimension
 13
2269.7348485235
 23
2610.50000000001
 33
0.0
 14
2269.7348485235
 24
926.50000000001
 34
0.0
 50
90.0
100
AcDbRotatedDimension
1001
ACAD
1000
DSTYLE
1002
{
1070
   270
1070
     2
1070
     6
1000
EX_BNORM
1070
     7
1000
EX_BNORM
1070
    41
1040
25.0
1070
    42
1040
15.0
1070
    44
1040
15.0
1070
    73
1070
     0
1070
    74
1070
     0
1070
    75
1070
     0
1070
    76
1070
     0
1070
    77
1070
     1
1070
    78
1070
     8
1070
   140
1040
31.181104
1070
   147
1040
0.0
1070
   173
1070
     1
1070
   176
1070
     4
1070
   177
1070
     4
1070
   178
1070
     7
1070
   271
1070
     1
1070
   277
1070
     2
1070
   279
1070
     2
1070
   280
1070
     0
1070
   287
1070
     5
1070
   340
1005
5B1
1002
}
  0
DIMENSION
  5
601
330
1F
100
AcDbEntity
  8
LAY-20
  6
CONTINUOUS
 62
     4
100
AcDbDimension
  2
*D39
 10
2169.7348485235
 20
2594.50000000001
 30
0.0
 11
2144.7348485235
 21
1768.50000000001
 31
0.0
 70
   160
  3
ISO-25
100
AcDbAlignedDimension
 13
2269.73484852348
 23
942.5000000000091
 33
0.0
 14
2269.73484852348
 24
2594.50000000001
 34
0.0
 50
90.0
100
AcDbRotatedDimension
1001
ACAD
1000
DSTYLE
1002
{
1070
   270
1070
     2
1070
     6
1000
EX_BNORM
1070
     7
1000
EX_BNORM
1070
    41
1040
25.0
1070
    42
1040
15.0
1070
    44
1040
15.0
1070
    73
1070
     0
1070
    74
1070
     0
1070
    75
1070
     0
1070
    76
1070
     0
1070
    77
1070
     1
1070
    78
1070
     8
1070
   140
1040
31.181104
1070
   147
1040
0.0
1070
   173
1070
     1
1070
   176
1070
     4
1070
   177
1070
     4
1070
   178
1070
     7
1070
   271
1070
     1
1070
   277
1070
     2
1070
   279
1070
     2
1070
   280
1070
     0
1070
   287
1070
     5
1070
   340
1005
5B1
1002
}
  0
DIMENSION
  5
60E
330
1F
100
AcDbEntity
  8
LAY-20
  6
CONTINUOUS
 62
     4
100
AcDbDimension
  2
*D40
 10
1926.9348485235
 20
260.50000000004
 30
0.0
 11
1130.7348485235
 21
285.50000000004
 31
0.0
 70
   160
  3
ISO-25
100
AcDbAlignedDimension
 13
334.5348485235
 23
463.5000000000301
 33
0.0
 14
1926.9348485235
 24
463.5000000000301
 34
0.0
100
AcDbRotatedDimension
1001
ACAD
1000
DSTYLE
1002
{
1070
   270
1070
     2
1070
     6
1000
EX_BNORM
1070
     7
1000
EX_BNORM
1070
    41
1040
25.0
1070
    42
1040
15.0
1070
    44
1040
14.99999999999997
1070
    73
1070
     0
1070
    74
1070
     0
1070
    75
1070
     0
1070
    76
1070
     0
1070
    77
1070
     1
1070
    78
1070
     0
1070
   140
1040
31.181104
1070
   147
1040
0.0
1070
   173
1070
     1
1070
   176
1070
     4
1070
   177
1070
     4
1070
   178
1070
     7
1070
   271
1070
     0
1070
   277
1070
     2
1070
   279
1070
     2
1070
   280
1070
     0
1070
   287
1070
     5
1070
   340
1005
5B1
1002
}
  0
DIMENSION
  5
61B
330
1F
100
AcDbEntity
  8
LAY-20
  6
CONTINUOUS
 62
     4
100
AcDbDimension
  2
*D41
 10
2551.7348485235
 20
2601.7
 30
0.0
 11
2526.7348485235
 21
1768.500000000005
 31
0.0
 70
   160
  3
ISO-25
100
AcDbAlignedDimension
 13
2317.1348485235
 23
935.30000000001
 33
0.0
 14
2317.1348485235
 24
2601.7
 34
0.0
 50
90.0
100
AcDbRotatedDimension
1001
ACAD
1000
DSTYLE
1002
{
1070
   270
1070
     2
1070
     6
1000
EX_BNORM
1070
     7
1000
EX_BNORM
1070
    41
1040
25.0
1070
    42
1040
15.0
1070
    44
1040
15.0
1070
    73
1070
     0
1070
    74
1070
     0
1070
    75
1070
     0
1070
    76
1070
     0
1070
    77
1070
     1
1070
    78
1070
     0
1070
   140
1040
31.181104
1070
   147
1040
0.0
1070
   173
1070
     1
1070
   176
1070
     4
1070
   177
1070
     4
1070
   178
1070
     7
1070
   271
1070
     0
1070
   277
1070
     2
1070
   279
1070
     2
1070
   280
1070
     0
1070
   287
1070
     5
1070
   340
1005
5B1
1002
}
  0
DIMENSION
  5
628
330
1F
100
AcDbEntity
  8
LAY-20
  6
CONTINUOUS
 62
     4
100
AcDbDimension
  2
*D42
 10
961.0
 20
560.50000000001
 30
0.0
 11
936.0000000000002
 21
620.5000000000098
 31
0.0
 70
   160
  3
ISO-25
100
AcDbAlignedDimension
 13
878.23484852349
 23
525.50000000001
 33
0.0
 14
961.0
 24
560.50000000001
 34
0.0
 50
90.0
100
AcDbRotatedDimension
1001
ACAD
1000
DSTYLE
1002
{
1070
   270
1070
     2
1070
     6
1000
EX_BNORM
1070
     7
1000
EX_BNORM
1070
    41
1040
25.0
1070
    42
1040
15.0
1070
    44
1040
15.0
1070
    73
1070
     0
1070
    74
1070
     0
1070
    75
1070
     0
1070
    76
1070
     1
1070
    77
1070
     1
1070
    78
1070
     8
1070
   140
1040
31.181104
1070
   147
1040
0.0
1070
   173
1070
     1
1070
   176
1070
     4
1070
   177
1070
     4
1070
   178
1070
     7
1070
   271
1070
     1
1070
   277
1070
     2
1070
   279
1070
     2
1070
   280
1070
     2
1070
   287
1070
     5
1070
   340
1005
5B1
1002
}
  0
LINE
  5
636
330
1F
100
AcDbEntity
  8
LAY-255
  6
CONTINUOUS
 62
     7
100
AcDbLine
 10
3850.0
 20
219.9999999999999
 30
0.0
 11
2850.0
 21
219.9999999999999
 31
0.0
  0
LINE
  5
637
330
1F
100
AcDbEntity
  8
LAY-255
  6
CONTINUOUS
 62
     7
100
AcDbLine
 10
2888.0
 20
160.0
 30
0.0
 11
2968.0
 21
210.0
 31
0.0
  0
LINE
  5
638
330
1F
100
AcDbEntity
  8
LAY-255
  6
CONTINUOUS
 62
     7
100
AcDbLine
 10
2968.0
 20
210.0
 30
0.0
 11
3048.0
 21
160.0
 31
0.0
  0
LINE
  5
639
330
1F
100
AcDbEntity
  8
LAY-255
  6
CONTINUOUS
 62
     7
100
AcDbLine
 10
3048.0
 20
160.0
 30
0.0
 11
2968.0
 21
110.0
 31
0.0
  0
LINE
  5
63A
330
1F
100
AcDbEntity
  8
LAY-255
  6
CONTINUOUS
 62
     7
100
AcDbLine
 10
2968.0
 20
110.0
 30
0.0
 11
2888.0
 21
160.0
 31
0.0
  0
LINE
  5
63B
330
1F
100
AcDbEntity
  8
LAY-255
  6
CONTINUOUS
 62
     7
100
AcDbLine
 10
50.0
 20
100.0
 30
0.0
 11
3850.0
 21
100.0
 31
0.0
  0
LINE
  5
63C
330
1F
100
AcDbEntity
  8
LAY-255
  6
CONTINUOUS
 62
     7
100
AcDbLine
 10
50.0
 20
2800.0
 30
0.0
 11
3850.0
 21
2800.0
 31
0.0
  0
LINE
  5
63D
330
1F
100
AcDbEntity
  8
LAY-255
  6
CONTINUOUS
 62
     7
100
AcDbLine
 10
50.0
 20
100.0
 30
0.0
 11
50.0
 21
2800.0
 31
0.0
  0
LINE
  5
63E
330
1F
100
AcDbEntity
  8
LAY-255
  6
CONTINUOUS
 62
     7
100
AcDbLine
 10
3850.0
 20
100.0
 30
0.0
 11
3850.0
 21
2800.0
 31
0.0
  0
LINE
  5
63F
330
1F
100
AcDbEntity
  8
LAY-255
  6
CONTINUOUS
 62
     4
100
AcDbLine
 10
2850.0
 20
279.9999999999999
 30
0.0
 11
3850.0
 21
279.9999999999999
 31
0.0
  0
LINE
  5
640
330
1F
100
AcDbEntity
  8
LAY-255
  6
CONTINUOUS
 62
     7
100
AcDbLine
 10
2850.0
 20
100.0
 30
0.0
 11
2850.0
 21
670.0
 31
0.0
  0
POINT
  5
641
330
1F
100
AcDbEntity
  8
LAY-255
  6
CONTINUOUS
 62
     7
100
AcDbPoint
 10
2890.0
 20
399.9999999999999
 30
0.0
  0
LINE
  5
642
330
1F
100
AcDbEntity
  8
LAY-255
  6
CONTINUOUS
 62
     4
100
AcDbLine
 10
3350.0
 20
279.9999999999999
 30
0.0
 11
3350.0
 21
220.0
 31
0.0
  0
LINE
  5
643
330
1F
100
AcDbEntity
  8
LAY-255
  6
CONTINUOUS
 62
     7
100
AcDbLine
 10
3850.0
 20
670.0
 30
0.0
 11
2850.0
 21
670.0
 31
0.0
  0
LINE
  5
644
330
1F
100
AcDbEntity
  8
LAY-255
  6
CONTINUOUS
 62
     4
100
AcDbLine
 10
3830.0
 20
549.9999999999999
 30
0.0
 11
2870.0
 21
549.9999999999999
 31
0.0
  0
LINE
  5
645
330
1F
100
AcDbEntity
  8
LAY-255
  6
CONTINUOUS
 62
     4
100
AcDbLine
 10
3830.0
 20
610.0
 30
0.0
 11
2870.0
 21
610.0
 31
0.0
  0
POINT
  5
646
330
1F
100
AcDbEntity
  8
LAY-255
  6
CONTINUOUS
 62
     7
100
AcDbPoint
 10
2890.0
 20
499.9999999999999
 30
0.0
  0
POINT
  5
647
330
1F
100
AcDbEntity
  8
LAY-255
  6
CONTINUOUS
 62
     7
100
AcDbPoint
 10
3000.0
 20
559.9999999999999
 30
0.0
  0
POINT
  5
648
330
1F
100
AcDbEntity
  8
LAY-255
  6
CONTINUOUS
 62
     7
100
AcDbPoint
 10
3000.0
 20
620.0
 30
0.0
  0
POINT
  5
649
330
1F
100
AcDbEntity
  8
LAY-255
  6
CONTINUOUS
 62
     7
100
AcDbPoint
 10
2890.0
 20
349.9999999999999
 30
0.0
  0
POINT
  5
64A
330
1F
100
AcDbEntity
  8
LAY-255
  6
CONTINUOUS
 62
     7
100
AcDbPoint
 10
2890.0
 20
449.9999999999999
 30
0.0
  0
POINT
  5
64B
330
1F
100
AcDbEntity
  8
LAY-255
  6
CONTINUOUS
 62
     7
100
AcDbPoint
 10
2890.0
 20
299.9999999999998
 30
0.0
  0
POINT
  5
64C
330
1F
100
AcDbEntity
  8
LAY-255
  6
CONTINUOUS
 62
     7
100
AcDbPoint
 10
2890.0
 20
349.9999999999999
 30
0.0
  0
TEXT
  5
64D
330
1F
100
AcDbEntity
  8
LAY-255
  6
CONTINUOUS
 62
     7
100
AcDbText
 10
3081.3837890625
 20
155.4375
 30
0.0
 40
51.5625
  1
福西鋳物株式会社
 41
1.342691999659091
  7
EXCADSTD
100
AcDbText
  0
TEXT
  5
64E
330
1F
100
AcDbEntity
  8
LAY-255
  6
CONTINUOUS
 62
     7
100
AcDbText
 10
3085.09375
 20
119.8125
 30
0.0
 40
17.1875
  1
ＦＵＫＵＮＩＳＨＩ
 41
1.204799226045263
  7
EXCADSTD
100
AcDbText
  0
TEXT
  5
64F
330
1F
100
AcDbEntity
  8
LAY-255
  6
CONTINUOUS
 62
     7
100
AcDbText
 10
3327.191964285714
 20
119.8125
 30
0.0
 40
17.1875
  1
ＦＯＵＮＤＲＹ
 41
1.243252752978497
  7
EXCADSTD
100
AcDbText
  0
TEXT
  5
650
330
1F
100
AcDbEntity
  8
LAY-255
  6
CONTINUOUS
 62
     7
100
AcDbText
 10
3519.945914381009
 20
119.8125
 30
0.0
 40
17.1875
  1
ＣＯ.,ＬＴＤ.
 41
1.243831036226633
  7
EXCADSTD
100
AcDbText
  0
TEXT
  5
651
330
1F
100
AcDbEntity
  8
LAY-255
  6
CONTINUOUS
 62
     7
100
AcDbText
 10
2940.34375
 20
137.1875
 30
0.0
 40
51.5625
  1
S
 41
0.7582677563636363
  7
EXCADSTD
100
AcDbText
  0
TEXT
  5
652
330
1F
100
AcDbEntity
  8
LAY-255
  6
CONTINUOUS
 62
     7
100
AcDbText
 10
2971.046875
 20
137.4941037736
 30
0.0
 40
51.5625
  1
F
 41
0.7440945272727272
  7
EXCADSTD
100
AcDbText
  0
TEXT
  5
653
330
1F
100
AcDbEntity
  8
LAY-255
  6
CONTINUOUS
 62
     7
100
AcDbText
 10
3371.0546875
 20
244.2187499999999
 30
0.0
 40
25.78125
  1
縮尺
 41
1.080708718181818
  7
EXCADSTD
100
AcDbText
  0
TEXT
  5
654
330
1F
100
AcDbEntity
  8
LAY-255
  6
CONTINUOUS
 62
     7
100
AcDbText
 10
2872.65625
 20
565.6249999999999
 30
0.0
 40
34.375
  1
型式
 41
1.056348480681818
  7
EXCADSTD
100
AcDbText
  0
TEXT
  5
655
330
1F
100
AcDbEntity
  8
LAY-255
  6
CONTINUOUS
 62
     7
100
AcDbText
 10
2874.21875
 20
625.625
 30
0.0
 40
34.375
  1
品名
 41
0.9788386340909091
  7
EXCADSTD
100
AcDbText
  0
TEXT
  5
656
330
1F
100
AcDbEntity
  8
LAY-255
  6
CONTINUOUS
 62
     7
100
AcDbText
 10
2871.5234375
 20
244.2187499999999
 30
0.0
 40
25.78125
  1
作成日
 41
1.000629973818182
  7
EXCADSTD
100
AcDbText
  0
TEXT
  5
657
330
1F
100
AcDbEntity
  8
LAY-255
  6
CONTINUOUS
 62
     7
100
AcDbText
 10
2891.40625
 20
505.6249999999999
 30
0.0
 40
34.375
  1
材質：スチール
 41
1.029301719225037
  7
EXCADSTD
100
AcDbText
  0
TEXT
  5
658
330
1F
100
AcDbEntity
  8
LAY-255
  6
CONTINUOUS
 62
     7
100
AcDbText
 10
2892.03125
 20
405.6249999999999
 30
0.0
 40
34.375
  1
適用荷重：歩行用
 41
1.015410627012987
  7
EXCADSTD
100
AcDbText
  0
TEXT
  5
659
330
1F
100
AcDbEntity
  8
LAY-255
  6
CONTINUOUS
 62
     7
100
AcDbText
 10
3002.5
 20
625.625
 30
0.0
 40
34.375
  1
化粧用マシンハッチ
 41
1.014552031760644
  7
EXCADSTD
100
AcDbText
  0
TEXT
  5
65A
330
1F
100
AcDbEntity
  8
LAY-255
  6
CONTINUOUS
 62
     7
100
AcDbText
 10
2892.03125
 20
355.6249999999999
 30
0.0
 40
34.375
  1
貼代：３５
 41
0.99542213615222
  7
EXCADSTD
100
AcDbText
  0
TEXT
  5
65B
330
1F
100
AcDbEntity
  8
LAY-255
  6
CONTINUOUS
 62
     7
100
AcDbText
 10
2897.8125
 20
455.6249999999999
 30
0.0
 40
34.375
  1
目地：ステンレス鋼
 41
1.00154495443038
  7
EXCADSTD
100
AcDbText
  0
TEXT
  5
65C
330
1F
100
AcDbEntity
  8
LAY-255
  6
CONTINUOUS
 62
     7
100
AcDbText
 10
3007.5
 20
565.6249999999999
 30
0.0
 40
34.375
  1
ＳＦ－１５０ＢＭＰ－１型
 41
1.00449418439108
  7
EXCADSTD
100
AcDbText
  0
TEXT
  5
65D
330
1F
100
AcDbEntity
  8
LAY-255
  6
CONTINUOUS
 62
     7
100
AcDbText
 10
3008.90625
 20
235.6249999999999
 30
0.0
 40
34.375
  1
０９／０４／２２
 41
0.9779528072727273
  7
EXCADSTD
100
AcDbText
  0
TEXT
  5
65E
330
1F
100
AcDbEntity
  8
LAY-255
  6
CONTINUOUS
 62
     7
100
AcDbText
 10
3482.8125
 20
235.6249999999999
 30
0.0
 40
34.375
  1
１：１０
 41
0.9243863385026738
  7
EXCADSTD
100
AcDbText
  0
ENDSEC
  0
SECTION
  2
OBJECTS
  0
DICTIONARY
  5
C
330
0
100
AcDbDictionary
  3
ACAD_GROUP
350
D
  3
ACAD_LAYOUT
350
1A
  3
ACAD_MATERIAL
350
43
  3
ACAD_MLEADERSTYLE
350
6B
  3
ACAD_MLINESTYLE
350
17
  3
ACAD_PLOTSETTINGS
350
19
  3
ACAD_SCALELIST
350
47
  3
ACAD_VISUALSTYLE
350
2A
  3
ACDBHEADERROUNDTRIPXREC
350
65F
  3
ACDBVARIABLEDICTIONARY
350
680
  0
DICTIONARY
  5
68B
330
8
100
AcDbDictionary
280
     1
  3
ACAD_XREC_ROUNDTRIP
360
68C
  0
DICTIONARY
  5
D
102
{ACAD_REACTORS
330
C
102
}
330
C
100
AcDbDictionary
  0
DICTIONARY
  5
1A
102
{ACAD_REACTORS
330
C
102
}
330
C
100
AcDbDictionary
  0
DICTIONARY
  5
43
102
{ACAD_REACTORS
330
C
102
}
330
C
100
AcDbDictionary
  3
BYBLOCK
350
45
  3
BYLAYER
350
44
  3
GLOBAL
350
46
  0
DICTIONARY
  5
6B
102
{ACAD_REACTORS
330
C
102
}
330
C
100
AcDbDictionary
  3
STANDARD
350
6C
  0
DICTIONARY
  5
17
102
{ACAD_REACTORS
330
C
102
}
330
C
100
AcDbDictionary
  3
STANDARD
350
18
  0
DICTIONARY
  5
19
102
{ACAD_REACTORS
330
C
102
}
330
C
100
AcDbDictionary
  0
DICTIONARY
  5
47
102
{ACAD_REACTORS
330
C
102
}
330
C
100
AcDbDictionary
  3
A0
350
48
  3
A1
350
49
  3
A2
350
4A
  3
A3
350
4B
  3
A4
350
4C
  3
A5
350
4D
  3
A6
350
4E
  3
A7
350
4F
  3
A8
350
50
  3
A9
350
51
  3
B0
350
52
  3
B1
350
53
  3
B2
350
54
  3
B3
350
55
  3
B4
350
56
  3
B5
350
57
  3
B6
350
58
  3
B7
350
59
  3
B8
350
5A
  3
B9
350
5B
  3
C0
350
5C
  3
C1
350
5D
  3
C2
350
5E
  3
C3
350
5F
  3
C4
350
60
  3
C5
350
61
  3
C6
350
62
  3
C7
350
63
  3
C8
350
64
  3
C9
350
65
  3
D0
350
66
  3
D1
350
67
  3
D2
350
68
  0
DICTIONARY
  5
2A
102
{ACAD_REACTORS
330
C
102
}
330
C
100
AcDbDictionary
  3
2DWIREFRAME
350
2F
  3
BASIC
350
32
  3
BRIGHTEN
350
36
  3
COLORCHANGE
350
3A
  3
CONCEPTUAL
350
34
  3
DIM
350
35
  3
EDGECOLOROFF
350
3D
  3
FACEPATTERN
350
39
  3
FLAT
350
2B
  3
FLATWITHEDGES
350
2C
  3
GOURAUD
350
2D
  3
GOURAUDWITHEDGES
350
2E
  3
HIDDEN
350
31
  3
JITTEROFF
350
3B
  3
LINEPATTERN
350
38
  3
OVERHANGOFF
350
3C
  3
REALISTIC
350
33
  3
SHADED
350
42
  3
SHADED_WITH_EDGES
350
41
  3
SHADES_OF_GRAY
350
3E
  3
SKETCHY
350
3F
  3
THICKEN
350
37
  3
WIREFRAME
350
30
  3
X-RAY
350
40
  0
DICTIONARY
  5
65F
102
{ACAD_REACTORS
330
C
102
}
330
C
100
AcDbDictionary
  3
CEPSNID
350
669
  3
CEPSNTYPE
350
668
  3
DIMSTYLEDATA
350
67F
  3
FINGERPRINTGUID
350
66A
  3
HYPERLINKBASE
350
662
  3
INSUNITS
350
667
  3
LAYOUTDICT
350
664
  3
LWETCUNION
350
666
  3
PLOTSETDICT
350
665
  3
PSVPSCALE
350
66C
  3
PUCSBASE
350
66F
  3
PUCSORGBACK
350
675
  3
PUCSORGBOTTOM
350
671
  3
PUCSORGFRONT
350
674
  3
PUCSORGLEFT
350
672
  3
PUCSORGRIGHT
350
673
  3
PUCSORGTOP
350
670
  3
PUCSORTHOREF
350
66D
  3
PUCSORTHOVIEW
350
66E
  3
STYLESHEET
350
663
  3
TSTACKALIGN
350
660
  3
TSTACKSIZE
350
661
  3
UCSBASE
350
678
  3
UCSORGBACK
350
67E
  3
UCSORGBOTTOM
350
67A
  3
UCSORGFRONT
350
67D
  3
UCSORGLEFT
350
67B
  3
UCSORGRIGHT
350
67C
  3
UCSORGTOP
350
679
  3
UCSORTHOREF
350
676
  3
UCSORTHOVIEW
350
677
  3
VERSIONGUID
350
66B
  0
DICTIONARY
  5
680
102
{ACAD_REACTORS
330
C
102
}
330
C
100
AcDbDictionary
  3
CANNOSCALE
350
68D
  3
CENTEREXE
350
687
  3
CENTERLTYPEFILE
350
688
  3
CMLEADERSTYLE
350
682
  3
CTABLESTYLE
350
681
  3
DIMASSOC
350
689
  3
HIDETEXT
350
68A
  3
MSLTSCALE
350
68E
  3
PSOLHEIGHT
350
684
  3
PSOLWIDTH
350
683
  0
XRECORD
  5
68C
102
{ACAD_REACTORS
330
68B
102
}
330
68B
100
AcDbXrecord
102
VTR_0.000_0.000_1.000_1.000_VISUALSTYLE
340
2F
102
VTR_0.000_0.000_1.000_1.000_GRIDDISPLAY
 70
     3
102
VTR_0.000_0.000_1.000_1.000_GRIDMAJOR
 70
     5
102
VTR_0.000_0.000_1.000_1.000_DEFAULTLIGHTING
280
     1
102
VTR_0.000_0.000_1.000_1.000_DEFAULTLIGHTINGTYPE
 70
     1
102
VTR_0.000_0.000_1.000_1.000_BRIGHTNESS
141
0.0
102
VTR_0.000_0.000_1.000_1.000_CONTRAST
142
0.0
  0
MATERIAL
  5
45
102
{ACAD_REACTORS
330
43
102
}
102
{ACAD_XDICTIONARY
360
691
102
}
330
43
100
AcDbMaterial
  1
BYBLOCK
  0
MATERIAL
  5
44
102
{ACAD_REACTORS
330
43
102
}
102
{ACAD_XDICTIONARY
360
68F
102
}
330
43
100
AcDbMaterial
  1
BYLAYER
  0
MATERIAL
  5
46
102
{ACAD_REACTORS
330
43
102
}
102
{ACAD_XDICTIONARY
360
693
102
}
330
43
100
AcDbMaterial
  1
GLOBAL
  0
ACAD_PROXY_OBJECT
  5
6C
102
{ACAD_REACTORS
330
6B
102
}
330
6B
100
AcDbProxyObject
 90
      499
 91
      505
 93
      610
310
40901902A4063FBFFFFFE0000000000000020400000000000020404214DD185B99185C990000000000000104090141901A00000000000004100000000000000041025764000000000000039000
340
14
340
0
340
11
340
0
 94
        0
1001
ACAD_MLEADERVER
1070
     2
  0
MLINESTYLE
  5
18
102
{ACAD_REACTORS
330
17
102
}
330
17
100
AcDbMlineStyle
  2
Standard
 70
     0
  3

 62
   256
 51
90.0
 52
90.0
 71
     2
 49
0.5
 62
   256
  6
BYLAYER
 49
-0.5
 62
   256
  6
BYLAYER
  0
ACAD_PROXY_OBJECT
  5
48
102
{ACAD_REACTORS
330
47
102
}
330
47
100
AcDbProxyObject
 90
      499
 91
      503
 93
       41
310
903313A31580
  0
ACAD_PROXY_OBJECT
  5
49
102
{ACAD_REACTORS
330
47
102
}
330
47
100
AcDbProxyObject
 90
      499
 91
      503
 93
      105
310
903313A324000000000000004000
  0
ACAD_PROXY_OBJECT
  5
4A
102
{ACAD_REACTORS
330
47
102
}
330
47
100
AcDbProxyObject
 90
      499
 91
      503
 93
      105
310
903313A344000000000000104000
  0
ACAD_PROXY_OBJECT
  5
4B
102
{ACAD_REACTORS
330
47
102
}
330
47
100
AcDbProxyObject
 90
      499
 91
      503
 93
      105
310
903313A354000000000000144000
  0
ACAD_PROXY_OBJECT
  5
4C
102
{ACAD_REACTORS
330
47
102
}
330
47
100
AcDbProxyObject
 90
      499
 91
      503
 93
      105
310
903313A384000000000000204000
  0
ACAD_PROXY_OBJECT
  5
4D
102
{ACAD_REACTORS
330
47
102
}
330
47
100
AcDbProxyObject
 90
      499
 91
      503
 93
      113
310
904313A31304000000000000244000
  0
ACAD_PROXY_OBJECT
  5
4E
102
{ACAD_REACTORS
330
47
102
}
330
47
100
AcDbProxyObject
 90
      499
 91
      503
 93
      113
310
904313A31364000000000000304000
  0
ACAD_PROXY_OBJECT
  5
4F
102
{ACAD_REACTORS
330
47
102
}
330
47
100
AcDbProxyObject
 90
      499
 91
      503
 93
      113
310
904313A32304000000000000344000
  0
ACAD_PROXY_OBJECT
  5
50
102
{ACAD_REACTORS
330
47
102
}
330
47
100
AcDbProxyObject
 90
      499
 91
      503
 93
      113
310
904313A333040000000000003E4000
  0
ACAD_PROXY_OBJECT
  5
51
102
{ACAD_REACTORS
330
47
102
}
330
47
100
AcDbProxyObject
 90
      499
 91
      503
 93
      113
310
904313A34304000000000000444000
  0
ACAD_PROXY_OBJECT
  5
52
102
{ACAD_REACTORS
330
47
102
}
330
47
100
AcDbProxyObject
 90
      499
 91
      503
 93
      113
310
904313A35304000000000000494000
  0
ACAD_PROXY_OBJECT
  5
53
102
{ACAD_REACTORS
330
47
102
}
330
47
100
AcDbProxyObject
 90
      499
 91
      503
 93
      121
310
905313A3130304000000000000594000
  0
ACAD_PROXY_OBJECT
  5
54
102
{ACAD_REACTORS
330
47
102
}
330
47
100
AcDbProxyObject
 90
      499
 91
      503
 93
      105
310
903323A310000000000000010100
  0
ACAD_PROXY_OBJECT
  5
55
102
{ACAD_REACTORS
330
47
102
}
330
47
100
AcDbProxyObject
 90
      499
 91
      503
 93
      105
310
903343A310000000000000410100
  0
ACAD_PROXY_OBJECT
  5
56
102
{ACAD_REACTORS
330
47
102
}
330
47
100
AcDbProxyObject
 90
      499
 91
      503
 93
      105
310
903383A310000000000000810100
  0
ACAD_PROXY_OBJECT
  5
57
102
{ACAD_REACTORS
330
47
102
}
330
47
100
AcDbProxyObject
 90
      499
 91
      503
 93
      113
310
90431303A310000000000000910100
  0
ACAD_PROXY_OBJECT
  5
58
102
{ACAD_REACTORS
330
47
102
}
330
47
100
AcDbProxyObject
 90
      499
 91
      503
 93
      121
310
9053130303A310000000000001650100
  0
ACAD_PROXY_OBJECT
  5
59
102
{ACAD_REACTORS
330
47
102
}
330
47
100
AcDbProxyObject
 90
      499
 91
      503
 93
      257
310
90E312F31323822203D2031272D3022000000000000200FC000000000000284000
  0
ACAD_PROXY_OBJECT
  5
5A
102
{ACAD_REACTORS
330
47
102
}
330
47
100
AcDbProxyObject
 90
      499
 91
      503
 93
      249
310
90D312F363422203D2031272D3022000000000000240FC000000000000284000
  0
ACAD_PROXY_OBJECT
  5
5B
102
{ACAD_REACTORS
330
47
102
}
330
47
100
AcDbProxyObject
 90
      499
 91
      503
 93
      249
310
90D312F333222203D2031272D3022000000000000280FC000000000000284000
  0
ACAD_PROXY_OBJECT
  5
5C
102
{ACAD_REACTORS
330
47
102
}
330
47
100
AcDbProxyObject
 90
      499
 91
      503
 93
      249
310
90D312F313622203D2031272D30220000000000002C0FC000000000000284000
  0
ACAD_PROXY_OBJECT
  5
5D
102
{ACAD_REACTORS
330
47
102
}
330
47
100
AcDbProxyObject
 90
      499
 91
      503
 93
      249
310
90D332F333222203D2031272D30220000000000002E0FC000000000000284000
  0
ACAD_PROXY_OBJECT
  5
5E
102
{ACAD_REACTORS
330
47
102
}
330
47
100
AcDbProxyObject
 90
      499
 91
      503
 93
      241
310
90C312F3822203D2031272D3022000000000000300FC000000000000284000
  0
ACAD_PROXY_OBJECT
  5
5F
102
{ACAD_REACTORS
330
47
102
}
330
47
100
AcDbProxyObject
 90
      499
 91
      503
 93
      249
310
90D332F313622203D2031272D3022000000000000320FC000000000000284000
  0
ACAD_PROXY_OBJECT
  5
60
102
{ACAD_REACTORS
330
47
102
}
330
47
100
AcDbProxyObject
 90
      499
 91
      503
 93
      241
310
90C312F3422203D2031272D3022000000000000340FC000000000000284000
  0
ACAD_PROXY_OBJECT
  5
61
102
{ACAD_REACTORS
330
47
102
}
330
47
100
AcDbProxyObject
 90
      499
 91
      503
 93
      241
310
90C332F3822203D2031272D3022000000000000360FC000000000000284000
  0
ACAD_PROXY_OBJECT
  5
62
102
{ACAD_REACTORS
330
47
102
}
330
47
100
AcDbProxyObject
 90
      499
 91
      503
 93
      241
310
90C312F3222203D2031272D3022000000000000380FC000000000000284000
  0
ACAD_PROXY_OBJECT
  5
63
102
{ACAD_REACTORS
330
47
102
}
330
47
100
AcDbProxyObject
 90
      499
 91
      503
 93
      241
310
90C332F3422203D2031272D30220000000000003A0FC000000000000284000
  0
ACAD_PROXY_OBJECT
  5
64
102
{ACAD_REACTORS
330
47
102
}
330
47
100
AcDbProxyObject
 90
      499
 91
      503
 93
      161
310
90A3122203D2031272D30224000000000000284000
  0
ACAD_PROXY_OBJECT
  5
65
102
{ACAD_REACTORS
330
47
102
}
330
47
100
AcDbProxyObject
 90
      499
 91
      503
 93
      257
310
90E312D312F3222203D2031272D30220000000000003E0FC000000000000284000
  0
ACAD_PROXY_OBJECT
  5
66
102
{ACAD_REACTORS
330
47
102
}
330
47
100
AcDbProxyObject
 90
      499
 91
      503
 93
      225
310
90A3322203D2031272D302200000000000002100000000000000284000
  0
ACAD_PROXY_OBJECT
  5
67
102
{ACAD_REACTORS
330
47
102
}
330
47
100
AcDbProxyObject
 90
      499
 91
      503
 93
      225
310
90A3622203D2031272D302200000000000006100000000000000284000
  0
ACAD_PROXY_OBJECT
  5
68
102
{ACAD_REACTORS
330
47
102
}
330
47
100
AcDbProxyObject
 90
      499
 91
      503
 93
      249
310
90D31272D3022203D2031272D30220000000000000A100000000000000284000
  0
ACAD_PROXY_OBJECT
  5
2F
102
{ACAD_REACTORS
330
2A
102
}
330
2A
100
AcDbProxyObject
 90
      499
 91
      501
 93
      436
310
42CC9915DA5C99599C985B595049028333333333333E33F0000000000000F90107901411070040501600405405064090741402480A0340
1001
ACAD
1000
AcDbSavedByObjectVersion
1070
     0
  0
ACAD_PROXY_OBJECT
  5
32
102
{ACAD_REACTORS
330
2A
102
}
330
2A
100
AcDbProxyObject
 90
      499
 91
      501
 93
      388
310
4150985CDA58D07406404333333333333E33F0000000000000F90107A41107004050150841D405064090741402480A0350
1001
ACAD
1000
AcDbSavedByObjectVersion
1070
     0
  0
ACAD_PROXY_OBJECT
  5
36
102
{ACAD_REACTORS
330
2A
102
}
330
2A
100
AcDbProxyObject
 90
      499
 91
      501
 93
      428
310
42109C9A59DA1D195B90C409028333333333333E33F0000000000000F9010790141107004050150841D405064090741402480A029950
1001
ACAD
1000
AcDbSavedByObjectVersion
1070
     0
  0
ACAD_PROXY_OBJECT
  5
3A
102
{ACAD_REACTORS
330
2A
102
}
330
2A
100
AcDbProxyObject
 90
      499
 91
      501
 93
      452
310
42D0DBDB1BDC90DA185B99D95104090240C333333333333E33F0000000000000F90108901411070040501508421405064090741402480A0350
1001
ACAD
1000
AcDbSavedByObjectVersion
1070
     0
  0
ACAD_PROXY_OBJECT
  5
34
102
{ACAD_REACTORS
330
2A
102
}
330
2A
100
AcDbProxyObject
 90
      499
 91
      501
 93
      500
310
4290DBDB98D95C1D1D585B10940D028333333333333E33F0000000000000F90107902409070040501000000000018199010841D405064090740C02480A0340
1001
ACAD
1000
AcDbSavedByObjectVersion
1070
     0
  0
ACAD_PROXY_OBJECT
  5
35
102
{ACAD_REACTORS
330
2A
102
}
330
2A
100
AcDbProxyObject
 90
      499
 91
      501
 93
      412
310
40D11A5B50B409028333333333333E33F0000000000000F9010790141107004050150841D405064090741402480A02677FFFFFD0
1001
ACAD
1000
AcDbSavedByObjectVersion
1070
     0
  0
ACAD_PROXY_OBJECT
  5
3D
102
{ACAD_REACTORS
330
2A
102
}
330
2A
100
AcDbProxyObject
 90
      499
 91
      501
 93
      452
310
43115919D950DBDB1BDC93D999916409028333333333333E33F0000000000000F9010790141107004050150841D405064090741402480A0350
1001
ACAD
1000
AcDbSavedByObjectVersion
1070
     0
  0
ACAD_PROXY_OBJECT
  5
39
102
{ACAD_REACTORS
330
2A
102
}
330
2A
100
AcDbProxyObject
 90
      499
 91
      501
 93
      444
310
42D19858D95C185D1D195C9B90F409028333333333333E33F0000000000000F9010790141107004050150841D405064090741402480A0350
1001
ACAD
1000
AcDbSavedByObjectVersion
1070
     0
  0
ACAD_PROXY_OBJECT
  5
2B
102
{ACAD_REACTORS
330
2A
102
}
330
2A
100
AcDbProxyObject
 90
      499
 91
      501
 93
      380
310
41119B185D240901404333333333333E33F0000000000000F9010740A907004050150841D405064090741402480A1B50
1001
ACAD
1000
AcDbSavedByObjectVersion
1070
     0
  0
ACAD_PROXY_OBJECT
  5
2C
102
{ACAD_REACTORS
330
2A
102
}
330
2A
100
AcDbProxyObject
 90
      499
 91
      501
 93
      468
310
43519B185D15DA5D1A115919D95CD0140901404333333333333E33F0000000000000F90107409019070040501600405405064090741402480A1B50
1001
ACAD
1000
AcDbSavedByObjectVersion
1070
     0
  0
ACAD_PROXY_OBJECT
  5
2D
102
{ACAD_REACTORS
330
2A
102
}
330
2A
100
AcDbProxyObject
 90
      499
 91
      501
 93
      404
310
41D1DBDD5C985D5910240902404333333333333E33F0000000000000F9010740A9070040501641D405064090741402480A1B50
1001
ACAD
1000
AcDbSavedByObjectVersion
1070
     0
  0
ACAD_PROXY_OBJECT
  5
2E
102
{ACAD_REACTORS
330
2A
102
}
330
2A
100
AcDbProxyObject
 90
      499
 91
      501
 93
      492
310
4411DBDD5C985D5915DA5D1A115919D95CD0340902404333333333333E33F0000000000000F90107409019070040501600405405064090741402480A1B50
1001
ACAD
1000
AcDbSavedByObjectVersion
1070
     0
  0
ACAD_PROXY_OBJECT
  5
31
102
{ACAD_REACTORS
330
2A
102
}
330
2A
100
AcDbProxyObject
 90
      499
 91
      501
 93
      476
310
41921A5919195B90640502408333333333333E33F0000000000000F901079024090700405020000000000001110200405405064090740C02480A0340
1001
ACAD
1000
AcDbSavedByObjectVersion
1070
     0
  0
ACAD_PROXY_OBJECT
  5
3B
102
{ACAD_REACTORS
330
2A
102
}
330
2A
100
AcDbProxyObject
 90
      499
 91
      501
 93
      428
310
42529A5D1D195C93D999914409028333333333333E33F0000000000000F9010790141107004050150A41D405064090741402480A0350
1001
ACAD
1000
AcDbSavedByObjectVersion
1070
     0
  0
ACAD_PROXY_OBJECT
  5
38
102
{ACAD_REACTORS
330
2A
102
}
330
2A
100
AcDbProxyObject
 90
      499
 91
      501
 93
      444
310
42D31A5B995C185D1D195C9B90E409028333333333333E33F0000000000000F9010790141107004050750841D405064090741402483A0350
1001
ACAD
1000
AcDbSavedByObjectVersion
1070
     0
  0
ACAD_PROXY_OBJECT
  5
3C
102
{ACAD_REACTORS
330
2A
102
}
330
2A
100
AcDbProxyObject
 90
      499
 91
      501
 93
      444
310
42D3DD995C9A185B99D3D999915409028333333333333E33F0000000000000F9010790141107004050150941D405064090741402480A0350
1001
ACAD
1000
AcDbSavedByObjectVersion
1070
     0
  0
ACAD_PROXY_OBJECT
  5
33
102
{ACAD_REACTORS
330
2A
102
}
330
2A
100
AcDbProxyObject
 90
      499
 91
      501
 93
      428
310
425499585B1A5CDD1A58D08409038333333333333E33F0000000000000F9010740A907004050150800405405064090740C02480A1B40
1001
ACAD
1000
AcDbSavedByObjectVersion
1070
     0
  0
ACAD_PROXY_OBJECT
  5
42
102
{ACAD_REACTORS
330
2A
102
}
330
2A
100
AcDbProxyObject
 90
      499
 91
      501
 93
      420
310
4194DA1859195911B40902404333333333333E33F0000000000000F9010740A41107004050150800405405064090840C02480A0B40
1001
ACAD
1000
AcDbSavedByObjectVersion
1070
     0
  0
ACAD_PROXY_OBJECT
  5
41
102
{ACAD_REACTORS
330
2A
102
}
330
2A
100
AcDbProxyObject
 90
      499
 91
      501
 93
      516
310
4454DA18591959081DDA5D1A08195919D95CD1A40902404333333333333E33F0000000000000F901074090142907004050250800405405064090740C02480A0B40
1001
ACAD
1000
AcDbSavedByObjectVersion
1070
     0
  0
ACAD_PROXY_OBJECT
  5
3E
102
{ACAD_REACTORS
330
2A
102
}
330
2A
100
AcDbProxyObject
 90
      499
 91
      501
 93
      532
310
4394DA1859195CC81BD98811DC985E5174090240C333333333333E33F0000000000000F901079024090741D01000000000000111010841D405064090740C02480A0340
1001
ACAD
1000
AcDbSavedByObjectVersion
1070
     0
  0
ACAD_PROXY_OBJECT
  5
3F
102
{ACAD_REACTORS
330
2A
102
}
330
2A
100
AcDbProxyObject
 90
      499
 91
      501
 93
      476
310
41D4DAD95D18DA1E51840502408333333333333E33F0000000000000F901079024090741D01000000000000111010B41D405064090741802480A0340
1001
ACAD
1000
AcDbSavedByObjectVersion
1070
     0
  0
ACAD_PROXY_OBJECT
  5
37
102
{ACAD_REACTORS
330
2A
102
}
330
2A
100
AcDbProxyObject
 90
      499
 91
      501
 93
      412
310
41D51A1A58DAD95B90D409028333333333333E33F0000000000000F9010790141107004050150C41D405064090741402480A0350
1001
ACAD
1000
AcDbSavedByObjectVersion
1070
     0
  0
ACAD_PROXY_OBJECT
  5
30
102
{ACAD_REACTORS
330
2A
102
}
330
2A
100
AcDbProxyObject
 90
      499
 91
      501
 93
      420
310
4255DA5C99599C985B595059028333333333333E33F0000000000000F90107901411070040501600405405064090740C02480A0340
1001
ACAD
1000
AcDbSavedByObjectVersion
1070
     0
  0
ACAD_PROXY_OBJECT
  5
40
102
{ACAD_REACTORS
330
2A
102
}
330
2A
100
AcDbProxyObject
 90
      499
 91
      501
 93
      404
310
41560B54985E51940902404000000000000E03F0000000000000F9010740501907004050150841D405064090740C02480A1B40
1001
ACAD
1000
AcDbSavedByObjectVersion
1070
     0
  0
XRECORD
  5
669
102
{ACAD_REACTORS
330
65F
102
}
330
65F
100
AcDbXrecord
340
0
  0
XRECORD
  5
668
102
{ACAD_REACTORS
330
65F
102
}
330
65F
100
AcDbXrecord
 90
        0
  0
XRECORD
  5
67F
102
{ACAD_REACTORS
330
65F
102
}
330
65F
100
AcDbXrecord
1000
DSTYLE
1002
{
1070
   340
340
11
1002
}
  0
XRECORD
  5
66A
102
{ACAD_REACTORS
330
65F
102
}
330
65F
100
AcDbXrecord
  1
{3ba2d2a0-8822-4b4a-bc50-74ab32923c09}
  0
XRECORD
  5
662
102
{ACAD_REACTORS
330
65F
102
}
330
65F
100
AcDbXrecord
  1

  0
XRECORD
  5
667
102
{ACAD_REACTORS
330
65F
102
}
330
65F
100
AcDbXrecord
 90
        4
  0
XRECORD
  5
664
102
{ACAD_REACTORS
330
65F
102
}
330
65F
100
AcDbXrecord
340
1A
  0
XRECORD
  5
666
102
{ACAD_REACTORS
330
65F
102
}
330
65F
100
AcDbXrecord
 90
    10781
  0
XRECORD
  5
665
102
{ACAD_REACTORS
330
65F
102
}
330
65F
100
AcDbXrecord
340
19
  0
XRECORD
  5
66C
102
{ACAD_REACTORS
330
65F
102
}
330
65F
100
AcDbXrecord
 40
0.0
  0
XRECORD
  5
66F
102
{ACAD_REACTORS
330
65F
102
}
330
65F
100
AcDbXrecord
340
0
  0
XRECORD
  5
675
102
{ACAD_REACTORS
330
65F
102
}
330
65F
100
AcDbXrecord
 10
0.0
 20
0.0
 30
0.0
  0
XRECORD
  5
671
102
{ACAD_REACTORS
330
65F
102
}
330
65F
100
AcDbXrecord
 10
0.0
 20
0.0
 30
0.0
  0
XRECORD
  5
674
102
{ACAD_REACTORS
330
65F
102
}
330
65F
100
AcDbXrecord
 10
0.0
 20
0.0
 30
0.0
  0
XRECORD
  5
672
102
{ACAD_REACTORS
330
65F
102
}
330
65F
100
AcDbXrecord
 10
0.0
 20
0.0
 30
0.0
  0
XRECORD
  5
673
102
{ACAD_REACTORS
330
65F
102
}
330
65F
100
AcDbXrecord
 10
0.0
 20
0.0
 30
0.0
  0
XRECORD
  5
670
102
{ACAD_REACTORS
330
65F
102
}
330
65F
100
AcDbXrecord
 10
0.0
 20
0.0
 30
0.0
  0
XRECORD
  5
66D
102
{ACAD_REACTORS
330
65F
102
}
330
65F
100
AcDbXrecord
340
0
  0
XRECORD
  5
66E
102
{ACAD_REACTORS
330
65F
102
}
330
65F
100
AcDbXrecord
 70
     0
  0
XRECORD
  5
663
102
{ACAD_REACTORS
330
65F
102
}
330
65F
100
AcDbXrecord
  1

  0
XRECORD
  5
660
102
{ACAD_REACTORS
330
65F
102
}
330
65F
100
AcDbXrecord
 90
        1
  0
XRECORD
  5
661
102
{ACAD_REACTORS
330
65F
102
}
330
65F
100
AcDbXrecord
 90
       70
  0
XRECORD
  5
678
102
{ACAD_REACTORS
330
65F
102
}
330
65F
100
AcDbXrecord
340
0
  0
XRECORD
  5
67E
102
{ACAD_REACTORS
330
65F
102
}
330
65F
100
AcDbXrecord
 10
0.0
 20
0.0
 30
0.0
  0
XRECORD
  5
67A
102
{ACAD_REACTORS
330
65F
102
}
330
65F
100
AcDbXrecord
 10
0.0
 20
0.0
 30
0.0
  0
XRECORD
  5
67D
102
{ACAD_REACTORS
330
65F
102
}
330
65F
100
AcDbXrecord
 10
0.0
 20
0.0
 30
0.0
  0
XRECORD
  5
67B
102
{ACAD_REACTORS
330
65F
102
}
330
65F
100
AcDbXrecord
 10
0.0
 20
0.0
 30
0.0
  0
XRECORD
  5
67C
102
{ACAD_REACTORS
330
65F
102
}
330
65F
100
AcDbXrecord
 10
0.0
 20
0.0
 30
0.0
  0
XRECORD
  5
679
102
{ACAD_REACTORS
330
65F
102
}
330
65F
100
AcDbXrecord
 10
0.0
 20
0.0
 30
0.0
  0
XRECORD
  5
676
102
{ACAD_REACTORS
330
65F
102
}
330
65F
100
AcDbXrecord
340
0
  0
XRECORD
  5
677
102
{ACAD_REACTORS
330
65F
102
}
330
65F
100
AcDbXrecord
 70
     0
  0
XRECORD
  5
66B
102
{ACAD_REACTORS
330
65F
102
}
330
65F
100
AcDbXrecord
  1
{FAEB1C32-E019-11D5-929B-00C0DF256EC4}
  0
DICTIONARYVAR
  5
68D
102
{ACAD_REACTORS
330
680
102
}
330
680
100
DictionaryVariables
280
     0
  1
1:1
  0
DICTIONARYVAR
  5
687
102
{ACAD_REACTORS
330
680
102
}
330
680
100
DictionaryVariables
280
     0
  1
3.500000
  0
DICTIONARYVAR
  5
688
102
{ACAD_REACTORS
330
680
102
}
330
680
100
DictionaryVariables
280
     0
  1
acadiso.lin
  0
DICTIONARYVAR
  5
682
102
{ACAD_REACTORS
330
680
102
}
330
680
100
DictionaryVariables
280
     0
  1
Standard
  0
DICTIONARYVAR
  5
681
102
{ACAD_REACTORS
330
680
102
}
330
680
100
DictionaryVariables
280
     0
  1
Standard
  0
DICTIONARYVAR
  5
689
102
{ACAD_REACTORS
330
680
102
}
330
680
100
DictionaryVariables
280
     0
  1
2
  0
DICTIONARYVAR
  5
68A
102
{ACAD_REACTORS
330
680
102
}
330
680
100
DictionaryVariables
280
     0
  1
1
  0
DICTIONARYVAR
  5
68E
102
{ACAD_REACTORS
330
680
102
}
330
680
100
DictionaryVariables
280
     0
  1
1
  0
DICTIONARYVAR
  5
684
102
{ACAD_REACTORS
330
680
102
}
330
680
100
DictionaryVariables
280
     0
  1
80.000000
  0
DICTIONARYVAR
  5
683
102
{ACAD_REACTORS
330
680
102
}
330
680
100
DictionaryVariables
280
     0
  1
5.000000
  0
DICTIONARY
  5
691
330
45
100
AcDbDictionary
280
     1
  3
ACAD_XREC_ROUNDTRIP
360
692
  0
DICTIONARY
  5
68F
330
44
100
AcDbDictionary
280
     1
  3
ACAD_XREC_ROUNDTRIP
360
690
  0
DICTIONARY
  5
693
330
46
100
AcDbDictionary
280
     1
  3
ACAD_XREC_ROUNDTRIP
360
694
  0
XRECORD
  5
692
102
{ACAD_REACTORS
330
691
102
}
330
691
100
AcDbXrecord
102
MATERIAL
148
0.0
149
0.0
149
0.0
 93
        0
 94
      127
282
     0
 72
     1
 77
     1
171
     1
175
     1
179
     1
273
     0
  0
XRECORD
  5
690
102
{ACAD_REACTORS
330
68F
102
}
330
68F
100
AcDbXrecord
102
MATERIAL
148
0.0
149
0.0
149
0.0
 93
        0
 94
      127
282
     0
 72
     1
 77
     1
171
     1
175
     1
179
     1
273
     0
  0
XRECORD
  5
694
102
{ACAD_REACTORS
330
693
102
}
330
693
100
AcDbXrecord
102
MATERIAL
148
0.0
149
0.0
149
0.0
 93
        0
 94
      127
282
     0
 72
     1
 77
     1
171
     1
175
     1
179
     1
273
     0
  0
ENDSEC
  0
EOF
