  0
SECTION
  2
HEADER
  9
$ACADVER
  1
AC1014
  9
$ACADMAINTVER
 70
     9
  9
$DWGCODEPAGE
  3
ANSI_932
  9
$INSBASE
 10
0.0
 20
0.0
 30
0.0
  9
$EXTMIN
 10
50.0
 20
100.0
 30
0.0
  9
$EXTMAX
 10
3850.0
 20
2800.0
 30
0.0
  9
$LIMMIN
 10
0.0
 20
0.0
  9
$LIMMAX
 10
420.0
 20
297.0
  9
$ORTHOMODE
 70
     0
  9
$REGENMODE
 70
     1
  9
$FILLMODE
 70
     1
  9
$QTEXTMODE
 70
     0
  9
$MIRRTEXT
 70
     1
  9
$DRAGMODE
 70
     2
  9
$LTSCALE
 40
0.2
  9
$OSMODE
 70
    37
  9
$ATTMODE
 70
     1
  9
$TEXTSIZE
 40
2.5
  9
$TRACEWID
 40
1.0
  9
$TEXTSTYLE
  7
STANDARD
  9
$CLAYER
  8
LAY-10
  9
$CELTYPE
  6
BYLAYER
  9
$CECOLOR
 62
   256
  9
$CELTSCALE
 40
1.0
  9
$DELOBJ
 70
     1
  9
$DISPSILH
 70
     0
  9
$DIMSCALE
 40
1.0
  9
$DIMASZ
 40
2.5
  9
$DIMEXO
 40
0.625
  9
$DIMDLI
 40
3.75
  9
$DIMRND
 40
0.0
  9
$DIMDLE
 40
0.0
  9
$DIMEXE
 40
1.25
  9
$DIMTP
 40
0.0
  9
$DIMTM
 40
0.0
  9
$DIMTXT
 40
2.5
  9
$DIMCEN
 40
2.5
  9
$DIMTSZ
 40
0.0
  9
$DIMTOL
 70
     0
  9
$DIMLIM
 70
     0
  9
$DIMTIH
 70
     0
  9
$DIMTOH
 70
     0
  9
$DIMSE1
 70
     0
  9
$DIMSE2
 70
     0
  9
$DIMTAD
 70
     1
  9
$DIMZIN
 70
     8
  9
$DIMBLK
  1

  9
$DIMASO
 70
     1
  9
$DIMSHO
 70
     1
  9
$DIMPOST
  1

  9
$DIMAPOST
  1

  9
$DIMALT
 70
     0
  9
$DIMALTD
 70
     3
  9
$DIMALTF
 40
0.03937007874016
  9
$DIMLFAC
 40
1.0
  9
$DIMTOFL
 70
     1
  9
$DIMTVP
 40
0.0
  9
$DIMTIX
 70
     0
  9
$DIMSOXD
 70
     0
  9
$DIMSAH
 70
     0
  9
$DIMBLK1
  1

  9
$DIMBLK2
  1

  9
$DIMSTYLE
  2
ISO-25
  9
$DIMCLRD
 70
     0
  9
$DIMCLRE
 70
     0
  9
$DIMCLRT
 70
     0
  9
$DIMTFAC
 40
1.0
  9
$DIMGAP
 40
0.625
  9
$DIMJUST
 70
     0
  9
$DIMSD1
 70
     0
  9
$DIMSD2
 70
     0
  9
$DIMTOLJ
 70
     0
  9
$DIMTZIN
 70
     8
  9
$DIMALTZ
 70
     0
  9
$DIMALTTZ
 70
     0
  9
$DIMFIT
 70
     3
  9
$DIMUPT
 70
     0
  9
$DIMUNIT
 70
     2
  9
$DIMDEC
 70
     2
  9
$DIMTDEC
 70
     2
  9
$DIMALTU
 70
     2
  9
$DIMALTTD
 70
     3
  9
$DIMTXSTY
  7
STANDARD
  9
$DIMAUNIT
 70
     0
  9
$LUNITS
 70
     2
  9
$LUPREC
 70
     4
  9
$SKETCHINC
 40
1.0
  9
$FILLETRAD
 40
10.0
  9
$AUNITS
 70
     0
  9
$AUPREC
 70
     0
  9
$MENU
  1
.
  9
$ELEVATION
 40
0.0
  9
$PELEVATION
 40
0.0
  9
$THICKNESS
 40
0.0
  9
$LIMCHECK
 70
     0
  9
$CHAMFERA
 40
0.0
  9
$CHAMFERB
 40
0.0
  9
$CHAMFERC
 40
0.0
  9
$CHAMFERD
 40
0.0
  9
$SKPOLY
 70
     0
  9
$TDCREATE
 40
2459229.33312728
  9
$TDUPDATE
 40
2459229.33312816
  9
$TDINDWG
 40
0.0000000116
  9
$TDUSRTIMER
 40
0.0000000116
  9
$USRTIMER
 70
     1
  9
$ANGBASE
 50
0.0
  9
$ANGDIR
 70
     0
  9
$PDMODE
 70
     0
  9
$PDSIZE
 40
0.0
  9
$PLINEWID
 40
0.0
  9
$COORDS
 70
     1
  9
$SPLFRAME
 70
     0
  9
$SPLINETYPE
 70
     6
  9
$SPLINESEGS
 70
     8
  9
$ATTDIA
 70
     0
  9
$ATTREQ
 70
     1
  9
$HANDLING
 70
     1
  9
$HANDSEED
  5
5B8
  9
$SURFTAB1
 70
     6
  9
$SURFTAB2
 70
     6
  9
$SURFTYPE
 70
     6
  9
$SURFU
 70
     6
  9
$SURFV
 70
     6
  9
$UCSNAME
  2

  9
$UCSORG
 10
0.0
 20
0.0
 30
0.0
  9
$UCSXDIR
 10
1.0
 20
0.0
 30
0.0
  9
$UCSYDIR
 10
0.0
 20
1.0
 30
0.0
  9
$PUCSNAME
  2

  9
$PUCSORG
 10
0.0
 20
0.0
 30
0.0
  9
$PUCSXDIR
 10
1.0
 20
0.0
 30
0.0
  9
$PUCSYDIR
 10
0.0
 20
1.0
 30
0.0
  9
$USERI1
 70
     0
  9
$USERI2
 70
     0
  9
$USERI3
 70
     0
  9
$USERI4
 70
     0
  9
$USERI5
 70
     0
  9
$USERR1
 40
0.0
  9
$USERR2
 40
0.0
  9
$USERR3
 40
0.0
  9
$USERR4
 40
0.0
  9
$USERR5
 40
0.0
  9
$WORLDVIEW
 70
     1
  9
$SHADEDGE
 70
     3
  9
$SHADEDIF
 70
    70
  9
$TILEMODE
 70
     1
  9
$MAXACTVP
 70
    64
  9
$PINSBASE
 10
0.0
 20
0.0
 30
0.0
  9
$PLIMCHECK
 70
     0
  9
$PEXTMIN
 10
1.000000000000000E+20
 20
1.000000000000000E+20
 30
1.000000000000000E+20
  9
$PEXTMAX
 10
-1.000000000000000E+20
 20
-1.000000000000000E+20
 30
-1.000000000000000E+20
  9
$PLIMMIN
 10
0.0
 20
0.0
  9
$PLIMMAX
 10
420.0
 20
297.0
  9
$UNITMODE
 70
     0
  9
$VISRETAIN
 70
     1
  9
$PLINEGEN
 70
     0
  9
$PSLTSCALE
 70
     1
  9
$TREEDEPTH
 70
  3020
  9
$PICKSTYLE
 70
     1
  9
$CMLSTYLE
  2
STANDARD
  9
$CMLJUST
 70
     0
  9
$CMLSCALE
 40
20.0
  9
$PROXYGRAPHICS
 70
     1
  9
$MEASUREMENT
 70
     1
  0
ENDSEC
  0
SECTION
  2
CLASSES
  0
CLASS
  1
ACDBDICTIONARYWDFLT
  2
AcDbDictionaryWithDefault
  3
ObjectDBX Classes
 90
        0
280
     0
281
     0
  0
CLASS
  1
VISUALSTYLE
  2
AcDbVisualStyle
  3
ObjectDBX Classes
 90
     4095
280
     0
281
     0
  0
CLASS
  1
MATERIAL
  2
AcDbMaterial
  3
ObjectDBX Classes
 90
     1153
280
     0
281
     0
  0
CLASS
  1
SCALE
  2
AcDbScale
  3
ObjectDBX Classes
 90
     1153
280
     0
281
     0
  0
CLASS
  1
TABLESTYLE
  2
AcDbTableStyle
  3
ObjectDBX Classes
 90
     4095
280
     0
281
     0
  0
CLASS
  1
MLEADERSTYLE
  2
AcDbMLeaderStyle
  3
ACDB_MLEADERSTYLE_CLASS
 90
     4095
280
     0
281
     0
  0
CLASS
  1
SUN
  2
AcDbSun
  3
SCENEOE
 90
     1153
280
     0
281
     0
  0
CLASS
  1
DICTIONARYVAR
  2
AcDbDictionaryVar
  3
ObjectDBX Classes
 90
        0
280
     0
281
     0
  0
CLASS
  1
XRECORD
  2
AcDbXrecord
  3
ObjectDBX Classes
 90
        0
280
     0
281
     0
  0
CLASS
  1
LWPOLYLINE
  2
AcDbPolyline
  3
ObjectDBX Classes
 90
        0
280
     0
281
     1
  0
CLASS
  1
HATCH
  2
AcDbHatch
  3
ObjectDBX Classes
 90
        0
280
     0
281
     1
  0
CLASS
  1
ACDBPLACEHOLDER
  2
AcDbPlaceHolder
  3
ObjectDBX Classes
 90
        0
280
     0
281
     0
  0
CLASS
  1
LAYOUT
  2
AcDbLayout
  3
ObjectDBX Classes
 90
        0
280
     0
281
     0
  0
ENDSEC
  0
SECTION
  2
TABLES
  0
TABLE
  2
VPORT
  5
8
102
{ACAD_XDICTIONARY
360
5AD
102
}
330
0
100
AcDbSymbolTable
 70
     1
  0
VPORT
  5
29
330
8
100
AcDbSymbolTableRecord
100
AcDbViewportTableRecord
  2
*ACTIVE
 70
     0
 10
0.0
 20
0.0
 11
1.0
 21
1.0
 12
1950.0
 22
1450.0
 13
0.0
 23
0.0
 14
10.0
 24
10.0
 15
10.0
 25
10.0
 16
0.0
 26
0.0
 36
1.0
 17
0.0
 27
0.0
 37
0.0
 40
2700.0
 41
1.407407407407408
 42
50.0
 43
0.0
 44
0.0
 50
0.0
 51
0.0
 71
     0
 72
  1000
 73
     1
 74
     3
 75
     0
 76
     0
 77
     0
 78
     0
  0
ENDTAB
  0
TABLE
  2
LTYPE
  5
5
330
0
100
AcDbSymbolTable
 70
     6
  0
LTYPE
  5
14
330
5
100
AcDbSymbolTableRecord
100
AcDbLinetypeTableRecord
  2
BYBLOCK
 70
     0
  3

 72
    65
 73
     0
 40
0.0
  0
LTYPE
  5
15
330
5
100
AcDbSymbolTableRecord
100
AcDbLinetypeTableRecord
  2
BYLAYER
 70
     0
  3

 72
    65
 73
     0
 40
0.0
  0
LTYPE
  5
16
330
5
100
AcDbSymbolTableRecord
100
AcDbLinetypeTableRecord
  2
CONTINUOUS
 70
     0
  3
Solid line
 72
    65
 73
     0
 40
0.0
  0
LTYPE
  5
6E
330
5
100
AcDbSymbolTableRecord
100
AcDbLinetypeTableRecord
  2
HIDDEN
 70
     0
  3
Hidden __ __ __ __ __ __ __ __ __ __ __ __ __ __
 72
    65
 73
     2
 40
9.524999999999999
 49
6.35
 74
     0
 49
-3.175
 74
     0
  0
LTYPE
  5
6F
330
5
100
AcDbSymbolTableRecord
100
AcDbLinetypeTableRecord
  2
CENTER
 70
     0
  3
Center ____ _ ____ _ ____ _ ____ _ ____ _ ____
 72
    65
 73
     4
 40
50.8
 49
31.75
 74
     0
 49
-6.35
 74
     0
 49
6.35
 74
     0
 49
-6.35
 74
     0
  0
LTYPE
  5
70
330
5
100
AcDbSymbolTableRecord
100
AcDbLinetypeTableRecord
  2
PHANTOM
 70
     0
  3
Phantom ______  __  __  ______  __  __  ______ 
 72
    65
 73
     6
 40
63.50000000000001
 49
31.75
 74
     0
 49
-6.35
 74
     0
 49
6.35
 74
     0
 49
-6.35
 74
     0
 49
6.35
 74
     0
 49
-6.35
 74
     0
  0
LTYPE
  5
71
330
5
100
AcDbSymbolTableRecord
100
AcDbLinetypeTableRecord
  2
ACAD_ISO06W100
 70
     0
  3
ISO long-dash triple-dot ____ ... ____ ... ____
 72
    65
 73
     8
 40
36.0
 49
24.0
 74
     0
 49
-3.0
 74
     0
 49
0.0
 74
     0
 49
-3.0
 74
     0
 49
0.0
 74
     0
 49
-3.0
 74
     0
 49
0.0
 74
     0
 49
-3.0
 74
     0
  0
LTYPE
  5
72
330
5
100
AcDbSymbolTableRecord
100
AcDbLinetypeTableRecord
  2
ACAD_ISO15W100
 70
     0
  3
ISO double-dash triple-dot __ __ . . . __ __ . .
 72
    65
 73
    10
 40
39.0
 49
12.0
 74
     0
 49
-3.0
 74
     0
 49
12.0
 74
     0
 49
-3.0
 74
     0
 49
0.0
 74
     0
 49
-3.0
 74
     0
 49
0.0
 74
     0
 49
-3.0
 74
     0
 49
0.0
 74
     0
 49
-3.0
 74
     0
  0
ENDTAB
  0
TABLE
  2
LAYER
  5
2
330
0
100
AcDbSymbolTable
 70
     6
  0
LAYER
  5
10
330
2
100
AcDbSymbolTableRecord
100
AcDbLayerTableRecord
  2
0
 70
     0
 62
     7
  6
CONTINUOUS
  0
LAYER
  5
75
330
2
100
AcDbSymbolTableRecord
100
AcDbLayerTableRecord
  2
LAY-10
 70
     0
 62
     7
  6
CONTINUOUS
  0
LAYER
  5
76
330
2
100
AcDbSymbolTableRecord
100
AcDbLayerTableRecord
  2
LAY-11
 70
     0
 62
     7
  6
CONTINUOUS
  0
LAYER
  5
77
330
2
100
AcDbSymbolTableRecord
100
AcDbLayerTableRecord
  2
LAY-20
 70
     0
 62
     7
  6
CONTINUOUS
  0
LAYER
  5
78
330
2
100
AcDbSymbolTableRecord
100
AcDbLayerTableRecord
  2
LAY-255
 70
     0
 62
     7
  6
CONTINUOUS
  0
LAYER
  5
406
330
2
100
AcDbSymbolTableRecord
100
AcDbLayerTableRecord
  2
DEFPOINTS
 70
     0
 62
     7
  6
CONTINUOUS
  0
ENDTAB
  0
TABLE
  2
STYLE
  5
3
330
0
100
AcDbSymbolTable
 70
     4
  0
STYLE
  5
11
330
3
100
AcDbSymbolTableRecord
100
AcDbTextStyleTableRecord
  2
STANDARD
 70
     0
 40
0.0
 41
1.0
 50
0.0
 71
     0
 42
2.5
  3
simplex
  4
bigfont
  0
STYLE
  5
73
330
3
100
AcDbSymbolTableRecord
100
AcDbTextStyleTableRecord
  2
EXCADSTD
 70
     0
 40
0.0
 41
1.0
 50
0.0
 71
     0
 42
2.5
  3
simplex
  4
bigfont
  0
STYLE
  5
74
330
3
100
AcDbSymbolTableRecord
100
AcDbTextStyleTableRecord
  2
EXCADVERT
 70
     4
 40
0.0
 41
1.0
 50
0.0
 71
     0
 42
2.5
  3
simplex
  4
bigfont
  0
STYLE
  5
404
330
3
100
AcDbSymbolTableRecord
100
AcDbTextStyleTableRecord
  2
EXCADDIM1
 70
     0
 40
0.0
 41
0.84
 50
0.0
 71
     0
 42
2.5
  3
simplex
  4
bigfont
  0
ENDTAB
  0
TABLE
  2
VIEW
  5
6
330
0
100
AcDbSymbolTable
 70
     0
  0
ENDTAB
  0
TABLE
  2
UCS
  5
7
330
0
100
AcDbSymbolTable
 70
     0
  0
ENDTAB
  0
TABLE
  2
APPID
  5
9
330
0
100
AcDbSymbolTable
 70
     2
  0
APPID
  5
12
330
9
100
AcDbSymbolTableRecord
100
AcDbRegAppTableRecord
  2
ACAD
 70
     0
  0
APPID
  5
5B7
330
9
100
AcDbSymbolTableRecord
100
AcDbRegAppTableRecord
  2
ACAD_MLEADERVER
 70
     0
  0
ENDTAB
  0
TABLE
  2
DIMSTYLE
  5
A
330
0
100
AcDbSymbolTable
 70
     1
  0
DIMSTYLE
105
27
102
{ACAD_REACTORS
330
405
330
413
330
420
330
42D
330
43A
330
447
330
454
330
461
330
46E
330
47C
102
}
330
A
100
AcDbSymbolTableRecord
100
AcDbDimStyleTableRecord
  2
ISO-25
 70
     0
  3

  4

  5

  6

  7

 40
1.0
 41
2.5
 42
0.625
 43
3.75
 44
1.25
 45
0.0
 46
0.0
 47
0.0
 48
0.0
140
2.5
141
2.5
142
0.0
143
0.03937007874016
144
1.0
145
0.0
146
1.0
147
0.625
 71
     0
 72
     0
 73
     0
 74
     0
 75
     0
 76
     0
 77
     1
 78
     8
170
     0
171
     3
172
     1
173
     0
174
     0
175
     0
176
     0
177
     0
178
     0
270
     2
271
     2
272
     2
273
     2
274
     3
340
11
275
     0
280
     0
281
     0
282
     0
283
     0
284
     8
285
     0
286
     0
287
     5
288
     0
  0
ENDTAB
  0
TABLE
  2
BLOCK_RECORD
  5
1
330
0
100
AcDbSymbolTable
 70
    40
  0
BLOCK_RECORD
  5
1F
330
1
100
AcDbSymbolTableRecord
100
AcDbBlockTableRecord
  2
*MODEL_SPACE
  0
BLOCK_RECORD
  5
1B
330
1
100
AcDbSymbolTableRecord
100
AcDbBlockTableRecord
  2
*PAPER_SPACE
  0
BLOCK_RECORD
  5
79
330
1
100
AcDbSymbolTableRecord
100
AcDbBlockTableRecord
  2
EX_NORM
  0
BLOCK_RECORD
  5
7C
330
1
100
AcDbSymbolTableRecord
100
AcDbBlockTableRecord
  2
EX_BNORM
  0
BLOCK_RECORD
  5
7F
330
1
100
AcDbSymbolTableRecord
100
AcDbBlockTableRecord
  2
EX_BCIR
  0
BLOCK_RECORD
  5
82
330
1
100
AcDbSymbolTableRecord
100
AcDbBlockTableRecord
  2
EX_RCIVIL
  0
BLOCK_RECORD
  5
85
330
1
100
AcDbSymbolTableRecord
100
AcDbBlockTableRecord
  2
EX_SLANT
  0
BLOCK_RECORD
  5
88
330
1
100
AcDbSymbolTableRecord
100
AcDbBlockTableRecord
  2
EX_NONE
  0
BLOCK_RECORD
  5
8B
330
1
100
AcDbSymbolTableRecord
100
AcDbBlockTableRecord
  2
EX_CIVIL
  0
BLOCK_RECORD
  5
8E
330
1
100
AcDbSymbolTableRecord
100
AcDbBlockTableRecord
  2
EX_WCIR
  0
BLOCK_RECORD
  5
91
330
1
100
AcDbSymbolTableRecord
100
AcDbBlockTableRecord
  2
EX_WCIR2
  0
BLOCK_RECORD
  5
94
330
1
100
AcDbSymbolTableRecord
100
AcDbBlockTableRecord
  2
EX_WNORM
  0
BLOCK_RECORD
  5
97
330
1
100
AcDbSymbolTableRecord
100
AcDbBlockTableRecord
  2
EX_NNORM
  0
BLOCK_RECORD
  5
9A
330
1
100
AcDbSymbolTableRecord
100
AcDbBlockTableRecord
  2
EX_BBOX
  0
BLOCK_RECORD
  5
9D
330
1
100
AcDbSymbolTableRecord
100
AcDbBlockTableRecord
  2
EX_WBOX
  0
BLOCK_RECORD
  5
A0
330
1
100
AcDbSymbolTableRecord
100
AcDbBlockTableRecord
  2
EX_INTEGRAL
  0
BLOCK_RECORD
  5
A3
330
1
100
AcDbSymbolTableRecord
100
AcDbBlockTableRecord
  2
SYM-1
  0
BLOCK_RECORD
  5
A6
330
1
100
AcDbSymbolTableRecord
100
AcDbBlockTableRecord
  2
SYM-2
  0
BLOCK_RECORD
  5
A9
330
1
100
AcDbSymbolTableRecord
100
AcDbBlockTableRecord
  2
SYM-3
  0
BLOCK_RECORD
  5
AC
330
1
100
AcDbSymbolTableRecord
100
AcDbBlockTableRecord
  2
SYM-4
  0
BLOCK_RECORD
  5
AF
330
1
100
AcDbSymbolTableRecord
100
AcDbBlockTableRecord
  2
SYM-5
  0
BLOCK_RECORD
  5
B2
330
1
100
AcDbSymbolTableRecord
100
AcDbBlockTableRecord
  2
SYM-6
  0
BLOCK_RECORD
  5
B5
330
1
100
AcDbSymbolTableRecord
100
AcDbBlockTableRecord
  2
SYM-7
  0
BLOCK_RECORD
  5
B8
330
1
100
AcDbSymbolTableRecord
100
AcDbBlockTableRecord
  2
SYM-8
  0
BLOCK_RECORD
  5
BB
330
1
100
AcDbSymbolTableRecord
100
AcDbBlockTableRecord
  2
SYM-9
  0
BLOCK_RECORD
  5
BE
330
1
100
AcDbSymbolTableRecord
100
AcDbBlockTableRecord
  2
SYM-10
  0
BLOCK_RECORD
  5
C1
330
1
100
AcDbSymbolTableRecord
100
AcDbBlockTableRecord
  2
SYM-11
  0
BLOCK_RECORD
  5
C4
330
1
100
AcDbSymbolTableRecord
100
AcDbBlockTableRecord
  2
SYM-12
  0
BLOCK_RECORD
  5
C7
330
1
100
AcDbSymbolTableRecord
100
AcDbBlockTableRecord
  2
SYM-13
  0
BLOCK_RECORD
  5
CA
330
1
100
AcDbSymbolTableRecord
100
AcDbBlockTableRecord
  2
SYM-14
  0
BLOCK_RECORD
  5
CD
330
1
100
AcDbSymbolTableRecord
100
AcDbBlockTableRecord
  2
SYM-15
  0
BLOCK_RECORD
  5
D0
330
1
100
AcDbSymbolTableRecord
100
AcDbBlockTableRecord
  2
SYM-16
  0
BLOCK_RECORD
  5
407
330
1
100
AcDbSymbolTableRecord
100
AcDbBlockTableRecord
  2
*D31
  0
BLOCK_RECORD
  5
414
330
1
100
AcDbSymbolTableRecord
100
AcDbBlockTableRecord
  2
*D32
  0
BLOCK_RECORD
  5
421
330
1
100
AcDbSymbolTableRecord
100
AcDbBlockTableRecord
  2
*D33
  0
BLOCK_RECORD
  5
42E
330
1
100
AcDbSymbolTableRecord
100
AcDbBlockTableRecord
  2
*D34
  0
BLOCK_RECORD
  5
43B
330
1
100
AcDbSymbolTableRecord
100
AcDbBlockTableRecord
  2
*D35
  0
BLOCK_RECORD
  5
448
330
1
100
AcDbSymbolTableRecord
100
AcDbBlockTableRecord
  2
*D36
  0
BLOCK_RECORD
  5
455
330
1
100
AcDbSymbolTableRecord
100
AcDbBlockTableRecord
  2
*D37
  0
BLOCK_RECORD
  5
462
330
1
100
AcDbSymbolTableRecord
100
AcDbBlockTableRecord
  2
*D38
  0
BLOCK_RECORD
  5
46F
330
1
100
AcDbSymbolTableRecord
100
AcDbBlockTableRecord
  2
*D39
  0
BLOCK_RECORD
  5
47D
330
1
100
AcDbSymbolTableRecord
100
AcDbBlockTableRecord
  2
*D40
  0
ENDTAB
  0
ENDSEC
  0
SECTION
  2
BLOCKS
  0
BLOCK
  5
20
330
1F
100
AcDbEntity
  8
0
100
AcDbBlockBegin
  2
*MODEL_SPACE
 70
     0
 10
0.0
 20
0.0
 30
0.0
  3
*MODEL_SPACE
  1

  0
ENDBLK
  5
21
330
1F
100
AcDbEntity
  8
0
100
AcDbBlockEnd
  0
BLOCK
  5
1C
330
1B
100
AcDbEntity
 67
     1
  8
0
100
AcDbBlockBegin
  2
*PAPER_SPACE
 70
     0
 10
0.0
 20
0.0
 30
0.0
  3
*PAPER_SPACE
  1

  0
ENDBLK
  5
1D
330
1B
100
AcDbEntity
 67
     1
  8
0
100
AcDbBlockEnd
  0
BLOCK
  5
7A
330
79
100
AcDbEntity
  8
0
100
AcDbBlockBegin
  2
EX_NORM
 70
     0
 10
0.0
 20
0.0
 30
0.0
  3
EX_NORM
  1

  0
LINE
  5
D3
330
79
100
AcDbEntity
  8
0
  6
CONTINUOUS
 62
     0
100
AcDbLine
 10
0.0
 20
0.0
 30
0.0
 11
-1.0
 21
0.0
 31
0.0
  0
LINE
  5
D4
330
79
100
AcDbEntity
  8
0
  6
CONTINUOUS
 62
     0
100
AcDbLine
 10
0.0
 20
0.0
 30
0.0
 11
-1.0
 21
0.166666667
 31
0.0
  0
LINE
  5
D5
330
79
100
AcDbEntity
  8
0
  6
CONTINUOUS
 62
     0
100
AcDbLine
 10
0.0
 20
0.0
 30
0.0
 11
-1.0
 21
-0.166666667
 31
0.0
  0
ENDBLK
  5
7B
330
79
100
AcDbEntity
  8
0
100
AcDbBlockEnd
  0
BLOCK
  5
7D
330
7C
100
AcDbEntity
  8
0
100
AcDbBlockBegin
  2
EX_BNORM
 70
     0
 10
0.0
 20
0.0
 30
0.0
  3
EX_BNORM
  1

  0
LINE
  5
D6
330
7C
100
AcDbEntity
  8
0
  6
CONTINUOUS
 62
     0
100
AcDbLine
 10
0.0
 20
0.0
 30
0.0
 11
-1.0
 21
0.0
 31
0.0
  0
LINE
  5
D7
330
7C
100
AcDbEntity
  8
0
  6
CONTINUOUS
 62
     0
100
AcDbLine
 10
0.0
 20
0.0
 30
0.0
 11
-1.0
 21
0.166666667
 31
0.0
  0
LINE
  5
D8
330
7C
100
AcDbEntity
  8
0
  6
CONTINUOUS
 62
     0
100
AcDbLine
 10
0.0
 20
0.0
 30
0.0
 11
-1.0
 21
-0.166666667
 31
0.0
  0
LINE
  5
D9
330
7C
100
AcDbEntity
  8
0
  6
CONTINUOUS
 62
     0
100
AcDbLine
 10
0.0
 20
0.0
 30
0.0
 11
-1.0
 21
0.083333333
 31
0.0
  0
LINE
  5
DA
330
7C
100
AcDbEntity
  8
0
  6
CONTINUOUS
 62
     0
100
AcDbLine
 10
0.0
 20
0.0
 30
0.0
 11
-1.0
 21
-0.083333333
 31
0.0
  0
LINE
  5
DB
330
7C
100
AcDbEntity
  8
0
  6
CONTINUOUS
 62
     0
100
AcDbLine
 10
-1.0
 20
0.166666667
 30
0.0
 11
-1.0
 21
-0.166666667
 31
0.0
  0
ENDBLK
  5
7E
330
7C
100
AcDbEntity
  8
0
100
AcDbBlockEnd
  0
BLOCK
  5
80
330
7F
100
AcDbEntity
  8
0
100
AcDbBlockBegin
  2
EX_BCIR
 70
     0
 10
0.0
 20
0.0
 30
0.0
  3
EX_BCIR
  1

  0
LINE
  5
DC
330
7F
100
AcDbEntity
  8
0
  6
CONTINUOUS
 62
     0
100
AcDbLine
 10
0.0
 20
0.0
 30
0.0
 11
-1.0
 21
0.0
 31
0.0
  0
CIRCLE
  5
DD
330
7F
100
AcDbEntity
  8
0
  6
CONTINUOUS
 62
     0
100
AcDbCircle
 10
0.0
 20
0.0
 30
0.0
 40
0.5
  0
CIRCLE
  5
DE
330
7F
100
AcDbEntity
  8
0
  6
CONTINUOUS
 62
     0
100
AcDbCircle
 10
0.0
 20
0.0
 30
0.0
 40
0.25
  0
ENDBLK
  5
81
330
7F
100
AcDbEntity
  8
0
100
AcDbBlockEnd
  0
BLOCK
  5
83
330
82
100
AcDbEntity
  8
0
100
AcDbBlockBegin
  2
EX_RCIVIL
 70
     0
 10
0.0
 20
0.0
 30
0.0
  3
EX_RCIVIL
  1

  0
LINE
  5
DF
330
82
100
AcDbEntity
  8
0
  6
CONTINUOUS
 62
     0
100
AcDbLine
 10
0.0
 20
0.0
 30
0.0
 11
-1.0
 21
0.0
 31
0.0
  0
LINE
  5
E0
330
82
100
AcDbEntity
  8
0
  6
CONTINUOUS
 62
     0
100
AcDbLine
 10
-1.0
 20
-0.25
 30
0.0
 11
0.0
 21
-0.25
 31
0.0
  0
LINE
  5
E1
330
82
100
AcDbEntity
  8
0
  6
CONTINUOUS
 62
     0
100
AcDbLine
 10
-1.0
 20
-0.125
 30
0.0
 11
0.0
 21
-0.125
 31
0.0
  0
ENDBLK
  5
84
330
82
100
AcDbEntity
  8
0
100
AcDbBlockEnd
  0
BLOCK
  5
86
330
85
100
AcDbEntity
  8
0
100
AcDbBlockBegin
  2
EX_SLANT
 70
     0
 10
0.0
 20
0.0
 30
0.0
  3
EX_SLANT
  1

  0
LINE
  5
E2
330
85
100
AcDbEntity
  8
0
  6
CONTINUOUS
 62
     0
100
AcDbLine
 10
0.0
 20
0.0
 30
0.0
 11
-1.0
 21
0.0
 31
0.0
  0
LINE
  5
E3
330
85
100
AcDbEntity
  8
0
  6
CONTINUOUS
 62
     0
100
AcDbLine
 10
0.707106781
 20
0.707106781
 30
0.0
 11
-0.707106781
 21
-0.707106781
 31
0.0
  0
ENDBLK
  5
87
330
85
100
AcDbEntity
  8
0
100
AcDbBlockEnd
  0
BLOCK
  5
89
330
88
100
AcDbEntity
  8
0
100
AcDbBlockBegin
  2
EX_NONE
 70
     0
 10
0.0
 20
0.0
 30
0.0
  3
EX_NONE
  1

  0
LINE
  5
E4
330
88
100
AcDbEntity
  8
0
  6
CONTINUOUS
 62
     0
100
AcDbLine
 10
0.0
 20
0.0
 30
0.0
 11
-1.0
 21
0.0
 31
0.0
  0
ENDBLK
  5
8A
330
88
100
AcDbEntity
  8
0
100
AcDbBlockEnd
  0
BLOCK
  5
8C
330
8B
100
AcDbEntity
  8
0
100
AcDbBlockBegin
  2
EX_CIVIL
 70
     0
 10
0.0
 20
0.0
 30
0.0
  3
EX_CIVIL
  1

  0
LINE
  5
E5
330
8B
100
AcDbEntity
  8
0
  6
CONTINUOUS
 62
     0
100
AcDbLine
 10
0.0
 20
0.0
 30
0.0
 11
-1.0
 21
0.0
 31
0.0
  0
LINE
  5
E6
330
8B
100
AcDbEntity
  8
0
  6
CONTINUOUS
 62
     0
100
AcDbLine
 10
-1.0
 20
0.25
 30
0.0
 11
0.0
 21
0.25
 31
0.0
  0
LINE
  5
E7
330
8B
100
AcDbEntity
  8
0
  6
CONTINUOUS
 62
     0
100
AcDbLine
 10
-1.0
 20
0.125
 30
0.0
 11
0.0
 21
0.125
 31
0.0
  0
ENDBLK
  5
8D
330
8B
100
AcDbEntity
  8
0
100
AcDbBlockEnd
  0
BLOCK
  5
8F
330
8E
100
AcDbEntity
  8
0
100
AcDbBlockBegin
  2
EX_WCIR
 70
     0
 10
0.0
 20
0.0
 30
0.0
  3
EX_WCIR
  1

  0
LINE
  5
E8
330
8E
100
AcDbEntity
  8
0
  6
CONTINUOUS
 62
     0
100
AcDbLine
 10
0.0
 20
0.0
 30
0.0
 11
-1.0
 21
0.0
 31
0.0
  0
CIRCLE
  5
E9
330
8E
100
AcDbEntity
  8
0
  6
CONTINUOUS
 62
     0
100
AcDbCircle
 10
0.0
 20
0.0
 30
0.0
 40
0.5
  0
ENDBLK
  5
90
330
8E
100
AcDbEntity
  8
0
100
AcDbBlockEnd
  0
BLOCK
  5
92
330
91
100
AcDbEntity
  8
0
100
AcDbBlockBegin
  2
EX_WCIR2
 70
     0
 10
0.0
 20
0.0
 30
0.0
  3
EX_WCIR2
  1

  0
LINE
  5
EA
330
91
100
AcDbEntity
  8
0
  6
CONTINUOUS
 62
     0
100
AcDbLine
 10
-0.5
 20
0.0
 30
0.0
 11
-1.0
 21
0.0
 31
0.0
  0
CIRCLE
  5
EB
330
91
100
AcDbEntity
  8
0
  6
CONTINUOUS
 62
     0
100
AcDbCircle
 10
0.0
 20
0.0
 30
0.0
 40
0.5
  0
ENDBLK
  5
93
330
91
100
AcDbEntity
  8
0
100
AcDbBlockEnd
  0
BLOCK
  5
95
330
94
100
AcDbEntity
  8
0
100
AcDbBlockBegin
  2
EX_WNORM
 70
     0
 10
0.0
 20
0.0
 30
0.0
  3
EX_WNORM
  1

  0
LINE
  5
EC
330
94
100
AcDbEntity
  8
0
  6
CONTINUOUS
 62
     0
100
AcDbLine
 10
-1.0
 20
0.0
 30
0.0
 11
-1.0
 21
0.0
 31
0.0
  0
LINE
  5
ED
330
94
100
AcDbEntity
  8
0
  6
CONTINUOUS
 62
     0
100
AcDbLine
 10
0.0
 20
0.0
 30
0.0
 11
-1.0
 21
0.166666667
 31
0.0
  0
LINE
  5
EE
330
94
100
AcDbEntity
  8
0
  6
CONTINUOUS
 62
     0
100
AcDbLine
 10
0.0
 20
0.0
 30
0.0
 11
-1.0
 21
-0.166666667
 31
0.0
  0
LINE
  5
EF
330
94
100
AcDbEntity
  8
0
  6
CONTINUOUS
 62
     0
100
AcDbLine
 10
-1.0
 20
0.166666667
 30
0.0
 11
-1.0
 21
-0.166666667
 31
0.0
  0
ENDBLK
  5
96
330
94
100
AcDbEntity
  8
0
100
AcDbBlockEnd
  0
BLOCK
  5
98
330
97
100
AcDbEntity
  8
0
100
AcDbBlockBegin
  2
EX_NNORM
 70
     0
 10
0.0
 20
0.0
 30
0.0
  3
EX_NNORM
  1

  0
LINE
  5
F0
330
97
100
AcDbEntity
  8
0
  6
CONTINUOUS
 62
     0
100
AcDbLine
 10
0.0
 20
0.0
 30
0.0
 11
-1.0
 21
0.0
 31
0.0
  0
LINE
  5
F1
330
97
100
AcDbEntity
  8
0
  6
CONTINUOUS
 62
     0
100
AcDbLine
 10
0.0
 20
0.0
 30
0.0
 11
-1.0
 21
0.166666667
 31
0.0
  0
LINE
  5
F2
330
97
100
AcDbEntity
  8
0
  6
CONTINUOUS
 62
     0
100
AcDbLine
 10
0.0
 20
0.0
 30
0.0
 11
-1.0
 21
-0.166666667
 31
0.0
  0
LINE
  5
F3
330
97
100
AcDbEntity
  8
0
  6
CONTINUOUS
 62
     0
100
AcDbLine
 10
-1.0
 20
0.166666667
 30
0.0
 11
-1.0
 21
-0.166666667
 31
0.0
  0
ENDBLK
  5
99
330
97
100
AcDbEntity
  8
0
100
AcDbBlockEnd
  0
BLOCK
  5
9B
330
9A
100
AcDbEntity
  8
0
100
AcDbBlockBegin
  2
EX_BBOX
 70
     0
 10
0.0
 20
0.0
 30
0.0
  3
EX_BBOX
  1

  0
LINE
  5
F4
330
9A
100
AcDbEntity
  8
0
  6
CONTINUOUS
 62
     0
100
AcDbLine
 10
0.0
 20
0.0
 30
0.0
 11
-1.0
 21
0.0
 31
0.0
  0
LINE
  5
F5
330
9A
100
AcDbEntity
  8
0
  6
CONTINUOUS
 62
     0
100
AcDbLine
 10
-0.5
 20
0.5
 30
0.0
 11
0.5
 21
0.5
 31
0.0
  0
LINE
  5
F6
330
9A
100
AcDbEntity
  8
0
  6
CONTINUOUS
 62
     0
100
AcDbLine
 10
0.5
 20
0.5
 30
0.0
 11
0.5
 21
-0.5
 31
0.0
  0
LINE
  5
F7
330
9A
100
AcDbEntity
  8
0
  6
CONTINUOUS
 62
     0
100
AcDbLine
 10
0.5
 20
-0.5
 30
0.0
 11
-0.5
 21
-0.5
 31
0.0
  0
LINE
  5
F8
330
9A
100
AcDbEntity
  8
0
  6
CONTINUOUS
 62
     0
100
AcDbLine
 10
-0.5
 20
-0.5
 30
0.0
 11
-0.5
 21
0.5
 31
0.0
  0
LINE
  5
F9
330
9A
100
AcDbEntity
  8
0
  6
CONTINUOUS
 62
     0
100
AcDbLine
 10
-0.25
 20
0.25
 30
0.0
 11
0.25
 21
0.25
 31
0.0
  0
LINE
  5
FA
330
9A
100
AcDbEntity
  8
0
  6
CONTINUOUS
 62
     0
100
AcDbLine
 10
0.25
 20
0.25
 30
0.0
 11
0.25
 21
-0.25
 31
0.0
  0
LINE
  5
FB
330
9A
100
AcDbEntity
  8
0
  6
CONTINUOUS
 62
     0
100
AcDbLine
 10
0.25
 20
-0.25
 30
0.0
 11
-0.25
 21
-0.25
 31
0.0
  0
LINE
  5
FC
330
9A
100
AcDbEntity
  8
0
  6
CONTINUOUS
 62
     0
100
AcDbLine
 10
-0.25
 20
-0.25
 30
0.0
 11
-0.25
 21
0.25
 31
0.0
  0
ENDBLK
  5
9C
330
9A
100
AcDbEntity
  8
0
100
AcDbBlockEnd
  0
BLOCK
  5
9E
330
9D
100
AcDbEntity
  8
0
100
AcDbBlockBegin
  2
EX_WBOX
 70
     0
 10
0.0
 20
0.0
 30
0.0
  3
EX_WBOX
  1

  0
LINE
  5
FD
330
9D
100
AcDbEntity
  8
0
  6
CONTINUOUS
 62
     0
100
AcDbLine
 10
-0.5
 20
0.0
 30
0.0
 11
-1.0
 21
0.0
 31
0.0
  0
LINE
  5
FE
330
9D
100
AcDbEntity
  8
0
  6
CONTINUOUS
 62
     0
100
AcDbLine
 10
-0.5
 20
0.5
 30
0.0
 11
0.5
 21
0.5
 31
0.0
  0
LINE
  5
FF
330
9D
100
AcDbEntity
  8
0
  6
CONTINUOUS
 62
     0
100
AcDbLine
 10
0.5
 20
0.5
 30
0.0
 11
0.5
 21
-0.5
 31
0.0
  0
LINE
  5
100
330
9D
100
AcDbEntity
  8
0
  6
CONTINUOUS
 62
     0
100
AcDbLine
 10
0.5
 20
-0.5
 30
0.0
 11
-0.5
 21
-0.5
 31
0.0
  0
LINE
  5
101
330
9D
100
AcDbEntity
  8
0
  6
CONTINUOUS
 62
     0
100
AcDbLine
 10
-0.5
 20
-0.5
 30
0.0
 11
-0.5
 21
0.5
 31
0.0
  0
ENDBLK
  5
9F
330
9D
100
AcDbEntity
  8
0
100
AcDbBlockEnd
  0
BLOCK
  5
A1
330
A0
100
AcDbEntity
  8
0
100
AcDbBlockBegin
  2
EX_INTEGRAL
 70
     0
 10
0.0
 20
0.0
 30
0.0
  3
EX_INTEGRAL
  1

  0
LINE
  5
102
330
A0
100
AcDbEntity
  8
0
  6
CONTINUOUS
 62
     0
100
AcDbLine
 10
0.0
 20
0.0
 30
0.0
 11
-1.0
 21
0.0
 31
0.0
  0
ARC
  5
103
330
A0
100
AcDbEntity
  8
0
  6
CONTINUOUS
 62
     0
100
AcDbCircle
 10
0.542115
 20
0.164992
 30
0.0
 40
0.56667
100
AcDbArc
 50
73.07249033629006
 51
196.9275130221199
  0
ARC
  5
104
330
A0
100
AcDbEntity
  8
0
  6
CONTINUOUS
 62
     0
100
AcDbCircle
 10
-0.542115
 20
-0.164992
 30
0.0
 40
0.56667
100
AcDbArc
 50
253.0724869220464
 51
16.9275130559125
  0
ENDBLK
  5
A2
330
A0
100
AcDbEntity
  8
0
100
AcDbBlockEnd
  0
BLOCK
  5
A4
330
A3
100
AcDbEntity
  8
0
100
AcDbBlockBegin
  2
SYM-1
 70
     0
 10
0.0
 20
0.0
 30
0.0
  3
SYM-1
  1

  0
ELLIPSE
  5
105
330
A3
100
AcDbEntity
  8
0
  6
CONTINUOUS
 62
     7
100
AcDbEllipse
 10
647.5800000000863
 20
818.6151514764562
 30
0.0
 11
-5.809475019310011
 21
7.114554987124514E-16
 31
0.0
210
0.0
220
0.0
230
1.0
 40
0.774596669241632
 41
0.0
 42
6.283185307179586
  0
LINE
  5
106
330
A3
100
AcDbEntity
  8
0
  6
CONTINUOUS
 62
     7
100
AcDbLine
 10
653.1836381353859
 20
819.8023935701568
 30
0.0
 11
650.4649621510862
 21
822.5210695544566
 31
0.0
  0
LINE
  5
107
330
A3
100
AcDbEntity
  8
0
  6
CONTINUOUS
 62
     7
100
AcDbLine
 10
653.3654547892866
 20
818.2063633538565
 30
0.0
 11
648.5153785441862
 21
823.056439599056
 31
0.0
  0
LINE
  5
108
330
A3
100
AcDbEntity
  8
0
  6
CONTINUOUS
 62
     7
100
AcDbLine
 10
653.0525839265865
 20
817.1050206542562
 30
0.0
 11
647.0604824538868
 21
823.0971221269567
 31
0.0
  0
LINE
  5
109
330
A3
100
AcDbEntity
  8
0
  6
CONTINUOUS
 62
     7
100
AcDbLine
 10
648.8606806992866
 20
814.2258560696565
 30
0.0
 11
642.4135509163862
 21
820.672985852556
 31
0.0
  0
LINE
  5
10A
330
A3
100
AcDbEntity
  8
0
  6
CONTINUOUS
 62
     7
100
AcDbLine
 10
647.5571368818864
 20
814.1151863247561
 30
0.0
 11
641.949327780886
 21
819.7229954257565
 31
0.0
  0
LINE
  5
10B
330
A3
100
AcDbEntity
  8
0
  6
CONTINUOUS
 62
     7
100
AcDbLine
 10
645.9657483509864
 20
814.2923612932567
 30
0.0
 11
641.7729493587857
 21
818.485160285457
 31
0.0
  0
LINE
  5
10C
330
A3
100
AcDbEntity
  8
0
  6
CONTINUOUS
 62
     7
100
AcDbLine
 10
652.5094640828866
 20
816.2339269355564
 30
0.0
 11
645.8358353446946
 21
822.9075556737481
 31
0.0
  0
LINE
  5
10D
330
A3
100
AcDbEntity
  8
0
  6
CONTINUOUS
 62
     7
100
AcDbLine
 10
651.8037115074867
 20
815.5254659485566
 30
0.0
 11
644.7738209672852
 21
822.5553564890819
 31
0.0
  0
LINE
  5
10E
330
A3
100
AcDbEntity
  8
0
  6
CONTINUOUS
 62
     7
100
AcDbLine
 10
650.9598581997861
 20
814.9551056939564
 30
0.0
 11
643.8499073217044
 21
822.0650565717315
 31
0.0
  0
LINE
  5
10F
330
A3
100
AcDbEntity
  8
0
  6
CONTINUOUS
 62
     7
100
AcDbLine
 10
649.9826983599869
 20
814.5180519713571
 30
0.0
 11
643.0593002086753
 21
821.4414501226642
 31
0.0
  0
ENDBLK
  5
A5
330
A3
100
AcDbEntity
  8
0
100
AcDbBlockEnd
  0
BLOCK
  5
A7
330
A6
100
AcDbEntity
  8
0
100
AcDbBlockBegin
  2
SYM-2
 70
     0
 10
0.0
 20
0.0
 30
0.0
  3
SYM-2
  1

  0
LINE
  5
110
330
A6
100
AcDbEntity
  8
0
  6
CONTINUOUS
 62
     7
100
AcDbLine
 10
627.5000000000855
 20
840.8984848097563
 30
0.0
 11
627.5000000000855
 21
836.6984848097567
 31
0.0
  0
LINE
  5
111
330
A6
100
AcDbEntity
  8
0
  6
CONTINUOUS
 62
     7
100
AcDbLine
 10
635.5000000000855
 20
840.8984848097563
 30
0.0
 11
635.5000000000855
 21
836.6984848097567
 31
0.0
  0
LINE
  5
112
330
A6
100
AcDbEntity
  8
0
  6
CONTINUOUS
 62
     7
100
AcDbLine
 10
636.5000000000855
 20
836.6984848097567
 30
0.0
 11
636.5000000000855
 21
839.8984848097565
 31
0.0
  0
LINE
  5
113
330
A6
100
AcDbEntity
  8
0
  6
CONTINUOUS
 62
     7
100
AcDbLine
 10
626.5000000000855
 20
836.6984848097567
 30
0.0
 11
626.5000000000855
 21
839.8984848097565
 31
0.0
  0
LINE
  5
114
330
A6
100
AcDbEntity
  8
0
  6
CONTINUOUS
 62
     7
100
AcDbLine
 10
636.5000000000855
 20
828.2984848097568
 30
0.0
 11
636.5000000000855
 21
835.7744848097567
 31
0.0
  0
LINE
  5
115
330
A6
100
AcDbEntity
  8
0
  6
CONTINUOUS
 62
     7
100
AcDbLine
 10
626.5000000000855
 20
828.2984848097568
 30
0.0
 11
626.5000000000855
 21
835.7744848097567
 31
0.0
  0
LINE
  5
116
330
A6
100
AcDbEntity
  8
0
  6
CONTINUOUS
 62
     7
100
AcDbLine
 10
635.50000000009
 20
840.8984848097563
 30
0.0
 11
627.500000000091
 21
840.8984848097563
 31
0.0
  0
LINE
  5
117
330
A6
100
AcDbEntity
  8
0
  6
CONTINUOUS
 62
     7
100
AcDbLine
 10
636.500000000091
 20
839.8984848097565
 30
0.0
 11
626.50000000009
 21
839.8984848097565
 31
0.0
  0
LINE
  5
118
330
A6
100
AcDbEntity
  8
0
  6
CONTINUOUS
 62
     7
100
AcDbLine
 10
626.50000000009
 20
839.8984848097565
 30
0.0
 11
627.500000000091
 21
840.8984848097563
 31
0.0
  0
LINE
  5
119
330
A6
100
AcDbEntity
  8
0
  6
CONTINUOUS
 62
     7
100
AcDbLine
 10
636.500000000091
 20
839.8984848097565
 30
0.0
 11
635.50000000009
 21
840.8984848097563
 31
0.0
  0
LINE
  5
11A
330
A6
100
AcDbEntity
  8
0
  6
CONTINUOUS
 62
     7
100
AcDbLine
 10
641.5000000000854
 20
828.2984848097568
 30
0.0
 11
641.5000000000854
 21
835.7744848097567
 31
0.0
  0
LINE
  5
11B
330
A6
100
AcDbEntity
  8
0
  6
CONTINUOUS
 62
     7
100
AcDbLine
 10
621.5000000000864
 20
828.2984848097568
 30
0.0
 11
621.5000000000864
 21
835.7744848097567
 31
0.0
  0
ARC
  5
11C
330
A6
100
AcDbEntity
  8
0
  6
CONTINUOUS
 62
     7
100
AcDbCircle
 10
639.0000000000855
 20
832.8544501777219
 30
0.0
 40
3.844034632034633
100
AcDbArc
 50
49.43137502657837
 51
130.5686249733964
  0
ARC
  5
11D
330
A6
100
AcDbEntity
  8
0
  6
CONTINUOUS
 62
     7
100
AcDbCircle
 10
631.5000000000855
 20
822.7083462816184
 30
0.0
 40
13.99013852813853
100
AcDbArc
 50
69.0597243938585
 51
110.9402756061383
  0
ARC
  5
11E
330
A6
100
AcDbEntity
  8
0
  6
CONTINUOUS
 62
     7
100
AcDbCircle
 10
624.0000000000855
 20
832.8544501777219
 30
0.0
 40
3.844034632034633
100
AcDbArc
 50
49.43137502657837
 51
130.5686249733964
  0
LINE
  5
11F
330
A6
100
AcDbEntity
  8
0
  6
CONTINUOUS
 62
     7
100
AcDbLine
 10
639.0000000000855
 20
836.6984848097567
 30
0.0
 11
624.0000000000855
 21
836.6984848097567
 31
0.0
  0
LINE
  5
120
330
A6
100
AcDbEntity
  8
0
  6
CONTINUOUS
 62
     7
100
AcDbLine
 10
642.0000000000855
 20
828.2984848097568
 30
0.0
 11
642.0000000000855
 21
826.2984848097559
 31
0.0
  0
LINE
  5
121
330
A6
100
AcDbEntity
  8
0
  6
CONTINUOUS
 62
     7
100
AcDbLine
 10
621.0000000000855
 20
828.2984848097568
 30
0.0
 11
642.0000000000855
 21
828.2984848097568
 31
0.0
  0
LINE
  5
122
330
A6
100
AcDbEntity
  8
0
  6
CONTINUOUS
 62
     7
100
AcDbLine
 10
621.0000000000855
 20
828.2984848097568
 30
0.0
 11
621.0000000000855
 21
826.2984848097559
 31
0.0
  0
LINE
  5
123
330
A6
100
AcDbEntity
  8
0
  6
CONTINUOUS
 62
     7
100
AcDbLine
 10
626.5000000000855
 20
805.2024848097564
 30
0.0
 11
626.5000000000855
 21
826.2984848097559
 31
0.0
  0
LINE
  5
124
330
A6
100
AcDbEntity
  8
0
  6
CONTINUOUS
 62
     7
100
AcDbLine
 10
627.5000000000855
 20
826.2984848097568
 30
0.0
 11
627.5000000000855
 21
815.8984848097566
 31
0.0
  0
LINE
  5
125
330
A6
100
AcDbEntity
  8
0
  6
CONTINUOUS
 62
     7
100
AcDbLine
 10
635.5000000000855
 20
826.2984848097568
 30
0.0
 11
635.5000000000855
 21
815.8984848097566
 31
0.0
  0
LINE
  5
126
330
A6
100
AcDbEntity
  8
0
  6
CONTINUOUS
 62
     7
100
AcDbLine
 10
636.5000000000855
 20
805.2024848097564
 30
0.0
 11
636.5000000000855
 21
826.2984848097559
 31
0.0
  0
LINE
  5
127
330
A6
100
AcDbEntity
  8
0
  6
CONTINUOUS
 62
     7
100
AcDbLine
 10
636.5000000000855
 20
815.8984848097566
 30
0.0
 11
626.5000000000855
 21
815.8984848097566
 31
0.0
  0
LINE
  5
128
330
A6
100
AcDbEntity
  8
0
  6
CONTINUOUS
 62
     7
100
AcDbLine
 10
635.5000000000855
 20
815.8984848097566
 30
0.0
 11
636.5000000000855
 21
814.8984848097564
 31
0.0
  0
LINE
  5
129
330
A6
100
AcDbEntity
  8
0
  6
CONTINUOUS
 62
     7
100
AcDbLine
 10
627.5000000000855
 20
815.8984848097566
 30
0.0
 11
626.5000000000855
 21
814.8984848097564
 31
0.0
  0
ARC
  5
12A
330
A6
100
AcDbEntity
  8
0
  6
CONTINUOUS
 62
     7
100
AcDbCircle
 10
639.0000000000855
 20
809.2894052643018
 30
0.0
 40
4.790920454545454
100
AcDbArc
 50
238.5455606612269
 51
301.4544393387824
  0
ARC
  5
12B
330
A6
100
AcDbEntity
  8
0
  6
CONTINUOUS
 62
     7
100
AcDbCircle
 10
631.5000000000855
 20
822.6061666279385
 30
0.0
 40
18.10768181818181
100
AcDbArc
 50
253.9708781133897
 51
286.0291218866135
  0
ARC
  5
12C
330
A6
100
AcDbEntity
  8
0
  6
CONTINUOUS
 62
     7
100
AcDbCircle
 10
624.0000000000855
 20
809.2894052643018
 30
0.0
 40
4.790920454545454
100
AcDbArc
 50
238.5455606612384
 51
301.4544393387824
  0
LINE
  5
12D
330
A6
100
AcDbEntity
  8
0
  6
CONTINUOUS
 62
     7
100
AcDbLine
 10
621.5000000000864
 20
810.8984848097563
 30
0.0
 11
621.5000000000864
 21
805.2024848097564
 31
0.0
  0
LINE
  5
12E
330
A6
100
AcDbEntity
  8
0
  6
CONTINUOUS
 62
     7
100
AcDbLine
 10
641.5000000000854
 20
810.8984848097563
 30
0.0
 11
641.5000000000854
 21
805.2024848097564
 31
0.0
  0
LINE
  5
12F
330
A6
100
AcDbEntity
  8
0
  6
CONTINUOUS
 62
     7
100
AcDbLine
 10
624.0000000000855
 20
804.4984848097567
 30
0.0
 11
639.0000000000855
 21
804.4984848097567
 31
0.0
  0
LINE
  5
130
330
A6
100
AcDbEntity
  8
0
  6
CONTINUOUS
 62
     7
100
AcDbLine
 10
641.5000000000882
 20
808.5584848097564
 30
0.0
 11
643.780000000086
 21
810.8984848097563
 31
0.0
  0
LINE
  5
131
330
A6
100
AcDbEntity
  8
0
  6
CONTINUOUS
 62
     7
100
AcDbLine
 10
643.6213203436364
 20
810.8984848097654
 30
0.0
 11
643.70169055925
 21
810.8181145941518
 31
0.0
  0
LINE
  5
132
330
A6
100
AcDbEntity
  8
0
  6
CONTINUOUS
 62
     7
100
AcDbLine
 10
642.9142135624434
 20
810.8984848097726
 30
0.0
 11
643.3527287711286
 21
810.4599696010865
 31
0.0
  0
LINE
  5
133
330
A6
100
AcDbEntity
  8
0
  6
CONTINUOUS
 62
     7
100
AcDbLine
 10
642.2071067812622
 20
810.8984848097672
 30
0.0
 11
643.0037669830062
 21
810.1018246080231
 31
0.0
  0
LINE
  5
134
330
A6
100
AcDbEntity
  8
0
  6
CONTINUOUS
 62
     7
100
AcDbLine
 10
641.5000000000919
 20
810.8984848097501
 30
0.0
 11
642.6548051948956
 21
809.743679614946
 31
0.0
  0
LINE
  5
135
330
A6
100
AcDbEntity
  8
0
  6
CONTINUOUS
 62
     7
100
AcDbLine
 10
641.5000000000973
 20
810.1913780285569
 30
0.0
 11
642.3058434067716
 21
809.3855346218826
 31
0.0
  0
LINE
  5
136
330
A6
100
AcDbEntity
  8
0
  6
CONTINUOUS
 62
     7
100
AcDbLine
 10
641.5000000000937
 20
809.4842712473758
 30
0.0
 11
641.956881618662
 21
809.0273896288068
 31
0.0
  0
LINE
  5
137
330
A6
100
AcDbEntity
  8
0
  6
CONTINUOUS
 62
     7
100
AcDbLine
 10
641.5000000000882
 20
808.7771644661944
 30
0.0
 11
641.6079198305397
 21
808.6692446357421
 31
0.0
  0
LINE
  5
138
330
A6
100
AcDbEntity
  8
0
  6
CONTINUOUS
 62
     7
100
AcDbLine
 10
619.1600000000863
 20
810.8984848097544
 30
0.0
 11
621.5000000000864
 21
808.6184848097556
 31
0.0
  0
LINE
  5
139
330
A6
100
AcDbEntity
  8
0
  6
CONTINUOUS
 62
     7
100
AcDbLine
 10
619.2707598260886
 20
810.7905649793196
 30
0.0
 11
619.3786796565182
 21
810.8984848097481
 31
0.0
  0
LINE
  5
13A
330
A6
100
AcDbEntity
  8
0
  6
CONTINUOUS
 62
     7
100
AcDbLine
 10
619.6289048191538
 20
810.441603191197
 30
0.0
 11
620.0857864377103
 21
810.8984848097544
 31
0.0
  0
LINE
  5
13B
330
A6
100
AcDbEntity
  8
0
  6
CONTINUOUS
 62
     7
100
AcDbLine
 10
619.9870498122182
 20
810.0926414030747
 30
0.0
 11
620.7928932189152
 21
810.8984848097726
 31
0.0
  0
LINE
  5
13C
330
A6
100
AcDbEntity
  8
0
  6
CONTINUOUS
 62
     7
100
AcDbLine
 10
620.3451948052934
 20
809.7436796149642
 30
0.0
 11
621.5000000000855
 21
810.8984848097556
 31
0.0
  0
LINE
  5
13D
330
A6
100
AcDbEntity
  8
0
  6
CONTINUOUS
 62
     7
100
AcDbLine
 10
620.7033397983569
 20
809.3947178268419
 30
0.0
 11
621.5000000000782
 21
810.1913780285623
 31
0.0
  0
LINE
  5
13E
330
A6
100
AcDbEntity
  8
0
  6
CONTINUOUS
 62
     7
100
AcDbLine
 10
621.0614847914221
 20
809.0457560387199
 30
0.0
 11
621.5000000000837
 21
809.4842712473811
 31
0.0
  0
LINE
  5
13F
330
A6
100
AcDbEntity
  8
0
  6
CONTINUOUS
 62
     7
100
AcDbLine
 10
621.4196297844865
 20
808.6967942505972
 30
0.0
 11
621.5000000000773
 21
808.7771644661882
 31
0.0
  0
ENDBLK
  5
A8
330
A6
100
AcDbEntity
  8
0
100
AcDbBlockEnd
  0
BLOCK
  5
AA
330
A9
100
AcDbEntity
  8
0
100
AcDbBlockBegin
  2
SYM-3
 70
     0
 10
0.0
 20
0.0
 30
0.0
  3
SYM-3
  1

  0
ELLIPSE
  5
140
330
A9
100
AcDbEntity
  8
0
  6
CONTINUOUS
 62
     7
100
AcDbEllipse
 10
1565.420000000072
 20
818.6151514764562
 30
0.0
 11
-5.809475019310011
 21
7.114554987124514E-16
 31
0.0
210
0.0
220
0.0
230
1.0
 40
0.774596669241632
 41
0.0
 42
6.283185307179586
  0
LINE
  5
141
330
A9
100
AcDbEntity
  8
0
  6
CONTINUOUS
 62
     7
100
AcDbLine
 10
1559.816361864771
 20
819.8023935701568
 30
0.0
 11
1562.535037849072
 21
822.5210695544566
 31
0.0
  0
LINE
  5
142
330
A9
100
AcDbEntity
  8
0
  6
CONTINUOUS
 62
     7
100
AcDbLine
 10
1559.634545210871
 20
818.2063633538565
 30
0.0
 11
1564.48462145597
 21
823.056439599056
 31
0.0
  0
LINE
  5
143
330
A9
100
AcDbEntity
  8
0
  6
CONTINUOUS
 62
     7
100
AcDbLine
 10
1559.947416073571
 20
817.1050206542562
 30
0.0
 11
1565.939517546271
 21
823.0971221269567
 31
0.0
  0
LINE
  5
144
330
A9
100
AcDbEntity
  8
0
  6
CONTINUOUS
 62
     7
100
AcDbLine
 10
1564.139319300871
 20
814.2258560696565
 30
0.0
 11
1570.586449083772
 21
820.672985852556
 31
0.0
  0
LINE
  5
145
330
A9
100
AcDbEntity
  8
0
  6
CONTINUOUS
 62
     7
100
AcDbLine
 10
1565.442863118271
 20
814.1151863247561
 30
0.0
 11
1571.050672219272
 21
819.7229954257565
 31
0.0
  0
LINE
  5
146
330
A9
100
AcDbEntity
  8
0
  6
CONTINUOUS
 62
     7
100
AcDbLine
 10
1567.034251649171
 20
814.2923612932567
 30
0.0
 11
1571.227050641371
 21
818.485160285457
 31
0.0
  0
LINE
  5
147
330
A9
100
AcDbEntity
  8
0
  6
CONTINUOUS
 62
     7
100
AcDbLine
 10
1560.490535917271
 20
816.2339269355564
 30
0.0
 11
1567.164164655465
 21
822.9075556737479
 31
0.0
  0
LINE
  5
148
330
A9
100
AcDbEntity
  8
0
  6
CONTINUOUS
 62
     7
100
AcDbLine
 10
1561.196288492671
 20
815.5254659485566
 30
0.0
 11
1568.226179032874
 21
822.5553564890811
 31
0.0
  0
LINE
  5
149
330
A9
100
AcDbEntity
  8
0
  6
CONTINUOUS
 62
     7
100
AcDbLine
 10
1562.040141800372
 20
814.9551056939564
 30
0.0
 11
1569.150092678454
 21
822.0650565717315
 31
0.0
  0
LINE
  5
14A
330
A9
100
AcDbEntity
  8
0
  6
CONTINUOUS
 62
     7
100
AcDbLine
 10
1563.017301640172
 20
814.5180519713571
 30
0.0
 11
1569.940699791481
 21
821.4414501226656
 31
0.0
  0
ENDBLK
  5
AB
330
A9
100
AcDbEntity
  8
0
100
AcDbBlockEnd
  0
BLOCK
  5
AD
330
AC
100
AcDbEntity
  8
0
100
AcDbBlockBegin
  2
SYM-4
 70
     0
 10
0.0
 20
0.0
 30
0.0
  3
SYM-4
  1

  0
LINE
  5
14B
330
AC
100
AcDbEntity
  8
0
  6
CONTINUOUS
 62
     7
100
AcDbLine
 10
1576.500000000072
 20
839.8984848097565
 30
0.0
 11
1586.500000000073
 21
839.8984848097565
 31
0.0
  0
LINE
  5
14C
330
AC
100
AcDbEntity
  8
0
  6
CONTINUOUS
 62
     7
100
AcDbLine
 10
1576.500000000072
 20
839.8984848097565
 30
0.0
 11
1577.500000000073
 21
840.8984848097563
 31
0.0
  0
LINE
  5
14D
330
AC
100
AcDbEntity
  8
0
  6
CONTINUOUS
 62
     7
100
AcDbLine
 10
1586.500000000073
 20
839.8984848097565
 30
0.0
 11
1585.500000000072
 21
840.8984848097563
 31
0.0
  0
LINE
  5
14E
330
AC
100
AcDbEntity
  8
0
  6
CONTINUOUS
 62
     7
100
AcDbLine
 10
1577.500000000073
 20
840.8984848097563
 30
0.0
 11
1585.500000000072
 21
840.8984848097563
 31
0.0
  0
LINE
  5
14F
330
AC
100
AcDbEntity
  8
0
  6
CONTINUOUS
 62
     7
100
AcDbLine
 10
1577.500000000073
 20
840.8984848097563
 30
0.0
 11
1577.500000000073
 21
836.6984848097567
 31
0.0
  0
LINE
  5
150
330
AC
100
AcDbEntity
  8
0
  6
CONTINUOUS
 62
     7
100
AcDbLine
 10
1585.500000000072
 20
840.8984848097563
 30
0.0
 11
1585.500000000072
 21
836.6984848097567
 31
0.0
  0
LINE
  5
151
330
AC
100
AcDbEntity
  8
0
  6
CONTINUOUS
 62
     7
100
AcDbLine
 10
1586.500000000073
 20
836.6984848097567
 30
0.0
 11
1586.500000000073
 21
839.8984848097565
 31
0.0
  0
LINE
  5
152
330
AC
100
AcDbEntity
  8
0
  6
CONTINUOUS
 62
     7
100
AcDbLine
 10
1576.500000000072
 20
836.6984848097567
 30
0.0
 11
1576.500000000072
 21
839.8984848097565
 31
0.0
  0
LINE
  5
153
330
AC
100
AcDbEntity
  8
0
  6
CONTINUOUS
 62
     7
100
AcDbLine
 10
1586.500000000073
 20
828.2984848097568
 30
0.0
 11
1586.500000000073
 21
835.7744848097567
 31
0.0
  0
LINE
  5
154
330
AC
100
AcDbEntity
  8
0
  6
CONTINUOUS
 62
     7
100
AcDbLine
 10
1576.500000000072
 20
828.2984848097568
 30
0.0
 11
1576.500000000072
 21
835.7744848097567
 31
0.0
  0
LINE
  5
155
330
AC
100
AcDbEntity
  8
0
  6
CONTINUOUS
 62
     7
100
AcDbLine
 10
1571.500000000073
 20
828.2984848097568
 30
0.0
 11
1571.500000000073
 21
835.7744848097567
 31
0.0
  0
ARC
  5
156
330
AC
100
AcDbEntity
  8
0
  6
CONTINUOUS
 62
     7
100
AcDbCircle
 10
1589.000000000072
 20
832.8544501777219
 30
0.0
 40
3.844034632034633
100
AcDbArc
 50
49.4313750266144
 51
130.5686249733918
  0
ARC
  5
157
330
AC
100
AcDbEntity
  8
0
  6
CONTINUOUS
 62
     7
100
AcDbCircle
 10
1581.500000000072
 20
822.7083462816184
 30
0.0
 40
13.99013852813853
100
AcDbArc
 50
69.05972439385523
 51
110.9402756061494
  0
ARC
  5
158
330
AC
100
AcDbEntity
  8
0
  6
CONTINUOUS
 62
     7
100
AcDbCircle
 10
1574.000000000072
 20
832.8544501777219
 30
0.0
 40
3.844034632034633
100
AcDbArc
 50
49.4313750266144
 51
130.5686249733918
  0
LINE
  5
159
330
AC
100
AcDbEntity
  8
0
  6
CONTINUOUS
 62
     7
100
AcDbLine
 10
1589.000000000072
 20
836.6984848097567
 30
0.0
 11
1574.000000000072
 21
836.6984848097567
 31
0.0
  0
LINE
  5
15A
330
AC
100
AcDbEntity
  8
0
  6
CONTINUOUS
 62
     7
100
AcDbLine
 10
1571.000000000072
 20
828.2984848097568
 30
0.0
 11
1592.000000000073
 21
828.2984848097568
 31
0.0
  0
LINE
  5
15B
330
AC
100
AcDbEntity
  8
0
  6
CONTINUOUS
 62
     7
100
AcDbLine
 10
1591.500000000072
 20
828.2984848097568
 30
0.0
 11
1591.500000000072
 21
835.7744848097567
 31
0.0
  0
LINE
  5
15C
330
AC
100
AcDbEntity
  8
0
  6
CONTINUOUS
 62
     7
100
AcDbLine
 10
1571.000000000072
 20
828.2984848097568
 30
0.0
 11
1571.000000000072
 21
826.2984848097559
 31
0.0
  0
LINE
  5
15D
330
AC
100
AcDbEntity
  8
0
  6
CONTINUOUS
 62
     7
100
AcDbLine
 10
1592.000000000073
 20
828.2984848097568
 30
0.0
 11
1592.000000000073
 21
826.2984848097559
 31
0.0
  0
LINE
  5
15E
330
AC
100
AcDbEntity
  8
0
  6
CONTINUOUS
 62
     7
100
AcDbLine
 10
1576.500000000072
 20
805.2024848097564
 30
0.0
 11
1576.500000000072
 21
826.2984848097559
 31
0.0
  0
LINE
  5
15F
330
AC
100
AcDbEntity
  8
0
  6
CONTINUOUS
 62
     7
100
AcDbLine
 10
1577.500000000073
 20
826.2984848097568
 30
0.0
 11
1577.500000000073
 21
815.8984848097566
 31
0.0
  0
LINE
  5
160
330
AC
100
AcDbEntity
  8
0
  6
CONTINUOUS
 62
     7
100
AcDbLine
 10
1585.500000000072
 20
826.2984848097568
 30
0.0
 11
1585.500000000072
 21
815.8984848097566
 31
0.0
  0
LINE
  5
161
330
AC
100
AcDbEntity
  8
0
  6
CONTINUOUS
 62
     7
100
AcDbLine
 10
1586.500000000073
 20
805.2024848097564
 30
0.0
 11
1586.500000000073
 21
826.2984848097559
 31
0.0
  0
LINE
  5
162
330
AC
100
AcDbEntity
  8
0
  6
CONTINUOUS
 62
     7
100
AcDbLine
 10
1585.500000000072
 20
815.8984848097566
 30
0.0
 11
1586.500000000073
 21
814.8984848097564
 31
0.0
  0
LINE
  5
163
330
AC
100
AcDbEntity
  8
0
  6
CONTINUOUS
 62
     7
100
AcDbLine
 10
1586.500000000073
 20
815.8984848097566
 30
0.0
 11
1576.500000000072
 21
815.8984848097566
 31
0.0
  0
LINE
  5
164
330
AC
100
AcDbEntity
  8
0
  6
CONTINUOUS
 62
     7
100
AcDbLine
 10
1577.500000000073
 20
815.8984848097566
 30
0.0
 11
1576.500000000072
 21
814.8984848097564
 31
0.0
  0
ARC
  5
165
330
AC
100
AcDbEntity
  8
0
  6
CONTINUOUS
 62
     7
100
AcDbCircle
 10
1581.500000000072
 20
822.6061666279385
 30
0.0
 40
18.10768181818181
100
AcDbArc
 50
253.9708781133825
 51
286.0291218866138
  0
ARC
  5
166
330
AC
100
AcDbEntity
  8
0
  6
CONTINUOUS
 62
     7
100
AcDbCircle
 10
1589.000000000072
 20
809.2894052643018
 30
0.0
 40
4.790920454545454
100
AcDbArc
 50
238.5455606612373
 51
301.4544393387538
  0
LINE
  5
167
330
AC
100
AcDbEntity
  8
0
  6
CONTINUOUS
 62
     7
100
AcDbLine
 10
1591.500000000072
 20
810.8984848097563
 30
0.0
 11
1591.500000000072
 21
805.2024848097564
 31
0.0
  0
LINE
  5
168
330
AC
100
AcDbEntity
  8
0
  6
CONTINUOUS
 62
     7
100
AcDbLine
 10
1574.000000000072
 20
804.4984848097567
 30
0.0
 11
1589.000000000072
 21
804.4984848097567
 31
0.0
  0
ARC
  5
169
330
AC
100
AcDbEntity
  8
0
  6
CONTINUOUS
 62
     7
100
AcDbCircle
 10
1574.000000000072
 20
809.2894052643018
 30
0.0
 40
4.790920454545454
100
AcDbArc
 50
238.5455606612373
 51
301.4544393387538
  0
LINE
  5
16A
330
AC
100
AcDbEntity
  8
0
  6
CONTINUOUS
 62
     7
100
AcDbLine
 10
1571.500000000073
 20
810.8984848097563
 30
0.0
 11
1571.500000000073
 21
805.2024848097564
 31
0.0
  0
LINE
  5
16B
330
AC
100
AcDbEntity
  8
0
  6
CONTINUOUS
 62
     7
100
AcDbLine
 10
1591.500000000076
 20
809.4842712473795
 30
0.0
 11
1591.956881618645
 21
809.0273896288121
 31
0.0
  0
LINE
  5
16C
330
AC
100
AcDbEntity
  8
0
  6
CONTINUOUS
 62
     7
100
AcDbLine
 10
1591.50000000007
 20
810.1913780285732
 30
0.0
 11
1592.305843406745
 21
809.3855346218982
 31
0.0
  0
LINE
  5
16D
330
AC
100
AcDbEntity
  8
0
  6
CONTINUOUS
 62
     7
100
AcDbLine
 10
1591.500000000075
 20
810.8984848097544
 30
0.0
 11
1592.654805194867
 21
809.7436796149624
 31
0.0
  0
LINE
  5
16E
330
AC
100
AcDbEntity
  8
0
  6
CONTINUOUS
 62
     7
100
AcDbLine
 10
1592.207106781257
 20
810.898484809759
 30
0.0
 11
1593.00376698299
 21
810.101824608027
 31
0.0
  0
LINE
  5
16F
330
AC
100
AcDbEntity
  8
0
  6
CONTINUOUS
 62
     7
100
AcDbLine
 10
1592.914213562439
 20
810.8984848097638
 30
0.0
 11
1593.352728771112
 21
810.4599696010911
 31
0.0
  0
LINE
  5
170
330
AC
100
AcDbEntity
  8
0
  6
CONTINUOUS
 62
     7
100
AcDbLine
 10
1591.500000000075
 20
808.5584848097564
 30
0.0
 11
1593.780000000074
 21
810.8984848097563
 31
0.0
  0
LINE
  5
171
330
AC
100
AcDbEntity
  8
0
  6
CONTINUOUS
 62
     7
100
AcDbLine
 10
1591.50000000006
 20
808.7771644662099
 30
0.0
 11
1591.607919830524
 21
808.6692446357475
 31
0.0
  0
LINE
  5
172
330
AC
100
AcDbEntity
  8
0
  6
CONTINUOUS
 62
     7
100
AcDbLine
 10
1593.621320343619
 20
810.8984848097692
 30
0.0
 11
1593.701690559222
 21
810.8181145941663
 31
0.0
  0
LINE
  5
173
330
AC
100
AcDbEntity
  8
0
  6
CONTINUOUS
 62
     7
100
AcDbLine
 10
1569.581855007006
 20
810.4874465978756
 30
0.0
 11
1569.992893218884
 21
810.8984848097529
 31
0.0
  0
LINE
  5
174
330
AC
100
AcDbEntity
  8
0
  6
CONTINUOUS
 62
     7
100
AcDbLine
 10
1569.940000000071
 20
810.1384848097535
 30
0.0
 11
1570.700000000076
 21
810.898484809759
 31
0.0
  0
LINE
  5
175
330
AC
100
AcDbEntity
  8
0
  6
CONTINUOUS
 62
     7
100
AcDbLine
 10
1570.298144993136
 20
809.789523021631
 30
0.0
 11
1571.407106781247
 21
810.8984848097426
 31
0.0
  0
LINE
  5
176
330
AC
100
AcDbEntity
  8
0
  6
CONTINUOUS
 62
     7
100
AcDbLine
 10
1570.656289986223
 20
809.4405612335323
 30
0.0
 11
1571.500000000059
 21
810.2842712473679
 31
0.0
  0
LINE
  5
177
330
AC
100
AcDbEntity
  8
0
  6
CONTINUOUS
 62
     7
100
AcDbLine
 10
1571.014434979286
 20
809.0915994454091
 30
0.0
 11
1571.500000000075
 21
809.5771644661992
 31
0.0
  0
LINE
  5
178
330
AC
100
AcDbEntity
  8
0
  6
CONTINUOUS
 62
     7
100
AcDbLine
 10
1571.372579972351
 20
808.7426376572868
 30
0.0
 11
1571.500000000069
 21
808.8700576850056
 31
0.0
  0
LINE
  5
179
330
AC
100
AcDbEntity
  8
0
  6
CONTINUOUS
 62
     7
100
AcDbLine
 10
1569.160000000072
 20
810.8984848097544
 30
0.0
 11
1571.500000000073
 21
808.6184848097556
 31
0.0
  0
LINE
  5
17A
330
AC
100
AcDbEntity
  8
0
  6
CONTINUOUS
 62
     7
100
AcDbLine
 10
1569.223710013932
 20
810.8364083859864
 30
0.0
 11
1569.285786437703
 21
810.8984848097583
 31
0.0
  0
ENDBLK
  5
AE
330
AC
100
AcDbEntity
  8
0
100
AcDbBlockEnd
  0
BLOCK
  5
B0
330
AF
100
AcDbEntity
  8
0
100
AcDbBlockBegin
  2
SYM-5
 70
     0
 10
0.0
 20
0.0
 30
0.0
  3
SYM-5
  1

  0
ARC
  5
17B
330
AF
100
AcDbEntity
  8
0
  6
CONTINUOUS
 62
     7
100
AcDbCircle
 10
1239.000000000012
 20
867.8984848097572
 30
0.0
 40
2.0
100
AcDbArc
 50
180.0
 51
270.0000000000002
  0
ARC
  5
17C
330
AF
100
AcDbEntity
  8
0
  6
CONTINUOUS
 62
     7
100
AcDbCircle
 10
1264.000000000045
 20
867.8984848097572
 30
0.0
 40
2.0
100
AcDbArc
 50
270.0000000000002
 51
0.0
  0
LINE
  5
17D
330
AF
100
AcDbEntity
  8
0
  6
CONTINUOUS
 62
     7
100
AcDbLine
 10
1239.000000000027
 20
867.8984848097572
 30
0.0
 11
1264.000000000028
 21
867.8984848097572
 31
0.0
  0
LINE
  5
17E
330
AF
100
AcDbEntity
  8
0
  6
CONTINUOUS
 62
     7
100
AcDbLine
 10
1231.500000000027
 20
875.8984848097581
 30
0.0
 11
1231.500000000027
 21
873.8984848097573
 31
0.0
  0
LINE
  5
17F
330
AF
100
AcDbEntity
  8
0
  6
CONTINUOUS
 62
     7
100
AcDbLine
 10
1231.500000000027
 20
873.8984848097573
 30
0.0
 11
1237.000000000012
 21
873.8984848097573
 31
0.0
  0
LINE
  5
180
330
AF
100
AcDbEntity
  8
0
  6
CONTINUOUS
 62
     7
100
AcDbLine
 10
1237.000000000012
 20
873.8984848097573
 30
0.0
 11
1237.000000000012
 21
867.8984848097572
 31
0.0
  0
LINE
  5
181
330
AF
100
AcDbEntity
  8
0
  6
CONTINUOUS
 62
     7
100
AcDbLine
 10
1239.000000000027
 20
873.8984848097573
 30
0.0
 11
1239.000000000027
 21
867.8984848097572
 31
0.0
  0
LINE
  5
182
330
AF
100
AcDbEntity
  8
0
  6
CONTINUOUS
 62
     7
100
AcDbLine
 10
1231.500000000027
 20
875.8984848097581
 30
0.0
 11
1237.000000000027
 21
875.8984848097581
 31
0.0
  0
ARC
  5
183
330
AF
100
AcDbEntity
  8
0
  6
CONTINUOUS
 62
     7
100
AcDbCircle
 10
1237.000000000027
 20
873.8984848097573
 30
0.0
 40
2.0
100
AcDbArc
 50
0.0
 51
90.00000000000001
  0
LINE
  5
184
330
AF
100
AcDbEntity
  8
0
  6
CONTINUOUS
 62
     7
100
AcDbLine
 10
1271.500000000031
 20
875.8984848097581
 30
0.0
 11
1271.500000000031
 21
873.8984848097573
 31
0.0
  0
LINE
  5
185
330
AF
100
AcDbEntity
  8
0
  6
CONTINUOUS
 62
     7
100
AcDbLine
 10
1271.500000000031
 20
873.8984848097573
 30
0.0
 11
1266.000000000046
 21
873.8984848097573
 31
0.0
  0
LINE
  5
186
330
AF
100
AcDbEntity
  8
0
  6
CONTINUOUS
 62
     7
100
AcDbLine
 10
1266.000000000046
 20
873.8984848097573
 30
0.0
 11
1266.000000000046
 21
867.8984848097572
 31
0.0
  0
LINE
  5
187
330
AF
100
AcDbEntity
  8
0
  6
CONTINUOUS
 62
     7
100
AcDbLine
 10
1264.000000000031
 20
873.8984848097573
 30
0.0
 11
1264.000000000031
 21
867.8984848097572
 31
0.0
  0
LINE
  5
188
330
AF
100
AcDbEntity
  8
0
  6
CONTINUOUS
 62
     7
100
AcDbLine
 10
1271.500000000031
 20
875.8984848097581
 30
0.0
 11
1266.00000000003
 21
875.8984848097581
 31
0.0
  0
ARC
  5
189
330
AF
100
AcDbEntity
  8
0
  6
CONTINUOUS
 62
     7
100
AcDbCircle
 10
1266.00000000003
 20
873.8984848097573
 30
0.0
 40
2.0
100
AcDbArc
 50
90.00000000000001
 51
180.0
  0
ENDBLK
  5
B1
330
AF
100
AcDbEntity
  8
0
100
AcDbBlockEnd
  0
BLOCK
  5
B3
330
B2
100
AcDbEntity
  8
0
100
AcDbBlockBegin
  2
SYM-6
 70
     0
 10
0.0
 20
0.0
 30
0.0
  3
SYM-6
  1

  0
ARC
  5
18A
330
B2
100
AcDbEntity
  8
0
  6
CONTINUOUS
 62
     7
100
AcDbCircle
 10
1464.000000000064
 20
867.8984848097572
 30
0.0
 40
2.0
100
AcDbArc
 50
270.0000000000002
 51
0.0
  0
ARC
  5
18B
330
B2
100
AcDbEntity
  8
0
  6
CONTINUOUS
 62
     7
100
AcDbCircle
 10
1439.000000000031
 20
867.8984848097572
 30
0.0
 40
2.0
100
AcDbArc
 50
180.0
 51
270.0000000000002
  0
LINE
  5
18C
330
B2
100
AcDbEntity
  8
0
  6
CONTINUOUS
 62
     7
100
AcDbLine
 10
1464.000000000049
 20
867.8984848097572
 30
0.0
 11
1439.00000000005
 21
867.8984848097572
 31
0.0
  0
LINE
  5
18D
330
B2
100
AcDbEntity
  8
0
  6
CONTINUOUS
 62
     7
100
AcDbLine
 10
1471.500000000049
 20
875.8984848097572
 30
0.0
 11
1471.500000000049
 21
873.8984848097573
 31
0.0
  0
LINE
  5
18E
330
B2
100
AcDbEntity
  8
0
  6
CONTINUOUS
 62
     7
100
AcDbLine
 10
1471.500000000049
 20
873.8984848097573
 30
0.0
 11
1466.000000000065
 21
873.8984848097573
 31
0.0
  0
LINE
  5
18F
330
B2
100
AcDbEntity
  8
0
  6
CONTINUOUS
 62
     7
100
AcDbLine
 10
1466.000000000065
 20
873.8984848097573
 30
0.0
 11
1466.000000000065
 21
867.8984848097572
 31
0.0
  0
LINE
  5
190
330
B2
100
AcDbEntity
  8
0
  6
CONTINUOUS
 62
     7
100
AcDbLine
 10
1464.000000000049
 20
873.8984848097573
 30
0.0
 11
1464.000000000049
 21
867.8984848097572
 31
0.0
  0
LINE
  5
191
330
B2
100
AcDbEntity
  8
0
  6
CONTINUOUS
 62
     7
100
AcDbLine
 10
1471.500000000049
 20
875.8984848097572
 30
0.0
 11
1466.00000000005
 21
875.8984848097572
 31
0.0
  0
ARC
  5
192
330
B2
100
AcDbEntity
  8
0
  6
CONTINUOUS
 62
     7
100
AcDbCircle
 10
1466.00000000005
 20
873.8984848097573
 30
0.0
 40
2.0
100
AcDbArc
 50
90.00000000000001
 51
180.0
  0
LINE
  5
193
330
B2
100
AcDbEntity
  8
0
  6
CONTINUOUS
 62
     7
100
AcDbLine
 10
1431.500000000046
 20
875.8984848097572
 30
0.0
 11
1431.500000000046
 21
873.8984848097573
 31
0.0
  0
LINE
  5
194
330
B2
100
AcDbEntity
  8
0
  6
CONTINUOUS
 62
     7
100
AcDbLine
 10
1431.500000000046
 20
873.8984848097573
 30
0.0
 11
1437.000000000032
 21
873.8984848097573
 31
0.0
  0
LINE
  5
195
330
B2
100
AcDbEntity
  8
0
  6
CONTINUOUS
 62
     7
100
AcDbLine
 10
1437.000000000032
 20
873.8984848097573
 30
0.0
 11
1437.000000000032
 21
867.8984848097572
 31
0.0
  0
LINE
  5
196
330
B2
100
AcDbEntity
  8
0
  6
CONTINUOUS
 62
     7
100
AcDbLine
 10
1439.000000000046
 20
873.8984848097573
 30
0.0
 11
1439.000000000046
 21
867.8984848097572
 31
0.0
  0
LINE
  5
197
330
B2
100
AcDbEntity
  8
0
  6
CONTINUOUS
 62
     7
100
AcDbLine
 10
1431.500000000046
 20
875.8984848097572
 30
0.0
 11
1437.000000000046
 21
875.8984848097572
 31
0.0
  0
ARC
  5
198
330
B2
100
AcDbEntity
  8
0
  6
CONTINUOUS
 62
     7
100
AcDbCircle
 10
1437.000000000046
 20
873.8984848097573
 30
0.0
 40
2.0
100
AcDbArc
 50
0.0
 51
90.00000000000001
  0
ENDBLK
  5
B4
330
B2
100
AcDbEntity
  8
0
100
AcDbBlockEnd
  0
BLOCK
  5
B6
330
B5
100
AcDbEntity
  8
0
100
AcDbBlockBegin
  2
SYM-7
 70
     0
 10
0.0
 20
0.0
 30
0.0
  3
SYM-7
  1

  0
ARC
  5
199
330
B5
100
AcDbEntity
  8
0
  6
CONTINUOUS
 62
     7
100
AcDbCircle
 10
749.0000000000118
 20
867.8984848097572
 30
0.0
 40
2.0
100
AcDbArc
 50
180.0
 51
270.0000000000002
  0
ARC
  5
19A
330
B5
100
AcDbEntity
  8
0
  6
CONTINUOUS
 62
     7
100
AcDbCircle
 10
774.0000000000455
 20
867.8984848097572
 30
0.0
 40
2.0
100
AcDbArc
 50
270.0000000000002
 51
0.0
  0
LINE
  5
19B
330
B5
100
AcDbEntity
  8
0
  6
CONTINUOUS
 62
     7
100
AcDbLine
 10
749.0000000000273
 20
867.8984848097572
 30
0.0
 11
774.0000000000273
 21
867.8984848097572
 31
0.0
  0
LINE
  5
19C
330
B5
100
AcDbEntity
  8
0
  6
CONTINUOUS
 62
     7
100
AcDbLine
 10
741.5000000000273
 20
875.8984848097581
 30
0.0
 11
741.5000000000273
 21
873.8984848097573
 31
0.0
  0
LINE
  5
19D
330
B5
100
AcDbEntity
  8
0
  6
CONTINUOUS
 62
     7
100
AcDbLine
 10
741.5000000000273
 20
873.8984848097573
 30
0.0
 11
747.0000000000118
 21
873.8984848097573
 31
0.0
  0
LINE
  5
19E
330
B5
100
AcDbEntity
  8
0
  6
CONTINUOUS
 62
     7
100
AcDbLine
 10
747.0000000000118
 20
873.8984848097573
 30
0.0
 11
747.0000000000118
 21
867.8984848097572
 31
0.0
  0
LINE
  5
19F
330
B5
100
AcDbEntity
  8
0
  6
CONTINUOUS
 62
     7
100
AcDbLine
 10
749.0000000000273
 20
873.8984848097573
 30
0.0
 11
749.0000000000273
 21
867.8984848097572
 31
0.0
  0
LINE
  5
1A0
330
B5
100
AcDbEntity
  8
0
  6
CONTINUOUS
 62
     7
100
AcDbLine
 10
741.5000000000273
 20
875.8984848097581
 30
0.0
 11
747.0000000000273
 21
875.8984848097581
 31
0.0
  0
ARC
  5
1A1
330
B5
100
AcDbEntity
  8
0
  6
CONTINUOUS
 62
     7
100
AcDbCircle
 10
747.0000000000273
 20
873.8984848097573
 30
0.0
 40
2.0
100
AcDbArc
 50
0.0
 51
90.00000000000001
  0
LINE
  5
1A2
330
B5
100
AcDbEntity
  8
0
  6
CONTINUOUS
 62
     7
100
AcDbLine
 10
781.500000000031
 20
875.8984848097581
 30
0.0
 11
781.500000000031
 21
873.8984848097573
 31
0.0
  0
LINE
  5
1A3
330
B5
100
AcDbEntity
  8
0
  6
CONTINUOUS
 62
     7
100
AcDbLine
 10
781.500000000031
 20
873.8984848097573
 30
0.0
 11
776.0000000000455
 21
873.8984848097573
 31
0.0
  0
LINE
  5
1A4
330
B5
100
AcDbEntity
  8
0
  6
CONTINUOUS
 62
     7
100
AcDbLine
 10
776.0000000000455
 20
873.8984848097573
 30
0.0
 11
776.0000000000455
 21
867.8984848097572
 31
0.0
  0
LINE
  5
1A5
330
B5
100
AcDbEntity
  8
0
  6
CONTINUOUS
 62
     7
100
AcDbLine
 10
774.000000000031
 20
873.8984848097573
 30
0.0
 11
774.000000000031
 21
867.8984848097572
 31
0.0
  0
LINE
  5
1A6
330
B5
100
AcDbEntity
  8
0
  6
CONTINUOUS
 62
     7
100
AcDbLine
 10
781.500000000031
 20
875.8984848097581
 30
0.0
 11
776.00000000003
 21
875.8984848097581
 31
0.0
  0
ARC
  5
1A7
330
B5
100
AcDbEntity
  8
0
  6
CONTINUOUS
 62
     7
100
AcDbCircle
 10
776.00000000003
 20
873.8984848097573
 30
0.0
 40
2.0
100
AcDbArc
 50
90.00000000000001
 51
180.0
  0
ENDBLK
  5
B7
330
B5
100
AcDbEntity
  8
0
100
AcDbBlockEnd
  0
BLOCK
  5
B9
330
B8
100
AcDbEntity
  8
0
100
AcDbBlockBegin
  2
SYM-8
 70
     0
 10
0.0
 20
0.0
 30
0.0
  3
SYM-8
  1

  0
ARC
  5
1A8
330
B8
100
AcDbEntity
  8
0
  6
CONTINUOUS
 62
     7
100
AcDbCircle
 10
974.0000000000641
 20
867.8984848097572
 30
0.0
 40
2.0
100
AcDbArc
 50
270.0000000000002
 51
0.0
  0
ARC
  5
1A9
330
B8
100
AcDbEntity
  8
0
  6
CONTINUOUS
 62
     7
100
AcDbCircle
 10
949.000000000031
 20
867.8984848097572
 30
0.0
 40
2.0
100
AcDbArc
 50
180.0
 51
270.0000000000002
  0
LINE
  5
1AA
330
B8
100
AcDbEntity
  8
0
  6
CONTINUOUS
 62
     7
100
AcDbLine
 10
974.0000000000496
 20
867.8984848097572
 30
0.0
 11
949.00000000005
 21
867.8984848097572
 31
0.0
  0
LINE
  5
1AB
330
B8
100
AcDbEntity
  8
0
  6
CONTINUOUS
 62
     7
100
AcDbLine
 10
981.5000000000496
 20
875.8984848097572
 30
0.0
 11
981.5000000000496
 21
873.8984848097573
 31
0.0
  0
LINE
  5
1AC
330
B8
100
AcDbEntity
  8
0
  6
CONTINUOUS
 62
     7
100
AcDbLine
 10
981.5000000000496
 20
873.8984848097573
 30
0.0
 11
976.0000000000646
 21
873.8984848097573
 31
0.0
  0
LINE
  5
1AD
330
B8
100
AcDbEntity
  8
0
  6
CONTINUOUS
 62
     7
100
AcDbLine
 10
976.0000000000646
 20
873.8984848097573
 30
0.0
 11
976.0000000000646
 21
867.8984848097572
 31
0.0
  0
LINE
  5
1AE
330
B8
100
AcDbEntity
  8
0
  6
CONTINUOUS
 62
     7
100
AcDbLine
 10
974.0000000000496
 20
873.8984848097573
 30
0.0
 11
974.0000000000496
 21
867.8984848097572
 31
0.0
  0
LINE
  5
1AF
330
B8
100
AcDbEntity
  8
0
  6
CONTINUOUS
 62
     7
100
AcDbLine
 10
981.5000000000496
 20
875.8984848097572
 30
0.0
 11
976.00000000005
 21
875.8984848097572
 31
0.0
  0
ARC
  5
1B0
330
B8
100
AcDbEntity
  8
0
  6
CONTINUOUS
 62
     7
100
AcDbCircle
 10
976.00000000005
 20
873.8984848097573
 30
0.0
 40
2.0
100
AcDbArc
 50
90.00000000000001
 51
180.0
  0
LINE
  5
1B1
330
B8
100
AcDbEntity
  8
0
  6
CONTINUOUS
 62
     7
100
AcDbLine
 10
941.5000000000455
 20
875.8984848097572
 30
0.0
 11
941.5000000000455
 21
873.8984848097573
 31
0.0
  0
LINE
  5
1B2
330
B8
100
AcDbEntity
  8
0
  6
CONTINUOUS
 62
     7
100
AcDbLine
 10
941.5000000000455
 20
873.8984848097573
 30
0.0
 11
947.0000000000318
 21
873.8984848097573
 31
0.0
  0
LINE
  5
1B3
330
B8
100
AcDbEntity
  8
0
  6
CONTINUOUS
 62
     7
100
AcDbLine
 10
947.0000000000318
 20
873.8984848097573
 30
0.0
 11
947.0000000000318
 21
867.8984848097572
 31
0.0
  0
LINE
  5
1B4
330
B8
100
AcDbEntity
  8
0
  6
CONTINUOUS
 62
     7
100
AcDbLine
 10
949.0000000000455
 20
873.8984848097573
 30
0.0
 11
949.0000000000455
 21
867.8984848097572
 31
0.0
  0
LINE
  5
1B5
330
B8
100
AcDbEntity
  8
0
  6
CONTINUOUS
 62
     7
100
AcDbLine
 10
941.5000000000455
 20
875.8984848097572
 30
0.0
 11
947.0000000000465
 21
875.8984848097572
 31
0.0
  0
ARC
  5
1B6
330
B8
100
AcDbEntity
  8
0
  6
CONTINUOUS
 62
     7
100
AcDbCircle
 10
947.0000000000465
 20
873.8984848097573
 30
0.0
 40
2.0
100
AcDbArc
 50
0.0
 51
90.00000000000001
  0
ENDBLK
  5
BA
330
B8
100
AcDbEntity
  8
0
100
AcDbBlockEnd
  0
BLOCK
  5
BC
330
BB
100
AcDbEntity
  8
0
100
AcDbBlockBegin
  2
SYM-9
 70
     0
 10
0.0
 20
0.0
 30
0.0
  3
SYM-9
  1

  0
CIRCLE
  5
1B7
330
BB
100
AcDbEntity
  8
0
  6
CONTINUOUS
 62
     7
100
AcDbCircle
 10
1581.500000000002
 20
1391.898484809727
 30
0.0
 40
10.50000000000041
  0
CIRCLE
  5
1B8
330
BB
100
AcDbEntity
  8
0
  6
CONTINUOUS
 62
     7
100
AcDbCircle
 10
1581.500000000002
 20
1391.898484809727
 30
0.0
 40
8.66025403784441
  0
LINE
  5
1B9
330
BB
100
AcDbEntity
  8
0
  6
CONTINUOUS
 62
     7
100
AcDbLine
 10
1572.839745962157
 20
1396.898484809727
 30
0.0
 11
1572.839745962157
 21
1386.898484809728
 31
0.0
  0
LINE
  5
1BA
330
BB
100
AcDbEntity
  8
0
  6
CONTINUOUS
 62
     7
100
AcDbLine
 10
1572.839745962157
 20
1386.898484809728
 30
0.0
 11
1581.500000000002
 21
1381.898484809727
 31
0.0
  0
LINE
  5
1BB
330
BB
100
AcDbEntity
  8
0
  6
CONTINUOUS
 62
     7
100
AcDbLine
 10
1581.500000000002
 20
1381.898484809727
 30
0.0
 11
1590.160254037844
 21
1386.898484809728
 31
0.0
  0
LINE
  5
1BC
330
BB
100
AcDbEntity
  8
0
  6
CONTINUOUS
 62
     7
100
AcDbLine
 10
1590.160254037844
 20
1396.898484809727
 30
0.0
 11
1581.500000000002
 21
1401.898484809728
 31
0.0
  0
LINE
  5
1BD
330
BB
100
AcDbEntity
  8
0
  6
CONTINUOUS
 62
     7
100
AcDbLine
 10
1581.500000000002
 20
1401.898484809728
 30
0.0
 11
1572.839745962157
 21
1396.898484809727
 31
0.0
  0
CIRCLE
  5
1BE
330
BB
100
AcDbEntity
  8
0
  6
CONTINUOUS
 62
     7
100
AcDbCircle
 10
1581.500000000002
 20
1391.898484809727
 30
0.0
 40
5.0
  0
CIRCLE
  5
1BF
330
BB
100
AcDbEntity
  8
0
  6
CONTINUOUS
 62
     7
100
AcDbCircle
 10
1581.500000000002
 20
1391.898484809727
 30
0.0
 40
4.0
  0
LINE
  5
1C0
330
BB
100
AcDbEntity
  8
0
  6
CONTINUOUS
 62
     7
100
AcDbLine
 10
1590.160254037844
 20
1386.898484809728
 30
0.0
 11
1590.160254037844
 21
1396.898484809727
 31
0.0
  0
ENDBLK
  5
BD
330
BB
100
AcDbEntity
  8
0
100
AcDbBlockEnd
  0
BLOCK
  5
BF
330
BE
100
AcDbEntity
  8
0
100
AcDbBlockBegin
  2
SYM-10
 70
     0
 10
0.0
 20
0.0
 30
0.0
  3
SYM-10
  1

  0
CIRCLE
  5
1C1
330
BE
100
AcDbEntity
  8
0
  6
CONTINUOUS
 62
     7
100
AcDbCircle
 10
1581.500000000001
 20
2341.898484809745
 30
0.0
 40
10.50000000000041
  0
CIRCLE
  5
1C2
330
BE
100
AcDbEntity
  8
0
  6
CONTINUOUS
 62
     7
100
AcDbCircle
 10
1581.500000000001
 20
2341.898484809745
 30
0.0
 40
8.66025403784441
  0
LINE
  5
1C3
330
BE
100
AcDbEntity
  8
0
  6
CONTINUOUS
 62
     7
100
AcDbLine
 10
1572.839745962157
 20
2336.898484809745
 30
0.0
 11
1572.839745962157
 21
2346.898484809744
 31
0.0
  0
LINE
  5
1C4
330
BE
100
AcDbEntity
  8
0
  6
CONTINUOUS
 62
     7
100
AcDbLine
 10
1572.839745962157
 20
2346.898484809744
 30
0.0
 11
1581.500000000001
 21
2351.898484809745
 31
0.0
  0
LINE
  5
1C5
330
BE
100
AcDbEntity
  8
0
  6
CONTINUOUS
 62
     7
100
AcDbLine
 10
1581.500000000001
 20
2351.898484809745
 30
0.0
 11
1590.160254037844
 21
2346.898484809744
 31
0.0
  0
LINE
  5
1C6
330
BE
100
AcDbEntity
  8
0
  6
CONTINUOUS
 62
     7
100
AcDbLine
 10
1590.160254037844
 20
2336.898484809745
 30
0.0
 11
1581.500000000001
 21
2331.898484809744
 31
0.0
  0
LINE
  5
1C7
330
BE
100
AcDbEntity
  8
0
  6
CONTINUOUS
 62
     7
100
AcDbLine
 10
1581.500000000001
 20
2331.898484809744
 30
0.0
 11
1572.839745962157
 21
2336.898484809745
 31
0.0
  0
CIRCLE
  5
1C8
330
BE
100
AcDbEntity
  8
0
  6
CONTINUOUS
 62
     7
100
AcDbCircle
 10
1581.500000000001
 20
2341.898484809745
 30
0.0
 40
5.0
  0
CIRCLE
  5
1C9
330
BE
100
AcDbEntity
  8
0
  6
CONTINUOUS
 62
     7
100
AcDbCircle
 10
1581.500000000001
 20
2341.898484809745
 30
0.0
 40
4.0
  0
LINE
  5
1CA
330
BE
100
AcDbEntity
  8
0
  6
CONTINUOUS
 62
     7
100
AcDbLine
 10
1590.160254037844
 20
2346.898484809744
 30
0.0
 11
1590.160254037844
 21
2336.898484809745
 31
0.0
  0
ENDBLK
  5
C0
330
BE
100
AcDbEntity
  8
0
100
AcDbBlockEnd
  0
BLOCK
  5
C2
330
C1
100
AcDbEntity
  8
0
100
AcDbBlockBegin
  2
SYM-11
 70
     0
 10
0.0
 20
0.0
 30
0.0
  3
SYM-11
  1

  0
CIRCLE
  5
1CB
330
C1
100
AcDbEntity
  8
0
  6
CONTINUOUS
 62
     7
100
AcDbCircle
 10
1581.500000000001
 20
1866.898484809695
 30
0.0
 40
10.50000000000041
  0
CIRCLE
  5
1CC
330
C1
100
AcDbEntity
  8
0
  6
CONTINUOUS
 62
     7
100
AcDbCircle
 10
1581.500000000001
 20
1866.898484809695
 30
0.0
 40
8.66025403784441
  0
LINE
  5
1CD
330
C1
100
AcDbEntity
  8
0
  6
CONTINUOUS
 62
     7
100
AcDbLine
 10
1572.839745962157
 20
1861.898484809695
 30
0.0
 11
1572.839745962157
 21
1871.898484809694
 31
0.0
  0
LINE
  5
1CE
330
C1
100
AcDbEntity
  8
0
  6
CONTINUOUS
 62
     7
100
AcDbLine
 10
1572.839745962157
 20
1871.898484809694
 30
0.0
 11
1581.500000000001
 21
1876.898484809695
 31
0.0
  0
LINE
  5
1CF
330
C1
100
AcDbEntity
  8
0
  6
CONTINUOUS
 62
     7
100
AcDbLine
 10
1581.500000000001
 20
1876.898484809695
 30
0.0
 11
1590.160254037844
 21
1871.898484809694
 31
0.0
  0
LINE
  5
1D0
330
C1
100
AcDbEntity
  8
0
  6
CONTINUOUS
 62
     7
100
AcDbLine
 10
1590.160254037844
 20
1861.898484809695
 30
0.0
 11
1581.500000000001
 21
1856.898484809694
 31
0.0
  0
LINE
  5
1D1
330
C1
100
AcDbEntity
  8
0
  6
CONTINUOUS
 62
     7
100
AcDbLine
 10
1581.500000000001
 20
1856.898484809694
 30
0.0
 11
1572.839745962157
 21
1861.898484809695
 31
0.0
  0
CIRCLE
  5
1D2
330
C1
100
AcDbEntity
  8
0
  6
CONTINUOUS
 62
     7
100
AcDbCircle
 10
1581.500000000001
 20
1866.898484809695
 30
0.0
 40
5.0
  0
CIRCLE
  5
1D3
330
C1
100
AcDbEntity
  8
0
  6
CONTINUOUS
 62
     7
100
AcDbCircle
 10
1581.500000000001
 20
1866.898484809695
 30
0.0
 40
4.0
  0
LINE
  5
1D4
330
C1
100
AcDbEntity
  8
0
  6
CONTINUOUS
 62
     7
100
AcDbLine
 10
1590.160254037844
 20
1871.898484809694
 30
0.0
 11
1590.160254037844
 21
1861.898484809695
 31
0.0
  0
ENDBLK
  5
C3
330
C1
100
AcDbEntity
  8
0
100
AcDbBlockEnd
  0
BLOCK
  5
C5
330
C4
100
AcDbEntity
  8
0
100
AcDbBlockBegin
  2
SYM-12
 70
     0
 10
0.0
 20
0.0
 30
0.0
  3
SYM-12
  1

  0
CIRCLE
  5
1D5
330
C4
100
AcDbEntity
  8
0
  6
CONTINUOUS
 62
     7
100
AcDbCircle
 10
1106.499999999972
 20
1391.898484809727
 30
0.0
 40
10.50000000000041
  0
CIRCLE
  5
1D6
330
C4
100
AcDbEntity
  8
0
  6
CONTINUOUS
 62
     7
100
AcDbCircle
 10
1106.499999999972
 20
1391.898484809727
 30
0.0
 40
8.66025403784441
  0
LINE
  5
1D7
330
C4
100
AcDbEntity
  8
0
  6
CONTINUOUS
 62
     7
100
AcDbLine
 10
1097.839745962127
 20
1396.898484809727
 30
0.0
 11
1097.839745962127
 21
1386.898484809728
 31
0.0
  0
LINE
  5
1D8
330
C4
100
AcDbEntity
  8
0
  6
CONTINUOUS
 62
     7
100
AcDbLine
 10
1097.839745962127
 20
1386.898484809728
 30
0.0
 11
1106.499999999972
 21
1381.898484809727
 31
0.0
  0
LINE
  5
1D9
330
C4
100
AcDbEntity
  8
0
  6
CONTINUOUS
 62
     7
100
AcDbLine
 10
1106.499999999972
 20
1381.898484809727
 30
0.0
 11
1115.160254037814
 21
1386.898484809728
 31
0.0
  0
LINE
  5
1DA
330
C4
100
AcDbEntity
  8
0
  6
CONTINUOUS
 62
     7
100
AcDbLine
 10
1115.160254037814
 20
1396.898484809727
 30
0.0
 11
1106.499999999972
 21
1401.898484809728
 31
0.0
  0
LINE
  5
1DB
330
C4
100
AcDbEntity
  8
0
  6
CONTINUOUS
 62
     7
100
AcDbLine
 10
1106.499999999972
 20
1401.898484809728
 30
0.0
 11
1097.839745962127
 21
1396.898484809727
 31
0.0
  0
CIRCLE
  5
1DC
330
C4
100
AcDbEntity
  8
0
  6
CONTINUOUS
 62
     7
100
AcDbCircle
 10
1106.499999999972
 20
1391.898484809727
 30
0.0
 40
5.0
  0
CIRCLE
  5
1DD
330
C4
100
AcDbEntity
  8
0
  6
CONTINUOUS
 62
     7
100
AcDbCircle
 10
1106.499999999972
 20
1391.898484809727
 30
0.0
 40
4.0
  0
LINE
  5
1DE
330
C4
100
AcDbEntity
  8
0
  6
CONTINUOUS
 62
     7
100
AcDbLine
 10
1115.160254037814
 20
1386.898484809728
 30
0.0
 11
1115.160254037814
 21
1396.898484809727
 31
0.0
  0
ENDBLK
  5
C6
330
C4
100
AcDbEntity
  8
0
100
AcDbBlockEnd
  0
BLOCK
  5
C8
330
C7
100
AcDbEntity
  8
0
100
AcDbBlockBegin
  2
SYM-13
 70
     0
 10
0.0
 20
0.0
 30
0.0
  3
SYM-13
  1

  0
LINE
  5
1DF
330
C7
100
AcDbEntity
  8
0
  6
CONTINUOUS
 62
     7
100
AcDbLine
 10
2087.900000000007
 20
1399.398484809748
 30
0.0
 11
2087.900000000007
 21
1384.398484809748
 31
0.0
  0
ARC
  5
1E0
330
C7
100
AcDbEntity
  8
0
  6
CONTINUOUS
 62
     7
100
AcDbCircle
 10
2091.744034632046
 20
1384.398484809748
 30
0.0
 40
3.844034632034633
100
AcDbArc
 50
139.4313750266313
 51
220.5686249733714
  0
ARC
  5
1E1
330
C7
100
AcDbEntity
  8
0
  6
CONTINUOUS
 62
     7
100
AcDbCircle
 10
2101.890138528146
 20
1391.898484809748
 30
0.0
 40
13.99013852813853
100
AcDbArc
 50
159.0597243938583
 51
200.9402756061408
  0
ARC
  5
1E2
330
C7
100
AcDbEntity
  8
0
  6
CONTINUOUS
 62
     7
100
AcDbCircle
 10
2091.744034632046
 20
1399.398484809748
 30
0.0
 40
3.844034632034633
100
AcDbArc
 50
139.4313750266288
 51
220.5686249733687
  0
LINE
  5
1E3
330
C7
100
AcDbEntity
  8
0
  6
CONTINUOUS
 62
     7
100
AcDbLine
 10
2096.300000000009
 20
1381.898484809749
 30
0.0
 11
2088.824000000008
 21
1381.898484809749
 31
0.0
  0
LINE
  5
1E4
330
C7
100
AcDbEntity
  8
0
  6
CONTINUOUS
 62
     7
100
AcDbLine
 10
2096.300000000009
 20
1401.898484809748
 30
0.0
 11
2088.824000000008
 21
1401.898484809748
 31
0.0
  0
LINE
  5
1E5
330
C7
100
AcDbEntity
  8
0
  6
CONTINUOUS
 62
     7
100
AcDbLine
 10
2087.900000000007
 20
1386.898484809749
 30
0.0
 11
2082.700000000009
 21
1386.898484809749
 31
0.0
  0
LINE
  5
1E6
330
C7
100
AcDbEntity
  8
0
  6
CONTINUOUS
 62
     7
100
AcDbLine
 10
2087.900000000007
 20
1396.898484809749
 30
0.0
 11
2082.700000000009
 21
1396.898484809749
 31
0.0
  0
LINE
  5
1E7
330
C7
100
AcDbEntity
  8
0
  6
CONTINUOUS
 62
     7
100
AcDbLine
 10
2081.700000000009
 20
1387.898484809748
 30
0.0
 11
2081.700000000009
 21
1395.898484809748
 31
0.0
  0
LINE
  5
1E8
330
C7
100
AcDbEntity
  8
0
  6
CONTINUOUS
 62
     7
100
AcDbLine
 10
2082.700000000009
 20
1396.898484809749
 30
0.0
 11
2081.700000000009
 21
1395.898484809748
 31
0.0
  0
LINE
  5
1E9
330
C7
100
AcDbEntity
  8
0
  6
CONTINUOUS
 62
     7
100
AcDbLine
 10
2082.700000000009
 20
1386.898484809749
 30
0.0
 11
2081.700000000009
 21
1387.898484809748
 31
0.0
  0
LINE
  5
1EA
330
C7
100
AcDbEntity
  8
0
  6
CONTINUOUS
 62
     7
100
AcDbLine
 10
2117.396000000008
 20
1396.898484809749
 30
0.0
 11
2088.824000000008
 21
1396.898484809749
 31
0.0
  0
LINE
  5
1EB
330
C7
100
AcDbEntity
  8
0
  6
CONTINUOUS
 62
     7
100
AcDbLine
 10
2117.396000000008
 20
1386.898484809749
 30
0.0
 11
2088.824000000008
 21
1386.898484809749
 31
0.0
  0
LINE
  5
1EC
330
C7
100
AcDbEntity
  8
0
  6
CONTINUOUS
 62
     7
100
AcDbLine
 10
2106.70000000001
 20
1396.898484809749
 30
0.0
 11
2106.70000000001
 21
1386.898484809749
 31
0.0
  0
ARC
  5
1ED
330
C7
100
AcDbEntity
  8
0
  6
CONTINUOUS
 62
     7
100
AcDbCircle
 10
2113.309079545465
 20
1399.398484809748
 30
0.0
 40
4.790920454545454
100
AcDbArc
 50
328.5455606612239
 51
31.45443933877633
  0
ARC
  5
1EE
330
C7
100
AcDbEntity
  8
0
  6
CONTINUOUS
 62
     7
100
AcDbCircle
 10
2099.992318181826
 20
1391.898484809748
 30
0.0
 40
18.10768181818181
100
AcDbArc
 50
343.9708781133889
 51
16.02912188661214
  0
LINE
  5
1EF
330
C7
100
AcDbEntity
  8
0
  6
CONTINUOUS
 62
     7
100
AcDbLine
 10
2118.100000000008
 20
1384.398484809749
 30
0.0
 11
2118.100000000008
 21
1399.398484809748
 31
0.0
  0
ARC
  5
1F0
330
C7
100
AcDbEntity
  8
0
  6
CONTINUOUS
 62
     7
100
AcDbCircle
 10
2113.309079545465
 20
1384.398484809749
 30
0.0
 40
4.790920454545454
100
AcDbArc
 50
328.5455606612213
 51
31.45443933877633
  0
LINE
  5
1F1
330
C7
100
AcDbEntity
  8
0
  6
CONTINUOUS
 62
     7
100
AcDbLine
 10
2111.700000000009
 20
1381.898484809749
 30
0.0
 11
2117.396000000008
 21
1381.898484809749
 31
0.0
  0
LINE
  5
1F2
330
C7
100
AcDbEntity
  8
0
  6
CONTINUOUS
 62
     7
100
AcDbLine
 10
2111.700000000009
 20
1380.484271247377
 30
0.0
 11
2112.156881618578
 21
1380.027389628808
 31
0.0
  0
LINE
  5
1F3
330
C7
100
AcDbEntity
  8
0
  6
CONTINUOUS
 62
     7
100
AcDbLine
 10
2111.700000000003
 20
1381.191378028569
 30
0.0
 11
2112.505843406687
 21
1380.385534621882
 31
0.0
  0
LINE
  5
1F4
330
C7
100
AcDbEntity
  8
0
  6
CONTINUOUS
 62
     7
100
AcDbLine
 10
2111.699999999996
 20
1381.898484809763
 30
0.0
 11
2112.854805194814
 21
1380.743679614947
 31
0.0
  0
LINE
  5
1F5
330
C7
100
AcDbEntity
  8
0
  6
CONTINUOUS
 62
     7
100
AcDbLine
 10
2112.407106781188
 20
1381.898484809756
 30
0.0
 11
2113.203766982932
 21
1381.101824608012
 31
0.0
  0
LINE
  5
1F6
330
C7
100
AcDbEntity
  8
0
  6
CONTINUOUS
 62
     7
100
AcDbLine
 10
2113.114213562381
 20
1381.898484809749
 30
0.0
 11
2113.552728771042
 21
1381.459969601087
 31
0.0
  0
LINE
  5
1F7
330
C7
100
AcDbEntity
  8
0
  6
CONTINUOUS
 62
     7
100
AcDbLine
 10
2113.821320343563
 20
1381.898484809754
 30
0.0
 11
2113.901690559168
 21
1381.818114594151
 31
0.0
  0
LINE
  5
1F8
330
C7
100
AcDbEntity
  8
0
  6
CONTINUOUS
 62
     7
100
AcDbLine
 10
2111.70000000001
 20
1379.55848480975
 30
0.0
 11
2113.98000000001
 21
1381.898484809749
 31
0.0
  0
LINE
  5
1F9
330
C7
100
AcDbEntity
  8
0
  6
CONTINUOUS
 62
     7
100
AcDbLine
 10
2111.700000000005
 20
1379.777164466195
 30
0.0
 11
2111.807919830455
 21
1379.669244635743
 31
0.0
  0
LINE
  5
1FA
330
C7
100
AcDbEntity
  8
0
  6
CONTINUOUS
 62
     7
100
AcDbLine
 10
2113.821320343558
 20
1401.898484809738
 30
0.0
 11
2113.92924017401
 21
1402.00640464019
 31
0.0
  0
LINE
  5
1FB
330
C7
100
AcDbEntity
  8
0
  6
CONTINUOUS
 62
     7
100
AcDbLine
 10
2113.114213562376
 20
1401.898484809743
 30
0.0
 11
2113.571095180943
 21
1402.355366428311
 31
0.0
  0
LINE
  5
1FC
330
C7
100
AcDbEntity
  8
0
  6
CONTINUOUS
 62
     7
100
AcDbLine
 10
2112.407106781184
 20
1401.898484809736
 30
0.0
 11
2113.212950187867
 21
1402.704328216422
 31
0.0
  0
LINE
  5
1FD
330
C7
100
AcDbEntity
  8
0
  6
CONTINUOUS
 62
     7
100
AcDbLine
 10
2111.699999999989
 20
1401.898484809729
 30
0.0
 11
2112.854805194806
 21
1403.053290004545
 31
0.0
  0
LINE
  5
1FE
330
C7
100
AcDbEntity
  8
0
  6
CONTINUOUS
 62
     7
100
AcDbLine
 10
2111.700000000009
 20
1402.605591590935
 30
0.0
 11
2112.49666020174
 21
1403.402251792668
 31
0.0
  0
LINE
  5
1FF
330
C7
100
AcDbEntity
  8
0
  6
CONTINUOUS
 62
     7
100
AcDbLine
 10
2111.700000000013
 20
1403.312698372127
 30
0.0
 11
2112.138515208665
 21
1403.751213580778
 31
0.0
  0
LINE
  5
200
330
C7
100
AcDbEntity
  8
0
  6
CONTINUOUS
 62
     7
100
AcDbLine
 10
2111.700000000022
 20
1404.019805153321
 30
0.0
 11
2111.780370215602
 21
1404.1001753689
 31
0.0
  0
LINE
  5
201
330
C7
100
AcDbEntity
  8
0
  6
CONTINUOUS
 62
     7
100
AcDbLine
 10
2114.040000000007
 20
1401.898484809751
 30
0.0
 11
2111.700000000009
 21
1404.17848480975
 31
0.0
  0
LINE
  5
202
330
C7
100
AcDbEntity
  8
0
  6
CONTINUOUS
 62
     7
100
AcDbLine
 10
2111.700000000009
 20
1401.898484809749
 30
0.0
 11
2117.396000000008
 21
1401.898484809749
 31
0.0
  0
LINE
  5
203
330
C7
100
AcDbEntity
  8
0
  6
CONTINUOUS
 62
     7
100
AcDbLine
 10
2081.700000000009
 20
1395.898484809748
 30
0.0
 11
2087.900000000007
 21
1395.898484809748
 31
0.0
  0
LINE
  5
204
330
C7
100
AcDbEntity
  8
0
  6
CONTINUOUS
 62
     7
100
AcDbLine
 10
2082.700000000009
 20
1386.898484809749
 30
0.0
 11
2082.700000000009
 21
1396.898484809749
 31
0.0
  0
LINE
  5
205
330
C7
100
AcDbEntity
  8
0
  6
CONTINUOUS
 62
     7
100
AcDbLine
 10
2081.700000000009
 20
1387.898484809748
 30
0.0
 11
2087.900000000007
 21
1387.898484809748
 31
0.0
  0
LINE
  5
206
330
C7
100
AcDbEntity
  8
0
  6
CONTINUOUS
 62
     7
100
AcDbLine
 10
2096.300000000009
 20
1387.898484809748
 30
0.0
 11
2106.70000000001
 21
1387.898484809748
 31
0.0
  0
LINE
  5
207
330
C7
100
AcDbEntity
  8
0
  6
CONTINUOUS
 62
     7
100
AcDbLine
 10
2096.300000000009
 20
1395.898484809748
 30
0.0
 11
2106.70000000001
 21
1395.898484809748
 31
0.0
  0
LINE
  5
208
330
C7
100
AcDbEntity
  8
0
  6
CONTINUOUS
 62
     7
100
AcDbLine
 10
2106.70000000001
 20
1395.898484809748
 30
0.0
 11
2107.700000000013
 21
1396.898484809749
 31
0.0
  0
LINE
  5
209
330
C7
100
AcDbEntity
  8
0
  6
CONTINUOUS
 62
     7
100
AcDbLine
 10
2106.70000000001
 20
1387.898484809748
 30
0.0
 11
2107.700000000013
 21
1386.898484809749
 31
0.0
  0
ENDBLK
  5
C9
330
C7
100
AcDbEntity
  8
0
100
AcDbBlockEnd
  0
BLOCK
  5
CB
330
CA
100
AcDbEntity
  8
0
100
AcDbBlockBegin
  2
SYM-14
 70
     0
 10
0.0
 20
0.0
 30
0.0
  3
SYM-14
  1

  0
LINE
  5
20A
330
CA
100
AcDbEntity
  8
0
  6
CONTINUOUS
 62
     7
100
AcDbLine
 10
2082.700000000009
 20
2336.898484809749
 30
0.0
 11
2081.700000000009
 21
2337.898484809751
 31
0.0
  0
LINE
  5
20B
330
CA
100
AcDbEntity
  8
0
  6
CONTINUOUS
 62
     7
100
AcDbLine
 10
2082.700000000009
 20
2346.898484809751
 30
0.0
 11
2081.700000000009
 21
2345.898484809751
 31
0.0
  0
LINE
  5
20C
330
CA
100
AcDbEntity
  8
0
  6
CONTINUOUS
 62
     7
100
AcDbLine
 10
2081.700000000009
 20
2337.898484809751
 30
0.0
 11
2081.700000000009
 21
2345.898484809751
 31
0.0
  0
LINE
  5
20D
330
CA
100
AcDbEntity
  8
0
  6
CONTINUOUS
 62
     7
100
AcDbLine
 10
2085.900000000009
 20
2346.898484809751
 30
0.0
 11
2082.700000000009
 21
2346.898484809751
 31
0.0
  0
LINE
  5
20E
330
CA
100
AcDbEntity
  8
0
  6
CONTINUOUS
 62
     7
100
AcDbLine
 10
2085.900000000009
 20
2336.898484809749
 30
0.0
 11
2082.700000000009
 21
2336.898484809749
 31
0.0
  0
LINE
  5
20F
330
CA
100
AcDbEntity
  8
0
  6
CONTINUOUS
 62
     7
100
AcDbLine
 10
2094.300000000011
 20
2346.898484809751
 30
0.0
 11
2086.82400000001
 21
2346.898484809751
 31
0.0
  0
LINE
  5
210
330
CA
100
AcDbEntity
  8
0
  6
CONTINUOUS
 62
     7
100
AcDbLine
 10
2094.300000000011
 20
2336.898484809749
 30
0.0
 11
2086.82400000001
 21
2336.898484809749
 31
0.0
  0
LINE
  5
211
330
CA
100
AcDbEntity
  8
0
  6
CONTINUOUS
 62
     7
100
AcDbLine
 10
2094.300000000011
 20
2351.898484809749
 30
0.0
 11
2086.82400000001
 21
2351.898484809749
 31
0.0
  0
LINE
  5
212
330
CA
100
AcDbEntity
  8
0
  6
CONTINUOUS
 62
     7
100
AcDbLine
 10
2094.300000000011
 20
2331.898484809751
 30
0.0
 11
2086.82400000001
 21
2331.898484809751
 31
0.0
  0
ARC
  5
213
330
CA
100
AcDbEntity
  8
0
  6
CONTINUOUS
 62
     7
100
AcDbCircle
 10
2089.744034632045
 20
2349.398484809751
 30
0.0
 40
3.844034632034633
100
AcDbArc
 50
139.4313750265994
 51
220.5686249734146
  0
ARC
  5
214
330
CA
100
AcDbEntity
  8
0
  6
CONTINUOUS
 62
     7
100
AcDbCircle
 10
2099.890138528148
 20
2341.898484809751
 30
0.0
 40
13.99013852813853
100
AcDbArc
 50
159.0597243938601
 51
200.9402756061523
  0
ARC
  5
215
330
CA
100
AcDbEntity
  8
0
  6
CONTINUOUS
 62
     7
100
AcDbCircle
 10
2089.744034632045
 20
2334.398484809751
 30
0.0
 40
3.844034632034633
100
AcDbArc
 50
139.4313750265994
 51
220.5686249734146
  0
LINE
  5
216
330
CA
100
AcDbEntity
  8
0
  6
CONTINUOUS
 62
     7
100
AcDbLine
 10
2085.900000000009
 20
2349.398484809751
 30
0.0
 11
2085.900000000009
 21
2334.398484809751
 31
0.0
  0
LINE
  5
217
330
CA
100
AcDbEntity
  8
0
  6
CONTINUOUS
 62
     7
100
AcDbLine
 10
2094.300000000011
 20
2331.398484809751
 30
0.0
 11
2094.300000000011
 21
2352.398484809751
 31
0.0
  0
LINE
  5
218
330
CA
100
AcDbEntity
  8
0
  6
CONTINUOUS
 62
     7
100
AcDbLine
 10
2094.300000000011
 20
2352.398484809751
 30
0.0
 11
2096.300000000009
 21
2352.398484809751
 31
0.0
  0
LINE
  5
219
330
CA
100
AcDbEntity
  8
0
  6
CONTINUOUS
 62
     7
100
AcDbLine
 10
2094.300000000011
 20
2331.398484809751
 30
0.0
 11
2096.300000000009
 21
2331.398484809751
 31
0.0
  0
LINE
  5
21A
330
CA
100
AcDbEntity
  8
0
  6
CONTINUOUS
 62
     7
100
AcDbLine
 10
2117.396000000008
 20
2336.898484809749
 30
0.0
 11
2096.300000000009
 21
2336.898484809749
 31
0.0
  0
LINE
  5
21B
330
CA
100
AcDbEntity
  8
0
  6
CONTINUOUS
 62
     7
100
AcDbLine
 10
2117.396000000008
 20
2346.898484809751
 30
0.0
 11
2096.300000000009
 21
2346.898484809751
 31
0.0
  0
LINE
  5
21C
330
CA
100
AcDbEntity
  8
0
  6
CONTINUOUS
 62
     7
100
AcDbLine
 10
2106.70000000001
 20
2346.898484809751
 30
0.0
 11
2106.70000000001
 21
2336.898484809749
 31
0.0
  0
LINE
  5
21D
330
CA
100
AcDbEntity
  8
0
  6
CONTINUOUS
 62
     7
100
AcDbLine
 10
2114.040000000007
 20
2351.898484809753
 30
0.0
 11
2111.700000000009
 21
2354.178484809751
 31
0.0
  0
LINE
  5
21E
330
CA
100
AcDbEntity
  8
0
  6
CONTINUOUS
 62
     7
100
AcDbLine
 10
2111.700000000016
 20
2354.019805153318
 30
0.0
 11
2111.780370215596
 21
2354.100175368899
 31
0.0
  0
LINE
  5
21F
330
CA
100
AcDbEntity
  8
0
  6
CONTINUOUS
 62
     7
100
AcDbLine
 10
2111.70000000001
 20
2353.312698372126
 30
0.0
 11
2112.138515208673
 21
2353.751213580786
 31
0.0
  0
LINE
  5
220
330
CA
100
AcDbEntity
  8
0
  6
CONTINUOUS
 62
     7
100
AcDbLine
 10
2111.700000000014
 20
2352.605591590945
 30
0.0
 11
2112.49666020174
 21
2353.402251792665
 31
0.0
  0
LINE
  5
221
330
CA
100
AcDbEntity
  8
0
  6
CONTINUOUS
 62
     7
100
AcDbLine
 10
2111.699999999997
 20
2351.89848480974
 30
0.0
 11
2112.854805194801
 21
2353.053290004541
 31
0.0
  0
LINE
  5
222
330
CA
100
AcDbEntity
  8
0
  6
CONTINUOUS
 62
     7
100
AcDbLine
 10
2112.407106781178
 20
2351.898484809734
 30
0.0
 11
2113.212950187876
 21
2352.70432821643
 31
0.0
  0
LINE
  5
223
330
CA
100
AcDbEntity
  8
0
  6
CONTINUOUS
 62
     7
100
AcDbLine
 10
2113.114213562371
 20
2351.89848480974
 30
0.0
 11
2113.57109518094
 21
2352.355366428309
 31
0.0
  0
LINE
  5
224
330
CA
100
AcDbEntity
  8
0
  6
CONTINUOUS
 62
     7
100
AcDbLine
 10
2113.821320343565
 20
2351.898484809747
 30
0.0
 11
2113.929240174007
 21
2352.006404640187
 31
0.0
  0
LINE
  5
225
330
CA
100
AcDbEntity
  8
0
  6
CONTINUOUS
 62
     7
100
AcDbLine
 10
2111.700000000009
 20
2351.898484809749
 30
0.0
 11
2117.396000000008
 21
2351.898484809749
 31
0.0
  0
ARC
  5
226
330
CA
100
AcDbEntity
  8
0
  6
CONTINUOUS
 62
     7
100
AcDbCircle
 10
2113.309079545465
 20
2349.398484809751
 30
0.0
 40
4.790920454545454
100
AcDbArc
 50
328.5455606612239
 51
31.45443933877169
  0
LINE
  5
227
330
CA
100
AcDbEntity
  8
0
  6
CONTINUOUS
 62
     7
100
AcDbLine
 10
2118.100000000008
 20
2334.398484809751
 30
0.0
 11
2118.100000000008
 21
2349.398484809751
 31
0.0
  0
ARC
  5
228
330
CA
100
AcDbEntity
  8
0
  6
CONTINUOUS
 62
     7
100
AcDbCircle
 10
2099.992318181826
 20
2341.898484809751
 30
0.0
 40
18.10768181818181
100
AcDbArc
 50
343.9708781133803
 51
16.02912188661214
  0
ARC
  5
229
330
CA
100
AcDbEntity
  8
0
  6
CONTINUOUS
 62
     7
100
AcDbCircle
 10
2113.309079545465
 20
2334.398484809751
 30
0.0
 40
4.790920454545454
100
AcDbArc
 50
328.5455606612239
 51
31.45443933877169
  0
LINE
  5
22A
330
CA
100
AcDbEntity
  8
0
  6
CONTINUOUS
 62
     7
100
AcDbLine
 10
2111.700000000009
 20
2331.898484809751
 30
0.0
 11
2117.396000000008
 21
2331.898484809751
 31
0.0
  0
LINE
  5
22B
330
CA
100
AcDbEntity
  8
0
  6
CONTINUOUS
 62
     7
100
AcDbLine
 10
2111.70000000001
 20
2329.558484809751
 30
0.0
 11
2113.98000000001
 21
2331.898484809751
 31
0.0
  0
LINE
  5
22C
330
CA
100
AcDbEntity
  8
0
  6
CONTINUOUS
 62
     7
100
AcDbLine
 10
2113.821320343568
 20
2331.898484809751
 30
0.0
 11
2113.901690559171
 21
2331.818114594148
 31
0.0
  0
LINE
  5
22D
330
CA
100
AcDbEntity
  8
0
  6
CONTINUOUS
 62
     7
100
AcDbLine
 10
2113.114213562373
 20
2331.89848480976
 30
0.0
 11
2113.552728771049
 21
2331.459969601086
 31
0.0
  0
LINE
  5
22E
330
CA
100
AcDbEntity
  8
0
  6
CONTINUOUS
 62
     7
100
AcDbLine
 10
2112.407106781195
 20
2331.898484809753
 30
0.0
 11
2113.203766982926
 21
2331.101824608021
 31
0.0
  0
LINE
  5
22F
330
CA
100
AcDbEntity
  8
0
  6
CONTINUOUS
 62
     7
100
AcDbLine
 10
2111.699999999999
 20
2331.89848480976
 30
0.0
 11
2112.854805194814
 21
2330.743679614946
 31
0.0
  0
LINE
  5
230
330
CA
100
AcDbEntity
  8
0
  6
CONTINUOUS
 62
     7
100
AcDbLine
 10
2111.700000000009
 20
2331.191378028568
 30
0.0
 11
2112.505843406693
 21
2330.38553462188
 31
0.0
  0
LINE
  5
231
330
CA
100
AcDbEntity
  8
0
  6
CONTINUOUS
 62
     7
100
AcDbLine
 10
2111.700000000003
 20
2330.484271247386
 30
0.0
 11
2112.15688161857
 21
2330.027389628817
 31
0.0
  0
LINE
  5
232
330
CA
100
AcDbEntity
  8
0
  6
CONTINUOUS
 62
     7
100
AcDbLine
 10
2111.699999999996
 20
2329.777164466203
 30
0.0
 11
2111.807919830461
 21
2329.669244635742
 31
0.0
  0
LINE
  5
233
330
CA
100
AcDbEntity
  8
0
  6
CONTINUOUS
 62
     7
100
AcDbLine
 10
2081.700000000009
 20
2345.898484809751
 30
0.0
 11
2085.900000000009
 21
2345.898484809751
 31
0.0
  0
LINE
  5
234
330
CA
100
AcDbEntity
  8
0
  6
CONTINUOUS
 62
     7
100
AcDbLine
 10
2082.700000000009
 20
2336.898484809749
 30
0.0
 11
2082.700000000009
 21
2346.898484809751
 31
0.0
  0
LINE
  5
235
330
CA
100
AcDbEntity
  8
0
  6
CONTINUOUS
 62
     7
100
AcDbLine
 10
2081.700000000009
 20
2337.898484809751
 30
0.0
 11
2085.900000000009
 21
2337.898484809751
 31
0.0
  0
LINE
  5
236
330
CA
100
AcDbEntity
  8
0
  6
CONTINUOUS
 62
     7
100
AcDbLine
 10
2096.300000000009
 20
2337.898484809751
 30
0.0
 11
2106.70000000001
 21
2337.898484809751
 31
0.0
  0
LINE
  5
237
330
CA
100
AcDbEntity
  8
0
  6
CONTINUOUS
 62
     7
100
AcDbLine
 10
2096.300000000009
 20
2345.898484809751
 30
0.0
 11
2106.70000000001
 21
2345.898484809751
 31
0.0
  0
LINE
  5
238
330
CA
100
AcDbEntity
  8
0
  6
CONTINUOUS
 62
     7
100
AcDbLine
 10
2106.70000000001
 20
2345.898484809751
 30
0.0
 11
2107.700000000013
 21
2346.898484809751
 31
0.0
  0
LINE
  5
239
330
CA
100
AcDbEntity
  8
0
  6
CONTINUOUS
 62
     7
100
AcDbLine
 10
2106.70000000001
 20
2337.898484809751
 30
0.0
 11
2107.700000000013
 21
2336.898484809749
 31
0.0
  0
ENDBLK
  5
CC
330
CA
100
AcDbEntity
  8
0
100
AcDbBlockEnd
  0
BLOCK
  5
CE
330
CD
100
AcDbEntity
  8
0
100
AcDbBlockBegin
  2
SYM-15
 70
     0
 10
0.0
 20
0.0
 30
0.0
  3
SYM-15
  1

  0
ELLIPSE
  5
23A
330
CD
100
AcDbEntity
  8
0
  6
CONTINUOUS
 62
     7
100
AcDbEllipse
 10
2103.983333333311
 20
2325.818484809749
 30
0.0
 11
-1.067183248068677E-15
 21
-5.809475019310011
 31
0.0
210
0.0
220
0.0
230
1.0
 40
0.774596669241632
 41
0.0
 42
6.283185307179586
  0
LINE
  5
23B
330
CD
100
AcDbEntity
  8
0
  6
CONTINUOUS
 62
     7
100
AcDbLine
 10
2102.796091239608
 20
2320.21484667445
 30
0.0
 11
2100.077415255311
 21
2322.933522658749
 31
0.0
  0
LINE
  5
23C
330
CD
100
AcDbEntity
  8
0
  6
CONTINUOUS
 62
     7
100
AcDbLine
 10
2104.392121455909
 20
2320.033030020549
 30
0.0
 11
2099.542045210708
 21
2324.883106265649
 31
0.0
  0
LINE
  5
23D
330
CD
100
AcDbEntity
  8
0
  6
CONTINUOUS
 62
     7
100
AcDbLine
 10
2105.49346415551
 20
2320.34590088325
 30
0.0
 11
2099.501362682812
 21
2326.33800235595
 31
0.0
  0
LINE
  5
23E
330
CD
100
AcDbEntity
  8
0
  6
CONTINUOUS
 62
     7
100
AcDbLine
 10
2108.37262874011
 20
2324.53780411055
 30
0.0
 11
2101.925498957209
 21
2330.984933893448
 31
0.0
  0
LINE
  5
23F
330
CD
100
AcDbEntity
  8
0
  6
CONTINUOUS
 62
     7
100
AcDbLine
 10
2108.483298485009
 20
2325.841347927951
 30
0.0
 11
2102.875489384009
 21
2331.449157028949
 31
0.0
  0
LINE
  5
240
330
CD
100
AcDbEntity
  8
0
  6
CONTINUOUS
 62
     7
100
AcDbLine
 10
2108.306123516509
 20
2327.432736458849
 30
0.0
 11
2104.11332452431
 21
2331.625535451049
 31
0.0
  0
LINE
  5
241
330
CD
100
AcDbEntity
  8
0
  6
CONTINUOUS
 62
     7
100
AcDbLine
 10
2108.080432838409
 20
2323.415786449849
 30
0.0
 11
2101.157034687103
 21
2330.33918460116
 31
0.0
  0
LINE
  5
242
330
CD
100
AcDbEntity
  8
0
  6
CONTINUOUS
 62
     7
100
AcDbLine
 10
2107.643379115809
 20
2322.438626610049
 30
0.0
 11
2100.533428238039
 21
2329.548577488137
 31
0.0
  0
LINE
  5
243
330
CD
100
AcDbEntity
  8
0
  6
CONTINUOUS
 62
     7
100
AcDbLine
 10
2107.073018861209
 20
2321.594773302349
 30
0.0
 11
2100.043128320686
 21
2328.624663842553
 31
0.0
  0
LINE
  5
244
330
CD
100
AcDbEntity
  8
0
  6
CONTINUOUS
 62
     7
100
AcDbLine
 10
2106.364557874212
 20
2320.88902072695
 30
0.0
 11
2099.690929136018
 21
2327.562649465138
 31
0.0
  0
ENDBLK
  5
CF
330
CD
100
AcDbEntity
  8
0
100
AcDbBlockEnd
  0
BLOCK
  5
D1
330
D0
100
AcDbEntity
  8
0
100
AcDbBlockBegin
  2
SYM-16
 70
     0
 10
0.0
 20
0.0
 30
0.0
  3
SYM-16
  1

  0
ELLIPSE
  5
245
330
D0
100
AcDbEntity
  8
0
  6
CONTINUOUS
 62
     7
100
AcDbEllipse
 10
2103.983333333311
 20
1407.97848480975
 30
0.0
 11
-2.224197421612835E-15
 21
5.809475019310011
 31
0.0
210
0.0
220
0.0
230
1.0
 40
0.774596669241632
 41
0.0
 42
6.283185307179586
  0
LINE
  5
246
330
D0
100
AcDbEntity
  8
0
  6
CONTINUOUS
 62
     7
100
AcDbLine
 10
2102.796091239608
 20
1413.582122945049
 30
0.0
 11
2100.077415255311
 21
1410.86344696075
 31
0.0
  0
LINE
  5
247
330
D0
100
AcDbEntity
  8
0
  6
CONTINUOUS
 62
     7
100
AcDbLine
 10
2104.392121455909
 20
1413.76393959895
 30
0.0
 11
2099.542045210708
 21
1408.91386335385
 31
0.0
  0
LINE
  5
248
330
D0
100
AcDbEntity
  8
0
  6
CONTINUOUS
 62
     7
100
AcDbLine
 10
2105.49346415551
 20
1413.451068736249
 30
0.0
 11
2099.501362682812
 21
1407.45896726355
 31
0.0
  0
LINE
  5
249
330
D0
100
AcDbEntity
  8
0
  6
CONTINUOUS
 62
     7
100
AcDbLine
 10
2108.37262874011
 20
1409.25916550895
 30
0.0
 11
2101.925498957209
 21
1402.812035726049
 31
0.0
  0
LINE
  5
24A
330
D0
100
AcDbEntity
  8
0
  6
CONTINUOUS
 62
     7
100
AcDbLine
 10
2108.483298485009
 20
1407.955621691549
 30
0.0
 11
2102.875489384009
 21
1402.34781259055
 31
0.0
  0
LINE
  5
24B
330
D0
100
AcDbEntity
  8
0
  6
CONTINUOUS
 62
     7
100
AcDbLine
 10
2108.306123516509
 20
1406.364233160649
 30
0.0
 11
2104.11332452431
 21
1402.17143416845
 31
0.0
  0
LINE
  5
24C
330
D0
100
AcDbEntity
  8
0
  6
CONTINUOUS
 62
     7
100
AcDbLine
 10
2108.080432838422
 20
1410.381183169656
 30
0.0
 11
2101.157034687109
 21
1403.45778501835
 31
0.0
  0
LINE
  5
24D
330
D0
100
AcDbEntity
  8
0
  6
CONTINUOUS
 62
     7
100
AcDbLine
 10
2107.643379115807
 20
1411.358343009445
 30
0.0
 11
2100.533428237909
 21
1404.248392131549
 31
0.0
  0
LINE
  5
24E
330
D0
100
AcDbEntity
  8
0
  6
CONTINUOUS
 62
     7
100
AcDbLine
 10
2107.073018861086
 20
1412.202196317309
 30
0.0
 11
2100.043128320812
 21
1405.172305776749
 31
0.0
  0
LINE
  5
24F
330
D0
100
AcDbEntity
  8
0
  6
CONTINUOUS
 62
     7
100
AcDbLine
 10
2106.364557874177
 20
1412.907948892516
 30
0.0
 11
2099.690929136009
 21
1406.234320154349
 31
0.0
  0
ENDBLK
  5
D2
330
D0
100
AcDbEntity
  8
0
100
AcDbBlockEnd
  0
BLOCK
  5
408
330
407
100
AcDbEntity
  8
0
100
AcDbBlockBegin
  2
*D31
 70
     1
 10
0.0
 20
0.0
 30
0.0
  3
*D31
  1

  0
LINE
  5
40A
330
407
100
AcDbEntity
  8
LAY-20
  6
CONTINUOUS
 62
     4
100
AcDbLine
 10
601.5000000000903
 20
925.8984848097069
 30
0.0
 11
601.5000000000903
 21
1095.8984848098
 31
0.0
  0
LINE
  5
40B
330
407
100
AcDbEntity
  8
LAY-20
  6
CONTINUOUS
 62
     4
100
AcDbLine
 10
1611.5000000001
 20
925.8984848097069
 30
0.0
 11
1611.5000000001
 21
1095.8984848098
 31
0.0
  0
LINE
  5
40C
330
407
100
AcDbEntity
  8
LAY-20
  6
CONTINUOUS
 62
     4
100
AcDbLine
 10
626.5000000000903
 20
1080.8984848098
 30
0.0
 11
1586.5000000001
 21
1080.8984848098
 31
0.0
  0
INSERT
  5
40D
330
407
100
AcDbEntity
  8
LAY-20
 62
     4
100
AcDbBlockReference
  2
EX_BNORM
 10
601.5000000000903
 20
1080.8984848098
 30
0.0
 41
25.0
 42
25.0
 43
25.0
 50
180.0
  0
INSERT
  5
40E
330
407
100
AcDbEntity
  8
LAY-20
 62
     4
100
AcDbBlockReference
  2
EX_BNORM
 10
1611.5000000001
 20
1080.8984848098
 30
0.0
 41
25.0
 42
25.0
 43
25.0
  0
MTEXT
  5
40F
330
407
100
AcDbEntity
  8
LAY-20
 62
     7
100
AcDbMText
 10
1106.500000000095
 20
1105.8984848098
 30
0.0
 40
31.181104
 41
0.0
 71
     5
 72
     1
  1
1010
  7
EXCADDIM1
  0
POINT
  5
410
330
407
100
AcDbEntity
  8
DEFPOINTS
 62
     0
100
AcDbPoint
 10
601.5000000000903
 20
910.8984848097069
 30
0.0
  0
POINT
  5
411
330
407
100
AcDbEntity
  8
DEFPOINTS
 62
     0
100
AcDbPoint
 10
1611.5000000001
 20
910.8984848097069
 30
0.0
  0
POINT
  5
412
330
407
100
AcDbEntity
  8
DEFPOINTS
 62
     0
100
AcDbPoint
 10
1611.5000000001
 20
1080.8984848098
 30
0.0
  0
ENDBLK
  5
409
330
407
100
AcDbEntity
  8
0
100
AcDbBlockEnd
  0
BLOCK
  5
415
330
414
100
AcDbEntity
  8
0
100
AcDbBlockBegin
  2
*D32
 70
     1
 10
0.0
 20
0.0
 30
0.0
  3
*D32
  1

  0
LINE
  5
417
330
414
100
AcDbEntity
  8
LAY-20
  6
CONTINUOUS
 62
     4
100
AcDbLine
 10
1105.500000000075
 20
925.8984848097564
 30
0.0
 11
1105.500000000075
 21
1025.89848480976
 31
0.0
  0
LINE
  5
418
330
414
100
AcDbEntity
  8
LAY-20
  6
CONTINUOUS
 62
     4
100
AcDbLine
 10
617.5000000000757
 20
925.8984848097564
 30
0.0
 11
617.5000000000757
 21
1025.89848480976
 31
0.0
  0
LINE
  5
419
330
414
100
AcDbEntity
  8
LAY-20
  6
CONTINUOUS
 62
     4
100
AcDbLine
 10
1080.500000000075
 20
1010.89848480976
 30
0.0
 11
642.5000000000757
 21
1010.89848480976
 31
0.0
  0
INSERT
  5
41A
330
414
100
AcDbEntity
  8
LAY-20
 62
     4
100
AcDbBlockReference
  2
EX_BNORM
 10
1105.500000000075
 20
1010.89848480976
 30
0.0
 41
25.0
 42
25.0
 43
25.0
  0
INSERT
  5
41B
330
414
100
AcDbEntity
  8
LAY-20
 62
     4
100
AcDbBlockReference
  2
EX_BNORM
 10
617.5000000000757
 20
1010.89848480976
 30
0.0
 41
25.0
 42
25.0
 43
25.0
 50
180.0
  0
MTEXT
  5
41C
330
414
100
AcDbEntity
  8
LAY-20
 62
     7
100
AcDbMText
 10
861.5000000000756
 20
1035.89848480976
 30
0.0
 40
31.181104
 41
0.0
 71
     5
 72
     1
  1
488
  7
EXCADDIM1
  0
POINT
  5
41D
330
414
100
AcDbEntity
  8
DEFPOINTS
 62
     0
100
AcDbPoint
 10
1105.500000000075
 20
910.8984848097564
 30
0.0
  0
POINT
  5
41E
330
414
100
AcDbEntity
  8
DEFPOINTS
 62
     0
100
AcDbPoint
 10
617.5000000000757
 20
910.8984848097564
 30
0.0
  0
POINT
  5
41F
330
414
100
AcDbEntity
  8
DEFPOINTS
 62
     0
100
AcDbPoint
 10
617.5000000000757
 20
1010.89848480976
 30
0.0
  0
ENDBLK
  5
416
330
414
100
AcDbEntity
  8
0
100
AcDbBlockEnd
  0
BLOCK
  5
422
330
421
100
AcDbEntity
  8
0
100
AcDbBlockBegin
  2
*D33
 70
     1
 10
0.0
 20
0.0
 30
0.0
  3
*D33
  1

  0
LINE
  5
424
330
421
100
AcDbEntity
  8
LAY-20
  6
CONTINUOUS
 62
     4
100
AcDbLine
 10
656.5000000001
 20
765.8984848097072
 30
0.0
 11
656.5000000001
 21
665.8984848097601
 31
0.0
  0
LINE
  5
425
330
421
100
AcDbEntity
  8
LAY-20
  6
CONTINUOUS
 62
     4
100
AcDbLine
 10
1556.5000000001
 20
765.8984848097072
 30
0.0
 11
1556.5000000001
 21
665.8984848097601
 31
0.0
  0
LINE
  5
426
330
421
100
AcDbEntity
  8
LAY-20
  6
CONTINUOUS
 62
     4
100
AcDbLine
 10
681.5000000001
 20
680.8984848097601
 30
0.0
 11
1531.5000000001
 21
680.8984848097601
 31
0.0
  0
INSERT
  5
427
330
421
100
AcDbEntity
  8
LAY-20
 62
     4
100
AcDbBlockReference
  2
EX_BNORM
 10
656.5000000001
 20
680.8984848097601
 30
0.0
 41
25.0
 42
25.0
 43
25.0
 50
180.0
  0
INSERT
  5
428
330
421
100
AcDbEntity
  8
LAY-20
 62
     4
100
AcDbBlockReference
  2
EX_BNORM
 10
1556.5000000001
 20
680.8984848097601
 30
0.0
 41
25.0
 42
25.0
 43
25.0
  0
MTEXT
  5
429
330
421
100
AcDbEntity
  8
LAY-20
 62
     7
100
AcDbMText
 10
1106.5000000001
 20
705.8984848097601
 30
0.0
 40
31.181104
 41
0.0
 71
     5
 72
     1
  1
900
  7
EXCADDIM1
  0
POINT
  5
42A
330
421
100
AcDbEntity
  8
DEFPOINTS
 62
     0
100
AcDbPoint
 10
656.5000000001
 20
780.8984848097072
 30
0.0
  0
POINT
  5
42B
330
421
100
AcDbEntity
  8
DEFPOINTS
 62
     0
100
AcDbPoint
 10
1556.5000000001
 20
780.8984848097072
 30
0.0
  0
POINT
  5
42C
330
421
100
AcDbEntity
  8
DEFPOINTS
 62
     0
100
AcDbPoint
 10
1556.5000000001
 20
680.8984848097601
 30
0.0
  0
ENDBLK
  5
423
330
421
100
AcDbEntity
  8
0
100
AcDbBlockEnd
  0
BLOCK
  5
42F
330
42E
100
AcDbEntity
  8
0
100
AcDbBlockBegin
  2
*D34
 70
     1
 10
0.0
 20
0.0
 30
0.0
  3
*D34
  1

  0
LINE
  5
431
330
42E
100
AcDbEntity
  8
LAY-20
  6
CONTINUOUS
 62
     4
100
AcDbLine
 10
1626.5000000001
 20
910.8984848097069
 30
0.0
 11
1754.0
 21
910.8984848097069
 31
0.0
  0
LINE
  5
432
330
42E
100
AcDbEntity
  8
LAY-20
  6
CONTINUOUS
 62
     4
100
AcDbLine
 10
1614.7000000001
 20
810.8984848097069
 30
0.0
 11
1754.0
 21
810.8984848097069
 31
0.0
  0
LINE
  5
433
330
42E
100
AcDbEntity
  8
LAY-20
  6
CONTINUOUS
 62
     4
100
AcDbLine
 10
1739.0
 20
885.8984848097069
 30
0.0
 11
1739.0
 21
835.8984848097069
 31
0.0
  0
INSERT
  5
434
330
42E
100
AcDbEntity
  8
LAY-20
 62
     4
100
AcDbBlockReference
  2
EX_BNORM
 10
1739.0
 20
910.8984848097069
 30
0.0
 41
25.0
 42
25.0
 43
25.0
 50
90.0
  0
INSERT
  5
435
330
42E
100
AcDbEntity
  8
LAY-20
 62
     4
100
AcDbBlockReference
  2
EX_BNORM
 10
1739.0
 20
810.8984848097069
 30
0.0
 41
25.0
 42
25.0
 43
25.0
 50
270.0
  0
MTEXT
  5
436
330
42E
100
AcDbEntity
  8
LAY-20
 62
     7
100
AcDbMText
 10
1714.0
 20
860.8984848097068
 30
0.0
 40
31.181104
 41
0.0
 71
     5
 72
     1
  1
100
  7
EXCADDIM1
 11
0.0
 21
1.0
 31
0.0
  0
POINT
  5
437
330
42E
100
AcDbEntity
  8
DEFPOINTS
 62
     0
100
AcDbPoint
 10
1611.5000000001
 20
910.8984848097069
 30
0.0
  0
POINT
  5
438
330
42E
100
AcDbEntity
  8
DEFPOINTS
 62
     0
100
AcDbPoint
 10
1599.7000000001
 20
810.8984848097069
 30
0.0
  0
POINT
  5
439
330
42E
100
AcDbEntity
  8
DEFPOINTS
 62
     0
100
AcDbPoint
 10
1739.0
 20
810.8984848097069
 30
0.0
  0
ENDBLK
  5
430
330
42E
100
AcDbEntity
  8
0
100
AcDbBlockEnd
  0
BLOCK
  5
43C
330
43B
100
AcDbEntity
  8
0
100
AcDbBlockBegin
  2
*D35
 70
     1
 10
0.0
 20
0.0
 30
0.0
  3
*D35
  1

  0
LINE
  5
43E
330
43B
100
AcDbEntity
  8
LAY-20
  6
CONTINUOUS
 62
     4
100
AcDbLine
 10
1996.500000000033
 20
2408.898484809733
 30
0.0
 11
1826.500000000033
 21
2408.898484809733
 31
0.0
  0
LINE
  5
43F
330
43B
100
AcDbEntity
  8
LAY-20
  6
CONTINUOUS
 62
     4
100
AcDbLine
 10
1996.500000000033
 20
1324.898484809733
 30
0.0
 11
1826.500000000033
 21
1324.898484809733
 31
0.0
  0
LINE
  5
440
330
43B
100
AcDbEntity
  8
LAY-20
  6
CONTINUOUS
 62
     4
100
AcDbLine
 10
1841.500000000033
 20
2383.898484809733
 30
0.0
 11
1841.500000000033
 21
1349.898484809733
 31
0.0
  0
INSERT
  5
441
330
43B
100
AcDbEntity
  8
LAY-20
 62
     4
100
AcDbBlockReference
  2
EX_BNORM
 10
1841.500000000033
 20
2408.898484809733
 30
0.0
 41
25.0
 42
25.0
 43
25.0
 50
90.0
  0
INSERT
  5
442
330
43B
100
AcDbEntity
  8
LAY-20
 62
     4
100
AcDbBlockReference
  2
EX_BNORM
 10
1841.500000000033
 20
1324.898484809733
 30
0.0
 41
25.0
 42
25.0
 43
25.0
 50
270.0
  0
MTEXT
  5
443
330
43B
100
AcDbEntity
  8
LAY-20
 62
     7
100
AcDbMText
 10
1816.500000000033
 20
1866.898484809733
 30
0.0
 40
31.181104
 41
0.0
 71
     5
 72
     1
  1
1084
  7
EXCADDIM1
 11
0.0
 21
1.0
 31
0.0
  0
POINT
  5
444
330
43B
100
AcDbEntity
  8
DEFPOINTS
 62
     0
100
AcDbPoint
 10
2011.500000000033
 20
2408.898484809733
 30
0.0
  0
POINT
  5
445
330
43B
100
AcDbEntity
  8
DEFPOINTS
 62
     0
100
AcDbPoint
 10
2011.500000000033
 20
1324.898484809733
 30
0.0
  0
POINT
  5
446
330
43B
100
AcDbEntity
  8
DEFPOINTS
 62
     0
100
AcDbPoint
 10
1841.500000000033
 20
1324.898484809733
 30
0.0
  0
ENDBLK
  5
43D
330
43B
100
AcDbEntity
  8
0
100
AcDbBlockEnd
  0
BLOCK
  5
449
330
448
100
AcDbEntity
  8
0
100
AcDbBlockBegin
  2
*D36
 70
     1
 10
0.0
 20
0.0
 30
0.0
  3
*D36
  1

  0
LINE
  5
44B
330
448
100
AcDbEntity
  8
LAY-20
  6
CONTINUOUS
 62
     4
100
AcDbLine
 10
1996.500000000012
 20
1340.898484809748
 30
0.0
 11
1896.500000000033
 21
1340.898484809748
 31
0.0
  0
LINE
  5
44C
330
448
100
AcDbEntity
  8
LAY-20
  6
CONTINUOUS
 62
     4
100
AcDbLine
 10
1996.500000000012
 20
2392.898484809751
 30
0.0
 11
1896.500000000033
 21
2392.898484809751
 31
0.0
  0
LINE
  5
44D
330
448
100
AcDbEntity
  8
LAY-20
  6
CONTINUOUS
 62
     4
100
AcDbLine
 10
1911.500000000033
 20
1365.898484809748
 30
0.0
 11
1911.500000000033
 21
2367.898484809751
 31
0.0
  0
INSERT
  5
44E
330
448
100
AcDbEntity
  8
LAY-20
 62
     4
100
AcDbBlockReference
  2
EX_BNORM
 10
1911.500000000033
 20
1340.898484809748
 30
0.0
 41
25.0
 42
25.0
 43
25.0
 50
270.0
  0
INSERT
  5
44F
330
448
100
AcDbEntity
  8
LAY-20
 62
     4
100
AcDbBlockReference
  2
EX_BNORM
 10
1911.500000000033
 20
2392.898484809751
 30
0.0
 41
25.0
 42
25.0
 43
25.0
 50
90.0
  0
MTEXT
  5
450
330
448
100
AcDbEntity
  8
LAY-20
 62
     7
100
AcDbMText
 10
1886.500000000033
 20
1866.898484809749
 30
0.0
 40
31.181104
 41
0.0
 71
     5
 72
     1
  1
1052
  7
EXCADDIM1
 11
0.0
 21
1.0
 31
0.0
  0
POINT
  5
451
330
448
100
AcDbEntity
  8
DEFPOINTS
 62
     0
100
AcDbPoint
 10
2011.500000000012
 20
1340.898484809748
 30
0.0
  0
POINT
  5
452
330
448
100
AcDbEntity
  8
DEFPOINTS
 62
     0
100
AcDbPoint
 10
2011.500000000012
 20
2392.898484809751
 30
0.0
  0
POINT
  5
453
330
448
100
AcDbEntity
  8
DEFPOINTS
 62
     0
100
AcDbPoint
 10
1911.500000000033
 20
2392.898484809751
 30
0.0
  0
ENDBLK
  5
44A
330
448
100
AcDbEntity
  8
0
100
AcDbBlockEnd
  0
BLOCK
  5
456
330
455
100
AcDbEntity
  8
0
100
AcDbBlockBegin
  2
*D37
 70
     1
 10
0.0
 20
0.0
 30
0.0
  3
*D37
  1

  0
LINE
  5
458
330
455
100
AcDbEntity
  8
LAY-20
  6
CONTINUOUS
 62
     4
100
AcDbLine
 10
2156.700000000033
 20
2316.898484809633
 30
0.0
 11
2256.700000000033
 21
2316.898484809632
 31
0.0
  0
LINE
  5
459
330
455
100
AcDbEntity
  8
LAY-20
  6
CONTINUOUS
 62
     4
100
AcDbLine
 10
2156.700000000033
 20
1416.898484809733
 30
0.0
 11
2256.700000000033
 21
1416.898484809733
 31
0.0
  0
LINE
  5
45A
330
455
100
AcDbEntity
  8
LAY-20
  6
CONTINUOUS
 62
     4
100
AcDbLine
 10
2241.700000000033
 20
2291.898484809632
 30
0.0
 11
2241.700000000033
 21
1441.898484809733
 31
0.0
  0
INSERT
  5
45B
330
455
100
AcDbEntity
  8
LAY-20
 62
     4
100
AcDbBlockReference
  2
EX_BNORM
 10
2241.700000000033
 20
2316.898484809632
 30
0.0
 41
25.0
 42
25.0
 43
25.0
 50
90.0
  0
INSERT
  5
45C
330
455
100
AcDbEntity
  8
LAY-20
 62
     4
100
AcDbBlockReference
  2
EX_BNORM
 10
2241.700000000033
 20
1416.898484809733
 30
0.0
 41
25.0
 42
25.0
 43
25.0
 50
270.0
  0
MTEXT
  5
45D
330
455
100
AcDbEntity
  8
LAY-20
 62
     7
100
AcDbMText
 10
2216.700000000033
 20
1866.898484809683
 30
0.0
 40
31.181104
 41
0.0
 71
     5
 72
     1
  1
900
  7
EXCADDIM1
 11
0.0
 21
1.0
 31
0.0
  0
POINT
  5
45E
330
455
100
AcDbEntity
  8
DEFPOINTS
 62
     0
100
AcDbPoint
 10
2141.700000000033
 20
2316.898484809633
 30
0.0
  0
POINT
  5
45F
330
455
100
AcDbEntity
  8
DEFPOINTS
 62
     0
100
AcDbPoint
 10
2141.700000000033
 20
1416.898484809733
 30
0.0
  0
POINT
  5
460
330
455
100
AcDbEntity
  8
DEFPOINTS
 62
     0
100
AcDbPoint
 10
2241.700000000033
 20
1416.898484809733
 30
0.0
  0
ENDBLK
  5
457
330
455
100
AcDbEntity
  8
0
100
AcDbBlockEnd
  0
BLOCK
  5
463
330
462
100
AcDbEntity
  8
0
100
AcDbBlockBegin
  2
*D38
 70
     1
 10
0.0
 20
0.0
 30
0.0
  3
*D38
  1

  0
LINE
  5
465
330
462
100
AcDbEntity
  8
LAY-20
  6
CONTINUOUS
 62
     4
100
AcDbLine
 10
2073.900000000033
 20
2400.098484809733
 30
0.0
 11
2326.700000000033
 21
2400.098484809732
 31
0.0
  0
LINE
  5
466
330
462
100
AcDbEntity
  8
LAY-20
  6
CONTINUOUS
 62
     4
100
AcDbLine
 10
2073.900000000033
 20
1333.698484809733
 30
0.0
 11
2326.700000000033
 21
1333.698484809733
 31
0.0
  0
LINE
  5
467
330
462
100
AcDbEntity
  8
LAY-20
  6
CONTINUOUS
 62
     4
100
AcDbLine
 10
2311.700000000033
 20
2375.098484809732
 30
0.0
 11
2311.700000000033
 21
1358.698484809733
 31
0.0
  0
INSERT
  5
468
330
462
100
AcDbEntity
  8
LAY-20
 62
     4
100
AcDbBlockReference
  2
EX_BNORM
 10
2311.700000000033
 20
2400.098484809732
 30
0.0
 41
25.0
 42
25.0
 43
25.0
 50
90.0
  0
INSERT
  5
469
330
462
100
AcDbEntity
  8
LAY-20
 62
     4
100
AcDbBlockReference
  2
EX_BNORM
 10
2311.700000000033
 20
1333.698484809733
 30
0.0
 41
25.0
 42
25.0
 43
25.0
 50
270.0
  0
MTEXT
  5
46A
330
462
100
AcDbEntity
  8
LAY-20
 62
     7
100
AcDbMText
 10
2286.700000000033
 20
1866.898484809733
 30
0.0
 40
31.181104
 41
0.0
 71
     5
 72
     1
  1
1066
  7
EXCADDIM1
 11
0.0
 21
1.0
 31
0.0
  0
POINT
  5
46B
330
462
100
AcDbEntity
  8
DEFPOINTS
 62
     0
100
AcDbPoint
 10
2058.900000000033
 20
2400.098484809733
 30
0.0
  0
POINT
  5
46C
330
462
100
AcDbEntity
  8
DEFPOINTS
 62
     0
100
AcDbPoint
 10
2058.900000000033
 20
1333.698484809733
 30
0.0
  0
POINT
  5
46D
330
462
100
AcDbEntity
  8
DEFPOINTS
 62
     0
100
AcDbPoint
 10
2311.700000000033
 20
1333.698484809733
 30
0.0
  0
ENDBLK
  5
464
330
462
100
AcDbEntity
  8
0
100
AcDbBlockEnd
  0
BLOCK
  5
470
330
46F
100
AcDbEntity
  8
0
100
AcDbBlockBegin
  2
*D39
 70
     1
 10
0.0
 20
0.0
 30
0.0
  3
*D39
  1

  0
LINE
  5
472
330
46F
100
AcDbEntity
  8
LAY-20
  6
CONTINUOUS
 62
     4
100
AcDbLine
 10
1286.5
 20
875.8984848097601
 30
0.0
 11
1370.0
 21
875.8984848097601
 31
0.0
  0
LINE
  5
473
330
46F
100
AcDbEntity
  8
LAY-20
  6
CONTINUOUS
 62
     4
100
AcDbLine
 10
1355.0
 20
875.8984848097601
 30
0.0
 11
1355.0
 21
910.8984848097601
 31
0.0
  0
LINE
  5
474
330
46F
100
AcDbEntity
  8
LAY-20
  6
CONTINUOUS
 62
     4
100
AcDbLine
 10
1355.0
 20
850.8984848097601
 30
0.0
 11
1355.0
 21
825.8984848097601
 31
0.0
  0
LINE
  5
475
330
46F
100
AcDbEntity
  8
LAY-20
  6
CONTINUOUS
 62
     4
100
AcDbLine
 10
1355.0
 20
935.8984848097601
 30
0.0
 11
1355.0
 21
960.8984848097601
 31
0.0
  0
INSERT
  5
476
330
46F
100
AcDbEntity
  8
LAY-20
 62
     4
100
AcDbBlockReference
  2
EX_BNORM
 10
1355.0
 20
875.8984848097601
 30
0.0
 41
25.0
 42
25.0
 43
25.0
 50
90.0
  0
INSERT
  5
477
330
46F
100
AcDbEntity
  8
LAY-20
 62
     4
100
AcDbBlockReference
  2
EX_BNORM
 10
1355.0
 20
910.8984848097601
 30
0.0
 41
25.0
 42
25.0
 43
25.0
 50
270.0
  0
MTEXT
  5
478
330
46F
100
AcDbEntity
  8
LAY-20
 62
     7
100
AcDbMText
 10
1330.0
 20
970.8984848097597
 30
0.0
 40
31.181104
 41
0.0
 71
     5
 72
     1
  1
35
  7
EXCADDIM1
 11
0.0
 21
1.0
 31
0.0
  0
POINT
  5
479
330
46F
100
AcDbEntity
  8
DEFPOINTS
 62
     0
100
AcDbPoint
 10
1271.5
 20
875.8984848097601
 30
0.0
  0
POINT
  5
47A
330
46F
100
AcDbEntity
  8
DEFPOINTS
 62
     0
100
AcDbPoint
 10
1355.0
 20
910.8984848097601
 30
0.0
  0
POINT
  5
47B
330
46F
100
AcDbEntity
  8
DEFPOINTS
 62
     0
100
AcDbPoint
 10
1355.0
 20
910.8984848097601
 30
0.0
  0
ENDBLK
  5
471
330
46F
100
AcDbEntity
  8
0
100
AcDbBlockEnd
  0
BLOCK
  5
47E
330
47D
100
AcDbEntity
  8
0
100
AcDbBlockBegin
  2
*D40
 70
     1
 10
0.0
 20
0.0
 30
0.0
  3
*D40
  1

  0
LINE
  5
480
330
47D
100
AcDbEntity
  8
LAY-20
  6
CONTINUOUS
 62
     4
100
AcDbLine
 10
610.30000000008
 20
798.8984848097601
 30
0.0
 11
610.30000000008
 21
595.89848480976
 31
0.0
  0
LINE
  5
481
330
47D
100
AcDbEntity
  8
LAY-20
  6
CONTINUOUS
 62
     4
100
AcDbLine
 10
1602.7000000001
 20
798.8984848097601
 30
0.0
 11
1602.7000000001
 21
595.89848480976
 31
0.0
  0
LINE
  5
482
330
47D
100
AcDbEntity
  8
LAY-20
  6
CONTINUOUS
 62
     4
100
AcDbLine
 10
635.30000000008
 20
610.89848480976
 30
0.0
 11
1577.7000000001
 21
610.89848480976
 31
0.0
  0
INSERT
  5
483
330
47D
100
AcDbEntity
  8
LAY-20
 62
     4
100
AcDbBlockReference
  2
EX_BNORM
 10
610.30000000008
 20
610.89848480976
 30
0.0
 41
25.0
 42
25.0
 43
25.0
 50
180.0
  0
INSERT
  5
484
330
47D
100
AcDbEntity
  8
LAY-20
 62
     4
100
AcDbBlockReference
  2
EX_BNORM
 10
1602.7000000001
 20
610.89848480976
 30
0.0
 41
25.0
 42
25.0
 43
25.0
  0
MTEXT
  5
485
330
47D
100
AcDbEntity
  8
LAY-20
 62
     7
100
AcDbMText
 10
1106.50000000009
 20
635.89848480976
 30
0.0
 40
31.181104
 41
0.0
 71
     5
 72
     1
  1
992
  7
EXCADDIM1
  0
POINT
  5
486
330
47D
100
AcDbEntity
  8
DEFPOINTS
 62
     0
100
AcDbPoint
 10
610.30000000008
 20
813.8984848097601
 30
0.0
  0
POINT
  5
487
330
47D
100
AcDbEntity
  8
DEFPOINTS
 62
     0
100
AcDbPoint
 10
1602.7000000001
 20
813.8984848097601
 30
0.0
  0
POINT
  5
488
330
47D
100
AcDbEntity
  8
DEFPOINTS
 62
     0
100
AcDbPoint
 10
1602.7000000001
 20
610.89848480976
 30
0.0
  0
ENDBLK
  5
47F
330
47D
100
AcDbEntity
  8
0
100
AcDbBlockEnd
  0
ENDSEC
  0
SECTION
  2
ENTITIES
  0
INSERT
  5
250
330
1F
100
AcDbEntity
  8
LAY-10
  6
CONTINUOUS
 62
     0
100
AcDbBlockReference
  2
SYM-1
 10
0.0
 20
0.0
 30
0.0
  0
INSERT
  5
251
330
1F
100
AcDbEntity
  8
LAY-10
  6
CONTINUOUS
 62
     0
100
AcDbBlockReference
  2
SYM-2
 10
0.0
 20
0.0
 30
0.0
  0
INSERT
  5
252
330
1F
100
AcDbEntity
  8
LAY-10
  6
CONTINUOUS
 62
     0
100
AcDbBlockReference
  2
SYM-3
 10
0.0
 20
0.0
 30
0.0
  0
INSERT
  5
253
330
1F
100
AcDbEntity
  8
LAY-10
  6
CONTINUOUS
 62
     0
100
AcDbBlockReference
  2
SYM-4
 10
0.0
 20
0.0
 30
0.0
  0
INSERT
  5
254
330
1F
100
AcDbEntity
  8
LAY-10
  6
CONTINUOUS
 62
     0
100
AcDbBlockReference
  2
SYM-5
 10
0.0
 20
0.0
 30
0.0
  0
INSERT
  5
255
330
1F
100
AcDbEntity
  8
LAY-10
  6
CONTINUOUS
 62
     0
100
AcDbBlockReference
  2
SYM-6
 10
0.0
 20
0.0
 30
0.0
  0
INSERT
  5
256
330
1F
100
AcDbEntity
  8
LAY-10
  6
CONTINUOUS
 62
     0
100
AcDbBlockReference
  2
SYM-7
 10
0.0
 20
0.0
 30
0.0
  0
INSERT
  5
257
330
1F
100
AcDbEntity
  8
LAY-10
  6
CONTINUOUS
 62
     0
100
AcDbBlockReference
  2
SYM-8
 10
0.0
 20
0.0
 30
0.0
  0
INSERT
  5
258
330
1F
100
AcDbEntity
  8
LAY-20
  6
CONTINUOUS
 62
     0
100
AcDbBlockReference
  2
SYM-9
 10
0.0
 20
0.0
 30
0.0
  0
INSERT
  5
259
330
1F
100
AcDbEntity
  8
LAY-20
  6
CONTINUOUS
 62
     0
100
AcDbBlockReference
  2
SYM-10
 10
0.0
 20
0.0
 30
0.0
  0
INSERT
  5
25A
330
1F
100
AcDbEntity
  8
LAY-20
  6
CONTINUOUS
 62
     0
100
AcDbBlockReference
  2
SYM-11
 10
0.0
 20
0.0
 30
0.0
  0
INSERT
  5
25B
330
1F
100
AcDbEntity
  8
LAY-20
  6
CONTINUOUS
 62
     0
100
AcDbBlockReference
  2
SYM-12
 10
0.0
 20
0.0
 30
0.0
  0
INSERT
  5
25C
330
1F
100
AcDbEntity
  8
LAY-10
  6
CONTINUOUS
 62
     0
100
AcDbBlockReference
  2
SYM-13
 10
0.0
 20
0.0
 30
0.0
  0
INSERT
  5
25D
330
1F
100
AcDbEntity
  8
LAY-10
  6
CONTINUOUS
 62
     0
100
AcDbBlockReference
  2
SYM-14
 10
0.0
 20
0.0
 30
0.0
  0
INSERT
  5
25E
330
1F
100
AcDbEntity
  8
LAY-10
  6
CONTINUOUS
 62
     0
100
AcDbBlockReference
  2
SYM-15
 10
0.0
 20
0.0
 30
0.0
  0
INSERT
  5
25F
330
1F
100
AcDbEntity
  8
LAY-10
  6
CONTINUOUS
 62
     0
100
AcDbBlockReference
  2
SYM-16
 10
0.0
 20
0.0
 30
0.0
  0
LINE
  5
260
330
1F
100
AcDbEntity
  8
LAY-10
  6
CONTINUOUS
 62
     7
100
AcDbLine
 10
2108.500000000012
 20
2335.898484809751
 30
0.0
 11
2111.700000000009
 21
2335.898484809751
 31
0.0
  0
LINE
  5
261
330
1F
100
AcDbEntity
  8
LAY-10
  6
CONTINUOUS
 62
     7
100
AcDbLine
 10
2108.500000000012
 20
2347.898484809751
 30
0.0
 11
2111.700000000009
 21
2347.898484809751
 31
0.0
  0
LINE
  5
262
330
1F
100
AcDbEntity
  8
LAY-10
  6
CONTINUOUS
 62
     7
100
AcDbLine
 10
2099.500000000009
 20
2335.898484809751
 30
0.0
 11
2096.300000000009
 21
2335.898484809751
 31
0.0
  0
LINE
  5
263
330
1F
100
AcDbEntity
  8
LAY-10
  6
CONTINUOUS
 62
     7
100
AcDbLine
 10
2099.500000000009
 20
2347.898484809751
 30
0.0
 11
2096.300000000009
 21
2347.898484809751
 31
0.0
  0
LINE
  5
264
330
1F
100
AcDbEntity
  8
LAY-10
  6
CONTINUOUS
 62
     7
100
AcDbLine
 10
2108.500000000012
 20
2353.898484809751
 30
0.0
 11
2099.300000000008
 21
2353.898484809751
 31
0.0
  0
LINE
  5
265
330
1F
100
AcDbEntity
  8
LAY-10
  6
CONTINUOUS
 62
     7
100
AcDbLine
 10
2108.500000000012
 20
2350.898484809751
 30
0.0
 11
2099.500000000009
 21
2350.898484809751
 31
0.0
  0
ARC
  5
266
330
1F
100
AcDbEntity
  8
LAY-10
  6
CONTINUOUS
 62
     7
100
AcDbCircle
 10
2108.700000000011
 20
2357.098484809751
 30
0.0
 40
3.000000000000003
100
AcDbArc
 50
0.0
 51
90.00000000000001
  0
ARC
  5
267
330
1F
100
AcDbEntity
  8
LAY-10
  6
CONTINUOUS
 62
     7
100
AcDbCircle
 10
2099.300000000008
 20
2350.898484809751
 30
0.0
 40
3.000000000000003
100
AcDbArc
 50
90.00000000000001
 51
180.0
  0
ARC
  5
268
330
1F
100
AcDbEntity
  8
LAY-10
  6
CONTINUOUS
 62
     7
100
AcDbCircle
 10
2058.70000000001
 20
2393.898484809751
 30
0.0
 40
3.000000000000003
100
AcDbArc
 50
0.0
 51
90.00000000000001
  0
ARC
  5
269
330
1F
100
AcDbEntity
  8
LAY-10
  6
CONTINUOUS
 62
     7
100
AcDbCircle
 10
2058.900000000008
 20
2394.098484809748
 30
0.0
 40
6.000000000000005
100
AcDbArc
 50
0.0
 51
90.00000000000001
  0
ARC
  5
26A
330
1F
100
AcDbEntity
  8
LAY-10
  6
CONTINUOUS
 62
     7
100
AcDbCircle
 10
2064.70000000001
 20
2359.898484809751
 30
0.0
 40
3.000000000000003
100
AcDbArc
 50
180.0
 51
270.0000000000002
  0
LINE
  5
26B
330
1F
100
AcDbEntity
  8
LAY-10
  6
CONTINUOUS
 62
     7
100
AcDbLine
 10
2058.900000000008
 20
2400.098484809748
 30
0.0
 11
2014.500000000012
 21
2400.098484809748
 31
0.0
  0
LINE
  5
26C
330
1F
100
AcDbEntity
  8
LAY-10
  6
CONTINUOUS
 62
     7
100
AcDbLine
 10
2108.500000000012
 20
2319.898484809751
 30
0.0
 11
2099.500000000009
 21
2319.898484809751
 31
0.0
  0
LINE
  5
26D
330
1F
100
AcDbEntity
  8
LAY-10
  6
CONTINUOUS
 62
     7
100
AcDbLine
 10
2114.700000000003
 20
2323.89848480966
 30
0.0
 11
2114.700000000003
 21
2331.898484809707
 31
0.0
  0
ARC
  5
26E
330
1F
100
AcDbEntity
  8
LAY-10
  6
CONTINUOUS
 62
     7
100
AcDbCircle
 10
2118.700000000003
 20
2323.89848480966
 30
0.0
 40
4.0
100
AcDbArc
 50
180.0
 51
270.0000000000002
  0
LINE
  5
26F
330
1F
100
AcDbEntity
  8
LAY-10
  6
CONTINUOUS
 62
     7
100
AcDbLine
 10
2118.700000000003
 20
2319.89848480966
 30
0.0
 11
2139.700000000003
 21
2319.89848480966
 31
0.0
  0
LINE
  5
270
330
1F
100
AcDbEntity
  8
LAY-10
  6
CONTINUOUS
 62
     7
100
AcDbLine
 10
2141.700000000003
 20
2316.89848480966
 30
0.0
 11
2141.700000000003
 21
2317.89848480966
 31
0.0
  0
ARC
  5
271
330
1F
100
AcDbEntity
  8
LAY-10
  6
CONTINUOUS
 62
     7
100
AcDbCircle
 10
2139.700000000003
 20
2317.89848480966
 30
0.0
 40
2.0
100
AcDbArc
 50
0.0
 51
90.00000000000001
  0
LINE
  5
272
330
1F
100
AcDbEntity
  8
LAY-10
  6
CONTINUOUS
 62
     7
100
AcDbLine
 10
2141.700000000003
 20
2316.898484809751
 30
0.0
 11
2099.500000000009
 21
2316.898484809751
 31
0.0
  0
LINE
  5
273
330
1F
100
AcDbEntity
  8
LAY-10
  6
CONTINUOUS
 62
     7
100
AcDbLine
 10
2011.500000000013
 20
2393.898484809751
 30
0.0
 11
2026.500000000013
 21
2393.898484809751
 31
0.0
  0
LINE
  5
274
330
1F
100
AcDbEntity
  8
LAY-10
  6
CONTINUOUS
 62
     7
100
AcDbLine
 10
2014.500000000012
 20
2396.898484809749
 30
0.0
 11
2014.500000000012
 21
2408.898484809751
 31
0.0
  0
LINE
  5
275
330
1F
100
AcDbEntity
  8
LAY-10
  6
CONTINUOUS
 62
     7
100
AcDbLine
 10
2026.500000000013
 20
2393.898484809751
 30
0.0
 11
2026.500000000013
 21
2396.898484809749
 31
0.0
  0
LINE
  5
276
330
1F
100
AcDbEntity
  8
LAY-10
  6
CONTINUOUS
 62
     7
100
AcDbLine
 10
2011.500000000013
 20
2408.898484809751
 30
0.0
 11
2014.500000000012
 21
2408.898484809751
 31
0.0
  0
LINE
  5
277
330
1F
100
AcDbEntity
  8
LAY-10
  6
CONTINUOUS
 62
     7
100
AcDbLine
 10
2011.500000000013
 20
2393.898484809751
 30
0.0
 11
2011.500000000013
 21
2408.898484809751
 31
0.0
  0
LINE
  5
278
330
1F
100
AcDbEntity
  8
LAY-10
  6
CONTINUOUS
 62
     7
100
AcDbLine
 10
2014.500000000012
 20
2396.898484809749
 30
0.0
 11
2058.70000000001
 21
2396.898484809749
 31
0.0
  0
LINE
  5
279
330
1F
100
AcDbEntity
  8
LAY-10
  6
CONTINUOUS
 62
     7
100
AcDbLine
 10
2099.500000000009
 20
2306.898484809749
 30
0.0
 11
2129.500000000009
 21
2306.898484809749
 31
0.0
  0
LINE
  5
27A
330
1F
100
AcDbEntity
  8
LAY-10
  6
CONTINUOUS
 62
     7
100
AcDbLine
 10
2106.500000000007
 20
2303.898484809751
 30
0.0
 11
2127.500000000009
 21
2303.898484809751
 31
0.0
  0
LINE
  5
27B
330
1F
100
AcDbEntity
  8
LAY-10
  6
CONTINUOUS
 62
     7
100
AcDbLine
 10
2099.500000000009
 20
2276.898484809751
 30
0.0
 11
2100.500000000009
 21
2276.898484809751
 31
0.0
  0
LINE
  5
27C
330
1F
100
AcDbEntity
  8
LAY-10
  6
CONTINUOUS
 62
     7
100
AcDbLine
 10
2129.500000000009
 20
2306.898484809749
 30
0.0
 11
2129.500000000009
 21
2305.898484809749
 31
0.0
  0
ARC
  5
27D
330
1F
100
AcDbEntity
  8
LAY-10
  6
CONTINUOUS
 62
     7
100
AcDbCircle
 10
2127.500000000009
 20
2305.898484809749
 30
0.0
 40
2.0
100
AcDbArc
 50
270.0000000000002
 51
0.0
  0
ARC
  5
27E
330
1F
100
AcDbEntity
  8
LAY-10
  6
CONTINUOUS
 62
     7
100
AcDbCircle
 10
2100.500000000009
 20
2278.898484809751
 30
0.0
 40
2.0
100
AcDbArc
 50
270.0000000000002
 51
0.0
  0
ARC
  5
27F
330
1F
100
AcDbEntity
  8
LAY-10
  6
CONTINUOUS
 62
     7
100
AcDbCircle
 10
2106.500000000007
 20
2299.898484809749
 30
0.0
 40
4.0
100
AcDbArc
 50
90.00000000000001
 51
180.0
  0
LINE
  5
280
330
1F
100
AcDbEntity
  8
LAY-10
  6
CONTINUOUS
 62
     7
100
AcDbLine
 10
2099.500000000009
 20
1386.898484809749
 30
0.0
 11
2099.500000000009
 21
1382.898484809749
 31
0.0
  0
LINE
  5
281
330
1F
100
AcDbEntity
  8
LAY-10
  6
CONTINUOUS
 62
     7
100
AcDbLine
 10
2108.500000000012
 20
1397.898484809749
 30
0.0
 11
2111.700000000009
 21
1397.898484809749
 31
0.0
  0
LINE
  5
282
330
1F
100
AcDbEntity
  8
LAY-10
  6
CONTINUOUS
 62
     7
100
AcDbLine
 10
2108.500000000012
 20
1385.898484809748
 30
0.0
 11
2111.700000000009
 21
1385.898484809748
 31
0.0
  0
LINE
  5
283
330
1F
100
AcDbEntity
  8
LAY-10
  6
CONTINUOUS
 62
     7
100
AcDbLine
 10
2099.500000000009
 20
1397.898484809749
 30
0.0
 11
2096.300000000009
 21
1397.898484809749
 31
0.0
  0
LINE
  5
284
330
1F
100
AcDbEntity
  8
LAY-10
  6
CONTINUOUS
 62
     7
100
AcDbLine
 10
2099.500000000009
 20
1385.898484809748
 30
0.0
 11
2096.300000000009
 21
1385.898484809748
 31
0.0
  0
LINE
  5
285
330
1F
100
AcDbEntity
  8
LAY-10
  6
CONTINUOUS
 62
     7
100
AcDbLine
 10
2108.500000000012
 20
1382.898484809749
 30
0.0
 11
2099.500000000009
 21
1382.898484809749
 31
0.0
  0
ARC
  5
286
330
1F
100
AcDbEntity
  8
LAY-10
  6
CONTINUOUS
 62
     7
100
AcDbCircle
 10
2099.300000000008
 20
1382.898484809749
 30
0.0
 40
3.000000000000003
100
AcDbArc
 50
180.0
 51
270.0000000000002
  0
LINE
  5
287
330
1F
100
AcDbEntity
  8
LAY-10
  6
CONTINUOUS
 62
     7
100
AcDbLine
 10
2058.900000000008
 20
1333.698484809748
 30
0.0
 11
2014.500000000012
 21
1333.698484809748
 31
0.0
  0
LINE
  5
288
330
1F
100
AcDbEntity
  8
LAY-10
  6
CONTINUOUS
 62
     7
100
AcDbLine
 10
2108.500000000012
 20
1379.898484809751
 30
0.0
 11
2099.300000000008
 21
1379.898484809751
 31
0.0
  0
ARC
  5
289
330
1F
100
AcDbEntity
  8
LAY-10
  6
CONTINUOUS
 62
     7
100
AcDbCircle
 10
2108.700000000011
 20
1376.69848480975
 30
0.0
 40
3.000000000000003
100
AcDbArc
 50
270.0000000000002
 51
0.0
  0
ARC
  5
28A
330
1F
100
AcDbEntity
  8
LAY-10
  6
CONTINUOUS
 62
     7
100
AcDbCircle
 10
2058.70000000001
 20
1339.898484809748
 30
0.0
 40
3.000000000000003
100
AcDbArc
 50
270.0000000000002
 51
0.0
  0
ARC
  5
28B
330
1F
100
AcDbEntity
  8
LAY-10
  6
CONTINUOUS
 62
     7
100
AcDbCircle
 10
2058.900000000008
 20
1339.698484809749
 30
0.0
 40
6.000000000000005
100
AcDbArc
 50
270.0000000000002
 51
0.0
  0
ARC
  5
28C
330
1F
100
AcDbEntity
  8
LAY-10
  6
CONTINUOUS
 62
     7
100
AcDbCircle
 10
2064.70000000001
 20
1373.898484809748
 30
0.0
 40
3.000000000000003
100
AcDbArc
 50
90.00000000000001
 51
180.0
  0
LINE
  5
28D
330
1F
100
AcDbEntity
  8
LAY-10
  6
CONTINUOUS
 62
     7
100
AcDbLine
 10
2108.500000000012
 20
1413.898484809749
 30
0.0
 11
2099.500000000009
 21
1413.898484809749
 31
0.0
  0
LINE
  5
28E
330
1F
100
AcDbEntity
  8
LAY-10
  6
CONTINUOUS
 62
     7
100
AcDbLine
 10
2114.700000000003
 20
1409.898484809841
 30
0.0
 11
2114.700000000003
 21
1401.898484809793
 31
0.0
  0
ARC
  5
28F
330
1F
100
AcDbEntity
  8
LAY-10
  6
CONTINUOUS
 62
     7
100
AcDbCircle
 10
2118.700000000003
 20
1409.898484809841
 30
0.0
 40
4.0
100
AcDbArc
 50
90.00000000000001
 51
180.0
  0
LINE
  5
290
330
1F
100
AcDbEntity
  8
LAY-10
  6
CONTINUOUS
 62
     7
100
AcDbLine
 10
2064.90000000001
 20
1373.69848480975
 30
0.0
 11
2108.700000000011
 21
1373.69848480975
 31
0.0
  0
LINE
  5
291
330
1F
100
AcDbEntity
  8
LAY-10
  6
CONTINUOUS
 62
     7
100
AcDbLine
 10
2064.70000000001
 20
1376.898484809749
 30
0.0
 11
2108.500000000012
 21
1376.898484809749
 31
0.0
  0
LINE
  5
292
330
1F
100
AcDbEntity
  8
LAY-10
  6
CONTINUOUS
 62
     7
100
AcDbLine
 10
2108.500000000012
 20
1396.898484809749
 30
0.0
 11
2108.500000000012
 21
1426.898484809749
 31
0.0
  0
LINE
  5
293
330
1F
100
AcDbEntity
  8
LAY-10
  6
CONTINUOUS
 62
     7
100
AcDbLine
 10
2108.500000000012
 20
1386.898484809749
 30
0.0
 11
2108.500000000012
 21
1376.898484809749
 31
0.0
  0
LINE
  5
294
330
1F
100
AcDbEntity
  8
LAY-10
  6
CONTINUOUS
 62
     7
100
AcDbLine
 10
2014.500000000012
 20
1336.898484809749
 30
0.0
 11
2058.70000000001
 21
1336.898484809749
 31
0.0
  0
LINE
  5
295
330
1F
100
AcDbEntity
  8
LAY-10
  6
CONTINUOUS
 62
     7
100
AcDbLine
 10
2118.700000000003
 20
1413.89848480984
 30
0.0
 11
2139.700000000002
 21
1413.89848480984
 31
0.0
  0
LINE
  5
296
330
1F
100
AcDbEntity
  8
LAY-10
  6
CONTINUOUS
 62
     7
100
AcDbLine
 10
2141.700000000002
 20
1416.898484809841
 30
0.0
 11
2141.700000000002
 21
1415.898484809841
 31
0.0
  0
ARC
  5
297
330
1F
100
AcDbEntity
  8
LAY-10
  6
CONTINUOUS
 62
     7
100
AcDbCircle
 10
2139.700000000002
 20
1415.898484809841
 30
0.0
 40
2.0
100
AcDbArc
 50
270.0000000000002
 51
0.0
  0
LINE
  5
298
330
1F
100
AcDbEntity
  8
LAY-10
  6
CONTINUOUS
 62
     7
100
AcDbLine
 10
2141.700000000002
 20
1416.898484809749
 30
0.0
 11
2099.500000000009
 21
1416.898484809749
 31
0.0
  0
LINE
  5
299
330
1F
100
AcDbEntity
  8
LAY-10
  6
CONTINUOUS
 62
     7
100
AcDbLine
 10
2011.500000000013
 20
1339.898484809748
 30
0.0
 11
2026.500000000013
 21
1339.898484809748
 31
0.0
  0
LINE
  5
29A
330
1F
100
AcDbEntity
  8
LAY-10
  6
CONTINUOUS
 62
     7
100
AcDbLine
 10
2011.500000000013
 20
1339.898484809748
 30
0.0
 11
2011.500000000013
 21
1324.898484809748
 31
0.0
  0
LINE
  5
29B
330
1F
100
AcDbEntity
  8
LAY-10
  6
CONTINUOUS
 62
     7
100
AcDbLine
 10
2014.500000000012
 20
1336.898484809749
 30
0.0
 11
2014.500000000012
 21
1324.898484809748
 31
0.0
  0
LINE
  5
29C
330
1F
100
AcDbEntity
  8
LAY-10
  6
CONTINUOUS
 62
     7
100
AcDbLine
 10
2026.500000000013
 20
1339.898484809748
 30
0.0
 11
2026.500000000013
 21
1336.898484809749
 31
0.0
  0
LINE
  5
29D
330
1F
100
AcDbEntity
  8
LAY-10
  6
CONTINUOUS
 62
     7
100
AcDbLine
 10
2011.500000000013
 20
1324.898484809748
 30
0.0
 11
2014.500000000012
 21
1324.898484809748
 31
0.0
  0
LINE
  5
29E
330
1F
100
AcDbEntity
  8
LAY-10
  6
CONTINUOUS
 62
     7
100
AcDbLine
 10
2099.500000000009
 20
1426.898484809749
 30
0.0
 11
2129.500000000009
 21
1426.898484809749
 31
0.0
  0
LINE
  5
29F
330
1F
100
AcDbEntity
  8
LAY-10
  6
CONTINUOUS
 62
     7
100
AcDbLine
 10
2106.500000000007
 20
1429.898484809749
 30
0.0
 11
2127.500000000009
 21
1429.898484809749
 31
0.0
  0
LINE
  5
2A0
330
1F
100
AcDbEntity
  8
LAY-10
  6
CONTINUOUS
 62
     7
100
AcDbLine
 10
2129.500000000009
 20
1426.898484809749
 30
0.0
 11
2129.500000000009
 21
1427.898484809749
 31
0.0
  0
ARC
  5
2A1
330
1F
100
AcDbEntity
  8
LAY-10
  6
CONTINUOUS
 62
     7
100
AcDbCircle
 10
2127.500000000009
 20
1427.898484809749
 30
0.0
 40
2.0
100
AcDbArc
 50
0.0
 51
90.00000000000001
  0
ARC
  5
2A2
330
1F
100
AcDbEntity
  8
LAY-10
  6
CONTINUOUS
 62
     7
100
AcDbCircle
 10
2106.500000000007
 20
1433.89848480975
 30
0.0
 40
4.0
100
AcDbArc
 50
180.0
 51
270.0000000000002
  0
LINE
  5
2A3
330
1F
100
AcDbEntity
  8
LAY-10
  6
CONTINUOUS
 62
     7
100
AcDbLine
 10
2064.900000000007
 20
1339.698484809799
 30
0.0
 11
2064.90000000001
 21
1373.698484809748
 31
0.0
  0
LINE
  5
2A4
330
1F
100
AcDbEntity
  8
LAY-10
  6
CONTINUOUS
 62
     7
100
AcDbLine
 10
2129.500000000009
 20
1427.898484809749
 30
0.0
 11
2129.500000000009
 21
2305.898484809749
 31
0.0
  0
LINE
  5
2A5
330
1F
100
AcDbEntity
  8
LAY-10
  6
CONTINUOUS
 62
     7
100
AcDbLine
 10
2102.500000000007
 20
1433.89848480975
 30
0.0
 11
2102.500000000007
 21
2299.898484809749
 31
0.0
  0
LINE
  5
2A6
330
1F
100
AcDbEntity
  8
LAY-10
  6
CONTINUOUS
 62
     7
100
AcDbLine
 10
2102.598484809843
 20
2437.796969619584
 30
0.0
 11
2067.243145750517
 21
2402.441630560258
 31
0.0
  0
LINE
  5
2A7
330
1F
100
AcDbEntity
  8
LAY-10
  6
CONTINUOUS
 62
     7
100
AcDbLine
 10
2102.598484809843
 20
2437.796969619584
 30
0.0
 11
2108.255339059336
 21
2432.140115370091
 31
0.0
  0
LINE
  5
2A8
330
1F
100
AcDbEntity
  8
LAY-10
  6
CONTINUOUS
 62
     7
100
AcDbLine
 10
2108.255339059336
 20
2432.140115370091
 30
0.0
 11
2072.900000000011
 21
2396.784776310765
 31
0.0
  0
LINE
  5
2A9
330
1F
100
AcDbEntity
  8
LAY-10
  6
CONTINUOUS
 62
     7
100
AcDbLine
 10
2072.900000000011
 20
2396.784776310765
 30
0.0
 11
2072.900000000011
 21
2366.784776310767
 31
0.0
  0
LINE
  5
2AA
330
1F
100
AcDbEntity
  8
LAY-10
  6
CONTINUOUS
 62
     7
100
AcDbLine
 10
2072.900000000011
 20
2366.784776310767
 30
0.0
 11
2064.90000000001
 21
2366.784776310767
 31
0.0
  0
ARC
  5
2AB
330
1F
100
AcDbEntity
  8
LAY-10
  6
CONTINUOUS
 62
     7
100
AcDbCircle
 10
2072.900000000007
 20
2396.784776310765
 30
0.0
 40
8.0
100
AcDbArc
 50
134.9999999999862
 51
180.0
  0
LINE
  5
2AC
330
1F
100
AcDbEntity
  8
LAY-10
  6
CONTINUOUS
 62
     7
100
AcDbLine
 10
2102.598484809845
 20
1295.999999999913
 30
0.0
 11
2067.243145750517
 21
1331.355339059241
 31
0.0
  0
ARC
  5
2AD
330
1F
100
AcDbEntity
  8
LAY-10
  6
CONTINUOUS
 62
     7
100
AcDbCircle
 10
2072.900000000011
 20
1337.012193308733
 30
0.0
 40
8.0
100
AcDbArc
 50
180.0
 51
224.9999999999919
  0
LINE
  5
2AE
330
1F
100
AcDbEntity
  8
LAY-10
  6
CONTINUOUS
 62
     7
100
AcDbLine
 10
2108.255339059336
 20
1301.656854249406
 30
0.0
 11
2072.900000000011
 21
1337.012193308733
 31
0.0
  0
LINE
  5
2AF
330
1F
100
AcDbEntity
  8
LAY-10
  6
CONTINUOUS
 62
     7
100
AcDbLine
 10
2072.900000000011
 20
1337.012193308733
 30
0.0
 11
2072.900000000011
 21
1367.012193308733
 31
0.0
  0
LINE
  5
2B0
330
1F
100
AcDbEntity
  8
LAY-10
  6
CONTINUOUS
 62
     7
100
AcDbLine
 10
2102.598484809845
 20
1295.999999999913
 30
0.0
 11
2108.255339059336
 21
1301.656854249406
 31
0.0
  0
LINE
  5
2B1
330
1F
100
AcDbEntity
  8
LAY-10
  6
CONTINUOUS
 62
     7
100
AcDbLine
 10
2072.900000000011
 20
1367.012193308733
 30
0.0
 11
2064.90000000001
 21
1367.012193308733
 31
0.0
  0
LINE
  5
2B2
330
1F
100
AcDbEntity
  8
LAY-10
  6
CONTINUOUS
 62
     7
100
AcDbLine
 10
2064.90000000001
 20
1337.012193308733
 30
0.0
 11
2064.900000000007
 21
1339.698484809799
 31
0.0
  0
LINE
  5
2B3
330
1F
100
AcDbEntity
  8
LAY-10
  6
CONTINUOUS
 62
     7
100
AcDbLine
 10
2074.560000000008
 20
2360.098484809748
 30
0.0
 11
2076.90000000001
 21
2362.37848480975
 31
0.0
  0
LINE
  5
2B4
330
1F
100
AcDbEntity
  8
LAY-10
  6
CONTINUOUS
 62
     7
100
AcDbLine
 10
2076.819629784408
 20
2362.30017536891
 30
0.0
 11
2076.900000000013
 21
2362.21980515331
 31
0.0
  0
LINE
  5
2B5
330
1F
100
AcDbEntity
  8
LAY-10
  6
CONTINUOUS
 62
     7
100
AcDbLine
 10
2076.461484791343
 20
2361.95121358079
 30
0.0
 11
2076.900000000003
 21
2361.512698372125
 31
0.0
  0
LINE
  5
2B6
330
1F
100
AcDbEntity
  8
LAY-10
  6
CONTINUOUS
 62
     7
100
AcDbLine
 10
2076.103339798267
 20
2361.602251792677
 30
0.0
 11
2076.900000000013
 21
2360.805591590933
 31
0.0
  0
LINE
  5
2B7
330
1F
100
AcDbEntity
  8
LAY-10
  6
CONTINUOUS
 62
     7
100
AcDbLine
 10
2075.745194805204
 20
2361.253290004556
 30
0.0
 11
2076.900000000018
 21
2360.098484809741
 31
0.0
  0
LINE
  5
2B8
330
1F
100
AcDbEntity
  8
LAY-10
  6
CONTINUOUS
 62
     7
100
AcDbLine
 10
2075.387049812138
 20
2360.904328216434
 30
0.0
 11
2076.192893218826
 21
2360.098484809748
 31
0.0
  0
LINE
  5
2B9
330
1F
100
AcDbEntity
  8
LAY-10
  6
CONTINUOUS
 62
     7
100
AcDbLine
 10
2075.028904819063
 20
2360.555366428322
 30
0.0
 11
2075.485786437634
 21
2360.098484809755
 31
0.0
  0
LINE
  5
2BA
330
1F
100
AcDbEntity
  8
LAY-10
  6
CONTINUOUS
 62
     7
100
AcDbLine
 10
2074.670759825997
 20
2360.206404640202
 30
0.0
 11
2074.77867965645
 21
2360.098484809748
 31
0.0
  0
LINE
  5
2BB
330
1F
100
AcDbEntity
  8
LAY-10
  6
CONTINUOUS
 62
     7
100
AcDbLine
 10
2107.900000000011
 20
2362.498484809749
 30
0.0
 11
2110.548924784984
 21
2359.460999812772
 31
0.0
  0
LINE
  5
2BC
330
1F
100
AcDbEntity
  8
LAY-10
  6
CONTINUOUS
 62
     7
100
AcDbLine
 10
2107.9
 20
2362.219805153302
 30
0.0
 11
2108.029818545867
 21
2362.349623699168
 31
0.0
  0
LINE
  5
2BD
330
1F
100
AcDbEntity
  8
LAY-10
  6
CONTINUOUS
 62
     7
100
AcDbLine
 10
2107.900000000004
 20
2361.512698372117
 30
0.0
 11
2108.359213146334
 21
2361.971911518446
 31
0.0
  0
LINE
  5
2BE
330
1F
100
AcDbEntity
  8
LAY-10
  6
CONTINUOUS
 62
     7
100
AcDbLine
 10
2107.899999999999
 20
2360.805591590925
 30
0.0
 11
2108.68860774682
 21
2361.594199337748
 31
0.0
  0
LINE
  5
2BF
330
1F
100
AcDbEntity
  8
LAY-10
  6
CONTINUOUS
 62
     7
100
AcDbLine
 10
2107.900000000014
 20
2360.098484809755
 30
0.0
 11
2109.018002347307
 21
2361.216487157049
 31
0.0
  0
LINE
  5
2C0
330
1F
100
AcDbEntity
  8
LAY-10
  6
CONTINUOUS
 62
     7
100
AcDbLine
 10
2108.607106781196
 20
2360.098484809751
 30
0.0
 11
2109.347396947796
 21
2360.838774976351
 31
0.0
  0
LINE
  5
2C1
330
1F
100
AcDbEntity
  8
LAY-10
  6
CONTINUOUS
 62
     7
100
AcDbLine
 10
2109.261246390382
 20
2360.045517637748
 30
0.0
 11
2109.676791548275
 21
2360.46106279564
 31
0.0
  0
LINE
  5
2C2
330
1F
100
AcDbEntity
  8
LAY-10
  6
CONTINUOUS
 62
     7
100
AcDbLine
 10
2109.808866693891
 20
2359.886031160074
 30
0.0
 11
2110.006186148761
 21
2360.08335061494
 31
0.0
  0
LINE
  5
2C3
330
1F
100
AcDbEntity
  8
LAY-10
  6
CONTINUOUS
 62
     7
100
AcDbLine
 10
2110.279161875786
 20
2359.649219560778
 30
0.0
 11
2110.335580749251
 21
2359.705638434242
 31
0.0
  0
LINE
  5
2C4
330
1F
100
AcDbEntity
  8
LAY-10
  6
CONTINUOUS
 62
     7
100
AcDbLine
 10
2107.900000000011
 20
2396.098484809751
 30
0.0
 11
2107.900000000011
 21
2360.098484809748
 31
0.0
  0
LINE
  5
2C5
330
1F
100
AcDbEntity
  8
LAY-10
  6
CONTINUOUS
 62
     7
100
AcDbLine
 10
2076.90000000001
 20
2396.098484809751
 30
0.0
 11
2076.90000000001
 21
2360.098484809748
 31
0.0
  0
LINE
  5
2C6
330
1F
100
AcDbEntity
  8
LAY-10
  6
CONTINUOUS
 62
     7
100
AcDbLine
 10
2076.90000000001
 20
2396.098484809751
 30
0.0
 11
2107.900000000011
 21
2396.098484809751
 31
0.0
  0
LINE
  5
2C7
330
1F
100
AcDbEntity
  8
LAY-10
  6
CONTINUOUS
 62
     7
100
AcDbLine
 10
2076.90000000001
 20
1337.69848480975
 30
0.0
 11
2076.90000000001
 21
1373.698484809748
 31
0.0
  0
LINE
  5
2C8
330
1F
100
AcDbEntity
  8
LAY-10
  6
CONTINUOUS
 62
     7
100
AcDbLine
 10
2107.900000000011
 20
1337.69848480975
 30
0.0
 11
2107.900000000011
 21
1373.69848480975
 31
0.0
  0
LINE
  5
2C9
330
1F
100
AcDbEntity
  8
LAY-10
  6
CONTINUOUS
 62
     7
100
AcDbLine
 10
2076.90000000001
 20
1337.69848480975
 30
0.0
 11
2107.900000000011
 21
1337.69848480975
 31
0.0
  0
LINE
  5
2CA
330
1F
100
AcDbEntity
  8
LAY-10
  6
CONTINUOUS
 62
     7
100
AcDbLine
 10
2107.900000000011
 20
1371.298484809748
 30
0.0
 11
2110.548924784984
 21
1374.335969806726
 31
0.0
  0
LINE
  5
2CB
330
1F
100
AcDbEntity
  8
LAY-10
  6
CONTINUOUS
 62
     7
100
AcDbLine
 10
2110.279161875786
 20
1374.147750058722
 30
0.0
 11
2110.335580749258
 21
1374.091331185246
 31
0.0
  0
LINE
  5
2CC
330
1F
100
AcDbEntity
  8
LAY-10
  6
CONTINUOUS
 62
     7
100
AcDbLine
 10
2109.808866693891
 20
1373.910938459427
 30
0.0
 11
2110.006186148771
 21
1373.713619004548
 31
0.0
  0
LINE
  5
2CD
330
1F
100
AcDbEntity
  8
LAY-10
  6
CONTINUOUS
 62
     7
100
AcDbLine
 10
2109.261246390382
 20
1373.751451981752
 30
0.0
 11
2109.676791548283
 21
1373.33590682385
 31
0.0
  0
LINE
  5
2CE
330
1F
100
AcDbEntity
  8
LAY-10
  6
CONTINUOUS
 62
     7
100
AcDbLine
 10
2108.607106781206
 20
1373.698484809739
 30
0.0
 11
2109.347396947795
 21
1372.958194643152
 31
0.0
  0
LINE
  5
2CF
330
1F
100
AcDbEntity
  8
LAY-10
  6
CONTINUOUS
 62
     7
100
AcDbLine
 10
2107.900000000014
 20
1373.698484809746
 30
0.0
 11
2109.018002347319
 21
1372.580482462442
 31
0.0
  0
LINE
  5
2D0
330
1F
100
AcDbEntity
  8
LAY-10
  6
CONTINUOUS
 62
     7
100
AcDbLine
 10
2107.90000000002
 20
1372.991378028554
 30
0.0
 11
2108.688607746834
 21
1372.202770281742
 31
0.0
  0
LINE
  5
2D1
330
1F
100
AcDbEntity
  8
LAY-10
  6
CONTINUOUS
 62
     7
100
AcDbLine
 10
2107.900000000027
 20
1372.28427124736
 30
0.0
 11
2108.359213146345
 21
1371.825058101044
 31
0.0
  0
LINE
  5
2D2
330
1F
100
AcDbEntity
  8
LAY-10
  6
CONTINUOUS
 62
     7
100
AcDbLine
 10
2107.900000000011
 20
1371.57716446619
 30
0.0
 11
2108.029818545859
 21
1371.447345920345
 31
0.0
  0
LINE
  5
2D3
330
1F
100
AcDbEntity
  8
LAY-10
  6
CONTINUOUS
 62
     7
100
AcDbLine
 10
2074.560000000008
 20
1373.698484809748
 30
0.0
 11
2076.90000000001
 21
1371.418484809749
 31
0.0
  0
LINE
  5
2D4
330
1F
100
AcDbEntity
  8
LAY-10
  6
CONTINUOUS
 62
     7
100
AcDbLine
 10
2074.670759826012
 20
1373.590564979312
 30
0.0
 11
2074.77867965645
 21
1373.698484809752
 31
0.0
  0
LINE
  5
2D5
330
1F
100
AcDbEntity
  8
LAY-10
  6
CONTINUOUS
 62
     7
100
AcDbLine
 10
2075.028904819075
 20
1373.241603191189
 30
0.0
 11
2075.485786437634
 21
1373.698484809748
 31
0.0
  0
LINE
  5
2D6
330
1F
100
AcDbEntity
  8
LAY-10
  6
CONTINUOUS
 62
     7
100
AcDbLine
 10
2075.387049812139
 20
1372.892641403068
 30
0.0
 11
2076.192893218815
 21
1373.698484809743
 31
0.0
  0
LINE
  5
2D7
330
1F
100
AcDbEntity
  8
LAY-10
  6
CONTINUOUS
 62
     7
100
AcDbLine
 10
2075.745194805215
 20
1372.543679614958
 30
0.0
 11
2076.900000000007
 21
1373.698484809748
 31
0.0
  0
LINE
  5
2D8
330
1F
100
AcDbEntity
  8
LAY-10
  6
CONTINUOUS
 62
     7
100
AcDbLine
 10
2076.103339798282
 20
1372.194717826834
 30
0.0
 11
2076.899999999991
 21
1372.991378028544
 31
0.0
  0
LINE
  5
2D9
330
1F
100
AcDbEntity
  8
LAY-10
  6
CONTINUOUS
 62
     7
100
AcDbLine
 10
2076.461484791344
 20
1371.845756038711
 30
0.0
 11
2076.900000000007
 21
1372.284271247374
 31
0.0
  0
LINE
  5
2DA
330
1F
100
AcDbEntity
  8
LAY-10
  6
CONTINUOUS
 62
     7
100
AcDbLine
 10
2076.819629784419
 20
1371.496794250601
 30
0.0
 11
2076.899999999999
 21
1371.577164466181
 31
0.0
  0
LINE
  5
2DB
330
1F
100
AcDbEntity
  8
LAY-10
  6
CONTINUOUS
 62
     7
100
AcDbLine
 10
2061.70000000001
 20
2359.898484809751
 30
0.0
 11
2059.700000000014
 21
2359.898484809751
 31
0.0
  0
LINE
  5
2DC
330
1F
100
AcDbEntity
  8
LAY-10
  6
CONTINUOUS
 62
     7
100
AcDbLine
 10
2061.70000000001
 20
2384.898484809751
 30
0.0
 11
2059.700000000014
 21
2384.898484809751
 31
0.0
  0
LINE
  5
2DD
330
1F
100
AcDbEntity
  8
LAY-10
  6
CONTINUOUS
 62
     7
100
AcDbLine
 10
2059.70000000003
 20
2383.484271247374
 30
0.0
 11
2061.11421356242
 21
2384.898484809765
 31
0.0
  0
LINE
  5
2DE
330
1F
100
AcDbEntity
  8
LAY-10
  6
CONTINUOUS
 62
     7
100
AcDbLine
 10
2059.70000000004
 20
2382.070057685011
 30
0.0
 11
2061.700000000016
 21
2384.070057684988
 31
0.0
  0
LINE
  5
2DF
330
1F
100
AcDbEntity
  8
LAY-10
  6
CONTINUOUS
 62
     7
100
AcDbLine
 10
2059.700000000031
 20
2380.655844122627
 30
0.0
 11
2061.700000000008
 21
2382.655844122605
 31
0.0
  0
LINE
  5
2E0
330
1F
100
AcDbEntity
  8
LAY-10
  6
CONTINUOUS
 62
     7
100
AcDbLine
 10
2059.700000000042
 20
2379.241630560265
 30
0.0
 11
2061.700000000017
 21
2381.241630560243
 31
0.0
  0
LINE
  5
2E1
330
1F
100
AcDbEntity
  8
LAY-10
  6
CONTINUOUS
 62
     7
100
AcDbLine
 10
2059.700000000032
 20
2377.827416997884
 30
0.0
 11
2061.70000000001
 21
2379.827416997859
 31
0.0
  0
LINE
  5
2E2
330
1F
100
AcDbEntity
  8
LAY-10
  6
CONTINUOUS
 62
     7
100
AcDbLine
 10
2059.700000000043
 20
2376.413203435522
 30
0.0
 11
2061.700000000019
 21
2378.413203435498
 31
0.0
  0
LINE
  5
2E3
330
1F
100
AcDbEntity
  8
LAY-10
  6
CONTINUOUS
 62
     7
100
AcDbLine
 10
2059.700000000033
 20
2374.998989873137
 30
0.0
 11
2061.700000000012
 21
2376.998989873116
 31
0.0
  0
LINE
  5
2E4
330
1F
100
AcDbEntity
  8
LAY-10
  6
CONTINUOUS
 62
     7
100
AcDbLine
 10
2059.700000000043
 20
2373.584776310775
 30
0.0
 11
2061.70000000002
 21
2375.584776310753
 31
0.0
  0
LINE
  5
2E5
330
1F
100
AcDbEntity
  8
LAY-10
  6
CONTINUOUS
 62
     7
100
AcDbLine
 10
2059.700000000034
 20
2372.170562748393
 30
0.0
 11
2061.700000000013
 21
2374.170562748371
 31
0.0
  0
LINE
  5
2E6
330
1F
100
AcDbEntity
  8
LAY-10
  6
CONTINUOUS
 62
     7
100
AcDbLine
 10
2059.700000000045
 20
2370.756349186032
 30
0.0
 11
2061.700000000022
 21
2372.756349186006
 31
0.0
  0
LINE
  5
2E7
330
1F
100
AcDbEntity
  8
LAY-10
  6
CONTINUOUS
 62
     7
100
AcDbLine
 10
2059.700000000036
 20
2369.342135623648
 30
0.0
 11
2061.700000000014
 21
2371.342135623626
 31
0.0
  0
LINE
  5
2E8
330
1F
100
AcDbEntity
  8
LAY-10
  6
CONTINUOUS
 62
     7
100
AcDbLine
 10
2059.700000000045
 20
2367.927922061285
 30
0.0
 11
2061.700000000003
 21
2369.927922061243
 31
0.0
  0
LINE
  5
2E9
330
1F
100
AcDbEntity
  8
LAY-10
  6
CONTINUOUS
 62
     7
100
AcDbLine
 10
2059.700000000037
 20
2366.513708498903
 30
0.0
 11
2061.700000000015
 21
2368.513708498881
 31
0.0
  0
LINE
  5
2EA
330
1F
100
AcDbEntity
  8
LAY-10
  6
CONTINUOUS
 62
     7
100
AcDbLine
 10
2059.700000000029
 20
2365.09949493652
 30
0.0
 11
2061.700000000005
 21
2367.099494936499
 31
0.0
  0
LINE
  5
2EB
330
1F
100
AcDbEntity
  8
LAY-10
  6
CONTINUOUS
 62
     7
100
AcDbLine
 10
2059.70000000004
 20
2363.685281374158
 30
0.0
 11
2061.700000000016
 21
2365.685281374136
 31
0.0
  0
LINE
  5
2EC
330
1F
100
AcDbEntity
  8
LAY-10
  6
CONTINUOUS
 62
     7
100
AcDbLine
 10
2059.70000000003
 20
2362.271067811777
 30
0.0
 11
2061.700000000006
 21
2364.271067811752
 31
0.0
  0
LINE
  5
2ED
330
1F
100
AcDbEntity
  8
LAY-10
  6
CONTINUOUS
 62
     7
100
AcDbLine
 10
2059.700000000041
 20
2360.856854249415
 30
0.0
 11
2061.700000000017
 21
2362.856854249389
 31
0.0
  0
LINE
  5
2EE
330
1F
100
AcDbEntity
  8
LAY-10
  6
CONTINUOUS
 62
     7
100
AcDbLine
 10
2060.155844122757
 20
2359.898484809758
 30
0.0
 11
2061.700000000008
 21
2361.442640687009
 31
0.0
  0
LINE
  5
2EF
330
1F
100
AcDbEntity
  8
LAY-10
  6
CONTINUOUS
 62
     7
100
AcDbLine
 10
2061.570057685121
 20
2359.898484809747
 30
0.0
 11
2061.700000000018
 21
2360.028427124646
 31
0.0
  0
LINE
  5
2F0
330
1F
100
AcDbEntity
  8
LAY-10
  6
CONTINUOUS
 62
     7
100
AcDbLine
 10
2061.70000000001
 20
1373.898484809748
 30
0.0
 11
2059.700000000033
 21
1373.898484809748
 31
0.0
  0
LINE
  5
2F1
330
1F
100
AcDbEntity
  8
LAY-10
  6
CONTINUOUS
 62
     7
100
AcDbLine
 10
2061.70000000001
 20
1348.898484809748
 30
0.0
 11
2059.700000000016
 21
1348.898484809748
 31
0.0
  0
LINE
  5
2F2
330
1F
100
AcDbEntity
  8
LAY-10
  6
CONTINUOUS
 62
     7
100
AcDbLine
 10
2059.700000000033
 20
1372.940115370093
 30
0.0
 11
2060.658369439697
 21
1373.898484809757
 31
0.0
  0
LINE
  5
2F3
330
1F
100
AcDbEntity
  8
LAY-10
  6
CONTINUOUS
 62
     7
100
AcDbLine
 10
2059.700000000044
 20
1371.52590180773
 30
0.0
 11
2061.700000000021
 21
1373.525901807707
 31
0.0
  0
LINE
  5
2F4
330
1F
100
AcDbEntity
  8
LAY-10
  6
CONTINUOUS
 62
     7
100
AcDbLine
 10
2059.700000000034
 20
1370.111688245348
 30
0.0
 11
2061.700000000013
 21
1372.111688245325
 31
0.0
  0
LINE
  5
2F5
330
1F
100
AcDbEntity
  8
LAY-10
  6
CONTINUOUS
 62
     7
100
AcDbLine
 10
2059.700000000044
 20
1368.697474682986
 30
0.0
 11
2061.700000000022
 21
1370.697474682962
 31
0.0
  0
LINE
  5
2F6
330
1F
100
AcDbEntity
  8
LAY-10
  6
CONTINUOUS
 62
     7
100
AcDbLine
 10
2059.700000000035
 20
1367.283261120604
 30
0.0
 11
2061.700000000014
 21
1369.28326112058
 31
0.0
  0
LINE
  5
2F7
330
1F
100
AcDbEntity
  8
LAY-10
  6
CONTINUOUS
 62
     7
100
AcDbLine
 10
2059.700000000045
 20
1365.86904755824
 30
0.0
 11
2061.700000000023
 21
1367.869047558218
 31
0.0
  0
LINE
  5
2F8
330
1F
100
AcDbEntity
  8
LAY-10
  6
CONTINUOUS
 62
     7
100
AcDbLine
 10
2059.700000000037
 20
1364.454833995858
 30
0.0
 11
2061.700000000014
 21
1366.454833995835
 31
0.0
  0
LINE
  5
2F9
330
1F
100
AcDbEntity
  8
LAY-10
  6
CONTINUOUS
 62
     7
100
AcDbLine
 10
2059.700000000029
 20
1363.040620433476
 30
0.0
 11
2061.700000000004
 21
1365.040620433454
 31
0.0
  0
LINE
  5
2FA
330
1F
100
AcDbEntity
  8
LAY-10
  6
CONTINUOUS
 62
     7
100
AcDbLine
 10
2059.70000000004
 20
1361.626406871114
 30
0.0
 11
2061.700000000015
 21
1363.62640687109
 31
0.0
  0
LINE
  5
2FB
330
1F
100
AcDbEntity
  8
LAY-10
  6
CONTINUOUS
 62
     7
100
AcDbLine
 10
2059.70000000003
 20
1360.212193308732
 30
0.0
 11
2061.700000000006
 21
1362.212193308709
 31
0.0
  0
LINE
  5
2FC
330
1F
100
AcDbEntity
  8
LAY-10
  6
CONTINUOUS
 62
     7
100
AcDbLine
 10
2059.70000000004
 20
1358.797979746369
 30
0.0
 11
2061.700000000016
 21
1360.797979746346
 31
0.0
  0
LINE
  5
2FD
330
1F
100
AcDbEntity
  8
LAY-10
  6
CONTINUOUS
 62
     7
100
AcDbLine
 10
2059.700000000031
 20
1357.383766183987
 30
0.0
 11
2061.700000000008
 21
1359.383766183964
 31
0.0
  0
LINE
  5
2FE
330
1F
100
AcDbEntity
  8
LAY-10
  6
CONTINUOUS
 62
     7
100
AcDbLine
 10
2059.700000000042
 20
1355.969552621625
 30
0.0
 11
2061.700000000017
 21
1357.969552621601
 31
0.0
  0
LINE
  5
2FF
330
1F
100
AcDbEntity
  8
LAY-10
  6
CONTINUOUS
 62
     7
100
AcDbLine
 10
2059.700000000032
 20
1354.555339059242
 30
0.0
 11
2061.70000000001
 21
1356.555339059219
 31
0.0
  0
LINE
  5
300
330
1F
100
AcDbEntity
  8
LAY-10
  6
CONTINUOUS
 62
     7
100
AcDbLine
 10
2059.700000000043
 20
1353.141125496879
 30
0.0
 11
2061.700000000019
 21
1355.141125496857
 31
0.0
  0
LINE
  5
301
330
1F
100
AcDbEntity
  8
LAY-10
  6
CONTINUOUS
 62
     7
100
AcDbLine
 10
2059.700000000032
 20
1351.726911934497
 30
0.0
 11
2061.700000000011
 21
1353.726911934473
 31
0.0
  0
LINE
  5
302
330
1F
100
AcDbEntity
  8
LAY-10
  6
CONTINUOUS
 62
     7
100
AcDbLine
 10
2059.700000000043
 20
1350.312698372134
 30
0.0
 11
2061.70000000002
 21
1352.312698372112
 31
0.0
  0
LINE
  5
303
330
1F
100
AcDbEntity
  8
LAY-10
  6
CONTINUOUS
 62
     7
100
AcDbLine
 10
2059.700000000033
 20
1348.898484809752
 30
0.0
 11
2061.700000000012
 21
1350.898484809731
 31
0.0
  0
LINE
  5
304
330
1F
100
AcDbEntity
  8
LAY-10
  6
CONTINUOUS
 62
     7
100
AcDbLine
 10
2061.114213562398
 20
1348.898484809742
 30
0.0
 11
2061.700000000003
 21
1349.484271247348
 31
0.0
  0
LINE
  5
305
330
1F
100
AcDbEntity
  8
LAY-10
  6
CONTINUOUS
 62
     7
100
AcDbLine
 10
2014.50000000001
 20
2386.69848480975
 30
0.0
 11
2053.500000000011
 21
2386.69848480975
 31
0.0
  0
ARC
  5
306
330
1F
100
AcDbEntity
  8
LAY-10
  6
CONTINUOUS
 62
     7
100
AcDbCircle
 10
2053.500000000011
 20
2383.69848480975
 30
0.0
 40
3.000000000000003
100
AcDbArc
 50
0.0
 51
90.00000000000001
  0
ARC
  5
307
330
1F
100
AcDbEntity
  8
LAY-10
  6
CONTINUOUS
 62
     7
100
AcDbCircle
 10
2053.700000000011
 20
2383.898484809751
 30
0.0
 40
6.000000000000005
100
AcDbArc
 50
0.0
 51
90.00000000000001
  0
LINE
  5
308
330
1F
100
AcDbEntity
  8
LAY-10
  6
CONTINUOUS
 62
     7
100
AcDbLine
 10
2011.500000000012
 20
2392.898484809751
 30
0.0
 11
2026.500000000012
 21
2392.898484809751
 31
0.0
  0
LINE
  5
309
330
1F
100
AcDbEntity
  8
LAY-10
  6
CONTINUOUS
 62
     7
100
AcDbLine
 10
2014.50000000001
 20
2389.898484809747
 30
0.0
 11
2014.50000000001
 21
2377.898484809751
 31
0.0
  0
LINE
  5
30A
330
1F
100
AcDbEntity
  8
LAY-10
  6
CONTINUOUS
 62
     7
100
AcDbLine
 10
2026.500000000012
 20
2392.898484809751
 30
0.0
 11
2026.500000000012
 21
2389.898484809747
 31
0.0
  0
LINE
  5
30B
330
1F
100
AcDbEntity
  8
LAY-10
  6
CONTINUOUS
 62
     7
100
AcDbLine
 10
2014.50000000001
 20
1347.098484809749
 30
0.0
 11
2053.500000000011
 21
1347.098484809749
 31
0.0
  0
ARC
  5
30C
330
1F
100
AcDbEntity
  8
LAY-10
  6
CONTINUOUS
 62
     7
100
AcDbCircle
 10
2053.500000000011
 20
1350.098484809749
 30
0.0
 40
3.000000000000003
100
AcDbArc
 50
270.0000000000002
 51
0.0
  0
ARC
  5
30D
330
1F
100
AcDbEntity
  8
LAY-10
  6
CONTINUOUS
 62
     7
100
AcDbCircle
 10
2053.700000000011
 20
1349.898484809749
 30
0.0
 40
6.000000000000005
100
AcDbArc
 50
270.0000000000002
 51
1.909152432987542
  0
LINE
  5
30E
330
1F
100
AcDbEntity
  8
LAY-10
  6
CONTINUOUS
 62
     7
100
AcDbLine
 10
2014.50000000001
 20
1343.898484809748
 30
0.0
 11
2053.700000000011
 21
1343.898484809748
 31
0.0
  0
LINE
  5
30F
330
1F
100
AcDbEntity
  8
LAY-10
  6
CONTINUOUS
 62
     7
100
AcDbLine
 10
2011.500000000012
 20
1340.898484809748
 30
0.0
 11
2026.500000000012
 21
1340.898484809748
 31
0.0
  0
LINE
  5
310
330
1F
100
AcDbEntity
  8
LAY-10
  6
CONTINUOUS
 62
     7
100
AcDbLine
 10
2014.50000000001
 20
1343.898484809748
 30
0.0
 11
2014.50000000001
 21
1355.898484809748
 31
0.0
  0
LINE
  5
311
330
1F
100
AcDbEntity
  8
LAY-10
  6
CONTINUOUS
 62
     7
100
AcDbLine
 10
2011.500000000012
 20
1355.898484809748
 30
0.0
 11
2014.50000000001
 21
1355.898484809748
 31
0.0
  0
LINE
  5
312
330
1F
100
AcDbEntity
  8
LAY-10
  6
CONTINUOUS
 62
     7
100
AcDbLine
 10
2026.500000000012
 20
1340.898484809748
 30
0.0
 11
2026.500000000012
 21
1343.898484809748
 31
0.0
  0
LINE
  5
313
330
1F
100
AcDbEntity
  8
LAY-10
  6
CONTINUOUS
 62
     7
100
AcDbLine
 10
2014.50000000001
 20
1387.898484809741
 30
0.0
 11
2014.50000000001
 21
2345.898484809683
 31
0.0
  0
LINE
  5
314
330
1F
100
AcDbEntity
  8
LAY-10
  6
CONTINUOUS
 62
     7
100
AcDbLine
 10
2056.500000000033
 20
1350.098484809749
 30
0.0
 11
2056.500000000033
 21
2383.69848480975
 31
0.0
  0
LINE
  5
315
330
1F
100
AcDbEntity
  8
LAY-10
  6
CONTINUOUS
 62
     7
100
AcDbLine
 10
2011.500000000012
 20
1340.898484809748
 30
0.0
 11
2011.500000000012
 21
2392.898484809751
 31
0.0
  0
LINE
  5
316
330
1F
100
AcDbEntity
  8
LAY-10
  6
CONTINUOUS
 62
     7
100
AcDbLine
 10
2053.500000000012
 20
2386.69848480975
 30
0.0
 11
2056.500000000012
 21
2383.69848480975
 31
0.0
  0
LINE
  5
317
330
1F
100
AcDbEntity
  8
LAY-10
  6
CONTINUOUS
 62
     7
100
AcDbLine
 10
2053.500000000012
 20
1347.098484809751
 30
0.0
 11
2056.500000000012
 21
1350.098484809751
 31
0.0
  0
LINE
  5
318
330
1F
100
AcDbEntity
  8
LAY-10
  6
CONTINUOUS
 62
     7
100
AcDbLine
 10
2059.700000000033
 20
2317.898484809751
 30
0.0
 11
2078.700000000005
 21
2317.898484809751
 31
0.0
  0
LINE
  5
319
330
1F
100
AcDbEntity
  8
LAY-10
  6
CONTINUOUS
 62
     7
100
AcDbLine
 10
2059.700000000033
 20
1415.898484809748
 30
0.0
 11
2078.700000000005
 21
1415.898484809748
 31
0.0
  0
LINE
  5
31A
330
1F
100
AcDbEntity
  8
LAY-10
  6
CONTINUOUS
 62
     7
100
AcDbLine
 10
2078.700000000005
 20
2317.898484809751
 30
0.0
 11
2078.700000000005
 21
1415.898484809748
 31
0.0
  0
LINE
  5
31B
330
1F
100
AcDbEntity
  8
LAY-10
  6
CONTINUOUS
 62
     7
100
AcDbLine
 10
2061.70000000001
 20
1415.898484809748
 30
0.0
 11
2061.70000000001
 21
1339.898484809749
 31
0.0
  0
LINE
  5
31C
330
1F
100
AcDbEntity
  8
LAY-10
  6
CONTINUOUS
 62
     7
100
AcDbLine
 10
2061.70000000001
 20
2393.898484809752
 30
0.0
 11
2061.70000000001
 21
2317.898484809751
 31
0.0
  0
LINE
  5
31D
330
1F
100
AcDbEntity
  8
LAY-10
  6
CONTINUOUS
 62
     7
100
AcDbLine
 10
2078.700000000031
 20
1693.065151476455
 30
0.0
 11
2059.700000000033
 21
1693.065151476454
 31
0.0
  0
LINE
  5
31E
330
1F
100
AcDbEntity
  8
LAY-10
  6
CONTINUOUS
 62
     7
100
AcDbLine
 10
2078.700000000031
 20
1690.065151476455
 30
0.0
 11
2059.700000000033
 21
1690.065151476454
 31
0.0
  0
LINE
  5
31F
330
1F
100
AcDbEntity
  8
LAY-10
  6
CONTINUOUS
 62
     7
100
AcDbLine
 10
2078.700000000031
 20
2040.731818143149
 30
0.0
 11
2059.700000000033
 21
2040.731818143149
 31
0.0
  0
LINE
  5
320
330
1F
100
AcDbEntity
  8
LAY-10
  6
CONTINUOUS
 62
     7
100
AcDbLine
 10
2078.700000000031
 20
2043.731818143149
 30
0.0
 11
2059.700000000033
 21
2043.731818143149
 31
0.0
  0
LINE
  5
321
330
1F
100
AcDbEntity
  8
LAY-10
  6
CONTINUOUS
 62
     7
100
AcDbLine
 10
2096.300000000009
 20
2352.398484809733
 30
0.0
 11
2096.300000000009
 21
1382.89848480975
 31
0.0
  0
LINE
  5
322
330
1F
100
AcDbEntity
  8
LAY-10
  6
CONTINUOUS
 62
     7
100
AcDbLine
 10
2111.700000000009
 20
2306.898484809749
 30
0.0
 11
2111.700000000009
 21
2357.098484809751
 31
0.0
  0
LINE
  5
323
330
1F
100
AcDbEntity
  8
LAY-10
  6
CONTINUOUS
 62
     7
100
AcDbLine
 10
2111.700000000009
 20
1426.898484809749
 30
0.0
 11
2111.700000000009
 21
1376.698484809749
 31
0.0
  0
LINE
  5
324
330
1F
100
AcDbEntity
  8
LAY-10
  6
CONTINUOUS
 62
     7
100
AcDbLine
 10
2014.50000000001
 20
2389.898484809747
 30
0.0
 11
2053.700000000011
 21
2389.898484809747
 31
0.0
  0
LINE
  5
325
330
1F
100
AcDbEntity
  8
LAY-10
  6
CONTINUOUS
 62
     7
100
AcDbLine
 10
2059.700000000033
 20
2384.898484809751
 30
0.0
 11
2059.700000000033
 21
1348.898484809748
 31
0.0
  0
LINE
  5
326
330
1F
100
AcDbEntity
  8
LAY-10
  6
CONTINUOUS
 62
     7
100
AcDbLine
 10
2064.90000000001
 20
2396.784776310733
 30
0.0
 11
2064.90000000001
 21
2360.098484809748
 31
0.0
  0
LINE
  5
327
330
1F
100
AcDbEntity
  8
LAY-10
  6
CONTINUOUS
 62
     7
100
AcDbLine
 10
2108.500000000012
 20
2336.898484809749
 30
0.0
 11
2108.500000000012
 21
2306.898484809749
 31
0.0
  0
LINE
  5
328
330
1F
100
AcDbEntity
  8
LAY-10
  6
CONTINUOUS
 62
     7
100
AcDbLine
 10
2099.500000000009
 20
2336.898484809749
 30
0.0
 11
2099.500000000009
 21
1396.898484809749
 31
0.0
  0
LINE
  5
329
330
1F
100
AcDbEntity
  8
LAY-10
  6
CONTINUOUS
 62
     7
100
AcDbLine
 10
2099.500000000009
 20
2346.898484809751
 30
0.0
 11
2099.500000000009
 21
2350.898484809751
 31
0.0
  0
LINE
  5
32A
330
1F
100
AcDbEntity
  8
LAY-10
  6
CONTINUOUS
 62
     7
100
AcDbLine
 10
2108.500000000012
 20
2346.898484809751
 30
0.0
 11
2108.500000000012
 21
2356.898484809751
 31
0.0
  0
LINE
  5
32B
330
1F
100
AcDbEntity
  8
LAY-10
  6
CONTINUOUS
 62
     7
100
AcDbLine
 10
2064.700000000033
 20
2356.898484809751
 30
0.0
 11
2108.500000000012
 21
2356.898484809751
 31
0.0
  0
LINE
  5
32C
330
1F
100
AcDbEntity
  8
LAY-10
  6
CONTINUOUS
 62
     7
100
AcDbLine
 10
2064.900000000033
 20
2360.098484809748
 30
0.0
 11
2108.700000000011
 21
2360.098484809748
 31
0.0
  0
LINE
  5
32D
330
1F
100
AcDbEntity
  8
LAY-10
  6
CONTINUOUS
 62
     7
100
AcDbLine
 10
2011.500000000012
 20
2377.898484809751
 30
0.0
 11
2056.500000000033
 21
2377.898484809751
 31
0.0
  0
LINE
  5
32E
330
1F
100
AcDbEntity
  8
LAY-10
  6
CONTINUOUS
 62
     7
100
AcDbLine
 10
2011.500000000012
 20
2345.898484809683
 30
0.0
 11
2056.500000000033
 21
2345.898484809683
 31
0.0
  0
LINE
  5
32F
330
1F
100
AcDbEntity
  8
LAY-10
  6
CONTINUOUS
 62
     7
100
AcDbLine
 10
2048.500000000024
 20
2377.898484809751
 30
0.0
 11
2048.500000000024
 21
2386.698484809797
 31
0.0
  0
LINE
  5
330
330
1F
100
AcDbEntity
  8
LAY-10
  6
CONTINUOUS
 62
     7
100
AcDbLine
 10
2046.500000000024
 20
2377.898484809751
 30
0.0
 11
2046.500000000024
 21
2386.698484809797
 31
0.0
  0
LINE
  5
331
330
1F
100
AcDbEntity
  8
LAY-10
  6
CONTINUOUS
 62
     7
100
AcDbLine
 10
2014.500000000012
 20
1355.898484809749
 30
0.0
 11
2056.500000000033
 21
1355.898484809749
 31
0.0
  0
LINE
  5
332
330
1F
100
AcDbEntity
  8
LAY-10
  6
CONTINUOUS
 62
     7
100
AcDbLine
 10
2011.500000000012
 20
1387.898484809741
 30
0.0
 11
2056.500000000033
 21
1387.898484809741
 31
0.0
  0
LINE
  5
333
330
1F
100
AcDbEntity
  8
LAY-10
  6
CONTINUOUS
 62
     7
100
AcDbLine
 10
2048.500000000024
 20
1347.098484809749
 30
0.0
 11
2048.500000000024
 21
1355.898484809749
 31
0.0
  0
LINE
  5
334
330
1F
100
AcDbEntity
  8
LAY-10
  6
CONTINUOUS
 62
     7
100
AcDbLine
 10
2048.500000000024
 20
1387.898484809741
 30
0.0
 11
2048.500000000024
 21
2345.898484809683
 31
0.0
  0
LINE
  5
335
330
1F
100
AcDbEntity
  8
LAY-10
  6
CONTINUOUS
 62
     7
100
AcDbLine
 10
2046.500000000024
 20
1347.098484809749
 30
0.0
 11
2046.500000000024
 21
1355.898484809749
 31
0.0
  0
LINE
  5
336
330
1F
100
AcDbEntity
  8
LAY-10
  6
CONTINUOUS
 62
     7
100
AcDbLine
 10
2046.500000000024
 20
1387.898484809741
 30
0.0
 11
2046.500000000024
 21
2345.898484809683
 31
0.0
  0
ARC
  5
337
330
1F
100
AcDbEntity
  8
LAY-10
  6
CONTINUOUS
 62
     7
100
AcDbCircle
 10
2093.300000000011
 20
2063.398484809749
 30
0.0
 40
3.000000000000003
100
AcDbArc
 50
0.0
 51
180.0
  0
ARC
  5
338
330
1F
100
AcDbEntity
  8
LAY-10
  6
CONTINUOUS
 62
     7
100
AcDbCircle
 10
2093.300000000011
 20
2157.398484809749
 30
0.0
 40
3.000000000000003
100
AcDbArc
 50
180.0
 51
0.0
  0
LINE
  5
339
330
1F
100
AcDbEntity
  8
LAY-10
  6
CONTINUOUS
 62
     7
100
AcDbLine
 10
2090.300000000008
 20
2025.398484809751
 30
0.0
 11
2096.300000000009
 21
2025.398484809751
 31
0.0
  0
LINE
  5
33A
330
1F
100
AcDbEntity
  8
LAY-10
  6
CONTINUOUS
 62
     7
100
AcDbLine
 10
2090.300000000008
 20
2195.698484809748
 30
0.0
 11
2096.300000000009
 21
2195.698484809748
 31
0.0
  0
LINE
  5
33B
330
1F
100
AcDbEntity
  8
LAY-10
  6
CONTINUOUS
 62
     7
100
AcDbLine
 10
2088.300000000007
 20
2055.398484809751
 30
0.0
 11
2096.300000000009
 21
2055.398484809751
 31
0.0
  0
LINE
  5
33C
330
1F
100
AcDbEntity
  8
LAY-10
  6
CONTINUOUS
 62
     7
100
AcDbLine
 10
2088.300000000007
 20
2035.398484809751
 30
0.0
 11
2088.300000000007
 21
2055.398484809751
 31
0.0
  0
LINE
  5
33D
330
1F
100
AcDbEntity
  8
LAY-10
  6
CONTINUOUS
 62
     7
100
AcDbLine
 10
2088.300000000007
 20
2165.398484809751
 30
0.0
 11
2088.300000000007
 21
2185.398484809751
 31
0.0
  0
LINE
  5
33E
330
1F
100
AcDbEntity
  8
LAY-10
  6
CONTINUOUS
 62
     7
100
AcDbLine
 10
2090.300000000008
 20
2025.398484809751
 30
0.0
 11
2090.300000000008
 21
2035.398484809751
 31
0.0
  0
LINE
  5
33F
330
1F
100
AcDbEntity
  8
LAY-10
  6
CONTINUOUS
 62
     7
100
AcDbLine
 10
2090.300000000008
 20
2055.398484809751
 30
0.0
 11
2090.300000000008
 21
2165.398484809751
 31
0.0
  0
LINE
  5
340
330
1F
100
AcDbEntity
  8
LAY-10
  6
CONTINUOUS
 62
     7
100
AcDbLine
 10
2090.300000000008
 20
2185.398484809751
 30
0.0
 11
2090.300000000008
 21
2195.698484809748
 31
0.0
  0
LINE
  5
341
330
1F
100
AcDbEntity
  8
LAY-10
  6
CONTINUOUS
 62
     7
100
AcDbLine
 10
2088.300000000007
 20
2165.398484809751
 30
0.0
 11
2096.300000000009
 21
2165.398484809751
 31
0.0
  0
LINE
  5
342
330
1F
100
AcDbEntity
  8
LAY-10
  6
CONTINUOUS
 62
     7
100
AcDbLine
 10
2088.300000000007
 20
2185.398484809751
 30
0.0
 11
2096.300000000009
 21
2185.398484809751
 31
0.0
  0
LINE
  5
343
330
1F
100
AcDbEntity
  8
LAY-10
  6
CONTINUOUS
 62
     7
100
AcDbLine
 10
2088.300000000007
 20
2035.398484809751
 30
0.0
 11
2096.300000000009
 21
2035.398484809751
 31
0.0
  0
LINE
  5
344
330
1F
100
AcDbEntity
  8
LAY-10
  6
CONTINUOUS
 62
     7
100
AcDbLine
 10
2095.300000000009
 20
2055.398484809751
 30
0.0
 11
2095.300000000009
 21
2035.398484809751
 31
0.0
  0
LINE
  5
345
330
1F
100
AcDbEntity
  8
LAY-10
  6
CONTINUOUS
 62
     7
100
AcDbLine
 10
2095.300000000009
 20
2185.398484809751
 30
0.0
 11
2095.300000000009
 21
2165.398484809751
 31
0.0
  0
ARC
  5
346
330
1F
100
AcDbEntity
  8
LAY-10
  6
CONTINUOUS
 62
     7
100
AcDbCircle
 10
2093.300000000011
 20
1670.398484809749
 30
0.0
 40
3.000000000000003
100
AcDbArc
 50
180.0
 51
0.0
  0
ARC
  5
347
330
1F
100
AcDbEntity
  8
LAY-10
  6
CONTINUOUS
 62
     7
100
AcDbCircle
 10
2093.300000000011
 20
1576.398484809749
 30
0.0
 40
3.000000000000003
100
AcDbArc
 50
0.0
 51
180.0
  0
LINE
  5
348
330
1F
100
AcDbEntity
  8
LAY-10
  6
CONTINUOUS
 62
     7
100
AcDbLine
 10
2090.300000000008
 20
1708.398484809748
 30
0.0
 11
2096.300000000009
 21
1708.398484809748
 31
0.0
  0
LINE
  5
349
330
1F
100
AcDbEntity
  8
LAY-10
  6
CONTINUOUS
 62
     7
100
AcDbLine
 10
2090.300000000008
 20
1538.09848480975
 30
0.0
 11
2096.300000000009
 21
1538.09848480975
 31
0.0
  0
LINE
  5
34A
330
1F
100
AcDbEntity
  8
LAY-10
  6
CONTINUOUS
 62
     7
100
AcDbLine
 10
2088.300000000007
 20
1678.398484809748
 30
0.0
 11
2096.300000000009
 21
1678.398484809748
 31
0.0
  0
LINE
  5
34B
330
1F
100
AcDbEntity
  8
LAY-10
  6
CONTINUOUS
 62
     7
100
AcDbLine
 10
2088.300000000007
 20
1698.398484809748
 30
0.0
 11
2088.300000000007
 21
1678.398484809748
 31
0.0
  0
LINE
  5
34C
330
1F
100
AcDbEntity
  8
LAY-10
  6
CONTINUOUS
 62
     7
100
AcDbLine
 10
2088.300000000007
 20
1568.398484809748
 30
0.0
 11
2088.300000000007
 21
1548.398484809747
 31
0.0
  0
LINE
  5
34D
330
1F
100
AcDbEntity
  8
LAY-10
  6
CONTINUOUS
 62
     7
100
AcDbLine
 10
2090.300000000008
 20
1708.398484809748
 30
0.0
 11
2090.300000000008
 21
1698.398484809748
 31
0.0
  0
LINE
  5
34E
330
1F
100
AcDbEntity
  8
LAY-10
  6
CONTINUOUS
 62
     7
100
AcDbLine
 10
2090.300000000008
 20
1678.398484809748
 30
0.0
 11
2090.300000000008
 21
1568.398484809748
 31
0.0
  0
LINE
  5
34F
330
1F
100
AcDbEntity
  8
LAY-10
  6
CONTINUOUS
 62
     7
100
AcDbLine
 10
2090.300000000008
 20
1548.398484809747
 30
0.0
 11
2090.300000000008
 21
1538.09848480975
 31
0.0
  0
LINE
  5
350
330
1F
100
AcDbEntity
  8
LAY-10
  6
CONTINUOUS
 62
     7
100
AcDbLine
 10
2088.300000000007
 20
1568.398484809748
 30
0.0
 11
2096.300000000009
 21
1568.398484809748
 31
0.0
  0
LINE
  5
351
330
1F
100
AcDbEntity
  8
LAY-10
  6
CONTINUOUS
 62
     7
100
AcDbLine
 10
2088.300000000007
 20
1548.398484809747
 30
0.0
 11
2096.300000000009
 21
1548.398484809747
 31
0.0
  0
LINE
  5
352
330
1F
100
AcDbEntity
  8
LAY-10
  6
CONTINUOUS
 62
     7
100
AcDbLine
 10
2088.300000000007
 20
1698.398484809748
 30
0.0
 11
2096.300000000009
 21
1698.398484809748
 31
0.0
  0
LINE
  5
353
330
1F
100
AcDbEntity
  8
LAY-10
  6
CONTINUOUS
 62
     7
100
AcDbLine
 10
2095.300000000009
 20
1678.398484809748
 30
0.0
 11
2095.300000000009
 21
1698.398484809748
 31
0.0
  0
LINE
  5
354
330
1F
100
AcDbEntity
  8
LAY-10
  6
CONTINUOUS
 62
     7
100
AcDbLine
 10
2095.300000000009
 20
1548.398484809747
 30
0.0
 11
2095.300000000009
 21
1568.398484809748
 31
0.0
  0
LINE
  5
355
330
1F
100
AcDbEntity
  8
LAY-10
  6
CONTINUOUS
 62
     7
100
AcDbLine
 10
2078.700000000031
 20
2314.89848480975
 30
0.0
 11
2059.700000000033
 21
2314.89848480975
 31
0.0
  0
LINE
  5
356
330
1F
100
AcDbEntity
  8
LAY-10
  6
CONTINUOUS
 62
     7
100
AcDbLine
 10
2078.700000000031
 20
1418.898484809748
 30
0.0
 11
2059.700000000033
 21
1418.898484809748
 31
0.0
  0
LINE
  5
357
330
1F
100
AcDbEntity
  8
LAY-10
  6
CONTINUOUS
 62
     7
100
AcDbLine
 10
1592.000000000073
 20
826.2984848097559
 30
0.0
 11
621.0000000000855
 21
826.2984848097559
 31
0.0
  0
POLYLINE
  5
358
330
1F
100
AcDbEntity
  8
LAY-10
  6
CONTINUOUS
 62
     7
100
AcDb2dPolyline
 66
     1
 10
0.0
 20
0.0
 30
0.0
 70
   128
  0
VERTEX
  5
359
330
358
100
AcDbEntity
  8
LAY-10
  6
CONTINUOUS
 62
     7
100
AcDbVertex
100
AcDb2dVertex
 10
673.5000000000855
 20
820.0984848097562
 30
0.0
  0
VERTEX
  5
35A
330
358
100
AcDbEntity
  8
LAY-10
  6
CONTINUOUS
 62
     7
100
AcDbVertex
100
AcDb2dVertex
 10
803.0000000000855
 20
820.098484809757
 30
0.0
  0
VERTEX
  5
35B
330
358
100
AcDbEntity
  8
LAY-10
  6
CONTINUOUS
 62
     7
100
AcDbVertex
100
AcDb2dVertex
 10
1539.500000000071
 20
820.098484809757
 30
0.0
  0
SEQEND
  5
35C
330
358
100
AcDbEntity
  8
LAY-10
  6
CONTINUOUS
 62
     7
  0
LINE
  5
35D
330
1F
100
AcDbEntity
  8
LAY-10
  6
CONTINUOUS
 62
     7
100
AcDbLine
 10
636.5000000000855
 20
823.0984848097554
 30
0.0
 11
1556.500000000073
 21
823.098484809757
 31
0.0
  0
LINE
  5
35E
330
1F
100
AcDbEntity
  8
LAY-10
  6
CONTINUOUS
 62
     7
100
AcDbLine
 10
1545.500000000072
 20
793.098484809757
 30
0.0
 11
666.5000000000864
 21
793.0984848097561
 31
0.0
  0
LINE
  5
35F
330
1F
100
AcDbEntity
  8
LAY-10
  6
CONTINUOUS
 62
     7
100
AcDbLine
 10
1105.500000000075
 20
895.8984848097574
 30
0.0
 11
1102.500000000074
 21
895.8984848097574
 31
0.0
  0
LINE
  5
360
330
1F
100
AcDbEntity
  8
LAY-10
  6
CONTINUOUS
 62
     7
100
AcDbLine
 10
1105.500000000075
 20
910.8984848097574
 30
0.0
 11
1105.500000000075
 21
895.8984848097574
 31
0.0
  0
LINE
  5
361
330
1F
100
AcDbEntity
  8
LAY-10
  6
CONTINUOUS
 62
     7
100
AcDbLine
 10
1102.500000000074
 20
907.8984848097574
 30
0.0
 11
1102.500000000074
 21
868.6984848097576
 31
0.0
  0
ARC
  5
362
330
1F
100
AcDbEntity
  8
LAY-10
  6
CONTINUOUS
 62
     7
100
AcDbCircle
 10
1096.500000000075
 20
868.6984848097576
 30
0.0
 40
6.000000000000005
100
AcDbArc
 50
270.0000000000002
 51
0.0
  0
ARC
  5
363
330
1F
100
AcDbEntity
  8
LAY-10
  6
CONTINUOUS
 62
     7
100
AcDbCircle
 10
1096.300000000075
 20
868.8984848097563
 30
0.0
 40
3.000000000000003
100
AcDbArc
 50
270.0000000000002
 51
0.0
  0
LINE
  5
364
330
1F
100
AcDbEntity
  8
LAY-10
  6
CONTINUOUS
 62
     7
100
AcDbLine
 10
1099.300000000075
 20
907.8984848097574
 30
0.0
 11
1099.300000000075
 21
868.8984848097563
 31
0.0
  0
LINE
  5
365
330
1F
100
AcDbEntity
  8
LAY-10
  6
CONTINUOUS
 62
     7
100
AcDbLine
 10
1113.700000000076
 20
907.8984848097563
 30
0.0
 11
1113.700000000076
 21
868.8984848097563
 31
0.0
  0
ARC
  5
366
330
1F
100
AcDbEntity
  8
LAY-10
  6
CONTINUOUS
 62
     7
100
AcDbCircle
 10
1116.700000000076
 20
868.8984848097563
 30
0.0
 40
3.000000000000003
100
AcDbArc
 50
180.0
 51
270.0000000000002
  0
ARC
  5
367
330
1F
100
AcDbEntity
  8
LAY-10
  6
CONTINUOUS
 62
     7
100
AcDbCircle
 10
1116.500000000076
 20
868.6984848097565
 30
0.0
 40
6.000000000000005
100
AcDbArc
 50
180.0
 51
270.0000000000002
  0
LINE
  5
368
330
1F
100
AcDbEntity
  8
LAY-10
  6
CONTINUOUS
 62
     7
100
AcDbLine
 10
1110.500000000076
 20
907.8984848097563
 30
0.0
 11
1110.500000000076
 21
868.6984848097565
 31
0.0
  0
LINE
  5
369
330
1F
100
AcDbEntity
  8
LAY-10
  6
CONTINUOUS
 62
     7
100
AcDbLine
 10
1107.500000000076
 20
910.8984848097563
 30
0.0
 11
1107.500000000076
 21
895.8984848097563
 31
0.0
  0
LINE
  5
36A
330
1F
100
AcDbEntity
  8
LAY-10
  6
CONTINUOUS
 62
     7
100
AcDbLine
 10
1107.500000000076
 20
895.8984848097563
 30
0.0
 11
1110.500000000076
 21
895.8984848097563
 31
0.0
  0
LINE
  5
36B
330
1F
100
AcDbEntity
  8
LAY-10
  6
HIDDEN
 62
     7
100
AcDbLine
 10
756.5000000000973
 20
793.098484809758
 30
0.0
 11
756.5000000000973
 21
810.8984848097572
 31
0.0
  0
LINE
  5
36C
330
1F
100
AcDbEntity
  8
LAY-10
  6
CONTINUOUS
 62
     7
100
AcDbLine
 10
623.7000000000762
 20
907.8984848097563
 30
0.0
 11
623.7000000000762
 21
868.8984848097563
 31
0.0
  0
ARC
  5
36D
330
1F
100
AcDbEntity
  8
LAY-10
  6
CONTINUOUS
 62
     7
100
AcDbCircle
 10
626.7000000000762
 20
868.8984848097563
 30
0.0
 40
3.000000000000003
100
AcDbArc
 50
180.0
 51
270.0000000000002
  0
ARC
  5
36E
330
1F
100
AcDbEntity
  8
LAY-10
  6
CONTINUOUS
 62
     7
100
AcDbCircle
 10
626.5000000000764
 20
868.6984848097565
 30
0.0
 40
6.000000000000005
100
AcDbArc
 50
180.0
 51
270.0000000000002
  0
LINE
  5
36F
330
1F
100
AcDbEntity
  8
LAY-10
  6
CONTINUOUS
 62
     7
100
AcDbLine
 10
620.5000000000755
 20
907.8984848097563
 30
0.0
 11
620.5000000000755
 21
868.6984848097565
 31
0.0
  0
LINE
  5
370
330
1F
100
AcDbEntity
  8
LAY-10
  6
CONTINUOUS
 62
     7
100
AcDbLine
 10
617.5000000000755
 20
910.8984848097563
 30
0.0
 11
617.5000000000755
 21
895.8984848097563
 31
0.0
  0
LINE
  5
371
330
1F
100
AcDbEntity
  8
LAY-10
  6
CONTINUOUS
 62
     7
100
AcDbLine
 10
617.5000000000755
 20
895.8984848097563
 30
0.0
 11
620.5000000000755
 21
895.8984848097563
 31
0.0
  0
LINE
  5
372
330
1F
100
AcDbEntity
  8
LAY-10
  6
CONTINUOUS
 62
     7
100
AcDbLine
 10
601.50000000009
 20
910.8984848097072
 30
0.0
 11
616.50000000009
 21
910.8984848097072
 31
0.0
  0
ARC
  5
373
330
1F
100
AcDbEntity
  8
LAY-10
  6
CONTINUOUS
 62
     7
100
AcDbCircle
 10
673.5000000000855
 20
816.098484809757
 30
0.0
 40
4.0
100
AcDbArc
 50
90.00000000000001
 51
180.0
  0
ARC
  5
374
330
1F
100
AcDbEntity
  8
LAY-10
  6
CONTINUOUS
 62
     7
100
AcDbCircle
 10
694.5000000000855
 20
822.0984848097563
 30
0.0
 40
2.0
100
AcDbArc
 50
270.0000000000002
 51
0.0
  0
ARC
  5
375
330
1F
100
AcDbEntity
  8
LAY-10
  6
CONTINUOUS
 62
     7
100
AcDbCircle
 10
667.5000000000864
 20
795.0984848097562
 30
0.0
 40
2.0
100
AcDbArc
 50
270.0000000000002
 51
0.0
  0
LINE
  5
376
330
1F
100
AcDbEntity
  8
LAY-10
  6
CONTINUOUS
 62
     7
100
AcDbLine
 10
696.5000000000854
 20
823.0984848097554
 30
0.0
 11
696.5000000000854
 21
822.0984848097563
 31
0.0
  0
LINE
  5
377
330
1F
100
AcDbEntity
  8
LAY-10
  6
CONTINUOUS
 62
     7
100
AcDbLine
 10
669.5000000000855
 20
816.098484809757
 30
0.0
 11
669.5000000000855
 21
795.0984848097562
 31
0.0
  0
LINE
  5
378
330
1F
100
AcDbEntity
  8
LAY-10
  6
CONTINUOUS
 62
     7
100
AcDbLine
 10
666.5000000000854
 20
823.0984848097554
 30
0.0
 11
666.5000000000854
 21
793.0984848097561
 31
0.0
  0
LINE
  5
379
330
1F
100
AcDbEntity
  8
LAY-10
  6
CONTINUOUS
 62
     7
100
AcDbLine
 10
601.5000000000855
 20
910.8984848097563
 30
0.0
 11
601.5000000000855
 21
907.8984848097563
 31
0.0
  0
LINE
  5
37A
330
1F
100
AcDbEntity
  8
LAY-10
  6
CONTINUOUS
 62
     7
100
AcDbLine
 10
616.5000000000855
 20
895.8984848097563
 30
0.0
 11
613.5000000000846
 21
895.8984848097563
 31
0.0
  0
LINE
  5
37B
330
1F
100
AcDbEntity
  8
LAY-10
  6
CONTINUOUS
 62
     7
100
AcDbLine
 10
613.5000000000846
 20
907.8984848097563
 30
0.0
 11
601.5000000000855
 21
907.8984848097563
 31
0.0
  0
LINE
  5
37C
330
1F
100
AcDbEntity
  8
LAY-10
  6
CONTINUOUS
 62
     7
100
AcDbLine
 10
616.5000000000855
 20
910.8984848097563
 30
0.0
 11
616.5000000000855
 21
895.8984848097563
 31
0.0
  0
LINE
  5
37D
330
1F
100
AcDbEntity
  8
LAY-10
  6
CONTINUOUS
 62
     7
100
AcDbLine
 10
756.5000000000982
 20
780.8984848097526
 30
0.0
 11
756.500000000099
 21
793.098484809757
 31
0.0
  0
LINE
  5
37E
330
1F
100
AcDbEntity
  8
LAY-10
  6
CONTINUOUS
 62
     7
100
AcDbLine
 10
656.5000000000982
 20
780.8984848097509
 30
0.0
 11
756.5000000000982
 21
780.8984848097526
 31
0.0
  0
LINE
  5
37F
330
1F
100
AcDbEntity
  8
LAY-10
  6
CONTINUOUS
 62
     7
100
AcDbLine
 10
656.5000000000982
 20
780.8984848097509
 30
0.0
 11
656.500000000099
 21
810.8984848097572
 31
0.0
  0
LINE
  5
380
330
1F
100
AcDbEntity
  8
LAY-10
  6
CONTINUOUS
 62
     7
100
AcDbLine
 10
613.5000000000864
 20
907.8984848097563
 30
0.0
 11
613.5000000000864
 21
814.0984848097571
 31
0.0
  0
LINE
  5
381
330
1F
100
AcDbEntity
  8
LAY-10
  6
CONTINUOUS
 62
     7
100
AcDbLine
 10
636.5000000000855
 20
814.0984848097561
 30
0.0
 11
666.5000000000854
 21
814.0984848097561
 31
0.0
  0
LINE
  5
382
330
1F
100
AcDbEntity
  8
LAY-10
  6
CONTINUOUS
 62
     7
100
AcDbLine
 10
666.5000000000854
 20
810.8984848097563
 30
0.0
 11
613.3000000000857
 21
810.8984848097563
 31
0.0
  0
ARC
  5
383
330
1F
100
AcDbEntity
  8
LAY-10
  6
CONTINUOUS
 62
     7
100
AcDbCircle
 10
754.4991089991136
 20
829.2975938087867
 30
0.0
 40
2.999108999030569
100
AcDbArc
 50
180.0
 51
270.0000000000002
  0
LINE
  5
384
330
1F
100
AcDbEntity
  8
LAY-10
  6
CONTINUOUS
 62
     7
100
AcDbLine
 10
798.2908673800057
 20
832.2971083471922
 30
0.0
 11
754.5908673800022
 21
832.2971083471922
 31
0.0
  0
ARC
  5
385
330
1F
100
AcDbEntity
  8
LAY-10
  6
CONTINUOUS
 62
     7
100
AcDbCircle
 10
754.5000000000837
 20
829.2984848097559
 30
0.0
 40
3.000000000000003
100
AcDbArc
 50
88.26429541116052
 51
180.0
  0
LINE
  5
386
330
1F
100
AcDbEntity
  8
LAY-10
  6
CONTINUOUS
 62
     7
100
AcDbLine
 10
653.5000000000864
 20
814.0984848097561
 30
0.0
 11
653.5000000000864
 21
823.098484809757
 31
0.0
  0
ARC
  5
387
330
1F
100
AcDbEntity
  8
LAY-10
  6
CONTINUOUS
 62
     7
100
AcDbCircle
 10
613.3000000000857
 20
813.8984848097563
 30
0.0
 40
3.000000000000003
100
AcDbArc
 50
180.0
 51
270.0000000000002
  0
LINE
  5
388
330
1F
100
AcDbEntity
  8
LAY-10
  6
CONTINUOUS
 62
     7
100
AcDbLine
 10
751.5000000000828
 20
827.2984848097559
 30
0.0
 11
751.5000000000828
 21
829.2984848097559
 31
0.0
  0
LINE
  5
389
330
1F
100
AcDbEntity
  8
LAY-10
  6
CONTINUOUS
 62
     7
100
AcDbLine
 10
741.5000000000837
 20
827.298484809757
 30
0.0
 11
741.5000000000837
 21
826.2984848097559
 31
0.0
  0
LINE
  5
38A
330
1F
100
AcDbEntity
  8
LAY-10
  6
CONTINUOUS
 62
     7
100
AcDbLine
 10
750.5000000000828
 20
827.2984848097559
 30
0.0
 11
741.5000000000837
 21
827.298484809757
 31
0.0
  0
LINE
  5
38B
330
1F
100
AcDbEntity
  8
LAY-10
  6
CONTINUOUS
 62
     7
100
AcDbLine
 10
750.5000000000828
 20
829.2984848097559
 30
0.0
 11
750.5000000000828
 21
827.2984848097559
 31
0.0
  0
ARC
  5
38C
330
1F
100
AcDbEntity
  8
LAY-10
  6
CONTINUOUS
 62
     7
100
AcDbCircle
 10
750.5000000000828
 20
827.2984848097559
 30
0.0
 40
1.0
100
AcDbArc
 50
270.0000000000002
 51
0.0
  0
ARC
  5
38D
330
1F
100
AcDbEntity
  8
LAY-10
  6
CONTINUOUS
 62
     7
100
AcDbCircle
 10
754.5000000000837
 20
829.2984848097559
 30
0.0
 40
4.0
100
AcDbArc
 50
48.56057832088622
 51
180.0
  0
CIRCLE
  5
38E
330
1F
100
AcDbEntity
  8
LAY-10
  6
CONTINUOUS
 62
     7
100
AcDbCircle
 10
798.2000000000844
 20
829.2984848097559
 30
0.0
 40
3.000000000000003
  0
LINE
  5
38F
330
1F
100
AcDbEntity
  8
LAY-10
  6
CONTINUOUS
 62
     7
100
AcDbLine
 10
610.3000000000848
 20
813.8984848097563
 30
0.0
 11
610.3000000000848
 21
907.8984848097563
 31
0.0
  0
ARC
  5
390
330
1F
100
AcDbEntity
  8
LAY-10
  6
CONTINUOUS
 62
     7
100
AcDbCircle
 10
622.5000000000855
 20
823.2984848097559
 30
0.0
 40
3.000000000000003
100
AcDbArc
 50
90.00000000000001
 51
180.0
  0
LINE
  5
391
330
1F
100
AcDbEntity
  8
LAY-10
  6
CONTINUOUS
 62
     7
100
AcDbLine
 10
613.5000000000864
 20
814.0984848097561
 30
0.0
 11
626.5000000000855
 21
814.0984848097561
 31
0.0
  0
LINE
  5
392
330
1F
100
AcDbEntity
  8
LAY-10
  6
CONTINUOUS
 62
     7
100
AcDbLine
 10
622.5000000000855
 20
814.0984848097561
 30
0.0
 11
622.5000000000855
 21
823.0984848097554
 31
0.0
  0
LINE
  5
393
330
1F
100
AcDbEntity
  8
LAY-10
  6
CONTINUOUS
 62
     7
100
AcDbLine
 10
619.5000000000864
 20
814.0984848097561
 30
0.0
 11
619.5000000000864
 21
823.2984848097559
 31
0.0
  0
LINE
  5
394
330
1F
100
AcDbEntity
  8
LAY-10
  6
CONTINUOUS
 62
     7
100
AcDbLine
 10
626.5000000000855
 20
823.0984848097554
 30
0.0
 11
622.5000000000855
 21
823.0984848097554
 31
0.0
  0
LINE
  5
395
330
1F
100
AcDbEntity
  8
LAY-10
  6
CONTINUOUS
 62
     7
100
AcDbLine
 10
625.5000000000846
 20
823.0984848097554
 30
0.0
 11
625.5000000000846
 21
826.2984848097559
 31
0.0
  0
LINE
  5
396
330
1F
100
AcDbEntity
  8
LAY-10
  6
CONTINUOUS
 62
     7
100
AcDbLine
 10
637.5000000000855
 20
823.0984848097554
 30
0.0
 11
637.5000000000855
 21
826.2984848097559
 31
0.0
  0
LINE
  5
397
330
1F
100
AcDbEntity
  8
LAY-10
  6
CONTINUOUS
 62
     7
100
AcDbLine
 10
625.5000000000846
 20
814.0984848097561
 30
0.0
 11
625.5000000000846
 21
810.8984848097563
 31
0.0
  0
LINE
  5
398
330
1F
100
AcDbEntity
  8
LAY-10
  6
CONTINUOUS
 62
     7
100
AcDbLine
 10
637.5000000000855
 20
814.0984848097561
 30
0.0
 11
637.5000000000855
 21
810.8984848097563
 31
0.0
  0
LINE
  5
399
330
1F
100
AcDbEntity
  8
LAY-10
  6
CONTINUOUS
 62
     7
100
AcDbLine
 10
656.5000000000854
 20
810.8984848097563
 30
0.0
 11
656.5000000000854
 21
823.0984848097554
 31
0.0
  0
LINE
  5
39A
330
1F
100
AcDbEntity
  8
LAY-10
  6
HIDDEN
 62
     7
100
AcDbLine
 10
756.5000000001
 20
810.898484809807
 30
0.0
 11
666.5000000000899
 21
810.898484809807
 31
0.0
  0
LINE
  5
39B
330
1F
100
AcDbEntity
  8
LAY-10
  6
HIDDEN
 62
     7
100
AcDbLine
 10
1456.500000000083
 20
810.8984848097572
 30
0.0
 11
1546.50000000009
 21
810.8984848097572
 31
0.0
  0
LINE
  5
39C
330
1F
100
AcDbEntity
  8
LAY-10
  6
HIDDEN
 62
     7
100
AcDbLine
 10
1456.500000000083
 20
793.098484809758
 30
0.0
 11
1456.500000000083
 21
810.8984848097572
 31
0.0
  0
LINE
  5
39D
330
1F
100
AcDbEntity
  8
LAY-10
  6
CONTINUOUS
 62
     7
100
AcDbLine
 10
1595.500000000076
 20
895.8984848097574
 30
0.0
 11
1592.500000000075
 21
895.8984848097574
 31
0.0
  0
LINE
  5
39E
330
1F
100
AcDbEntity
  8
LAY-10
  6
CONTINUOUS
 62
     7
100
AcDbLine
 10
1595.500000000076
 20
910.8984848097574
 30
0.0
 11
1595.500000000076
 21
895.8984848097574
 31
0.0
  0
LINE
  5
39F
330
1F
100
AcDbEntity
  8
LAY-10
  6
CONTINUOUS
 62
     7
100
AcDbLine
 10
1592.500000000075
 20
907.8984848097574
 30
0.0
 11
1592.500000000075
 21
868.6984848097576
 31
0.0
  0
ARC
  5
3A0
330
1F
100
AcDbEntity
  8
LAY-10
  6
CONTINUOUS
 62
     7
100
AcDbCircle
 10
1586.500000000075
 20
868.6984848097576
 30
0.0
 40
6.000000000000005
100
AcDbArc
 50
270.0000000000002
 51
0.0
  0
ARC
  5
3A1
330
1F
100
AcDbEntity
  8
LAY-10
  6
CONTINUOUS
 62
     7
100
AcDbCircle
 10
1586.300000000075
 20
868.8984848097563
 30
0.0
 40
3.000000000000003
100
AcDbArc
 50
270.0000000000002
 51
0.0
  0
LINE
  5
3A2
330
1F
100
AcDbEntity
  8
LAY-10
  6
CONTINUOUS
 62
     7
100
AcDbLine
 10
1589.300000000076
 20
907.8984848097574
 30
0.0
 11
1589.300000000076
 21
868.8984848097563
 31
0.0
  0
LINE
  5
3A3
330
1F
100
AcDbEntity
  8
LAY-10
  6
CONTINUOUS
 62
     7
100
AcDbLine
 10
1596.50000000009
 20
910.8984848097072
 30
0.0
 11
1611.50000000009
 21
910.8984848097072
 31
0.0
  0
ARC
  5
3A4
330
1F
100
AcDbEntity
  8
LAY-10
  6
CONTINUOUS
 62
     7
100
AcDbCircle
 10
1539.500000000071
 20
816.098484809757
 30
0.0
 40
4.0
100
AcDbArc
 50
0.0
 51
90.00000000000001
  0
ARC
  5
3A5
330
1F
100
AcDbEntity
  8
LAY-10
  6
CONTINUOUS
 62
     7
100
AcDbCircle
 10
1518.500000000072
 20
822.098484809757
 30
0.0
 40
2.0
100
AcDbArc
 50
180.0
 51
270.0000000000002
  0
ARC
  5
3A6
330
1F
100
AcDbEntity
  8
LAY-10
  6
CONTINUOUS
 62
     7
100
AcDbCircle
 10
1545.500000000072
 20
795.098484809757
 30
0.0
 40
2.0
100
AcDbArc
 50
180.0
 51
270.0000000000002
  0
LINE
  5
3A7
330
1F
100
AcDbEntity
  8
LAY-10
  6
CONTINUOUS
 62
     7
100
AcDbLine
 10
1546.500000000072
 20
793.098484809757
 30
0.0
 11
1545.500000000072
 21
793.098484809757
 31
0.0
  0
LINE
  5
3A8
330
1F
100
AcDbEntity
  8
LAY-10
  6
CONTINUOUS
 62
     7
100
AcDbLine
 10
1516.500000000074
 20
823.098484809757
 30
0.0
 11
1516.500000000074
 21
822.098484809757
 31
0.0
  0
LINE
  5
3A9
330
1F
100
AcDbEntity
  8
LAY-10
  6
CONTINUOUS
 62
     7
100
AcDbLine
 10
1543.500000000073
 20
816.098484809757
 30
0.0
 11
1543.500000000073
 21
795.098484809757
 31
0.0
  0
LINE
  5
3AA
330
1F
100
AcDbEntity
  8
LAY-10
  6
CONTINUOUS
 62
     7
100
AcDbLine
 10
1546.500000000072
 20
823.098484809757
 30
0.0
 11
1546.500000000072
 21
793.098484809757
 31
0.0
  0
LINE
  5
3AB
330
1F
100
AcDbEntity
  8
LAY-10
  6
CONTINUOUS
 62
     7
100
AcDbLine
 10
1611.500000000072
 20
910.8984848097563
 30
0.0
 11
1611.500000000072
 21
907.8984848097563
 31
0.0
  0
LINE
  5
3AC
330
1F
100
AcDbEntity
  8
LAY-10
  6
CONTINUOUS
 62
     7
100
AcDbLine
 10
1596.500000000072
 20
895.8984848097563
 30
0.0
 11
1599.500000000073
 21
895.8984848097563
 31
0.0
  0
LINE
  5
3AD
330
1F
100
AcDbEntity
  8
LAY-10
  6
CONTINUOUS
 62
     7
100
AcDbLine
 10
1599.500000000073
 20
907.8984848097563
 30
0.0
 11
1611.500000000072
 21
907.8984848097563
 31
0.0
  0
LINE
  5
3AE
330
1F
100
AcDbEntity
  8
LAY-10
  6
CONTINUOUS
 62
     7
100
AcDbLine
 10
1596.500000000072
 20
910.8984848097563
 30
0.0
 11
1596.500000000072
 21
895.8984848097563
 31
0.0
  0
LINE
  5
3AF
330
1F
100
AcDbEntity
  8
LAY-10
  6
CONTINUOUS
 62
     7
100
AcDbLine
 10
1556.500000000081
 20
780.8984848097509
 30
0.0
 11
1556.500000000081
 21
810.8984848097572
 31
0.0
  0
LINE
  5
3B0
330
1F
100
AcDbEntity
  8
LAY-10
  6
CONTINUOUS
 62
     7
100
AcDbLine
 10
1556.500000000081
 20
780.8984848097509
 30
0.0
 11
1456.500000000081
 21
780.8984848097526
 31
0.0
  0
LINE
  5
3B1
330
1F
100
AcDbEntity
  8
LAY-10
  6
CONTINUOUS
 62
     7
100
AcDbLine
 10
1456.500000000081
 20
780.8984848097526
 30
0.0
 11
1456.500000000081
 21
793.098484809757
 31
0.0
  0
LINE
  5
3B2
330
1F
100
AcDbEntity
  8
LAY-10
  6
CONTINUOUS
 62
     7
100
AcDbLine
 10
1546.500000000072
 20
810.8984848097563
 30
0.0
 11
1599.700000000073
 21
810.8984848097563
 31
0.0
  0
LINE
  5
3B3
330
1F
100
AcDbEntity
  8
LAY-10
  6
CONTINUOUS
 62
     7
100
AcDbLine
 10
1599.500000000073
 20
907.8984848097563
 30
0.0
 11
1599.500000000073
 21
814.0984848097571
 31
0.0
  0
LINE
  5
3B4
330
1F
100
AcDbEntity
  8
LAY-10
  6
CONTINUOUS
 62
     7
100
AcDbLine
 10
1586.500000000073
 20
814.0984848097561
 30
0.0
 11
1599.500000000073
 21
814.0984848097561
 31
0.0
  0
LINE
  5
3B5
330
1F
100
AcDbEntity
  8
LAY-10
  6
CONTINUOUS
 62
     7
100
AcDbLine
 10
1576.500000000072
 20
814.0984848097561
 30
0.0
 11
1546.500000000072
 21
814.0984848097561
 31
0.0
  0
LINE
  5
3B6
330
1F
100
AcDbEntity
  8
LAY-10
  6
CONTINUOUS
 62
     7
100
AcDbLine
 10
1414.709132620151
 20
832.2971083471922
 30
0.0
 11
1458.409132620155
 21
832.2971083471922
 31
0.0
  0
ARC
  5
3B7
330
1F
100
AcDbEntity
  8
LAY-10
  6
CONTINUOUS
 62
     7
100
AcDbCircle
 10
1458.500000000073
 20
829.2984848097559
 30
0.0
 40
3.000000000000003
100
AcDbArc
 50
0.0
 51
91.73570458884814
  0
ARC
  5
3B8
330
1F
100
AcDbEntity
  8
LAY-10
  6
CONTINUOUS
 62
     7
100
AcDbCircle
 10
1458.500891001043
 20
829.2975938087867
 30
0.0
 40
2.999108999030569
100
AcDbArc
 50
270.0000000000002
 51
0.0
  0
LINE
  5
3B9
330
1F
100
AcDbEntity
  8
LAY-10
  6
CONTINUOUS
 62
     7
100
AcDbLine
 10
1559.500000000072
 20
814.0984848097561
 30
0.0
 11
1559.500000000072
 21
823.098484809757
 31
0.0
  0
ARC
  5
3BA
330
1F
100
AcDbEntity
  8
LAY-10
  6
CONTINUOUS
 62
     7
100
AcDbCircle
 10
1599.700000000073
 20
813.8984848097573
 30
0.0
 40
3.000000000000003
100
AcDbArc
 50
270.0000000000002
 51
0.0
  0
LINE
  5
3BB
330
1F
100
AcDbEntity
  8
LAY-10
  6
CONTINUOUS
 62
     7
100
AcDbLine
 10
1593.500000000072
 20
814.0984848097561
 30
0.0
 11
1593.500000000072
 21
823.2984848097559
 31
0.0
  0
LINE
  5
3BC
330
1F
100
AcDbEntity
  8
LAY-10
  6
CONTINUOUS
 62
     7
100
AcDbLine
 10
1602.700000000074
 20
813.8984848097573
 30
0.0
 11
1602.700000000074
 21
907.8984848097563
 31
0.0
  0
LINE
  5
3BD
330
1F
100
AcDbEntity
  8
LAY-10
  6
CONTINUOUS
 62
     7
100
AcDbLine
 10
1461.500000000074
 20
827.2984848097559
 30
0.0
 11
1461.500000000074
 21
829.2984848097559
 31
0.0
  0
LINE
  5
3BE
330
1F
100
AcDbEntity
  8
LAY-10
  6
CONTINUOUS
 62
     7
100
AcDbLine
 10
1471.500000000074
 20
827.298484809757
 30
0.0
 11
1471.500000000074
 21
826.2984848097559
 31
0.0
  0
LINE
  5
3BF
330
1F
100
AcDbEntity
  8
LAY-10
  6
CONTINUOUS
 62
     7
100
AcDbLine
 10
1462.500000000073
 20
827.2984848097559
 30
0.0
 11
1471.500000000074
 21
827.298484809757
 31
0.0
  0
LINE
  5
3C0
330
1F
100
AcDbEntity
  8
LAY-10
  6
CONTINUOUS
 62
     7
100
AcDbLine
 10
1462.500000000073
 20
829.2984848097559
 30
0.0
 11
1462.500000000073
 21
827.2984848097559
 31
0.0
  0
ARC
  5
3C1
330
1F
100
AcDbEntity
  8
LAY-10
  6
CONTINUOUS
 62
     7
100
AcDbCircle
 10
1462.500000000073
 20
827.2984848097559
 30
0.0
 40
1.0
100
AcDbArc
 50
180.0
 51
270.0000000000002
  0
ARC
  5
3C2
330
1F
100
AcDbEntity
  8
LAY-10
  6
CONTINUOUS
 62
     7
100
AcDbCircle
 10
1458.500000000073
 20
829.2984848097559
 30
0.0
 40
4.0
100
AcDbArc
 50
0.0
 51
131.439421679092
  0
CIRCLE
  5
3C3
330
1F
100
AcDbEntity
  8
LAY-10
  6
CONTINUOUS
 62
     7
100
AcDbCircle
 10
1414.800000000074
 20
829.2984848097559
 30
0.0
 40
3.000000000000003
  0
ARC
  5
3C4
330
1F
100
AcDbEntity
  8
LAY-10
  6
CONTINUOUS
 62
     7
100
AcDbCircle
 10
1590.500000000072
 20
823.298484809758
 30
0.0
 40
3.000000000000003
100
AcDbArc
 50
0.0
 51
90.00000000000001
  0
LINE
  5
3C5
330
1F
100
AcDbEntity
  8
LAY-10
  6
CONTINUOUS
 62
     7
100
AcDbLine
 10
1587.500000000074
 20
823.098484809757
 30
0.0
 11
1586.500000000071
 21
823.098484809757
 31
0.0
  0
LINE
  5
3C6
330
1F
100
AcDbEntity
  8
LAY-10
  6
CONTINUOUS
 62
     7
100
AcDbLine
 10
1575.500000000072
 20
823.098484809757
 30
0.0
 11
1576.500000000072
 21
823.098484809757
 31
0.0
  0
LINE
  5
3C7
330
1F
100
AcDbEntity
  8
LAY-10
  6
CONTINUOUS
 62
     7
100
AcDbLine
 10
1590.500000000072
 20
814.0984848097561
 30
0.0
 11
1590.500000000072
 21
823.098484809757
 31
0.0
  0
LINE
  5
3C8
330
1F
100
AcDbEntity
  8
LAY-10
  6
CONTINUOUS
 62
     7
100
AcDbLine
 10
1587.500000000074
 20
823.098484809757
 30
0.0
 11
1590.500000000072
 21
823.098484809757
 31
0.0
  0
LINE
  5
3C9
330
1F
100
AcDbEntity
  8
LAY-10
  6
CONTINUOUS
 62
     7
100
AcDbLine
 10
1587.500000000074
 20
823.098484809757
 30
0.0
 11
1587.500000000074
 21
826.2984848097559
 31
0.0
  0
LINE
  5
3CA
330
1F
100
AcDbEntity
  8
LAY-10
  6
CONTINUOUS
 62
     7
100
AcDbLine
 10
1575.500000000072
 20
823.098484809757
 30
0.0
 11
1575.500000000072
 21
826.2984848097559
 31
0.0
  0
LINE
  5
3CB
330
1F
100
AcDbEntity
  8
LAY-10
  6
CONTINUOUS
 62
     7
100
AcDbLine
 10
1587.500000000074
 20
814.0984848097561
 30
0.0
 11
1587.500000000074
 21
810.8984848097563
 31
0.0
  0
LINE
  5
3CC
330
1F
100
AcDbEntity
  8
LAY-10
  6
CONTINUOUS
 62
     7
100
AcDbLine
 10
1575.500000000072
 20
814.0984848097561
 30
0.0
 11
1575.500000000072
 21
810.8984848097563
 31
0.0
  0
LINE
  5
3CD
330
1F
100
AcDbEntity
  8
LAY-10
  6
CONTINUOUS
 62
     7
100
AcDbLine
 10
1558.000000000073
 20
823.098484809757
 30
0.0
 11
1575.500000000072
 21
823.098484809757
 31
0.0
  0
LINE
  5
3CE
330
1F
100
AcDbEntity
  8
LAY-10
  6
CONTINUOUS
 62
     7
100
AcDbLine
 10
1559.500000000072
 20
823.098484809757
 30
0.0
 11
1556.500000000073
 21
823.098484809757
 31
0.0
  0
LINE
  5
3CF
330
1F
100
AcDbEntity
  8
LAY-10
  6
CONTINUOUS
 62
     7
100
AcDbLine
 10
1556.500000000073
 20
810.8984848097563
 30
0.0
 11
1556.500000000073
 21
823.098484809757
 31
0.0
  0
LINE
  5
3D0
330
1F
100
AcDbEntity
  8
LAY-10
  6
CONTINUOUS
 62
     7
100
AcDbLine
 10
1253.00000000004
 20
843.6984848097565
 30
0.0
 11
1253.00000000004
 21
862.6984848097576
 31
0.0
  0
LINE
  5
3D1
330
1F
100
AcDbEntity
  8
LAY-10
  6
CONTINUOUS
 62
     7
100
AcDbLine
 10
1250.00000000004
 20
843.6984848097575
 30
0.0
 11
1250.00000000004
 21
862.6984848097576
 31
0.0
  0
LINE
  5
3D2
330
1F
100
AcDbEntity
  8
LAY-10
  6
CONTINUOUS
 62
     7
100
AcDbLine
 10
1453.00000000004
 20
860.6984848097568
 30
0.0
 11
1599.500000000073
 21
860.6984848097568
 31
0.0
  0
LINE
  5
3D3
330
1F
100
AcDbEntity
  8
LAY-10
  6
CONTINUOUS
 62
     7
100
AcDbLine
 10
1450.00000000004
 20
843.6984848097565
 30
0.0
 11
1450.00000000004
 21
862.6984848097576
 31
0.0
  0
LINE
  5
3D4
330
1F
100
AcDbEntity
  8
LAY-10
  6
CONTINUOUS
 62
     7
100
AcDbLine
 10
1453.00000000004
 20
843.6984848097575
 30
0.0
 11
1453.00000000004
 21
862.6984848097576
 31
0.0
  0
LINE
  5
3D5
330
1F
100
AcDbEntity
  8
LAY-10
  6
CONTINUOUS
 62
     7
100
AcDbLine
 10
1250.00000000004
 20
843.6984848097565
 30
0.0
 11
1453.00000000004
 21
843.6984848097565
 31
0.0
  0
LINE
  5
3D6
330
1F
100
AcDbEntity
  8
LAY-10
  6
CONTINUOUS
 62
     7
100
AcDbLine
 10
1595.500000000076
 20
910.8984848097563
 30
0.0
 11
1107.500000000076
 21
910.8984848097563
 31
0.0
  0
LINE
  5
3D7
330
1F
100
AcDbEntity
  8
LAY-10
  6
CONTINUOUS
 62
     7
100
AcDbLine
 10
1116.700000000076
 20
865.8984848097563
 30
0.0
 11
1586.300000000075
 21
865.8984848097574
 31
0.0
  0
LINE
  5
3D8
330
1F
100
AcDbEntity
  8
LAY-10
  6
CONTINUOUS
 62
     7
100
AcDbLine
 10
1116.50000000009
 20
862.6984848097576
 30
0.0
 11
1586.50000000009
 21
862.6984848097576
 31
0.0
  0
LINE
  5
3D9
330
1F
100
AcDbEntity
  8
LAY-10
  6
CONTINUOUS
 62
     7
100
AcDbLine
 10
613.5000000000864
 20
860.6984848097568
 30
0.0
 11
760.00000000004
 21
860.6984848097568
 31
0.0
  0
LINE
  5
3DA
330
1F
100
AcDbEntity
  8
LAY-10
  6
CONTINUOUS
 62
     7
100
AcDbLine
 10
763.00000000004
 20
843.6984848097565
 30
0.0
 11
763.00000000004
 21
862.6984848097576
 31
0.0
  0
LINE
  5
3DB
330
1F
100
AcDbEntity
  8
LAY-10
  6
CONTINUOUS
 62
     7
100
AcDbLine
 10
760.00000000004
 20
843.6984848097575
 30
0.0
 11
760.00000000004
 21
862.6984848097576
 31
0.0
  0
LINE
  5
3DC
330
1F
100
AcDbEntity
  8
LAY-10
  6
CONTINUOUS
 62
     7
100
AcDbLine
 10
960.00000000004
 20
843.6984848097565
 30
0.0
 11
960.00000000004
 21
862.6984848097576
 31
0.0
  0
LINE
  5
3DD
330
1F
100
AcDbEntity
  8
LAY-10
  6
CONTINUOUS
 62
     7
100
AcDbLine
 10
963.00000000004
 20
843.6984848097575
 30
0.0
 11
963.00000000004
 21
862.6984848097576
 31
0.0
  0
LINE
  5
3DE
330
1F
100
AcDbEntity
  8
LAY-10
  6
CONTINUOUS
 62
     7
100
AcDbLine
 10
963.00000000004
 20
860.6984848097568
 30
0.0
 11
1250.00000000004
 21
860.6984848097568
 31
0.0
  0
LINE
  5
3DF
330
1F
100
AcDbEntity
  8
LAY-10
  6
CONTINUOUS
 62
     7
100
AcDbLine
 10
760.00000000004
 20
843.6984848097565
 30
0.0
 11
963.00000000004
 21
843.6984848097565
 31
0.0
  0
LINE
  5
3E0
330
1F
100
AcDbEntity
  8
LAY-10
  6
CONTINUOUS
 62
     7
100
AcDbLine
 10
1105.500000000075
 20
910.8984848097563
 30
0.0
 11
617.5000000000755
 21
910.8984848097563
 31
0.0
  0
LINE
  5
3E1
330
1F
100
AcDbEntity
  8
LAY-10
  6
CONTINUOUS
 62
     7
100
AcDbLine
 10
626.7000000000762
 20
865.8984848097563
 30
0.0
 11
1096.300000000075
 21
865.8984848097574
 31
0.0
  0
LINE
  5
3E2
330
1F
100
AcDbEntity
  8
LAY-10
  6
CONTINUOUS
 62
     7
100
AcDbLine
 10
626.50000000009
 20
862.6984848097576
 30
0.0
 11
1096.50000000009
 21
862.6984848097576
 31
0.0
  0
LINE
  5
3E3
330
1F
100
AcDbEntity
  8
LAY-10
  6
CONTINUOUS
 62
     7
100
AcDbLine
 10
613.5000000000864
 20
862.6984848097576
 30
0.0
 11
1599.500000000073
 21
862.6984848097576
 31
0.0
  0
LINE
  5
3E4
330
1F
100
AcDbEntity
  8
LAY-10
  6
CONTINUOUS
 62
     7
100
AcDbLine
 10
632.5000000000773
 20
910.8984848097563
 30
0.0
 11
632.5000000000773
 21
865.8984848097563
 31
0.0
  0
LINE
  5
3E5
330
1F
100
AcDbEntity
  8
LAY-10
  6
CONTINUOUS
 62
     7
100
AcDbLine
 10
620.5000000000755
 20
907.8984848097563
 30
0.0
 11
632.5000000000773
 21
907.8984848097563
 31
0.0
  0
LINE
  5
3E6
330
1F
100
AcDbEntity
  8
LAY-10
  6
CONTINUOUS
 62
     7
100
AcDbLine
 10
1090.500000000075
 20
910.8984848097574
 30
0.0
 11
1090.500000000075
 21
865.8984848097574
 31
0.0
  0
LINE
  5
3E7
330
1F
100
AcDbEntity
  8
LAY-10
  6
CONTINUOUS
 62
     7
100
AcDbLine
 10
1102.500000000074
 20
907.8984848097574
 30
0.0
 11
1090.500000000075
 21
907.8984848097574
 31
0.0
  0
LINE
  5
3E8
330
1F
100
AcDbEntity
  8
LAY-10
  6
CONTINUOUS
 62
     7
100
AcDbLine
 10
1058.500000000076
 20
907.8984848097574
 30
0.0
 11
664.5000000000773
 21
907.8984848097574
 31
0.0
  0
LINE
  5
3E9
330
1F
100
AcDbEntity
  8
LAY-10
  6
CONTINUOUS
 62
     7
100
AcDbLine
 10
1122.500000000077
 20
910.8984848097563
 30
0.0
 11
1122.500000000077
 21
865.8984848097563
 31
0.0
  0
LINE
  5
3EA
330
1F
100
AcDbEntity
  8
LAY-10
  6
CONTINUOUS
 62
     7
100
AcDbLine
 10
1110.500000000076
 20
907.8984848097563
 30
0.0
 11
1122.500000000077
 21
907.8984848097563
 31
0.0
  0
LINE
  5
3EB
330
1F
100
AcDbEntity
  8
LAY-10
  6
CONTINUOUS
 62
     7
100
AcDbLine
 10
1580.500000000076
 20
910.8984848097574
 30
0.0
 11
1580.500000000076
 21
865.8984848097574
 31
0.0
  0
LINE
  5
3EC
330
1F
100
AcDbEntity
  8
LAY-10
  6
CONTINUOUS
 62
     7
100
AcDbLine
 10
1592.500000000075
 20
907.8984848097574
 30
0.0
 11
1580.500000000076
 21
907.8984848097574
 31
0.0
  0
LINE
  5
3ED
330
1F
100
AcDbEntity
  8
LAY-10
  6
CONTINUOUS
 62
     7
100
AcDbLine
 10
1548.500000000049
 20
907.8984848097574
 30
0.0
 11
1154.500000000077
 21
907.8984848097574
 31
0.0
  0
ARC
  5
3EE
330
1F
100
AcDbEntity
  8
LAY-10
  6
CONTINUOUS
 62
     7
100
AcDbCircle
 10
1610.700000000071
 20
855.2121933086979
 30
0.0
 40
8.0
100
AcDbArc
 50
180.0
 51
224.9999999999971
  0
LINE
  5
3EF
330
1F
100
AcDbEntity
  8
LAY-10
  6
CONTINUOUS
 62
     7
100
AcDbLine
 10
1640.398484809907
 20
814.1999999998794
 30
0.0
 11
1646.055339059398
 21
819.8568542493712
 31
0.0
  0
LINE
  5
3F0
330
1F
100
AcDbEntity
  8
LAY-10
  6
CONTINUOUS
 62
     7
100
AcDbLine
 10
1640.398484809907
 20
814.1999999998794
 30
0.0
 11
1605.043145750578
 21
849.5553390592064
 31
0.0
  0
LINE
  5
3F1
330
1F
100
AcDbEntity
  8
LAY-10
  6
CONTINUOUS
 62
     7
100
AcDbLine
 10
1646.055339059398
 20
819.8568542493712
 30
0.0
 11
1610.700000000071
 21
855.2121933086979
 31
0.0
  0
LINE
  5
3F2
330
1F
100
AcDbEntity
  8
LAY-10
  6
CONTINUOUS
 62
     7
100
AcDbLine
 10
1610.700000000071
 20
855.2121933086979
 30
0.0
 11
1610.700000000071
 21
881.898484809714
 31
0.0
  0
LINE
  5
3F3
330
1F
100
AcDbEntity
  8
LAY-10
  6
CONTINUOUS
 62
     7
100
AcDbLine
 10
1610.700000000071
 20
881.898484809714
 30
0.0
 11
1602.70000000007
 21
881.898484809714
 31
0.0
  0
ARC
  5
3F4
330
1F
100
AcDbEntity
  8
LAY-10
  6
CONTINUOUS
 62
     7
100
AcDbCircle
 10
602.3000000000757
 20
855.2121933086979
 30
0.0
 40
8.0
100
AcDbArc
 50
315.0000000000145
 51
0.0
  0
LINE
  5
3F5
330
1F
100
AcDbEntity
  8
LAY-10
  6
CONTINUOUS
 62
     7
100
AcDbLine
 10
602.3000000000757
 20
881.898484809714
 30
0.0
 11
610.3000000000766
 21
881.898484809714
 31
0.0
  0
LINE
  5
3F6
330
1F
100
AcDbEntity
  8
LAY-10
  6
CONTINUOUS
 62
     7
100
AcDbLine
 10
602.3000000000757
 20
855.2121933086979
 30
0.0
 11
602.3000000000757
 21
881.898484809714
 31
0.0
  0
LINE
  5
3F7
330
1F
100
AcDbEntity
  8
LAY-10
  6
CONTINUOUS
 62
     7
100
AcDbLine
 10
572.6015151902411
 20
814.1999999998794
 30
0.0
 11
607.9568542495681
 21
849.5553390592064
 31
0.0
  0
LINE
  5
3F8
330
1F
100
AcDbEntity
  8
LAY-10
  6
CONTINUOUS
 62
     7
100
AcDbLine
 10
572.6015151902411
 20
814.1999999998794
 30
0.0
 11
566.9446609407487
 21
819.8568542493712
 31
0.0
  0
LINE
  5
3F9
330
1F
100
AcDbEntity
  8
LAY-10
  6
CONTINUOUS
 62
     7
100
AcDbLine
 10
566.9446609407487
 20
819.8568542493712
 30
0.0
 11
602.3000000000757
 21
855.2121933086979
 31
0.0
  0
LINE
  5
3FA
330
1F
100
AcDbEntity
  8
LAY-10
  6
CONTINUOUS
 62
     7
100
AcDbLine
 10
2099.500000000009
 20
1456.898484809751
 30
0.0
 11
2100.500000000009
 21
1456.898484809751
 31
0.0
  0
ARC
  5
3FB
330
1F
100
AcDbEntity
  8
LAY-10
  6
CONTINUOUS
 62
     7
100
AcDbCircle
 10
2100.500000000009
 20
1454.898484809751
 30
0.0
 40
2.0
100
AcDbArc
 50
0.0
 51
90.00000000000001
  0
LINE
  5
3FC
330
1F
100
AcDbEntity
  8
LAY-10
  6
CENTER
 62
     2
100
AcDbLine
 10
2092.400000000009
 20
1330.59848480975
 30
0.0
 11
2092.400000000009
 21
1379.09848480975
 31
0.0
  0
LINE
  5
3FD
330
1F
100
AcDbEntity
  8
LAY-10
  6
CENTER
 62
     2
100
AcDbLine
 10
2073.60151519017
 20
1391.898484809748
 30
0.0
 11
2124.801515190174
 21
1391.898484809748
 31
0.0
  0
LINE
  5
3FE
330
1F
100
AcDbEntity
  8
LAY-10
  6
CENTER
 62
     2
100
AcDbLine
 10
1981.401515190175
 20
1866.898484809751
 30
0.0
 11
2160.401515190175
 21
1866.898484809751
 31
0.0
  0
LINE
  5
3FF
330
1F
100
AcDbEntity
  8
LAY-10
  6
CENTER
 62
     2
100
AcDbLine
 10
2092.400000000009
 20
2403.198484809746
 30
0.0
 11
2092.400000000009
 21
2354.69848480975
 31
0.0
  0
LINE
  5
400
330
1F
100
AcDbEntity
  8
LAY-10
  6
CENTER
 62
     2
100
AcDbLine
 10
2073.60151519017
 20
2341.898484809751
 30
0.0
 11
2124.801515190174
 21
2341.898484809751
 31
0.0
  0
LINE
  5
401
330
1F
100
AcDbEntity
  8
LAY-10
  6
CENTER
 62
     2
100
AcDbLine
 10
631.5000000000855
 20
848.9969696195942
 30
0.0
 11
631.5000000000855
 21
797.7969696195943
 31
0.0
  0
LINE
  5
402
330
1F
100
AcDbEntity
  8
LAY-10
  6
CENTER
 62
     2
100
AcDbLine
 10
1581.500000000072
 20
844.6684848097576
 30
0.0
 11
1581.500000000072
 21
793.2784848097573
 31
0.0
  0
LINE
  5
403
330
1F
100
AcDbEntity
  8
LAY-10
  6
CENTER
 62
     2
100
AcDbLine
 10
1106.500000000041
 20
940.9969696196641
 30
0.0
 11
1106.500000000041
 21
761.996969619665
 31
0.0
  0
DIMENSION
  5
405
330
1F
100
AcDbEntity
  8
LAY-20
  6
CONTINUOUS
 62
     4
100
AcDbDimension
  2
*D31
 10
1611.5000000001
 20
1080.8984848098
 30
0.0
 11
1106.500000000095
 21
1105.8984848098
 31
0.0
 70
   160
  3
ISO-25
100
AcDbAlignedDimension
 13
601.5000000000903
 23
910.8984848097069
 33
0.0
 14
1611.5000000001
 24
910.8984848097069
 34
0.0
100
AcDbRotatedDimension
1001
ACAD
1000
DSTYLE
1002
{
1070
   270
1070
     2
1070
     6
1000
EX_BNORM
1070
     7
1000
EX_BNORM
1070
    41
1040
25.0
1070
    42
1040
15.0
1070
    44
1040
15.0
1070
    73
1070
     0
1070
    74
1070
     0
1070
    75
1070
     0
1070
    76
1070
     0
1070
    77
1070
     1
1070
    78
1070
     8
1070
   140
1040
31.181104
1070
   147
1040
0.0
1070
   173
1070
     1
1070
   176
1070
     4
1070
   177
1070
     4
1070
   178
1070
     7
1070
   271
1070
     1
1070
   277
1070
     2
1070
   279
1070
     2
1070
   280
1070
     0
1070
   287
1070
     5
1070
   340
1005
404
1002
}
  0
DIMENSION
  5
413
330
1F
100
AcDbEntity
  8
LAY-20
  6
CONTINUOUS
 62
     4
100
AcDbDimension
  2
*D32
 10
617.5000000000757
 20
1010.89848480976
 30
0.0
 11
861.5000000000756
 21
1035.89848480976
 31
0.0
 70
   160
  3
ISO-25
100
AcDbAlignedDimension
 13
1105.500000000075
 23
910.8984848097564
 33
0.0
 14
617.5000000000757
 24
910.8984848097564
 34
0.0
100
AcDbRotatedDimension
1001
ACAD
1000
DSTYLE
1002
{
1070
   270
1070
     2
1070
     6
1000
EX_BNORM
1070
     7
1000
EX_BNORM
1070
    41
1040
25.0
1070
    42
1040
15.0
1070
    44
1040
15.0
1070
    73
1070
     0
1070
    74
1070
     0
1070
    75
1070
     0
1070
    76
1070
     0
1070
    77
1070
     1
1070
    78
1070
     8
1070
   140
1040
31.181104
1070
   147
1040
0.0
1070
   173
1070
     1
1070
   176
1070
     4
1070
   177
1070
     4
1070
   178
1070
     7
1070
   271
1070
     1
1070
   277
1070
     2
1070
   279
1070
     2
1070
   280
1070
     0
1070
   287
1070
     5
1070
   340
1005
404
1002
}
  0
DIMENSION
  5
420
330
1F
100
AcDbEntity
  8
LAY-20
  6
CONTINUOUS
 62
     4
100
AcDbDimension
  2
*D33
 10
1556.5000000001
 20
680.8984848097601
 30
0.0
 11
1106.5000000001
 21
705.8984848097601
 31
0.0
 70
   160
  3
ISO-25
100
AcDbAlignedDimension
 13
656.5000000001
 23
780.8984848097072
 33
0.0
 14
1556.5000000001
 24
780.8984848097072
 34
0.0
100
AcDbRotatedDimension
1001
ACAD
1000
DSTYLE
1002
{
1070
   270
1070
     2
1070
     6
1000
EX_BNORM
1070
     7
1000
EX_BNORM
1070
    41
1040
25.0
1070
    42
1040
15.0
1070
    44
1040
15.0
1070
    73
1070
     0
1070
    74
1070
     0
1070
    75
1070
     0
1070
    76
1070
     0
1070
    77
1070
     1
1070
    78
1070
     8
1070
   140
1040
31.181104
1070
   147
1040
0.0
1070
   173
1070
     1
1070
   176
1070
     4
1070
   177
1070
     4
1070
   178
1070
     7
1070
   271
1070
     1
1070
   277
1070
     2
1070
   279
1070
     2
1070
   280
1070
     0
1070
   287
1070
     5
1070
   340
1005
404
1002
}
  0
DIMENSION
  5
42D
330
1F
100
AcDbEntity
  8
LAY-20
  6
CONTINUOUS
 62
     4
100
AcDbDimension
  2
*D34
 10
1739.0
 20
810.8984848097069
 30
0.0
 11
1714.0
 21
860.8984848097068
 31
0.0
 70
   160
  3
ISO-25
100
AcDbAlignedDimension
 13
1611.5000000001
 23
910.8984848097069
 33
0.0
 14
1599.7000000001
 24
810.8984848097069
 34
0.0
 50
90.0
100
AcDbRotatedDimension
1001
ACAD
1000
DSTYLE
1002
{
1070
   270
1070
     2
1070
     6
1000
EX_BNORM
1070
     7
1000
EX_BNORM
1070
    41
1040
25.0
1070
    42
1040
15.0
1070
    44
1040
15.0
1070
    73
1070
     0
1070
    74
1070
     0
1070
    75
1070
     0
1070
    76
1070
     0
1070
    77
1070
     1
1070
    78
1070
     8
1070
   140
1040
31.181104
1070
   147
1040
0.0
1070
   173
1070
     1
1070
   176
1070
     4
1070
   177
1070
     4
1070
   178
1070
     7
1070
   271
1070
     1
1070
   277
1070
     2
1070
   279
1070
     2
1070
   280
1070
     0
1070
   287
1070
     5
1070
   340
1005
404
1002
}
  0
DIMENSION
  5
43A
330
1F
100
AcDbEntity
  8
LAY-20
  6
CONTINUOUS
 62
     4
100
AcDbDimension
  2
*D35
 10
1841.500000000033
 20
1324.898484809733
 30
0.0
 11
1816.500000000033
 21
1866.898484809733
 31
0.0
 70
   160
  3
ISO-25
100
AcDbAlignedDimension
 13
2011.500000000033
 23
2408.898484809733
 33
0.0
 14
2011.500000000033
 24
1324.898484809733
 34
0.0
 50
90.0
100
AcDbRotatedDimension
1001
ACAD
1000
DSTYLE
1002
{
1070
   270
1070
     2
1070
     6
1000
EX_BNORM
1070
     7
1000
EX_BNORM
1070
    41
1040
25.0
1070
    42
1040
15.0
1070
    44
1040
15.0
1070
    73
1070
     0
1070
    74
1070
     0
1070
    75
1070
     0
1070
    76
1070
     0
1070
    77
1070
     1
1070
    78
1070
     8
1070
   140
1040
31.181104
1070
   147
1040
0.0
1070
   173
1070
     1
1070
   176
1070
     4
1070
   177
1070
     4
1070
   178
1070
     7
1070
   271
1070
     1
1070
   277
1070
     2
1070
   279
1070
     2
1070
   280
1070
     0
1070
   287
1070
     5
1070
   340
1005
404
1002
}
  0
DIMENSION
  5
447
330
1F
100
AcDbEntity
  8
LAY-20
  6
CONTINUOUS
 62
     4
100
AcDbDimension
  2
*D36
 10
1911.500000000033
 20
2392.898484809751
 30
0.0
 11
1886.500000000033
 21
1866.898484809749
 31
0.0
 70
   160
  3
ISO-25
100
AcDbAlignedDimension
 13
2011.500000000012
 23
1340.898484809748
 33
0.0
 14
2011.500000000012
 24
2392.898484809751
 34
0.0
 50
90.0
100
AcDbRotatedDimension
1001
ACAD
1000
DSTYLE
1002
{
1070
   270
1070
     2
1070
     6
1000
EX_BNORM
1070
     7
1000
EX_BNORM
1070
    41
1040
25.0
1070
    42
1040
15.0
1070
    44
1040
15.0
1070
    73
1070
     0
1070
    74
1070
     0
1070
    75
1070
     0
1070
    76
1070
     0
1070
    77
1070
     1
1070
    78
1070
     8
1070
   140
1040
31.181104
1070
   147
1040
0.0
1070
   173
1070
     1
1070
   176
1070
     4
1070
   177
1070
     4
1070
   178
1070
     7
1070
   271
1070
     1
1070
   277
1070
     2
1070
   279
1070
     2
1070
   280
1070
     0
1070
   287
1070
     5
1070
   340
1005
404
1002
}
  0
DIMENSION
  5
454
330
1F
100
AcDbEntity
  8
LAY-20
  6
CONTINUOUS
 62
     4
100
AcDbDimension
  2
*D37
 10
2241.700000000033
 20
1416.898484809733
 30
0.0
 11
2216.700000000033
 21
1866.898484809683
 31
0.0
 70
   160
  3
ISO-25
100
AcDbAlignedDimension
 13
2141.700000000033
 23
2316.898484809633
 33
0.0
 14
2141.700000000033
 24
1416.898484809733
 34
0.0
 50
90.0
100
AcDbRotatedDimension
1001
ACAD
1000
DSTYLE
1002
{
1070
   270
1070
     2
1070
     6
1000
EX_BNORM
1070
     7
1000
EX_BNORM
1070
    41
1040
25.0
1070
    42
1040
15.0
1070
    44
1040
15.0
1070
    73
1070
     0
1070
    74
1070
     0
1070
    75
1070
     0
1070
    76
1070
     0
1070
    77
1070
     1
1070
    78
1070
     8
1070
   140
1040
31.181104
1070
   147
1040
0.0
1070
   173
1070
     1
1070
   176
1070
     4
1070
   177
1070
     4
1070
   178
1070
     7
1070
   271
1070
     1
1070
   277
1070
     2
1070
   279
1070
     2
1070
   280
1070
     0
1070
   287
1070
     5
1070
   340
1005
404
1002
}
  0
DIMENSION
  5
461
330
1F
100
AcDbEntity
  8
LAY-20
  6
CONTINUOUS
 62
     4
100
AcDbDimension
  2
*D38
 10
2311.700000000033
 20
1333.698484809733
 30
0.0
 11
2286.700000000033
 21
1866.898484809733
 31
0.0
 70
   160
  3
ISO-25
100
AcDbAlignedDimension
 13
2058.900000000033
 23
2400.098484809733
 33
0.0
 14
2058.900000000033
 24
1333.698484809733
 34
0.0
 50
90.0
100
AcDbRotatedDimension
1001
ACAD
1000
DSTYLE
1002
{
1070
   270
1070
     2
1070
     6
1000
EX_BNORM
1070
     7
1000
EX_BNORM
1070
    41
1040
25.0
1070
    42
1040
15.0
1070
    44
1040
15.0
1070
    73
1070
     0
1070
    74
1070
     0
1070
    75
1070
     0
1070
    76
1070
     0
1070
    77
1070
     1
1070
    78
1070
     0
1070
   140
1040
31.181104
1070
   147
1040
0.0
1070
   173
1070
     1
1070
   176
1070
     4
1070
   177
1070
     4
1070
   178
1070
     7
1070
   271
1070
     0
1070
   277
1070
     2
1070
   279
1070
     2
1070
   280
1070
     0
1070
   287
1070
     5
1070
   340
1005
404
1002
}
  0
DIMENSION
  5
46E
330
1F
100
AcDbEntity
  8
LAY-20
  6
CONTINUOUS
 62
     4
100
AcDbDimension
  2
*D39
 10
1355.0
 20
910.8984848097601
 30
0.0
 11
1330.0
 21
970.8984848097597
 31
0.0
 70
   160
  3
ISO-25
100
AcDbAlignedDimension
 13
1271.5
 23
875.8984848097601
 33
0.0
 14
1355.0
 24
910.8984848097601
 34
0.0
 50
90.0
100
AcDbRotatedDimension
1001
ACAD
1000
DSTYLE
1002
{
1070
   270
1070
     2
1070
     6
1000
EX_BNORM
1070
     7
1000
EX_BNORM
1070
    41
1040
25.0
1070
    42
1040
15.0
1070
    44
1040
15.0
1070
    73
1070
     0
1070
    74
1070
     0
1070
    75
1070
     0
1070
    76
1070
     1
1070
    77
1070
     1
1070
    78
1070
     8
1070
   140
1040
31.181104
1070
   147
1040
0.0
1070
   173
1070
     1
1070
   176
1070
     4
1070
   177
1070
     4
1070
   178
1070
     7
1070
   271
1070
     1
1070
   277
1070
     2
1070
   279
1070
     2
1070
   280
1070
     2
1070
   287
1070
     5
1070
   340
1005
404
1002
}
  0
DIMENSION
  5
47C
330
1F
100
AcDbEntity
  8
LAY-20
  6
CONTINUOUS
 62
     4
100
AcDbDimension
  2
*D40
 10
1602.7000000001
 20
610.89848480976
 30
0.0
 11
1106.50000000009
 21
635.89848480976
 31
0.0
 70
   160
  3
ISO-25
100
AcDbAlignedDimension
 13
610.30000000008
 23
813.8984848097601
 33
0.0
 14
1602.7000000001
 24
813.8984848097601
 34
0.0
100
AcDbRotatedDimension
1001
ACAD
1000
DSTYLE
1002
{
1070
   270
1070
     2
1070
     6
1000
EX_BNORM
1070
     7
1000
EX_BNORM
1070
    41
1040
25.0
1070
    42
1040
15.0
1070
    44
1040
15.0
1070
    73
1070
     0
1070
    74
1070
     0
1070
    75
1070
     0
1070
    76
1070
     0
1070
    77
1070
     1
1070
    78
1070
     0
1070
   140
1040
31.181104
1070
   147
1040
0.0
1070
   173
1070
     1
1070
   176
1070
     4
1070
   177
1070
     4
1070
   178
1070
     7
1070
   271
1070
     0
1070
   277
1070
     2
1070
   279
1070
     2
1070
   280
1070
     0
1070
   287
1070
     5
1070
   340
1005
404
1002
}
  0
LINE
  5
489
330
1F
100
AcDbEntity
  8
LAY-20
  6
CONTINUOUS
 62
     7
100
AcDbLine
 10
741.4999999999853
 20
1355.898484809687
 30
0.0
 11
741.4999999999873
 21
2377.898484809671
 31
0.0
  0
LINE
  5
48A
330
1F
100
AcDbEntity
  8
LAY-20
  6
CONTINUOUS
 62
     7
100
AcDbLine
 10
748.9999999999853
 20
1355.898484809687
 30
0.0
 11
748.9999999999873
 21
2377.898484809671
 31
0.0
  0
LINE
  5
48B
330
1F
100
AcDbEntity
  8
LAY-20
  6
CONTINUOUS
 62
     7
100
AcDbLine
 10
773.9999999999873
 20
1355.898484809687
 30
0.0
 11
773.9999999999882
 21
2377.898484809671
 31
0.0
  0
LINE
  5
48C
330
1F
100
AcDbEntity
  8
LAY-20
  6
CONTINUOUS
 62
     7
100
AcDbLine
 10
781.4999999999873
 20
1355.898484809687
 30
0.0
 11
781.4999999999882
 21
2377.898484809671
 31
0.0
  0
LINE
  5
48D
330
1F
100
AcDbEntity
  8
LAY-20
  6
CONTINUOUS
 62
     7
100
AcDbLine
 10
601.5000000000491
 20
1324.898484809737
 30
0.0
 11
1611.500000000031
 21
1324.898484809735
 31
0.0
  0
LINE
  5
48E
330
1F
100
AcDbEntity
  8
LAY-20
  6
CONTINUOUS
 62
     7
100
AcDbLine
 10
1596.500000000029
 20
1339.898484809735
 30
0.0
 11
616.5000000000491
 21
1339.898484809737
 31
0.0
  0
LINE
  5
48F
330
1F
100
AcDbEntity
  8
LAY-20
  6
CONTINUOUS
 62
     7
100
AcDbLine
 10
1596.500000000029
 20
2393.898484809738
 30
0.0
 11
616.5000000000491
 21
2393.898484809738
 31
0.0
  0
LINE
  5
490
330
1F
100
AcDbEntity
  8
LAY-20
  6
CONTINUOUS
 62
     7
100
AcDbLine
 10
601.5000000000491
 20
2408.898484809738
 30
0.0
 11
1611.500000000031
 21
2408.898484809738
 31
0.0
  0
LINE
  5
491
330
1F
100
AcDbEntity
  8
LAY-20
  6
CONTINUOUS
 62
     7
100
AcDbLine
 10
1105.500000000036
 20
2392.898484809669
 30
0.0
 11
1090.500000000037
 21
2377.898484809671
 31
0.0
  0
LINE
  5
492
330
1F
100
AcDbEntity
  8
LAY-20
  6
CONTINUOUS
 62
     7
100
AcDbLine
 10
632.5000000000364
 20
2377.898484809665
 30
0.0
 11
1090.500000000032
 21
2377.898484809665
 31
0.0
  0
LINE
  5
493
330
1F
100
AcDbEntity
  8
LAY-20
  6
CONTINUOUS
 62
     7
100
AcDbLine
 10
617.5000000000364
 20
2392.898484809669
 30
0.0
 11
1105.500000000036
 21
2392.898484809669
 31
0.0
  0
LINE
  5
494
330
1F
100
AcDbEntity
  8
LAY-20
  6
CONTINUOUS
 62
     7
100
AcDbLine
 10
1122.500000000037
 20
2377.898484809671
 30
0.0
 11
1107.500000000037
 21
2392.898484809669
 31
0.0
  0
LINE
  5
495
330
1F
100
AcDbEntity
  8
LAY-20
  6
CONTINUOUS
 62
     7
100
AcDbLine
 10
616.5000000000491
 20
1339.898484809737
 30
0.0
 11
616.5000000000491
 21
2393.898484809738
 31
0.0
  0
LINE
  5
496
330
1F
100
AcDbEntity
  8
LAY-20
  6
CONTINUOUS
 62
     7
100
AcDbLine
 10
601.5000000000491
 20
1324.898484809737
 30
0.0
 11
601.5000000000491
 21
2408.898484809738
 31
0.0
  0
LINE
  5
497
330
1F
100
AcDbEntity
  8
LAY-20
  6
CONTINUOUS
 62
     7
100
AcDbLine
 10
617.5000000000364
 20
1340.898484809667
 30
0.0
 11
617.5000000000364
 21
2392.898484809669
 31
0.0
  0
LINE
  5
498
330
1F
100
AcDbEntity
  8
LAY-20
  6
CONTINUOUS
 62
     7
100
AcDbLine
 10
632.5000000000364
 20
2377.898484809671
 30
0.0
 11
632.5000000000364
 21
1355.898484809667
 31
0.0
  0
LINE
  5
499
330
1F
100
AcDbEntity
  8
LAY-20
  6
CONTINUOUS
 62
     7
100
AcDbLine
 10
632.5000000000364
 20
1355.898484809667
 30
0.0
 11
617.5000000000364
 21
1340.898484809667
 31
0.0
  0
LINE
  5
49A
330
1F
100
AcDbEntity
  8
LAY-20
  6
CONTINUOUS
 62
     7
100
AcDbLine
 10
616.5000000000491
 20
1339.898484809737
 30
0.0
 11
601.5000000000491
 21
1324.898484809737
 31
0.0
  0
LINE
  5
49B
330
1F
100
AcDbEntity
  8
LAY-20
  6
CONTINUOUS
 62
     7
100
AcDbLine
 10
601.5000000000491
 20
2408.898484809738
 30
0.0
 11
616.5000000000491
 21
2393.898484809738
 31
0.0
  0
LINE
  5
49C
330
1F
100
AcDbEntity
  8
LAY-20
  6
CONTINUOUS
 62
     7
100
AcDbLine
 10
632.5000000000364
 20
2377.898484809671
 30
0.0
 11
617.5000000000364
 21
2392.898484809669
 31
0.0
  0
LINE
  5
49D
330
1F
100
AcDbEntity
  8
LAY-20
  6
CONTINUOUS
 62
     7
100
AcDbLine
 10
572.6015151902648
 20
1621.398484809804
 30
0.0
 11
572.6015151902648
 21
1612.398484809803
 31
0.0
  0
LINE
  5
49E
330
1F
100
AcDbEntity
  8
LAY-20
  6
CONTINUOUS
 62
     7
100
AcDbLine
 10
601.5000000001019
 20
1612.398484809803
 30
0.0
 11
572.6015151902648
 21
1612.398484809803
 31
0.0
  0
LINE
  5
49F
330
1F
100
AcDbEntity
  8
LAY-20
  6
CONTINUOUS
 62
     7
100
AcDbLine
 10
601.5000000001019
 20
1621.398484809804
 30
0.0
 11
572.6015151902648
 21
1621.398484809804
 31
0.0
  0
LINE
  5
4A0
330
1F
100
AcDbEntity
  8
LAY-20
  6
CONTINUOUS
 62
     7
100
AcDbLine
 10
572.6015151902648
 20
2112.398484809668
 30
0.0
 11
572.6015151902648
 21
2121.398484809669
 31
0.0
  0
LINE
  5
4A1
330
1F
100
AcDbEntity
  8
LAY-20
  6
CONTINUOUS
 62
     7
100
AcDbLine
 10
601.5000000001019
 20
2121.398484809669
 30
0.0
 11
572.6015151902648
 21
2121.398484809669
 31
0.0
  0
LINE
  5
4A2
330
1F
100
AcDbEntity
  8
LAY-20
  6
CONTINUOUS
 62
     7
100
AcDbLine
 10
601.5000000001019
 20
2112.398484809668
 30
0.0
 11
572.6015151902648
 21
2112.398484809668
 31
0.0
  0
LINE
  5
4A3
330
1F
100
AcDbEntity
  8
LAY-20
  6
CONTINUOUS
 62
     7
100
AcDbLine
 10
1596.500000000029
 20
2393.898484809738
 30
0.0
 11
1596.500000000029
 21
1339.898484809735
 31
0.0
  0
LINE
  5
4A4
330
1F
100
AcDbEntity
  8
LAY-20
  6
CONTINUOUS
 62
     7
100
AcDbLine
 10
1611.500000000031
 20
1324.898484809737
 30
0.0
 11
1611.500000000031
 21
2408.898484809738
 31
0.0
  0
LINE
  5
4A5
330
1F
100
AcDbEntity
  8
LAY-20
  6
CONTINUOUS
 62
     7
100
AcDbLine
 10
1596.500000000029
 20
1339.898484809737
 30
0.0
 11
1611.500000000031
 21
1324.898484809738
 31
0.0
  0
LINE
  5
4A6
330
1F
100
AcDbEntity
  8
LAY-20
  6
CONTINUOUS
 62
     7
100
AcDbLine
 10
1596.500000000029
 20
2393.898484809738
 30
0.0
 11
1611.500000000031
 21
2408.898484809738
 31
0.0
  0
LINE
  5
4A7
330
1F
100
AcDbEntity
  8
LAY-20
  6
CONTINUOUS
 62
     7
100
AcDbLine
 10
1640.398484809733
 20
1621.398484809804
 30
0.0
 11
1640.398484809733
 21
1612.398484809803
 31
0.0
  0
LINE
  5
4A8
330
1F
100
AcDbEntity
  8
LAY-20
  6
CONTINUOUS
 62
     7
100
AcDbLine
 10
1611.499999999896
 20
1612.398484809803
 30
0.0
 11
1640.398484809733
 21
1612.398484809803
 31
0.0
  0
LINE
  5
4A9
330
1F
100
AcDbEntity
  8
LAY-20
  6
CONTINUOUS
 62
     7
100
AcDbLine
 10
1611.499999999896
 20
1621.398484809804
 30
0.0
 11
1640.398484809733
 21
1621.398484809804
 31
0.0
  0
LINE
  5
4AA
330
1F
100
AcDbEntity
  8
LAY-20
  6
CONTINUOUS
 62
     7
100
AcDbLine
 10
1640.398484809733
 20
2112.398484809668
 30
0.0
 11
1640.398484809733
 21
2121.398484809669
 31
0.0
  0
LINE
  5
4AB
330
1F
100
AcDbEntity
  8
LAY-20
  6
CONTINUOUS
 62
     7
100
AcDbLine
 10
1611.499999999896
 20
2121.398484809669
 30
0.0
 11
1640.398484809733
 21
2121.398484809669
 31
0.0
  0
LINE
  5
4AC
330
1F
100
AcDbEntity
  8
LAY-20
  6
CONTINUOUS
 62
     7
100
AcDbLine
 10
1611.499999999896
 20
2112.398484809668
 30
0.0
 11
1640.398484809733
 21
2112.398484809668
 31
0.0
  0
LINE
  5
4AD
330
1F
100
AcDbEntity
  8
LAY-20
  6
CONTINUOUS
 62
     7
100
AcDbLine
 10
1593.500000000029
 20
1379.898484809687
 30
0.0
 11
1593.500000000028
 21
2353.898484809737
 31
0.0
  0
LINE
  5
4AE
330
1F
100
AcDbEntity
  8
LAY-20
  6
CONTINUOUS
 62
     7
100
AcDbLine
 10
1351.999999999982
 20
2408.898484809624
 30
0.0
 11
1351.999999999982
 21
2437.796969619461
 31
0.0
  0
LINE
  5
4AF
330
1F
100
AcDbEntity
  8
LAY-20
  6
CONTINUOUS
 62
     7
100
AcDbLine
 10
1360.999999999983
 20
2408.898484809624
 30
0.0
 11
1360.999999999983
 21
2437.796969619461
 31
0.0
  0
LINE
  5
4B0
330
1F
100
AcDbEntity
  8
LAY-20
  6
CONTINUOUS
 62
     7
100
AcDbLine
 10
1351.999999999982
 20
2437.796969619461
 30
0.0
 11
1360.999999999983
 21
2437.796969619461
 31
0.0
  0
LINE
  5
4B1
330
1F
100
AcDbEntity
  8
LAY-20
  6
CONTINUOUS
 62
     7
100
AcDbLine
 10
861.0000000000164
 20
2408.898484809624
 30
0.0
 11
861.0000000000164
 21
2437.796969619461
 31
0.0
  0
LINE
  5
4B2
330
1F
100
AcDbEntity
  8
LAY-20
  6
CONTINUOUS
 62
     7
100
AcDbLine
 10
852.0000000000155
 20
2408.898484809624
 30
0.0
 11
852.0000000000155
 21
2437.796969619461
 31
0.0
  0
LINE
  5
4B3
330
1F
100
AcDbEntity
  8
LAY-20
  6
CONTINUOUS
 62
     7
100
AcDbLine
 10
861.0000000000164
 20
2437.796969619461
 30
0.0
 11
852.0000000000155
 21
2437.796969619461
 31
0.0
  0
LINE
  5
4B4
330
1F
100
AcDbEntity
  8
LAY-20
  6
CONTINUOUS
 62
     7
100
AcDbLine
 10
1351.999999999982
 20
1324.898484809848
 30
0.0
 11
1351.999999999982
 21
1296.000000000011
 31
0.0
  0
LINE
  5
4B5
330
1F
100
AcDbEntity
  8
LAY-20
  6
CONTINUOUS
 62
     7
100
AcDbLine
 10
1360.999999999983
 20
1324.898484809848
 30
0.0
 11
1360.999999999983
 21
1296.000000000011
 31
0.0
  0
LINE
  5
4B6
330
1F
100
AcDbEntity
  8
LAY-20
  6
CONTINUOUS
 62
     7
100
AcDbLine
 10
1351.999999999982
 20
1296.000000000011
 30
0.0
 11
1360.999999999983
 21
1296.000000000011
 31
0.0
  0
LINE
  5
4B7
330
1F
100
AcDbEntity
  8
LAY-20
  6
CONTINUOUS
 62
     7
100
AcDbLine
 10
861.0000000000164
 20
1324.898484809848
 30
0.0
 11
861.0000000000164
 21
1296.000000000011
 31
0.0
  0
LINE
  5
4B8
330
1F
100
AcDbEntity
  8
LAY-20
  6
CONTINUOUS
 62
     7
100
AcDbLine
 10
852.0000000000155
 20
1324.898484809848
 30
0.0
 11
852.0000000000155
 21
1296.000000000011
 31
0.0
  0
LINE
  5
4B9
330
1F
100
AcDbEntity
  8
LAY-20
  6
CONTINUOUS
 62
     7
100
AcDbLine
 10
861.0000000000164
 20
1296.000000000011
 30
0.0
 11
852.0000000000155
 21
1296.000000000011
 31
0.0
  0
LINE
  5
4BA
330
1F
100
AcDbEntity
  8
LAY-20
  6
HIDDEN
 62
     7
100
AcDbLine
 10
1022.000000000037
 20
1337.698484809734
 30
0.0
 11
1022.000000000039
 21
1373.807118350773
 31
0.0
  0
LINE
  5
4BB
330
1F
100
AcDbEntity
  8
LAY-20
  6
HIDDEN
 62
     7
100
AcDbLine
 10
975.3000000000384
 20
1373.807118350773
 30
0.0
 11
1033.300000000038
 21
1373.807118350773
 31
0.0
  0
LINE
  5
4BC
330
1F
100
AcDbEntity
  8
LAY-20
  6
HIDDEN
 62
     7
100
AcDbLine
 10
991.00000000004
 20
1337.698484809734
 30
0.0
 11
991.00000000004
 21
1373.698484809733
 31
0.0
  0
LINE
  5
4BD
330
1F
100
AcDbEntity
  8
LAY-20
  6
HIDDEN
 62
     7
100
AcDbLine
 10
991.00000000004
 20
1337.698484809734
 30
0.0
 11
1022.000000000037
 21
1337.698484809734
 31
0.0
  0
LINE
  5
4BE
330
1F
100
AcDbEntity
  8
LAY-20
  6
CONTINUOUS
 62
     7
100
AcDbLine
 10
664.5000000000364
 20
2345.898484809668
 30
0.0
 11
664.5000000000364
 21
2377.898484809667
 31
0.0
  0
LINE
  5
4BF
330
1F
100
AcDbEntity
  8
LAY-20
  6
CONTINUOUS
 62
     7
100
AcDbLine
 10
664.5000000000372
 20
2345.898484809668
 30
0.0
 11
632.5000000000373
 21
2345.898484809668
 31
0.0
  0
LINE
  5
4C0
330
1F
100
AcDbEntity
  8
LAY-20
  6
CONTINUOUS
 62
     7
100
AcDbLine
 10
659.0000000000373
 20
2365.898484809666
 30
0.0
 11
660.6063000128406
 21
2365.898484809666
 31
0.0
  0
LINE
  5
4C1
330
1F
100
AcDbEntity
  8
LAY-20
  6
CONTINUOUS
 62
     7
100
AcDbLine
 10
659.0000000000373
 20
2357.898484809668
 30
0.0
 11
660.6063000128406
 21
2357.898484809668
 31
0.0
  0
LINE
  5
4C2
330
1F
100
AcDbEntity
  8
LAY-20
  6
CONTINUOUS
 62
     7
100
AcDbLine
 10
659.0000000000373
 20
2357.898484809668
 30
0.0
 11
659.0000000000373
 21
2365.898484809666
 31
0.0
  0
LINE
  5
4C3
330
1F
100
AcDbEntity
  8
LAY-20
  6
CONTINUOUS
 62
     7
100
AcDbLine
 10
648.5000000000373
 20
2368.398484809667
 30
0.0
 11
652.5000000000373
 21
2361.898484809667
 31
0.0
  0
LINE
  5
4C4
330
1F
100
AcDbEntity
  8
LAY-20
  6
CONTINUOUS
 62
     7
100
AcDbLine
 10
652.5000000000373
 20
2361.898484809667
 30
0.0
 11
648.5000000000373
 21
2355.398484809667
 31
0.0
  0
LINE
  5
4C5
330
1F
100
AcDbEntity
  8
LAY-20
  6
CONTINUOUS
 62
     7
100
AcDbLine
 10
648.5000000000373
 20
2355.398484809667
 30
0.0
 11
644.5000000000372
 21
2361.898484809667
 31
0.0
  0
LINE
  5
4C6
330
1F
100
AcDbEntity
  8
LAY-20
  6
CONTINUOUS
 62
     7
100
AcDbLine
 10
644.5000000000372
 20
2361.898484809667
 30
0.0
 11
648.5000000000373
 21
2368.398484809667
 31
0.0
  0
CIRCLE
  5
4C7
330
1F
100
AcDbEntity
  8
LAY-20
  6
CONTINUOUS
 62
     7
100
AcDbCircle
 10
648.5000000000373
 20
2361.898484809667
 30
0.0
 40
12.75000000000001
  0
LINE
  5
4C8
330
1F
100
AcDbEntity
  8
LAY-20
  6
CONTINUOUS
 62
     7
100
AcDbLine
 10
1058.500000000038
 20
2345.898484809668
 30
0.0
 11
1058.500000000038
 21
2377.898484809667
 31
0.0
  0
LINE
  5
4C9
330
1F
100
AcDbEntity
  8
LAY-20
  6
CONTINUOUS
 62
     7
100
AcDbLine
 10
1090.500000000037
 20
2345.898484809668
 30
0.0
 11
1058.500000000037
 21
2345.898484809668
 31
0.0
  0
LINE
  5
4CA
330
1F
100
AcDbEntity
  8
LAY-20
  6
CONTINUOUS
 62
     7
100
AcDbLine
 10
1085.000000000037
 20
2365.898484809666
 30
0.0
 11
1086.606300012841
 21
2365.898484809666
 31
0.0
  0
LINE
  5
4CB
330
1F
100
AcDbEntity
  8
LAY-20
  6
CONTINUOUS
 62
     7
100
AcDbLine
 10
1085.000000000037
 20
2357.898484809668
 30
0.0
 11
1086.606300012841
 21
2357.898484809668
 31
0.0
  0
LINE
  5
4CC
330
1F
100
AcDbEntity
  8
LAY-20
  6
CONTINUOUS
 62
     7
100
AcDbLine
 10
1085.000000000037
 20
2357.898484809668
 30
0.0
 11
1085.000000000037
 21
2365.898484809666
 31
0.0
  0
LINE
  5
4CD
330
1F
100
AcDbEntity
  8
LAY-20
  6
CONTINUOUS
 62
     7
100
AcDbLine
 10
1074.500000000037
 20
2368.398484809667
 30
0.0
 11
1078.500000000037
 21
2361.898484809667
 31
0.0
  0
LINE
  5
4CE
330
1F
100
AcDbEntity
  8
LAY-20
  6
CONTINUOUS
 62
     7
100
AcDbLine
 10
1078.500000000037
 20
2361.898484809667
 30
0.0
 11
1074.500000000037
 21
2355.398484809667
 31
0.0
  0
LINE
  5
4CF
330
1F
100
AcDbEntity
  8
LAY-20
  6
CONTINUOUS
 62
     7
100
AcDbLine
 10
1074.500000000037
 20
2355.398484809667
 30
0.0
 11
1070.500000000037
 21
2361.898484809667
 31
0.0
  0
LINE
  5
4D0
330
1F
100
AcDbEntity
  8
LAY-20
  6
CONTINUOUS
 62
     7
100
AcDbLine
 10
1070.500000000037
 20
2361.898484809667
 30
0.0
 11
1074.500000000037
 21
2368.398484809667
 31
0.0
  0
CIRCLE
  5
4D1
330
1F
100
AcDbEntity
  8
LAY-20
  6
CONTINUOUS
 62
     7
100
AcDbCircle
 10
1074.500000000037
 20
2361.898484809667
 30
0.0
 40
12.75000000000001
  0
LINE
  5
4D2
330
1F
100
AcDbEntity
  8
LAY-20
  6
CONTINUOUS
 62
     7
100
AcDbLine
 10
664.5000000000364
 20
1387.898484809804
 30
0.0
 11
664.5000000000364
 21
1355.898484809805
 31
0.0
  0
LINE
  5
4D3
330
1F
100
AcDbEntity
  8
LAY-20
  6
CONTINUOUS
 62
     7
100
AcDbLine
 10
664.5000000000372
 20
1387.898484809804
 30
0.0
 11
632.5000000000373
 21
1387.898484809804
 31
0.0
  0
LINE
  5
4D4
330
1F
100
AcDbEntity
  8
LAY-20
  6
CONTINUOUS
 62
     7
100
AcDbLine
 10
659.0000000000373
 20
1367.898484809806
 30
0.0
 11
660.6063000128406
 21
1367.898484809806
 31
0.0
  0
LINE
  5
4D5
330
1F
100
AcDbEntity
  8
LAY-20
  6
CONTINUOUS
 62
     7
100
AcDbLine
 10
659.0000000000373
 20
1375.898484809804
 30
0.0
 11
660.6063000128406
 21
1375.898484809804
 31
0.0
  0
LINE
  5
4D6
330
1F
100
AcDbEntity
  8
LAY-20
  6
CONTINUOUS
 62
     7
100
AcDbLine
 10
659.0000000000373
 20
1375.898484809804
 30
0.0
 11
659.0000000000373
 21
1367.898484809806
 31
0.0
  0
LINE
  5
4D7
330
1F
100
AcDbEntity
  8
LAY-20
  6
CONTINUOUS
 62
     7
100
AcDbLine
 10
648.5000000000373
 20
1365.398484809805
 30
0.0
 11
652.5000000000373
 21
1371.898484809805
 31
0.0
  0
LINE
  5
4D8
330
1F
100
AcDbEntity
  8
LAY-20
  6
CONTINUOUS
 62
     7
100
AcDbLine
 10
652.5000000000373
 20
1371.898484809805
 30
0.0
 11
648.5000000000373
 21
1378.398484809805
 31
0.0
  0
LINE
  5
4D9
330
1F
100
AcDbEntity
  8
LAY-20
  6
CONTINUOUS
 62
     7
100
AcDbLine
 10
648.5000000000373
 20
1378.398484809805
 30
0.0
 11
644.5000000000372
 21
1371.898484809805
 31
0.0
  0
LINE
  5
4DA
330
1F
100
AcDbEntity
  8
LAY-20
  6
CONTINUOUS
 62
     7
100
AcDbLine
 10
644.5000000000372
 20
1371.898484809805
 30
0.0
 11
648.5000000000373
 21
1365.398484809805
 31
0.0
  0
CIRCLE
  5
4DB
330
1F
100
AcDbEntity
  8
LAY-20
  6
CONTINUOUS
 62
     7
100
AcDbCircle
 10
648.5000000000373
 20
1371.898484809805
 30
0.0
 40
12.75000000000001
  0
LINE
  5
4DC
330
1F
100
AcDbEntity
  8
LAY-20
  6
CONTINUOUS
 62
     7
100
AcDbLine
 10
1154.500000000036
 20
2345.898484809668
 30
0.0
 11
1154.500000000036
 21
2377.898484809667
 31
0.0
  0
LINE
  5
4DD
330
1F
100
AcDbEntity
  8
LAY-20
  6
CONTINUOUS
 62
     7
100
AcDbLine
 10
1154.500000000037
 20
2345.898484809668
 30
0.0
 11
1122.500000000037
 21
2345.898484809668
 31
0.0
  0
LINE
  5
4DE
330
1F
100
AcDbEntity
  8
LAY-20
  6
CONTINUOUS
 62
     7
100
AcDbLine
 10
1149.000000000037
 20
2365.898484809666
 30
0.0
 11
1150.606300012841
 21
2365.898484809666
 31
0.0
  0
LINE
  5
4DF
330
1F
100
AcDbEntity
  8
LAY-20
  6
CONTINUOUS
 62
     7
100
AcDbLine
 10
1149.000000000037
 20
2357.898484809668
 30
0.0
 11
1150.606300012841
 21
2357.898484809668
 31
0.0
  0
LINE
  5
4E0
330
1F
100
AcDbEntity
  8
LAY-20
  6
CONTINUOUS
 62
     7
100
AcDbLine
 10
1149.000000000037
 20
2357.898484809668
 30
0.0
 11
1149.000000000037
 21
2365.898484809666
 31
0.0
  0
LINE
  5
4E1
330
1F
100
AcDbEntity
  8
LAY-20
  6
CONTINUOUS
 62
     7
100
AcDbLine
 10
1138.500000000037
 20
2368.398484809667
 30
0.0
 11
1142.500000000037
 21
2361.898484809667
 31
0.0
  0
LINE
  5
4E2
330
1F
100
AcDbEntity
  8
LAY-20
  6
CONTINUOUS
 62
     7
100
AcDbLine
 10
1142.500000000037
 20
2361.898484809667
 30
0.0
 11
1138.500000000037
 21
2355.398484809667
 31
0.0
  0
LINE
  5
4E3
330
1F
100
AcDbEntity
  8
LAY-20
  6
CONTINUOUS
 62
     7
100
AcDbLine
 10
1138.500000000037
 20
2355.398484809667
 30
0.0
 11
1134.500000000037
 21
2361.898484809667
 31
0.0
  0
LINE
  5
4E4
330
1F
100
AcDbEntity
  8
LAY-20
  6
CONTINUOUS
 62
     7
100
AcDbLine
 10
1134.500000000037
 20
2361.898484809667
 30
0.0
 11
1138.500000000037
 21
2368.398484809667
 31
0.0
  0
CIRCLE
  5
4E5
330
1F
100
AcDbEntity
  8
LAY-20
  6
CONTINUOUS
 62
     7
100
AcDbCircle
 10
1138.500000000037
 20
2361.898484809667
 30
0.0
 40
12.75000000000001
  0
LINE
  5
4E6
330
1F
100
AcDbEntity
  8
LAY-20
  6
CONTINUOUS
 62
     7
100
AcDbLine
 10
1455.499999999995
 20
2060.398484809809
 30
0.0
 11
1417.499999999995
 21
2060.398484809807
 31
0.0
  0
LINE
  5
4E7
330
1F
100
AcDbEntity
  8
LAY-20
  6
CONTINUOUS
 62
     7
100
AcDbLine
 10
1445.499999999995
 20
2035.398484809806
 30
0.0
 11
1445.499999999995
 21
2055.398484809807
 31
0.0
  0
LINE
  5
4E8
330
1F
100
AcDbEntity
  8
LAY-20
  6
CONTINUOUS
 62
     7
100
AcDbLine
 10
1471.199999999996
 20
2035.398484809806
 30
0.0
 11
1445.499999999995
 21
2035.398484809806
 31
0.0
  0
LINE
  5
4E9
330
1F
100
AcDbEntity
  8
LAY-20
  6
CONTINUOUS
 62
     7
100
AcDbLine
 10
1455.499999999995
 20
2025.398484809809
 30
0.0
 11
1455.499999999995
 21
2035.398484809806
 31
0.0
  0
LINE
  5
4EA
330
1F
100
AcDbEntity
  8
LAY-20
  6
CONTINUOUS
 62
     7
100
AcDbLine
 10
1471.199999999996
 20
2035.398484809806
 30
0.0
 11
1471.199999999996
 21
2055.398484809807
 31
0.0
  0
LINE
  5
4EB
330
1F
100
AcDbEntity
  8
LAY-20
  6
CONTINUOUS
 62
     7
100
AcDbLine
 10
1471.199999999996
 20
2055.398484809807
 30
0.0
 11
1445.499999999995
 21
2055.398484809807
 31
0.0
  0
LINE
  5
4EC
330
1F
100
AcDbEntity
  8
LAY-20
  6
CONTINUOUS
 62
     7
100
AcDbLine
 10
1461.499999999995
 20
2060.398484809809
 30
0.0
 11
1461.499999999995
 21
2055.398484809807
 31
0.0
  0
ARC
  5
4ED
330
1F
100
AcDbEntity
  8
LAY-20
  6
CONTINUOUS
 62
     7
100
AcDbCircle
 10
1455.499999999995
 20
2060.398484809809
 30
0.0
 40
6.000000000000005
100
AcDbArc
 50
0.0
 51
90.00000000000001
  0
LINE
  5
4EE
330
1F
100
AcDbEntity
  8
LAY-20
  6
CONTINUOUS
 62
     7
100
AcDbLine
 10
1455.499999999995
 20
2066.398484809805
 30
0.0
 11
1417.499999999995
 21
2066.398484809805
 31
0.0
  0
ARC
  5
4EF
330
1F
100
AcDbEntity
  8
LAY-20
  6
CONTINUOUS
 62
     7
100
AcDbCircle
 10
1417.499999999995
 20
2066.398484809805
 30
0.0
 40
6.000000000000005
100
AcDbArc
 50
180.0
 51
270.0000000000002
  0
LINE
  5
4F0
330
1F
100
AcDbEntity
  8
LAY-20
  6
CONTINUOUS
 62
     7
100
AcDbLine
 10
1455.499999999995
 20
2154.398484809809
 30
0.0
 11
1417.499999999995
 21
2154.398484809807
 31
0.0
  0
LINE
  5
4F1
330
1F
100
AcDbEntity
  8
LAY-20
  6
CONTINUOUS
 62
     7
100
AcDbLine
 10
1455.499999999995
 20
2160.398484809809
 30
0.0
 11
1417.499999999995
 21
2160.398484809807
 31
0.0
  0
ARC
  5
4F2
330
1F
100
AcDbEntity
  8
LAY-20
  6
CONTINUOUS
 62
     7
100
AcDbCircle
 10
1417.499999999995
 20
2154.398484809807
 30
0.0
 40
6.000000000000005
100
AcDbArc
 50
90.00000000000001
 51
180.0
  0
ARC
  5
4F3
330
1F
100
AcDbEntity
  8
LAY-20
  6
CONTINUOUS
 62
     7
100
AcDbCircle
 10
1455.499999999995
 20
2160.398484809809
 30
0.0
 40
6.000000000000005
100
AcDbArc
 50
270.0000000000002
 51
0.0
  0
LINE
  5
4F4
330
1F
100
AcDbEntity
  8
LAY-20
  6
CONTINUOUS
 62
     7
100
AcDbLine
 10
1455.499999999995
 20
2195.398484809807
 30
0.0
 11
1455.499999999995
 21
2185.398484809808
 31
0.0
  0
LINE
  5
4F5
330
1F
100
AcDbEntity
  8
LAY-20
  6
CONTINUOUS
 62
     7
100
AcDbLine
 10
1461.499999999995
 20
2160.398484809809
 30
0.0
 11
1461.499999999995
 21
2165.398484809807
 31
0.0
  0
LINE
  5
4F6
330
1F
100
AcDbEntity
  8
LAY-20
  6
CONTINUOUS
 62
     7
100
AcDbLine
 10
1471.199999999996
 20
2165.398484809807
 30
0.0
 11
1445.499999999995
 21
2165.398484809807
 31
0.0
  0
LINE
  5
4F7
330
1F
100
AcDbEntity
  8
LAY-20
  6
CONTINUOUS
 62
     7
100
AcDbLine
 10
1445.499999999995
 20
2185.398484809808
 30
0.0
 11
1445.499999999995
 21
2165.398484809807
 31
0.0
  0
LINE
  5
4F8
330
1F
100
AcDbEntity
  8
LAY-20
  6
CONTINUOUS
 62
     7
100
AcDbLine
 10
1471.199999999996
 20
2185.398484809808
 30
0.0
 11
1445.499999999995
 21
2185.398484809808
 31
0.0
  0
LINE
  5
4F9
330
1F
100
AcDbEntity
  8
LAY-20
  6
CONTINUOUS
 62
     7
100
AcDbLine
 10
1461.499999999995
 20
2195.398484809807
 30
0.0
 11
1455.499999999995
 21
2195.398484809807
 31
0.0
  0
LINE
  5
4FA
330
1F
100
AcDbEntity
  8
LAY-20
  6
CONTINUOUS
 62
     7
100
AcDbLine
 10
1462.499999999995
 20
2165.398484809807
 30
0.0
 11
1462.499999999995
 21
2185.398484809808
 31
0.0
  0
LINE
  5
4FB
330
1F
100
AcDbEntity
  8
LAY-20
  6
CONTINUOUS
 62
     7
100
AcDbLine
 10
1462.499999999995
 20
2055.398484809807
 30
0.0
 11
1462.499999999995
 21
2035.398484809806
 31
0.0
  0
LINE
  5
4FC
330
1F
100
AcDbEntity
  8
LAY-20
  6
CONTINUOUS
 62
     7
100
AcDbLine
 10
1454.499999999995
 20
2035.398484809806
 30
0.0
 11
1454.499999999995
 21
2055.398484809807
 31
0.0
  0
LINE
  5
4FD
330
1F
100
AcDbEntity
  8
LAY-20
  6
CONTINUOUS
 62
     7
100
AcDbLine
 10
1454.499999999995
 20
2165.398484809807
 30
0.0
 11
1454.499999999995
 21
2185.398484809808
 31
0.0
  0
LINE
  5
4FE
330
1F
100
AcDbEntity
  8
LAY-20
  6
CONTINUOUS
 62
     7
100
AcDbLine
 10
1471.199999999996
 20
2165.398484809807
 30
0.0
 11
1471.199999999996
 21
2185.398484809808
 31
0.0
  0
LINE
  5
4FF
330
1F
100
AcDbEntity
  8
LAY-20
  6
CONTINUOUS
 62
     7
100
AcDbLine
 10
1455.499999999995
 20
2055.398484809807
 30
0.0
 11
1455.499999999995
 21
2060.398484809809
 31
0.0
  0
LINE
  5
500
330
1F
100
AcDbEntity
  8
LAY-20
  6
CONTINUOUS
 62
     7
100
AcDbLine
 10
1461.499999999995
 20
2035.398484809806
 30
0.0
 11
1461.499999999995
 21
2025.398484809809
 31
0.0
  0
LINE
  5
501
330
1F
100
AcDbEntity
  8
LAY-20
  6
CONTINUOUS
 62
     7
100
AcDbLine
 10
1455.499999999995
 20
2165.398484809807
 30
0.0
 11
1455.499999999995
 21
2160.398484809809
 31
0.0
  0
LINE
  5
502
330
1F
100
AcDbEntity
  8
LAY-20
  6
CONTINUOUS
 62
     7
100
AcDbLine
 10
1417.499999999995
 20
2154.398484809836
 30
0.0
 11
1417.499999999995
 21
2066.398484809805
 31
0.0
  0
LINE
  5
503
330
1F
100
AcDbEntity
  8
LAY-20
  6
CONTINUOUS
 62
     7
100
AcDbLine
 10
1411.499999999997
 20
2154.398484809836
 30
0.0
 11
1411.499999999997
 21
2066.398484809805
 31
0.0
  0
LINE
  5
504
330
1F
100
AcDbEntity
  8
LAY-20
  6
CONTINUOUS
 62
     7
100
AcDbLine
 10
1461.499999999995
 20
2185.398484809808
 30
0.0
 11
1461.499999999995
 21
2195.398484809806
 31
0.0
  0
LINE
  5
505
330
1F
100
AcDbEntity
  8
LAY-20
  6
CONTINUOUS
 62
     7
100
AcDbLine
 10
1461.499999999995
 20
2025.398484809809
 30
0.0
 11
1455.499999999995
 21
2025.398484809809
 31
0.0
  0
LINE
  5
506
330
1F
100
AcDbEntity
  8
LAY-20
  6
CONTINUOUS
 62
     7
100
AcDbLine
 10
1455.499999999995
 20
1673.398484809663
 30
0.0
 11
1417.499999999995
 21
1673.398484809665
 31
0.0
  0
LINE
  5
507
330
1F
100
AcDbEntity
  8
LAY-20
  6
CONTINUOUS
 62
     7
100
AcDbLine
 10
1445.499999999995
 20
1698.398484809666
 30
0.0
 11
1445.499999999995
 21
1678.398484809665
 31
0.0
  0
LINE
  5
508
330
1F
100
AcDbEntity
  8
LAY-20
  6
CONTINUOUS
 62
     7
100
AcDbLine
 10
1471.199999999996
 20
1698.398484809666
 30
0.0
 11
1445.499999999995
 21
1698.398484809666
 31
0.0
  0
LINE
  5
509
330
1F
100
AcDbEntity
  8
LAY-20
  6
CONTINUOUS
 62
     7
100
AcDbLine
 10
1455.499999999995
 20
1708.398484809663
 30
0.0
 11
1455.499999999995
 21
1698.398484809666
 31
0.0
  0
LINE
  5
50A
330
1F
100
AcDbEntity
  8
LAY-20
  6
CONTINUOUS
 62
     7
100
AcDbLine
 10
1471.199999999996
 20
1698.398484809666
 30
0.0
 11
1471.199999999996
 21
1678.398484809665
 31
0.0
  0
LINE
  5
50B
330
1F
100
AcDbEntity
  8
LAY-20
  6
CONTINUOUS
 62
     7
100
AcDbLine
 10
1471.199999999996
 20
1678.398484809665
 30
0.0
 11
1445.499999999995
 21
1678.398484809665
 31
0.0
  0
LINE
  5
50C
330
1F
100
AcDbEntity
  8
LAY-20
  6
CONTINUOUS
 62
     7
100
AcDbLine
 10
1461.499999999995
 20
1673.398484809663
 30
0.0
 11
1461.499999999995
 21
1678.398484809665
 31
0.0
  0
ARC
  5
50D
330
1F
100
AcDbEntity
  8
LAY-20
  6
CONTINUOUS
 62
     7
100
AcDbCircle
 10
1455.499999999995
 20
1673.398484809663
 30
0.0
 40
6.000000000000005
100
AcDbArc
 50
270.0
 51
0.0
  0
LINE
  5
50E
330
1F
100
AcDbEntity
  8
LAY-20
  6
CONTINUOUS
 62
     7
100
AcDbLine
 10
1455.499999999995
 20
1667.398484809667
 30
0.0
 11
1417.499999999995
 21
1667.398484809667
 31
0.0
  0
ARC
  5
50F
330
1F
100
AcDbEntity
  8
LAY-20
  6
CONTINUOUS
 62
     7
100
AcDbCircle
 10
1417.499999999995
 20
1667.398484809667
 30
0.0
 40
6.000000000000005
100
AcDbArc
 50
90.00000000000001
 51
180.0
  0
LINE
  5
510
330
1F
100
AcDbEntity
  8
LAY-20
  6
CONTINUOUS
 62
     7
100
AcDbLine
 10
1455.499999999995
 20
1579.398484809664
 30
0.0
 11
1417.499999999995
 21
1579.398484809665
 31
0.0
  0
LINE
  5
511
330
1F
100
AcDbEntity
  8
LAY-20
  6
CONTINUOUS
 62
     7
100
AcDbLine
 10
1455.499999999995
 20
1573.398484809663
 30
0.0
 11
1417.499999999995
 21
1573.398484809665
 31
0.0
  0
ARC
  5
512
330
1F
100
AcDbEntity
  8
LAY-20
  6
CONTINUOUS
 62
     7
100
AcDbCircle
 10
1417.499999999995
 20
1579.398484809665
 30
0.0
 40
6.000000000000005
100
AcDbArc
 50
180.0
 51
270.0
  0
ARC
  5
513
330
1F
100
AcDbEntity
  8
LAY-20
  6
CONTINUOUS
 62
     7
100
AcDbCircle
 10
1455.499999999995
 20
1573.398484809663
 30
0.0
 40
6.000000000000005
100
AcDbArc
 50
0.0
 51
90.00000000000001
  0
LINE
  5
514
330
1F
100
AcDbEntity
  8
LAY-20
  6
CONTINUOUS
 62
     7
100
AcDbLine
 10
1455.499999999995
 20
1538.398484809665
 30
0.0
 11
1455.499999999995
 21
1548.398484809665
 31
0.0
  0
LINE
  5
515
330
1F
100
AcDbEntity
  8
LAY-20
  6
CONTINUOUS
 62
     7
100
AcDbLine
 10
1461.499999999995
 20
1573.398484809663
 30
0.0
 11
1461.499999999995
 21
1568.398484809665
 31
0.0
  0
LINE
  5
516
330
1F
100
AcDbEntity
  8
LAY-20
  6
CONTINUOUS
 62
     7
100
AcDbLine
 10
1471.199999999996
 20
1568.398484809665
 30
0.0
 11
1445.499999999995
 21
1568.398484809665
 31
0.0
  0
LINE
  5
517
330
1F
100
AcDbEntity
  8
LAY-20
  6
CONTINUOUS
 62
     7
100
AcDbLine
 10
1445.499999999995
 20
1548.398484809665
 30
0.0
 11
1445.499999999995
 21
1568.398484809665
 31
0.0
  0
LINE
  5
518
330
1F
100
AcDbEntity
  8
LAY-20
  6
CONTINUOUS
 62
     7
100
AcDbLine
 10
1471.199999999996
 20
1548.398484809665
 30
0.0
 11
1445.499999999995
 21
1548.398484809665
 31
0.0
  0
LINE
  5
519
330
1F
100
AcDbEntity
  8
LAY-20
  6
CONTINUOUS
 62
     7
100
AcDbLine
 10
1461.499999999995
 20
1538.398484809665
 30
0.0
 11
1455.499999999995
 21
1538.398484809665
 31
0.0
  0
LINE
  5
51A
330
1F
100
AcDbEntity
  8
LAY-20
  6
CONTINUOUS
 62
     7
100
AcDbLine
 10
1462.499999999995
 20
1568.398484809665
 30
0.0
 11
1462.499999999995
 21
1548.398484809665
 31
0.0
  0
LINE
  5
51B
330
1F
100
AcDbEntity
  8
LAY-20
  6
CONTINUOUS
 62
     7
100
AcDbLine
 10
1462.499999999995
 20
1678.398484809665
 30
0.0
 11
1462.499999999995
 21
1698.398484809666
 31
0.0
  0
LINE
  5
51C
330
1F
100
AcDbEntity
  8
LAY-20
  6
CONTINUOUS
 62
     7
100
AcDbLine
 10
1454.499999999995
 20
1698.398484809666
 30
0.0
 11
1454.499999999995
 21
1678.398484809665
 31
0.0
  0
LINE
  5
51D
330
1F
100
AcDbEntity
  8
LAY-20
  6
CONTINUOUS
 62
     7
100
AcDbLine
 10
1454.499999999995
 20
1568.398484809665
 30
0.0
 11
1454.499999999995
 21
1548.398484809665
 31
0.0
  0
LINE
  5
51E
330
1F
100
AcDbEntity
  8
LAY-20
  6
CONTINUOUS
 62
     7
100
AcDbLine
 10
1471.199999999996
 20
1568.398484809665
 30
0.0
 11
1471.199999999996
 21
1548.398484809665
 31
0.0
  0
LINE
  5
51F
330
1F
100
AcDbEntity
  8
LAY-20
  6
CONTINUOUS
 62
     7
100
AcDbLine
 10
1455.499999999995
 20
1678.398484809665
 30
0.0
 11
1455.499999999995
 21
1673.398484809663
 31
0.0
  0
LINE
  5
520
330
1F
100
AcDbEntity
  8
LAY-20
  6
CONTINUOUS
 62
     7
100
AcDbLine
 10
1461.499999999995
 20
1698.398484809666
 30
0.0
 11
1461.499999999995
 21
1708.398484809663
 31
0.0
  0
LINE
  5
521
330
1F
100
AcDbEntity
  8
LAY-20
  6
CONTINUOUS
 62
     7
100
AcDbLine
 10
1455.499999999995
 20
1568.398484809665
 30
0.0
 11
1455.499999999995
 21
1573.398484809663
 31
0.0
  0
LINE
  5
522
330
1F
100
AcDbEntity
  8
LAY-20
  6
CONTINUOUS
 62
     7
100
AcDbLine
 10
1417.499999999995
 20
1579.398484809637
 30
0.0
 11
1417.499999999995
 21
1667.398484809667
 31
0.0
  0
LINE
  5
523
330
1F
100
AcDbEntity
  8
LAY-20
  6
CONTINUOUS
 62
     7
100
AcDbLine
 10
1411.499999999997
 20
1579.398484809637
 30
0.0
 11
1411.499999999997
 21
1667.398484809667
 31
0.0
  0
LINE
  5
524
330
1F
100
AcDbEntity
  8
LAY-20
  6
CONTINUOUS
 62
     7
100
AcDbLine
 10
1461.499999999995
 20
1548.398484809665
 30
0.0
 11
1461.499999999995
 21
1538.398484809667
 31
0.0
  0
LINE
  5
525
330
1F
100
AcDbEntity
  8
LAY-20
  6
CONTINUOUS
 62
     7
100
AcDbLine
 10
1461.499999999995
 20
1708.398484809663
 30
0.0
 11
1455.499999999995
 21
1708.398484809663
 31
0.0
  0
LINE
  5
526
330
1F
100
AcDbEntity
  8
LAY-20
  6
CONTINUOUS
 62
     7
100
AcDbLine
 10
1107.500000000037
 20
2392.898484809669
 30
0.0
 11
1357.734262169146
 21
2392.898484809667
 31
0.0
  0
LINE
  5
527
330
1F
100
AcDbEntity
  8
LAY-20
  6
CONTINUOUS
 62
     7
100
AcDbLine
 10
1122.500000000037
 20
2377.898484809665
 30
0.0
 11
1350.569787012229
 21
2377.898484809664
 31
0.0
  0
LINE
  5
528
330
1F
100
AcDbEntity
  8
LAY-20
  6
CONTINUOUS
 62
     7
100
AcDbLine
 10
1593.500000000029
 20
2353.898484809737
 30
0.0
 11
1339.106626761199
 21
2353.898484809736
 31
0.0
  0
LINE
  5
529
330
1F
100
AcDbEntity
  8
LAY-20
  6
CONTINUOUS
 62
     7
100
AcDbLine
 10
1596.500000000029
 20
2356.898484809737
 30
0.0
 11
1340.539521792582
 21
2356.898484809735
 31
0.0
  0
LINE
  5
52A
330
1F
100
AcDbEntity
  8
LAY-20
  6
CONTINUOUS
 62
     7
100
AcDbLine
 10
1271.499999999991
 20
2212.352959253794
 30
0.0
 11
1271.49999999999
 21
2377.898484809671
 31
0.0
  0
LINE
  5
52B
330
1F
100
AcDbEntity
  8
LAY-20
  6
CONTINUOUS
 62
     7
100
AcDbLine
 10
1263.999999999991
 20
2196.6504831427
 30
0.0
 11
1263.99999999999
 21
2377.898484809671
 31
0.0
  0
LINE
  5
52C
330
1F
100
AcDbEntity
  8
LAY-20
  6
CONTINUOUS
 62
     7
100
AcDbLine
 10
1238.999999999989
 20
2144.308896105714
 30
0.0
 11
1238.999999999989
 21
2377.898484809671
 31
0.0
  0
LINE
  5
52D
330
1F
100
AcDbEntity
  8
LAY-20
  6
CONTINUOUS
 62
     7
100
AcDbLine
 10
1231.499999999989
 20
2128.60641999462
 30
0.0
 11
1231.499999999989
 21
2377.898484809671
 31
0.0
  0
LINE
  5
52E
330
1F
100
AcDbEntity
  8
LAY-20
  6
CONTINUOUS
 62
     7
100
AcDbLine
 10
1122.500000000037
 20
2377.898484809671
 30
0.0
 11
1122.500000000037
 21
1900.397100513477
 31
0.0
  0
LINE
  5
52F
330
1F
100
AcDbEntity
  8
LAY-20
  6
CONTINUOUS
 62
     7
100
AcDbLine
 10
1107.500000000037
 20
1868.992148291288
 30
0.0
 11
1107.500000000037
 21
2392.898484809669
 31
0.0
  0
LINE
  5
530
330
1F
100
AcDbEntity
  8
LAY-20
  6
CONTINUOUS
 62
     7
100
AcDbLine
 10
1105.500000000037
 20
1864.804821328329
 30
0.0
 11
1105.500000000036
 21
2392.898484809669
 31
0.0
  0
LINE
  5
531
330
1F
100
AcDbEntity
  8
LAY-20
  6
CONTINUOUS
 62
     7
100
AcDbLine
 10
1090.500000000037
 20
1833.39986910614
 30
0.0
 11
1090.500000000037
 21
2377.898484809671
 31
0.0
  0
LINE
  5
532
330
1F
100
AcDbEntity
  8
LAY-20
  6
CONTINUOUS
 62
     7
100
AcDbLine
 10
981.5000000000077
 20
1605.190549624836
 30
0.0
 11
981.5000000000075
 21
2377.898484809671
 31
0.0
  0
LINE
  5
533
330
1F
100
AcDbEntity
  8
LAY-20
  6
CONTINUOUS
 62
     7
100
AcDbLine
 10
974.0000000000077
 20
1589.488073513741
 30
0.0
 11
974.0000000000075
 21
2377.898484809671
 31
0.0
  0
LINE
  5
534
330
1F
100
AcDbEntity
  8
LAY-20
  6
CONTINUOUS
 62
     7
100
AcDbLine
 10
949.0000000000077
 20
1537.146486476759
 30
0.0
 11
949.0000000000075
 21
2377.898484809671
 31
0.0
  0
LINE
  5
535
330
1F
100
AcDbEntity
  8
LAY-20
  6
CONTINUOUS
 62
     7
100
AcDbLine
 10
941.5000000000077
 20
1521.444010365664
 30
0.0
 11
941.5000000000075
 21
2377.898484809671
 31
0.0
  0
LINE
  5
536
330
1F
100
AcDbEntity
  8
LAY-20
  6
CONTINUOUS
 62
     7
100
AcDbLine
 10
1593.500000000029
 20
1379.898484809735
 30
0.0
 11
873.8933732388066
 21
1379.898484809737
 31
0.0
  0
LINE
  5
537
330
1F
100
AcDbEntity
  8
LAY-20
  6
CONTINUOUS
 62
     7
100
AcDbLine
 10
1596.500000000029
 20
1376.898484809735
 30
0.0
 11
872.4604782074241
 21
1376.898484809738
 31
0.0
  0
LINE
  5
538
330
1F
100
AcDbEntity
  8
LAY-20
  6
CONTINUOUS
 62
     7
100
AcDbLine
 10
854.7881061536978
 20
1339.898484809736
 30
0.0
 11
1358.21189384629
 21
2393.8984848097
 31
0.0
  0
LINE
  5
539
330
1F
100
AcDbEntity
  8
LAY-20
  6
CONTINUOUS
 62
     7
100
AcDbLine
 10
617.5000000000364
 20
1340.898484809667
 30
0.0
 11
855.2657378308021
 21
1340.898484809687
 31
0.0
  0
LINE
  5
53A
330
1F
100
AcDbEntity
  8
LAY-20
  6
CONTINUOUS
 62
     7
100
AcDbLine
 10
632.5000000000364
 20
1355.898484809667
 30
0.0
 11
862.430212987708
 21
1355.898484809667
 31
0.0
  0
LINE
  5
53B
330
1F
100
AcDbEntity
  8
LAY-20
  6
CONTINUOUS
 62
     7
100
AcDbLine
 10
664.5000000000773
 20
910.8984848097563
 30
0.0
 11
664.5000000000773
 21
865.8984848097564
 31
0.0
  0
LINE
  5
53C
330
1F
100
AcDbEntity
  8
LAY-20
  6
CONTINUOUS
 62
     7
100
AcDbLine
 10
1058.500000000076
 20
910.8984848097563
 30
0.0
 11
1058.500000000076
 21
865.8984848097573
 31
0.0
  0
LINE
  5
53D
330
1F
100
AcDbEntity
  8
LAY-20
  6
CONTINUOUS
 62
     7
100
AcDbLine
 10
1154.500000000077
 20
910.8984848097563
 30
0.0
 11
1154.500000000077
 21
865.8984848097564
 31
0.0
  0
LINE
  5
53E
330
1F
100
AcDbEntity
  8
LAY-20
  6
CONTINUOUS
 62
     7
100
AcDbLine
 10
1548.500000000049
 20
910.8984848097563
 30
0.0
 11
1548.500000000049
 21
865.8984848097573
 31
0.0
  0
LINE
  5
53F
330
1F
100
AcDbEntity
  8
LAY-20
  6
CENTER
 62
     2
100
AcDbLine
 10
601.5000000001019
 20
1616.898484809805
 30
0.0
 11
559.7000000001026
 21
1616.898484809805
 31
0.0
  0
LINE
  5
540
330
1F
100
AcDbEntity
  8
LAY-20
  6
CENTER
 62
     2
100
AcDbLine
 10
601.5000000001019
 20
2116.898484809668
 30
0.0
 11
559.7000000001026
 21
2116.898484809668
 31
0.0
  0
LINE
  5
541
330
1F
100
AcDbEntity
  8
LAY-20
  6
CENTER
 62
     2
100
AcDbLine
 10
1611.499999999896
 20
1616.898484809805
 30
0.0
 11
1653.299999999896
 21
1616.898484809805
 31
0.0
  0
LINE
  5
542
330
1F
100
AcDbEntity
  8
LAY-20
  6
CENTER
 62
     2
100
AcDbLine
 10
1611.499999999896
 20
2116.898484809668
 30
0.0
 11
1653.299999999896
 21
2116.898484809668
 31
0.0
  0
LINE
  5
543
330
1F
100
AcDbEntity
  8
LAY-20
  6
CENTER
 62
     2
100
AcDbLine
 10
1106.499999999999
 20
1280.999999999887
 30
0.0
 11
1106.499999999999
 21
2452.796969619588
 31
0.0
  0
LINE
  5
544
330
1F
100
AcDbEntity
  8
LAY-20
  6
CENTER
 62
     2
100
AcDbLine
 10
557.6015151901493
 20
1866.898484809736
 30
0.0
 11
1655.398484809949
 21
1866.898484809736
 31
0.0
  0
LINE
  5
545
330
1F
100
AcDbEntity
  8
LAY-20
  6
CENTER
 62
     2
100
AcDbLine
 10
1594.900000000028
 20
1391.898484809683
 30
0.0
 11
1566.500000000028
 21
1391.898484809683
 31
0.0
  0
LINE
  5
546
330
1F
100
AcDbEntity
  8
LAY-20
  6
CENTER
 62
     2
100
AcDbLine
 10
1581.500000000027
 20
1376.898484809683
 30
0.0
 11
1581.500000000028
 21
1408.898484809682
 31
0.0
  0
LINE
  5
547
330
1F
100
AcDbEntity
  8
LAY-20
  6
CENTER
 62
     2
100
AcDbLine
 10
1594.900000000028
 20
2341.898484809789
 30
0.0
 11
1566.500000000028
 21
2341.898484809789
 31
0.0
  0
LINE
  5
548
330
1F
100
AcDbEntity
  8
LAY-20
  6
CENTER
 62
     2
100
AcDbLine
 10
1581.500000000026
 20
2356.898484809789
 30
0.0
 11
1581.500000000028
 21
2324.89848480979
 31
0.0
  0
LINE
  5
549
330
1F
100
AcDbEntity
  8
LAY-20
  6
CENTER
 62
     2
100
AcDbLine
 10
1581.500000000026
 20
1881.898484809739
 30
0.0
 11
1581.500000000028
 21
1849.89848480974
 31
0.0
  0
LINE
  5
54A
330
1F
100
AcDbEntity
  8
LAY-20
  6
CENTER
 62
     2
100
AcDbLine
 10
1119.899999999998
 20
1391.898484809683
 30
0.0
 11
1091.499999999998
 21
1391.898484809683
 31
0.0
  0
LINE
  5
54B
330
1F
100
AcDbEntity
  8
LAY-20
  6
CENTER
 62
     2
100
AcDbLine
 10
1356.499999999982
 20
2408.898484809624
 30
0.0
 11
1356.499999999982
 21
2450.698484809624
 31
0.0
  0
LINE
  5
54C
330
1F
100
AcDbEntity
  8
LAY-20
  6
CENTER
 62
     2
100
AcDbLine
 10
856.5000000000164
 20
2408.898484809624
 30
0.0
 11
856.5000000000164
 21
2450.698484809624
 31
0.0
  0
LINE
  5
54D
330
1F
100
AcDbEntity
  8
LAY-20
  6
CENTER
 62
     2
100
AcDbLine
 10
1356.499999999982
 20
1324.898484809848
 30
0.0
 11
1356.499999999982
 21
1283.098484809849
 31
0.0
  0
LINE
  5
54E
330
1F
100
AcDbEntity
  8
LAY-20
  6
CENTER
 62
     2
100
AcDbLine
 10
856.5000000000164
 20
1324.898484809848
 30
0.0
 11
856.5000000000164
 21
1283.098484809849
 31
0.0
  0
LINE
  5
54F
330
1F
100
AcDbEntity
  8
LAY-20
  6
CENTER
 62
     2
100
AcDbLine
 10
1006.500000000048
 20
1373.752801580287
 30
0.0
 11
1006.500000000048
 21
1331.952801580288
 31
0.0
  0
LINE
  5
550
330
1F
100
AcDbEntity
  8
LAY-20
  6
CENTER
 62
     2
100
AcDbLine
 10
648.5000000000373
 20
2380.498484809667
 30
0.0
 11
648.5000000000373
 21
2341.598484809667
 31
0.0
  0
LINE
  5
551
330
1F
100
AcDbEntity
  8
LAY-20
  6
CENTER
 62
     2
100
AcDbLine
 10
629.9750000000367
 20
2361.898484809665
 30
0.0
 11
667.4750000000367
 21
2361.898484809665
 31
0.0
  0
LINE
  5
552
330
1F
100
AcDbEntity
  8
LAY-20
  6
CENTER
 62
     2
100
AcDbLine
 10
1074.500000000037
 20
2380.498484809667
 30
0.0
 11
1074.500000000037
 21
2341.598484809667
 31
0.0
  0
LINE
  5
553
330
1F
100
AcDbEntity
  8
LAY-20
  6
CENTER
 62
     2
100
AcDbLine
 10
1055.975000000037
 20
2361.898484809665
 30
0.0
 11
1093.475000000037
 21
2361.898484809665
 31
0.0
  0
LINE
  5
554
330
1F
100
AcDbEntity
  8
LAY-20
  6
CENTER
 62
     2
100
AcDbLine
 10
648.5000000000373
 20
1353.298484809805
 30
0.0
 11
648.5000000000373
 21
1392.198484809805
 31
0.0
  0
LINE
  5
555
330
1F
100
AcDbEntity
  8
LAY-20
  6
CENTER
 62
     2
100
AcDbLine
 10
629.9750000000367
 20
1371.898484809807
 30
0.0
 11
667.4750000000367
 21
1371.898484809807
 31
0.0
  0
LINE
  5
556
330
1F
100
AcDbEntity
  8
LAY-20
  6
CENTER
 62
     2
100
AcDbLine
 10
1138.500000000037
 20
2380.498484809667
 30
0.0
 11
1138.500000000037
 21
2341.598484809667
 31
0.0
  0
LINE
  5
557
330
1F
100
AcDbEntity
  8
LAY-20
  6
CENTER
 62
     2
100
AcDbLine
 10
1119.975000000037
 20
2361.898484809665
 30
0.0
 11
1157.475000000037
 21
2361.898484809665
 31
0.0
  0
LINE
  5
558
330
1F
100
AcDbEntity
  8
LAY-255
  6
CONTINUOUS
 62
     7
100
AcDbLine
 10
3850.0
 20
219.9999999999999
 30
0.0
 11
2850.0
 21
219.9999999999999
 31
0.0
  0
LINE
  5
559
330
1F
100
AcDbEntity
  8
LAY-255
  6
CONTINUOUS
 62
     7
100
AcDbLine
 10
2888.0
 20
160.0
 30
0.0
 11
2968.0
 21
210.0
 31
0.0
  0
LINE
  5
55A
330
1F
100
AcDbEntity
  8
LAY-255
  6
CONTINUOUS
 62
     7
100
AcDbLine
 10
2968.0
 20
210.0
 30
0.0
 11
3048.0
 21
160.0
 31
0.0
  0
LINE
  5
55B
330
1F
100
AcDbEntity
  8
LAY-255
  6
CONTINUOUS
 62
     7
100
AcDbLine
 10
3048.0
 20
160.0
 30
0.0
 11
2968.0
 21
110.0
 31
0.0
  0
LINE
  5
55C
330
1F
100
AcDbEntity
  8
LAY-255
  6
CONTINUOUS
 62
     7
100
AcDbLine
 10
2968.0
 20
110.0
 30
0.0
 11
2888.0
 21
160.0
 31
0.0
  0
LINE
  5
55D
330
1F
100
AcDbEntity
  8
LAY-255
  6
CONTINUOUS
 62
     7
100
AcDbLine
 10
50.0
 20
100.0
 30
0.0
 11
3850.0
 21
100.0
 31
0.0
  0
LINE
  5
55E
330
1F
100
AcDbEntity
  8
LAY-255
  6
CONTINUOUS
 62
     7
100
AcDbLine
 10
50.0
 20
2800.0
 30
0.0
 11
3850.0
 21
2800.0
 31
0.0
  0
LINE
  5
55F
330
1F
100
AcDbEntity
  8
LAY-255
  6
CONTINUOUS
 62
     7
100
AcDbLine
 10
50.0
 20
100.0
 30
0.0
 11
50.0
 21
2800.0
 31
0.0
  0
LINE
  5
560
330
1F
100
AcDbEntity
  8
LAY-255
  6
CONTINUOUS
 62
     7
100
AcDbLine
 10
3850.0
 20
100.0
 30
0.0
 11
3850.0
 21
2800.0
 31
0.0
  0
LINE
  5
561
330
1F
100
AcDbEntity
  8
LAY-255
  6
CONTINUOUS
 62
     4
100
AcDbLine
 10
2850.0
 20
279.9999999999999
 30
0.0
 11
3850.0
 21
279.9999999999999
 31
0.0
  0
LINE
  5
562
330
1F
100
AcDbEntity
  8
LAY-255
  6
CONTINUOUS
 62
     7
100
AcDbLine
 10
2850.0
 20
100.0
 30
0.0
 11
2850.0
 21
670.0
 31
0.0
  0
POINT
  5
563
330
1F
100
AcDbEntity
  8
LAY-255
  6
CONTINUOUS
 62
     7
100
AcDbPoint
 10
2890.0
 20
399.9999999999999
 30
0.0
  0
LINE
  5
564
330
1F
100
AcDbEntity
  8
LAY-255
  6
CONTINUOUS
 62
     4
100
AcDbLine
 10
3350.0
 20
279.9999999999999
 30
0.0
 11
3350.0
 21
220.0
 31
0.0
  0
LINE
  5
565
330
1F
100
AcDbEntity
  8
LAY-255
  6
CONTINUOUS
 62
     7
100
AcDbLine
 10
3850.0
 20
670.0
 30
0.0
 11
2850.0
 21
670.0
 31
0.0
  0
LINE
  5
566
330
1F
100
AcDbEntity
  8
LAY-255
  6
CONTINUOUS
 62
     4
100
AcDbLine
 10
3830.0
 20
549.9999999999999
 30
0.0
 11
2870.0
 21
549.9999999999999
 31
0.0
  0
LINE
  5
567
330
1F
100
AcDbEntity
  8
LAY-255
  6
CONTINUOUS
 62
     4
100
AcDbLine
 10
3830.0
 20
610.0
 30
0.0
 11
2870.0
 21
610.0
 31
0.0
  0
POINT
  5
568
330
1F
100
AcDbEntity
  8
LAY-255
  6
CONTINUOUS
 62
     7
100
AcDbPoint
 10
2890.0
 20
499.9999999999999
 30
0.0
  0
POINT
  5
569
330
1F
100
AcDbEntity
  8
LAY-255
  6
CONTINUOUS
 62
     7
100
AcDbPoint
 10
3000.0
 20
559.9999999999999
 30
0.0
  0
POINT
  5
56A
330
1F
100
AcDbEntity
  8
LAY-255
  6
CONTINUOUS
 62
     7
100
AcDbPoint
 10
3000.0
 20
620.0
 30
0.0
  0
POINT
  5
56B
330
1F
100
AcDbEntity
  8
LAY-255
  6
CONTINUOUS
 62
     7
100
AcDbPoint
 10
2890.0
 20
349.9999999999999
 30
0.0
  0
POINT
  5
56C
330
1F
100
AcDbEntity
  8
LAY-255
  6
CONTINUOUS
 62
     7
100
AcDbPoint
 10
2890.0
 20
449.9999999999999
 30
0.0
  0
POINT
  5
56D
330
1F
100
AcDbEntity
  8
LAY-255
  6
CONTINUOUS
 62
     7
100
AcDbPoint
 10
2890.0
 20
299.9999999999998
 30
0.0
  0
POINT
  5
56E
330
1F
100
AcDbEntity
  8
LAY-255
  6
CONTINUOUS
 62
     7
100
AcDbPoint
 10
2890.0
 20
349.9999999999999
 30
0.0
  0
TEXT
  5
56F
330
1F
100
AcDbEntity
  8
LAY-255
  6
CONTINUOUS
 62
     7
100
AcDbText
 10
3081.3837890625
 20
155.4375
 30
0.0
 40
51.5625
  1
福西鋳物株式会社
 41
1.342691999659091
  7
EXCADSTD
100
AcDbText
  0
TEXT
  5
570
330
1F
100
AcDbEntity
  8
LAY-255
  6
CONTINUOUS
 62
     7
100
AcDbText
 10
3085.09375
 20
119.8125
 30
0.0
 40
17.1875
  1
ＦＵＫＵＮＩＳＨＩ
 41
1.204799226045263
  7
EXCADSTD
100
AcDbText
  0
TEXT
  5
571
330
1F
100
AcDbEntity
  8
LAY-255
  6
CONTINUOUS
 62
     7
100
AcDbText
 10
3327.191964285714
 20
119.8125
 30
0.0
 40
17.1875
  1
ＦＯＵＮＤＲＹ
 41
1.243252752978497
  7
EXCADSTD
100
AcDbText
  0
TEXT
  5
572
330
1F
100
AcDbEntity
  8
LAY-255
  6
CONTINUOUS
 62
     7
100
AcDbText
 10
3519.945914381009
 20
119.8125
 30
0.0
 40
17.1875
  1
ＣＯ.,ＬＴＤ.
 41
1.243831036226633
  7
EXCADSTD
100
AcDbText
  0
TEXT
  5
573
330
1F
100
AcDbEntity
  8
LAY-255
  6
CONTINUOUS
 62
     7
100
AcDbText
 10
2940.34375
 20
137.1875
 30
0.0
 40
51.5625
  1
S
 41
0.7582677563636363
  7
EXCADSTD
100
AcDbText
  0
TEXT
  5
574
330
1F
100
AcDbEntity
  8
LAY-255
  6
CONTINUOUS
 62
     7
100
AcDbText
 10
2971.046875
 20
137.4941037736
 30
0.0
 40
51.5625
  1
F
 41
0.7440945272727272
  7
EXCADSTD
100
AcDbText
  0
TEXT
  5
575
330
1F
100
AcDbEntity
  8
LAY-255
  6
CONTINUOUS
 62
     7
100
AcDbText
 10
3371.0546875
 20
244.2187499999999
 30
0.0
 40
25.78125
  1
縮尺
 41
1.080708718181818
  7
EXCADSTD
100
AcDbText
  0
TEXT
  5
576
330
1F
100
AcDbEntity
  8
LAY-255
  6
CONTINUOUS
 62
     7
100
AcDbText
 10
2872.65625
 20
565.6249999999999
 30
0.0
 40
34.375
  1
型式
 41
1.056348480681818
  7
EXCADSTD
100
AcDbText
  0
TEXT
  5
577
330
1F
100
AcDbEntity
  8
LAY-255
  6
CONTINUOUS
 62
     7
100
AcDbText
 10
2874.21875
 20
625.625
 30
0.0
 40
34.375
  1
品名
 41
0.9788386340909091
  7
EXCADSTD
100
AcDbText
  0
TEXT
  5
578
330
1F
100
AcDbEntity
  8
LAY-255
  6
CONTINUOUS
 62
     7
100
AcDbText
 10
2871.5234375
 20
244.2187499999999
 30
0.0
 40
25.78125
  1
作成日
 41
1.000629973818182
  7
EXCADSTD
100
AcDbText
  0
TEXT
  5
579
330
1F
100
AcDbEntity
  8
LAY-255
  6
CONTINUOUS
 62
     7
100
AcDbText
 10
2891.40625
 20
505.6249999999999
 30
0.0
 40
34.375
  1
材質：スチール
 41
1.029301719225037
  7
EXCADSTD
100
AcDbText
  0
TEXT
  5
57A
330
1F
100
AcDbEntity
  8
LAY-255
  6
CONTINUOUS
 62
     7
100
AcDbText
 10
2892.03125
 20
405.6249999999999
 30
0.0
 40
34.375
  1
適用荷重：歩行用
 41
1.015410627012987
  7
EXCADSTD
100
AcDbText
  0
TEXT
  5
57B
330
1F
100
AcDbEntity
  8
LAY-255
  6
CONTINUOUS
 62
     7
100
AcDbText
 10
3002.5
 20
625.625
 30
0.0
 40
34.375
  1
化粧用マシンハッチ
 41
1.014552031760644
  7
EXCADSTD
100
AcDbText
  0
TEXT
  5
57C
330
1F
100
AcDbEntity
  8
LAY-255
  6
CONTINUOUS
 62
     7
100
AcDbText
 10
2892.03125
 20
355.6249999999999
 30
0.0
 40
34.375
  1
貼代：３５
 41
0.99542213615222
  7
EXCADSTD
100
AcDbText
  0
TEXT
  5
57D
330
1F
100
AcDbEntity
  8
LAY-255
  6
CONTINUOUS
 62
     7
100
AcDbText
 10
2897.8125
 20
455.6249999999999
 30
0.0
 40
34.375
  1
目地：ステンレス鋼
 41
1.00154495443038
  7
EXCADSTD
100
AcDbText
  0
TEXT
  5
57E
330
1F
100
AcDbEntity
  8
LAY-255
  6
CONTINUOUS
 62
     7
100
AcDbText
 10
3008.90625
 20
235.6249999999999
 30
0.0
 40
34.375
  1
０９／０３／２６
 41
0.9779528072727273
  7
EXCADSTD
100
AcDbText
  0
TEXT
  5
57F
330
1F
100
AcDbEntity
  8
LAY-255
  6
CONTINUOUS
 62
     7
100
AcDbText
 10
3007.5
 20
565.6249999999999
 30
0.0
 40
34.375
  1
ＳＦ－９０ＢＭＰ－１型
 41
1.0041805868791
  7
EXCADSTD
100
AcDbText
  0
TEXT
  5
580
330
1F
100
AcDbEntity
  8
LAY-255
  6
CONTINUOUS
 62
     7
100
AcDbText
 10
3482.8125
 20
235.6249999999999
 30
0.0
 40
34.375
  1
１：１０
 41
0.9243863385026738
  7
EXCADSTD
100
AcDbText
  0
ENDSEC
  0
SECTION
  2
OBJECTS
  0
DICTIONARY
  5
C
330
0
100
AcDbDictionary
  3
ACAD_GROUP
350
D
  3
ACAD_LAYOUT
350
1A
  3
ACAD_MATERIAL
350
43
  3
ACAD_MLEADERSTYLE
350
6B
  3
ACAD_MLINESTYLE
350
17
  3
ACAD_PLOTSETTINGS
350
19
  3
ACAD_SCALELIST
350
47
  3
ACAD_VISUALSTYLE
350
2A
  3
ACDBHEADERROUNDTRIPXREC
350
581
  3
ACDBVARIABLEDICTIONARY
350
5A2
  0
DICTIONARY
  5
5AD
330
8
100
AcDbDictionary
280
     1
  3
ACAD_XREC_ROUNDTRIP
360
5AE
  0
DICTIONARY
  5
D
102
{ACAD_REACTORS
330
C
102
}
330
C
100
AcDbDictionary
  0
DICTIONARY
  5
1A
102
{ACAD_REACTORS
330
C
102
}
330
C
100
AcDbDictionary
  0
DICTIONARY
  5
43
102
{ACAD_REACTORS
330
C
102
}
330
C
100
AcDbDictionary
  3
BYBLOCK
350
45
  3
BYLAYER
350
44
  3
GLOBAL
350
46
  0
DICTIONARY
  5
6B
102
{ACAD_REACTORS
330
C
102
}
330
C
100
AcDbDictionary
  3
STANDARD
350
6C
  0
DICTIONARY
  5
17
102
{ACAD_REACTORS
330
C
102
}
330
C
100
AcDbDictionary
  3
STANDARD
350
18
  0
DICTIONARY
  5
19
102
{ACAD_REACTORS
330
C
102
}
330
C
100
AcDbDictionary
  0
DICTIONARY
  5
47
102
{ACAD_REACTORS
330
C
102
}
330
C
100
AcDbDictionary
  3
A0
350
48
  3
A1
350
49
  3
A2
350
4A
  3
A3
350
4B
  3
A4
350
4C
  3
A5
350
4D
  3
A6
350
4E
  3
A7
350
4F
  3
A8
350
50
  3
A9
350
51
  3
B0
350
52
  3
B1
350
53
  3
B2
350
54
  3
B3
350
55
  3
B4
350
56
  3
B5
350
57
  3
B6
350
58
  3
B7
350
59
  3
B8
350
5A
  3
B9
350
5B
  3
C0
350
5C
  3
C1
350
5D
  3
C2
350
5E
  3
C3
350
5F
  3
C4
350
60
  3
C5
350
61
  3
C6
350
62
  3
C7
350
63
  3
C8
350
64
  3
C9
350
65
  3
D0
350
66
  3
D1
350
67
  3
D2
350
68
  0
DICTIONARY
  5
2A
102
{ACAD_REACTORS
330
C
102
}
330
C
100
AcDbDictionary
  3
2DWIREFRAME
350
2F
  3
BASIC
350
32
  3
BRIGHTEN
350
36
  3
COLORCHANGE
350
3A
  3
CONCEPTUAL
350
34
  3
DIM
350
35
  3
EDGECOLOROFF
350
3D
  3
FACEPATTERN
350
39
  3
FLAT
350
2B
  3
FLATWITHEDGES
350
2C
  3
GOURAUD
350
2D
  3
GOURAUDWITHEDGES
350
2E
  3
HIDDEN
350
31
  3
JITTEROFF
350
3B
  3
LINEPATTERN
350
38
  3
OVERHANGOFF
350
3C
  3
REALISTIC
350
33
  3
SHADED
350
42
  3
SHADED_WITH_EDGES
350
41
  3
SHADES_OF_GRAY
350
3E
  3
SKETCHY
350
3F
  3
THICKEN
350
37
  3
WIREFRAME
350
30
  3
X-RAY
350
40
  0
DICTIONARY
  5
581
102
{ACAD_REACTORS
330
C
102
}
330
C
100
AcDbDictionary
  3
CEPSNID
350
58B
  3
CEPSNTYPE
350
58A
  3
DIMSTYLEDATA
350
5A1
  3
FINGERPRINTGUID
350
58C
  3
HYPERLINKBASE
350
584
  3
INSUNITS
350
589
  3
LAYOUTDICT
350
586
  3
LWETCUNION
350
588
  3
PLOTSETDICT
350
587
  3
PSVPSCALE
350
58E
  3
PUCSBASE
350
591
  3
PUCSORGBACK
350
597
  3
PUCSORGBOTTOM
350
593
  3
PUCSORGFRONT
350
596
  3
PUCSORGLEFT
350
594
  3
PUCSORGRIGHT
350
595
  3
PUCSORGTOP
350
592
  3
PUCSORTHOREF
350
58F
  3
PUCSORTHOVIEW
350
590
  3
STYLESHEET
350
585
  3
TSTACKALIGN
350
582
  3
TSTACKSIZE
350
583
  3
UCSBASE
350
59A
  3
UCSORGBACK
350
5A0
  3
UCSORGBOTTOM
350
59C
  3
UCSORGFRONT
350
59F
  3
UCSORGLEFT
350
59D
  3
UCSORGRIGHT
350
59E
  3
UCSORGTOP
350
59B
  3
UCSORTHOREF
350
598
  3
UCSORTHOVIEW
350
599
  3
VERSIONGUID
350
58D
  0
DICTIONARY
  5
5A2
102
{ACAD_REACTORS
330
C
102
}
330
C
100
AcDbDictionary
  3
CANNOSCALE
350
5AF
  3
CENTEREXE
350
5A9
  3
CENTERLTYPEFILE
350
5AA
  3
CMLEADERSTYLE
350
5A4
  3
CTABLESTYLE
350
5A3
  3
DIMASSOC
350
5AB
  3
HIDETEXT
350
5AC
  3
MSLTSCALE
350
5B0
  3
PSOLHEIGHT
350
5A6
  3
PSOLWIDTH
350
5A5
  0
XRECORD
  5
5AE
102
{ACAD_REACTORS
330
5AD
102
}
330
5AD
100
AcDbXrecord
102
VTR_0.000_0.000_1.000_1.000_VISUALSTYLE
340
2F
102
VTR_0.000_0.000_1.000_1.000_GRIDDISPLAY
 70
     3
102
VTR_0.000_0.000_1.000_1.000_GRIDMAJOR
 70
     5
102
VTR_0.000_0.000_1.000_1.000_DEFAULTLIGHTING
280
     1
102
VTR_0.000_0.000_1.000_1.000_DEFAULTLIGHTINGTYPE
 70
     1
102
VTR_0.000_0.000_1.000_1.000_BRIGHTNESS
141
0.0
102
VTR_0.000_0.000_1.000_1.000_CONTRAST
142
0.0
  0
MATERIAL
  5
45
102
{ACAD_REACTORS
330
43
102
}
102
{ACAD_XDICTIONARY
360
5B3
102
}
330
43
100
AcDbMaterial
  1
BYBLOCK
  0
MATERIAL
  5
44
102
{ACAD_REACTORS
330
43
102
}
102
{ACAD_XDICTIONARY
360
5B1
102
}
330
43
100
AcDbMaterial
  1
BYLAYER
  0
MATERIAL
  5
46
102
{ACAD_REACTORS
330
43
102
}
102
{ACAD_XDICTIONARY
360
5B5
102
}
330
43
100
AcDbMaterial
  1
GLOBAL
  0
ACAD_PROXY_OBJECT
  5
6C
102
{ACAD_REACTORS
330
6B
102
}
330
6B
100
AcDbProxyObject
 90
      499
 91
      505
 93
      610
310
40901902A4063FBFFFFFE0000000000000020400000000000020404214DD185B99185C990000000000000104090141901A00000000000004100000000000000041025764000000000000039000
340
14
340
0
340
11
340
0
 94
        0
1001
ACAD_MLEADERVER
1070
     2
  0
MLINESTYLE
  5
18
102
{ACAD_REACTORS
330
17
102
}
330
17
100
AcDbMlineStyle
  2
Standard
 70
     0
  3

 62
   256
 51
90.0
 52
90.0
 71
     2
 49
0.5
 62
   256
  6
BYLAYER
 49
-0.5
 62
   256
  6
BYLAYER
  0
ACAD_PROXY_OBJECT
  5
48
102
{ACAD_REACTORS
330
47
102
}
330
47
100
AcDbProxyObject
 90
      499
 91
      503
 93
       41
310
903313A31580
  0
ACAD_PROXY_OBJECT
  5
49
102
{ACAD_REACTORS
330
47
102
}
330
47
100
AcDbProxyObject
 90
      499
 91
      503
 93
      105
310
903313A324000000000000004000
  0
ACAD_PROXY_OBJECT
  5
4A
102
{ACAD_REACTORS
330
47
102
}
330
47
100
AcDbProxyObject
 90
      499
 91
      503
 93
      105
310
903313A344000000000000104000
  0
ACAD_PROXY_OBJECT
  5
4B
102
{ACAD_REACTORS
330
47
102
}
330
47
100
AcDbProxyObject
 90
      499
 91
      503
 93
      105
310
903313A354000000000000144000
  0
ACAD_PROXY_OBJECT
  5
4C
102
{ACAD_REACTORS
330
47
102
}
330
47
100
AcDbProxyObject
 90
      499
 91
      503
 93
      105
310
903313A384000000000000204000
  0
ACAD_PROXY_OBJECT
  5
4D
102
{ACAD_REACTORS
330
47
102
}
330
47
100
AcDbProxyObject
 90
      499
 91
      503
 93
      113
310
904313A31304000000000000244000
  0
ACAD_PROXY_OBJECT
  5
4E
102
{ACAD_REACTORS
330
47
102
}
330
47
100
AcDbProxyObject
 90
      499
 91
      503
 93
      113
310
904313A31364000000000000304000
  0
ACAD_PROXY_OBJECT
  5
4F
102
{ACAD_REACTORS
330
47
102
}
330
47
100
AcDbProxyObject
 90
      499
 91
      503
 93
      113
310
904313A32304000000000000344000
  0
ACAD_PROXY_OBJECT
  5
50
102
{ACAD_REACTORS
330
47
102
}
330
47
100
AcDbProxyObject
 90
      499
 91
      503
 93
      113
310
904313A333040000000000003E4000
  0
ACAD_PROXY_OBJECT
  5
51
102
{ACAD_REACTORS
330
47
102
}
330
47
100
AcDbProxyObject
 90
      499
 91
      503
 93
      113
310
904313A34304000000000000444000
  0
ACAD_PROXY_OBJECT
  5
52
102
{ACAD_REACTORS
330
47
102
}
330
47
100
AcDbProxyObject
 90
      499
 91
      503
 93
      113
310
904313A35304000000000000494000
  0
ACAD_PROXY_OBJECT
  5
53
102
{ACAD_REACTORS
330
47
102
}
330
47
100
AcDbProxyObject
 90
      499
 91
      503
 93
      121
310
905313A3130304000000000000594000
  0
ACAD_PROXY_OBJECT
  5
54
102
{ACAD_REACTORS
330
47
102
}
330
47
100
AcDbProxyObject
 90
      499
 91
      503
 93
      105
310
903323A310000000000000010100
  0
ACAD_PROXY_OBJECT
  5
55
102
{ACAD_REACTORS
330
47
102
}
330
47
100
AcDbProxyObject
 90
      499
 91
      503
 93
      105
310
903343A310000000000000410100
  0
ACAD_PROXY_OBJECT
  5
56
102
{ACAD_REACTORS
330
47
102
}
330
47
100
AcDbProxyObject
 90
      499
 91
      503
 93
      105
310
903383A310000000000000810100
  0
ACAD_PROXY_OBJECT
  5
57
102
{ACAD_REACTORS
330
47
102
}
330
47
100
AcDbProxyObject
 90
      499
 91
      503
 93
      113
310
90431303A310000000000000910100
  0
ACAD_PROXY_OBJECT
  5
58
102
{ACAD_REACTORS
330
47
102
}
330
47
100
AcDbProxyObject
 90
      499
 91
      503
 93
      121
310
9053130303A310000000000001650100
  0
ACAD_PROXY_OBJECT
  5
59
102
{ACAD_REACTORS
330
47
102
}
330
47
100
AcDbProxyObject
 90
      499
 91
      503
 93
      257
310
90E312F31323822203D2031272D3022000000000000200FC000000000000284000
  0
ACAD_PROXY_OBJECT
  5
5A
102
{ACAD_REACTORS
330
47
102
}
330
47
100
AcDbProxyObject
 90
      499
 91
      503
 93
      249
310
90D312F363422203D2031272D3022000000000000240FC000000000000284000
  0
ACAD_PROXY_OBJECT
  5
5B
102
{ACAD_REACTORS
330
47
102
}
330
47
100
AcDbProxyObject
 90
      499
 91
      503
 93
      249
310
90D312F333222203D2031272D3022000000000000280FC000000000000284000
  0
ACAD_PROXY_OBJECT
  5
5C
102
{ACAD_REACTORS
330
47
102
}
330
47
100
AcDbProxyObject
 90
      499
 91
      503
 93
      249
310
90D312F313622203D2031272D30220000000000002C0FC000000000000284000
  0
ACAD_PROXY_OBJECT
  5
5D
102
{ACAD_REACTORS
330
47
102
}
330
47
100
AcDbProxyObject
 90
      499
 91
      503
 93
      249
310
90D332F333222203D2031272D30220000000000002E0FC000000000000284000
  0
ACAD_PROXY_OBJECT
  5
5E
102
{ACAD_REACTORS
330
47
102
}
330
47
100
AcDbProxyObject
 90
      499
 91
      503
 93
      241
310
90C312F3822203D2031272D3022000000000000300FC000000000000284000
  0
ACAD_PROXY_OBJECT
  5
5F
102
{ACAD_REACTORS
330
47
102
}
330
47
100
AcDbProxyObject
 90
      499
 91
      503
 93
      249
310
90D332F313622203D2031272D3022000000000000320FC000000000000284000
  0
ACAD_PROXY_OBJECT
  5
60
102
{ACAD_REACTORS
330
47
102
}
330
47
100
AcDbProxyObject
 90
      499
 91
      503
 93
      241
310
90C312F3422203D2031272D3022000000000000340FC000000000000284000
  0
ACAD_PROXY_OBJECT
  5
61
102
{ACAD_REACTORS
330
47
102
}
330
47
100
AcDbProxyObject
 90
      499
 91
      503
 93
      241
310
90C332F3822203D2031272D3022000000000000360FC000000000000284000
  0
ACAD_PROXY_OBJECT
  5
62
102
{ACAD_REACTORS
330
47
102
}
330
47
100
AcDbProxyObject
 90
      499
 91
      503
 93
      241
310
90C312F3222203D2031272D3022000000000000380FC000000000000284000
  0
ACAD_PROXY_OBJECT
  5
63
102
{ACAD_REACTORS
330
47
102
}
330
47
100
AcDbProxyObject
 90
      499
 91
      503
 93
      241
310
90C332F3422203D2031272D30220000000000003A0FC000000000000284000
  0
ACAD_PROXY_OBJECT
  5
64
102
{ACAD_REACTORS
330
47
102
}
330
47
100
AcDbProxyObject
 90
      499
 91
      503
 93
      161
310
90A3122203D2031272D30224000000000000284000
  0
ACAD_PROXY_OBJECT
  5
65
102
{ACAD_REACTORS
330
47
102
}
330
47
100
AcDbProxyObject
 90
      499
 91
      503
 93
      257
310
90E312D312F3222203D2031272D30220000000000003E0FC000000000000284000
  0
ACAD_PROXY_OBJECT
  5
66
102
{ACAD_REACTORS
330
47
102
}
330
47
100
AcDbProxyObject
 90
      499
 91
      503
 93
      225
310
90A3322203D2031272D302200000000000002100000000000000284000
  0
ACAD_PROXY_OBJECT
  5
67
102
{ACAD_REACTORS
330
47
102
}
330
47
100
AcDbProxyObject
 90
      499
 91
      503
 93
      225
310
90A3622203D2031272D302200000000000006100000000000000284000
  0
ACAD_PROXY_OBJECT
  5
68
102
{ACAD_REACTORS
330
47
102
}
330
47
100
AcDbProxyObject
 90
      499
 91
      503
 93
      249
310
90D31272D3022203D2031272D30220000000000000A100000000000000284000
  0
ACAD_PROXY_OBJECT
  5
2F
102
{ACAD_REACTORS
330
2A
102
}
330
2A
100
AcDbProxyObject
 90
      499
 91
      501
 93
      436
310
42CC9915DA5C99599C985B595049028333333333333E33F0000000000000F90107901411070040501600405405064090741402480A0340
1001
ACAD
1000
AcDbSavedByObjectVersion
1070
     0
  0
ACAD_PROXY_OBJECT
  5
32
102
{ACAD_REACTORS
330
2A
102
}
330
2A
100
AcDbProxyObject
 90
      499
 91
      501
 93
      388
310
4150985CDA58D07406404333333333333E33F0000000000000F90107A41107004050150841D405064090741402480A0350
1001
ACAD
1000
AcDbSavedByObjectVersion
1070
     0
  0
ACAD_PROXY_OBJECT
  5
36
102
{ACAD_REACTORS
330
2A
102
}
330
2A
100
AcDbProxyObject
 90
      499
 91
      501
 93
      428
310
42109C9A59DA1D195B90C409028333333333333E33F0000000000000F9010790141107004050150841D405064090741402480A029950
1001
ACAD
1000
AcDbSavedByObjectVersion
1070
     0
  0
ACAD_PROXY_OBJECT
  5
3A
102
{ACAD_REACTORS
330
2A
102
}
330
2A
100
AcDbProxyObject
 90
      499
 91
      501
 93
      452
310
42D0DBDB1BDC90DA185B99D95104090240C333333333333E33F0000000000000F90108901411070040501508421405064090741402480A0350
1001
ACAD
1000
AcDbSavedByObjectVersion
1070
     0
  0
ACAD_PROXY_OBJECT
  5
34
102
{ACAD_REACTORS
330
2A
102
}
330
2A
100
AcDbProxyObject
 90
      499
 91
      501
 93
      500
310
4290DBDB98D95C1D1D585B10940D028333333333333E33F0000000000000F90107902409070040501000000000018199010841D405064090740C02480A0340
1001
ACAD
1000
AcDbSavedByObjectVersion
1070
     0
  0
ACAD_PROXY_OBJECT
  5
35
102
{ACAD_REACTORS
330
2A
102
}
330
2A
100
AcDbProxyObject
 90
      499
 91
      501
 93
      412
310
40D11A5B50B409028333333333333E33F0000000000000F9010790141107004050150841D405064090741402480A02677FFFFFD0
1001
ACAD
1000
AcDbSavedByObjectVersion
1070
     0
  0
ACAD_PROXY_OBJECT
  5
3D
102
{ACAD_REACTORS
330
2A
102
}
330
2A
100
AcDbProxyObject
 90
      499
 91
      501
 93
      452
310
43115919D950DBDB1BDC93D999916409028333333333333E33F0000000000000F9010790141107004050150841D405064090741402480A0350
1001
ACAD
1000
AcDbSavedByObjectVersion
1070
     0
  0
ACAD_PROXY_OBJECT
  5
39
102
{ACAD_REACTORS
330
2A
102
}
330
2A
100
AcDbProxyObject
 90
      499
 91
      501
 93
      444
310
42D19858D95C185D1D195C9B90F409028333333333333E33F0000000000000F9010790141107004050150841D405064090741402480A0350
1001
ACAD
1000
AcDbSavedByObjectVersion
1070
     0
  0
ACAD_PROXY_OBJECT
  5
2B
102
{ACAD_REACTORS
330
2A
102
}
330
2A
100
AcDbProxyObject
 90
      499
 91
      501
 93
      380
310
41119B185D240901404333333333333E33F0000000000000F9010740A907004050150841D405064090741402480A1B50
1001
ACAD
1000
AcDbSavedByObjectVersion
1070
     0
  0
ACAD_PROXY_OBJECT
  5
2C
102
{ACAD_REACTORS
330
2A
102
}
330
2A
100
AcDbProxyObject
 90
      499
 91
      501
 93
      468
310
43519B185D15DA5D1A115919D95CD0140901404333333333333E33F0000000000000F90107409019070040501600405405064090741402480A1B50
1001
ACAD
1000
AcDbSavedByObjectVersion
1070
     0
  0
ACAD_PROXY_OBJECT
  5
2D
102
{ACAD_REACTORS
330
2A
102
}
330
2A
100
AcDbProxyObject
 90
      499
 91
      501
 93
      404
310
41D1DBDD5C985D5910240902404333333333333E33F0000000000000F9010740A9070040501641D405064090741402480A1B50
1001
ACAD
1000
AcDbSavedByObjectVersion
1070
     0
  0
ACAD_PROXY_OBJECT
  5
2E
102
{ACAD_REACTORS
330
2A
102
}
330
2A
100
AcDbProxyObject
 90
      499
 91
      501
 93
      492
310
4411DBDD5C985D5915DA5D1A115919D95CD0340902404333333333333E33F0000000000000F90107409019070040501600405405064090741402480A1B50
1001
ACAD
1000
AcDbSavedByObjectVersion
1070
     0
  0
ACAD_PROXY_OBJECT
  5
31
102
{ACAD_REACTORS
330
2A
102
}
330
2A
100
AcDbProxyObject
 90
      499
 91
      501
 93
      476
310
41921A5919195B90640502408333333333333E33F0000000000000F901079024090700405020000000000001110200405405064090740C02480A0340
1001
ACAD
1000
AcDbSavedByObjectVersion
1070
     0
  0
ACAD_PROXY_OBJECT
  5
3B
102
{ACAD_REACTORS
330
2A
102
}
330
2A
100
AcDbProxyObject
 90
      499
 91
      501
 93
      428
310
42529A5D1D195C93D999914409028333333333333E33F0000000000000F9010790141107004050150A41D405064090741402480A0350
1001
ACAD
1000
AcDbSavedByObjectVersion
1070
     0
  0
ACAD_PROXY_OBJECT
  5
38
102
{ACAD_REACTORS
330
2A
102
}
330
2A
100
AcDbProxyObject
 90
      499
 91
      501
 93
      444
310
42D31A5B995C185D1D195C9B90E409028333333333333E33F0000000000000F9010790141107004050750841D405064090741402483A0350
1001
ACAD
1000
AcDbSavedByObjectVersion
1070
     0
  0
ACAD_PROXY_OBJECT
  5
3C
102
{ACAD_REACTORS
330
2A
102
}
330
2A
100
AcDbProxyObject
 90
      499
 91
      501
 93
      444
310
42D3DD995C9A185B99D3D999915409028333333333333E33F0000000000000F9010790141107004050150941D405064090741402480A0350
1001
ACAD
1000
AcDbSavedByObjectVersion
1070
     0
  0
ACAD_PROXY_OBJECT
  5
33
102
{ACAD_REACTORS
330
2A
102
}
330
2A
100
AcDbProxyObject
 90
      499
 91
      501
 93
      428
310
425499585B1A5CDD1A58D08409038333333333333E33F0000000000000F9010740A907004050150800405405064090740C02480A1B40
1001
ACAD
1000
AcDbSavedByObjectVersion
1070
     0
  0
ACAD_PROXY_OBJECT
  5
42
102
{ACAD_REACTORS
330
2A
102
}
330
2A
100
AcDbProxyObject
 90
      499
 91
      501
 93
      420
310
4194DA1859195911B40902404333333333333E33F0000000000000F9010740A41107004050150800405405064090840C02480A0B40
1001
ACAD
1000
AcDbSavedByObjectVersion
1070
     0
  0
ACAD_PROXY_OBJECT
  5
41
102
{ACAD_REACTORS
330
2A
102
}
330
2A
100
AcDbProxyObject
 90
      499
 91
      501
 93
      516
310
4454DA18591959081DDA5D1A08195919D95CD1A40902404333333333333E33F0000000000000F901074090142907004050250800405405064090740C02480A0B40
1001
ACAD
1000
AcDbSavedByObjectVersion
1070
     0
  0
ACAD_PROXY_OBJECT
  5
3E
102
{ACAD_REACTORS
330
2A
102
}
330
2A
100
AcDbProxyObject
 90
      499
 91
      501
 93
      532
310
4394DA1859195CC81BD98811DC985E5174090240C333333333333E33F0000000000000F901079024090741D01000000000000111010841D405064090740C02480A0340
1001
ACAD
1000
AcDbSavedByObjectVersion
1070
     0
  0
ACAD_PROXY_OBJECT
  5
3F
102
{ACAD_REACTORS
330
2A
102
}
330
2A
100
AcDbProxyObject
 90
      499
 91
      501
 93
      476
310
41D4DAD95D18DA1E51840502408333333333333E33F0000000000000F901079024090741D01000000000000111010B41D405064090741802480A0340
1001
ACAD
1000
AcDbSavedByObjectVersion
1070
     0
  0
ACAD_PROXY_OBJECT
  5
37
102
{ACAD_REACTORS
330
2A
102
}
330
2A
100
AcDbProxyObject
 90
      499
 91
      501
 93
      412
310
41D51A1A58DAD95B90D409028333333333333E33F0000000000000F9010790141107004050150C41D405064090741402480A0350
1001
ACAD
1000
AcDbSavedByObjectVersion
1070
     0
  0
ACAD_PROXY_OBJECT
  5
30
102
{ACAD_REACTORS
330
2A
102
}
330
2A
100
AcDbProxyObject
 90
      499
 91
      501
 93
      420
310
4255DA5C99599C985B595059028333333333333E33F0000000000000F90107901411070040501600405405064090740C02480A0340
1001
ACAD
1000
AcDbSavedByObjectVersion
1070
     0
  0
ACAD_PROXY_OBJECT
  5
40
102
{ACAD_REACTORS
330
2A
102
}
330
2A
100
AcDbProxyObject
 90
      499
 91
      501
 93
      404
310
41560B54985E51940902404000000000000E03F0000000000000F9010740501907004050150841D405064090740C02480A1B40
1001
ACAD
1000
AcDbSavedByObjectVersion
1070
     0
  0
XRECORD
  5
58B
102
{ACAD_REACTORS
330
581
102
}
330
581
100
AcDbXrecord
340
0
  0
XRECORD
  5
58A
102
{ACAD_REACTORS
330
581
102
}
330
581
100
AcDbXrecord
 90
        0
  0
XRECORD
  5
5A1
102
{ACAD_REACTORS
330
581
102
}
330
581
100
AcDbXrecord
1000
DSTYLE
1002
{
1070
   340
340
11
1002
}
  0
XRECORD
  5
58C
102
{ACAD_REACTORS
330
581
102
}
330
581
100
AcDbXrecord
  1
{a26d4e75-31af-4bac-8553-5461f5b6ef57}
  0
XRECORD
  5
584
102
{ACAD_REACTORS
330
581
102
}
330
581
100
AcDbXrecord
  1

  0
XRECORD
  5
589
102
{ACAD_REACTORS
330
581
102
}
330
581
100
AcDbXrecord
 90
        4
  0
XRECORD
  5
586
102
{ACAD_REACTORS
330
581
102
}
330
581
100
AcDbXrecord
340
1A
  0
XRECORD
  5
588
102
{ACAD_REACTORS
330
581
102
}
330
581
100
AcDbXrecord
 90
    10781
  0
XRECORD
  5
587
102
{ACAD_REACTORS
330
581
102
}
330
581
100
AcDbXrecord
340
19
  0
XRECORD
  5
58E
102
{ACAD_REACTORS
330
581
102
}
330
581
100
AcDbXrecord
 40
0.0
  0
XRECORD
  5
591
102
{ACAD_REACTORS
330
581
102
}
330
581
100
AcDbXrecord
340
0
  0
XRECORD
  5
597
102
{ACAD_REACTORS
330
581
102
}
330
581
100
AcDbXrecord
 10
0.0
 20
0.0
 30
0.0
  0
XRECORD
  5
593
102
{ACAD_REACTORS
330
581
102
}
330
581
100
AcDbXrecord
 10
0.0
 20
0.0
 30
0.0
  0
XRECORD
  5
596
102
{ACAD_REACTORS
330
581
102
}
330
581
100
AcDbXrecord
 10
0.0
 20
0.0
 30
0.0
  0
XRECORD
  5
594
102
{ACAD_REACTORS
330
581
102
}
330
581
100
AcDbXrecord
 10
0.0
 20
0.0
 30
0.0
  0
XRECORD
  5
595
102
{ACAD_REACTORS
330
581
102
}
330
581
100
AcDbXrecord
 10
0.0
 20
0.0
 30
0.0
  0
XRECORD
  5
592
102
{ACAD_REACTORS
330
581
102
}
330
581
100
AcDbXrecord
 10
0.0
 20
0.0
 30
0.0
  0
XRECORD
  5
58F
102
{ACAD_REACTORS
330
581
102
}
330
581
100
AcDbXrecord
340
0
  0
XRECORD
  5
590
102
{ACAD_REACTORS
330
581
102
}
330
581
100
AcDbXrecord
 70
     0
  0
XRECORD
  5
585
102
{ACAD_REACTORS
330
581
102
}
330
581
100
AcDbXrecord
  1

  0
XRECORD
  5
582
102
{ACAD_REACTORS
330
581
102
}
330
581
100
AcDbXrecord
 90
        1
  0
XRECORD
  5
583
102
{ACAD_REACTORS
330
581
102
}
330
581
100
AcDbXrecord
 90
       70
  0
XRECORD
  5
59A
102
{ACAD_REACTORS
330
581
102
}
330
581
100
AcDbXrecord
340
0
  0
XRECORD
  5
5A0
102
{ACAD_REACTORS
330
581
102
}
330
581
100
AcDbXrecord
 10
0.0
 20
0.0
 30
0.0
  0
XRECORD
  5
59C
102
{ACAD_REACTORS
330
581
102
}
330
581
100
AcDbXrecord
 10
0.0
 20
0.0
 30
0.0
  0
XRECORD
  5
59F
102
{ACAD_REACTORS
330
581
102
}
330
581
100
AcDbXrecord
 10
0.0
 20
0.0
 30
0.0
  0
XRECORD
  5
59D
102
{ACAD_REACTORS
330
581
102
}
330
581
100
AcDbXrecord
 10
0.0
 20
0.0
 30
0.0
  0
XRECORD
  5
59E
102
{ACAD_REACTORS
330
581
102
}
330
581
100
AcDbXrecord
 10
0.0
 20
0.0
 30
0.0
  0
XRECORD
  5
59B
102
{ACAD_REACTORS
330
581
102
}
330
581
100
AcDbXrecord
 10
0.0
 20
0.0
 30
0.0
  0
XRECORD
  5
598
102
{ACAD_REACTORS
330
581
102
}
330
581
100
AcDbXrecord
340
0
  0
XRECORD
  5
599
102
{ACAD_REACTORS
330
581
102
}
330
581
100
AcDbXrecord
 70
     0
  0
XRECORD
  5
58D
102
{ACAD_REACTORS
330
581
102
}
330
581
100
AcDbXrecord
  1
{FAEB1C32-E019-11D5-929B-00C0DF256EC4}
  0
DICTIONARYVAR
  5
5AF
102
{ACAD_REACTORS
330
5A2
102
}
330
5A2
100
DictionaryVariables
280
     0
  1
1:1
  0
DICTIONARYVAR
  5
5A9
102
{ACAD_REACTORS
330
5A2
102
}
330
5A2
100
DictionaryVariables
280
     0
  1
3.500000
  0
DICTIONARYVAR
  5
5AA
102
{ACAD_REACTORS
330
5A2
102
}
330
5A2
100
DictionaryVariables
280
     0
  1
acadiso.lin
  0
DICTIONARYVAR
  5
5A4
102
{ACAD_REACTORS
330
5A2
102
}
330
5A2
100
DictionaryVariables
280
     0
  1
Standard
  0
DICTIONARYVAR
  5
5A3
102
{ACAD_REACTORS
330
5A2
102
}
330
5A2
100
DictionaryVariables
280
     0
  1
Standard
  0
DICTIONARYVAR
  5
5AB
102
{ACAD_REACTORS
330
5A2
102
}
330
5A2
100
DictionaryVariables
280
     0
  1
2
  0
DICTIONARYVAR
  5
5AC
102
{ACAD_REACTORS
330
5A2
102
}
330
5A2
100
DictionaryVariables
280
     0
  1
1
  0
DICTIONARYVAR
  5
5B0
102
{ACAD_REACTORS
330
5A2
102
}
330
5A2
100
DictionaryVariables
280
     0
  1
1
  0
DICTIONARYVAR
  5
5A6
102
{ACAD_REACTORS
330
5A2
102
}
330
5A2
100
DictionaryVariables
280
     0
  1
80.000000
  0
DICTIONARYVAR
  5
5A5
102
{ACAD_REACTORS
330
5A2
102
}
330
5A2
100
DictionaryVariables
280
     0
  1
5.000000
  0
DICTIONARY
  5
5B3
330
45
100
AcDbDictionary
280
     1
  3
ACAD_XREC_ROUNDTRIP
360
5B4
  0
DICTIONARY
  5
5B1
330
44
100
AcDbDictionary
280
     1
  3
ACAD_XREC_ROUNDTRIP
360
5B2
  0
DICTIONARY
  5
5B5
330
46
100
AcDbDictionary
280
     1
  3
ACAD_XREC_ROUNDTRIP
360
5B6
  0
XRECORD
  5
5B4
102
{ACAD_REACTORS
330
5B3
102
}
330
5B3
100
AcDbXrecord
102
MATERIAL
148
0.0
149
0.0
149
0.0
 93
        0
 94
      127
282
     0
 72
     1
 77
     1
171
     1
175
     1
179
     1
273
     0
  0
XRECORD
  5
5B2
102
{ACAD_REACTORS
330
5B1
102
}
330
5B1
100
AcDbXrecord
102
MATERIAL
148
0.0
149
0.0
149
0.0
 93
        0
 94
      127
282
     0
 72
     1
 77
     1
171
     1
175
     1
179
     1
273
     0
  0
XRECORD
  5
5B6
102
{ACAD_REACTORS
330
5B5
102
}
330
5B5
100
AcDbXrecord
102
MATERIAL
148
0.0
149
0.0
149
0.0
 93
        0
 94
      127
282
     0
 72
     1
 77
     1
171
     1
175
     1
179
     1
273
     0
  0
ENDSEC
  0
EOF
