  0
SECTION
  2
HEADER
  9
$ACADVER
  1
AC1014
  9
$ACADMAINTVER
 70
     9
  9
$DWGCODEPAGE
  3
ANSI_932
  9
$INSBASE
 10
0.0
 20
0.0
 30
0.0
  9
$EXTMIN
 10
50.0
 20
100.0
 30
0.0
  9
$EXTMAX
 10
3850.0
 20
2800.0
 30
0.0
  9
$LIMMIN
 10
0.0
 20
0.0
  9
$LIMMAX
 10
420.0
 20
297.0
  9
$ORTHOMODE
 70
     0
  9
$REGENMODE
 70
     1
  9
$FILLMODE
 70
     1
  9
$QTEXTMODE
 70
     0
  9
$MIRRTEXT
 70
     1
  9
$DRAGMODE
 70
     2
  9
$LTSCALE
 40
0.2
  9
$OSMODE
 70
    37
  9
$ATTMODE
 70
     1
  9
$TEXTSIZE
 40
2.5
  9
$TRACEWID
 40
1.0
  9
$TEXTSTYLE
  7
STANDARD
  9
$CLAYER
  8
LAY-10
  9
$CELTYPE
  6
BYLAYER
  9
$CECOLOR
 62
   256
  9
$CELTSCALE
 40
1.0
  9
$DELOBJ
 70
     1
  9
$DISPSILH
 70
     0
  9
$DIMSCALE
 40
1.0
  9
$DIMASZ
 40
2.5
  9
$DIMEXO
 40
0.625
  9
$DIMDLI
 40
3.75
  9
$DIMRND
 40
0.0
  9
$DIMDLE
 40
0.0
  9
$DIMEXE
 40
1.25
  9
$DIMTP
 40
0.0
  9
$DIMTM
 40
0.0
  9
$DIMTXT
 40
2.5
  9
$DIMCEN
 40
2.5
  9
$DIMTSZ
 40
0.0
  9
$DIMTOL
 70
     0
  9
$DIMLIM
 70
     0
  9
$DIMTIH
 70
     0
  9
$DIMTOH
 70
     0
  9
$DIMSE1
 70
     0
  9
$DIMSE2
 70
     0
  9
$DIMTAD
 70
     1
  9
$DIMZIN
 70
     8
  9
$DIMBLK
  1

  9
$DIMASO
 70
     1
  9
$DIMSHO
 70
     1
  9
$DIMPOST
  1

  9
$DIMAPOST
  1

  9
$DIMALT
 70
     0
  9
$DIMALTD
 70
     3
  9
$DIMALTF
 40
0.03937007874016
  9
$DIMLFAC
 40
1.0
  9
$DIMTOFL
 70
     1
  9
$DIMTVP
 40
0.0
  9
$DIMTIX
 70
     0
  9
$DIMSOXD
 70
     0
  9
$DIMSAH
 70
     0
  9
$DIMBLK1
  1

  9
$DIMBLK2
  1

  9
$DIMSTYLE
  2
ISO-25
  9
$DIMCLRD
 70
     0
  9
$DIMCLRE
 70
     0
  9
$DIMCLRT
 70
     0
  9
$DIMTFAC
 40
1.0
  9
$DIMGAP
 40
0.625
  9
$DIMJUST
 70
     0
  9
$DIMSD1
 70
     0
  9
$DIMSD2
 70
     0
  9
$DIMTOLJ
 70
     0
  9
$DIMTZIN
 70
     8
  9
$DIMALTZ
 70
     0
  9
$DIMALTTZ
 70
     0
  9
$DIMFIT
 70
     3
  9
$DIMUPT
 70
     0
  9
$DIMUNIT
 70
     2
  9
$DIMDEC
 70
     2
  9
$DIMTDEC
 70
     2
  9
$DIMALTU
 70
     2
  9
$DIMALTTD
 70
     3
  9
$DIMTXSTY
  7
STANDARD
  9
$DIMAUNIT
 70
     0
  9
$LUNITS
 70
     2
  9
$LUPREC
 70
     4
  9
$SKETCHINC
 40
1.0
  9
$FILLETRAD
 40
10.0
  9
$AUNITS
 70
     0
  9
$AUPREC
 70
     0
  9
$MENU
  1
.
  9
$ELEVATION
 40
0.0
  9
$PELEVATION
 40
0.0
  9
$THICKNESS
 40
0.0
  9
$LIMCHECK
 70
     0
  9
$CHAMFERA
 40
0.0
  9
$CHAMFERB
 40
0.0
  9
$CHAMFERC
 40
0.0
  9
$CHAMFERD
 40
0.0
  9
$SKPOLY
 70
     0
  9
$TDCREATE
 40
2459229.333129688
  9
$TDUPDATE
 40
2459229.333130637
  9
$TDINDWG
 40
0.0000000116
  9
$TDUSRTIMER
 40
0.0000000116
  9
$USRTIMER
 70
     1
  9
$ANGBASE
 50
0.0
  9
$ANGDIR
 70
     0
  9
$PDMODE
 70
     0
  9
$PDSIZE
 40
0.0
  9
$PLINEWID
 40
0.0
  9
$COORDS
 70
     1
  9
$SPLFRAME
 70
     0
  9
$SPLINETYPE
 70
     6
  9
$SPLINESEGS
 70
     8
  9
$ATTDIA
 70
     0
  9
$ATTREQ
 70
     1
  9
$HANDLING
 70
     1
  9
$HANDSEED
  5
690
  9
$SURFTAB1
 70
     6
  9
$SURFTAB2
 70
     6
  9
$SURFTYPE
 70
     6
  9
$SURFU
 70
     6
  9
$SURFV
 70
     6
  9
$UCSNAME
  2

  9
$UCSORG
 10
0.0
 20
0.0
 30
0.0
  9
$UCSXDIR
 10
1.0
 20
0.0
 30
0.0
  9
$UCSYDIR
 10
0.0
 20
1.0
 30
0.0
  9
$PUCSNAME
  2

  9
$PUCSORG
 10
0.0
 20
0.0
 30
0.0
  9
$PUCSXDIR
 10
1.0
 20
0.0
 30
0.0
  9
$PUCSYDIR
 10
0.0
 20
1.0
 30
0.0
  9
$USERI1
 70
     0
  9
$USERI2
 70
     0
  9
$USERI3
 70
     0
  9
$USERI4
 70
     0
  9
$USERI5
 70
     0
  9
$USERR1
 40
0.0
  9
$USERR2
 40
0.0
  9
$USERR3
 40
0.0
  9
$USERR4
 40
0.0
  9
$USERR5
 40
0.0
  9
$WORLDVIEW
 70
     1
  9
$SHADEDGE
 70
     3
  9
$SHADEDIF
 70
    70
  9
$TILEMODE
 70
     1
  9
$MAXACTVP
 70
    64
  9
$PINSBASE
 10
0.0
 20
0.0
 30
0.0
  9
$PLIMCHECK
 70
     0
  9
$PEXTMIN
 10
1.000000000000000E+20
 20
1.000000000000000E+20
 30
1.000000000000000E+20
  9
$PEXTMAX
 10
-1.000000000000000E+20
 20
-1.000000000000000E+20
 30
-1.000000000000000E+20
  9
$PLIMMIN
 10
0.0
 20
0.0
  9
$PLIMMAX
 10
420.0
 20
297.0
  9
$UNITMODE
 70
     0
  9
$VISRETAIN
 70
     1
  9
$PLINEGEN
 70
     0
  9
$PSLTSCALE
 70
     1
  9
$TREEDEPTH
 70
  3020
  9
$PICKSTYLE
 70
     1
  9
$CMLSTYLE
  2
STANDARD
  9
$CMLJUST
 70
     0
  9
$CMLSCALE
 40
20.0
  9
$PROXYGRAPHICS
 70
     1
  9
$MEASUREMENT
 70
     1
  0
ENDSEC
  0
SECTION
  2
CLASSES
  0
CLASS
  1
ACDBDICTIONARYWDFLT
  2
AcDbDictionaryWithDefault
  3
ObjectDBX Classes
 90
        0
280
     0
281
     0
  0
CLASS
  1
VISUALSTYLE
  2
AcDbVisualStyle
  3
ObjectDBX Classes
 90
     4095
280
     0
281
     0
  0
CLASS
  1
MATERIAL
  2
AcDbMaterial
  3
ObjectDBX Classes
 90
     1153
280
     0
281
     0
  0
CLASS
  1
SCALE
  2
AcDbScale
  3
ObjectDBX Classes
 90
     1153
280
     0
281
     0
  0
CLASS
  1
TABLESTYLE
  2
AcDbTableStyle
  3
ObjectDBX Classes
 90
     4095
280
     0
281
     0
  0
CLASS
  1
MLEADERSTYLE
  2
AcDbMLeaderStyle
  3
ACDB_MLEADERSTYLE_CLASS
 90
     4095
280
     0
281
     0
  0
CLASS
  1
SUN
  2
AcDbSun
  3
SCENEOE
 90
     1153
280
     0
281
     0
  0
CLASS
  1
DICTIONARYVAR
  2
AcDbDictionaryVar
  3
ObjectDBX Classes
 90
        0
280
     0
281
     0
  0
CLASS
  1
XRECORD
  2
AcDbXrecord
  3
ObjectDBX Classes
 90
        0
280
     0
281
     0
  0
CLASS
  1
LWPOLYLINE
  2
AcDbPolyline
  3
ObjectDBX Classes
 90
        0
280
     0
281
     1
  0
CLASS
  1
HATCH
  2
AcDbHatch
  3
ObjectDBX Classes
 90
        0
280
     0
281
     1
  0
CLASS
  1
ACDBPLACEHOLDER
  2
AcDbPlaceHolder
  3
ObjectDBX Classes
 90
        0
280
     0
281
     0
  0
CLASS
  1
LAYOUT
  2
AcDbLayout
  3
ObjectDBX Classes
 90
        0
280
     0
281
     0
  0
ENDSEC
  0
SECTION
  2
TABLES
  0
TABLE
  2
VPORT
  5
8
102
{ACAD_XDICTIONARY
360
685
102
}
330
0
100
AcDbSymbolTable
 70
     1
  0
VPORT
  5
29
330
8
100
AcDbSymbolTableRecord
100
AcDbViewportTableRecord
  2
*ACTIVE
 70
     0
 10
0.0
 20
0.0
 11
1.0
 21
1.0
 12
1950.0
 22
1450.0
 13
0.0
 23
0.0
 14
10.0
 24
10.0
 15
10.0
 25
10.0
 16
0.0
 26
0.0
 36
1.0
 17
0.0
 27
0.0
 37
0.0
 40
2700.0
 41
1.407407407407408
 42
50.0
 43
0.0
 44
0.0
 50
0.0
 51
0.0
 71
     0
 72
  1000
 73
     1
 74
     3
 75
     0
 76
     0
 77
     0
 78
     0
  0
ENDTAB
  0
TABLE
  2
LTYPE
  5
5
330
0
100
AcDbSymbolTable
 70
     6
  0
LTYPE
  5
14
330
5
100
AcDbSymbolTableRecord
100
AcDbLinetypeTableRecord
  2
BYBLOCK
 70
     0
  3

 72
    65
 73
     0
 40
0.0
  0
LTYPE
  5
15
330
5
100
AcDbSymbolTableRecord
100
AcDbLinetypeTableRecord
  2
BYLAYER
 70
     0
  3

 72
    65
 73
     0
 40
0.0
  0
LTYPE
  5
16
330
5
100
AcDbSymbolTableRecord
100
AcDbLinetypeTableRecord
  2
CONTINUOUS
 70
     0
  3
Solid line
 72
    65
 73
     0
 40
0.0
  0
LTYPE
  5
6E
330
5
100
AcDbSymbolTableRecord
100
AcDbLinetypeTableRecord
  2
HIDDEN
 70
     0
  3
Hidden __ __ __ __ __ __ __ __ __ __ __ __ __ __
 72
    65
 73
     2
 40
9.524999999999999
 49
6.35
 74
     0
 49
-3.175
 74
     0
  0
LTYPE
  5
6F
330
5
100
AcDbSymbolTableRecord
100
AcDbLinetypeTableRecord
  2
CENTER
 70
     0
  3
Center ____ _ ____ _ ____ _ ____ _ ____ _ ____
 72
    65
 73
     4
 40
50.8
 49
31.75
 74
     0
 49
-6.35
 74
     0
 49
6.35
 74
     0
 49
-6.35
 74
     0
  0
LTYPE
  5
70
330
5
100
AcDbSymbolTableRecord
100
AcDbLinetypeTableRecord
  2
PHANTOM
 70
     0
  3
Phantom ______  __  __  ______  __  __  ______ 
 72
    65
 73
     6
 40
63.50000000000001
 49
31.75
 74
     0
 49
-6.35
 74
     0
 49
6.35
 74
     0
 49
-6.35
 74
     0
 49
6.35
 74
     0
 49
-6.35
 74
     0
  0
LTYPE
  5
71
330
5
100
AcDbSymbolTableRecord
100
AcDbLinetypeTableRecord
  2
ACAD_ISO06W100
 70
     0
  3
ISO long-dash triple-dot ____ ... ____ ... ____
 72
    65
 73
     8
 40
36.0
 49
24.0
 74
     0
 49
-3.0
 74
     0
 49
0.0
 74
     0
 49
-3.0
 74
     0
 49
0.0
 74
     0
 49
-3.0
 74
     0
 49
0.0
 74
     0
 49
-3.0
 74
     0
  0
LTYPE
  5
72
330
5
100
AcDbSymbolTableRecord
100
AcDbLinetypeTableRecord
  2
ACAD_ISO15W100
 70
     0
  3
ISO double-dash triple-dot __ __ . . . __ __ . .
 72
    65
 73
    10
 40
39.0
 49
12.0
 74
     0
 49
-3.0
 74
     0
 49
12.0
 74
     0
 49
-3.0
 74
     0
 49
0.0
 74
     0
 49
-3.0
 74
     0
 49
0.0
 74
     0
 49
-3.0
 74
     0
 49
0.0
 74
     0
 49
-3.0
 74
     0
  0
ENDTAB
  0
TABLE
  2
LAYER
  5
2
330
0
100
AcDbSymbolTable
 70
     6
  0
LAYER
  5
10
330
2
100
AcDbSymbolTableRecord
100
AcDbLayerTableRecord
  2
0
 70
     0
 62
     7
  6
CONTINUOUS
  0
LAYER
  5
75
330
2
100
AcDbSymbolTableRecord
100
AcDbLayerTableRecord
  2
LAY-10
 70
     0
 62
     7
  6
CONTINUOUS
  0
LAYER
  5
76
330
2
100
AcDbSymbolTableRecord
100
AcDbLayerTableRecord
  2
LAY-11
 70
     0
 62
     7
  6
CONTINUOUS
  0
LAYER
  5
77
330
2
100
AcDbSymbolTableRecord
100
AcDbLayerTableRecord
  2
LAY-20
 70
     0
 62
     7
  6
CONTINUOUS
  0
LAYER
  5
78
330
2
100
AcDbSymbolTableRecord
100
AcDbLayerTableRecord
  2
LAY-255
 70
     0
 62
     7
  6
CONTINUOUS
  0
LAYER
  5
5AD
330
2
100
AcDbSymbolTableRecord
100
AcDbLayerTableRecord
  2
DEFPOINTS
 70
     0
 62
     7
  6
CONTINUOUS
  0
ENDTAB
  0
TABLE
  2
STYLE
  5
3
330
0
100
AcDbSymbolTable
 70
     4
  0
STYLE
  5
11
330
3
100
AcDbSymbolTableRecord
100
AcDbTextStyleTableRecord
  2
STANDARD
 70
     0
 40
0.0
 41
1.0
 50
0.0
 71
     0
 42
2.5
  3
simplex
  4
bigfont
  0
STYLE
  5
73
330
3
100
AcDbSymbolTableRecord
100
AcDbTextStyleTableRecord
  2
EXCADSTD
 70
     0
 40
0.0
 41
1.0
 50
0.0
 71
     0
 42
2.5
  3
simplex
  4
bigfont
  0
STYLE
  5
74
330
3
100
AcDbSymbolTableRecord
100
AcDbTextStyleTableRecord
  2
EXCADVERT
 70
     4
 40
0.0
 41
1.0
 50
0.0
 71
     0
 42
2.5
  3
simplex
  4
bigfont
  0
STYLE
  5
5AB
330
3
100
AcDbSymbolTableRecord
100
AcDbTextStyleTableRecord
  2
EXCADDIM1
 70
     0
 40
0.0
 41
0.84
 50
0.0
 71
     0
 42
2.5
  3
simplex
  4
bigfont
  0
ENDTAB
  0
TABLE
  2
VIEW
  5
6
330
0
100
AcDbSymbolTable
 70
     0
  0
ENDTAB
  0
TABLE
  2
UCS
  5
7
330
0
100
AcDbSymbolTable
 70
     0
  0
ENDTAB
  0
TABLE
  2
APPID
  5
9
330
0
100
AcDbSymbolTable
 70
     2
  0
APPID
  5
12
330
9
100
AcDbSymbolTableRecord
100
AcDbRegAppTableRecord
  2
ACAD
 70
     0
  0
APPID
  5
68F
330
9
100
AcDbSymbolTableRecord
100
AcDbRegAppTableRecord
  2
ACAD_MLEADERVER
 70
     0
  0
ENDTAB
  0
TABLE
  2
DIMSTYLE
  5
A
330
0
100
AcDbSymbolTable
 70
     1
  0
DIMSTYLE
105
27
102
{ACAD_REACTORS
330
5AC
330
5BA
330
5C7
330
5D4
330
5E1
330
5EE
330
5FB
330
608
330
616
330
623
102
}
330
A
100
AcDbSymbolTableRecord
100
AcDbDimStyleTableRecord
  2
ISO-25
 70
     0
  3

  4

  5

  6

  7

 40
1.0
 41
2.5
 42
0.625
 43
3.75
 44
1.25
 45
0.0
 46
0.0
 47
0.0
 48
0.0
140
2.5
141
2.5
142
0.0
143
0.03937007874016
144
1.0
145
0.0
146
1.0
147
0.625
 71
     0
 72
     0
 73
     0
 74
     0
 75
     0
 76
     0
 77
     1
 78
     8
170
     0
171
     3
172
     1
173
     0
174
     0
175
     0
176
     0
177
     0
178
     0
270
     2
271
     2
272
     2
273
     2
274
     3
340
11
275
     0
280
     0
281
     0
282
     0
283
     0
284
     8
285
     0
286
     0
287
     5
288
     0
  0
ENDTAB
  0
TABLE
  2
BLOCK_RECORD
  5
1
330
0
100
AcDbSymbolTable
 70
    45
  0
BLOCK_RECORD
  5
1F
330
1
100
AcDbSymbolTableRecord
100
AcDbBlockTableRecord
  2
*MODEL_SPACE
  0
BLOCK_RECORD
  5
1B
330
1
100
AcDbSymbolTableRecord
100
AcDbBlockTableRecord
  2
*PAPER_SPACE
  0
BLOCK_RECORD
  5
79
330
1
100
AcDbSymbolTableRecord
100
AcDbBlockTableRecord
  2
EX_NORM
  0
BLOCK_RECORD
  5
7C
330
1
100
AcDbSymbolTableRecord
100
AcDbBlockTableRecord
  2
EX_BNORM
  0
BLOCK_RECORD
  5
7F
330
1
100
AcDbSymbolTableRecord
100
AcDbBlockTableRecord
  2
EX_BCIR
  0
BLOCK_RECORD
  5
82
330
1
100
AcDbSymbolTableRecord
100
AcDbBlockTableRecord
  2
EX_RCIVIL
  0
BLOCK_RECORD
  5
85
330
1
100
AcDbSymbolTableRecord
100
AcDbBlockTableRecord
  2
EX_SLANT
  0
BLOCK_RECORD
  5
88
330
1
100
AcDbSymbolTableRecord
100
AcDbBlockTableRecord
  2
EX_NONE
  0
BLOCK_RECORD
  5
8B
330
1
100
AcDbSymbolTableRecord
100
AcDbBlockTableRecord
  2
EX_CIVIL
  0
BLOCK_RECORD
  5
8E
330
1
100
AcDbSymbolTableRecord
100
AcDbBlockTableRecord
  2
EX_WCIR
  0
BLOCK_RECORD
  5
91
330
1
100
AcDbSymbolTableRecord
100
AcDbBlockTableRecord
  2
EX_WCIR2
  0
BLOCK_RECORD
  5
94
330
1
100
AcDbSymbolTableRecord
100
AcDbBlockTableRecord
  2
EX_WNORM
  0
BLOCK_RECORD
  5
97
330
1
100
AcDbSymbolTableRecord
100
AcDbBlockTableRecord
  2
EX_NNORM
  0
BLOCK_RECORD
  5
9A
330
1
100
AcDbSymbolTableRecord
100
AcDbBlockTableRecord
  2
EX_BBOX
  0
BLOCK_RECORD
  5
9D
330
1
100
AcDbSymbolTableRecord
100
AcDbBlockTableRecord
  2
EX_WBOX
  0
BLOCK_RECORD
  5
A0
330
1
100
AcDbSymbolTableRecord
100
AcDbBlockTableRecord
  2
EX_INTEGRAL
  0
BLOCK_RECORD
  5
A3
330
1
100
AcDbSymbolTableRecord
100
AcDbBlockTableRecord
  2
SYM-1
  0
BLOCK_RECORD
  5
A6
330
1
100
AcDbSymbolTableRecord
100
AcDbBlockTableRecord
  2
SYM-2
  0
BLOCK_RECORD
  5
A9
330
1
100
AcDbSymbolTableRecord
100
AcDbBlockTableRecord
  2
SYM-3
  0
BLOCK_RECORD
  5
AC
330
1
100
AcDbSymbolTableRecord
100
AcDbBlockTableRecord
  2
SYM-4
  0
BLOCK_RECORD
  5
AF
330
1
100
AcDbSymbolTableRecord
100
AcDbBlockTableRecord
  2
SYM-5
  0
BLOCK_RECORD
  5
B2
330
1
100
AcDbSymbolTableRecord
100
AcDbBlockTableRecord
  2
SYM-6
  0
BLOCK_RECORD
  5
B5
330
1
100
AcDbSymbolTableRecord
100
AcDbBlockTableRecord
  2
SYM-7
  0
BLOCK_RECORD
  5
B8
330
1
100
AcDbSymbolTableRecord
100
AcDbBlockTableRecord
  2
SYM-8
  0
BLOCK_RECORD
  5
BB
330
1
100
AcDbSymbolTableRecord
100
AcDbBlockTableRecord
  2
SYM-9
  0
BLOCK_RECORD
  5
BE
330
1
100
AcDbSymbolTableRecord
100
AcDbBlockTableRecord
  2
SYM-10
  0
BLOCK_RECORD
  5
C1
330
1
100
AcDbSymbolTableRecord
100
AcDbBlockTableRecord
  2
SYM-11
  0
BLOCK_RECORD
  5
C4
330
1
100
AcDbSymbolTableRecord
100
AcDbBlockTableRecord
  2
SYM-12
  0
BLOCK_RECORD
  5
C7
330
1
100
AcDbSymbolTableRecord
100
AcDbBlockTableRecord
  2
SYM-13
  0
BLOCK_RECORD
  5
CA
330
1
100
AcDbSymbolTableRecord
100
AcDbBlockTableRecord
  2
SYM-14
  0
BLOCK_RECORD
  5
CD
330
1
100
AcDbSymbolTableRecord
100
AcDbBlockTableRecord
  2
SYM-15
  0
BLOCK_RECORD
  5
D0
330
1
100
AcDbSymbolTableRecord
100
AcDbBlockTableRecord
  2
SYM-16
  0
BLOCK_RECORD
  5
D3
330
1
100
AcDbSymbolTableRecord
100
AcDbBlockTableRecord
  2
SYM-17
  0
BLOCK_RECORD
  5
D6
330
1
100
AcDbSymbolTableRecord
100
AcDbBlockTableRecord
  2
SYM-18
  0
BLOCK_RECORD
  5
D9
330
1
100
AcDbSymbolTableRecord
100
AcDbBlockTableRecord
  2
SYM-19
  0
BLOCK_RECORD
  5
DC
330
1
100
AcDbSymbolTableRecord
100
AcDbBlockTableRecord
  2
SYM-20
  0
BLOCK_RECORD
  5
DF
330
1
100
AcDbSymbolTableRecord
100
AcDbBlockTableRecord
  2
SYM-21
  0
BLOCK_RECORD
  5
5AE
330
1
100
AcDbSymbolTableRecord
100
AcDbBlockTableRecord
  2
*D36
  0
BLOCK_RECORD
  5
5BB
330
1
100
AcDbSymbolTableRecord
100
AcDbBlockTableRecord
  2
*D37
  0
BLOCK_RECORD
  5
5C8
330
1
100
AcDbSymbolTableRecord
100
AcDbBlockTableRecord
  2
*D38
  0
BLOCK_RECORD
  5
5D5
330
1
100
AcDbSymbolTableRecord
100
AcDbBlockTableRecord
  2
*D39
  0
BLOCK_RECORD
  5
5E2
330
1
100
AcDbSymbolTableRecord
100
AcDbBlockTableRecord
  2
*D40
  0
BLOCK_RECORD
  5
5EF
330
1
100
AcDbSymbolTableRecord
100
AcDbBlockTableRecord
  2
*D41
  0
BLOCK_RECORD
  5
5FC
330
1
100
AcDbSymbolTableRecord
100
AcDbBlockTableRecord
  2
*D42
  0
BLOCK_RECORD
  5
609
330
1
100
AcDbSymbolTableRecord
100
AcDbBlockTableRecord
  2
*D43
  0
BLOCK_RECORD
  5
617
330
1
100
AcDbSymbolTableRecord
100
AcDbBlockTableRecord
  2
*D44
  0
BLOCK_RECORD
  5
624
330
1
100
AcDbSymbolTableRecord
100
AcDbBlockTableRecord
  2
*D45
  0
ENDTAB
  0
ENDSEC
  0
SECTION
  2
BLOCKS
  0
BLOCK
  5
20
330
1F
100
AcDbEntity
  8
0
100
AcDbBlockBegin
  2
*MODEL_SPACE
 70
     0
 10
0.0
 20
0.0
 30
0.0
  3
*MODEL_SPACE
  1

  0
ENDBLK
  5
21
330
1F
100
AcDbEntity
  8
0
100
AcDbBlockEnd
  0
BLOCK
  5
1C
330
1B
100
AcDbEntity
 67
     1
  8
0
100
AcDbBlockBegin
  2
*PAPER_SPACE
 70
     0
 10
0.0
 20
0.0
 30
0.0
  3
*PAPER_SPACE
  1

  0
ENDBLK
  5
1D
330
1B
100
AcDbEntity
 67
     1
  8
0
100
AcDbBlockEnd
  0
BLOCK
  5
7A
330
79
100
AcDbEntity
  8
0
100
AcDbBlockBegin
  2
EX_NORM
 70
     0
 10
0.0
 20
0.0
 30
0.0
  3
EX_NORM
  1

  0
LINE
  5
E2
330
79
100
AcDbEntity
  8
0
  6
CONTINUOUS
 62
     0
100
AcDbLine
 10
0.0
 20
0.0
 30
0.0
 11
-1.0
 21
0.0
 31
0.0
  0
LINE
  5
E3
330
79
100
AcDbEntity
  8
0
  6
CONTINUOUS
 62
     0
100
AcDbLine
 10
0.0
 20
0.0
 30
0.0
 11
-1.0
 21
0.166666667
 31
0.0
  0
LINE
  5
E4
330
79
100
AcDbEntity
  8
0
  6
CONTINUOUS
 62
     0
100
AcDbLine
 10
0.0
 20
0.0
 30
0.0
 11
-1.0
 21
-0.166666667
 31
0.0
  0
ENDBLK
  5
7B
330
79
100
AcDbEntity
  8
0
100
AcDbBlockEnd
  0
BLOCK
  5
7D
330
7C
100
AcDbEntity
  8
0
100
AcDbBlockBegin
  2
EX_BNORM
 70
     0
 10
0.0
 20
0.0
 30
0.0
  3
EX_BNORM
  1

  0
LINE
  5
E5
330
7C
100
AcDbEntity
  8
0
  6
CONTINUOUS
 62
     0
100
AcDbLine
 10
0.0
 20
0.0
 30
0.0
 11
-1.0
 21
0.0
 31
0.0
  0
LINE
  5
E6
330
7C
100
AcDbEntity
  8
0
  6
CONTINUOUS
 62
     0
100
AcDbLine
 10
0.0
 20
0.0
 30
0.0
 11
-1.0
 21
0.166666667
 31
0.0
  0
LINE
  5
E7
330
7C
100
AcDbEntity
  8
0
  6
CONTINUOUS
 62
     0
100
AcDbLine
 10
0.0
 20
0.0
 30
0.0
 11
-1.0
 21
-0.166666667
 31
0.0
  0
LINE
  5
E8
330
7C
100
AcDbEntity
  8
0
  6
CONTINUOUS
 62
     0
100
AcDbLine
 10
0.0
 20
0.0
 30
0.0
 11
-1.0
 21
0.083333333
 31
0.0
  0
LINE
  5
E9
330
7C
100
AcDbEntity
  8
0
  6
CONTINUOUS
 62
     0
100
AcDbLine
 10
0.0
 20
0.0
 30
0.0
 11
-1.0
 21
-0.083333333
 31
0.0
  0
LINE
  5
EA
330
7C
100
AcDbEntity
  8
0
  6
CONTINUOUS
 62
     0
100
AcDbLine
 10
-1.0
 20
0.166666667
 30
0.0
 11
-1.0
 21
-0.166666667
 31
0.0
  0
ENDBLK
  5
7E
330
7C
100
AcDbEntity
  8
0
100
AcDbBlockEnd
  0
BLOCK
  5
80
330
7F
100
AcDbEntity
  8
0
100
AcDbBlockBegin
  2
EX_BCIR
 70
     0
 10
0.0
 20
0.0
 30
0.0
  3
EX_BCIR
  1

  0
LINE
  5
EB
330
7F
100
AcDbEntity
  8
0
  6
CONTINUOUS
 62
     0
100
AcDbLine
 10
0.0
 20
0.0
 30
0.0
 11
-1.0
 21
0.0
 31
0.0
  0
CIRCLE
  5
EC
330
7F
100
AcDbEntity
  8
0
  6
CONTINUOUS
 62
     0
100
AcDbCircle
 10
0.0
 20
0.0
 30
0.0
 40
0.5
  0
CIRCLE
  5
ED
330
7F
100
AcDbEntity
  8
0
  6
CONTINUOUS
 62
     0
100
AcDbCircle
 10
0.0
 20
0.0
 30
0.0
 40
0.25
  0
ENDBLK
  5
81
330
7F
100
AcDbEntity
  8
0
100
AcDbBlockEnd
  0
BLOCK
  5
83
330
82
100
AcDbEntity
  8
0
100
AcDbBlockBegin
  2
EX_RCIVIL
 70
     0
 10
0.0
 20
0.0
 30
0.0
  3
EX_RCIVIL
  1

  0
LINE
  5
EE
330
82
100
AcDbEntity
  8
0
  6
CONTINUOUS
 62
     0
100
AcDbLine
 10
0.0
 20
0.0
 30
0.0
 11
-1.0
 21
0.0
 31
0.0
  0
LINE
  5
EF
330
82
100
AcDbEntity
  8
0
  6
CONTINUOUS
 62
     0
100
AcDbLine
 10
-1.0
 20
-0.25
 30
0.0
 11
0.0
 21
-0.25
 31
0.0
  0
LINE
  5
F0
330
82
100
AcDbEntity
  8
0
  6
CONTINUOUS
 62
     0
100
AcDbLine
 10
-1.0
 20
-0.125
 30
0.0
 11
0.0
 21
-0.125
 31
0.0
  0
ENDBLK
  5
84
330
82
100
AcDbEntity
  8
0
100
AcDbBlockEnd
  0
BLOCK
  5
86
330
85
100
AcDbEntity
  8
0
100
AcDbBlockBegin
  2
EX_SLANT
 70
     0
 10
0.0
 20
0.0
 30
0.0
  3
EX_SLANT
  1

  0
LINE
  5
F1
330
85
100
AcDbEntity
  8
0
  6
CONTINUOUS
 62
     0
100
AcDbLine
 10
0.0
 20
0.0
 30
0.0
 11
-1.0
 21
0.0
 31
0.0
  0
LINE
  5
F2
330
85
100
AcDbEntity
  8
0
  6
CONTINUOUS
 62
     0
100
AcDbLine
 10
0.707106781
 20
0.707106781
 30
0.0
 11
-0.707106781
 21
-0.707106781
 31
0.0
  0
ENDBLK
  5
87
330
85
100
AcDbEntity
  8
0
100
AcDbBlockEnd
  0
BLOCK
  5
89
330
88
100
AcDbEntity
  8
0
100
AcDbBlockBegin
  2
EX_NONE
 70
     0
 10
0.0
 20
0.0
 30
0.0
  3
EX_NONE
  1

  0
LINE
  5
F3
330
88
100
AcDbEntity
  8
0
  6
CONTINUOUS
 62
     0
100
AcDbLine
 10
0.0
 20
0.0
 30
0.0
 11
-1.0
 21
0.0
 31
0.0
  0
ENDBLK
  5
8A
330
88
100
AcDbEntity
  8
0
100
AcDbBlockEnd
  0
BLOCK
  5
8C
330
8B
100
AcDbEntity
  8
0
100
AcDbBlockBegin
  2
EX_CIVIL
 70
     0
 10
0.0
 20
0.0
 30
0.0
  3
EX_CIVIL
  1

  0
LINE
  5
F4
330
8B
100
AcDbEntity
  8
0
  6
CONTINUOUS
 62
     0
100
AcDbLine
 10
0.0
 20
0.0
 30
0.0
 11
-1.0
 21
0.0
 31
0.0
  0
LINE
  5
F5
330
8B
100
AcDbEntity
  8
0
  6
CONTINUOUS
 62
     0
100
AcDbLine
 10
-1.0
 20
0.25
 30
0.0
 11
0.0
 21
0.25
 31
0.0
  0
LINE
  5
F6
330
8B
100
AcDbEntity
  8
0
  6
CONTINUOUS
 62
     0
100
AcDbLine
 10
-1.0
 20
0.125
 30
0.0
 11
0.0
 21
0.125
 31
0.0
  0
ENDBLK
  5
8D
330
8B
100
AcDbEntity
  8
0
100
AcDbBlockEnd
  0
BLOCK
  5
8F
330
8E
100
AcDbEntity
  8
0
100
AcDbBlockBegin
  2
EX_WCIR
 70
     0
 10
0.0
 20
0.0
 30
0.0
  3
EX_WCIR
  1

  0
LINE
  5
F7
330
8E
100
AcDbEntity
  8
0
  6
CONTINUOUS
 62
     0
100
AcDbLine
 10
0.0
 20
0.0
 30
0.0
 11
-1.0
 21
0.0
 31
0.0
  0
CIRCLE
  5
F8
330
8E
100
AcDbEntity
  8
0
  6
CONTINUOUS
 62
     0
100
AcDbCircle
 10
0.0
 20
0.0
 30
0.0
 40
0.5
  0
ENDBLK
  5
90
330
8E
100
AcDbEntity
  8
0
100
AcDbBlockEnd
  0
BLOCK
  5
92
330
91
100
AcDbEntity
  8
0
100
AcDbBlockBegin
  2
EX_WCIR2
 70
     0
 10
0.0
 20
0.0
 30
0.0
  3
EX_WCIR2
  1

  0
LINE
  5
F9
330
91
100
AcDbEntity
  8
0
  6
CONTINUOUS
 62
     0
100
AcDbLine
 10
-0.5
 20
0.0
 30
0.0
 11
-1.0
 21
0.0
 31
0.0
  0
CIRCLE
  5
FA
330
91
100
AcDbEntity
  8
0
  6
CONTINUOUS
 62
     0
100
AcDbCircle
 10
0.0
 20
0.0
 30
0.0
 40
0.5
  0
ENDBLK
  5
93
330
91
100
AcDbEntity
  8
0
100
AcDbBlockEnd
  0
BLOCK
  5
95
330
94
100
AcDbEntity
  8
0
100
AcDbBlockBegin
  2
EX_WNORM
 70
     0
 10
0.0
 20
0.0
 30
0.0
  3
EX_WNORM
  1

  0
LINE
  5
FB
330
94
100
AcDbEntity
  8
0
  6
CONTINUOUS
 62
     0
100
AcDbLine
 10
-1.0
 20
0.0
 30
0.0
 11
-1.0
 21
0.0
 31
0.0
  0
LINE
  5
FC
330
94
100
AcDbEntity
  8
0
  6
CONTINUOUS
 62
     0
100
AcDbLine
 10
0.0
 20
0.0
 30
0.0
 11
-1.0
 21
0.166666667
 31
0.0
  0
LINE
  5
FD
330
94
100
AcDbEntity
  8
0
  6
CONTINUOUS
 62
     0
100
AcDbLine
 10
0.0
 20
0.0
 30
0.0
 11
-1.0
 21
-0.166666667
 31
0.0
  0
LINE
  5
FE
330
94
100
AcDbEntity
  8
0
  6
CONTINUOUS
 62
     0
100
AcDbLine
 10
-1.0
 20
0.166666667
 30
0.0
 11
-1.0
 21
-0.166666667
 31
0.0
  0
ENDBLK
  5
96
330
94
100
AcDbEntity
  8
0
100
AcDbBlockEnd
  0
BLOCK
  5
98
330
97
100
AcDbEntity
  8
0
100
AcDbBlockBegin
  2
EX_NNORM
 70
     0
 10
0.0
 20
0.0
 30
0.0
  3
EX_NNORM
  1

  0
LINE
  5
FF
330
97
100
AcDbEntity
  8
0
  6
CONTINUOUS
 62
     0
100
AcDbLine
 10
0.0
 20
0.0
 30
0.0
 11
-1.0
 21
0.0
 31
0.0
  0
LINE
  5
100
330
97
100
AcDbEntity
  8
0
  6
CONTINUOUS
 62
     0
100
AcDbLine
 10
0.0
 20
0.0
 30
0.0
 11
-1.0
 21
0.166666667
 31
0.0
  0
LINE
  5
101
330
97
100
AcDbEntity
  8
0
  6
CONTINUOUS
 62
     0
100
AcDbLine
 10
0.0
 20
0.0
 30
0.0
 11
-1.0
 21
-0.166666667
 31
0.0
  0
LINE
  5
102
330
97
100
AcDbEntity
  8
0
  6
CONTINUOUS
 62
     0
100
AcDbLine
 10
-1.0
 20
0.166666667
 30
0.0
 11
-1.0
 21
-0.166666667
 31
0.0
  0
ENDBLK
  5
99
330
97
100
AcDbEntity
  8
0
100
AcDbBlockEnd
  0
BLOCK
  5
9B
330
9A
100
AcDbEntity
  8
0
100
AcDbBlockBegin
  2
EX_BBOX
 70
     0
 10
0.0
 20
0.0
 30
0.0
  3
EX_BBOX
  1

  0
LINE
  5
103
330
9A
100
AcDbEntity
  8
0
  6
CONTINUOUS
 62
     0
100
AcDbLine
 10
0.0
 20
0.0
 30
0.0
 11
-1.0
 21
0.0
 31
0.0
  0
LINE
  5
104
330
9A
100
AcDbEntity
  8
0
  6
CONTINUOUS
 62
     0
100
AcDbLine
 10
-0.5
 20
0.5
 30
0.0
 11
0.5
 21
0.5
 31
0.0
  0
LINE
  5
105
330
9A
100
AcDbEntity
  8
0
  6
CONTINUOUS
 62
     0
100
AcDbLine
 10
0.5
 20
0.5
 30
0.0
 11
0.5
 21
-0.5
 31
0.0
  0
LINE
  5
106
330
9A
100
AcDbEntity
  8
0
  6
CONTINUOUS
 62
     0
100
AcDbLine
 10
0.5
 20
-0.5
 30
0.0
 11
-0.5
 21
-0.5
 31
0.0
  0
LINE
  5
107
330
9A
100
AcDbEntity
  8
0
  6
CONTINUOUS
 62
     0
100
AcDbLine
 10
-0.5
 20
-0.5
 30
0.0
 11
-0.5
 21
0.5
 31
0.0
  0
LINE
  5
108
330
9A
100
AcDbEntity
  8
0
  6
CONTINUOUS
 62
     0
100
AcDbLine
 10
-0.25
 20
0.25
 30
0.0
 11
0.25
 21
0.25
 31
0.0
  0
LINE
  5
109
330
9A
100
AcDbEntity
  8
0
  6
CONTINUOUS
 62
     0
100
AcDbLine
 10
0.25
 20
0.25
 30
0.0
 11
0.25
 21
-0.25
 31
0.0
  0
LINE
  5
10A
330
9A
100
AcDbEntity
  8
0
  6
CONTINUOUS
 62
     0
100
AcDbLine
 10
0.25
 20
-0.25
 30
0.0
 11
-0.25
 21
-0.25
 31
0.0
  0
LINE
  5
10B
330
9A
100
AcDbEntity
  8
0
  6
CONTINUOUS
 62
     0
100
AcDbLine
 10
-0.25
 20
-0.25
 30
0.0
 11
-0.25
 21
0.25
 31
0.0
  0
ENDBLK
  5
9C
330
9A
100
AcDbEntity
  8
0
100
AcDbBlockEnd
  0
BLOCK
  5
9E
330
9D
100
AcDbEntity
  8
0
100
AcDbBlockBegin
  2
EX_WBOX
 70
     0
 10
0.0
 20
0.0
 30
0.0
  3
EX_WBOX
  1

  0
LINE
  5
10C
330
9D
100
AcDbEntity
  8
0
  6
CONTINUOUS
 62
     0
100
AcDbLine
 10
-0.5
 20
0.0
 30
0.0
 11
-1.0
 21
0.0
 31
0.0
  0
LINE
  5
10D
330
9D
100
AcDbEntity
  8
0
  6
CONTINUOUS
 62
     0
100
AcDbLine
 10
-0.5
 20
0.5
 30
0.0
 11
0.5
 21
0.5
 31
0.0
  0
LINE
  5
10E
330
9D
100
AcDbEntity
  8
0
  6
CONTINUOUS
 62
     0
100
AcDbLine
 10
0.5
 20
0.5
 30
0.0
 11
0.5
 21
-0.5
 31
0.0
  0
LINE
  5
10F
330
9D
100
AcDbEntity
  8
0
  6
CONTINUOUS
 62
     0
100
AcDbLine
 10
0.5
 20
-0.5
 30
0.0
 11
-0.5
 21
-0.5
 31
0.0
  0
LINE
  5
110
330
9D
100
AcDbEntity
  8
0
  6
CONTINUOUS
 62
     0
100
AcDbLine
 10
-0.5
 20
-0.5
 30
0.0
 11
-0.5
 21
0.5
 31
0.0
  0
ENDBLK
  5
9F
330
9D
100
AcDbEntity
  8
0
100
AcDbBlockEnd
  0
BLOCK
  5
A1
330
A0
100
AcDbEntity
  8
0
100
AcDbBlockBegin
  2
EX_INTEGRAL
 70
     0
 10
0.0
 20
0.0
 30
0.0
  3
EX_INTEGRAL
  1

  0
LINE
  5
111
330
A0
100
AcDbEntity
  8
0
  6
CONTINUOUS
 62
     0
100
AcDbLine
 10
0.0
 20
0.0
 30
0.0
 11
-1.0
 21
0.0
 31
0.0
  0
ARC
  5
112
330
A0
100
AcDbEntity
  8
0
  6
CONTINUOUS
 62
     0
100
AcDbCircle
 10
0.542115
 20
0.164992
 30
0.0
 40
0.56667
100
AcDbArc
 50
73.07249033629006
 51
196.9275130221199
  0
ARC
  5
113
330
A0
100
AcDbEntity
  8
0
  6
CONTINUOUS
 62
     0
100
AcDbCircle
 10
-0.542115
 20
-0.164992
 30
0.0
 40
0.56667
100
AcDbArc
 50
253.0724869220464
 51
16.9275130559125
  0
ENDBLK
  5
A2
330
A0
100
AcDbEntity
  8
0
100
AcDbBlockEnd
  0
BLOCK
  5
A4
330
A3
100
AcDbEntity
  8
0
100
AcDbBlockBegin
  2
SYM-1
 70
     0
 10
0.0
 20
0.0
 30
0.0
  3
SYM-1
  1

  0
LINE
  5
114
330
A3
100
AcDbEntity
  8
0
  6
CONTINUOUS
 62
     7
100
AcDbLine
 10
1864.000000000082
 20
844.6666666666162
 30
0.0
 11
1865.000000000083
 21
845.6666666666162
 31
0.0
  0
LINE
  5
115
330
A3
100
AcDbEntity
  8
0
  6
CONTINUOUS
 62
     7
100
AcDbLine
 10
1874.000000000082
 20
844.6666666666162
 30
0.0
 11
1873.000000000081
 21
845.6666666666162
 31
0.0
  0
LINE
  5
116
330
A3
100
AcDbEntity
  8
0
  6
CONTINUOUS
 62
     7
100
AcDbLine
 10
1865.000000000083
 20
845.6666666666162
 30
0.0
 11
1873.000000000081
 21
845.6666666666162
 31
0.0
  0
LINE
  5
117
330
A3
100
AcDbEntity
  8
0
  6
CONTINUOUS
 62
     7
100
AcDbLine
 10
1874.000000000082
 20
841.4666666666164
 30
0.0
 11
1874.000000000082
 21
844.6666666666162
 31
0.0
  0
LINE
  5
118
330
A3
100
AcDbEntity
  8
0
  6
CONTINUOUS
 62
     7
100
AcDbLine
 10
1864.000000000082
 20
841.4666666666164
 30
0.0
 11
1864.000000000082
 21
844.6666666666162
 31
0.0
  0
LINE
  5
119
330
A3
100
AcDbEntity
  8
0
  6
CONTINUOUS
 62
     7
100
AcDbLine
 10
1874.000000000082
 20
833.0666666666167
 30
0.0
 11
1874.000000000082
 21
840.5426666666165
 31
0.0
  0
LINE
  5
11A
330
A3
100
AcDbEntity
  8
0
  6
CONTINUOUS
 62
     7
100
AcDbLine
 10
1864.000000000082
 20
833.0666666666167
 30
0.0
 11
1864.000000000082
 21
840.5426666666165
 31
0.0
  0
LINE
  5
11B
330
A3
100
AcDbEntity
  8
0
  6
CONTINUOUS
 62
     7
100
AcDbLine
 10
1859.000000000082
 20
833.0666666666167
 30
0.0
 11
1859.000000000082
 21
840.5426666666165
 31
0.0
  0
ARC
  5
11C
330
A3
100
AcDbEntity
  8
0
  6
CONTINUOUS
 62
     7
100
AcDbCircle
 10
1876.500000000081
 20
837.6226320345814
 30
0.0
 40
3.844034632034633
100
AcDbArc
 50
49.4313750266144
 51
130.5686249733918
  0
ARC
  5
11D
330
A3
100
AcDbEntity
  8
0
  6
CONTINUOUS
 62
     7
100
AcDbCircle
 10
1869.000000000081
 20
827.4765281384782
 30
0.0
 40
13.99013852813853
100
AcDbArc
 50
69.05972439385523
 51
110.9402756061494
  0
ARC
  5
11E
330
A3
100
AcDbEntity
  8
0
  6
CONTINUOUS
 62
     7
100
AcDbCircle
 10
1861.500000000081
 20
837.6226320345814
 30
0.0
 40
3.844034632034633
100
AcDbArc
 50
49.4313750266144
 51
130.5686249733918
  0
LINE
  5
11F
330
A3
100
AcDbEntity
  8
0
  6
CONTINUOUS
 62
     7
100
AcDbLine
 10
1876.500000000081
 20
841.4666666666164
 30
0.0
 11
1861.500000000081
 21
841.4666666666164
 31
0.0
  0
LINE
  5
120
330
A3
100
AcDbEntity
  8
0
  6
CONTINUOUS
 62
     7
100
AcDbLine
 10
1858.500000000082
 20
833.0666666666167
 30
0.0
 11
1879.500000000082
 21
833.0666666666167
 31
0.0
  0
LINE
  5
121
330
A3
100
AcDbEntity
  8
0
  6
CONTINUOUS
 62
     7
100
AcDbLine
 10
1879.000000000082
 20
833.0666666666167
 30
0.0
 11
1879.000000000082
 21
840.5426666666165
 31
0.0
  0
LINE
  5
122
330
A3
100
AcDbEntity
  8
0
  6
CONTINUOUS
 62
     7
100
AcDbLine
 10
1858.500000000082
 20
833.0666666666167
 30
0.0
 11
1858.500000000082
 21
831.0666666666158
 31
0.0
  0
LINE
  5
123
330
A3
100
AcDbEntity
  8
0
  6
CONTINUOUS
 62
     7
100
AcDbLine
 10
1879.500000000082
 20
833.0666666666167
 30
0.0
 11
1879.500000000082
 21
831.0666666666158
 31
0.0
  0
LINE
  5
124
330
A3
100
AcDbEntity
  8
0
  6
CONTINUOUS
 62
     7
100
AcDbLine
 10
1864.000000000082
 20
809.9706666666162
 30
0.0
 11
1864.000000000082
 21
831.0666666666158
 31
0.0
  0
LINE
  5
125
330
A3
100
AcDbEntity
  8
0
  6
CONTINUOUS
 62
     7
100
AcDbLine
 10
1874.000000000082
 20
809.9706666666162
 30
0.0
 11
1874.000000000082
 21
831.0666666666158
 31
0.0
  0
LINE
  5
126
330
A3
100
AcDbEntity
  8
0
  6
CONTINUOUS
 62
     7
100
AcDbLine
 10
1874.000000000082
 20
820.6666666666162
 30
0.0
 11
1864.000000000082
 21
820.6666666666162
 31
0.0
  0
ARC
  5
127
330
A3
100
AcDbEntity
  8
0
  6
CONTINUOUS
 62
     7
100
AcDbCircle
 10
1869.000000000081
 20
827.3743484847984
 30
0.0
 40
18.10768181818181
100
AcDbArc
 50
253.9708781133825
 51
286.0291218866138
  0
ARC
  5
128
330
A3
100
AcDbEntity
  8
0
  6
CONTINUOUS
 62
     7
100
AcDbCircle
 10
1876.500000000081
 20
814.0575871211615
 30
0.0
 40
4.790920454545454
100
AcDbArc
 50
238.5455606612373
 51
301.4544393387538
  0
LINE
  5
129
330
A3
100
AcDbEntity
  8
0
  6
CONTINUOUS
 62
     7
100
AcDbLine
 10
1879.000000000082
 20
815.6666666666162
 30
0.0
 11
1879.000000000082
 21
809.9706666666162
 31
0.0
  0
LINE
  5
12A
330
A3
100
AcDbEntity
  8
0
  6
CONTINUOUS
 62
     7
100
AcDbLine
 10
1861.500000000081
 20
809.2666666666165
 30
0.0
 11
1876.500000000081
 21
809.2666666666165
 31
0.0
  0
ARC
  5
12B
330
A3
100
AcDbEntity
  8
0
  6
CONTINUOUS
 62
     7
100
AcDbCircle
 10
1861.500000000081
 20
814.0575871211615
 30
0.0
 40
4.790920454545454
100
AcDbArc
 50
238.5455606612373
 51
301.4544393387538
  0
LINE
  5
12C
330
A3
100
AcDbEntity
  8
0
  6
CONTINUOUS
 62
     7
100
AcDbLine
 10
1859.000000000082
 20
815.6666666666162
 30
0.0
 11
1859.000000000082
 21
809.9706666666162
 31
0.0
  0
LINE
  5
12D
330
A3
100
AcDbEntity
  8
0
  6
CONTINUOUS
 62
     7
100
AcDbLine
 10
1879.000000000085
 20
814.2524531042392
 30
0.0
 11
1879.456881618655
 21
813.7955714856719
 31
0.0
  0
LINE
  5
12E
330
A3
100
AcDbEntity
  8
0
  6
CONTINUOUS
 62
     7
100
AcDbLine
 10
1879.000000000079
 20
814.9595598854331
 30
0.0
 11
1879.805843406754
 21
814.1537164787579
 31
0.0
  0
LINE
  5
12F
330
A3
100
AcDbEntity
  8
0
  6
CONTINUOUS
 62
     7
100
AcDbLine
 10
1879.000000000085
 20
815.6666666666143
 30
0.0
 11
1880.154805194877
 21
814.5118614718223
 31
0.0
  0
LINE
  5
130
330
A3
100
AcDbEntity
  8
0
  6
CONTINUOUS
 62
     7
100
AcDbLine
 10
1879.707106781266
 20
815.6666666666189
 30
0.0
 11
1880.503766982999
 21
814.8700064648866
 31
0.0
  0
LINE
  5
131
330
A3
100
AcDbEntity
  8
0
  6
CONTINUOUS
 62
     7
100
AcDbLine
 10
1880.414213562448
 20
815.6666666666234
 30
0.0
 11
1880.852728771121
 21
815.2281514579511
 31
0.0
  0
LINE
  5
132
330
A3
100
AcDbEntity
  8
0
  6
CONTINUOUS
 62
     7
100
AcDbLine
 10
1879.000000000085
 20
813.326666666616
 30
0.0
 11
1881.280000000085
 21
815.6666666666162
 31
0.0
  0
LINE
  5
133
330
A3
100
AcDbEntity
  8
0
  6
CONTINUOUS
 62
     7
100
AcDbLine
 10
1879.00000000007
 20
813.5453463230698
 30
0.0
 11
1879.107919830534
 21
813.4374264926074
 31
0.0
  0
LINE
  5
134
330
A3
100
AcDbEntity
  8
0
  6
CONTINUOUS
 62
     7
100
AcDbLine
 10
1881.121320343628
 20
815.6666666666289
 30
0.0
 11
1881.201690559231
 21
815.5862964510262
 31
0.0
  0
LINE
  5
135
330
A3
100
AcDbEntity
  8
0
  6
CONTINUOUS
 62
     7
100
AcDbLine
 10
1857.081855007015
 20
815.2556284547355
 30
0.0
 11
1857.492893218894
 21
815.6666666666126
 31
0.0
  0
LINE
  5
136
330
A3
100
AcDbEntity
  8
0
  6
CONTINUOUS
 62
     7
100
AcDbLine
 10
1857.44000000008
 20
814.9066666666132
 30
0.0
 11
1858.200000000086
 21
815.6666666666189
 31
0.0
  0
LINE
  5
137
330
A3
100
AcDbEntity
  8
0
  6
CONTINUOUS
 62
     7
100
AcDbLine
 10
1857.798144993146
 20
814.5577048784909
 30
0.0
 11
1858.907106781256
 21
815.6666666666025
 31
0.0
  0
LINE
  5
138
330
A3
100
AcDbEntity
  8
0
  6
CONTINUOUS
 62
     7
100
AcDbLine
 10
1858.156289986233
 20
814.2087430903922
 30
0.0
 11
1859.000000000068
 21
815.0524531042277
 31
0.0
  0
LINE
  5
139
330
A3
100
AcDbEntity
  8
0
  6
CONTINUOUS
 62
     7
100
AcDbLine
 10
1858.514434979295
 20
813.859781302269
 30
0.0
 11
1859.000000000085
 21
814.3453463230591
 31
0.0
  0
LINE
  5
13A
330
A3
100
AcDbEntity
  8
0
  6
CONTINUOUS
 62
     7
100
AcDbLine
 10
1858.87257997236
 20
813.5108195141466
 30
0.0
 11
1859.000000000078
 21
813.6382395418651
 31
0.0
  0
LINE
  5
13B
330
A3
100
AcDbEntity
  8
0
  6
CONTINUOUS
 62
     7
100
AcDbLine
 10
1856.660000000081
 20
815.6666666666143
 30
0.0
 11
1859.000000000082
 21
813.3866666666155
 31
0.0
  0
LINE
  5
13C
330
A3
100
AcDbEntity
  8
0
  6
CONTINUOUS
 62
     7
100
AcDbLine
 10
1856.723710013941
 20
815.604590242846
 30
0.0
 11
1856.785786437712
 21
815.666666666618
 31
0.0
  0
LINE
  5
13D
330
A3
100
AcDbEntity
  8
0
  6
CONTINUOUS
 62
     7
100
AcDbLine
 10
1865.000000000083
 20
845.6666666666162
 30
0.0
 11
1865.000000000083
 21
841.4666666666164
 31
0.0
  0
LINE
  5
13E
330
A3
100
AcDbEntity
  8
0
  6
CONTINUOUS
 62
     7
100
AcDbLine
 10
1864.000000000082
 20
844.6666666666162
 30
0.0
 11
1874.000000000082
 21
844.6666666666162
 31
0.0
  0
LINE
  5
13F
330
A3
100
AcDbEntity
  8
0
  6
CONTINUOUS
 62
     7
100
AcDbLine
 10
1873.000000000081
 20
845.6666666666162
 30
0.0
 11
1873.000000000081
 21
841.4666666666164
 31
0.0
  0
LINE
  5
140
330
A3
100
AcDbEntity
  8
0
  6
CONTINUOUS
 62
     7
100
AcDbLine
 10
1873.000000000081
 20
831.0666666666168
 30
0.0
 11
1873.000000000081
 21
820.6666666666162
 31
0.0
  0
LINE
  5
141
330
A3
100
AcDbEntity
  8
0
  6
CONTINUOUS
 62
     7
100
AcDbLine
 10
1865.000000000083
 20
831.0666666666168
 30
0.0
 11
1865.000000000083
 21
820.6666666666162
 31
0.0
  0
LINE
  5
142
330
A3
100
AcDbEntity
  8
0
  6
CONTINUOUS
 62
     7
100
AcDbLine
 10
1865.000000000083
 20
820.6666666666162
 30
0.0
 11
1864.000000000082
 21
819.6666666666162
 31
0.0
  0
LINE
  5
143
330
A3
100
AcDbEntity
  8
0
  6
CONTINUOUS
 62
     7
100
AcDbLine
 10
1873.000000000081
 20
820.6666666666162
 30
0.0
 11
1874.000000000082
 21
819.6666666666162
 31
0.0
  0
ENDBLK
  5
A5
330
A3
100
AcDbEntity
  8
0
100
AcDbBlockEnd
  0
BLOCK
  5
A7
330
A6
100
AcDbEntity
  8
0
100
AcDbBlockBegin
  2
SYM-2
 70
     0
 10
0.0
 20
0.0
 30
0.0
  3
SYM-2
  1

  0
LINE
  5
144
330
A6
100
AcDbEntity
  8
0
  6
CONTINUOUS
 62
     7
100
AcDbLine
 10
324.0000000000946
 20
841.4666666666164
 30
0.0
 11
324.0000000000946
 21
844.6666666666162
 31
0.0
  0
LINE
  5
145
330
A6
100
AcDbEntity
  8
0
  6
CONTINUOUS
 62
     7
100
AcDbLine
 10
314.0000000000964
 20
841.4666666666164
 30
0.0
 11
314.0000000000964
 21
844.6666666666162
 31
0.0
  0
LINE
  5
146
330
A6
100
AcDbEntity
  8
0
  6
CONTINUOUS
 62
     7
100
AcDbLine
 10
324.0000000000946
 20
833.0666666666167
 30
0.0
 11
324.0000000000946
 21
840.5426666666165
 31
0.0
  0
LINE
  5
147
330
A6
100
AcDbEntity
  8
0
  6
CONTINUOUS
 62
     7
100
AcDbLine
 10
314.0000000000964
 20
833.0666666666167
 30
0.0
 11
314.0000000000964
 21
840.5426666666165
 31
0.0
  0
LINE
  5
148
330
A6
100
AcDbEntity
  8
0
  6
CONTINUOUS
 62
     7
100
AcDbLine
 10
323.0000000001
 20
845.6666666666162
 30
0.0
 11
315.000000000101
 21
845.6666666666162
 31
0.0
  0
LINE
  5
149
330
A6
100
AcDbEntity
  8
0
  6
CONTINUOUS
 62
     7
100
AcDbLine
 10
314.0000000001
 20
844.6666666666162
 30
0.0
 11
315.000000000101
 21
845.6666666666162
 31
0.0
  0
LINE
  5
14A
330
A6
100
AcDbEntity
  8
0
  6
CONTINUOUS
 62
     7
100
AcDbLine
 10
324.0000000001019
 20
844.6666666666162
 30
0.0
 11
323.0000000001
 21
845.6666666666162
 31
0.0
  0
LINE
  5
14B
330
A6
100
AcDbEntity
  8
0
  6
CONTINUOUS
 62
     7
100
AcDbLine
 10
329.0000000000964
 20
833.0666666666167
 30
0.0
 11
329.0000000000964
 21
840.5426666666165
 31
0.0
  0
LINE
  5
14C
330
A6
100
AcDbEntity
  8
0
  6
CONTINUOUS
 62
     7
100
AcDbLine
 10
309.0000000000955
 20
833.0666666666167
 30
0.0
 11
309.0000000000955
 21
840.5426666666165
 31
0.0
  0
ARC
  5
14D
330
A6
100
AcDbEntity
  8
0
  6
CONTINUOUS
 62
     7
100
AcDbCircle
 10
326.5000000000954
 20
837.6226320345814
 30
0.0
 40
3.844034632034633
100
AcDbArc
 50
49.43137502657837
 51
130.5686249733964
  0
ARC
  5
14E
330
A6
100
AcDbEntity
  8
0
  6
CONTINUOUS
 62
     7
100
AcDbCircle
 10
319.0000000000955
 20
827.4765281384782
 30
0.0
 40
13.99013852813853
100
AcDbArc
 50
69.0597243938585
 51
110.9402756061383
  0
ARC
  5
14F
330
A6
100
AcDbEntity
  8
0
  6
CONTINUOUS
 62
     7
100
AcDbCircle
 10
311.5000000000955
 20
837.6226320345814
 30
0.0
 40
3.844034632034633
100
AcDbArc
 50
49.43137502657837
 51
130.5686249733964
  0
LINE
  5
150
330
A6
100
AcDbEntity
  8
0
  6
CONTINUOUS
 62
     7
100
AcDbLine
 10
326.5000000000954
 20
841.4666666666164
 30
0.0
 11
311.5000000000955
 21
841.4666666666164
 31
0.0
  0
LINE
  5
151
330
A6
100
AcDbEntity
  8
0
  6
CONTINUOUS
 62
     7
100
AcDbLine
 10
329.5000000000955
 20
833.0666666666167
 30
0.0
 11
329.5000000000955
 21
831.0666666666158
 31
0.0
  0
LINE
  5
152
330
A6
100
AcDbEntity
  8
0
  6
CONTINUOUS
 62
     7
100
AcDbLine
 10
308.5000000000964
 20
833.0666666666167
 30
0.0
 11
329.5000000000955
 21
833.0666666666167
 31
0.0
  0
LINE
  5
153
330
A6
100
AcDbEntity
  8
0
  6
CONTINUOUS
 62
     7
100
AcDbLine
 10
308.5000000000964
 20
833.0666666666167
 30
0.0
 11
308.5000000000964
 21
831.0666666666158
 31
0.0
  0
LINE
  5
154
330
A6
100
AcDbEntity
  8
0
  6
CONTINUOUS
 62
     7
100
AcDbLine
 10
314.0000000000964
 20
809.9706666666162
 30
0.0
 11
314.0000000000964
 21
831.0666666666158
 31
0.0
  0
LINE
  5
155
330
A6
100
AcDbEntity
  8
0
  6
CONTINUOUS
 62
     7
100
AcDbLine
 10
324.0000000000946
 20
809.9706666666162
 30
0.0
 11
324.0000000000946
 21
831.0666666666158
 31
0.0
  0
LINE
  5
156
330
A6
100
AcDbEntity
  8
0
  6
CONTINUOUS
 62
     7
100
AcDbLine
 10
324.0000000000946
 20
820.6666666666162
 30
0.0
 11
314.0000000000964
 21
820.6666666666162
 31
0.0
  0
ARC
  5
157
330
A6
100
AcDbEntity
  8
0
  6
CONTINUOUS
 62
     7
100
AcDbCircle
 10
326.5000000000954
 20
814.0575871211615
 30
0.0
 40
4.790920454545454
100
AcDbArc
 50
238.5455606612269
 51
301.4544393387824
  0
ARC
  5
158
330
A6
100
AcDbEntity
  8
0
  6
CONTINUOUS
 62
     7
100
AcDbCircle
 10
319.0000000000955
 20
827.3743484847984
 30
0.0
 40
18.10768181818181
100
AcDbArc
 50
253.9708781133897
 51
286.0291218866135
  0
ARC
  5
159
330
A6
100
AcDbEntity
  8
0
  6
CONTINUOUS
 62
     7
100
AcDbCircle
 10
311.5000000000955
 20
814.0575871211615
 30
0.0
 40
4.790920454545454
100
AcDbArc
 50
238.5455606612384
 51
301.4544393387824
  0
LINE
  5
15A
330
A6
100
AcDbEntity
  8
0
  6
CONTINUOUS
 62
     7
100
AcDbLine
 10
309.0000000000955
 20
815.6666666666162
 30
0.0
 11
309.0000000000955
 21
809.9706666666162
 31
0.0
  0
LINE
  5
15B
330
A6
100
AcDbEntity
  8
0
  6
CONTINUOUS
 62
     7
100
AcDbLine
 10
329.0000000000964
 20
815.6666666666162
 30
0.0
 11
329.0000000000964
 21
809.9706666666162
 31
0.0
  0
LINE
  5
15C
330
A6
100
AcDbEntity
  8
0
  6
CONTINUOUS
 62
     7
100
AcDbLine
 10
311.5000000000955
 20
809.2666666666165
 30
0.0
 11
326.5000000000954
 21
809.2666666666165
 31
0.0
  0
LINE
  5
15D
330
A6
100
AcDbEntity
  8
0
  6
CONTINUOUS
 62
     7
100
AcDbLine
 10
329.0000000000982
 20
813.326666666616
 30
0.0
 11
331.2800000000971
 21
815.6666666666162
 31
0.0
  0
LINE
  5
15E
330
A6
100
AcDbEntity
  8
0
  6
CONTINUOUS
 62
     7
100
AcDbLine
 10
331.1213203436473
 20
815.6666666666252
 30
0.0
 11
331.20169055926
 21
815.5862964510118
 31
0.0
  0
LINE
  5
15F
330
A6
100
AcDbEntity
  8
0
  6
CONTINUOUS
 62
     7
100
AcDbLine
 10
330.4142135624534
 20
815.6666666666325
 30
0.0
 11
330.8527287711386
 21
815.2281514579465
 31
0.0
  0
LINE
  5
160
330
A6
100
AcDbEntity
  8
0
  6
CONTINUOUS
 62
     7
100
AcDbLine
 10
329.7071067812712
 20
815.6666666666271
 30
0.0
 11
330.5037669830153
 21
814.870006464883
 31
0.0
  0
LINE
  5
161
330
A6
100
AcDbEntity
  8
0
  6
CONTINUOUS
 62
     7
100
AcDbLine
 10
329.0000000001019
 20
815.6666666666098
 30
0.0
 11
330.1548051949057
 21
814.5118614718059
 31
0.0
  0
LINE
  5
162
330
A6
100
AcDbEntity
  8
0
  6
CONTINUOUS
 62
     7
100
AcDbLine
 10
329.0000000001064
 20
814.9595598854168
 30
0.0
 11
329.8058434067825
 21
814.1537164787425
 31
0.0
  0
LINE
  5
163
330
A6
100
AcDbEntity
  8
0
  6
CONTINUOUS
 62
     7
100
AcDbLine
 10
329.0000000001037
 20
814.2524531042355
 30
0.0
 11
329.456881618672
 21
813.7955714856663
 31
0.0
  0
LINE
  5
164
330
A6
100
AcDbEntity
  8
0
  6
CONTINUOUS
 62
     7
100
AcDbLine
 10
329.0000000000982
 20
813.5453463230544
 30
0.0
 11
329.1079198305506
 21
813.4374264926021
 31
0.0
  0
LINE
  5
165
330
A6
100
AcDbEntity
  8
0
  6
CONTINUOUS
 62
     7
100
AcDbLine
 10
306.6600000000954
 20
815.6666666666143
 30
0.0
 11
309.0000000000955
 21
813.3866666666155
 31
0.0
  0
LINE
  5
166
330
A6
100
AcDbEntity
  8
0
  6
CONTINUOUS
 62
     7
100
AcDbLine
 10
306.7707598260986
 20
815.5587468361792
 30
0.0
 11
306.8786796565282
 21
815.6666666666081
 31
0.0
  0
LINE
  5
167
330
A6
100
AcDbEntity
  8
0
  6
CONTINUOUS
 62
     7
100
AcDbLine
 10
307.1289048191638
 20
815.2097850480569
 30
0.0
 11
307.5857864377203
 21
815.6666666666143
 31
0.0
  0
LINE
  5
168
330
A6
100
AcDbEntity
  8
0
  6
CONTINUOUS
 62
     7
100
AcDbLine
 10
307.4870498122282
 20
814.8608232599346
 30
0.0
 11
308.2928932189252
 21
815.6666666666325
 31
0.0
  0
LINE
  5
169
330
A6
100
AcDbEntity
  8
0
  6
CONTINUOUS
 62
     7
100
AcDbLine
 10
307.8451948053025
 20
814.5118614718241
 30
0.0
 11
309.0000000000946
 21
815.6666666666152
 31
0.0
  0
LINE
  5
16A
330
A6
100
AcDbEntity
  8
0
  6
CONTINUOUS
 62
     7
100
AcDbLine
 10
308.203339798366
 20
814.1628996837018
 30
0.0
 11
309.0000000000891
 21
814.9595598854222
 31
0.0
  0
LINE
  5
16B
330
A6
100
AcDbEntity
  8
0
  6
CONTINUOUS
 62
     7
100
AcDbLine
 10
308.561484791433
 20
813.8139378955794
 30
0.0
 11
309.0000000000937
 21
814.252453104241
 31
0.0
  0
LINE
  5
16C
330
A6
100
AcDbEntity
  8
0
  6
CONTINUOUS
 62
     7
100
AcDbLine
 10
308.9196297844965
 20
813.4649761074571
 30
0.0
 11
309.0000000000873
 21
813.545346323048
 31
0.0
  0
LINE
  5
16D
330
A6
100
AcDbEntity
  8
0
  6
CONTINUOUS
 62
     7
100
AcDbLine
 10
324.0000000001019
 20
844.6666666666162
 30
0.0
 11
314.0000000001
 21
844.6666666666162
 31
0.0
  0
LINE
  5
16E
330
A6
100
AcDbEntity
  8
0
  6
CONTINUOUS
 62
     7
100
AcDbLine
 10
323.0000000000955
 20
845.6666666666162
 30
0.0
 11
323.0000000000955
 21
841.4666666666164
 31
0.0
  0
LINE
  5
16F
330
A6
100
AcDbEntity
  8
0
  6
CONTINUOUS
 62
     7
100
AcDbLine
 10
315.0000000000964
 20
845.6666666666162
 30
0.0
 11
315.0000000000964
 21
841.4666666666164
 31
0.0
  0
LINE
  5
170
330
A6
100
AcDbEntity
  8
0
  6
CONTINUOUS
 62
     7
100
AcDbLine
 10
315.0000000000964
 20
831.0666666666168
 30
0.0
 11
315.0000000000964
 21
820.6666666666162
 31
0.0
  0
LINE
  5
171
330
A6
100
AcDbEntity
  8
0
  6
CONTINUOUS
 62
     7
100
AcDbLine
 10
323.0000000000955
 20
831.0666666666168
 30
0.0
 11
323.0000000000955
 21
820.6666666666162
 31
0.0
  0
LINE
  5
172
330
A6
100
AcDbEntity
  8
0
  6
CONTINUOUS
 62
     7
100
AcDbLine
 10
323.0000000000955
 20
820.6666666666162
 30
0.0
 11
324.0000000000946
 21
819.6666666666162
 31
0.0
  0
LINE
  5
173
330
A6
100
AcDbEntity
  8
0
  6
CONTINUOUS
 62
     7
100
AcDbLine
 10
315.0000000000964
 20
820.6666666666162
 30
0.0
 11
314.0000000000964
 21
819.6666666666162
 31
0.0
  0
ENDBLK
  5
A8
330
A6
100
AcDbEntity
  8
0
100
AcDbBlockEnd
  0
BLOCK
  5
AA
330
A9
100
AcDbEntity
  8
0
100
AcDbBlockBegin
  2
SYM-3
 70
     0
 10
0.0
 20
0.0
 30
0.0
  3
SYM-3
  1

  0
LINE
  5
174
330
A9
100
AcDbEntity
  8
0
  6
CONTINUOUS
 62
     7
100
AcDbLine
 10
2375.400000000073
 20
1356.166666666616
 30
0.0
 11
2375.400000000073
 21
1341.166666666616
 31
0.0
  0
ARC
  5
175
330
A9
100
AcDbEntity
  8
0
  6
CONTINUOUS
 62
     7
100
AcDbCircle
 10
2379.244034632113
 20
1341.166666666616
 30
0.0
 40
3.844034632034633
100
AcDbArc
 50
139.4313750266313
 51
220.5686249733714
  0
ARC
  5
176
330
A9
100
AcDbEntity
  8
0
  6
CONTINUOUS
 62
     7
100
AcDbCircle
 10
2389.390138528212
 20
1348.666666666616
 30
0.0
 40
13.99013852813853
100
AcDbArc
 50
159.0597243938583
 51
200.9402756061408
  0
ARC
  5
177
330
A9
100
AcDbEntity
  8
0
  6
CONTINUOUS
 62
     7
100
AcDbCircle
 10
2379.244034632113
 20
1356.166666666616
 30
0.0
 40
3.844034632034633
100
AcDbArc
 50
139.4313750266288
 51
220.5686249733687
  0
LINE
  5
178
330
A9
100
AcDbEntity
  8
0
  6
CONTINUOUS
 62
     7
100
AcDbLine
 10
2383.800000000076
 20
1338.666666666616
 30
0.0
 11
2376.324000000074
 21
1338.666666666616
 31
0.0
  0
LINE
  5
179
330
A9
100
AcDbEntity
  8
0
  6
CONTINUOUS
 62
     7
100
AcDbLine
 10
2383.800000000076
 20
1358.666666666616
 30
0.0
 11
2376.324000000074
 21
1358.666666666616
 31
0.0
  0
LINE
  5
17A
330
A9
100
AcDbEntity
  8
0
  6
CONTINUOUS
 62
     7
100
AcDbLine
 10
2375.400000000073
 20
1343.666666666616
 30
0.0
 11
2370.200000000075
 21
1343.666666666616
 31
0.0
  0
LINE
  5
17B
330
A9
100
AcDbEntity
  8
0
  6
CONTINUOUS
 62
     7
100
AcDbLine
 10
2375.400000000073
 20
1353.666666666616
 30
0.0
 11
2370.200000000075
 21
1353.666666666616
 31
0.0
  0
LINE
  5
17C
330
A9
100
AcDbEntity
  8
0
  6
CONTINUOUS
 62
     7
100
AcDbLine
 10
2369.200000000075
 20
1344.666666666615
 30
0.0
 11
2369.200000000075
 21
1352.666666666616
 31
0.0
  0
LINE
  5
17D
330
A9
100
AcDbEntity
  8
0
  6
CONTINUOUS
 62
     7
100
AcDbLine
 10
2370.200000000075
 20
1353.666666666616
 30
0.0
 11
2369.200000000075
 21
1352.666666666616
 31
0.0
  0
LINE
  5
17E
330
A9
100
AcDbEntity
  8
0
  6
CONTINUOUS
 62
     7
100
AcDbLine
 10
2370.200000000075
 20
1343.666666666616
 30
0.0
 11
2369.200000000075
 21
1344.666666666615
 31
0.0
  0
LINE
  5
17F
330
A9
100
AcDbEntity
  8
0
  6
CONTINUOUS
 62
     7
100
AcDbLine
 10
2404.896000000074
 20
1353.666666666616
 30
0.0
 11
2376.324000000074
 21
1353.666666666616
 31
0.0
  0
LINE
  5
180
330
A9
100
AcDbEntity
  8
0
  6
CONTINUOUS
 62
     7
100
AcDbLine
 10
2404.896000000074
 20
1343.666666666616
 30
0.0
 11
2376.324000000074
 21
1343.666666666616
 31
0.0
  0
LINE
  5
181
330
A9
100
AcDbEntity
  8
0
  6
CONTINUOUS
 62
     7
100
AcDbLine
 10
2394.200000000076
 20
1353.666666666616
 30
0.0
 11
2394.200000000076
 21
1343.666666666616
 31
0.0
  0
ARC
  5
182
330
A9
100
AcDbEntity
  8
0
  6
CONTINUOUS
 62
     7
100
AcDbCircle
 10
2400.809079545531
 20
1356.166666666616
 30
0.0
 40
4.790920454545454
100
AcDbArc
 50
328.5455606612239
 51
31.45443933877633
  0
ARC
  5
183
330
A9
100
AcDbEntity
  8
0
  6
CONTINUOUS
 62
     7
100
AcDbCircle
 10
2387.492318181892
 20
1348.666666666616
 30
0.0
 40
18.10768181818181
100
AcDbArc
 50
343.9708781133889
 51
16.02912188661214
  0
LINE
  5
184
330
A9
100
AcDbEntity
  8
0
  6
CONTINUOUS
 62
     7
100
AcDbLine
 10
2405.600000000074
 20
1341.166666666616
 30
0.0
 11
2405.600000000074
 21
1356.166666666616
 31
0.0
  0
ARC
  5
185
330
A9
100
AcDbEntity
  8
0
  6
CONTINUOUS
 62
     7
100
AcDbCircle
 10
2400.809079545531
 20
1341.166666666616
 30
0.0
 40
4.790920454545454
100
AcDbArc
 50
328.5455606612213
 51
31.45443933877633
  0
LINE
  5
186
330
A9
100
AcDbEntity
  8
0
  6
CONTINUOUS
 62
     7
100
AcDbLine
 10
2399.200000000075
 20
1338.666666666616
 30
0.0
 11
2404.896000000074
 21
1338.666666666616
 31
0.0
  0
LINE
  5
187
330
A9
100
AcDbEntity
  8
0
  6
CONTINUOUS
 62
     7
100
AcDbLine
 10
2399.200000000075
 20
1337.252453104244
 30
0.0
 11
2399.656881618645
 21
1336.795571485675
 31
0.0
  0
LINE
  5
188
330
A9
100
AcDbEntity
  8
0
  6
CONTINUOUS
 62
     7
100
AcDbLine
 10
2399.200000000069
 20
1337.959559885436
 30
0.0
 11
2400.005843406753
 21
1337.15371647875
 31
0.0
  0
LINE
  5
189
330
A9
100
AcDbEntity
  8
0
  6
CONTINUOUS
 62
     7
100
AcDbLine
 10
2399.200000000063
 20
1338.66666666663
 30
0.0
 11
2400.35480519488
 21
1337.511861471814
 31
0.0
  0
LINE
  5
18A
330
A9
100
AcDbEntity
  8
0
  6
CONTINUOUS
 62
     7
100
AcDbLine
 10
2399.907106781255
 20
1338.666666666623
 30
0.0
 11
2400.703766982999
 21
1337.870006464879
 31
0.0
  0
LINE
  5
18B
330
A9
100
AcDbEntity
  8
0
  6
CONTINUOUS
 62
     7
100
AcDbLine
 10
2400.614213562448
 20
1338.666666666616
 30
0.0
 11
2401.052728771108
 21
1338.228151457954
 31
0.0
  0
LINE
  5
18C
330
A9
100
AcDbEntity
  8
0
  6
CONTINUOUS
 62
     7
100
AcDbLine
 10
2401.321320343629
 20
1338.666666666621
 30
0.0
 11
2401.401690559234
 21
1338.586296451018
 31
0.0
  0
LINE
  5
18D
330
A9
100
AcDbEntity
  8
0
  6
CONTINUOUS
 62
     7
100
AcDbLine
 10
2399.200000000076
 20
1336.326666666617
 30
0.0
 11
2401.480000000076
 21
1338.666666666616
 31
0.0
  0
LINE
  5
18E
330
A9
100
AcDbEntity
  8
0
  6
CONTINUOUS
 62
     7
100
AcDbLine
 10
2399.200000000072
 20
1336.545346323062
 30
0.0
 11
2399.307919830521
 21
1336.43742649261
 31
0.0
  0
LINE
  5
18F
330
A9
100
AcDbEntity
  8
0
  6
CONTINUOUS
 62
     7
100
AcDbLine
 10
2401.321320343624
 20
1358.666666666605
 30
0.0
 11
2401.429240174077
 21
1358.774586497057
 31
0.0
  0
LINE
  5
190
330
A9
100
AcDbEntity
  8
0
  6
CONTINUOUS
 62
     7
100
AcDbLine
 10
2400.614213562442
 20
1358.66666666661
 30
0.0
 11
2401.07109518101
 21
1359.123548285178
 31
0.0
  0
LINE
  5
191
330
A9
100
AcDbEntity
  8
0
  6
CONTINUOUS
 62
     7
100
AcDbLine
 10
2399.90710678125
 20
1358.666666666603
 30
0.0
 11
2400.712950187934
 21
1359.472510073289
 31
0.0
  0
LINE
  5
192
330
A9
100
AcDbEntity
  8
0
  6
CONTINUOUS
 62
     7
100
AcDbLine
 10
2399.200000000055
 20
1358.666666666596
 30
0.0
 11
2400.354805194872
 21
1359.821471861412
 31
0.0
  0
LINE
  5
193
330
A9
100
AcDbEntity
  8
0
  6
CONTINUOUS
 62
     7
100
AcDbLine
 10
2399.200000000075
 20
1359.373773447802
 30
0.0
 11
2399.996660201807
 21
1360.170433649535
 31
0.0
  0
LINE
  5
194
330
A9
100
AcDbEntity
  8
0
  6
CONTINUOUS
 62
     7
100
AcDbLine
 10
2399.20000000008
 20
1360.080880228994
 30
0.0
 11
2399.638515208731
 21
1360.519395437645
 31
0.0
  0
LINE
  5
195
330
A9
100
AcDbEntity
  8
0
  6
CONTINUOUS
 62
     7
100
AcDbLine
 10
2399.200000000088
 20
1360.787987010188
 30
0.0
 11
2399.280370215668
 21
1360.868357225767
 31
0.0
  0
LINE
  5
196
330
A9
100
AcDbEntity
  8
0
  6
CONTINUOUS
 62
     7
100
AcDbLine
 10
2401.540000000074
 20
1358.666666666618
 30
0.0
 11
2399.200000000075
 21
1360.946666666617
 31
0.0
  0
LINE
  5
197
330
A9
100
AcDbEntity
  8
0
  6
CONTINUOUS
 62
     7
100
AcDbLine
 10
2399.200000000075
 20
1358.666666666616
 30
0.0
 11
2404.896000000074
 21
1358.666666666616
 31
0.0
  0
LINE
  5
198
330
A9
100
AcDbEntity
  8
0
  6
CONTINUOUS
 62
     7
100
AcDbLine
 10
2369.200000000075
 20
1352.666666666616
 30
0.0
 11
2375.400000000073
 21
1352.666666666616
 31
0.0
  0
LINE
  5
199
330
A9
100
AcDbEntity
  8
0
  6
CONTINUOUS
 62
     7
100
AcDbLine
 10
2370.200000000075
 20
1343.666666666616
 30
0.0
 11
2370.200000000075
 21
1353.666666666616
 31
0.0
  0
LINE
  5
19A
330
A9
100
AcDbEntity
  8
0
  6
CONTINUOUS
 62
     7
100
AcDbLine
 10
2369.200000000075
 20
1344.666666666615
 30
0.0
 11
2375.400000000073
 21
1344.666666666615
 31
0.0
  0
LINE
  5
19B
330
A9
100
AcDbEntity
  8
0
  6
CONTINUOUS
 62
     7
100
AcDbLine
 10
2383.800000000076
 20
1344.666666666615
 30
0.0
 11
2394.200000000076
 21
1344.666666666615
 31
0.0
  0
LINE
  5
19C
330
A9
100
AcDbEntity
  8
0
  6
CONTINUOUS
 62
     7
100
AcDbLine
 10
2383.800000000076
 20
1352.666666666616
 30
0.0
 11
2394.200000000076
 21
1352.666666666616
 31
0.0
  0
LINE
  5
19D
330
A9
100
AcDbEntity
  8
0
  6
CONTINUOUS
 62
     7
100
AcDbLine
 10
2394.200000000076
 20
1352.666666666616
 30
0.0
 11
2395.200000000079
 21
1353.666666666616
 31
0.0
  0
LINE
  5
19E
330
A9
100
AcDbEntity
  8
0
  6
CONTINUOUS
 62
     7
100
AcDbLine
 10
2394.200000000076
 20
1344.666666666615
 30
0.0
 11
2395.200000000079
 21
1343.666666666616
 31
0.0
  0
ENDBLK
  5
AB
330
A9
100
AcDbEntity
  8
0
100
AcDbBlockEnd
  0
BLOCK
  5
AD
330
AC
100
AcDbEntity
  8
0
100
AcDbBlockBegin
  2
SYM-4
 70
     0
 10
0.0
 20
0.0
 30
0.0
  3
SYM-4
  1

  0
LINE
  5
19F
330
AC
100
AcDbEntity
  8
0
  6
CONTINUOUS
 62
     7
100
AcDbLine
 10
2370.200000000075
 20
2293.666666666616
 30
0.0
 11
2369.200000000075
 21
2294.666666666618
 31
0.0
  0
LINE
  5
1A0
330
AC
100
AcDbEntity
  8
0
  6
CONTINUOUS
 62
     7
100
AcDbLine
 10
2370.200000000075
 20
2303.666666666618
 30
0.0
 11
2369.200000000075
 21
2302.666666666618
 31
0.0
  0
LINE
  5
1A1
330
AC
100
AcDbEntity
  8
0
  6
CONTINUOUS
 62
     7
100
AcDbLine
 10
2369.200000000075
 20
2294.666666666618
 30
0.0
 11
2369.200000000075
 21
2302.666666666618
 31
0.0
  0
LINE
  5
1A2
330
AC
100
AcDbEntity
  8
0
  6
CONTINUOUS
 62
     7
100
AcDbLine
 10
2373.400000000075
 20
2303.666666666618
 30
0.0
 11
2370.200000000075
 21
2303.666666666618
 31
0.0
  0
LINE
  5
1A3
330
AC
100
AcDbEntity
  8
0
  6
CONTINUOUS
 62
     7
100
AcDbLine
 10
2373.400000000075
 20
2293.666666666616
 30
0.0
 11
2370.200000000075
 21
2293.666666666616
 31
0.0
  0
LINE
  5
1A4
330
AC
100
AcDbEntity
  8
0
  6
CONTINUOUS
 62
     7
100
AcDbLine
 10
2381.800000000077
 20
2303.666666666618
 30
0.0
 11
2374.324000000076
 21
2303.666666666618
 31
0.0
  0
LINE
  5
1A5
330
AC
100
AcDbEntity
  8
0
  6
CONTINUOUS
 62
     7
100
AcDbLine
 10
2381.800000000077
 20
2293.666666666616
 30
0.0
 11
2374.324000000076
 21
2293.666666666616
 31
0.0
  0
LINE
  5
1A6
330
AC
100
AcDbEntity
  8
0
  6
CONTINUOUS
 62
     7
100
AcDbLine
 10
2381.800000000077
 20
2308.666666666616
 30
0.0
 11
2374.324000000076
 21
2308.666666666616
 31
0.0
  0
LINE
  5
1A7
330
AC
100
AcDbEntity
  8
0
  6
CONTINUOUS
 62
     7
100
AcDbLine
 10
2381.800000000077
 20
2288.666666666618
 30
0.0
 11
2374.324000000076
 21
2288.666666666618
 31
0.0
  0
ARC
  5
1A8
330
AC
100
AcDbEntity
  8
0
  6
CONTINUOUS
 62
     7
100
AcDbCircle
 10
2377.244034632111
 20
2306.166666666618
 30
0.0
 40
3.844034632034633
100
AcDbArc
 50
139.4313750265994
 51
220.5686249734146
  0
ARC
  5
1A9
330
AC
100
AcDbEntity
  8
0
  6
CONTINUOUS
 62
     7
100
AcDbCircle
 10
2387.390138528214
 20
2298.666666666618
 30
0.0
 40
13.99013852813853
100
AcDbArc
 50
159.0597243938601
 51
200.9402756061523
  0
ARC
  5
1AA
330
AC
100
AcDbEntity
  8
0
  6
CONTINUOUS
 62
     7
100
AcDbCircle
 10
2377.244034632111
 20
2291.166666666618
 30
0.0
 40
3.844034632034633
100
AcDbArc
 50
139.4313750265994
 51
220.5686249734146
  0
LINE
  5
1AB
330
AC
100
AcDbEntity
  8
0
  6
CONTINUOUS
 62
     7
100
AcDbLine
 10
2373.400000000075
 20
2306.166666666618
 30
0.0
 11
2373.400000000075
 21
2291.166666666618
 31
0.0
  0
LINE
  5
1AC
330
AC
100
AcDbEntity
  8
0
  6
CONTINUOUS
 62
     7
100
AcDbLine
 10
2381.800000000077
 20
2288.166666666618
 30
0.0
 11
2381.800000000077
 21
2309.166666666618
 31
0.0
  0
LINE
  5
1AD
330
AC
100
AcDbEntity
  8
0
  6
CONTINUOUS
 62
     7
100
AcDbLine
 10
2381.800000000077
 20
2309.166666666618
 30
0.0
 11
2383.800000000076
 21
2309.166666666618
 31
0.0
  0
LINE
  5
1AE
330
AC
100
AcDbEntity
  8
0
  6
CONTINUOUS
 62
     7
100
AcDbLine
 10
2381.800000000077
 20
2288.166666666618
 30
0.0
 11
2383.800000000076
 21
2288.166666666618
 31
0.0
  0
LINE
  5
1AF
330
AC
100
AcDbEntity
  8
0
  6
CONTINUOUS
 62
     7
100
AcDbLine
 10
2404.896000000074
 20
2293.666666666616
 30
0.0
 11
2383.800000000076
 21
2293.666666666616
 31
0.0
  0
LINE
  5
1B0
330
AC
100
AcDbEntity
  8
0
  6
CONTINUOUS
 62
     7
100
AcDbLine
 10
2404.896000000074
 20
2303.666666666618
 30
0.0
 11
2383.800000000076
 21
2303.666666666618
 31
0.0
  0
LINE
  5
1B1
330
AC
100
AcDbEntity
  8
0
  6
CONTINUOUS
 62
     7
100
AcDbLine
 10
2394.200000000076
 20
2303.666666666618
 30
0.0
 11
2394.200000000076
 21
2293.666666666616
 31
0.0
  0
LINE
  5
1B2
330
AC
100
AcDbEntity
  8
0
  6
CONTINUOUS
 62
     7
100
AcDbLine
 10
2401.540000000074
 20
2308.66666666662
 30
0.0
 11
2399.200000000075
 21
2310.946666666619
 31
0.0
  0
LINE
  5
1B3
330
AC
100
AcDbEntity
  8
0
  6
CONTINUOUS
 62
     7
100
AcDbLine
 10
2399.200000000083
 20
2310.787987010185
 30
0.0
 11
2399.280370215663
 21
2310.868357225766
 31
0.0
  0
LINE
  5
1B4
330
AC
100
AcDbEntity
  8
0
  6
CONTINUOUS
 62
     7
100
AcDbLine
 10
2399.200000000076
 20
2310.080880228993
 30
0.0
 11
2399.63851520874
 21
2310.519395437653
 31
0.0
  0
LINE
  5
1B5
330
AC
100
AcDbEntity
  8
0
  6
CONTINUOUS
 62
     7
100
AcDbLine
 10
2399.200000000081
 20
2309.373773447812
 30
0.0
 11
2399.996660201807
 21
2310.170433649532
 31
0.0
  0
LINE
  5
1B6
330
AC
100
AcDbEntity
  8
0
  6
CONTINUOUS
 62
     7
100
AcDbLine
 10
2399.200000000063
 20
2308.666666666607
 30
0.0
 11
2400.354805194867
 21
2309.821471861408
 31
0.0
  0
LINE
  5
1B7
330
AC
100
AcDbEntity
  8
0
  6
CONTINUOUS
 62
     7
100
AcDbLine
 10
2399.907106781245
 20
2308.666666666601
 30
0.0
 11
2400.712950187943
 21
2309.472510073297
 31
0.0
  0
LINE
  5
1B8
330
AC
100
AcDbEntity
  8
0
  6
CONTINUOUS
 62
     7
100
AcDbLine
 10
2400.614213562438
 20
2308.666666666607
 30
0.0
 11
2401.071095181006
 21
2309.123548285176
 31
0.0
  0
LINE
  5
1B9
330
AC
100
AcDbEntity
  8
0
  6
CONTINUOUS
 62
     7
100
AcDbLine
 10
2401.321320343632
 20
2308.666666666614
 30
0.0
 11
2401.429240174073
 21
2308.774586497054
 31
0.0
  0
LINE
  5
1BA
330
AC
100
AcDbEntity
  8
0
  6
CONTINUOUS
 62
     7
100
AcDbLine
 10
2399.200000000075
 20
2308.666666666616
 30
0.0
 11
2404.896000000074
 21
2308.666666666616
 31
0.0
  0
ARC
  5
1BB
330
AC
100
AcDbEntity
  8
0
  6
CONTINUOUS
 62
     7
100
AcDbCircle
 10
2400.809079545531
 20
2306.166666666618
 30
0.0
 40
4.790920454545454
100
AcDbArc
 50
328.5455606612239
 51
31.45443933877169
  0
LINE
  5
1BC
330
AC
100
AcDbEntity
  8
0
  6
CONTINUOUS
 62
     7
100
AcDbLine
 10
2405.600000000074
 20
2291.166666666618
 30
0.0
 11
2405.600000000074
 21
2306.166666666618
 31
0.0
  0
ARC
  5
1BD
330
AC
100
AcDbEntity
  8
0
  6
CONTINUOUS
 62
     7
100
AcDbCircle
 10
2387.492318181892
 20
2298.666666666618
 30
0.0
 40
18.10768181818181
100
AcDbArc
 50
343.9708781133803
 51
16.02912188661214
  0
ARC
  5
1BE
330
AC
100
AcDbEntity
  8
0
  6
CONTINUOUS
 62
     7
100
AcDbCircle
 10
2400.809079545531
 20
2291.166666666618
 30
0.0
 40
4.790920454545454
100
AcDbArc
 50
328.5455606612239
 51
31.45443933877169
  0
LINE
  5
1BF
330
AC
100
AcDbEntity
  8
0
  6
CONTINUOUS
 62
     7
100
AcDbLine
 10
2399.200000000075
 20
2288.666666666618
 30
0.0
 11
2404.896000000074
 21
2288.666666666618
 31
0.0
  0
LINE
  5
1C0
330
AC
100
AcDbEntity
  8
0
  6
CONTINUOUS
 62
     7
100
AcDbLine
 10
2399.200000000076
 20
2286.326666666618
 30
0.0
 11
2401.480000000076
 21
2288.666666666618
 31
0.0
  0
LINE
  5
1C1
330
AC
100
AcDbEntity
  8
0
  6
CONTINUOUS
 62
     7
100
AcDbLine
 10
2401.321320343634
 20
2288.666666666618
 30
0.0
 11
2401.401690559237
 21
2288.586296451015
 31
0.0
  0
LINE
  5
1C2
330
AC
100
AcDbEntity
  8
0
  6
CONTINUOUS
 62
     7
100
AcDbLine
 10
2400.61421356244
 20
2288.666666666627
 30
0.0
 11
2401.052728771116
 21
2288.228151457953
 31
0.0
  0
LINE
  5
1C3
330
AC
100
AcDbEntity
  8
0
  6
CONTINUOUS
 62
     7
100
AcDbLine
 10
2399.907106781261
 20
2288.66666666662
 30
0.0
 11
2400.703766982992
 21
2287.870006464888
 31
0.0
  0
LINE
  5
1C4
330
AC
100
AcDbEntity
  8
0
  6
CONTINUOUS
 62
     7
100
AcDbLine
 10
2399.200000000065
 20
2288.666666666627
 30
0.0
 11
2400.35480519488
 21
2287.511861471813
 31
0.0
  0
LINE
  5
1C5
330
AC
100
AcDbEntity
  8
0
  6
CONTINUOUS
 62
     7
100
AcDbLine
 10
2399.200000000075
 20
2287.959559885435
 30
0.0
 11
2400.00584340676
 21
2287.153716478747
 31
0.0
  0
LINE
  5
1C6
330
AC
100
AcDbEntity
  8
0
  6
CONTINUOUS
 62
     7
100
AcDbLine
 10
2399.200000000069
 20
2287.252453104254
 30
0.0
 11
2399.656881618636
 21
2286.795571485684
 31
0.0
  0
LINE
  5
1C7
330
AC
100
AcDbEntity
  8
0
  6
CONTINUOUS
 62
     7
100
AcDbLine
 10
2399.200000000063
 20
2286.545346323071
 30
0.0
 11
2399.307919830528
 21
2286.437426492609
 31
0.0
  0
LINE
  5
1C8
330
AC
100
AcDbEntity
  8
0
  6
CONTINUOUS
 62
     7
100
AcDbLine
 10
2369.200000000075
 20
2302.666666666618
 30
0.0
 11
2373.400000000075
 21
2302.666666666618
 31
0.0
  0
LINE
  5
1C9
330
AC
100
AcDbEntity
  8
0
  6
CONTINUOUS
 62
     7
100
AcDbLine
 10
2370.200000000075
 20
2293.666666666616
 30
0.0
 11
2370.200000000075
 21
2303.666666666618
 31
0.0
  0
LINE
  5
1CA
330
AC
100
AcDbEntity
  8
0
  6
CONTINUOUS
 62
     7
100
AcDbLine
 10
2369.200000000075
 20
2294.666666666618
 30
0.0
 11
2373.400000000075
 21
2294.666666666618
 31
0.0
  0
LINE
  5
1CB
330
AC
100
AcDbEntity
  8
0
  6
CONTINUOUS
 62
     7
100
AcDbLine
 10
2383.800000000076
 20
2294.666666666618
 30
0.0
 11
2394.200000000076
 21
2294.666666666618
 31
0.0
  0
LINE
  5
1CC
330
AC
100
AcDbEntity
  8
0
  6
CONTINUOUS
 62
     7
100
AcDbLine
 10
2383.800000000076
 20
2302.666666666618
 30
0.0
 11
2394.200000000076
 21
2302.666666666618
 31
0.0
  0
LINE
  5
1CD
330
AC
100
AcDbEntity
  8
0
  6
CONTINUOUS
 62
     7
100
AcDbLine
 10
2394.200000000076
 20
2302.666666666618
 30
0.0
 11
2395.200000000079
 21
2303.666666666618
 31
0.0
  0
LINE
  5
1CE
330
AC
100
AcDbEntity
  8
0
  6
CONTINUOUS
 62
     7
100
AcDbLine
 10
2394.200000000076
 20
2294.666666666618
 30
0.0
 11
2395.200000000079
 21
2293.666666666616
 31
0.0
  0
ENDBLK
  5
AE
330
AC
100
AcDbEntity
  8
0
100
AcDbBlockEnd
  0
BLOCK
  5
B0
330
AF
100
AcDbEntity
  8
0
100
AcDbBlockBegin
  2
SYM-5
 70
     0
 10
0.0
 20
0.0
 30
0.0
  3
SYM-5
  1

  0
ELLIPSE
  5
1CF
330
AF
100
AcDbEntity
  8
0
  6
CONTINUOUS
 62
     7
100
AcDbEllipse
 10
2391.483333333377
 20
2282.586666666616
 30
0.0
 11
-1.067183248068677E-15
 21
-5.809475019310011
 31
0.0
210
0.0
220
0.0
230
1.0
 40
0.774596669241632
 41
0.0
 42
6.283185307179586
  0
LINE
  5
1D0
330
AF
100
AcDbEntity
  8
0
  6
CONTINUOUS
 62
     7
100
AcDbLine
 10
2390.296091239675
 20
2276.983028531317
 30
0.0
 11
2387.577415255378
 21
2279.701704515616
 31
0.0
  0
LINE
  5
1D1
330
AF
100
AcDbEntity
  8
0
  6
CONTINUOUS
 62
     7
100
AcDbLine
 10
2391.892121455975
 20
2276.801211877416
 30
0.0
 11
2387.042045210775
 21
2281.651288122516
 31
0.0
  0
LINE
  5
1D2
330
AF
100
AcDbEntity
  8
0
  6
CONTINUOUS
 62
     7
100
AcDbLine
 10
2392.993464155576
 20
2277.114082740117
 30
0.0
 11
2387.001362682879
 21
2283.106184212817
 31
0.0
  0
LINE
  5
1D3
330
AF
100
AcDbEntity
  8
0
  6
CONTINUOUS
 62
     7
100
AcDbLine
 10
2395.872628740177
 20
2281.305985967417
 30
0.0
 11
2389.425498957276
 21
2287.753115750315
 31
0.0
  0
LINE
  5
1D4
330
AF
100
AcDbEntity
  8
0
  6
CONTINUOUS
 62
     7
100
AcDbLine
 10
2395.983298485075
 20
2282.609529784818
 30
0.0
 11
2390.375489384075
 21
2288.217338885816
 31
0.0
  0
LINE
  5
1D5
330
AF
100
AcDbEntity
  8
0
  6
CONTINUOUS
 62
     7
100
AcDbLine
 10
2395.806123516575
 20
2284.200918315716
 30
0.0
 11
2391.613324524376
 21
2288.393717307917
 31
0.0
  0
LINE
  5
1D6
330
AF
100
AcDbEntity
  8
0
  6
CONTINUOUS
 62
     7
100
AcDbLine
 10
2395.580432838476
 20
2280.183968306716
 30
0.0
 11
2388.657034687169
 21
2287.107366458028
 31
0.0
  0
LINE
  5
1D7
330
AF
100
AcDbEntity
  8
0
  6
CONTINUOUS
 62
     7
100
AcDbLine
 10
2395.143379115875
 20
2279.206808466916
 30
0.0
 11
2388.033428238106
 21
2286.316759345004
 31
0.0
  0
LINE
  5
1D8
330
AF
100
AcDbEntity
  8
0
  6
CONTINUOUS
 62
     7
100
AcDbLine
 10
2394.573018861275
 20
2278.362955159216
 30
0.0
 11
2387.543128320753
 21
2285.39284569942
 31
0.0
  0
LINE
  5
1D9
330
AF
100
AcDbEntity
  8
0
  6
CONTINUOUS
 62
     7
100
AcDbLine
 10
2393.864557874278
 20
2277.657202583817
 30
0.0
 11
2387.190929136085
 21
2284.330831322005
 31
0.0
  0
ENDBLK
  5
B1
330
AF
100
AcDbEntity
  8
0
100
AcDbBlockEnd
  0
BLOCK
  5
B3
330
B2
100
AcDbEntity
  8
0
100
AcDbBlockBegin
  2
SYM-6
 70
     0
 10
0.0
 20
0.0
 30
0.0
  3
SYM-6
  1

  0
ELLIPSE
  5
1DA
330
B2
100
AcDbEntity
  8
0
  6
CONTINUOUS
 62
     7
100
AcDbEllipse
 10
2391.483333333377
 20
1364.746666666617
 30
0.0
 11
-2.224197421612835E-15
 21
5.809475019310011
 31
0.0
210
0.0
220
0.0
230
1.0
 40
0.774596669241632
 41
0.0
 42
6.283185307179586
  0
LINE
  5
1DB
330
B2
100
AcDbEntity
  8
0
  6
CONTINUOUS
 62
     7
100
AcDbLine
 10
2390.296091239675
 20
1370.350304801916
 30
0.0
 11
2387.577415255378
 21
1367.631628817617
 31
0.0
  0
LINE
  5
1DC
330
B2
100
AcDbEntity
  8
0
  6
CONTINUOUS
 62
     7
100
AcDbLine
 10
2391.892121455975
 20
1370.532121455817
 30
0.0
 11
2387.042045210775
 21
1365.682045210717
 31
0.0
  0
LINE
  5
1DD
330
B2
100
AcDbEntity
  8
0
  6
CONTINUOUS
 62
     7
100
AcDbLine
 10
2392.993464155576
 20
1370.219250593116
 30
0.0
 11
2387.001362682879
 21
1364.227149120417
 31
0.0
  0
LINE
  5
1DE
330
B2
100
AcDbEntity
  8
0
  6
CONTINUOUS
 62
     7
100
AcDbLine
 10
2395.872628740177
 20
1366.027347365817
 30
0.0
 11
2389.425498957276
 21
1359.580217582916
 31
0.0
  0
LINE
  5
1DF
330
B2
100
AcDbEntity
  8
0
  6
CONTINUOUS
 62
     7
100
AcDbLine
 10
2395.983298485075
 20
1364.723803548416
 30
0.0
 11
2390.375489384075
 21
1359.115994447417
 31
0.0
  0
LINE
  5
1E0
330
B2
100
AcDbEntity
  8
0
  6
CONTINUOUS
 62
     7
100
AcDbLine
 10
2395.806123516575
 20
1363.132415017516
 30
0.0
 11
2391.613324524376
 21
1358.939616025317
 31
0.0
  0
LINE
  5
1E1
330
B2
100
AcDbEntity
  8
0
  6
CONTINUOUS
 62
     7
100
AcDbLine
 10
2395.580432838488
 20
1367.149365026523
 30
0.0
 11
2388.657034687175
 21
1360.225966875217
 31
0.0
  0
LINE
  5
1E2
330
B2
100
AcDbEntity
  8
0
  6
CONTINUOUS
 62
     7
100
AcDbLine
 10
2395.143379115873
 20
1368.126524866312
 30
0.0
 11
2388.033428237975
 21
1361.016573988416
 31
0.0
  0
LINE
  5
1E3
330
B2
100
AcDbEntity
  8
0
  6
CONTINUOUS
 62
     7
100
AcDbLine
 10
2394.573018861152
 20
1368.970378174176
 30
0.0
 11
2387.543128320878
 21
1361.940487633617
 31
0.0
  0
LINE
  5
1E4
330
B2
100
AcDbEntity
  8
0
  6
CONTINUOUS
 62
     7
100
AcDbLine
 10
2393.864557874243
 20
1369.676130749383
 30
0.0
 11
2387.190929136075
 21
1363.002502011216
 31
0.0
  0
ENDBLK
  5
B4
330
B2
100
AcDbEntity
  8
0
100
AcDbBlockEnd
  0
BLOCK
  5
B6
330
B5
100
AcDbEntity
  8
0
100
AcDbBlockBegin
  2
SYM-7
 70
     0
 10
0.0
 20
0.0
 30
0.0
  3
SYM-7
  1

  0
ELLIPSE
  5
1E5
330
B5
100
AcDbEntity
  8
0
  6
CONTINUOUS
 62
     7
100
AcDbEllipse
 10
1852.920000000082
 20
823.383333333316
 30
0.0
 11
-5.809475019310011
 21
7.114554987124514E-16
 31
0.0
210
0.0
220
0.0
230
1.0
 40
0.774596669241632
 41
0.0
 42
6.283185307179586
  0
LINE
  5
1E6
330
B5
100
AcDbEntity
  8
0
  6
CONTINUOUS
 62
     7
100
AcDbLine
 10
1847.31636186478
 20
824.5705754270167
 30
0.0
 11
1850.035037849081
 21
827.2892514113165
 31
0.0
  0
LINE
  5
1E7
330
B5
100
AcDbEntity
  8
0
  6
CONTINUOUS
 62
     7
100
AcDbLine
 10
1847.13454521088
 20
822.9745452107164
 30
0.0
 11
1851.984621455979
 21
827.8246214559159
 31
0.0
  0
LINE
  5
1E8
330
B5
100
AcDbEntity
  8
0
  6
CONTINUOUS
 62
     7
100
AcDbLine
 10
1847.44741607358
 20
821.873202511116
 30
0.0
 11
1853.439517546282
 21
827.8653039838165
 31
0.0
  0
LINE
  5
1E9
330
B5
100
AcDbEntity
  8
0
  6
CONTINUOUS
 62
     7
100
AcDbLine
 10
1851.63931930088
 20
818.9940379265164
 30
0.0
 11
1858.086449083781
 21
825.4411677094159
 31
0.0
  0
LINE
  5
1EA
330
B5
100
AcDbEntity
  8
0
  6
CONTINUOUS
 62
     7
100
AcDbLine
 10
1852.94286311828
 20
818.883368181616
 30
0.0
 11
1858.550672219282
 21
824.4911772826164
 31
0.0
  0
LINE
  5
1EB
330
B5
100
AcDbEntity
  8
0
  6
CONTINUOUS
 62
     7
100
AcDbLine
 10
1854.534251649181
 20
819.0605431501164
 30
0.0
 11
1858.72705064138
 21
823.253342142317
 31
0.0
  0
LINE
  5
1EC
330
B5
100
AcDbEntity
  8
0
  6
CONTINUOUS
 62
     7
100
AcDbLine
 10
1850.517301640181
 20
819.2862338282168
 30
0.0
 11
1857.440699791493
 21
826.2096319795246
 31
0.0
  0
LINE
  5
1ED
330
B5
100
AcDbEntity
  8
0
  6
CONTINUOUS
 62
     7
100
AcDbLine
 10
1849.540141800381
 20
819.7232875508163
 30
0.0
 11
1856.650092678463
 21
826.8332384285919
 31
0.0
  0
LINE
  5
1EE
330
B5
100
AcDbEntity
  8
0
  6
CONTINUOUS
 62
     7
100
AcDbLine
 10
1848.69628849268
 20
820.2936478054164
 30
0.0
 11
1855.726179032883
 21
827.3235383459414
 31
0.0
  0
LINE
  5
1EF
330
B5
100
AcDbEntity
  8
0
  6
CONTINUOUS
 62
     7
100
AcDbLine
 10
1847.990535917281
 20
821.0021087924162
 30
0.0
 11
1854.664164655473
 21
827.6757375306081
 31
0.0
  0
ENDBLK
  5
B7
330
B5
100
AcDbEntity
  8
0
100
AcDbBlockEnd
  0
BLOCK
  5
B9
330
B8
100
AcDbEntity
  8
0
100
AcDbBlockBegin
  2
SYM-8
 70
     0
 10
0.0
 20
0.0
 30
0.0
  3
SYM-8
  1

  0
ELLIPSE
  5
1F0
330
B8
100
AcDbEntity
  8
0
  6
CONTINUOUS
 62
     7
100
AcDbEllipse
 10
335.0800000000963
 20
823.383333333316
 30
0.0
 11
-5.809475019310011
 21
7.114554987124514E-16
 31
0.0
210
0.0
220
0.0
230
1.0
 40
0.774596669241632
 41
0.0
 42
6.283185307179586
  0
LINE
  5
1F1
330
B8
100
AcDbEntity
  8
0
  6
CONTINUOUS
 62
     7
100
AcDbLine
 10
340.6836381353959
 20
824.5705754270167
 30
0.0
 11
337.9649621510962
 21
827.2892514113165
 31
0.0
  0
LINE
  5
1F2
330
B8
100
AcDbEntity
  8
0
  6
CONTINUOUS
 62
     7
100
AcDbLine
 10
340.8654547892957
 20
822.9745452107164
 30
0.0
 11
336.0153785441962
 21
827.8246214559159
 31
0.0
  0
LINE
  5
1F3
330
B8
100
AcDbEntity
  8
0
  6
CONTINUOUS
 62
     7
100
AcDbLine
 10
340.5525839265974
 20
821.873202511116
 30
0.0
 11
334.5604824538968
 21
827.8653039838165
 31
0.0
  0
LINE
  5
1F4
330
B8
100
AcDbEntity
  8
0
  6
CONTINUOUS
 62
     7
100
AcDbLine
 10
336.3606806992975
 20
818.9940379265164
 30
0.0
 11
329.9135509163971
 21
825.4411677094159
 31
0.0
  0
LINE
  5
1F5
330
B8
100
AcDbEntity
  8
0
  6
CONTINUOUS
 62
     7
100
AcDbLine
 10
335.0571368818964
 20
818.883368181616
 30
0.0
 11
329.4493277808951
 21
824.4911772826164
 31
0.0
  0
LINE
  5
1F6
330
B8
100
AcDbEntity
  8
0
  6
CONTINUOUS
 62
     7
100
AcDbLine
 10
333.4657483509964
 20
819.0605431501164
 30
0.0
 11
329.2729493587958
 21
823.253342142317
 31
0.0
  0
LINE
  5
1F7
330
B8
100
AcDbEntity
  8
0
  6
CONTINUOUS
 62
     7
100
AcDbLine
 10
337.4826983600057
 20
819.2862338282062
 30
0.0
 11
330.5593002086961
 21
826.2096319795156
 31
0.0
  0
LINE
  5
1F8
330
B8
100
AcDbEntity
  8
0
  6
CONTINUOUS
 62
     7
100
AcDbLine
 10
338.4598581997929
 20
819.7232875508206
 30
0.0
 11
331.3499073218973
 21
826.8332384287161
 31
0.0
  0
LINE
  5
1F9
330
B8
100
AcDbEntity
  8
0
  6
CONTINUOUS
 62
     7
100
AcDbLine
 10
339.3037115076582
 20
820.2936478055432
 30
0.0
 11
332.2738209670961
 21
827.323538345816
 31
0.0
  0
LINE
  5
1FA
330
B8
100
AcDbEntity
  8
0
  6
CONTINUOUS
 62
     7
100
AcDbLine
 10
340.009464082863
 20
821.00210879245
 30
0.0
 11
333.3358353446965
 21
827.6757375306162
 31
0.0
  0
ENDBLK
  5
BA
330
B8
100
AcDbEntity
  8
0
100
AcDbBlockEnd
  0
BLOCK
  5
BC
330
BB
100
AcDbEntity
  8
0
100
AcDbBlockBegin
  2
SYM-9
 70
     0
 10
0.0
 20
0.0
 30
0.0
  3
SYM-9
  1

  0
ARC
  5
1FB
330
BB
100
AcDbEntity
  8
0
  6
CONTINUOUS
 62
     7
100
AcDbCircle
 10
414.0000000000719
 20
872.6666666667171
 30
0.0
 40
2.0
100
AcDbArc
 50
180.0
 51
270.0000000000002
  0
ARC
  5
1FC
330
BB
100
AcDbEntity
  8
0
  6
CONTINUOUS
 62
     7
100
AcDbCircle
 10
439.0000000001055
 20
872.6666666667171
 30
0.0
 40
2.0
100
AcDbArc
 50
270.0000000000002
 51
0.0
  0
LINE
  5
1FD
330
BB
100
AcDbEntity
  8
0
  6
CONTINUOUS
 62
     7
100
AcDbLine
 10
414.0000000000873
 20
872.6666666667171
 30
0.0
 11
439.0000000000873
 21
872.6666666667171
 31
0.0
  0
LINE
  5
1FE
330
BB
100
AcDbEntity
  8
0
  6
CONTINUOUS
 62
     7
100
AcDbLine
 10
406.5000000000873
 20
880.666666666718
 30
0.0
 11
406.5000000000873
 21
878.6666666667171
 31
0.0
  0
LINE
  5
1FF
330
BB
100
AcDbEntity
  8
0
  6
CONTINUOUS
 62
     7
100
AcDbLine
 10
406.5000000000873
 20
878.6666666667171
 30
0.0
 11
412.0000000000728
 21
878.6666666667171
 31
0.0
  0
LINE
  5
200
330
BB
100
AcDbEntity
  8
0
  6
CONTINUOUS
 62
     7
100
AcDbLine
 10
412.0000000000728
 20
878.6666666667171
 30
0.0
 11
412.0000000000728
 21
872.6666666667171
 31
0.0
  0
LINE
  5
201
330
BB
100
AcDbEntity
  8
0
  6
CONTINUOUS
 62
     7
100
AcDbLine
 10
414.0000000000873
 20
878.6666666667171
 30
0.0
 11
414.0000000000873
 21
872.6666666667171
 31
0.0
  0
LINE
  5
202
330
BB
100
AcDbEntity
  8
0
  6
CONTINUOUS
 62
     7
100
AcDbLine
 10
406.5000000000873
 20
880.666666666718
 30
0.0
 11
412.0000000000873
 21
880.666666666718
 31
0.0
  0
ARC
  5
203
330
BB
100
AcDbEntity
  8
0
  6
CONTINUOUS
 62
     7
100
AcDbCircle
 10
412.0000000000873
 20
878.6666666667171
 30
0.0
 40
2.0
100
AcDbArc
 50
0.0
 51
90.00000000000001
  0
LINE
  5
204
330
BB
100
AcDbEntity
  8
0
  6
CONTINUOUS
 62
     7
100
AcDbLine
 10
446.500000000091
 20
880.666666666718
 30
0.0
 11
446.500000000091
 21
878.6666666667171
 31
0.0
  0
LINE
  5
205
330
BB
100
AcDbEntity
  8
0
  6
CONTINUOUS
 62
     7
100
AcDbLine
 10
446.500000000091
 20
878.6666666667171
 30
0.0
 11
441.0000000001055
 21
878.6666666667171
 31
0.0
  0
LINE
  5
206
330
BB
100
AcDbEntity
  8
0
  6
CONTINUOUS
 62
     7
100
AcDbLine
 10
441.0000000001055
 20
878.6666666667171
 30
0.0
 11
441.0000000001055
 21
872.6666666667171
 31
0.0
  0
LINE
  5
207
330
BB
100
AcDbEntity
  8
0
  6
CONTINUOUS
 62
     7
100
AcDbLine
 10
439.000000000091
 20
878.6666666667171
 30
0.0
 11
439.000000000091
 21
872.6666666667171
 31
0.0
  0
LINE
  5
208
330
BB
100
AcDbEntity
  8
0
  6
CONTINUOUS
 62
     7
100
AcDbLine
 10
446.500000000091
 20
880.666666666718
 30
0.0
 11
441.0000000000909
 21
880.666666666718
 31
0.0
  0
ARC
  5
209
330
BB
100
AcDbEntity
  8
0
  6
CONTINUOUS
 62
     7
100
AcDbCircle
 10
441.0000000000909
 20
878.6666666667171
 30
0.0
 40
2.0
100
AcDbArc
 50
90.00000000000001
 51
180.0
  0
ENDBLK
  5
BD
330
BB
100
AcDbEntity
  8
0
100
AcDbBlockEnd
  0
BLOCK
  5
BF
330
BE
100
AcDbEntity
  8
0
100
AcDbBlockBegin
  2
SYM-10
 70
     0
 10
0.0
 20
0.0
 30
0.0
  3
SYM-10
  1

  0
ARC
  5
20A
330
BE
100
AcDbEntity
  8
0
  6
CONTINUOUS
 62
     7
100
AcDbCircle
 10
589.0000000001237
 20
872.6666666667171
 30
0.0
 40
2.0
100
AcDbArc
 50
270.0000000000002
 51
0.0
  0
ARC
  5
20B
330
BE
100
AcDbEntity
  8
0
  6
CONTINUOUS
 62
     7
100
AcDbCircle
 10
564.000000000091
 20
872.6666666667171
 30
0.0
 40
2.0
100
AcDbArc
 50
180.0
 51
270.0000000000002
  0
LINE
  5
20C
330
BE
100
AcDbEntity
  8
0
  6
CONTINUOUS
 62
     7
100
AcDbLine
 10
589.0000000001091
 20
872.6666666667171
 30
0.0
 11
564.00000000011
 21
872.6666666667171
 31
0.0
  0
LINE
  5
20D
330
BE
100
AcDbEntity
  8
0
  6
CONTINUOUS
 62
     7
100
AcDbLine
 10
596.5000000001091
 20
880.6666666667172
 30
0.0
 11
596.5000000001091
 21
878.6666666667171
 31
0.0
  0
LINE
  5
20E
330
BE
100
AcDbEntity
  8
0
  6
CONTINUOUS
 62
     7
100
AcDbLine
 10
596.5000000001091
 20
878.6666666667171
 30
0.0
 11
591.0000000001246
 21
878.6666666667171
 31
0.0
  0
LINE
  5
20F
330
BE
100
AcDbEntity
  8
0
  6
CONTINUOUS
 62
     7
100
AcDbLine
 10
591.0000000001246
 20
878.6666666667171
 30
0.0
 11
591.0000000001246
 21
872.6666666667171
 31
0.0
  0
LINE
  5
210
330
BE
100
AcDbEntity
  8
0
  6
CONTINUOUS
 62
     7
100
AcDbLine
 10
589.0000000001091
 20
878.6666666667171
 30
0.0
 11
589.0000000001091
 21
872.6666666667171
 31
0.0
  0
LINE
  5
211
330
BE
100
AcDbEntity
  8
0
  6
CONTINUOUS
 62
     7
100
AcDbLine
 10
596.5000000001091
 20
880.6666666667172
 30
0.0
 11
591.00000000011
 21
880.6666666667172
 31
0.0
  0
ARC
  5
212
330
BE
100
AcDbEntity
  8
0
  6
CONTINUOUS
 62
     7
100
AcDbCircle
 10
591.00000000011
 20
878.6666666667171
 30
0.0
 40
2.0
100
AcDbArc
 50
90.00000000000001
 51
180.0
  0
LINE
  5
213
330
BE
100
AcDbEntity
  8
0
  6
CONTINUOUS
 62
     7
100
AcDbLine
 10
556.5000000001055
 20
880.6666666667172
 30
0.0
 11
556.5000000001055
 21
878.6666666667171
 31
0.0
  0
LINE
  5
214
330
BE
100
AcDbEntity
  8
0
  6
CONTINUOUS
 62
     7
100
AcDbLine
 10
556.5000000001055
 20
878.6666666667171
 30
0.0
 11
562.0000000000919
 21
878.6666666667171
 31
0.0
  0
LINE
  5
215
330
BE
100
AcDbEntity
  8
0
  6
CONTINUOUS
 62
     7
100
AcDbLine
 10
562.0000000000919
 20
878.6666666667171
 30
0.0
 11
562.0000000000919
 21
872.6666666667171
 31
0.0
  0
LINE
  5
216
330
BE
100
AcDbEntity
  8
0
  6
CONTINUOUS
 62
     7
100
AcDbLine
 10
564.0000000001055
 20
878.6666666667171
 30
0.0
 11
564.0000000001055
 21
872.6666666667171
 31
0.0
  0
LINE
  5
217
330
BE
100
AcDbEntity
  8
0
  6
CONTINUOUS
 62
     7
100
AcDbLine
 10
556.5000000001055
 20
880.6666666667172
 30
0.0
 11
562.0000000001064
 21
880.6666666667172
 31
0.0
  0
ARC
  5
218
330
BE
100
AcDbEntity
  8
0
  6
CONTINUOUS
 62
     7
100
AcDbCircle
 10
562.0000000001064
 20
878.6666666667171
 30
0.0
 40
2.0
100
AcDbArc
 50
0.0
 51
90.00000000000001
  0
ENDBLK
  5
C0
330
BE
100
AcDbEntity
  8
0
100
AcDbBlockEnd
  0
BLOCK
  5
C2
330
C1
100
AcDbEntity
  8
0
100
AcDbBlockBegin
  2
SYM-11
 70
     0
 10
0.0
 20
0.0
 30
0.0
  3
SYM-11
  1

  0
ARC
  5
219
330
C1
100
AcDbEntity
  8
0
  6
CONTINUOUS
 62
     7
100
AcDbCircle
 10
809.000000000072
 20
872.6666666667171
 30
0.0
 40
2.0
100
AcDbArc
 50
180.0
 51
270.0000000000002
  0
ARC
  5
21A
330
C1
100
AcDbEntity
  8
0
  6
CONTINUOUS
 62
     7
100
AcDbCircle
 10
834.0000000001055
 20
872.6666666667171
 30
0.0
 40
2.0
100
AcDbArc
 50
270.0000000000002
 51
0.0
  0
LINE
  5
21B
330
C1
100
AcDbEntity
  8
0
  6
CONTINUOUS
 62
     7
100
AcDbLine
 10
809.0000000000873
 20
872.6666666667171
 30
0.0
 11
834.0000000000873
 21
872.6666666667171
 31
0.0
  0
LINE
  5
21C
330
C1
100
AcDbEntity
  8
0
  6
CONTINUOUS
 62
     7
100
AcDbLine
 10
801.5000000000873
 20
880.666666666718
 30
0.0
 11
801.5000000000873
 21
878.6666666667171
 31
0.0
  0
LINE
  5
21D
330
C1
100
AcDbEntity
  8
0
  6
CONTINUOUS
 62
     7
100
AcDbLine
 10
801.5000000000873
 20
878.6666666667171
 30
0.0
 11
807.0000000000728
 21
878.6666666667171
 31
0.0
  0
LINE
  5
21E
330
C1
100
AcDbEntity
  8
0
  6
CONTINUOUS
 62
     7
100
AcDbLine
 10
807.0000000000728
 20
878.6666666667171
 30
0.0
 11
807.0000000000728
 21
872.6666666667171
 31
0.0
  0
LINE
  5
21F
330
C1
100
AcDbEntity
  8
0
  6
CONTINUOUS
 62
     7
100
AcDbLine
 10
809.0000000000873
 20
878.6666666667171
 30
0.0
 11
809.0000000000873
 21
872.6666666667171
 31
0.0
  0
LINE
  5
220
330
C1
100
AcDbEntity
  8
0
  6
CONTINUOUS
 62
     7
100
AcDbLine
 10
801.5000000000873
 20
880.666666666718
 30
0.0
 11
807.0000000000874
 21
880.666666666718
 31
0.0
  0
ARC
  5
221
330
C1
100
AcDbEntity
  8
0
  6
CONTINUOUS
 62
     7
100
AcDbCircle
 10
807.0000000000874
 20
878.6666666667171
 30
0.0
 40
2.0
100
AcDbArc
 50
0.0
 51
90.00000000000001
  0
LINE
  5
222
330
C1
100
AcDbEntity
  8
0
  6
CONTINUOUS
 62
     7
100
AcDbLine
 10
841.500000000091
 20
880.666666666718
 30
0.0
 11
841.500000000091
 21
878.6666666667171
 31
0.0
  0
LINE
  5
223
330
C1
100
AcDbEntity
  8
0
  6
CONTINUOUS
 62
     7
100
AcDbLine
 10
841.500000000091
 20
878.6666666667171
 30
0.0
 11
836.0000000001055
 21
878.6666666667171
 31
0.0
  0
LINE
  5
224
330
C1
100
AcDbEntity
  8
0
  6
CONTINUOUS
 62
     7
100
AcDbLine
 10
836.0000000001055
 20
878.6666666667171
 30
0.0
 11
836.0000000001055
 21
872.6666666667171
 31
0.0
  0
LINE
  5
225
330
C1
100
AcDbEntity
  8
0
  6
CONTINUOUS
 62
     7
100
AcDbLine
 10
834.000000000091
 20
878.6666666667171
 30
0.0
 11
834.000000000091
 21
872.6666666667171
 31
0.0
  0
LINE
  5
226
330
C1
100
AcDbEntity
  8
0
  6
CONTINUOUS
 62
     7
100
AcDbLine
 10
841.500000000091
 20
880.666666666718
 30
0.0
 11
836.000000000091
 21
880.666666666718
 31
0.0
  0
ARC
  5
227
330
C1
100
AcDbEntity
  8
0
  6
CONTINUOUS
 62
     7
100
AcDbCircle
 10
836.000000000091
 20
878.6666666667171
 30
0.0
 40
2.0
100
AcDbArc
 50
90.00000000000001
 51
180.0
  0
ENDBLK
  5
C3
330
C1
100
AcDbEntity
  8
0
100
AcDbBlockEnd
  0
BLOCK
  5
C5
330
C4
100
AcDbEntity
  8
0
100
AcDbBlockBegin
  2
SYM-12
 70
     0
 10
0.0
 20
0.0
 30
0.0
  3
SYM-12
  1

  0
ARC
  5
228
330
C4
100
AcDbEntity
  8
0
  6
CONTINUOUS
 62
     7
100
AcDbCircle
 10
984.0000000001237
 20
872.6666666667171
 30
0.0
 40
2.0
100
AcDbArc
 50
270.0000000000002
 51
0.0
  0
ARC
  5
229
330
C4
100
AcDbEntity
  8
0
  6
CONTINUOUS
 62
     7
100
AcDbCircle
 10
959.000000000091
 20
872.6666666667171
 30
0.0
 40
2.0
100
AcDbArc
 50
180.0
 51
270.0000000000002
  0
LINE
  5
22A
330
C4
100
AcDbEntity
  8
0
  6
CONTINUOUS
 62
     7
100
AcDbLine
 10
984.0000000001091
 20
872.6666666667171
 30
0.0
 11
959.00000000011
 21
872.6666666667171
 31
0.0
  0
LINE
  5
22B
330
C4
100
AcDbEntity
  8
0
  6
CONTINUOUS
 62
     7
100
AcDbLine
 10
991.5000000001091
 20
880.6666666667172
 30
0.0
 11
991.5000000001091
 21
878.6666666667171
 31
0.0
  0
LINE
  5
22C
330
C4
100
AcDbEntity
  8
0
  6
CONTINUOUS
 62
     7
100
AcDbLine
 10
991.5000000001091
 20
878.6666666667171
 30
0.0
 11
986.0000000001247
 21
878.6666666667171
 31
0.0
  0
LINE
  5
22D
330
C4
100
AcDbEntity
  8
0
  6
CONTINUOUS
 62
     7
100
AcDbLine
 10
986.0000000001247
 20
878.6666666667171
 30
0.0
 11
986.0000000001247
 21
872.6666666667171
 31
0.0
  0
LINE
  5
22E
330
C4
100
AcDbEntity
  8
0
  6
CONTINUOUS
 62
     7
100
AcDbLine
 10
984.0000000001091
 20
878.6666666667171
 30
0.0
 11
984.0000000001091
 21
872.6666666667171
 31
0.0
  0
LINE
  5
22F
330
C4
100
AcDbEntity
  8
0
  6
CONTINUOUS
 62
     7
100
AcDbLine
 10
991.5000000001091
 20
880.6666666667172
 30
0.0
 11
986.00000000011
 21
880.6666666667172
 31
0.0
  0
ARC
  5
230
330
C4
100
AcDbEntity
  8
0
  6
CONTINUOUS
 62
     7
100
AcDbCircle
 10
986.00000000011
 20
878.6666666667171
 30
0.0
 40
2.0
100
AcDbArc
 50
90.00000000000001
 51
180.0
  0
LINE
  5
231
330
C4
100
AcDbEntity
  8
0
  6
CONTINUOUS
 62
     7
100
AcDbLine
 10
951.5000000001055
 20
880.6666666667172
 30
0.0
 11
951.5000000001055
 21
878.6666666667171
 31
0.0
  0
LINE
  5
232
330
C4
100
AcDbEntity
  8
0
  6
CONTINUOUS
 62
     7
100
AcDbLine
 10
951.5000000001055
 20
878.6666666667171
 30
0.0
 11
957.000000000092
 21
878.6666666667171
 31
0.0
  0
LINE
  5
233
330
C4
100
AcDbEntity
  8
0
  6
CONTINUOUS
 62
     7
100
AcDbLine
 10
957.000000000092
 20
878.6666666667171
 30
0.0
 11
957.000000000092
 21
872.6666666667171
 31
0.0
  0
LINE
  5
234
330
C4
100
AcDbEntity
  8
0
  6
CONTINUOUS
 62
     7
100
AcDbLine
 10
959.0000000001055
 20
878.6666666667171
 30
0.0
 11
959.0000000001055
 21
872.6666666667171
 31
0.0
  0
LINE
  5
235
330
C4
100
AcDbEntity
  8
0
  6
CONTINUOUS
 62
     7
100
AcDbLine
 10
951.5000000001055
 20
880.6666666667172
 30
0.0
 11
957.0000000001064
 21
880.6666666667172
 31
0.0
  0
ARC
  5
236
330
C4
100
AcDbEntity
  8
0
  6
CONTINUOUS
 62
     7
100
AcDbCircle
 10
957.0000000001064
 20
878.6666666667171
 30
0.0
 40
2.0
100
AcDbArc
 50
0.0
 51
90.00000000000001
  0
ENDBLK
  5
C6
330
C4
100
AcDbEntity
  8
0
100
AcDbBlockEnd
  0
BLOCK
  5
C8
330
C7
100
AcDbEntity
  8
0
100
AcDbBlockBegin
  2
SYM-13
 70
     0
 10
0.0
 20
0.0
 30
0.0
  3
SYM-13
  1

  0
ARC
  5
237
330
C7
100
AcDbEntity
  8
0
  6
CONTINUOUS
 62
     7
100
AcDbCircle
 10
1204.000000000071
 20
872.6666666667171
 30
0.0
 40
2.0
100
AcDbArc
 50
180.0
 51
270.0000000000002
  0
ARC
  5
238
330
C7
100
AcDbEntity
  8
0
  6
CONTINUOUS
 62
     7
100
AcDbCircle
 10
1229.000000000105
 20
872.6666666667171
 30
0.0
 40
2.0
100
AcDbArc
 50
270.0000000000002
 51
0.0
  0
LINE
  5
239
330
C7
100
AcDbEntity
  8
0
  6
CONTINUOUS
 62
     7
100
AcDbLine
 10
1204.000000000086
 20
872.6666666667171
 30
0.0
 11
1229.000000000086
 21
872.6666666667171
 31
0.0
  0
LINE
  5
23A
330
C7
100
AcDbEntity
  8
0
  6
CONTINUOUS
 62
     7
100
AcDbLine
 10
1196.500000000086
 20
880.666666666718
 30
0.0
 11
1196.500000000086
 21
878.6666666667171
 31
0.0
  0
LINE
  5
23B
330
C7
100
AcDbEntity
  8
0
  6
CONTINUOUS
 62
     7
100
AcDbLine
 10
1196.500000000086
 20
878.6666666667171
 30
0.0
 11
1202.000000000072
 21
878.6666666667171
 31
0.0
  0
LINE
  5
23C
330
C7
100
AcDbEntity
  8
0
  6
CONTINUOUS
 62
     7
100
AcDbLine
 10
1202.000000000072
 20
878.6666666667171
 30
0.0
 11
1202.000000000072
 21
872.6666666667171
 31
0.0
  0
LINE
  5
23D
330
C7
100
AcDbEntity
  8
0
  6
CONTINUOUS
 62
     7
100
AcDbLine
 10
1204.000000000086
 20
878.6666666667171
 30
0.0
 11
1204.000000000086
 21
872.6666666667171
 31
0.0
  0
LINE
  5
23E
330
C7
100
AcDbEntity
  8
0
  6
CONTINUOUS
 62
     7
100
AcDbLine
 10
1196.500000000086
 20
880.666666666718
 30
0.0
 11
1202.000000000086
 21
880.666666666718
 31
0.0
  0
ARC
  5
23F
330
C7
100
AcDbEntity
  8
0
  6
CONTINUOUS
 62
     7
100
AcDbCircle
 10
1202.000000000086
 20
878.6666666667171
 30
0.0
 40
2.0
100
AcDbArc
 50
0.0
 51
90.00000000000001
  0
LINE
  5
240
330
C7
100
AcDbEntity
  8
0
  6
CONTINUOUS
 62
     7
100
AcDbLine
 10
1236.50000000009
 20
880.666666666718
 30
0.0
 11
1236.50000000009
 21
878.6666666667171
 31
0.0
  0
LINE
  5
241
330
C7
100
AcDbEntity
  8
0
  6
CONTINUOUS
 62
     7
100
AcDbLine
 10
1236.50000000009
 20
878.6666666667171
 30
0.0
 11
1231.000000000105
 21
878.6666666667171
 31
0.0
  0
LINE
  5
242
330
C7
100
AcDbEntity
  8
0
  6
CONTINUOUS
 62
     7
100
AcDbLine
 10
1231.000000000105
 20
878.6666666667171
 30
0.0
 11
1231.000000000105
 21
872.6666666667171
 31
0.0
  0
LINE
  5
243
330
C7
100
AcDbEntity
  8
0
  6
CONTINUOUS
 62
     7
100
AcDbLine
 10
1229.00000000009
 20
878.6666666667171
 30
0.0
 11
1229.00000000009
 21
872.6666666667171
 31
0.0
  0
LINE
  5
244
330
C7
100
AcDbEntity
  8
0
  6
CONTINUOUS
 62
     7
100
AcDbLine
 10
1236.50000000009
 20
880.666666666718
 30
0.0
 11
1231.00000000009
 21
880.666666666718
 31
0.0
  0
ARC
  5
245
330
C7
100
AcDbEntity
  8
0
  6
CONTINUOUS
 62
     7
100
AcDbCircle
 10
1231.00000000009
 20
878.6666666667171
 30
0.0
 40
2.0
100
AcDbArc
 50
90.00000000000001
 51
180.0
  0
ENDBLK
  5
C9
330
C7
100
AcDbEntity
  8
0
100
AcDbBlockEnd
  0
BLOCK
  5
CB
330
CA
100
AcDbEntity
  8
0
100
AcDbBlockBegin
  2
SYM-14
 70
     0
 10
0.0
 20
0.0
 30
0.0
  3
SYM-14
  1

  0
ARC
  5
246
330
CA
100
AcDbEntity
  8
0
  6
CONTINUOUS
 62
     7
100
AcDbCircle
 10
1379.000000000123
 20
872.6666666667171
 30
0.0
 40
2.0
100
AcDbArc
 50
270.0000000000002
 51
0.0
  0
ARC
  5
247
330
CA
100
AcDbEntity
  8
0
  6
CONTINUOUS
 62
     7
100
AcDbCircle
 10
1354.00000000009
 20
872.6666666667171
 30
0.0
 40
2.0
100
AcDbArc
 50
180.0
 51
270.0000000000002
  0
LINE
  5
248
330
CA
100
AcDbEntity
  8
0
  6
CONTINUOUS
 62
     7
100
AcDbLine
 10
1379.000000000108
 20
872.6666666667171
 30
0.0
 11
1354.000000000109
 21
872.6666666667171
 31
0.0
  0
LINE
  5
249
330
CA
100
AcDbEntity
  8
0
  6
CONTINUOUS
 62
     7
100
AcDbLine
 10
1386.500000000108
 20
880.6666666667172
 30
0.0
 11
1386.500000000108
 21
878.6666666667171
 31
0.0
  0
LINE
  5
24A
330
CA
100
AcDbEntity
  8
0
  6
CONTINUOUS
 62
     7
100
AcDbLine
 10
1386.500000000108
 20
878.6666666667171
 30
0.0
 11
1381.000000000124
 21
878.6666666667171
 31
0.0
  0
LINE
  5
24B
330
CA
100
AcDbEntity
  8
0
  6
CONTINUOUS
 62
     7
100
AcDbLine
 10
1381.000000000124
 20
878.6666666667171
 30
0.0
 11
1381.000000000124
 21
872.6666666667171
 31
0.0
  0
LINE
  5
24C
330
CA
100
AcDbEntity
  8
0
  6
CONTINUOUS
 62
     7
100
AcDbLine
 10
1379.000000000108
 20
878.6666666667171
 30
0.0
 11
1379.000000000108
 21
872.6666666667171
 31
0.0
  0
LINE
  5
24D
330
CA
100
AcDbEntity
  8
0
  6
CONTINUOUS
 62
     7
100
AcDbLine
 10
1386.500000000108
 20
880.6666666667172
 30
0.0
 11
1381.000000000109
 21
880.6666666667172
 31
0.0
  0
ARC
  5
24E
330
CA
100
AcDbEntity
  8
0
  6
CONTINUOUS
 62
     7
100
AcDbCircle
 10
1381.000000000109
 20
878.6666666667171
 30
0.0
 40
2.0
100
AcDbArc
 50
90.00000000000001
 51
180.0
  0
LINE
  5
24F
330
CA
100
AcDbEntity
  8
0
  6
CONTINUOUS
 62
     7
100
AcDbLine
 10
1346.500000000105
 20
880.6666666667172
 30
0.0
 11
1346.500000000105
 21
878.6666666667171
 31
0.0
  0
LINE
  5
250
330
CA
100
AcDbEntity
  8
0
  6
CONTINUOUS
 62
     7
100
AcDbLine
 10
1346.500000000105
 20
878.6666666667171
 30
0.0
 11
1352.000000000091
 21
878.6666666667171
 31
0.0
  0
LINE
  5
251
330
CA
100
AcDbEntity
  8
0
  6
CONTINUOUS
 62
     7
100
AcDbLine
 10
1352.000000000091
 20
878.6666666667171
 30
0.0
 11
1352.000000000091
 21
872.6666666667171
 31
0.0
  0
LINE
  5
252
330
CA
100
AcDbEntity
  8
0
  6
CONTINUOUS
 62
     7
100
AcDbLine
 10
1354.000000000105
 20
878.6666666667171
 30
0.0
 11
1354.000000000105
 21
872.6666666667171
 31
0.0
  0
LINE
  5
253
330
CA
100
AcDbEntity
  8
0
  6
CONTINUOUS
 62
     7
100
AcDbLine
 10
1346.500000000105
 20
880.6666666667172
 30
0.0
 11
1352.000000000106
 21
880.6666666667172
 31
0.0
  0
ARC
  5
254
330
CA
100
AcDbEntity
  8
0
  6
CONTINUOUS
 62
     7
100
AcDbCircle
 10
1352.000000000106
 20
878.6666666667171
 30
0.0
 40
2.0
100
AcDbArc
 50
0.0
 51
90.00000000000001
  0
ENDBLK
  5
CC
330
CA
100
AcDbEntity
  8
0
100
AcDbBlockEnd
  0
BLOCK
  5
CE
330
CD
100
AcDbEntity
  8
0
100
AcDbBlockBegin
  2
SYM-15
 70
     0
 10
0.0
 20
0.0
 30
0.0
  3
SYM-15
  1

  0
ARC
  5
255
330
CD
100
AcDbEntity
  8
0
  6
CONTINUOUS
 62
     7
100
AcDbCircle
 10
1599.000000000071
 20
872.6666666667171
 30
0.0
 40
2.0
100
AcDbArc
 50
180.0
 51
270.0000000000002
  0
ARC
  5
256
330
CD
100
AcDbEntity
  8
0
  6
CONTINUOUS
 62
     7
100
AcDbCircle
 10
1624.000000000105
 20
872.6666666667171
 30
0.0
 40
2.0
100
AcDbArc
 50
270.0000000000002
 51
0.0
  0
LINE
  5
257
330
CD
100
AcDbEntity
  8
0
  6
CONTINUOUS
 62
     7
100
AcDbLine
 10
1599.000000000086
 20
872.6666666667171
 30
0.0
 11
1624.000000000086
 21
872.6666666667171
 31
0.0
  0
LINE
  5
258
330
CD
100
AcDbEntity
  8
0
  6
CONTINUOUS
 62
     7
100
AcDbLine
 10
1591.500000000086
 20
880.666666666718
 30
0.0
 11
1591.500000000086
 21
878.6666666667171
 31
0.0
  0
LINE
  5
259
330
CD
100
AcDbEntity
  8
0
  6
CONTINUOUS
 62
     7
100
AcDbLine
 10
1591.500000000086
 20
878.6666666667171
 30
0.0
 11
1597.000000000072
 21
878.6666666667171
 31
0.0
  0
LINE
  5
25A
330
CD
100
AcDbEntity
  8
0
  6
CONTINUOUS
 62
     7
100
AcDbLine
 10
1597.000000000072
 20
878.6666666667171
 30
0.0
 11
1597.000000000072
 21
872.6666666667171
 31
0.0
  0
LINE
  5
25B
330
CD
100
AcDbEntity
  8
0
  6
CONTINUOUS
 62
     7
100
AcDbLine
 10
1599.000000000086
 20
878.6666666667171
 30
0.0
 11
1599.000000000086
 21
872.6666666667171
 31
0.0
  0
LINE
  5
25C
330
CD
100
AcDbEntity
  8
0
  6
CONTINUOUS
 62
     7
100
AcDbLine
 10
1591.500000000086
 20
880.666666666718
 30
0.0
 11
1597.000000000086
 21
880.666666666718
 31
0.0
  0
ARC
  5
25D
330
CD
100
AcDbEntity
  8
0
  6
CONTINUOUS
 62
     7
100
AcDbCircle
 10
1597.000000000086
 20
878.6666666667171
 30
0.0
 40
2.0
100
AcDbArc
 50
0.0
 51
90.00000000000001
  0
LINE
  5
25E
330
CD
100
AcDbEntity
  8
0
  6
CONTINUOUS
 62
     7
100
AcDbLine
 10
1631.50000000009
 20
880.666666666718
 30
0.0
 11
1631.50000000009
 21
878.6666666667171
 31
0.0
  0
LINE
  5
25F
330
CD
100
AcDbEntity
  8
0
  6
CONTINUOUS
 62
     7
100
AcDbLine
 10
1631.50000000009
 20
878.6666666667171
 30
0.0
 11
1626.000000000105
 21
878.6666666667171
 31
0.0
  0
LINE
  5
260
330
CD
100
AcDbEntity
  8
0
  6
CONTINUOUS
 62
     7
100
AcDbLine
 10
1626.000000000105
 20
878.6666666667171
 30
0.0
 11
1626.000000000105
 21
872.6666666667171
 31
0.0
  0
LINE
  5
261
330
CD
100
AcDbEntity
  8
0
  6
CONTINUOUS
 62
     7
100
AcDbLine
 10
1624.00000000009
 20
878.6666666667171
 30
0.0
 11
1624.00000000009
 21
872.6666666667171
 31
0.0
  0
LINE
  5
262
330
CD
100
AcDbEntity
  8
0
  6
CONTINUOUS
 62
     7
100
AcDbLine
 10
1631.50000000009
 20
880.666666666718
 30
0.0
 11
1626.00000000009
 21
880.666666666718
 31
0.0
  0
ARC
  5
263
330
CD
100
AcDbEntity
  8
0
  6
CONTINUOUS
 62
     7
100
AcDbCircle
 10
1626.00000000009
 20
878.6666666667171
 30
0.0
 40
2.0
100
AcDbArc
 50
90.00000000000001
 51
180.0
  0
ENDBLK
  5
CF
330
CD
100
AcDbEntity
  8
0
100
AcDbBlockEnd
  0
BLOCK
  5
D1
330
D0
100
AcDbEntity
  8
0
100
AcDbBlockBegin
  2
SYM-16
 70
     0
 10
0.0
 20
0.0
 30
0.0
  3
SYM-16
  1

  0
ARC
  5
264
330
D0
100
AcDbEntity
  8
0
  6
CONTINUOUS
 62
     7
100
AcDbCircle
 10
1774.000000000123
 20
872.6666666667171
 30
0.0
 40
2.0
100
AcDbArc
 50
270.0000000000002
 51
0.0
  0
ARC
  5
265
330
D0
100
AcDbEntity
  8
0
  6
CONTINUOUS
 62
     7
100
AcDbCircle
 10
1749.00000000009
 20
872.6666666667171
 30
0.0
 40
2.0
100
AcDbArc
 50
180.0
 51
270.0000000000002
  0
LINE
  5
266
330
D0
100
AcDbEntity
  8
0
  6
CONTINUOUS
 62
     7
100
AcDbLine
 10
1774.000000000108
 20
872.6666666667171
 30
0.0
 11
1749.000000000109
 21
872.6666666667171
 31
0.0
  0
LINE
  5
267
330
D0
100
AcDbEntity
  8
0
  6
CONTINUOUS
 62
     7
100
AcDbLine
 10
1781.500000000108
 20
880.6666666667172
 30
0.0
 11
1781.500000000108
 21
878.6666666667171
 31
0.0
  0
LINE
  5
268
330
D0
100
AcDbEntity
  8
0
  6
CONTINUOUS
 62
     7
100
AcDbLine
 10
1781.500000000108
 20
878.6666666667171
 30
0.0
 11
1776.000000000124
 21
878.6666666667171
 31
0.0
  0
LINE
  5
269
330
D0
100
AcDbEntity
  8
0
  6
CONTINUOUS
 62
     7
100
AcDbLine
 10
1776.000000000124
 20
878.6666666667171
 30
0.0
 11
1776.000000000124
 21
872.6666666667171
 31
0.0
  0
LINE
  5
26A
330
D0
100
AcDbEntity
  8
0
  6
CONTINUOUS
 62
     7
100
AcDbLine
 10
1774.000000000108
 20
878.6666666667171
 30
0.0
 11
1774.000000000108
 21
872.6666666667171
 31
0.0
  0
LINE
  5
26B
330
D0
100
AcDbEntity
  8
0
  6
CONTINUOUS
 62
     7
100
AcDbLine
 10
1781.500000000108
 20
880.6666666667172
 30
0.0
 11
1776.000000000109
 21
880.6666666667172
 31
0.0
  0
ARC
  5
26C
330
D0
100
AcDbEntity
  8
0
  6
CONTINUOUS
 62
     7
100
AcDbCircle
 10
1776.000000000109
 20
878.6666666667171
 30
0.0
 40
2.0
100
AcDbArc
 50
90.00000000000001
 51
180.0
  0
LINE
  5
26D
330
D0
100
AcDbEntity
  8
0
  6
CONTINUOUS
 62
     7
100
AcDbLine
 10
1741.500000000105
 20
880.6666666667172
 30
0.0
 11
1741.500000000105
 21
878.6666666667171
 31
0.0
  0
LINE
  5
26E
330
D0
100
AcDbEntity
  8
0
  6
CONTINUOUS
 62
     7
100
AcDbLine
 10
1741.500000000105
 20
878.6666666667171
 30
0.0
 11
1747.000000000091
 21
878.6666666667171
 31
0.0
  0
LINE
  5
26F
330
D0
100
AcDbEntity
  8
0
  6
CONTINUOUS
 62
     7
100
AcDbLine
 10
1747.000000000091
 20
878.6666666667171
 30
0.0
 11
1747.000000000091
 21
872.6666666667171
 31
0.0
  0
LINE
  5
270
330
D0
100
AcDbEntity
  8
0
  6
CONTINUOUS
 62
     7
100
AcDbLine
 10
1749.000000000105
 20
878.6666666667171
 30
0.0
 11
1749.000000000105
 21
872.6666666667171
 31
0.0
  0
LINE
  5
271
330
D0
100
AcDbEntity
  8
0
  6
CONTINUOUS
 62
     7
100
AcDbLine
 10
1741.500000000105
 20
880.6666666667172
 30
0.0
 11
1747.000000000106
 21
880.6666666667172
 31
0.0
  0
ARC
  5
272
330
D0
100
AcDbEntity
  8
0
  6
CONTINUOUS
 62
     7
100
AcDbCircle
 10
1747.000000000106
 20
878.6666666667171
 30
0.0
 40
2.0
100
AcDbArc
 50
0.0
 51
90.00000000000001
  0
ENDBLK
  5
D2
330
D0
100
AcDbEntity
  8
0
100
AcDbBlockEnd
  0
BLOCK
  5
D4
330
D3
100
AcDbEntity
  8
0
100
AcDbBlockBegin
  2
SYM-17
 70
     0
 10
0.0
 20
0.0
 30
0.0
  3
SYM-17
  1

  0
CIRCLE
  5
273
330
D3
100
AcDbEntity
  8
0
  6
CONTINUOUS
 62
     7
100
AcDbCircle
 10
1869.000000000022
 20
2298.666666666565
 30
0.0
 40
10.50000000000041
  0
CIRCLE
  5
274
330
D3
100
AcDbEntity
  8
0
  6
CONTINUOUS
 62
     7
100
AcDbCircle
 10
1869.000000000022
 20
2298.666666666565
 30
0.0
 40
8.66025403784441
  0
LINE
  5
275
330
D3
100
AcDbEntity
  8
0
  6
CONTINUOUS
 62
     7
100
AcDbLine
 10
1860.339745962177
 20
2303.666666666565
 30
0.0
 11
1860.339745962177
 21
2293.666666666566
 31
0.0
  0
LINE
  5
276
330
D3
100
AcDbEntity
  8
0
  6
CONTINUOUS
 62
     7
100
AcDbLine
 10
1860.339745962177
 20
2293.666666666566
 30
0.0
 11
1869.000000000022
 21
2288.666666666565
 31
0.0
  0
LINE
  5
277
330
D3
100
AcDbEntity
  8
0
  6
CONTINUOUS
 62
     7
100
AcDbLine
 10
1869.000000000022
 20
2288.666666666565
 30
0.0
 11
1877.660254037864
 21
2293.666666666566
 31
0.0
  0
LINE
  5
278
330
D3
100
AcDbEntity
  8
0
  6
CONTINUOUS
 62
     7
100
AcDbLine
 10
1877.660254037864
 20
2303.666666666565
 30
0.0
 11
1869.000000000022
 21
2308.666666666566
 31
0.0
  0
LINE
  5
279
330
D3
100
AcDbEntity
  8
0
  6
CONTINUOUS
 62
     7
100
AcDbLine
 10
1869.000000000022
 20
2308.666666666566
 30
0.0
 11
1860.339745962177
 21
2303.666666666565
 31
0.0
  0
CIRCLE
  5
27A
330
D3
100
AcDbEntity
  8
0
  6
CONTINUOUS
 62
     7
100
AcDbCircle
 10
1869.000000000022
 20
2298.666666666565
 30
0.0
 40
5.0
  0
CIRCLE
  5
27B
330
D3
100
AcDbEntity
  8
0
  6
CONTINUOUS
 62
     7
100
AcDbCircle
 10
1869.000000000022
 20
2298.666666666565
 30
0.0
 40
4.0
  0
LINE
  5
27C
330
D3
100
AcDbEntity
  8
0
  6
CONTINUOUS
 62
     7
100
AcDbLine
 10
1877.660254037864
 20
2293.666666666566
 30
0.0
 11
1877.660254037864
 21
2303.666666666565
 31
0.0
  0
ENDBLK
  5
D5
330
D3
100
AcDbEntity
  8
0
100
AcDbBlockEnd
  0
BLOCK
  5
D7
330
D6
100
AcDbEntity
  8
0
100
AcDbBlockBegin
  2
SYM-18
 70
     0
 10
0.0
 20
0.0
 30
0.0
  3
SYM-18
  1

  0
CIRCLE
  5
27D
330
D6
100
AcDbEntity
  8
0
  6
CONTINUOUS
 62
     7
100
AcDbCircle
 10
1869.000000000022
 20
1348.666666666585
 30
0.0
 40
10.50000000000041
  0
CIRCLE
  5
27E
330
D6
100
AcDbEntity
  8
0
  6
CONTINUOUS
 62
     7
100
AcDbCircle
 10
1869.000000000022
 20
1348.666666666585
 30
0.0
 40
8.66025403784441
  0
LINE
  5
27F
330
D6
100
AcDbEntity
  8
0
  6
CONTINUOUS
 62
     7
100
AcDbLine
 10
1860.339745962177
 20
1353.666666666585
 30
0.0
 11
1860.339745962177
 21
1343.666666666586
 31
0.0
  0
LINE
  5
280
330
D6
100
AcDbEntity
  8
0
  6
CONTINUOUS
 62
     7
100
AcDbLine
 10
1860.339745962177
 20
1343.666666666586
 30
0.0
 11
1869.000000000022
 21
1338.666666666585
 31
0.0
  0
LINE
  5
281
330
D6
100
AcDbEntity
  8
0
  6
CONTINUOUS
 62
     7
100
AcDbLine
 10
1869.000000000022
 20
1338.666666666585
 30
0.0
 11
1877.660254037864
 21
1343.666666666586
 31
0.0
  0
LINE
  5
282
330
D6
100
AcDbEntity
  8
0
  6
CONTINUOUS
 62
     7
100
AcDbLine
 10
1877.660254037864
 20
1353.666666666585
 30
0.0
 11
1869.000000000022
 21
1358.666666666586
 31
0.0
  0
LINE
  5
283
330
D6
100
AcDbEntity
  8
0
  6
CONTINUOUS
 62
     7
100
AcDbLine
 10
1869.000000000022
 20
1358.666666666586
 30
0.0
 11
1860.339745962177
 21
1353.666666666585
 31
0.0
  0
CIRCLE
  5
284
330
D6
100
AcDbEntity
  8
0
  6
CONTINUOUS
 62
     7
100
AcDbCircle
 10
1869.000000000022
 20
1348.666666666585
 30
0.0
 40
5.0
  0
CIRCLE
  5
285
330
D6
100
AcDbEntity
  8
0
  6
CONTINUOUS
 62
     7
100
AcDbCircle
 10
1869.000000000022
 20
1348.666666666585
 30
0.0
 40
4.0
  0
LINE
  5
286
330
D6
100
AcDbEntity
  8
0
  6
CONTINUOUS
 62
     7
100
AcDbLine
 10
1877.660254037864
 20
1343.666666666586
 30
0.0
 11
1877.660254037864
 21
1353.666666666585
 31
0.0
  0
ENDBLK
  5
D8
330
D6
100
AcDbEntity
  8
0
100
AcDbBlockEnd
  0
BLOCK
  5
DA
330
D9
100
AcDbEntity
  8
0
100
AcDbBlockBegin
  2
SYM-19
 70
     0
 10
0.0
 20
0.0
 30
0.0
  3
SYM-19
  1

  0
CIRCLE
  5
287
330
D9
100
AcDbEntity
  8
0
  6
CONTINUOUS
 62
     7
100
AcDbCircle
 10
1352.333333333321
 20
1348.666666666471
 30
0.0
 40
10.50000000000041
  0
CIRCLE
  5
288
330
D9
100
AcDbEntity
  8
0
  6
CONTINUOUS
 62
     7
100
AcDbCircle
 10
1352.333333333321
 20
1348.666666666471
 30
0.0
 40
8.66025403784441
  0
LINE
  5
289
330
D9
100
AcDbEntity
  8
0
  6
CONTINUOUS
 62
     7
100
AcDbLine
 10
1343.673079295479
 20
1343.666666666471
 30
0.0
 11
1343.673079295479
 21
1353.66666666647
 31
0.0
  0
LINE
  5
28A
330
D9
100
AcDbEntity
  8
0
  6
CONTINUOUS
 62
     7
100
AcDbLine
 10
1343.673079295479
 20
1353.66666666647
 30
0.0
 11
1352.333333333321
 21
1358.666666666471
 31
0.0
  0
LINE
  5
28B
330
D9
100
AcDbEntity
  8
0
  6
CONTINUOUS
 62
     7
100
AcDbLine
 10
1352.333333333321
 20
1358.666666666471
 30
0.0
 11
1360.993587371166
 21
1353.66666666647
 31
0.0
  0
LINE
  5
28C
330
D9
100
AcDbEntity
  8
0
  6
CONTINUOUS
 62
     7
100
AcDbLine
 10
1360.993587371166
 20
1343.666666666471
 30
0.0
 11
1352.333333333321
 21
1338.66666666647
 31
0.0
  0
LINE
  5
28D
330
D9
100
AcDbEntity
  8
0
  6
CONTINUOUS
 62
     7
100
AcDbLine
 10
1352.333333333321
 20
1338.66666666647
 30
0.0
 11
1343.673079295479
 21
1343.666666666471
 31
0.0
  0
CIRCLE
  5
28E
330
D9
100
AcDbEntity
  8
0
  6
CONTINUOUS
 62
     7
100
AcDbCircle
 10
1352.333333333321
 20
1348.666666666471
 30
0.0
 40
5.0
  0
CIRCLE
  5
28F
330
D9
100
AcDbEntity
  8
0
  6
CONTINUOUS
 62
     7
100
AcDbCircle
 10
1352.333333333321
 20
1348.666666666471
 30
0.0
 40
4.0
  0
LINE
  5
290
330
D9
100
AcDbEntity
  8
0
  6
CONTINUOUS
 62
     7
100
AcDbLine
 10
1360.993587371166
 20
1353.66666666647
 30
0.0
 11
1360.993587371166
 21
1343.666666666471
 31
0.0
  0
ENDBLK
  5
DB
330
D9
100
AcDbEntity
  8
0
100
AcDbBlockEnd
  0
BLOCK
  5
DD
330
DC
100
AcDbEntity
  8
0
100
AcDbBlockBegin
  2
SYM-20
 70
     0
 10
0.0
 20
0.0
 30
0.0
  3
SYM-20
  1

  0
CIRCLE
  5
291
330
DC
100
AcDbEntity
  8
0
  6
CONTINUOUS
 62
     7
100
AcDbCircle
 10
1868.999999999976
 20
1823.666666666545
 30
0.0
 40
10.50000000000041
  0
CIRCLE
  5
292
330
DC
100
AcDbEntity
  8
0
  6
CONTINUOUS
 62
     7
100
AcDbCircle
 10
1868.999999999976
 20
1823.666666666545
 30
0.0
 40
8.66025403784441
  0
LINE
  5
293
330
DC
100
AcDbEntity
  8
0
  6
CONTINUOUS
 62
     7
100
AcDbLine
 10
1877.660254037819
 20
1828.666666666545
 30
0.0
 11
1877.660254037819
 21
1818.666666666546
 31
0.0
  0
LINE
  5
294
330
DC
100
AcDbEntity
  8
0
  6
CONTINUOUS
 62
     7
100
AcDbLine
 10
1877.660254037819
 20
1818.666666666546
 30
0.0
 11
1868.999999999976
 21
1813.666666666545
 31
0.0
  0
LINE
  5
295
330
DC
100
AcDbEntity
  8
0
  6
CONTINUOUS
 62
     7
100
AcDbLine
 10
1868.999999999976
 20
1813.666666666545
 30
0.0
 11
1860.339745962134
 21
1818.666666666546
 31
0.0
  0
LINE
  5
296
330
DC
100
AcDbEntity
  8
0
  6
CONTINUOUS
 62
     7
100
AcDbLine
 10
1860.339745962134
 20
1828.666666666545
 30
0.0
 11
1868.999999999976
 21
1833.666666666546
 31
0.0
  0
LINE
  5
297
330
DC
100
AcDbEntity
  8
0
  6
CONTINUOUS
 62
     7
100
AcDbLine
 10
1868.999999999976
 20
1833.666666666546
 30
0.0
 11
1877.660254037819
 21
1828.666666666545
 31
0.0
  0
CIRCLE
  5
298
330
DC
100
AcDbEntity
  8
0
  6
CONTINUOUS
 62
     7
100
AcDbCircle
 10
1868.999999999976
 20
1823.666666666545
 30
0.0
 40
5.0
  0
CIRCLE
  5
299
330
DC
100
AcDbEntity
  8
0
  6
CONTINUOUS
 62
     7
100
AcDbCircle
 10
1868.999999999976
 20
1823.666666666545
 30
0.0
 40
4.0
  0
LINE
  5
29A
330
DC
100
AcDbEntity
  8
0
  6
CONTINUOUS
 62
     7
100
AcDbLine
 10
1860.339745962134
 20
1818.666666666546
 30
0.0
 11
1860.339745962134
 21
1828.666666666545
 31
0.0
  0
ENDBLK
  5
DE
330
DC
100
AcDbEntity
  8
0
100
AcDbBlockEnd
  0
BLOCK
  5
E0
330
DF
100
AcDbEntity
  8
0
100
AcDbBlockBegin
  2
SYM-21
 70
     0
 10
0.0
 20
0.0
 30
0.0
  3
SYM-21
  1

  0
CIRCLE
  5
29B
330
DF
100
AcDbEntity
  8
0
  6
CONTINUOUS
 62
     7
100
AcDbCircle
 10
1352.333333333321
 20
2298.666666666762
 30
0.0
 40
10.50000000000041
  0
CIRCLE
  5
29C
330
DF
100
AcDbEntity
  8
0
  6
CONTINUOUS
 62
     7
100
AcDbCircle
 10
1352.333333333321
 20
2298.666666666762
 30
0.0
 40
8.66025403784441
  0
LINE
  5
29D
330
DF
100
AcDbEntity
  8
0
  6
CONTINUOUS
 62
     7
100
AcDbLine
 10
1343.673079295479
 20
2303.666666666762
 30
0.0
 11
1343.673079295479
 21
2293.666666666762
 31
0.0
  0
LINE
  5
29E
330
DF
100
AcDbEntity
  8
0
  6
CONTINUOUS
 62
     7
100
AcDbLine
 10
1343.673079295479
 20
2293.666666666762
 30
0.0
 11
1352.333333333321
 21
2288.666666666762
 31
0.0
  0
LINE
  5
29F
330
DF
100
AcDbEntity
  8
0
  6
CONTINUOUS
 62
     7
100
AcDbLine
 10
1352.333333333321
 20
2288.666666666762
 30
0.0
 11
1360.993587371166
 21
2293.666666666762
 31
0.0
  0
LINE
  5
2A0
330
DF
100
AcDbEntity
  8
0
  6
CONTINUOUS
 62
     7
100
AcDbLine
 10
1360.993587371166
 20
2303.666666666762
 30
0.0
 11
1352.333333333321
 21
2308.666666666762
 31
0.0
  0
LINE
  5
2A1
330
DF
100
AcDbEntity
  8
0
  6
CONTINUOUS
 62
     7
100
AcDbLine
 10
1352.333333333321
 20
2308.666666666762
 30
0.0
 11
1343.673079295479
 21
2303.666666666762
 31
0.0
  0
CIRCLE
  5
2A2
330
DF
100
AcDbEntity
  8
0
  6
CONTINUOUS
 62
     7
100
AcDbCircle
 10
1352.333333333321
 20
2298.666666666762
 30
0.0
 40
5.0
  0
CIRCLE
  5
2A3
330
DF
100
AcDbEntity
  8
0
  6
CONTINUOUS
 62
     7
100
AcDbCircle
 10
1352.333333333321
 20
2298.666666666762
 30
0.0
 40
4.0
  0
LINE
  5
2A4
330
DF
100
AcDbEntity
  8
0
  6
CONTINUOUS
 62
     7
100
AcDbLine
 10
1360.993587371166
 20
2293.666666666762
 30
0.0
 11
1360.993587371166
 21
2303.666666666762
 31
0.0
  0
ENDBLK
  5
E1
330
DF
100
AcDbEntity
  8
0
100
AcDbBlockEnd
  0
BLOCK
  5
5AF
330
5AE
100
AcDbEntity
  8
0
100
AcDbBlockBegin
  2
*D36
 70
     1
 10
0.0
 20
0.0
 30
0.0
  3
*D36
  1

  0
LINE
  5
5B1
330
5AE
100
AcDbEntity
  8
LAY-20
  6
CONTINUOUS
 62
     4
100
AcDbLine
 10
289.0000000001
 20
930.6666666666702
 30
0.0
 11
289.0000000001
 21
1100.6666666667
 31
0.0
  0
LINE
  5
5B2
330
5AE
100
AcDbEntity
  8
LAY-20
  6
CONTINUOUS
 62
     4
100
AcDbLine
 10
1899.0000000001
 20
930.6666666666702
 30
0.0
 11
1899.0000000001
 21
1100.6666666667
 31
0.0
  0
LINE
  5
5B3
330
5AE
100
AcDbEntity
  8
LAY-20
  6
CONTINUOUS
 62
     4
100
AcDbLine
 10
314.0000000001
 20
1085.6666666667
 30
0.0
 11
1874.0000000001
 21
1085.6666666667
 31
0.0
  0
INSERT
  5
5B4
330
5AE
100
AcDbEntity
  8
LAY-20
 62
     4
100
AcDbBlockReference
  2
EX_BNORM
 10
289.0000000001
 20
1085.6666666667
 30
0.0
 41
25.0
 42
25.0
 43
25.0
 50
180.0
  0
INSERT
  5
5B5
330
5AE
100
AcDbEntity
  8
LAY-20
 62
     4
100
AcDbBlockReference
  2
EX_BNORM
 10
1899.0000000001
 20
1085.6666666667
 30
0.0
 41
25.0
 42
25.0
 43
25.0
  0
MTEXT
  5
5B6
330
5AE
100
AcDbEntity
  8
LAY-20
 62
     7
100
AcDbMText
 10
1094.0000000001
 20
1110.6666666667
 30
0.0
 40
31.181104
 41
0.0
 71
     5
 72
     1
  1
1610
  7
EXCADDIM1
  0
POINT
  5
5B7
330
5AE
100
AcDbEntity
  8
DEFPOINTS
 62
     0
100
AcDbPoint
 10
289.0000000001
 20
915.6666666666702
 30
0.0
  0
POINT
  5
5B8
330
5AE
100
AcDbEntity
  8
DEFPOINTS
 62
     0
100
AcDbPoint
 10
1899.0000000001
 20
915.6666666666702
 30
0.0
  0
POINT
  5
5B9
330
5AE
100
AcDbEntity
  8
DEFPOINTS
 62
     0
100
AcDbPoint
 10
1899.0000000001
 20
1085.6666666667
 30
0.0
  0
ENDBLK
  5
5B0
330
5AE
100
AcDbEntity
  8
0
100
AcDbBlockEnd
  0
BLOCK
  5
5BC
330
5BB
100
AcDbEntity
  8
0
100
AcDbBlockBegin
  2
*D37
 70
     1
 10
0.0
 20
0.0
 30
0.0
  3
*D37
  1

  0
LINE
  5
5BE
330
5BB
100
AcDbEntity
  8
LAY-20
  6
CONTINUOUS
 62
     4
100
AcDbLine
 10
698.0000000000863
 20
930.6666666667162
 30
0.0
 11
698.0000000000863
 21
1030.66666666672
 31
0.0
  0
LINE
  5
5BF
330
5BB
100
AcDbEntity
  8
LAY-20
  6
CONTINUOUS
 62
     4
100
AcDbLine
 10
305.0000000000855
 20
930.6666666667162
 30
0.0
 11
305.0000000000855
 21
1030.66666666672
 31
0.0
  0
LINE
  5
5C0
330
5BB
100
AcDbEntity
  8
LAY-20
  6
CONTINUOUS
 62
     4
100
AcDbLine
 10
673.0000000000863
 20
1015.66666666672
 30
0.0
 11
330.0000000000855
 21
1015.66666666672
 31
0.0
  0
INSERT
  5
5C1
330
5BB
100
AcDbEntity
  8
LAY-20
 62
     4
100
AcDbBlockReference
  2
EX_BNORM
 10
698.0000000000863
 20
1015.66666666672
 30
0.0
 41
25.0
 42
25.0
 43
25.0
  0
INSERT
  5
5C2
330
5BB
100
AcDbEntity
  8
LAY-20
 62
     4
100
AcDbBlockReference
  2
EX_BNORM
 10
305.0000000000855
 20
1015.66666666672
 30
0.0
 41
25.0
 42
25.0
 43
25.0
 50
180.0
  0
MTEXT
  5
5C3
330
5BB
100
AcDbEntity
  8
LAY-20
 62
     7
100
AcDbMText
 10
501.5000000000859
 20
1040.66666666672
 30
0.0
 40
31.181104
 41
0.0
 71
     5
 72
     1
  1
393
  7
EXCADDIM1
  0
POINT
  5
5C4
330
5BB
100
AcDbEntity
  8
DEFPOINTS
 62
     0
100
AcDbPoint
 10
698.0000000000863
 20
915.6666666667162
 30
0.0
  0
POINT
  5
5C5
330
5BB
100
AcDbEntity
  8
DEFPOINTS
 62
     0
100
AcDbPoint
 10
305.0000000000855
 20
915.6666666667162
 30
0.0
  0
POINT
  5
5C6
330
5BB
100
AcDbEntity
  8
DEFPOINTS
 62
     0
100
AcDbPoint
 10
305.0000000000855
 20
1015.66666666672
 30
0.0
  0
ENDBLK
  5
5BD
330
5BB
100
AcDbEntity
  8
0
100
AcDbBlockEnd
  0
BLOCK
  5
5C9
330
5C8
100
AcDbEntity
  8
0
100
AcDbBlockBegin
  2
*D38
 70
     1
 10
0.0
 20
0.0
 30
0.0
  3
*D38
  1

  0
LINE
  5
5CB
330
5C8
100
AcDbEntity
  8
LAY-20
  6
CONTINUOUS
 62
     4
100
AcDbLine
 10
344.00000000011
 20
785.6666666666101
 30
0.0
 11
344.00000000011
 21
685.6666666666101
 31
0.0
  0
LINE
  5
5CC
330
5C8
100
AcDbEntity
  8
LAY-20
  6
CONTINUOUS
 62
     4
100
AcDbLine
 10
1844.0000000001
 20
785.6666666666101
 30
0.0
 11
1844.0000000001
 21
685.6666666666101
 31
0.0
  0
LINE
  5
5CD
330
5C8
100
AcDbEntity
  8
LAY-20
  6
CONTINUOUS
 62
     4
100
AcDbLine
 10
369.00000000011
 20
685.6666666666101
 30
0.0
 11
1819.0000000001
 21
685.6666666666101
 31
0.0
  0
INSERT
  5
5CE
330
5C8
100
AcDbEntity
  8
LAY-20
 62
     4
100
AcDbBlockReference
  2
EX_BNORM
 10
344.00000000011
 20
685.6666666666101
 30
0.0
 41
25.0
 42
25.0
 43
25.0
 50
180.0
  0
INSERT
  5
5CF
330
5C8
100
AcDbEntity
  8
LAY-20
 62
     4
100
AcDbBlockReference
  2
EX_BNORM
 10
1844.0000000001
 20
685.6666666666101
 30
0.0
 41
25.0
 42
25.0
 43
25.0
  0
MTEXT
  5
5D0
330
5C8
100
AcDbEntity
  8
LAY-20
 62
     7
100
AcDbMText
 10
1094.000000000105
 20
710.6666666666101
 30
0.0
 40
31.181104
 41
0.0
 71
     5
 72
     1
  1
1500
  7
EXCADDIM1
  0
POINT
  5
5D1
330
5C8
100
AcDbEntity
  8
DEFPOINTS
 62
     0
100
AcDbPoint
 10
344.00000000011
 20
785.6666666666101
 30
0.0
  0
POINT
  5
5D2
330
5C8
100
AcDbEntity
  8
DEFPOINTS
 62
     0
100
AcDbPoint
 10
1844.0000000001
 20
785.6666666666101
 30
0.0
  0
POINT
  5
5D3
330
5C8
100
AcDbEntity
  8
DEFPOINTS
 62
     0
100
AcDbPoint
 10
1844.0000000001
 20
685.6666666666101
 30
0.0
  0
ENDBLK
  5
5CA
330
5C8
100
AcDbEntity
  8
0
100
AcDbBlockEnd
  0
BLOCK
  5
5D6
330
5D5
100
AcDbEntity
  8
0
100
AcDbBlockBegin
  2
*D39
 70
     1
 10
0.0
 20
0.0
 30
0.0
  3
*D39
  1

  0
LINE
  5
5D8
330
5D5
100
AcDbEntity
  8
LAY-20
  6
CONTINUOUS
 62
     4
100
AcDbLine
 10
1914.0000000001
 20
915.6666666666702
 30
0.0
 11
2048.5553390594
 21
915.6666666666702
 31
0.0
  0
LINE
  5
5D9
330
5D5
100
AcDbEntity
  8
LAY-20
  6
CONTINUOUS
 62
     4
100
AcDbLine
 10
1902.2000000001
 20
815.6666666666201
 30
0.0
 11
2048.5553390594
 21
815.6666666666201
 31
0.0
  0
LINE
  5
5DA
330
5D5
100
AcDbEntity
  8
LAY-20
  6
CONTINUOUS
 62
     4
100
AcDbLine
 10
2033.5553390594
 20
890.6666666666702
 30
0.0
 11
2033.5553390594
 21
840.6666666666201
 31
0.0
  0
INSERT
  5
5DB
330
5D5
100
AcDbEntity
  8
LAY-20
 62
     4
100
AcDbBlockReference
  2
EX_BNORM
 10
2033.5553390594
 20
915.6666666666702
 30
0.0
 41
25.0
 42
25.0
 43
25.0
 50
90.0
  0
INSERT
  5
5DC
330
5D5
100
AcDbEntity
  8
LAY-20
 62
     4
100
AcDbBlockReference
  2
EX_BNORM
 10
2033.5553390594
 20
815.6666666666201
 30
0.0
 41
25.0
 42
25.0
 43
25.0
 50
270.0
  0
MTEXT
  5
5DD
330
5D5
100
AcDbEntity
  8
LAY-20
 62
     7
100
AcDbMText
 10
2008.5553390594
 20
865.6666666666451
 30
0.0
 40
31.181104
 41
0.0
 71
     5
 72
     1
  1
100
  7
EXCADDIM1
 11
0.0
 21
1.0
 31
0.0
  0
POINT
  5
5DE
330
5D5
100
AcDbEntity
  8
DEFPOINTS
 62
     0
100
AcDbPoint
 10
1899.0000000001
 20
915.6666666666702
 30
0.0
  0
POINT
  5
5DF
330
5D5
100
AcDbEntity
  8
DEFPOINTS
 62
     0
100
AcDbPoint
 10
1887.2000000001
 20
815.6666666666201
 30
0.0
  0
POINT
  5
5E0
330
5D5
100
AcDbEntity
  8
DEFPOINTS
 62
     0
100
AcDbPoint
 10
2033.5553390594
 20
815.6666666666201
 30
0.0
  0
ENDBLK
  5
5D7
330
5D5
100
AcDbEntity
  8
0
100
AcDbBlockEnd
  0
BLOCK
  5
5E3
330
5E2
100
AcDbEntity
  8
0
100
AcDbBlockBegin
  2
*D40
 70
     1
 10
0.0
 20
0.0
 30
0.0
  3
*D40
  1

  0
LINE
  5
5E5
330
5E2
100
AcDbEntity
  8
LAY-20
  6
CONTINUOUS
 62
     4
100
AcDbLine
 10
2284.0000000001
 20
2365.6666666666
 30
0.0
 11
2114.0000000001
 21
2365.6666666666
 31
0.0
  0
LINE
  5
5E6
330
5E2
100
AcDbEntity
  8
LAY-20
  6
CONTINUOUS
 62
     4
100
AcDbLine
 10
2284.0000000001
 20
1281.6666666666
 30
0.0
 11
2114.0000000001
 21
1281.6666666666
 31
0.0
  0
LINE
  5
5E7
330
5E2
100
AcDbEntity
  8
LAY-20
  6
CONTINUOUS
 62
     4
100
AcDbLine
 10
2129.0000000001
 20
2340.6666666666
 30
0.0
 11
2129.0000000001
 21
1306.6666666666
 31
0.0
  0
INSERT
  5
5E8
330
5E2
100
AcDbEntity
  8
LAY-20
 62
     4
100
AcDbBlockReference
  2
EX_BNORM
 10
2129.0000000001
 20
2365.6666666666
 30
0.0
 41
25.0
 42
25.0
 43
25.0
 50
90.0
  0
INSERT
  5
5E9
330
5E2
100
AcDbEntity
  8
LAY-20
 62
     4
100
AcDbBlockReference
  2
EX_BNORM
 10
2129.0000000001
 20
1281.6666666666
 30
0.0
 41
25.0
 42
25.0
 43
25.0
 50
270.0
  0
MTEXT
  5
5EA
330
5E2
100
AcDbEntity
  8
LAY-20
 62
     7
100
AcDbMText
 10
2104.0000000001
 20
1823.6666666666
 30
0.0
 40
31.181104
 41
0.0
 71
     5
 72
     1
  1
1084
  7
EXCADDIM1
 11
0.0
 21
1.0
 31
0.0
  0
POINT
  5
5EB
330
5E2
100
AcDbEntity
  8
DEFPOINTS
 62
     0
100
AcDbPoint
 10
2299.0000000001
 20
2365.6666666666
 30
0.0
  0
POINT
  5
5EC
330
5E2
100
AcDbEntity
  8
DEFPOINTS
 62
     0
100
AcDbPoint
 10
2299.0000000001
 20
1281.6666666666
 30
0.0
  0
POINT
  5
5ED
330
5E2
100
AcDbEntity
  8
DEFPOINTS
 62
     0
100
AcDbPoint
 10
2129.0000000001
 20
1281.6666666666
 30
0.0
  0
ENDBLK
  5
5E4
330
5E2
100
AcDbEntity
  8
0
100
AcDbBlockEnd
  0
BLOCK
  5
5F0
330
5EF
100
AcDbEntity
  8
0
100
AcDbBlockBegin
  2
*D41
 70
     1
 10
0.0
 20
0.0
 30
0.0
  3
*D41
  1

  0
LINE
  5
5F2
330
5EF
100
AcDbEntity
  8
LAY-20
  6
CONTINUOUS
 62
     4
100
AcDbLine
 10
2284.000000000078
 20
1297.666666666616
 30
0.0
 11
2184.0000000001
 21
1297.666666666616
 31
0.0
  0
LINE
  5
5F3
330
5EF
100
AcDbEntity
  8
LAY-20
  6
CONTINUOUS
 62
     4
100
AcDbLine
 10
2284.000000000078
 20
2349.666666666618
 30
0.0
 11
2184.0000000001
 21
2349.666666666618
 31
0.0
  0
LINE
  5
5F4
330
5EF
100
AcDbEntity
  8
LAY-20
  6
CONTINUOUS
 62
     4
100
AcDbLine
 10
2199.0000000001
 20
1322.666666666616
 30
0.0
 11
2199.0000000001
 21
2324.666666666618
 31
0.0
  0
INSERT
  5
5F5
330
5EF
100
AcDbEntity
  8
LAY-20
 62
     4
100
AcDbBlockReference
  2
EX_BNORM
 10
2199.0000000001
 20
1297.666666666616
 30
0.0
 41
25.0
 42
25.0
 43
25.0
 50
270.0
  0
INSERT
  5
5F6
330
5EF
100
AcDbEntity
  8
LAY-20
 62
     4
100
AcDbBlockReference
  2
EX_BNORM
 10
2199.0000000001
 20
2349.666666666618
 30
0.0
 41
25.0
 42
25.0
 43
25.0
 50
90.0
  0
MTEXT
  5
5F7
330
5EF
100
AcDbEntity
  8
LAY-20
 62
     7
100
AcDbMText
 10
2174.0000000001
 20
1823.666666666617
 30
0.0
 40
31.181104
 41
0.0
 71
     5
 72
     1
  1
1052
  7
EXCADDIM1
 11
0.0
 21
1.0
 31
0.0
  0
POINT
  5
5F8
330
5EF
100
AcDbEntity
  8
DEFPOINTS
 62
     0
100
AcDbPoint
 10
2299.000000000078
 20
1297.666666666616
 30
0.0
  0
POINT
  5
5F9
330
5EF
100
AcDbEntity
  8
DEFPOINTS
 62
     0
100
AcDbPoint
 10
2299.000000000078
 20
2349.666666666618
 30
0.0
  0
POINT
  5
5FA
330
5EF
100
AcDbEntity
  8
DEFPOINTS
 62
     0
100
AcDbPoint
 10
2199.0000000001
 20
2349.666666666618
 30
0.0
  0
ENDBLK
  5
5F1
330
5EF
100
AcDbEntity
  8
0
100
AcDbBlockEnd
  0
BLOCK
  5
5FD
330
5FC
100
AcDbEntity
  8
0
100
AcDbBlockBegin
  2
*D42
 70
     1
 10
0.0
 20
0.0
 30
0.0
  3
*D42
  1

  0
LINE
  5
5FF
330
5FC
100
AcDbEntity
  8
LAY-20
  6
CONTINUOUS
 62
     4
100
AcDbLine
 10
2444.2000000001
 20
2273.6666666665
 30
0.0
 11
2544.2000000001
 21
2273.6666666665
 31
0.0
  0
LINE
  5
600
330
5FC
100
AcDbEntity
  8
LAY-20
  6
CONTINUOUS
 62
     4
100
AcDbLine
 10
2444.2000000001
 20
1373.6666666666
 30
0.0
 11
2544.2000000001
 21
1373.6666666666
 31
0.0
  0
LINE
  5
601
330
5FC
100
AcDbEntity
  8
LAY-20
  6
CONTINUOUS
 62
     4
100
AcDbLine
 10
2529.2000000001
 20
2248.6666666665
 30
0.0
 11
2529.2000000001
 21
1398.6666666666
 31
0.0
  0
INSERT
  5
602
330
5FC
100
AcDbEntity
  8
LAY-20
 62
     4
100
AcDbBlockReference
  2
EX_BNORM
 10
2529.2000000001
 20
2273.6666666665
 30
0.0
 41
25.0
 42
25.0
 43
25.0
 50
90.0
  0
INSERT
  5
603
330
5FC
100
AcDbEntity
  8
LAY-20
 62
     4
100
AcDbBlockReference
  2
EX_BNORM
 10
2529.2000000001
 20
1373.6666666666
 30
0.0
 41
25.0
 42
25.0
 43
25.0
 50
270.0
  0
MTEXT
  5
604
330
5FC
100
AcDbEntity
  8
LAY-20
 62
     7
100
AcDbMText
 10
2504.2000000001
 20
1823.66666666655
 30
0.0
 40
31.181104
 41
0.0
 71
     5
 72
     1
  1
900
  7
EXCADDIM1
 11
0.0
 21
1.0
 31
0.0
  0
POINT
  5
605
330
5FC
100
AcDbEntity
  8
DEFPOINTS
 62
     0
100
AcDbPoint
 10
2429.2000000001
 20
2273.6666666665
 30
0.0
  0
POINT
  5
606
330
5FC
100
AcDbEntity
  8
DEFPOINTS
 62
     0
100
AcDbPoint
 10
2429.2000000001
 20
1373.6666666666
 30
0.0
  0
POINT
  5
607
330
5FC
100
AcDbEntity
  8
DEFPOINTS
 62
     0
100
AcDbPoint
 10
2529.2000000001
 20
1373.6666666666
 30
0.0
  0
ENDBLK
  5
5FE
330
5FC
100
AcDbEntity
  8
0
100
AcDbBlockEnd
  0
BLOCK
  5
60A
330
609
100
AcDbEntity
  8
0
100
AcDbBlockBegin
  2
*D43
 70
     1
 10
0.0
 20
0.0
 30
0.0
  3
*D43
  1

  0
LINE
  5
60C
330
609
100
AcDbEntity
  8
LAY-20
  6
CONTINUOUS
 62
     4
100
AcDbLine
 10
856.5000000000902
 20
880.6666666667201
 30
0.0
 11
925.0
 21
880.6666666667201
 31
0.0
  0
LINE
  5
60D
330
609
100
AcDbEntity
  8
LAY-20
  6
CONTINUOUS
 62
     4
100
AcDbLine
 10
910.0
 20
880.6666666667201
 30
0.0
 11
910.0
 21
915.6666666667201
 31
0.0
  0
LINE
  5
60E
330
609
100
AcDbEntity
  8
LAY-20
  6
CONTINUOUS
 62
     4
100
AcDbLine
 10
910.0
 20
855.6666666667201
 30
0.0
 11
910.0
 21
830.6666666667201
 31
0.0
  0
LINE
  5
60F
330
609
100
AcDbEntity
  8
LAY-20
  6
CONTINUOUS
 62
     4
100
AcDbLine
 10
910.0
 20
940.6666666667201
 30
0.0
 11
910.0
 21
965.6666666667201
 31
0.0
  0
INSERT
  5
610
330
609
100
AcDbEntity
  8
LAY-20
 62
     4
100
AcDbBlockReference
  2
EX_BNORM
 10
910.0
 20
880.6666666667201
 30
0.0
 41
25.0
 42
25.0
 43
25.0
 50
90.0
  0
INSERT
  5
611
330
609
100
AcDbEntity
  8
LAY-20
 62
     4
100
AcDbBlockReference
  2
EX_BNORM
 10
910.0
 20
915.6666666667201
 30
0.0
 41
25.0
 42
25.0
 43
25.0
 50
270.0
  0
MTEXT
  5
612
330
609
100
AcDbEntity
  8
LAY-20
 62
     7
100
AcDbMText
 10
885.0000000000001
 20
975.6666666667198
 30
0.0
 40
31.181104
 41
0.0
 71
     5
 72
     1
  1
35
  7
EXCADDIM1
 11
0.0
 21
1.0
 31
0.0
  0
POINT
  5
613
330
609
100
AcDbEntity
  8
DEFPOINTS
 62
     0
100
AcDbPoint
 10
841.5000000000902
 20
880.6666666667201
 30
0.0
  0
POINT
  5
614
330
609
100
AcDbEntity
  8
DEFPOINTS
 62
     0
100
AcDbPoint
 10
910.0
 20
915.6666666667201
 30
0.0
  0
POINT
  5
615
330
609
100
AcDbEntity
  8
DEFPOINTS
 62
     0
100
AcDbPoint
 10
910.0
 20
915.6666666667201
 30
0.0
  0
ENDBLK
  5
60B
330
609
100
AcDbEntity
  8
0
100
AcDbBlockEnd
  0
BLOCK
  5
618
330
617
100
AcDbEntity
  8
0
100
AcDbBlockBegin
  2
*D44
 70
     1
 10
0.0
 20
0.0
 30
0.0
  3
*D44
  1

  0
LINE
  5
61A
330
617
100
AcDbEntity
  8
LAY-20
  6
CONTINUOUS
 62
     4
100
AcDbLine
 10
1890.2000000001
 20
803.6666666666201
 30
0.0
 11
1890.2000000001
 21
600.66666666663
 31
0.0
  0
LINE
  5
61B
330
617
100
AcDbEntity
  8
LAY-20
  6
CONTINUOUS
 62
     4
100
AcDbLine
 10
297.8000000001
 20
803.6666666666201
 30
0.0
 11
297.8000000001
 21
600.66666666663
 31
0.0
  0
LINE
  5
61C
330
617
100
AcDbEntity
  8
LAY-20
  6
CONTINUOUS
 62
     4
100
AcDbLine
 10
1865.2000000001
 20
615.66666666663
 30
0.0
 11
322.8000000001
 21
615.66666666663
 31
0.0
  0
INSERT
  5
61D
330
617
100
AcDbEntity
  8
LAY-20
 62
     4
100
AcDbBlockReference
  2
EX_BNORM
 10
1890.2000000001
 20
615.66666666663
 30
0.0
 41
25.0
 42
25.0
 43
25.0
  0
INSERT
  5
61E
330
617
100
AcDbEntity
  8
LAY-20
 62
     4
100
AcDbBlockReference
  2
EX_BNORM
 10
297.8000000001
 20
615.66666666663
 30
0.0
 41
25.0
 42
25.0
 43
25.0
 50
180.0
  0
MTEXT
  5
61F
330
617
100
AcDbEntity
  8
LAY-20
 62
     7
100
AcDbMText
 10
1094.0000000001
 20
640.6666666666299
 30
0.0
 40
31.181104
 41
0.0
 71
     5
 72
     1
  1
1592
  7
EXCADDIM1
  0
POINT
  5
620
330
617
100
AcDbEntity
  8
DEFPOINTS
 62
     0
100
AcDbPoint
 10
1890.2000000001
 20
818.6666666666201
 30
0.0
  0
POINT
  5
621
330
617
100
AcDbEntity
  8
DEFPOINTS
 62
     0
100
AcDbPoint
 10
297.8000000001
 20
818.6666666666201
 30
0.0
  0
POINT
  5
622
330
617
100
AcDbEntity
  8
DEFPOINTS
 62
     0
100
AcDbPoint
 10
297.8000000001
 20
615.66666666663
 30
0.0
  0
ENDBLK
  5
619
330
617
100
AcDbEntity
  8
0
100
AcDbBlockEnd
  0
BLOCK
  5
625
330
624
100
AcDbEntity
  8
0
100
AcDbBlockBegin
  2
*D45
 70
     1
 10
0.0
 20
0.0
 30
0.0
  3
*D45
  1

  0
LINE
  5
627
330
624
100
AcDbEntity
  8
LAY-20
  6
CONTINUOUS
 62
     4
100
AcDbLine
 10
2361.4000000001
 20
2356.8666666666
 30
0.0
 11
2614.2000000001
 21
2356.866666666599
 31
0.0
  0
LINE
  5
628
330
624
100
AcDbEntity
  8
LAY-20
  6
CONTINUOUS
 62
     4
100
AcDbLine
 10
2361.4000000001
 20
1290.4666666666
 30
0.0
 11
2614.2000000001
 21
1290.4666666666
 31
0.0
  0
LINE
  5
629
330
624
100
AcDbEntity
  8
LAY-20
  6
CONTINUOUS
 62
     4
100
AcDbLine
 10
2599.2000000001
 20
2331.866666666599
 30
0.0
 11
2599.2000000001
 21
1315.4666666666
 31
0.0
  0
INSERT
  5
62A
330
624
100
AcDbEntity
  8
LAY-20
 62
     4
100
AcDbBlockReference
  2
EX_BNORM
 10
2599.2000000001
 20
2356.866666666599
 30
0.0
 41
25.0
 42
25.0
 43
25.0
 50
90.0
  0
INSERT
  5
62B
330
624
100
AcDbEntity
  8
LAY-20
 62
     4
100
AcDbBlockReference
  2
EX_BNORM
 10
2599.2000000001
 20
1290.4666666666
 30
0.0
 41
25.0
 42
25.0
 43
25.0
 50
270.0
  0
MTEXT
  5
62C
330
624
100
AcDbEntity
  8
LAY-20
 62
     7
100
AcDbMText
 10
2574.2000000001
 20
1823.6666666666
 30
0.0
 40
31.181104
 41
0.0
 71
     5
 72
     1
  1
1066
  7
EXCADDIM1
 11
0.0
 21
1.0
 31
0.0
  0
POINT
  5
62D
330
624
100
AcDbEntity
  8
DEFPOINTS
 62
     0
100
AcDbPoint
 10
2346.4000000001
 20
2356.8666666666
 30
0.0
  0
POINT
  5
62E
330
624
100
AcDbEntity
  8
DEFPOINTS
 62
     0
100
AcDbPoint
 10
2346.4000000001
 20
1290.4666666666
 30
0.0
  0
POINT
  5
62F
330
624
100
AcDbEntity
  8
DEFPOINTS
 62
     0
100
AcDbPoint
 10
2599.2000000001
 20
1290.4666666666
 30
0.0
  0
ENDBLK
  5
626
330
624
100
AcDbEntity
  8
0
100
AcDbBlockEnd
  0
ENDSEC
  0
SECTION
  2
ENTITIES
  0
INSERT
  5
2A5
330
1F
100
AcDbEntity
  8
LAY-10
  6
CONTINUOUS
 62
     0
100
AcDbBlockReference
  2
SYM-1
 10
0.0
 20
0.0
 30
0.0
  0
INSERT
  5
2A6
330
1F
100
AcDbEntity
  8
LAY-10
  6
CONTINUOUS
 62
     0
100
AcDbBlockReference
  2
SYM-2
 10
0.0
 20
0.0
 30
0.0
  0
INSERT
  5
2A7
330
1F
100
AcDbEntity
  8
LAY-10
  6
CONTINUOUS
 62
     0
100
AcDbBlockReference
  2
SYM-3
 10
0.0
 20
0.0
 30
0.0
  0
INSERT
  5
2A8
330
1F
100
AcDbEntity
  8
LAY-10
  6
CONTINUOUS
 62
     0
100
AcDbBlockReference
  2
SYM-4
 10
0.0
 20
0.0
 30
0.0
  0
INSERT
  5
2A9
330
1F
100
AcDbEntity
  8
LAY-10
  6
CONTINUOUS
 62
     0
100
AcDbBlockReference
  2
SYM-5
 10
0.0
 20
0.0
 30
0.0
  0
INSERT
  5
2AA
330
1F
100
AcDbEntity
  8
LAY-10
  6
CONTINUOUS
 62
     0
100
AcDbBlockReference
  2
SYM-6
 10
0.0
 20
0.0
 30
0.0
  0
INSERT
  5
2AB
330
1F
100
AcDbEntity
  8
LAY-10
  6
CONTINUOUS
 62
     0
100
AcDbBlockReference
  2
SYM-7
 10
0.0
 20
0.0
 30
0.0
  0
INSERT
  5
2AC
330
1F
100
AcDbEntity
  8
LAY-10
  6
CONTINUOUS
 62
     0
100
AcDbBlockReference
  2
SYM-8
 10
0.0
 20
0.0
 30
0.0
  0
INSERT
  5
2AD
330
1F
100
AcDbEntity
  8
LAY-10
  6
CONTINUOUS
 62
     0
100
AcDbBlockReference
  2
SYM-9
 10
0.0
 20
0.0
 30
0.0
  0
INSERT
  5
2AE
330
1F
100
AcDbEntity
  8
LAY-10
  6
CONTINUOUS
 62
     0
100
AcDbBlockReference
  2
SYM-10
 10
0.0
 20
0.0
 30
0.0
  0
INSERT
  5
2AF
330
1F
100
AcDbEntity
  8
LAY-10
  6
CONTINUOUS
 62
     0
100
AcDbBlockReference
  2
SYM-11
 10
0.0
 20
0.0
 30
0.0
  0
INSERT
  5
2B0
330
1F
100
AcDbEntity
  8
LAY-10
  6
CONTINUOUS
 62
     0
100
AcDbBlockReference
  2
SYM-12
 10
0.0
 20
0.0
 30
0.0
  0
INSERT
  5
2B1
330
1F
100
AcDbEntity
  8
LAY-10
  6
CONTINUOUS
 62
     0
100
AcDbBlockReference
  2
SYM-13
 10
0.0
 20
0.0
 30
0.0
  0
INSERT
  5
2B2
330
1F
100
AcDbEntity
  8
LAY-10
  6
CONTINUOUS
 62
     0
100
AcDbBlockReference
  2
SYM-14
 10
0.0
 20
0.0
 30
0.0
  0
INSERT
  5
2B3
330
1F
100
AcDbEntity
  8
LAY-10
  6
CONTINUOUS
 62
     0
100
AcDbBlockReference
  2
SYM-15
 10
0.0
 20
0.0
 30
0.0
  0
INSERT
  5
2B4
330
1F
100
AcDbEntity
  8
LAY-10
  6
CONTINUOUS
 62
     0
100
AcDbBlockReference
  2
SYM-16
 10
0.0
 20
0.0
 30
0.0
  0
INSERT
  5
2B5
330
1F
100
AcDbEntity
  8
LAY-10
  6
CONTINUOUS
 62
     0
100
AcDbBlockReference
  2
SYM-17
 10
0.0
 20
0.0
 30
0.0
  0
INSERT
  5
2B6
330
1F
100
AcDbEntity
  8
LAY-10
  6
CONTINUOUS
 62
     0
100
AcDbBlockReference
  2
SYM-18
 10
0.0
 20
0.0
 30
0.0
  0
INSERT
  5
2B7
330
1F
100
AcDbEntity
  8
LAY-10
  6
CONTINUOUS
 62
     0
100
AcDbBlockReference
  2
SYM-19
 10
0.0
 20
0.0
 30
0.0
  0
INSERT
  5
2B8
330
1F
100
AcDbEntity
  8
LAY-10
  6
CONTINUOUS
 62
     0
100
AcDbBlockReference
  2
SYM-20
 10
0.0
 20
0.0
 30
0.0
  0
INSERT
  5
2B9
330
1F
100
AcDbEntity
  8
LAY-10
  6
CONTINUOUS
 62
     0
100
AcDbBlockReference
  2
SYM-21
 10
0.0
 20
0.0
 30
0.0
  0
LINE
  5
2BA
330
1F
100
AcDbEntity
  8
LAY-10
  6
HIDDEN
 62
     7
100
AcDbLine
 10
1009.500000000088
 20
1294.466666666661
 30
0.0
 11
1009.50000000009
 21
1330.575300207701
 31
0.0
  0
LINE
  5
2BB
330
1F
100
AcDbEntity
  8
LAY-10
  6
HIDDEN
 62
     7
100
AcDbLine
 10
962.8000000000893
 20
1330.575300207701
 30
0.0
 11
1020.800000000089
 21
1330.575300207701
 31
0.0
  0
LINE
  5
2BC
330
1F
100
AcDbEntity
  8
LAY-10
  6
HIDDEN
 62
     7
100
AcDbLine
 10
978.500000000091
 20
1294.466666666661
 30
0.0
 11
978.500000000091
 21
1330.46666666666
 31
0.0
  0
LINE
  5
2BD
330
1F
100
AcDbEntity
  8
LAY-10
  6
HIDDEN
 62
     7
100
AcDbLine
 10
978.500000000091
 20
1294.466666666661
 30
0.0
 11
1009.500000000088
 21
1294.466666666661
 31
0.0
  0
LINE
  5
2BE
330
1F
100
AcDbEntity
  8
LAY-10
  6
CONTINUOUS
 62
     7
100
AcDbLine
 10
289.0000000000991
 20
2365.666666666618
 30
0.0
 11
304.0000000000991
 21
2350.666666666618
 31
0.0
  0
LINE
  5
2BF
330
1F
100
AcDbEntity
  8
LAY-10
  6
CONTINUOUS
 62
     7
100
AcDbLine
 10
304.0000000000991
 20
1296.666666666616
 30
0.0
 11
289.0000000000991
 21
1281.666666666616
 31
0.0
  0
LINE
  5
2C0
330
1F
100
AcDbEntity
  8
LAY-10
  6
CONTINUOUS
 62
     7
100
AcDbLine
 10
304.0000000000991
 20
1296.666666666616
 30
0.0
 11
304.0000000000991
 21
2350.666666666618
 31
0.0
  0
LINE
  5
2C1
330
1F
100
AcDbEntity
  8
LAY-10
  6
CONTINUOUS
 62
     7
100
AcDbLine
 10
289.0000000000991
 20
1281.666666666616
 30
0.0
 11
289.0000000000991
 21
2365.666666666618
 31
0.0
  0
LINE
  5
2C2
330
1F
100
AcDbEntity
  8
LAY-10
  6
CONTINUOUS
 62
     7
100
AcDbLine
 10
1884.00000000008
 20
2350.666666666618
 30
0.0
 11
1899.000000000081
 21
2365.666666666618
 31
0.0
  0
LINE
  5
2C3
330
1F
100
AcDbEntity
  8
LAY-10
  6
CONTINUOUS
 62
     7
100
AcDbLine
 10
2396.000000000078
 20
2292.666666666618
 30
0.0
 11
2399.200000000075
 21
2292.666666666618
 31
0.0
  0
LINE
  5
2C4
330
1F
100
AcDbEntity
  8
LAY-10
  6
CONTINUOUS
 62
     7
100
AcDbLine
 10
2396.000000000078
 20
2304.666666666618
 30
0.0
 11
2399.200000000075
 21
2304.666666666618
 31
0.0
  0
LINE
  5
2C5
330
1F
100
AcDbEntity
  8
LAY-10
  6
CONTINUOUS
 62
     7
100
AcDbLine
 10
2387.000000000075
 20
2292.666666666618
 30
0.0
 11
2383.800000000076
 21
2292.666666666618
 31
0.0
  0
LINE
  5
2C6
330
1F
100
AcDbEntity
  8
LAY-10
  6
CONTINUOUS
 62
     7
100
AcDbLine
 10
2387.000000000075
 20
2304.666666666618
 30
0.0
 11
2383.800000000076
 21
2304.666666666618
 31
0.0
  0
LINE
  5
2C7
330
1F
100
AcDbEntity
  8
LAY-10
  6
CONTINUOUS
 62
     7
100
AcDbLine
 10
2396.000000000078
 20
2310.666666666618
 30
0.0
 11
2386.800000000075
 21
2310.666666666618
 31
0.0
  0
LINE
  5
2C8
330
1F
100
AcDbEntity
  8
LAY-10
  6
CONTINUOUS
 62
     7
100
AcDbLine
 10
2396.000000000078
 20
2307.666666666618
 30
0.0
 11
2387.000000000075
 21
2307.666666666618
 31
0.0
  0
ARC
  5
2C9
330
1F
100
AcDbEntity
  8
LAY-10
  6
CONTINUOUS
 62
     7
100
AcDbCircle
 10
2396.200000000077
 20
2313.866666666619
 30
0.0
 40
3.000000000000003
100
AcDbArc
 50
0.0
 51
90.00000000000001
  0
ARC
  5
2CA
330
1F
100
AcDbEntity
  8
LAY-10
  6
CONTINUOUS
 62
     7
100
AcDbCircle
 10
2386.800000000075
 20
2307.666666666618
 30
0.0
 40
3.000000000000003
100
AcDbArc
 50
90.00000000000001
 51
180.0
  0
ARC
  5
2CB
330
1F
100
AcDbEntity
  8
LAY-10
  6
CONTINUOUS
 62
     7
100
AcDbCircle
 10
2346.200000000076
 20
2350.666666666618
 30
0.0
 40
3.000000000000003
100
AcDbArc
 50
0.0
 51
90.00000000000001
  0
ARC
  5
2CC
330
1F
100
AcDbEntity
  8
LAY-10
  6
CONTINUOUS
 62
     7
100
AcDbCircle
 10
2346.400000000074
 20
2350.866666666615
 30
0.0
 40
6.000000000000005
100
AcDbArc
 50
0.0
 51
90.00000000000001
  0
ARC
  5
2CD
330
1F
100
AcDbEntity
  8
LAY-10
  6
CONTINUOUS
 62
     7
100
AcDbCircle
 10
2352.200000000076
 20
2316.666666666618
 30
0.0
 40
3.000000000000003
100
AcDbArc
 50
180.0
 51
270.0000000000002
  0
LINE
  5
2CE
330
1F
100
AcDbEntity
  8
LAY-10
  6
CONTINUOUS
 62
     7
100
AcDbLine
 10
2346.400000000074
 20
2356.866666666615
 30
0.0
 11
2302.000000000078
 21
2356.866666666615
 31
0.0
  0
LINE
  5
2CF
330
1F
100
AcDbEntity
  8
LAY-10
  6
CONTINUOUS
 62
     7
100
AcDbLine
 10
2396.000000000078
 20
2276.666666666618
 30
0.0
 11
2387.000000000075
 21
2276.666666666618
 31
0.0
  0
LINE
  5
2D0
330
1F
100
AcDbEntity
  8
LAY-10
  6
CONTINUOUS
 62
     7
100
AcDbLine
 10
2402.20000000007
 20
2280.666666666527
 30
0.0
 11
2402.20000000007
 21
2288.666666666574
 31
0.0
  0
ARC
  5
2D1
330
1F
100
AcDbEntity
  8
LAY-10
  6
CONTINUOUS
 62
     7
100
AcDbCircle
 10
2406.20000000007
 20
2280.666666666527
 30
0.0
 40
4.0
100
AcDbArc
 50
180.0
 51
270.0000000000002
  0
LINE
  5
2D2
330
1F
100
AcDbEntity
  8
LAY-10
  6
CONTINUOUS
 62
     7
100
AcDbLine
 10
2406.20000000007
 20
2276.666666666527
 30
0.0
 11
2427.200000000069
 21
2276.666666666527
 31
0.0
  0
LINE
  5
2D3
330
1F
100
AcDbEntity
  8
LAY-10
  6
CONTINUOUS
 62
     7
100
AcDbLine
 10
2429.200000000069
 20
2273.666666666527
 30
0.0
 11
2429.200000000069
 21
2274.666666666527
 31
0.0
  0
ARC
  5
2D4
330
1F
100
AcDbEntity
  8
LAY-10
  6
CONTINUOUS
 62
     7
100
AcDbCircle
 10
2427.200000000069
 20
2274.666666666527
 30
0.0
 40
2.0
100
AcDbArc
 50
0.0
 51
90.00000000000001
  0
LINE
  5
2D5
330
1F
100
AcDbEntity
  8
LAY-10
  6
CONTINUOUS
 62
     7
100
AcDbLine
 10
2429.200000000069
 20
2273.666666666618
 30
0.0
 11
2387.000000000075
 21
2273.666666666618
 31
0.0
  0
LINE
  5
2D6
330
1F
100
AcDbEntity
  8
LAY-10
  6
CONTINUOUS
 62
     7
100
AcDbLine
 10
2299.000000000079
 20
2350.666666666618
 30
0.0
 11
2314.000000000079
 21
2350.666666666618
 31
0.0
  0
LINE
  5
2D7
330
1F
100
AcDbEntity
  8
LAY-10
  6
CONTINUOUS
 62
     7
100
AcDbLine
 10
2302.000000000078
 20
2353.666666666616
 30
0.0
 11
2302.000000000078
 21
2365.666666666618
 31
0.0
  0
LINE
  5
2D8
330
1F
100
AcDbEntity
  8
LAY-10
  6
CONTINUOUS
 62
     7
100
AcDbLine
 10
2314.000000000079
 20
2350.666666666618
 30
0.0
 11
2314.000000000079
 21
2353.666666666616
 31
0.0
  0
LINE
  5
2D9
330
1F
100
AcDbEntity
  8
LAY-10
  6
CONTINUOUS
 62
     7
100
AcDbLine
 10
2299.000000000079
 20
2365.666666666618
 30
0.0
 11
2302.000000000078
 21
2365.666666666618
 31
0.0
  0
LINE
  5
2DA
330
1F
100
AcDbEntity
  8
LAY-10
  6
CONTINUOUS
 62
     7
100
AcDbLine
 10
2299.000000000079
 20
2350.666666666618
 30
0.0
 11
2299.000000000079
 21
2365.666666666618
 31
0.0
  0
LINE
  5
2DB
330
1F
100
AcDbEntity
  8
LAY-10
  6
CONTINUOUS
 62
     7
100
AcDbLine
 10
2302.000000000078
 20
2353.666666666616
 30
0.0
 11
2346.200000000076
 21
2353.666666666616
 31
0.0
  0
LINE
  5
2DC
330
1F
100
AcDbEntity
  8
LAY-10
  6
CONTINUOUS
 62
     7
100
AcDbLine
 10
2387.000000000075
 20
2263.666666666616
 30
0.0
 11
2417.000000000075
 21
2263.666666666616
 31
0.0
  0
LINE
  5
2DD
330
1F
100
AcDbEntity
  8
LAY-10
  6
CONTINUOUS
 62
     7
100
AcDbLine
 10
2394.000000000074
 20
2260.666666666618
 30
0.0
 11
2415.000000000075
 21
2260.666666666618
 31
0.0
  0
LINE
  5
2DE
330
1F
100
AcDbEntity
  8
LAY-10
  6
CONTINUOUS
 62
     7
100
AcDbLine
 10
2387.000000000075
 20
2233.666666666618
 30
0.0
 11
2388.000000000075
 21
2233.666666666618
 31
0.0
  0
LINE
  5
2DF
330
1F
100
AcDbEntity
  8
LAY-10
  6
CONTINUOUS
 62
     7
100
AcDbLine
 10
2417.000000000075
 20
2263.666666666616
 30
0.0
 11
2417.000000000075
 21
2262.666666666616
 31
0.0
  0
ARC
  5
2E0
330
1F
100
AcDbEntity
  8
LAY-10
  6
CONTINUOUS
 62
     7
100
AcDbCircle
 10
2415.000000000075
 20
2262.666666666616
 30
0.0
 40
2.0
100
AcDbArc
 50
270.0000000000002
 51
0.0
  0
ARC
  5
2E1
330
1F
100
AcDbEntity
  8
LAY-10
  6
CONTINUOUS
 62
     7
100
AcDbCircle
 10
2388.000000000075
 20
2235.666666666618
 30
0.0
 40
2.0
100
AcDbArc
 50
270.0000000000002
 51
0.0
  0
ARC
  5
2E2
330
1F
100
AcDbEntity
  8
LAY-10
  6
CONTINUOUS
 62
     7
100
AcDbCircle
 10
2394.000000000074
 20
2256.666666666616
 30
0.0
 40
4.0
100
AcDbArc
 50
90.00000000000001
 51
180.0
  0
LINE
  5
2E3
330
1F
100
AcDbEntity
  8
LAY-10
  6
CONTINUOUS
 62
     7
100
AcDbLine
 10
1884.00000000008
 20
1296.666666666616
 30
0.0
 11
1899.000000000081
 21
1281.666666666617
 31
0.0
  0
LINE
  5
2E4
330
1F
100
AcDbEntity
  8
LAY-10
  6
CONTINUOUS
 62
     7
100
AcDbLine
 10
2387.000000000075
 20
1343.666666666616
 30
0.0
 11
2387.000000000075
 21
1339.666666666616
 31
0.0
  0
LINE
  5
2E5
330
1F
100
AcDbEntity
  8
LAY-10
  6
CONTINUOUS
 62
     7
100
AcDbLine
 10
2396.000000000078
 20
1354.666666666616
 30
0.0
 11
2399.200000000075
 21
1354.666666666616
 31
0.0
  0
LINE
  5
2E6
330
1F
100
AcDbEntity
  8
LAY-10
  6
CONTINUOUS
 62
     7
100
AcDbLine
 10
2396.000000000078
 20
1342.666666666616
 30
0.0
 11
2399.200000000075
 21
1342.666666666616
 31
0.0
  0
LINE
  5
2E7
330
1F
100
AcDbEntity
  8
LAY-10
  6
CONTINUOUS
 62
     7
100
AcDbLine
 10
2387.000000000075
 20
1354.666666666616
 30
0.0
 11
2383.800000000076
 21
1354.666666666616
 31
0.0
  0
LINE
  5
2E8
330
1F
100
AcDbEntity
  8
LAY-10
  6
CONTINUOUS
 62
     7
100
AcDbLine
 10
2387.000000000075
 20
1342.666666666616
 30
0.0
 11
2383.800000000076
 21
1342.666666666616
 31
0.0
  0
LINE
  5
2E9
330
1F
100
AcDbEntity
  8
LAY-10
  6
CONTINUOUS
 62
     7
100
AcDbLine
 10
2396.000000000078
 20
1339.666666666616
 30
0.0
 11
2387.000000000075
 21
1339.666666666616
 31
0.0
  0
ARC
  5
2EA
330
1F
100
AcDbEntity
  8
LAY-10
  6
CONTINUOUS
 62
     7
100
AcDbCircle
 10
2386.800000000075
 20
1339.666666666616
 30
0.0
 40
3.000000000000003
100
AcDbArc
 50
180.0
 51
270.0000000000002
  0
LINE
  5
2EB
330
1F
100
AcDbEntity
  8
LAY-10
  6
CONTINUOUS
 62
     7
100
AcDbLine
 10
2346.400000000074
 20
1290.466666666615
 30
0.0
 11
2302.000000000078
 21
1290.466666666615
 31
0.0
  0
LINE
  5
2EC
330
1F
100
AcDbEntity
  8
LAY-10
  6
CONTINUOUS
 62
     7
100
AcDbLine
 10
2396.000000000078
 20
1336.666666666618
 30
0.0
 11
2386.800000000075
 21
1336.666666666618
 31
0.0
  0
ARC
  5
2ED
330
1F
100
AcDbEntity
  8
LAY-10
  6
CONTINUOUS
 62
     7
100
AcDbCircle
 10
2396.200000000077
 20
1333.466666666616
 30
0.0
 40
3.000000000000003
100
AcDbArc
 50
270.0000000000002
 51
0.0
  0
ARC
  5
2EE
330
1F
100
AcDbEntity
  8
LAY-10
  6
CONTINUOUS
 62
     7
100
AcDbCircle
 10
2346.200000000076
 20
1296.666666666616
 30
0.0
 40
3.000000000000003
100
AcDbArc
 50
270.0000000000002
 51
0.0
  0
ARC
  5
2EF
330
1F
100
AcDbEntity
  8
LAY-10
  6
CONTINUOUS
 62
     7
100
AcDbCircle
 10
2346.400000000074
 20
1296.466666666617
 30
0.0
 40
6.000000000000005
100
AcDbArc
 50
270.0000000000002
 51
0.0
  0
ARC
  5
2F0
330
1F
100
AcDbEntity
  8
LAY-10
  6
CONTINUOUS
 62
     7
100
AcDbCircle
 10
2352.200000000076
 20
1330.666666666614
 30
0.0
 40
3.000000000000003
100
AcDbArc
 50
90.00000000000001
 51
180.0
  0
LINE
  5
2F1
330
1F
100
AcDbEntity
  8
LAY-10
  6
CONTINUOUS
 62
     7
100
AcDbLine
 10
2396.000000000078
 20
1370.666666666616
 30
0.0
 11
2387.000000000075
 21
1370.666666666616
 31
0.0
  0
LINE
  5
2F2
330
1F
100
AcDbEntity
  8
LAY-10
  6
CONTINUOUS
 62
     7
100
AcDbLine
 10
2402.20000000007
 20
1366.666666666708
 30
0.0
 11
2402.20000000007
 21
1358.666666666659
 31
0.0
  0
ARC
  5
2F3
330
1F
100
AcDbEntity
  8
LAY-10
  6
CONTINUOUS
 62
     7
100
AcDbCircle
 10
2406.20000000007
 20
1366.666666666708
 30
0.0
 40
4.0
100
AcDbArc
 50
90.00000000000001
 51
180.0
  0
LINE
  5
2F4
330
1F
100
AcDbEntity
  8
LAY-10
  6
CONTINUOUS
 62
     7
100
AcDbLine
 10
2352.400000000076
 20
1330.466666666617
 30
0.0
 11
2396.200000000077
 21
1330.466666666617
 31
0.0
  0
LINE
  5
2F5
330
1F
100
AcDbEntity
  8
LAY-10
  6
CONTINUOUS
 62
     7
100
AcDbLine
 10
2352.200000000076
 20
1333.666666666616
 30
0.0
 11
2396.000000000078
 21
1333.666666666616
 31
0.0
  0
LINE
  5
2F6
330
1F
100
AcDbEntity
  8
LAY-10
  6
CONTINUOUS
 62
     7
100
AcDbLine
 10
2396.000000000078
 20
1353.666666666616
 30
0.0
 11
2396.000000000078
 21
1383.666666666616
 31
0.0
  0
LINE
  5
2F7
330
1F
100
AcDbEntity
  8
LAY-10
  6
CONTINUOUS
 62
     7
100
AcDbLine
 10
2396.000000000078
 20
1343.666666666616
 30
0.0
 11
2396.000000000078
 21
1333.666666666616
 31
0.0
  0
LINE
  5
2F8
330
1F
100
AcDbEntity
  8
LAY-10
  6
CONTINUOUS
 62
     7
100
AcDbLine
 10
2302.000000000078
 20
1293.666666666616
 30
0.0
 11
2346.200000000076
 21
1293.666666666616
 31
0.0
  0
LINE
  5
2F9
330
1F
100
AcDbEntity
  8
LAY-10
  6
CONTINUOUS
 62
     7
100
AcDbLine
 10
2406.20000000007
 20
1370.666666666707
 30
0.0
 11
2427.200000000068
 21
1370.666666666707
 31
0.0
  0
LINE
  5
2FA
330
1F
100
AcDbEntity
  8
LAY-10
  6
CONTINUOUS
 62
     7
100
AcDbLine
 10
2429.200000000068
 20
1373.666666666708
 30
0.0
 11
2429.200000000068
 21
1372.666666666708
 31
0.0
  0
ARC
  5
2FB
330
1F
100
AcDbEntity
  8
LAY-10
  6
CONTINUOUS
 62
     7
100
AcDbCircle
 10
2427.200000000068
 20
1372.666666666708
 30
0.0
 40
2.0
100
AcDbArc
 50
270.0000000000002
 51
0.0
  0
LINE
  5
2FC
330
1F
100
AcDbEntity
  8
LAY-10
  6
CONTINUOUS
 62
     7
100
AcDbLine
 10
2429.200000000068
 20
1373.666666666616
 30
0.0
 11
2387.000000000075
 21
1373.666666666616
 31
0.0
  0
LINE
  5
2FD
330
1F
100
AcDbEntity
  8
LAY-10
  6
CONTINUOUS
 62
     7
100
AcDbLine
 10
2299.000000000079
 20
1296.666666666616
 30
0.0
 11
2314.000000000079
 21
1296.666666666616
 31
0.0
  0
LINE
  5
2FE
330
1F
100
AcDbEntity
  8
LAY-10
  6
CONTINUOUS
 62
     7
100
AcDbLine
 10
2299.000000000079
 20
1296.666666666616
 30
0.0
 11
2299.000000000079
 21
1281.666666666616
 31
0.0
  0
LINE
  5
2FF
330
1F
100
AcDbEntity
  8
LAY-10
  6
CONTINUOUS
 62
     7
100
AcDbLine
 10
2302.000000000078
 20
1293.666666666616
 30
0.0
 11
2302.000000000078
 21
1281.666666666616
 31
0.0
  0
LINE
  5
300
330
1F
100
AcDbEntity
  8
LAY-10
  6
CONTINUOUS
 62
     7
100
AcDbLine
 10
2314.000000000079
 20
1296.666666666616
 30
0.0
 11
2314.000000000079
 21
1293.666666666616
 31
0.0
  0
LINE
  5
301
330
1F
100
AcDbEntity
  8
LAY-10
  6
CONTINUOUS
 62
     7
100
AcDbLine
 10
2299.000000000079
 20
1281.666666666616
 30
0.0
 11
2302.000000000078
 21
1281.666666666616
 31
0.0
  0
LINE
  5
302
330
1F
100
AcDbEntity
  8
LAY-10
  6
CONTINUOUS
 62
     7
100
AcDbLine
 10
2387.000000000075
 20
1383.666666666616
 30
0.0
 11
2417.000000000075
 21
1383.666666666616
 31
0.0
  0
LINE
  5
303
330
1F
100
AcDbEntity
  8
LAY-10
  6
CONTINUOUS
 62
     7
100
AcDbLine
 10
2394.000000000074
 20
1386.666666666616
 30
0.0
 11
2415.000000000075
 21
1386.666666666616
 31
0.0
  0
LINE
  5
304
330
1F
100
AcDbEntity
  8
LAY-10
  6
CONTINUOUS
 62
     7
100
AcDbLine
 10
2417.000000000075
 20
1383.666666666616
 30
0.0
 11
2417.000000000075
 21
1384.666666666616
 31
0.0
  0
ARC
  5
305
330
1F
100
AcDbEntity
  8
LAY-10
  6
CONTINUOUS
 62
     7
100
AcDbCircle
 10
2415.000000000075
 20
1384.666666666616
 30
0.0
 40
2.0
100
AcDbArc
 50
0.0
 51
90.00000000000001
  0
ARC
  5
306
330
1F
100
AcDbEntity
  8
LAY-10
  6
CONTINUOUS
 62
     7
100
AcDbCircle
 10
2394.000000000074
 20
1390.666666666617
 30
0.0
 40
4.0
100
AcDbArc
 50
180.0
 51
270.0000000000002
  0
LINE
  5
307
330
1F
100
AcDbEntity
  8
LAY-10
  6
CONTINUOUS
 62
     7
100
AcDbLine
 10
2352.400000000073
 20
1296.466666666667
 30
0.0
 11
2352.400000000076
 21
1330.466666666615
 31
0.0
  0
LINE
  5
308
330
1F
100
AcDbEntity
  8
LAY-10
  6
CONTINUOUS
 62
     7
100
AcDbLine
 10
2417.000000000075
 20
1384.666666666616
 30
0.0
 11
2417.000000000075
 21
2262.666666666616
 31
0.0
  0
LINE
  5
309
330
1F
100
AcDbEntity
  8
LAY-10
  6
CONTINUOUS
 62
     7
100
AcDbLine
 10
1884.00000000008
 20
2350.666666666618
 30
0.0
 11
1884.00000000008
 21
1296.666666666615
 31
0.0
  0
LINE
  5
30A
330
1F
100
AcDbEntity
  8
LAY-10
  6
CONTINUOUS
 62
     7
100
AcDbLine
 10
1899.000000000081
 20
1281.666666666616
 30
0.0
 11
1899.000000000081
 21
2365.666666666618
 31
0.0
  0
LINE
  5
30B
330
1F
100
AcDbEntity
  8
LAY-10
  6
CONTINUOUS
 62
     7
100
AcDbLine
 10
2390.000000000074
 20
1390.666666666617
 30
0.0
 11
2390.000000000074
 21
2256.666666666616
 31
0.0
  0
LINE
  5
30C
330
1F
100
AcDbEntity
  8
LAY-10
  6
CONTINUOUS
 62
     7
100
AcDbLine
 10
289.0000000000991
 20
2365.666666666618
 30
0.0
 11
1899.000000000081
 21
2365.666666666618
 31
0.0
  0
LINE
  5
30D
330
1F
100
AcDbEntity
  8
LAY-10
  6
CONTINUOUS
 62
     7
100
AcDbLine
 10
1884.00000000008
 20
2350.666666666618
 30
0.0
 11
304.0000000000991
 21
2350.666666666618
 31
0.0
  0
LINE
  5
30E
330
1F
100
AcDbEntity
  8
LAY-10
  6
CONTINUOUS
 62
     7
100
AcDbLine
 10
1884.00000000008
 20
1296.666666666615
 30
0.0
 11
304.0000000000991
 21
1296.666666666616
 31
0.0
  0
LINE
  5
30F
330
1F
100
AcDbEntity
  8
LAY-10
  6
CONTINUOUS
 62
     7
100
AcDbLine
 10
289.0000000000991
 20
1281.666666666616
 30
0.0
 11
1899.000000000081
 21
1281.666666666615
 31
0.0
  0
LINE
  5
310
330
1F
100
AcDbEntity
  8
LAY-10
  6
CONTINUOUS
 62
     7
100
AcDbLine
 10
2390.09848480991
 20
2394.565151476451
 30
0.0
 11
2354.743145750584
 21
2359.209812417125
 31
0.0
  0
LINE
  5
311
330
1F
100
AcDbEntity
  8
LAY-10
  6
CONTINUOUS
 62
     7
100
AcDbLine
 10
2390.09848480991
 20
2394.565151476451
 30
0.0
 11
2395.755339059402
 21
2388.908297226958
 31
0.0
  0
LINE
  5
312
330
1F
100
AcDbEntity
  8
LAY-10
  6
CONTINUOUS
 62
     7
100
AcDbLine
 10
2395.755339059402
 20
2388.908297226958
 30
0.0
 11
2360.400000000077
 21
2353.552958167632
 31
0.0
  0
LINE
  5
313
330
1F
100
AcDbEntity
  8
LAY-10
  6
CONTINUOUS
 62
     7
100
AcDbLine
 10
2360.400000000077
 20
2353.552958167632
 30
0.0
 11
2360.400000000077
 21
2323.552958167634
 31
0.0
  0
LINE
  5
314
330
1F
100
AcDbEntity
  8
LAY-10
  6
CONTINUOUS
 62
     7
100
AcDbLine
 10
2360.400000000077
 20
2323.552958167634
 30
0.0
 11
2352.400000000076
 21
2323.552958167634
 31
0.0
  0
ARC
  5
315
330
1F
100
AcDbEntity
  8
LAY-10
  6
CONTINUOUS
 62
     7
100
AcDbCircle
 10
2360.400000000073
 20
2353.552958167632
 30
0.0
 40
8.0
100
AcDbArc
 50
134.9999999999862
 51
180.0
  0
LINE
  5
316
330
1F
100
AcDbEntity
  8
LAY-10
  6
CONTINUOUS
 62
     7
100
AcDbLine
 10
2390.098484809911
 20
1252.76818185678
 30
0.0
 11
2354.743145750584
 21
1288.123520916109
 31
0.0
  0
ARC
  5
317
330
1F
100
AcDbEntity
  8
LAY-10
  6
CONTINUOUS
 62
     7
100
AcDbCircle
 10
2360.400000000077
 20
1293.7803751656
 30
0.0
 40
8.0
100
AcDbArc
 50
180.0
 51
224.9999999999919
  0
LINE
  5
318
330
1F
100
AcDbEntity
  8
LAY-10
  6
CONTINUOUS
 62
     7
100
AcDbLine
 10
2395.755339059402
 20
1258.425036106274
 30
0.0
 11
2360.400000000077
 21
1293.7803751656
 31
0.0
  0
LINE
  5
319
330
1F
100
AcDbEntity
  8
LAY-10
  6
CONTINUOUS
 62
     7
100
AcDbLine
 10
2360.400000000077
 20
1293.7803751656
 30
0.0
 11
2360.400000000077
 21
1323.7803751656
 31
0.0
  0
LINE
  5
31A
330
1F
100
AcDbEntity
  8
LAY-10
  6
CONTINUOUS
 62
     7
100
AcDbLine
 10
2390.098484809911
 20
1252.76818185678
 30
0.0
 11
2395.755339059402
 21
1258.425036106274
 31
0.0
  0
LINE
  5
31B
330
1F
100
AcDbEntity
  8
LAY-10
  6
CONTINUOUS
 62
     7
100
AcDbLine
 10
2360.400000000077
 20
1323.7803751656
 30
0.0
 11
2352.400000000076
 21
1323.7803751656
 31
0.0
  0
LINE
  5
31C
330
1F
100
AcDbEntity
  8
LAY-10
  6
CONTINUOUS
 62
     7
100
AcDbLine
 10
2352.400000000076
 20
1293.7803751656
 30
0.0
 11
2352.400000000073
 21
1296.466666666667
 31
0.0
  0
LINE
  5
31D
330
1F
100
AcDbEntity
  8
LAY-10
  6
CONTINUOUS
 62
     7
100
AcDbLine
 10
2362.060000000074
 20
2316.866666666615
 30
0.0
 11
2364.400000000076
 21
2319.146666666617
 31
0.0
  0
LINE
  5
31E
330
1F
100
AcDbEntity
  8
LAY-10
  6
CONTINUOUS
 62
     7
100
AcDbLine
 10
2364.319629784474
 20
2319.068357225778
 30
0.0
 11
2364.40000000008
 21
2318.987987010177
 31
0.0
  0
LINE
  5
31F
330
1F
100
AcDbEntity
  8
LAY-10
  6
CONTINUOUS
 62
     7
100
AcDbLine
 10
2363.961484791409
 20
2318.719395437657
 30
0.0
 11
2364.40000000007
 21
2318.280880228992
 31
0.0
  0
LINE
  5
320
330
1F
100
AcDbEntity
  8
LAY-10
  6
CONTINUOUS
 62
     7
100
AcDbLine
 10
2363.603339798334
 20
2318.370433649544
 30
0.0
 11
2364.40000000008
 21
2317.5737734478
 31
0.0
  0
LINE
  5
321
330
1F
100
AcDbEntity
  8
LAY-10
  6
CONTINUOUS
 62
     7
100
AcDbLine
 10
2363.24519480527
 20
2318.021471861423
 30
0.0
 11
2364.400000000084
 21
2316.866666666608
 31
0.0
  0
LINE
  5
322
330
1F
100
AcDbEntity
  8
LAY-10
  6
CONTINUOUS
 62
     7
100
AcDbLine
 10
2362.887049812204
 20
2317.672510073301
 30
0.0
 11
2363.692893218892
 21
2316.866666666615
 31
0.0
  0
LINE
  5
323
330
1F
100
AcDbEntity
  8
LAY-10
  6
CONTINUOUS
 62
     7
100
AcDbLine
 10
2362.528904819129
 20
2317.32354828519
 30
0.0
 11
2362.9857864377
 21
2316.866666666622
 31
0.0
  0
LINE
  5
324
330
1F
100
AcDbEntity
  8
LAY-10
  6
CONTINUOUS
 62
     7
100
AcDbLine
 10
2362.170759826064
 20
2316.974586497069
 30
0.0
 11
2362.278679656516
 21
2316.866666666615
 31
0.0
  0
LINE
  5
325
330
1F
100
AcDbEntity
  8
LAY-10
  6
CONTINUOUS
 62
     7
100
AcDbLine
 10
2395.400000000078
 20
2319.266666666616
 30
0.0
 11
2398.04892478505
 21
2316.229181669639
 31
0.0
  0
LINE
  5
326
330
1F
100
AcDbEntity
  8
LAY-10
  6
CONTINUOUS
 62
     7
100
AcDbLine
 10
2395.400000000066
 20
2318.987987010169
 30
0.0
 11
2395.529818545933
 21
2319.117805556035
 31
0.0
  0
LINE
  5
327
330
1F
100
AcDbEntity
  8
LAY-10
  6
CONTINUOUS
 62
     7
100
AcDbLine
 10
2395.400000000071
 20
2318.280880228985
 30
0.0
 11
2395.8592131464
 21
2318.740093375313
 31
0.0
  0
LINE
  5
328
330
1F
100
AcDbEntity
  8
LAY-10
  6
CONTINUOUS
 62
     7
100
AcDbLine
 10
2395.400000000065
 20
2317.573773447793
 30
0.0
 11
2396.188607746886
 21
2318.362381194615
 31
0.0
  0
LINE
  5
329
330
1F
100
AcDbEntity
  8
LAY-10
  6
CONTINUOUS
 62
     7
100
AcDbLine
 10
2395.400000000081
 20
2316.866666666622
 30
0.0
 11
2396.518002347373
 21
2317.984669013916
 31
0.0
  0
LINE
  5
32A
330
1F
100
AcDbEntity
  8
LAY-10
  6
CONTINUOUS
 62
     7
100
AcDbLine
 10
2396.107106781263
 20
2316.866666666619
 30
0.0
 11
2396.847396947863
 21
2317.606956833218
 31
0.0
  0
LINE
  5
32B
330
1F
100
AcDbEntity
  8
LAY-10
  6
CONTINUOUS
 62
     7
100
AcDbLine
 10
2396.761246390448
 20
2316.813699494615
 30
0.0
 11
2397.176791548341
 21
2317.229244652507
 31
0.0
  0
LINE
  5
32C
330
1F
100
AcDbEntity
  8
LAY-10
  6
CONTINUOUS
 62
     7
100
AcDbLine
 10
2397.308866693957
 20
2316.654213016941
 30
0.0
 11
2397.506186148828
 21
2316.851532471807
 31
0.0
  0
LINE
  5
32D
330
1F
100
AcDbEntity
  8
LAY-10
  6
CONTINUOUS
 62
     7
100
AcDbLine
 10
2397.779161875853
 20
2316.417401417645
 30
0.0
 11
2397.835580749317
 21
2316.473820291109
 31
0.0
  0
LINE
  5
32E
330
1F
100
AcDbEntity
  8
LAY-10
  6
CONTINUOUS
 62
     7
100
AcDbLine
 10
2395.400000000078
 20
2352.866666666619
 30
0.0
 11
2395.400000000078
 21
2316.866666666615
 31
0.0
  0
LINE
  5
32F
330
1F
100
AcDbEntity
  8
LAY-10
  6
CONTINUOUS
 62
     7
100
AcDbLine
 10
2364.400000000076
 20
2352.866666666619
 30
0.0
 11
2364.400000000076
 21
2316.866666666615
 31
0.0
  0
LINE
  5
330
330
1F
100
AcDbEntity
  8
LAY-10
  6
CONTINUOUS
 62
     7
100
AcDbLine
 10
2364.400000000076
 20
2352.866666666619
 30
0.0
 11
2395.400000000078
 21
2352.866666666619
 31
0.0
  0
LINE
  5
331
330
1F
100
AcDbEntity
  8
LAY-10
  6
CONTINUOUS
 62
     7
100
AcDbLine
 10
2364.400000000076
 20
1294.466666666617
 30
0.0
 11
2364.400000000076
 21
1330.466666666615
 31
0.0
  0
LINE
  5
332
330
1F
100
AcDbEntity
  8
LAY-10
  6
CONTINUOUS
 62
     7
100
AcDbLine
 10
2395.400000000078
 20
1294.466666666617
 30
0.0
 11
2395.400000000078
 21
1330.466666666617
 31
0.0
  0
LINE
  5
333
330
1F
100
AcDbEntity
  8
LAY-10
  6
CONTINUOUS
 62
     7
100
AcDbLine
 10
2364.400000000076
 20
1294.466666666617
 30
0.0
 11
2395.400000000078
 21
1294.466666666617
 31
0.0
  0
LINE
  5
334
330
1F
100
AcDbEntity
  8
LAY-10
  6
CONTINUOUS
 62
     7
100
AcDbLine
 10
2395.400000000078
 20
1328.066666666615
 30
0.0
 11
2398.04892478505
 21
1331.104151663593
 31
0.0
  0
LINE
  5
335
330
1F
100
AcDbEntity
  8
LAY-10
  6
CONTINUOUS
 62
     7
100
AcDbLine
 10
2397.779161875853
 20
1330.915931915589
 30
0.0
 11
2397.835580749324
 21
1330.859513042114
 31
0.0
  0
LINE
  5
336
330
1F
100
AcDbEntity
  8
LAY-10
  6
CONTINUOUS
 62
     7
100
AcDbLine
 10
2397.308866693957
 20
1330.679120316294
 30
0.0
 11
2397.506186148838
 21
1330.481800861416
 31
0.0
  0
LINE
  5
337
330
1F
100
AcDbEntity
  8
LAY-10
  6
CONTINUOUS
 62
     7
100
AcDbLine
 10
2396.761246390448
 20
1330.519633838619
 30
0.0
 11
2397.17679154835
 21
1330.104088680717
 31
0.0
  0
LINE
  5
338
330
1F
100
AcDbEntity
  8
LAY-10
  6
CONTINUOUS
 62
     7
100
AcDbLine
 10
2396.107106781273
 20
1330.466666666606
 30
0.0
 11
2396.847396947862
 21
1329.726376500019
 31
0.0
  0
LINE
  5
339
330
1F
100
AcDbEntity
  8
LAY-10
  6
CONTINUOUS
 62
     7
100
AcDbLine
 10
2395.400000000081
 20
1330.466666666613
 30
0.0
 11
2396.518002347385
 21
1329.348664319309
 31
0.0
  0
LINE
  5
33A
330
1F
100
AcDbEntity
  8
LAY-10
  6
CONTINUOUS
 62
     7
100
AcDbLine
 10
2395.400000000086
 20
1329.759559885421
 30
0.0
 11
2396.188607746901
 21
1328.970952138609
 31
0.0
  0
LINE
  5
33B
330
1F
100
AcDbEntity
  8
LAY-10
  6
CONTINUOUS
 62
     7
100
AcDbLine
 10
2395.400000000093
 20
1329.052453104227
 30
0.0
 11
2395.859213146411
 21
1328.593239957911
 31
0.0
  0
LINE
  5
33C
330
1F
100
AcDbEntity
  8
LAY-10
  6
CONTINUOUS
 62
     7
100
AcDbLine
 10
2395.400000000078
 20
1328.345346323056
 30
0.0
 11
2395.529818545925
 21
1328.215527777212
 31
0.0
  0
LINE
  5
33D
330
1F
100
AcDbEntity
  8
LAY-10
  6
CONTINUOUS
 62
     7
100
AcDbLine
 10
2362.060000000074
 20
1330.466666666615
 30
0.0
 11
2364.400000000076
 21
1328.186666666616
 31
0.0
  0
LINE
  5
33E
330
1F
100
AcDbEntity
  8
LAY-10
  6
CONTINUOUS
 62
     7
100
AcDbLine
 10
2362.170759826078
 20
1330.358746836179
 30
0.0
 11
2362.278679656516
 21
1330.466666666619
 31
0.0
  0
LINE
  5
33F
330
1F
100
AcDbEntity
  8
LAY-10
  6
CONTINUOUS
 62
     7
100
AcDbLine
 10
2362.528904819142
 20
1330.009785048057
 30
0.0
 11
2362.9857864377
 21
1330.466666666615
 31
0.0
  0
LINE
  5
340
330
1F
100
AcDbEntity
  8
LAY-10
  6
CONTINUOUS
 62
     7
100
AcDbLine
 10
2362.887049812205
 20
1329.660823259936
 30
0.0
 11
2363.692893218881
 21
1330.46666666661
 31
0.0
  0
LINE
  5
341
330
1F
100
AcDbEntity
  8
LAY-10
  6
CONTINUOUS
 62
     7
100
AcDbLine
 10
2363.245194805281
 20
1329.311861471825
 30
0.0
 11
2364.400000000073
 21
1330.466666666615
 31
0.0
  0
LINE
  5
342
330
1F
100
AcDbEntity
  8
LAY-10
  6
CONTINUOUS
 62
     7
100
AcDbLine
 10
2363.603339798348
 20
1328.962899683701
 30
0.0
 11
2364.400000000057
 21
1329.759559885411
 31
0.0
  0
LINE
  5
343
330
1F
100
AcDbEntity
  8
LAY-10
  6
CONTINUOUS
 62
     7
100
AcDbLine
 10
2363.96148479141
 20
1328.613937895578
 30
0.0
 11
2364.400000000073
 21
1329.052453104242
 31
0.0
  0
LINE
  5
344
330
1F
100
AcDbEntity
  8
LAY-10
  6
CONTINUOUS
 62
     7
100
AcDbLine
 10
2364.319629784485
 20
1328.264976107469
 30
0.0
 11
2364.400000000065
 21
1328.345346323048
 31
0.0
  0
LINE
  5
345
330
1F
100
AcDbEntity
  8
LAY-10
  6
CONTINUOUS
 62
     7
100
AcDbLine
 10
2349.200000000076
 20
2316.666666666618
 30
0.0
 11
2347.200000000081
 21
2316.666666666618
 31
0.0
  0
LINE
  5
346
330
1F
100
AcDbEntity
  8
LAY-10
  6
CONTINUOUS
 62
     7
100
AcDbLine
 10
2349.200000000076
 20
2341.666666666618
 30
0.0
 11
2347.200000000081
 21
2341.666666666618
 31
0.0
  0
LINE
  5
347
330
1F
100
AcDbEntity
  8
LAY-10
  6
CONTINUOUS
 62
     7
100
AcDbLine
 10
2347.200000000096
 20
2340.252453104241
 30
0.0
 11
2348.614213562487
 21
2341.666666666632
 31
0.0
  0
LINE
  5
348
330
1F
100
AcDbEntity
  8
LAY-10
  6
CONTINUOUS
 62
     7
100
AcDbLine
 10
2347.200000000106
 20
2338.838239541878
 30
0.0
 11
2349.200000000083
 21
2340.838239541855
 31
0.0
  0
LINE
  5
349
330
1F
100
AcDbEntity
  8
LAY-10
  6
CONTINUOUS
 62
     7
100
AcDbLine
 10
2347.200000000097
 20
2337.424025979494
 30
0.0
 11
2349.200000000074
 21
2339.424025979472
 31
0.0
  0
LINE
  5
34A
330
1F
100
AcDbEntity
  8
LAY-10
  6
CONTINUOUS
 62
     7
100
AcDbLine
 10
2347.200000000108
 20
2336.009812417132
 30
0.0
 11
2349.200000000083
 21
2338.00981241711
 31
0.0
  0
LINE
  5
34B
330
1F
100
AcDbEntity
  8
LAY-10
  6
CONTINUOUS
 62
     7
100
AcDbLine
 10
2347.200000000098
 20
2334.595598854751
 30
0.0
 11
2349.200000000076
 21
2336.595598854726
 31
0.0
  0
LINE
  5
34C
330
1F
100
AcDbEntity
  8
LAY-10
  6
CONTINUOUS
 62
     7
100
AcDbLine
 10
2347.200000000109
 20
2333.181385292389
 30
0.0
 11
2349.200000000085
 21
2335.181385292365
 31
0.0
  0
LINE
  5
34D
330
1F
100
AcDbEntity
  8
LAY-10
  6
CONTINUOUS
 62
     7
100
AcDbLine
 10
2347.200000000099
 20
2331.767171730005
 30
0.0
 11
2349.200000000078
 21
2333.767171729983
 31
0.0
  0
LINE
  5
34E
330
1F
100
AcDbEntity
  8
LAY-10
  6
CONTINUOUS
 62
     7
100
AcDbLine
 10
2347.20000000011
 20
2330.352958167642
 30
0.0
 11
2349.200000000086
 21
2332.35295816762
 31
0.0
  0
LINE
  5
34F
330
1F
100
AcDbEntity
  8
LAY-10
  6
CONTINUOUS
 62
     7
100
AcDbLine
 10
2347.200000000101
 20
2328.93874460526
 30
0.0
 11
2349.200000000079
 21
2330.938744605238
 31
0.0
  0
LINE
  5
350
330
1F
100
AcDbEntity
  8
LAY-10
  6
CONTINUOUS
 62
     7
100
AcDbLine
 10
2347.200000000112
 20
2327.524531042899
 30
0.0
 11
2349.200000000088
 21
2329.524531042874
 31
0.0
  0
LINE
  5
351
330
1F
100
AcDbEntity
  8
LAY-10
  6
CONTINUOUS
 62
     7
100
AcDbLine
 10
2347.200000000103
 20
2326.110317480515
 30
0.0
 11
2349.200000000081
 21
2328.110317480493
 31
0.0
  0
LINE
  5
352
330
1F
100
AcDbEntity
  8
LAY-10
  6
CONTINUOUS
 62
     7
100
AcDbLine
 10
2347.200000000112
 20
2324.696103918152
 30
0.0
 11
2349.20000000007
 21
2326.696103918111
 31
0.0
  0
LINE
  5
353
330
1F
100
AcDbEntity
  8
LAY-10
  6
CONTINUOUS
 62
     7
100
AcDbLine
 10
2347.200000000104
 20
2323.28189035577
 30
0.0
 11
2349.200000000082
 21
2325.281890355748
 31
0.0
  0
LINE
  5
354
330
1F
100
AcDbEntity
  8
LAY-10
  6
CONTINUOUS
 62
     7
100
AcDbLine
 10
2347.200000000095
 20
2321.867676793388
 30
0.0
 11
2349.200000000072
 21
2323.867676793366
 31
0.0
  0
LINE
  5
355
330
1F
100
AcDbEntity
  8
LAY-10
  6
CONTINUOUS
 62
     7
100
AcDbLine
 10
2347.200000000106
 20
2320.453463231025
 30
0.0
 11
2349.200000000083
 21
2322.453463231003
 31
0.0
  0
LINE
  5
356
330
1F
100
AcDbEntity
  8
LAY-10
  6
CONTINUOUS
 62
     7
100
AcDbLine
 10
2347.200000000096
 20
2319.039249668645
 30
0.0
 11
2349.200000000073
 21
2321.039249668619
 31
0.0
  0
LINE
  5
357
330
1F
100
AcDbEntity
  8
LAY-10
  6
CONTINUOUS
 62
     7
100
AcDbLine
 10
2347.200000000107
 20
2317.625036106282
 30
0.0
 11
2349.200000000083
 21
2319.625036106257
 31
0.0
  0
LINE
  5
358
330
1F
100
AcDbEntity
  8
LAY-10
  6
CONTINUOUS
 62
     7
100
AcDbLine
 10
2347.655844122824
 20
2316.666666666625
 30
0.0
 11
2349.200000000074
 21
2318.210822543876
 31
0.0
  0
LINE
  5
359
330
1F
100
AcDbEntity
  8
LAY-10
  6
CONTINUOUS
 62
     7
100
AcDbLine
 10
2349.070057685188
 20
2316.666666666614
 30
0.0
 11
2349.200000000084
 21
2316.796608981514
 31
0.0
  0
LINE
  5
35A
330
1F
100
AcDbEntity
  8
LAY-10
  6
CONTINUOUS
 62
     7
100
AcDbLine
 10
2349.200000000076
 20
1330.666666666614
 30
0.0
 11
2347.200000000099
 21
1330.666666666614
 31
0.0
  0
LINE
  5
35B
330
1F
100
AcDbEntity
  8
LAY-10
  6
CONTINUOUS
 62
     7
100
AcDbLine
 10
2349.200000000076
 20
1305.666666666616
 30
0.0
 11
2347.200000000083
 21
1305.666666666616
 31
0.0
  0
LINE
  5
35C
330
1F
100
AcDbEntity
  8
LAY-10
  6
CONTINUOUS
 62
     7
100
AcDbLine
 10
2347.200000000099
 20
1329.70829722696
 30
0.0
 11
2348.158369439763
 21
1330.666666666624
 31
0.0
  0
LINE
  5
35D
330
1F
100
AcDbEntity
  8
LAY-10
  6
CONTINUOUS
 62
     7
100
AcDbLine
 10
2347.200000000111
 20
1328.294083664598
 30
0.0
 11
2349.200000000087
 21
1330.294083664575
 31
0.0
  0
LINE
  5
35E
330
1F
100
AcDbEntity
  8
LAY-10
  6
CONTINUOUS
 62
     7
100
AcDbLine
 10
2347.200000000101
 20
1326.879870102216
 30
0.0
 11
2349.200000000079
 21
1328.879870102192
 31
0.0
  0
LINE
  5
35F
330
1F
100
AcDbEntity
  8
LAY-10
  6
CONTINUOUS
 62
     7
100
AcDbLine
 10
2347.200000000111
 20
1325.465656539853
 30
0.0
 11
2349.200000000088
 21
1327.46565653983
 31
0.0
  0
LINE
  5
360
330
1F
100
AcDbEntity
  8
LAY-10
  6
CONTINUOUS
 62
     7
100
AcDbLine
 10
2347.200000000102
 20
1324.051442977471
 30
0.0
 11
2349.200000000081
 21
1326.051442977447
 31
0.0
  0
LINE
  5
361
330
1F
100
AcDbEntity
  8
LAY-10
  6
CONTINUOUS
 62
     7
100
AcDbLine
 10
2347.200000000112
 20
1322.637229415108
 30
0.0
 11
2349.20000000009
 21
1324.637229415085
 31
0.0
  0
LINE
  5
362
330
1F
100
AcDbEntity
  8
LAY-10
  6
CONTINUOUS
 62
     7
100
AcDbLine
 10
2347.200000000104
 20
1321.223015852725
 30
0.0
 11
2349.200000000081
 21
1323.223015852702
 31
0.0
  0
LINE
  5
363
330
1F
100
AcDbEntity
  8
LAY-10
  6
CONTINUOUS
 62
     7
100
AcDbLine
 10
2347.200000000095
 20
1319.808802290343
 30
0.0
 11
2349.200000000071
 21
1321.808802290322
 31
0.0
  0
LINE
  5
364
330
1F
100
AcDbEntity
  8
LAY-10
  6
CONTINUOUS
 62
     7
100
AcDbLine
 10
2347.200000000106
 20
1318.394588727981
 30
0.0
 11
2349.200000000082
 21
1320.394588727957
 31
0.0
  0
LINE
  5
365
330
1F
100
AcDbEntity
  8
LAY-10
  6
CONTINUOUS
 62
     7
100
AcDbLine
 10
2347.200000000096
 20
1316.980375165599
 30
0.0
 11
2349.200000000073
 21
1318.980375165576
 31
0.0
  0
LINE
  5
366
330
1F
100
AcDbEntity
  8
LAY-10
  6
CONTINUOUS
 62
     7
100
AcDbLine
 10
2347.200000000106
 20
1315.566161603236
 30
0.0
 11
2349.200000000083
 21
1317.566161603213
 31
0.0
  0
LINE
  5
367
330
1F
100
AcDbEntity
  8
LAY-10
  6
CONTINUOUS
 62
     7
100
AcDbLine
 10
2347.200000000097
 20
1314.151948040854
 30
0.0
 11
2349.200000000074
 21
1316.151948040831
 31
0.0
  0
LINE
  5
368
330
1F
100
AcDbEntity
  8
LAY-10
  6
CONTINUOUS
 62
     7
100
AcDbLine
 10
2347.200000000108
 20
1312.737734478492
 30
0.0
 11
2349.200000000083
 21
1314.737734478468
 31
0.0
  0
LINE
  5
369
330
1F
100
AcDbEntity
  8
LAY-10
  6
CONTINUOUS
 62
     7
100
AcDbLine
 10
2347.200000000098
 20
1311.323520916109
 30
0.0
 11
2349.200000000076
 21
1313.323520916086
 31
0.0
  0
LINE
  5
36A
330
1F
100
AcDbEntity
  8
LAY-10
  6
CONTINUOUS
 62
     7
100
AcDbLine
 10
2347.200000000109
 20
1309.909307353746
 30
0.0
 11
2349.200000000085
 21
1311.909307353724
 31
0.0
  0
LINE
  5
36B
330
1F
100
AcDbEntity
  8
LAY-10
  6
CONTINUOUS
 62
     7
100
AcDbLine
 10
2347.200000000098
 20
1308.495093791364
 30
0.0
 11
2349.200000000077
 21
1310.49509379134
 31
0.0
  0
LINE
  5
36C
330
1F
100
AcDbEntity
  8
LAY-10
  6
CONTINUOUS
 62
     7
100
AcDbLine
 10
2347.20000000011
 20
1307.080880229002
 30
0.0
 11
2349.200000000086
 21
1309.080880228979
 31
0.0
  0
LINE
  5
36D
330
1F
100
AcDbEntity
  8
LAY-10
  6
CONTINUOUS
 62
     7
100
AcDbLine
 10
2347.2000000001
 20
1305.66666666662
 30
0.0
 11
2349.200000000078
 21
1307.666666666598
 31
0.0
  0
LINE
  5
36E
330
1F
100
AcDbEntity
  8
LAY-10
  6
CONTINUOUS
 62
     7
100
AcDbLine
 10
2348.614213562464
 20
1305.666666666609
 30
0.0
 11
2349.200000000069
 21
1306.252453104215
 31
0.0
  0
LINE
  5
36F
330
1F
100
AcDbEntity
  8
LAY-10
  6
CONTINUOUS
 62
     7
100
AcDbLine
 10
2302.000000000076
 20
2343.466666666617
 30
0.0
 11
2341.000000000077
 21
2343.466666666617
 31
0.0
  0
ARC
  5
370
330
1F
100
AcDbEntity
  8
LAY-10
  6
CONTINUOUS
 62
     7
100
AcDbCircle
 10
2341.000000000077
 20
2340.466666666617
 30
0.0
 40
3.000000000000003
100
AcDbArc
 50
0.0
 51
90.00000000000001
  0
ARC
  5
371
330
1F
100
AcDbEntity
  8
LAY-10
  6
CONTINUOUS
 62
     7
100
AcDbCircle
 10
2341.200000000077
 20
2340.666666666618
 30
0.0
 40
6.000000000000005
100
AcDbArc
 50
0.0
 51
90.00000000000001
  0
LINE
  5
372
330
1F
100
AcDbEntity
  8
LAY-10
  6
CONTINUOUS
 62
     7
100
AcDbLine
 10
2299.000000000078
 20
2349.666666666618
 30
0.0
 11
2314.000000000078
 21
2349.666666666618
 31
0.0
  0
LINE
  5
373
330
1F
100
AcDbEntity
  8
LAY-10
  6
CONTINUOUS
 62
     7
100
AcDbLine
 10
2302.000000000076
 20
2346.666666666614
 30
0.0
 11
2302.000000000076
 21
2334.666666666618
 31
0.0
  0
LINE
  5
374
330
1F
100
AcDbEntity
  8
LAY-10
  6
CONTINUOUS
 62
     7
100
AcDbLine
 10
2314.000000000078
 20
2349.666666666618
 30
0.0
 11
2314.000000000078
 21
2346.666666666614
 31
0.0
  0
LINE
  5
375
330
1F
100
AcDbEntity
  8
LAY-10
  6
CONTINUOUS
 62
     7
100
AcDbLine
 10
2302.000000000076
 20
1303.866666666616
 30
0.0
 11
2341.000000000077
 21
1303.866666666616
 31
0.0
  0
ARC
  5
376
330
1F
100
AcDbEntity
  8
LAY-10
  6
CONTINUOUS
 62
     7
100
AcDbCircle
 10
2341.000000000077
 20
1306.866666666616
 30
0.0
 40
3.000000000000003
100
AcDbArc
 50
270.0000000000002
 51
0.0
  0
ARC
  5
377
330
1F
100
AcDbEntity
  8
LAY-10
  6
CONTINUOUS
 62
     7
100
AcDbCircle
 10
2341.200000000077
 20
1306.666666666616
 30
0.0
 40
6.000000000000005
100
AcDbArc
 50
270.0000000000002
 51
1.909152432987542
  0
LINE
  5
378
330
1F
100
AcDbEntity
  8
LAY-10
  6
CONTINUOUS
 62
     7
100
AcDbLine
 10
2302.000000000076
 20
1300.666666666614
 30
0.0
 11
2341.200000000077
 21
1300.666666666614
 31
0.0
  0
LINE
  5
379
330
1F
100
AcDbEntity
  8
LAY-10
  6
CONTINUOUS
 62
     7
100
AcDbLine
 10
2299.000000000078
 20
1297.666666666616
 30
0.0
 11
2314.000000000078
 21
1297.666666666616
 31
0.0
  0
LINE
  5
37A
330
1F
100
AcDbEntity
  8
LAY-10
  6
CONTINUOUS
 62
     7
100
AcDbLine
 10
2302.000000000076
 20
1300.666666666614
 30
0.0
 11
2302.000000000076
 21
1312.666666666616
 31
0.0
  0
LINE
  5
37B
330
1F
100
AcDbEntity
  8
LAY-10
  6
CONTINUOUS
 62
     7
100
AcDbLine
 10
2299.000000000078
 20
1312.666666666616
 30
0.0
 11
2302.000000000076
 21
1312.666666666616
 31
0.0
  0
LINE
  5
37C
330
1F
100
AcDbEntity
  8
LAY-10
  6
CONTINUOUS
 62
     7
100
AcDbLine
 10
2314.000000000078
 20
1297.666666666616
 30
0.0
 11
2314.000000000078
 21
1300.666666666614
 31
0.0
  0
LINE
  5
37D
330
1F
100
AcDbEntity
  8
LAY-10
  6
CONTINUOUS
 62
     7
100
AcDbLine
 10
2302.000000000076
 20
1344.666666666608
 30
0.0
 11
2302.000000000076
 21
2302.666666666551
 31
0.0
  0
LINE
  5
37E
330
1F
100
AcDbEntity
  8
LAY-10
  6
CONTINUOUS
 62
     7
100
AcDbLine
 10
2344.000000000099
 20
1306.866666666616
 30
0.0
 11
2344.000000000099
 21
2340.466666666617
 31
0.0
  0
LINE
  5
37F
330
1F
100
AcDbEntity
  8
LAY-10
  6
CONTINUOUS
 62
     7
100
AcDbLine
 10
2299.000000000078
 20
1297.666666666616
 30
0.0
 11
2299.000000000078
 21
2349.666666666618
 31
0.0
  0
LINE
  5
380
330
1F
100
AcDbEntity
  8
LAY-10
  6
CONTINUOUS
 62
     7
100
AcDbLine
 10
2341.000000000078
 20
2343.466666666617
 30
0.0
 11
2344.000000000078
 21
2340.466666666617
 31
0.0
  0
LINE
  5
381
330
1F
100
AcDbEntity
  8
LAY-10
  6
CONTINUOUS
 62
     7
100
AcDbLine
 10
2341.000000000078
 20
1303.866666666618
 30
0.0
 11
2344.000000000078
 21
1306.866666666619
 31
0.0
  0
LINE
  5
382
330
1F
100
AcDbEntity
  8
LAY-10
  6
CONTINUOUS
 62
     7
100
AcDbLine
 10
2347.200000000099
 20
2274.666666666618
 30
0.0
 11
2366.200000000072
 21
2274.666666666618
 31
0.0
  0
LINE
  5
383
330
1F
100
AcDbEntity
  8
LAY-10
  6
CONTINUOUS
 62
     7
100
AcDbLine
 10
2347.200000000099
 20
1372.666666666615
 30
0.0
 11
2366.200000000072
 21
1372.666666666615
 31
0.0
  0
LINE
  5
384
330
1F
100
AcDbEntity
  8
LAY-10
  6
CONTINUOUS
 62
     7
100
AcDbLine
 10
2366.200000000072
 20
2274.666666666618
 30
0.0
 11
2366.200000000072
 21
1372.666666666615
 31
0.0
  0
LINE
  5
385
330
1F
100
AcDbEntity
  8
LAY-10
  6
CONTINUOUS
 62
     7
100
AcDbLine
 10
2349.200000000076
 20
1372.666666666615
 30
0.0
 11
2349.200000000076
 21
1296.666666666616
 31
0.0
  0
LINE
  5
386
330
1F
100
AcDbEntity
  8
LAY-10
  6
CONTINUOUS
 62
     7
100
AcDbLine
 10
2349.200000000076
 20
2350.666666666619
 30
0.0
 11
2349.200000000076
 21
2274.666666666618
 31
0.0
  0
LINE
  5
387
330
1F
100
AcDbEntity
  8
LAY-10
  6
CONTINUOUS
 62
     7
100
AcDbLine
 10
320.0000000000873
 20
2334.666666666521
 30
0.0
 11
305.0000000000873
 21
2349.666666666519
 31
0.0
  0
LINE
  5
388
330
1F
100
AcDbEntity
  8
LAY-10
  6
CONTINUOUS
 62
     7
100
AcDbLine
 10
320.0000000000873
 20
1312.666666666517
 30
0.0
 11
305.0000000000873
 21
1297.666666666517
 31
0.0
  0
LINE
  5
389
330
1F
100
AcDbEntity
  8
LAY-10
  6
CONTINUOUS
 62
     7
100
AcDbLine
 10
320.0000000000873
 20
2334.666666666521
 30
0.0
 11
320.0000000000873
 21
1312.666666666517
 31
0.0
  0
LINE
  5
38A
330
1F
100
AcDbEntity
  8
LAY-10
  6
CONTINUOUS
 62
     7
100
AcDbLine
 10
305.0000000000873
 20
1297.666666666517
 30
0.0
 11
305.0000000000873
 21
2349.666666666519
 31
0.0
  0
LINE
  5
38B
330
1F
100
AcDbEntity
  8
LAY-10
  6
CONTINUOUS
 62
     7
100
AcDbLine
 10
698.0000000000882
 20
2349.666666666519
 30
0.0
 11
683.0000000000882
 21
2334.666666666521
 31
0.0
  0
LINE
  5
38C
330
1F
100
AcDbEntity
  8
LAY-10
  6
CONTINUOUS
 62
     7
100
AcDbLine
 10
683.0000000000882
 20
1312.666666666517
 30
0.0
 11
683.0000000000882
 21
2334.666666666521
 31
0.0
  0
LINE
  5
38D
330
1F
100
AcDbEntity
  8
LAY-10
  6
CONTINUOUS
 62
     7
100
AcDbLine
 10
698.0000000000882
 20
1297.666666666517
 30
0.0
 11
698.0000000000882
 21
2349.666666666519
 31
0.0
  0
LINE
  5
38E
330
1F
100
AcDbEntity
  8
LAY-10
  6
CONTINUOUS
 62
     7
100
AcDbLine
 10
305.0000000000873
 20
2349.666666666519
 30
0.0
 11
698.0000000000882
 21
2349.666666666519
 31
0.0
  0
LINE
  5
38F
330
1F
100
AcDbEntity
  8
LAY-10
  6
CONTINUOUS
 62
     7
100
AcDbLine
 10
320.0000000000873
 20
2334.666666666515
 30
0.0
 11
683.0000000000828
 21
2334.666666666515
 31
0.0
  0
LINE
  5
390
330
1F
100
AcDbEntity
  8
LAY-10
  6
CONTINUOUS
 62
     7
100
AcDbLine
 10
305.0000000000873
 20
1297.666666666517
 30
0.0
 11
698.000000000101
 21
1297.666666666517
 31
0.0
  0
LINE
  5
391
330
1F
100
AcDbEntity
  8
LAY-10
  6
CONTINUOUS
 62
     7
100
AcDbLine
 10
320.0000000000873
 20
1312.666666666517
 30
0.0
 11
683.000000000101
 21
1312.666666666517
 31
0.0
  0
LINE
  5
392
330
1F
100
AcDbEntity
  8
LAY-10
  6
CONTINUOUS
 62
     7
100
AcDbLine
 10
683.0000000000999
 20
1312.666666666517
 30
0.0
 11
698.0000000000999
 21
1297.666666666517
 31
0.0
  0
LINE
  5
393
330
1F
100
AcDbEntity
  8
LAY-10
  6
CONTINUOUS
 62
     7
100
AcDbLine
 10
406.5000000000782
 20
1312.666666666517
 30
0.0
 11
406.50000000008
 21
2334.666666666521
 31
0.0
  0
LINE
  5
394
330
1F
100
AcDbEntity
  8
LAY-10
  6
CONTINUOUS
 62
     7
100
AcDbLine
 10
414.0000000000782
 20
1312.666666666517
 30
0.0
 11
414.00000000008
 21
2334.666666666521
 31
0.0
  0
LINE
  5
395
330
1F
100
AcDbEntity
  8
LAY-10
  6
CONTINUOUS
 62
     7
100
AcDbLine
 10
439.0000000000782
 20
1312.666666666517
 30
0.0
 11
439.0000000000809
 21
2334.666666666521
 31
0.0
  0
LINE
  5
396
330
1F
100
AcDbEntity
  8
LAY-10
  6
CONTINUOUS
 62
     7
100
AcDbLine
 10
446.5000000000782
 20
1312.666666666517
 30
0.0
 11
446.5000000000809
 21
2334.666666666521
 31
0.0
  0
LINE
  5
397
330
1F
100
AcDbEntity
  8
LAY-10
  6
CONTINUOUS
 62
     7
100
AcDbLine
 10
556.5000000001
 20
1312.666666666517
 30
0.0
 11
556.5000000001
 21
2334.666666666521
 31
0.0
  0
LINE
  5
398
330
1F
100
AcDbEntity
  8
LAY-10
  6
CONTINUOUS
 62
     7
100
AcDbLine
 10
564.0000000001
 20
1312.666666666517
 30
0.0
 11
564.0000000001
 21
2334.666666666521
 31
0.0
  0
LINE
  5
399
330
1F
100
AcDbEntity
  8
LAY-10
  6
CONTINUOUS
 62
     7
100
AcDbLine
 10
589.0000000001
 20
1312.666666666517
 30
0.0
 11
589.0000000001
 21
2334.666666666521
 31
0.0
  0
LINE
  5
39A
330
1F
100
AcDbEntity
  8
LAY-10
  6
CONTINUOUS
 62
     7
100
AcDbLine
 10
596.5000000001
 20
1312.666666666517
 30
0.0
 11
596.5000000001
 21
2334.666666666521
 31
0.0
  0
LINE
  5
39B
330
1F
100
AcDbEntity
  8
LAY-10
  6
CONTINUOUS
 62
     7
100
AcDbLine
 10
715.0000000000873
 20
2334.666666666521
 30
0.0
 11
700.0000000000873
 21
2349.666666666519
 31
0.0
  0
LINE
  5
39C
330
1F
100
AcDbEntity
  8
LAY-10
  6
CONTINUOUS
 62
     7
100
AcDbLine
 10
715.0000000000873
 20
1312.666666666517
 30
0.0
 11
700.0000000000873
 21
1297.666666666517
 31
0.0
  0
LINE
  5
39D
330
1F
100
AcDbEntity
  8
LAY-10
  6
CONTINUOUS
 62
     7
100
AcDbLine
 10
715.0000000000873
 20
2334.666666666521
 30
0.0
 11
715.0000000000873
 21
1312.666666666517
 31
0.0
  0
LINE
  5
39E
330
1F
100
AcDbEntity
  8
LAY-10
  6
CONTINUOUS
 62
     7
100
AcDbLine
 10
700.0000000000873
 20
1297.666666666517
 30
0.0
 11
700.0000000000873
 21
2349.666666666519
 31
0.0
  0
LINE
  5
39F
330
1F
100
AcDbEntity
  8
LAY-10
  6
CONTINUOUS
 62
     7
100
AcDbLine
 10
1093.000000000088
 20
2349.666666666519
 30
0.0
 11
1078.000000000088
 21
2334.666666666521
 31
0.0
  0
LINE
  5
3A0
330
1F
100
AcDbEntity
  8
LAY-10
  6
CONTINUOUS
 62
     7
100
AcDbLine
 10
700.0000000000873
 20
2349.666666666519
 30
0.0
 11
1093.000000000088
 21
2349.666666666519
 31
0.0
  0
LINE
  5
3A1
330
1F
100
AcDbEntity
  8
LAY-10
  6
CONTINUOUS
 62
     7
100
AcDbLine
 10
715.0000000000873
 20
2334.666666666515
 30
0.0
 11
1078.000000000083
 21
2334.666666666515
 31
0.0
  0
LINE
  5
3A2
330
1F
100
AcDbEntity
  8
LAY-10
  6
CONTINUOUS
 62
     7
100
AcDbLine
 10
801.5000000000782
 20
1312.666666666517
 30
0.0
 11
801.50000000008
 21
2334.666666666521
 31
0.0
  0
LINE
  5
3A3
330
1F
100
AcDbEntity
  8
LAY-10
  6
CONTINUOUS
 62
     7
100
AcDbLine
 10
809.0000000000782
 20
1312.666666666517
 30
0.0
 11
809.00000000008
 21
2334.666666666521
 31
0.0
  0
LINE
  5
3A4
330
1F
100
AcDbEntity
  8
LAY-10
  6
CONTINUOUS
 62
     7
100
AcDbLine
 10
834.0000000000782
 20
1312.666666666517
 30
0.0
 11
834.0000000000811
 21
2334.666666666521
 31
0.0
  0
LINE
  5
3A5
330
1F
100
AcDbEntity
  8
LAY-10
  6
CONTINUOUS
 62
     7
100
AcDbLine
 10
841.5000000000782
 20
1312.666666666517
 30
0.0
 11
841.5000000000811
 21
2334.666666666521
 31
0.0
  0
LINE
  5
3A6
330
1F
100
AcDbEntity
  8
LAY-10
  6
CONTINUOUS
 62
     7
100
AcDbLine
 10
1110.000000000086
 20
2334.666666666521
 30
0.0
 11
1095.000000000086
 21
2349.666666666519
 31
0.0
  0
LINE
  5
3A7
330
1F
100
AcDbEntity
  8
LAY-10
  6
CONTINUOUS
 62
     7
100
AcDbLine
 10
1881.0
 20
1336.666666666517
 30
0.0
 11
1881.0
 21
2310.666666666517
 31
0.0
  0
LINE
  5
3A8
330
1F
100
AcDbEntity
  8
LAY-10
  6
CONTINUOUS
 62
     7
100
AcDbLine
 10
344.0000000000964
 20
815.6666666666162
 30
0.0
 11
344.0000000000964
 21
827.8666666666152
 31
0.0
  0
LINE
  5
3A9
330
1F
100
AcDbEntity
  8
LAY-10
  6
CONTINUOUS
 62
     7
100
AcDbLine
 10
325.0000000000945
 20
818.866666666616
 30
0.0
 11
325.0000000000945
 21
815.6666666666162
 31
0.0
  0
LINE
  5
3AA
330
1F
100
AcDbEntity
  8
LAY-10
  6
CONTINUOUS
 62
     7
100
AcDbLine
 10
313.0000000000937
 20
818.866666666616
 30
0.0
 11
313.0000000000937
 21
815.6666666666162
 31
0.0
  0
LINE
  5
3AB
330
1F
100
AcDbEntity
  8
LAY-10
  6
CONTINUOUS
 62
     7
100
AcDbLine
 10
325.0000000000945
 20
827.8666666666152
 30
0.0
 11
325.0000000000945
 21
831.0666666666158
 31
0.0
  0
LINE
  5
3AC
330
1F
100
AcDbEntity
  8
LAY-10
  6
CONTINUOUS
 62
     7
100
AcDbLine
 10
313.0000000000937
 20
827.8666666666152
 30
0.0
 11
313.0000000000937
 21
831.0666666666158
 31
0.0
  0
LINE
  5
3AD
330
1F
100
AcDbEntity
  8
LAY-10
  6
CONTINUOUS
 62
     7
100
AcDbLine
 10
314.0000000000964
 20
827.8666666666152
 30
0.0
 11
310.0000000000946
 21
827.8666666666152
 31
0.0
  0
LINE
  5
3AE
330
1F
100
AcDbEntity
  8
LAY-10
  6
CONTINUOUS
 62
     7
100
AcDbLine
 10
307.0000000000964
 20
818.866666666616
 30
0.0
 11
307.0000000000964
 21
828.0666666666158
 31
0.0
  0
LINE
  5
3AF
330
1F
100
AcDbEntity
  8
LAY-10
  6
CONTINUOUS
 62
     7
100
AcDbLine
 10
310.0000000000946
 20
818.866666666616
 30
0.0
 11
310.0000000000946
 21
827.8666666666152
 31
0.0
  0
LINE
  5
3B0
330
1F
100
AcDbEntity
  8
LAY-10
  6
CONTINUOUS
 62
     7
100
AcDbLine
 10
301.0000000000964
 20
818.866666666616
 30
0.0
 11
314.0000000000964
 21
818.866666666616
 31
0.0
  0
ARC
  5
3B1
330
1F
100
AcDbEntity
  8
LAY-10
  6
CONTINUOUS
 62
     7
100
AcDbCircle
 10
310.0000000000946
 20
828.0666666666158
 30
0.0
 40
3.000000000000003
100
AcDbArc
 50
90.00000000000001
 51
180.0
  0
LINE
  5
3B2
330
1F
100
AcDbEntity
  8
LAY-10
  6
CONTINUOUS
 62
     7
100
AcDbLine
 10
297.8000000000957
 20
818.6666666666162
 30
0.0
 11
297.8000000000957
 21
912.6666666666162
 31
0.0
  0
ARC
  5
3B3
330
1F
100
AcDbEntity
  8
LAY-10
  6
CONTINUOUS
 62
     7
100
AcDbCircle
 10
300.8000000000957
 20
818.6666666666162
 30
0.0
 40
3.000000000000003
100
AcDbArc
 50
180.0
 51
270.0000000000002
  0
LINE
  5
3B4
330
1F
100
AcDbEntity
  8
LAY-10
  6
CONTINUOUS
 62
     7
100
AcDbLine
 10
341.0000000000955
 20
818.866666666616
 30
0.0
 11
341.0000000000955
 21
827.8666666666169
 31
0.0
  0
LINE
  5
3B5
330
1F
100
AcDbEntity
  8
LAY-10
  6
CONTINUOUS
 62
     7
100
AcDbLine
 10
354.0000000000946
 20
815.6666666666162
 30
0.0
 11
300.8000000000957
 21
815.6666666666162
 31
0.0
  0
LINE
  5
3B6
330
1F
100
AcDbEntity
  8
LAY-10
  6
CONTINUOUS
 62
     7
100
AcDbLine
 10
324.0000000000946
 20
818.866666666616
 30
0.0
 11
354.0000000000946
 21
818.866666666616
 31
0.0
  0
LINE
  5
3B7
330
1F
100
AcDbEntity
  8
LAY-10
  6
CONTINUOUS
 62
     7
100
AcDbLine
 10
301.0000000000964
 20
912.6666666666162
 30
0.0
 11
301.0000000000964
 21
818.8666666666169
 31
0.0
  0
LINE
  5
3B8
330
1F
100
AcDbEntity
  8
LAY-10
  6
CONTINUOUS
 62
     7
100
AcDbLine
 10
304.0000000000955
 20
915.6666666666162
 30
0.0
 11
304.0000000000955
 21
900.6666666666162
 31
0.0
  0
LINE
  5
3B9
330
1F
100
AcDbEntity
  8
LAY-10
  6
CONTINUOUS
 62
     7
100
AcDbLine
 10
301.0000000000946
 20
912.6666666666162
 30
0.0
 11
289.0000000000955
 21
912.6666666666162
 31
0.0
  0
LINE
  5
3BA
330
1F
100
AcDbEntity
  8
LAY-10
  6
CONTINUOUS
 62
     7
100
AcDbLine
 10
304.0000000000955
 20
900.6666666666162
 30
0.0
 11
301.0000000000946
 21
900.6666666666162
 31
0.0
  0
LINE
  5
3BB
330
1F
100
AcDbEntity
  8
LAY-10
  6
CONTINUOUS
 62
     7
100
AcDbLine
 10
289.0000000000955
 20
915.6666666666162
 30
0.0
 11
289.0000000000955
 21
912.6666666666162
 31
0.0
  0
LINE
  5
3BC
330
1F
100
AcDbEntity
  8
LAY-10
  6
CONTINUOUS
 62
     7
100
AcDbLine
 10
354.0000000000946
 20
827.8666666666152
 30
0.0
 11
354.0000000000946
 21
797.866666666616
 31
0.0
  0
LINE
  5
3BD
330
1F
100
AcDbEntity
  8
LAY-10
  6
CONTINUOUS
 62
     7
100
AcDbLine
 10
357.0000000000964
 20
820.866666666617
 30
0.0
 11
357.0000000000964
 21
799.866666666616
 31
0.0
  0
LINE
  5
3BE
330
1F
100
AcDbEntity
  8
LAY-10
  6
CONTINUOUS
 62
     7
100
AcDbLine
 10
384.0000000000946
 20
827.8666666666152
 30
0.0
 11
384.0000000000946
 21
826.8666666666161
 31
0.0
  0
ARC
  5
3BF
330
1F
100
AcDbEntity
  8
LAY-10
  6
CONTINUOUS
 62
     7
100
AcDbCircle
 10
355.0000000000955
 20
799.866666666616
 30
0.0
 40
2.0
100
AcDbArc
 50
270.0000000000002
 51
0.0
  0
ARC
  5
3C0
330
1F
100
AcDbEntity
  8
LAY-10
  6
CONTINUOUS
 62
     7
100
AcDbCircle
 10
382.0000000000955
 20
826.8666666666161
 30
0.0
 40
2.0
100
AcDbArc
 50
270.0000000000002
 51
0.0
  0
ARC
  5
3C1
330
1F
100
AcDbEntity
  8
LAY-10
  6
CONTINUOUS
 62
     7
100
AcDbCircle
 10
361.0000000000964
 20
820.866666666617
 30
0.0
 40
4.0
100
AcDbArc
 50
90.00000000000001
 51
180.0
  0
LINE
  5
3C2
330
1F
100
AcDbEntity
  8
LAY-10
  6
CONTINUOUS
 62
     7
100
AcDbLine
 10
289.0000000000991
 20
915.6666666666672
 30
0.0
 11
304.0000000000991
 21
915.6666666666672
 31
0.0
  0
LINE
  5
3C3
330
1F
100
AcDbEntity
  8
LAY-10
  6
CONTINUOUS
 62
     7
100
AcDbLine
 10
1844.000000000082
 20
815.6666666666162
 30
0.0
 11
1844.000000000082
 21
827.8666666666169
 31
0.0
  0
LINE
  5
3C4
330
1F
100
AcDbEntity
  8
LAY-10
  6
CONTINUOUS
 62
     7
100
AcDbLine
 10
1863.000000000082
 20
818.866666666616
 30
0.0
 11
1863.000000000082
 21
815.6666666666162
 31
0.0
  0
LINE
  5
3C5
330
1F
100
AcDbEntity
  8
LAY-10
  6
CONTINUOUS
 62
     7
100
AcDbLine
 10
1875.000000000083
 20
818.866666666616
 30
0.0
 11
1875.000000000083
 21
815.6666666666162
 31
0.0
  0
LINE
  5
3C6
330
1F
100
AcDbEntity
  8
LAY-10
  6
CONTINUOUS
 62
     7
100
AcDbLine
 10
1863.000000000082
 20
827.8666666666169
 30
0.0
 11
1863.000000000082
 21
831.0666666666158
 31
0.0
  0
LINE
  5
3C7
330
1F
100
AcDbEntity
  8
LAY-10
  6
CONTINUOUS
 62
     7
100
AcDbLine
 10
1875.000000000083
 20
827.8666666666169
 30
0.0
 11
1875.000000000083
 21
831.0666666666158
 31
0.0
  0
LINE
  5
3C8
330
1F
100
AcDbEntity
  8
LAY-10
  6
CONTINUOUS
 62
     7
100
AcDbLine
 10
1878.000000000082
 20
818.866666666616
 30
0.0
 11
1878.000000000082
 21
827.8666666666169
 31
0.0
  0
ARC
  5
3C9
330
1F
100
AcDbEntity
  8
LAY-10
  6
CONTINUOUS
 62
     7
100
AcDbCircle
 10
1878.000000000082
 20
828.0666666666176
 30
0.0
 40
3.000000000000003
100
AcDbArc
 50
0.0
 51
90.00000000000001
  0
LINE
  5
3CA
330
1F
100
AcDbEntity
  8
LAY-10
  6
CONTINUOUS
 62
     7
100
AcDbLine
 10
1890.200000000083
 20
818.6666666666171
 30
0.0
 11
1890.200000000083
 21
912.6666666666162
 31
0.0
  0
LINE
  5
3CB
330
1F
100
AcDbEntity
  8
LAY-10
  6
CONTINUOUS
 62
     7
100
AcDbLine
 10
1881.000000000082
 20
818.866666666616
 30
0.0
 11
1881.000000000082
 21
828.0666666666158
 31
0.0
  0
ARC
  5
3CC
330
1F
100
AcDbEntity
  8
LAY-10
  6
CONTINUOUS
 62
     7
100
AcDbCircle
 10
1887.200000000082
 20
818.6666666666171
 30
0.0
 40
3.000000000000003
100
AcDbArc
 50
270.0000000000002
 51
0.0
  0
LINE
  5
3CD
330
1F
100
AcDbEntity
  8
LAY-10
  6
CONTINUOUS
 62
     7
100
AcDbLine
 10
1847.000000000081
 20
818.866666666616
 30
0.0
 11
1847.000000000081
 21
827.8666666666169
 31
0.0
  0
LINE
  5
3CE
330
1F
100
AcDbEntity
  8
LAY-10
  6
CONTINUOUS
 62
     7
100
AcDbLine
 10
1864.000000000082
 20
818.866666666616
 30
0.0
 11
1834.000000000082
 21
818.866666666616
 31
0.0
  0
LINE
  5
3CF
330
1F
100
AcDbEntity
  8
LAY-10
  6
CONTINUOUS
 62
     7
100
AcDbLine
 10
1874.000000000082
 20
818.866666666616
 30
0.0
 11
1887.000000000082
 21
818.866666666616
 31
0.0
  0
LINE
  5
3D0
330
1F
100
AcDbEntity
  8
LAY-10
  6
CONTINUOUS
 62
     7
100
AcDbLine
 10
1887.000000000082
 20
912.6666666666162
 30
0.0
 11
1887.000000000082
 21
818.8666666666169
 31
0.0
  0
LINE
  5
3D1
330
1F
100
AcDbEntity
  8
LAY-10
  6
CONTINUOUS
 62
     7
100
AcDbLine
 10
1834.000000000082
 20
815.6666666666162
 30
0.0
 11
1887.200000000082
 21
815.6666666666162
 31
0.0
  0
LINE
  5
3D2
330
1F
100
AcDbEntity
  8
LAY-10
  6
CONTINUOUS
 62
     7
100
AcDbLine
 10
1884.000000000081
 20
915.6666666666162
 30
0.0
 11
1884.000000000081
 21
900.6666666666162
 31
0.0
  0
LINE
  5
3D3
330
1F
100
AcDbEntity
  8
LAY-10
  6
CONTINUOUS
 62
     7
100
AcDbLine
 10
1887.000000000082
 20
912.6666666666162
 30
0.0
 11
1899.000000000081
 21
912.6666666666162
 31
0.0
  0
LINE
  5
3D4
330
1F
100
AcDbEntity
  8
LAY-10
  6
CONTINUOUS
 62
     7
100
AcDbLine
 10
1884.000000000081
 20
900.6666666666162
 30
0.0
 11
1887.000000000082
 21
900.6666666666162
 31
0.0
  0
LINE
  5
3D5
330
1F
100
AcDbEntity
  8
LAY-10
  6
CONTINUOUS
 62
     7
100
AcDbLine
 10
1899.000000000081
 20
915.6666666666162
 30
0.0
 11
1899.000000000081
 21
912.6666666666162
 31
0.0
  0
LINE
  5
3D6
330
1F
100
AcDbEntity
  8
LAY-10
  6
CONTINUOUS
 62
     7
100
AcDbLine
 10
1834.000000000082
 20
827.8666666666169
 30
0.0
 11
1834.000000000082
 21
797.8666666666169
 31
0.0
  0
LINE
  5
3D7
330
1F
100
AcDbEntity
  8
LAY-10
  6
CONTINUOUS
 62
     7
100
AcDbLine
 10
1831.000000000082
 20
820.866666666617
 30
0.0
 11
1831.000000000082
 21
799.8666666666169
 31
0.0
  0
LINE
  5
3D8
330
1F
100
AcDbEntity
  8
LAY-10
  6
CONTINUOUS
 62
     7
100
AcDbLine
 10
1804.000000000084
 20
827.8666666666169
 30
0.0
 11
1804.000000000084
 21
826.8666666666169
 31
0.0
  0
LINE
  5
3D9
330
1F
100
AcDbEntity
  8
LAY-10
  6
CONTINUOUS
 62
     7
100
AcDbLine
 10
1834.000000000082
 20
797.8666666666169
 30
0.0
 11
1833.000000000082
 21
797.8666666666169
 31
0.0
  0
ARC
  5
3DA
330
1F
100
AcDbEntity
  8
LAY-10
  6
CONTINUOUS
 62
     7
100
AcDbCircle
 10
1833.000000000082
 20
799.8666666666169
 30
0.0
 40
2.0
100
AcDbArc
 50
180.0
 51
270.0000000000002
  0
ARC
  5
3DB
330
1F
100
AcDbEntity
  8
LAY-10
  6
CONTINUOUS
 62
     7
100
AcDbCircle
 10
1806.000000000082
 20
826.8666666666169
 30
0.0
 40
2.0
100
AcDbArc
 50
180.0
 51
270.0000000000002
  0
ARC
  5
3DC
330
1F
100
AcDbEntity
  8
LAY-10
  6
CONTINUOUS
 62
     7
100
AcDbCircle
 10
1827.00000000008
 20
820.866666666617
 30
0.0
 40
4.0
100
AcDbArc
 50
0.0
 51
90.00000000000001
  0
LINE
  5
3DD
330
1F
100
AcDbEntity
  8
LAY-10
  6
CONTINUOUS
 62
     7
100
AcDbLine
 10
1884.000000000099
 20
915.6666666666672
 30
0.0
 11
1899.000000000099
 21
915.6666666666672
 31
0.0
  0
LINE
  5
3DE
330
1F
100
AcDbEntity
  8
LAY-10
  6
CONTINUOUS
 62
     7
100
AcDbLine
 10
1833.000000000082
 20
797.8666666666169
 30
0.0
 11
354.0000000000954
 21
797.866666666616
 31
0.0
  0
POLYLINE
  5
3DF
330
1F
100
AcDbEntity
  8
LAY-10
  6
CONTINUOUS
 62
     7
100
AcDb2dPolyline
 66
     1
 10
0.0
 20
0.0
 30
0.0
 70
   128
  0
VERTEX
  5
3E0
330
3DF
100
AcDbEntity
  8
LAY-10
  6
CONTINUOUS
 62
     7
100
AcDbVertex
100
AcDb2dVertex
 10
361.0000000000964
 20
824.866666666616
 30
0.0
  0
VERTEX
  5
3E1
330
3DF
100
AcDbEntity
  8
LAY-10
  6
CONTINUOUS
 62
     7
100
AcDbVertex
100
AcDb2dVertex
 10
490.5000000000965
 20
824.8666666666169
 30
0.0
  0
VERTEX
  5
3E2
330
3DF
100
AcDbEntity
  8
LAY-10
  6
CONTINUOUS
 62
     7
100
AcDbVertex
100
AcDb2dVertex
 10
1827.00000000008
 20
824.8666666666169
 30
0.0
  0
SEQEND
  5
3E3
330
3DF
100
AcDbEntity
  8
LAY-10
  6
CONTINUOUS
 62
     7
  0
LINE
  5
3E4
330
1F
100
AcDbEntity
  8
LAY-10
  6
CONTINUOUS
 62
     7
100
AcDbLine
 10
1879.500000000082
 20
831.0666666666158
 30
0.0
 11
308.5000000000964
 21
831.0666666666158
 31
0.0
  0
LINE
  5
3E5
330
1F
100
AcDbEntity
  8
LAY-10
  6
CONTINUOUS
 62
     7
100
AcDbLine
 10
301.0000000000964
 20
867.4666666666172
 30
0.0
 11
1887.000000000082
 21
867.4666666666172
 31
0.0
  0
LINE
  5
3E6
330
1F
100
AcDbEntity
  8
LAY-10
  6
CONTINUOUS
 62
     7
100
AcDbLine
 10
311.2000000000853
 20
912.6666666667162
 30
0.0
 11
311.2000000000853
 21
873.6666666667162
 31
0.0
  0
ARC
  5
3E7
330
1F
100
AcDbEntity
  8
LAY-10
  6
CONTINUOUS
 62
     7
100
AcDbCircle
 10
314.2000000000853
 20
873.6666666667162
 30
0.0
 40
3.000000000000003
100
AcDbArc
 50
180.0
 51
270.0000000000002
  0
ARC
  5
3E8
330
1F
100
AcDbEntity
  8
LAY-10
  6
CONTINUOUS
 62
     7
100
AcDbCircle
 10
314.0000000000855
 20
873.4666666667164
 30
0.0
 40
6.000000000000005
100
AcDbArc
 50
180.0
 51
270.0000000000002
  0
LINE
  5
3E9
330
1F
100
AcDbEntity
  8
LAY-10
  6
CONTINUOUS
 62
     7
100
AcDbLine
 10
308.0000000000855
 20
912.6666666667162
 30
0.0
 11
308.0000000000855
 21
873.4666666667164
 31
0.0
  0
LINE
  5
3EA
330
1F
100
AcDbEntity
  8
LAY-10
  6
CONTINUOUS
 62
     7
100
AcDbLine
 10
305.0000000000855
 20
915.6666666667162
 30
0.0
 11
305.0000000000855
 21
900.6666666667162
 31
0.0
  0
LINE
  5
3EB
330
1F
100
AcDbEntity
  8
LAY-10
  6
CONTINUOUS
 62
     7
100
AcDbLine
 10
305.0000000000855
 20
900.6666666667162
 30
0.0
 11
308.0000000000855
 21
900.6666666667162
 31
0.0
  0
LINE
  5
3EC
330
1F
100
AcDbEntity
  8
LAY-10
  6
CONTINUOUS
 62
     7
100
AcDbLine
 10
691.8000000000857
 20
912.6666666667171
 30
0.0
 11
691.8000000000857
 21
873.6666666667162
 31
0.0
  0
ARC
  5
3ED
330
1F
100
AcDbEntity
  8
LAY-10
  6
CONTINUOUS
 62
     7
100
AcDbCircle
 10
688.8000000000848
 20
873.6666666667162
 30
0.0
 40
3.000000000000003
100
AcDbArc
 50
270.0000000000002
 51
0.0
  0
ARC
  5
3EE
330
1F
100
AcDbEntity
  8
LAY-10
  6
CONTINUOUS
 62
     7
100
AcDbCircle
 10
689.0000000000854
 20
873.4666666667173
 30
0.0
 40
6.000000000000005
100
AcDbArc
 50
270.0000000000002
 51
0.0
  0
LINE
  5
3EF
330
1F
100
AcDbEntity
  8
LAY-10
  6
CONTINUOUS
 62
     7
100
AcDbLine
 10
695.0000000000845
 20
912.6666666667171
 30
0.0
 11
695.0000000000845
 21
873.4666666667173
 31
0.0
  0
LINE
  5
3F0
330
1F
100
AcDbEntity
  8
LAY-10
  6
CONTINUOUS
 62
     7
100
AcDbLine
 10
698.0000000000863
 20
915.6666666667172
 30
0.0
 11
698.0000000000863
 21
900.6666666667172
 31
0.0
  0
LINE
  5
3F1
330
1F
100
AcDbEntity
  8
LAY-10
  6
CONTINUOUS
 62
     7
100
AcDbLine
 10
698.0000000000863
 20
900.6666666667172
 30
0.0
 11
695.0000000000845
 21
900.6666666667172
 31
0.0
  0
LINE
  5
3F2
330
1F
100
AcDbEntity
  8
LAY-10
  6
CONTINUOUS
 62
     7
100
AcDbLine
 10
698.0000000000863
 20
915.6666666667162
 30
0.0
 11
305.0000000000855
 21
915.6666666667162
 31
0.0
  0
LINE
  5
3F3
330
1F
100
AcDbEntity
  8
LAY-10
  6
CONTINUOUS
 62
     7
100
AcDbLine
 10
314.2000000000853
 20
870.6666666667162
 30
0.0
 11
688.8000000000848
 21
870.6666666667172
 31
0.0
  0
LINE
  5
3F4
330
1F
100
AcDbEntity
  8
LAY-10
  6
CONTINUOUS
 62
     7
100
AcDbLine
 10
578.0000000001
 20
848.4666666667173
 30
0.0
 11
578.0000000001
 21
867.4666666667173
 31
0.0
  0
LINE
  5
3F5
330
1F
100
AcDbEntity
  8
LAY-10
  6
CONTINUOUS
 62
     7
100
AcDbLine
 10
575.0000000001
 20
848.4666666667164
 30
0.0
 11
575.0000000001
 21
867.4666666667173
 31
0.0
  0
LINE
  5
3F6
330
1F
100
AcDbEntity
  8
LAY-10
  6
CONTINUOUS
 62
     7
100
AcDbLine
 10
425.0000000001
 20
848.4666666667173
 30
0.0
 11
425.0000000001
 21
867.4666666667173
 31
0.0
  0
LINE
  5
3F7
330
1F
100
AcDbEntity
  8
LAY-10
  6
CONTINUOUS
 62
     7
100
AcDbLine
 10
428.0000000001
 20
848.4666666667164
 30
0.0
 11
428.0000000001
 21
867.4666666667173
 31
0.0
  0
LINE
  5
3F8
330
1F
100
AcDbEntity
  8
LAY-10
  6
CONTINUOUS
 62
     7
100
AcDbLine
 10
425.0000000001
 20
848.4666666667164
 30
0.0
 11
578.0000000001
 21
848.4666666667164
 31
0.0
  0
LINE
  5
3F9
330
1F
100
AcDbEntity
  8
LAY-10
  6
CONTINUOUS
 62
     7
100
AcDbLine
 10
706.2000000000853
 20
912.6666666667162
 30
0.0
 11
706.2000000000853
 21
873.6666666667162
 31
0.0
  0
ARC
  5
3FA
330
1F
100
AcDbEntity
  8
LAY-10
  6
CONTINUOUS
 62
     7
100
AcDbCircle
 10
709.2000000000852
 20
873.6666666667162
 30
0.0
 40
3.000000000000003
100
AcDbArc
 50
180.0
 51
270.0000000000002
  0
ARC
  5
3FB
330
1F
100
AcDbEntity
  8
LAY-10
  6
CONTINUOUS
 62
     7
100
AcDbCircle
 10
709.0000000000854
 20
873.4666666667164
 30
0.0
 40
6.000000000000005
100
AcDbArc
 50
180.0
 51
270.0000000000002
  0
LINE
  5
3FC
330
1F
100
AcDbEntity
  8
LAY-10
  6
CONTINUOUS
 62
     7
100
AcDbLine
 10
703.0000000000855
 20
912.6666666667162
 30
0.0
 11
703.0000000000855
 21
873.4666666667164
 31
0.0
  0
LINE
  5
3FD
330
1F
100
AcDbEntity
  8
LAY-10
  6
CONTINUOUS
 62
     7
100
AcDbLine
 10
700.0000000000855
 20
915.6666666667162
 30
0.0
 11
700.0000000000855
 21
900.6666666667162
 31
0.0
  0
LINE
  5
3FE
330
1F
100
AcDbEntity
  8
LAY-10
  6
CONTINUOUS
 62
     7
100
AcDbLine
 10
700.0000000000855
 20
900.6666666667162
 30
0.0
 11
703.0000000000855
 21
900.6666666667162
 31
0.0
  0
LINE
  5
3FF
330
1F
100
AcDbEntity
  8
LAY-10
  6
CONTINUOUS
 62
     7
100
AcDbLine
 10
1086.800000000086
 20
912.6666666667171
 30
0.0
 11
1086.800000000086
 21
873.6666666667162
 31
0.0
  0
ARC
  5
400
330
1F
100
AcDbEntity
  8
LAY-10
  6
CONTINUOUS
 62
     7
100
AcDbCircle
 10
1083.800000000085
 20
873.6666666667162
 30
0.0
 40
3.000000000000003
100
AcDbArc
 50
270.0000000000002
 51
0.0
  0
ARC
  5
401
330
1F
100
AcDbEntity
  8
LAY-10
  6
CONTINUOUS
 62
     7
100
AcDbCircle
 10
1084.000000000085
 20
873.4666666667173
 30
0.0
 40
6.000000000000005
100
AcDbArc
 50
270.0000000000002
 51
0.0
  0
LINE
  5
402
330
1F
100
AcDbEntity
  8
LAY-10
  6
CONTINUOUS
 62
     7
100
AcDbLine
 10
1090.000000000085
 20
912.6666666667171
 30
0.0
 11
1090.000000000085
 21
873.4666666667173
 31
0.0
  0
LINE
  5
403
330
1F
100
AcDbEntity
  8
LAY-10
  6
CONTINUOUS
 62
     7
100
AcDbLine
 10
1093.000000000086
 20
915.6666666667172
 30
0.0
 11
1093.000000000086
 21
900.6666666667172
 31
0.0
  0
LINE
  5
404
330
1F
100
AcDbEntity
  8
LAY-10
  6
CONTINUOUS
 62
     7
100
AcDbLine
 10
1093.000000000086
 20
900.6666666667172
 30
0.0
 11
1090.000000000085
 21
900.6666666667172
 31
0.0
  0
LINE
  5
405
330
1F
100
AcDbEntity
  8
LAY-10
  6
CONTINUOUS
 62
     7
100
AcDbLine
 10
1093.000000000086
 20
915.6666666667162
 30
0.0
 11
700.0000000000855
 21
915.6666666667162
 31
0.0
  0
LINE
  5
406
330
1F
100
AcDbEntity
  8
LAY-10
  6
CONTINUOUS
 62
     7
100
AcDbLine
 10
709.2000000000852
 20
870.6666666667162
 30
0.0
 11
1083.800000000085
 21
870.6666666667172
 31
0.0
  0
LINE
  5
407
330
1F
100
AcDbEntity
  8
LAY-10
  6
CONTINUOUS
 62
     7
100
AcDbLine
 10
973.0000000001002
 20
848.4666666667173
 30
0.0
 11
973.0000000001002
 21
867.4666666667173
 31
0.0
  0
LINE
  5
408
330
1F
100
AcDbEntity
  8
LAY-10
  6
CONTINUOUS
 62
     7
100
AcDbLine
 10
970.0000000001
 20
848.4666666667164
 30
0.0
 11
970.0000000001
 21
867.4666666667173
 31
0.0
  0
LINE
  5
409
330
1F
100
AcDbEntity
  8
LAY-10
  6
CONTINUOUS
 62
     7
100
AcDbLine
 10
820.0000000001
 20
848.4666666667173
 30
0.0
 11
820.0000000001
 21
867.4666666667173
 31
0.0
  0
LINE
  5
40A
330
1F
100
AcDbEntity
  8
LAY-10
  6
CONTINUOUS
 62
     7
100
AcDbLine
 10
823.0000000001002
 20
848.4666666667164
 30
0.0
 11
823.0000000001002
 21
867.4666666667173
 31
0.0
  0
LINE
  5
40B
330
1F
100
AcDbEntity
  8
LAY-10
  6
CONTINUOUS
 62
     7
100
AcDbLine
 10
820.0000000001
 20
848.4666666667164
 30
0.0
 11
973.0000000001002
 21
848.4666666667164
 31
0.0
  0
LINE
  5
40C
330
1F
100
AcDbEntity
  8
LAY-10
  6
CONTINUOUS
 62
     7
100
AcDbLine
 10
1101.200000000084
 20
912.6666666667162
 30
0.0
 11
1101.200000000084
 21
873.6666666667162
 31
0.0
  0
ARC
  5
40D
330
1F
100
AcDbEntity
  8
LAY-10
  6
CONTINUOUS
 62
     7
100
AcDbCircle
 10
1104.200000000084
 20
873.6666666667162
 30
0.0
 40
3.000000000000003
100
AcDbArc
 50
180.0
 51
270.0000000000002
  0
ARC
  5
40E
330
1F
100
AcDbEntity
  8
LAY-10
  6
CONTINUOUS
 62
     7
100
AcDbCircle
 10
1104.000000000085
 20
873.4666666667164
 30
0.0
 40
6.000000000000005
100
AcDbArc
 50
180.0
 51
270.0000000000002
  0
LINE
  5
40F
330
1F
100
AcDbEntity
  8
LAY-10
  6
CONTINUOUS
 62
     7
100
AcDbLine
 10
1098.000000000085
 20
912.6666666667162
 30
0.0
 11
1098.000000000085
 21
873.4666666667164
 31
0.0
  0
LINE
  5
410
330
1F
100
AcDbEntity
  8
LAY-10
  6
CONTINUOUS
 62
     7
100
AcDbLine
 10
1095.000000000085
 20
915.6666666667162
 30
0.0
 11
1095.000000000085
 21
900.6666666667162
 31
0.0
  0
LINE
  5
411
330
1F
100
AcDbEntity
  8
LAY-10
  6
CONTINUOUS
 62
     7
100
AcDbLine
 10
1095.000000000085
 20
900.6666666667162
 30
0.0
 11
1098.000000000085
 21
900.6666666667162
 31
0.0
  0
LINE
  5
412
330
1F
100
AcDbEntity
  8
LAY-10
  6
CONTINUOUS
 62
     7
100
AcDbLine
 10
1481.800000000085
 20
912.6666666667171
 30
0.0
 11
1481.800000000085
 21
873.6666666667162
 31
0.0
  0
ARC
  5
413
330
1F
100
AcDbEntity
  8
LAY-10
  6
CONTINUOUS
 62
     7
100
AcDbCircle
 10
1478.800000000084
 20
873.6666666667162
 30
0.0
 40
3.000000000000003
100
AcDbArc
 50
270.0000000000002
 51
0.0
  0
ARC
  5
414
330
1F
100
AcDbEntity
  8
LAY-10
  6
CONTINUOUS
 62
     7
100
AcDbCircle
 10
1479.000000000085
 20
873.4666666667173
 30
0.0
 40
6.000000000000005
100
AcDbArc
 50
270.0000000000002
 51
0.0
  0
LINE
  5
415
330
1F
100
AcDbEntity
  8
LAY-10
  6
CONTINUOUS
 62
     7
100
AcDbLine
 10
1485.000000000084
 20
912.6666666667171
 30
0.0
 11
1485.000000000084
 21
873.4666666667173
 31
0.0
  0
LINE
  5
416
330
1F
100
AcDbEntity
  8
LAY-10
  6
CONTINUOUS
 62
     7
100
AcDbLine
 10
1488.000000000085
 20
915.6666666667172
 30
0.0
 11
1488.000000000085
 21
900.6666666667172
 31
0.0
  0
LINE
  5
417
330
1F
100
AcDbEntity
  8
LAY-10
  6
CONTINUOUS
 62
     7
100
AcDbLine
 10
1488.000000000085
 20
900.6666666667172
 30
0.0
 11
1485.000000000084
 21
900.6666666667172
 31
0.0
  0
LINE
  5
418
330
1F
100
AcDbEntity
  8
LAY-10
  6
CONTINUOUS
 62
     7
100
AcDbLine
 10
1488.000000000085
 20
915.6666666667162
 30
0.0
 11
1095.000000000085
 21
915.6666666667162
 31
0.0
  0
LINE
  5
419
330
1F
100
AcDbEntity
  8
LAY-10
  6
CONTINUOUS
 62
     7
100
AcDbLine
 10
1104.200000000084
 20
870.6666666667162
 30
0.0
 11
1478.800000000084
 21
870.6666666667172
 31
0.0
  0
LINE
  5
41A
330
1F
100
AcDbEntity
  8
LAY-10
  6
CONTINUOUS
 62
     7
100
AcDbLine
 10
1368.000000000099
 20
848.4666666667173
 30
0.0
 11
1368.000000000099
 21
867.4666666667173
 31
0.0
  0
LINE
  5
41B
330
1F
100
AcDbEntity
  8
LAY-10
  6
CONTINUOUS
 62
     7
100
AcDbLine
 10
1365.000000000099
 20
848.4666666667164
 30
0.0
 11
1365.000000000099
 21
867.4666666667173
 31
0.0
  0
LINE
  5
41C
330
1F
100
AcDbEntity
  8
LAY-10
  6
CONTINUOUS
 62
     7
100
AcDbLine
 10
1215.000000000099
 20
848.4666666667173
 30
0.0
 11
1215.000000000099
 21
867.4666666667173
 31
0.0
  0
LINE
  5
41D
330
1F
100
AcDbEntity
  8
LAY-10
  6
CONTINUOUS
 62
     7
100
AcDbLine
 10
1218.000000000099
 20
848.4666666667164
 30
0.0
 11
1218.000000000099
 21
867.4666666667173
 31
0.0
  0
LINE
  5
41E
330
1F
100
AcDbEntity
  8
LAY-10
  6
CONTINUOUS
 62
     7
100
AcDbLine
 10
1215.000000000099
 20
848.4666666667164
 30
0.0
 11
1368.000000000099
 21
848.4666666667164
 31
0.0
  0
LINE
  5
41F
330
1F
100
AcDbEntity
  8
LAY-10
  6
CONTINUOUS
 62
     7
100
AcDbLine
 10
1496.200000000084
 20
912.6666666667162
 30
0.0
 11
1496.200000000084
 21
873.6666666667162
 31
0.0
  0
ARC
  5
420
330
1F
100
AcDbEntity
  8
LAY-10
  6
CONTINUOUS
 62
     7
100
AcDbCircle
 10
1499.200000000084
 20
873.6666666667162
 30
0.0
 40
3.000000000000003
100
AcDbArc
 50
180.0
 51
270.0000000000002
  0
ARC
  5
421
330
1F
100
AcDbEntity
  8
LAY-10
  6
CONTINUOUS
 62
     7
100
AcDbCircle
 10
1499.000000000085
 20
873.4666666667164
 30
0.0
 40
6.000000000000005
100
AcDbArc
 50
180.0
 51
270.0000000000002
  0
LINE
  5
422
330
1F
100
AcDbEntity
  8
LAY-10
  6
CONTINUOUS
 62
     7
100
AcDbLine
 10
1493.000000000084
 20
912.6666666667162
 30
0.0
 11
1493.000000000084
 21
873.4666666667164
 31
0.0
  0
LINE
  5
423
330
1F
100
AcDbEntity
  8
LAY-10
  6
CONTINUOUS
 62
     7
100
AcDbLine
 10
1490.000000000085
 20
915.6666666667162
 30
0.0
 11
1490.000000000085
 21
900.6666666667162
 31
0.0
  0
LINE
  5
424
330
1F
100
AcDbEntity
  8
LAY-10
  6
CONTINUOUS
 62
     7
100
AcDbLine
 10
1490.000000000085
 20
900.6666666667162
 30
0.0
 11
1493.000000000084
 21
900.6666666667162
 31
0.0
  0
LINE
  5
425
330
1F
100
AcDbEntity
  8
LAY-10
  6
CONTINUOUS
 62
     7
100
AcDbLine
 10
1876.800000000085
 20
912.6666666667171
 30
0.0
 11
1876.800000000085
 21
873.6666666667162
 31
0.0
  0
ARC
  5
426
330
1F
100
AcDbEntity
  8
LAY-10
  6
CONTINUOUS
 62
     7
100
AcDbCircle
 10
1873.800000000084
 20
873.6666666667162
 30
0.0
 40
3.000000000000003
100
AcDbArc
 50
270.0000000000002
 51
0.0
  0
ARC
  5
427
330
1F
100
AcDbEntity
  8
LAY-10
  6
CONTINUOUS
 62
     7
100
AcDbCircle
 10
1874.000000000085
 20
873.4666666667173
 30
0.0
 40
6.000000000000005
100
AcDbArc
 50
270.0000000000002
 51
0.0
  0
LINE
  5
428
330
1F
100
AcDbEntity
  8
LAY-10
  6
CONTINUOUS
 62
     7
100
AcDbLine
 10
1880.000000000084
 20
912.6666666667171
 30
0.0
 11
1880.000000000084
 21
873.4666666667173
 31
0.0
  0
LINE
  5
429
330
1F
100
AcDbEntity
  8
LAY-10
  6
CONTINUOUS
 62
     7
100
AcDbLine
 10
1883.000000000085
 20
915.6666666667172
 30
0.0
 11
1883.000000000085
 21
900.6666666667172
 31
0.0
  0
LINE
  5
42A
330
1F
100
AcDbEntity
  8
LAY-10
  6
CONTINUOUS
 62
     7
100
AcDbLine
 10
1883.000000000085
 20
900.6666666667172
 30
0.0
 11
1880.000000000084
 21
900.6666666667172
 31
0.0
  0
LINE
  5
42B
330
1F
100
AcDbEntity
  8
LAY-10
  6
CONTINUOUS
 62
     7
100
AcDbLine
 10
1499.200000000084
 20
870.6666666667162
 30
0.0
 11
1873.800000000084
 21
870.6666666667172
 31
0.0
  0
LINE
  5
42C
330
1F
100
AcDbEntity
  8
LAY-10
  6
CONTINUOUS
 62
     7
100
AcDbLine
 10
1763.000000000099
 20
848.4666666667173
 30
0.0
 11
1763.000000000099
 21
867.4666666667173
 31
0.0
  0
LINE
  5
42D
330
1F
100
AcDbEntity
  8
LAY-10
  6
CONTINUOUS
 62
     7
100
AcDbLine
 10
1760.000000000099
 20
848.4666666667164
 30
0.0
 11
1760.000000000099
 21
867.4666666667173
 31
0.0
  0
LINE
  5
42E
330
1F
100
AcDbEntity
  8
LAY-10
  6
CONTINUOUS
 62
     7
100
AcDbLine
 10
1610.000000000099
 20
848.4666666667173
 30
0.0
 11
1610.000000000099
 21
867.4666666667173
 31
0.0
  0
LINE
  5
42F
330
1F
100
AcDbEntity
  8
LAY-10
  6
CONTINUOUS
 62
     7
100
AcDbLine
 10
1613.000000000099
 20
848.4666666667164
 30
0.0
 11
1613.000000000099
 21
867.4666666667173
 31
0.0
  0
LINE
  5
430
330
1F
100
AcDbEntity
  8
LAY-10
  6
CONTINUOUS
 62
     7
100
AcDbLine
 10
1610.000000000099
 20
848.4666666667164
 30
0.0
 11
1763.000000000099
 21
848.4666666667164
 31
0.0
  0
LINE
  5
431
330
1F
100
AcDbEntity
  8
LAY-10
  6
CONTINUOUS
 62
     7
100
AcDbLine
 10
301.0000000000964
 20
865.4666666666163
 30
0.0
 11
425.0000000001
 21
865.4666666666163
 31
0.0
  0
LINE
  5
432
330
1F
100
AcDbEntity
  8
LAY-10
  6
CONTINUOUS
 62
     7
100
AcDbLine
 10
578.0000000001
 20
865.4666666666163
 30
0.0
 11
820.0000000001
 21
865.4666666666163
 31
0.0
  0
LINE
  5
433
330
1F
100
AcDbEntity
  8
LAY-10
  6
CONTINUOUS
 62
     7
100
AcDbLine
 10
973.0000000001002
 20
865.4666666666163
 30
0.0
 11
1215.000000000099
 21
865.4666666666163
 31
0.0
  0
LINE
  5
434
330
1F
100
AcDbEntity
  8
LAY-10
  6
CONTINUOUS
 62
     7
100
AcDbLine
 10
1368.000000000099
 20
865.4666666666163
 30
0.0
 11
1610.000000000099
 21
865.4666666666163
 31
0.0
  0
LINE
  5
435
330
1F
100
AcDbEntity
  8
LAY-10
  6
CONTINUOUS
 62
     7
100
AcDbLine
 10
1763.000000000099
 20
865.4666666666163
 30
0.0
 11
1887.000000000082
 21
865.4666666666163
 31
0.0
  0
LINE
  5
436
330
1F
100
AcDbEntity
  8
LAY-10
  6
CONTINUOUS
 62
     7
100
AcDbLine
 10
2366.200000000097
 20
1649.833333333322
 30
0.0
 11
2347.200000000099
 21
1649.833333333321
 31
0.0
  0
LINE
  5
437
330
1F
100
AcDbEntity
  8
LAY-10
  6
CONTINUOUS
 62
     7
100
AcDbLine
 10
2366.200000000097
 20
1646.833333333322
 30
0.0
 11
2347.200000000099
 21
1646.833333333321
 31
0.0
  0
LINE
  5
438
330
1F
100
AcDbEntity
  8
LAY-10
  6
CONTINUOUS
 62
     7
100
AcDbLine
 10
2366.200000000097
 20
1997.500000000017
 30
0.0
 11
2347.200000000099
 21
1997.500000000017
 31
0.0
  0
LINE
  5
439
330
1F
100
AcDbEntity
  8
LAY-10
  6
CONTINUOUS
 62
     7
100
AcDbLine
 10
2366.200000000097
 20
2000.500000000017
 30
0.0
 11
2347.200000000099
 21
2000.500000000017
 31
0.0
  0
LINE
  5
43A
330
1F
100
AcDbEntity
  8
LAY-10
  6
CONTINUOUS
 62
     7
100
AcDbLine
 10
2383.800000000076
 20
2309.1666666666
 30
0.0
 11
2383.800000000076
 21
1339.666666666617
 31
0.0
  0
LINE
  5
43B
330
1F
100
AcDbEntity
  8
LAY-10
  6
CONTINUOUS
 62
     7
100
AcDbLine
 10
2399.200000000075
 20
2263.666666666616
 30
0.0
 11
2399.200000000075
 21
2313.866666666619
 31
0.0
  0
LINE
  5
43C
330
1F
100
AcDbEntity
  8
LAY-10
  6
CONTINUOUS
 62
     7
100
AcDbLine
 10
2399.200000000075
 20
1383.666666666616
 30
0.0
 11
2399.200000000075
 21
1333.466666666616
 31
0.0
  0
LINE
  5
43D
330
1F
100
AcDbEntity
  8
LAY-10
  6
CONTINUOUS
 62
     7
100
AcDbLine
 10
2302.000000000076
 20
2346.666666666614
 30
0.0
 11
2341.200000000077
 21
2346.666666666614
 31
0.0
  0
LINE
  5
43E
330
1F
100
AcDbEntity
  8
LAY-10
  6
CONTINUOUS
 62
     7
100
AcDbLine
 10
2347.200000000099
 20
2341.666666666618
 30
0.0
 11
2347.200000000099
 21
1305.666666666616
 31
0.0
  0
CIRCLE
  5
43F
330
1F
100
AcDbEntity
  8
LAY-10
  6
CONTINUOUS
 62
     7
100
AcDbCircle
 10
486.000000000118
 20
834.0666666666159
 30
0.0
 40
3.000000000000003
  0
ARC
  5
440
330
1F
100
AcDbEntity
  8
LAY-10
  6
CONTINUOUS
 62
     7
100
AcDbCircle
 10
442.3000000001191
 20
834.0666666666159
 30
0.0
 40
4.0
100
AcDbArc
 50
48.56057832090708
 51
180.0
  0
ARC
  5
441
330
1F
100
AcDbEntity
  8
LAY-10
  6
CONTINUOUS
 62
     7
100
AcDbCircle
 10
438.3000000001201
 20
832.0666666666159
 30
0.0
 40
1.0
100
AcDbArc
 50
270.0000000000002
 51
0.0
  0
LINE
  5
442
330
1F
100
AcDbEntity
  8
LAY-10
  6
CONTINUOUS
 62
     7
100
AcDbLine
 10
438.3000000001201
 20
834.0666666666159
 30
0.0
 11
438.3000000001201
 21
832.0666666666159
 31
0.0
  0
LINE
  5
443
330
1F
100
AcDbEntity
  8
LAY-10
  6
CONTINUOUS
 62
     7
100
AcDbLine
 10
438.3000000001201
 20
832.0666666666159
 30
0.0
 11
429.3000000001182
 21
832.0666666666168
 31
0.0
  0
LINE
  5
444
330
1F
100
AcDbEntity
  8
LAY-10
  6
CONTINUOUS
 62
     7
100
AcDbLine
 10
429.3000000001182
 20
832.0666666666168
 30
0.0
 11
429.3000000001182
 21
831.0666666666159
 31
0.0
  0
LINE
  5
445
330
1F
100
AcDbEntity
  8
LAY-10
  6
CONTINUOUS
 62
     7
100
AcDbLine
 10
439.3000000001192
 20
832.0666666666159
 30
0.0
 11
439.3000000001192
 21
834.0666666666159
 31
0.0
  0
ARC
  5
446
330
1F
100
AcDbEntity
  8
LAY-10
  6
CONTINUOUS
 62
     7
100
AcDbCircle
 10
442.3000000001191
 20
834.0666666666159
 30
0.0
 40
3.000000000000003
100
AcDbArc
 50
88.26429541115186
 51
270.0000000000002
  0
LINE
  5
447
330
1F
100
AcDbEntity
  8
LAY-10
  6
CONTINUOUS
 62
     7
100
AcDbLine
 10
486.0908673800421
 20
837.0652902040522
 30
0.0
 11
442.39086738004
 21
837.0652902040522
 31
0.0
  0
LINE
  5
448
330
1F
100
AcDbEntity
  8
LAY-10
  6
CONTINUOUS
 62
     7
100
AcDbLine
 10
2352.400000000076
 20
2353.5529581676
 30
0.0
 11
2352.400000000076
 21
2316.866666666615
 31
0.0
  0
LINE
  5
449
330
1F
100
AcDbEntity
  8
LAY-10
  6
CONTINUOUS
 62
     7
100
AcDbLine
 10
2396.000000000078
 20
2293.666666666616
 30
0.0
 11
2396.000000000078
 21
2263.666666666616
 31
0.0
  0
LINE
  5
44A
330
1F
100
AcDbEntity
  8
LAY-10
  6
CONTINUOUS
 62
     7
100
AcDbLine
 10
2387.000000000075
 20
2293.666666666616
 30
0.0
 11
2387.000000000075
 21
1353.666666666616
 31
0.0
  0
LINE
  5
44B
330
1F
100
AcDbEntity
  8
LAY-10
  6
CONTINUOUS
 62
     7
100
AcDbLine
 10
2387.000000000075
 20
2303.666666666618
 30
0.0
 11
2387.000000000075
 21
2307.666666666618
 31
0.0
  0
LINE
  5
44C
330
1F
100
AcDbEntity
  8
LAY-10
  6
CONTINUOUS
 62
     7
100
AcDbLine
 10
2396.000000000078
 20
2303.666666666618
 30
0.0
 11
2396.000000000078
 21
2313.666666666618
 31
0.0
  0
LINE
  5
44D
330
1F
100
AcDbEntity
  8
LAY-10
  6
CONTINUOUS
 62
     7
100
AcDbLine
 10
1878.000000000082
 20
827.8666666666169
 30
0.0
 11
1874.00000000008
 21
827.8666666666169
 31
0.0
  0
LINE
  5
44E
330
1F
100
AcDbEntity
  8
LAY-10
  6
CONTINUOUS
 62
     7
100
AcDbLine
 10
324.0000000000946
 20
827.8666666666152
 30
0.0
 11
1864.000000000082
 21
827.8666666666154
 31
0.0
  0
LINE
  5
44F
330
1F
100
AcDbEntity
  8
LAY-10
  6
CONTINUOUS
 62
     7
100
AcDbLine
 10
2352.2000000001
 20
2313.666666666618
 30
0.0
 11
2396.000000000078
 21
2313.666666666618
 31
0.0
  0
LINE
  5
450
330
1F
100
AcDbEntity
  8
LAY-10
  6
CONTINUOUS
 62
     7
100
AcDbLine
 10
2352.4000000001
 20
2316.866666666615
 30
0.0
 11
2396.200000000077
 21
2316.866666666615
 31
0.0
  0
LINE
  5
451
330
1F
100
AcDbEntity
  8
LAY-10
  6
CONTINUOUS
 62
     7
100
AcDbLine
 10
1089.500000000081
 20
2365.666666666614
 30
0.0
 11
1089.500000000081
 21
2394.565151476451
 31
0.0
  0
LINE
  5
452
330
1F
100
AcDbEntity
  8
LAY-10
  6
CONTINUOUS
 62
     7
100
AcDbLine
 10
1098.500000000082
 20
2365.666666666614
 30
0.0
 11
1098.500000000082
 21
2394.565151476451
 31
0.0
  0
LINE
  5
453
330
1F
100
AcDbEntity
  8
LAY-10
  6
CONTINUOUS
 62
     7
100
AcDbLine
 10
1089.500000000081
 20
2394.565151476451
 30
0.0
 11
1098.500000000082
 21
2394.565151476451
 31
0.0
  0
LINE
  5
454
330
1F
100
AcDbEntity
  8
LAY-10
  6
CONTINUOUS
 62
     7
100
AcDbLine
 10
1589.500000000081
 20
2365.666666666614
 30
0.0
 11
1589.500000000081
 21
2394.565151476451
 31
0.0
  0
LINE
  5
455
330
1F
100
AcDbEntity
  8
LAY-10
  6
CONTINUOUS
 62
     7
100
AcDbLine
 10
1598.500000000082
 20
2365.666666666614
 30
0.0
 11
1598.500000000082
 21
2394.565151476451
 31
0.0
  0
LINE
  5
456
330
1F
100
AcDbEntity
  8
LAY-10
  6
CONTINUOUS
 62
     7
100
AcDbLine
 10
1589.500000000081
 20
2394.565151476451
 30
0.0
 11
1598.500000000082
 21
2394.565151476451
 31
0.0
  0
LINE
  5
457
330
1F
100
AcDbEntity
  8
LAY-10
  6
CONTINUOUS
 62
     7
100
AcDbLine
 10
598.5000000000191
 20
2365.666666666614
 30
0.0
 11
598.5000000000191
 21
2394.565151476451
 31
0.0
  0
LINE
  5
458
330
1F
100
AcDbEntity
  8
LAY-10
  6
CONTINUOUS
 62
     7
100
AcDbLine
 10
589.5000000000182
 20
2365.666666666614
 30
0.0
 11
589.5000000000182
 21
2394.565151476451
 31
0.0
  0
LINE
  5
459
330
1F
100
AcDbEntity
  8
LAY-10
  6
CONTINUOUS
 62
     7
100
AcDbLine
 10
598.5000000000191
 20
2394.565151476451
 30
0.0
 11
589.5000000000182
 21
2394.565151476451
 31
0.0
  0
LINE
  5
45A
330
1F
100
AcDbEntity
  8
LAY-10
  6
CONTINUOUS
 62
     7
100
AcDbLine
 10
1089.500000000081
 20
1281.666666666618
 30
0.0
 11
1089.500000000081
 21
1252.768181856781
 31
0.0
  0
LINE
  5
45B
330
1F
100
AcDbEntity
  8
LAY-10
  6
CONTINUOUS
 62
     7
100
AcDbLine
 10
1098.500000000082
 20
1281.666666666618
 30
0.0
 11
1098.500000000082
 21
1252.768181856781
 31
0.0
  0
LINE
  5
45C
330
1F
100
AcDbEntity
  8
LAY-10
  6
CONTINUOUS
 62
     7
100
AcDbLine
 10
1089.500000000081
 20
1252.768181856781
 30
0.0
 11
1098.500000000082
 21
1252.768181856781
 31
0.0
  0
LINE
  5
45D
330
1F
100
AcDbEntity
  8
LAY-10
  6
CONTINUOUS
 62
     7
100
AcDbLine
 10
1589.500000000081
 20
1281.666666666618
 30
0.0
 11
1589.500000000081
 21
1252.768181856781
 31
0.0
  0
LINE
  5
45E
330
1F
100
AcDbEntity
  8
LAY-10
  6
CONTINUOUS
 62
     7
100
AcDbLine
 10
1598.500000000082
 20
1281.666666666618
 30
0.0
 11
1598.500000000082
 21
1252.768181856781
 31
0.0
  0
LINE
  5
45F
330
1F
100
AcDbEntity
  8
LAY-10
  6
CONTINUOUS
 62
     7
100
AcDbLine
 10
1589.500000000081
 20
1252.768181856781
 30
0.0
 11
1598.500000000082
 21
1252.768181856781
 31
0.0
  0
LINE
  5
460
330
1F
100
AcDbEntity
  8
LAY-10
  6
CONTINUOUS
 62
     7
100
AcDbLine
 10
598.5000000000191
 20
1281.666666666618
 30
0.0
 11
598.5000000000191
 21
1252.768181856781
 31
0.0
  0
LINE
  5
461
330
1F
100
AcDbEntity
  8
LAY-10
  6
CONTINUOUS
 62
     7
100
AcDbLine
 10
589.5000000000182
 20
1281.666666666618
 30
0.0
 11
589.5000000000182
 21
1252.768181856781
 31
0.0
  0
LINE
  5
462
330
1F
100
AcDbEntity
  8
LAY-10
  6
CONTINUOUS
 62
     7
100
AcDbLine
 10
598.5000000000191
 20
1252.768181856781
 30
0.0
 11
589.5000000000182
 21
1252.768181856781
 31
0.0
  0
LINE
  5
463
330
1F
100
AcDbEntity
  8
LAY-10
  6
CONTINUOUS
 62
     7
100
AcDbLine
 10
289.0000000000525
 20
2078.166666666586
 30
0.0
 11
254.4446609407159
 21
2078.166666666586
 31
0.0
  0
LINE
  5
464
330
1F
100
AcDbEntity
  8
LAY-10
  6
CONTINUOUS
 62
     7
100
AcDbLine
 10
289.0000000000525
 20
2069.166666666585
 30
0.0
 11
254.4446609407159
 21
2069.166666666585
 31
0.0
  0
LINE
  5
465
330
1F
100
AcDbEntity
  8
LAY-10
  6
CONTINUOUS
 62
     7
100
AcDbLine
 10
254.4446609407159
 20
2078.166666666586
 30
0.0
 11
254.4446609407159
 21
2069.166666666585
 31
0.0
  0
LINE
  5
466
330
1F
100
AcDbEntity
  8
LAY-10
  6
CONTINUOUS
 62
     7
100
AcDbLine
 10
289.0000000000525
 20
1569.166666666646
 30
0.0
 11
254.444660940716
 21
1569.166666666647
 31
0.0
  0
LINE
  5
467
330
1F
100
AcDbEntity
  8
LAY-10
  6
CONTINUOUS
 62
     7
100
AcDbLine
 10
289.0000000000525
 20
1578.166666666647
 30
0.0
 11
254.444660940716
 21
1578.166666666647
 31
0.0
  0
LINE
  5
468
330
1F
100
AcDbEntity
  8
LAY-10
  6
CONTINUOUS
 62
     7
100
AcDbLine
 10
254.444660940716
 20
1569.166666666647
 30
0.0
 11
254.444660940716
 21
1578.166666666647
 31
0.0
  0
LINE
  5
469
330
1F
100
AcDbEntity
  8
LAY-10
  6
CONTINUOUS
 62
     7
100
AcDbLine
 10
1899.000000000048
 20
2078.166666666586
 30
0.0
 11
1933.555339059384
 21
2078.166666666586
 31
0.0
  0
LINE
  5
46A
330
1F
100
AcDbEntity
  8
LAY-10
  6
CONTINUOUS
 62
     7
100
AcDbLine
 10
1899.000000000048
 20
2069.166666666585
 30
0.0
 11
1933.555339059384
 21
2069.166666666585
 31
0.0
  0
LINE
  5
46B
330
1F
100
AcDbEntity
  8
LAY-10
  6
CONTINUOUS
 62
     7
100
AcDbLine
 10
1933.555339059384
 20
2078.166666666586
 30
0.0
 11
1933.555339059384
 21
2069.166666666585
 31
0.0
  0
LINE
  5
46C
330
1F
100
AcDbEntity
  8
LAY-10
  6
CONTINUOUS
 62
     7
100
AcDbLine
 10
1899.000000000048
 20
1569.166666666646
 30
0.0
 11
1933.555339059384
 21
1569.166666666647
 31
0.0
  0
LINE
  5
46D
330
1F
100
AcDbEntity
  8
LAY-10
  6
CONTINUOUS
 62
     7
100
AcDbLine
 10
1899.000000000048
 20
1578.166666666647
 30
0.0
 11
1933.555339059384
 21
1578.166666666647
 31
0.0
  0
LINE
  5
46E
330
1F
100
AcDbEntity
  8
LAY-10
  6
CONTINUOUS
 62
     7
100
AcDbLine
 10
1933.555339059384
 20
1569.166666666647
 30
0.0
 11
1933.555339059384
 21
1578.166666666647
 31
0.0
  0
LINE
  5
46F
330
1F
100
AcDbEntity
  8
LAY-10
  6
CONTINUOUS
 62
     7
100
AcDbLine
 10
352.0000000000891
 20
2302.666666666518
 30
0.0
 11
352.0000000000891
 21
2334.666666666517
 31
0.0
  0
LINE
  5
470
330
1F
100
AcDbEntity
  8
LAY-10
  6
CONTINUOUS
 62
     7
100
AcDbLine
 10
352.00000000009
 20
2302.666666666518
 30
0.0
 11
320.00000000009
 21
2302.666666666518
 31
0.0
  0
LINE
  5
471
330
1F
100
AcDbEntity
  8
LAY-10
  6
CONTINUOUS
 62
     7
100
AcDbLine
 10
346.50000000009
 20
2322.666666666516
 30
0.0
 11
348.1063000128934
 21
2322.666666666516
 31
0.0
  0
LINE
  5
472
330
1F
100
AcDbEntity
  8
LAY-10
  6
CONTINUOUS
 62
     7
100
AcDbLine
 10
346.50000000009
 20
2314.666666666518
 30
0.0
 11
348.1063000128934
 21
2314.666666666518
 31
0.0
  0
LINE
  5
473
330
1F
100
AcDbEntity
  8
LAY-10
  6
CONTINUOUS
 62
     7
100
AcDbLine
 10
346.50000000009
 20
2314.666666666518
 30
0.0
 11
346.50000000009
 21
2322.666666666516
 31
0.0
  0
LINE
  5
474
330
1F
100
AcDbEntity
  8
LAY-10
  6
CONTINUOUS
 62
     7
100
AcDbLine
 10
336.00000000009
 20
2325.166666666517
 30
0.0
 11
340.00000000009
 21
2318.666666666517
 31
0.0
  0
LINE
  5
475
330
1F
100
AcDbEntity
  8
LAY-10
  6
CONTINUOUS
 62
     7
100
AcDbLine
 10
340.00000000009
 20
2318.666666666517
 30
0.0
 11
336.00000000009
 21
2312.166666666517
 31
0.0
  0
LINE
  5
476
330
1F
100
AcDbEntity
  8
LAY-10
  6
CONTINUOUS
 62
     7
100
AcDbLine
 10
336.00000000009
 20
2312.166666666517
 30
0.0
 11
332.00000000009
 21
2318.666666666517
 31
0.0
  0
LINE
  5
477
330
1F
100
AcDbEntity
  8
LAY-10
  6
CONTINUOUS
 62
     7
100
AcDbLine
 10
332.00000000009
 20
2318.666666666517
 30
0.0
 11
336.00000000009
 21
2325.166666666517
 31
0.0
  0
CIRCLE
  5
478
330
1F
100
AcDbEntity
  8
LAY-10
  6
CONTINUOUS
 62
     7
100
AcDbCircle
 10
336.00000000009
 20
2318.666666666517
 30
0.0
 40
12.75000000000001
  0
LINE
  5
479
330
1F
100
AcDbEntity
  8
LAY-10
  6
CONTINUOUS
 62
     7
100
AcDbLine
 10
651.000000000081
 20
2302.666666666518
 30
0.0
 11
651.000000000081
 21
2334.666666666517
 31
0.0
  0
LINE
  5
47A
330
1F
100
AcDbEntity
  8
LAY-10
  6
CONTINUOUS
 62
     7
100
AcDbLine
 10
683.00000000008
 20
2302.666666666518
 30
0.0
 11
651.00000000008
 21
2302.666666666518
 31
0.0
  0
LINE
  5
47B
330
1F
100
AcDbEntity
  8
LAY-10
  6
CONTINUOUS
 62
     7
100
AcDbLine
 10
677.5000000000799
 20
2322.666666666516
 30
0.0
 11
679.1063000128834
 21
2322.666666666516
 31
0.0
  0
LINE
  5
47C
330
1F
100
AcDbEntity
  8
LAY-10
  6
CONTINUOUS
 62
     7
100
AcDbLine
 10
677.5000000000799
 20
2314.666666666518
 30
0.0
 11
679.1063000128834
 21
2314.666666666518
 31
0.0
  0
LINE
  5
47D
330
1F
100
AcDbEntity
  8
LAY-10
  6
CONTINUOUS
 62
     7
100
AcDbLine
 10
677.5000000000799
 20
2314.666666666518
 30
0.0
 11
677.5000000000799
 21
2322.666666666516
 31
0.0
  0
LINE
  5
47E
330
1F
100
AcDbEntity
  8
LAY-10
  6
CONTINUOUS
 62
     7
100
AcDbLine
 10
667.00000000008
 20
2325.166666666517
 30
0.0
 11
671.00000000008
 21
2318.666666666517
 31
0.0
  0
LINE
  5
47F
330
1F
100
AcDbEntity
  8
LAY-10
  6
CONTINUOUS
 62
     7
100
AcDbLine
 10
671.00000000008
 20
2318.666666666517
 30
0.0
 11
667.00000000008
 21
2312.166666666517
 31
0.0
  0
LINE
  5
480
330
1F
100
AcDbEntity
  8
LAY-10
  6
CONTINUOUS
 62
     7
100
AcDbLine
 10
667.00000000008
 20
2312.166666666517
 30
0.0
 11
663.00000000008
 21
2318.666666666517
 31
0.0
  0
LINE
  5
481
330
1F
100
AcDbEntity
  8
LAY-10
  6
CONTINUOUS
 62
     7
100
AcDbLine
 10
663.00000000008
 20
2318.666666666517
 30
0.0
 11
667.00000000008
 21
2325.166666666517
 31
0.0
  0
CIRCLE
  5
482
330
1F
100
AcDbEntity
  8
LAY-10
  6
CONTINUOUS
 62
     7
100
AcDbCircle
 10
667.00000000008
 20
2318.666666666517
 30
0.0
 40
12.75000000000001
  0
LINE
  5
483
330
1F
100
AcDbEntity
  8
LAY-10
  6
CONTINUOUS
 62
     7
100
AcDbLine
 10
747.0000000001091
 20
2302.666666666518
 30
0.0
 11
747.0000000001091
 21
2334.666666666517
 31
0.0
  0
LINE
  5
484
330
1F
100
AcDbEntity
  8
LAY-10
  6
CONTINUOUS
 62
     7
100
AcDbLine
 10
747.0000000001099
 20
2302.666666666518
 30
0.0
 11
715.00000000011
 21
2302.666666666518
 31
0.0
  0
LINE
  5
485
330
1F
100
AcDbEntity
  8
LAY-10
  6
CONTINUOUS
 62
     7
100
AcDbLine
 10
741.50000000011
 20
2322.666666666516
 30
0.0
 11
743.1063000129134
 21
2322.666666666516
 31
0.0
  0
LINE
  5
486
330
1F
100
AcDbEntity
  8
LAY-10
  6
CONTINUOUS
 62
     7
100
AcDbLine
 10
741.50000000011
 20
2314.666666666518
 30
0.0
 11
743.1063000129134
 21
2314.666666666518
 31
0.0
  0
LINE
  5
487
330
1F
100
AcDbEntity
  8
LAY-10
  6
CONTINUOUS
 62
     7
100
AcDbLine
 10
741.50000000011
 20
2314.666666666518
 30
0.0
 11
741.50000000011
 21
2322.666666666516
 31
0.0
  0
LINE
  5
488
330
1F
100
AcDbEntity
  8
LAY-10
  6
CONTINUOUS
 62
     7
100
AcDbLine
 10
731.00000000011
 20
2325.166666666517
 30
0.0
 11
735.00000000011
 21
2318.666666666517
 31
0.0
  0
LINE
  5
489
330
1F
100
AcDbEntity
  8
LAY-10
  6
CONTINUOUS
 62
     7
100
AcDbLine
 10
735.00000000011
 20
2318.666666666517
 30
0.0
 11
731.00000000011
 21
2312.166666666517
 31
0.0
  0
LINE
  5
48A
330
1F
100
AcDbEntity
  8
LAY-10
  6
CONTINUOUS
 62
     7
100
AcDbLine
 10
731.00000000011
 20
2312.166666666517
 30
0.0
 11
727.0000000001099
 21
2318.666666666517
 31
0.0
  0
LINE
  5
48B
330
1F
100
AcDbEntity
  8
LAY-10
  6
CONTINUOUS
 62
     7
100
AcDbLine
 10
727.0000000001099
 20
2318.666666666517
 30
0.0
 11
731.00000000011
 21
2325.166666666517
 31
0.0
  0
CIRCLE
  5
48C
330
1F
100
AcDbEntity
  8
LAY-10
  6
CONTINUOUS
 62
     7
100
AcDbCircle
 10
731.00000000011
 20
2318.666666666517
 30
0.0
 40
12.75000000000001
  0
LINE
  5
48D
330
1F
100
AcDbEntity
  8
LAY-10
  6
CONTINUOUS
 62
     7
100
AcDbLine
 10
1046.000000000101
 20
2302.666666666518
 30
0.0
 11
1046.000000000101
 21
2334.666666666517
 31
0.0
  0
LINE
  5
48E
330
1F
100
AcDbEntity
  8
LAY-10
  6
CONTINUOUS
 62
     7
100
AcDbLine
 10
1078.0000000001
 20
2302.666666666518
 30
0.0
 11
1046.0000000001
 21
2302.666666666518
 31
0.0
  0
LINE
  5
48F
330
1F
100
AcDbEntity
  8
LAY-10
  6
CONTINUOUS
 62
     7
100
AcDbLine
 10
1072.5000000001
 20
2322.666666666516
 30
0.0
 11
1074.106300012903
 21
2322.666666666516
 31
0.0
  0
LINE
  5
490
330
1F
100
AcDbEntity
  8
LAY-10
  6
CONTINUOUS
 62
     7
100
AcDbLine
 10
1072.5000000001
 20
2314.666666666518
 30
0.0
 11
1074.106300012903
 21
2314.666666666518
 31
0.0
  0
LINE
  5
491
330
1F
100
AcDbEntity
  8
LAY-10
  6
CONTINUOUS
 62
     7
100
AcDbLine
 10
1072.5000000001
 20
2314.666666666518
 30
0.0
 11
1072.5000000001
 21
2322.666666666516
 31
0.0
  0
LINE
  5
492
330
1F
100
AcDbEntity
  8
LAY-10
  6
CONTINUOUS
 62
     7
100
AcDbLine
 10
1062.0000000001
 20
2325.166666666517
 30
0.0
 11
1066.0000000001
 21
2318.666666666517
 31
0.0
  0
LINE
  5
493
330
1F
100
AcDbEntity
  8
LAY-10
  6
CONTINUOUS
 62
     7
100
AcDbLine
 10
1066.0000000001
 20
2318.666666666517
 30
0.0
 11
1062.0000000001
 21
2312.166666666517
 31
0.0
  0
LINE
  5
494
330
1F
100
AcDbEntity
  8
LAY-10
  6
CONTINUOUS
 62
     7
100
AcDbLine
 10
1062.0000000001
 20
2312.166666666517
 30
0.0
 11
1058.0000000001
 21
2318.666666666517
 31
0.0
  0
LINE
  5
495
330
1F
100
AcDbEntity
  8
LAY-10
  6
CONTINUOUS
 62
     7
100
AcDbLine
 10
1058.0000000001
 20
2318.666666666517
 30
0.0
 11
1062.0000000001
 21
2325.166666666517
 31
0.0
  0
CIRCLE
  5
496
330
1F
100
AcDbEntity
  8
LAY-10
  6
CONTINUOUS
 62
     7
100
AcDbCircle
 10
1062.0000000001
 20
2318.666666666517
 30
0.0
 40
12.75000000000001
  0
LINE
  5
497
330
1F
100
AcDbEntity
  8
LAY-10
  6
CONTINUOUS
 62
     7
100
AcDbLine
 10
1142.000000000109
 20
2302.666666666518
 30
0.0
 11
1142.000000000109
 21
2334.666666666517
 31
0.0
  0
LINE
  5
498
330
1F
100
AcDbEntity
  8
LAY-10
  6
CONTINUOUS
 62
     7
100
AcDbLine
 10
1142.00000000011
 20
2302.666666666518
 30
0.0
 11
1110.00000000011
 21
2302.666666666518
 31
0.0
  0
LINE
  5
499
330
1F
100
AcDbEntity
  8
LAY-10
  6
CONTINUOUS
 62
     7
100
AcDbLine
 10
1136.50000000011
 20
2322.666666666516
 30
0.0
 11
1138.106300012913
 21
2322.666666666516
 31
0.0
  0
LINE
  5
49A
330
1F
100
AcDbEntity
  8
LAY-10
  6
CONTINUOUS
 62
     7
100
AcDbLine
 10
1136.50000000011
 20
2314.666666666518
 30
0.0
 11
1138.106300012913
 21
2314.666666666518
 31
0.0
  0
LINE
  5
49B
330
1F
100
AcDbEntity
  8
LAY-10
  6
CONTINUOUS
 62
     7
100
AcDbLine
 10
1136.50000000011
 20
2314.666666666518
 30
0.0
 11
1136.50000000011
 21
2322.666666666516
 31
0.0
  0
LINE
  5
49C
330
1F
100
AcDbEntity
  8
LAY-10
  6
CONTINUOUS
 62
     7
100
AcDbLine
 10
1126.00000000011
 20
2325.166666666517
 30
0.0
 11
1130.00000000011
 21
2318.666666666517
 31
0.0
  0
LINE
  5
49D
330
1F
100
AcDbEntity
  8
LAY-10
  6
CONTINUOUS
 62
     7
100
AcDbLine
 10
1130.00000000011
 20
2318.666666666517
 30
0.0
 11
1126.00000000011
 21
2312.166666666517
 31
0.0
  0
LINE
  5
49E
330
1F
100
AcDbEntity
  8
LAY-10
  6
CONTINUOUS
 62
     7
100
AcDbLine
 10
1126.00000000011
 20
2312.166666666517
 30
0.0
 11
1122.00000000011
 21
2318.666666666517
 31
0.0
  0
LINE
  5
49F
330
1F
100
AcDbEntity
  8
LAY-10
  6
CONTINUOUS
 62
     7
100
AcDbLine
 10
1122.00000000011
 20
2318.666666666517
 30
0.0
 11
1126.00000000011
 21
2325.166666666517
 31
0.0
  0
CIRCLE
  5
4A0
330
1F
100
AcDbEntity
  8
LAY-10
  6
CONTINUOUS
 62
     7
100
AcDbCircle
 10
1126.00000000011
 20
2318.666666666517
 30
0.0
 40
12.75000000000001
  0
LINE
  5
4A1
330
1F
100
AcDbEntity
  8
LAY-10
  6
CONTINUOUS
 62
     7
100
AcDbLine
 10
352.0000000000892
 20
1344.666666666714
 30
0.0
 11
352.0000000000892
 21
1312.666666666715
 31
0.0
  0
LINE
  5
4A2
330
1F
100
AcDbEntity
  8
LAY-10
  6
CONTINUOUS
 62
     7
100
AcDbLine
 10
352.0000000000901
 20
1344.666666666714
 30
0.0
 11
320.0000000000901
 21
1344.666666666714
 31
0.0
  0
LINE
  5
4A3
330
1F
100
AcDbEntity
  8
LAY-10
  6
CONTINUOUS
 62
     7
100
AcDbLine
 10
346.50000000009
 20
1324.666666666716
 30
0.0
 11
348.1063000128934
 21
1324.666666666716
 31
0.0
  0
LINE
  5
4A4
330
1F
100
AcDbEntity
  8
LAY-10
  6
CONTINUOUS
 62
     7
100
AcDbLine
 10
346.50000000009
 20
1332.666666666714
 30
0.0
 11
348.1063000128934
 21
1332.666666666714
 31
0.0
  0
LINE
  5
4A5
330
1F
100
AcDbEntity
  8
LAY-10
  6
CONTINUOUS
 62
     7
100
AcDbLine
 10
346.50000000009
 20
1332.666666666714
 30
0.0
 11
346.50000000009
 21
1324.666666666716
 31
0.0
  0
LINE
  5
4A6
330
1F
100
AcDbEntity
  8
LAY-10
  6
CONTINUOUS
 62
     7
100
AcDbLine
 10
336.0000000000901
 20
1322.166666666715
 30
0.0
 11
340.0000000000901
 21
1328.666666666715
 31
0.0
  0
LINE
  5
4A7
330
1F
100
AcDbEntity
  8
LAY-10
  6
CONTINUOUS
 62
     7
100
AcDbLine
 10
340.0000000000901
 20
1328.666666666715
 30
0.0
 11
336.0000000000901
 21
1335.166666666715
 31
0.0
  0
LINE
  5
4A8
330
1F
100
AcDbEntity
  8
LAY-10
  6
CONTINUOUS
 62
     7
100
AcDbLine
 10
336.0000000000901
 20
1335.166666666715
 30
0.0
 11
332.0000000000901
 21
1328.666666666715
 31
0.0
  0
LINE
  5
4A9
330
1F
100
AcDbEntity
  8
LAY-10
  6
CONTINUOUS
 62
     7
100
AcDbLine
 10
332.0000000000901
 20
1328.666666666715
 30
0.0
 11
336.0000000000901
 21
1322.166666666715
 31
0.0
  0
CIRCLE
  5
4AA
330
1F
100
AcDbEntity
  8
LAY-10
  6
CONTINUOUS
 62
     7
100
AcDbCircle
 10
336.0000000000901
 20
1328.666666666715
 30
0.0
 40
12.75000000000001
  0
LINE
  5
4AB
330
1F
100
AcDbEntity
  8
LAY-10
  6
CONTINUOUS
 62
     7
100
AcDbLine
 10
651.000000000081
 20
1344.666666666714
 30
0.0
 11
651.000000000081
 21
1312.666666666715
 31
0.0
  0
LINE
  5
4AC
330
1F
100
AcDbEntity
  8
LAY-10
  6
CONTINUOUS
 62
     7
100
AcDbLine
 10
683.00000000008
 20
1344.666666666714
 30
0.0
 11
651.00000000008
 21
1344.666666666714
 31
0.0
  0
LINE
  5
4AD
330
1F
100
AcDbEntity
  8
LAY-10
  6
CONTINUOUS
 62
     7
100
AcDbLine
 10
677.5000000000799
 20
1324.666666666716
 30
0.0
 11
679.1063000128834
 21
1324.666666666716
 31
0.0
  0
LINE
  5
4AE
330
1F
100
AcDbEntity
  8
LAY-10
  6
CONTINUOUS
 62
     7
100
AcDbLine
 10
677.5000000000799
 20
1332.666666666714
 30
0.0
 11
679.1063000128834
 21
1332.666666666714
 31
0.0
  0
LINE
  5
4AF
330
1F
100
AcDbEntity
  8
LAY-10
  6
CONTINUOUS
 62
     7
100
AcDbLine
 10
677.5000000000799
 20
1332.666666666714
 30
0.0
 11
677.5000000000799
 21
1324.666666666716
 31
0.0
  0
LINE
  5
4B0
330
1F
100
AcDbEntity
  8
LAY-10
  6
CONTINUOUS
 62
     7
100
AcDbLine
 10
667.00000000008
 20
1322.166666666715
 30
0.0
 11
671.00000000008
 21
1328.666666666715
 31
0.0
  0
LINE
  5
4B1
330
1F
100
AcDbEntity
  8
LAY-10
  6
CONTINUOUS
 62
     7
100
AcDbLine
 10
671.00000000008
 20
1328.666666666715
 30
0.0
 11
667.00000000008
 21
1335.166666666715
 31
0.0
  0
LINE
  5
4B2
330
1F
100
AcDbEntity
  8
LAY-10
  6
CONTINUOUS
 62
     7
100
AcDbLine
 10
667.00000000008
 20
1335.166666666715
 30
0.0
 11
663.00000000008
 21
1328.666666666715
 31
0.0
  0
LINE
  5
4B3
330
1F
100
AcDbEntity
  8
LAY-10
  6
CONTINUOUS
 62
     7
100
AcDbLine
 10
663.00000000008
 20
1328.666666666715
 30
0.0
 11
667.00000000008
 21
1322.166666666715
 31
0.0
  0
CIRCLE
  5
4B4
330
1F
100
AcDbEntity
  8
LAY-10
  6
CONTINUOUS
 62
     7
100
AcDbCircle
 10
667.00000000008
 20
1328.666666666715
 30
0.0
 40
12.75000000000001
  0
LINE
  5
4B5
330
1F
100
AcDbEntity
  8
LAY-10
  6
CONTINUOUS
 62
     7
100
AcDbLine
 10
747.0000000001091
 20
1344.666666666714
 30
0.0
 11
747.0000000001091
 21
1312.666666666715
 31
0.0
  0
LINE
  5
4B6
330
1F
100
AcDbEntity
  8
LAY-10
  6
CONTINUOUS
 62
     7
100
AcDbLine
 10
747.0000000001099
 20
1344.666666666714
 30
0.0
 11
715.00000000011
 21
1344.666666666714
 31
0.0
  0
LINE
  5
4B7
330
1F
100
AcDbEntity
  8
LAY-10
  6
CONTINUOUS
 62
     7
100
AcDbLine
 10
741.50000000011
 20
1324.666666666716
 30
0.0
 11
743.1063000129134
 21
1324.666666666716
 31
0.0
  0
LINE
  5
4B8
330
1F
100
AcDbEntity
  8
LAY-10
  6
CONTINUOUS
 62
     7
100
AcDbLine
 10
741.50000000011
 20
1332.666666666714
 30
0.0
 11
743.1063000129134
 21
1332.666666666714
 31
0.0
  0
LINE
  5
4B9
330
1F
100
AcDbEntity
  8
LAY-10
  6
CONTINUOUS
 62
     7
100
AcDbLine
 10
741.50000000011
 20
1332.666666666714
 30
0.0
 11
741.50000000011
 21
1324.666666666716
 31
0.0
  0
LINE
  5
4BA
330
1F
100
AcDbEntity
  8
LAY-10
  6
CONTINUOUS
 62
     7
100
AcDbLine
 10
731.00000000011
 20
1322.166666666715
 30
0.0
 11
735.00000000011
 21
1328.666666666715
 31
0.0
  0
LINE
  5
4BB
330
1F
100
AcDbEntity
  8
LAY-10
  6
CONTINUOUS
 62
     7
100
AcDbLine
 10
735.00000000011
 20
1328.666666666715
 30
0.0
 11
731.00000000011
 21
1335.166666666715
 31
0.0
  0
LINE
  5
4BC
330
1F
100
AcDbEntity
  8
LAY-10
  6
CONTINUOUS
 62
     7
100
AcDbLine
 10
731.00000000011
 20
1335.166666666715
 30
0.0
 11
727.0000000001099
 21
1328.666666666715
 31
0.0
  0
LINE
  5
4BD
330
1F
100
AcDbEntity
  8
LAY-10
  6
CONTINUOUS
 62
     7
100
AcDbLine
 10
727.0000000001099
 20
1328.666666666715
 30
0.0
 11
731.00000000011
 21
1322.166666666715
 31
0.0
  0
CIRCLE
  5
4BE
330
1F
100
AcDbEntity
  8
LAY-10
  6
CONTINUOUS
 62
     7
100
AcDbCircle
 10
731.00000000011
 20
1328.666666666715
 30
0.0
 40
12.75000000000001
  0
LINE
  5
4BF
330
1F
100
AcDbEntity
  8
LAY-10
  6
CONTINUOUS
 62
     7
100
AcDbLine
 10
320.0000000000873
 20
915.6666666667162
 30
0.0
 11
320.0000000000873
 21
870.6666666667162
 31
0.0
  0
LINE
  5
4C0
330
1F
100
AcDbEntity
  8
LAY-10
  6
CONTINUOUS
 62
     7
100
AcDbLine
 10
352.0000000000879
 20
915.6666666667162
 30
0.0
 11
352.0000000000879
 21
870.6666666667163
 31
0.0
  0
LINE
  5
4C1
330
1F
100
AcDbEntity
  8
LAY-10
  6
CONTINUOUS
 62
     7
100
AcDbLine
 10
308.0000000000855
 20
912.6666666667162
 30
0.0
 11
320.0000000000873
 21
912.6666666667162
 31
0.0
  0
LINE
  5
4C2
330
1F
100
AcDbEntity
  8
LAY-10
  6
CONTINUOUS
 62
     7
100
AcDbLine
 10
683.0000000000863
 20
915.6666666667172
 30
0.0
 11
683.0000000000863
 21
870.6666666667172
 31
0.0
  0
LINE
  5
4C3
330
1F
100
AcDbEntity
  8
LAY-10
  6
CONTINUOUS
 62
     7
100
AcDbLine
 10
651.0000000000853
 20
915.6666666667201
 30
0.0
 11
651.0000000000853
 21
870.6666666667201
 31
0.0
  0
LINE
  5
4C4
330
1F
100
AcDbEntity
  8
LAY-10
  6
CONTINUOUS
 62
     7
100
AcDbLine
 10
695.0000000000845
 20
912.6666666667171
 30
0.0
 11
683.0000000000863
 21
912.6666666667171
 31
0.0
  0
LINE
  5
4C5
330
1F
100
AcDbEntity
  8
LAY-10
  6
CONTINUOUS
 62
     7
100
AcDbLine
 10
651.0000000000853
 20
912.6666666667171
 30
0.0
 11
352.00000000009
 21
912.6666666667171
 31
0.0
  0
LINE
  5
4C6
330
1F
100
AcDbEntity
  8
LAY-10
  6
CONTINUOUS
 62
     7
100
AcDbLine
 10
715.0000000000873
 20
915.6666666667162
 30
0.0
 11
715.0000000000873
 21
870.6666666667162
 31
0.0
  0
LINE
  5
4C7
330
1F
100
AcDbEntity
  8
LAY-10
  6
CONTINUOUS
 62
     7
100
AcDbLine
 10
747.000000000088
 20
915.6666666667201
 30
0.0
 11
747.000000000088
 21
870.6666666667201
 31
0.0
  0
LINE
  5
4C8
330
1F
100
AcDbEntity
  8
LAY-10
  6
CONTINUOUS
 62
     7
100
AcDbLine
 10
715.0000000000873
 20
912.6666666667171
 30
0.0
 11
703.00000000009
 21
912.6666666667171
 31
0.0
  0
LINE
  5
4C9
330
1F
100
AcDbEntity
  8
LAY-10
  6
CONTINUOUS
 62
     7
100
AcDbLine
 10
1046.000000000077
 20
915.6666666667162
 30
0.0
 11
1046.000000000077
 21
870.6666666667172
 31
0.0
  0
LINE
  5
4CA
330
1F
100
AcDbEntity
  8
LAY-10
  6
CONTINUOUS
 62
     7
100
AcDbLine
 10
1078.000000000086
 20
915.6666666667172
 30
0.0
 11
1078.000000000086
 21
870.6666666667172
 31
0.0
  0
LINE
  5
4CB
330
1F
100
AcDbEntity
  8
LAY-10
  6
CONTINUOUS
 62
     7
100
AcDbLine
 10
1090.000000000085
 20
912.6666666667171
 30
0.0
 11
1078.000000000086
 21
912.6666666667171
 31
0.0
  0
LINE
  5
4CC
330
1F
100
AcDbEntity
  8
LAY-10
  6
CONTINUOUS
 62
     7
100
AcDbLine
 10
1046.000000000077
 20
912.6666666667171
 30
0.0
 11
747.000000000088
 21
912.6666666667171
 31
0.0
  0
LINE
  5
4CD
330
1F
100
AcDbEntity
  8
LAY-10
  6
CONTINUOUS
 62
     7
100
AcDbLine
 10
1110.000000000086
 20
915.6666666667162
 30
0.0
 11
1110.000000000086
 21
870.6666666667162
 31
0.0
  0
LINE
  5
4CE
330
1F
100
AcDbEntity
  8
LAY-10
  6
CONTINUOUS
 62
     7
100
AcDbLine
 10
1142.000000000085
 20
915.6666666667201
 30
0.0
 11
1142.000000000085
 21
870.6666666667201
 31
0.0
  0
LINE
  5
4CF
330
1F
100
AcDbEntity
  8
LAY-10
  6
CONTINUOUS
 62
     7
100
AcDbLine
 10
1098.000000000085
 20
912.6666666667162
 30
0.0
 11
1110.000000000086
 21
912.6666666667162
 31
0.0
  0
LINE
  5
4D0
330
1F
100
AcDbEntity
  8
LAY-10
  6
CONTINUOUS
 62
     7
100
AcDbLine
 10
1473.000000000085
 20
915.6666666667172
 30
0.0
 11
1473.000000000085
 21
870.6666666667172
 31
0.0
  0
LINE
  5
4D1
330
1F
100
AcDbEntity
  8
LAY-10
  6
CONTINUOUS
 62
     7
100
AcDbLine
 10
1441.000000000088
 20
915.6666666667162
 30
0.0
 11
1441.000000000088
 21
870.6666666667172
 31
0.0
  0
LINE
  5
4D2
330
1F
100
AcDbEntity
  8
LAY-10
  6
CONTINUOUS
 62
     7
100
AcDbLine
 10
1485.000000000084
 20
912.6666666667171
 30
0.0
 11
1473.000000000085
 21
912.6666666667171
 31
0.0
  0
LINE
  5
4D3
330
1F
100
AcDbEntity
  8
LAY-10
  6
CONTINUOUS
 62
     7
100
AcDbLine
 10
1441.000000000088
 20
912.6666666667171
 30
0.0
 11
1142.0000000001
 21
912.6666666667171
 31
0.0
  0
LINE
  5
4D4
330
1F
100
AcDbEntity
  8
LAY-10
  6
CONTINUOUS
 62
     7
100
AcDbLine
 10
1505.000000000086
 20
915.6666666667162
 30
0.0
 11
1505.000000000086
 21
870.6666666667162
 31
0.0
  0
LINE
  5
4D5
330
1F
100
AcDbEntity
  8
LAY-10
  6
CONTINUOUS
 62
     7
100
AcDbLine
 10
1537.000000000083
 20
915.6666666667201
 30
0.0
 11
1537.000000000083
 21
870.6666666667201
 31
0.0
  0
LINE
  5
4D6
330
1F
100
AcDbEntity
  8
LAY-10
  6
CONTINUOUS
 62
     7
100
AcDbLine
 10
1493.000000000084
 20
912.6666666667162
 30
0.0
 11
1505.000000000086
 21
912.6666666667162
 31
0.0
  0
LINE
  5
4D7
330
1F
100
AcDbEntity
  8
LAY-10
  6
CONTINUOUS
 62
     7
100
AcDbLine
 10
1883.000000000085
 20
915.6666666667162
 30
0.0
 11
1490.0000000001
 21
915.6666666667162
 31
0.0
  0
LINE
  5
4D8
330
1F
100
AcDbEntity
  8
LAY-10
  6
CONTINUOUS
 62
     7
100
AcDbLine
 10
1836.000000000086
 20
915.6666666667162
 30
0.0
 11
1836.000000000086
 21
870.6666666667172
 31
0.0
  0
LINE
  5
4D9
330
1F
100
AcDbEntity
  8
LAY-10
  6
CONTINUOUS
 62
     7
100
AcDbLine
 10
1868.000000000085
 20
915.6666666667172
 30
0.0
 11
1868.000000000085
 21
870.6666666667172
 31
0.0
  0
LINE
  5
4DA
330
1F
100
AcDbEntity
  8
LAY-10
  6
CONTINUOUS
 62
     7
100
AcDbLine
 10
1880.000000000084
 20
912.6666666667171
 30
0.0
 11
1868.000000000085
 21
912.6666666667171
 31
0.0
  0
LINE
  5
4DB
330
1F
100
AcDbEntity
  8
LAY-10
  6
CONTINUOUS
 62
     7
100
AcDbLine
 10
1836.000000000086
 20
912.6666666667171
 30
0.0
 11
1537.000000000083
 21
912.6666666667171
 31
0.0
  0
LINE
  5
4DC
330
1F
100
AcDbEntity
  8
LAY-10
  6
CONTINUOUS
 62
     7
100
AcDbLine
 10
2299.000000000078
 20
2334.666666666618
 30
0.0
 11
2344.000000000099
 21
2334.666666666618
 31
0.0
  0
LINE
  5
4DD
330
1F
100
AcDbEntity
  8
LAY-10
  6
CONTINUOUS
 62
     7
100
AcDbLine
 10
2299.000000000078
 20
2302.666666666551
 30
0.0
 11
2344.000000000099
 21
2302.666666666551
 31
0.0
  0
LINE
  5
4DE
330
1F
100
AcDbEntity
  8
LAY-10
  6
CONTINUOUS
 62
     7
100
AcDbLine
 10
2336.00000000009
 20
2334.666666666618
 30
0.0
 11
2336.00000000009
 21
2343.466666666664
 31
0.0
  0
LINE
  5
4DF
330
1F
100
AcDbEntity
  8
LAY-10
  6
CONTINUOUS
 62
     7
100
AcDbLine
 10
2334.00000000009
 20
2334.666666666618
 30
0.0
 11
2334.00000000009
 21
2343.466666666664
 31
0.0
  0
LINE
  5
4E0
330
1F
100
AcDbEntity
  8
LAY-10
  6
CONTINUOUS
 62
     7
100
AcDbLine
 10
2302.000000000078
 20
1312.666666666616
 30
0.0
 11
2344.000000000099
 21
1312.666666666616
 31
0.0
  0
LINE
  5
4E1
330
1F
100
AcDbEntity
  8
LAY-10
  6
CONTINUOUS
 62
     7
100
AcDbLine
 10
2299.000000000078
 20
1344.666666666608
 30
0.0
 11
2344.000000000099
 21
1344.666666666608
 31
0.0
  0
LINE
  5
4E2
330
1F
100
AcDbEntity
  8
LAY-10
  6
CONTINUOUS
 62
     7
100
AcDbLine
 10
2336.00000000009
 20
1303.866666666616
 30
0.0
 11
2336.00000000009
 21
1312.666666666616
 31
0.0
  0
LINE
  5
4E3
330
1F
100
AcDbEntity
  8
LAY-10
  6
CONTINUOUS
 62
     7
100
AcDbLine
 10
2336.00000000009
 20
1344.666666666608
 30
0.0
 11
2336.00000000009
 21
2302.666666666551
 31
0.0
  0
LINE
  5
4E4
330
1F
100
AcDbEntity
  8
LAY-10
  6
CONTINUOUS
 62
     7
100
AcDbLine
 10
2334.00000000009
 20
1303.866666666616
 30
0.0
 11
2334.00000000009
 21
1312.666666666616
 31
0.0
  0
LINE
  5
4E5
330
1F
100
AcDbEntity
  8
LAY-10
  6
CONTINUOUS
 62
     7
100
AcDbLine
 10
2334.00000000009
 20
1344.666666666608
 30
0.0
 11
2334.00000000009
 21
2302.666666666551
 31
0.0
  0
LINE
  5
4E6
330
1F
100
AcDbEntity
  8
LAY-10
  6
CONTINUOUS
 62
     7
100
AcDbLine
 10
837.9618591063884
 20
1296.666666666575
 30
0.0
 11
1350.0381408938
 21
2350.6666666666
 31
0.0
  0
LINE
  5
4E7
330
1F
100
AcDbEntity
  8
LAY-10
  6
CONTINUOUS
 62
     7
100
AcDbLine
 10
715.0000000000873
 20
1312.666666666517
 30
0.0
 11
845.735313099338
 21
1312.666666666517
 31
0.0
  0
LINE
  5
4E8
330
1F
100
AcDbEntity
  8
LAY-10
  6
CONTINUOUS
 62
     7
100
AcDbLine
 10
700.0000000000873
 20
1297.666666666517
 30
0.0
 11
838.4476999809215
 21
1297.666666666517
 31
0.0
  0
LINE
  5
4E9
330
1F
100
AcDbEntity
  8
LAY-10
  6
CONTINUOUS
 62
     7
100
AcDbLine
 10
1881.0
 20
1336.666666666517
 30
0.0
 11
857.3954940888043
 21
1336.666666666517
 31
0.0
  0
LINE
  5
4EA
330
1F
100
AcDbEntity
  8
LAY-10
  6
CONTINUOUS
 62
     7
100
AcDbLine
 10
1884.00000000008
 20
1333.666666666616
 30
0.0
 11
855.9379714651693
 21
1333.666666666616
 31
0.0
  0
LINE
  5
4EB
330
1F
100
AcDbEntity
  8
LAY-10
  6
CONTINUOUS
 62
     7
100
AcDbLine
 10
984.0000000001
 20
1597.255086744733
 30
0.0
 11
984.0000000001
 21
2334.666666666521
 31
0.0
  0
LINE
  5
4EC
330
1F
100
AcDbEntity
  8
LAY-10
  6
CONTINUOUS
 62
     7
100
AcDbLine
 10
991.5000000001
 20
1612.692239921224
 30
0.0
 11
991.5000000001
 21
2334.666666666521
 31
0.0
  0
LINE
  5
4ED
330
1F
100
AcDbEntity
  8
LAY-10
  6
CONTINUOUS
 62
     7
100
AcDbLine
 10
959.0000000001
 20
1545.797909489763
 30
0.0
 11
959.0000000001
 21
2334.666666666521
 31
0.0
  0
LINE
  5
4EE
330
1F
100
AcDbEntity
  8
LAY-10
  6
CONTINUOUS
 62
     7
100
AcDbLine
 10
951.5000000001
 20
1530.360756313272
 30
0.0
 11
951.5000000001
 21
2334.666666666521
 31
0.0
  0
LINE
  5
4EF
330
1F
100
AcDbEntity
  8
LAY-10
  6
CONTINUOUS
 62
     7
100
AcDbLine
 10
1095.000000000085
 20
1825.724953756768
 30
0.0
 11
1095.000000000085
 21
2349.666666666519
 31
0.0
  0
LINE
  5
4F0
330
1F
100
AcDbEntity
  8
LAY-10
  6
CONTINUOUS
 62
     7
100
AcDbLine
 10
1110.000000000085
 20
2334.666666666521
 30
0.0
 11
1110.000000000085
 21
1856.59926010975
 31
0.0
  0
LINE
  5
4F1
330
1F
100
AcDbEntity
  8
LAY-10
  6
CONTINUOUS
 62
     7
100
AcDbLine
 10
1093.000000000087
 20
1821.608379576375
 30
0.0
 11
1093.000000000087
 21
2349.666666666519
 31
0.0
  0
LINE
  5
4F2
330
1F
100
AcDbEntity
  8
LAY-10
  6
CONTINUOUS
 62
     7
100
AcDbLine
 10
1078.000000000087
 20
1790.734073223392
 30
0.0
 11
1078.000000000087
 21
2334.666666666521
 31
0.0
  0
LINE
  5
4F3
330
1F
100
AcDbEntity
  8
LAY-10
  6
CONTINUOUS
 62
     7
100
AcDbLine
 10
1236.50000000008
 20
2116.972577019884
 30
0.0
 11
1236.50000000008
 21
2334.666666666521
 31
0.0
  0
LINE
  5
4F4
330
1F
100
AcDbEntity
  8
LAY-10
  6
CONTINUOUS
 62
     7
100
AcDbLine
 10
1229.00000000008
 20
2101.535423843393
 30
0.0
 11
1229.00000000008
 21
2334.666666666521
 31
0.0
  0
LINE
  5
4F5
330
1F
100
AcDbEntity
  8
LAY-10
  6
CONTINUOUS
 62
     7
100
AcDbLine
 10
1204.000000000078
 20
2050.07824658842
 30
0.0
 11
1204.000000000079
 21
2334.666666666521
 31
0.0
  0
LINE
  5
4F6
330
1F
100
AcDbEntity
  8
LAY-10
  6
CONTINUOUS
 62
     7
100
AcDbLine
 10
1196.500000000078
 20
2034.64109341193
 30
0.0
 11
1196.500000000079
 21
2334.666666666521
 31
0.0
  0
LINE
  5
4F7
330
1F
100
AcDbEntity
  8
LAY-10
  6
CONTINUOUS
 62
     7
100
AcDbLine
 10
1881.0
 20
2310.666666666517
 30
0.0
 11
1330.604505911316
 21
2310.666666666517
 31
0.0
  0
LINE
  5
4F8
330
1F
100
AcDbEntity
  8
LAY-10
  6
CONTINUOUS
 62
     7
100
AcDbLine
 10
1110.000000000086
 20
2334.666666666515
 30
0.0
 11
1342.264686900781
 21
2334.666666666515
 31
0.0
  0
LINE
  5
4F9
330
1F
100
AcDbEntity
  8
LAY-10
  6
CONTINUOUS
 62
     7
100
AcDbLine
 10
1095.000000000086
 20
2349.666666666519
 30
0.0
 11
1349.5523000192
 21
2349.666666666519
 31
0.0
  0
LINE
  5
4FA
330
1F
100
AcDbEntity
  8
LAY-10
  6
CONTINUOUS
 62
     7
100
AcDbLine
 10
1884.00000000008
 20
2313.666666666618
 30
0.0
 11
1332.062028535048
 21
2313.666666666618
 31
0.0
  0
ARC
  5
4FB
330
1F
100
AcDbEntity
  8
LAY-10
  6
CONTINUOUS
 62
     7
100
AcDbCircle
 10
2380.800000000077
 20
2020.166666666616
 30
0.0
 40
3.000000000000003
100
AcDbArc
 50
0.0
 51
180.0
  0
ARC
  5
4FC
330
1F
100
AcDbEntity
  8
LAY-10
  6
CONTINUOUS
 62
     7
100
AcDbCircle
 10
2380.800000000077
 20
2114.166666666616
 30
0.0
 40
3.000000000000003
100
AcDbArc
 50
180.0
 51
0.0
  0
LINE
  5
4FD
330
1F
100
AcDbEntity
  8
LAY-10
  6
CONTINUOUS
 62
     7
100
AcDbLine
 10
2377.800000000075
 20
1982.166666666618
 30
0.0
 11
2383.800000000076
 21
1982.166666666618
 31
0.0
  0
LINE
  5
4FE
330
1F
100
AcDbEntity
  8
LAY-10
  6
CONTINUOUS
 62
     7
100
AcDbLine
 10
2377.800000000075
 20
2152.466666666615
 30
0.0
 11
2383.800000000076
 21
2152.466666666615
 31
0.0
  0
LINE
  5
4FF
330
1F
100
AcDbEntity
  8
LAY-10
  6
CONTINUOUS
 62
     7
100
AcDbLine
 10
2375.800000000073
 20
2012.166666666618
 30
0.0
 11
2383.800000000076
 21
2012.166666666618
 31
0.0
  0
LINE
  5
500
330
1F
100
AcDbEntity
  8
LAY-10
  6
CONTINUOUS
 62
     7
100
AcDbLine
 10
2375.800000000073
 20
1992.166666666618
 30
0.0
 11
2375.800000000073
 21
2012.166666666618
 31
0.0
  0
LINE
  5
501
330
1F
100
AcDbEntity
  8
LAY-10
  6
CONTINUOUS
 62
     7
100
AcDbLine
 10
2375.800000000073
 20
2122.166666666618
 30
0.0
 11
2375.800000000073
 21
2142.166666666618
 31
0.0
  0
LINE
  5
502
330
1F
100
AcDbEntity
  8
LAY-10
  6
CONTINUOUS
 62
     7
100
AcDbLine
 10
2377.800000000075
 20
1982.166666666618
 30
0.0
 11
2377.800000000075
 21
1992.166666666618
 31
0.0
  0
LINE
  5
503
330
1F
100
AcDbEntity
  8
LAY-10
  6
CONTINUOUS
 62
     7
100
AcDbLine
 10
2377.800000000075
 20
2012.166666666618
 30
0.0
 11
2377.800000000075
 21
2122.166666666618
 31
0.0
  0
LINE
  5
504
330
1F
100
AcDbEntity
  8
LAY-10
  6
CONTINUOUS
 62
     7
100
AcDbLine
 10
2377.800000000075
 20
2142.166666666618
 30
0.0
 11
2377.800000000075
 21
2152.466666666615
 31
0.0
  0
LINE
  5
505
330
1F
100
AcDbEntity
  8
LAY-10
  6
CONTINUOUS
 62
     7
100
AcDbLine
 10
2375.800000000073
 20
2122.166666666618
 30
0.0
 11
2383.800000000076
 21
2122.166666666618
 31
0.0
  0
LINE
  5
506
330
1F
100
AcDbEntity
  8
LAY-10
  6
CONTINUOUS
 62
     7
100
AcDbLine
 10
2375.800000000073
 20
2142.166666666618
 30
0.0
 11
2383.800000000076
 21
2142.166666666618
 31
0.0
  0
LINE
  5
507
330
1F
100
AcDbEntity
  8
LAY-10
  6
CONTINUOUS
 62
     7
100
AcDbLine
 10
2375.800000000073
 20
1992.166666666618
 30
0.0
 11
2383.800000000076
 21
1992.166666666618
 31
0.0
  0
LINE
  5
508
330
1F
100
AcDbEntity
  8
LAY-10
  6
CONTINUOUS
 62
     7
100
AcDbLine
 10
2382.800000000076
 20
2012.166666666618
 30
0.0
 11
2382.800000000076
 21
1992.166666666618
 31
0.0
  0
LINE
  5
509
330
1F
100
AcDbEntity
  8
LAY-10
  6
CONTINUOUS
 62
     7
100
AcDbLine
 10
2382.800000000076
 20
2142.166666666618
 30
0.0
 11
2382.800000000076
 21
2122.166666666618
 31
0.0
  0
LINE
  5
50A
330
1F
100
AcDbEntity
  8
LAY-10
  6
CONTINUOUS
 62
     7
100
AcDbLine
 10
1698.999999999978
 20
1624.166666666632
 30
0.0
 11
1698.999999999978
 21
1536.166666666664
 31
0.0
  0
LINE
  5
50B
330
1F
100
AcDbEntity
  8
LAY-10
  6
CONTINUOUS
 62
     7
100
AcDbLine
 10
1704.999999999976
 20
1624.166666666665
 30
0.0
 11
1704.999999999976
 21
1536.166666666664
 31
0.0
  0
LINE
  5
50C
330
1F
100
AcDbEntity
  8
LAY-10
  6
CONTINUOUS
 62
     7
100
AcDbLine
 10
1742.999999999978
 20
1525.166666666664
 30
0.0
 11
1742.999999999978
 21
1530.166666666662
 31
0.0
  0
LINE
  5
50D
330
1F
100
AcDbEntity
  8
LAY-10
  6
CONTINUOUS
 62
     7
100
AcDbLine
 10
1748.999999999976
 20
1655.166666666664
 30
0.0
 11
1748.999999999976
 21
1665.166666666662
 31
0.0
  0
LINE
  5
50E
330
1F
100
AcDbEntity
  8
LAY-10
  6
CONTINUOUS
 62
     7
100
AcDbLine
 10
1742.999999999978
 20
1635.166666666664
 30
0.0
 11
1742.999999999978
 21
1630.166666666662
 31
0.0
  0
LINE
  5
50F
330
1F
100
AcDbEntity
  8
LAY-10
  6
CONTINUOUS
 62
     7
100
AcDbLine
 10
1758.699999999977
 20
1525.166666666664
 30
0.0
 11
1758.699999999977
 21
1505.166666666663
 31
0.0
  0
LINE
  5
510
330
1F
100
AcDbEntity
  8
LAY-10
  6
CONTINUOUS
 62
     7
100
AcDbLine
 10
1741.999999999975
 20
1525.166666666664
 30
0.0
 11
1741.999999999975
 21
1505.166666666663
 31
0.0
  0
LINE
  5
511
330
1F
100
AcDbEntity
  8
LAY-10
  6
CONTINUOUS
 62
     7
100
AcDbLine
 10
1741.999999999975
 20
1655.166666666664
 30
0.0
 11
1741.999999999975
 21
1635.166666666664
 31
0.0
  0
LINE
  5
512
330
1F
100
AcDbEntity
  8
LAY-10
  6
CONTINUOUS
 62
     7
100
AcDbLine
 10
1749.999999999976
 20
1635.166666666664
 30
0.0
 11
1749.999999999976
 21
1655.166666666664
 31
0.0
  0
LINE
  5
513
330
1F
100
AcDbEntity
  8
LAY-10
  6
CONTINUOUS
 62
     7
100
AcDbLine
 10
1749.999999999976
 20
1525.166666666664
 30
0.0
 11
1749.999999999976
 21
1505.166666666663
 31
0.0
  0
LINE
  5
514
330
1F
100
AcDbEntity
  8
LAY-10
  6
CONTINUOUS
 62
     7
100
AcDbLine
 10
1748.999999999976
 20
1495.166666666664
 30
0.0
 11
1742.999999999978
 21
1495.166666666664
 31
0.0
  0
LINE
  5
515
330
1F
100
AcDbEntity
  8
LAY-10
  6
CONTINUOUS
 62
     7
100
AcDbLine
 10
1758.699999999977
 20
1505.166666666663
 30
0.0
 11
1732.999999999976
 21
1505.166666666663
 31
0.0
  0
LINE
  5
516
330
1F
100
AcDbEntity
  8
LAY-10
  6
CONTINUOUS
 62
     7
100
AcDbLine
 10
1732.999999999976
 20
1505.166666666663
 30
0.0
 11
1732.999999999976
 21
1525.166666666664
 31
0.0
  0
LINE
  5
517
330
1F
100
AcDbEntity
  8
LAY-10
  6
CONTINUOUS
 62
     7
100
AcDbLine
 10
1758.699999999977
 20
1525.166666666664
 30
0.0
 11
1732.999999999976
 21
1525.166666666664
 31
0.0
  0
LINE
  5
518
330
1F
100
AcDbEntity
  8
LAY-10
  6
CONTINUOUS
 62
     7
100
AcDbLine
 10
1748.999999999976
 20
1530.166666666662
 30
0.0
 11
1748.999999999976
 21
1525.166666666664
 31
0.0
  0
LINE
  5
519
330
1F
100
AcDbEntity
  8
LAY-10
  6
CONTINUOUS
 62
     7
100
AcDbLine
 10
1742.999999999978
 20
1495.166666666664
 30
0.0
 11
1742.999999999978
 21
1505.166666666663
 31
0.0
  0
ARC
  5
51A
330
1F
100
AcDbEntity
  8
LAY-10
  6
CONTINUOUS
 62
     7
100
AcDbCircle
 10
1742.999999999978
 20
1530.166666666662
 30
0.0
 40
6.000000000000005
100
AcDbArc
 50
0.0
 51
90.00000000000001
  0
ARC
  5
51B
330
1F
100
AcDbEntity
  8
LAY-10
  6
CONTINUOUS
 62
     7
100
AcDbCircle
 10
1704.999999999976
 20
1536.166666666664
 30
0.0
 40
6.000000000000005
100
AcDbArc
 50
180.0
 51
270.0
  0
LINE
  5
51C
330
1F
100
AcDbEntity
  8
LAY-10
  6
CONTINUOUS
 62
     7
100
AcDbLine
 10
1742.999999999978
 20
1530.166666666662
 30
0.0
 11
1704.999999999976
 21
1530.166666666664
 31
0.0
  0
LINE
  5
51D
330
1F
100
AcDbEntity
  8
LAY-10
  6
CONTINUOUS
 62
     7
100
AcDbLine
 10
1742.999999999978
 20
1536.166666666662
 30
0.0
 11
1704.999999999976
 21
1536.166666666664
 31
0.0
  0
ARC
  5
51E
330
1F
100
AcDbEntity
  8
LAY-10
  6
CONTINUOUS
 62
     7
100
AcDbCircle
 10
1704.999999999976
 20
1624.166666666665
 30
0.0
 40
6.000000000000005
100
AcDbArc
 50
90.00000000000001
 51
180.0
  0
LINE
  5
51F
330
1F
100
AcDbEntity
  8
LAY-10
  6
CONTINUOUS
 62
     7
100
AcDbLine
 10
1742.999999999978
 20
1624.166666666665
 30
0.0
 11
1704.999999999976
 21
1624.166666666665
 31
0.0
  0
ARC
  5
520
330
1F
100
AcDbEntity
  8
LAY-10
  6
CONTINUOUS
 62
     7
100
AcDbCircle
 10
1742.999999999978
 20
1630.166666666662
 30
0.0
 40
6.000000000000005
100
AcDbArc
 50
270.0
 51
0.0
  0
LINE
  5
521
330
1F
100
AcDbEntity
  8
LAY-10
  6
CONTINUOUS
 62
     7
100
AcDbLine
 10
1748.999999999976
 20
1630.166666666662
 30
0.0
 11
1748.999999999976
 21
1635.166666666664
 31
0.0
  0
LINE
  5
522
330
1F
100
AcDbEntity
  8
LAY-10
  6
CONTINUOUS
 62
     7
100
AcDbLine
 10
1758.699999999977
 20
1635.166666666664
 30
0.0
 11
1732.999999999976
 21
1635.166666666664
 31
0.0
  0
LINE
  5
523
330
1F
100
AcDbEntity
  8
LAY-10
  6
CONTINUOUS
 62
     7
100
AcDbLine
 10
1758.699999999977
 20
1655.166666666664
 30
0.0
 11
1758.699999999977
 21
1635.166666666664
 31
0.0
  0
LINE
  5
524
330
1F
100
AcDbEntity
  8
LAY-10
  6
CONTINUOUS
 62
     7
100
AcDbLine
 10
1742.999999999978
 20
1665.166666666662
 30
0.0
 11
1742.999999999978
 21
1655.166666666664
 31
0.0
  0
LINE
  5
525
330
1F
100
AcDbEntity
  8
LAY-10
  6
CONTINUOUS
 62
     7
100
AcDbLine
 10
1758.699999999977
 20
1655.166666666664
 30
0.0
 11
1732.999999999976
 21
1655.166666666664
 31
0.0
  0
LINE
  5
526
330
1F
100
AcDbEntity
  8
LAY-10
  6
CONTINUOUS
 62
     7
100
AcDbLine
 10
1732.999999999976
 20
1655.166666666664
 30
0.0
 11
1732.999999999976
 21
1635.166666666664
 31
0.0
  0
LINE
  5
527
330
1F
100
AcDbEntity
  8
LAY-10
  6
CONTINUOUS
 62
     7
100
AcDbLine
 10
1742.999999999978
 20
1630.166666666662
 30
0.0
 11
1704.999999999976
 21
1630.166666666664
 31
0.0
  0
ARC
  5
528
330
1F
100
AcDbEntity
  8
LAY-10
  6
CONTINUOUS
 62
     7
100
AcDbCircle
 10
2380.800000000077
 20
1627.166666666616
 30
0.0
 40
3.000000000000003
100
AcDbArc
 50
180.0
 51
0.0
  0
ARC
  5
529
330
1F
100
AcDbEntity
  8
LAY-10
  6
CONTINUOUS
 62
     7
100
AcDbCircle
 10
2380.800000000077
 20
1533.166666666616
 30
0.0
 40
3.000000000000003
100
AcDbArc
 50
0.0
 51
180.0
  0
LINE
  5
52A
330
1F
100
AcDbEntity
  8
LAY-10
  6
CONTINUOUS
 62
     7
100
AcDbLine
 10
2377.800000000075
 20
1665.166666666614
 30
0.0
 11
2383.800000000076
 21
1665.166666666614
 31
0.0
  0
LINE
  5
52B
330
1F
100
AcDbEntity
  8
LAY-10
  6
CONTINUOUS
 62
     7
100
AcDbLine
 10
2377.800000000075
 20
1494.866666666617
 30
0.0
 11
2383.800000000076
 21
1494.866666666617
 31
0.0
  0
LINE
  5
52C
330
1F
100
AcDbEntity
  8
LAY-10
  6
CONTINUOUS
 62
     7
100
AcDbLine
 10
2375.800000000073
 20
1635.166666666614
 30
0.0
 11
2383.800000000076
 21
1635.166666666614
 31
0.0
  0
LINE
  5
52D
330
1F
100
AcDbEntity
  8
LAY-10
  6
CONTINUOUS
 62
     7
100
AcDbLine
 10
2375.800000000073
 20
1655.166666666614
 30
0.0
 11
2375.800000000073
 21
1635.166666666614
 31
0.0
  0
LINE
  5
52E
330
1F
100
AcDbEntity
  8
LAY-10
  6
CONTINUOUS
 62
     7
100
AcDbLine
 10
2375.800000000073
 20
1525.166666666614
 30
0.0
 11
2375.800000000073
 21
1505.166666666614
 31
0.0
  0
LINE
  5
52F
330
1F
100
AcDbEntity
  8
LAY-10
  6
CONTINUOUS
 62
     7
100
AcDbLine
 10
2377.800000000075
 20
1665.166666666614
 30
0.0
 11
2377.800000000075
 21
1655.166666666614
 31
0.0
  0
LINE
  5
530
330
1F
100
AcDbEntity
  8
LAY-10
  6
CONTINUOUS
 62
     7
100
AcDbLine
 10
2377.800000000075
 20
1635.166666666614
 30
0.0
 11
2377.800000000075
 21
1525.166666666614
 31
0.0
  0
LINE
  5
531
330
1F
100
AcDbEntity
  8
LAY-10
  6
CONTINUOUS
 62
     7
100
AcDbLine
 10
2377.800000000075
 20
1505.166666666614
 30
0.0
 11
2377.800000000075
 21
1494.866666666617
 31
0.0
  0
LINE
  5
532
330
1F
100
AcDbEntity
  8
LAY-10
  6
CONTINUOUS
 62
     7
100
AcDbLine
 10
2375.800000000073
 20
1525.166666666614
 30
0.0
 11
2383.800000000076
 21
1525.166666666614
 31
0.0
  0
LINE
  5
533
330
1F
100
AcDbEntity
  8
LAY-10
  6
CONTINUOUS
 62
     7
100
AcDbLine
 10
2375.800000000073
 20
1505.166666666614
 30
0.0
 11
2383.800000000076
 21
1505.166666666614
 31
0.0
  0
LINE
  5
534
330
1F
100
AcDbEntity
  8
LAY-10
  6
CONTINUOUS
 62
     7
100
AcDbLine
 10
2375.800000000073
 20
1655.166666666614
 30
0.0
 11
2383.800000000076
 21
1655.166666666614
 31
0.0
  0
LINE
  5
535
330
1F
100
AcDbEntity
  8
LAY-10
  6
CONTINUOUS
 62
     7
100
AcDbLine
 10
2382.800000000076
 20
1635.166666666614
 30
0.0
 11
2382.800000000076
 21
1655.166666666614
 31
0.0
  0
LINE
  5
536
330
1F
100
AcDbEntity
  8
LAY-10
  6
CONTINUOUS
 62
     7
100
AcDbLine
 10
2382.800000000076
 20
1505.166666666614
 30
0.0
 11
2382.800000000076
 21
1525.166666666614
 31
0.0
  0
LINE
  5
537
330
1F
100
AcDbEntity
  8
LAY-10
  6
CONTINUOUS
 62
     7
100
AcDbLine
 10
2366.200000000097
 20
2271.666666666617
 30
0.0
 11
2347.200000000099
 21
2271.666666666617
 31
0.0
  0
LINE
  5
538
330
1F
100
AcDbEntity
  8
LAY-10
  6
CONTINUOUS
 62
     7
100
AcDbLine
 10
2366.200000000097
 20
1375.666666666615
 30
0.0
 11
2347.200000000099
 21
1375.666666666615
 31
0.0
  0
LINE
  5
539
330
1F
100
AcDbEntity
  8
LAY-10
  6
HIDDEN
 62
     7
100
AcDbLine
 10
1544.000000000092
 20
797.8666666666178
 30
0.0
 11
1544.000000000092
 21
815.6666666666172
 31
0.0
  0
LINE
  5
53A
330
1F
100
AcDbEntity
  8
LAY-10
  6
CONTINUOUS
 62
     7
100
AcDbLine
 10
1644.00000000009
 20
785.6666666666107
 30
0.0
 11
1544.00000000009
 21
785.6666666666126
 31
0.0
  0
LINE
  5
53B
330
1F
100
AcDbEntity
  8
LAY-10
  6
CONTINUOUS
 62
     7
100
AcDbLine
 10
1544.00000000009
 20
785.6666666666126
 30
0.0
 11
1544.00000000009
 21
797.8666666666169
 31
0.0
  0
LINE
  5
53C
330
1F
100
AcDbEntity
  8
LAY-10
  6
CONTINUOUS
 62
     7
100
AcDbLine
 10
1644.00000000009
 20
785.6666666666107
 30
0.0
 11
1644.00000000009
 21
797.8666666666169
 31
0.0
  0
LINE
  5
53D
330
1F
100
AcDbEntity
  8
LAY-10
  6
HIDDEN
 62
     7
100
AcDbLine
 10
1644.000000000092
 20
797.8666666666178
 30
0.0
 11
1644.000000000092
 21
815.6666666666172
 31
0.0
  0
LINE
  5
53E
330
1F
100
AcDbEntity
  8
LAY-10
  6
HIDDEN
 62
     7
100
AcDbLine
 10
1544.000000000092
 20
815.6666666666172
 30
0.0
 11
1644.0000000001
 21
815.6666666666172
 31
0.0
  0
LINE
  5
53F
330
1F
100
AcDbEntity
  8
LAY-10
  6
HIDDEN
 62
     7
100
AcDbLine
 10
644.00000000001
 20
797.866666666618
 30
0.0
 11
644.00000000001
 21
815.6666666666172
 31
0.0
  0
LINE
  5
540
330
1F
100
AcDbEntity
  8
LAY-10
  6
CONTINUOUS
 62
     7
100
AcDbLine
 10
544.0000000000118
 20
785.6666666666109
 30
0.0
 11
644.0000000000118
 21
785.6666666666126
 31
0.0
  0
LINE
  5
541
330
1F
100
AcDbEntity
  8
LAY-10
  6
CONTINUOUS
 62
     7
100
AcDbLine
 10
644.0000000000118
 20
785.6666666666126
 30
0.0
 11
644.0000000000118
 21
797.866666666617
 31
0.0
  0
LINE
  5
542
330
1F
100
AcDbEntity
  8
LAY-10
  6
CONTINUOUS
 62
     7
100
AcDbLine
 10
544.0000000000118
 20
785.6666666666109
 30
0.0
 11
544.0000000000118
 21
797.866666666617
 31
0.0
  0
LINE
  5
543
330
1F
100
AcDbEntity
  8
LAY-10
  6
HIDDEN
 62
     7
100
AcDbLine
 10
544.00000000001
 20
797.866666666618
 30
0.0
 11
544.00000000001
 21
815.6666666666172
 31
0.0
  0
LINE
  5
544
330
1F
100
AcDbEntity
  8
LAY-10
  6
HIDDEN
 62
     7
100
AcDbLine
 10
644.00000000001
 20
815.6666666666173
 30
0.0
 11
544.0000000000018
 21
815.6666666666173
 31
0.0
  0
CIRCLE
  5
545
330
1F
100
AcDbEntity
  8
LAY-10
  6
CONTINUOUS
 62
     7
100
AcDbCircle
 10
1702.300000000084
 20
834.0666666666158
 30
0.0
 40
3.000000000000003
  0
ARC
  5
546
330
1F
100
AcDbEntity
  8
LAY-10
  6
CONTINUOUS
 62
     7
100
AcDbCircle
 10
1746.000000000083
 20
834.0666666666158
 30
0.0
 40
4.0
100
AcDbArc
 50
0.0
 51
131.439421679092
  0
ARC
  5
547
330
1F
100
AcDbEntity
  8
LAY-10
  6
CONTINUOUS
 62
     7
100
AcDbCircle
 10
1750.000000000082
 20
832.0666666666159
 30
0.0
 40
1.0
100
AcDbArc
 50
180.0
 51
270.0000000000002
  0
LINE
  5
548
330
1F
100
AcDbEntity
  8
LAY-10
  6
CONTINUOUS
 62
     7
100
AcDbLine
 10
1750.000000000082
 20
834.0666666666158
 30
0.0
 11
1750.000000000082
 21
832.0666666666159
 31
0.0
  0
LINE
  5
549
330
1F
100
AcDbEntity
  8
LAY-10
  6
CONTINUOUS
 62
     7
100
AcDbLine
 10
1750.000000000082
 20
832.0666666666159
 30
0.0
 11
1759.000000000084
 21
832.0666666666167
 31
0.0
  0
LINE
  5
54A
330
1F
100
AcDbEntity
  8
LAY-10
  6
CONTINUOUS
 62
     7
100
AcDbLine
 10
1759.000000000084
 20
832.0666666666167
 30
0.0
 11
1759.000000000084
 21
831.0666666666158
 31
0.0
  0
LINE
  5
54B
330
1F
100
AcDbEntity
  8
LAY-10
  6
CONTINUOUS
 62
     7
100
AcDbLine
 10
1749.000000000083
 20
832.0666666666159
 30
0.0
 11
1749.000000000083
 21
834.0666666666158
 31
0.0
  0
ARC
  5
54C
330
1F
100
AcDbEntity
  8
LAY-10
  6
CONTINUOUS
 62
     7
100
AcDbCircle
 10
1746.000000000083
 20
834.0666666666158
 30
0.0
 40
3.000000000000003
100
AcDbArc
 50
270.0000000000002
 51
91.73570458884814
  0
LINE
  5
54D
330
1F
100
AcDbEntity
  8
LAY-10
  6
CONTINUOUS
 62
     7
100
AcDbLine
 10
1702.20913262016
 20
837.0652902040521
 30
0.0
 11
1745.9091326202
 21
837.0652902040521
 31
0.0
  0
LINE
  5
54E
330
1F
100
AcDbEntity
  8
LAY-10
  6
CONTINUOUS
 62
     7
100
AcDbLine
 10
1748.999999999976
 20
1505.166666666663
 30
0.0
 11
1748.999999999976
 21
1495.1666666667
 31
0.0
  0
LINE
  5
54F
330
1F
100
AcDbEntity
  8
LAY-10
  6
CONTINUOUS
 62
     7
100
AcDbLine
 10
1748.999999999976
 20
1665.166666666662
 30
0.0
 11
1742.999999999978
 21
1665.166666666662
 31
0.0
  0
LINE
  5
550
330
1F
100
AcDbEntity
  8
LAY-10
  6
CONTINUOUS
 62
     7
100
AcDbLine
 10
1698.999999999978
 20
2023.1666666666
 30
0.0
 11
1698.999999999978
 21
2111.166666666569
 31
0.0
  0
LINE
  5
551
330
1F
100
AcDbEntity
  8
LAY-10
  6
CONTINUOUS
 62
     7
100
AcDbLine
 10
1704.999999999976
 20
2023.166666666567
 30
0.0
 11
1704.999999999976
 21
2111.166666666569
 31
0.0
  0
LINE
  5
552
330
1F
100
AcDbEntity
  8
LAY-10
  6
CONTINUOUS
 62
     7
100
AcDbLine
 10
1742.999999999978
 20
2122.166666666569
 30
0.0
 11
1742.999999999978
 21
2117.166666666571
 31
0.0
  0
LINE
  5
553
330
1F
100
AcDbEntity
  8
LAY-10
  6
CONTINUOUS
 62
     7
100
AcDbLine
 10
1748.999999999976
 20
1992.166666666568
 30
0.0
 11
1748.999999999976
 21
1982.166666666571
 31
0.0
  0
LINE
  5
554
330
1F
100
AcDbEntity
  8
LAY-10
  6
CONTINUOUS
 62
     7
100
AcDbLine
 10
1742.999999999978
 20
2012.166666666569
 30
0.0
 11
1742.999999999978
 21
2017.166666666571
 31
0.0
  0
LINE
  5
555
330
1F
100
AcDbEntity
  8
LAY-10
  6
CONTINUOUS
 62
     7
100
AcDbLine
 10
1758.699999999977
 20
2122.166666666569
 30
0.0
 11
1758.699999999977
 21
2142.16666666657
 31
0.0
  0
LINE
  5
556
330
1F
100
AcDbEntity
  8
LAY-10
  6
CONTINUOUS
 62
     7
100
AcDbLine
 10
1741.999999999975
 20
2122.166666666569
 30
0.0
 11
1741.999999999975
 21
2142.16666666657
 31
0.0
  0
LINE
  5
557
330
1F
100
AcDbEntity
  8
LAY-10
  6
CONTINUOUS
 62
     7
100
AcDbLine
 10
1741.999999999975
 20
1992.166666666568
 30
0.0
 11
1741.999999999975
 21
2012.166666666569
 31
0.0
  0
LINE
  5
558
330
1F
100
AcDbEntity
  8
LAY-10
  6
CONTINUOUS
 62
     7
100
AcDbLine
 10
1749.999999999976
 20
2012.166666666569
 30
0.0
 11
1749.999999999976
 21
1992.166666666568
 31
0.0
  0
LINE
  5
559
330
1F
100
AcDbEntity
  8
LAY-10
  6
CONTINUOUS
 62
     7
100
AcDbLine
 10
1749.999999999976
 20
2122.166666666569
 30
0.0
 11
1749.999999999976
 21
2142.16666666657
 31
0.0
  0
LINE
  5
55A
330
1F
100
AcDbEntity
  8
LAY-10
  6
CONTINUOUS
 62
     7
100
AcDbLine
 10
1748.999999999976
 20
2152.166666666569
 30
0.0
 11
1742.999999999978
 21
2152.166666666569
 31
0.0
  0
LINE
  5
55B
330
1F
100
AcDbEntity
  8
LAY-10
  6
CONTINUOUS
 62
     7
100
AcDbLine
 10
1758.699999999977
 20
2142.16666666657
 30
0.0
 11
1732.999999999976
 21
2142.16666666657
 31
0.0
  0
LINE
  5
55C
330
1F
100
AcDbEntity
  8
LAY-10
  6
CONTINUOUS
 62
     7
100
AcDbLine
 10
1732.999999999976
 20
2142.16666666657
 30
0.0
 11
1732.999999999976
 21
2122.166666666569
 31
0.0
  0
LINE
  5
55D
330
1F
100
AcDbEntity
  8
LAY-10
  6
CONTINUOUS
 62
     7
100
AcDbLine
 10
1758.699999999977
 20
2122.166666666569
 30
0.0
 11
1732.999999999976
 21
2122.166666666569
 31
0.0
  0
LINE
  5
55E
330
1F
100
AcDbEntity
  8
LAY-10
  6
CONTINUOUS
 62
     7
100
AcDbLine
 10
1748.999999999976
 20
2117.166666666571
 30
0.0
 11
1748.999999999976
 21
2122.166666666569
 31
0.0
  0
LINE
  5
55F
330
1F
100
AcDbEntity
  8
LAY-10
  6
CONTINUOUS
 62
     7
100
AcDbLine
 10
1742.999999999978
 20
2152.166666666569
 30
0.0
 11
1742.999999999978
 21
2142.16666666657
 31
0.0
  0
ARC
  5
560
330
1F
100
AcDbEntity
  8
LAY-10
  6
CONTINUOUS
 62
     7
100
AcDbCircle
 10
1742.999999999978
 20
2117.166666666571
 30
0.0
 40
6.000000000000005
100
AcDbArc
 50
270.0
 51
0.0
  0
ARC
  5
561
330
1F
100
AcDbEntity
  8
LAY-10
  6
CONTINUOUS
 62
     7
100
AcDbCircle
 10
1704.999999999976
 20
2111.166666666569
 30
0.0
 40
6.000000000000005
100
AcDbArc
 50
90.00000000000001
 51
180.0
  0
LINE
  5
562
330
1F
100
AcDbEntity
  8
LAY-10
  6
CONTINUOUS
 62
     7
100
AcDbLine
 10
1742.999999999978
 20
2117.166666666571
 30
0.0
 11
1704.999999999976
 21
2117.166666666569
 31
0.0
  0
LINE
  5
563
330
1F
100
AcDbEntity
  8
LAY-10
  6
CONTINUOUS
 62
     7
100
AcDbLine
 10
1742.999999999978
 20
2111.166666666571
 30
0.0
 11
1704.999999999976
 21
2111.166666666569
 31
0.0
  0
ARC
  5
564
330
1F
100
AcDbEntity
  8
LAY-10
  6
CONTINUOUS
 62
     7
100
AcDbCircle
 10
1704.999999999976
 20
2023.166666666567
 30
0.0
 40
6.000000000000005
100
AcDbArc
 50
180.0
 51
270.0
  0
LINE
  5
565
330
1F
100
AcDbEntity
  8
LAY-10
  6
CONTINUOUS
 62
     7
100
AcDbLine
 10
1742.999999999978
 20
2023.166666666567
 30
0.0
 11
1704.999999999976
 21
2023.166666666567
 31
0.0
  0
ARC
  5
566
330
1F
100
AcDbEntity
  8
LAY-10
  6
CONTINUOUS
 62
     7
100
AcDbCircle
 10
1742.999999999978
 20
2017.166666666571
 30
0.0
 40
6.000000000000005
100
AcDbArc
 50
0.0
 51
90.00000000000001
  0
LINE
  5
567
330
1F
100
AcDbEntity
  8
LAY-10
  6
CONTINUOUS
 62
     7
100
AcDbLine
 10
1748.999999999976
 20
2017.166666666571
 30
0.0
 11
1748.999999999976
 21
2012.166666666569
 31
0.0
  0
LINE
  5
568
330
1F
100
AcDbEntity
  8
LAY-10
  6
CONTINUOUS
 62
     7
100
AcDbLine
 10
1758.699999999977
 20
2012.166666666569
 30
0.0
 11
1732.999999999976
 21
2012.166666666569
 31
0.0
  0
LINE
  5
569
330
1F
100
AcDbEntity
  8
LAY-10
  6
CONTINUOUS
 62
     7
100
AcDbLine
 10
1758.699999999977
 20
1992.166666666568
 30
0.0
 11
1758.699999999977
 21
2012.166666666569
 31
0.0
  0
LINE
  5
56A
330
1F
100
AcDbEntity
  8
LAY-10
  6
CONTINUOUS
 62
     7
100
AcDbLine
 10
1742.999999999978
 20
1982.166666666571
 30
0.0
 11
1742.999999999978
 21
1992.166666666568
 31
0.0
  0
LINE
  5
56B
330
1F
100
AcDbEntity
  8
LAY-10
  6
CONTINUOUS
 62
     7
100
AcDbLine
 10
1758.699999999977
 20
1992.166666666568
 30
0.0
 11
1732.999999999976
 21
1992.166666666568
 31
0.0
  0
LINE
  5
56C
330
1F
100
AcDbEntity
  8
LAY-10
  6
CONTINUOUS
 62
     7
100
AcDbLine
 10
1732.999999999976
 20
1992.166666666568
 30
0.0
 11
1732.999999999976
 21
2012.166666666569
 31
0.0
  0
LINE
  5
56D
330
1F
100
AcDbEntity
  8
LAY-10
  6
CONTINUOUS
 62
     7
100
AcDbLine
 10
1742.999999999978
 20
2017.166666666571
 30
0.0
 11
1704.999999999976
 21
2017.166666666569
 31
0.0
  0
LINE
  5
56E
330
1F
100
AcDbEntity
  8
LAY-10
  6
CONTINUOUS
 62
     7
100
AcDbLine
 10
1748.999999999976
 20
2142.16666666657
 30
0.0
 11
1748.999999999976
 21
2152.166666666532
 31
0.0
  0
LINE
  5
56F
330
1F
100
AcDbEntity
  8
LAY-10
  6
CONTINUOUS
 62
     7
100
AcDbLine
 10
1748.999999999976
 20
1982.166666666571
 30
0.0
 11
1742.999999999978
 21
1982.166666666571
 31
0.0
  0
LINE
  5
570
330
1F
100
AcDbEntity
  8
LAY-10
  6
CONTINUOUS
 62
     7
100
AcDbLine
 10
254.4446609407696
 20
824.6250361063309
 30
0.0
 11
289.8000000000957
 21
859.9803751656578
 31
0.0
  0
LINE
  5
571
330
1F
100
AcDbEntity
  8
LAY-10
  6
CONTINUOUS
 62
     7
100
AcDbLine
 10
260.1015151902611
 20
818.9681818568394
 30
0.0
 11
254.4446609407696
 21
824.6250361063309
 31
0.0
  0
LINE
  5
572
330
1F
100
AcDbEntity
  8
LAY-10
  6
CONTINUOUS
 62
     7
100
AcDbLine
 10
260.1015151902611
 20
818.9681818568394
 30
0.0
 11
295.456854249589
 21
854.3235209161663
 31
0.0
  0
LINE
  5
573
330
1F
100
AcDbEntity
  8
LAY-10
  6
CONTINUOUS
 62
     7
100
AcDbLine
 10
289.8000000000957
 20
859.9803751656578
 30
0.0
 11
289.8000000000957
 21
886.6666666666739
 31
0.0
  0
LINE
  5
574
330
1F
100
AcDbEntity
  8
LAY-10
  6
CONTINUOUS
 62
     7
100
AcDbLine
 10
289.8000000000957
 20
886.6666666666739
 30
0.0
 11
297.8000000000975
 21
886.6666666666739
 31
0.0
  0
ARC
  5
575
330
1F
100
AcDbEntity
  8
LAY-10
  6
CONTINUOUS
 62
     7
100
AcDbCircle
 10
289.8000000000957
 20
859.9803751656578
 30
0.0
 40
8.0
100
AcDbArc
 50
315.0000000000145
 51
0.0
  0
LINE
  5
576
330
1F
100
AcDbEntity
  8
LAY-10
  6
CONTINUOUS
 62
     7
100
AcDbLine
 10
1898.200000000081
 20
886.6666666666739
 30
0.0
 11
1890.200000000079
 21
886.6666666666739
 31
0.0
  0
LINE
  5
577
330
1F
100
AcDbEntity
  8
LAY-10
  6
CONTINUOUS
 62
     7
100
AcDbLine
 10
1898.200000000081
 20
859.9803751656578
 30
0.0
 11
1898.200000000081
 21
886.6666666666739
 31
0.0
  0
LINE
  5
578
330
1F
100
AcDbEntity
  8
LAY-10
  6
CONTINUOUS
 62
     7
100
AcDbLine
 10
1933.555339059407
 20
824.6250361063309
 30
0.0
 11
1898.200000000081
 21
859.9803751656578
 31
0.0
  0
LINE
  5
579
330
1F
100
AcDbEntity
  8
LAY-10
  6
CONTINUOUS
 62
     7
100
AcDbLine
 10
1927.898484809917
 20
818.9681818568394
 30
0.0
 11
1892.543145750587
 21
854.3235209161663
 31
0.0
  0
LINE
  5
57A
330
1F
100
AcDbEntity
  8
LAY-10
  6
CONTINUOUS
 62
     7
100
AcDbLine
 10
1927.898484809917
 20
818.9681818568394
 30
0.0
 11
1933.555339059407
 21
824.6250361063309
 31
0.0
  0
ARC
  5
57B
330
1F
100
AcDbEntity
  8
LAY-10
  6
CONTINUOUS
 62
     7
100
AcDbCircle
 10
1898.200000000081
 20
859.9803751656578
 30
0.0
 40
8.0
100
AcDbArc
 50
180.0
 51
224.9999999999971
  0
LINE
  5
57C
330
1F
100
AcDbEntity
  8
LAY-10
  6
CONTINUOUS
 62
     7
100
AcDbLine
 10
2387.000000000075
 20
1413.666666666618
 30
0.0
 11
2388.000000000075
 21
1413.666666666618
 31
0.0
  0
ARC
  5
57D
330
1F
100
AcDbEntity
  8
LAY-10
  6
CONTINUOUS
 62
     7
100
AcDbCircle
 10
2388.000000000075
 20
1411.666666666618
 30
0.0
 40
2.0
100
AcDbArc
 50
0.0
 51
90.00000000000001
  0
LINE
  5
57E
330
1F
100
AcDbEntity
  8
LAY-10
  6
CENTER
 62
     2
100
AcDbLine
 10
1094.00000000005
 20
1237.768181856767
 30
0.0
 11
1094.00000000005
 21
2409.565151476468
 31
0.0
  0
LINE
  5
57F
330
1F
100
AcDbEntity
  8
LAY-10
  6
CENTER
 62
     2
100
AcDbLine
 10
994.0000000000992
 20
1330.520983437215
 30
0.0
 11
994.0000000000992
 21
1288.720983437216
 31
0.0
  0
LINE
  5
580
330
1F
100
AcDbEntity
  8
LAY-10
  6
CENTER
 62
     2
100
AcDbLine
 10
1337.333333333321
 20
1348.666666666471
 30
0.0
 11
1369.333333333321
 21
1348.66666666647
 31
0.0
  0
LINE
  5
581
330
1F
100
AcDbEntity
  8
LAY-10
  6
CENTER
 62
     2
100
AcDbLine
 10
1352.333333333321
 20
1335.26666666647
 30
0.0
 11
1352.333333333321
 21
1363.66666666647
 31
0.0
  0
LINE
  5
582
330
1F
100
AcDbEntity
  8
LAY-10
  6
CENTER
 62
     2
100
AcDbLine
 10
1882.400000000049
 20
1348.666666666541
 30
0.0
 11
1854.000000000048
 21
1348.666666666541
 31
0.0
  0
LINE
  5
583
330
1F
100
AcDbEntity
  8
LAY-10
  6
CENTER
 62
     2
100
AcDbLine
 10
1869.000000000048
 20
1333.666666666541
 30
0.0
 11
1869.000000000048
 21
1365.666666666541
 31
0.0
  0
LINE
  5
584
330
1F
100
AcDbEntity
  8
LAY-10
  6
CENTER
 62
     2
100
AcDbLine
 10
1868.999999999976
 20
1837.066666666546
 30
0.0
 11
1868.999999999976
 21
1808.666666666546
 31
0.0
  0
LINE
  5
585
330
1F
100
AcDbEntity
  8
LAY-10
  6
CENTER
 62
     2
100
AcDbLine
 10
1868.999999999975
 20
2312.066666666566
 30
0.0
 11
1868.999999999975
 21
2283.666666666566
 31
0.0
  0
LINE
  5
586
330
1F
100
AcDbEntity
  8
LAY-10
  6
CENTER
 62
     2
100
AcDbLine
 10
1883.999999999975
 20
2298.666666666565
 30
0.0
 11
1851.999999999975
 21
2298.666666666566
 31
0.0
  0
LINE
  5
587
330
1F
100
AcDbEntity
  8
LAY-10
  6
CENTER
 62
     2
100
AcDbLine
 10
2379.900000000075
 20
1287.366666666617
 30
0.0
 11
2379.900000000075
 21
1335.866666666617
 31
0.0
  0
LINE
  5
588
330
1F
100
AcDbEntity
  8
LAY-10
  6
CENTER
 62
     2
100
AcDbLine
 10
2361.101515190237
 20
1348.666666666616
 30
0.0
 11
2412.30151519024
 21
1348.666666666616
 31
0.0
  0
LINE
  5
589
330
1F
100
AcDbEntity
  8
LAY-10
  6
CENTER
 62
     2
100
AcDbLine
 10
2268.901515190242
 20
1823.666666666618
 30
0.0
 11
2447.901515190241
 21
1823.666666666618
 31
0.0
  0
LINE
  5
58A
330
1F
100
AcDbEntity
  8
LAY-10
  6
CENTER
 62
     2
100
AcDbLine
 10
2379.900000000075
 20
2359.966666666613
 30
0.0
 11
2379.900000000075
 21
2311.466666666617
 31
0.0
  0
LINE
  5
58B
330
1F
100
AcDbEntity
  8
LAY-10
  6
CENTER
 62
     2
100
AcDbLine
 10
2361.101515190237
 20
2298.666666666618
 30
0.0
 11
2412.30151519024
 21
2298.666666666618
 31
0.0
  0
LINE
  5
58C
330
1F
100
AcDbEntity
  8
LAY-10
  6
CENTER
 62
     2
100
AcDbLine
 10
1094.000000000051
 20
945.765151476524
 30
0.0
 11
1094.000000000051
 21
766.7651514765249
 31
0.0
  0
LINE
  5
58D
330
1F
100
AcDbEntity
  8
LAY-10
  6
CENTER
 62
     2
100
AcDbLine
 10
319.0000000000955
 20
853.765151476454
 30
0.0
 11
319.0000000000955
 21
802.5651514764542
 31
0.0
  0
LINE
  5
58E
330
1F
100
AcDbEntity
  8
LAY-10
  6
CENTER
 62
     2
100
AcDbLine
 10
1869.000000000081
 20
849.4366666666175
 30
0.0
 11
1869.000000000081
 21
798.0466666666172
 31
0.0
  0
LINE
  5
58F
330
1F
100
AcDbEntity
  8
LAY-10
  6
CENTER
 62
     2
100
AcDbLine
 10
1094.000000000051
 20
945.765151476524
 30
0.0
 11
1094.000000000051
 21
766.7651514765249
 31
0.0
  0
LINE
  5
590
330
1F
100
AcDbEntity
  8
LAY-10
  6
CENTER
 62
     2
100
AcDbLine
 10
245.1015151902002
 20
1823.666666666616
 30
0.0
 11
1942.89848481
 21
1823.666666666616
 31
0.0
  0
LINE
  5
591
330
1F
100
AcDbEntity
  8
LAY-10
  6
CENTER
 62
     2
100
AcDbLine
 10
1594.000000000081
 20
2365.666666666614
 30
0.0
 11
1594.000000000081
 21
2407.466666666613
 31
0.0
  0
LINE
  5
592
330
1F
100
AcDbEntity
  8
LAY-10
  6
CENTER
 62
     2
100
AcDbLine
 10
594.0000000000191
 20
2365.666666666614
 30
0.0
 11
594.0000000000191
 21
2407.466666666613
 31
0.0
  0
LINE
  5
593
330
1F
100
AcDbEntity
  8
LAY-10
  6
CENTER
 62
     2
100
AcDbLine
 10
1594.000000000081
 20
1281.666666666618
 30
0.0
 11
1594.000000000081
 21
1239.866666666619
 31
0.0
  0
LINE
  5
594
330
1F
100
AcDbEntity
  8
LAY-10
  6
CENTER
 62
     2
100
AcDbLine
 10
594.0000000000191
 20
1281.666666666618
 30
0.0
 11
594.0000000000191
 21
1239.866666666619
 31
0.0
  0
LINE
  5
595
330
1F
100
AcDbEntity
  8
LAY-10
  6
CENTER
 62
     2
100
AcDbLine
 10
289.0000000000525
 20
2073.666666666586
 30
0.0
 11
247.2000000000535
 21
2073.666666666586
 31
0.0
  0
LINE
  5
596
330
1F
100
AcDbEntity
  8
LAY-10
  6
CENTER
 62
     2
100
AcDbLine
 10
289.0000000000525
 20
1573.666666666646
 30
0.0
 11
247.2000000000535
 21
1573.666666666646
 31
0.0
  0
LINE
  5
597
330
1F
100
AcDbEntity
  8
LAY-10
  6
CENTER
 62
     2
100
AcDbLine
 10
1899.000000000048
 20
2073.666666666586
 30
0.0
 11
1940.800000000047
 21
2073.666666666586
 31
0.0
  0
LINE
  5
598
330
1F
100
AcDbEntity
  8
LAY-10
  6
CENTER
 62
     2
100
AcDbLine
 10
1899.000000000048
 20
1573.666666666646
 30
0.0
 11
1940.800000000047
 21
1573.666666666646
 31
0.0
  0
LINE
  5
599
330
1F
100
AcDbEntity
  8
LAY-10
  6
CENTER
 62
     2
100
AcDbLine
 10
317.4750000000895
 20
2318.666666666515
 30
0.0
 11
354.9750000000894
 21
2318.666666666515
 31
0.0
  0
LINE
  5
59A
330
1F
100
AcDbEntity
  8
LAY-10
  6
CENTER
 62
     2
100
AcDbLine
 10
336.00000000009
 20
2337.266666666517
 30
0.0
 11
336.00000000009
 21
2298.366666666517
 31
0.0
  0
LINE
  5
59B
330
1F
100
AcDbEntity
  8
LAY-10
  6
CENTER
 62
     2
100
AcDbLine
 10
648.4750000000795
 20
2318.666666666515
 30
0.0
 11
685.9750000000795
 21
2318.666666666515
 31
0.0
  0
LINE
  5
59C
330
1F
100
AcDbEntity
  8
LAY-10
  6
CENTER
 62
     2
100
AcDbLine
 10
667.00000000008
 20
2337.266666666517
 30
0.0
 11
667.00000000008
 21
2298.366666666517
 31
0.0
  0
LINE
  5
59D
330
1F
100
AcDbEntity
  8
LAY-10
  6
CENTER
 62
     2
100
AcDbLine
 10
712.4750000001095
 20
2318.666666666515
 30
0.0
 11
749.9750000001095
 21
2318.666666666515
 31
0.0
  0
LINE
  5
59E
330
1F
100
AcDbEntity
  8
LAY-10
  6
CENTER
 62
     2
100
AcDbLine
 10
731.00000000011
 20
2337.266666666517
 30
0.0
 11
731.00000000011
 21
2298.366666666517
 31
0.0
  0
LINE
  5
59F
330
1F
100
AcDbEntity
  8
LAY-10
  6
CENTER
 62
     2
100
AcDbLine
 10
1043.475000000099
 20
2318.666666666515
 30
0.0
 11
1080.975000000099
 21
2318.666666666515
 31
0.0
  0
LINE
  5
5A0
330
1F
100
AcDbEntity
  8
LAY-10
  6
CENTER
 62
     2
100
AcDbLine
 10
1062.0000000001
 20
2337.266666666517
 30
0.0
 11
1062.0000000001
 21
2298.366666666517
 31
0.0
  0
LINE
  5
5A1
330
1F
100
AcDbEntity
  8
LAY-10
  6
CENTER
 62
     2
100
AcDbLine
 10
1107.47500000011
 20
2318.666666666515
 30
0.0
 11
1144.97500000011
 21
2318.666666666515
 31
0.0
  0
LINE
  5
5A2
330
1F
100
AcDbEntity
  8
LAY-10
  6
CENTER
 62
     2
100
AcDbLine
 10
1126.00000000011
 20
2337.266666666517
 30
0.0
 11
1126.00000000011
 21
2298.366666666517
 31
0.0
  0
LINE
  5
5A3
330
1F
100
AcDbEntity
  8
LAY-10
  6
CENTER
 62
     2
100
AcDbLine
 10
317.4750000000896
 20
1328.666666666717
 30
0.0
 11
354.9750000000896
 21
1328.666666666717
 31
0.0
  0
LINE
  5
5A4
330
1F
100
AcDbEntity
  8
LAY-10
  6
CENTER
 62
     2
100
AcDbLine
 10
336.0000000000901
 20
1310.066666666715
 30
0.0
 11
336.0000000000901
 21
1348.966666666715
 31
0.0
  0
LINE
  5
5A5
330
1F
100
AcDbEntity
  8
LAY-10
  6
CENTER
 62
     2
100
AcDbLine
 10
648.4750000000795
 20
1328.666666666717
 30
0.0
 11
685.9750000000795
 21
1328.666666666717
 31
0.0
  0
LINE
  5
5A6
330
1F
100
AcDbEntity
  8
LAY-10
  6
CENTER
 62
     2
100
AcDbLine
 10
667.00000000008
 20
1310.066666666715
 30
0.0
 11
667.00000000008
 21
1348.966666666715
 31
0.0
  0
LINE
  5
5A7
330
1F
100
AcDbEntity
  8
LAY-10
  6
CENTER
 62
     2
100
AcDbLine
 10
712.4750000001095
 20
1328.666666666717
 30
0.0
 11
749.9750000001095
 21
1328.666666666717
 31
0.0
  0
LINE
  5
5A8
330
1F
100
AcDbEntity
  8
LAY-10
  6
CENTER
 62
     2
100
AcDbLine
 10
731.00000000011
 20
1310.066666666715
 30
0.0
 11
731.00000000011
 21
1348.966666666715
 31
0.0
  0
LINE
  5
5A9
330
1F
100
AcDbEntity
  8
LAY-10
  6
CENTER
 62
     2
100
AcDbLine
 10
1337.333333333321
 20
2298.666666666762
 30
0.0
 11
1369.333333333321
 21
2298.666666666762
 31
0.0
  0
LINE
  5
5AA
330
1F
100
AcDbEntity
  8
LAY-10
  6
CENTER
 62
     2
100
AcDbLine
 10
1352.333333333321
 20
2312.066666666762
 30
0.0
 11
1352.333333333321
 21
2283.666666666762
 31
0.0
  0
DIMENSION
  5
5AC
330
1F
100
AcDbEntity
  8
LAY-20
  6
CONTINUOUS
 62
     4
100
AcDbDimension
  2
*D36
 10
1899.0000000001
 20
1085.6666666667
 30
0.0
 11
1094.0000000001
 21
1110.6666666667
 31
0.0
 70
   160
  3
ISO-25
100
AcDbAlignedDimension
 13
289.0000000001
 23
915.6666666666702
 33
0.0
 14
1899.0000000001
 24
915.6666666666702
 34
0.0
100
AcDbRotatedDimension
1001
ACAD
1000
DSTYLE
1002
{
1070
   270
1070
     2
1070
     6
1000
EX_BNORM
1070
     7
1000
EX_BNORM
1070
    41
1040
25.0
1070
    42
1040
15.0
1070
    44
1040
15.0
1070
    73
1070
     0
1070
    74
1070
     0
1070
    75
1070
     0
1070
    76
1070
     0
1070
    77
1070
     1
1070
    78
1070
     8
1070
   140
1040
31.181104
1070
   147
1040
0.0
1070
   173
1070
     1
1070
   176
1070
     4
1070
   177
1070
     4
1070
   178
1070
     7
1070
   271
1070
     1
1070
   277
1070
     2
1070
   279
1070
     2
1070
   280
1070
     0
1070
   287
1070
     5
1070
   340
1005
5AB
1002
}
  0
DIMENSION
  5
5BA
330
1F
100
AcDbEntity
  8
LAY-20
  6
CONTINUOUS
 62
     4
100
AcDbDimension
  2
*D37
 10
305.0000000000855
 20
1015.66666666672
 30
0.0
 11
501.5000000000859
 21
1040.66666666672
 31
0.0
 70
   160
  3
ISO-25
100
AcDbAlignedDimension
 13
698.0000000000863
 23
915.6666666667162
 33
0.0
 14
305.0000000000855
 24
915.6666666667162
 34
0.0
100
AcDbRotatedDimension
1001
ACAD
1000
DSTYLE
1002
{
1070
   270
1070
     2
1070
     6
1000
EX_BNORM
1070
     7
1000
EX_BNORM
1070
    41
1040
25.0
1070
    42
1040
15.0
1070
    44
1040
14.99999999999989
1070
    73
1070
     0
1070
    74
1070
     0
1070
    75
1070
     0
1070
    76
1070
     0
1070
    77
1070
     1
1070
    78
1070
     8
1070
   140
1040
31.181104
1070
   147
1040
0.0
1070
   173
1070
     1
1070
   176
1070
     4
1070
   177
1070
     4
1070
   178
1070
     7
1070
   271
1070
     1
1070
   277
1070
     2
1070
   279
1070
     2
1070
   280
1070
     0
1070
   287
1070
     5
1070
   340
1005
5AB
1002
}
  0
DIMENSION
  5
5C7
330
1F
100
AcDbEntity
  8
LAY-20
  6
CONTINUOUS
 62
     4
100
AcDbDimension
  2
*D38
 10
1844.0000000001
 20
685.6666666666101
 30
0.0
 11
1094.000000000105
 21
710.6666666666101
 31
0.0
 70
   160
  3
ISO-25
100
AcDbAlignedDimension
 13
344.00000000011
 23
785.6666666666101
 33
0.0
 14
1844.0000000001
 24
785.6666666666101
 34
0.0
100
AcDbRotatedDimension
1001
ACAD
1000
DSTYLE
1002
{
1070
   270
1070
     2
1070
     6
1000
EX_BNORM
1070
     7
1000
EX_BNORM
1070
    41
1040
25.0
1070
    42
1040
0.0
1070
    44
1040
0.0
1070
    73
1070
     0
1070
    74
1070
     0
1070
    75
1070
     0
1070
    76
1070
     0
1070
    77
1070
     1
1070
    78
1070
     8
1070
   140
1040
31.181104
1070
   147
1040
0.0
1070
   173
1070
     1
1070
   176
1070
     4
1070
   177
1070
     4
1070
   178
1070
     7
1070
   271
1070
     1
1070
   277
1070
     2
1070
   279
1070
     2
1070
   280
1070
     0
1070
   287
1070
     5
1070
   340
1005
5AB
1002
}
  0
DIMENSION
  5
5D4
330
1F
100
AcDbEntity
  8
LAY-20
  6
CONTINUOUS
 62
     4
100
AcDbDimension
  2
*D39
 10
2033.5553390594
 20
815.6666666666201
 30
0.0
 11
2008.5553390594
 21
865.6666666666451
 31
0.0
 70
   160
  3
ISO-25
100
AcDbAlignedDimension
 13
1899.0000000001
 23
915.6666666666702
 33
0.0
 14
1887.2000000001
 24
815.6666666666201
 34
0.0
 50
90.0
100
AcDbRotatedDimension
1001
ACAD
1000
DSTYLE
1002
{
1070
   270
1070
     2
1070
     6
1000
EX_BNORM
1070
     7
1000
EX_BNORM
1070
    41
1040
25.0
1070
    42
1040
15.0
1070
    44
1040
15.0
1070
    73
1070
     0
1070
    74
1070
     0
1070
    75
1070
     0
1070
    76
1070
     0
1070
    77
1070
     1
1070
    78
1070
     8
1070
   140
1040
31.181104
1070
   147
1040
0.0
1070
   173
1070
     1
1070
   176
1070
     4
1070
   177
1070
     4
1070
   178
1070
     7
1070
   271
1070
     1
1070
   277
1070
     2
1070
   279
1070
     2
1070
   280
1070
     0
1070
   287
1070
     5
1070
   340
1005
5AB
1002
}
  0
DIMENSION
  5
5E1
330
1F
100
AcDbEntity
  8
LAY-20
  6
CONTINUOUS
 62
     4
100
AcDbDimension
  2
*D40
 10
2129.0000000001
 20
1281.6666666666
 30
0.0
 11
2104.0000000001
 21
1823.6666666666
 31
0.0
 70
   160
  3
ISO-25
100
AcDbAlignedDimension
 13
2299.0000000001
 23
2365.6666666666
 33
0.0
 14
2299.0000000001
 24
1281.6666666666
 34
0.0
 50
90.0
100
AcDbRotatedDimension
1001
ACAD
1000
DSTYLE
1002
{
1070
   270
1070
     2
1070
     6
1000
EX_BNORM
1070
     7
1000
EX_BNORM
1070
    41
1040
25.0
1070
    42
1040
15.0
1070
    44
1040
15.0
1070
    73
1070
     0
1070
    74
1070
     0
1070
    75
1070
     0
1070
    76
1070
     0
1070
    77
1070
     1
1070
    78
1070
     8
1070
   140
1040
31.181104
1070
   147
1040
0.0
1070
   173
1070
     1
1070
   176
1070
     4
1070
   177
1070
     4
1070
   178
1070
     7
1070
   271
1070
     1
1070
   277
1070
     2
1070
   279
1070
     2
1070
   280
1070
     0
1070
   287
1070
     5
1070
   340
1005
5AB
1002
}
  0
DIMENSION
  5
5EE
330
1F
100
AcDbEntity
  8
LAY-20
  6
CONTINUOUS
 62
     4
100
AcDbDimension
  2
*D41
 10
2199.0000000001
 20
2349.666666666618
 30
0.0
 11
2174.0000000001
 21
1823.666666666617
 31
0.0
 70
   160
  3
ISO-25
100
AcDbAlignedDimension
 13
2299.000000000078
 23
1297.666666666616
 33
0.0
 14
2299.000000000078
 24
2349.666666666618
 34
0.0
 50
90.0
100
AcDbRotatedDimension
1001
ACAD
1000
DSTYLE
1002
{
1070
   270
1070
     2
1070
     6
1000
EX_BNORM
1070
     7
1000
EX_BNORM
1070
    41
1040
25.0
1070
    42
1040
15.0
1070
    44
1040
15.0
1070
    73
1070
     0
1070
    74
1070
     0
1070
    75
1070
     0
1070
    76
1070
     0
1070
    77
1070
     1
1070
    78
1070
     8
1070
   140
1040
31.181104
1070
   147
1040
0.0
1070
   173
1070
     1
1070
   176
1070
     4
1070
   177
1070
     4
1070
   178
1070
     7
1070
   271
1070
     1
1070
   277
1070
     2
1070
   279
1070
     2
1070
   280
1070
     0
1070
   287
1070
     5
1070
   340
1005
5AB
1002
}
  0
DIMENSION
  5
5FB
330
1F
100
AcDbEntity
  8
LAY-20
  6
CONTINUOUS
 62
     4
100
AcDbDimension
  2
*D42
 10
2529.2000000001
 20
1373.6666666666
 30
0.0
 11
2504.2000000001
 21
1823.66666666655
 31
0.0
 70
   160
  3
ISO-25
100
AcDbAlignedDimension
 13
2429.2000000001
 23
2273.6666666665
 33
0.0
 14
2429.2000000001
 24
1373.6666666666
 34
0.0
 50
90.0
100
AcDbRotatedDimension
1001
ACAD
1000
DSTYLE
1002
{
1070
   270
1070
     2
1070
     6
1000
EX_BNORM
1070
     7
1000
EX_BNORM
1070
    41
1040
25.0
1070
    42
1040
15.0
1070
    44
1040
15.0
1070
    73
1070
     0
1070
    74
1070
     0
1070
    75
1070
     0
1070
    76
1070
     0
1070
    77
1070
     1
1070
    78
1070
     8
1070
   140
1040
31.181104
1070
   147
1040
0.0
1070
   173
1070
     1
1070
   176
1070
     4
1070
   177
1070
     4
1070
   178
1070
     7
1070
   271
1070
     1
1070
   277
1070
     2
1070
   279
1070
     2
1070
   280
1070
     0
1070
   287
1070
     5
1070
   340
1005
5AB
1002
}
  0
DIMENSION
  5
608
330
1F
100
AcDbEntity
  8
LAY-20
  6
CONTINUOUS
 62
     4
100
AcDbDimension
  2
*D43
 10
910.0
 20
915.6666666667201
 30
0.0
 11
885.0000000000001
 21
975.6666666667198
 31
0.0
 70
   160
  3
ISO-25
100
AcDbAlignedDimension
 13
841.5000000000902
 23
880.6666666667201
 33
0.0
 14
910.0
 24
915.6666666667201
 34
0.0
 50
90.0
100
AcDbRotatedDimension
1001
ACAD
1000
DSTYLE
1002
{
1070
   270
1070
     2
1070
     6
1000
EX_BNORM
1070
     7
1000
EX_BNORM
1070
    41
1040
25.0
1070
    42
1040
15.0
1070
    44
1040
15.0
1070
    73
1070
     0
1070
    74
1070
     0
1070
    75
1070
     0
1070
    76
1070
     1
1070
    77
1070
     1
1070
    78
1070
     8
1070
   140
1040
31.181104
1070
   147
1040
0.0
1070
   173
1070
     1
1070
   176
1070
     4
1070
   177
1070
     4
1070
   178
1070
     7
1070
   271
1070
     1
1070
   277
1070
     2
1070
   279
1070
     2
1070
   280
1070
     2
1070
   287
1070
     5
1070
   340
1005
5AB
1002
}
  0
DIMENSION
  5
616
330
1F
100
AcDbEntity
  8
LAY-20
  6
CONTINUOUS
 62
     4
100
AcDbDimension
  2
*D44
 10
297.8000000001
 20
615.66666666663
 30
0.0
 11
1094.0000000001
 21
640.6666666666299
 31
0.0
 70
   160
  3
ISO-25
100
AcDbAlignedDimension
 13
1890.2000000001
 23
818.6666666666201
 33
0.0
 14
297.8000000001
 24
818.6666666666201
 34
0.0
100
AcDbRotatedDimension
1001
ACAD
1000
DSTYLE
1002
{
1070
   270
1070
     2
1070
     6
1000
EX_BNORM
1070
     7
1000
EX_BNORM
1070
    41
1040
25.0
1070
    42
1040
15.0
1070
    44
1040
15.0
1070
    73
1070
     0
1070
    74
1070
     0
1070
    75
1070
     0
1070
    76
1070
     0
1070
    77
1070
     1
1070
    78
1070
     0
1070
   140
1040
31.181104
1070
   147
1040
0.0
1070
   173
1070
     1
1070
   176
1070
     4
1070
   177
1070
     4
1070
   178
1070
     7
1070
   271
1070
     0
1070
   277
1070
     2
1070
   279
1070
     2
1070
   280
1070
     0
1070
   287
1070
     5
1070
   340
1005
5AB
1002
}
  0
DIMENSION
  5
623
330
1F
100
AcDbEntity
  8
LAY-20
  6
CONTINUOUS
 62
     4
100
AcDbDimension
  2
*D45
 10
2599.2000000001
 20
1290.4666666666
 30
0.0
 11
2574.2000000001
 21
1823.6666666666
 31
0.0
 70
   160
  3
ISO-25
100
AcDbAlignedDimension
 13
2346.4000000001
 23
2356.8666666666
 33
0.0
 14
2346.4000000001
 24
1290.4666666666
 34
0.0
 50
90.0
100
AcDbRotatedDimension
1001
ACAD
1000
DSTYLE
1002
{
1070
   270
1070
     2
1070
     6
1000
EX_BNORM
1070
     7
1000
EX_BNORM
1070
    41
1040
25.0
1070
    42
1040
15.0
1070
    44
1040
15.0
1070
    73
1070
     0
1070
    74
1070
     0
1070
    75
1070
     0
1070
    76
1070
     0
1070
    77
1070
     1
1070
    78
1070
     0
1070
   140
1040
31.181104
1070
   147
1040
0.0
1070
   173
1070
     1
1070
   176
1070
     4
1070
   177
1070
     4
1070
   178
1070
     7
1070
   271
1070
     0
1070
   277
1070
     2
1070
   279
1070
     2
1070
   280
1070
     0
1070
   287
1070
     5
1070
   340
1005
5AB
1002
}
  0
LINE
  5
630
330
1F
100
AcDbEntity
  8
LAY-255
  6
CONTINUOUS
 62
     7
100
AcDbLine
 10
3850.0
 20
219.9999999999999
 30
0.0
 11
2850.0
 21
219.9999999999999
 31
0.0
  0
LINE
  5
631
330
1F
100
AcDbEntity
  8
LAY-255
  6
CONTINUOUS
 62
     7
100
AcDbLine
 10
2888.0
 20
160.0
 30
0.0
 11
2968.0
 21
210.0
 31
0.0
  0
LINE
  5
632
330
1F
100
AcDbEntity
  8
LAY-255
  6
CONTINUOUS
 62
     7
100
AcDbLine
 10
2968.0
 20
210.0
 30
0.0
 11
3048.0
 21
160.0
 31
0.0
  0
LINE
  5
633
330
1F
100
AcDbEntity
  8
LAY-255
  6
CONTINUOUS
 62
     7
100
AcDbLine
 10
3048.0
 20
160.0
 30
0.0
 11
2968.0
 21
110.0
 31
0.0
  0
LINE
  5
634
330
1F
100
AcDbEntity
  8
LAY-255
  6
CONTINUOUS
 62
     7
100
AcDbLine
 10
2968.0
 20
110.0
 30
0.0
 11
2888.0
 21
160.0
 31
0.0
  0
LINE
  5
635
330
1F
100
AcDbEntity
  8
LAY-255
  6
CONTINUOUS
 62
     7
100
AcDbLine
 10
50.0
 20
100.0
 30
0.0
 11
3850.0
 21
100.0
 31
0.0
  0
LINE
  5
636
330
1F
100
AcDbEntity
  8
LAY-255
  6
CONTINUOUS
 62
     7
100
AcDbLine
 10
50.0
 20
2800.0
 30
0.0
 11
3850.0
 21
2800.0
 31
0.0
  0
LINE
  5
637
330
1F
100
AcDbEntity
  8
LAY-255
  6
CONTINUOUS
 62
     7
100
AcDbLine
 10
50.0
 20
100.0
 30
0.0
 11
50.0
 21
2800.0
 31
0.0
  0
LINE
  5
638
330
1F
100
AcDbEntity
  8
LAY-255
  6
CONTINUOUS
 62
     7
100
AcDbLine
 10
3850.0
 20
100.0
 30
0.0
 11
3850.0
 21
2800.0
 31
0.0
  0
LINE
  5
639
330
1F
100
AcDbEntity
  8
LAY-255
  6
CONTINUOUS
 62
     4
100
AcDbLine
 10
2850.0
 20
279.9999999999999
 30
0.0
 11
3850.0
 21
279.9999999999999
 31
0.0
  0
LINE
  5
63A
330
1F
100
AcDbEntity
  8
LAY-255
  6
CONTINUOUS
 62
     7
100
AcDbLine
 10
2850.0
 20
100.0
 30
0.0
 11
2850.0
 21
670.0
 31
0.0
  0
POINT
  5
63B
330
1F
100
AcDbEntity
  8
LAY-255
  6
CONTINUOUS
 62
     7
100
AcDbPoint
 10
2890.0
 20
399.9999999999999
 30
0.0
  0
LINE
  5
63C
330
1F
100
AcDbEntity
  8
LAY-255
  6
CONTINUOUS
 62
     4
100
AcDbLine
 10
3350.0
 20
279.9999999999999
 30
0.0
 11
3350.0
 21
220.0
 31
0.0
  0
LINE
  5
63D
330
1F
100
AcDbEntity
  8
LAY-255
  6
CONTINUOUS
 62
     7
100
AcDbLine
 10
3850.0
 20
670.0
 30
0.0
 11
2850.0
 21
670.0
 31
0.0
  0
LINE
  5
63E
330
1F
100
AcDbEntity
  8
LAY-255
  6
CONTINUOUS
 62
     4
100
AcDbLine
 10
3830.0
 20
549.9999999999999
 30
0.0
 11
2870.0
 21
549.9999999999999
 31
0.0
  0
LINE
  5
63F
330
1F
100
AcDbEntity
  8
LAY-255
  6
CONTINUOUS
 62
     4
100
AcDbLine
 10
3830.0
 20
610.0
 30
0.0
 11
2870.0
 21
610.0
 31
0.0
  0
POINT
  5
640
330
1F
100
AcDbEntity
  8
LAY-255
  6
CONTINUOUS
 62
     7
100
AcDbPoint
 10
2890.0
 20
499.9999999999999
 30
0.0
  0
POINT
  5
641
330
1F
100
AcDbEntity
  8
LAY-255
  6
CONTINUOUS
 62
     7
100
AcDbPoint
 10
3000.0
 20
559.9999999999999
 30
0.0
  0
POINT
  5
642
330
1F
100
AcDbEntity
  8
LAY-255
  6
CONTINUOUS
 62
     7
100
AcDbPoint
 10
3000.0
 20
620.0
 30
0.0
  0
POINT
  5
643
330
1F
100
AcDbEntity
  8
LAY-255
  6
CONTINUOUS
 62
     7
100
AcDbPoint
 10
2890.0
 20
349.9999999999999
 30
0.0
  0
POINT
  5
644
330
1F
100
AcDbEntity
  8
LAY-255
  6
CONTINUOUS
 62
     7
100
AcDbPoint
 10
2890.0
 20
449.9999999999999
 30
0.0
  0
POINT
  5
645
330
1F
100
AcDbEntity
  8
LAY-255
  6
CONTINUOUS
 62
     7
100
AcDbPoint
 10
2890.0
 20
299.9999999999998
 30
0.0
  0
POINT
  5
646
330
1F
100
AcDbEntity
  8
LAY-255
  6
CONTINUOUS
 62
     7
100
AcDbPoint
 10
2890.0
 20
349.9999999999999
 30
0.0
  0
TEXT
  5
647
330
1F
100
AcDbEntity
  8
LAY-255
  6
CONTINUOUS
 62
     7
100
AcDbText
 10
3081.3837890625
 20
155.4375
 30
0.0
 40
51.5625
  1
福西鋳物株式会社
 41
1.342691999659091
  7
EXCADSTD
100
AcDbText
  0
TEXT
  5
648
330
1F
100
AcDbEntity
  8
LAY-255
  6
CONTINUOUS
 62
     7
100
AcDbText
 10
3085.09375
 20
119.8125
 30
0.0
 40
17.1875
  1
ＦＵＫＵＮＩＳＨＩ
 41
1.204799226045263
  7
EXCADSTD
100
AcDbText
  0
TEXT
  5
649
330
1F
100
AcDbEntity
  8
LAY-255
  6
CONTINUOUS
 62
     7
100
AcDbText
 10
3327.191964285714
 20
119.8125
 30
0.0
 40
17.1875
  1
ＦＯＵＮＤＲＹ
 41
1.243252752978497
  7
EXCADSTD
100
AcDbText
  0
TEXT
  5
64A
330
1F
100
AcDbEntity
  8
LAY-255
  6
CONTINUOUS
 62
     7
100
AcDbText
 10
3519.945914381009
 20
119.8125
 30
0.0
 40
17.1875
  1
ＣＯ.,ＬＴＤ.
 41
1.243831036226633
  7
EXCADSTD
100
AcDbText
  0
TEXT
  5
64B
330
1F
100
AcDbEntity
  8
LAY-255
  6
CONTINUOUS
 62
     7
100
AcDbText
 10
2940.34375
 20
137.1875
 30
0.0
 40
51.5625
  1
S
 41
0.7582677563636363
  7
EXCADSTD
100
AcDbText
  0
TEXT
  5
64C
330
1F
100
AcDbEntity
  8
LAY-255
  6
CONTINUOUS
 62
     7
100
AcDbText
 10
2971.046875
 20
137.4941037736
 30
0.0
 40
51.5625
  1
F
 41
0.7440945272727272
  7
EXCADSTD
100
AcDbText
  0
TEXT
  5
64D
330
1F
100
AcDbEntity
  8
LAY-255
  6
CONTINUOUS
 62
     7
100
AcDbText
 10
3371.0546875
 20
244.2187499999999
 30
0.0
 40
25.78125
  1
縮尺
 41
1.080708718181818
  7
EXCADSTD
100
AcDbText
  0
TEXT
  5
64E
330
1F
100
AcDbEntity
  8
LAY-255
  6
CONTINUOUS
 62
     7
100
AcDbText
 10
2872.65625
 20
565.6249999999999
 30
0.0
 40
34.375
  1
型式
 41
1.056348480681818
  7
EXCADSTD
100
AcDbText
  0
TEXT
  5
64F
330
1F
100
AcDbEntity
  8
LAY-255
  6
CONTINUOUS
 62
     7
100
AcDbText
 10
2874.21875
 20
625.625
 30
0.0
 40
34.375
  1
品名
 41
0.9788386340909091
  7
EXCADSTD
100
AcDbText
  0
TEXT
  5
650
330
1F
100
AcDbEntity
  8
LAY-255
  6
CONTINUOUS
 62
     7
100
AcDbText
 10
2871.5234375
 20
244.2187499999999
 30
0.0
 40
25.78125
  1
作成日
 41
1.000629973818182
  7
EXCADSTD
100
AcDbText
  0
TEXT
  5
651
330
1F
100
AcDbEntity
  8
LAY-255
  6
CONTINUOUS
 62
     7
100
AcDbText
 10
2891.40625
 20
505.6249999999999
 30
0.0
 40
34.375
  1
材質：スチール
 41
1.029301719225037
  7
EXCADSTD
100
AcDbText
  0
TEXT
  5
652
330
1F
100
AcDbEntity
  8
LAY-255
  6
CONTINUOUS
 62
     7
100
AcDbText
 10
2892.03125
 20
405.6249999999999
 30
0.0
 40
34.375
  1
適用荷重：歩行用
 41
1.015410627012987
  7
EXCADSTD
100
AcDbText
  0
TEXT
  5
653
330
1F
100
AcDbEntity
  8
LAY-255
  6
CONTINUOUS
 62
     7
100
AcDbText
 10
3002.5
 20
625.625
 30
0.0
 40
34.375
  1
化粧用マシンハッチ
 41
1.014552031760644
  7
EXCADSTD
100
AcDbText
  0
TEXT
  5
654
330
1F
100
AcDbEntity
  8
LAY-255
  6
CONTINUOUS
 62
     7
100
AcDbText
 10
3007.5
 20
565.6249999999999
 30
0.0
 40
34.375
  1
ＳＦ－９０×１５０ＢＭＰ－１型
 41
1.005180326315789
  7
EXCADSTD
100
AcDbText
  0
TEXT
  5
655
330
1F
100
AcDbEntity
  8
LAY-255
  6
CONTINUOUS
 62
     7
100
AcDbText
 10
3482.8125
 20
235.6249999999999
 30
0.0
 40
34.375
  1
１：１０
 41
0.9243863385026738
  7
EXCADSTD
100
AcDbText
  0
TEXT
  5
656
330
1F
100
AcDbEntity
  8
LAY-255
  6
CONTINUOUS
 62
     7
100
AcDbText
 10
2892.03125
 20
355.6249999999999
 30
0.0
 40
34.375
  1
貼代：３５
 41
0.99542213615222
  7
EXCADSTD
100
AcDbText
  0
TEXT
  5
657
330
1F
100
AcDbEntity
  8
LAY-255
  6
CONTINUOUS
 62
     7
100
AcDbText
 10
2897.8125
 20
455.6249999999999
 30
0.0
 40
34.375
  1
目地：ステンレス鋼
 41
1.00154495443038
  7
EXCADSTD
100
AcDbText
  0
TEXT
  5
658
330
1F
100
AcDbEntity
  8
LAY-255
  6
CONTINUOUS
 62
     7
100
AcDbText
 10
3008.90625
 20
235.6249999999999
 30
0.0
 40
34.375
  1
０９／０３／２５
 41
0.9779528072727273
  7
EXCADSTD
100
AcDbText
  0
ENDSEC
  0
SECTION
  2
OBJECTS
  0
DICTIONARY
  5
C
330
0
100
AcDbDictionary
  3
ACAD_GROUP
350
D
  3
ACAD_LAYOUT
350
1A
  3
ACAD_MATERIAL
350
43
  3
ACAD_MLEADERSTYLE
350
6B
  3
ACAD_MLINESTYLE
350
17
  3
ACAD_PLOTSETTINGS
350
19
  3
ACAD_SCALELIST
350
47
  3
ACAD_VISUALSTYLE
350
2A
  3
ACDBHEADERROUNDTRIPXREC
350
659
  3
ACDBVARIABLEDICTIONARY
350
67A
  0
DICTIONARY
  5
685
330
8
100
AcDbDictionary
280
     1
  3
ACAD_XREC_ROUNDTRIP
360
686
  0
DICTIONARY
  5
D
102
{ACAD_REACTORS
330
C
102
}
330
C
100
AcDbDictionary
  0
DICTIONARY
  5
1A
102
{ACAD_REACTORS
330
C
102
}
330
C
100
AcDbDictionary
  0
DICTIONARY
  5
43
102
{ACAD_REACTORS
330
C
102
}
330
C
100
AcDbDictionary
  3
BYBLOCK
350
45
  3
BYLAYER
350
44
  3
GLOBAL
350
46
  0
DICTIONARY
  5
6B
102
{ACAD_REACTORS
330
C
102
}
330
C
100
AcDbDictionary
  3
STANDARD
350
6C
  0
DICTIONARY
  5
17
102
{ACAD_REACTORS
330
C
102
}
330
C
100
AcDbDictionary
  3
STANDARD
350
18
  0
DICTIONARY
  5
19
102
{ACAD_REACTORS
330
C
102
}
330
C
100
AcDbDictionary
  0
DICTIONARY
  5
47
102
{ACAD_REACTORS
330
C
102
}
330
C
100
AcDbDictionary
  3
A0
350
48
  3
A1
350
49
  3
A2
350
4A
  3
A3
350
4B
  3
A4
350
4C
  3
A5
350
4D
  3
A6
350
4E
  3
A7
350
4F
  3
A8
350
50
  3
A9
350
51
  3
B0
350
52
  3
B1
350
53
  3
B2
350
54
  3
B3
350
55
  3
B4
350
56
  3
B5
350
57
  3
B6
350
58
  3
B7
350
59
  3
B8
350
5A
  3
B9
350
5B
  3
C0
350
5C
  3
C1
350
5D
  3
C2
350
5E
  3
C3
350
5F
  3
C4
350
60
  3
C5
350
61
  3
C6
350
62
  3
C7
350
63
  3
C8
350
64
  3
C9
350
65
  3
D0
350
66
  3
D1
350
67
  3
D2
350
68
  0
DICTIONARY
  5
2A
102
{ACAD_REACTORS
330
C
102
}
330
C
100
AcDbDictionary
  3
2DWIREFRAME
350
2F
  3
BASIC
350
32
  3
BRIGHTEN
350
36
  3
COLORCHANGE
350
3A
  3
CONCEPTUAL
350
34
  3
DIM
350
35
  3
EDGECOLOROFF
350
3D
  3
FACEPATTERN
350
39
  3
FLAT
350
2B
  3
FLATWITHEDGES
350
2C
  3
GOURAUD
350
2D
  3
GOURAUDWITHEDGES
350
2E
  3
HIDDEN
350
31
  3
JITTEROFF
350
3B
  3
LINEPATTERN
350
38
  3
OVERHANGOFF
350
3C
  3
REALISTIC
350
33
  3
SHADED
350
42
  3
SHADED_WITH_EDGES
350
41
  3
SHADES_OF_GRAY
350
3E
  3
SKETCHY
350
3F
  3
THICKEN
350
37
  3
WIREFRAME
350
30
  3
X-RAY
350
40
  0
DICTIONARY
  5
659
102
{ACAD_REACTORS
330
C
102
}
330
C
100
AcDbDictionary
  3
CEPSNID
350
663
  3
CEPSNTYPE
350
662
  3
DIMSTYLEDATA
350
679
  3
FINGERPRINTGUID
350
664
  3
HYPERLINKBASE
350
65C
  3
INSUNITS
350
661
  3
LAYOUTDICT
350
65E
  3
LWETCUNION
350
660
  3
PLOTSETDICT
350
65F
  3
PSVPSCALE
350
666
  3
PUCSBASE
350
669
  3
PUCSORGBACK
350
66F
  3
PUCSORGBOTTOM
350
66B
  3
PUCSORGFRONT
350
66E
  3
PUCSORGLEFT
350
66C
  3
PUCSORGRIGHT
350
66D
  3
PUCSORGTOP
350
66A
  3
PUCSORTHOREF
350
667
  3
PUCSORTHOVIEW
350
668
  3
STYLESHEET
350
65D
  3
TSTACKALIGN
350
65A
  3
TSTACKSIZE
350
65B
  3
UCSBASE
350
672
  3
UCSORGBACK
350
678
  3
UCSORGBOTTOM
350
674
  3
UCSORGFRONT
350
677
  3
UCSORGLEFT
350
675
  3
UCSORGRIGHT
350
676
  3
UCSORGTOP
350
673
  3
UCSORTHOREF
350
670
  3
UCSORTHOVIEW
350
671
  3
VERSIONGUID
350
665
  0
DICTIONARY
  5
67A
102
{ACAD_REACTORS
330
C
102
}
330
C
100
AcDbDictionary
  3
CANNOSCALE
350
687
  3
CENTEREXE
350
681
  3
CENTERLTYPEFILE
350
682
  3
CMLEADERSTYLE
350
67C
  3
CTABLESTYLE
350
67B
  3
DIMASSOC
350
683
  3
HIDETEXT
350
684
  3
MSLTSCALE
350
688
  3
PSOLHEIGHT
350
67E
  3
PSOLWIDTH
350
67D
  0
XRECORD
  5
686
102
{ACAD_REACTORS
330
685
102
}
330
685
100
AcDbXrecord
102
VTR_0.000_0.000_1.000_1.000_VISUALSTYLE
340
2F
102
VTR_0.000_0.000_1.000_1.000_GRIDDISPLAY
 70
     3
102
VTR_0.000_0.000_1.000_1.000_GRIDMAJOR
 70
     5
102
VTR_0.000_0.000_1.000_1.000_DEFAULTLIGHTING
280
     1
102
VTR_0.000_0.000_1.000_1.000_DEFAULTLIGHTINGTYPE
 70
     1
102
VTR_0.000_0.000_1.000_1.000_BRIGHTNESS
141
0.0
102
VTR_0.000_0.000_1.000_1.000_CONTRAST
142
0.0
  0
MATERIAL
  5
45
102
{ACAD_REACTORS
330
43
102
}
102
{ACAD_XDICTIONARY
360
68B
102
}
330
43
100
AcDbMaterial
  1
BYBLOCK
  0
MATERIAL
  5
44
102
{ACAD_REACTORS
330
43
102
}
102
{ACAD_XDICTIONARY
360
689
102
}
330
43
100
AcDbMaterial
  1
BYLAYER
  0
MATERIAL
  5
46
102
{ACAD_REACTORS
330
43
102
}
102
{ACAD_XDICTIONARY
360
68D
102
}
330
43
100
AcDbMaterial
  1
GLOBAL
  0
ACAD_PROXY_OBJECT
  5
6C
102
{ACAD_REACTORS
330
6B
102
}
330
6B
100
AcDbProxyObject
 90
      499
 91
      505
 93
      610
310
40901902A4063FBFFFFFE0000000000000020400000000000020404214DD185B99185C990000000000000104090141901A00000000000004100000000000000041025764000000000000039000
340
14
340
0
340
11
340
0
 94
        0
1001
ACAD_MLEADERVER
1070
     2
  0
MLINESTYLE
  5
18
102
{ACAD_REACTORS
330
17
102
}
330
17
100
AcDbMlineStyle
  2
Standard
 70
     0
  3

 62
   256
 51
90.0
 52
90.0
 71
     2
 49
0.5
 62
   256
  6
BYLAYER
 49
-0.5
 62
   256
  6
BYLAYER
  0
ACAD_PROXY_OBJECT
  5
48
102
{ACAD_REACTORS
330
47
102
}
330
47
100
AcDbProxyObject
 90
      499
 91
      503
 93
       41
310
903313A31580
  0
ACAD_PROXY_OBJECT
  5
49
102
{ACAD_REACTORS
330
47
102
}
330
47
100
AcDbProxyObject
 90
      499
 91
      503
 93
      105
310
903313A324000000000000004000
  0
ACAD_PROXY_OBJECT
  5
4A
102
{ACAD_REACTORS
330
47
102
}
330
47
100
AcDbProxyObject
 90
      499
 91
      503
 93
      105
310
903313A344000000000000104000
  0
ACAD_PROXY_OBJECT
  5
4B
102
{ACAD_REACTORS
330
47
102
}
330
47
100
AcDbProxyObject
 90
      499
 91
      503
 93
      105
310
903313A354000000000000144000
  0
ACAD_PROXY_OBJECT
  5
4C
102
{ACAD_REACTORS
330
47
102
}
330
47
100
AcDbProxyObject
 90
      499
 91
      503
 93
      105
310
903313A384000000000000204000
  0
ACAD_PROXY_OBJECT
  5
4D
102
{ACAD_REACTORS
330
47
102
}
330
47
100
AcDbProxyObject
 90
      499
 91
      503
 93
      113
310
904313A31304000000000000244000
  0
ACAD_PROXY_OBJECT
  5
4E
102
{ACAD_REACTORS
330
47
102
}
330
47
100
AcDbProxyObject
 90
      499
 91
      503
 93
      113
310
904313A31364000000000000304000
  0
ACAD_PROXY_OBJECT
  5
4F
102
{ACAD_REACTORS
330
47
102
}
330
47
100
AcDbProxyObject
 90
      499
 91
      503
 93
      113
310
904313A32304000000000000344000
  0
ACAD_PROXY_OBJECT
  5
50
102
{ACAD_REACTORS
330
47
102
}
330
47
100
AcDbProxyObject
 90
      499
 91
      503
 93
      113
310
904313A333040000000000003E4000
  0
ACAD_PROXY_OBJECT
  5
51
102
{ACAD_REACTORS
330
47
102
}
330
47
100
AcDbProxyObject
 90
      499
 91
      503
 93
      113
310
904313A34304000000000000444000
  0
ACAD_PROXY_OBJECT
  5
52
102
{ACAD_REACTORS
330
47
102
}
330
47
100
AcDbProxyObject
 90
      499
 91
      503
 93
      113
310
904313A35304000000000000494000
  0
ACAD_PROXY_OBJECT
  5
53
102
{ACAD_REACTORS
330
47
102
}
330
47
100
AcDbProxyObject
 90
      499
 91
      503
 93
      121
310
905313A3130304000000000000594000
  0
ACAD_PROXY_OBJECT
  5
54
102
{ACAD_REACTORS
330
47
102
}
330
47
100
AcDbProxyObject
 90
      499
 91
      503
 93
      105
310
903323A310000000000000010100
  0
ACAD_PROXY_OBJECT
  5
55
102
{ACAD_REACTORS
330
47
102
}
330
47
100
AcDbProxyObject
 90
      499
 91
      503
 93
      105
310
903343A310000000000000410100
  0
ACAD_PROXY_OBJECT
  5
56
102
{ACAD_REACTORS
330
47
102
}
330
47
100
AcDbProxyObject
 90
      499
 91
      503
 93
      105
310
903383A310000000000000810100
  0
ACAD_PROXY_OBJECT
  5
57
102
{ACAD_REACTORS
330
47
102
}
330
47
100
AcDbProxyObject
 90
      499
 91
      503
 93
      113
310
90431303A310000000000000910100
  0
ACAD_PROXY_OBJECT
  5
58
102
{ACAD_REACTORS
330
47
102
}
330
47
100
AcDbProxyObject
 90
      499
 91
      503
 93
      121
310
9053130303A310000000000001650100
  0
ACAD_PROXY_OBJECT
  5
59
102
{ACAD_REACTORS
330
47
102
}
330
47
100
AcDbProxyObject
 90
      499
 91
      503
 93
      257
310
90E312F31323822203D2031272D3022000000000000200FC000000000000284000
  0
ACAD_PROXY_OBJECT
  5
5A
102
{ACAD_REACTORS
330
47
102
}
330
47
100
AcDbProxyObject
 90
      499
 91
      503
 93
      249
310
90D312F363422203D2031272D3022000000000000240FC000000000000284000
  0
ACAD_PROXY_OBJECT
  5
5B
102
{ACAD_REACTORS
330
47
102
}
330
47
100
AcDbProxyObject
 90
      499
 91
      503
 93
      249
310
90D312F333222203D2031272D3022000000000000280FC000000000000284000
  0
ACAD_PROXY_OBJECT
  5
5C
102
{ACAD_REACTORS
330
47
102
}
330
47
100
AcDbProxyObject
 90
      499
 91
      503
 93
      249
310
90D312F313622203D2031272D30220000000000002C0FC000000000000284000
  0
ACAD_PROXY_OBJECT
  5
5D
102
{ACAD_REACTORS
330
47
102
}
330
47
100
AcDbProxyObject
 90
      499
 91
      503
 93
      249
310
90D332F333222203D2031272D30220000000000002E0FC000000000000284000
  0
ACAD_PROXY_OBJECT
  5
5E
102
{ACAD_REACTORS
330
47
102
}
330
47
100
AcDbProxyObject
 90
      499
 91
      503
 93
      241
310
90C312F3822203D2031272D3022000000000000300FC000000000000284000
  0
ACAD_PROXY_OBJECT
  5
5F
102
{ACAD_REACTORS
330
47
102
}
330
47
100
AcDbProxyObject
 90
      499
 91
      503
 93
      249
310
90D332F313622203D2031272D3022000000000000320FC000000000000284000
  0
ACAD_PROXY_OBJECT
  5
60
102
{ACAD_REACTORS
330
47
102
}
330
47
100
AcDbProxyObject
 90
      499
 91
      503
 93
      241
310
90C312F3422203D2031272D3022000000000000340FC000000000000284000
  0
ACAD_PROXY_OBJECT
  5
61
102
{ACAD_REACTORS
330
47
102
}
330
47
100
AcDbProxyObject
 90
      499
 91
      503
 93
      241
310
90C332F3822203D2031272D3022000000000000360FC000000000000284000
  0
ACAD_PROXY_OBJECT
  5
62
102
{ACAD_REACTORS
330
47
102
}
330
47
100
AcDbProxyObject
 90
      499
 91
      503
 93
      241
310
90C312F3222203D2031272D3022000000000000380FC000000000000284000
  0
ACAD_PROXY_OBJECT
  5
63
102
{ACAD_REACTORS
330
47
102
}
330
47
100
AcDbProxyObject
 90
      499
 91
      503
 93
      241
310
90C332F3422203D2031272D30220000000000003A0FC000000000000284000
  0
ACAD_PROXY_OBJECT
  5
64
102
{ACAD_REACTORS
330
47
102
}
330
47
100
AcDbProxyObject
 90
      499
 91
      503
 93
      161
310
90A3122203D2031272D30224000000000000284000
  0
ACAD_PROXY_OBJECT
  5
65
102
{ACAD_REACTORS
330
47
102
}
330
47
100
AcDbProxyObject
 90
      499
 91
      503
 93
      257
310
90E312D312F3222203D2031272D30220000000000003E0FC000000000000284000
  0
ACAD_PROXY_OBJECT
  5
66
102
{ACAD_REACTORS
330
47
102
}
330
47
100
AcDbProxyObject
 90
      499
 91
      503
 93
      225
310
90A3322203D2031272D302200000000000002100000000000000284000
  0
ACAD_PROXY_OBJECT
  5
67
102
{ACAD_REACTORS
330
47
102
}
330
47
100
AcDbProxyObject
 90
      499
 91
      503
 93
      225
310
90A3622203D2031272D302200000000000006100000000000000284000
  0
ACAD_PROXY_OBJECT
  5
68
102
{ACAD_REACTORS
330
47
102
}
330
47
100
AcDbProxyObject
 90
      499
 91
      503
 93
      249
310
90D31272D3022203D2031272D30220000000000000A100000000000000284000
  0
ACAD_PROXY_OBJECT
  5
2F
102
{ACAD_REACTORS
330
2A
102
}
330
2A
100
AcDbProxyObject
 90
      499
 91
      501
 93
      436
310
42CC9915DA5C99599C985B595049028333333333333E33F0000000000000F90107901411070040501600405405064090741402480A0340
1001
ACAD
1000
AcDbSavedByObjectVersion
1070
     0
  0
ACAD_PROXY_OBJECT
  5
32
102
{ACAD_REACTORS
330
2A
102
}
330
2A
100
AcDbProxyObject
 90
      499
 91
      501
 93
      388
310
4150985CDA58D07406404333333333333E33F0000000000000F90107A41107004050150841D405064090741402480A0350
1001
ACAD
1000
AcDbSavedByObjectVersion
1070
     0
  0
ACAD_PROXY_OBJECT
  5
36
102
{ACAD_REACTORS
330
2A
102
}
330
2A
100
AcDbProxyObject
 90
      499
 91
      501
 93
      428
310
42109C9A59DA1D195B90C409028333333333333E33F0000000000000F9010790141107004050150841D405064090741402480A029950
1001
ACAD
1000
AcDbSavedByObjectVersion
1070
     0
  0
ACAD_PROXY_OBJECT
  5
3A
102
{ACAD_REACTORS
330
2A
102
}
330
2A
100
AcDbProxyObject
 90
      499
 91
      501
 93
      452
310
42D0DBDB1BDC90DA185B99D95104090240C333333333333E33F0000000000000F90108901411070040501508421405064090741402480A0350
1001
ACAD
1000
AcDbSavedByObjectVersion
1070
     0
  0
ACAD_PROXY_OBJECT
  5
34
102
{ACAD_REACTORS
330
2A
102
}
330
2A
100
AcDbProxyObject
 90
      499
 91
      501
 93
      500
310
4290DBDB98D95C1D1D585B10940D028333333333333E33F0000000000000F90107902409070040501000000000018199010841D405064090740C02480A0340
1001
ACAD
1000
AcDbSavedByObjectVersion
1070
     0
  0
ACAD_PROXY_OBJECT
  5
35
102
{ACAD_REACTORS
330
2A
102
}
330
2A
100
AcDbProxyObject
 90
      499
 91
      501
 93
      412
310
40D11A5B50B409028333333333333E33F0000000000000F9010790141107004050150841D405064090741402480A02677FFFFFD0
1001
ACAD
1000
AcDbSavedByObjectVersion
1070
     0
  0
ACAD_PROXY_OBJECT
  5
3D
102
{ACAD_REACTORS
330
2A
102
}
330
2A
100
AcDbProxyObject
 90
      499
 91
      501
 93
      452
310
43115919D950DBDB1BDC93D999916409028333333333333E33F0000000000000F9010790141107004050150841D405064090741402480A0350
1001
ACAD
1000
AcDbSavedByObjectVersion
1070
     0
  0
ACAD_PROXY_OBJECT
  5
39
102
{ACAD_REACTORS
330
2A
102
}
330
2A
100
AcDbProxyObject
 90
      499
 91
      501
 93
      444
310
42D19858D95C185D1D195C9B90F409028333333333333E33F0000000000000F9010790141107004050150841D405064090741402480A0350
1001
ACAD
1000
AcDbSavedByObjectVersion
1070
     0
  0
ACAD_PROXY_OBJECT
  5
2B
102
{ACAD_REACTORS
330
2A
102
}
330
2A
100
AcDbProxyObject
 90
      499
 91
      501
 93
      380
310
41119B185D240901404333333333333E33F0000000000000F9010740A907004050150841D405064090741402480A1B50
1001
ACAD
1000
AcDbSavedByObjectVersion
1070
     0
  0
ACAD_PROXY_OBJECT
  5
2C
102
{ACAD_REACTORS
330
2A
102
}
330
2A
100
AcDbProxyObject
 90
      499
 91
      501
 93
      468
310
43519B185D15DA5D1A115919D95CD0140901404333333333333E33F0000000000000F90107409019070040501600405405064090741402480A1B50
1001
ACAD
1000
AcDbSavedByObjectVersion
1070
     0
  0
ACAD_PROXY_OBJECT
  5
2D
102
{ACAD_REACTORS
330
2A
102
}
330
2A
100
AcDbProxyObject
 90
      499
 91
      501
 93
      404
310
41D1DBDD5C985D5910240902404333333333333E33F0000000000000F9010740A9070040501641D405064090741402480A1B50
1001
ACAD
1000
AcDbSavedByObjectVersion
1070
     0
  0
ACAD_PROXY_OBJECT
  5
2E
102
{ACAD_REACTORS
330
2A
102
}
330
2A
100
AcDbProxyObject
 90
      499
 91
      501
 93
      492
310
4411DBDD5C985D5915DA5D1A115919D95CD0340902404333333333333E33F0000000000000F90107409019070040501600405405064090741402480A1B50
1001
ACAD
1000
AcDbSavedByObjectVersion
1070
     0
  0
ACAD_PROXY_OBJECT
  5
31
102
{ACAD_REACTORS
330
2A
102
}
330
2A
100
AcDbProxyObject
 90
      499
 91
      501
 93
      476
310
41921A5919195B90640502408333333333333E33F0000000000000F901079024090700405020000000000001110200405405064090740C02480A0340
1001
ACAD
1000
AcDbSavedByObjectVersion
1070
     0
  0
ACAD_PROXY_OBJECT
  5
3B
102
{ACAD_REACTORS
330
2A
102
}
330
2A
100
AcDbProxyObject
 90
      499
 91
      501
 93
      428
310
42529A5D1D195C93D999914409028333333333333E33F0000000000000F9010790141107004050150A41D405064090741402480A0350
1001
ACAD
1000
AcDbSavedByObjectVersion
1070
     0
  0
ACAD_PROXY_OBJECT
  5
38
102
{ACAD_REACTORS
330
2A
102
}
330
2A
100
AcDbProxyObject
 90
      499
 91
      501
 93
      444
310
42D31A5B995C185D1D195C9B90E409028333333333333E33F0000000000000F9010790141107004050750841D405064090741402483A0350
1001
ACAD
1000
AcDbSavedByObjectVersion
1070
     0
  0
ACAD_PROXY_OBJECT
  5
3C
102
{ACAD_REACTORS
330
2A
102
}
330
2A
100
AcDbProxyObject
 90
      499
 91
      501
 93
      444
310
42D3DD995C9A185B99D3D999915409028333333333333E33F0000000000000F9010790141107004050150941D405064090741402480A0350
1001
ACAD
1000
AcDbSavedByObjectVersion
1070
     0
  0
ACAD_PROXY_OBJECT
  5
33
102
{ACAD_REACTORS
330
2A
102
}
330
2A
100
AcDbProxyObject
 90
      499
 91
      501
 93
      428
310
425499585B1A5CDD1A58D08409038333333333333E33F0000000000000F9010740A907004050150800405405064090740C02480A1B40
1001
ACAD
1000
AcDbSavedByObjectVersion
1070
     0
  0
ACAD_PROXY_OBJECT
  5
42
102
{ACAD_REACTORS
330
2A
102
}
330
2A
100
AcDbProxyObject
 90
      499
 91
      501
 93
      420
310
4194DA1859195911B40902404333333333333E33F0000000000000F9010740A41107004050150800405405064090840C02480A0B40
1001
ACAD
1000
AcDbSavedByObjectVersion
1070
     0
  0
ACAD_PROXY_OBJECT
  5
41
102
{ACAD_REACTORS
330
2A
102
}
330
2A
100
AcDbProxyObject
 90
      499
 91
      501
 93
      516
310
4454DA18591959081DDA5D1A08195919D95CD1A40902404333333333333E33F0000000000000F901074090142907004050250800405405064090740C02480A0B40
1001
ACAD
1000
AcDbSavedByObjectVersion
1070
     0
  0
ACAD_PROXY_OBJECT
  5
3E
102
{ACAD_REACTORS
330
2A
102
}
330
2A
100
AcDbProxyObject
 90
      499
 91
      501
 93
      532
310
4394DA1859195CC81BD98811DC985E5174090240C333333333333E33F0000000000000F901079024090741D01000000000000111010841D405064090740C02480A0340
1001
ACAD
1000
AcDbSavedByObjectVersion
1070
     0
  0
ACAD_PROXY_OBJECT
  5
3F
102
{ACAD_REACTORS
330
2A
102
}
330
2A
100
AcDbProxyObject
 90
      499
 91
      501
 93
      476
310
41D4DAD95D18DA1E51840502408333333333333E33F0000000000000F901079024090741D01000000000000111010B41D405064090741802480A0340
1001
ACAD
1000
AcDbSavedByObjectVersion
1070
     0
  0
ACAD_PROXY_OBJECT
  5
37
102
{ACAD_REACTORS
330
2A
102
}
330
2A
100
AcDbProxyObject
 90
      499
 91
      501
 93
      412
310
41D51A1A58DAD95B90D409028333333333333E33F0000000000000F9010790141107004050150C41D405064090741402480A0350
1001
ACAD
1000
AcDbSavedByObjectVersion
1070
     0
  0
ACAD_PROXY_OBJECT
  5
30
102
{ACAD_REACTORS
330
2A
102
}
330
2A
100
AcDbProxyObject
 90
      499
 91
      501
 93
      420
310
4255DA5C99599C985B595059028333333333333E33F0000000000000F90107901411070040501600405405064090740C02480A0340
1001
ACAD
1000
AcDbSavedByObjectVersion
1070
     0
  0
ACAD_PROXY_OBJECT
  5
40
102
{ACAD_REACTORS
330
2A
102
}
330
2A
100
AcDbProxyObject
 90
      499
 91
      501
 93
      404
310
41560B54985E51940902404000000000000E03F0000000000000F9010740501907004050150841D405064090740C02480A1B40
1001
ACAD
1000
AcDbSavedByObjectVersion
1070
     0
  0
XRECORD
  5
663
102
{ACAD_REACTORS
330
659
102
}
330
659
100
AcDbXrecord
340
0
  0
XRECORD
  5
662
102
{ACAD_REACTORS
330
659
102
}
330
659
100
AcDbXrecord
 90
        0
  0
XRECORD
  5
679
102
{ACAD_REACTORS
330
659
102
}
330
659
100
AcDbXrecord
1000
DSTYLE
1002
{
1070
   340
340
11
1002
}
  0
XRECORD
  5
664
102
{ACAD_REACTORS
330
659
102
}
330
659
100
AcDbXrecord
  1
{f3afb9fe-1487-4cca-9178-56737306dcbc}
  0
XRECORD
  5
65C
102
{ACAD_REACTORS
330
659
102
}
330
659
100
AcDbXrecord
  1

  0
XRECORD
  5
661
102
{ACAD_REACTORS
330
659
102
}
330
659
100
AcDbXrecord
 90
        4
  0
XRECORD
  5
65E
102
{ACAD_REACTORS
330
659
102
}
330
659
100
AcDbXrecord
340
1A
  0
XRECORD
  5
660
102
{ACAD_REACTORS
330
659
102
}
330
659
100
AcDbXrecord
 90
    10781
  0
XRECORD
  5
65F
102
{ACAD_REACTORS
330
659
102
}
330
659
100
AcDbXrecord
340
19
  0
XRECORD
  5
666
102
{ACAD_REACTORS
330
659
102
}
330
659
100
AcDbXrecord
 40
0.0
  0
XRECORD
  5
669
102
{ACAD_REACTORS
330
659
102
}
330
659
100
AcDbXrecord
340
0
  0
XRECORD
  5
66F
102
{ACAD_REACTORS
330
659
102
}
330
659
100
AcDbXrecord
 10
0.0
 20
0.0
 30
0.0
  0
XRECORD
  5
66B
102
{ACAD_REACTORS
330
659
102
}
330
659
100
AcDbXrecord
 10
0.0
 20
0.0
 30
0.0
  0
XRECORD
  5
66E
102
{ACAD_REACTORS
330
659
102
}
330
659
100
AcDbXrecord
 10
0.0
 20
0.0
 30
0.0
  0
XRECORD
  5
66C
102
{ACAD_REACTORS
330
659
102
}
330
659
100
AcDbXrecord
 10
0.0
 20
0.0
 30
0.0
  0
XRECORD
  5
66D
102
{ACAD_REACTORS
330
659
102
}
330
659
100
AcDbXrecord
 10
0.0
 20
0.0
 30
0.0
  0
XRECORD
  5
66A
102
{ACAD_REACTORS
330
659
102
}
330
659
100
AcDbXrecord
 10
0.0
 20
0.0
 30
0.0
  0
XRECORD
  5
667
102
{ACAD_REACTORS
330
659
102
}
330
659
100
AcDbXrecord
340
0
  0
XRECORD
  5
668
102
{ACAD_REACTORS
330
659
102
}
330
659
100
AcDbXrecord
 70
     0
  0
XRECORD
  5
65D
102
{ACAD_REACTORS
330
659
102
}
330
659
100
AcDbXrecord
  1

  0
XRECORD
  5
65A
102
{ACAD_REACTORS
330
659
102
}
330
659
100
AcDbXrecord
 90
        1
  0
XRECORD
  5
65B
102
{ACAD_REACTORS
330
659
102
}
330
659
100
AcDbXrecord
 90
       70
  0
XRECORD
  5
672
102
{ACAD_REACTORS
330
659
102
}
330
659
100
AcDbXrecord
340
0
  0
XRECORD
  5
678
102
{ACAD_REACTORS
330
659
102
}
330
659
100
AcDbXrecord
 10
0.0
 20
0.0
 30
0.0
  0
XRECORD
  5
674
102
{ACAD_REACTORS
330
659
102
}
330
659
100
AcDbXrecord
 10
0.0
 20
0.0
 30
0.0
  0
XRECORD
  5
677
102
{ACAD_REACTORS
330
659
102
}
330
659
100
AcDbXrecord
 10
0.0
 20
0.0
 30
0.0
  0
XRECORD
  5
675
102
{ACAD_REACTORS
330
659
102
}
330
659
100
AcDbXrecord
 10
0.0
 20
0.0
 30
0.0
  0
XRECORD
  5
676
102
{ACAD_REACTORS
330
659
102
}
330
659
100
AcDbXrecord
 10
0.0
 20
0.0
 30
0.0
  0
XRECORD
  5
673
102
{ACAD_REACTORS
330
659
102
}
330
659
100
AcDbXrecord
 10
0.0
 20
0.0
 30
0.0
  0
XRECORD
  5
670
102
{ACAD_REACTORS
330
659
102
}
330
659
100
AcDbXrecord
340
0
  0
XRECORD
  5
671
102
{ACAD_REACTORS
330
659
102
}
330
659
100
AcDbXrecord
 70
     0
  0
XRECORD
  5
665
102
{ACAD_REACTORS
330
659
102
}
330
659
100
AcDbXrecord
  1
{FAEB1C32-E019-11D5-929B-00C0DF256EC4}
  0
DICTIONARYVAR
  5
687
102
{ACAD_REACTORS
330
67A
102
}
330
67A
100
DictionaryVariables
280
     0
  1
1:1
  0
DICTIONARYVAR
  5
681
102
{ACAD_REACTORS
330
67A
102
}
330
67A
100
DictionaryVariables
280
     0
  1
3.500000
  0
DICTIONARYVAR
  5
682
102
{ACAD_REACTORS
330
67A
102
}
330
67A
100
DictionaryVariables
280
     0
  1
acadiso.lin
  0
DICTIONARYVAR
  5
67C
102
{ACAD_REACTORS
330
67A
102
}
330
67A
100
DictionaryVariables
280
     0
  1
Standard
  0
DICTIONARYVAR
  5
67B
102
{ACAD_REACTORS
330
67A
102
}
330
67A
100
DictionaryVariables
280
     0
  1
Standard
  0
DICTIONARYVAR
  5
683
102
{ACAD_REACTORS
330
67A
102
}
330
67A
100
DictionaryVariables
280
     0
  1
2
  0
DICTIONARYVAR
  5
684
102
{ACAD_REACTORS
330
67A
102
}
330
67A
100
DictionaryVariables
280
     0
  1
1
  0
DICTIONARYVAR
  5
688
102
{ACAD_REACTORS
330
67A
102
}
330
67A
100
DictionaryVariables
280
     0
  1
1
  0
DICTIONARYVAR
  5
67E
102
{ACAD_REACTORS
330
67A
102
}
330
67A
100
DictionaryVariables
280
     0
  1
80.000000
  0
DICTIONARYVAR
  5
67D
102
{ACAD_REACTORS
330
67A
102
}
330
67A
100
DictionaryVariables
280
     0
  1
5.000000
  0
DICTIONARY
  5
68B
330
45
100
AcDbDictionary
280
     1
  3
ACAD_XREC_ROUNDTRIP
360
68C
  0
DICTIONARY
  5
689
330
44
100
AcDbDictionary
280
     1
  3
ACAD_XREC_ROUNDTRIP
360
68A
  0
DICTIONARY
  5
68D
330
46
100
AcDbDictionary
280
     1
  3
ACAD_XREC_ROUNDTRIP
360
68E
  0
XRECORD
  5
68C
102
{ACAD_REACTORS
330
68B
102
}
330
68B
100
AcDbXrecord
102
MATERIAL
148
0.0
149
0.0
149
0.0
 93
        0
 94
      127
282
     0
 72
     1
 77
     1
171
     1
175
     1
179
     1
273
     0
  0
XRECORD
  5
68A
102
{ACAD_REACTORS
330
689
102
}
330
689
100
AcDbXrecord
102
MATERIAL
148
0.0
149
0.0
149
0.0
 93
        0
 94
      127
282
     0
 72
     1
 77
     1
171
     1
175
     1
179
     1
273
     0
  0
XRECORD
  5
68E
102
{ACAD_REACTORS
330
68D
102
}
330
68D
100
AcDbXrecord
102
MATERIAL
148
0.0
149
0.0
149
0.0
 93
        0
 94
      127
282
     0
 72
     1
 77
     1
171
     1
175
     1
179
     1
273
     0
  0
ENDSEC
  0
EOF
