  0
SECTION
  2
HEADER
  9
$ACADVER
  1
AC1014
  9
$ACADMAINTVER
 70
     9
  9
$DWGCODEPAGE
  3
ANSI_932
  9
$INSBASE
 10
0.0
 20
0.0
 30
0.0
  9
$EXTMIN
 10
50.0
 20
100.0
 30
0.0
  9
$EXTMAX
 10
3850.0
 20
2800.0
 30
0.0
  9
$LIMMIN
 10
0.0
 20
0.0
  9
$LIMMAX
 10
420.0
 20
297.0
  9
$ORTHOMODE
 70
     0
  9
$REGENMODE
 70
     1
  9
$FILLMODE
 70
     1
  9
$QTEXTMODE
 70
     0
  9
$MIRRTEXT
 70
     1
  9
$DRAGMODE
 70
     2
  9
$LTSCALE
 40
0.2
  9
$OSMODE
 70
    37
  9
$ATTMODE
 70
     1
  9
$TEXTSIZE
 40
2.5
  9
$TRACEWID
 40
1.0
  9
$TEXTSTYLE
  7
STANDARD
  9
$CLAYER
  8
LAY-10
  9
$CELTYPE
  6
BYLAYER
  9
$CECOLOR
 62
   256
  9
$CELTSCALE
 40
1.0
  9
$DELOBJ
 70
     1
  9
$DISPSILH
 70
     0
  9
$DIMSCALE
 40
1.0
  9
$DIMASZ
 40
2.5
  9
$DIMEXO
 40
0.625
  9
$DIMDLI
 40
3.75
  9
$DIMRND
 40
0.0
  9
$DIMDLE
 40
0.0
  9
$DIMEXE
 40
1.25
  9
$DIMTP
 40
0.0
  9
$DIMTM
 40
0.0
  9
$DIMTXT
 40
2.5
  9
$DIMCEN
 40
2.5
  9
$DIMTSZ
 40
0.0
  9
$DIMTOL
 70
     0
  9
$DIMLIM
 70
     0
  9
$DIMTIH
 70
     0
  9
$DIMTOH
 70
     0
  9
$DIMSE1
 70
     0
  9
$DIMSE2
 70
     0
  9
$DIMTAD
 70
     1
  9
$DIMZIN
 70
     8
  9
$DIMBLK
  1

  9
$DIMASO
 70
     1
  9
$DIMSHO
 70
     1
  9
$DIMPOST
  1

  9
$DIMAPOST
  1

  9
$DIMALT
 70
     0
  9
$DIMALTD
 70
     3
  9
$DIMALTF
 40
0.03937007874016
  9
$DIMLFAC
 40
1.0
  9
$DIMTOFL
 70
     1
  9
$DIMTVP
 40
0.0
  9
$DIMTIX
 70
     0
  9
$DIMSOXD
 70
     0
  9
$DIMSAH
 70
     0
  9
$DIMBLK1
  1

  9
$DIMBLK2
  1

  9
$DIMSTYLE
  2
ISO-25
  9
$DIMCLRD
 70
     0
  9
$DIMCLRE
 70
     0
  9
$DIMCLRT
 70
     0
  9
$DIMTFAC
 40
1.0
  9
$DIMGAP
 40
0.625
  9
$DIMJUST
 70
     0
  9
$DIMSD1
 70
     0
  9
$DIMSD2
 70
     0
  9
$DIMTOLJ
 70
     0
  9
$DIMTZIN
 70
     8
  9
$DIMALTZ
 70
     0
  9
$DIMALTTZ
 70
     0
  9
$DIMFIT
 70
     3
  9
$DIMUPT
 70
     0
  9
$DIMUNIT
 70
     2
  9
$DIMDEC
 70
     2
  9
$DIMTDEC
 70
     2
  9
$DIMALTU
 70
     2
  9
$DIMALTTD
 70
     3
  9
$DIMTXSTY
  7
STANDARD
  9
$DIMAUNIT
 70
     0
  9
$LUNITS
 70
     2
  9
$LUPREC
 70
     4
  9
$SKETCHINC
 40
1.0
  9
$FILLETRAD
 40
10.0
  9
$AUNITS
 70
     0
  9
$AUPREC
 70
     0
  9
$MENU
  1
.
  9
$ELEVATION
 40
0.0
  9
$PELEVATION
 40
0.0
  9
$THICKNESS
 40
0.0
  9
$LIMCHECK
 70
     0
  9
$CHAMFERA
 40
0.0
  9
$CHAMFERB
 40
0.0
  9
$CHAMFERC
 40
0.0
  9
$CHAMFERD
 40
0.0
  9
$SKPOLY
 70
     0
  9
$TDCREATE
 40
2459229.333232164
  9
$TDUPDATE
 40
2459229.333232859
  9
$TDINDWG
 40
0.0000000116
  9
$TDUSRTIMER
 40
0.0000000116
  9
$USRTIMER
 70
     1
  9
$ANGBASE
 50
0.0
  9
$ANGDIR
 70
     0
  9
$PDMODE
 70
     0
  9
$PDSIZE
 40
0.0
  9
$PLINEWID
 40
0.0
  9
$COORDS
 70
     1
  9
$SPLFRAME
 70
     0
  9
$SPLINETYPE
 70
     6
  9
$SPLINESEGS
 70
     8
  9
$ATTDIA
 70
     0
  9
$ATTREQ
 70
     1
  9
$HANDLING
 70
     1
  9
$HANDSEED
  5
5DE
  9
$SURFTAB1
 70
     6
  9
$SURFTAB2
 70
     6
  9
$SURFTYPE
 70
     6
  9
$SURFU
 70
     6
  9
$SURFV
 70
     6
  9
$UCSNAME
  2

  9
$UCSORG
 10
0.0
 20
0.0
 30
0.0
  9
$UCSXDIR
 10
1.0
 20
0.0
 30
0.0
  9
$UCSYDIR
 10
0.0
 20
1.0
 30
0.0
  9
$PUCSNAME
  2

  9
$PUCSORG
 10
0.0
 20
0.0
 30
0.0
  9
$PUCSXDIR
 10
1.0
 20
0.0
 30
0.0
  9
$PUCSYDIR
 10
0.0
 20
1.0
 30
0.0
  9
$USERI1
 70
     0
  9
$USERI2
 70
     0
  9
$USERI3
 70
     0
  9
$USERI4
 70
     0
  9
$USERI5
 70
     0
  9
$USERR1
 40
0.0
  9
$USERR2
 40
0.0
  9
$USERR3
 40
0.0
  9
$USERR4
 40
0.0
  9
$USERR5
 40
0.0
  9
$WORLDVIEW
 70
     1
  9
$SHADEDGE
 70
     3
  9
$SHADEDIF
 70
    70
  9
$TILEMODE
 70
     1
  9
$MAXACTVP
 70
    64
  9
$PINSBASE
 10
0.0
 20
0.0
 30
0.0
  9
$PLIMCHECK
 70
     0
  9
$PEXTMIN
 10
1.000000000000000E+20
 20
1.000000000000000E+20
 30
1.000000000000000E+20
  9
$PEXTMAX
 10
-1.000000000000000E+20
 20
-1.000000000000000E+20
 30
-1.000000000000000E+20
  9
$PLIMMIN
 10
0.0
 20
0.0
  9
$PLIMMAX
 10
420.0
 20
297.0
  9
$UNITMODE
 70
     0
  9
$VISRETAIN
 70
     1
  9
$PLINEGEN
 70
     0
  9
$PSLTSCALE
 70
     1
  9
$TREEDEPTH
 70
  3020
  9
$PICKSTYLE
 70
     1
  9
$CMLSTYLE
  2
STANDARD
  9
$CMLJUST
 70
     0
  9
$CMLSCALE
 40
20.0
  9
$PROXYGRAPHICS
 70
     1
  9
$MEASUREMENT
 70
     1
  0
ENDSEC
  0
SECTION
  2
CLASSES
  0
CLASS
  1
ACDBDICTIONARYWDFLT
  2
AcDbDictionaryWithDefault
  3
ObjectDBX Classes
 90
        0
280
     0
281
     0
  0
CLASS
  1
VISUALSTYLE
  2
AcDbVisualStyle
  3
ObjectDBX Classes
 90
     4095
280
     0
281
     0
  0
CLASS
  1
MATERIAL
  2
AcDbMaterial
  3
ObjectDBX Classes
 90
     1153
280
     0
281
     0
  0
CLASS
  1
SCALE
  2
AcDbScale
  3
ObjectDBX Classes
 90
     1153
280
     0
281
     0
  0
CLASS
  1
TABLESTYLE
  2
AcDbTableStyle
  3
ObjectDBX Classes
 90
     4095
280
     0
281
     0
  0
CLASS
  1
MLEADERSTYLE
  2
AcDbMLeaderStyle
  3
ACDB_MLEADERSTYLE_CLASS
 90
     4095
280
     0
281
     0
  0
CLASS
  1
SUN
  2
AcDbSun
  3
SCENEOE
 90
     1153
280
     0
281
     0
  0
CLASS
  1
DICTIONARYVAR
  2
AcDbDictionaryVar
  3
ObjectDBX Classes
 90
        0
280
     0
281
     0
  0
CLASS
  1
XRECORD
  2
AcDbXrecord
  3
ObjectDBX Classes
 90
        0
280
     0
281
     0
  0
CLASS
  1
LWPOLYLINE
  2
AcDbPolyline
  3
ObjectDBX Classes
 90
        0
280
     0
281
     1
  0
CLASS
  1
HATCH
  2
AcDbHatch
  3
ObjectDBX Classes
 90
        0
280
     0
281
     1
  0
CLASS
  1
ACDBPLACEHOLDER
  2
AcDbPlaceHolder
  3
ObjectDBX Classes
 90
        0
280
     0
281
     0
  0
CLASS
  1
LAYOUT
  2
AcDbLayout
  3
ObjectDBX Classes
 90
        0
280
     0
281
     0
  0
ENDSEC
  0
SECTION
  2
TABLES
  0
TABLE
  2
VPORT
  5
8
102
{ACAD_XDICTIONARY
360
5D3
102
}
330
0
100
AcDbSymbolTable
 70
     1
  0
VPORT
  5
29
330
8
100
AcDbSymbolTableRecord
100
AcDbViewportTableRecord
  2
*ACTIVE
 70
     0
 10
0.0
 20
0.0
 11
1.0
 21
1.0
 12
1950.0
 22
1450.0
 13
0.0
 23
0.0
 14
10.0
 24
10.0
 15
10.0
 25
10.0
 16
0.0
 26
0.0
 36
1.0
 17
0.0
 27
0.0
 37
0.0
 40
2700.0
 41
1.407407407407408
 42
50.0
 43
0.0
 44
0.0
 50
0.0
 51
0.0
 71
     0
 72
  1000
 73
     1
 74
     3
 75
     0
 76
     0
 77
     0
 78
     0
  0
ENDTAB
  0
TABLE
  2
LTYPE
  5
5
330
0
100
AcDbSymbolTable
 70
     6
  0
LTYPE
  5
14
330
5
100
AcDbSymbolTableRecord
100
AcDbLinetypeTableRecord
  2
BYBLOCK
 70
     0
  3

 72
    65
 73
     0
 40
0.0
  0
LTYPE
  5
15
330
5
100
AcDbSymbolTableRecord
100
AcDbLinetypeTableRecord
  2
BYLAYER
 70
     0
  3

 72
    65
 73
     0
 40
0.0
  0
LTYPE
  5
16
330
5
100
AcDbSymbolTableRecord
100
AcDbLinetypeTableRecord
  2
CONTINUOUS
 70
     0
  3
Solid line
 72
    65
 73
     0
 40
0.0
  0
LTYPE
  5
6E
330
5
100
AcDbSymbolTableRecord
100
AcDbLinetypeTableRecord
  2
HIDDEN
 70
     0
  3
Hidden __ __ __ __ __ __ __ __ __ __ __ __ __ __
 72
    65
 73
     2
 40
9.524999999999999
 49
6.35
 74
     0
 49
-3.175
 74
     0
  0
LTYPE
  5
6F
330
5
100
AcDbSymbolTableRecord
100
AcDbLinetypeTableRecord
  2
CENTER
 70
     0
  3
Center ____ _ ____ _ ____ _ ____ _ ____ _ ____
 72
    65
 73
     4
 40
50.8
 49
31.75
 74
     0
 49
-6.35
 74
     0
 49
6.35
 74
     0
 49
-6.35
 74
     0
  0
LTYPE
  5
70
330
5
100
AcDbSymbolTableRecord
100
AcDbLinetypeTableRecord
  2
PHANTOM
 70
     0
  3
Phantom ______  __  __  ______  __  __  ______ 
 72
    65
 73
     6
 40
63.50000000000001
 49
31.75
 74
     0
 49
-6.35
 74
     0
 49
6.35
 74
     0
 49
-6.35
 74
     0
 49
6.35
 74
     0
 49
-6.35
 74
     0
  0
LTYPE
  5
71
330
5
100
AcDbSymbolTableRecord
100
AcDbLinetypeTableRecord
  2
ACAD_ISO06W100
 70
     0
  3
ISO long-dash triple-dot ____ ... ____ ... ____
 72
    65
 73
     8
 40
36.0
 49
24.0
 74
     0
 49
-3.0
 74
     0
 49
0.0
 74
     0
 49
-3.0
 74
     0
 49
0.0
 74
     0
 49
-3.0
 74
     0
 49
0.0
 74
     0
 49
-3.0
 74
     0
  0
LTYPE
  5
72
330
5
100
AcDbSymbolTableRecord
100
AcDbLinetypeTableRecord
  2
ACAD_ISO15W100
 70
     0
  3
ISO double-dash triple-dot __ __ . . . __ __ . .
 72
    65
 73
    10
 40
39.0
 49
12.0
 74
     0
 49
-3.0
 74
     0
 49
12.0
 74
     0
 49
-3.0
 74
     0
 49
0.0
 74
     0
 49
-3.0
 74
     0
 49
0.0
 74
     0
 49
-3.0
 74
     0
 49
0.0
 74
     0
 49
-3.0
 74
     0
  0
ENDTAB
  0
TABLE
  2
LAYER
  5
2
330
0
100
AcDbSymbolTable
 70
     6
  0
LAYER
  5
10
330
2
100
AcDbSymbolTableRecord
100
AcDbLayerTableRecord
  2
0
 70
     0
 62
     7
  6
CONTINUOUS
  0
LAYER
  5
75
330
2
100
AcDbSymbolTableRecord
100
AcDbLayerTableRecord
  2
LAY-10
 70
     0
 62
     7
  6
CONTINUOUS
  0
LAYER
  5
76
330
2
100
AcDbSymbolTableRecord
100
AcDbLayerTableRecord
  2
LAY-11
 70
     0
 62
     7
  6
CONTINUOUS
  0
LAYER
  5
77
330
2
100
AcDbSymbolTableRecord
100
AcDbLayerTableRecord
  2
LAY-20
 70
     0
 62
     7
  6
CONTINUOUS
  0
LAYER
  5
78
330
2
100
AcDbSymbolTableRecord
100
AcDbLayerTableRecord
  2
LAY-255
 70
     0
 62
     7
  6
CONTINUOUS
  0
LAYER
  5
1A5
330
2
100
AcDbSymbolTableRecord
100
AcDbLayerTableRecord
  2
DEFPOINTS
 70
     0
 62
     7
  6
CONTINUOUS
  0
ENDTAB
  0
TABLE
  2
STYLE
  5
3
330
0
100
AcDbSymbolTable
 70
     4
  0
STYLE
  5
11
330
3
100
AcDbSymbolTableRecord
100
AcDbTextStyleTableRecord
  2
STANDARD
 70
     0
 40
0.0
 41
1.0
 50
0.0
 71
     0
 42
2.5
  3
simplex
  4
bigfont
  0
STYLE
  5
73
330
3
100
AcDbSymbolTableRecord
100
AcDbTextStyleTableRecord
  2
EXCADSTD
 70
     0
 40
0.0
 41
1.0
 50
0.0
 71
     0
 42
2.5
  3
simplex
  4
bigfont
  0
STYLE
  5
74
330
3
100
AcDbSymbolTableRecord
100
AcDbTextStyleTableRecord
  2
EXCADVERT
 70
     4
 40
0.0
 41
1.0
 50
0.0
 71
     0
 42
2.5
  3
simplex
  4
bigfont
  0
STYLE
  5
1A3
330
3
100
AcDbSymbolTableRecord
100
AcDbTextStyleTableRecord
  2
EXCADDIM1
 70
     0
 40
0.0
 41
0.84
 50
0.0
 71
     0
 42
2.5
  3
simplex
  4
bigfont
  0
ENDTAB
  0
TABLE
  2
VIEW
  5
6
330
0
100
AcDbSymbolTable
 70
     0
  0
ENDTAB
  0
TABLE
  2
UCS
  5
7
330
0
100
AcDbSymbolTable
 70
     0
  0
ENDTAB
  0
TABLE
  2
APPID
  5
9
330
0
100
AcDbSymbolTable
 70
     2
  0
APPID
  5
12
330
9
100
AcDbSymbolTableRecord
100
AcDbRegAppTableRecord
  2
ACAD
 70
     0
  0
APPID
  5
5DD
330
9
100
AcDbSymbolTableRecord
100
AcDbRegAppTableRecord
  2
ACAD_MLEADERVER
 70
     0
  0
ENDTAB
  0
TABLE
  2
DIMSTYLE
  5
A
330
0
100
AcDbSymbolTable
 70
     1
  0
DIMSTYLE
105
27
102
{ACAD_REACTORS
330
1A4
330
1B2
330
1BF
330
1CC
330
1D9
330
1E6
330
1F3
330
555
330
563
330
570
102
}
330
A
100
AcDbSymbolTableRecord
100
AcDbDimStyleTableRecord
  2
ISO-25
 70
     0
  3

  4

  5

  6

  7

 40
1.0
 41
2.5
 42
0.625
 43
3.75
 44
1.25
 45
0.0
 46
0.0
 47
0.0
 48
0.0
140
2.5
141
2.5
142
0.0
143
0.03937007874016
144
1.0
145
0.0
146
1.0
147
0.625
 71
     0
 72
     0
 73
     0
 74
     0
 75
     0
 76
     0
 77
     1
 78
     8
170
     0
171
     3
172
     1
173
     0
174
     0
175
     0
176
     0
177
     0
178
     0
270
     2
271
     2
272
     2
273
     2
274
     3
340
11
275
     0
280
     0
281
     0
282
     0
283
     0
284
     8
285
     0
286
     0
287
     5
288
     0
  0
ENDTAB
  0
TABLE
  2
BLOCK_RECORD
  5
1
330
0
100
AcDbSymbolTable
 70
    24
  0
BLOCK_RECORD
  5
1F
330
1
100
AcDbSymbolTableRecord
100
AcDbBlockTableRecord
  2
*MODEL_SPACE
  0
BLOCK_RECORD
  5
1B
330
1
100
AcDbSymbolTableRecord
100
AcDbBlockTableRecord
  2
*PAPER_SPACE
  0
BLOCK_RECORD
  5
79
330
1
100
AcDbSymbolTableRecord
100
AcDbBlockTableRecord
  2
EX_NORM
  0
BLOCK_RECORD
  5
7C
330
1
100
AcDbSymbolTableRecord
100
AcDbBlockTableRecord
  2
EX_BNORM
  0
BLOCK_RECORD
  5
7F
330
1
100
AcDbSymbolTableRecord
100
AcDbBlockTableRecord
  2
EX_BCIR
  0
BLOCK_RECORD
  5
82
330
1
100
AcDbSymbolTableRecord
100
AcDbBlockTableRecord
  2
EX_RCIVIL
  0
BLOCK_RECORD
  5
85
330
1
100
AcDbSymbolTableRecord
100
AcDbBlockTableRecord
  2
EX_SLANT
  0
BLOCK_RECORD
  5
88
330
1
100
AcDbSymbolTableRecord
100
AcDbBlockTableRecord
  2
EX_NONE
  0
BLOCK_RECORD
  5
8B
330
1
100
AcDbSymbolTableRecord
100
AcDbBlockTableRecord
  2
EX_CIVIL
  0
BLOCK_RECORD
  5
8E
330
1
100
AcDbSymbolTableRecord
100
AcDbBlockTableRecord
  2
EX_WCIR
  0
BLOCK_RECORD
  5
91
330
1
100
AcDbSymbolTableRecord
100
AcDbBlockTableRecord
  2
EX_WCIR2
  0
BLOCK_RECORD
  5
94
330
1
100
AcDbSymbolTableRecord
100
AcDbBlockTableRecord
  2
EX_WNORM
  0
BLOCK_RECORD
  5
97
330
1
100
AcDbSymbolTableRecord
100
AcDbBlockTableRecord
  2
EX_NNORM
  0
BLOCK_RECORD
  5
9A
330
1
100
AcDbSymbolTableRecord
100
AcDbBlockTableRecord
  2
EX_BBOX
  0
BLOCK_RECORD
  5
9D
330
1
100
AcDbSymbolTableRecord
100
AcDbBlockTableRecord
  2
EX_WBOX
  0
BLOCK_RECORD
  5
A0
330
1
100
AcDbSymbolTableRecord
100
AcDbBlockTableRecord
  2
EX_INTEGRAL
  0
BLOCK_RECORD
  5
1A6
330
1
100
AcDbSymbolTableRecord
100
AcDbBlockTableRecord
  2
*D15
  0
BLOCK_RECORD
  5
1B3
330
1
100
AcDbSymbolTableRecord
100
AcDbBlockTableRecord
  2
*D16
  0
BLOCK_RECORD
  5
1C0
330
1
100
AcDbSymbolTableRecord
100
AcDbBlockTableRecord
  2
*D17
  0
BLOCK_RECORD
  5
1CD
330
1
100
AcDbSymbolTableRecord
100
AcDbBlockTableRecord
  2
*D18
  0
BLOCK_RECORD
  5
1DA
330
1
100
AcDbSymbolTableRecord
100
AcDbBlockTableRecord
  2
*D19
  0
BLOCK_RECORD
  5
1E7
330
1
100
AcDbSymbolTableRecord
100
AcDbBlockTableRecord
  2
*D20
  0
BLOCK_RECORD
  5
1F4
330
1
100
AcDbSymbolTableRecord
100
AcDbBlockTableRecord
  2
*D21
  0
BLOCK_RECORD
  5
556
330
1
100
AcDbSymbolTableRecord
100
AcDbBlockTableRecord
  2
*D22
  0
BLOCK_RECORD
  5
564
330
1
100
AcDbSymbolTableRecord
100
AcDbBlockTableRecord
  2
*D23
  0
BLOCK_RECORD
  5
571
330
1
100
AcDbSymbolTableRecord
100
AcDbBlockTableRecord
  2
*D24
  0
ENDTAB
  0
ENDSEC
  0
SECTION
  2
BLOCKS
  0
BLOCK
  5
20
330
1F
100
AcDbEntity
  8
0
100
AcDbBlockBegin
  2
*MODEL_SPACE
 70
     0
 10
0.0
 20
0.0
 30
0.0
  3
*MODEL_SPACE
  1

  0
ENDBLK
  5
21
330
1F
100
AcDbEntity
  8
0
100
AcDbBlockEnd
  0
BLOCK
  5
1C
330
1B
100
AcDbEntity
 67
     1
  8
0
100
AcDbBlockBegin
  2
*PAPER_SPACE
 70
     0
 10
0.0
 20
0.0
 30
0.0
  3
*PAPER_SPACE
  1

  0
ENDBLK
  5
1D
330
1B
100
AcDbEntity
 67
     1
  8
0
100
AcDbBlockEnd
  0
BLOCK
  5
7A
330
79
100
AcDbEntity
  8
0
100
AcDbBlockBegin
  2
EX_NORM
 70
     0
 10
0.0
 20
0.0
 30
0.0
  3
EX_NORM
  1

  0
LINE
  5
A3
330
79
100
AcDbEntity
  8
0
  6
CONTINUOUS
 62
     0
100
AcDbLine
 10
0.0
 20
0.0
 30
0.0
 11
-1.0
 21
0.0
 31
0.0
  0
LINE
  5
A4
330
79
100
AcDbEntity
  8
0
  6
CONTINUOUS
 62
     0
100
AcDbLine
 10
0.0
 20
0.0
 30
0.0
 11
-1.0
 21
0.166666667
 31
0.0
  0
LINE
  5
A5
330
79
100
AcDbEntity
  8
0
  6
CONTINUOUS
 62
     0
100
AcDbLine
 10
0.0
 20
0.0
 30
0.0
 11
-1.0
 21
-0.166666667
 31
0.0
  0
ENDBLK
  5
7B
330
79
100
AcDbEntity
  8
0
100
AcDbBlockEnd
  0
BLOCK
  5
7D
330
7C
100
AcDbEntity
  8
0
100
AcDbBlockBegin
  2
EX_BNORM
 70
     0
 10
0.0
 20
0.0
 30
0.0
  3
EX_BNORM
  1

  0
LINE
  5
A6
330
7C
100
AcDbEntity
  8
0
  6
CONTINUOUS
 62
     0
100
AcDbLine
 10
0.0
 20
0.0
 30
0.0
 11
-1.0
 21
0.0
 31
0.0
  0
LINE
  5
A7
330
7C
100
AcDbEntity
  8
0
  6
CONTINUOUS
 62
     0
100
AcDbLine
 10
0.0
 20
0.0
 30
0.0
 11
-1.0
 21
0.166666667
 31
0.0
  0
LINE
  5
A8
330
7C
100
AcDbEntity
  8
0
  6
CONTINUOUS
 62
     0
100
AcDbLine
 10
0.0
 20
0.0
 30
0.0
 11
-1.0
 21
-0.166666667
 31
0.0
  0
LINE
  5
A9
330
7C
100
AcDbEntity
  8
0
  6
CONTINUOUS
 62
     0
100
AcDbLine
 10
0.0
 20
0.0
 30
0.0
 11
-1.0
 21
0.083333333
 31
0.0
  0
LINE
  5
AA
330
7C
100
AcDbEntity
  8
0
  6
CONTINUOUS
 62
     0
100
AcDbLine
 10
0.0
 20
0.0
 30
0.0
 11
-1.0
 21
-0.083333333
 31
0.0
  0
LINE
  5
AB
330
7C
100
AcDbEntity
  8
0
  6
CONTINUOUS
 62
     0
100
AcDbLine
 10
-1.0
 20
0.166666667
 30
0.0
 11
-1.0
 21
-0.166666667
 31
0.0
  0
ENDBLK
  5
7E
330
7C
100
AcDbEntity
  8
0
100
AcDbBlockEnd
  0
BLOCK
  5
80
330
7F
100
AcDbEntity
  8
0
100
AcDbBlockBegin
  2
EX_BCIR
 70
     0
 10
0.0
 20
0.0
 30
0.0
  3
EX_BCIR
  1

  0
LINE
  5
AC
330
7F
100
AcDbEntity
  8
0
  6
CONTINUOUS
 62
     0
100
AcDbLine
 10
0.0
 20
0.0
 30
0.0
 11
-1.0
 21
0.0
 31
0.0
  0
CIRCLE
  5
AD
330
7F
100
AcDbEntity
  8
0
  6
CONTINUOUS
 62
     0
100
AcDbCircle
 10
0.0
 20
0.0
 30
0.0
 40
0.5
  0
CIRCLE
  5
AE
330
7F
100
AcDbEntity
  8
0
  6
CONTINUOUS
 62
     0
100
AcDbCircle
 10
0.0
 20
0.0
 30
0.0
 40
0.25
  0
ENDBLK
  5
81
330
7F
100
AcDbEntity
  8
0
100
AcDbBlockEnd
  0
BLOCK
  5
83
330
82
100
AcDbEntity
  8
0
100
AcDbBlockBegin
  2
EX_RCIVIL
 70
     0
 10
0.0
 20
0.0
 30
0.0
  3
EX_RCIVIL
  1

  0
LINE
  5
AF
330
82
100
AcDbEntity
  8
0
  6
CONTINUOUS
 62
     0
100
AcDbLine
 10
0.0
 20
0.0
 30
0.0
 11
-1.0
 21
0.0
 31
0.0
  0
LINE
  5
B0
330
82
100
AcDbEntity
  8
0
  6
CONTINUOUS
 62
     0
100
AcDbLine
 10
-1.0
 20
-0.25
 30
0.0
 11
0.0
 21
-0.25
 31
0.0
  0
LINE
  5
B1
330
82
100
AcDbEntity
  8
0
  6
CONTINUOUS
 62
     0
100
AcDbLine
 10
-1.0
 20
-0.125
 30
0.0
 11
0.0
 21
-0.125
 31
0.0
  0
ENDBLK
  5
84
330
82
100
AcDbEntity
  8
0
100
AcDbBlockEnd
  0
BLOCK
  5
86
330
85
100
AcDbEntity
  8
0
100
AcDbBlockBegin
  2
EX_SLANT
 70
     0
 10
0.0
 20
0.0
 30
0.0
  3
EX_SLANT
  1

  0
LINE
  5
B2
330
85
100
AcDbEntity
  8
0
  6
CONTINUOUS
 62
     0
100
AcDbLine
 10
0.0
 20
0.0
 30
0.0
 11
-1.0
 21
0.0
 31
0.0
  0
LINE
  5
B3
330
85
100
AcDbEntity
  8
0
  6
CONTINUOUS
 62
     0
100
AcDbLine
 10
0.707106781
 20
0.707106781
 30
0.0
 11
-0.707106781
 21
-0.707106781
 31
0.0
  0
ENDBLK
  5
87
330
85
100
AcDbEntity
  8
0
100
AcDbBlockEnd
  0
BLOCK
  5
89
330
88
100
AcDbEntity
  8
0
100
AcDbBlockBegin
  2
EX_NONE
 70
     0
 10
0.0
 20
0.0
 30
0.0
  3
EX_NONE
  1

  0
LINE
  5
B4
330
88
100
AcDbEntity
  8
0
  6
CONTINUOUS
 62
     0
100
AcDbLine
 10
0.0
 20
0.0
 30
0.0
 11
-1.0
 21
0.0
 31
0.0
  0
ENDBLK
  5
8A
330
88
100
AcDbEntity
  8
0
100
AcDbBlockEnd
  0
BLOCK
  5
8C
330
8B
100
AcDbEntity
  8
0
100
AcDbBlockBegin
  2
EX_CIVIL
 70
     0
 10
0.0
 20
0.0
 30
0.0
  3
EX_CIVIL
  1

  0
LINE
  5
B5
330
8B
100
AcDbEntity
  8
0
  6
CONTINUOUS
 62
     0
100
AcDbLine
 10
0.0
 20
0.0
 30
0.0
 11
-1.0
 21
0.0
 31
0.0
  0
LINE
  5
B6
330
8B
100
AcDbEntity
  8
0
  6
CONTINUOUS
 62
     0
100
AcDbLine
 10
-1.0
 20
0.25
 30
0.0
 11
0.0
 21
0.25
 31
0.0
  0
LINE
  5
B7
330
8B
100
AcDbEntity
  8
0
  6
CONTINUOUS
 62
     0
100
AcDbLine
 10
-1.0
 20
0.125
 30
0.0
 11
0.0
 21
0.125
 31
0.0
  0
ENDBLK
  5
8D
330
8B
100
AcDbEntity
  8
0
100
AcDbBlockEnd
  0
BLOCK
  5
8F
330
8E
100
AcDbEntity
  8
0
100
AcDbBlockBegin
  2
EX_WCIR
 70
     0
 10
0.0
 20
0.0
 30
0.0
  3
EX_WCIR
  1

  0
LINE
  5
B8
330
8E
100
AcDbEntity
  8
0
  6
CONTINUOUS
 62
     0
100
AcDbLine
 10
0.0
 20
0.0
 30
0.0
 11
-1.0
 21
0.0
 31
0.0
  0
CIRCLE
  5
B9
330
8E
100
AcDbEntity
  8
0
  6
CONTINUOUS
 62
     0
100
AcDbCircle
 10
0.0
 20
0.0
 30
0.0
 40
0.5
  0
ENDBLK
  5
90
330
8E
100
AcDbEntity
  8
0
100
AcDbBlockEnd
  0
BLOCK
  5
92
330
91
100
AcDbEntity
  8
0
100
AcDbBlockBegin
  2
EX_WCIR2
 70
     0
 10
0.0
 20
0.0
 30
0.0
  3
EX_WCIR2
  1

  0
LINE
  5
BA
330
91
100
AcDbEntity
  8
0
  6
CONTINUOUS
 62
     0
100
AcDbLine
 10
-0.5
 20
0.0
 30
0.0
 11
-1.0
 21
0.0
 31
0.0
  0
CIRCLE
  5
BB
330
91
100
AcDbEntity
  8
0
  6
CONTINUOUS
 62
     0
100
AcDbCircle
 10
0.0
 20
0.0
 30
0.0
 40
0.5
  0
ENDBLK
  5
93
330
91
100
AcDbEntity
  8
0
100
AcDbBlockEnd
  0
BLOCK
  5
95
330
94
100
AcDbEntity
  8
0
100
AcDbBlockBegin
  2
EX_WNORM
 70
     0
 10
0.0
 20
0.0
 30
0.0
  3
EX_WNORM
  1

  0
LINE
  5
BC
330
94
100
AcDbEntity
  8
0
  6
CONTINUOUS
 62
     0
100
AcDbLine
 10
-1.0
 20
0.0
 30
0.0
 11
-1.0
 21
0.0
 31
0.0
  0
LINE
  5
BD
330
94
100
AcDbEntity
  8
0
  6
CONTINUOUS
 62
     0
100
AcDbLine
 10
0.0
 20
0.0
 30
0.0
 11
-1.0
 21
0.166666667
 31
0.0
  0
LINE
  5
BE
330
94
100
AcDbEntity
  8
0
  6
CONTINUOUS
 62
     0
100
AcDbLine
 10
0.0
 20
0.0
 30
0.0
 11
-1.0
 21
-0.166666667
 31
0.0
  0
LINE
  5
BF
330
94
100
AcDbEntity
  8
0
  6
CONTINUOUS
 62
     0
100
AcDbLine
 10
-1.0
 20
0.166666667
 30
0.0
 11
-1.0
 21
-0.166666667
 31
0.0
  0
ENDBLK
  5
96
330
94
100
AcDbEntity
  8
0
100
AcDbBlockEnd
  0
BLOCK
  5
98
330
97
100
AcDbEntity
  8
0
100
AcDbBlockBegin
  2
EX_NNORM
 70
     0
 10
0.0
 20
0.0
 30
0.0
  3
EX_NNORM
  1

  0
LINE
  5
C0
330
97
100
AcDbEntity
  8
0
  6
CONTINUOUS
 62
     0
100
AcDbLine
 10
0.0
 20
0.0
 30
0.0
 11
-1.0
 21
0.0
 31
0.0
  0
LINE
  5
C1
330
97
100
AcDbEntity
  8
0
  6
CONTINUOUS
 62
     0
100
AcDbLine
 10
0.0
 20
0.0
 30
0.0
 11
-1.0
 21
0.166666667
 31
0.0
  0
LINE
  5
C2
330
97
100
AcDbEntity
  8
0
  6
CONTINUOUS
 62
     0
100
AcDbLine
 10
0.0
 20
0.0
 30
0.0
 11
-1.0
 21
-0.166666667
 31
0.0
  0
LINE
  5
C3
330
97
100
AcDbEntity
  8
0
  6
CONTINUOUS
 62
     0
100
AcDbLine
 10
-1.0
 20
0.166666667
 30
0.0
 11
-1.0
 21
-0.166666667
 31
0.0
  0
ENDBLK
  5
99
330
97
100
AcDbEntity
  8
0
100
AcDbBlockEnd
  0
BLOCK
  5
9B
330
9A
100
AcDbEntity
  8
0
100
AcDbBlockBegin
  2
EX_BBOX
 70
     0
 10
0.0
 20
0.0
 30
0.0
  3
EX_BBOX
  1

  0
LINE
  5
C4
330
9A
100
AcDbEntity
  8
0
  6
CONTINUOUS
 62
     0
100
AcDbLine
 10
0.0
 20
0.0
 30
0.0
 11
-1.0
 21
0.0
 31
0.0
  0
LINE
  5
C5
330
9A
100
AcDbEntity
  8
0
  6
CONTINUOUS
 62
     0
100
AcDbLine
 10
-0.5
 20
0.5
 30
0.0
 11
0.5
 21
0.5
 31
0.0
  0
LINE
  5
C6
330
9A
100
AcDbEntity
  8
0
  6
CONTINUOUS
 62
     0
100
AcDbLine
 10
0.5
 20
0.5
 30
0.0
 11
0.5
 21
-0.5
 31
0.0
  0
LINE
  5
C7
330
9A
100
AcDbEntity
  8
0
  6
CONTINUOUS
 62
     0
100
AcDbLine
 10
0.5
 20
-0.5
 30
0.0
 11
-0.5
 21
-0.5
 31
0.0
  0
LINE
  5
C8
330
9A
100
AcDbEntity
  8
0
  6
CONTINUOUS
 62
     0
100
AcDbLine
 10
-0.5
 20
-0.5
 30
0.0
 11
-0.5
 21
0.5
 31
0.0
  0
LINE
  5
C9
330
9A
100
AcDbEntity
  8
0
  6
CONTINUOUS
 62
     0
100
AcDbLine
 10
-0.25
 20
0.25
 30
0.0
 11
0.25
 21
0.25
 31
0.0
  0
LINE
  5
CA
330
9A
100
AcDbEntity
  8
0
  6
CONTINUOUS
 62
     0
100
AcDbLine
 10
0.25
 20
0.25
 30
0.0
 11
0.25
 21
-0.25
 31
0.0
  0
LINE
  5
CB
330
9A
100
AcDbEntity
  8
0
  6
CONTINUOUS
 62
     0
100
AcDbLine
 10
0.25
 20
-0.25
 30
0.0
 11
-0.25
 21
-0.25
 31
0.0
  0
LINE
  5
CC
330
9A
100
AcDbEntity
  8
0
  6
CONTINUOUS
 62
     0
100
AcDbLine
 10
-0.25
 20
-0.25
 30
0.0
 11
-0.25
 21
0.25
 31
0.0
  0
ENDBLK
  5
9C
330
9A
100
AcDbEntity
  8
0
100
AcDbBlockEnd
  0
BLOCK
  5
9E
330
9D
100
AcDbEntity
  8
0
100
AcDbBlockBegin
  2
EX_WBOX
 70
     0
 10
0.0
 20
0.0
 30
0.0
  3
EX_WBOX
  1

  0
LINE
  5
CD
330
9D
100
AcDbEntity
  8
0
  6
CONTINUOUS
 62
     0
100
AcDbLine
 10
-0.5
 20
0.0
 30
0.0
 11
-1.0
 21
0.0
 31
0.0
  0
LINE
  5
CE
330
9D
100
AcDbEntity
  8
0
  6
CONTINUOUS
 62
     0
100
AcDbLine
 10
-0.5
 20
0.5
 30
0.0
 11
0.5
 21
0.5
 31
0.0
  0
LINE
  5
CF
330
9D
100
AcDbEntity
  8
0
  6
CONTINUOUS
 62
     0
100
AcDbLine
 10
0.5
 20
0.5
 30
0.0
 11
0.5
 21
-0.5
 31
0.0
  0
LINE
  5
D0
330
9D
100
AcDbEntity
  8
0
  6
CONTINUOUS
 62
     0
100
AcDbLine
 10
0.5
 20
-0.5
 30
0.0
 11
-0.5
 21
-0.5
 31
0.0
  0
LINE
  5
D1
330
9D
100
AcDbEntity
  8
0
  6
CONTINUOUS
 62
     0
100
AcDbLine
 10
-0.5
 20
-0.5
 30
0.0
 11
-0.5
 21
0.5
 31
0.0
  0
ENDBLK
  5
9F
330
9D
100
AcDbEntity
  8
0
100
AcDbBlockEnd
  0
BLOCK
  5
A1
330
A0
100
AcDbEntity
  8
0
100
AcDbBlockBegin
  2
EX_INTEGRAL
 70
     0
 10
0.0
 20
0.0
 30
0.0
  3
EX_INTEGRAL
  1

  0
LINE
  5
D2
330
A0
100
AcDbEntity
  8
0
  6
CONTINUOUS
 62
     0
100
AcDbLine
 10
0.0
 20
0.0
 30
0.0
 11
-1.0
 21
0.0
 31
0.0
  0
ARC
  5
D3
330
A0
100
AcDbEntity
  8
0
  6
CONTINUOUS
 62
     0
100
AcDbCircle
 10
0.542115
 20
0.164992
 30
0.0
 40
0.56667
100
AcDbArc
 50
73.07249033629006
 51
196.9275130221199
  0
ARC
  5
D4
330
A0
100
AcDbEntity
  8
0
  6
CONTINUOUS
 62
     0
100
AcDbCircle
 10
-0.542115
 20
-0.164992
 30
0.0
 40
0.56667
100
AcDbArc
 50
253.0724869220464
 51
16.9275130559125
  0
ENDBLK
  5
A2
330
A0
100
AcDbEntity
  8
0
100
AcDbBlockEnd
  0
BLOCK
  5
1A7
330
1A6
100
AcDbEntity
  8
0
100
AcDbBlockBegin
  2
*D15
 70
     1
 10
0.0
 20
0.0
 30
0.0
  3
*D15
  1

  0
LINE
  5
1A9
330
1A6
100
AcDbEntity
  8
LAY-10
  6
CONTINUOUS
 62
     4
100
AcDbLine
 10
580.0000000000401
 20
813.0000004768618
 30
0.0
 11
580.00000000004
 21
680.0
 31
0.0
  0
LINE
  5
1AA
330
1A6
100
AcDbEntity
  8
LAY-10
  6
CONTINUOUS
 62
     4
100
AcDbLine
 10
1779.99999999998
 20
813.0000004768618
 30
0.0
 11
1779.99999999998
 21
680.0
 31
0.0
  0
LINE
  5
1AB
330
1A6
100
AcDbEntity
  8
LAY-10
  6
CONTINUOUS
 62
     4
100
AcDbLine
 10
605.00000000004
 20
695.0
 30
0.0
 11
1754.99999999998
 21
695.0
 31
0.0
  0
INSERT
  5
1AC
330
1A6
100
AcDbEntity
  8
LAY-10
 62
     4
100
AcDbBlockReference
  2
EX_BNORM
 10
580.00000000004
 20
695.0
 30
0.0
 41
25.0
 42
25.0
 43
25.0
 50
180.0
  0
INSERT
  5
1AD
330
1A6
100
AcDbEntity
  8
LAY-10
 62
     4
100
AcDbBlockReference
  2
EX_BNORM
 10
1779.99999999998
 20
695.0
 30
0.0
 41
25.0
 42
25.0
 43
25.0
  0
MTEXT
  5
1AE
330
1A6
100
AcDbEntity
  8
LAY-10
 62
     7
100
AcDbMText
 10
1180.00000000001
 20
720.0
 30
0.0
 40
31.181104
 41
0.0
 71
     5
 72
     1
  1
1200
  7
EXCADDIM1
  0
POINT
  5
1AF
330
1A6
100
AcDbEntity
  8
DEFPOINTS
 62
     0
100
AcDbPoint
 10
580.0000000000401
 20
831.0000000000247
 30
0.0
  0
POINT
  5
1B0
330
1A6
100
AcDbEntity
  8
DEFPOINTS
 62
     0
100
AcDbPoint
 10
1779.99999999998
 20
831.0000000000247
 30
0.0
  0
POINT
  5
1B1
330
1A6
100
AcDbEntity
  8
DEFPOINTS
 62
     0
100
AcDbPoint
 10
1779.99999999998
 20
695.0
 30
0.0
  0
ENDBLK
  5
1A8
330
1A6
100
AcDbEntity
  8
0
100
AcDbBlockEnd
  0
BLOCK
  5
1B4
330
1B3
100
AcDbEntity
  8
0
100
AcDbBlockBegin
  2
*D16
 70
     1
 10
0.0
 20
0.0
 30
0.0
  3
*D16
  1

  0
LINE
  5
1B6
330
1B3
100
AcDbEntity
  8
LAY-10
  6
CONTINUOUS
 62
     4
100
AcDbLine
 10
525.00000000003
 20
1004.999999999976
 30
0.0
 11
525.00000000003
 21
1175.0
 31
0.0
  0
LINE
  5
1B7
330
1B3
100
AcDbEntity
  8
LAY-10
  6
CONTINUOUS
 62
     4
100
AcDbLine
 10
1834.99999999998
 20
1004.999999999976
 30
0.0
 11
1834.99999999998
 21
1175.0
 31
0.0
  0
LINE
  5
1B8
330
1B3
100
AcDbEntity
  8
LAY-10
  6
CONTINUOUS
 62
     4
100
AcDbLine
 10
550.00000000003
 20
1160.0
 30
0.0
 11
1809.99999999998
 21
1160.0
 31
0.0
  0
INSERT
  5
1B9
330
1B3
100
AcDbEntity
  8
LAY-10
 62
     4
100
AcDbBlockReference
  2
EX_BNORM
 10
525.00000000003
 20
1160.0
 30
0.0
 41
25.0
 42
25.0
 43
25.0
 50
180.0
  0
INSERT
  5
1BA
330
1B3
100
AcDbEntity
  8
LAY-10
 62
     4
100
AcDbBlockReference
  2
EX_BNORM
 10
1834.99999999998
 20
1160.0
 30
0.0
 41
25.0
 42
25.0
 43
25.0
  0
MTEXT
  5
1BB
330
1B3
100
AcDbEntity
  8
LAY-10
 62
     7
100
AcDbMText
 10
1180.000000000005
 20
1185.0
 30
0.0
 40
31.181104
 41
0.0
 71
     5
 72
     1
  1
1310
  7
EXCADDIM1
  0
POINT
  5
1BC
330
1B3
100
AcDbEntity
  8
DEFPOINTS
 62
     0
100
AcDbPoint
 10
525.00000000003
 20
989.9999999999764
 30
0.0
  0
POINT
  5
1BD
330
1B3
100
AcDbEntity
  8
DEFPOINTS
 62
     0
100
AcDbPoint
 10
1834.99999999998
 20
989.9999999999764
 30
0.0
  0
POINT
  5
1BE
330
1B3
100
AcDbEntity
  8
DEFPOINTS
 62
     0
100
AcDbPoint
 10
1834.99999999998
 20
1160.0
 30
0.0
  0
ENDBLK
  5
1B5
330
1B3
100
AcDbEntity
  8
0
100
AcDbBlockEnd
  0
BLOCK
  5
1C1
330
1C0
100
AcDbEntity
  8
0
100
AcDbBlockBegin
  2
*D17
 70
     1
 10
0.0
 20
0.0
 30
0.0
  3
*D17
  1

  0
LINE
  5
1C3
330
1C0
100
AcDbEntity
  8
LAY-10
  6
CONTINUOUS
 62
     4
100
AcDbLine
 10
540.8333333333612
 20
1005.000000000004
 30
0.0
 11
540.8333333333612
 21
1105.0
 31
0.0
  0
LINE
  5
1C4
330
1C0
100
AcDbEntity
  8
LAY-10
  6
CONTINUOUS
 62
     4
100
AcDbLine
 10
965.8333333333611
 20
1005.000000000004
 30
0.0
 11
965.8333333333611
 21
1105.0
 31
0.0
  0
LINE
  5
1C5
330
1C0
100
AcDbEntity
  8
LAY-10
  6
CONTINUOUS
 62
     4
100
AcDbLine
 10
565.8333333333612
 20
1090.0
 30
0.0
 11
940.8333333333611
 21
1090.0
 31
0.0
  0
INSERT
  5
1C6
330
1C0
100
AcDbEntity
  8
LAY-10
 62
     4
100
AcDbBlockReference
  2
EX_BNORM
 10
540.8333333333612
 20
1090.0
 30
0.0
 41
25.0
 42
25.0
 43
25.0
 50
180.0
  0
INSERT
  5
1C7
330
1C0
100
AcDbEntity
  8
LAY-10
 62
     4
100
AcDbBlockReference
  2
EX_BNORM
 10
965.8333333333611
 20
1090.0
 30
0.0
 41
25.0
 42
25.0
 43
25.0
  0
MTEXT
  5
1C8
330
1C0
100
AcDbEntity
  8
LAY-10
 62
     7
100
AcDbMText
 10
753.3333333333612
 20
1115.0
 30
0.0
 40
31.181104
 41
0.0
 71
     5
 72
     1
  1
425
  7
EXCADDIM1
  0
POINT
  5
1C9
330
1C0
100
AcDbEntity
  8
DEFPOINTS
 62
     0
100
AcDbPoint
 10
540.8333333333612
 20
990.0000000000036
 30
0.0
  0
POINT
  5
1CA
330
1C0
100
AcDbEntity
  8
DEFPOINTS
 62
     0
100
AcDbPoint
 10
965.8333333333611
 20
990.0000000000036
 30
0.0
  0
POINT
  5
1CB
330
1C0
100
AcDbEntity
  8
DEFPOINTS
 62
     0
100
AcDbPoint
 10
965.8333333333611
 20
1090.0
 30
0.0
  0
ENDBLK
  5
1C2
330
1C0
100
AcDbEntity
  8
0
100
AcDbBlockEnd
  0
BLOCK
  5
1CE
330
1CD
100
AcDbEntity
  8
0
100
AcDbBlockBegin
  2
*D18
 70
     1
 10
0.0
 20
0.0
 30
0.0
  3
*D18
  1

  0
LINE
  5
1D0
330
1CD
100
AcDbEntity
  8
LAY-10
  6
CONTINUOUS
 62
     4
100
AcDbLine
 10
1849.99999999998
 20
989.9999999999764
 30
0.0
 11
1985.0
 21
989.9999999999764
 31
0.0
  0
LINE
  5
1D1
330
1CD
100
AcDbEntity
  8
LAY-10
  6
CONTINUOUS
 62
     4
100
AcDbLine
 10
1838.19999999998
 20
824.9999999999764
 30
0.0
 11
1985.0
 21
824.9999999999764
 31
0.0
  0
LINE
  5
1D2
330
1CD
100
AcDbEntity
  8
LAY-10
  6
CONTINUOUS
 62
     4
100
AcDbLine
 10
1970.0
 20
964.9999999999764
 30
0.0
 11
1970.0
 21
849.9999999999764
 31
0.0
  0
INSERT
  5
1D3
330
1CD
100
AcDbEntity
  8
LAY-10
 62
     4
100
AcDbBlockReference
  2
EX_BNORM
 10
1970.0
 20
989.9999999999764
 30
0.0
 41
25.0
 42
25.0
 43
25.0
 50
90.0
  0
INSERT
  5
1D4
330
1CD
100
AcDbEntity
  8
LAY-10
 62
     4
100
AcDbBlockReference
  2
EX_BNORM
 10
1970.0
 20
824.9999999999764
 30
0.0
 41
25.0
 42
25.0
 43
25.0
 50
270.0
  0
MTEXT
  5
1D5
330
1CD
100
AcDbEntity
  8
LAY-10
 62
     7
100
AcDbMText
 10
1945.0
 20
907.4999999999761
 30
0.0
 40
31.181104
 41
0.0
 71
     5
 72
     1
  1
165
  7
EXCADDIM1
 11
0.0
 21
1.0
 31
0.0
  0
POINT
  5
1D6
330
1CD
100
AcDbEntity
  8
DEFPOINTS
 62
     0
100
AcDbPoint
 10
1834.99999999998
 20
989.9999999999764
 30
0.0
  0
POINT
  5
1D7
330
1CD
100
AcDbEntity
  8
DEFPOINTS
 62
     0
100
AcDbPoint
 10
1823.19999999998
 20
824.9999999999764
 30
0.0
  0
POINT
  5
1D8
330
1CD
100
AcDbEntity
  8
DEFPOINTS
 62
     0
100
AcDbPoint
 10
1970.0
 20
824.9999999999764
 30
0.0
  0
ENDBLK
  5
1CF
330
1CD
100
AcDbEntity
  8
0
100
AcDbBlockEnd
  0
BLOCK
  5
1DB
330
1DA
100
AcDbEntity
  8
0
100
AcDbBlockBegin
  2
*D19
 70
     1
 10
0.0
 20
0.0
 30
0.0
  3
*D19
  1

  0
LINE
  5
1DD
330
1DA
100
AcDbEntity
  8
LAY-10
  6
CONTINUOUS
 62
     4
100
AcDbLine
 10
2218.49848480998
 20
2133.900000000006
 30
0.0
 11
2048.4984848099
 21
2133.900000000006
 31
0.0
  0
LINE
  5
1DE
330
1DA
100
AcDbEntity
  8
LAY-10
  6
CONTINUOUS
 62
     4
100
AcDbLine
 10
2218.49848480998
 20
1349.899999999976
 30
0.0
 11
2048.4984848099
 21
1349.899999999976
 31
0.0
  0
LINE
  5
1DF
330
1DA
100
AcDbEntity
  8
LAY-10
  6
CONTINUOUS
 62
     4
100
AcDbLine
 10
2063.4984848099
 20
2108.900000000006
 30
0.0
 11
2063.4984848099
 21
1374.899999999976
 31
0.0
  0
INSERT
  5
1E0
330
1DA
100
AcDbEntity
  8
LAY-10
 62
     4
100
AcDbBlockReference
  2
EX_BNORM
 10
2063.4984848099
 20
2133.900000000006
 30
0.0
 41
25.0
 42
25.0
 43
25.0
 50
90.0
  0
INSERT
  5
1E1
330
1DA
100
AcDbEntity
  8
LAY-10
 62
     4
100
AcDbBlockReference
  2
EX_BNORM
 10
2063.4984848099
 20
1349.899999999976
 30
0.0
 41
25.0
 42
25.0
 43
25.0
 50
270.0
  0
MTEXT
  5
1E2
330
1DA
100
AcDbEntity
  8
LAY-10
 62
     7
100
AcDbMText
 10
2038.4984848099
 20
1741.899999999991
 30
0.0
 40
31.181104
 41
0.0
 71
     5
 72
     1
  1
784
  7
EXCADDIM1
 11
0.0
 21
1.0
 31
0.0
  0
POINT
  5
1E3
330
1DA
100
AcDbEntity
  8
DEFPOINTS
 62
     0
100
AcDbPoint
 10
2233.49848480998
 20
2133.900000000006
 30
0.0
  0
POINT
  5
1E4
330
1DA
100
AcDbEntity
  8
DEFPOINTS
 62
     0
100
AcDbPoint
 10
2233.49848480998
 20
1349.899999999976
 30
0.0
  0
POINT
  5
1E5
330
1DA
100
AcDbEntity
  8
DEFPOINTS
 62
     0
100
AcDbPoint
 10
2063.4984848099
 20
1349.899999999976
 30
0.0
  0
ENDBLK
  5
1DC
330
1DA
100
AcDbEntity
  8
0
100
AcDbBlockEnd
  0
BLOCK
  5
1E8
330
1E7
100
AcDbEntity
  8
0
100
AcDbBlockBegin
  2
*D20
 70
     1
 10
0.0
 20
0.0
 30
0.0
  3
*D20
  1

  0
LINE
  5
1EA
330
1E7
100
AcDbEntity
  8
LAY-10
  6
CONTINUOUS
 62
     4
100
AcDbLine
 10
2218.498484809911
 20
1365.900000000055
 30
0.0
 11
2118.4984848099
 21
1365.900000000055
 31
0.0
  0
LINE
  5
1EB
330
1E7
100
AcDbEntity
  8
LAY-10
  6
CONTINUOUS
 62
     4
100
AcDbLine
 10
2218.498484809911
 20
2117.900000000056
 30
0.0
 11
2118.4984848099
 21
2117.900000000056
 31
0.0
  0
LINE
  5
1EC
330
1E7
100
AcDbEntity
  8
LAY-10
  6
CONTINUOUS
 62
     4
100
AcDbLine
 10
2133.4984848099
 20
1390.900000000055
 30
0.0
 11
2133.4984848099
 21
2092.900000000056
 31
0.0
  0
INSERT
  5
1ED
330
1E7
100
AcDbEntity
  8
LAY-10
 62
     4
100
AcDbBlockReference
  2
EX_BNORM
 10
2133.4984848099
 20
1365.900000000055
 30
0.0
 41
25.0
 42
25.0
 43
25.0
 50
270.0
  0
INSERT
  5
1EE
330
1E7
100
AcDbEntity
  8
LAY-10
 62
     4
100
AcDbBlockReference
  2
EX_BNORM
 10
2133.4984848099
 20
2117.900000000056
 30
0.0
 41
25.0
 42
25.0
 43
25.0
 50
90.0
  0
MTEXT
  5
1EF
330
1E7
100
AcDbEntity
  8
LAY-10
 62
     7
100
AcDbMText
 10
2108.4984848099
 20
1741.900000000056
 30
0.0
 40
31.181104
 41
0.0
 71
     5
 72
     1
  1
752
  7
EXCADDIM1
 11
0.0
 21
1.0
 31
0.0
  0
POINT
  5
1F0
330
1E7
100
AcDbEntity
  8
DEFPOINTS
 62
     0
100
AcDbPoint
 10
2233.498484809911
 20
1365.900000000055
 30
0.0
  0
POINT
  5
1F1
330
1E7
100
AcDbEntity
  8
DEFPOINTS
 62
     0
100
AcDbPoint
 10
2233.498484809911
 20
2117.900000000056
 30
0.0
  0
POINT
  5
1F2
330
1E7
100
AcDbEntity
  8
DEFPOINTS
 62
     0
100
AcDbPoint
 10
2133.4984848099
 20
2117.900000000056
 30
0.0
  0
ENDBLK
  5
1E9
330
1E7
100
AcDbEntity
  8
0
100
AcDbBlockEnd
  0
BLOCK
  5
1F5
330
1F4
100
AcDbEntity
  8
0
100
AcDbBlockBegin
  2
*D21
 70
     1
 10
0.0
 20
0.0
 30
0.0
  3
*D21
  1

  0
LINE
  5
1F7
330
1F4
100
AcDbEntity
  8
LAY-10
  6
CONTINUOUS
 62
     4
100
AcDbLine
 10
2443.49848480998
 20
2041.899999999966
 30
0.0
 11
2543.4984848099
 21
2041.899999999966
 31
0.0
  0
LINE
  5
1F8
330
1F4
100
AcDbEntity
  8
LAY-10
  6
CONTINUOUS
 62
     4
100
AcDbLine
 10
2443.49848480998
 20
1441.900000000076
 30
0.0
 11
2543.4984848099
 21
1441.900000000076
 31
0.0
  0
LINE
  5
1F9
330
1F4
100
AcDbEntity
  8
LAY-10
  6
CONTINUOUS
 62
     4
100
AcDbLine
 10
2528.4984848099
 20
2016.899999999966
 30
0.0
 11
2528.4984848099
 21
1466.900000000076
 31
0.0
  0
INSERT
  5
1FA
330
1F4
100
AcDbEntity
  8
LAY-10
 62
     4
100
AcDbBlockReference
  2
EX_BNORM
 10
2528.4984848099
 20
2041.899999999966
 30
0.0
 41
25.0
 42
25.0
 43
25.0
 50
90.0
  0
INSERT
  5
1FB
330
1F4
100
AcDbEntity
  8
LAY-10
 62
     4
100
AcDbBlockReference
  2
EX_BNORM
 10
2528.4984848099
 20
1441.900000000076
 30
0.0
 41
25.0
 42
25.0
 43
25.0
 50
270.0
  0
MTEXT
  5
1FC
330
1F4
100
AcDbEntity
  8
LAY-10
 62
     7
100
AcDbMText
 10
2503.4984848099
 20
1741.900000000021
 30
0.0
 40
31.181104
 41
0.0
 71
     5
 72
     1
  1
600
  7
EXCADDIM1
 11
0.0
 21
1.0
 31
0.0
  0
POINT
  5
1FD
330
1F4
100
AcDbEntity
  8
DEFPOINTS
 62
     0
100
AcDbPoint
 10
2428.49848480998
 20
2041.899999999966
 30
0.0
  0
POINT
  5
1FE
330
1F4
100
AcDbEntity
  8
DEFPOINTS
 62
     0
100
AcDbPoint
 10
2428.49848480998
 20
1441.900000000076
 30
0.0
  0
POINT
  5
1FF
330
1F4
100
AcDbEntity
  8
DEFPOINTS
 62
     0
100
AcDbPoint
 10
2528.4984848099
 20
1441.900000000076
 30
0.0
  0
ENDBLK
  5
1F6
330
1F4
100
AcDbEntity
  8
0
100
AcDbBlockEnd
  0
BLOCK
  5
557
330
556
100
AcDbEntity
  8
0
100
AcDbBlockBegin
  2
*D22
 70
     1
 10
0.0
 20
0.0
 30
0.0
  3
*D22
  1

  0
LINE
  5
559
330
556
100
AcDbEntity
  8
LAY-20
  6
CONTINUOUS
 62
     4
100
AcDbLine
 10
1115.0
 20
954.99999999996
 30
0.0
 11
1170.0
 21
954.99999999996
 31
0.0
  0
LINE
  5
55A
330
556
100
AcDbEntity
  8
LAY-20
  6
CONTINUOUS
 62
     4
100
AcDbLine
 10
1155.0
 20
954.99999999996
 30
0.0
 11
1155.0
 21
990.0
 31
0.0
  0
LINE
  5
55B
330
556
100
AcDbEntity
  8
LAY-20
  6
CONTINUOUS
 62
     4
100
AcDbLine
 10
1155.0
 20
929.99999999996
 30
0.0
 11
1155.0
 21
904.99999999996
 31
0.0
  0
LINE
  5
55C
330
556
100
AcDbEntity
  8
LAY-20
  6
CONTINUOUS
 62
     4
100
AcDbLine
 10
1155.0
 20
1015.0
 30
0.0
 11
1155.0
 21
1040.0
 31
0.0
  0
INSERT
  5
55D
330
556
100
AcDbEntity
  8
LAY-20
 62
     4
100
AcDbBlockReference
  2
EX_BNORM
 10
1155.0
 20
954.99999999996
 30
0.0
 41
25.0
 42
25.0
 43
25.0
 50
90.0
  0
INSERT
  5
55E
330
556
100
AcDbEntity
  8
LAY-20
 62
     4
100
AcDbBlockReference
  2
EX_BNORM
 10
1155.0
 20
990.0
 30
0.0
 41
25.0
 42
25.0
 43
25.0
 50
270.0
  0
MTEXT
  5
55F
330
556
100
AcDbEntity
  8
LAY-20
 62
     7
100
AcDbMText
 10
1130.0
 20
1050.0
 30
0.0
 40
31.181104
 41
0.0
 71
     5
 72
     1
  1
35
  7
EXCADDIM1
 11
0.0
 21
1.0
 31
0.0
  0
POINT
  5
560
330
556
100
AcDbEntity
  8
DEFPOINTS
 62
     0
100
AcDbPoint
 10
1100.0
 20
954.99999999996
 30
0.0
  0
POINT
  5
561
330
556
100
AcDbEntity
  8
DEFPOINTS
 62
     0
100
AcDbPoint
 10
1155.0
 20
990.0
 30
0.0
  0
POINT
  5
562
330
556
100
AcDbEntity
  8
DEFPOINTS
 62
     0
100
AcDbPoint
 10
1155.0
 20
990.0
 30
0.0
  0
ENDBLK
  5
558
330
556
100
AcDbEntity
  8
0
100
AcDbBlockEnd
  0
BLOCK
  5
565
330
564
100
AcDbEntity
  8
0
100
AcDbBlockBegin
  2
*D23
 70
     1
 10
0.0
 20
0.0
 30
0.0
  3
*D23
  1

  0
LINE
  5
567
330
564
100
AcDbEntity
  8
LAY-20
  6
CONTINUOUS
 62
     4
100
AcDbLine
 10
1826.2
 20
813.0000000000005
 30
0.0
 11
1826.2
 21
610.0
 31
0.0
  0
LINE
  5
568
330
564
100
AcDbEntity
  8
LAY-20
  6
CONTINUOUS
 62
     4
100
AcDbLine
 10
533.80000000003
 20
813.0000000000005
 30
0.0
 11
533.80000000003
 21
610.0
 31
0.0
  0
LINE
  5
569
330
564
100
AcDbEntity
  8
LAY-20
  6
CONTINUOUS
 62
     4
100
AcDbLine
 10
1801.2
 20
625.0
 30
0.0
 11
558.80000000003
 21
625.0
 31
0.0
  0
INSERT
  5
56A
330
564
100
AcDbEntity
  8
LAY-20
 62
     4
100
AcDbBlockReference
  2
EX_BNORM
 10
1826.2
 20
625.0
 30
0.0
 41
25.0
 42
25.0
 43
25.0
  0
INSERT
  5
56B
330
564
100
AcDbEntity
  8
LAY-20
 62
     4
100
AcDbBlockReference
  2
EX_BNORM
 10
533.80000000003
 20
625.0
 30
0.0
 41
25.0
 42
25.0
 43
25.0
 50
180.0
  0
MTEXT
  5
56C
330
564
100
AcDbEntity
  8
LAY-20
 62
     7
100
AcDbMText
 10
1180.000000000015
 20
650.0
 30
0.0
 40
31.181104
 41
0.0
 71
     5
 72
     1
  1
1292
  7
EXCADDIM1
  0
POINT
  5
56D
330
564
100
AcDbEntity
  8
DEFPOINTS
 62
     0
100
AcDbPoint
 10
1826.2
 20
828.0000000000005
 30
0.0
  0
POINT
  5
56E
330
564
100
AcDbEntity
  8
DEFPOINTS
 62
     0
100
AcDbPoint
 10
533.80000000003
 20
828.0000000000005
 30
0.0
  0
POINT
  5
56F
330
564
100
AcDbEntity
  8
DEFPOINTS
 62
     0
100
AcDbPoint
 10
533.80000000003
 20
625.0
 30
0.0
  0
ENDBLK
  5
566
330
564
100
AcDbEntity
  8
0
100
AcDbBlockEnd
  0
BLOCK
  5
572
330
571
100
AcDbEntity
  8
0
100
AcDbBlockBegin
  2
*D24
 70
     1
 10
0.0
 20
0.0
 30
0.0
  3
*D24
  1

  0
LINE
  5
574
330
571
100
AcDbEntity
  8
LAY-20
  6
CONTINUOUS
 62
     4
100
AcDbLine
 10
2360.8984848099
 20
2125.1
 30
0.0
 11
2613.4984848099
 21
2125.1
 31
0.0
  0
LINE
  5
575
330
571
100
AcDbEntity
  8
LAY-20
  6
CONTINUOUS
 62
     4
100
AcDbLine
 10
2360.8984848099
 20
1358.7
 30
0.0
 11
2613.4984848099
 21
1358.7
 31
0.0
  0
LINE
  5
576
330
571
100
AcDbEntity
  8
LAY-20
  6
CONTINUOUS
 62
     4
100
AcDbLine
 10
2598.4984848099
 20
2100.1
 30
0.0
 11
2598.4984848099
 21
1383.7
 31
0.0
  0
INSERT
  5
577
330
571
100
AcDbEntity
  8
LAY-20
 62
     4
100
AcDbBlockReference
  2
EX_BNORM
 10
2598.4984848099
 20
2125.1
 30
0.0
 41
25.0
 42
25.0
 43
25.0
 50
90.0
  0
INSERT
  5
578
330
571
100
AcDbEntity
  8
LAY-20
 62
     4
100
AcDbBlockReference
  2
EX_BNORM
 10
2598.4984848099
 20
1358.7
 30
0.0
 41
25.0
 42
25.0
 43
25.0
 50
270.0
  0
MTEXT
  5
579
330
571
100
AcDbEntity
  8
LAY-20
 62
     7
100
AcDbMText
 10
2573.4984848099
 20
1741.900000000001
 30
0.0
 40
31.181104
 41
0.0
 71
     5
 72
     1
  1
766
  7
EXCADDIM1
 11
0.0
 21
1.0
 31
0.0
  0
POINT
  5
57A
330
571
100
AcDbEntity
  8
DEFPOINTS
 62
     0
100
AcDbPoint
 10
2345.8984848099
 20
2125.1
 30
0.0
  0
POINT
  5
57B
330
571
100
AcDbEntity
  8
DEFPOINTS
 62
     0
100
AcDbPoint
 10
2345.8984848099
 20
1358.7
 30
0.0
  0
POINT
  5
57C
330
571
100
AcDbEntity
  8
DEFPOINTS
 62
     0
100
AcDbPoint
 10
2598.4984848099
 20
1358.7
 30
0.0
  0
ENDBLK
  5
573
330
571
100
AcDbEntity
  8
0
100
AcDbBlockEnd
  0
ENDSEC
  0
SECTION
  2
ENTITIES
  0
LINE
  5
D5
330
1F
100
AcDbEntity
  8
LAY-10
  6
CONTINUOUS
 62
     7
100
AcDbLine
 10
540.0000000000327
 20
990.0000000000036
 30
0.0
 11
540.0000000000327
 21
975.0000000000045
 31
0.0
  0
LINE
  5
D6
330
1F
100
AcDbEntity
  8
LAY-10
  6
CONTINUOUS
 62
     7
100
AcDbLine
 10
537.0000000000327
 20
987.0000000000045
 30
0.0
 11
525.0000000000327
 21
987.0000000000045
 31
0.0
  0
LINE
  5
D7
330
1F
100
AcDbEntity
  8
LAY-10
  6
CONTINUOUS
 62
     7
100
AcDbLine
 10
540.0000000000327
 20
975.0000000000045
 30
0.0
 11
537.0000000000327
 21
975.0000000000045
 31
0.0
  0
LINE
  5
D8
330
1F
100
AcDbEntity
  8
LAY-10
  6
CONTINUOUS
 62
     7
100
AcDbLine
 10
525.0000000000327
 20
990.0000000000036
 30
0.0
 11
525.0000000000327
 21
987.0000000000045
 31
0.0
  0
LINE
  5
D9
330
1F
100
AcDbEntity
  8
LAY-10
  6
CONTINUOUS
 62
     7
100
AcDbLine
 10
540.0000000000327
 20
990.0000000000036
 30
0.0
 11
525.0000000000327
 21
990.0000000000036
 31
0.0
  0
LINE
  5
DA
330
1F
100
AcDbEntity
  8
LAY-10
  6
CONTINUOUS
 62
     7
100
AcDbLine
 10
590.0000000000326
 20
837.2000000000035
 30
0.0
 11
590.0000000000326
 21
807.2000000000035
 31
0.0
  0
LINE
  5
DB
330
1F
100
AcDbEntity
  8
LAY-10
  6
CONTINUOUS
 62
     7
100
AcDbLine
 10
593.0000000000308
 20
830.2000000000044
 30
0.0
 11
593.0000000000308
 21
809.2000000000044
 31
0.0
  0
LINE
  5
DC
330
1F
100
AcDbEntity
  8
LAY-10
  6
CONTINUOUS
 62
     7
100
AcDbLine
 10
620.0000000000326
 20
837.2000000000035
 30
0.0
 11
620.0000000000326
 21
836.2000000000035
 31
0.0
  0
ARC
  5
DD
330
1F
100
AcDbEntity
  8
LAY-10
  6
CONTINUOUS
 62
     7
100
AcDbCircle
 10
591.0000000000308
 20
809.2000000000044
 30
0.0
 40
2.0
100
AcDbArc
 50
270.0000000000002
 51
0.0
  0
ARC
  5
DE
330
1F
100
AcDbEntity
  8
LAY-10
  6
CONTINUOUS
 62
     7
100
AcDbCircle
 10
618.0000000000326
 20
836.2000000000035
 30
0.0
 40
2.0
100
AcDbArc
 50
270.0000000000002
 51
0.0
  0
ARC
  5
DF
330
1F
100
AcDbEntity
  8
LAY-10
  6
CONTINUOUS
 62
     7
100
AcDbCircle
 10
597.0000000000326
 20
830.2000000000044
 30
0.0
 40
4.0
100
AcDbArc
 50
90.00000000000001
 51
180.0
  0
LINE
  5
E0
330
1F
100
AcDbEntity
  8
LAY-10
  6
CONTINUOUS
 62
     7
100
AcDbLine
 10
1820.000000000029
 20
990.0000000000023
 30
0.0
 11
1820.000000000029
 21
975.0000000000023
 31
0.0
  0
LINE
  5
E1
330
1F
100
AcDbEntity
  8
LAY-10
  6
CONTINUOUS
 62
     7
100
AcDbLine
 10
1820.000000000029
 20
990.0000000000023
 30
0.0
 11
1835.000000000029
 21
990.0000000000023
 31
0.0
  0
LINE
  5
E2
330
1F
100
AcDbEntity
  8
LAY-10
  6
CONTINUOUS
 62
     7
100
AcDbLine
 10
1823.000000000029
 20
987.0000000000027
 30
0.0
 11
1835.000000000029
 21
987.0000000000027
 31
0.0
  0
LINE
  5
E3
330
1F
100
AcDbEntity
  8
LAY-10
  6
CONTINUOUS
 62
     7
100
AcDbLine
 10
1820.000000000029
 20
975.0000000000023
 30
0.0
 11
1823.000000000029
 21
975.0000000000023
 31
0.0
  0
LINE
  5
E4
330
1F
100
AcDbEntity
  8
LAY-10
  6
CONTINUOUS
 62
     7
100
AcDbLine
 10
1835.000000000029
 20
990.0000000000023
 30
0.0
 11
1835.000000000029
 21
987.0000000000027
 31
0.0
  0
LINE
  5
E5
330
1F
100
AcDbEntity
  8
LAY-10
  6
CONTINUOUS
 62
     7
100
AcDbLine
 10
1770.000000000029
 20
837.2000000000035
 30
0.0
 11
1770.000000000029
 21
807.2000000000044
 31
0.0
  0
LINE
  5
E6
330
1F
100
AcDbEntity
  8
LAY-10
  6
CONTINUOUS
 62
     7
100
AcDbLine
 10
1767.000000000029
 20
830.2000000000035
 30
0.0
 11
1767.000000000029
 21
809.2000000000044
 31
0.0
  0
LINE
  5
E7
330
1F
100
AcDbEntity
  8
LAY-10
  6
CONTINUOUS
 62
     7
100
AcDbLine
 10
1740.000000000029
 20
837.2000000000035
 30
0.0
 11
1740.000000000029
 21
836.2000000000044
 31
0.0
  0
ARC
  5
E8
330
1F
100
AcDbEntity
  8
LAY-10
  6
CONTINUOUS
 62
     7
100
AcDbCircle
 10
1769.000000000029
 20
809.2000000000044
 30
0.0
 40
2.0
100
AcDbArc
 50
180.0
 51
270.0000000000002
  0
ARC
  5
E9
330
1F
100
AcDbEntity
  8
LAY-10
  6
CONTINUOUS
 62
     7
100
AcDbCircle
 10
1742.000000000029
 20
836.2000000000044
 30
0.0
 40
2.0
100
AcDbArc
 50
180.0
 51
270.0000000000002
  0
ARC
  5
EA
330
1F
100
AcDbEntity
  8
LAY-10
  6
CONTINUOUS
 62
     7
100
AcDbCircle
 10
1763.000000000029
 20
830.2000000000035
 30
0.0
 40
4.0
100
AcDbArc
 50
0.0
 51
90.00000000000001
  0
LINE
  5
EB
330
1F
100
AcDbEntity
  8
LAY-10
  6
CONTINUOUS
 62
     7
100
AcDbLine
 10
2233.498484809931
 20
1364.900000000007
 30
0.0
 11
2248.498484809931
 21
1364.900000000007
 31
0.0
  0
LINE
  5
EC
330
1F
100
AcDbEntity
  8
LAY-10
  6
CONTINUOUS
 62
     7
100
AcDbLine
 10
2236.498484809928
 20
1361.900000000008
 30
0.0
 11
2236.498484809928
 21
1349.900000000007
 31
0.0
  0
LINE
  5
ED
330
1F
100
AcDbEntity
  8
LAY-10
  6
CONTINUOUS
 62
     7
100
AcDbLine
 10
2248.498484809931
 20
1364.900000000007
 30
0.0
 11
2248.498484809931
 21
1361.900000000008
 31
0.0
  0
LINE
  5
EE
330
1F
100
AcDbEntity
  8
LAY-10
  6
CONTINUOUS
 62
     7
100
AcDbLine
 10
2233.498484809931
 20
1349.900000000007
 30
0.0
 11
2236.498484809928
 21
1349.900000000007
 31
0.0
  0
LINE
  5
EF
330
1F
100
AcDbEntity
  8
LAY-10
  6
CONTINUOUS
 62
     7
100
AcDbLine
 10
2233.498484809931
 20
1364.900000000007
 30
0.0
 11
2233.498484809931
 21
1349.900000000007
 31
0.0
  0
LINE
  5
F0
330
1F
100
AcDbEntity
  8
LAY-10
  6
CONTINUOUS
 62
     7
100
AcDbLine
 10
2386.29848480993
 20
1451.900000000008
 30
0.0
 11
2416.29848480993
 21
1451.900000000008
 31
0.0
  0
LINE
  5
F1
330
1F
100
AcDbEntity
  8
LAY-10
  6
CONTINUOUS
 62
     7
100
AcDbLine
 10
2393.29848480993
 20
1454.900000000008
 30
0.0
 11
2414.29848480993
 21
1454.900000000008
 31
0.0
  0
LINE
  5
F2
330
1F
100
AcDbEntity
  8
LAY-10
  6
CONTINUOUS
 62
     7
100
AcDbLine
 10
2386.29848480993
 20
1481.900000000008
 30
0.0
 11
2387.29848480993
 21
1481.900000000008
 31
0.0
  0
ARC
  5
F3
330
1F
100
AcDbEntity
  8
LAY-10
  6
CONTINUOUS
 62
     7
100
AcDbCircle
 10
2414.29848480993
 20
1452.900000000007
 30
0.0
 40
2.0
100
AcDbArc
 50
0.0000000000000573
 51
90.00000000000009
  0
ARC
  5
F4
330
1F
100
AcDbEntity
  8
LAY-10
  6
CONTINUOUS
 62
     7
100
AcDbCircle
 10
2387.29848480993
 20
1479.900000000006
 30
0.0
 40
2.0
100
AcDbArc
 50
0.0000000000000573
 51
90.00000000000009
  0
ARC
  5
F5
330
1F
100
AcDbEntity
  8
LAY-10
  6
CONTINUOUS
 62
     7
100
AcDbCircle
 10
2393.29848480993
 20
1458.900000000008
 30
0.0
 40
4.0
100
AcDbArc
 50
180.0000000000002
 51
270.0000000000002
  0
LINE
  5
F6
330
1F
100
AcDbEntity
  8
LAY-10
  6
CONTINUOUS
 62
     7
100
AcDbLine
 10
2233.498484809931
 20
2118.900000000008
 30
0.0
 11
2248.498484809928
 21
2118.900000000008
 31
0.0
  0
LINE
  5
F7
330
1F
100
AcDbEntity
  8
LAY-10
  6
CONTINUOUS
 62
     7
100
AcDbLine
 10
2233.498484809931
 20
2118.900000000008
 30
0.0
 11
2233.498484809931
 21
2133.900000000008
 31
0.0
  0
LINE
  5
F8
330
1F
100
AcDbEntity
  8
LAY-10
  6
CONTINUOUS
 62
     7
100
AcDbLine
 10
2236.498484809929
 20
2121.900000000007
 30
0.0
 11
2236.498484809929
 21
2133.900000000008
 31
0.0
  0
LINE
  5
F9
330
1F
100
AcDbEntity
  8
LAY-10
  6
CONTINUOUS
 62
     7
100
AcDbLine
 10
2248.498484809928
 20
2118.900000000008
 30
0.0
 11
2248.498484809928
 21
2121.900000000007
 31
0.0
  0
LINE
  5
FA
330
1F
100
AcDbEntity
  8
LAY-10
  6
CONTINUOUS
 62
     7
100
AcDbLine
 10
2233.498484809931
 20
2133.900000000008
 30
0.0
 11
2236.498484809929
 21
2133.900000000008
 31
0.0
  0
LINE
  5
FB
330
1F
100
AcDbEntity
  8
LAY-10
  6
CONTINUOUS
 62
     7
100
AcDbLine
 10
2386.29848480993
 20
2031.900000000008
 30
0.0
 11
2416.29848480993
 21
2031.900000000008
 31
0.0
  0
LINE
  5
FC
330
1F
100
AcDbEntity
  8
LAY-10
  6
CONTINUOUS
 62
     7
100
AcDbLine
 10
2393.29848480993
 20
2028.900000000008
 30
0.0
 11
2414.29848480993
 21
2028.900000000008
 31
0.0
  0
LINE
  5
FD
330
1F
100
AcDbEntity
  8
LAY-10
  6
CONTINUOUS
 62
     7
100
AcDbLine
 10
2386.29848480993
 20
2001.900000000008
 30
0.0
 11
2387.29848480993
 21
2001.900000000008
 31
0.0
  0
ARC
  5
FE
330
1F
100
AcDbEntity
  8
LAY-10
  6
CONTINUOUS
 62
     7
100
AcDbCircle
 10
2414.29848480993
 20
2030.900000000006
 30
0.0
 40
2.0
100
AcDbArc
 50
270.0000000000002
 51
0.0000000000000573
  0
ARC
  5
FF
330
1F
100
AcDbEntity
  8
LAY-10
  6
CONTINUOUS
 62
     7
100
AcDbCircle
 10
2387.29848480993
 20
2003.900000000008
 30
0.0
 40
2.0
100
AcDbArc
 50
270.0000000000002
 51
0.0000000000000573
  0
ARC
  5
100
330
1F
100
AcDbEntity
  8
LAY-10
  6
CONTINUOUS
 62
     7
100
AcDbCircle
 10
2393.29848480993
 20
2024.900000000006
 30
0.0
 40
4.0
100
AcDbArc
 50
90.00000000000009
 51
180.0000000000002
  0
LINE
  5
101
330
1F
100
AcDbEntity
  8
LAY-10
  6
CONTINUOUS
 62
     7
100
AcDbLine
 10
2361.469244635934
 20
1398.59208016957
 30
0.0
 11
2361.577164466363
 21
1398.700000000001
 31
0.0
  0
LINE
  5
102
330
1F
100
AcDbEntity
  8
LAY-10
  6
CONTINUOUS
 62
     7
100
AcDbLine
 10
2361.827389628998
 20
1398.243118381449
 30
0.0
 11
2362.284271247555
 21
1398.700000000005
 31
0.0
  0
LINE
  5
103
330
1F
100
AcDbEntity
  8
LAY-10
  6
CONTINUOUS
 62
     7
100
AcDbLine
 10
2362.185534622061
 20
1397.894156593326
 30
0.0
 11
2362.991378028736
 21
1398.700000000001
 31
0.0
  0
LINE
  5
104
330
1F
100
AcDbEntity
  8
LAY-10
  6
CONTINUOUS
 62
     7
100
AcDbLine
 10
2362.543679615127
 20
1397.545194805204
 30
0.0
 11
2363.698484809932
 21
1398.700000000007
 31
0.0
  0
LINE
  5
105
330
1F
100
AcDbEntity
  8
LAY-10
  6
CONTINUOUS
 62
     7
100
AcDbLine
 10
2362.901824608202
 20
1397.196233017093
 30
0.0
 11
2363.698484809925
 21
1397.992893218815
 31
0.0
  0
LINE
  5
106
330
1F
100
AcDbEntity
  8
LAY-10
  6
CONTINUOUS
 62
     7
100
AcDbLine
 10
2363.259969601267
 20
1396.847271228971
 30
0.0
 11
2363.698484809928
 21
1397.285786437632
 31
0.0
  0
LINE
  5
107
330
1F
100
AcDbEntity
  8
LAY-10
  6
CONTINUOUS
 62
     7
100
AcDbLine
 10
2363.618114594331
 20
1396.498309440849
 30
0.0
 11
2363.698484809921
 21
1396.57867965644
 31
0.0
  0
LINE
  5
108
330
1F
100
AcDbEntity
  8
LAY-10
  6
CONTINUOUS
 62
     7
100
AcDbLine
 10
2397.077646685707
 20
1399.149265248981
 30
0.0
 11
2397.134065559157
 21
1399.092846375529
 31
0.0
  0
LINE
  5
109
330
1F
100
AcDbEntity
  8
LAY-10
  6
CONTINUOUS
 62
     7
100
AcDbLine
 10
2396.607351503812
 20
1398.912453649686
 30
0.0
 11
2396.80467095869
 21
1398.715134194807
 31
0.0
  0
LINE
  5
10A
330
1F
100
AcDbEntity
  8
LAY-10
  6
CONTINUOUS
 62
     7
100
AcDbLine
 10
2396.059731200302
 20
1398.752967172009
 30
0.0
 11
2396.475276358205
 21
1398.337422014109
 31
0.0
  0
LINE
  5
10B
330
1F
100
AcDbEntity
  8
LAY-10
  6
CONTINUOUS
 62
     7
100
AcDbLine
 10
2395.405591591128
 20
1398.699999999998
 30
0.0
 11
2396.145881757716
 21
1397.959709833411
 31
0.0
  0
LINE
  5
10C
330
1F
100
AcDbEntity
  8
LAY-10
  6
CONTINUOUS
 62
     7
100
AcDbLine
 10
2394.698484809936
 20
1398.700000000005
 30
0.0
 11
2395.816487157229
 21
1397.581997652712
 31
0.0
  0
LINE
  5
10D
330
1F
100
AcDbEntity
  8
LAY-10
  6
CONTINUOUS
 62
     7
100
AcDbLine
 10
2394.698484809943
 20
1397.992893218811
 30
0.0
 11
2395.487092556753
 21
1397.204285472001
 31
0.0
  0
LINE
  5
10E
330
1F
100
AcDbEntity
  8
LAY-10
  6
CONTINUOUS
 62
     7
100
AcDbLine
 10
2394.69848480995
 20
1397.285786437619
 30
0.0
 11
2395.157697956264
 21
1396.826573291303
 31
0.0
  0
LINE
  5
10F
330
1F
100
AcDbEntity
  8
LAY-10
  6
CONTINUOUS
 62
     7
100
AcDbLine
 10
2394.698484809932
 20
1396.578679656449
 30
0.0
 11
2394.828303355777
 21
1396.448861110604
 31
0.0
  0
LINE
  5
110
330
1F
100
AcDbEntity
  8
LAY-10
  6
CONTINUOUS
 62
     7
100
AcDbLine
 10
2363.618114594342
 20
2087.301690559155
 30
0.0
 11
2363.698484809932
 21
2087.221320343564
 31
0.0
  0
LINE
  5
111
330
1F
100
AcDbEntity
  8
LAY-10
  6
CONTINUOUS
 62
     7
100
AcDbLine
 10
2363.259969601276
 20
2086.952728771032
 30
0.0
 11
2363.698484809925
 21
2086.514213562382
 31
0.0
  0
LINE
  5
112
330
1F
100
AcDbEntity
  8
LAY-10
  6
CONTINUOUS
 62
     7
100
AcDbLine
 10
2362.901824608202
 20
2086.603766982923
 30
0.0
 11
2363.698484809932
 21
2085.80710678119
 31
0.0
  0
LINE
  5
113
330
1F
100
AcDbEntity
  8
LAY-10
  6
CONTINUOUS
 62
     7
100
AcDbLine
 10
2362.543679615134
 20
2086.254805194801
 30
0.0
 11
2363.698484809939
 21
2085.099999999998
 31
0.0
  0
LINE
  5
114
330
1F
100
AcDbEntity
  8
LAY-10
  6
CONTINUOUS
 62
     7
100
AcDbLine
 10
2362.185534622074
 20
2085.905843406677
 30
0.0
 11
2362.991378028747
 21
2085.100000000002
 31
0.0
  0
LINE
  5
115
330
1F
100
AcDbEntity
  8
LAY-10
  6
CONTINUOUS
 62
     7
100
AcDbLine
 10
2361.827389628998
 20
2085.556881618567
 30
0.0
 11
2362.284271247566
 21
2085.099999999998
 31
0.0
  0
LINE
  5
116
330
1F
100
AcDbEntity
  8
LAY-10
  6
CONTINUOUS
 62
     7
100
AcDbLine
 10
2361.46924463593
 20
2085.207919830446
 30
0.0
 11
2361.57716446637
 21
2085.100000000004
 31
0.0
  0
LINE
  5
117
330
1F
100
AcDbEntity
  8
LAY-10
  6
CONTINUOUS
 62
     7
100
AcDbLine
 10
2394.698484809921
 20
2087.221320343558
 30
0.0
 11
2394.828303355786
 21
2087.351138889424
 31
0.0
  0
LINE
  5
118
330
1F
100
AcDbEntity
  8
LAY-10
  6
CONTINUOUS
 62
     7
100
AcDbLine
 10
2394.698484809926
 20
2086.514213562374
 30
0.0
 11
2395.157697956253
 21
2086.973426708702
 31
0.0
  0
LINE
  5
119
330
1F
100
AcDbEntity
  8
LAY-10
  6
CONTINUOUS
 62
     7
100
AcDbLine
 10
2394.698484809921
 20
2085.807106781182
 30
0.0
 11
2395.487092556731
 21
2086.595714527994
 31
0.0
  0
LINE
  5
11A
330
1F
100
AcDbEntity
  8
LAY-10
  6
CONTINUOUS
 62
     7
100
AcDbLine
 10
2394.698484809914
 20
2085.099999999989
 30
0.0
 11
2395.81648715722
 21
2086.218002347292
 31
0.0
  0
LINE
  5
11B
330
1F
100
AcDbEntity
  8
LAY-10
  6
CONTINUOUS
 62
     7
100
AcDbLine
 10
2395.405591591119
 20
2085.100000000007
 30
0.0
 11
2396.145881757705
 21
2085.840290166594
 31
0.0
  0
LINE
  5
11C
330
1F
100
AcDbEntity
  8
LAY-10
  6
CONTINUOUS
 62
     7
100
AcDbLine
 10
2396.059731200302
 20
2085.047032828003
 30
0.0
 11
2396.475276358194
 21
2085.462577985896
 31
0.0
  0
LINE
  5
11D
330
1F
100
AcDbEntity
  8
LAY-10
  6
CONTINUOUS
 62
     7
100
AcDbLine
 10
2396.607351503812
 20
2084.887546350328
 30
0.0
 11
2396.804670958668
 21
2085.084865805185
 31
0.0
  0
LINE
  5
11E
330
1F
100
AcDbEntity
  8
LAY-10
  6
CONTINUOUS
 62
     7
100
AcDbLine
 10
2397.077646685703
 20
2084.650734751032
 30
0.0
 11
2397.134065559157
 21
2084.707153624488
 31
0.0
  0
LINE
  5
11F
330
1F
100
AcDbEntity
  8
LAY-10
  6
CONTINUOUS
 62
     7
100
AcDbLine
 10
544.5000000000309
 20
842.4000000000042
 30
0.0
 11
565.5000000000326
 21
842.4000000000042
 31
0.0
  0
LINE
  5
120
330
1F
100
AcDbEntity
  8
LAY-10
  6
CONTINUOUS
 62
     7
100
AcDbLine
 10
565.5000000000326
 20
842.4000000000042
 30
0.0
 11
565.5000000000326
 21
840.4000000000042
 31
0.0
  0
LINE
  5
121
330
1F
100
AcDbEntity
  8
LAY-10
  6
CONTINUOUS
 62
     7
100
AcDbLine
 10
544.5000000000309
 20
842.4000000000042
 30
0.0
 11
544.5000000000309
 21
840.4000000000042
 31
0.0
  0
LINE
  5
122
330
1F
100
AcDbEntity
  8
LAY-10
  6
CONTINUOUS
 62
     7
100
AcDbLine
 10
565.0000000000308
 20
842.4000000000042
 30
0.0
 11
565.0000000000308
 21
849.8760000000038
 31
0.0
  0
LINE
  5
123
330
1F
100
AcDbEntity
  8
LAY-10
  6
CONTINUOUS
 62
     7
100
AcDbLine
 10
545.0000000000327
 20
842.4000000000042
 30
0.0
 11
545.0000000000327
 21
849.8760000000038
 31
0.0
  0
ARC
  5
124
330
1F
100
AcDbEntity
  8
LAY-10
  6
CONTINUOUS
 62
     7
100
AcDbCircle
 10
562.5000000000308
 20
846.9559653679689
 30
0.0
 40
3.844034632034633
100
AcDbArc
 50
49.43137502658949
 51
130.5686249733964
  0
ARC
  5
125
330
1F
100
AcDbEntity
  8
LAY-10
  6
CONTINUOUS
 62
     7
100
AcDbCircle
 10
555.0000000000327
 20
836.8098614718656
 30
0.0
 40
13.99013852813853
100
AcDbArc
 50
69.0597243938637
 51
110.9402756061452
  0
ARC
  5
126
330
1F
100
AcDbEntity
  8
LAY-10
  6
CONTINUOUS
 62
     7
100
AcDbCircle
 10
547.5000000000291
 20
846.9559653679689
 30
0.0
 40
3.844034632034633
100
AcDbArc
 50
49.43137502658278
 51
130.5686249733802
  0
LINE
  5
127
330
1F
100
AcDbEntity
  8
LAY-10
  6
CONTINUOUS
 62
     7
100
AcDbLine
 10
562.5000000000308
 20
850.8000000000038
 30
0.0
 11
547.5000000000291
 21
850.8000000000038
 31
0.0
  0
LINE
  5
128
330
1F
100
AcDbEntity
  8
LAY-10
  6
CONTINUOUS
 62
     7
100
AcDbLine
 10
1794.500000000029
 20
842.4000000000042
 30
0.0
 11
1815.500000000031
 21
842.4000000000042
 31
0.0
  0
LINE
  5
129
330
1F
100
AcDbEntity
  8
LAY-10
  6
CONTINUOUS
 62
     7
100
AcDbLine
 10
1815.500000000031
 20
842.4000000000042
 30
0.0
 11
1815.500000000031
 21
840.4000000000042
 31
0.0
  0
LINE
  5
12A
330
1F
100
AcDbEntity
  8
LAY-10
  6
CONTINUOUS
 62
     7
100
AcDbLine
 10
1794.500000000029
 20
842.4000000000042
 30
0.0
 11
1794.500000000029
 21
840.4000000000042
 31
0.0
  0
LINE
  5
12B
330
1F
100
AcDbEntity
  8
LAY-10
  6
CONTINUOUS
 62
     7
100
AcDbLine
 10
1815.000000000029
 20
842.4000000000042
 30
0.0
 11
1815.000000000029
 21
849.8760000000048
 31
0.0
  0
LINE
  5
12C
330
1F
100
AcDbEntity
  8
LAY-10
  6
CONTINUOUS
 62
     7
100
AcDbLine
 10
1795.000000000031
 20
842.4000000000042
 30
0.0
 11
1795.000000000031
 21
849.8760000000048
 31
0.0
  0
ARC
  5
12D
330
1F
100
AcDbEntity
  8
LAY-10
  6
CONTINUOUS
 62
     7
100
AcDbCircle
 10
1812.500000000029
 20
846.9559653679689
 30
0.0
 40
3.844034632034633
100
AcDbArc
 50
49.43137502657321
 51
130.5686249734077
  0
ARC
  5
12E
330
1F
100
AcDbEntity
  8
LAY-10
  6
CONTINUOUS
 62
     7
100
AcDbCircle
 10
1805.000000000029
 20
836.8098614718656
 30
0.0
 40
13.99013852813853
100
AcDbArc
 50
69.05972439386198
 51
110.9402756061418
  0
ARC
  5
12F
330
1F
100
AcDbEntity
  8
LAY-10
  6
CONTINUOUS
 62
     7
100
AcDbCircle
 10
1797.500000000029
 20
846.9559653679689
 30
0.0
 40
3.844034632034633
100
AcDbArc
 50
49.43137502660484
 51
130.5686249733852
  0
LINE
  5
130
330
1F
100
AcDbEntity
  8
LAY-10
  6
CONTINUOUS
 62
     7
100
AcDbLine
 10
1812.500000000029
 20
850.8000000000038
 30
0.0
 11
1797.500000000029
 21
850.8000000000038
 31
0.0
  0
LINE
  5
131
330
1F
100
AcDbEntity
  8
LAY-10
  6
CONTINUOUS
 62
     7
100
AcDbLine
 10
542.7707598260349
 20
824.8920801695667
 30
0.0
 11
542.8786796564855
 21
825.0000000000182
 31
0.0
  0
LINE
  5
132
330
1F
100
AcDbEntity
  8
LAY-10
  6
CONTINUOUS
 62
     7
100
AcDbLine
 10
543.1289048190993
 20
824.5431183814444
 30
0.0
 11
543.5857864376667
 21
825.0000000000127
 31
0.0
  0
LINE
  5
133
330
1F
100
AcDbEntity
  8
LAY-10
  6
CONTINUOUS
 62
     7
100
AcDbLine
 10
543.4870498121636
 20
824.1941565933221
 30
0.0
 11
544.2928932188606
 21
825.0000000000191
 31
0.0
  0
LINE
  5
134
330
1F
100
AcDbEntity
  8
LAY-10
  6
CONTINUOUS
 62
     7
100
AcDbLine
 10
543.8451948052389
 20
823.8451948052116
 30
0.0
 11
545.0000000000309
 21
825.0000000000028
 31
0.0
  0
LINE
  5
135
330
1F
100
AcDbEntity
  8
LAY-10
  6
CONTINUOUS
 62
     7
100
AcDbLine
 10
544.2033397983032
 20
823.4962330170893
 30
0.0
 11
545.0000000000236
 21
824.2928932188097
 31
0.0
  0
LINE
  5
136
330
1F
100
AcDbEntity
  8
LAY-10
  6
CONTINUOUS
 62
     7
100
AcDbLine
 10
544.5614847913675
 20
823.1472712289661
 30
0.0
 11
545.00000000004
 21
823.5857864376403
 31
0.0
  0
LINE
  5
137
330
1F
100
AcDbEntity
  8
LAY-10
  6
CONTINUOUS
 62
     7
100
AcDbLine
 10
544.9196297844319
 20
822.7983094408438
 30
0.0
 11
545.0000000000218
 21
822.8786796564356
 31
0.0
  0
LINE
  5
138
330
1F
100
AcDbEntity
  8
LAY-10
  6
CONTINUOUS
 62
     7
100
AcDbLine
 10
567.1213203435835
 20
825.0000000000127
 30
0.0
 11
567.2016905591971
 21
824.9196297843982
 31
0.0
  0
LINE
  5
139
330
1F
100
AcDbEntity
  8
LAY-10
  6
CONTINUOUS
 62
     7
100
AcDbLine
 10
566.4142135623896
 20
825.0000000000191
 30
0.0
 11
566.8527287710748
 21
824.5614847913339
 31
0.0
  0
LINE
  5
13A
330
1F
100
AcDbEntity
  8
LAY-10
  6
CONTINUOUS
 62
     7
100
AcDbLine
 10
565.7071067812084
 20
825.0000000000136
 30
0.0
 11
566.5037669829652
 21
824.2033397982586
 31
0.0
  0
LINE
  5
13B
330
1F
100
AcDbEntity
  8
LAY-10
  6
CONTINUOUS
 62
     7
100
AcDbLine
 10
565.0000000000272
 20
825.0000000000082
 30
0.0
 11
566.1548051948411
 21
823.8451948051943
 31
0.0
  0
LINE
  5
13C
330
1F
100
AcDbEntity
  8
LAY-10
  6
CONTINUOUS
 62
     7
100
AcDbLine
 10
565.0000000000326
 20
824.2928932188161
 30
0.0
 11
565.8058434067187
 21
823.48704981213
 31
0.0
  0
LINE
  5
13D
330
1F
100
AcDbEntity
  8
LAY-10
  6
CONTINUOUS
 62
     7
100
AcDbLine
 10
565.0000000000399
 20
823.5857864376231
 30
0.0
 11
565.4568816185964
 21
823.1289048190656
 31
0.0
  0
LINE
  5
13E
330
1F
100
AcDbEntity
  8
LAY-10
  6
CONTINUOUS
 62
     7
100
AcDbLine
 10
565.0000000000344
 20
822.8786796564409
 30
0.0
 11
565.1079198304868
 21
822.7707598259894
 31
0.0
  0
LINE
  5
13F
330
1F
100
AcDbEntity
  8
LAY-10
  6
CONTINUOUS
 62
     7
100
AcDbLine
 10
1792.770759826017
 20
824.8920801695505
 30
0.0
 11
1792.878679656467
 21
825.0000000000028
 31
0.0
  0
LINE
  5
140
330
1F
100
AcDbEntity
  8
LAY-10
  6
CONTINUOUS
 62
     7
100
AcDbLine
 10
1793.128904819079
 20
824.5431183814281
 30
0.0
 11
1793.585786437649
 21
824.9999999999973
 31
0.0
  0
LINE
  5
141
330
1F
100
AcDbEntity
  8
LAY-10
  6
CONTINUOUS
 62
     7
100
AcDbLine
 10
1793.487049812156
 20
824.1941565933175
 30
0.0
 11
1794.292893218842
 21
825.0000000000036
 31
0.0
  0
LINE
  5
142
330
1F
100
AcDbEntity
  8
LAY-10
  6
CONTINUOUS
 62
     7
100
AcDbLine
 10
1793.845194805221
 20
823.8451948051952
 30
0.0
 11
1795.000000000024
 21
824.9999999999983
 31
0.0
  0
LINE
  5
143
330
1F
100
AcDbEntity
  8
LAY-10
  6
CONTINUOUS
 62
     7
100
AcDbLine
 10
1794.203339798285
 20
823.4962330170729
 30
0.0
 11
1795.000000000029
 21
824.292893218817
 31
0.0
  0
LINE
  5
144
330
1F
100
AcDbEntity
  8
LAY-10
  6
CONTINUOUS
 62
     7
100
AcDbLine
 10
1794.561484791348
 20
823.1472712289506
 30
0.0
 11
1795.000000000022
 21
823.5857864376239
 31
0.0
  0
LINE
  5
145
330
1F
100
AcDbEntity
  8
LAY-10
  6
CONTINUOUS
 62
     7
100
AcDbLine
 10
1794.919629784425
 20
822.7983094408393
 30
0.0
 11
1795.000000000027
 21
822.8786796564427
 31
0.0
  0
LINE
  5
146
330
1F
100
AcDbEntity
  8
LAY-10
  6
CONTINUOUS
 62
     7
100
AcDbLine
 10
1817.121320343576
 20
825.0000000000173
 30
0.0
 11
1817.201690559179
 21
824.9196297844146
 31
0.0
  0
LINE
  5
147
330
1F
100
AcDbEntity
  8
LAY-10
  6
CONTINUOUS
 62
     7
100
AcDbLine
 10
1816.414213562397
 20
825.0000000000119
 30
0.0
 11
1816.85272877107
 21
824.5614847913375
 31
0.0
  0
LINE
  5
148
330
1F
100
AcDbEntity
  8
LAY-10
  6
CONTINUOUS
 62
     7
100
AcDbLine
 10
1815.707106781214
 20
825.0000000000064
 30
0.0
 11
1816.503766982947
 21
824.2033397982741
 31
0.0
  0
LINE
  5
149
330
1F
100
AcDbEntity
  8
LAY-10
  6
CONTINUOUS
 62
     7
100
AcDbLine
 10
1815.000000000033
 20
825.0000000000009
 30
0.0
 11
1816.154805194825
 21
823.8451948052098
 31
0.0
  0
LINE
  5
14A
330
1F
100
AcDbEntity
  8
LAY-10
  6
CONTINUOUS
 62
     7
100
AcDbLine
 10
1815.000000000027
 20
824.2928932188206
 30
0.0
 11
1815.805843406703
 21
823.4870498121455
 31
0.0
  0
LINE
  5
14B
330
1F
100
AcDbEntity
  8
LAY-10
  6
CONTINUOUS
 62
     7
100
AcDbLine
 10
1815.000000000035
 20
823.5857864376277
 30
0.0
 11
1815.456881618591
 21
823.1289048190702
 31
0.0
  0
LINE
  5
14C
330
1F
100
AcDbEntity
  8
LAY-10
  6
CONTINUOUS
 62
     7
100
AcDbLine
 10
1815.000000000016
 20
822.8786796564583
 30
0.0
 11
1815.107919830469
 21
822.7707598260059
 31
0.0
  0
LINE
  5
14D
330
1F
100
AcDbEntity
  8
LAY-10
  6
CONTINUOUS
 62
     7
100
AcDbLine
 10
2381.09848480993
 20
1426.900000000008
 30
0.0
 11
2373.622484809931
 21
1426.900000000008
 31
0.0
  0
LINE
  5
14E
330
1F
100
AcDbEntity
  8
LAY-10
  6
CONTINUOUS
 62
     7
100
AcDbLine
 10
2381.09848480993
 20
1406.900000000008
 30
0.0
 11
2373.622484809931
 21
1406.900000000008
 31
0.0
  0
ARC
  5
14F
330
1F
100
AcDbEntity
  8
LAY-10
  6
CONTINUOUS
 62
     7
100
AcDbCircle
 10
2376.542519441967
 20
1424.400000000008
 30
0.0
 40
3.844034632034633
100
AcDbArc
 50
139.4313750266193
 51
220.5686249733904
  0
ARC
  5
150
330
1F
100
AcDbEntity
  8
LAY-10
  6
CONTINUOUS
 62
     7
100
AcDbCircle
 10
2386.688623338069
 20
1416.900000000008
 30
0.0
 40
13.99013852813853
100
AcDbArc
 50
159.0597243938562
 51
200.9402756061426
  0
ARC
  5
151
330
1F
100
AcDbEntity
  8
LAY-10
  6
CONTINUOUS
 62
     7
100
AcDbCircle
 10
2376.542519441967
 20
1409.400000000008
 30
0.0
 40
3.844034632034633
100
AcDbArc
 50
139.4313750266097
 51
220.5686249733904
  0
LINE
  5
152
330
1F
100
AcDbEntity
  8
LAY-10
  6
CONTINUOUS
 62
     7
100
AcDbLine
 10
2372.698484809928
 20
1424.400000000008
 30
0.0
 11
2372.698484809928
 21
1409.400000000008
 31
0.0
  0
LINE
  5
153
330
1F
100
AcDbEntity
  8
LAY-10
  6
CONTINUOUS
 62
     7
100
AcDbLine
 10
2381.09848480993
 20
1406.400000000008
 30
0.0
 11
2381.09848480993
 21
1427.400000000008
 31
0.0
  0
LINE
  5
154
330
1F
100
AcDbEntity
  8
LAY-10
  6
CONTINUOUS
 62
     7
100
AcDbLine
 10
2381.09848480993
 20
1427.400000000008
 30
0.0
 11
2383.09848480993
 21
1427.400000000008
 31
0.0
  0
LINE
  5
155
330
1F
100
AcDbEntity
  8
LAY-10
  6
CONTINUOUS
 62
     7
100
AcDbLine
 10
2381.09848480993
 20
1406.400000000008
 30
0.0
 11
2383.09848480993
 21
1406.400000000008
 31
0.0
  0
LINE
  5
156
330
1F
100
AcDbEntity
  8
LAY-10
  6
CONTINUOUS
 62
     7
100
AcDbLine
 10
2381.09848480993
 20
2076.900000000007
 30
0.0
 11
2373.622484809931
 21
2076.900000000007
 31
0.0
  0
LINE
  5
157
330
1F
100
AcDbEntity
  8
LAY-10
  6
CONTINUOUS
 62
     7
100
AcDbLine
 10
2381.09848480993
 20
2056.900000000008
 30
0.0
 11
2373.622484809931
 21
2056.900000000008
 31
0.0
  0
ARC
  5
158
330
1F
100
AcDbEntity
  8
LAY-10
  6
CONTINUOUS
 62
     7
100
AcDbCircle
 10
2376.542519441967
 20
2074.400000000005
 30
0.0
 40
3.844034632034633
100
AcDbArc
 50
139.4313750266245
 51
220.5686249733957
  0
ARC
  5
159
330
1F
100
AcDbEntity
  8
LAY-10
  6
CONTINUOUS
 62
     7
100
AcDbCircle
 10
2386.688623338069
 20
2066.900000000005
 30
0.0
 40
13.99013852813853
100
AcDbArc
 50
159.0597243938578
 51
200.9402756061465
  0
ARC
  5
15A
330
1F
100
AcDbEntity
  8
LAY-10
  6
CONTINUOUS
 62
     7
100
AcDbCircle
 10
2376.542519441967
 20
2059.400000000005
 30
0.0
 40
3.844034632034633
100
AcDbArc
 50
139.4313750266245
 51
220.5686249733957
  0
LINE
  5
15B
330
1F
100
AcDbEntity
  8
LAY-10
  6
CONTINUOUS
 62
     7
100
AcDbLine
 10
2372.698484809928
 20
2074.400000000005
 30
0.0
 11
2372.698484809928
 21
2059.400000000005
 31
0.0
  0
LINE
  5
15C
330
1F
100
AcDbEntity
  8
LAY-10
  6
CONTINUOUS
 62
     7
100
AcDbLine
 10
2381.09848480993
 20
2056.400000000005
 30
0.0
 11
2381.09848480993
 21
2077.400000000008
 31
0.0
  0
LINE
  5
15D
330
1F
100
AcDbEntity
  8
LAY-10
  6
CONTINUOUS
 62
     7
100
AcDbLine
 10
2381.09848480993
 20
2077.400000000008
 30
0.0
 11
2383.09848480993
 21
2077.400000000008
 31
0.0
  0
LINE
  5
15E
330
1F
100
AcDbEntity
  8
LAY-10
  6
CONTINUOUS
 62
     7
100
AcDbLine
 10
2381.09848480993
 20
2056.400000000005
 30
0.0
 11
2383.09848480993
 21
2056.400000000005
 31
0.0
  0
LINE
  5
15F
330
1F
100
AcDbEntity
  8
LAY-10
  6
CONTINUOUS
 62
     7
100
AcDbLine
 10
2400.619805153486
 20
1406.900000000013
 30
0.0
 11
2400.700175369087
 21
1406.819629784411
 31
0.0
  0
LINE
  5
160
330
1F
100
AcDbEntity
  8
LAY-10
  6
CONTINUOUS
 62
     7
100
AcDbLine
 10
2399.912698372304
 20
1406.900000000008
 30
0.0
 11
2400.351213580964
 21
1406.461484791346
 31
0.0
  0
LINE
  5
161
330
1F
100
AcDbEntity
  8
LAY-10
  6
CONTINUOUS
 62
     7
100
AcDbLine
 10
2399.205591591123
 20
1406.900000000002
 30
0.0
 11
2400.002251792853
 21
1406.103339798269
 31
0.0
  0
LINE
  5
162
330
1F
100
AcDbEntity
  8
LAY-10
  6
CONTINUOUS
 62
     7
100
AcDbLine
 10
2398.498484809917
 20
1406.900000000021
 30
0.0
 11
2399.653290004732
 21
1405.745194805207
 31
0.0
  0
LINE
  5
163
330
1F
100
AcDbEntity
  8
LAY-10
  6
CONTINUOUS
 62
     7
100
AcDbLine
 10
2398.498484809924
 20
1406.192893218828
 30
0.0
 11
2399.304328216608
 21
1405.387049812141
 31
0.0
  0
LINE
  5
164
330
1F
100
AcDbEntity
  8
LAY-10
  6
CONTINUOUS
 62
     7
100
AcDbLine
 10
2398.498484809942
 20
1405.485786437624
 30
0.0
 11
2398.955366428499
 21
1405.028904819066
 31
0.0
  0
LINE
  5
165
330
1F
100
AcDbEntity
  8
LAY-10
  6
CONTINUOUS
 62
     7
100
AcDbLine
 10
2398.498484809928
 20
1404.778679656453
 30
0.0
 11
2398.606404640378
 21
1404.670759826002
 31
0.0
  0
LINE
  5
166
330
1F
100
AcDbEntity
  8
LAY-10
  6
CONTINUOUS
 62
     7
100
AcDbLine
 10
2398.498484809931
 20
1429.021320343567
 30
0.0
 11
2398.578855025532
 21
1429.10169055917
 31
0.0
  0
LINE
  5
167
330
1F
100
AcDbEntity
  8
LAY-10
  6
CONTINUOUS
 62
     7
100
AcDbLine
 10
2398.498484809937
 20
1428.314213562387
 30
0.0
 11
2398.9370000186
 21
1428.752728771048
 31
0.0
  0
LINE
  5
168
330
1F
100
AcDbEntity
  8
LAY-10
  6
CONTINUOUS
 62
     7
100
AcDbLine
 10
2398.498484809942
 20
1427.607106781205
 30
0.0
 11
2399.295145011673
 21
1428.403766982937
 31
0.0
  0
LINE
  5
169
330
1F
100
AcDbEntity
  8
LAY-10
  6
CONTINUOUS
 62
     7
100
AcDbLine
 10
2398.498484809924
 20
1426.9
 30
0.0
 11
2399.65329000474
 21
1428.054805194815
 31
0.0
  0
LINE
  5
16A
330
1F
100
AcDbEntity
  8
LAY-10
  6
CONTINUOUS
 62
     7
100
AcDbLine
 10
2399.205591591116
 20
1426.900000000008
 30
0.0
 11
2400.0114349978
 21
1427.705843406694
 31
0.0
  0
LINE
  5
16B
330
1F
100
AcDbEntity
  8
LAY-10
  6
CONTINUOUS
 62
     7
100
AcDbLine
 10
2399.912698372308
 20
1426.900000000014
 30
0.0
 11
2400.369579990877
 21
1427.356881618583
 31
0.0
  0
LINE
  5
16C
330
1F
100
AcDbEntity
  8
LAY-10
  6
CONTINUOUS
 62
     7
100
AcDbLine
 10
2400.619805153478
 20
1426.899999999997
 30
0.0
 11
2400.727724983944
 21
1427.00791983046
 31
0.0
  0
LINE
  5
16D
330
1F
100
AcDbEntity
  8
LAY-10
  6
CONTINUOUS
 62
     7
100
AcDbLine
 10
2398.498484809928
 20
2079.021320343564
 30
0.0
 11
2398.578855025517
 21
2079.101690559153
 31
0.0
  0
LINE
  5
16E
330
1F
100
AcDbEntity
  8
LAY-10
  6
CONTINUOUS
 62
     7
100
AcDbLine
 10
2398.49848480992
 20
2078.314213562372
 30
0.0
 11
2398.937000018593
 21
2078.752728771045
 31
0.0
  0
LINE
  5
16F
330
1F
100
AcDbEntity
  8
LAY-10
  6
CONTINUOUS
 62
     7
100
AcDbLine
 10
2398.498484809937
 20
2077.607106781199
 30
0.0
 11
2399.295145011657
 21
2078.403766982919
 31
0.0
  0
LINE
  5
170
330
1F
100
AcDbEntity
  8
LAY-10
  6
CONTINUOUS
 62
     7
100
AcDbLine
 10
2398.49848480992
 20
2076.899999999994
 30
0.0
 11
2399.653290004721
 21
2078.054805194799
 31
0.0
  0
LINE
  5
171
330
1F
100
AcDbEntity
  8
LAY-10
  6
CONTINUOUS
 62
     7
100
AcDbLine
 10
2399.205591591101
 20
2076.899999999991
 30
0.0
 11
2400.011434997797
 21
2077.705843406688
 31
0.0
  0
LINE
  5
172
330
1F
100
AcDbEntity
  8
LAY-10
  6
CONTINUOUS
 62
     7
100
AcDbLine
 10
2399.912698372294
 20
2076.899999999998
 30
0.0
 11
2400.369579990861
 21
2077.356881618565
 31
0.0
  0
LINE
  5
173
330
1F
100
AcDbEntity
  8
LAY-10
  6
CONTINUOUS
 62
     7
100
AcDbLine
 10
2400.619805153486
 20
2076.900000000002
 30
0.0
 11
2400.727724983951
 21
2077.007919830467
 31
0.0
  0
LINE
  5
174
330
1F
100
AcDbEntity
  8
LAY-10
  6
CONTINUOUS
 62
     7
100
AcDbLine
 10
2400.6198051535
 20
2056.899999999995
 30
0.0
 11
2400.700175369094
 21
2056.819629784404
 31
0.0
  0
LINE
  5
175
330
1F
100
AcDbEntity
  8
LAY-10
  6
CONTINUOUS
 62
     7
100
AcDbLine
 10
2399.912698372308
 20
2056.900000000001
 30
0.0
 11
2400.35121358097
 21
2056.461484791341
 31
0.0
  0
LINE
  5
176
330
1F
100
AcDbEntity
  8
LAY-10
  6
CONTINUOUS
 62
     7
100
AcDbLine
 10
2399.205591591127
 20
2056.899999999998
 30
0.0
 11
2400.002251792846
 21
2056.103339798276
 31
0.0
  0
LINE
  5
177
330
1F
100
AcDbEntity
  8
LAY-10
  6
CONTINUOUS
 62
     7
100
AcDbLine
 10
2398.498484809935
 20
2056.900000000001
 30
0.0
 11
2399.653290004729
 21
2055.745194805212
 31
0.0
  0
LINE
  5
178
330
1F
100
AcDbEntity
  8
LAY-10
  6
CONTINUOUS
 62
     7
100
AcDbLine
 10
2398.49848480994
 20
2056.192893218809
 30
0.0
 11
2399.304328216615
 21
2055.387049812136
 31
0.0
  0
LINE
  5
179
330
1F
100
AcDbEntity
  8
LAY-10
  6
CONTINUOUS
 62
     7
100
AcDbLine
 10
2398.498484809935
 20
2055.485786437628
 30
0.0
 11
2398.955366428493
 21
2055.028904819072
 31
0.0
  0
LINE
  5
17A
330
1F
100
AcDbEntity
  8
LAY-10
  6
CONTINUOUS
 62
     7
100
AcDbLine
 10
2398.498484809931
 20
2054.778679656448
 30
0.0
 11
2398.606404640371
 21
2054.670759826008
 31
0.0
  0
LINE
  5
17B
330
1F
100
AcDbEntity
  8
LAY-10
  6
CONTINUOUS
 62
     7
100
AcDbLine
 10
1783.316361864732
 20
833.9039087604042
 30
0.0
 11
1786.035037849031
 21
836.6225847447032
 31
0.0
  0
LINE
  5
17C
330
1F
100
AcDbEntity
  8
LAY-10
  6
CONTINUOUS
 62
     7
100
AcDbLine
 10
1783.134545210831
 20
832.3078785441039
 30
0.0
 11
1787.984621455931
 21
837.1579547893034
 31
0.0
  0
LINE
  5
17D
330
1F
100
AcDbEntity
  8
LAY-10
  6
CONTINUOUS
 62
     7
100
AcDbLine
 10
1783.447416073532
 20
831.2065358445034
 30
0.0
 11
1789.439517546232
 21
837.1986373172041
 31
0.0
  0
LINE
  5
17E
330
1F
100
AcDbEntity
  8
LAY-10
  6
CONTINUOUS
 62
     7
100
AcDbLine
 10
1787.639319300832
 20
828.3273712599039
 30
0.0
 11
1794.086449083732
 21
834.7745010428034
 31
0.0
  0
LINE
  5
17F
330
1F
100
AcDbEntity
  8
LAY-10
  6
CONTINUOUS
 62
     7
100
AcDbLine
 10
1788.942863118233
 20
828.2167015150035
 30
0.0
 11
1794.550672219231
 21
833.8245106160039
 31
0.0
  0
LINE
  5
180
330
1F
100
AcDbEntity
  8
LAY-10
  6
CONTINUOUS
 62
     7
100
AcDbLine
 10
1790.534251649131
 20
828.393876483504
 30
0.0
 11
1794.727050641332
 21
832.5866754757035
 31
0.0
  0
LINE
  5
181
330
1F
100
AcDbEntity
  8
LAY-10
  6
CONTINUOUS
 62
     7
100
AcDbLine
 10
1783.990535917264
 20
830.3354421258373
 30
0.0
 11
1790.664164655433
 21
837.0090708640038
 31
0.0
  0
LINE
  5
182
330
1F
100
AcDbEntity
  8
LAY-10
  6
CONTINUOUS
 62
     7
100
AcDbLine
 10
1784.69628849247
 20
829.6269811389302
 30
0.0
 11
1791.726179033032
 21
836.6568716792035
 31
0.0
  0
LINE
  5
183
330
1F
100
AcDbEntity
  8
LAY-10
  6
CONTINUOUS
 62
     7
100
AcDbLine
 10
1785.540141800332
 20
829.0566208842092
 30
0.0
 11
1792.650092678232
 21
836.1665717621037
 31
0.0
  0
LINE
  5
184
330
1F
100
AcDbEntity
  8
LAY-10
  6
CONTINUOUS
 62
     7
100
AcDbLine
 10
1786.517301640121
 20
828.6195671615937
 30
0.0
 11
1793.440699791432
 21
835.542965312904
 31
0.0
  0
LINE
  5
185
330
1F
100
AcDbEntity
  8
LAY-10
  6
CONTINUOUS
 62
     7
100
AcDbLine
 10
576.6836381353295
 20
833.9039087604042
 30
0.0
 11
573.9649621510306
 21
836.6225847447032
 31
0.0
  0
LINE
  5
186
330
1F
100
AcDbEntity
  8
LAY-10
  6
CONTINUOUS
 62
     7
100
AcDbLine
 10
576.8654547892291
 20
832.3078785441039
 30
0.0
 11
572.0153785441288
 21
837.1579547893034
 31
0.0
  0
LINE
  5
187
330
1F
100
AcDbEntity
  8
LAY-10
  6
CONTINUOUS
 62
     7
100
AcDbLine
 10
576.55258392653
 20
831.2065358445034
 30
0.0
 11
570.5604824538294
 21
837.1986373172041
 31
0.0
  0
LINE
  5
188
330
1F
100
AcDbEntity
  8
LAY-10
  6
CONTINUOUS
 62
     7
100
AcDbLine
 10
572.3606806992301
 20
828.3273712599039
 30
0.0
 11
565.9135509163297
 21
834.7745010428034
 31
0.0
  0
LINE
  5
189
330
1F
100
AcDbEntity
  8
LAY-10
  6
CONTINUOUS
 62
     7
100
AcDbLine
 10
571.057136881829
 20
828.2167015150035
 30
0.0
 11
565.4493277808305
 21
833.8245106160039
 31
0.0
  0
LINE
  5
18A
330
1F
100
AcDbEntity
  8
LAY-10
  6
CONTINUOUS
 62
     7
100
AcDbLine
 10
569.465748350929
 20
828.393876483504
 30
0.0
 11
565.2729493587302
 21
832.5866754757035
 31
0.0
  0
LINE
  5
18B
330
1F
100
AcDbEntity
  8
LAY-10
  6
CONTINUOUS
 62
     7
100
AcDbLine
 10
576.00946408283
 20
830.3354421258036
 30
0.0
 11
569.3358353446384
 21
837.009070863995
 31
0.0
  0
LINE
  5
18C
330
1F
100
AcDbEntity
  8
LAY-10
  6
CONTINUOUS
 62
     7
100
AcDbLine
 10
575.3037115074293
 20
829.6269811388038
 30
0.0
 11
568.2738209672247
 21
836.6568716793267
 31
0.0
  0
LINE
  5
18D
330
1F
100
AcDbEntity
  8
LAY-10
  6
CONTINUOUS
 62
     7
100
AcDbLine
 10
574.4598581997305
 20
829.0566208842038
 30
0.0
 11
567.3499073216436
 21
836.1665717619749
 31
0.0
  0
LINE
  5
18E
330
1F
100
AcDbEntity
  8
LAY-10
  6
CONTINUOUS
 62
     7
100
AcDbLine
 10
573.4826983599304
 20
828.6195671616033
 30
0.0
 11
566.5593002086197
 21
835.5429653129113
 31
0.0
  0
LINE
  5
18F
330
1F
100
AcDbEntity
  8
LAY-10
  6
CONTINUOUS
 62
     7
100
AcDbLine
 10
2389.594576049528
 20
2045.216361864706
 30
0.0
 11
2386.875900065229
 21
2047.935037849008
 31
0.0
  0
LINE
  5
190
330
1F
100
AcDbEntity
  8
LAY-10
  6
CONTINUOUS
 62
     7
100
AcDbLine
 10
2391.190606265828
 20
2045.034545210808
 30
0.0
 11
2386.34053002063
 21
2049.884621455908
 31
0.0
  0
LINE
  5
191
330
1F
100
AcDbEntity
  8
LAY-10
  6
CONTINUOUS
 62
     7
100
AcDbLine
 10
2392.291948965431
 20
2045.347416073507
 30
0.0
 11
2386.299847492731
 21
2051.339517546206
 31
0.0
  0
LINE
  5
192
330
1F
100
AcDbEntity
  8
LAY-10
  6
CONTINUOUS
 62
     7
100
AcDbLine
 10
2395.171113550029
 20
2049.539319300807
 30
0.0
 11
2388.72398376713
 21
2055.986449083707
 31
0.0
  0
LINE
  5
193
330
1F
100
AcDbEntity
  8
LAY-10
  6
CONTINUOUS
 62
     7
100
AcDbLine
 10
2395.28178329493
 20
2050.842863118208
 30
0.0
 11
2389.673974193928
 21
2056.450672219206
 31
0.0
  0
LINE
  5
194
330
1F
100
AcDbEntity
  8
LAY-10
  6
CONTINUOUS
 62
     7
100
AcDbLine
 10
2395.104608326427
 20
2052.434251649107
 30
0.0
 11
2390.91180933423
 21
2056.627050641307
 31
0.0
  0
LINE
  5
195
330
1F
100
AcDbEntity
  8
LAY-10
  6
CONTINUOUS
 62
     7
100
AcDbLine
 10
2393.16304268413
 20
2045.890535917208
 30
0.0
 11
2386.489413945937
 21
2052.564164655395
 31
0.0
  0
LINE
  5
196
330
1F
100
AcDbEntity
  8
LAY-10
  6
CONTINUOUS
 62
     7
100
AcDbLine
 10
2393.87150367113
 20
2046.596288492608
 30
0.0
 11
2386.841613130607
 21
2053.626179032812
 31
0.0
  0
LINE
  5
197
330
1F
100
AcDbEntity
  8
LAY-10
  6
CONTINUOUS
 62
     7
100
AcDbLine
 10
2394.441863925728
 20
2047.440141800308
 30
0.0
 11
2387.331913047956
 21
2054.55009267839
 31
0.0
  0
LINE
  5
198
330
1F
100
AcDbEntity
  8
LAY-10
  6
CONTINUOUS
 62
     7
100
AcDbLine
 10
2394.878917648331
 20
2048.417301640108
 30
0.0
 11
2387.955519497019
 21
2055.340699791415
 31
0.0
  0
LINE
  5
199
330
1F
100
AcDbEntity
  8
LAY-10
  6
CONTINUOUS
 62
     7
100
AcDbLine
 10
2389.594576049528
 20
1438.583638135308
 30
0.0
 11
2386.875900065229
 21
1435.864962151008
 31
0.0
  0
LINE
  5
19A
330
1F
100
AcDbEntity
  8
LAY-10
  6
CONTINUOUS
 62
     7
100
AcDbLine
 10
2391.190606265828
 20
1438.765454789208
 30
0.0
 11
2386.34053002063
 21
1433.915378544109
 31
0.0
  0
LINE
  5
19B
330
1F
100
AcDbEntity
  8
LAY-10
  6
CONTINUOUS
 62
     7
100
AcDbLine
 10
2392.291948965431
 20
1438.452583926508
 30
0.0
 11
2386.299847492731
 21
1432.460482453808
 31
0.0
  0
LINE
  5
19C
330
1F
100
AcDbEntity
  8
LAY-10
  6
CONTINUOUS
 62
     7
100
AcDbLine
 10
2395.171113550029
 20
1434.260680699208
 30
0.0
 11
2388.72398376713
 21
1427.813550916308
 31
0.0
  0
LINE
  5
19D
330
1F
100
AcDbEntity
  8
LAY-10
  6
CONTINUOUS
 62
     7
100
AcDbLine
 10
2395.28178329493
 20
1432.957136881808
 30
0.0
 11
2389.673974193928
 21
1427.349327780807
 31
0.0
  0
LINE
  5
19E
330
1F
100
AcDbEntity
  8
LAY-10
  6
CONTINUOUS
 62
     7
100
AcDbLine
 10
2395.104608326427
 20
1431.365748350908
 30
0.0
 11
2390.91180933423
 21
1427.172949358708
 31
0.0
  0
LINE
  5
19F
330
1F
100
AcDbEntity
  8
LAY-10
  6
CONTINUOUS
 62
     7
100
AcDbLine
 10
2393.163042684097
 20
1437.909464082775
 30
0.0
 11
2386.489413945929
 21
1431.235835344608
 31
0.0
  0
LINE
  5
1A0
330
1F
100
AcDbEntity
  8
LAY-10
  6
CONTINUOUS
 62
     7
100
AcDbLine
 10
2393.871503671007
 20
1437.203711507567
 30
0.0
 11
2386.841613130729
 21
1430.173820967008
 31
0.0
  0
LINE
  5
1A1
330
1F
100
AcDbEntity
  8
LAY-10
  6
CONTINUOUS
 62
     7
100
AcDbLine
 10
2394.441863925725
 20
1436.359858199709
 30
0.0
 11
2387.331913047831
 21
1429.249907321808
 31
0.0
  0
LINE
  5
1A2
330
1F
100
AcDbEntity
  8
LAY-10
  6
CONTINUOUS
 62
     7
100
AcDbLine
 10
2394.878917648341
 20
1435.382698359917
 30
0.0
 11
2387.955519497028
 21
1428.459300208609
 31
0.0
  0
DIMENSION
  5
1A4
330
1F
100
AcDbEntity
  8
LAY-10
  6
CONTINUOUS
 62
     4
100
AcDbDimension
  2
*D15
 10
1779.99999999998
 20
695.0
 30
0.0
 11
1180.00000000001
 21
720.0
 31
0.0
 70
   160
  3
ISO-25
100
AcDbAlignedDimension
 13
580.0000000000401
 23
831.0000000000247
 33
0.0
 14
1779.99999999998
 24
831.0000000000247
 34
0.0
100
AcDbRotatedDimension
1001
ACAD
1000
DSTYLE
1002
{
1070
   270
1070
     2
1070
     6
1000
EX_BNORM
1070
     7
1000
EX_BNORM
1070
    41
1040
25.0
1070
    42
1040
17.99999952316284
1070
    44
1040
15.0
1070
    73
1070
     0
1070
    74
1070
     0
1070
    75
1070
     0
1070
    76
1070
     0
1070
    77
1070
     1
1070
    78
1070
     8
1070
   140
1040
31.181104
1070
   147
1040
0.0
1070
   173
1070
     1
1070
   176
1070
     4
1070
   177
1070
     4
1070
   178
1070
     7
1070
   271
1070
     1
1070
   277
1070
     2
1070
   279
1070
     2
1070
   280
1070
     0
1070
   287
1070
     5
1070
   340
1005
1A3
1002
}
  0
DIMENSION
  5
1B2
330
1F
100
AcDbEntity
  8
LAY-10
  6
CONTINUOUS
 62
     4
100
AcDbDimension
  2
*D16
 10
1834.99999999998
 20
1160.0
 30
0.0
 11
1180.000000000005
 21
1185.0
 31
0.0
 70
   160
  3
ISO-25
100
AcDbAlignedDimension
 13
525.00000000003
 23
989.9999999999764
 33
0.0
 14
1834.99999999998
 24
989.9999999999764
 34
0.0
100
AcDbRotatedDimension
1001
ACAD
1000
DSTYLE
1002
{
1070
   270
1070
     2
1070
     6
1000
EX_BNORM
1070
     7
1000
EX_BNORM
1070
    41
1040
25.0
1070
    42
1040
15.0
1070
    44
1040
15.0
1070
    73
1070
     0
1070
    74
1070
     0
1070
    75
1070
     0
1070
    76
1070
     0
1070
    77
1070
     1
1070
    78
1070
     8
1070
   140
1040
31.181104
1070
   147
1040
0.0
1070
   173
1070
     1
1070
   176
1070
     4
1070
   177
1070
     4
1070
   178
1070
     7
1070
   271
1070
     1
1070
   277
1070
     2
1070
   279
1070
     2
1070
   280
1070
     0
1070
   287
1070
     5
1070
   340
1005
1A3
1002
}
  0
DIMENSION
  5
1BF
330
1F
100
AcDbEntity
  8
LAY-10
  6
CONTINUOUS
 62
     4
100
AcDbDimension
  2
*D17
 10
965.8333333333611
 20
1090.0
 30
0.0
 11
753.3333333333612
 21
1115.0
 31
0.0
 70
   160
  3
ISO-25
100
AcDbAlignedDimension
 13
540.8333333333612
 23
990.0000000000036
 33
0.0
 14
965.8333333333611
 24
990.0000000000036
 34
0.0
100
AcDbRotatedDimension
1001
ACAD
1000
DSTYLE
1002
{
1070
   270
1070
     2
1070
     6
1000
EX_BNORM
1070
     7
1000
EX_BNORM
1070
    41
1040
25.0
1070
    42
1040
15.0
1070
    44
1040
15.0
1070
    73
1070
     0
1070
    74
1070
     0
1070
    75
1070
     0
1070
    76
1070
     0
1070
    77
1070
     1
1070
    78
1070
     8
1070
   140
1040
31.181104
1070
   147
1040
0.0
1070
   173
1070
     1
1070
   176
1070
     4
1070
   177
1070
     4
1070
   178
1070
     7
1070
   271
1070
     1
1070
   277
1070
     2
1070
   279
1070
     2
1070
   280
1070
     0
1070
   287
1070
     5
1070
   340
1005
1A3
1002
}
  0
DIMENSION
  5
1CC
330
1F
100
AcDbEntity
  8
LAY-10
  6
CONTINUOUS
 62
     4
100
AcDbDimension
  2
*D18
 10
1970.0
 20
824.9999999999764
 30
0.0
 11
1945.0
 21
907.4999999999761
 31
0.0
 70
   160
  3
ISO-25
100
AcDbAlignedDimension
 13
1834.99999999998
 23
989.9999999999764
 33
0.0
 14
1823.19999999998
 24
824.9999999999764
 34
0.0
 50
90.0
100
AcDbRotatedDimension
1001
ACAD
1000
DSTYLE
1002
{
1070
   270
1070
     2
1070
     6
1000
EX_BNORM
1070
     7
1000
EX_BNORM
1070
    41
1040
25.0
1070
    42
1040
15.0
1070
    44
1040
15.0
1070
    73
1070
     0
1070
    74
1070
     0
1070
    75
1070
     0
1070
    76
1070
     0
1070
    77
1070
     1
1070
    78
1070
     8
1070
   140
1040
31.181104
1070
   147
1040
0.0
1070
   173
1070
     1
1070
   176
1070
     4
1070
   177
1070
     4
1070
   178
1070
     7
1070
   271
1070
     1
1070
   277
1070
     2
1070
   279
1070
     2
1070
   280
1070
     0
1070
   287
1070
     5
1070
   340
1005
1A3
1002
}
  0
DIMENSION
  5
1D9
330
1F
100
AcDbEntity
  8
LAY-10
  6
CONTINUOUS
 62
     4
100
AcDbDimension
  2
*D19
 10
2063.4984848099
 20
1349.899999999976
 30
0.0
 11
2038.4984848099
 21
1741.899999999991
 31
0.0
 70
   160
  3
ISO-25
100
AcDbAlignedDimension
 13
2233.49848480998
 23
2133.900000000006
 33
0.0
 14
2233.49848480998
 24
1349.899999999976
 34
0.0
 50
90.0
100
AcDbRotatedDimension
1001
ACAD
1000
DSTYLE
1002
{
1070
   270
1070
     2
1070
     6
1000
EX_BNORM
1070
     7
1000
EX_BNORM
1070
    41
1040
25.0
1070
    42
1040
15.0
1070
    44
1040
15.0
1070
    73
1070
     0
1070
    74
1070
     0
1070
    75
1070
     0
1070
    76
1070
     0
1070
    77
1070
     1
1070
    78
1070
     8
1070
   140
1040
31.181104
1070
   147
1040
0.0
1070
   173
1070
     1
1070
   176
1070
     4
1070
   177
1070
     4
1070
   178
1070
     7
1070
   271
1070
     1
1070
   277
1070
     2
1070
   279
1070
     2
1070
   280
1070
     0
1070
   287
1070
     5
1070
   340
1005
1A3
1002
}
  0
DIMENSION
  5
1E6
330
1F
100
AcDbEntity
  8
LAY-10
  6
CONTINUOUS
 62
     4
100
AcDbDimension
  2
*D20
 10
2133.4984848099
 20
2117.900000000056
 30
0.0
 11
2108.4984848099
 21
1741.900000000056
 31
0.0
 70
   160
  3
ISO-25
100
AcDbAlignedDimension
 13
2233.498484809911
 23
1365.900000000055
 33
0.0
 14
2233.498484809911
 24
2117.900000000056
 34
0.0
 50
90.0
100
AcDbRotatedDimension
1001
ACAD
1000
DSTYLE
1002
{
1070
   270
1070
     2
1070
     6
1000
EX_BNORM
1070
     7
1000
EX_BNORM
1070
    41
1040
25.0
1070
    42
1040
15.0
1070
    44
1040
15.0
1070
    73
1070
     0
1070
    74
1070
     0
1070
    75
1070
     0
1070
    76
1070
     0
1070
    77
1070
     1
1070
    78
1070
     8
1070
   140
1040
31.181104
1070
   147
1040
0.0
1070
   173
1070
     1
1070
   176
1070
     4
1070
   177
1070
     4
1070
   178
1070
     7
1070
   271
1070
     1
1070
   277
1070
     2
1070
   279
1070
     2
1070
   280
1070
     0
1070
   287
1070
     5
1070
   340
1005
1A3
1002
}
  0
DIMENSION
  5
1F3
330
1F
100
AcDbEntity
  8
LAY-10
  6
CONTINUOUS
 62
     4
100
AcDbDimension
  2
*D21
 10
2528.4984848099
 20
1441.900000000076
 30
0.0
 11
2503.4984848099
 21
1741.900000000021
 31
0.0
 70
   160
  3
ISO-25
100
AcDbAlignedDimension
 13
2428.49848480998
 23
2041.899999999966
 33
0.0
 14
2428.49848480998
 24
1441.900000000076
 34
0.0
 50
90.0
100
AcDbRotatedDimension
1001
ACAD
1000
DSTYLE
1002
{
1070
   270
1070
     2
1070
     6
1000
EX_BNORM
1070
     7
1000
EX_BNORM
1070
    41
1040
25.0
1070
    42
1040
15.0
1070
    44
1040
15.0
1070
    73
1070
     0
1070
    74
1070
     0
1070
    75
1070
     0
1070
    76
1070
     0
1070
    77
1070
     1
1070
    78
1070
     8
1070
   140
1040
31.181104
1070
   147
1040
0.0
1070
   173
1070
     1
1070
   176
1070
     4
1070
   177
1070
     4
1070
   178
1070
     7
1070
   271
1070
     1
1070
   277
1070
     2
1070
   279
1070
     2
1070
   280
1070
     0
1070
   287
1070
     5
1070
   340
1005
1A3
1002
}
  0
LINE
  5
200
330
1F
100
AcDbEntity
  8
LAY-10
  6
CONTINUOUS
 62
     7
100
AcDbLine
 10
2346.698484809892
 20
2108.485786437599
 30
0.0
 11
2348.112698372283
 21
2109.899999999991
 31
0.0
  0
LINE
  5
201
330
1F
100
AcDbEntity
  8
LAY-10
  6
CONTINUOUS
 62
     7
100
AcDbLine
 10
2346.698484809903
 20
2107.071572875235
 30
0.0
 11
2348.698484809919
 21
2109.071572875251
 31
0.0
  0
LINE
  5
202
330
1F
100
AcDbEntity
  8
LAY-10
  6
CONTINUOUS
 62
     7
100
AcDbLine
 10
2346.698484809894
 20
2105.657359312852
 30
0.0
 11
2348.69848480991
 21
2107.657359312871
 31
0.0
  0
LINE
  5
203
330
1F
100
AcDbEntity
  8
LAY-10
  6
CONTINUOUS
 62
     7
100
AcDbLine
 10
2346.698484809905
 20
2104.24314575049
 30
0.0
 11
2348.698484809901
 21
2106.243145750487
 31
0.0
  0
LINE
  5
204
330
1F
100
AcDbEntity
  8
LAY-10
  6
CONTINUOUS
 62
     7
100
AcDbLine
 10
2346.698484809895
 20
2102.828932188109
 30
0.0
 11
2348.698484809911
 21
2104.828932188123
 31
0.0
  0
LINE
  5
205
330
1F
100
AcDbEntity
  8
LAY-10
  6
CONTINUOUS
 62
     7
100
AcDbLine
 10
2346.698484809905
 20
2101.414718625745
 30
0.0
 11
2348.698484809901
 21
2103.414718625741
 31
0.0
  0
LINE
  5
206
330
1F
100
AcDbEntity
  8
LAY-10
  6
CONTINUOUS
 62
     7
100
AcDbLine
 10
2346.698484809896
 20
2100.000505063363
 30
0.0
 11
2348.698484809912
 21
2102.000505063379
 31
0.0
  0
LINE
  5
207
330
1F
100
AcDbEntity
  8
LAY-10
  6
CONTINUOUS
 62
     7
100
AcDbLine
 10
2346.698484809906
 20
2098.586291501
 30
0.0
 11
2348.698484809903
 21
2100.586291500997
 31
0.0
  0
LINE
  5
208
330
1F
100
AcDbEntity
  8
LAY-10
  6
CONTINUOUS
 62
     7
100
AcDbLine
 10
2346.698484809898
 20
2097.172077938619
 30
0.0
 11
2348.698484809913
 21
2099.172077938634
 31
0.0
  0
LINE
  5
209
330
1F
100
AcDbEntity
  8
LAY-10
  6
CONTINUOUS
 62
     7
100
AcDbLine
 10
2346.698484809888
 20
2095.757864376235
 30
0.0
 11
2348.698484809904
 21
2097.757864376254
 31
0.0
  0
LINE
  5
20A
330
1F
100
AcDbEntity
  8
LAY-10
  6
CONTINUOUS
 62
     7
100
AcDbLine
 10
2346.698484809899
 20
2094.343650813873
 30
0.0
 11
2348.698484809915
 21
2096.343650813889
 31
0.0
  0
LINE
  5
20B
330
1F
100
AcDbEntity
  8
LAY-10
  6
CONTINUOUS
 62
     7
100
AcDbLine
 10
2346.698484809889
 20
2092.929437251492
 30
0.0
 11
2348.698484809905
 21
2094.929437251506
 31
0.0
  0
LINE
  5
20C
330
1F
100
AcDbEntity
  8
LAY-10
  6
CONTINUOUS
 62
     7
100
AcDbLine
 10
2346.6984848099
 20
2091.515223689128
 30
0.0
 11
2348.698484809916
 21
2093.515223689144
 31
0.0
  0
LINE
  5
20D
330
1F
100
AcDbEntity
  8
LAY-10
  6
CONTINUOUS
 62
     7
100
AcDbLine
 10
2346.698484809891
 20
2090.101010126746
 30
0.0
 11
2348.698484809907
 21
2092.101010126763
 31
0.0
  0
LINE
  5
20E
330
1F
100
AcDbEntity
  8
LAY-10
  6
CONTINUOUS
 62
     7
100
AcDbLine
 10
2346.698484809902
 20
2088.686796564383
 30
0.0
 11
2348.698484809898
 21
2090.686796564379
 31
0.0
  0
LINE
  5
20F
330
1F
100
AcDbEntity
  8
LAY-10
  6
CONTINUOUS
 62
     7
100
AcDbLine
 10
2346.698484809893
 20
2087.272583002003
 30
0.0
 11
2348.698484809908
 21
2089.272583002017
 31
0.0
  0
LINE
  5
210
330
1F
100
AcDbEntity
  8
LAY-10
  6
CONTINUOUS
 62
     7
100
AcDbLine
 10
2346.698484809902
 20
2085.85836943964
 30
0.0
 11
2348.698484809898
 21
2087.858369439636
 31
0.0
  0
LINE
  5
211
330
1F
100
AcDbEntity
  8
LAY-10
  6
CONTINUOUS
 62
     7
100
AcDbLine
 10
2347.15432893262
 20
2084.899999999983
 30
0.0
 11
2348.69848480991
 21
2086.444155877272
 31
0.0
  0
LINE
  5
212
330
1F
100
AcDbEntity
  8
LAY-10
  6
CONTINUOUS
 62
     7
100
AcDbLine
 10
2348.568542495002
 20
2084.899999999992
 30
0.0
 11
2348.6984848099
 21
2085.02994231489
 31
0.0
  0
LINE
  5
213
330
1F
100
AcDbEntity
  8
LAY-10
  6
CONTINUOUS
 62
     7
100
AcDbLine
 10
2346.698484809892
 20
1375.31421356236
 30
0.0
 11
2348.112698372283
 21
1373.89999999997
 31
0.0
  0
LINE
  5
214
330
1F
100
AcDbEntity
  8
LAY-10
  6
CONTINUOUS
 62
     7
100
AcDbLine
 10
2346.698484809903
 20
1376.728427124725
 30
0.0
 11
2348.698484809919
 21
1374.728427124708
 31
0.0
  0
LINE
  5
215
330
1F
100
AcDbEntity
  8
LAY-10
  6
CONTINUOUS
 62
     7
100
AcDbLine
 10
2346.698484809894
 20
1378.142640687106
 30
0.0
 11
2348.69848480991
 21
1376.14264068709
 31
0.0
  0
LINE
  5
216
330
1F
100
AcDbEntity
  8
LAY-10
  6
CONTINUOUS
 62
     7
100
AcDbLine
 10
2346.698484809905
 20
1379.556854249469
 30
0.0
 11
2348.698484809901
 21
1377.556854249473
 31
0.0
  0
LINE
  5
217
330
1F
100
AcDbEntity
  8
LAY-10
  6
CONTINUOUS
 62
     7
100
AcDbLine
 10
2346.698484809895
 20
1380.971067811851
 30
0.0
 11
2348.698484809911
 21
1378.971067811835
 31
0.0
  0
LINE
  5
218
330
1F
100
AcDbEntity
  8
LAY-10
  6
CONTINUOUS
 62
     7
100
AcDbLine
 10
2346.698484809905
 20
1382.385281374215
 30
0.0
 11
2348.698484809901
 21
1380.385281374218
 31
0.0
  0
LINE
  5
219
330
1F
100
AcDbEntity
  8
LAY-10
  6
CONTINUOUS
 62
     7
100
AcDbLine
 10
2346.698484809896
 20
1383.799494936597
 30
0.0
 11
2348.698484809912
 21
1381.799494936581
 31
0.0
  0
LINE
  5
21A
330
1F
100
AcDbEntity
  8
LAY-10
  6
CONTINUOUS
 62
     7
100
AcDbLine
 10
2346.698484809906
 20
1385.213708498958
 30
0.0
 11
2348.698484809903
 21
1383.213708498962
 31
0.0
  0
LINE
  5
21B
330
1F
100
AcDbEntity
  8
LAY-10
  6
CONTINUOUS
 62
     7
100
AcDbLine
 10
2346.698484809898
 20
1386.627922061341
 30
0.0
 11
2348.698484809913
 21
1384.627922061325
 31
0.0
  0
LINE
  5
21C
330
1F
100
AcDbEntity
  8
LAY-10
  6
CONTINUOUS
 62
     7
100
AcDbLine
 10
2346.698484809888
 20
1388.042135623723
 30
0.0
 11
2348.698484809904
 21
1386.042135623707
 31
0.0
  0
LINE
  5
21D
330
1F
100
AcDbEntity
  8
LAY-10
  6
CONTINUOUS
 62
     7
100
AcDbLine
 10
2346.698484809899
 20
1389.456349186085
 30
0.0
 11
2348.698484809915
 21
1387.45634918607
 31
0.0
  0
LINE
  5
21E
330
1F
100
AcDbEntity
  8
LAY-10
  6
CONTINUOUS
 62
     7
100
AcDbLine
 10
2346.698484809889
 20
1390.870562748467
 30
0.0
 11
2348.698484809905
 21
1388.870562748452
 31
0.0
  0
LINE
  5
21F
330
1F
100
AcDbEntity
  8
LAY-10
  6
CONTINUOUS
 62
     7
100
AcDbLine
 10
2346.6984848099
 20
1392.284776310831
 30
0.0
 11
2348.698484809916
 21
1390.284776310815
 31
0.0
  0
LINE
  5
220
330
1F
100
AcDbEntity
  8
LAY-10
  6
CONTINUOUS
 62
     7
100
AcDbLine
 10
2346.698484809891
 20
1393.698989873213
 30
0.0
 11
2348.698484809907
 21
1391.698989873197
 31
0.0
  0
LINE
  5
221
330
1F
100
AcDbEntity
  8
LAY-10
  6
CONTINUOUS
 62
     7
100
AcDbLine
 10
2346.698484809902
 20
1395.113203435576
 30
0.0
 11
2348.698484809898
 21
1393.113203435579
 31
0.0
  0
LINE
  5
222
330
1F
100
AcDbEntity
  8
LAY-10
  6
CONTINUOUS
 62
     7
100
AcDbLine
 10
2346.698484809893
 20
1396.527416997958
 30
0.0
 11
2348.698484809908
 21
1394.527416997942
 31
0.0
  0
LINE
  5
223
330
1F
100
AcDbEntity
  8
LAY-10
  6
CONTINUOUS
 62
     7
100
AcDbLine
 10
2346.698484809902
 20
1397.94163056032
 30
0.0
 11
2348.698484809898
 21
1395.941630560324
 31
0.0
  0
LINE
  5
224
330
1F
100
AcDbEntity
  8
LAY-10
  6
CONTINUOUS
 62
     7
100
AcDbLine
 10
2347.15432893262
 20
1398.899999999976
 30
0.0
 11
2348.69848480991
 21
1397.355844122687
 31
0.0
  0
LINE
  5
225
330
1F
100
AcDbEntity
  8
LAY-10
  6
CONTINUOUS
 62
     7
100
AcDbLine
 10
2348.568542495002
 20
1398.899999999967
 30
0.0
 11
2348.6984848099
 21
1398.770057685069
 31
0.0
  0
LINE
  5
226
330
1F
100
AcDbEntity
  8
LAY-10
  6
CONTINUOUS
 62
     7
100
AcDbLine
 10
540.8333333333613
 20
989.9999999999973
 30
0.0
 11
540.8333333333613
 21
974.9999999999986
 31
0.0
  0
LINE
  5
227
330
1F
100
AcDbEntity
  8
LAY-10
  6
CONTINUOUS
 62
     7
100
AcDbLine
 10
540.8333333333613
 20
974.9999999999986
 30
0.0
 11
543.8333333333604
 21
974.9999999999986
 31
0.0
  0
LINE
  5
228
330
1F
100
AcDbEntity
  8
LAY-10
  6
CONTINUOUS
 62
     7
100
AcDbLine
 10
540.8333333333613
 20
989.9999999999973
 30
0.0
 11
965.8333333333613
 21
989.9999999999973
 31
0.0
  0
LINE
  5
229
330
1F
100
AcDbEntity
  8
LAY-10
  6
CONTINUOUS
 62
     7
100
AcDbLine
 10
965.8333333333613
 20
989.9999999999973
 30
0.0
 11
965.8333333333613
 21
974.9999999999986
 31
0.0
  0
LINE
  5
22A
330
1F
100
AcDbEntity
  8
LAY-10
  6
CONTINUOUS
 62
     7
100
AcDbLine
 10
965.8333333333613
 20
974.9999999999986
 30
0.0
 11
962.8333333333615
 21
974.9999999999986
 31
0.0
  0
ARC
  5
22B
330
1F
100
AcDbEntity
  8
LAY-10
  6
CONTINUOUS
 62
     7
100
AcDbCircle
 10
2286.198484809857
 20
2105.399999999962
 30
0.0
 40
4.5
100
AcDbArc
 50
180.0
 51
270.0000000000002
  0
LINE
  5
22C
330
1F
100
AcDbEntity
  8
LAY-10
  6
CONTINUOUS
 62
     7
100
AcDbLine
 10
2346.698484809858
 20
2106.899999999962
 30
0.0
 11
2281.698484809857
 21
2106.899999999962
 31
0.0
  0
LINE
  5
22D
330
1F
100
AcDbEntity
  8
LAY-10
  6
CONTINUOUS
 62
     7
100
AcDbLine
 10
2334.198484809857
 20
2100.899999999962
 30
0.0
 11
2281.698484809857
 21
2100.899999999962
 31
0.0
  0
ARC
  5
22E
330
1F
100
AcDbEntity
  8
LAY-10
  6
CONTINUOUS
 62
     7
100
AcDbCircle
 10
2334.198484809857
 20
2094.399999999962
 30
0.0
 40
6.500000000000004
100
AcDbArc
 50
0.0
 51
90.00000000000001
  0
ARC
  5
22F
330
1F
100
AcDbEntity
  8
LAY-10
  6
CONTINUOUS
 62
     7
100
AcDbCircle
 10
2345.198484809857
 20
2046.399999999962
 30
0.0
 40
4.5
100
AcDbArc
 50
180.0
 51
270.0000000000002
  0
LINE
  5
230
330
1F
100
AcDbEntity
  8
LAY-10
  6
CONTINUOUS
 62
     7
100
AcDbLine
 10
2346.698484809858
 20
2041.899999999962
 30
0.0
 11
2345.198484809857
 21
2041.899999999962
 31
0.0
  0
ARC
  5
231
330
1F
100
AcDbEntity
  8
LAY-10
  6
CONTINUOUS
 62
     7
100
AcDbCircle
 10
2286.198484809857
 20
1378.399999999962
 30
0.0
 40
4.5
100
AcDbArc
 50
90.00000000000001
 51
180.0
  0
LINE
  5
232
330
1F
100
AcDbEntity
  8
LAY-10
  6
CONTINUOUS
 62
     7
100
AcDbLine
 10
2346.698484809858
 20
1376.899999999961
 30
0.0
 11
2281.698484809857
 21
1376.899999999961
 31
0.0
  0
LINE
  5
233
330
1F
100
AcDbEntity
  8
LAY-10
  6
CONTINUOUS
 62
     7
100
AcDbLine
 10
2334.198484809857
 20
1382.899999999961
 30
0.0
 11
2281.698484809857
 21
1382.899999999961
 31
0.0
  0
ARC
  5
234
330
1F
100
AcDbEntity
  8
LAY-10
  6
CONTINUOUS
 62
     7
100
AcDbCircle
 10
2334.198484809857
 20
1389.399999999961
 30
0.0
 40
6.500000000000004
100
AcDbArc
 50
270.0000000000002
 51
0.0
  0
ARC
  5
235
330
1F
100
AcDbEntity
  8
LAY-10
  6
CONTINUOUS
 62
     7
100
AcDbCircle
 10
2345.198484809857
 20
1437.399999999962
 30
0.0
 40
4.5
100
AcDbArc
 50
90.00000000000001
 51
180.0
  0
LINE
  5
236
330
1F
100
AcDbEntity
  8
LAY-10
  6
CONTINUOUS
 62
     7
100
AcDbLine
 10
2345.198484809857
 20
1441.899999999959
 30
0.0
 11
2346.698484809858
 21
1441.899999999959
 31
0.0
  0
LINE
  5
237
330
1F
100
AcDbEntity
  8
LAY-10
  6
CONTINUOUS
 62
     7
100
AcDbLine
 10
2340.698484809859
 20
1389.399999999961
 30
0.0
 11
2340.698484809858
 21
2094.399999999962
 31
0.0
  0
LINE
  5
238
330
1F
100
AcDbEntity
  8
LAY-10
  6
CONTINUOUS
 62
     7
100
AcDbLine
 10
967.5000000000014
 20
989.9999999999973
 30
0.0
 11
967.5000000000014
 21
974.9999999999986
 31
0.0
  0
LINE
  5
239
330
1F
100
AcDbEntity
  8
LAY-10
  6
CONTINUOUS
 62
     7
100
AcDbLine
 10
967.5000000000014
 20
974.9999999999986
 30
0.0
 11
970.5000000000005
 21
974.9999999999986
 31
0.0
  0
LINE
  5
23A
330
1F
100
AcDbEntity
  8
LAY-10
  6
CONTINUOUS
 62
     7
100
AcDbLine
 10
967.5000000000014
 20
989.9999999999973
 30
0.0
 11
1392.500000000001
 21
989.9999999999973
 31
0.0
  0
LINE
  5
23B
330
1F
100
AcDbEntity
  8
LAY-10
  6
CONTINUOUS
 62
     7
100
AcDbLine
 10
1392.500000000001
 20
989.9999999999973
 30
0.0
 11
1392.500000000001
 21
974.9999999999986
 31
0.0
  0
LINE
  5
23C
330
1F
100
AcDbEntity
  8
LAY-10
  6
CONTINUOUS
 62
     7
100
AcDbLine
 10
1392.500000000001
 20
974.9999999999986
 30
0.0
 11
1389.500000000001
 21
974.9999999999986
 31
0.0
  0
LINE
  5
23D
330
1F
100
AcDbEntity
  8
LAY-10
  6
CONTINUOUS
 62
     7
100
AcDbLine
 10
1394.166666666701
 20
989.9999999999973
 30
0.0
 11
1394.166666666701
 21
974.9999999999986
 31
0.0
  0
LINE
  5
23E
330
1F
100
AcDbEntity
  8
LAY-10
  6
CONTINUOUS
 62
     7
100
AcDbLine
 10
1394.166666666701
 20
974.9999999999986
 30
0.0
 11
1397.1666666667
 21
974.9999999999986
 31
0.0
  0
LINE
  5
23F
330
1F
100
AcDbEntity
  8
LAY-10
  6
CONTINUOUS
 62
     7
100
AcDbLine
 10
1394.166666666701
 20
989.9999999999973
 30
0.0
 11
1819.166666666702
 21
989.9999999999973
 31
0.0
  0
LINE
  5
240
330
1F
100
AcDbEntity
  8
LAY-10
  6
CONTINUOUS
 62
     7
100
AcDbLine
 10
1819.166666666702
 20
989.9999999999973
 30
0.0
 11
1819.166666666702
 21
974.9999999999986
 31
0.0
  0
LINE
  5
241
330
1F
100
AcDbEntity
  8
LAY-10
  6
CONTINUOUS
 62
     7
100
AcDbLine
 10
1819.166666666702
 20
974.9999999999986
 30
0.0
 11
1816.166666666701
 21
974.9999999999986
 31
0.0
  0
LINE
  5
242
330
1F
100
AcDbEntity
  8
LAY-10
  6
HIDDEN
 62
     7
100
AcDbLine
 10
1095.500000000118
 20
1362.700000000051
 30
0.0
 11
1095.50000000012
 21
1398.808633541091
 31
0.0
  0
LINE
  5
243
330
1F
100
AcDbEntity
  8
LAY-10
  6
HIDDEN
 62
     7
100
AcDbLine
 10
1064.50000000012
 20
1362.700000000051
 30
0.0
 11
1064.50000000012
 21
1398.70000000005
 31
0.0
  0
LINE
  5
244
330
1F
100
AcDbEntity
  8
LAY-10
  6
HIDDEN
 62
     7
100
AcDbLine
 10
1064.50000000012
 20
1362.700000000051
 30
0.0
 11
1095.500000000118
 21
1362.700000000051
 31
0.0
  0
LINE
  5
245
330
1F
100
AcDbEntity
  8
LAY-10
  6
CONTINUOUS
 62
     7
100
AcDbLine
 10
1166.9666666668
 20
1517.233333333293
 30
0.0
 11
1167.9666666668
 21
1516.233333333293
 31
0.0
  0
LINE
  5
246
330
1F
100
AcDbEntity
  8
LAY-10
  6
CONTINUOUS
 62
     7
100
AcDbLine
 10
1820.000000000109
 20
2118.900000000007
 30
0.0
 11
1835.000000000111
 21
2133.900000000007
 31
0.0
  0
LINE
  5
247
330
1F
100
AcDbEntity
  8
LAY-10
  6
CONTINUOUS
 62
     7
100
AcDbLine
 10
525.000000000131
 20
2133.900000000007
 30
0.0
 11
540.000000000131
 21
2118.900000000007
 31
0.0
  0
LINE
  5
248
330
1F
100
AcDbEntity
  8
LAY-10
  6
CONTINUOUS
 62
     7
100
AcDbLine
 10
525.000000000131
 20
2133.900000000007
 30
0.0
 11
1835.000000000111
 21
2133.900000000007
 31
0.0
  0
LINE
  5
249
330
1F
100
AcDbEntity
  8
LAY-10
  6
CONTINUOUS
 62
     7
100
AcDbLine
 10
1820.000000000109
 20
2118.900000000007
 30
0.0
 11
540.000000000131
 21
2118.900000000007
 31
0.0
  0
LINE
  5
24A
330
1F
100
AcDbEntity
  8
LAY-10
  6
CONTINUOUS
 62
     7
100
AcDbLine
 10
1820.000000000109
 20
1364.900000000006
 30
0.0
 11
1835.000000000111
 21
1349.900000000007
 31
0.0
  0
LINE
  5
24B
330
1F
100
AcDbEntity
  8
LAY-10
  6
CONTINUOUS
 62
     7
100
AcDbLine
 10
540.000000000131
 20
1364.900000000006
 30
0.0
 11
525.000000000131
 21
1349.900000000006
 31
0.0
  0
LINE
  5
24C
330
1F
100
AcDbEntity
  8
LAY-10
  6
CONTINUOUS
 62
     7
100
AcDbLine
 10
1820.000000000109
 20
1364.900000000004
 30
0.0
 11
540.000000000131
 21
1364.900000000006
 31
0.0
  0
LINE
  5
24D
330
1F
100
AcDbEntity
  8
LAY-10
  6
CONTINUOUS
 62
     7
100
AcDbLine
 10
525.000000000131
 20
1349.900000000006
 30
0.0
 11
1835.000000000111
 21
1349.900000000004
 31
0.0
  0
LINE
  5
24E
330
1F
100
AcDbEntity
  8
LAY-10
  6
CONTINUOUS
 62
     7
100
AcDbLine
 10
1820.000000000109
 20
2118.900000000007
 30
0.0
 11
1820.000000000109
 21
1364.900000000004
 31
0.0
  0
LINE
  5
24F
330
1F
100
AcDbEntity
  8
LAY-10
  6
CONTINUOUS
 62
     7
100
AcDbLine
 10
1835.000000000111
 20
1349.900000000006
 30
0.0
 11
1835.000000000111
 21
2133.900000000007
 31
0.0
  0
LINE
  5
250
330
1F
100
AcDbEntity
  8
LAY-10
  6
CONTINUOUS
 62
     7
100
AcDbLine
 10
540.000000000131
 20
1364.900000000006
 30
0.0
 11
540.000000000131
 21
2118.900000000007
 31
0.0
  0
LINE
  5
251
330
1F
100
AcDbEntity
  8
LAY-10
  6
CONTINUOUS
 62
     7
100
AcDbLine
 10
525.000000000131
 20
1349.900000000006
 30
0.0
 11
525.000000000131
 21
2133.900000000007
 31
0.0
  0
LINE
  5
252
330
1F
100
AcDbEntity
  8
LAY-10
  6
CONTINUOUS
 62
     7
100
AcDbLine
 10
540.8333333334594
 20
2117.899999999904
 30
0.0
 11
555.8333333334594
 21
2102.899999999904
 31
0.0
  0
LINE
  5
253
330
1F
100
AcDbEntity
  8
LAY-10
  6
CONTINUOUS
 62
     7
100
AcDbLine
 10
555.8333333334594
 20
1380.899999999906
 30
0.0
 11
540.8333333334613
 21
1365.899999999906
 31
0.0
  0
LINE
  5
254
330
1F
100
AcDbEntity
  8
LAY-10
  6
CONTINUOUS
 62
     7
100
AcDbLine
 10
555.8333333334613
 20
2102.899999999904
 30
0.0
 11
555.8333333334594
 21
1380.899999999904
 31
0.0
  0
LINE
  5
255
330
1F
100
AcDbEntity
  8
LAY-10
  6
CONTINUOUS
 62
     7
100
AcDbLine
 10
540.8333333334594
 20
2117.899999999904
 30
0.0
 11
540.8333333334594
 21
1365.899999999904
 31
0.0
  0
LINE
  5
256
330
1F
100
AcDbEntity
  8
LAY-10
  6
CONTINUOUS
 62
     7
100
AcDbLine
 10
965.8333333334612
 20
2117.899999999904
 30
0.0
 11
950.8333333334612
 21
2102.899999999904
 31
0.0
  0
LINE
  5
257
330
1F
100
AcDbEntity
  8
LAY-10
  6
CONTINUOUS
 62
     7
100
AcDbLine
 10
965.8333333334593
 20
1365.899999999906
 30
0.0
 11
950.8333333334593
 21
1380.899999999906
 31
0.0
  0
LINE
  5
258
330
1F
100
AcDbEntity
  8
LAY-10
  6
CONTINUOUS
 62
     7
100
AcDbLine
 10
965.8333333334593
 20
1365.899999999904
 30
0.0
 11
965.8333333334593
 21
2117.899999999906
 31
0.0
  0
LINE
  5
259
330
1F
100
AcDbEntity
  8
LAY-10
  6
CONTINUOUS
 62
     7
100
AcDbLine
 10
950.8333333334612
 20
2102.899999999904
 30
0.0
 11
950.833333333463
 21
1380.899999999909
 31
0.0
  0
LINE
  5
25A
330
1F
100
AcDbEntity
  8
LAY-10
  6
CONTINUOUS
 62
     7
100
AcDbLine
 10
950.8333333334612
 20
2102.899999999904
 30
0.0
 11
555.8333333334594
 21
2102.899999999904
 31
0.0
  0
LINE
  5
25B
330
1F
100
AcDbEntity
  8
LAY-10
  6
CONTINUOUS
 62
     7
100
AcDbLine
 10
965.8333333334593
 20
2117.899999999906
 30
0.0
 11
540.8333333334594
 21
2117.899999999904
 31
0.0
  0
LINE
  5
25C
330
1F
100
AcDbEntity
  8
LAY-10
  6
CONTINUOUS
 62
     7
100
AcDbLine
 10
540.8333333334594
 20
1365.899999999904
 30
0.0
 11
965.8333333334593
 21
1365.899999999904
 31
0.0
  0
LINE
  5
25D
330
1F
100
AcDbEntity
  8
LAY-10
  6
CONTINUOUS
 62
     7
100
AcDbLine
 10
950.8333333334593
 20
1380.899999999909
 30
0.0
 11
555.8333333334594
 21
1380.899999999908
 31
0.0
  0
LINE
  5
25E
330
1F
100
AcDbEntity
  8
LAY-10
  6
CONTINUOUS
 62
     7
100
AcDbLine
 10
673.3333333334483
 20
1380.899999999904
 30
0.0
 11
673.3333333334502
 21
2102.89999999991
 31
0.0
  0
LINE
  5
25F
330
1F
100
AcDbEntity
  8
LAY-10
  6
CONTINUOUS
 62
     7
100
AcDbLine
 10
665.8333333334483
 20
1380.899999999904
 30
0.0
 11
665.8333333334502
 21
2102.89999999991
 31
0.0
  0
LINE
  5
260
330
1F
100
AcDbEntity
  8
LAY-10
  6
CONTINUOUS
 62
     7
100
AcDbLine
 10
640.8333333334483
 20
1380.899999999904
 30
0.0
 11
640.8333333334483
 21
2102.89999999991
 31
0.0
  0
LINE
  5
261
330
1F
100
AcDbEntity
  8
LAY-10
  6
CONTINUOUS
 62
     7
100
AcDbLine
 10
633.3333333334484
 20
1380.899999999904
 30
0.0
 11
633.3333333334484
 21
2102.89999999991
 31
0.0
  0
LINE
  5
262
330
1F
100
AcDbEntity
  8
LAY-10
  6
CONTINUOUS
 62
     7
100
AcDbLine
 10
833.3333333334684
 20
1380.899999999909
 30
0.0
 11
833.3333333334703
 21
2102.89999999991
 31
0.0
  0
LINE
  5
263
330
1F
100
AcDbEntity
  8
LAY-10
  6
CONTINUOUS
 62
     7
100
AcDbLine
 10
840.8333333334703
 20
1380.899999999909
 30
0.0
 11
840.8333333334703
 21
2102.89999999991
 31
0.0
  0
LINE
  5
264
330
1F
100
AcDbEntity
  8
LAY-10
  6
CONTINUOUS
 62
     7
100
AcDbLine
 10
865.8333333334703
 20
1380.899999999909
 30
0.0
 11
865.8333333334703
 21
2102.89999999991
 31
0.0
  0
LINE
  5
265
330
1F
100
AcDbEntity
  8
LAY-10
  6
CONTINUOUS
 62
     7
100
AcDbLine
 10
873.3333333334703
 20
1380.899999999909
 30
0.0
 11
873.3333333334703
 21
2102.89999999991
 31
0.0
  0
LINE
  5
266
330
1F
100
AcDbEntity
  8
LAY-10
  6
CONTINUOUS
 62
     7
100
AcDbLine
 10
967.500000000129
 20
2117.899999999904
 30
0.0
 11
982.5000000001309
 21
2102.899999999904
 31
0.0
  0
LINE
  5
267
330
1F
100
AcDbEntity
  8
LAY-10
  6
CONTINUOUS
 62
     7
100
AcDbLine
 10
982.5000000001309
 20
1380.899999999906
 30
0.0
 11
967.5000000001309
 21
1365.899999999906
 31
0.0
  0
LINE
  5
268
330
1F
100
AcDbEntity
  8
LAY-10
  6
CONTINUOUS
 62
     7
100
AcDbLine
 10
982.5000000001309
 20
2102.899999999904
 30
0.0
 11
982.500000000129
 21
1380.899999999904
 31
0.0
  0
LINE
  5
269
330
1F
100
AcDbEntity
  8
LAY-10
  6
CONTINUOUS
 62
     7
100
AcDbLine
 10
967.5000000001309
 20
2117.899999999904
 30
0.0
 11
967.5000000001309
 21
1365.899999999904
 31
0.0
  0
LINE
  5
26A
330
1F
100
AcDbEntity
  8
LAY-10
  6
CONTINUOUS
 62
     7
100
AcDbLine
 10
1817.000000000131
 20
1404.899999999936
 30
0.0
 11
1817.000000000131
 21
2078.899999999936
 31
0.0
  0
LINE
  5
26B
330
1F
100
AcDbEntity
  8
LAY-10
  6
CONTINUOUS
 62
     7
100
AcDbLine
 10
1679.000000000109
 20
1791.899999999981
 30
0.0
 11
1641.000000000109
 21
1791.899999999983
 31
0.0
  0
LINE
  5
26C
330
1F
100
AcDbEntity
  8
LAY-10
  6
CONTINUOUS
 62
     7
100
AcDbLine
 10
1669.000000000107
 20
1816.899999999983
 30
0.0
 11
1669.000000000107
 21
1796.899999999983
 31
0.0
  0
LINE
  5
26D
330
1F
100
AcDbEntity
  8
LAY-10
  6
CONTINUOUS
 62
     7
100
AcDbLine
 10
1694.70000000011
 20
1816.899999999983
 30
0.0
 11
1669.000000000107
 21
1816.899999999983
 31
0.0
  0
LINE
  5
26E
330
1F
100
AcDbEntity
  8
LAY-10
  6
CONTINUOUS
 62
     7
100
AcDbLine
 10
1679.000000000109
 20
1826.899999999981
 30
0.0
 11
1679.000000000109
 21
1816.899999999983
 31
0.0
  0
LINE
  5
26F
330
1F
100
AcDbEntity
  8
LAY-10
  6
CONTINUOUS
 62
     7
100
AcDbLine
 10
1694.70000000011
 20
1816.899999999983
 30
0.0
 11
1694.70000000011
 21
1796.899999999983
 31
0.0
  0
LINE
  5
270
330
1F
100
AcDbEntity
  8
LAY-10
  6
CONTINUOUS
 62
     7
100
AcDbLine
 10
1694.70000000011
 20
1796.899999999983
 30
0.0
 11
1669.000000000107
 21
1796.899999999983
 31
0.0
  0
LINE
  5
271
330
1F
100
AcDbEntity
  8
LAY-10
  6
CONTINUOUS
 62
     7
100
AcDbLine
 10
1685.000000000109
 20
1791.899999999981
 30
0.0
 11
1685.000000000109
 21
1796.899999999983
 31
0.0
  0
ARC
  5
272
330
1F
100
AcDbEntity
  8
LAY-10
  6
CONTINUOUS
 62
     7
100
AcDbCircle
 10
1679.000000000109
 20
1791.899999999981
 30
0.0
 40
6.000000000000005
100
AcDbArc
 50
270.0000000000002
 51
0.0
  0
LINE
  5
273
330
1F
100
AcDbEntity
  8
LAY-10
  6
CONTINUOUS
 62
     7
100
AcDbLine
 10
1679.000000000109
 20
1785.899999999984
 30
0.0
 11
1641.000000000109
 21
1785.899999999984
 31
0.0
  0
ARC
  5
274
330
1F
100
AcDbEntity
  8
LAY-10
  6
CONTINUOUS
 62
     7
100
AcDbCircle
 10
1641.000000000109
 20
1785.899999999984
 30
0.0
 40
6.000000000000005
100
AcDbArc
 50
90.00000000000001
 51
180.0
  0
LINE
  5
275
330
1F
100
AcDbEntity
  8
LAY-10
  6
CONTINUOUS
 62
     7
100
AcDbLine
 10
1679.000000000109
 20
1697.899999999981
 30
0.0
 11
1641.000000000109
 21
1697.899999999983
 31
0.0
  0
LINE
  5
276
330
1F
100
AcDbEntity
  8
LAY-10
  6
CONTINUOUS
 62
     7
100
AcDbLine
 10
1679.000000000109
 20
1691.899999999981
 30
0.0
 11
1641.000000000109
 21
1691.899999999983
 31
0.0
  0
ARC
  5
277
330
1F
100
AcDbEntity
  8
LAY-10
  6
CONTINUOUS
 62
     7
100
AcDbCircle
 10
1641.000000000109
 20
1697.899999999983
 30
0.0
 40
6.000000000000005
100
AcDbArc
 50
180.0
 51
270.0000000000002
  0
ARC
  5
278
330
1F
100
AcDbEntity
  8
LAY-10
  6
CONTINUOUS
 62
     7
100
AcDbCircle
 10
1679.000000000109
 20
1691.899999999981
 30
0.0
 40
6.000000000000005
100
AcDbArc
 50
0.0
 51
90.00000000000001
  0
LINE
  5
279
330
1F
100
AcDbEntity
  8
LAY-10
  6
CONTINUOUS
 62
     7
100
AcDbLine
 10
1679.000000000109
 20
1656.899999999982
 30
0.0
 11
1679.000000000109
 21
1666.899999999981
 31
0.0
  0
LINE
  5
27A
330
1F
100
AcDbEntity
  8
LAY-10
  6
CONTINUOUS
 62
     7
100
AcDbLine
 10
1685.000000000109
 20
1691.899999999981
 30
0.0
 11
1685.000000000109
 21
1686.899999999983
 31
0.0
  0
LINE
  5
27B
330
1F
100
AcDbEntity
  8
LAY-10
  6
CONTINUOUS
 62
     7
100
AcDbLine
 10
1694.70000000011
 20
1686.899999999983
 30
0.0
 11
1669.000000000107
 21
1686.899999999983
 31
0.0
  0
LINE
  5
27C
330
1F
100
AcDbEntity
  8
LAY-10
  6
CONTINUOUS
 62
     7
100
AcDbLine
 10
1669.000000000107
 20
1666.899999999981
 30
0.0
 11
1669.000000000107
 21
1686.899999999983
 31
0.0
  0
LINE
  5
27D
330
1F
100
AcDbEntity
  8
LAY-10
  6
CONTINUOUS
 62
     7
100
AcDbLine
 10
1694.70000000011
 20
1666.899999999981
 30
0.0
 11
1669.000000000107
 21
1666.899999999981
 31
0.0
  0
LINE
  5
27E
330
1F
100
AcDbEntity
  8
LAY-10
  6
CONTINUOUS
 62
     7
100
AcDbLine
 10
1685.000000000109
 20
1656.899999999982
 30
0.0
 11
1679.000000000109
 21
1656.899999999982
 31
0.0
  0
LINE
  5
27F
330
1F
100
AcDbEntity
  8
LAY-10
  6
CONTINUOUS
 62
     7
100
AcDbLine
 10
1686.000000000109
 20
1686.899999999983
 30
0.0
 11
1686.000000000109
 21
1666.899999999981
 31
0.0
  0
LINE
  5
280
330
1F
100
AcDbEntity
  8
LAY-10
  6
CONTINUOUS
 62
     7
100
AcDbLine
 10
1686.000000000109
 20
1796.899999999983
 30
0.0
 11
1686.000000000109
 21
1816.899999999983
 31
0.0
  0
LINE
  5
281
330
1F
100
AcDbEntity
  8
LAY-10
  6
CONTINUOUS
 62
     7
100
AcDbLine
 10
1678.000000000106
 20
1816.899999999983
 30
0.0
 11
1678.000000000106
 21
1796.899999999983
 31
0.0
  0
LINE
  5
282
330
1F
100
AcDbEntity
  8
LAY-10
  6
CONTINUOUS
 62
     7
100
AcDbLine
 10
1678.000000000106
 20
1686.899999999983
 30
0.0
 11
1678.000000000106
 21
1666.899999999981
 31
0.0
  0
LINE
  5
283
330
1F
100
AcDbEntity
  8
LAY-10
  6
CONTINUOUS
 62
     7
100
AcDbLine
 10
1694.70000000011
 20
1686.899999999983
 30
0.0
 11
1694.70000000011
 21
1666.899999999981
 31
0.0
  0
LINE
  5
284
330
1F
100
AcDbEntity
  8
LAY-10
  6
CONTINUOUS
 62
     7
100
AcDbLine
 10
1679.000000000109
 20
1796.899999999983
 30
0.0
 11
1679.000000000109
 21
1791.899999999981
 31
0.0
  0
LINE
  5
285
330
1F
100
AcDbEntity
  8
LAY-10
  6
CONTINUOUS
 62
     7
100
AcDbLine
 10
1685.000000000109
 20
1816.899999999983
 30
0.0
 11
1685.000000000109
 21
1826.899999999981
 31
0.0
  0
LINE
  5
286
330
1F
100
AcDbEntity
  8
LAY-10
  6
CONTINUOUS
 62
     7
100
AcDbLine
 10
1679.000000000109
 20
1686.899999999983
 30
0.0
 11
1679.000000000109
 21
1691.899999999981
 31
0.0
  0
LINE
  5
287
330
1F
100
AcDbEntity
  8
LAY-10
  6
CONTINUOUS
 62
     7
100
AcDbLine
 10
1635.000000000109
 20
1697.899999999976
 30
0.0
 11
1635.000000000109
 21
1785.899999999984
 31
0.0
  0
LINE
  5
288
330
1F
100
AcDbEntity
  8
LAY-10
  6
CONTINUOUS
 62
     7
100
AcDbLine
 10
1641.000000000109
 20
1697.899999999976
 30
0.0
 11
1641.000000000109
 21
1785.899999999984
 31
0.0
  0
LINE
  5
289
330
1F
100
AcDbEntity
  8
LAY-10
  6
CONTINUOUS
 62
     7
100
AcDbLine
 10
1175.500000000111
 20
1349.899999999827
 30
0.0
 11
1175.500000000111
 21
1321.00151518999
 31
0.0
  0
LINE
  5
28A
330
1F
100
AcDbEntity
  8
LAY-10
  6
CONTINUOUS
 62
     7
100
AcDbLine
 10
1184.500000000111
 20
1349.899999999827
 30
0.0
 11
1184.500000000111
 21
1321.00151518999
 31
0.0
  0
LINE
  5
28B
330
1F
100
AcDbEntity
  8
LAY-10
  6
CONTINUOUS
 62
     7
100
AcDbLine
 10
1175.500000000111
 20
1321.00151518999
 30
0.0
 11
1184.500000000111
 21
1321.00151518999
 31
0.0
  0
LINE
  5
28C
330
1F
100
AcDbEntity
  8
LAY-10
  6
CONTINUOUS
 62
     7
100
AcDbLine
 10
684.500000000109
 20
1349.899999999827
 30
0.0
 11
684.500000000109
 21
1321.00151518999
 31
0.0
  0
LINE
  5
28D
330
1F
100
AcDbEntity
  8
LAY-10
  6
CONTINUOUS
 62
     7
100
AcDbLine
 10
675.500000000109
 20
1349.899999999827
 30
0.0
 11
675.500000000109
 21
1321.00151518999
 31
0.0
  0
LINE
  5
28E
330
1F
100
AcDbEntity
  8
LAY-10
  6
CONTINUOUS
 62
     7
100
AcDbLine
 10
684.500000000109
 20
1321.00151518999
 30
0.0
 11
675.500000000109
 21
1321.00151518999
 31
0.0
  0
LINE
  5
28F
330
1F
100
AcDbEntity
  8
LAY-10
  6
CONTINUOUS
 62
     7
100
AcDbLine
 10
1675.500000000051
 20
1349.899999999827
 30
0.0
 11
1675.500000000051
 21
1321.00151518999
 31
0.0
  0
LINE
  5
290
330
1F
100
AcDbEntity
  8
LAY-10
  6
CONTINUOUS
 62
     7
100
AcDbLine
 10
1684.500000000051
 20
1349.899999999827
 30
0.0
 11
1684.500000000051
 21
1321.00151518999
 31
0.0
  0
LINE
  5
291
330
1F
100
AcDbEntity
  8
LAY-10
  6
CONTINUOUS
 62
     7
100
AcDbLine
 10
1675.500000000051
 20
1321.00151518999
 30
0.0
 11
1684.500000000051
 21
1321.00151518999
 31
0.0
  0
LINE
  5
292
330
1F
100
AcDbEntity
  8
LAY-10
  6
CONTINUOUS
 62
     7
100
AcDbLine
 10
1175.500000000111
 20
2133.900000000023
 30
0.0
 11
1175.500000000111
 21
2162.79848480986
 31
0.0
  0
LINE
  5
293
330
1F
100
AcDbEntity
  8
LAY-10
  6
CONTINUOUS
 62
     7
100
AcDbLine
 10
1184.500000000111
 20
2133.900000000023
 30
0.0
 11
1184.500000000111
 21
2162.79848480986
 31
0.0
  0
LINE
  5
294
330
1F
100
AcDbEntity
  8
LAY-10
  6
CONTINUOUS
 62
     7
100
AcDbLine
 10
1175.500000000111
 20
2162.79848480986
 30
0.0
 11
1184.500000000111
 21
2162.79848480986
 31
0.0
  0
LINE
  5
295
330
1F
100
AcDbEntity
  8
LAY-10
  6
CONTINUOUS
 62
     7
100
AcDbLine
 10
684.500000000109
 20
2133.900000000023
 30
0.0
 11
684.500000000109
 21
2162.79848480986
 31
0.0
  0
LINE
  5
296
330
1F
100
AcDbEntity
  8
LAY-10
  6
CONTINUOUS
 62
     7
100
AcDbLine
 10
675.500000000109
 20
2133.900000000023
 30
0.0
 11
675.500000000109
 21
2162.79848480986
 31
0.0
  0
LINE
  5
297
330
1F
100
AcDbEntity
  8
LAY-10
  6
CONTINUOUS
 62
     7
100
AcDbLine
 10
684.500000000109
 20
2162.79848480986
 30
0.0
 11
675.500000000109
 21
2162.79848480986
 31
0.0
  0
LINE
  5
298
330
1F
100
AcDbEntity
  8
LAY-10
  6
CONTINUOUS
 62
     7
100
AcDbLine
 10
1675.500000000051
 20
2133.900000000023
 30
0.0
 11
1675.500000000051
 21
2162.79848480986
 31
0.0
  0
LINE
  5
299
330
1F
100
AcDbEntity
  8
LAY-10
  6
CONTINUOUS
 62
     7
100
AcDbLine
 10
1684.500000000051
 20
2133.900000000023
 30
0.0
 11
1684.500000000051
 21
2162.79848480986
 31
0.0
  0
LINE
  5
29A
330
1F
100
AcDbEntity
  8
LAY-10
  6
CONTINUOUS
 62
     7
100
AcDbLine
 10
1675.500000000051
 20
2162.79848480986
 30
0.0
 11
1684.500000000051
 21
2162.79848480986
 31
0.0
  0
LINE
  5
29B
330
1F
100
AcDbEntity
  8
LAY-10
  6
CONTINUOUS
 62
     7
100
AcDbLine
 10
1834.999999999978
 20
1987.399999999857
 30
0.0
 11
1863.898484809815
 21
1987.399999999857
 31
0.0
  0
LINE
  5
29C
330
1F
100
AcDbEntity
  8
LAY-10
  6
CONTINUOUS
 62
     7
100
AcDbLine
 10
1834.999999999978
 20
1996.399999999858
 30
0.0
 11
1863.898484809815
 21
1996.399999999858
 31
0.0
  0
LINE
  5
29D
330
1F
100
AcDbEntity
  8
LAY-10
  6
CONTINUOUS
 62
     7
100
AcDbLine
 10
1863.898484809815
 20
1987.399999999857
 30
0.0
 11
1863.898484809815
 21
1996.399999999858
 31
0.0
  0
LINE
  5
29E
330
1F
100
AcDbEntity
  8
LAY-10
  6
CONTINUOUS
 62
     7
100
AcDbLine
 10
1834.999999999978
 20
1496.399999999895
 30
0.0
 11
1863.898484809815
 21
1496.399999999895
 31
0.0
  0
LINE
  5
29F
330
1F
100
AcDbEntity
  8
LAY-10
  6
CONTINUOUS
 62
     7
100
AcDbLine
 10
1834.999999999978
 20
1487.399999999894
 30
0.0
 11
1863.898484809815
 21
1487.399999999894
 31
0.0
  0
LINE
  5
2A0
330
1F
100
AcDbEntity
  8
LAY-10
  6
CONTINUOUS
 62
     7
100
AcDbLine
 10
1863.898484809815
 20
1496.399999999895
 30
0.0
 11
1863.898484809815
 21
1487.399999999894
 31
0.0
  0
CIRCLE
  5
2A1
330
1F
100
AcDbEntity
  8
LAY-10
  6
CONTINUOUS
 62
     7
100
AcDbCircle
 10
1805.000000000153
 20
1416.899999999924
 30
0.0
 40
10.50000000000041
  0
CIRCLE
  5
2A2
330
1F
100
AcDbEntity
  8
LAY-10
  6
CONTINUOUS
 62
     7
100
AcDbCircle
 10
1805.000000000153
 20
1416.899999999924
 30
0.0
 40
8.66025403784441
  0
LINE
  5
2A3
330
1F
100
AcDbEntity
  8
LAY-10
  6
CONTINUOUS
 62
     7
100
AcDbLine
 10
1796.339745962308
 20
1421.899999999924
 30
0.0
 11
1796.339745962308
 21
1411.899999999925
 31
0.0
  0
LINE
  5
2A4
330
1F
100
AcDbEntity
  8
LAY-10
  6
CONTINUOUS
 62
     7
100
AcDbLine
 10
1796.339745962308
 20
1411.899999999925
 30
0.0
 11
1805.000000000153
 21
1406.899999999924
 31
0.0
  0
LINE
  5
2A5
330
1F
100
AcDbEntity
  8
LAY-10
  6
CONTINUOUS
 62
     7
100
AcDbLine
 10
1805.000000000153
 20
1406.899999999924
 30
0.0
 11
1813.660254037997
 21
1411.899999999925
 31
0.0
  0
LINE
  5
2A6
330
1F
100
AcDbEntity
  8
LAY-10
  6
CONTINUOUS
 62
     7
100
AcDbLine
 10
1813.660254037997
 20
1421.899999999924
 30
0.0
 11
1805.000000000153
 21
1426.899999999925
 31
0.0
  0
LINE
  5
2A7
330
1F
100
AcDbEntity
  8
LAY-10
  6
CONTINUOUS
 62
     7
100
AcDbLine
 10
1805.000000000153
 20
1426.899999999925
 30
0.0
 11
1796.339745962308
 21
1421.899999999924
 31
0.0
  0
CIRCLE
  5
2A8
330
1F
100
AcDbEntity
  8
LAY-10
  6
CONTINUOUS
 62
     7
100
AcDbCircle
 10
1805.000000000153
 20
1416.899999999924
 30
0.0
 40
5.0
  0
CIRCLE
  5
2A9
330
1F
100
AcDbEntity
  8
LAY-10
  6
CONTINUOUS
 62
     7
100
AcDbCircle
 10
1805.000000000153
 20
1416.899999999924
 30
0.0
 40
4.0
  0
LINE
  5
2AA
330
1F
100
AcDbEntity
  8
LAY-10
  6
CONTINUOUS
 62
     7
100
AcDbLine
 10
1813.660254037997
 20
1411.899999999925
 30
0.0
 11
1813.660254037997
 21
1421.899999999924
 31
0.0
  0
CIRCLE
  5
2AB
330
1F
100
AcDbEntity
  8
LAY-10
  6
CONTINUOUS
 62
     7
100
AcDbCircle
 10
1805.000000000109
 20
1741.899999999854
 30
0.0
 40
10.50000000000041
  0
CIRCLE
  5
2AC
330
1F
100
AcDbEntity
  8
LAY-10
  6
CONTINUOUS
 62
     7
100
AcDbCircle
 10
1805.000000000109
 20
1741.899999999854
 30
0.0
 40
8.66025403784441
  0
LINE
  5
2AD
330
1F
100
AcDbEntity
  8
LAY-10
  6
CONTINUOUS
 62
     7
100
AcDbLine
 10
1813.660254037954
 20
1746.899999999854
 30
0.0
 11
1813.660254037954
 21
1736.899999999855
 31
0.0
  0
LINE
  5
2AE
330
1F
100
AcDbEntity
  8
LAY-10
  6
CONTINUOUS
 62
     7
100
AcDbLine
 10
1813.660254037954
 20
1736.899999999855
 30
0.0
 11
1805.000000000109
 21
1731.899999999854
 31
0.0
  0
LINE
  5
2AF
330
1F
100
AcDbEntity
  8
LAY-10
  6
CONTINUOUS
 62
     7
100
AcDbLine
 10
1805.000000000109
 20
1731.899999999854
 30
0.0
 11
1796.339745962267
 21
1736.899999999855
 31
0.0
  0
LINE
  5
2B0
330
1F
100
AcDbEntity
  8
LAY-10
  6
CONTINUOUS
 62
     7
100
AcDbLine
 10
1796.339745962267
 20
1746.899999999854
 30
0.0
 11
1805.000000000109
 21
1751.899999999855
 31
0.0
  0
LINE
  5
2B1
330
1F
100
AcDbEntity
  8
LAY-10
  6
CONTINUOUS
 62
     7
100
AcDbLine
 10
1805.000000000109
 20
1751.899999999855
 30
0.0
 11
1813.660254037954
 21
1746.899999999854
 31
0.0
  0
CIRCLE
  5
2B2
330
1F
100
AcDbEntity
  8
LAY-10
  6
CONTINUOUS
 62
     7
100
AcDbCircle
 10
1805.000000000109
 20
1741.899999999854
 30
0.0
 40
5.0
  0
CIRCLE
  5
2B3
330
1F
100
AcDbEntity
  8
LAY-10
  6
CONTINUOUS
 62
     7
100
AcDbCircle
 10
1805.000000000109
 20
1741.899999999854
 30
0.0
 40
4.0
  0
LINE
  5
2B4
330
1F
100
AcDbEntity
  8
LAY-10
  6
CONTINUOUS
 62
     7
100
AcDbLine
 10
1796.339745962267
 20
1736.899999999855
 30
0.0
 11
1796.339745962267
 21
1746.899999999854
 31
0.0
  0
CIRCLE
  5
2B5
330
1F
100
AcDbEntity
  8
LAY-10
  6
CONTINUOUS
 62
     7
100
AcDbCircle
 10
1805.000000000153
 20
2066.899999999904
 30
0.0
 40
10.50000000000041
  0
CIRCLE
  5
2B6
330
1F
100
AcDbEntity
  8
LAY-10
  6
CONTINUOUS
 62
     7
100
AcDbCircle
 10
1805.000000000153
 20
2066.899999999904
 30
0.0
 40
8.66025403784441
  0
LINE
  5
2B7
330
1F
100
AcDbEntity
  8
LAY-10
  6
CONTINUOUS
 62
     7
100
AcDbLine
 10
1796.339745962308
 20
2071.899999999904
 30
0.0
 11
1796.339745962308
 21
2061.899999999905
 31
0.0
  0
LINE
  5
2B8
330
1F
100
AcDbEntity
  8
LAY-10
  6
CONTINUOUS
 62
     7
100
AcDbLine
 10
1796.339745962308
 20
2061.899999999905
 30
0.0
 11
1805.000000000153
 21
2056.899999999904
 31
0.0
  0
LINE
  5
2B9
330
1F
100
AcDbEntity
  8
LAY-10
  6
CONTINUOUS
 62
     7
100
AcDbLine
 10
1805.000000000153
 20
2056.899999999904
 30
0.0
 11
1813.660254037997
 21
2061.899999999905
 31
0.0
  0
LINE
  5
2BA
330
1F
100
AcDbEntity
  8
LAY-10
  6
CONTINUOUS
 62
     7
100
AcDbLine
 10
1813.660254037997
 20
2071.899999999904
 30
0.0
 11
1805.000000000153
 21
2076.899999999905
 31
0.0
  0
LINE
  5
2BB
330
1F
100
AcDbEntity
  8
LAY-10
  6
CONTINUOUS
 62
     7
100
AcDbLine
 10
1805.000000000153
 20
2076.899999999905
 30
0.0
 11
1796.339745962308
 21
2071.899999999904
 31
0.0
  0
CIRCLE
  5
2BC
330
1F
100
AcDbEntity
  8
LAY-10
  6
CONTINUOUS
 62
     7
100
AcDbCircle
 10
1805.000000000153
 20
2066.899999999904
 30
0.0
 40
5.0
  0
CIRCLE
  5
2BD
330
1F
100
AcDbEntity
  8
LAY-10
  6
CONTINUOUS
 62
     7
100
AcDbCircle
 10
1805.000000000153
 20
2066.899999999904
 30
0.0
 40
4.0
  0
LINE
  5
2BE
330
1F
100
AcDbEntity
  8
LAY-10
  6
CONTINUOUS
 62
     7
100
AcDbLine
 10
1813.660254037997
 20
2061.899999999905
 30
0.0
 11
1813.660254037997
 21
2071.899999999904
 31
0.0
  0
CIRCLE
  5
2BF
330
1F
100
AcDbEntity
  8
LAY-10
  6
CONTINUOUS
 62
     7
100
AcDbCircle
 10
1388.333333333554
 20
1416.89999999981
 30
0.0
 40
10.50000000000041
  0
CIRCLE
  5
2C0
330
1F
100
AcDbEntity
  8
LAY-10
  6
CONTINUOUS
 62
     7
100
AcDbCircle
 10
1388.333333333554
 20
1416.89999999981
 30
0.0
 40
8.66025403784441
  0
LINE
  5
2C1
330
1F
100
AcDbEntity
  8
LAY-10
  6
CONTINUOUS
 62
     7
100
AcDbLine
 10
1379.67307929571
 20
1411.89999999981
 30
0.0
 11
1379.67307929571
 21
1421.89999999981
 31
0.0
  0
LINE
  5
2C2
330
1F
100
AcDbEntity
  8
LAY-10
  6
CONTINUOUS
 62
     7
100
AcDbLine
 10
1379.67307929571
 20
1421.89999999981
 30
0.0
 11
1388.333333333554
 21
1426.89999999981
 31
0.0
  0
LINE
  5
2C3
330
1F
100
AcDbEntity
  8
LAY-10
  6
CONTINUOUS
 62
     7
100
AcDbLine
 10
1388.333333333554
 20
1426.89999999981
 30
0.0
 11
1396.993587371397
 21
1421.89999999981
 31
0.0
  0
LINE
  5
2C4
330
1F
100
AcDbEntity
  8
LAY-10
  6
CONTINUOUS
 62
     7
100
AcDbLine
 10
1396.993587371397
 20
1411.89999999981
 30
0.0
 11
1388.333333333554
 21
1406.89999999981
 31
0.0
  0
LINE
  5
2C5
330
1F
100
AcDbEntity
  8
LAY-10
  6
CONTINUOUS
 62
     7
100
AcDbLine
 10
1388.333333333554
 20
1406.89999999981
 30
0.0
 11
1379.67307929571
 21
1411.89999999981
 31
0.0
  0
CIRCLE
  5
2C6
330
1F
100
AcDbEntity
  8
LAY-10
  6
CONTINUOUS
 62
     7
100
AcDbCircle
 10
1388.333333333554
 20
1416.89999999981
 30
0.0
 40
5.0
  0
CIRCLE
  5
2C7
330
1F
100
AcDbEntity
  8
LAY-10
  6
CONTINUOUS
 62
     7
100
AcDbCircle
 10
1388.333333333554
 20
1416.89999999981
 30
0.0
 40
4.0
  0
LINE
  5
2C8
330
1F
100
AcDbEntity
  8
LAY-10
  6
CONTINUOUS
 62
     7
100
AcDbLine
 10
1396.993587371397
 20
1421.89999999981
 30
0.0
 11
1396.993587371397
 21
1411.89999999981
 31
0.0
  0
LINE
  5
2C9
330
1F
100
AcDbEntity
  8
LAY-10
  6
CONTINUOUS
 62
     7
100
AcDbLine
 10
525.0000000001819
 20
1987.399999999857
 30
0.0
 11
496.1015151903448
 21
1987.399999999857
 31
0.0
  0
LINE
  5
2CA
330
1F
100
AcDbEntity
  8
LAY-10
  6
CONTINUOUS
 62
     7
100
AcDbLine
 10
525.0000000001819
 20
1996.399999999858
 30
0.0
 11
496.1015151903448
 21
1996.399999999858
 31
0.0
  0
LINE
  5
2CB
330
1F
100
AcDbEntity
  8
LAY-10
  6
CONTINUOUS
 62
     7
100
AcDbLine
 10
496.1015151903448
 20
1987.399999999857
 30
0.0
 11
496.1015151903448
 21
1996.399999999858
 31
0.0
  0
LINE
  5
2CC
330
1F
100
AcDbEntity
  8
LAY-10
  6
CONTINUOUS
 62
     7
100
AcDbLine
 10
525.0000000001819
 20
1496.399999999895
 30
0.0
 11
496.1015151903448
 21
1496.399999999895
 31
0.0
  0
LINE
  5
2CD
330
1F
100
AcDbEntity
  8
LAY-10
  6
CONTINUOUS
 62
     7
100
AcDbLine
 10
525.0000000001819
 20
1487.399999999894
 30
0.0
 11
496.1015151903448
 21
1487.399999999894
 31
0.0
  0
LINE
  5
2CE
330
1F
100
AcDbEntity
  8
LAY-10
  6
CONTINUOUS
 62
     7
100
AcDbLine
 10
496.1015151903448
 20
1496.399999999895
 30
0.0
 11
496.1015151903448
 21
1487.399999999894
 31
0.0
  0
LINE
  5
2CF
330
1F
100
AcDbEntity
  8
LAY-10
  6
HIDDEN
 62
     7
100
AcDbLine
 10
1098.054316770655
 20
1398.754316770574
 30
0.0
 11
1061.945683229616
 21
1398.754316770576
 31
0.0
  0
LINE
  5
2D0
330
1F
100
AcDbEntity
  8
LAY-10
  6
CONTINUOUS
 62
     7
100
AcDbLine
 10
1014.721291998442
 20
1364.900000000005
 30
0.0
 11
1345.2787080018
 21
2118.9
 31
0.0
  0
LINE
  5
2D1
330
1F
100
AcDbEntity
  8
LAY-10
  6
CONTINUOUS
 62
     7
100
AcDbLine
 10
1021.735772974598
 20
1380.899999999908
 30
0.0
 11
982.500000000129
 21
1380.899999999908
 31
0.0
  0
LINE
  5
2D2
330
1F
100
AcDbEntity
  8
LAY-10
  6
CONTINUOUS
 62
     7
100
AcDbLine
 10
967.5000000001309
 20
1365.899999999904
 30
0.0
 11
1015.15969705941
 21
1365.899999999904
 31
0.0
  0
LINE
  5
2D3
330
1F
100
AcDbEntity
  8
LAY-10
  6
CONTINUOUS
 62
     7
100
AcDbLine
 10
1820.000000000109
 20
1401.900000000006
 30
0.0
 11
1030.942279255902
 21
1401.900000000006
 31
0.0
  0
LINE
  5
2D4
330
1F
100
AcDbEntity
  8
LAY-10
  6
CONTINUOUS
 62
     7
100
AcDbLine
 10
1817.000000000131
 20
1404.899999999976
 30
0.0
 11
1032.257494438926
 21
1404.899999999976
 31
0.0
  0
LINE
  5
2D5
330
1F
100
AcDbEntity
  8
LAY-10
  6
CONTINUOUS
 62
     7
100
AcDbLine
 10
1060.000000000118
 20
1468.180532156986
 30
0.0
 11
1060.00000000012
 21
2102.89999999991
 31
0.0
  0
LINE
  5
2D6
330
1F
100
AcDbEntity
  8
LAY-10
  6
CONTINUOUS
 62
     7
100
AcDbLine
 10
1067.500000000118
 20
1485.287998897175
 30
0.0
 11
1067.50000000012
 21
2102.89999999991
 31
0.0
  0
LINE
  5
2D7
330
1F
100
AcDbEntity
  8
LAY-10
  6
CONTINUOUS
 62
     7
100
AcDbLine
 10
1092.500000000118
 20
1542.312888031135
 30
0.0
 11
1092.50000000012
 21
2102.89999999991
 31
0.0
  0
LINE
  5
2D8
330
1F
100
AcDbEntity
  8
LAY-10
  6
CONTINUOUS
 62
     7
100
AcDbLine
 10
1100.000000000118
 20
1559.420354771324
 30
0.0
 11
1100.00000000012
 21
2102.89999999991
 31
0.0
  0
LINE
  5
2D9
330
1F
100
AcDbEntity
  8
LAY-10
  6
CONTINUOUS
 62
     7
100
AcDbLine
 10
1260.00000000014
 20
1924.379645228719
 30
0.0
 11
1260.00000000014
 21
2102.89999999991
 31
0.0
  0
LINE
  5
2DA
330
1F
100
AcDbEntity
  8
LAY-10
  6
CONTINUOUS
 62
     7
100
AcDbLine
 10
1267.50000000014
 20
1941.487111968908
 30
0.0
 11
1267.50000000014
 21
2102.89999999991
 31
0.0
  0
LINE
  5
2DB
330
1F
100
AcDbEntity
  8
LAY-10
  6
CONTINUOUS
 62
     7
100
AcDbLine
 10
1292.50000000014
 20
1998.512001102868
 30
0.0
 11
1292.50000000014
 21
2102.89999999991
 31
0.0
  0
LINE
  5
2DC
330
1F
100
AcDbEntity
  8
LAY-10
  6
CONTINUOUS
 62
     7
100
AcDbLine
 10
1300.00000000014
 20
2015.619467843056
 30
0.0
 11
1300.00000000014
 21
2102.89999999991
 31
0.0
  0
LINE
  5
2DD
330
1F
100
AcDbEntity
  8
LAY-10
  6
CONTINUOUS
 62
     7
100
AcDbLine
 10
1338.264227025559
 20
2102.899999999904
 30
0.0
 11
982.500000000129
 21
2102.899999999904
 31
0.0
  0
LINE
  5
2DE
330
1F
100
AcDbEntity
  8
LAY-10
  6
CONTINUOUS
 62
     7
100
AcDbLine
 10
1344.840302940746
 20
2117.899999999906
 30
0.0
 11
967.5000000001309
 21
2117.899999999904
 31
0.0
  0
LINE
  5
2DF
330
1F
100
AcDbEntity
  8
LAY-10
  6
CONTINUOUS
 62
     7
100
AcDbLine
 10
1820.000000000109
 20
2081.900000000007
 30
0.0
 11
1329.057720744343
 21
2081.900000000006
 31
0.0
  0
LINE
  5
2E0
330
1F
100
AcDbEntity
  8
LAY-10
  6
CONTINUOUS
 62
     7
100
AcDbLine
 10
1817.000000000131
 20
2078.899999999936
 30
0.0
 11
1327.742505561275
 21
2078.899999999936
 31
0.0
  0
LINE
  5
2E1
330
1F
100
AcDbEntity
  8
LAY-10
  6
CONTINUOUS
 62
     7
100
AcDbLine
 10
1685.000000000109
 20
1666.899999999981
 30
0.0
 11
1685.000000000109
 21
1656.9
 31
0.0
  0
LINE
  5
2E2
330
1F
100
AcDbEntity
  8
LAY-10
  6
CONTINUOUS
 62
     7
100
AcDbLine
 10
1685.0000000001
 20
1826.899999999981
 30
0.0
 11
1679.000000000109
 21
1826.899999999981
 31
0.0
  0
CIRCLE
  5
2E3
330
1F
100
AcDbEntity
  8
LAY-10
  6
CONTINUOUS
 62
     7
100
AcDbCircle
 10
1388.333333333554
 20
2066.900000000201
 30
0.0
 40
10.50000000000041
  0
CIRCLE
  5
2E4
330
1F
100
AcDbEntity
  8
LAY-10
  6
CONTINUOUS
 62
     7
100
AcDbCircle
 10
1388.333333333554
 20
2066.900000000201
 30
0.0
 40
8.66025403784441
  0
LINE
  5
2E5
330
1F
100
AcDbEntity
  8
LAY-10
  6
CONTINUOUS
 62
     7
100
AcDbLine
 10
1379.67307929571
 20
2071.900000000201
 30
0.0
 11
1379.67307929571
 21
2061.900000000202
 31
0.0
  0
LINE
  5
2E6
330
1F
100
AcDbEntity
  8
LAY-10
  6
CONTINUOUS
 62
     7
100
AcDbLine
 10
1379.67307929571
 20
2061.900000000202
 30
0.0
 11
1388.333333333554
 21
2056.900000000201
 31
0.0
  0
LINE
  5
2E7
330
1F
100
AcDbEntity
  8
LAY-10
  6
CONTINUOUS
 62
     7
100
AcDbLine
 10
1388.333333333554
 20
2056.900000000201
 30
0.0
 11
1396.993587371397
 21
2061.900000000202
 31
0.0
  0
LINE
  5
2E8
330
1F
100
AcDbEntity
  8
LAY-10
  6
CONTINUOUS
 62
     7
100
AcDbLine
 10
1396.993587371397
 20
2071.900000000201
 30
0.0
 11
1388.333333333554
 21
2076.900000000202
 31
0.0
  0
LINE
  5
2E9
330
1F
100
AcDbEntity
  8
LAY-10
  6
CONTINUOUS
 62
     7
100
AcDbLine
 10
1388.333333333554
 20
2076.900000000202
 30
0.0
 11
1379.67307929571
 21
2071.900000000201
 31
0.0
  0
CIRCLE
  5
2EA
330
1F
100
AcDbEntity
  8
LAY-10
  6
CONTINUOUS
 62
     7
100
AcDbCircle
 10
1388.333333333554
 20
2066.900000000201
 30
0.0
 40
5.0
  0
CIRCLE
  5
2EB
330
1F
100
AcDbEntity
  8
LAY-10
  6
CONTINUOUS
 62
     7
100
AcDbCircle
 10
1388.333333333554
 20
2066.900000000201
 30
0.0
 40
4.0
  0
LINE
  5
2EC
330
1F
100
AcDbEntity
  8
LAY-10
  6
CONTINUOUS
 62
     7
100
AcDbLine
 10
1396.993587371397
 20
2061.900000000202
 30
0.0
 11
1396.993587371397
 21
2071.900000000201
 31
0.0
  0
LINE
  5
2ED
330
1F
100
AcDbEntity
  8
LAY-10
  6
CONTINUOUS
 62
     7
100
AcDbLine
 10
2248.498484809881
 20
2114.900000000027
 30
0.0
 11
2275.698484809879
 21
2114.900000000027
 31
0.0
  0
LINE
  5
2EE
330
1F
100
AcDbEntity
  8
LAY-10
  6
CONTINUOUS
 62
     7
100
AcDbLine
 10
2236.498484809879
 20
2111.70000000003
 30
0.0
 11
2275.498484809879
 21
2111.70000000003
 31
0.0
  0
ARC
  5
2EF
330
1F
100
AcDbEntity
  8
LAY-10
  6
CONTINUOUS
 62
     7
100
AcDbCircle
 10
2275.498484809879
 20
2108.70000000003
 30
0.0
 40
3.000000000000003
100
AcDbArc
 50
0.0
 51
90.00000000000001
  0
ARC
  5
2F0
330
1F
100
AcDbEntity
  8
LAY-10
  6
CONTINUOUS
 62
     7
100
AcDbCircle
 10
2275.698484809879
 20
2108.900000000031
 30
0.0
 40
6.000000000000005
100
AcDbArc
 50
0.0
 51
90.00000000000001
  0
LINE
  5
2F1
330
1F
100
AcDbEntity
  8
LAY-10
  6
CONTINUOUS
 62
     7
100
AcDbLine
 10
2233.498484809881
 20
2117.90000000003
 30
0.0
 11
2248.498484809881
 21
2117.90000000003
 31
0.0
  0
LINE
  5
2F2
330
1F
100
AcDbEntity
  8
LAY-10
  6
CONTINUOUS
 62
     7
100
AcDbLine
 10
2236.498484809879
 20
2114.900000000027
 30
0.0
 11
2236.498484809879
 21
2102.90000000003
 31
0.0
  0
LINE
  5
2F3
330
1F
100
AcDbEntity
  8
LAY-10
  6
CONTINUOUS
 62
     7
100
AcDbLine
 10
2236.498484809879
 20
2114.900000000027
 30
0.0
 11
2248.498484809881
 21
2114.900000000027
 31
0.0
  0
LINE
  5
2F4
330
1F
100
AcDbEntity
  8
LAY-10
  6
CONTINUOUS
 62
     7
100
AcDbLine
 10
2248.498484809881
 20
2117.90000000003
 30
0.0
 11
2248.498484809881
 21
2114.900000000027
 31
0.0
  0
LINE
  5
2F5
330
1F
100
AcDbEntity
  8
LAY-10
  6
CONTINUOUS
 62
     7
100
AcDbLine
 10
2236.498484809879
 20
1372.10000000003
 30
0.0
 11
2275.498484809879
 21
1372.10000000003
 31
0.0
  0
ARC
  5
2F6
330
1F
100
AcDbEntity
  8
LAY-10
  6
CONTINUOUS
 62
     7
100
AcDbCircle
 10
2275.498484809879
 20
1375.10000000003
 30
0.0
 40
3.000000000000003
100
AcDbArc
 50
270.0000000000002
 51
0.0
  0
ARC
  5
2F7
330
1F
100
AcDbEntity
  8
LAY-10
  6
CONTINUOUS
 62
     7
100
AcDbCircle
 10
2275.698484809879
 20
1374.90000000003
 30
0.0
 40
6.000000000000005
100
AcDbArc
 50
270.0000000000002
 51
1.909152432987542
  0
LINE
  5
2F8
330
1F
100
AcDbEntity
  8
LAY-10
  6
CONTINUOUS
 62
     7
100
AcDbLine
 10
2236.498484809879
 20
1368.900000000028
 30
0.0
 11
2275.698484809879
 21
1368.900000000028
 31
0.0
  0
LINE
  5
2F9
330
1F
100
AcDbEntity
  8
LAY-10
  6
CONTINUOUS
 62
     7
100
AcDbLine
 10
2233.498484809881
 20
1365.900000000029
 30
0.0
 11
2248.498484809881
 21
1365.900000000029
 31
0.0
  0
LINE
  5
2FA
330
1F
100
AcDbEntity
  8
LAY-10
  6
CONTINUOUS
 62
     7
100
AcDbLine
 10
2236.498484809879
 20
1368.900000000028
 30
0.0
 11
2236.498484809879
 21
1380.900000000029
 31
0.0
  0
LINE
  5
2FB
330
1F
100
AcDbEntity
  8
LAY-10
  6
CONTINUOUS
 62
     7
100
AcDbLine
 10
2233.498484809881
 20
1380.900000000029
 30
0.0
 11
2236.498484809879
 21
1380.900000000029
 31
0.0
  0
LINE
  5
2FC
330
1F
100
AcDbEntity
  8
LAY-10
  6
CONTINUOUS
 62
     7
100
AcDbLine
 10
2248.498484809881
 20
1365.900000000029
 30
0.0
 11
2248.498484809881
 21
1368.900000000028
 31
0.0
  0
LINE
  5
2FD
330
1F
100
AcDbEntity
  8
LAY-10
  6
CONTINUOUS
 62
     7
100
AcDbLine
 10
2236.498484809879
 20
1412.900000000022
 30
0.0
 11
2236.498484809879
 21
2070.899999999963
 31
0.0
  0
LINE
  5
2FE
330
1F
100
AcDbEntity
  8
LAY-10
  6
CONTINUOUS
 62
     7
100
AcDbLine
 10
2281.6984848099
 20
2108.900000000031
 30
0.0
 11
2281.6984848099
 21
1374.90000000003
 31
0.0
  0
LINE
  5
2FF
330
1F
100
AcDbEntity
  8
LAY-10
  6
CONTINUOUS
 62
     7
100
AcDbLine
 10
2278.498484809901
 20
1375.10000000003
 30
0.0
 11
2278.498484809901
 21
2108.70000000003
 31
0.0
  0
LINE
  5
300
330
1F
100
AcDbEntity
  8
LAY-10
  6
CONTINUOUS
 62
     7
100
AcDbLine
 10
2233.498484809881
 20
1365.900000000029
 30
0.0
 11
2233.498484809881
 21
2117.90000000003
 31
0.0
  0
LINE
  5
301
330
1F
100
AcDbEntity
  8
LAY-10
  6
CONTINUOUS
 62
     7
100
AcDbLine
 10
2275.49848480988
 20
2111.70000000003
 30
0.0
 11
2278.498484809881
 21
2108.70000000003
 31
0.0
  0
LINE
  5
302
330
1F
100
AcDbEntity
  8
LAY-10
  6
CONTINUOUS
 62
     7
100
AcDbLine
 10
2275.49848480988
 20
1372.100000000032
 30
0.0
 11
2278.498484809881
 21
1375.100000000032
 31
0.0
  0
LINE
  5
303
330
1F
100
AcDbEntity
  8
LAY-10
  6
CONTINUOUS
 62
     7
100
AcDbLine
 10
2268.498484809892
 20
1372.10000000003
 30
0.0
 11
2268.498484809892
 21
2111.700000000077
 31
0.0
  0
LINE
  5
304
330
1F
100
AcDbEntity
  8
LAY-10
  6
CONTINUOUS
 62
     7
100
AcDbLine
 10
2270.498484809892
 20
1372.10000000003
 30
0.0
 11
2270.498484809892
 21
2111.700000000077
 31
0.0
  0
LINE
  5
305
330
1F
100
AcDbEntity
  8
LAY-10
  6
CONTINUOUS
 62
     7
100
AcDbLine
 10
2233.498484809881
 20
2070.899999999963
 30
0.0
 11
2268.498484809892
 21
2070.899999999963
 31
0.0
  0
LINE
  5
306
330
1F
100
AcDbEntity
  8
LAY-10
  6
CONTINUOUS
 62
     7
100
AcDbLine
 10
2233.498484809881
 20
2102.90000000003
 30
0.0
 11
2268.498484809892
 21
2102.90000000003
 31
0.0
  0
LINE
  5
307
330
1F
100
AcDbEntity
  8
LAY-10
  6
CONTINUOUS
 62
     7
100
AcDbLine
 10
2233.498484809881
 20
1412.900000000022
 30
0.0
 11
2268.498484809892
 21
1412.900000000022
 31
0.0
  0
LINE
  5
308
330
1F
100
AcDbEntity
  8
LAY-10
  6
CONTINUOUS
 62
     7
100
AcDbLine
 10
2236.49848480988
 20
1380.90000000003
 30
0.0
 11
2268.498484809892
 21
1380.90000000003
 31
0.0
  0
LINE
  5
309
330
1F
100
AcDbEntity
  8
LAY-10
  6
HIDDEN
 62
     7
100
AcDbLine
 10
2268.498484809881
 20
2102.90000000003
 30
0.0
 11
2278.498484809892
 21
2102.90000000003
 31
0.0
  0
LINE
  5
30A
330
1F
100
AcDbEntity
  8
LAY-10
  6
HIDDEN
 62
     7
100
AcDbLine
 10
2268.498484809881
 20
2070.899999999929
 30
0.0
 11
2278.498484809892
 21
2070.899999999929
 31
0.0
  0
LINE
  5
30B
330
1F
100
AcDbEntity
  8
LAY-10
  6
HIDDEN
 62
     7
100
AcDbLine
 10
2268.498484809881
 20
1412.900000000131
 30
0.0
 11
2278.498484809892
 21
1412.900000000131
 31
0.0
  0
LINE
  5
30C
330
1F
100
AcDbEntity
  8
LAY-10
  6
HIDDEN
 62
     7
100
AcDbLine
 10
2268.498484809881
 20
1380.900000000031
 30
0.0
 11
2278.498484809892
 21
1380.900000000031
 31
0.0
  0
LINE
  5
30D
330
1F
100
AcDbEntity
  8
LAY-10
  6
CONTINUOUS
 62
     7
100
AcDbLine
 10
543.8333333333604
 20
986.9999999999987
 30
0.0
 11
543.8333333333604
 21
947.7999999999975
 31
0.0
  0
ARC
  5
30E
330
1F
100
AcDbEntity
  8
LAY-10
  6
CONTINUOUS
 62
     7
100
AcDbCircle
 10
549.8333333333604
 20
947.7999999999975
 30
0.0
 40
6.000000000000005
100
AcDbArc
 50
180.0
 51
270.0000000000002
  0
ARC
  5
30F
330
1F
100
AcDbEntity
  8
LAY-10
  6
CONTINUOUS
 62
     7
100
AcDbCircle
 10
550.0333333333602
 20
947.9999999999973
 30
0.0
 40
3.000000000000003
100
AcDbArc
 50
180.0
 51
270.0000000000002
  0
LINE
  5
310
330
1F
100
AcDbEntity
  8
LAY-10
  6
CONTINUOUS
 62
     7
100
AcDbLine
 10
547.0333333333612
 20
986.9999999999987
 30
0.0
 11
547.0333333333612
 21
947.9999999999973
 31
0.0
  0
LINE
  5
311
330
1F
100
AcDbEntity
  8
LAY-10
  6
CONTINUOUS
 62
     7
100
AcDbLine
 10
962.8333333333615
 20
986.9999999999987
 30
0.0
 11
962.8333333333615
 21
947.7999999999975
 31
0.0
  0
ARC
  5
312
330
1F
100
AcDbEntity
  8
LAY-10
  6
CONTINUOUS
 62
     7
100
AcDbCircle
 10
956.8333333333613
 20
947.7999999999975
 30
0.0
 40
6.000000000000005
100
AcDbArc
 50
270.0000000000002
 51
0.0
  0
ARC
  5
313
330
1F
100
AcDbEntity
  8
LAY-10
  6
CONTINUOUS
 62
     7
100
AcDbCircle
 10
956.6333333333625
 20
947.9999999999973
 30
0.0
 40
3.000000000000003
100
AcDbArc
 50
270.0000000000002
 51
0.0
  0
LINE
  5
314
330
1F
100
AcDbEntity
  8
LAY-10
  6
CONTINUOUS
 62
     7
100
AcDbLine
 10
959.6333333333606
 20
986.9999999999987
 30
0.0
 11
959.6333333333606
 21
947.9999999999973
 31
0.0
  0
LINE
  5
315
330
1F
100
AcDbEntity
  8
LAY-10
  6
CONTINUOUS
 62
     7
100
AcDbLine
 10
550.0333333333602
 20
944.9999999999986
 30
0.0
 11
956.6333333333625
 21
944.9999999999986
 31
0.0
  0
LINE
  5
316
330
1F
100
AcDbEntity
  8
LAY-10
  6
CONTINUOUS
 62
     7
100
AcDbLine
 10
549.8333333333604
 20
941.7999999999975
 30
0.0
 11
956.8333333333613
 21
941.7999999999975
 31
0.0
  0
ARC
  5
317
330
1F
100
AcDbEntity
  8
LAY-10
  6
CONTINUOUS
 62
     7
100
AcDbCircle
 10
667.833333333345
 20
952.9999999999513
 30
0.0
 40
2.0
100
AcDbArc
 50
90.00000000000001
 51
180.0
  0
LINE
  5
318
330
1F
100
AcDbEntity
  8
LAY-10
  6
CONTINUOUS
 62
     7
100
AcDbLine
 10
673.3333333333459
 20
954.9999999999509
 30
0.0
 11
667.833333333345
 21
954.9999999999509
 31
0.0
  0
LINE
  5
319
330
1F
100
AcDbEntity
  8
LAY-10
  6
CONTINUOUS
 62
     7
100
AcDbLine
 10
665.8333333333459
 20
952.9999999999513
 30
0.0
 11
665.8333333333459
 21
946.999999999951
 31
0.0
  0
LINE
  5
31A
330
1F
100
AcDbEntity
  8
LAY-10
  6
CONTINUOUS
 62
     7
100
AcDbLine
 10
667.8333333333604
 20
952.9999999999513
 30
0.0
 11
667.8333333333604
 21
946.999999999951
 31
0.0
  0
LINE
  5
31B
330
1F
100
AcDbEntity
  8
LAY-10
  6
CONTINUOUS
 62
     7
100
AcDbLine
 10
673.3333333333459
 20
952.9999999999513
 30
0.0
 11
667.8333333333604
 21
952.9999999999513
 31
0.0
  0
LINE
  5
31C
330
1F
100
AcDbEntity
  8
LAY-10
  6
CONTINUOUS
 62
     7
100
AcDbLine
 10
673.3333333333459
 20
954.9999999999509
 30
0.0
 11
673.3333333333459
 21
952.9999999999513
 31
0.0
  0
ARC
  5
31D
330
1F
100
AcDbEntity
  8
LAY-10
  6
CONTINUOUS
 62
     7
100
AcDbCircle
 10
638.8333333333422
 20
952.9999999999513
 30
0.0
 40
2.0
100
AcDbArc
 50
0.0
 51
90.00000000000001
  0
LINE
  5
31E
330
1F
100
AcDbEntity
  8
LAY-10
  6
CONTINUOUS
 62
     7
100
AcDbLine
 10
633.3333333333422
 20
954.9999999999509
 30
0.0
 11
638.8333333333422
 21
954.9999999999509
 31
0.0
  0
LINE
  5
31F
330
1F
100
AcDbEntity
  8
LAY-10
  6
CONTINUOUS
 62
     7
100
AcDbLine
 10
640.8333333333422
 20
952.9999999999513
 30
0.0
 11
640.8333333333422
 21
946.999999999951
 31
0.0
  0
LINE
  5
320
330
1F
100
AcDbEntity
  8
LAY-10
  6
CONTINUOUS
 62
     7
100
AcDbLine
 10
638.8333333333277
 20
952.9999999999513
 30
0.0
 11
638.8333333333277
 21
946.999999999951
 31
0.0
  0
LINE
  5
321
330
1F
100
AcDbEntity
  8
LAY-10
  6
CONTINUOUS
 62
     7
100
AcDbLine
 10
633.3333333333422
 20
952.9999999999513
 30
0.0
 11
638.8333333333277
 21
952.9999999999513
 31
0.0
  0
LINE
  5
322
330
1F
100
AcDbEntity
  8
LAY-10
  6
CONTINUOUS
 62
     7
100
AcDbLine
 10
633.3333333333422
 20
954.9999999999509
 30
0.0
 11
633.3333333333422
 21
952.9999999999513
 31
0.0
  0
LINE
  5
323
330
1F
100
AcDbEntity
  8
LAY-10
  6
CONTINUOUS
 62
     7
100
AcDbLine
 10
640.8333333333422
 20
946.999999999951
 30
0.0
 11
665.8333333333422
 21
946.999999999951
 31
0.0
  0
ARC
  5
324
330
1F
100
AcDbEntity
  8
LAY-10
  6
CONTINUOUS
 62
     7
100
AcDbCircle
 10
665.8333333333604
 20
946.999999999951
 30
0.0
 40
2.0
100
AcDbArc
 50
270.0000000000002
 51
0.0
  0
ARC
  5
325
330
1F
100
AcDbEntity
  8
LAY-10
  6
CONTINUOUS
 62
     7
100
AcDbCircle
 10
640.8333333333277
 20
946.999999999951
 30
0.0
 40
2.0
100
AcDbArc
 50
180.0
 51
270.0000000000002
  0
ARC
  5
326
330
1F
100
AcDbEntity
  8
LAY-10
  6
CONTINUOUS
 62
     7
100
AcDbCircle
 10
838.8333333333613
 20
952.9999999999504
 30
0.0
 40
2.0
100
AcDbArc
 50
0.0
 51
90.00000000000001
  0
LINE
  5
327
330
1F
100
AcDbEntity
  8
LAY-10
  6
CONTINUOUS
 62
     7
100
AcDbLine
 10
833.3333333333613
 20
954.9999999999509
 30
0.0
 11
838.8333333333613
 21
954.9999999999509
 31
0.0
  0
LINE
  5
328
330
1F
100
AcDbEntity
  8
LAY-10
  6
CONTINUOUS
 62
     7
100
AcDbLine
 10
840.8333333333613
 20
952.9999999999504
 30
0.0
 11
840.8333333333613
 21
946.99999999995
 31
0.0
  0
LINE
  5
329
330
1F
100
AcDbEntity
  8
LAY-10
  6
CONTINUOUS
 62
     7
100
AcDbLine
 10
838.8333333333469
 20
952.9999999999504
 30
0.0
 11
838.8333333333469
 21
946.99999999995
 31
0.0
  0
LINE
  5
32A
330
1F
100
AcDbEntity
  8
LAY-10
  6
CONTINUOUS
 62
     7
100
AcDbLine
 10
833.3333333333613
 20
952.9999999999504
 30
0.0
 11
838.8333333333469
 21
952.9999999999504
 31
0.0
  0
LINE
  5
32B
330
1F
100
AcDbEntity
  8
LAY-10
  6
CONTINUOUS
 62
     7
100
AcDbLine
 10
833.3333333333613
 20
954.9999999999509
 30
0.0
 11
833.3333333333613
 21
952.9999999999504
 31
0.0
  0
ARC
  5
32C
330
1F
100
AcDbEntity
  8
LAY-10
  6
CONTINUOUS
 62
     7
100
AcDbCircle
 10
867.8333333333641
 20
952.9999999999504
 30
0.0
 40
2.0
100
AcDbArc
 50
90.00000000000001
 51
180.0
  0
LINE
  5
32D
330
1F
100
AcDbEntity
  8
LAY-10
  6
CONTINUOUS
 62
     7
100
AcDbLine
 10
873.333333333365
 20
954.9999999999509
 30
0.0
 11
867.8333333333641
 21
954.9999999999509
 31
0.0
  0
LINE
  5
32E
330
1F
100
AcDbEntity
  8
LAY-10
  6
CONTINUOUS
 62
     7
100
AcDbLine
 10
865.833333333365
 20
952.9999999999504
 30
0.0
 11
865.833333333365
 21
946.99999999995
 31
0.0
  0
LINE
  5
32F
330
1F
100
AcDbEntity
  8
LAY-10
  6
CONTINUOUS
 62
     7
100
AcDbLine
 10
867.8333333333796
 20
952.9999999999504
 30
0.0
 11
867.8333333333796
 21
946.99999999995
 31
0.0
  0
LINE
  5
330
330
1F
100
AcDbEntity
  8
LAY-10
  6
CONTINUOUS
 62
     7
100
AcDbLine
 10
873.333333333365
 20
952.9999999999504
 30
0.0
 11
867.8333333333796
 21
952.9999999999504
 31
0.0
  0
LINE
  5
331
330
1F
100
AcDbEntity
  8
LAY-10
  6
CONTINUOUS
 62
     7
100
AcDbLine
 10
873.333333333365
 20
954.9999999999509
 30
0.0
 11
873.333333333365
 21
952.9999999999504
 31
0.0
  0
LINE
  5
332
330
1F
100
AcDbEntity
  8
LAY-10
  6
CONTINUOUS
 62
     7
100
AcDbLine
 10
865.833333333365
 20
946.99999999995
 30
0.0
 11
840.833333333365
 21
946.99999999995
 31
0.0
  0
ARC
  5
333
330
1F
100
AcDbEntity
  8
LAY-10
  6
CONTINUOUS
 62
     7
100
AcDbCircle
 10
840.8333333333468
 20
946.99999999995
 30
0.0
 40
2.0
100
AcDbArc
 50
180.0
 51
270.0000000000002
  0
ARC
  5
334
330
1F
100
AcDbEntity
  8
LAY-10
  6
CONTINUOUS
 62
     7
100
AcDbCircle
 10
865.8333333333795
 20
946.99999999995
 30
0.0
 40
2.0
100
AcDbArc
 50
270.0000000000002
 51
0.0
  0
LINE
  5
335
330
1F
100
AcDbEntity
  8
LAY-10
  6
CONTINUOUS
 62
     7
100
AcDbLine
 10
1814.000000000031
 20
828.2000000000035
 30
0.0
 11
1814.000000000031
 21
837.2000000000035
 31
0.0
  0
ARC
  5
336
330
1F
100
AcDbEntity
  8
LAY-10
  6
CONTINUOUS
 62
     7
100
AcDbCircle
 10
1814.000000000031
 20
837.4000000000042
 30
0.0
 40
3.000000000000003
100
AcDbArc
 50
0.0
 51
90.00000000000001
  0
LINE
  5
337
330
1F
100
AcDbEntity
  8
LAY-10
  6
CONTINUOUS
 62
     7
100
AcDbLine
 10
1817.000000000029
 20
828.2000000000035
 30
0.0
 11
1817.000000000029
 21
837.4000000000042
 31
0.0
  0
LINE
  5
338
330
1F
100
AcDbEntity
  8
LAY-10
  6
CONTINUOUS
 62
     7
100
AcDbLine
 10
1799.000000000031
 20
828.2000000000045
 30
0.0
 11
1799.000000000031
 21
825.0000000000036
 31
0.0
  0
LINE
  5
339
330
1F
100
AcDbEntity
  8
LAY-10
  6
CONTINUOUS
 62
     7
100
AcDbLine
 10
1799.000000000031
 20
837.2000000000044
 30
0.0
 11
1799.000000000031
 21
840.4000000000042
 31
0.0
  0
LINE
  5
33A
330
1F
100
AcDbEntity
  8
LAY-10
  6
CONTINUOUS
 62
     7
100
AcDbLine
 10
1811.000000000029
 20
837.2000000000044
 30
0.0
 11
1811.000000000029
 21
840.4000000000042
 31
0.0
  0
LINE
  5
33B
330
1F
100
AcDbEntity
  8
LAY-10
  6
CONTINUOUS
 62
     7
100
AcDbLine
 10
1811.000000000029
 20
828.2000000000045
 30
0.0
 11
1811.000000000029
 21
825.0000000000036
 31
0.0
  0
ARC
  5
33C
330
1F
100
AcDbEntity
  8
LAY-10
  6
CONTINUOUS
 62
     7
100
AcDbCircle
 10
1823.20000000003
 20
828.0000000000047
 30
0.0
 40
3.000000000000003
100
AcDbArc
 50
270.0000000000002
 51
0.0
  0
LINE
  5
33D
330
1F
100
AcDbEntity
  8
LAY-10
  6
CONTINUOUS
 62
     7
100
AcDbLine
 10
1783.000000000031
 20
828.2000000000035
 30
0.0
 11
1783.000000000031
 21
837.2000000000035
 31
0.0
  0
LINE
  5
33E
330
1F
100
AcDbEntity
  8
LAY-10
  6
CONTINUOUS
 62
     7
100
AcDbLine
 10
1780.000000000031
 20
825.0000000000045
 30
0.0
 11
1780.000000000031
 21
837.2000000000035
 31
0.0
  0
LINE
  5
33F
330
1F
100
AcDbEntity
  8
LAY-10
  6
CONTINUOUS
 62
     7
100
AcDbLine
 10
1800.000000000029
 20
828.2000000000035
 30
0.0
 11
1770.000000000029
 21
828.2000000000035
 31
0.0
  0
LINE
  5
340
330
1F
100
AcDbEntity
  8
LAY-10
  6
CONTINUOUS
 62
     7
100
AcDbLine
 10
1814.000000000031
 20
837.2000000000035
 30
0.0
 11
1810.000000000031
 21
837.2000000000035
 31
0.0
  0
LINE
  5
341
330
1F
100
AcDbEntity
  8
LAY-10
  6
CONTINUOUS
 62
     7
100
AcDbLine
 10
1810.000000000029
 20
828.2000000000035
 30
0.0
 11
1823.000000000029
 21
828.2000000000035
 31
0.0
  0
LINE
  5
342
330
1F
100
AcDbEntity
  8
LAY-10
  6
CONTINUOUS
 62
     7
100
AcDbLine
 10
1770.000000000029
 20
825.0000000000045
 30
0.0
 11
1823.20000000003
 21
825.0000000000045
 31
0.0
  0
LINE
  5
343
330
1F
100
AcDbEntity
  8
LAY-10
  6
CONTINUOUS
 62
     7
100
AcDbLine
 10
543.0000000000327
 20
828.2000000000045
 30
0.0
 11
543.0000000000327
 21
837.4000000000042
 31
0.0
  0
LINE
  5
344
330
1F
100
AcDbEntity
  8
LAY-10
  6
CONTINUOUS
 62
     7
100
AcDbLine
 10
546.0000000000309
 20
828.2000000000045
 30
0.0
 11
546.0000000000309
 21
837.2000000000035
 31
0.0
  0
ARC
  5
345
330
1F
100
AcDbEntity
  8
LAY-10
  6
CONTINUOUS
 62
     7
100
AcDbCircle
 10
546.0000000000309
 20
837.4000000000042
 30
0.0
 40
3.000000000000003
100
AcDbArc
 50
90.00000000000001
 51
180.0
  0
LINE
  5
346
330
1F
100
AcDbEntity
  8
LAY-10
  6
CONTINUOUS
 62
     7
100
AcDbLine
 10
549.0000000000327
 20
828.2000000000045
 30
0.0
 11
549.0000000000327
 21
825.0000000000036
 31
0.0
  0
LINE
  5
347
330
1F
100
AcDbEntity
  8
LAY-10
  6
CONTINUOUS
 62
     7
100
AcDbLine
 10
549.0000000000327
 20
837.2000000000035
 30
0.0
 11
549.0000000000327
 21
840.4000000000033
 31
0.0
  0
LINE
  5
348
330
1F
100
AcDbEntity
  8
LAY-10
  6
CONTINUOUS
 62
     7
100
AcDbLine
 10
561.0000000000309
 20
837.2000000000035
 30
0.0
 11
561.0000000000309
 21
840.4000000000033
 31
0.0
  0
LINE
  5
349
330
1F
100
AcDbEntity
  8
LAY-10
  6
CONTINUOUS
 62
     7
100
AcDbLine
 10
561.0000000000309
 20
828.2000000000045
 30
0.0
 11
561.0000000000309
 21
825.0000000000036
 31
0.0
  0
ARC
  5
34A
330
1F
100
AcDbEntity
  8
LAY-10
  6
CONTINUOUS
 62
     7
100
AcDbCircle
 10
536.800000000032
 20
828.0000000000047
 30
0.0
 40
3.000000000000003
100
AcDbArc
 50
180.0
 51
270.0000000000002
  0
LINE
  5
34B
330
1F
100
AcDbEntity
  8
LAY-10
  6
CONTINUOUS
 62
     7
100
AcDbLine
 10
577.0000000000308
 20
837.2000000000025
 30
0.0
 11
577.0000000000308
 21
828.2000000000035
 31
0.0
  0
LINE
  5
34C
330
1F
100
AcDbEntity
  8
LAY-10
  6
CONTINUOUS
 62
     7
100
AcDbLine
 10
580.0000000000308
 20
825.0000000000045
 30
0.0
 11
580.0000000000308
 21
837.2000000000035
 31
0.0
  0
LINE
  5
34D
330
1F
100
AcDbEntity
  8
LAY-10
  6
CONTINUOUS
 62
     7
100
AcDbLine
 10
560.0000000000309
 20
828.2000000000045
 30
0.0
 11
590.0000000000326
 21
828.2000000000045
 31
0.0
  0
LINE
  5
34E
330
1F
100
AcDbEntity
  8
LAY-10
  6
CONTINUOUS
 62
     7
100
AcDbLine
 10
550.0000000000309
 20
837.2000000000035
 30
0.0
 11
546.0000000000309
 21
837.2000000000035
 31
0.0
  0
LINE
  5
34F
330
1F
100
AcDbEntity
  8
LAY-10
  6
CONTINUOUS
 62
     7
100
AcDbLine
 10
590.0000000000326
 20
825.0000000000045
 30
0.0
 11
536.800000000032
 21
825.0000000000045
 31
0.0
  0
LINE
  5
350
330
1F
100
AcDbEntity
  8
LAY-10
  6
CONTINUOUS
 62
     7
100
AcDbLine
 10
537.0000000000327
 20
828.2000000000045
 30
0.0
 11
550.0000000000309
 21
828.2000000000045
 31
0.0
  0
LINE
  5
351
330
1F
100
AcDbEntity
  8
LAY-10
  6
CONTINUOUS
 62
     7
100
AcDbLine
 10
597.0000000000326
 20
834.2000000000044
 30
0.0
 11
676.5000000000308
 21
834.2000000000044
 31
0.0
  0
LINE
  5
352
330
1F
100
AcDbEntity
  8
LAY-10
  6
CONTINUOUS
 62
     7
100
AcDbLine
 10
1800.000000000029
 20
837.2000000000035
 30
0.0
 11
560.0000000000327
 21
837.2000000000035
 31
0.0
  0
LINE
  5
353
330
1F
100
AcDbEntity
  8
LAY-10
  6
CONTINUOUS
 62
     7
100
AcDbLine
 10
590.0000000000326
 20
807.2000000000035
 30
0.0
 11
1770.000000000029
 21
807.2000000000035
 31
0.0
  0
LINE
  5
354
330
1F
100
AcDbEntity
  8
LAY-10
  6
CONTINUOUS
 62
     7
100
AcDbLine
 10
544.5000000000309
 20
840.4000000000042
 30
0.0
 11
1815.500000000031
 21
840.4000000000042
 31
0.0
  0
LINE
  5
355
330
1F
100
AcDbEntity
  8
LAY-10
  6
CONTINUOUS
 62
     7
100
AcDbLine
 10
1763.000000000029
 20
834.2000000000044
 30
0.0
 11
676.5000000000308
 21
834.2000000000044
 31
0.0
  0
LINE
  5
356
330
1F
100
AcDbEntity
  8
LAY-10
  6
CONTINUOUS
 62
     7
100
AcDbLine
 10
1810.000000000029
 20
842.4000000000042
 30
0.0
 11
1810.000000000029
 21
849.8760000000038
 31
0.0
  0
LINE
  5
357
330
1F
100
AcDbEntity
  8
LAY-10
  6
CONTINUOUS
 62
     7
100
AcDbLine
 10
1800.000000000029
 20
842.4000000000042
 30
0.0
 11
1800.000000000029
 21
849.8760000000038
 31
0.0
  0
LINE
  5
358
330
1F
100
AcDbEntity
  8
LAY-10
  6
CONTINUOUS
 62
     7
100
AcDbLine
 10
1800.000000000029
 20
850.8000000000038
 30
0.0
 11
1800.000000000029
 21
854.0000000000045
 31
0.0
  0
LINE
  5
359
330
1F
100
AcDbEntity
  8
LAY-10
  6
CONTINUOUS
 62
     7
100
AcDbLine
 10
1801.000000000029
 20
855.0000000000045
 30
0.0
 11
1809.000000000029
 21
855.0000000000045
 31
0.0
  0
LINE
  5
35A
330
1F
100
AcDbEntity
  8
LAY-10
  6
CONTINUOUS
 62
     7
100
AcDbLine
 10
1800.000000000029
 20
854.0000000000045
 30
0.0
 11
1801.000000000029
 21
855.0000000000045
 31
0.0
  0
LINE
  5
35B
330
1F
100
AcDbEntity
  8
LAY-10
  6
CONTINUOUS
 62
     7
100
AcDbLine
 10
1810.000000000029
 20
850.8000000000038
 30
0.0
 11
1810.000000000029
 21
854.0000000000045
 31
0.0
  0
LINE
  5
35C
330
1F
100
AcDbEntity
  8
LAY-10
  6
CONTINUOUS
 62
     7
100
AcDbLine
 10
1810.000000000029
 20
854.0000000000045
 30
0.0
 11
1809.000000000029
 21
855.0000000000045
 31
0.0
  0
ARC
  5
35D
330
1F
100
AcDbEntity
  8
LAY-10
  6
CONTINUOUS
 62
     7
100
AcDbCircle
 10
1805.000000000029
 20
836.7076818181858
 30
0.0
 40
18.10768181818181
100
AcDbArc
 50
253.9708781133887
 51
286.0291218866089
  0
LINE
  5
35E
330
1F
100
AcDbEntity
  8
LAY-10
  6
CONTINUOUS
 62
     7
100
AcDbLine
 10
1797.500000000031
 20
818.6000000000041
 30
0.0
 11
1812.500000000029
 21
818.6000000000041
 31
0.0
  0
ARC
  5
35F
330
1F
100
AcDbEntity
  8
LAY-10
  6
CONTINUOUS
 62
     7
100
AcDbCircle
 10
1797.500000000031
 20
823.3909204545498
 30
0.0
 40
4.790920454545454
100
AcDbArc
 50
238.5455606612232
 51
301.4544393387644
  0
LINE
  5
360
330
1F
100
AcDbEntity
  8
LAY-10
  6
CONTINUOUS
 62
     7
100
AcDbLine
 10
1795.000000000031
 20
825.0000000000045
 30
0.0
 11
1795.000000000031
 21
819.3040000000047
 31
0.0
  0
LINE
  5
361
330
1F
100
AcDbEntity
  8
LAY-10
  6
CONTINUOUS
 62
     7
100
AcDbLine
 10
1792.660000000031
 20
825.0000000000028
 30
0.0
 11
1795.000000000031
 21
822.720000000003
 31
0.0
  0
ARC
  5
362
330
1F
100
AcDbEntity
  8
LAY-10
  6
CONTINUOUS
 62
     7
100
AcDbCircle
 10
1812.500000000029
 20
823.3909204545498
 30
0.0
 40
4.790920454545454
100
AcDbArc
 50
238.545560661226
 51
301.4544393387861
  0
LINE
  5
363
330
1F
100
AcDbEntity
  8
LAY-10
  6
CONTINUOUS
 62
     7
100
AcDbLine
 10
1815.000000000029
 20
825.0000000000045
 30
0.0
 11
1815.000000000029
 21
819.3040000000047
 31
0.0
  0
LINE
  5
364
330
1F
100
AcDbEntity
  8
LAY-10
  6
CONTINUOUS
 62
     7
100
AcDbLine
 10
1815.000000000031
 20
822.6600000000044
 30
0.0
 11
1817.280000000032
 21
825.0000000000045
 31
0.0
  0
LINE
  5
365
330
1F
100
AcDbEntity
  8
LAY-10
  6
CONTINUOUS
 62
     7
100
AcDbLine
 10
1800.000000000029
 20
819.3040000000047
 30
0.0
 11
1800.000000000029
 21
840.4000000000042
 31
0.0
  0
LINE
  5
366
330
1F
100
AcDbEntity
  8
LAY-10
  6
CONTINUOUS
 62
     7
100
AcDbLine
 10
1810.000000000029
 20
819.3040000000047
 30
0.0
 11
1810.000000000029
 21
840.4000000000042
 31
0.0
  0
LINE
  5
367
330
1F
100
AcDbEntity
  8
LAY-10
  6
CONTINUOUS
 62
     7
100
AcDbLine
 10
1810.000000000029
 20
830.0000000000036
 30
0.0
 11
1800.000000000029
 21
830.0000000000036
 31
0.0
  0
ARC
  5
368
330
1F
100
AcDbEntity
  8
LAY-10
  6
CONTINUOUS
 62
     7
100
AcDbCircle
 10
555.0000000000327
 20
836.7076818181858
 30
0.0
 40
18.10768181818181
100
AcDbArc
 50
253.9708781133856
 51
286.0291218866075
  0
LINE
  5
369
330
1F
100
AcDbEntity
  8
LAY-10
  6
CONTINUOUS
 62
     7
100
AcDbLine
 10
547.5000000000327
 20
818.6000000000041
 30
0.0
 11
562.5000000000308
 21
818.6000000000041
 31
0.0
  0
ARC
  5
36A
330
1F
100
AcDbEntity
  8
LAY-10
  6
CONTINUOUS
 62
     7
100
AcDbCircle
 10
547.5000000000327
 20
823.3909204545498
 30
0.0
 40
4.790920454545454
100
AcDbArc
 50
238.5455606612283
 51
301.4544393387621
  0
LINE
  5
36B
330
1F
100
AcDbEntity
  8
LAY-10
  6
CONTINUOUS
 62
     7
100
AcDbLine
 10
545.0000000000327
 20
825.0000000000045
 30
0.0
 11
545.0000000000327
 21
819.3040000000047
 31
0.0
  0
LINE
  5
36C
330
1F
100
AcDbEntity
  8
LAY-10
  6
CONTINUOUS
 62
     7
100
AcDbLine
 10
542.6600000000308
 20
825.0000000000018
 30
0.0
 11
545.0000000000327
 21
822.720000000003
 31
0.0
  0
ARC
  5
36D
330
1F
100
AcDbEntity
  8
LAY-10
  6
CONTINUOUS
 62
     7
100
AcDbCircle
 10
562.5000000000308
 20
823.3909204545498
 30
0.0
 40
4.790920454545454
100
AcDbArc
 50
238.5455606612255
 51
301.4544393387848
  0
LINE
  5
36E
330
1F
100
AcDbEntity
  8
LAY-10
  6
CONTINUOUS
 62
     7
100
AcDbLine
 10
565.0000000000308
 20
825.0000000000045
 30
0.0
 11
565.0000000000308
 21
819.3040000000047
 31
0.0
  0
LINE
  5
36F
330
1F
100
AcDbEntity
  8
LAY-10
  6
CONTINUOUS
 62
     7
100
AcDbLine
 10
565.0000000000326
 20
822.6600000000044
 30
0.0
 11
567.2800000000333
 21
825.0000000000045
 31
0.0
  0
LINE
  5
370
330
1F
100
AcDbEntity
  8
LAY-10
  6
CONTINUOUS
 62
     7
100
AcDbLine
 10
560.0000000000309
 20
819.3040000000047
 30
0.0
 11
560.0000000000309
 21
840.4000000000042
 31
0.0
  0
LINE
  5
371
330
1F
100
AcDbEntity
  8
LAY-10
  6
CONTINUOUS
 62
     7
100
AcDbLine
 10
550.0000000000309
 20
819.3040000000047
 30
0.0
 11
550.0000000000309
 21
840.4000000000042
 31
0.0
  0
LINE
  5
372
330
1F
100
AcDbEntity
  8
LAY-10
  6
CONTINUOUS
 62
     7
100
AcDbLine
 10
560.0000000000309
 20
830.0000000000036
 30
0.0
 11
550.0000000000309
 21
830.0000000000036
 31
0.0
  0
LINE
  5
373
330
1F
100
AcDbEntity
  8
LAY-10
  6
CONTINUOUS
 62
     7
100
AcDbLine
 10
560.0000000000309
 20
842.4000000000042
 30
0.0
 11
560.0000000000309
 21
849.8760000000038
 31
0.0
  0
LINE
  5
374
330
1F
100
AcDbEntity
  8
LAY-10
  6
CONTINUOUS
 62
     7
100
AcDbLine
 10
550.0000000000309
 20
842.4000000000042
 30
0.0
 11
550.0000000000309
 21
849.8760000000038
 31
0.0
  0
LINE
  5
375
330
1F
100
AcDbEntity
  8
LAY-10
  6
CONTINUOUS
 62
     7
100
AcDbLine
 10
550.0000000000309
 20
850.8000000000038
 30
0.0
 11
550.0000000000309
 21
854.0000000000038
 31
0.0
  0
LINE
  5
376
330
1F
100
AcDbEntity
  8
LAY-10
  6
CONTINUOUS
 62
     7
100
AcDbLine
 10
551.0000000000309
 20
855.0000000000036
 30
0.0
 11
559.0000000000309
 21
855.0000000000036
 31
0.0
  0
LINE
  5
377
330
1F
100
AcDbEntity
  8
LAY-10
  6
CONTINUOUS
 62
     7
100
AcDbLine
 10
550.0000000000309
 20
854.0000000000038
 30
0.0
 11
551.0000000000309
 21
855.0000000000036
 31
0.0
  0
LINE
  5
378
330
1F
100
AcDbEntity
  8
LAY-10
  6
CONTINUOUS
 62
     7
100
AcDbLine
 10
560.0000000000309
 20
850.8000000000038
 30
0.0
 11
560.0000000000309
 21
854.0000000000038
 31
0.0
  0
LINE
  5
379
330
1F
100
AcDbEntity
  8
LAY-10
  6
CONTINUOUS
 62
     7
100
AcDbLine
 10
560.0000000000309
 20
854.0000000000038
 30
0.0
 11
559.0000000000309
 21
855.0000000000036
 31
0.0
  0
ELLIPSE
  5
37A
330
1F
100
AcDbEntity
  8
LAY-10
  6
CONTINUOUS
 62
     7
100
AcDbEllipse
 10
1788.920000000031
 20
832.7166666667035
 30
0.0
 11
-5.80947501931002
 21
7.114554987124524E-16
 31
0.0
210
0.0
220
0.0
230
1.0
 40
0.7745966692416307
 41
0.0
 42
6.283185307179586
  0
ELLIPSE
  5
37B
330
1F
100
AcDbEntity
  8
LAY-10
  6
CONTINUOUS
 62
     7
100
AcDbEllipse
 10
571.0800000000309
 20
832.7166666667035
 30
0.0
 11
-5.80947501931002
 21
7.114554987124524E-16
 31
0.0
210
0.0
220
0.0
230
1.0
 40
0.7745966692416307
 41
0.0
 42
6.283185307179586
  0
LINE
  5
37C
330
1F
100
AcDbEntity
  8
LAY-10
  6
CONTINUOUS
 62
     7
100
AcDbLine
 10
1800.000000000029
 20
854.0000000000045
 30
0.0
 11
1810.000000000029
 21
854.0000000000045
 31
0.0
  0
LINE
  5
37D
330
1F
100
AcDbEntity
  8
LAY-10
  6
CONTINUOUS
 62
     7
100
AcDbLine
 10
1809.000000000029
 20
855.0000000000045
 30
0.0
 11
1809.000000000029
 21
850.8000000000038
 31
0.0
  0
LINE
  5
37E
330
1F
100
AcDbEntity
  8
LAY-10
  6
CONTINUOUS
 62
     7
100
AcDbLine
 10
1801.000000000029
 20
855.0000000000045
 30
0.0
 11
1801.000000000029
 21
850.8000000000038
 31
0.0
  0
LINE
  5
37F
330
1F
100
AcDbEntity
  8
LAY-10
  6
CONTINUOUS
 62
     7
100
AcDbLine
 10
1801.000000000029
 20
840.4000000000042
 30
0.0
 11
1801.000000000029
 21
830.0000000000036
 31
0.0
  0
LINE
  5
380
330
1F
100
AcDbEntity
  8
LAY-10
  6
CONTINUOUS
 62
     7
100
AcDbLine
 10
1809.000000000029
 20
840.4000000000042
 30
0.0
 11
1809.000000000029
 21
830.0000000000036
 31
0.0
  0
LINE
  5
381
330
1F
100
AcDbEntity
  8
LAY-10
  6
CONTINUOUS
 62
     7
100
AcDbLine
 10
1801.000000000029
 20
830.0000000000036
 30
0.0
 11
1800.000000000029
 21
829.0000000000045
 31
0.0
  0
LINE
  5
382
330
1F
100
AcDbEntity
  8
LAY-10
  6
CONTINUOUS
 62
     7
100
AcDbLine
 10
1809.000000000029
 20
830.0000000000036
 30
0.0
 11
1810.000000000029
 21
829.0000000000045
 31
0.0
  0
LINE
  5
383
330
1F
100
AcDbEntity
  8
LAY-10
  6
CONTINUOUS
 62
     7
100
AcDbLine
 10
550.0000000000309
 20
854.0000000000038
 30
0.0
 11
560.0000000000309
 21
854.0000000000038
 31
0.0
  0
LINE
  5
384
330
1F
100
AcDbEntity
  8
LAY-10
  6
CONTINUOUS
 62
     7
100
AcDbLine
 10
551.0000000000309
 20
855.0000000000036
 30
0.0
 11
551.0000000000309
 21
850.8000000000038
 31
0.0
  0
LINE
  5
385
330
1F
100
AcDbEntity
  8
LAY-10
  6
CONTINUOUS
 62
     7
100
AcDbLine
 10
551.0000000000309
 20
840.4000000000042
 30
0.0
 11
551.0000000000309
 21
830.0000000000036
 31
0.0
  0
LINE
  5
386
330
1F
100
AcDbEntity
  8
LAY-10
  6
CONTINUOUS
 62
     7
100
AcDbLine
 10
559.0000000000309
 20
840.4000000000042
 30
0.0
 11
559.0000000000309
 21
830.0000000000036
 31
0.0
  0
LINE
  5
387
330
1F
100
AcDbEntity
  8
LAY-10
  6
CONTINUOUS
 62
     7
100
AcDbLine
 10
559.0000000000309
 20
855.0000000000036
 30
0.0
 11
559.0000000000309
 21
850.8000000000038
 31
0.0
  0
LINE
  5
388
330
1F
100
AcDbEntity
  8
LAY-10
  6
CONTINUOUS
 62
     7
100
AcDbLine
 10
559.0000000000309
 20
830.0000000000036
 30
0.0
 11
560.0000000000309
 21
829.0000000000038
 31
0.0
  0
LINE
  5
389
330
1F
100
AcDbEntity
  8
LAY-10
  6
CONTINUOUS
 62
     7
100
AcDbLine
 10
551.0000000000309
 20
830.0000000000036
 30
0.0
 11
550.0000000000309
 21
829.0000000000038
 31
0.0
  0
LINE
  5
38A
330
1F
100
AcDbEntity
  8
LAY-10
  6
CONTINUOUS
 62
     7
100
AcDbLine
 10
1823.000000000029
 20
987.0000000000027
 30
0.0
 11
1823.000000000029
 21
828.2000000000035
 31
0.0
  0
LINE
  5
38B
330
1F
100
AcDbEntity
  8
LAY-10
  6
CONTINUOUS
 62
     7
100
AcDbLine
 10
1826.20000000003
 20
828.0000000000036
 30
0.0
 11
1826.20000000003
 21
987.0000000000027
 31
0.0
  0
LINE
  5
38C
330
1F
100
AcDbEntity
  8
LAY-10
  6
CONTINUOUS
 62
     7
100
AcDbLine
 10
533.800000000032
 20
828.0000000000036
 30
0.0
 11
533.800000000032
 21
987.0000000000027
 31
0.0
  0
LINE
  5
38D
330
1F
100
AcDbEntity
  8
LAY-10
  6
CONTINUOUS
 62
     7
100
AcDbLine
 10
537.0000000000327
 20
987.0000000000045
 30
0.0
 11
537.0000000000327
 21
828.2000000000053
 31
0.0
  0
CIRCLE
  5
38E
330
1F
100
AcDbEntity
  8
LAY-10
  6
CONTINUOUS
 62
     7
100
AcDbCircle
 10
1638.300000000033
 20
843.4000000000033
 30
0.0
 40
3.000000000000003
  0
LINE
  5
38F
330
1F
100
AcDbEntity
  8
LAY-10
  6
CONTINUOUS
 62
     7
100
AcDbLine
 10
1682.000891001001
 20
846.398217998065
 30
0.0
 11
1682.200000000031
 21
846.398217998065
 31
0.0
  0
ARC
  5
390
330
1F
100
AcDbEntity
  8
LAY-10
  6
CONTINUOUS
 62
     7
100
AcDbCircle
 10
1682.000000000032
 20
843.4000000000033
 30
0.0
 40
4.0
100
AcDbArc
 50
0.0
 51
131.4394216791113
  0
ARC
  5
391
330
1F
100
AcDbEntity
  8
LAY-10
  6
CONTINUOUS
 62
     7
100
AcDbCircle
 10
1686.00000000003
 20
841.4000000000033
 30
0.0
 40
1.0
100
AcDbArc
 50
180.0
 51
270.0000000000002
  0
LINE
  5
392
330
1F
100
AcDbEntity
  8
LAY-10
  6
CONTINUOUS
 62
     7
100
AcDbLine
 10
1686.00000000003
 20
843.4000000000033
 30
0.0
 11
1686.00000000003
 21
841.4000000000033
 31
0.0
  0
LINE
  5
393
330
1F
100
AcDbEntity
  8
LAY-10
  6
CONTINUOUS
 62
     7
100
AcDbLine
 10
1686.00000000003
 20
841.4000000000033
 30
0.0
 11
1695.00000000003
 21
841.4000000000042
 31
0.0
  0
LINE
  5
394
330
1F
100
AcDbEntity
  8
LAY-10
  6
CONTINUOUS
 62
     7
100
AcDbLine
 10
1695.00000000003
 20
841.4000000000042
 30
0.0
 11
1695.00000000003
 21
840.4000000000042
 31
0.0
  0
LINE
  5
395
330
1F
100
AcDbEntity
  8
LAY-10
  6
CONTINUOUS
 62
     7
100
AcDbLine
 10
1685.00000000003
 20
841.4000000000033
 30
0.0
 11
1685.00000000003
 21
843.4000000000033
 31
0.0
  0
LINE
  5
396
330
1F
100
AcDbEntity
  8
LAY-10
  6
CONTINUOUS
 62
     7
100
AcDbLine
 10
1638.209132620107
 20
846.3986235374405
 30
0.0
 11
1682.090867379956
 21
846.3986235374396
 31
0.0
  0
ARC
  5
397
330
1F
100
AcDbEntity
  8
LAY-10
  6
CONTINUOUS
 62
     7
100
AcDbCircle
 10
1682.000000000032
 20
843.4000000000033
 30
0.0
 40
3.000000000000003
100
AcDbArc
 50
270.0000000000002
 51
91.7357045889959
  0
LINE
  5
398
330
1F
100
AcDbEntity
  8
LAY-10
  6
HIDDEN
 62
     7
100
AcDbLine
 10
730.0000000000263
 20
807.2000000000071
 30
0.0
 11
730.0000000000263
 21
825.0000000000064
 31
0.0
  0
LINE
  5
399
330
1F
100
AcDbEntity
  8
LAY-10
  6
CONTINUOUS
 62
     7
100
AcDbLine
 10
730.0000000000299
 20
795.0000000000009
 30
0.0
 11
730.0000000000299
 21
807.2000000000062
 31
0.0
  0
LINE
  5
39A
330
1F
100
AcDbEntity
  8
LAY-10
  6
CONTINUOUS
 62
     7
100
AcDbLine
 10
630.0000000000299
 20
795.0000000000009
 30
0.0
 11
730.0000000000299
 21
795.0000000000009
 31
0.0
  0
LINE
  5
39B
330
1F
100
AcDbEntity
  8
LAY-10
  6
CONTINUOUS
 62
     7
100
AcDbLine
 10
630.0000000000299
 20
795.0000000000009
 30
0.0
 11
630.0000000000299
 21
807.2000000000035
 31
0.0
  0
LINE
  5
39C
330
1F
100
AcDbEntity
  8
LAY-10
  6
HIDDEN
 62
     7
100
AcDbLine
 10
730.0000000000263
 20
825.0000000000064
 30
0.0
 11
630.0000000000299
 21
825.0000000000064
 31
0.0
  0
LINE
  5
39D
330
1F
100
AcDbEntity
  8
LAY-10
  6
HIDDEN
 62
     7
100
AcDbLine
 10
630.0000000000265
 20
807.2000000000071
 30
0.0
 11
630.0000000000265
 21
825.0000000000064
 31
0.0
  0
LINE
  5
39E
330
1F
100
AcDbEntity
  8
LAY-10
  6
HIDDEN
 62
     7
100
AcDbLine
 10
1630.000000000035
 20
807.2000000000066
 30
0.0
 11
1630.000000000035
 21
825.0000000000059
 31
0.0
  0
LINE
  5
39F
330
1F
100
AcDbEntity
  8
LAY-10
  6
CONTINUOUS
 62
     7
100
AcDbLine
 10
1630.000000000032
 20
795.0000000000006
 30
0.0
 11
1630.000000000032
 21
807.2000000000057
 31
0.0
  0
LINE
  5
3A0
330
1F
100
AcDbEntity
  8
LAY-10
  6
CONTINUOUS
 62
     7
100
AcDbLine
 10
1730.000000000032
 20
795.0000000000006
 30
0.0
 11
1630.000000000032
 21
795.0000000000006
 31
0.0
  0
LINE
  5
3A1
330
1F
100
AcDbEntity
  8
LAY-10
  6
CONTINUOUS
 62
     7
100
AcDbLine
 10
1730.000000000032
 20
795.0000000000009
 30
0.0
 11
1730.000000000032
 21
807.2000000000035
 31
0.0
  0
LINE
  5
3A2
330
1F
100
AcDbEntity
  8
LAY-10
  6
HIDDEN
 62
     7
100
AcDbLine
 10
1630.000000000035
 20
825.0000000000059
 30
0.0
 11
1730.000000000032
 21
825.0000000000059
 31
0.0
  0
LINE
  5
3A3
330
1F
100
AcDbEntity
  8
LAY-10
  6
HIDDEN
 62
     7
100
AcDbLine
 10
1730.000000000035
 20
807.2000000000066
 30
0.0
 11
1730.000000000035
 21
825.0000000000059
 31
0.0
  0
CIRCLE
  5
3A4
330
1F
100
AcDbEntity
  8
LAY-10
  6
CONTINUOUS
 62
     7
100
AcDbCircle
 10
721.7000000001276
 20
843.4000000000033
 30
0.0
 40
3.000000000000003
  0
LINE
  5
3A5
330
1F
100
AcDbEntity
  8
LAY-10
  6
CONTINUOUS
 62
     7
100
AcDbLine
 10
677.9991089991594
 20
846.398217998065
 30
0.0
 11
677.8000000001297
 21
846.398217998065
 31
0.0
  0
ARC
  5
3A6
330
1F
100
AcDbEntity
  8
LAY-10
  6
CONTINUOUS
 62
     7
100
AcDbCircle
 10
678.0000000001286
 20
843.4000000000033
 30
0.0
 40
4.0
100
AcDbArc
 50
48.56057832088977
 51
180.0
  0
ARC
  5
3A7
330
1F
100
AcDbEntity
  8
LAY-10
  6
CONTINUOUS
 62
     7
100
AcDbCircle
 10
674.0000000001303
 20
841.4000000000033
 30
0.0
 40
1.0
100
AcDbArc
 50
270.0
 51
0.0
  0
LINE
  5
3A8
330
1F
100
AcDbEntity
  8
LAY-10
  6
CONTINUOUS
 62
     7
100
AcDbLine
 10
674.0000000001303
 20
843.4000000000033
 30
0.0
 11
674.0000000001303
 21
841.4000000000033
 31
0.0
  0
LINE
  5
3A9
330
1F
100
AcDbEntity
  8
LAY-10
  6
CONTINUOUS
 62
     7
100
AcDbLine
 10
674.0000000001303
 20
841.4000000000033
 30
0.0
 11
665.0000000001304
 21
841.4000000000042
 31
0.0
  0
LINE
  5
3AA
330
1F
100
AcDbEntity
  8
LAY-10
  6
CONTINUOUS
 62
     7
100
AcDbLine
 10
665.0000000001304
 20
841.4000000000042
 30
0.0
 11
665.0000000001304
 21
840.4000000000042
 31
0.0
  0
LINE
  5
3AB
330
1F
100
AcDbEntity
  8
LAY-10
  6
CONTINUOUS
 62
     7
100
AcDbLine
 10
675.0000000001304
 20
841.4000000000033
 30
0.0
 11
675.0000000001304
 21
843.4000000000033
 31
0.0
  0
LINE
  5
3AC
330
1F
100
AcDbEntity
  8
LAY-10
  6
CONTINUOUS
 62
     7
100
AcDbLine
 10
721.7908673800533
 20
846.3986235374405
 30
0.0
 11
677.9091326202044
 21
846.3986235374396
 31
0.0
  0
ARC
  5
3AD
330
1F
100
AcDbEntity
  8
LAY-10
  6
CONTINUOUS
 62
     7
100
AcDbCircle
 10
678.0000000001286
 20
843.4000000000033
 30
0.0
 40
3.000000000000003
100
AcDbArc
 50
88.26429541100414
 51
270.0
  0
LINE
  5
3AE
330
1F
100
AcDbEntity
  8
LAY-10
  6
CONTINUOUS
 62
     7
100
AcDbLine
 10
537.0000000000327
 20
876.8000000000002
 30
0.0
 11
1823.000000000029
 21
876.8000000000002
 31
0.0
  0
LINE
  5
3AF
330
1F
100
AcDbEntity
  8
LAY-10
  6
CONTINUOUS
 62
     7
100
AcDbLine
 10
1823.000000000029
 20
874.8000000000002
 30
0.0
 11
537.0000000000327
 21
874.8000000000002
 31
0.0
  0
LINE
  5
3B0
330
1F
100
AcDbEntity
  8
LAY-10
  6
CONTINUOUS
 62
     7
100
AcDbLine
 10
1869.555339059356
 20
833.9583694396293
 30
0.0
 11
1834.20000000003
 21
869.3137084989553
 31
0.0
  0
LINE
  5
3B1
330
1F
100
AcDbEntity
  8
LAY-10
  6
CONTINUOUS
 62
     7
100
AcDbLine
 10
1863.898484809864
 20
828.3015151901368
 30
0.0
 11
1869.555339059356
 21
833.9583694396293
 31
0.0
  0
LINE
  5
3B2
330
1F
100
AcDbEntity
  8
LAY-10
  6
CONTINUOUS
 62
     7
100
AcDbLine
 10
1834.20000000003
 20
869.3137084989553
 30
0.0
 11
1834.20000000003
 21
895.9999999999704
 31
0.0
  0
LINE
  5
3B3
330
1F
100
AcDbEntity
  8
LAY-10
  6
CONTINUOUS
 62
     7
100
AcDbLine
 10
1834.20000000003
 20
895.9999999999704
 30
0.0
 11
1826.20000000003
 21
895.9999999999704
 31
0.0
  0
ARC
  5
3B4
330
1F
100
AcDbEntity
  8
LAY-10
  6
CONTINUOUS
 62
     7
100
AcDbCircle
 10
1834.20000000003
 20
869.3137084989553
 30
0.0
 40
8.0
100
AcDbArc
 50
180.0
 51
224.9999999999978
  0
LINE
  5
3B5
330
1F
100
AcDbEntity
  8
LAY-10
  6
CONTINUOUS
 62
     7
100
AcDbLine
 10
1863.898484809864
 20
828.3015151901368
 30
0.0
 11
1828.543145750536
 21
863.6568542494643
 31
0.0
  0
LINE
  5
3B6
330
1F
100
AcDbEntity
  8
LAY-10
  6
CONTINUOUS
 62
     7
100
AcDbLine
 10
496.1015151901975
 20
828.3015151901368
 30
0.0
 11
490.444660940706
 21
833.9583694396293
 31
0.0
  0
LINE
  5
3B7
330
1F
100
AcDbEntity
  8
LAY-10
  6
CONTINUOUS
 62
     7
100
AcDbLine
 10
490.444660940706
 20
833.9583694396293
 30
0.0
 11
525.800000000032
 21
869.3137084989553
 31
0.0
  0
LINE
  5
3B8
330
1F
100
AcDbEntity
  8
LAY-10
  6
CONTINUOUS
 62
     7
100
AcDbLine
 10
525.800000000032
 20
869.3137084989553
 30
0.0
 11
525.800000000032
 21
895.9999999999714
 31
0.0
  0
LINE
  5
3B9
330
1F
100
AcDbEntity
  8
LAY-10
  6
CONTINUOUS
 62
     7
100
AcDbLine
 10
525.800000000032
 20
895.9999999999714
 30
0.0
 11
533.800000000032
 21
895.9999999999714
 31
0.0
  0
ARC
  5
3BA
330
1F
100
AcDbEntity
  8
LAY-10
  6
CONTINUOUS
 62
     7
100
AcDbCircle
 10
525.800000000032
 20
869.3137084989553
 30
0.0
 40
8.0
100
AcDbArc
 50
315.0000000000102
 51
0.0
  0
LINE
  5
3BB
330
1F
100
AcDbEntity
  8
LAY-10
  6
CONTINUOUS
 62
     7
100
AcDbLine
 10
496.1015151901975
 20
828.3015151901368
 30
0.0
 11
531.4568542495253
 21
863.6568542494647
 31
0.0
  0
LINE
  5
3BC
330
1F
100
AcDbEntity
  8
LAY-10
  6
CONTINUOUS
 62
     7
100
AcDbLine
 10
2386.29848480993
 20
2071.900000000006
 30
0.0
 11
2386.29848480993
 21
2075.900000000008
 31
0.0
  0
LINE
  5
3BD
330
1F
100
AcDbEntity
  8
LAY-10
  6
CONTINUOUS
 62
     7
100
AcDbLine
 10
2398.498484809931
 20
2031.900000000008
 30
0.0
 11
2398.498484809931
 21
2082.100000000006
 31
0.0
  0
LINE
  5
3BE
330
1F
100
AcDbEntity
  8
LAY-10
  6
CONTINUOUS
 62
     7
100
AcDbLine
 10
2395.29848480993
 20
2060.900000000008
 30
0.0
 11
2398.498484809931
 21
2060.900000000008
 31
0.0
  0
LINE
  5
3BF
330
1F
100
AcDbEntity
  8
LAY-10
  6
CONTINUOUS
 62
     7
100
AcDbLine
 10
2395.29848480993
 20
2072.900000000006
 30
0.0
 11
2398.498484809931
 21
2072.900000000006
 31
0.0
  0
LINE
  5
3C0
330
1F
100
AcDbEntity
  8
LAY-10
  6
CONTINUOUS
 62
     7
100
AcDbLine
 10
2386.29848480993
 20
2060.900000000008
 30
0.0
 11
2383.09848480993
 21
2060.900000000008
 31
0.0
  0
LINE
  5
3C1
330
1F
100
AcDbEntity
  8
LAY-10
  6
CONTINUOUS
 62
     7
100
AcDbLine
 10
2386.29848480993
 20
2072.900000000006
 30
0.0
 11
2383.09848480993
 21
2072.900000000006
 31
0.0
  0
LINE
  5
3C2
330
1F
100
AcDbEntity
  8
LAY-10
  6
CONTINUOUS
 62
     7
100
AcDbLine
 10
2395.29848480993
 20
2075.900000000008
 30
0.0
 11
2386.29848480993
 21
2075.900000000008
 31
0.0
  0
ARC
  5
3C3
330
1F
100
AcDbEntity
  8
LAY-10
  6
CONTINUOUS
 62
     7
100
AcDbCircle
 10
2386.09848480993
 20
2075.900000000008
 30
0.0
 40
3.000000000000003
100
AcDbArc
 50
90.00000000000009
 51
180.0000000000002
  0
LINE
  5
3C4
330
1F
100
AcDbEntity
  8
LAY-10
  6
CONTINUOUS
 62
     7
100
AcDbLine
 10
2395.29848480993
 20
2078.900000000005
 30
0.0
 11
2386.09848480993
 21
2078.900000000005
 31
0.0
  0
LINE
  5
3C5
330
1F
100
AcDbEntity
  8
LAY-10
  6
CONTINUOUS
 62
     7
100
AcDbLine
 10
2351.898484809933
 20
2085.100000000007
 30
0.0
 11
2395.498484809931
 21
2085.100000000007
 31
0.0
  0
ARC
  5
3C6
330
1F
100
AcDbEntity
  8
LAY-10
  6
CONTINUOUS
 62
     7
100
AcDbCircle
 10
2395.498484809931
 20
2082.100000000006
 30
0.0
 40
3.000000000000003
100
AcDbArc
 50
0.0000000000000573
 51
90.00000000000009
  0
ARC
  5
3C7
330
1F
100
AcDbEntity
  8
LAY-10
  6
CONTINUOUS
 62
     7
100
AcDbCircle
 10
2345.698484809932
 20
2118.900000000008
 30
0.0
 40
3.000000000000003
100
AcDbArc
 50
0.0000000000000573
 51
90.00000000000009
  0
ARC
  5
3C8
330
1F
100
AcDbEntity
  8
LAY-10
  6
CONTINUOUS
 62
     7
100
AcDbCircle
 10
2345.898484809933
 20
2119.100000000007
 30
0.0
 40
6.000000000000006
100
AcDbArc
 50
0.0000000000000573
 51
90.00000000000009
  0
ARC
  5
3C9
330
1F
100
AcDbEntity
  8
LAY-10
  6
CONTINUOUS
 62
     7
100
AcDbCircle
 10
2351.698484809932
 20
2084.900000000008
 30
0.0
 40
3.000000000000003
100
AcDbArc
 50
180.0000000000002
 51
270.0000000000002
  0
LINE
  5
3CA
330
1F
100
AcDbEntity
  8
LAY-10
  6
CONTINUOUS
 62
     7
100
AcDbLine
 10
2395.29848480993
 20
2044.900000000008
 30
0.0
 11
2386.29848480993
 21
2044.900000000008
 31
0.0
  0
LINE
  5
3CB
330
1F
100
AcDbEntity
  8
LAY-10
  6
CONTINUOUS
 62
     7
100
AcDbLine
 10
2395.29848480993
 20
2061.900000000007
 30
0.0
 11
2395.29848480993
 21
2031.900000000008
 31
0.0
  0
LINE
  5
3CC
330
1F
100
AcDbEntity
  8
LAY-10
  6
CONTINUOUS
 62
     7
100
AcDbLine
 10
2401.498484809931
 20
2048.899999999964
 30
0.0
 11
2401.498484809931
 21
2056.900000000012
 31
0.0
  0
ARC
  5
3CD
330
1F
100
AcDbEntity
  8
LAY-10
  6
CONTINUOUS
 62
     7
100
AcDbCircle
 10
2405.498484809931
 20
2048.899999999964
 30
0.0
 40
4.0
100
AcDbArc
 50
180.0000000000002
 51
270.0000000000002
  0
LINE
  5
3CE
330
1F
100
AcDbEntity
  8
LAY-10
  6
CONTINUOUS
 62
     7
100
AcDbLine
 10
2351.698484809932
 20
2081.900000000007
 30
0.0
 11
2395.29848480993
 21
2081.900000000007
 31
0.0
  0
LINE
  5
3CF
330
1F
100
AcDbEntity
  8
LAY-10
  6
CONTINUOUS
 62
     7
100
AcDbLine
 10
2405.498484809931
 20
2044.899999999964
 30
0.0
 11
2426.498484809931
 21
2044.899999999964
 31
0.0
  0
ARC
  5
3D0
330
1F
100
AcDbEntity
  8
LAY-10
  6
CONTINUOUS
 62
     7
100
AcDbCircle
 10
2426.498484809931
 20
2042.899999999964
 30
0.0
 40
2.0
100
AcDbArc
 50
0.0000000000000573
 51
90.00000000000009
  0
LINE
  5
3D1
330
1F
100
AcDbEntity
  8
LAY-10
  6
CONTINUOUS
 62
     7
100
AcDbLine
 10
2428.498484809931
 20
2041.899999999964
 30
0.0
 11
2428.498484809931
 21
2042.899999999964
 31
0.0
  0
LINE
  5
3D2
330
1F
100
AcDbEntity
  8
LAY-10
  6
CONTINUOUS
 62
     7
100
AcDbLine
 10
2428.498484809931
 20
2041.900000000008
 30
0.0
 11
2386.29848480993
 21
2041.900000000008
 31
0.0
  0
LINE
  5
3D3
330
1F
100
AcDbEntity
  8
LAY-10
  6
CONTINUOUS
 62
     7
100
AcDbLine
 10
2395.29848480993
 20
1422.900000000007
 30
0.0
 11
2398.498484809931
 21
1422.900000000007
 31
0.0
  0
LINE
  5
3D4
330
1F
100
AcDbEntity
  8
LAY-10
  6
CONTINUOUS
 62
     7
100
AcDbLine
 10
2395.29848480993
 20
1410.900000000008
 30
0.0
 11
2398.498484809931
 21
1410.900000000008
 31
0.0
  0
LINE
  5
3D5
330
1F
100
AcDbEntity
  8
LAY-10
  6
CONTINUOUS
 62
     7
100
AcDbLine
 10
2386.29848480993
 20
1422.900000000007
 30
0.0
 11
2383.09848480993
 21
1422.900000000007
 31
0.0
  0
LINE
  5
3D6
330
1F
100
AcDbEntity
  8
LAY-10
  6
CONTINUOUS
 62
     7
100
AcDbLine
 10
2386.29848480993
 20
1410.900000000008
 30
0.0
 11
2383.09848480993
 21
1410.900000000008
 31
0.0
  0
LINE
  5
3D7
330
1F
100
AcDbEntity
  8
LAY-10
  6
CONTINUOUS
 62
     7
100
AcDbLine
 10
2395.29848480993
 20
1404.900000000006
 30
0.0
 11
2386.09848480993
 21
1404.900000000006
 31
0.0
  0
LINE
  5
3D8
330
1F
100
AcDbEntity
  8
LAY-10
  6
CONTINUOUS
 62
     7
100
AcDbLine
 10
2395.29848480993
 20
1407.900000000007
 30
0.0
 11
2386.29848480993
 21
1407.900000000007
 31
0.0
  0
ARC
  5
3D9
330
1F
100
AcDbEntity
  8
LAY-10
  6
CONTINUOUS
 62
     7
100
AcDbCircle
 10
2395.498484809931
 20
1401.700000000007
 30
0.0
 40
3.000000000000003
100
AcDbArc
 50
270.0000000000002
 51
0.0000000000000573
  0
ARC
  5
3DA
330
1F
100
AcDbEntity
  8
LAY-10
  6
CONTINUOUS
 62
     7
100
AcDbCircle
 10
2386.09848480993
 20
1407.900000000007
 30
0.0
 40
3.000000000000003
100
AcDbArc
 50
180.0000000000002
 51
270.0000000000002
  0
ARC
  5
3DB
330
1F
100
AcDbEntity
  8
LAY-10
  6
CONTINUOUS
 62
     7
100
AcDbCircle
 10
2345.698484809932
 20
1364.900000000006
 30
0.0
 40
3.000000000000003
100
AcDbArc
 50
270.0000000000002
 51
0.0000000000000573
  0
ARC
  5
3DC
330
1F
100
AcDbEntity
  8
LAY-10
  6
CONTINUOUS
 62
     7
100
AcDbCircle
 10
2345.898484809933
 20
1364.700000000007
 30
0.0
 40
6.000000000000006
100
AcDbArc
 50
270.0000000000002
 51
0.0000000000000573
  0
ARC
  5
3DD
330
1F
100
AcDbEntity
  8
LAY-10
  6
CONTINUOUS
 62
     7
100
AcDbCircle
 10
2351.698484809932
 20
1398.900000000007
 30
0.0
 40
3.000000000000003
100
AcDbArc
 50
90.00000000000009
 51
180.0000000000002
  0
LINE
  5
3DE
330
1F
100
AcDbEntity
  8
LAY-10
  6
CONTINUOUS
 62
     7
100
AcDbLine
 10
2395.29848480993
 20
1438.900000000007
 30
0.0
 11
2386.29848480993
 21
1438.900000000007
 31
0.0
  0
LINE
  5
3DF
330
1F
100
AcDbEntity
  8
LAY-10
  6
CONTINUOUS
 62
     7
100
AcDbLine
 10
2395.29848480993
 20
1421.900000000008
 30
0.0
 11
2395.29848480993
 21
1451.900000000008
 31
0.0
  0
LINE
  5
3E0
330
1F
100
AcDbEntity
  8
LAY-10
  6
CONTINUOUS
 62
     7
100
AcDbLine
 10
2401.498484809931
 20
1434.900000000047
 30
0.0
 11
2401.498484809931
 21
1426.9
 31
0.0
  0
ARC
  5
3E1
330
1F
100
AcDbEntity
  8
LAY-10
  6
CONTINUOUS
 62
     7
100
AcDbCircle
 10
2405.498484809931
 20
1434.900000000047
 30
0.0
 40
4.0
100
AcDbArc
 50
90.00000000000009
 51
180.0000000000002
  0
LINE
  5
3E2
330
1F
100
AcDbEntity
  8
LAY-10
  6
CONTINUOUS
 62
     7
100
AcDbLine
 10
2351.898484809933
 20
1398.700000000007
 30
0.0
 11
2395.498484809931
 21
1398.700000000007
 31
0.0
  0
LINE
  5
3E3
330
1F
100
AcDbEntity
  8
LAY-10
  6
CONTINUOUS
 62
     7
100
AcDbLine
 10
2351.698484809932
 20
1401.900000000008
 30
0.0
 11
2395.29848480993
 21
1401.900000000008
 31
0.0
  0
LINE
  5
3E4
330
1F
100
AcDbEntity
  8
LAY-10
  6
CONTINUOUS
 62
     7
100
AcDbLine
 10
2405.498484809931
 20
1438.900000000048
 30
0.0
 11
2426.498484809931
 21
1438.900000000048
 31
0.0
  0
LINE
  5
3E5
330
1F
100
AcDbEntity
  8
LAY-10
  6
CONTINUOUS
 62
     7
100
AcDbLine
 10
2428.498484809931
 20
1441.900000000048
 30
0.0
 11
2428.498484809931
 21
1440.900000000048
 31
0.0
  0
ARC
  5
3E6
330
1F
100
AcDbEntity
  8
LAY-10
  6
CONTINUOUS
 62
     7
100
AcDbCircle
 10
2426.498484809931
 20
1440.900000000048
 30
0.0
 40
2.0
100
AcDbArc
 50
270.0000000000002
 51
0.0000000000000573
  0
LINE
  5
3E7
330
1F
100
AcDbEntity
  8
LAY-10
  6
CONTINUOUS
 62
     7
100
AcDbLine
 10
2428.498484809931
 20
1441.900000000008
 30
0.0
 11
2386.29848480993
 21
1441.900000000008
 31
0.0
  0
LINE
  5
3E8
330
1F
100
AcDbEntity
  8
LAY-10
  6
CONTINUOUS
 62
     7
100
AcDbLine
 10
2386.29848480993
 20
2061.900000000007
 30
0.0
 11
2386.29848480993
 21
1421.900000000008
 31
0.0
  0
LINE
  5
3E9
330
1F
100
AcDbEntity
  8
LAY-10
  6
CONTINUOUS
 62
     7
100
AcDbLine
 10
2416.29848480993
 20
1451.900000000008
 30
0.0
 11
2416.29848480993
 21
2031.900000000008
 31
0.0
  0
LINE
  5
3EA
330
1F
100
AcDbEntity
  8
LAY-10
  6
CONTINUOUS
 62
     7
100
AcDbLine
 10
2383.09848480993
 20
1406.400000000008
 30
0.0
 11
2383.09848480993
 21
2077.400000000008
 31
0.0
  0
LINE
  5
3EB
330
1F
100
AcDbEntity
  8
LAY-10
  6
CONTINUOUS
 62
     7
100
AcDbLine
 10
2389.29848480993
 20
1458.900000000008
 30
0.0
 11
2389.29848480993
 21
2024.900000000006
 31
0.0
  0
LINE
  5
3EC
330
1F
100
AcDbEntity
  8
LAY-10
  6
CONTINUOUS
 62
     7
100
AcDbLine
 10
2389.596969619765
 20
2162.798484809843
 30
0.0
 11
2354.241630560439
 21
2127.443145750514
 31
0.0
  0
LINE
  5
3ED
330
1F
100
AcDbEntity
  8
LAY-10
  6
CONTINUOUS
 62
     7
100
AcDbLine
 10
2389.596969619765
 20
2162.798484809843
 30
0.0
 11
2395.253823869259
 21
2157.14163056035
 31
0.0
  0
LINE
  5
3EE
330
1F
100
AcDbEntity
  8
LAY-10
  6
CONTINUOUS
 62
     7
100
AcDbLine
 10
2395.253823869259
 20
2157.14163056035
 30
0.0
 11
2359.898484809931
 21
2121.786291501023
 31
0.0
  0
LINE
  5
3EF
330
1F
100
AcDbEntity
  8
LAY-10
  6
CONTINUOUS
 62
     7
100
AcDbLine
 10
2359.898484809931
 20
2121.786291501023
 30
0.0
 11
2359.898484809931
 21
2091.786291501023
 31
0.0
  0
LINE
  5
3F0
330
1F
100
AcDbEntity
  8
LAY-10
  6
CONTINUOUS
 62
     7
100
AcDbLine
 10
2359.898484809931
 20
2091.786291501023
 30
0.0
 11
2351.898484809933
 21
2091.786291501023
 31
0.0
  0
ARC
  5
3F1
330
1F
100
AcDbEntity
  8
LAY-10
  6
CONTINUOUS
 62
     7
100
AcDbCircle
 10
2359.898484809931
 20
2121.786291501023
 30
0.0
 40
8.0
100
AcDbArc
 50
135.0000000000185
 51
180.0000000000002
  0
LINE
  5
3F2
330
1F
100
AcDbEntity
  8
LAY-10
  6
CONTINUOUS
 62
     7
100
AcDbLine
 10
2389.596969619765
 20
1321.001515190173
 30
0.0
 11
2354.241630560439
 21
1356.3568542495
 31
0.0
  0
ARC
  5
3F3
330
1F
100
AcDbEntity
  8
LAY-10
  6
CONTINUOUS
 62
     7
100
AcDbCircle
 10
2359.898484809931
 20
1362.013708498992
 30
0.0
 40
8.0
100
AcDbArc
 50
180.0000000000002
 51
224.9999999999946
  0
LINE
  5
3F4
330
1F
100
AcDbEntity
  8
LAY-10
  6
CONTINUOUS
 62
     7
100
AcDbLine
 10
2359.898484809931
 20
1392.013708498992
 30
0.0
 11
2351.898484809933
 21
1392.013708498992
 31
0.0
  0
LINE
  5
3F5
330
1F
100
AcDbEntity
  8
LAY-10
  6
CONTINUOUS
 62
     7
100
AcDbLine
 10
2359.898484809931
 20
1362.013708498992
 30
0.0
 11
2359.898484809931
 21
1392.013708498992
 31
0.0
  0
LINE
  5
3F6
330
1F
100
AcDbEntity
  8
LAY-10
  6
CONTINUOUS
 62
     7
100
AcDbLine
 10
2395.253823869259
 20
1326.658369439665
 30
0.0
 11
2359.898484809931
 21
1362.013708498992
 31
0.0
  0
LINE
  5
3F7
330
1F
100
AcDbEntity
  8
LAY-10
  6
CONTINUOUS
 62
     7
100
AcDbLine
 10
2389.596969619765
 20
1321.001515190173
 30
0.0
 11
2395.253823869259
 21
1326.658369439665
 31
0.0
  0
LINE
  5
3F8
330
1F
100
AcDbEntity
  8
LAY-10
  6
CONTINUOUS
 62
     7
100
AcDbLine
 10
2363.698484809932
 20
2121.100000000008
 30
0.0
 11
2394.69848480993
 21
2121.100000000008
 31
0.0
  0
LINE
  5
3F9
330
1F
100
AcDbEntity
  8
LAY-10
  6
CONTINUOUS
 62
     7
100
AcDbLine
 10
2394.69848480993
 20
2121.100000000008
 30
0.0
 11
2394.69848480993
 21
2085.100000000007
 31
0.0
  0
LINE
  5
3FA
330
1F
100
AcDbEntity
  8
LAY-10
  6
CONTINUOUS
 62
     7
100
AcDbLine
 10
2363.698484809932
 20
2121.100000000008
 30
0.0
 11
2363.698484809932
 21
2085.100000000009
 31
0.0
  0
LINE
  5
3FB
330
1F
100
AcDbEntity
  8
LAY-10
  6
CONTINUOUS
 62
     7
100
AcDbLine
 10
2361.35848480993
 20
2085.100000000009
 30
0.0
 11
2363.698484809932
 21
2087.380000000007
 31
0.0
  0
LINE
  5
3FC
330
1F
100
AcDbEntity
  8
LAY-10
  6
CONTINUOUS
 62
     7
100
AcDbLine
 10
2394.69848480993
 20
2087.500000000006
 30
0.0
 11
2397.347409594903
 21
2084.46251500303
 31
0.0
  0
LINE
  5
3FD
330
1F
100
AcDbEntity
  8
LAY-10
  6
CONTINUOUS
 62
     7
100
AcDbLine
 10
2363.698484809932
 20
1362.700000000007
 30
0.0
 11
2394.69848480993
 21
1362.700000000007
 31
0.0
  0
LINE
  5
3FE
330
1F
100
AcDbEntity
  8
LAY-10
  6
CONTINUOUS
 62
     7
100
AcDbLine
 10
2394.69848480993
 20
1362.700000000007
 30
0.0
 11
2394.69848480993
 21
1398.700000000007
 31
0.0
  0
LINE
  5
3FF
330
1F
100
AcDbEntity
  8
LAY-10
  6
CONTINUOUS
 62
     7
100
AcDbLine
 10
2363.698484809932
 20
1362.700000000007
 30
0.0
 11
2363.698484809932
 21
1398.700000000007
 31
0.0
  0
LINE
  5
400
330
1F
100
AcDbEntity
  8
LAY-10
  6
CONTINUOUS
 62
     7
100
AcDbLine
 10
2361.35848480993
 20
1398.700000000007
 30
0.0
 11
2363.698484809932
 21
1396.420000000006
 31
0.0
  0
LINE
  5
401
330
1F
100
AcDbEntity
  8
LAY-10
  6
CONTINUOUS
 62
     7
100
AcDbLine
 10
2394.69848480993
 20
1396.300000000007
 30
0.0
 11
2397.347409594907
 21
1399.337484996985
 31
0.0
  0
LINE
  5
402
330
1F
100
AcDbEntity
  8
LAY-10
  6
CONTINUOUS
 62
     7
100
AcDbLine
 10
2369.498484809928
 20
2061.900000000007
 30
0.0
 11
2368.498484809931
 21
2062.900000000006
 31
0.0
  0
LINE
  5
403
330
1F
100
AcDbEntity
  8
LAY-10
  6
CONTINUOUS
 62
     7
100
AcDbLine
 10
2369.498484809928
 20
2071.900000000006
 30
0.0
 11
2368.498484809931
 21
2070.900000000006
 31
0.0
  0
LINE
  5
404
330
1F
100
AcDbEntity
  8
LAY-10
  6
CONTINUOUS
 62
     7
100
AcDbLine
 10
2368.498484809931
 20
2062.900000000006
 30
0.0
 11
2368.498484809931
 21
2070.900000000006
 31
0.0
  0
LINE
  5
405
330
1F
100
AcDbEntity
  8
LAY-10
  6
CONTINUOUS
 62
     7
100
AcDbLine
 10
2372.698484809928
 20
2071.900000000006
 30
0.0
 11
2369.498484809928
 21
2071.900000000006
 31
0.0
  0
LINE
  5
406
330
1F
100
AcDbEntity
  8
LAY-10
  6
CONTINUOUS
 62
     7
100
AcDbLine
 10
2372.698484809928
 20
2061.900000000007
 30
0.0
 11
2369.498484809928
 21
2061.900000000007
 31
0.0
  0
LINE
  5
407
330
1F
100
AcDbEntity
  8
LAY-10
  6
CONTINUOUS
 62
     7
100
AcDbLine
 10
2381.09848480993
 20
2071.900000000006
 30
0.0
 11
2373.622484809931
 21
2071.900000000006
 31
0.0
  0
LINE
  5
408
330
1F
100
AcDbEntity
  8
LAY-10
  6
CONTINUOUS
 62
     7
100
AcDbLine
 10
2381.09848480993
 20
2061.900000000007
 30
0.0
 11
2373.622484809931
 21
2061.900000000007
 31
0.0
  0
LINE
  5
409
330
1F
100
AcDbEntity
  8
LAY-10
  6
CONTINUOUS
 62
     7
100
AcDbLine
 10
2404.194484809927
 20
2071.900000000006
 30
0.0
 11
2383.09848480993
 21
2071.900000000006
 31
0.0
  0
LINE
  5
40A
330
1F
100
AcDbEntity
  8
LAY-10
  6
CONTINUOUS
 62
     7
100
AcDbLine
 10
2404.194484809927
 20
2061.900000000007
 30
0.0
 11
2383.09848480993
 21
2061.900000000007
 31
0.0
  0
LINE
  5
40B
330
1F
100
AcDbEntity
  8
LAY-10
  6
CONTINUOUS
 62
     7
100
AcDbLine
 10
2393.498484809931
 20
2071.900000000006
 30
0.0
 11
2393.498484809931
 21
2061.900000000007
 31
0.0
  0
LINE
  5
40C
330
1F
100
AcDbEntity
  8
LAY-10
  6
CONTINUOUS
 62
     7
100
AcDbLine
 10
2398.498484809931
 20
2076.900000000007
 30
0.0
 11
2404.194484809927
 21
2076.900000000007
 31
0.0
  0
LINE
  5
40D
330
1F
100
AcDbEntity
  8
LAY-10
  6
CONTINUOUS
 62
     7
100
AcDbLine
 10
2400.838484809928
 20
2076.900000000009
 30
0.0
 11
2398.498484809931
 21
2079.180000000008
 31
0.0
  0
ARC
  5
40E
330
1F
100
AcDbEntity
  8
LAY-10
  6
CONTINUOUS
 62
     7
100
AcDbCircle
 10
2386.790802991746
 20
2066.900000000005
 30
0.0
 40
18.10768181818181
100
AcDbArc
 50
343.970878113385
 51
16.0291218866122
  0
LINE
  5
40F
330
1F
100
AcDbEntity
  8
LAY-10
  6
CONTINUOUS
 62
     7
100
AcDbLine
 10
2404.898484809929
 20
2059.400000000007
 30
0.0
 11
2404.898484809929
 21
2074.400000000005
 31
0.0
  0
ARC
  5
410
330
1F
100
AcDbEntity
  8
LAY-10
  6
CONTINUOUS
 62
     7
100
AcDbCircle
 10
2400.107564355386
 20
2074.400000000005
 30
0.0
 40
4.790920454545454
100
AcDbArc
 50
328.5455606612192
 51
31.45443933876888
  0
ARC
  5
411
330
1F
100
AcDbEntity
  8
LAY-10
  6
CONTINUOUS
 62
     7
100
AcDbCircle
 10
2400.107564355386
 20
2059.400000000007
 30
0.0
 40
4.790920454545454
100
AcDbArc
 50
328.5455606612285
 51
31.45443933874012
  0
LINE
  5
412
330
1F
100
AcDbEntity
  8
LAY-10
  6
CONTINUOUS
 62
     7
100
AcDbLine
 10
2398.498484809931
 20
2054.560000000008
 30
0.0
 11
2400.77848480993
 21
2056.900000000008
 31
0.0
  0
LINE
  5
413
330
1F
100
AcDbEntity
  8
LAY-10
  6
CONTINUOUS
 62
     7
100
AcDbLine
 10
2398.498484809931
 20
2056.900000000008
 30
0.0
 11
2404.194484809927
 21
2056.900000000008
 31
0.0
  0
LINE
  5
414
330
1F
100
AcDbEntity
  8
LAY-10
  6
CONTINUOUS
 62
     7
100
AcDbLine
 10
2369.498484809928
 20
1411.900000000008
 30
0.0
 11
2368.498484809931
 21
1412.900000000008
 31
0.0
  0
LINE
  5
415
330
1F
100
AcDbEntity
  8
LAY-10
  6
CONTINUOUS
 62
     7
100
AcDbLine
 10
2369.498484809928
 20
1421.900000000008
 30
0.0
 11
2368.498484809931
 21
1420.900000000008
 31
0.0
  0
LINE
  5
416
330
1F
100
AcDbEntity
  8
LAY-10
  6
CONTINUOUS
 62
     7
100
AcDbLine
 10
2368.498484809931
 20
1412.900000000008
 30
0.0
 11
2368.498484809931
 21
1420.900000000008
 31
0.0
  0
LINE
  5
417
330
1F
100
AcDbEntity
  8
LAY-10
  6
CONTINUOUS
 62
     7
100
AcDbLine
 10
2372.698484809928
 20
1421.900000000008
 30
0.0
 11
2369.498484809928
 21
1421.900000000008
 31
0.0
  0
LINE
  5
418
330
1F
100
AcDbEntity
  8
LAY-10
  6
CONTINUOUS
 62
     7
100
AcDbLine
 10
2372.698484809928
 20
1411.900000000008
 30
0.0
 11
2369.498484809928
 21
1411.900000000008
 31
0.0
  0
LINE
  5
419
330
1F
100
AcDbEntity
  8
LAY-10
  6
CONTINUOUS
 62
     7
100
AcDbLine
 10
2381.09848480993
 20
1421.900000000008
 30
0.0
 11
2373.622484809931
 21
1421.900000000008
 31
0.0
  0
LINE
  5
41A
330
1F
100
AcDbEntity
  8
LAY-10
  6
CONTINUOUS
 62
     7
100
AcDbLine
 10
2381.09848480993
 20
1411.900000000008
 30
0.0
 11
2373.622484809931
 21
1411.900000000008
 31
0.0
  0
LINE
  5
41B
330
1F
100
AcDbEntity
  8
LAY-10
  6
CONTINUOUS
 62
     7
100
AcDbLine
 10
2404.194484809927
 20
1411.900000000008
 30
0.0
 11
2383.09848480993
 21
1411.900000000008
 31
0.0
  0
LINE
  5
41C
330
1F
100
AcDbEntity
  8
LAY-10
  6
CONTINUOUS
 62
     7
100
AcDbLine
 10
2404.194484809927
 20
1421.900000000008
 30
0.0
 11
2383.09848480993
 21
1421.900000000008
 31
0.0
  0
LINE
  5
41D
330
1F
100
AcDbEntity
  8
LAY-10
  6
CONTINUOUS
 62
     7
100
AcDbLine
 10
2393.498484809931
 20
1421.900000000008
 30
0.0
 11
2393.498484809931
 21
1411.900000000008
 31
0.0
  0
LINE
  5
41E
330
1F
100
AcDbEntity
  8
LAY-10
  6
CONTINUOUS
 62
     7
100
AcDbLine
 10
2398.498484809931
 20
1406.900000000008
 30
0.0
 11
2404.194484809927
 21
1406.900000000008
 31
0.0
  0
LINE
  5
41F
330
1F
100
AcDbEntity
  8
LAY-10
  6
CONTINUOUS
 62
     7
100
AcDbLine
 10
2398.498484809931
 20
1404.560000000008
 30
0.0
 11
2400.77848480993
 21
1406.900000000008
 31
0.0
  0
ARC
  5
420
330
1F
100
AcDbEntity
  8
LAY-10
  6
CONTINUOUS
 62
     7
100
AcDbCircle
 10
2386.790802991746
 20
1416.900000000008
 30
0.0
 40
18.10768181818181
100
AcDbArc
 50
343.9708781133894
 51
16.0291218866122
  0
LINE
  5
421
330
1F
100
AcDbEntity
  8
LAY-10
  6
CONTINUOUS
 62
     7
100
AcDbLine
 10
2404.898484809929
 20
1409.400000000008
 30
0.0
 11
2404.898484809929
 21
1424.400000000008
 31
0.0
  0
ARC
  5
422
330
1F
100
AcDbEntity
  8
LAY-10
  6
CONTINUOUS
 62
     7
100
AcDbCircle
 10
2400.107564355386
 20
1424.400000000008
 30
0.0
 40
4.790920454545454
100
AcDbArc
 50
328.5455606612313
 51
31.45443933877645
  0
ARC
  5
423
330
1F
100
AcDbEntity
  8
LAY-10
  6
CONTINUOUS
 62
     7
100
AcDbCircle
 10
2400.107564355386
 20
1409.400000000008
 30
0.0
 40
4.790920454545454
100
AcDbArc
 50
328.5455606612263
 51
31.45443933877645
  0
LINE
  5
424
330
1F
100
AcDbEntity
  8
LAY-10
  6
CONTINUOUS
 62
     7
100
AcDbLine
 10
2398.498484809931
 20
1426.900000000008
 30
0.0
 11
2404.194484809927
 21
1426.900000000008
 31
0.0
  0
LINE
  5
425
330
1F
100
AcDbEntity
  8
LAY-10
  6
CONTINUOUS
 62
     7
100
AcDbLine
 10
2400.838484809928
 20
1426.90000000001
 30
0.0
 11
2398.498484809931
 21
1429.180000000008
 31
0.0
  0
ELLIPSE
  5
426
330
1F
100
AcDbEntity
  8
LAY-10
  6
CONTINUOUS
 62
     7
100
AcDbEllipse
 10
2390.781818143231
 20
2050.820000000008
 30
0.0
 11
-1.067183248068679E-15
 21
-5.80947501931002
 31
0.0
210
0.0
220
0.0
230
1.0
 40
0.7745966692416307
 41
0.0
 42
6.283185307179586
  0
ELLIPSE
  5
427
330
1F
100
AcDbEntity
  8
LAY-10
  6
CONTINUOUS
 62
     7
100
AcDbEllipse
 10
2390.781818143231
 20
1432.980000000009
 30
0.0
 11
-2.224197421612838E-15
 21
5.80947501931002
 31
0.0
210
0.0
220
0.0
230
1.0
 40
0.7745966692416307
 41
0.0
 42
6.283185307179586
  0
LINE
  5
428
330
1F
100
AcDbEntity
  8
LAY-10
  6
CONTINUOUS
 62
     7
100
AcDbLine
 10
2395.29848480993
 20
2071.900000000006
 30
0.0
 11
2395.29848480993
 21
2081.900000000007
 31
0.0
  0
LINE
  5
429
330
1F
100
AcDbEntity
  8
LAY-10
  6
CONTINUOUS
 62
     7
100
AcDbLine
 10
2377.09848480993
 20
1656.600000000008
 30
0.0
 11
2383.09848480993
 21
1656.600000000008
 31
0.0
  0
LINE
  5
42A
330
1F
100
AcDbEntity
  8
LAY-10
  6
CONTINUOUS
 62
     7
100
AcDbLine
 10
2377.09848480993
 20
1826.900000000007
 30
0.0
 11
2383.09848480993
 21
1826.900000000007
 31
0.0
  0
LINE
  5
42B
330
1F
100
AcDbEntity
  8
LAY-10
  6
CONTINUOUS
 62
     7
100
AcDbLine
 10
2375.09848480993
 20
1686.600000000008
 30
0.0
 11
2383.09848480993
 21
1686.600000000008
 31
0.0
  0
LINE
  5
42C
330
1F
100
AcDbEntity
  8
LAY-10
  6
CONTINUOUS
 62
     7
100
AcDbLine
 10
2375.09848480993
 20
1666.600000000008
 30
0.0
 11
2375.09848480993
 21
1686.600000000008
 31
0.0
  0
LINE
  5
42D
330
1F
100
AcDbEntity
  8
LAY-10
  6
CONTINUOUS
 62
     7
100
AcDbLine
 10
2375.09848480993
 20
1796.600000000008
 30
0.0
 11
2375.09848480993
 21
1816.600000000008
 31
0.0
  0
LINE
  5
42E
330
1F
100
AcDbEntity
  8
LAY-10
  6
CONTINUOUS
 62
     7
100
AcDbLine
 10
2377.09848480993
 20
1656.600000000008
 30
0.0
 11
2377.09848480993
 21
1666.600000000008
 31
0.0
  0
LINE
  5
42F
330
1F
100
AcDbEntity
  8
LAY-10
  6
CONTINUOUS
 62
     7
100
AcDbLine
 10
2377.09848480993
 20
1686.600000000008
 30
0.0
 11
2377.09848480993
 21
1796.600000000008
 31
0.0
  0
LINE
  5
430
330
1F
100
AcDbEntity
  8
LAY-10
  6
CONTINUOUS
 62
     7
100
AcDbLine
 10
2377.09848480993
 20
1816.600000000008
 30
0.0
 11
2377.09848480993
 21
1826.900000000007
 31
0.0
  0
LINE
  5
431
330
1F
100
AcDbEntity
  8
LAY-10
  6
CONTINUOUS
 62
     7
100
AcDbLine
 10
2375.09848480993
 20
1796.600000000008
 30
0.0
 11
2383.09848480993
 21
1796.600000000008
 31
0.0
  0
LINE
  5
432
330
1F
100
AcDbEntity
  8
LAY-10
  6
CONTINUOUS
 62
     7
100
AcDbLine
 10
2375.09848480993
 20
1816.600000000008
 30
0.0
 11
2383.09848480993
 21
1816.600000000008
 31
0.0
  0
LINE
  5
433
330
1F
100
AcDbEntity
  8
LAY-10
  6
CONTINUOUS
 62
     7
100
AcDbLine
 10
2375.09848480993
 20
1666.600000000008
 30
0.0
 11
2383.09848480993
 21
1666.600000000008
 31
0.0
  0
LINE
  5
434
330
1F
100
AcDbEntity
  8
LAY-10
  6
CONTINUOUS
 62
     7
100
AcDbLine
 10
2382.09848480993
 20
1686.600000000008
 30
0.0
 11
2382.09848480993
 21
1666.600000000008
 31
0.0
  0
LINE
  5
435
330
1F
100
AcDbEntity
  8
LAY-10
  6
CONTINUOUS
 62
     7
100
AcDbLine
 10
2382.09848480993
 20
1816.600000000008
 30
0.0
 11
2382.09848480993
 21
1796.600000000008
 31
0.0
  0
LINE
  5
436
330
1F
100
AcDbEntity
  8
LAY-10
  6
CONTINUOUS
 62
     7
100
AcDbLine
 10
2383.09848480993
 20
2070.900000000006
 30
0.0
 11
2393.498484809931
 21
2070.900000000006
 31
0.0
  0
LINE
  5
437
330
1F
100
AcDbEntity
  8
LAY-10
  6
CONTINUOUS
 62
     7
100
AcDbLine
 10
2393.498484809931
 20
2070.900000000006
 30
0.0
 11
2394.498484809931
 21
2071.900000000006
 31
0.0
  0
LINE
  5
438
330
1F
100
AcDbEntity
  8
LAY-10
  6
CONTINUOUS
 62
     7
100
AcDbLine
 10
2393.498484809931
 20
2062.900000000006
 30
0.0
 11
2394.498484809931
 21
2061.900000000007
 31
0.0
  0
LINE
  5
439
330
1F
100
AcDbEntity
  8
LAY-10
  6
CONTINUOUS
 62
     7
100
AcDbLine
 10
2383.09848480993
 20
2062.900000000006
 30
0.0
 11
2393.498484809931
 21
2062.900000000006
 31
0.0
  0
LINE
  5
43A
330
1F
100
AcDbEntity
  8
LAY-10
  6
CONTINUOUS
 62
     7
100
AcDbLine
 10
2368.498484809931
 20
2062.900000000006
 30
0.0
 11
2372.698484809928
 21
2062.900000000006
 31
0.0
  0
LINE
  5
43B
330
1F
100
AcDbEntity
  8
LAY-10
  6
CONTINUOUS
 62
     7
100
AcDbLine
 10
2369.498484809928
 20
2061.900000000007
 30
0.0
 11
2369.498484809928
 21
2071.900000000006
 31
0.0
  0
LINE
  5
43C
330
1F
100
AcDbEntity
  8
LAY-10
  6
CONTINUOUS
 62
     7
100
AcDbLine
 10
2368.498484809931
 20
2070.900000000006
 30
0.0
 11
2372.698484809928
 21
2070.900000000006
 31
0.0
  0
LINE
  5
43D
330
1F
100
AcDbEntity
  8
LAY-10
  6
CONTINUOUS
 62
     7
100
AcDbLine
 10
2368.498484809931
 20
1420.900000000008
 30
0.0
 11
2372.698484809928
 21
1420.900000000008
 31
0.0
  0
LINE
  5
43E
330
1F
100
AcDbEntity
  8
LAY-10
  6
CONTINUOUS
 62
     7
100
AcDbLine
 10
2369.498484809928
 20
1411.900000000008
 30
0.0
 11
2369.498484809928
 21
1421.900000000008
 31
0.0
  0
LINE
  5
43F
330
1F
100
AcDbEntity
  8
LAY-10
  6
CONTINUOUS
 62
     7
100
AcDbLine
 10
2368.498484809931
 20
1412.900000000008
 30
0.0
 11
2372.698484809928
 21
1412.900000000008
 31
0.0
  0
LINE
  5
440
330
1F
100
AcDbEntity
  8
LAY-10
  6
CONTINUOUS
 62
     7
100
AcDbLine
 10
2383.09848480993
 20
1412.900000000008
 30
0.0
 11
2393.498484809931
 21
1412.900000000008
 31
0.0
  0
LINE
  5
441
330
1F
100
AcDbEntity
  8
LAY-10
  6
CONTINUOUS
 62
     7
100
AcDbLine
 10
2393.498484809931
 20
1412.900000000008
 30
0.0
 11
2394.498484809931
 21
1411.900000000008
 31
0.0
  0
LINE
  5
442
330
1F
100
AcDbEntity
  8
LAY-10
  6
CONTINUOUS
 62
     7
100
AcDbLine
 10
2393.498484809931
 20
1420.900000000008
 30
0.0
 11
2394.498484809931
 21
1421.900000000008
 31
0.0
  0
LINE
  5
443
330
1F
100
AcDbEntity
  8
LAY-10
  6
CONTINUOUS
 62
     7
100
AcDbLine
 10
2383.09848480993
 20
1420.900000000008
 30
0.0
 11
2393.498484809931
 21
1420.900000000008
 31
0.0
  0
LINE
  5
444
330
1F
100
AcDbEntity
  8
LAY-10
  6
CONTINUOUS
 62
     7
100
AcDbLine
 10
2398.498484809931
 20
1451.900000000008
 30
0.0
 11
2398.498484809931
 21
1401.700000000007
 31
0.0
  0
LINE
  5
445
330
1F
100
AcDbEntity
  8
LAY-10
  6
CONTINUOUS
 62
     7
100
AcDbLine
 10
2386.29848480993
 20
1407.900000000007
 30
0.0
 11
2386.29848480993
 21
1411.900000000008
 31
0.0
  0
LINE
  5
446
330
1F
100
AcDbEntity
  8
LAY-10
  6
CONTINUOUS
 62
     7
100
AcDbLine
 10
2395.29848480993
 20
1411.900000000008
 30
0.0
 11
2395.29848480993
 21
1401.900000000008
 31
0.0
  0
LINE
  5
447
330
1F
100
AcDbEntity
  8
LAY-10
  6
CONTINUOUS
 62
     7
100
AcDbLine
 10
2351.898484809933
 20
1362.013708499026
 30
0.0
 11
2351.898484809933
 21
1398.700000000007
 31
0.0
  0
LINE
  5
448
330
1F
100
AcDbEntity
  8
LAY-10
  6
CONTINUOUS
 62
     7
100
AcDbLine
 10
2351.898484809933
 20
2121.786291501026
 30
0.0
 11
2351.898484809933
 21
2085.100000000009
 31
0.0
  0
ARC
  5
449
330
1F
100
AcDbEntity
  8
LAY-10
  6
CONTINUOUS
 62
     7
100
AcDbCircle
 10
2380.09848480993
 20
1694.600000000007
 30
0.0
 40
3.000000000000003
100
AcDbArc
 50
0.0000000000000573
 51
180.0000000000002
  0
ARC
  5
44A
330
1F
100
AcDbEntity
  8
LAY-10
  6
CONTINUOUS
 62
     7
100
AcDbCircle
 10
2380.09848480993
 20
1788.600000000007
 30
0.0
 40
3.000000000000003
100
AcDbArc
 50
180.0000000000002
 51
0.0000000000000573
  0
LINE
  5
44B
330
1F
100
AcDbEntity
  8
LAY-10
  6
CONTINUOUS
 62
     7
100
AcDbLine
 10
2345.898484809933
 20
2125.100000000006
 30
0.0
 11
2236.498484809929
 21
2125.100000000006
 31
0.0
  0
LINE
  5
44C
330
1F
100
AcDbEntity
  8
LAY-10
  6
CONTINUOUS
 62
     7
100
AcDbLine
 10
2236.498484809929
 20
2121.900000000007
 30
0.0
 11
2345.698484809932
 21
2121.900000000007
 31
0.0
  0
LINE
  5
44D
330
1F
100
AcDbEntity
  8
LAY-10
  6
CONTINUOUS
 62
     7
100
AcDbLine
 10
2345.898484809933
 20
1358.700000000006
 30
0.0
 11
2236.498484809928
 21
1358.700000000006
 31
0.0
  0
LINE
  5
44E
330
1F
100
AcDbEntity
  8
LAY-10
  6
CONTINUOUS
 62
     7
100
AcDbLine
 10
2236.498484809928
 20
1361.900000000008
 30
0.0
 11
2345.698484809932
 21
1361.900000000008
 31
0.0
  0
LINE
  5
44F
330
1F
100
AcDbEntity
  8
LAY-10
  6
CONTINUOUS
 62
     7
100
AcDbLine
 10
2348.698484809932
 20
1364.9
 30
0.0
 11
2348.698484809932
 21
2118.900000000008
 31
0.0
  0
LINE
  5
450
330
1F
100
AcDbEntity
  8
LAY-10
  6
CONTINUOUS
 62
     7
100
AcDbLine
 10
2346.698484809898
 20
2109.899999999979
 30
0.0
 11
2346.698484809898
 21
1373.899999999981
 31
0.0
  0
LINE
  5
451
330
1F
100
AcDbEntity
  8
LAY-10
  6
CONTINUOUS
 62
     7
100
AcDbLine
 10
2348.698484809902
 20
2084.899999999981
 30
0.0
 11
2346.698484809898
 21
2084.899999999981
 31
0.0
  0
LINE
  5
452
330
1F
100
AcDbEntity
  8
LAY-10
  6
CONTINUOUS
 62
     7
100
AcDbLine
 10
2348.698484809902
 20
2109.899999999981
 30
0.0
 11
2346.698484809898
 21
2109.899999999981
 31
0.0
  0
LINE
  5
453
330
1F
100
AcDbEntity
  8
LAY-10
  6
CONTINUOUS
 62
     7
100
AcDbLine
 10
2348.698484809902
 20
1398.899999999981
 30
0.0
 11
2346.698484809898
 21
1398.899999999981
 31
0.0
  0
LINE
  5
454
330
1F
100
AcDbEntity
  8
LAY-10
  6
CONTINUOUS
 62
     7
100
AcDbLine
 10
2348.698484809902
 20
1373.899999999981
 30
0.0
 11
2346.698484809898
 21
1373.899999999981
 31
0.0
  0
LINE
  5
455
330
1F
100
AcDbEntity
  8
LAY-10
  6
CONTINUOUS
 62
     7
100
AcDbLine
 10
2325.698484809856
 20
2100.899999999962
 30
0.0
 11
2325.698484809856
 21
1382.899999999961
 31
0.0
  0
LINE
  5
456
330
1F
100
AcDbEntity
  8
LAY-10
  6
CONTINUOUS
 62
     7
100
AcDbLine
 10
2346.698484809858
 20
1376.899999999961
 30
0.0
 11
2346.698484809858
 21
2106.899999999911
 31
0.0
  0
LINE
  5
457
330
1F
100
AcDbEntity
  8
LAY-10
  6
CONTINUOUS
 62
     7
100
AcDbLine
 10
2281.698484809857
 20
1744.149999999963
 30
0.0
 11
2325.698484809856
 21
1744.149999999963
 31
0.0
  0
LINE
  5
458
330
1F
100
AcDbEntity
  8
LAY-10
  6
CONTINUOUS
 62
     7
100
AcDbLine
 10
2281.698484809857
 20
1739.649999999961
 30
0.0
 11
2325.698484809856
 21
1739.649999999961
 31
0.0
  0
LINE
  5
459
330
1F
100
AcDbEntity
  8
LAY-10
  6
CONTINUOUS
 62
     7
100
AcDbLine
 10
557.8333333333242
 20
897.7999999999987
 30
0.0
 11
948.8333333333202
 21
897.7999999999987
 31
0.0
  0
LINE
  5
45A
330
1F
100
AcDbEntity
  8
LAY-10
  6
CONTINUOUS
 62
     7
100
AcDbLine
 10
984.4999999999942
 20
897.7999999999987
 30
0.0
 11
1375.49999999999
 21
897.7999999999987
 31
0.0
  0
LINE
  5
45B
330
1F
100
AcDbEntity
  8
LAY-10
  6
CONTINUOUS
 62
     7
100
AcDbLine
 10
1411.166666666664
 20
897.7999999999987
 30
0.0
 11
1802.16666666666
 21
897.7999999999987
 31
0.0
  0
LINE
  5
45C
330
1F
100
AcDbEntity
  8
LAY-10
  6
CONTINUOUS
 62
     7
100
AcDbLine
 10
587.8333333334574
 20
2070.89999999987
 30
0.0
 11
587.8333333334574
 21
2102.899999999869
 31
0.0
  0
LINE
  5
45D
330
1F
100
AcDbEntity
  8
LAY-10
  6
CONTINUOUS
 62
     7
100
AcDbLine
 10
567.8333333334592
 20
2086.899999999869
 30
0.0
 11
571.8333333334592
 21
2093.399999999869
 31
0.0
  0
LINE
  5
45E
330
1F
100
AcDbEntity
  8
LAY-10
  6
CONTINUOUS
 62
     7
100
AcDbLine
 10
571.8333333334592
 20
2080.399999999869
 30
0.0
 11
567.8333333334592
 21
2086.899999999869
 31
0.0
  0
LINE
  5
45F
330
1F
100
AcDbEntity
  8
LAY-10
  6
CONTINUOUS
 62
     7
100
AcDbLine
 10
575.8333333334592
 20
2086.899999999869
 30
0.0
 11
571.8333333334592
 21
2080.399999999869
 31
0.0
  0
LINE
  5
460
330
1F
100
AcDbEntity
  8
LAY-10
  6
CONTINUOUS
 62
     7
100
AcDbLine
 10
571.8333333334592
 20
2093.399999999869
 30
0.0
 11
575.8333333334592
 21
2086.899999999869
 31
0.0
  0
LINE
  5
461
330
1F
100
AcDbEntity
  8
LAY-10
  6
CONTINUOUS
 62
     7
100
AcDbLine
 10
582.3333333334592
 20
2082.89999999987
 30
0.0
 11
582.3333333334592
 21
2090.899999999868
 31
0.0
  0
LINE
  5
462
330
1F
100
AcDbEntity
  8
LAY-10
  6
CONTINUOUS
 62
     7
100
AcDbLine
 10
582.3333333334592
 20
2082.89999999987
 30
0.0
 11
583.9396333462626
 21
2082.89999999987
 31
0.0
  0
LINE
  5
463
330
1F
100
AcDbEntity
  8
LAY-10
  6
CONTINUOUS
 62
     7
100
AcDbLine
 10
582.3333333334592
 20
2090.899999999868
 30
0.0
 11
583.9396333462626
 21
2090.899999999868
 31
0.0
  0
LINE
  5
464
330
1F
100
AcDbEntity
  8
LAY-10
  6
CONTINUOUS
 62
     7
100
AcDbLine
 10
587.8333333334592
 20
2070.89999999987
 30
0.0
 11
555.8333333334592
 21
2070.89999999987
 31
0.0
  0
CIRCLE
  5
465
330
1F
100
AcDbEntity
  8
LAY-10
  6
CONTINUOUS
 62
     7
100
AcDbCircle
 10
571.8333333334592
 20
2086.899999999869
 30
0.0
 40
12.75000000000001
  0
LINE
  5
466
330
1F
100
AcDbEntity
  8
LAY-10
  6
CONTINUOUS
 62
     7
100
AcDbLine
 10
930.8333333334593
 20
2086.899999999869
 30
0.0
 11
934.8333333334592
 21
2093.399999999869
 31
0.0
  0
LINE
  5
467
330
1F
100
AcDbEntity
  8
LAY-10
  6
CONTINUOUS
 62
     7
100
AcDbLine
 10
934.8333333334592
 20
2080.399999999869
 30
0.0
 11
930.8333333334593
 21
2086.899999999869
 31
0.0
  0
LINE
  5
468
330
1F
100
AcDbEntity
  8
LAY-10
  6
CONTINUOUS
 62
     7
100
AcDbLine
 10
938.8333333334592
 20
2086.899999999869
 30
0.0
 11
934.8333333334592
 21
2080.399999999869
 31
0.0
  0
LINE
  5
469
330
1F
100
AcDbEntity
  8
LAY-10
  6
CONTINUOUS
 62
     7
100
AcDbLine
 10
934.8333333334592
 20
2093.399999999869
 30
0.0
 11
938.8333333334592
 21
2086.899999999869
 31
0.0
  0
LINE
  5
46A
330
1F
100
AcDbEntity
  8
LAY-10
  6
CONTINUOUS
 62
     7
100
AcDbLine
 10
945.3333333334592
 20
2082.89999999987
 30
0.0
 11
945.3333333334592
 21
2090.899999999868
 31
0.0
  0
LINE
  5
46B
330
1F
100
AcDbEntity
  8
LAY-10
  6
CONTINUOUS
 62
     7
100
AcDbLine
 10
945.3333333334592
 20
2082.89999999987
 30
0.0
 11
946.9396333462626
 21
2082.89999999987
 31
0.0
  0
LINE
  5
46C
330
1F
100
AcDbEntity
  8
LAY-10
  6
CONTINUOUS
 62
     7
100
AcDbLine
 10
945.3333333334592
 20
2090.899999999868
 30
0.0
 11
946.9396333462626
 21
2090.899999999868
 31
0.0
  0
LINE
  5
46D
330
1F
100
AcDbEntity
  8
LAY-10
  6
CONTINUOUS
 62
     7
100
AcDbLine
 10
950.8333333334593
 20
2070.89999999987
 30
0.0
 11
918.8333333334592
 21
2070.89999999987
 31
0.0
  0
CIRCLE
  5
46E
330
1F
100
AcDbEntity
  8
LAY-10
  6
CONTINUOUS
 62
     7
100
AcDbCircle
 10
934.8333333334592
 20
2086.899999999869
 30
0.0
 40
12.75000000000001
  0
LINE
  5
46F
330
1F
100
AcDbEntity
  8
LAY-10
  6
CONTINUOUS
 62
     7
100
AcDbLine
 10
918.8333333334612
 20
2070.89999999987
 30
0.0
 11
918.8333333334612
 21
2102.899999999869
 31
0.0
  0
LINE
  5
470
330
1F
100
AcDbEntity
  8
LAY-10
  6
CONTINUOUS
 62
     7
100
AcDbLine
 10
1014.500000000127
 20
2070.89999999987
 30
0.0
 11
1014.500000000127
 21
2102.899999999869
 31
0.0
  0
LINE
  5
471
330
1F
100
AcDbEntity
  8
LAY-10
  6
CONTINUOUS
 62
     7
100
AcDbLine
 10
994.5000000001293
 20
2086.899999999869
 30
0.0
 11
998.5000000001293
 21
2093.399999999869
 31
0.0
  0
LINE
  5
472
330
1F
100
AcDbEntity
  8
LAY-10
  6
CONTINUOUS
 62
     7
100
AcDbLine
 10
998.5000000001293
 20
2080.399999999869
 30
0.0
 11
994.5000000001293
 21
2086.899999999869
 31
0.0
  0
LINE
  5
473
330
1F
100
AcDbEntity
  8
LAY-10
  6
CONTINUOUS
 62
     7
100
AcDbLine
 10
1002.500000000129
 20
2086.899999999869
 30
0.0
 11
998.5000000001293
 21
2080.399999999869
 31
0.0
  0
LINE
  5
474
330
1F
100
AcDbEntity
  8
LAY-10
  6
CONTINUOUS
 62
     7
100
AcDbLine
 10
998.5000000001293
 20
2093.399999999869
 30
0.0
 11
1002.500000000129
 21
2086.899999999869
 31
0.0
  0
LINE
  5
475
330
1F
100
AcDbEntity
  8
LAY-10
  6
CONTINUOUS
 62
     7
100
AcDbLine
 10
1009.000000000129
 20
2082.89999999987
 30
0.0
 11
1009.000000000129
 21
2090.899999999868
 31
0.0
  0
LINE
  5
476
330
1F
100
AcDbEntity
  8
LAY-10
  6
CONTINUOUS
 62
     7
100
AcDbLine
 10
1009.000000000129
 20
2082.89999999987
 30
0.0
 11
1010.606300012933
 21
2082.89999999987
 31
0.0
  0
LINE
  5
477
330
1F
100
AcDbEntity
  8
LAY-10
  6
CONTINUOUS
 62
     7
100
AcDbLine
 10
1009.000000000129
 20
2090.899999999868
 30
0.0
 11
1010.606300012933
 21
2090.899999999868
 31
0.0
  0
LINE
  5
478
330
1F
100
AcDbEntity
  8
LAY-10
  6
CONTINUOUS
 62
     7
100
AcDbLine
 10
1014.500000000129
 20
2070.89999999987
 30
0.0
 11
982.5000000001293
 21
2070.89999999987
 31
0.0
  0
CIRCLE
  5
479
330
1F
100
AcDbEntity
  8
LAY-10
  6
CONTINUOUS
 62
     7
100
AcDbCircle
 10
998.5000000001293
 20
2086.899999999869
 30
0.0
 40
12.75000000000001
  0
LINE
  5
47A
330
1F
100
AcDbEntity
  8
LAY-10
  6
CONTINUOUS
 62
     7
100
AcDbLine
 10
587.8333333334574
 20
1412.900000000141
 30
0.0
 11
587.8333333334574
 21
1380.900000000142
 31
0.0
  0
LINE
  5
47B
330
1F
100
AcDbEntity
  8
LAY-10
  6
CONTINUOUS
 62
     7
100
AcDbLine
 10
567.8333333334592
 20
1396.900000000142
 30
0.0
 11
571.8333333334592
 21
1390.400000000142
 31
0.0
  0
LINE
  5
47C
330
1F
100
AcDbEntity
  8
LAY-10
  6
CONTINUOUS
 62
     7
100
AcDbLine
 10
571.8333333334592
 20
1403.400000000142
 30
0.0
 11
567.8333333334592
 21
1396.900000000142
 31
0.0
  0
LINE
  5
47D
330
1F
100
AcDbEntity
  8
LAY-10
  6
CONTINUOUS
 62
     7
100
AcDbLine
 10
575.8333333334592
 20
1396.900000000142
 30
0.0
 11
571.8333333334592
 21
1403.400000000142
 31
0.0
  0
LINE
  5
47E
330
1F
100
AcDbEntity
  8
LAY-10
  6
CONTINUOUS
 62
     7
100
AcDbLine
 10
571.8333333334592
 20
1390.400000000142
 30
0.0
 11
575.8333333334592
 21
1396.900000000142
 31
0.0
  0
LINE
  5
47F
330
1F
100
AcDbEntity
  8
LAY-10
  6
CONTINUOUS
 62
     7
100
AcDbLine
 10
582.3333333334592
 20
1400.900000000141
 30
0.0
 11
582.3333333334592
 21
1392.900000000143
 31
0.0
  0
LINE
  5
480
330
1F
100
AcDbEntity
  8
LAY-10
  6
CONTINUOUS
 62
     7
100
AcDbLine
 10
582.3333333334592
 20
1400.900000000141
 30
0.0
 11
583.9396333462626
 21
1400.900000000141
 31
0.0
  0
LINE
  5
481
330
1F
100
AcDbEntity
  8
LAY-10
  6
CONTINUOUS
 62
     7
100
AcDbLine
 10
582.3333333334592
 20
1392.900000000143
 30
0.0
 11
583.9396333462626
 21
1392.900000000143
 31
0.0
  0
LINE
  5
482
330
1F
100
AcDbEntity
  8
LAY-10
  6
CONTINUOUS
 62
     7
100
AcDbLine
 10
587.8333333334592
 20
1412.900000000141
 30
0.0
 11
555.8333333334592
 21
1412.900000000141
 31
0.0
  0
CIRCLE
  5
483
330
1F
100
AcDbEntity
  8
LAY-10
  6
CONTINUOUS
 62
     7
100
AcDbCircle
 10
571.8333333334592
 20
1396.900000000142
 30
0.0
 40
12.75000000000001
  0
LINE
  5
484
330
1F
100
AcDbEntity
  8
LAY-10
  6
CONTINUOUS
 62
     7
100
AcDbLine
 10
930.8333333334593
 20
1396.900000000142
 30
0.0
 11
934.8333333334592
 21
1390.400000000142
 31
0.0
  0
LINE
  5
485
330
1F
100
AcDbEntity
  8
LAY-10
  6
CONTINUOUS
 62
     7
100
AcDbLine
 10
934.8333333334592
 20
1403.400000000142
 30
0.0
 11
930.8333333334593
 21
1396.900000000142
 31
0.0
  0
LINE
  5
486
330
1F
100
AcDbEntity
  8
LAY-10
  6
CONTINUOUS
 62
     7
100
AcDbLine
 10
938.8333333334592
 20
1396.900000000142
 30
0.0
 11
934.8333333334592
 21
1403.400000000142
 31
0.0
  0
LINE
  5
487
330
1F
100
AcDbEntity
  8
LAY-10
  6
CONTINUOUS
 62
     7
100
AcDbLine
 10
934.8333333334592
 20
1390.400000000142
 30
0.0
 11
938.8333333334592
 21
1396.900000000142
 31
0.0
  0
LINE
  5
488
330
1F
100
AcDbEntity
  8
LAY-10
  6
CONTINUOUS
 62
     7
100
AcDbLine
 10
945.3333333334592
 20
1400.900000000141
 30
0.0
 11
945.3333333334592
 21
1392.900000000143
 31
0.0
  0
LINE
  5
489
330
1F
100
AcDbEntity
  8
LAY-10
  6
CONTINUOUS
 62
     7
100
AcDbLine
 10
945.3333333334592
 20
1400.900000000141
 30
0.0
 11
946.9396333462626
 21
1400.900000000141
 31
0.0
  0
LINE
  5
48A
330
1F
100
AcDbEntity
  8
LAY-10
  6
CONTINUOUS
 62
     7
100
AcDbLine
 10
945.3333333334592
 20
1392.900000000143
 30
0.0
 11
946.9396333462626
 21
1392.900000000143
 31
0.0
  0
LINE
  5
48B
330
1F
100
AcDbEntity
  8
LAY-10
  6
CONTINUOUS
 62
     7
100
AcDbLine
 10
950.8333333334593
 20
1412.900000000141
 30
0.0
 11
918.8333333334592
 21
1412.900000000141
 31
0.0
  0
CIRCLE
  5
48C
330
1F
100
AcDbEntity
  8
LAY-10
  6
CONTINUOUS
 62
     7
100
AcDbCircle
 10
934.8333333334592
 20
1396.900000000142
 30
0.0
 40
12.75000000000001
  0
LINE
  5
48D
330
1F
100
AcDbEntity
  8
LAY-10
  6
CONTINUOUS
 62
     7
100
AcDbLine
 10
918.8333333334612
 20
1412.900000000141
 30
0.0
 11
918.8333333334612
 21
1380.900000000142
 31
0.0
  0
LINE
  5
48E
330
1F
100
AcDbEntity
  8
LAY-10
  6
CONTINUOUS
 62
     7
100
AcDbLine
 10
1014.500000000127
 20
1412.900000000141
 30
0.0
 11
1014.500000000127
 21
1380.900000000142
 31
0.0
  0
LINE
  5
48F
330
1F
100
AcDbEntity
  8
LAY-10
  6
CONTINUOUS
 62
     7
100
AcDbLine
 10
994.5000000001291
 20
1396.900000000142
 30
0.0
 11
998.5000000001293
 21
1390.400000000142
 31
0.0
  0
LINE
  5
490
330
1F
100
AcDbEntity
  8
LAY-10
  6
CONTINUOUS
 62
     7
100
AcDbLine
 10
998.5000000001293
 20
1403.400000000142
 30
0.0
 11
994.5000000001291
 21
1396.900000000142
 31
0.0
  0
LINE
  5
491
330
1F
100
AcDbEntity
  8
LAY-10
  6
CONTINUOUS
 62
     7
100
AcDbLine
 10
1002.500000000129
 20
1396.900000000142
 30
0.0
 11
998.5000000001293
 21
1403.400000000142
 31
0.0
  0
LINE
  5
492
330
1F
100
AcDbEntity
  8
LAY-10
  6
CONTINUOUS
 62
     7
100
AcDbLine
 10
998.5000000001293
 20
1390.400000000142
 30
0.0
 11
1002.500000000129
 21
1396.900000000142
 31
0.0
  0
LINE
  5
493
330
1F
100
AcDbEntity
  8
LAY-10
  6
CONTINUOUS
 62
     7
100
AcDbLine
 10
1009.000000000129
 20
1400.900000000141
 30
0.0
 11
1009.000000000129
 21
1392.900000000143
 31
0.0
  0
LINE
  5
494
330
1F
100
AcDbEntity
  8
LAY-10
  6
CONTINUOUS
 62
     7
100
AcDbLine
 10
1009.000000000129
 20
1400.900000000141
 30
0.0
 11
1010.606300012932
 21
1400.900000000141
 31
0.0
  0
LINE
  5
495
330
1F
100
AcDbEntity
  8
LAY-10
  6
CONTINUOUS
 62
     7
100
AcDbLine
 10
1009.000000000129
 20
1392.900000000143
 30
0.0
 11
1010.606300012932
 21
1392.900000000143
 31
0.0
  0
LINE
  5
496
330
1F
100
AcDbEntity
  8
LAY-10
  6
CONTINUOUS
 62
     7
100
AcDbLine
 10
1014.500000000129
 20
1412.900000000141
 30
0.0
 11
982.5000000001294
 21
1412.900000000141
 31
0.0
  0
CIRCLE
  5
497
330
1F
100
AcDbEntity
  8
LAY-10
  6
CONTINUOUS
 62
     7
100
AcDbCircle
 10
998.5000000001293
 20
1396.900000000142
 30
0.0
 40
12.75000000000001
  0
LINE
  5
498
330
1F
100
AcDbEntity
  8
LAY-10
  6
CONTINUOUS
 62
     7
100
AcDbLine
 10
587.8333333333651
 20
945.0
 30
0.0
 11
587.8333333333651
 21
990.0
 31
0.0
  0
LINE
  5
499
330
1F
100
AcDbEntity
  8
LAY-10
  6
CONTINUOUS
 62
     7
100
AcDbLine
 10
918.8333333333549
 20
945.0
 30
0.0
 11
918.8333333333549
 21
990.0
 31
0.0
  0
LINE
  5
49A
330
1F
100
AcDbEntity
  8
LAY-10
  6
CONTINUOUS
 62
     7
100
AcDbLine
 10
950.8333333333559
 20
944.9999999999986
 30
0.0
 11
950.8333333333559
 21
989.9999999999995
 31
0.0
  0
LINE
  5
49B
330
1F
100
AcDbEntity
  8
LAY-10
  6
CONTINUOUS
 62
     7
100
AcDbLine
 10
962.8333333333615
 20
986.9999999999987
 30
0.0
 11
950.8333333333559
 21
986.9999999999987
 31
0.0
  0
LINE
  5
49C
330
1F
100
AcDbEntity
  8
LAY-10
  6
CONTINUOUS
 62
     7
100
AcDbLine
 10
555.833333333355
 20
944.9999999999986
 30
0.0
 11
555.833333333355
 21
990.0
 31
0.0
  0
LINE
  5
49D
330
1F
100
AcDbEntity
  8
LAY-10
  6
CONTINUOUS
 62
     7
100
AcDbLine
 10
918.8333333333549
 20
986.9999999999987
 30
0.0
 11
587.8333333333651
 21
986.9999999999987
 31
0.0
  0
LINE
  5
49E
330
1F
100
AcDbEntity
  8
LAY-10
  6
CONTINUOUS
 62
     7
100
AcDbLine
 10
555.833333333355
 20
986.9999999999987
 30
0.0
 11
543.8333333333604
 21
986.9999999999987
 31
0.0
  0
LINE
  5
49F
330
1F
100
AcDbEntity
  8
LAY-10
  6
CONTINUOUS
 62
     7
100
AcDbLine
 10
970.5000000000005
 20
986.9999999999987
 30
0.0
 11
970.5000000000005
 21
947.7999999999975
 31
0.0
  0
ARC
  5
4A0
330
1F
100
AcDbEntity
  8
LAY-10
  6
CONTINUOUS
 62
     7
100
AcDbCircle
 10
976.5000000000005
 20
947.7999999999975
 30
0.0
 40
6.000000000000005
100
AcDbArc
 50
180.0
 51
270.0000000000002
  0
ARC
  5
4A1
330
1F
100
AcDbEntity
  8
LAY-10
  6
CONTINUOUS
 62
     7
100
AcDbCircle
 10
976.7000000000003
 20
947.9999999999973
 30
0.0
 40
3.000000000000003
100
AcDbArc
 50
180.0
 51
270.0000000000002
  0
LINE
  5
4A2
330
1F
100
AcDbEntity
  8
LAY-10
  6
CONTINUOUS
 62
     7
100
AcDbLine
 10
973.7000000000012
 20
986.9999999999987
 30
0.0
 11
973.7000000000012
 21
947.9999999999973
 31
0.0
  0
LINE
  5
4A3
330
1F
100
AcDbEntity
  8
LAY-10
  6
CONTINUOUS
 62
     7
100
AcDbLine
 10
1389.500000000001
 20
986.9999999999987
 30
0.0
 11
1389.500000000001
 21
947.7999999999975
 31
0.0
  0
ARC
  5
4A4
330
1F
100
AcDbEntity
  8
LAY-10
  6
CONTINUOUS
 62
     7
100
AcDbCircle
 10
1383.500000000001
 20
947.7999999999975
 30
0.0
 40
6.000000000000005
100
AcDbArc
 50
270.0000000000002
 51
0.0
  0
ARC
  5
4A5
330
1F
100
AcDbEntity
  8
LAY-10
  6
CONTINUOUS
 62
     7
100
AcDbCircle
 10
1383.300000000002
 20
947.9999999999973
 30
0.0
 40
3.000000000000003
100
AcDbArc
 50
270.0000000000002
 51
0.0
  0
LINE
  5
4A6
330
1F
100
AcDbEntity
  8
LAY-10
  6
CONTINUOUS
 62
     7
100
AcDbLine
 10
1386.300000000001
 20
986.9999999999987
 30
0.0
 11
1386.300000000001
 21
947.9999999999973
 31
0.0
  0
LINE
  5
4A7
330
1F
100
AcDbEntity
  8
LAY-10
  6
CONTINUOUS
 62
     7
100
AcDbLine
 10
976.7000000000003
 20
944.9999999999986
 30
0.0
 11
1383.300000000002
 21
944.9999999999986
 31
0.0
  0
LINE
  5
4A8
330
1F
100
AcDbEntity
  8
LAY-10
  6
CONTINUOUS
 62
     7
100
AcDbLine
 10
976.5000000000005
 20
941.7999999999975
 30
0.0
 11
1383.500000000001
 21
941.7999999999975
 31
0.0
  0
ARC
  5
4A9
330
1F
100
AcDbEntity
  8
LAY-10
  6
CONTINUOUS
 62
     7
100
AcDbCircle
 10
1094.499999999985
 20
952.9999999999513
 30
0.0
 40
2.0
100
AcDbArc
 50
90.00000000000001
 51
180.0
  0
LINE
  5
4AA
330
1F
100
AcDbEntity
  8
LAY-10
  6
CONTINUOUS
 62
     7
100
AcDbLine
 10
1099.999999999986
 20
954.9999999999509
 30
0.0
 11
1094.499999999985
 21
954.9999999999509
 31
0.0
  0
LINE
  5
4AB
330
1F
100
AcDbEntity
  8
LAY-10
  6
CONTINUOUS
 62
     7
100
AcDbLine
 10
1092.499999999986
 20
952.9999999999513
 30
0.0
 11
1092.499999999986
 21
946.999999999951
 31
0.0
  0
LINE
  5
4AC
330
1F
100
AcDbEntity
  8
LAY-10
  6
CONTINUOUS
 62
     7
100
AcDbLine
 10
1094.5
 20
952.9999999999513
 30
0.0
 11
1094.5
 21
946.999999999951
 31
0.0
  0
LINE
  5
4AD
330
1F
100
AcDbEntity
  8
LAY-10
  6
CONTINUOUS
 62
     7
100
AcDbLine
 10
1099.999999999986
 20
952.9999999999513
 30
0.0
 11
1094.5
 21
952.9999999999513
 31
0.0
  0
LINE
  5
4AE
330
1F
100
AcDbEntity
  8
LAY-10
  6
CONTINUOUS
 62
     7
100
AcDbLine
 10
1099.999999999986
 20
954.9999999999509
 30
0.0
 11
1099.999999999986
 21
952.9999999999513
 31
0.0
  0
ARC
  5
4AF
330
1F
100
AcDbEntity
  8
LAY-10
  6
CONTINUOUS
 62
     7
100
AcDbCircle
 10
1065.499999999982
 20
952.9999999999513
 30
0.0
 40
2.0
100
AcDbArc
 50
0.0
 51
90.00000000000001
  0
LINE
  5
4B0
330
1F
100
AcDbEntity
  8
LAY-10
  6
CONTINUOUS
 62
     7
100
AcDbLine
 10
1059.999999999982
 20
954.9999999999509
 30
0.0
 11
1065.499999999982
 21
954.9999999999509
 31
0.0
  0
LINE
  5
4B1
330
1F
100
AcDbEntity
  8
LAY-10
  6
CONTINUOUS
 62
     7
100
AcDbLine
 10
1067.499999999982
 20
952.9999999999513
 30
0.0
 11
1067.499999999982
 21
946.999999999951
 31
0.0
  0
LINE
  5
4B2
330
1F
100
AcDbEntity
  8
LAY-10
  6
CONTINUOUS
 62
     7
100
AcDbLine
 10
1065.499999999968
 20
952.9999999999513
 30
0.0
 11
1065.499999999968
 21
946.999999999951
 31
0.0
  0
LINE
  5
4B3
330
1F
100
AcDbEntity
  8
LAY-10
  6
CONTINUOUS
 62
     7
100
AcDbLine
 10
1059.999999999982
 20
952.9999999999513
 30
0.0
 11
1065.499999999968
 21
952.9999999999513
 31
0.0
  0
LINE
  5
4B4
330
1F
100
AcDbEntity
  8
LAY-10
  6
CONTINUOUS
 62
     7
100
AcDbLine
 10
1059.999999999982
 20
954.9999999999509
 30
0.0
 11
1059.999999999982
 21
952.9999999999513
 31
0.0
  0
LINE
  5
4B5
330
1F
100
AcDbEntity
  8
LAY-10
  6
CONTINUOUS
 62
     7
100
AcDbLine
 10
1067.499999999982
 20
946.999999999951
 30
0.0
 11
1092.499999999982
 21
946.999999999951
 31
0.0
  0
ARC
  5
4B6
330
1F
100
AcDbEntity
  8
LAY-10
  6
CONTINUOUS
 62
     7
100
AcDbCircle
 10
1092.5
 20
946.999999999951
 30
0.0
 40
2.0
100
AcDbArc
 50
270.0000000000002
 51
0.0
  0
ARC
  5
4B7
330
1F
100
AcDbEntity
  8
LAY-10
  6
CONTINUOUS
 62
     7
100
AcDbCircle
 10
1067.499999999968
 20
946.999999999951
 30
0.0
 40
2.0
100
AcDbArc
 50
180.0
 51
270.0000000000002
  0
ARC
  5
4B8
330
1F
100
AcDbEntity
  8
LAY-10
  6
CONTINUOUS
 62
     7
100
AcDbCircle
 10
1265.500000000001
 20
952.9999999999504
 30
0.0
 40
2.0
100
AcDbArc
 50
0.0
 51
90.00000000000001
  0
LINE
  5
4B9
330
1F
100
AcDbEntity
  8
LAY-10
  6
CONTINUOUS
 62
     7
100
AcDbLine
 10
1260.000000000001
 20
954.9999999999509
 30
0.0
 11
1265.500000000001
 21
954.9999999999509
 31
0.0
  0
LINE
  5
4BA
330
1F
100
AcDbEntity
  8
LAY-10
  6
CONTINUOUS
 62
     7
100
AcDbLine
 10
1267.500000000001
 20
952.9999999999504
 30
0.0
 11
1267.500000000001
 21
946.99999999995
 31
0.0
  0
LINE
  5
4BB
330
1F
100
AcDbEntity
  8
LAY-10
  6
CONTINUOUS
 62
     7
100
AcDbLine
 10
1265.499999999987
 20
952.9999999999504
 30
0.0
 11
1265.499999999987
 21
946.99999999995
 31
0.0
  0
LINE
  5
4BC
330
1F
100
AcDbEntity
  8
LAY-10
  6
CONTINUOUS
 62
     7
100
AcDbLine
 10
1260.000000000001
 20
952.9999999999504
 30
0.0
 11
1265.499999999987
 21
952.9999999999504
 31
0.0
  0
LINE
  5
4BD
330
1F
100
AcDbEntity
  8
LAY-10
  6
CONTINUOUS
 62
     7
100
AcDbLine
 10
1260.000000000001
 20
954.9999999999509
 30
0.0
 11
1260.000000000001
 21
952.9999999999504
 31
0.0
  0
ARC
  5
4BE
330
1F
100
AcDbEntity
  8
LAY-10
  6
CONTINUOUS
 62
     7
100
AcDbCircle
 10
1294.500000000004
 20
952.9999999999504
 30
0.0
 40
2.0
100
AcDbArc
 50
90.00000000000001
 51
180.0
  0
LINE
  5
4BF
330
1F
100
AcDbEntity
  8
LAY-10
  6
CONTINUOUS
 62
     7
100
AcDbLine
 10
1300.000000000005
 20
954.9999999999509
 30
0.0
 11
1294.500000000004
 21
954.9999999999509
 31
0.0
  0
LINE
  5
4C0
330
1F
100
AcDbEntity
  8
LAY-10
  6
CONTINUOUS
 62
     7
100
AcDbLine
 10
1292.500000000005
 20
952.9999999999504
 30
0.0
 11
1292.500000000005
 21
946.99999999995
 31
0.0
  0
LINE
  5
4C1
330
1F
100
AcDbEntity
  8
LAY-10
  6
CONTINUOUS
 62
     7
100
AcDbLine
 10
1294.500000000019
 20
952.9999999999504
 30
0.0
 11
1294.500000000019
 21
946.99999999995
 31
0.0
  0
LINE
  5
4C2
330
1F
100
AcDbEntity
  8
LAY-10
  6
CONTINUOUS
 62
     7
100
AcDbLine
 10
1300.000000000005
 20
952.9999999999504
 30
0.0
 11
1294.500000000019
 21
952.9999999999504
 31
0.0
  0
LINE
  5
4C3
330
1F
100
AcDbEntity
  8
LAY-10
  6
CONTINUOUS
 62
     7
100
AcDbLine
 10
1300.000000000005
 20
954.9999999999509
 30
0.0
 11
1300.000000000005
 21
952.9999999999504
 31
0.0
  0
LINE
  5
4C4
330
1F
100
AcDbEntity
  8
LAY-10
  6
CONTINUOUS
 62
     7
100
AcDbLine
 10
1292.500000000005
 20
946.99999999995
 30
0.0
 11
1267.500000000005
 21
946.99999999995
 31
0.0
  0
ARC
  5
4C5
330
1F
100
AcDbEntity
  8
LAY-10
  6
CONTINUOUS
 62
     7
100
AcDbCircle
 10
1267.499999999987
 20
946.99999999995
 30
0.0
 40
2.0
100
AcDbArc
 50
180.0
 51
270.0000000000002
  0
ARC
  5
4C6
330
1F
100
AcDbEntity
  8
LAY-10
  6
CONTINUOUS
 62
     7
100
AcDbCircle
 10
1292.50000000002
 20
946.99999999995
 30
0.0
 40
2.0
100
AcDbArc
 50
270.0000000000002
 51
0.0
  0
LINE
  5
4C7
330
1F
100
AcDbEntity
  8
LAY-10
  6
CONTINUOUS
 62
     7
100
AcDbLine
 10
1014.500000000005
 20
945.0
 30
0.0
 11
1014.500000000005
 21
990.0
 31
0.0
  0
LINE
  5
4C8
330
1F
100
AcDbEntity
  8
LAY-10
  6
CONTINUOUS
 62
     7
100
AcDbLine
 10
1345.499999999995
 20
945.0
 30
0.0
 11
1345.499999999995
 21
990.0
 31
0.0
  0
LINE
  5
4C9
330
1F
100
AcDbEntity
  8
LAY-10
  6
CONTINUOUS
 62
     7
100
AcDbLine
 10
1377.499999999996
 20
944.9999999999986
 30
0.0
 11
1377.499999999996
 21
989.9999999999995
 31
0.0
  0
LINE
  5
4CA
330
1F
100
AcDbEntity
  8
LAY-10
  6
CONTINUOUS
 62
     7
100
AcDbLine
 10
1389.500000000001
 20
986.9999999999987
 30
0.0
 11
1377.499999999996
 21
986.9999999999987
 31
0.0
  0
LINE
  5
4CB
330
1F
100
AcDbEntity
  8
LAY-10
  6
CONTINUOUS
 62
     7
100
AcDbLine
 10
982.499999999995
 20
944.9999999999986
 30
0.0
 11
982.499999999995
 21
990.0
 31
0.0
  0
LINE
  5
4CC
330
1F
100
AcDbEntity
  8
LAY-10
  6
CONTINUOUS
 62
     7
100
AcDbLine
 10
1345.499999999995
 20
986.9999999999987
 30
0.0
 11
1014.500000000005
 21
986.9999999999987
 31
0.0
  0
LINE
  5
4CD
330
1F
100
AcDbEntity
  8
LAY-10
  6
CONTINUOUS
 62
     7
100
AcDbLine
 10
982.499999999995
 20
986.9999999999987
 30
0.0
 11
970.5000000000005
 21
986.9999999999987
 31
0.0
  0
LINE
  5
4CE
330
1F
100
AcDbEntity
  8
LAY-10
  6
CONTINUOUS
 62
     7
100
AcDbLine
 10
1397.1666666667
 20
986.9999999999987
 30
0.0
 11
1397.1666666667
 21
947.7999999999975
 31
0.0
  0
ARC
  5
4CF
330
1F
100
AcDbEntity
  8
LAY-10
  6
CONTINUOUS
 62
     7
100
AcDbCircle
 10
1403.1666666667
 20
947.7999999999975
 30
0.0
 40
6.000000000000005
100
AcDbArc
 50
180.0
 51
270.0000000000002
  0
ARC
  5
4D0
330
1F
100
AcDbEntity
  8
LAY-10
  6
CONTINUOUS
 62
     7
100
AcDbCircle
 10
1403.3666666667
 20
947.9999999999973
 30
0.0
 40
3.000000000000003
100
AcDbArc
 50
180.0
 51
270.0000000000002
  0
LINE
  5
4D1
330
1F
100
AcDbEntity
  8
LAY-10
  6
CONTINUOUS
 62
     7
100
AcDbLine
 10
1400.366666666701
 20
986.9999999999987
 30
0.0
 11
1400.366666666701
 21
947.9999999999973
 31
0.0
  0
LINE
  5
4D2
330
1F
100
AcDbEntity
  8
LAY-10
  6
CONTINUOUS
 62
     7
100
AcDbLine
 10
1816.166666666701
 20
986.9999999999987
 30
0.0
 11
1816.166666666701
 21
947.7999999999975
 31
0.0
  0
ARC
  5
4D3
330
1F
100
AcDbEntity
  8
LAY-10
  6
CONTINUOUS
 62
     7
100
AcDbCircle
 10
1810.166666666701
 20
947.7999999999975
 30
0.0
 40
6.000000000000005
100
AcDbArc
 50
270.0000000000002
 51
0.0
  0
ARC
  5
4D4
330
1F
100
AcDbEntity
  8
LAY-10
  6
CONTINUOUS
 62
     7
100
AcDbCircle
 10
1809.966666666702
 20
947.9999999999973
 30
0.0
 40
3.000000000000003
100
AcDbArc
 50
270.0000000000002
 51
0.0
  0
LINE
  5
4D5
330
1F
100
AcDbEntity
  8
LAY-10
  6
CONTINUOUS
 62
     7
100
AcDbLine
 10
1812.966666666701
 20
986.9999999999987
 30
0.0
 11
1812.966666666701
 21
947.9999999999973
 31
0.0
  0
LINE
  5
4D6
330
1F
100
AcDbEntity
  8
LAY-10
  6
CONTINUOUS
 62
     7
100
AcDbLine
 10
1403.3666666667
 20
944.9999999999986
 30
0.0
 11
1809.966666666702
 21
944.9999999999986
 31
0.0
  0
LINE
  5
4D7
330
1F
100
AcDbEntity
  8
LAY-10
  6
CONTINUOUS
 62
     7
100
AcDbLine
 10
1403.1666666667
 20
941.7999999999975
 30
0.0
 11
1810.166666666701
 21
941.7999999999975
 31
0.0
  0
ARC
  5
4D8
330
1F
100
AcDbEntity
  8
LAY-10
  6
CONTINUOUS
 62
     7
100
AcDbCircle
 10
1521.166666666685
 20
952.9999999999513
 30
0.0
 40
2.0
100
AcDbArc
 50
90.00000000000001
 51
180.0
  0
LINE
  5
4D9
330
1F
100
AcDbEntity
  8
LAY-10
  6
CONTINUOUS
 62
     7
100
AcDbLine
 10
1526.666666666686
 20
954.9999999999509
 30
0.0
 11
1521.166666666685
 21
954.9999999999509
 31
0.0
  0
LINE
  5
4DA
330
1F
100
AcDbEntity
  8
LAY-10
  6
CONTINUOUS
 62
     7
100
AcDbLine
 10
1519.166666666686
 20
952.9999999999513
 30
0.0
 11
1519.166666666686
 21
946.999999999951
 31
0.0
  0
LINE
  5
4DB
330
1F
100
AcDbEntity
  8
LAY-10
  6
CONTINUOUS
 62
     7
100
AcDbLine
 10
1521.1666666667
 20
952.9999999999513
 30
0.0
 11
1521.1666666667
 21
946.999999999951
 31
0.0
  0
LINE
  5
4DC
330
1F
100
AcDbEntity
  8
LAY-10
  6
CONTINUOUS
 62
     7
100
AcDbLine
 10
1526.666666666686
 20
952.9999999999513
 30
0.0
 11
1521.1666666667
 21
952.9999999999513
 31
0.0
  0
LINE
  5
4DD
330
1F
100
AcDbEntity
  8
LAY-10
  6
CONTINUOUS
 62
     7
100
AcDbLine
 10
1526.666666666686
 20
954.9999999999509
 30
0.0
 11
1526.666666666686
 21
952.9999999999513
 31
0.0
  0
ARC
  5
4DE
330
1F
100
AcDbEntity
  8
LAY-10
  6
CONTINUOUS
 62
     7
100
AcDbCircle
 10
1492.166666666682
 20
952.9999999999513
 30
0.0
 40
2.0
100
AcDbArc
 50
0.0
 51
90.00000000000001
  0
LINE
  5
4DF
330
1F
100
AcDbEntity
  8
LAY-10
  6
CONTINUOUS
 62
     7
100
AcDbLine
 10
1486.666666666682
 20
954.9999999999509
 30
0.0
 11
1492.166666666682
 21
954.9999999999509
 31
0.0
  0
LINE
  5
4E0
330
1F
100
AcDbEntity
  8
LAY-10
  6
CONTINUOUS
 62
     7
100
AcDbLine
 10
1494.166666666682
 20
952.9999999999513
 30
0.0
 11
1494.166666666682
 21
946.999999999951
 31
0.0
  0
LINE
  5
4E1
330
1F
100
AcDbEntity
  8
LAY-10
  6
CONTINUOUS
 62
     7
100
AcDbLine
 10
1492.166666666668
 20
952.9999999999513
 30
0.0
 11
1492.166666666668
 21
946.999999999951
 31
0.0
  0
LINE
  5
4E2
330
1F
100
AcDbEntity
  8
LAY-10
  6
CONTINUOUS
 62
     7
100
AcDbLine
 10
1486.666666666682
 20
952.9999999999513
 30
0.0
 11
1492.166666666668
 21
952.9999999999513
 31
0.0
  0
LINE
  5
4E3
330
1F
100
AcDbEntity
  8
LAY-10
  6
CONTINUOUS
 62
     7
100
AcDbLine
 10
1486.666666666682
 20
954.9999999999509
 30
0.0
 11
1486.666666666682
 21
952.9999999999513
 31
0.0
  0
LINE
  5
4E4
330
1F
100
AcDbEntity
  8
LAY-10
  6
CONTINUOUS
 62
     7
100
AcDbLine
 10
1494.166666666682
 20
946.999999999951
 30
0.0
 11
1519.166666666682
 21
946.999999999951
 31
0.0
  0
ARC
  5
4E5
330
1F
100
AcDbEntity
  8
LAY-10
  6
CONTINUOUS
 62
     7
100
AcDbCircle
 10
1519.1666666667
 20
946.999999999951
 30
0.0
 40
2.0
100
AcDbArc
 50
270.0000000000002
 51
0.0
  0
ARC
  5
4E6
330
1F
100
AcDbEntity
  8
LAY-10
  6
CONTINUOUS
 62
     7
100
AcDbCircle
 10
1494.166666666668
 20
946.999999999951
 30
0.0
 40
2.0
100
AcDbArc
 50
180.0
 51
270.0000000000002
  0
ARC
  5
4E7
330
1F
100
AcDbEntity
  8
LAY-10
  6
CONTINUOUS
 62
     7
100
AcDbCircle
 10
1692.166666666701
 20
952.9999999999504
 30
0.0
 40
2.0
100
AcDbArc
 50
0.0
 51
90.00000000000001
  0
LINE
  5
4E8
330
1F
100
AcDbEntity
  8
LAY-10
  6
CONTINUOUS
 62
     7
100
AcDbLine
 10
1686.666666666702
 20
954.9999999999509
 30
0.0
 11
1692.166666666701
 21
954.9999999999509
 31
0.0
  0
LINE
  5
4E9
330
1F
100
AcDbEntity
  8
LAY-10
  6
CONTINUOUS
 62
     7
100
AcDbLine
 10
1694.166666666702
 20
952.9999999999504
 30
0.0
 11
1694.166666666702
 21
946.99999999995
 31
0.0
  0
LINE
  5
4EA
330
1F
100
AcDbEntity
  8
LAY-10
  6
CONTINUOUS
 62
     7
100
AcDbLine
 10
1692.166666666687
 20
952.9999999999504
 30
0.0
 11
1692.166666666687
 21
946.99999999995
 31
0.0
  0
LINE
  5
4EB
330
1F
100
AcDbEntity
  8
LAY-10
  6
CONTINUOUS
 62
     7
100
AcDbLine
 10
1686.666666666702
 20
952.9999999999504
 30
0.0
 11
1692.166666666687
 21
952.9999999999504
 31
0.0
  0
LINE
  5
4EC
330
1F
100
AcDbEntity
  8
LAY-10
  6
CONTINUOUS
 62
     7
100
AcDbLine
 10
1686.666666666702
 20
954.9999999999509
 30
0.0
 11
1686.666666666702
 21
952.9999999999504
 31
0.0
  0
ARC
  5
4ED
330
1F
100
AcDbEntity
  8
LAY-10
  6
CONTINUOUS
 62
     7
100
AcDbCircle
 10
1721.166666666704
 20
952.9999999999504
 30
0.0
 40
2.0
100
AcDbArc
 50
90.00000000000001
 51
180.0
  0
LINE
  5
4EE
330
1F
100
AcDbEntity
  8
LAY-10
  6
CONTINUOUS
 62
     7
100
AcDbLine
 10
1726.666666666705
 20
954.9999999999509
 30
0.0
 11
1721.166666666704
 21
954.9999999999509
 31
0.0
  0
LINE
  5
4EF
330
1F
100
AcDbEntity
  8
LAY-10
  6
CONTINUOUS
 62
     7
100
AcDbLine
 10
1719.166666666705
 20
952.9999999999504
 30
0.0
 11
1719.166666666705
 21
946.99999999995
 31
0.0
  0
LINE
  5
4F0
330
1F
100
AcDbEntity
  8
LAY-10
  6
CONTINUOUS
 62
     7
100
AcDbLine
 10
1721.166666666719
 20
952.9999999999504
 30
0.0
 11
1721.166666666719
 21
946.99999999995
 31
0.0
  0
LINE
  5
4F1
330
1F
100
AcDbEntity
  8
LAY-10
  6
CONTINUOUS
 62
     7
100
AcDbLine
 10
1726.666666666705
 20
952.9999999999504
 30
0.0
 11
1721.166666666719
 21
952.9999999999504
 31
0.0
  0
LINE
  5
4F2
330
1F
100
AcDbEntity
  8
LAY-10
  6
CONTINUOUS
 62
     7
100
AcDbLine
 10
1726.666666666705
 20
954.9999999999509
 30
0.0
 11
1726.666666666705
 21
952.9999999999504
 31
0.0
  0
LINE
  5
4F3
330
1F
100
AcDbEntity
  8
LAY-10
  6
CONTINUOUS
 62
     7
100
AcDbLine
 10
1719.166666666705
 20
946.99999999995
 30
0.0
 11
1694.166666666705
 21
946.99999999995
 31
0.0
  0
ARC
  5
4F4
330
1F
100
AcDbEntity
  8
LAY-10
  6
CONTINUOUS
 62
     7
100
AcDbCircle
 10
1694.166666666687
 20
946.99999999995
 30
0.0
 40
2.0
100
AcDbArc
 50
180.0
 51
270.0000000000002
  0
ARC
  5
4F5
330
1F
100
AcDbEntity
  8
LAY-10
  6
CONTINUOUS
 62
     7
100
AcDbCircle
 10
1719.16666666672
 20
946.99999999995
 30
0.0
 40
2.0
100
AcDbArc
 50
270.0000000000002
 51
0.0
  0
LINE
  5
4F6
330
1F
100
AcDbEntity
  8
LAY-10
  6
CONTINUOUS
 62
     7
100
AcDbLine
 10
1441.166666666705
 20
945.0
 30
0.0
 11
1441.166666666705
 21
990.0
 31
0.0
  0
LINE
  5
4F7
330
1F
100
AcDbEntity
  8
LAY-10
  6
CONTINUOUS
 62
     7
100
AcDbLine
 10
1772.166666666695
 20
945.0
 30
0.0
 11
1772.166666666695
 21
990.0
 31
0.0
  0
LINE
  5
4F8
330
1F
100
AcDbEntity
  8
LAY-10
  6
CONTINUOUS
 62
     7
100
AcDbLine
 10
1804.166666666696
 20
944.9999999999986
 30
0.0
 11
1804.166666666696
 21
989.9999999999995
 31
0.0
  0
LINE
  5
4F9
330
1F
100
AcDbEntity
  8
LAY-10
  6
CONTINUOUS
 62
     7
100
AcDbLine
 10
1816.166666666702
 20
986.9999999999987
 30
0.0
 11
1804.166666666696
 21
986.9999999999987
 31
0.0
  0
LINE
  5
4FA
330
1F
100
AcDbEntity
  8
LAY-10
  6
CONTINUOUS
 62
     7
100
AcDbLine
 10
1409.166666666695
 20
944.9999999999986
 30
0.0
 11
1409.166666666695
 21
990.0
 31
0.0
  0
LINE
  5
4FB
330
1F
100
AcDbEntity
  8
LAY-10
  6
CONTINUOUS
 62
     7
100
AcDbLine
 10
1772.166666666695
 20
986.9999999999987
 30
0.0
 11
1441.166666666705
 21
986.9999999999987
 31
0.0
  0
LINE
  5
4FC
330
1F
100
AcDbEntity
  8
LAY-10
  6
CONTINUOUS
 62
     7
100
AcDbLine
 10
1409.166666666695
 20
986.9999999999987
 30
0.0
 11
1397.1666666667
 21
986.9999999999987
 31
0.0
  0
LINE
  5
4FD
330
1F
100
AcDbEntity
  8
LAY-10
  6
CONTINUOUS
 62
     7
100
AcDbLine
 10
755.5833333332968
 20
941.7999999999987
 30
0.0
 11
755.5833333332968
 21
897.7999999999987
 31
0.0
  0
LINE
  5
4FE
330
1F
100
AcDbEntity
  8
LAY-10
  6
CONTINUOUS
 62
     7
100
AcDbLine
 10
751.083333333286
 20
941.7999999999987
 30
0.0
 11
751.083333333286
 21
897.7999999999987
 31
0.0
  0
LINE
  5
4FF
330
1F
100
AcDbEntity
  8
LAY-10
  6
CONTINUOUS
 62
     7
100
AcDbLine
 10
551.8333333332914
 20
876.7999999999996
 30
0.0
 11
954.833333333292
 21
876.7999999999996
 31
0.0
  0
LINE
  5
500
330
1F
100
AcDbEntity
  8
LAY-10
  6
CONTINUOUS
 62
     7
100
AcDbLine
 10
564.3333333333251
 20
882.7999999999987
 30
0.0
 11
942.3333333333193
 21
882.7999999999987
 31
0.0
  0
LINE
  5
501
330
1F
100
AcDbEntity
  8
LAY-10
  6
CONTINUOUS
 62
     7
100
AcDbLine
 10
889.8333333333193
 20
876.7999999999987
 30
0.0
 11
889.8333333333193
 21
878.2999999999996
 31
0.0
  0
ARC
  5
502
330
1F
100
AcDbEntity
  8
LAY-10
  6
CONTINUOUS
 62
     7
100
AcDbCircle
 10
894.3333333333187
 20
878.2999999999996
 30
0.0
 40
4.5
100
AcDbArc
 50
90.00000000000001
 51
180.0
  0
LINE
  5
503
330
1F
100
AcDbEntity
  8
LAY-10
  6
CONTINUOUS
 62
     7
100
AcDbLine
 10
616.8333333333251
 20
876.7999999999987
 30
0.0
 11
616.8333333333251
 21
878.2999999999996
 31
0.0
  0
ARC
  5
504
330
1F
100
AcDbEntity
  8
LAY-10
  6
CONTINUOUS
 62
     7
100
AcDbCircle
 10
612.3333333333246
 20
878.2999999999996
 30
0.0
 40
4.5
100
AcDbArc
 50
0.0
 51
90.00000000000001
  0
ARC
  5
505
330
1F
100
AcDbEntity
  8
LAY-10
  6
CONTINUOUS
 62
     7
100
AcDbCircle
 10
942.3333333333193
 20
889.2999999999987
 30
0.0
 40
6.500000000000004
100
AcDbArc
 50
270.0000000000002
 51
0.0
  0
LINE
  5
506
330
1F
100
AcDbEntity
  8
LAY-10
  6
CONTINUOUS
 62
     7
100
AcDbLine
 10
948.8333333333202
 20
889.2999999999987
 30
0.0
 11
948.8333333333202
 21
941.800000000001
 31
0.0
  0
LINE
  5
507
330
1F
100
AcDbEntity
  8
LAY-10
  6
CONTINUOUS
 62
     7
100
AcDbLine
 10
954.8333333333193
 20
876.7999999999987
 30
0.0
 11
954.8333333333193
 21
941.7999999999987
 31
0.0
  0
ARC
  5
508
330
1F
100
AcDbEntity
  8
LAY-10
  6
CONTINUOUS
 62
     7
100
AcDbCircle
 10
564.3333333333251
 20
889.2999999999987
 30
0.0
 40
6.500000000000004
100
AcDbArc
 50
180.0
 51
270.0000000000002
  0
LINE
  5
509
330
1F
100
AcDbEntity
  8
LAY-10
  6
CONTINUOUS
 62
     7
100
AcDbLine
 10
557.8333333333242
 20
889.2999999999987
 30
0.0
 11
557.8333333333242
 21
941.7999999999987
 31
0.0
  0
LINE
  5
50A
330
1F
100
AcDbEntity
  8
LAY-10
  6
CONTINUOUS
 62
     7
100
AcDbLine
 10
551.8333333333246
 20
876.7999999999987
 30
0.0
 11
551.8333333333246
 21
941.7999999999987
 31
0.0
  0
ARC
  5
50B
330
1F
100
AcDbEntity
  8
LAY-10
  6
CONTINUOUS
 62
     7
100
AcDbCircle
 10
953.3333333333192
 20
937.299999999999
 30
0.0
 40
4.5
100
AcDbArc
 50
90.00000000000001
 51
180.0
  0
ARC
  5
50C
330
1F
100
AcDbEntity
  8
LAY-10
  6
CONTINUOUS
 62
     7
100
AcDbCircle
 10
553.3333333333255
 20
937.299999999999
 30
0.0
 40
4.5
100
AcDbArc
 50
0.0
 51
90.00000000000001
  0
LINE
  5
50D
330
1F
100
AcDbEntity
  8
LAY-10
  6
CONTINUOUS
 62
     7
100
AcDbLine
 10
1182.249999999967
 20
941.7999999999987
 30
0.0
 11
1182.249999999967
 21
897.7999999999987
 31
0.0
  0
LINE
  5
50E
330
1F
100
AcDbEntity
  8
LAY-10
  6
CONTINUOUS
 62
     7
100
AcDbLine
 10
1177.749999999956
 20
941.7999999999987
 30
0.0
 11
1177.749999999956
 21
897.7999999999987
 31
0.0
  0
LINE
  5
50F
330
1F
100
AcDbEntity
  8
LAY-10
  6
CONTINUOUS
 62
     7
100
AcDbLine
 10
978.4999999999616
 20
876.7999999999996
 30
0.0
 11
1381.499999999962
 21
876.7999999999996
 31
0.0
  0
LINE
  5
510
330
1F
100
AcDbEntity
  8
LAY-10
  6
CONTINUOUS
 62
     7
100
AcDbLine
 10
990.9999999999951
 20
882.7999999999987
 30
0.0
 11
1368.999999999989
 21
882.7999999999987
 31
0.0
  0
LINE
  5
511
330
1F
100
AcDbEntity
  8
LAY-10
  6
CONTINUOUS
 62
     7
100
AcDbLine
 10
1316.499999999989
 20
876.7999999999987
 30
0.0
 11
1316.499999999989
 21
878.2999999999996
 31
0.0
  0
ARC
  5
512
330
1F
100
AcDbEntity
  8
LAY-10
  6
CONTINUOUS
 62
     7
100
AcDbCircle
 10
1320.999999999988
 20
878.2999999999996
 30
0.0
 40
4.5
100
AcDbArc
 50
90.00000000000001
 51
180.0
  0
LINE
  5
513
330
1F
100
AcDbEntity
  8
LAY-10
  6
CONTINUOUS
 62
     7
100
AcDbLine
 10
1043.499999999995
 20
876.7999999999987
 30
0.0
 11
1043.499999999995
 21
878.2999999999996
 31
0.0
  0
ARC
  5
514
330
1F
100
AcDbEntity
  8
LAY-10
  6
CONTINUOUS
 62
     7
100
AcDbCircle
 10
1038.999999999995
 20
878.2999999999996
 30
0.0
 40
4.5
100
AcDbArc
 50
0.0
 51
90.00000000000001
  0
ARC
  5
515
330
1F
100
AcDbEntity
  8
LAY-10
  6
CONTINUOUS
 62
     7
100
AcDbCircle
 10
1368.999999999989
 20
889.2999999999987
 30
0.0
 40
6.500000000000004
100
AcDbArc
 50
270.0000000000002
 51
0.0
  0
LINE
  5
516
330
1F
100
AcDbEntity
  8
LAY-10
  6
CONTINUOUS
 62
     7
100
AcDbLine
 10
1375.49999999999
 20
889.2999999999987
 30
0.0
 11
1375.49999999999
 21
941.800000000001
 31
0.0
  0
LINE
  5
517
330
1F
100
AcDbEntity
  8
LAY-10
  6
CONTINUOUS
 62
     7
100
AcDbLine
 10
1381.499999999989
 20
876.7999999999987
 30
0.0
 11
1381.499999999989
 21
941.7999999999987
 31
0.0
  0
ARC
  5
518
330
1F
100
AcDbEntity
  8
LAY-10
  6
CONTINUOUS
 62
     7
100
AcDbCircle
 10
990.9999999999951
 20
889.2999999999987
 30
0.0
 40
6.500000000000004
100
AcDbArc
 50
180.0
 51
270.0000000000002
  0
LINE
  5
519
330
1F
100
AcDbEntity
  8
LAY-10
  6
CONTINUOUS
 62
     7
100
AcDbLine
 10
984.4999999999942
 20
889.2999999999987
 30
0.0
 11
984.4999999999942
 21
941.7999999999987
 31
0.0
  0
LINE
  5
51A
330
1F
100
AcDbEntity
  8
LAY-10
  6
CONTINUOUS
 62
     7
100
AcDbLine
 10
978.4999999999947
 20
876.7999999999987
 30
0.0
 11
978.4999999999947
 21
941.7999999999987
 31
0.0
  0
ARC
  5
51B
330
1F
100
AcDbEntity
  8
LAY-10
  6
CONTINUOUS
 62
     7
100
AcDbCircle
 10
1379.999999999989
 20
937.299999999999
 30
0.0
 40
4.5
100
AcDbArc
 50
90.00000000000001
 51
180.0
  0
ARC
  5
51C
330
1F
100
AcDbEntity
  8
LAY-10
  6
CONTINUOUS
 62
     7
100
AcDbCircle
 10
979.9999999999956
 20
937.299999999999
 30
0.0
 40
4.5
100
AcDbArc
 50
0.0
 51
90.00000000000001
  0
LINE
  5
51D
330
1F
100
AcDbEntity
  8
LAY-10
  6
CONTINUOUS
 62
     7
100
AcDbLine
 10
1608.916666666637
 20
941.7999999999987
 30
0.0
 11
1608.916666666637
 21
897.7999999999987
 31
0.0
  0
LINE
  5
51E
330
1F
100
AcDbEntity
  8
LAY-10
  6
CONTINUOUS
 62
     7
100
AcDbLine
 10
1604.416666666626
 20
941.7999999999987
 30
0.0
 11
1604.416666666626
 21
897.7999999999987
 31
0.0
  0
LINE
  5
51F
330
1F
100
AcDbEntity
  8
LAY-10
  6
CONTINUOUS
 62
     7
100
AcDbLine
 10
1405.166666666631
 20
876.7999999999996
 30
0.0
 11
1808.166666666632
 21
876.7999999999996
 31
0.0
  0
LINE
  5
520
330
1F
100
AcDbEntity
  8
LAY-10
  6
CONTINUOUS
 62
     7
100
AcDbLine
 10
1417.666666666665
 20
882.7999999999987
 30
0.0
 11
1795.666666666659
 21
882.7999999999987
 31
0.0
  0
LINE
  5
521
330
1F
100
AcDbEntity
  8
LAY-10
  6
CONTINUOUS
 62
     7
100
AcDbLine
 10
1743.166666666659
 20
876.7999999999987
 30
0.0
 11
1743.166666666659
 21
878.2999999999996
 31
0.0
  0
ARC
  5
522
330
1F
100
AcDbEntity
  8
LAY-10
  6
CONTINUOUS
 62
     7
100
AcDbCircle
 10
1747.666666666659
 20
878.2999999999996
 30
0.0
 40
4.5
100
AcDbArc
 50
90.00000000000001
 51
180.0
  0
LINE
  5
523
330
1F
100
AcDbEntity
  8
LAY-10
  6
CONTINUOUS
 62
     7
100
AcDbLine
 10
1470.166666666665
 20
876.7999999999987
 30
0.0
 11
1470.166666666665
 21
878.2999999999996
 31
0.0
  0
ARC
  5
524
330
1F
100
AcDbEntity
  8
LAY-10
  6
CONTINUOUS
 62
     7
100
AcDbCircle
 10
1465.666666666664
 20
878.2999999999996
 30
0.0
 40
4.5
100
AcDbArc
 50
0.0
 51
90.00000000000001
  0
ARC
  5
525
330
1F
100
AcDbEntity
  8
LAY-10
  6
CONTINUOUS
 62
     7
100
AcDbCircle
 10
1795.666666666659
 20
889.2999999999987
 30
0.0
 40
6.500000000000004
100
AcDbArc
 50
270.0000000000002
 51
0.0
  0
LINE
  5
526
330
1F
100
AcDbEntity
  8
LAY-10
  6
CONTINUOUS
 62
     7
100
AcDbLine
 10
1802.16666666666
 20
889.2999999999987
 30
0.0
 11
1802.16666666666
 21
941.800000000001
 31
0.0
  0
LINE
  5
527
330
1F
100
AcDbEntity
  8
LAY-10
  6
CONTINUOUS
 62
     7
100
AcDbLine
 10
1808.166666666659
 20
876.7999999999987
 30
0.0
 11
1808.166666666659
 21
941.7999999999987
 31
0.0
  0
ARC
  5
528
330
1F
100
AcDbEntity
  8
LAY-10
  6
CONTINUOUS
 62
     7
100
AcDbCircle
 10
1417.666666666665
 20
889.2999999999987
 30
0.0
 40
6.500000000000004
100
AcDbArc
 50
180.0
 51
270.0000000000002
  0
LINE
  5
529
330
1F
100
AcDbEntity
  8
LAY-10
  6
CONTINUOUS
 62
     7
100
AcDbLine
 10
1411.166666666664
 20
889.2999999999987
 30
0.0
 11
1411.166666666664
 21
941.7999999999987
 31
0.0
  0
LINE
  5
52A
330
1F
100
AcDbEntity
  8
LAY-10
  6
CONTINUOUS
 62
     7
100
AcDbLine
 10
1405.166666666664
 20
876.7999999999987
 30
0.0
 11
1405.166666666664
 21
941.7999999999987
 31
0.0
  0
ARC
  5
52B
330
1F
100
AcDbEntity
  8
LAY-10
  6
CONTINUOUS
 62
     7
100
AcDbCircle
 10
1806.666666666659
 20
937.299999999999
 30
0.0
 40
4.5
100
AcDbArc
 50
90.00000000000001
 51
180.0
  0
ARC
  5
52C
330
1F
100
AcDbEntity
  8
LAY-10
  6
CONTINUOUS
 62
     7
100
AcDbCircle
 10
1406.666666666665
 20
937.299999999999
 30
0.0
 40
4.5
100
AcDbArc
 50
0.0
 51
90.00000000000001
  0
LINE
  5
52D
330
1F
100
AcDbEntity
  8
LAY-10
  6
CENTER
 62
     2
100
AcDbLine
 10
1180.00000000008
 20
1306.001515190156
 30
0.0
 11
1180.00000000008
 21
2177.798484809856
 31
0.0
  0
LINE
  5
52E
330
1F
100
AcDbEntity
  8
LAY-10
  6
CENTER
 62
     2
100
AcDbLine
 10
1080.000000000129
 20
1398.754316770604
 30
0.0
 11
1080.000000000129
 21
1356.954316770605
 31
0.0
  0
LINE
  5
52F
330
1F
100
AcDbEntity
  8
LAY-10
  6
CENTER
 62
     2
100
AcDbLine
 10
481.1015151902302
 20
1741.900000000005
 30
0.0
 11
1878.89848481003
 21
1741.900000000005
 31
0.0
  0
LINE
  5
530
330
1F
100
AcDbEntity
  8
LAY-10
  6
CENTER
 62
     2
100
AcDbLine
 10
525.0000000001819
 20
1491.899999999895
 30
0.0
 11
483.2000000001827
 21
1491.899999999895
 31
0.0
  0
LINE
  5
531
330
1F
100
AcDbEntity
  8
LAY-10
  6
CENTER
 62
     2
100
AcDbLine
 10
525.0000000001819
 20
1991.899999999857
 30
0.0
 11
483.2000000001827
 21
1991.899999999857
 31
0.0
  0
LINE
  5
532
330
1F
100
AcDbEntity
  8
LAY-10
  6
CENTER
 62
     2
100
AcDbLine
 10
680.0000000001089
 20
2133.900000000023
 30
0.0
 11
680.0000000001089
 21
2175.700000000023
 31
0.0
  0
LINE
  5
533
330
1F
100
AcDbEntity
  8
LAY-10
  6
CENTER
 62
     2
100
AcDbLine
 10
1680.000000000051
 20
2133.900000000023
 30
0.0
 11
1680.000000000051
 21
2175.700000000023
 31
0.0
  0
LINE
  5
534
330
1F
100
AcDbEntity
  8
LAY-10
  6
CENTER
 62
     2
100
AcDbLine
 10
1834.999999999978
 20
1991.899999999857
 30
0.0
 11
1876.799999999977
 21
1991.899999999857
 31
0.0
  0
LINE
  5
535
330
1F
100
AcDbEntity
  8
LAY-10
  6
CENTER
 62
     2
100
AcDbLine
 10
1834.999999999978
 20
1491.899999999895
 30
0.0
 11
1876.799999999977
 21
1491.899999999895
 31
0.0
  0
LINE
  5
536
330
1F
100
AcDbEntity
  8
LAY-10
  6
CENTER
 62
     2
100
AcDbLine
 10
1680.000000000051
 20
1349.899999999827
 30
0.0
 11
1680.000000000051
 21
1308.099999999827
 31
0.0
  0
LINE
  5
537
330
1F
100
AcDbEntity
  8
LAY-10
  6
CENTER
 62
     2
100
AcDbLine
 10
680.0000000001089
 20
1349.899999999827
 30
0.0
 11
680.0000000001089
 21
1308.099999999827
 31
0.0
  0
LINE
  5
538
330
1F
100
AcDbEntity
  8
LAY-10
  6
CENTER
 62
     2
100
AcDbLine
 10
1373.333333333554
 20
1416.89999999981
 30
0.0
 11
1405.333333333552
 21
1416.89999999981
 31
0.0
  0
LINE
  5
539
330
1F
100
AcDbEntity
  8
LAY-10
  6
CENTER
 62
     2
100
AcDbLine
 10
1388.333333333554
 20
1403.499999999809
 30
0.0
 11
1388.333333333554
 21
1431.89999999981
 31
0.0
  0
LINE
  5
53A
330
1F
100
AcDbEntity
  8
LAY-10
  6
CENTER
 62
     2
100
AcDbLine
 10
1818.40000000018
 20
1416.89999999988
 30
0.0
 11
1790.000000000178
 21
1416.89999999988
 31
0.0
  0
LINE
  5
53B
330
1F
100
AcDbEntity
  8
LAY-10
  6
CENTER
 62
     2
100
AcDbLine
 10
1805.000000000178
 20
1401.89999999988
 30
0.0
 11
1805.000000000178
 21
1433.89999999988
 31
0.0
  0
LINE
  5
53C
330
1F
100
AcDbEntity
  8
LAY-10
  6
CENTER
 62
     2
100
AcDbLine
 10
1805.000000000109
 20
1755.299999999854
 30
0.0
 11
1805.000000000109
 21
1726.899999999855
 31
0.0
  0
LINE
  5
53D
330
1F
100
AcDbEntity
  8
LAY-10
  6
CENTER
 62
     2
100
AcDbLine
 10
1805.000000000106
 20
2080.299999999905
 30
0.0
 11
1805.000000000106
 21
2051.899999999905
 31
0.0
  0
LINE
  5
53E
330
1F
100
AcDbEntity
  8
LAY-10
  6
CENTER
 62
     2
100
AcDbLine
 10
1820.000000000106
 20
2066.899999999904
 30
0.0
 11
1788.000000000106
 21
2066.899999999905
 31
0.0
  0
LINE
  5
53F
330
1F
100
AcDbEntity
  8
LAY-10
  6
CENTER
 62
     2
100
AcDbLine
 10
1373.333333333554
 20
2066.900000000201
 30
0.0
 11
1405.333333333552
 21
2066.900000000202
 31
0.0
  0
LINE
  5
540
330
1F
100
AcDbEntity
  8
LAY-10
  6
CENTER
 62
     2
100
AcDbLine
 10
1388.333333333554
 20
2080.300000000202
 30
0.0
 11
1388.333333333554
 21
2051.900000000202
 31
0.0
  0
LINE
  5
541
330
1F
100
AcDbEntity
  8
LAY-10
  6
CENTER
 62
     2
100
AcDbLine
 10
1805.000000000029
 20
859.2000000000044
 30
0.0
 11
1805.000000000029
 21
812.1300000000048
 31
0.0
  0
LINE
  5
542
330
1F
100
AcDbEntity
  8
LAY-10
  6
CENTER
 62
     2
100
AcDbLine
 10
555.0000000000327
 20
859.2000000000044
 30
0.0
 11
555.0000000000327
 21
812.1300000000048
 31
0.0
  0
LINE
  5
543
330
1F
100
AcDbEntity
  8
LAY-10
  6
CENTER
 62
     2
100
AcDbLine
 10
1180.000000000031
 20
1024.000000000003
 30
0.0
 11
1180.000000000031
 21
780.2000000000044
 31
0.0
  0
LINE
  5
544
330
1F
100
AcDbEntity
  8
LAY-10
  6
CENTER
 62
     2
100
AcDbLine
 10
2360.400000000093
 20
1416.900000000008
 30
0.0
 11
2411.600000000094
 21
1416.900000000008
 31
0.0
  0
LINE
  5
545
330
1F
100
AcDbEntity
  8
LAY-10
  6
CENTER
 62
     2
100
AcDbLine
 10
2379.198484809932
 20
1355.600000000007
 30
0.0
 11
2379.198484809932
 21
1404.100000000007
 31
0.0
  0
LINE
  5
546
330
1F
100
AcDbEntity
  8
LAY-10
  6
CENTER
 62
     2
100
AcDbLine
 10
2360.400000000093
 20
2066.900000000005
 30
0.0
 11
2411.600000000094
 21
2066.900000000005
 31
0.0
  0
LINE
  5
547
330
1F
100
AcDbEntity
  8
LAY-10
  6
CENTER
 62
     2
100
AcDbLine
 10
2379.198484809932
 20
2128.200000000007
 30
0.0
 11
2379.198484809932
 21
2079.700000000006
 31
0.0
  0
LINE
  5
548
330
1F
100
AcDbEntity
  8
LAY-10
  6
CENTER
 62
     2
100
AcDbLine
 10
2219.3
 20
1741.900000000006
 30
0.0
 11
2432.2
 21
1741.900000000006
 31
0.0
  0
LINE
  5
549
330
1F
100
AcDbEntity
  8
LAY-10
  6
CENTER
 62
     2
100
AcDbLine
 10
553.3083333334596
 20
2086.899999999868
 30
0.0
 11
590.8083333334596
 21
2086.899999999868
 31
0.0
  0
LINE
  5
54A
330
1F
100
AcDbEntity
  8
LAY-10
  6
CENTER
 62
     2
100
AcDbLine
 10
571.8333333334592
 20
2105.499999999868
 30
0.0
 11
571.8333333334592
 21
2066.599999999868
 31
0.0
  0
LINE
  5
54B
330
1F
100
AcDbEntity
  8
LAY-10
  6
CENTER
 62
     2
100
AcDbLine
 10
916.3083333334596
 20
2086.899999999868
 30
0.0
 11
953.8083333334596
 21
2086.899999999868
 31
0.0
  0
LINE
  5
54C
330
1F
100
AcDbEntity
  8
LAY-10
  6
CENTER
 62
     2
100
AcDbLine
 10
934.8333333334592
 20
2105.499999999868
 30
0.0
 11
934.8333333334592
 21
2066.599999999868
 31
0.0
  0
LINE
  5
54D
330
1F
100
AcDbEntity
  8
LAY-10
  6
CENTER
 62
     2
100
AcDbLine
 10
979.9750000001296
 20
2086.899999999868
 30
0.0
 11
1017.47500000013
 21
2086.899999999868
 31
0.0
  0
LINE
  5
54E
330
1F
100
AcDbEntity
  8
LAY-10
  6
CENTER
 62
     2
100
AcDbLine
 10
998.5000000001293
 20
2105.499999999868
 30
0.0
 11
998.5000000001293
 21
2066.599999999868
 31
0.0
  0
LINE
  5
54F
330
1F
100
AcDbEntity
  8
LAY-10
  6
CENTER
 62
     2
100
AcDbLine
 10
553.3083333334596
 20
1396.900000000143
 30
0.0
 11
590.8083333334596
 21
1396.900000000143
 31
0.0
  0
LINE
  5
550
330
1F
100
AcDbEntity
  8
LAY-10
  6
CENTER
 62
     2
100
AcDbLine
 10
571.8333333334592
 20
1378.300000000143
 30
0.0
 11
571.8333333334592
 21
1417.200000000142
 31
0.0
  0
LINE
  5
551
330
1F
100
AcDbEntity
  8
LAY-10
  6
CENTER
 62
     2
100
AcDbLine
 10
916.3083333334596
 20
1396.900000000143
 30
0.0
 11
953.8083333334596
 21
1396.900000000143
 31
0.0
  0
LINE
  5
552
330
1F
100
AcDbEntity
  8
LAY-10
  6
CENTER
 62
     2
100
AcDbLine
 10
934.8333333334592
 20
1378.300000000143
 30
0.0
 11
934.8333333334592
 21
1417.200000000142
 31
0.0
  0
LINE
  5
553
330
1F
100
AcDbEntity
  8
LAY-10
  6
CENTER
 62
     2
100
AcDbLine
 10
979.9750000001297
 20
1396.900000000143
 30
0.0
 11
1017.47500000013
 21
1396.900000000143
 31
0.0
  0
LINE
  5
554
330
1F
100
AcDbEntity
  8
LAY-10
  6
CENTER
 62
     2
100
AcDbLine
 10
998.5000000001293
 20
1378.300000000143
 30
0.0
 11
998.5000000001293
 21
1417.200000000142
 31
0.0
  0
DIMENSION
  5
555
330
1F
100
AcDbEntity
  8
LAY-20
  6
CONTINUOUS
 62
     4
100
AcDbDimension
  2
*D22
 10
1155.0
 20
990.0
 30
0.0
 11
1130.0
 21
1050.0
 31
0.0
 70
   160
  3
ISO-25
100
AcDbAlignedDimension
 13
1100.0
 23
954.99999999996
 33
0.0
 14
1155.0
 24
990.0
 34
0.0
 50
90.0
100
AcDbRotatedDimension
1001
ACAD
1000
DSTYLE
1002
{
1070
   270
1070
     2
1070
     6
1000
EX_BNORM
1070
     7
1000
EX_BNORM
1070
    41
1040
25.0
1070
    42
1040
15.0
1070
    44
1040
15.0
1070
    73
1070
     0
1070
    74
1070
     0
1070
    75
1070
     0
1070
    76
1070
     1
1070
    77
1070
     1
1070
    78
1070
     8
1070
   140
1040
31.181104
1070
   147
1040
0.0
1070
   173
1070
     1
1070
   176
1070
     4
1070
   177
1070
     4
1070
   178
1070
     7
1070
   271
1070
     1
1070
   277
1070
     2
1070
   279
1070
     2
1070
   280
1070
     2
1070
   287
1070
     5
1070
   340
1005
1A3
1002
}
  0
DIMENSION
  5
563
330
1F
100
AcDbEntity
  8
LAY-20
  6
CONTINUOUS
 62
     4
100
AcDbDimension
  2
*D23
 10
533.80000000003
 20
625.0
 30
0.0
 11
1180.000000000015
 21
650.0
 31
0.0
 70
   160
  3
ISO-25
100
AcDbAlignedDimension
 13
1826.2
 23
828.0000000000005
 33
0.0
 14
533.80000000003
 24
828.0000000000005
 34
0.0
100
AcDbRotatedDimension
1001
ACAD
1000
DSTYLE
1002
{
1070
   270
1070
     2
1070
     6
1000
EX_BNORM
1070
     7
1000
EX_BNORM
1070
    41
1040
25.0
1070
    42
1040
15.0
1070
    44
1040
15.0
1070
    73
1070
     0
1070
    74
1070
     0
1070
    75
1070
     0
1070
    76
1070
     0
1070
    77
1070
     1
1070
    78
1070
     0
1070
   140
1040
31.181104
1070
   147
1040
0.0
1070
   173
1070
     1
1070
   176
1070
     4
1070
   177
1070
     4
1070
   178
1070
     7
1070
   271
1070
     0
1070
   277
1070
     2
1070
   279
1070
     2
1070
   280
1070
     0
1070
   287
1070
     5
1070
   340
1005
1A3
1002
}
  0
DIMENSION
  5
570
330
1F
100
AcDbEntity
  8
LAY-20
  6
CONTINUOUS
 62
     4
100
AcDbDimension
  2
*D24
 10
2598.4984848099
 20
1358.7
 30
0.0
 11
2573.4984848099
 21
1741.900000000001
 31
0.0
 70
   160
  3
ISO-25
100
AcDbAlignedDimension
 13
2345.8984848099
 23
2125.1
 33
0.0
 14
2345.8984848099
 24
1358.7
 34
0.0
 50
90.0
100
AcDbRotatedDimension
1001
ACAD
1000
DSTYLE
1002
{
1070
   270
1070
     2
1070
     6
1000
EX_BNORM
1070
     7
1000
EX_BNORM
1070
    41
1040
25.0
1070
    42
1040
15.0
1070
    44
1040
15.0
1070
    73
1070
     0
1070
    74
1070
     0
1070
    75
1070
     0
1070
    76
1070
     0
1070
    77
1070
     1
1070
    78
1070
     0
1070
   140
1040
31.181104
1070
   147
1040
0.0
1070
   173
1070
     1
1070
   176
1070
     4
1070
   177
1070
     4
1070
   178
1070
     7
1070
   271
1070
     0
1070
   277
1070
     2
1070
   279
1070
     2
1070
   280
1070
     0
1070
   287
1070
     5
1070
   340
1005
1A3
1002
}
  0
LINE
  5
57D
330
1F
100
AcDbEntity
  8
LAY-255
  6
CONTINUOUS
 62
     7
100
AcDbLine
 10
3850.0
 20
219.9999999999999
 30
0.0
 11
2850.0
 21
219.9999999999999
 31
0.0
  0
LINE
  5
57E
330
1F
100
AcDbEntity
  8
LAY-255
  6
CONTINUOUS
 62
     7
100
AcDbLine
 10
2888.0
 20
160.0
 30
0.0
 11
2968.0
 21
210.0
 31
0.0
  0
LINE
  5
57F
330
1F
100
AcDbEntity
  8
LAY-255
  6
CONTINUOUS
 62
     7
100
AcDbLine
 10
2968.0
 20
210.0
 30
0.0
 11
3048.0
 21
160.0
 31
0.0
  0
LINE
  5
580
330
1F
100
AcDbEntity
  8
LAY-255
  6
CONTINUOUS
 62
     7
100
AcDbLine
 10
3048.0
 20
160.0
 30
0.0
 11
2968.0
 21
110.0
 31
0.0
  0
LINE
  5
581
330
1F
100
AcDbEntity
  8
LAY-255
  6
CONTINUOUS
 62
     7
100
AcDbLine
 10
2968.0
 20
110.0
 30
0.0
 11
2888.0
 21
160.0
 31
0.0
  0
LINE
  5
582
330
1F
100
AcDbEntity
  8
LAY-255
  6
CONTINUOUS
 62
     7
100
AcDbLine
 10
50.0
 20
100.0
 30
0.0
 11
3850.0
 21
100.0
 31
0.0
  0
LINE
  5
583
330
1F
100
AcDbEntity
  8
LAY-255
  6
CONTINUOUS
 62
     7
100
AcDbLine
 10
50.0
 20
2800.0
 30
0.0
 11
3850.0
 21
2800.0
 31
0.0
  0
LINE
  5
584
330
1F
100
AcDbEntity
  8
LAY-255
  6
CONTINUOUS
 62
     7
100
AcDbLine
 10
50.0
 20
100.0
 30
0.0
 11
50.0
 21
2800.0
 31
0.0
  0
LINE
  5
585
330
1F
100
AcDbEntity
  8
LAY-255
  6
CONTINUOUS
 62
     7
100
AcDbLine
 10
3850.0
 20
100.0
 30
0.0
 11
3850.0
 21
2800.0
 31
0.0
  0
LINE
  5
586
330
1F
100
AcDbEntity
  8
LAY-255
  6
CONTINUOUS
 62
     4
100
AcDbLine
 10
2850.0
 20
279.9999999999999
 30
0.0
 11
3850.0
 21
279.9999999999999
 31
0.0
  0
LINE
  5
587
330
1F
100
AcDbEntity
  8
LAY-255
  6
CONTINUOUS
 62
     7
100
AcDbLine
 10
2850.0
 20
100.0
 30
0.0
 11
2850.0
 21
670.0
 31
0.0
  0
POINT
  5
588
330
1F
100
AcDbEntity
  8
LAY-255
  6
CONTINUOUS
 62
     7
100
AcDbPoint
 10
2890.0
 20
399.9999999999999
 30
0.0
  0
LINE
  5
589
330
1F
100
AcDbEntity
  8
LAY-255
  6
CONTINUOUS
 62
     4
100
AcDbLine
 10
3350.0
 20
279.9999999999999
 30
0.0
 11
3350.0
 21
220.0
 31
0.0
  0
LINE
  5
58A
330
1F
100
AcDbEntity
  8
LAY-255
  6
CONTINUOUS
 62
     7
100
AcDbLine
 10
3850.0
 20
670.0
 30
0.0
 11
2850.0
 21
670.0
 31
0.0
  0
LINE
  5
58B
330
1F
100
AcDbEntity
  8
LAY-255
  6
CONTINUOUS
 62
     4
100
AcDbLine
 10
3830.0
 20
549.9999999999999
 30
0.0
 11
2870.0
 21
549.9999999999999
 31
0.0
  0
LINE
  5
58C
330
1F
100
AcDbEntity
  8
LAY-255
  6
CONTINUOUS
 62
     4
100
AcDbLine
 10
3830.0
 20
610.0
 30
0.0
 11
2870.0
 21
610.0
 31
0.0
  0
POINT
  5
58D
330
1F
100
AcDbEntity
  8
LAY-255
  6
CONTINUOUS
 62
     7
100
AcDbPoint
 10
2890.0
 20
499.9999999999999
 30
0.0
  0
POINT
  5
58E
330
1F
100
AcDbEntity
  8
LAY-255
  6
CONTINUOUS
 62
     7
100
AcDbPoint
 10
3000.0
 20
559.9999999999999
 30
0.0
  0
POINT
  5
58F
330
1F
100
AcDbEntity
  8
LAY-255
  6
CONTINUOUS
 62
     7
100
AcDbPoint
 10
3000.0
 20
620.0
 30
0.0
  0
POINT
  5
590
330
1F
100
AcDbEntity
  8
LAY-255
  6
CONTINUOUS
 62
     7
100
AcDbPoint
 10
2890.0
 20
349.9999999999999
 30
0.0
  0
POINT
  5
591
330
1F
100
AcDbEntity
  8
LAY-255
  6
CONTINUOUS
 62
     7
100
AcDbPoint
 10
2890.0
 20
449.9999999999999
 30
0.0
  0
POINT
  5
592
330
1F
100
AcDbEntity
  8
LAY-255
  6
CONTINUOUS
 62
     7
100
AcDbPoint
 10
2890.0
 20
299.9999999999998
 30
0.0
  0
POINT
  5
593
330
1F
100
AcDbEntity
  8
LAY-255
  6
CONTINUOUS
 62
     7
100
AcDbPoint
 10
2890.0
 20
349.9999999999999
 30
0.0
  0
POINT
  5
594
330
1F
100
AcDbEntity
  8
LAY-255
  6
CONTINUOUS
 62
     7
100
AcDbPoint
 10
2890.0
 20
349.9999999999999
 30
0.0
  0
TEXT
  5
595
330
1F
100
AcDbEntity
  8
LAY-255
  6
CONTINUOUS
 62
     7
100
AcDbText
 10
3081.3837890625
 20
155.4375
 30
0.0
 40
51.5625
  1
福西鋳物株式会社
 41
1.342691999659091
  7
EXCADSTD
100
AcDbText
  0
TEXT
  5
596
330
1F
100
AcDbEntity
  8
LAY-255
  6
CONTINUOUS
 62
     7
100
AcDbText
 10
3085.09375
 20
119.8125
 30
0.0
 40
17.1875
  1
ＦＵＫＵＮＩＳＨＩ
 41
1.204799226045263
  7
EXCADSTD
100
AcDbText
  0
TEXT
  5
597
330
1F
100
AcDbEntity
  8
LAY-255
  6
CONTINUOUS
 62
     7
100
AcDbText
 10
3327.191964285714
 20
119.8125
 30
0.0
 40
17.1875
  1
ＦＯＵＮＤＲＹ
 41
1.243252752978497
  7
EXCADSTD
100
AcDbText
  0
TEXT
  5
598
330
1F
100
AcDbEntity
  8
LAY-255
  6
CONTINUOUS
 62
     7
100
AcDbText
 10
3519.945914381009
 20
119.8125
 30
0.0
 40
17.1875
  1
ＣＯ.,ＬＴＤ.
 41
1.243831036226633
  7
EXCADSTD
100
AcDbText
  0
TEXT
  5
599
330
1F
100
AcDbEntity
  8
LAY-255
  6
CONTINUOUS
 62
     7
100
AcDbText
 10
2940.34375
 20
137.1875
 30
0.0
 40
51.5625
  1
S
 41
0.7582677563636363
  7
EXCADSTD
100
AcDbText
  0
TEXT
  5
59A
330
1F
100
AcDbEntity
  8
LAY-255
  6
CONTINUOUS
 62
     7
100
AcDbText
 10
2971.046875
 20
137.4941037736
 30
0.0
 40
51.5625
  1
F
 41
0.7440945272727272
  7
EXCADSTD
100
AcDbText
  0
TEXT
  5
59B
330
1F
100
AcDbEntity
  8
LAY-255
  6
CONTINUOUS
 62
     7
100
AcDbText
 10
3371.0546875
 20
244.2187499999999
 30
0.0
 40
25.78125
  1
縮尺
 41
1.080708718181818
  7
EXCADSTD
100
AcDbText
  0
TEXT
  5
59C
330
1F
100
AcDbEntity
  8
LAY-255
  6
CONTINUOUS
 62
     7
100
AcDbText
 10
2872.65625
 20
565.6249999999999
 30
0.0
 40
34.375
  1
型式
 41
1.056348480681818
  7
EXCADSTD
100
AcDbText
  0
TEXT
  5
59D
330
1F
100
AcDbEntity
  8
LAY-255
  6
CONTINUOUS
 62
     7
100
AcDbText
 10
2874.21875
 20
625.625
 30
0.0
 40
34.375
  1
品名
 41
0.9788386340909091
  7
EXCADSTD
100
AcDbText
  0
TEXT
  5
59E
330
1F
100
AcDbEntity
  8
LAY-255
  6
CONTINUOUS
 62
     7
100
AcDbText
 10
2871.5234375
 20
244.2187499999999
 30
0.0
 40
25.78125
  1
作成日
 41
1.000629973818182
  7
EXCADSTD
100
AcDbText
  0
TEXT
  5
59F
330
1F
100
AcDbEntity
  8
LAY-255
  6
CONTINUOUS
 62
     7
100
AcDbText
 10
2891.40625
 20
505.6249999999999
 30
0.0
 40
34.375
  1
材質：スチール
 41
1.029301719225037
  7
EXCADSTD
100
AcDbText
  0
TEXT
  5
5A0
330
1F
100
AcDbEntity
  8
LAY-255
  6
CONTINUOUS
 62
     7
100
AcDbText
 10
3002.5
 20
625.625
 30
0.0
 40
34.375
  1
化粧用マシンハッチ
 41
1.014552031760644
  7
EXCADSTD
100
AcDbText
  0
TEXT
  5
5A1
330
1F
100
AcDbEntity
  8
LAY-255
  6
CONTINUOUS
 62
     7
100
AcDbText
 10
2892.03125
 20
355.6249999999999
 30
0.0
 40
34.375
  1
貼代：３５
 41
0.99542213615222
  7
EXCADSTD
100
AcDbText
  0
TEXT
  5
5A2
330
1F
100
AcDbEntity
  8
LAY-255
  6
CONTINUOUS
 62
     7
100
AcDbText
 10
2897.8125
 20
455.6249999999999
 30
0.0
 40
34.375
  1
目地：ステンレス鋼
 41
1.00154495443038
  7
EXCADSTD
100
AcDbText
  0
TEXT
  5
5A3
330
1F
100
AcDbEntity
  8
LAY-255
  6
CONTINUOUS
 62
     7
100
AcDbText
 10
3007.5
 20
565.6249999999999
 30
0.0
 40
34.375
  1
ＳＦ－６０×１２０ＢＭＰ－６型
 41
1.005180326315789
  7
EXCADSTD
100
AcDbText
  0
TEXT
  5
5A4
330
1F
100
AcDbEntity
  8
LAY-255
  6
CONTINUOUS
 62
     7
100
AcDbText
 10
2892.03125
 20
405.6249999999999
 30
0.0
 40
34.375
  1
適用荷重：Ｔ－６
 41
1.000225024415584
  7
EXCADSTD
100
AcDbText
  0
TEXT
  5
5A5
330
1F
100
AcDbEntity
  8
LAY-255
  6
CONTINUOUS
 62
     7
100
AcDbText
 10
3008.90625
 20
235.6249999999999
 30
0.0
 40
34.375
  1
０９／０４／２４
 41
0.9794713675324676
  7
EXCADSTD
100
AcDbText
  0
TEXT
  5
5A6
330
1F
100
AcDbEntity
  8
LAY-255
  6
CONTINUOUS
 62
     7
100
AcDbText
 10
3482.8125
 20
235.6249999999999
 30
0.0
 40
34.375
  1
１：１０
 41
0.9243863385026738
  7
EXCADSTD
100
AcDbText
  0
ENDSEC
  0
SECTION
  2
OBJECTS
  0
DICTIONARY
  5
C
330
0
100
AcDbDictionary
  3
ACAD_GROUP
350
D
  3
ACAD_LAYOUT
350
1A
  3
ACAD_MATERIAL
350
43
  3
ACAD_MLEADERSTYLE
350
6B
  3
ACAD_MLINESTYLE
350
17
  3
ACAD_PLOTSETTINGS
350
19
  3
ACAD_SCALELIST
350
47
  3
ACAD_VISUALSTYLE
350
2A
  3
ACDBHEADERROUNDTRIPXREC
350
5A7
  3
ACDBVARIABLEDICTIONARY
350
5C8
  0
DICTIONARY
  5
5D3
330
8
100
AcDbDictionary
280
     1
  3
ACAD_XREC_ROUNDTRIP
360
5D4
  0
DICTIONARY
  5
D
102
{ACAD_REACTORS
330
C
102
}
330
C
100
AcDbDictionary
  0
DICTIONARY
  5
1A
102
{ACAD_REACTORS
330
C
102
}
330
C
100
AcDbDictionary
  0
DICTIONARY
  5
43
102
{ACAD_REACTORS
330
C
102
}
330
C
100
AcDbDictionary
  3
BYBLOCK
350
45
  3
BYLAYER
350
44
  3
GLOBAL
350
46
  0
DICTIONARY
  5
6B
102
{ACAD_REACTORS
330
C
102
}
330
C
100
AcDbDictionary
  3
STANDARD
350
6C
  0
DICTIONARY
  5
17
102
{ACAD_REACTORS
330
C
102
}
330
C
100
AcDbDictionary
  3
STANDARD
350
18
  0
DICTIONARY
  5
19
102
{ACAD_REACTORS
330
C
102
}
330
C
100
AcDbDictionary
  0
DICTIONARY
  5
47
102
{ACAD_REACTORS
330
C
102
}
330
C
100
AcDbDictionary
  3
A0
350
48
  3
A1
350
49
  3
A2
350
4A
  3
A3
350
4B
  3
A4
350
4C
  3
A5
350
4D
  3
A6
350
4E
  3
A7
350
4F
  3
A8
350
50
  3
A9
350
51
  3
B0
350
52
  3
B1
350
53
  3
B2
350
54
  3
B3
350
55
  3
B4
350
56
  3
B5
350
57
  3
B6
350
58
  3
B7
350
59
  3
B8
350
5A
  3
B9
350
5B
  3
C0
350
5C
  3
C1
350
5D
  3
C2
350
5E
  3
C3
350
5F
  3
C4
350
60
  3
C5
350
61
  3
C6
350
62
  3
C7
350
63
  3
C8
350
64
  3
C9
350
65
  3
D0
350
66
  3
D1
350
67
  3
D2
350
68
  0
DICTIONARY
  5
2A
102
{ACAD_REACTORS
330
C
102
}
330
C
100
AcDbDictionary
  3
2DWIREFRAME
350
2F
  3
BASIC
350
32
  3
BRIGHTEN
350
36
  3
COLORCHANGE
350
3A
  3
CONCEPTUAL
350
34
  3
DIM
350
35
  3
EDGECOLOROFF
350
3D
  3
FACEPATTERN
350
39
  3
FLAT
350
2B
  3
FLATWITHEDGES
350
2C
  3
GOURAUD
350
2D
  3
GOURAUDWITHEDGES
350
2E
  3
HIDDEN
350
31
  3
JITTEROFF
350
3B
  3
LINEPATTERN
350
38
  3
OVERHANGOFF
350
3C
  3
REALISTIC
350
33
  3
SHADED
350
42
  3
SHADED_WITH_EDGES
350
41
  3
SHADES_OF_GRAY
350
3E
  3
SKETCHY
350
3F
  3
THICKEN
350
37
  3
WIREFRAME
350
30
  3
X-RAY
350
40
  0
DICTIONARY
  5
5A7
102
{ACAD_REACTORS
330
C
102
}
330
C
100
AcDbDictionary
  3
CEPSNID
350
5B1
  3
CEPSNTYPE
350
5B0
  3
DIMSTYLEDATA
350
5C7
  3
FINGERPRINTGUID
350
5B2
  3
HYPERLINKBASE
350
5AA
  3
INSUNITS
350
5AF
  3
LAYOUTDICT
350
5AC
  3
LWETCUNION
350
5AE
  3
PLOTSETDICT
350
5AD
  3
PSVPSCALE
350
5B4
  3
PUCSBASE
350
5B7
  3
PUCSORGBACK
350
5BD
  3
PUCSORGBOTTOM
350
5B9
  3
PUCSORGFRONT
350
5BC
  3
PUCSORGLEFT
350
5BA
  3
PUCSORGRIGHT
350
5BB
  3
PUCSORGTOP
350
5B8
  3
PUCSORTHOREF
350
5B5
  3
PUCSORTHOVIEW
350
5B6
  3
STYLESHEET
350
5AB
  3
TSTACKALIGN
350
5A8
  3
TSTACKSIZE
350
5A9
  3
UCSBASE
350
5C0
  3
UCSORGBACK
350
5C6
  3
UCSORGBOTTOM
350
5C2
  3
UCSORGFRONT
350
5C5
  3
UCSORGLEFT
350
5C3
  3
UCSORGRIGHT
350
5C4
  3
UCSORGTOP
350
5C1
  3
UCSORTHOREF
350
5BE
  3
UCSORTHOVIEW
350
5BF
  3
VERSIONGUID
350
5B3
  0
DICTIONARY
  5
5C8
102
{ACAD_REACTORS
330
C
102
}
330
C
100
AcDbDictionary
  3
CANNOSCALE
350
5D5
  3
CENTEREXE
350
5CF
  3
CENTERLTYPEFILE
350
5D0
  3
CMLEADERSTYLE
350
5CA
  3
CTABLESTYLE
350
5C9
  3
DIMASSOC
350
5D1
  3
HIDETEXT
350
5D2
  3
MSLTSCALE
350
5D6
  3
PSOLHEIGHT
350
5CC
  3
PSOLWIDTH
350
5CB
  0
XRECORD
  5
5D4
102
{ACAD_REACTORS
330
5D3
102
}
330
5D3
100
AcDbXrecord
102
VTR_0.000_0.000_1.000_1.000_VISUALSTYLE
340
2F
102
VTR_0.000_0.000_1.000_1.000_GRIDDISPLAY
 70
     3
102
VTR_0.000_0.000_1.000_1.000_GRIDMAJOR
 70
     5
102
VTR_0.000_0.000_1.000_1.000_DEFAULTLIGHTING
280
     1
102
VTR_0.000_0.000_1.000_1.000_DEFAULTLIGHTINGTYPE
 70
     1
102
VTR_0.000_0.000_1.000_1.000_BRIGHTNESS
141
0.0
102
VTR_0.000_0.000_1.000_1.000_CONTRAST
142
0.0
  0
MATERIAL
  5
45
102
{ACAD_REACTORS
330
43
102
}
102
{ACAD_XDICTIONARY
360
5D9
102
}
330
43
100
AcDbMaterial
  1
BYBLOCK
  0
MATERIAL
  5
44
102
{ACAD_REACTORS
330
43
102
}
102
{ACAD_XDICTIONARY
360
5D7
102
}
330
43
100
AcDbMaterial
  1
BYLAYER
  0
MATERIAL
  5
46
102
{ACAD_REACTORS
330
43
102
}
102
{ACAD_XDICTIONARY
360
5DB
102
}
330
43
100
AcDbMaterial
  1
GLOBAL
  0
ACAD_PROXY_OBJECT
  5
6C
102
{ACAD_REACTORS
330
6B
102
}
330
6B
100
AcDbProxyObject
 90
      499
 91
      505
 93
      610
310
40901902A4063FBFFFFFE0000000000000020400000000000020404214DD185B99185C990000000000000104090141901A00000000000004100000000000000041025764000000000000039000
340
14
340
0
340
11
340
0
 94
        0
1001
ACAD_MLEADERVER
1070
     2
  0
MLINESTYLE
  5
18
102
{ACAD_REACTORS
330
17
102
}
330
17
100
AcDbMlineStyle
  2
Standard
 70
     0
  3

 62
   256
 51
90.0
 52
90.0
 71
     2
 49
0.5
 62
   256
  6
BYLAYER
 49
-0.5
 62
   256
  6
BYLAYER
  0
ACAD_PROXY_OBJECT
  5
48
102
{ACAD_REACTORS
330
47
102
}
330
47
100
AcDbProxyObject
 90
      499
 91
      503
 93
       41
310
903313A31580
  0
ACAD_PROXY_OBJECT
  5
49
102
{ACAD_REACTORS
330
47
102
}
330
47
100
AcDbProxyObject
 90
      499
 91
      503
 93
      105
310
903313A324000000000000004000
  0
ACAD_PROXY_OBJECT
  5
4A
102
{ACAD_REACTORS
330
47
102
}
330
47
100
AcDbProxyObject
 90
      499
 91
      503
 93
      105
310
903313A344000000000000104000
  0
ACAD_PROXY_OBJECT
  5
4B
102
{ACAD_REACTORS
330
47
102
}
330
47
100
AcDbProxyObject
 90
      499
 91
      503
 93
      105
310
903313A354000000000000144000
  0
ACAD_PROXY_OBJECT
  5
4C
102
{ACAD_REACTORS
330
47
102
}
330
47
100
AcDbProxyObject
 90
      499
 91
      503
 93
      105
310
903313A384000000000000204000
  0
ACAD_PROXY_OBJECT
  5
4D
102
{ACAD_REACTORS
330
47
102
}
330
47
100
AcDbProxyObject
 90
      499
 91
      503
 93
      113
310
904313A31304000000000000244000
  0
ACAD_PROXY_OBJECT
  5
4E
102
{ACAD_REACTORS
330
47
102
}
330
47
100
AcDbProxyObject
 90
      499
 91
      503
 93
      113
310
904313A31364000000000000304000
  0
ACAD_PROXY_OBJECT
  5
4F
102
{ACAD_REACTORS
330
47
102
}
330
47
100
AcDbProxyObject
 90
      499
 91
      503
 93
      113
310
904313A32304000000000000344000
  0
ACAD_PROXY_OBJECT
  5
50
102
{ACAD_REACTORS
330
47
102
}
330
47
100
AcDbProxyObject
 90
      499
 91
      503
 93
      113
310
904313A333040000000000003E4000
  0
ACAD_PROXY_OBJECT
  5
51
102
{ACAD_REACTORS
330
47
102
}
330
47
100
AcDbProxyObject
 90
      499
 91
      503
 93
      113
310
904313A34304000000000000444000
  0
ACAD_PROXY_OBJECT
  5
52
102
{ACAD_REACTORS
330
47
102
}
330
47
100
AcDbProxyObject
 90
      499
 91
      503
 93
      113
310
904313A35304000000000000494000
  0
ACAD_PROXY_OBJECT
  5
53
102
{ACAD_REACTORS
330
47
102
}
330
47
100
AcDbProxyObject
 90
      499
 91
      503
 93
      121
310
905313A3130304000000000000594000
  0
ACAD_PROXY_OBJECT
  5
54
102
{ACAD_REACTORS
330
47
102
}
330
47
100
AcDbProxyObject
 90
      499
 91
      503
 93
      105
310
903323A310000000000000010100
  0
ACAD_PROXY_OBJECT
  5
55
102
{ACAD_REACTORS
330
47
102
}
330
47
100
AcDbProxyObject
 90
      499
 91
      503
 93
      105
310
903343A310000000000000410100
  0
ACAD_PROXY_OBJECT
  5
56
102
{ACAD_REACTORS
330
47
102
}
330
47
100
AcDbProxyObject
 90
      499
 91
      503
 93
      105
310
903383A310000000000000810100
  0
ACAD_PROXY_OBJECT
  5
57
102
{ACAD_REACTORS
330
47
102
}
330
47
100
AcDbProxyObject
 90
      499
 91
      503
 93
      113
310
90431303A310000000000000910100
  0
ACAD_PROXY_OBJECT
  5
58
102
{ACAD_REACTORS
330
47
102
}
330
47
100
AcDbProxyObject
 90
      499
 91
      503
 93
      121
310
9053130303A310000000000001650100
  0
ACAD_PROXY_OBJECT
  5
59
102
{ACAD_REACTORS
330
47
102
}
330
47
100
AcDbProxyObject
 90
      499
 91
      503
 93
      257
310
90E312F31323822203D2031272D3022000000000000200FC000000000000284000
  0
ACAD_PROXY_OBJECT
  5
5A
102
{ACAD_REACTORS
330
47
102
}
330
47
100
AcDbProxyObject
 90
      499
 91
      503
 93
      249
310
90D312F363422203D2031272D3022000000000000240FC000000000000284000
  0
ACAD_PROXY_OBJECT
  5
5B
102
{ACAD_REACTORS
330
47
102
}
330
47
100
AcDbProxyObject
 90
      499
 91
      503
 93
      249
310
90D312F333222203D2031272D3022000000000000280FC000000000000284000
  0
ACAD_PROXY_OBJECT
  5
5C
102
{ACAD_REACTORS
330
47
102
}
330
47
100
AcDbProxyObject
 90
      499
 91
      503
 93
      249
310
90D312F313622203D2031272D30220000000000002C0FC000000000000284000
  0
ACAD_PROXY_OBJECT
  5
5D
102
{ACAD_REACTORS
330
47
102
}
330
47
100
AcDbProxyObject
 90
      499
 91
      503
 93
      249
310
90D332F333222203D2031272D30220000000000002E0FC000000000000284000
  0
ACAD_PROXY_OBJECT
  5
5E
102
{ACAD_REACTORS
330
47
102
}
330
47
100
AcDbProxyObject
 90
      499
 91
      503
 93
      241
310
90C312F3822203D2031272D3022000000000000300FC000000000000284000
  0
ACAD_PROXY_OBJECT
  5
5F
102
{ACAD_REACTORS
330
47
102
}
330
47
100
AcDbProxyObject
 90
      499
 91
      503
 93
      249
310
90D332F313622203D2031272D3022000000000000320FC000000000000284000
  0
ACAD_PROXY_OBJECT
  5
60
102
{ACAD_REACTORS
330
47
102
}
330
47
100
AcDbProxyObject
 90
      499
 91
      503
 93
      241
310
90C312F3422203D2031272D3022000000000000340FC000000000000284000
  0
ACAD_PROXY_OBJECT
  5
61
102
{ACAD_REACTORS
330
47
102
}
330
47
100
AcDbProxyObject
 90
      499
 91
      503
 93
      241
310
90C332F3822203D2031272D3022000000000000360FC000000000000284000
  0
ACAD_PROXY_OBJECT
  5
62
102
{ACAD_REACTORS
330
47
102
}
330
47
100
AcDbProxyObject
 90
      499
 91
      503
 93
      241
310
90C312F3222203D2031272D3022000000000000380FC000000000000284000
  0
ACAD_PROXY_OBJECT
  5
63
102
{ACAD_REACTORS
330
47
102
}
330
47
100
AcDbProxyObject
 90
      499
 91
      503
 93
      241
310
90C332F3422203D2031272D30220000000000003A0FC000000000000284000
  0
ACAD_PROXY_OBJECT
  5
64
102
{ACAD_REACTORS
330
47
102
}
330
47
100
AcDbProxyObject
 90
      499
 91
      503
 93
      161
310
90A3122203D2031272D30224000000000000284000
  0
ACAD_PROXY_OBJECT
  5
65
102
{ACAD_REACTORS
330
47
102
}
330
47
100
AcDbProxyObject
 90
      499
 91
      503
 93
      257
310
90E312D312F3222203D2031272D30220000000000003E0FC000000000000284000
  0
ACAD_PROXY_OBJECT
  5
66
102
{ACAD_REACTORS
330
47
102
}
330
47
100
AcDbProxyObject
 90
      499
 91
      503
 93
      225
310
90A3322203D2031272D302200000000000002100000000000000284000
  0
ACAD_PROXY_OBJECT
  5
67
102
{ACAD_REACTORS
330
47
102
}
330
47
100
AcDbProxyObject
 90
      499
 91
      503
 93
      225
310
90A3622203D2031272D302200000000000006100000000000000284000
  0
ACAD_PROXY_OBJECT
  5
68
102
{ACAD_REACTORS
330
47
102
}
330
47
100
AcDbProxyObject
 90
      499
 91
      503
 93
      249
310
90D31272D3022203D2031272D30220000000000000A100000000000000284000
  0
ACAD_PROXY_OBJECT
  5
2F
102
{ACAD_REACTORS
330
2A
102
}
330
2A
100
AcDbProxyObject
 90
      499
 91
      501
 93
      436
310
42CC9915DA5C99599C985B595049028333333333333E33F0000000000000F90107901411070040501600405405064090741402480A0340
1001
ACAD
1000
AcDbSavedByObjectVersion
1070
     0
  0
ACAD_PROXY_OBJECT
  5
32
102
{ACAD_REACTORS
330
2A
102
}
330
2A
100
AcDbProxyObject
 90
      499
 91
      501
 93
      388
310
4150985CDA58D07406404333333333333E33F0000000000000F90107A41107004050150841D405064090741402480A0350
1001
ACAD
1000
AcDbSavedByObjectVersion
1070
     0
  0
ACAD_PROXY_OBJECT
  5
36
102
{ACAD_REACTORS
330
2A
102
}
330
2A
100
AcDbProxyObject
 90
      499
 91
      501
 93
      428
310
42109C9A59DA1D195B90C409028333333333333E33F0000000000000F9010790141107004050150841D405064090741402480A029950
1001
ACAD
1000
AcDbSavedByObjectVersion
1070
     0
  0
ACAD_PROXY_OBJECT
  5
3A
102
{ACAD_REACTORS
330
2A
102
}
330
2A
100
AcDbProxyObject
 90
      499
 91
      501
 93
      452
310
42D0DBDB1BDC90DA185B99D95104090240C333333333333E33F0000000000000F90108901411070040501508421405064090741402480A0350
1001
ACAD
1000
AcDbSavedByObjectVersion
1070
     0
  0
ACAD_PROXY_OBJECT
  5
34
102
{ACAD_REACTORS
330
2A
102
}
330
2A
100
AcDbProxyObject
 90
      499
 91
      501
 93
      500
310
4290DBDB98D95C1D1D585B10940D028333333333333E33F0000000000000F90107902409070040501000000000018199010841D405064090740C02480A0340
1001
ACAD
1000
AcDbSavedByObjectVersion
1070
     0
  0
ACAD_PROXY_OBJECT
  5
35
102
{ACAD_REACTORS
330
2A
102
}
330
2A
100
AcDbProxyObject
 90
      499
 91
      501
 93
      412
310
40D11A5B50B409028333333333333E33F0000000000000F9010790141107004050150841D405064090741402480A02677FFFFFD0
1001
ACAD
1000
AcDbSavedByObjectVersion
1070
     0
  0
ACAD_PROXY_OBJECT
  5
3D
102
{ACAD_REACTORS
330
2A
102
}
330
2A
100
AcDbProxyObject
 90
      499
 91
      501
 93
      452
310
43115919D950DBDB1BDC93D999916409028333333333333E33F0000000000000F9010790141107004050150841D405064090741402480A0350
1001
ACAD
1000
AcDbSavedByObjectVersion
1070
     0
  0
ACAD_PROXY_OBJECT
  5
39
102
{ACAD_REACTORS
330
2A
102
}
330
2A
100
AcDbProxyObject
 90
      499
 91
      501
 93
      444
310
42D19858D95C185D1D195C9B90F409028333333333333E33F0000000000000F9010790141107004050150841D405064090741402480A0350
1001
ACAD
1000
AcDbSavedByObjectVersion
1070
     0
  0
ACAD_PROXY_OBJECT
  5
2B
102
{ACAD_REACTORS
330
2A
102
}
330
2A
100
AcDbProxyObject
 90
      499
 91
      501
 93
      380
310
41119B185D240901404333333333333E33F0000000000000F9010740A907004050150841D405064090741402480A1B50
1001
ACAD
1000
AcDbSavedByObjectVersion
1070
     0
  0
ACAD_PROXY_OBJECT
  5
2C
102
{ACAD_REACTORS
330
2A
102
}
330
2A
100
AcDbProxyObject
 90
      499
 91
      501
 93
      468
310
43519B185D15DA5D1A115919D95CD0140901404333333333333E33F0000000000000F90107409019070040501600405405064090741402480A1B50
1001
ACAD
1000
AcDbSavedByObjectVersion
1070
     0
  0
ACAD_PROXY_OBJECT
  5
2D
102
{ACAD_REACTORS
330
2A
102
}
330
2A
100
AcDbProxyObject
 90
      499
 91
      501
 93
      404
310
41D1DBDD5C985D5910240902404333333333333E33F0000000000000F9010740A9070040501641D405064090741402480A1B50
1001
ACAD
1000
AcDbSavedByObjectVersion
1070
     0
  0
ACAD_PROXY_OBJECT
  5
2E
102
{ACAD_REACTORS
330
2A
102
}
330
2A
100
AcDbProxyObject
 90
      499
 91
      501
 93
      492
310
4411DBDD5C985D5915DA5D1A115919D95CD0340902404333333333333E33F0000000000000F90107409019070040501600405405064090741402480A1B50
1001
ACAD
1000
AcDbSavedByObjectVersion
1070
     0
  0
ACAD_PROXY_OBJECT
  5
31
102
{ACAD_REACTORS
330
2A
102
}
330
2A
100
AcDbProxyObject
 90
      499
 91
      501
 93
      476
310
41921A5919195B90640502408333333333333E33F0000000000000F901079024090700405020000000000001110200405405064090740C02480A0340
1001
ACAD
1000
AcDbSavedByObjectVersion
1070
     0
  0
ACAD_PROXY_OBJECT
  5
3B
102
{ACAD_REACTORS
330
2A
102
}
330
2A
100
AcDbProxyObject
 90
      499
 91
      501
 93
      428
310
42529A5D1D195C93D999914409028333333333333E33F0000000000000F9010790141107004050150A41D405064090741402480A0350
1001
ACAD
1000
AcDbSavedByObjectVersion
1070
     0
  0
ACAD_PROXY_OBJECT
  5
38
102
{ACAD_REACTORS
330
2A
102
}
330
2A
100
AcDbProxyObject
 90
      499
 91
      501
 93
      444
310
42D31A5B995C185D1D195C9B90E409028333333333333E33F0000000000000F9010790141107004050750841D405064090741402483A0350
1001
ACAD
1000
AcDbSavedByObjectVersion
1070
     0
  0
ACAD_PROXY_OBJECT
  5
3C
102
{ACAD_REACTORS
330
2A
102
}
330
2A
100
AcDbProxyObject
 90
      499
 91
      501
 93
      444
310
42D3DD995C9A185B99D3D999915409028333333333333E33F0000000000000F9010790141107004050150941D405064090741402480A0350
1001
ACAD
1000
AcDbSavedByObjectVersion
1070
     0
  0
ACAD_PROXY_OBJECT
  5
33
102
{ACAD_REACTORS
330
2A
102
}
330
2A
100
AcDbProxyObject
 90
      499
 91
      501
 93
      428
310
425499585B1A5CDD1A58D08409038333333333333E33F0000000000000F9010740A907004050150800405405064090740C02480A1B40
1001
ACAD
1000
AcDbSavedByObjectVersion
1070
     0
  0
ACAD_PROXY_OBJECT
  5
42
102
{ACAD_REACTORS
330
2A
102
}
330
2A
100
AcDbProxyObject
 90
      499
 91
      501
 93
      420
310
4194DA1859195911B40902404333333333333E33F0000000000000F9010740A41107004050150800405405064090840C02480A0B40
1001
ACAD
1000
AcDbSavedByObjectVersion
1070
     0
  0
ACAD_PROXY_OBJECT
  5
41
102
{ACAD_REACTORS
330
2A
102
}
330
2A
100
AcDbProxyObject
 90
      499
 91
      501
 93
      516
310
4454DA18591959081DDA5D1A08195919D95CD1A40902404333333333333E33F0000000000000F901074090142907004050250800405405064090740C02480A0B40
1001
ACAD
1000
AcDbSavedByObjectVersion
1070
     0
  0
ACAD_PROXY_OBJECT
  5
3E
102
{ACAD_REACTORS
330
2A
102
}
330
2A
100
AcDbProxyObject
 90
      499
 91
      501
 93
      532
310
4394DA1859195CC81BD98811DC985E5174090240C333333333333E33F0000000000000F901079024090741D01000000000000111010841D405064090740C02480A0340
1001
ACAD
1000
AcDbSavedByObjectVersion
1070
     0
  0
ACAD_PROXY_OBJECT
  5
3F
102
{ACAD_REACTORS
330
2A
102
}
330
2A
100
AcDbProxyObject
 90
      499
 91
      501
 93
      476
310
41D4DAD95D18DA1E51840502408333333333333E33F0000000000000F901079024090741D01000000000000111010B41D405064090741802480A0340
1001
ACAD
1000
AcDbSavedByObjectVersion
1070
     0
  0
ACAD_PROXY_OBJECT
  5
37
102
{ACAD_REACTORS
330
2A
102
}
330
2A
100
AcDbProxyObject
 90
      499
 91
      501
 93
      412
310
41D51A1A58DAD95B90D409028333333333333E33F0000000000000F9010790141107004050150C41D405064090741402480A0350
1001
ACAD
1000
AcDbSavedByObjectVersion
1070
     0
  0
ACAD_PROXY_OBJECT
  5
30
102
{ACAD_REACTORS
330
2A
102
}
330
2A
100
AcDbProxyObject
 90
      499
 91
      501
 93
      420
310
4255DA5C99599C985B595059028333333333333E33F0000000000000F90107901411070040501600405405064090740C02480A0340
1001
ACAD
1000
AcDbSavedByObjectVersion
1070
     0
  0
ACAD_PROXY_OBJECT
  5
40
102
{ACAD_REACTORS
330
2A
102
}
330
2A
100
AcDbProxyObject
 90
      499
 91
      501
 93
      404
310
41560B54985E51940902404000000000000E03F0000000000000F9010740501907004050150841D405064090740C02480A1B40
1001
ACAD
1000
AcDbSavedByObjectVersion
1070
     0
  0
XRECORD
  5
5B1
102
{ACAD_REACTORS
330
5A7
102
}
330
5A7
100
AcDbXrecord
340
0
  0
XRECORD
  5
5B0
102
{ACAD_REACTORS
330
5A7
102
}
330
5A7
100
AcDbXrecord
 90
        0
  0
XRECORD
  5
5C7
102
{ACAD_REACTORS
330
5A7
102
}
330
5A7
100
AcDbXrecord
1000
DSTYLE
1002
{
1070
   340
340
11
1002
}
  0
XRECORD
  5
5B2
102
{ACAD_REACTORS
330
5A7
102
}
330
5A7
100
AcDbXrecord
  1
{81c85df4-1a67-4377-94de-64b0736d7280}
  0
XRECORD
  5
5AA
102
{ACAD_REACTORS
330
5A7
102
}
330
5A7
100
AcDbXrecord
  1

  0
XRECORD
  5
5AF
102
{ACAD_REACTORS
330
5A7
102
}
330
5A7
100
AcDbXrecord
 90
        4
  0
XRECORD
  5
5AC
102
{ACAD_REACTORS
330
5A7
102
}
330
5A7
100
AcDbXrecord
340
1A
  0
XRECORD
  5
5AE
102
{ACAD_REACTORS
330
5A7
102
}
330
5A7
100
AcDbXrecord
 90
    10781
  0
XRECORD
  5
5AD
102
{ACAD_REACTORS
330
5A7
102
}
330
5A7
100
AcDbXrecord
340
19
  0
XRECORD
  5
5B4
102
{ACAD_REACTORS
330
5A7
102
}
330
5A7
100
AcDbXrecord
 40
0.0
  0
XRECORD
  5
5B7
102
{ACAD_REACTORS
330
5A7
102
}
330
5A7
100
AcDbXrecord
340
0
  0
XRECORD
  5
5BD
102
{ACAD_REACTORS
330
5A7
102
}
330
5A7
100
AcDbXrecord
 10
0.0
 20
0.0
 30
0.0
  0
XRECORD
  5
5B9
102
{ACAD_REACTORS
330
5A7
102
}
330
5A7
100
AcDbXrecord
 10
0.0
 20
0.0
 30
0.0
  0
XRECORD
  5
5BC
102
{ACAD_REACTORS
330
5A7
102
}
330
5A7
100
AcDbXrecord
 10
0.0
 20
0.0
 30
0.0
  0
XRECORD
  5
5BA
102
{ACAD_REACTORS
330
5A7
102
}
330
5A7
100
AcDbXrecord
 10
0.0
 20
0.0
 30
0.0
  0
XRECORD
  5
5BB
102
{ACAD_REACTORS
330
5A7
102
}
330
5A7
100
AcDbXrecord
 10
0.0
 20
0.0
 30
0.0
  0
XRECORD
  5
5B8
102
{ACAD_REACTORS
330
5A7
102
}
330
5A7
100
AcDbXrecord
 10
0.0
 20
0.0
 30
0.0
  0
XRECORD
  5
5B5
102
{ACAD_REACTORS
330
5A7
102
}
330
5A7
100
AcDbXrecord
340
0
  0
XRECORD
  5
5B6
102
{ACAD_REACTORS
330
5A7
102
}
330
5A7
100
AcDbXrecord
 70
     0
  0
XRECORD
  5
5AB
102
{ACAD_REACTORS
330
5A7
102
}
330
5A7
100
AcDbXrecord
  1

  0
XRECORD
  5
5A8
102
{ACAD_REACTORS
330
5A7
102
}
330
5A7
100
AcDbXrecord
 90
        1
  0
XRECORD
  5
5A9
102
{ACAD_REACTORS
330
5A7
102
}
330
5A7
100
AcDbXrecord
 90
       70
  0
XRECORD
  5
5C0
102
{ACAD_REACTORS
330
5A7
102
}
330
5A7
100
AcDbXrecord
340
0
  0
XRECORD
  5
5C6
102
{ACAD_REACTORS
330
5A7
102
}
330
5A7
100
AcDbXrecord
 10
0.0
 20
0.0
 30
0.0
  0
XRECORD
  5
5C2
102
{ACAD_REACTORS
330
5A7
102
}
330
5A7
100
AcDbXrecord
 10
0.0
 20
0.0
 30
0.0
  0
XRECORD
  5
5C5
102
{ACAD_REACTORS
330
5A7
102
}
330
5A7
100
AcDbXrecord
 10
0.0
 20
0.0
 30
0.0
  0
XRECORD
  5
5C3
102
{ACAD_REACTORS
330
5A7
102
}
330
5A7
100
AcDbXrecord
 10
0.0
 20
0.0
 30
0.0
  0
XRECORD
  5
5C4
102
{ACAD_REACTORS
330
5A7
102
}
330
5A7
100
AcDbXrecord
 10
0.0
 20
0.0
 30
0.0
  0
XRECORD
  5
5C1
102
{ACAD_REACTORS
330
5A7
102
}
330
5A7
100
AcDbXrecord
 10
0.0
 20
0.0
 30
0.0
  0
XRECORD
  5
5BE
102
{ACAD_REACTORS
330
5A7
102
}
330
5A7
100
AcDbXrecord
340
0
  0
XRECORD
  5
5BF
102
{ACAD_REACTORS
330
5A7
102
}
330
5A7
100
AcDbXrecord
 70
     0
  0
XRECORD
  5
5B3
102
{ACAD_REACTORS
330
5A7
102
}
330
5A7
100
AcDbXrecord
  1
{FAEB1C32-E019-11D5-929B-00C0DF256EC4}
  0
DICTIONARYVAR
  5
5D5
102
{ACAD_REACTORS
330
5C8
102
}
330
5C8
100
DictionaryVariables
280
     0
  1
1:1
  0
DICTIONARYVAR
  5
5CF
102
{ACAD_REACTORS
330
5C8
102
}
330
5C8
100
DictionaryVariables
280
     0
  1
3.500000
  0
DICTIONARYVAR
  5
5D0
102
{ACAD_REACTORS
330
5C8
102
}
330
5C8
100
DictionaryVariables
280
     0
  1
acadiso.lin
  0
DICTIONARYVAR
  5
5CA
102
{ACAD_REACTORS
330
5C8
102
}
330
5C8
100
DictionaryVariables
280
     0
  1
Standard
  0
DICTIONARYVAR
  5
5C9
102
{ACAD_REACTORS
330
5C8
102
}
330
5C8
100
DictionaryVariables
280
     0
  1
Standard
  0
DICTIONARYVAR
  5
5D1
102
{ACAD_REACTORS
330
5C8
102
}
330
5C8
100
DictionaryVariables
280
     0
  1
2
  0
DICTIONARYVAR
  5
5D2
102
{ACAD_REACTORS
330
5C8
102
}
330
5C8
100
DictionaryVariables
280
     0
  1
1
  0
DICTIONARYVAR
  5
5D6
102
{ACAD_REACTORS
330
5C8
102
}
330
5C8
100
DictionaryVariables
280
     0
  1
1
  0
DICTIONARYVAR
  5
5CC
102
{ACAD_REACTORS
330
5C8
102
}
330
5C8
100
DictionaryVariables
280
     0
  1
80.000000
  0
DICTIONARYVAR
  5
5CB
102
{ACAD_REACTORS
330
5C8
102
}
330
5C8
100
DictionaryVariables
280
     0
  1
5.000000
  0
DICTIONARY
  5
5D9
330
45
100
AcDbDictionary
280
     1
  3
ACAD_XREC_ROUNDTRIP
360
5DA
  0
DICTIONARY
  5
5D7
330
44
100
AcDbDictionary
280
     1
  3
ACAD_XREC_ROUNDTRIP
360
5D8
  0
DICTIONARY
  5
5DB
330
46
100
AcDbDictionary
280
     1
  3
ACAD_XREC_ROUNDTRIP
360
5DC
  0
XRECORD
  5
5DA
102
{ACAD_REACTORS
330
5D9
102
}
330
5D9
100
AcDbXrecord
102
MATERIAL
148
0.0
149
0.0
149
0.0
 93
        0
 94
      127
282
     0
 72
     1
 77
     1
171
     1
175
     1
179
     1
273
     0
  0
XRECORD
  5
5D8
102
{ACAD_REACTORS
330
5D7
102
}
330
5D7
100
AcDbXrecord
102
MATERIAL
148
0.0
149
0.0
149
0.0
 93
        0
 94
      127
282
     0
 72
     1
 77
     1
171
     1
175
     1
179
     1
273
     0
  0
XRECORD
  5
5DC
102
{ACAD_REACTORS
330
5DB
102
}
330
5DB
100
AcDbXrecord
102
MATERIAL
148
0.0
149
0.0
149
0.0
 93
        0
 94
      127
282
     0
 72
     1
 77
     1
171
     1
175
     1
179
     1
273
     0
  0
ENDSEC
  0
EOF
