  0
SECTION
  2
HEADER
  9
$ACADVER
  1
AC1014
  9
$ACADMAINTVER
 70
     9
  9
$DWGCODEPAGE
  3
ANSI_932
  9
$INSBASE
 10
0.0
 20
0.0
 30
0.0
  9
$EXTMIN
 10
50.0
 20
100.0
 30
0.0
  9
$EXTMAX
 10
3850.0
 20
2800.0
 30
0.0
  9
$LIMMIN
 10
0.0
 20
0.0
  9
$LIMMAX
 10
420.0
 20
297.0
  9
$ORTHOMODE
 70
     0
  9
$REGENMODE
 70
     1
  9
$FILLMODE
 70
     1
  9
$QTEXTMODE
 70
     0
  9
$MIRRTEXT
 70
     1
  9
$DRAGMODE
 70
     2
  9
$LTSCALE
 40
0.2
  9
$OSMODE
 70
    37
  9
$ATTMODE
 70
     1
  9
$TEXTSIZE
 40
2.5
  9
$TRACEWID
 40
1.0
  9
$TEXTSTYLE
  7
STANDARD
  9
$CLAYER
  8
LAY-10
  9
$CELTYPE
  6
BYLAYER
  9
$CECOLOR
 62
   256
  9
$CELTSCALE
 40
1.0
  9
$DELOBJ
 70
     1
  9
$DISPSILH
 70
     0
  9
$DIMSCALE
 40
1.0
  9
$DIMASZ
 40
2.5
  9
$DIMEXO
 40
0.625
  9
$DIMDLI
 40
3.75
  9
$DIMRND
 40
0.0
  9
$DIMDLE
 40
0.0
  9
$DIMEXE
 40
1.25
  9
$DIMTP
 40
0.0
  9
$DIMTM
 40
0.0
  9
$DIMTXT
 40
2.5
  9
$DIMCEN
 40
2.5
  9
$DIMTSZ
 40
0.0
  9
$DIMTOL
 70
     0
  9
$DIMLIM
 70
     0
  9
$DIMTIH
 70
     0
  9
$DIMTOH
 70
     0
  9
$DIMSE1
 70
     0
  9
$DIMSE2
 70
     0
  9
$DIMTAD
 70
     1
  9
$DIMZIN
 70
     8
  9
$DIMBLK
  1

  9
$DIMASO
 70
     1
  9
$DIMSHO
 70
     1
  9
$DIMPOST
  1

  9
$DIMAPOST
  1

  9
$DIMALT
 70
     0
  9
$DIMALTD
 70
     3
  9
$DIMALTF
 40
0.03937007874016
  9
$DIMLFAC
 40
1.0
  9
$DIMTOFL
 70
     1
  9
$DIMTVP
 40
0.0
  9
$DIMTIX
 70
     0
  9
$DIMSOXD
 70
     0
  9
$DIMSAH
 70
     0
  9
$DIMBLK1
  1

  9
$DIMBLK2
  1

  9
$DIMSTYLE
  2
ISO-25
  9
$DIMCLRD
 70
     0
  9
$DIMCLRE
 70
     0
  9
$DIMCLRT
 70
     0
  9
$DIMTFAC
 40
1.0
  9
$DIMGAP
 40
0.625
  9
$DIMJUST
 70
     0
  9
$DIMSD1
 70
     0
  9
$DIMSD2
 70
     0
  9
$DIMTOLJ
 70
     0
  9
$DIMTZIN
 70
     8
  9
$DIMALTZ
 70
     0
  9
$DIMALTTZ
 70
     0
  9
$DIMFIT
 70
     3
  9
$DIMUPT
 70
     0
  9
$DIMUNIT
 70
     2
  9
$DIMDEC
 70
     2
  9
$DIMTDEC
 70
     2
  9
$DIMALTU
 70
     2
  9
$DIMALTTD
 70
     3
  9
$DIMTXSTY
  7
STANDARD
  9
$DIMAUNIT
 70
     0
  9
$LUNITS
 70
     2
  9
$LUPREC
 70
     4
  9
$SKETCHINC
 40
1.0
  9
$FILLETRAD
 40
10.0
  9
$AUNITS
 70
     0
  9
$AUPREC
 70
     0
  9
$MENU
  1
.
  9
$ELEVATION
 40
0.0
  9
$PELEVATION
 40
0.0
  9
$THICKNESS
 40
0.0
  9
$LIMCHECK
 70
     0
  9
$CHAMFERA
 40
0.0
  9
$CHAMFERB
 40
0.0
  9
$CHAMFERC
 40
0.0
  9
$CHAMFERD
 40
0.0
  9
$SKPOLY
 70
     0
  9
$TDCREATE
 40
2459229.333521273
  9
$TDUPDATE
 40
2459229.333522581
  9
$TDINDWG
 40
0.0000000116
  9
$TDUSRTIMER
 40
0.0000000116
  9
$USRTIMER
 70
     1
  9
$ANGBASE
 50
0.0
  9
$ANGDIR
 70
     0
  9
$PDMODE
 70
     0
  9
$PDSIZE
 40
0.0
  9
$PLINEWID
 40
0.0
  9
$COORDS
 70
     1
  9
$SPLFRAME
 70
     0
  9
$SPLINETYPE
 70
     6
  9
$SPLINESEGS
 70
     8
  9
$ATTDIA
 70
     0
  9
$ATTREQ
 70
     1
  9
$HANDLING
 70
     1
  9
$HANDSEED
  5
6FD
  9
$SURFTAB1
 70
     6
  9
$SURFTAB2
 70
     6
  9
$SURFTYPE
 70
     6
  9
$SURFU
 70
     6
  9
$SURFV
 70
     6
  9
$UCSNAME
  2

  9
$UCSORG
 10
0.0
 20
0.0
 30
0.0
  9
$UCSXDIR
 10
1.0
 20
0.0
 30
0.0
  9
$UCSYDIR
 10
0.0
 20
1.0
 30
0.0
  9
$PUCSNAME
  2

  9
$PUCSORG
 10
0.0
 20
0.0
 30
0.0
  9
$PUCSXDIR
 10
1.0
 20
0.0
 30
0.0
  9
$PUCSYDIR
 10
0.0
 20
1.0
 30
0.0
  9
$USERI1
 70
     0
  9
$USERI2
 70
     0
  9
$USERI3
 70
     0
  9
$USERI4
 70
     0
  9
$USERI5
 70
     0
  9
$USERR1
 40
0.0
  9
$USERR2
 40
0.0
  9
$USERR3
 40
0.0
  9
$USERR4
 40
0.0
  9
$USERR5
 40
0.0
  9
$WORLDVIEW
 70
     1
  9
$SHADEDGE
 70
     3
  9
$SHADEDIF
 70
    70
  9
$TILEMODE
 70
     1
  9
$MAXACTVP
 70
    64
  9
$PINSBASE
 10
0.0
 20
0.0
 30
0.0
  9
$PLIMCHECK
 70
     0
  9
$PEXTMIN
 10
1.000000000000000E+20
 20
1.000000000000000E+20
 30
1.000000000000000E+20
  9
$PEXTMAX
 10
-1.000000000000000E+20
 20
-1.000000000000000E+20
 30
-1.000000000000000E+20
  9
$PLIMMIN
 10
0.0
 20
0.0
  9
$PLIMMAX
 10
420.0
 20
297.0
  9
$UNITMODE
 70
     0
  9
$VISRETAIN
 70
     1
  9
$PLINEGEN
 70
     0
  9
$PSLTSCALE
 70
     1
  9
$TREEDEPTH
 70
  3020
  9
$PICKSTYLE
 70
     1
  9
$CMLSTYLE
  2
STANDARD
  9
$CMLJUST
 70
     0
  9
$CMLSCALE
 40
20.0
  9
$PROXYGRAPHICS
 70
     1
  9
$MEASUREMENT
 70
     1
  0
ENDSEC
  0
SECTION
  2
CLASSES
  0
CLASS
  1
ACDBDICTIONARYWDFLT
  2
AcDbDictionaryWithDefault
  3
ObjectDBX Classes
 90
        0
280
     0
281
     0
  0
CLASS
  1
VISUALSTYLE
  2
AcDbVisualStyle
  3
ObjectDBX Classes
 90
     4095
280
     0
281
     0
  0
CLASS
  1
MATERIAL
  2
AcDbMaterial
  3
ObjectDBX Classes
 90
     1153
280
     0
281
     0
  0
CLASS
  1
SCALE
  2
AcDbScale
  3
ObjectDBX Classes
 90
     1153
280
     0
281
     0
  0
CLASS
  1
TABLESTYLE
  2
AcDbTableStyle
  3
ObjectDBX Classes
 90
     4095
280
     0
281
     0
  0
CLASS
  1
MLEADERSTYLE
  2
AcDbMLeaderStyle
  3
ACDB_MLEADERSTYLE_CLASS
 90
     4095
280
     0
281
     0
  0
CLASS
  1
SUN
  2
AcDbSun
  3
SCENEOE
 90
     1153
280
     0
281
     0
  0
CLASS
  1
DICTIONARYVAR
  2
AcDbDictionaryVar
  3
ObjectDBX Classes
 90
        0
280
     0
281
     0
  0
CLASS
  1
XRECORD
  2
AcDbXrecord
  3
ObjectDBX Classes
 90
        0
280
     0
281
     0
  0
CLASS
  1
LWPOLYLINE
  2
AcDbPolyline
  3
ObjectDBX Classes
 90
        0
280
     0
281
     1
  0
CLASS
  1
HATCH
  2
AcDbHatch
  3
ObjectDBX Classes
 90
        0
280
     0
281
     1
  0
CLASS
  1
ACDBPLACEHOLDER
  2
AcDbPlaceHolder
  3
ObjectDBX Classes
 90
        0
280
     0
281
     0
  0
CLASS
  1
LAYOUT
  2
AcDbLayout
  3
ObjectDBX Classes
 90
        0
280
     0
281
     0
  0
ENDSEC
  0
SECTION
  2
TABLES
  0
TABLE
  2
VPORT
  5
8
102
{ACAD_XDICTIONARY
360
6F2
102
}
330
0
100
AcDbSymbolTable
 70
     1
  0
VPORT
  5
29
330
8
100
AcDbSymbolTableRecord
100
AcDbViewportTableRecord
  2
*ACTIVE
 70
     0
 10
0.0
 20
0.0
 11
1.0
 21
1.0
 12
1950.0
 22
1450.0
 13
0.0
 23
0.0
 14
10.0
 24
10.0
 15
10.0
 25
10.0
 16
0.0
 26
0.0
 36
1.0
 17
0.0
 27
0.0
 37
0.0
 40
2700.0
 41
1.407407407407408
 42
50.0
 43
0.0
 44
0.0
 50
0.0
 51
0.0
 71
     0
 72
  1000
 73
     1
 74
     3
 75
     0
 76
     0
 77
     0
 78
     0
  0
ENDTAB
  0
TABLE
  2
LTYPE
  5
5
330
0
100
AcDbSymbolTable
 70
     6
  0
LTYPE
  5
14
330
5
100
AcDbSymbolTableRecord
100
AcDbLinetypeTableRecord
  2
BYBLOCK
 70
     0
  3

 72
    65
 73
     0
 40
0.0
  0
LTYPE
  5
15
330
5
100
AcDbSymbolTableRecord
100
AcDbLinetypeTableRecord
  2
BYLAYER
 70
     0
  3

 72
    65
 73
     0
 40
0.0
  0
LTYPE
  5
16
330
5
100
AcDbSymbolTableRecord
100
AcDbLinetypeTableRecord
  2
CONTINUOUS
 70
     0
  3
Solid line
 72
    65
 73
     0
 40
0.0
  0
LTYPE
  5
6E
330
5
100
AcDbSymbolTableRecord
100
AcDbLinetypeTableRecord
  2
HIDDEN
 70
     0
  3
Hidden __ __ __ __ __ __ __ __ __ __ __ __ __ __
 72
    65
 73
     2
 40
9.524999999999999
 49
6.35
 74
     0
 49
-3.175
 74
     0
  0
LTYPE
  5
6F
330
5
100
AcDbSymbolTableRecord
100
AcDbLinetypeTableRecord
  2
CENTER
 70
     0
  3
Center ____ _ ____ _ ____ _ ____ _ ____ _ ____
 72
    65
 73
     4
 40
50.8
 49
31.75
 74
     0
 49
-6.35
 74
     0
 49
6.35
 74
     0
 49
-6.35
 74
     0
  0
LTYPE
  5
70
330
5
100
AcDbSymbolTableRecord
100
AcDbLinetypeTableRecord
  2
PHANTOM
 70
     0
  3
Phantom ______  __  __  ______  __  __  ______ 
 72
    65
 73
     6
 40
63.50000000000001
 49
31.75
 74
     0
 49
-6.35
 74
     0
 49
6.35
 74
     0
 49
-6.35
 74
     0
 49
6.35
 74
     0
 49
-6.35
 74
     0
  0
LTYPE
  5
71
330
5
100
AcDbSymbolTableRecord
100
AcDbLinetypeTableRecord
  2
ACAD_ISO06W100
 70
     0
  3
ISO long-dash triple-dot ____ ... ____ ... ____
 72
    65
 73
     8
 40
36.0
 49
24.0
 74
     0
 49
-3.0
 74
     0
 49
0.0
 74
     0
 49
-3.0
 74
     0
 49
0.0
 74
     0
 49
-3.0
 74
     0
 49
0.0
 74
     0
 49
-3.0
 74
     0
  0
LTYPE
  5
72
330
5
100
AcDbSymbolTableRecord
100
AcDbLinetypeTableRecord
  2
ACAD_ISO15W100
 70
     0
  3
ISO double-dash triple-dot __ __ . . . __ __ . .
 72
    65
 73
    10
 40
39.0
 49
12.0
 74
     0
 49
-3.0
 74
     0
 49
12.0
 74
     0
 49
-3.0
 74
     0
 49
0.0
 74
     0
 49
-3.0
 74
     0
 49
0.0
 74
     0
 49
-3.0
 74
     0
 49
0.0
 74
     0
 49
-3.0
 74
     0
  0
ENDTAB
  0
TABLE
  2
LAYER
  5
2
330
0
100
AcDbSymbolTable
 70
     6
  0
LAYER
  5
10
330
2
100
AcDbSymbolTableRecord
100
AcDbLayerTableRecord
  2
0
 70
     0
 62
     7
  6
CONTINUOUS
  0
LAYER
  5
75
330
2
100
AcDbSymbolTableRecord
100
AcDbLayerTableRecord
  2
LAY-10
 70
     0
 62
     7
  6
CONTINUOUS
  0
LAYER
  5
76
330
2
100
AcDbSymbolTableRecord
100
AcDbLayerTableRecord
  2
LAY-11
 70
     0
 62
     7
  6
CONTINUOUS
  0
LAYER
  5
77
330
2
100
AcDbSymbolTableRecord
100
AcDbLayerTableRecord
  2
LAY-20
 70
     0
 62
     7
  6
CONTINUOUS
  0
LAYER
  5
78
330
2
100
AcDbSymbolTableRecord
100
AcDbLayerTableRecord
  2
LAY-255
 70
     0
 62
     7
  6
CONTINUOUS
  0
LAYER
  5
637
330
2
100
AcDbSymbolTableRecord
100
AcDbLayerTableRecord
  2
DEFPOINTS
 70
     0
 62
     7
  6
CONTINUOUS
  0
ENDTAB
  0
TABLE
  2
STYLE
  5
3
330
0
100
AcDbSymbolTable
 70
     4
  0
STYLE
  5
11
330
3
100
AcDbSymbolTableRecord
100
AcDbTextStyleTableRecord
  2
STANDARD
 70
     0
 40
0.0
 41
1.0
 50
0.0
 71
     0
 42
2.5
  3
simplex
  4
bigfont
  0
STYLE
  5
73
330
3
100
AcDbSymbolTableRecord
100
AcDbTextStyleTableRecord
  2
EXCADSTD
 70
     0
 40
0.0
 41
1.0
 50
0.0
 71
     0
 42
2.5
  3
simplex
  4
bigfont
  0
STYLE
  5
74
330
3
100
AcDbSymbolTableRecord
100
AcDbTextStyleTableRecord
  2
EXCADVERT
 70
     4
 40
0.0
 41
1.0
 50
0.0
 71
     0
 42
2.5
  3
simplex
  4
bigfont
  0
STYLE
  5
635
330
3
100
AcDbSymbolTableRecord
100
AcDbTextStyleTableRecord
  2
EXCADDIM1
 70
     0
 40
0.0
 41
0.84
 50
0.0
 71
     0
 42
2.5
  3
simplex
  4
bigfont
  0
ENDTAB
  0
TABLE
  2
VIEW
  5
6
330
0
100
AcDbSymbolTable
 70
     0
  0
ENDTAB
  0
TABLE
  2
UCS
  5
7
330
0
100
AcDbSymbolTable
 70
     0
  0
ENDTAB
  0
TABLE
  2
APPID
  5
9
330
0
100
AcDbSymbolTable
 70
     2
  0
APPID
  5
12
330
9
100
AcDbSymbolTableRecord
100
AcDbRegAppTableRecord
  2
ACAD
 70
     0
  0
APPID
  5
6FC
330
9
100
AcDbSymbolTableRecord
100
AcDbRegAppTableRecord
  2
ACAD_MLEADERVER
 70
     0
  0
ENDTAB
  0
TABLE
  2
DIMSTYLE
  5
A
330
0
100
AcDbSymbolTable
 70
     1
  0
DIMSTYLE
105
27
102
{ACAD_REACTORS
330
636
330
644
330
651
330
65E
330
66B
330
678
330
685
330
692
102
}
330
A
100
AcDbSymbolTableRecord
100
AcDbDimStyleTableRecord
  2
ISO-25
 70
     0
  3

  4

  5

  6

  7

 40
1.0
 41
2.5
 42
0.625
 43
3.75
 44
1.25
 45
0.0
 46
0.0
 47
0.0
 48
0.0
140
2.5
141
2.5
142
0.0
143
0.03937007874016
144
1.0
145
0.0
146
1.0
147
0.625
 71
     0
 72
     0
 73
     0
 74
     0
 75
     0
 76
     0
 77
     1
 78
     8
170
     0
171
     3
172
     1
173
     0
174
     0
175
     0
176
     0
177
     0
178
     0
270
     2
271
     2
272
     2
273
     2
274
     3
340
11
275
     0
280
     0
281
     0
282
     0
283
     0
284
     8
285
     0
286
     0
287
     5
288
     0
  0
ENDTAB
  0
TABLE
  2
BLOCK_RECORD
  5
1
330
0
100
AcDbSymbolTable
 70
    24
  0
BLOCK_RECORD
  5
1F
330
1
100
AcDbSymbolTableRecord
100
AcDbBlockTableRecord
  2
*MODEL_SPACE
  0
BLOCK_RECORD
  5
1B
330
1
100
AcDbSymbolTableRecord
100
AcDbBlockTableRecord
  2
*PAPER_SPACE
  0
BLOCK_RECORD
  5
79
330
1
100
AcDbSymbolTableRecord
100
AcDbBlockTableRecord
  2
EX_NORM
  0
BLOCK_RECORD
  5
7C
330
1
100
AcDbSymbolTableRecord
100
AcDbBlockTableRecord
  2
EX_BNORM
  0
BLOCK_RECORD
  5
7F
330
1
100
AcDbSymbolTableRecord
100
AcDbBlockTableRecord
  2
EX_BCIR
  0
BLOCK_RECORD
  5
82
330
1
100
AcDbSymbolTableRecord
100
AcDbBlockTableRecord
  2
EX_RCIVIL
  0
BLOCK_RECORD
  5
85
330
1
100
AcDbSymbolTableRecord
100
AcDbBlockTableRecord
  2
EX_SLANT
  0
BLOCK_RECORD
  5
88
330
1
100
AcDbSymbolTableRecord
100
AcDbBlockTableRecord
  2
EX_NONE
  0
BLOCK_RECORD
  5
8B
330
1
100
AcDbSymbolTableRecord
100
AcDbBlockTableRecord
  2
EX_CIVIL
  0
BLOCK_RECORD
  5
8E
330
1
100
AcDbSymbolTableRecord
100
AcDbBlockTableRecord
  2
EX_WCIR
  0
BLOCK_RECORD
  5
91
330
1
100
AcDbSymbolTableRecord
100
AcDbBlockTableRecord
  2
EX_WCIR2
  0
BLOCK_RECORD
  5
94
330
1
100
AcDbSymbolTableRecord
100
AcDbBlockTableRecord
  2
EX_WNORM
  0
BLOCK_RECORD
  5
97
330
1
100
AcDbSymbolTableRecord
100
AcDbBlockTableRecord
  2
EX_NNORM
  0
BLOCK_RECORD
  5
9A
330
1
100
AcDbSymbolTableRecord
100
AcDbBlockTableRecord
  2
EX_BBOX
  0
BLOCK_RECORD
  5
9D
330
1
100
AcDbSymbolTableRecord
100
AcDbBlockTableRecord
  2
EX_WBOX
  0
BLOCK_RECORD
  5
A0
330
1
100
AcDbSymbolTableRecord
100
AcDbBlockTableRecord
  2
EX_INTEGRAL
  0
BLOCK_RECORD
  5
A3
330
1
100
AcDbSymbolTableRecord
100
AcDbBlockTableRecord
  2
SYM-1
  0
BLOCK_RECORD
  5
A6
330
1
100
AcDbSymbolTableRecord
100
AcDbBlockTableRecord
  2
SYM-2
  0
BLOCK_RECORD
  5
638
330
1
100
AcDbSymbolTableRecord
100
AcDbBlockTableRecord
  2
*D17
  0
BLOCK_RECORD
  5
645
330
1
100
AcDbSymbolTableRecord
100
AcDbBlockTableRecord
  2
*D18
  0
BLOCK_RECORD
  5
652
330
1
100
AcDbSymbolTableRecord
100
AcDbBlockTableRecord
  2
*D19
  0
BLOCK_RECORD
  5
65F
330
1
100
AcDbSymbolTableRecord
100
AcDbBlockTableRecord
  2
*D20
  0
BLOCK_RECORD
  5
66C
330
1
100
AcDbSymbolTableRecord
100
AcDbBlockTableRecord
  2
*D21
  0
BLOCK_RECORD
  5
679
330
1
100
AcDbSymbolTableRecord
100
AcDbBlockTableRecord
  2
*D22
  0
BLOCK_RECORD
  5
686
330
1
100
AcDbSymbolTableRecord
100
AcDbBlockTableRecord
  2
*D23
  0
BLOCK_RECORD
  5
693
330
1
100
AcDbSymbolTableRecord
100
AcDbBlockTableRecord
  2
*D24
  0
ENDTAB
  0
ENDSEC
  0
SECTION
  2
BLOCKS
  0
BLOCK
  5
20
330
1F
100
AcDbEntity
  8
0
100
AcDbBlockBegin
  2
*MODEL_SPACE
 70
     0
 10
0.0
 20
0.0
 30
0.0
  3
*MODEL_SPACE
  1

  0
ENDBLK
  5
21
330
1F
100
AcDbEntity
  8
0
100
AcDbBlockEnd
  0
BLOCK
  5
1C
330
1B
100
AcDbEntity
 67
     1
  8
0
100
AcDbBlockBegin
  2
*PAPER_SPACE
 70
     0
 10
0.0
 20
0.0
 30
0.0
  3
*PAPER_SPACE
  1

  0
ENDBLK
  5
1D
330
1B
100
AcDbEntity
 67
     1
  8
0
100
AcDbBlockEnd
  0
BLOCK
  5
7A
330
79
100
AcDbEntity
  8
0
100
AcDbBlockBegin
  2
EX_NORM
 70
     0
 10
0.0
 20
0.0
 30
0.0
  3
EX_NORM
  1

  0
LINE
  5
A9
330
79
100
AcDbEntity
  8
0
  6
CONTINUOUS
 62
     0
100
AcDbLine
 10
0.0
 20
0.0
 30
0.0
 11
-1.0
 21
0.0
 31
0.0
  0
LINE
  5
AA
330
79
100
AcDbEntity
  8
0
  6
CONTINUOUS
 62
     0
100
AcDbLine
 10
0.0
 20
0.0
 30
0.0
 11
-1.0
 21
0.166666667
 31
0.0
  0
LINE
  5
AB
330
79
100
AcDbEntity
  8
0
  6
CONTINUOUS
 62
     0
100
AcDbLine
 10
0.0
 20
0.0
 30
0.0
 11
-1.0
 21
-0.166666667
 31
0.0
  0
ENDBLK
  5
7B
330
79
100
AcDbEntity
  8
0
100
AcDbBlockEnd
  0
BLOCK
  5
7D
330
7C
100
AcDbEntity
  8
0
100
AcDbBlockBegin
  2
EX_BNORM
 70
     0
 10
0.0
 20
0.0
 30
0.0
  3
EX_BNORM
  1

  0
LINE
  5
AC
330
7C
100
AcDbEntity
  8
0
  6
CONTINUOUS
 62
     0
100
AcDbLine
 10
0.0
 20
0.0
 30
0.0
 11
-1.0
 21
0.0
 31
0.0
  0
LINE
  5
AD
330
7C
100
AcDbEntity
  8
0
  6
CONTINUOUS
 62
     0
100
AcDbLine
 10
0.0
 20
0.0
 30
0.0
 11
-1.0
 21
0.166666667
 31
0.0
  0
LINE
  5
AE
330
7C
100
AcDbEntity
  8
0
  6
CONTINUOUS
 62
     0
100
AcDbLine
 10
0.0
 20
0.0
 30
0.0
 11
-1.0
 21
-0.166666667
 31
0.0
  0
LINE
  5
AF
330
7C
100
AcDbEntity
  8
0
  6
CONTINUOUS
 62
     0
100
AcDbLine
 10
0.0
 20
0.0
 30
0.0
 11
-1.0
 21
0.083333333
 31
0.0
  0
LINE
  5
B0
330
7C
100
AcDbEntity
  8
0
  6
CONTINUOUS
 62
     0
100
AcDbLine
 10
0.0
 20
0.0
 30
0.0
 11
-1.0
 21
-0.083333333
 31
0.0
  0
LINE
  5
B1
330
7C
100
AcDbEntity
  8
0
  6
CONTINUOUS
 62
     0
100
AcDbLine
 10
-1.0
 20
0.166666667
 30
0.0
 11
-1.0
 21
-0.166666667
 31
0.0
  0
ENDBLK
  5
7E
330
7C
100
AcDbEntity
  8
0
100
AcDbBlockEnd
  0
BLOCK
  5
80
330
7F
100
AcDbEntity
  8
0
100
AcDbBlockBegin
  2
EX_BCIR
 70
     0
 10
0.0
 20
0.0
 30
0.0
  3
EX_BCIR
  1

  0
LINE
  5
B2
330
7F
100
AcDbEntity
  8
0
  6
CONTINUOUS
 62
     0
100
AcDbLine
 10
0.0
 20
0.0
 30
0.0
 11
-1.0
 21
0.0
 31
0.0
  0
CIRCLE
  5
B3
330
7F
100
AcDbEntity
  8
0
  6
CONTINUOUS
 62
     0
100
AcDbCircle
 10
0.0
 20
0.0
 30
0.0
 40
0.5
  0
CIRCLE
  5
B4
330
7F
100
AcDbEntity
  8
0
  6
CONTINUOUS
 62
     0
100
AcDbCircle
 10
0.0
 20
0.0
 30
0.0
 40
0.25
  0
ENDBLK
  5
81
330
7F
100
AcDbEntity
  8
0
100
AcDbBlockEnd
  0
BLOCK
  5
83
330
82
100
AcDbEntity
  8
0
100
AcDbBlockBegin
  2
EX_RCIVIL
 70
     0
 10
0.0
 20
0.0
 30
0.0
  3
EX_RCIVIL
  1

  0
LINE
  5
B5
330
82
100
AcDbEntity
  8
0
  6
CONTINUOUS
 62
     0
100
AcDbLine
 10
0.0
 20
0.0
 30
0.0
 11
-1.0
 21
0.0
 31
0.0
  0
LINE
  5
B6
330
82
100
AcDbEntity
  8
0
  6
CONTINUOUS
 62
     0
100
AcDbLine
 10
-1.0
 20
-0.25
 30
0.0
 11
0.0
 21
-0.25
 31
0.0
  0
LINE
  5
B7
330
82
100
AcDbEntity
  8
0
  6
CONTINUOUS
 62
     0
100
AcDbLine
 10
-1.0
 20
-0.125
 30
0.0
 11
0.0
 21
-0.125
 31
0.0
  0
ENDBLK
  5
84
330
82
100
AcDbEntity
  8
0
100
AcDbBlockEnd
  0
BLOCK
  5
86
330
85
100
AcDbEntity
  8
0
100
AcDbBlockBegin
  2
EX_SLANT
 70
     0
 10
0.0
 20
0.0
 30
0.0
  3
EX_SLANT
  1

  0
LINE
  5
B8
330
85
100
AcDbEntity
  8
0
  6
CONTINUOUS
 62
     0
100
AcDbLine
 10
0.0
 20
0.0
 30
0.0
 11
-1.0
 21
0.0
 31
0.0
  0
LINE
  5
B9
330
85
100
AcDbEntity
  8
0
  6
CONTINUOUS
 62
     0
100
AcDbLine
 10
0.707106781
 20
0.707106781
 30
0.0
 11
-0.707106781
 21
-0.707106781
 31
0.0
  0
ENDBLK
  5
87
330
85
100
AcDbEntity
  8
0
100
AcDbBlockEnd
  0
BLOCK
  5
89
330
88
100
AcDbEntity
  8
0
100
AcDbBlockBegin
  2
EX_NONE
 70
     0
 10
0.0
 20
0.0
 30
0.0
  3
EX_NONE
  1

  0
LINE
  5
BA
330
88
100
AcDbEntity
  8
0
  6
CONTINUOUS
 62
     0
100
AcDbLine
 10
0.0
 20
0.0
 30
0.0
 11
-1.0
 21
0.0
 31
0.0
  0
ENDBLK
  5
8A
330
88
100
AcDbEntity
  8
0
100
AcDbBlockEnd
  0
BLOCK
  5
8C
330
8B
100
AcDbEntity
  8
0
100
AcDbBlockBegin
  2
EX_CIVIL
 70
     0
 10
0.0
 20
0.0
 30
0.0
  3
EX_CIVIL
  1

  0
LINE
  5
BB
330
8B
100
AcDbEntity
  8
0
  6
CONTINUOUS
 62
     0
100
AcDbLine
 10
0.0
 20
0.0
 30
0.0
 11
-1.0
 21
0.0
 31
0.0
  0
LINE
  5
BC
330
8B
100
AcDbEntity
  8
0
  6
CONTINUOUS
 62
     0
100
AcDbLine
 10
-1.0
 20
0.25
 30
0.0
 11
0.0
 21
0.25
 31
0.0
  0
LINE
  5
BD
330
8B
100
AcDbEntity
  8
0
  6
CONTINUOUS
 62
     0
100
AcDbLine
 10
-1.0
 20
0.125
 30
0.0
 11
0.0
 21
0.125
 31
0.0
  0
ENDBLK
  5
8D
330
8B
100
AcDbEntity
  8
0
100
AcDbBlockEnd
  0
BLOCK
  5
8F
330
8E
100
AcDbEntity
  8
0
100
AcDbBlockBegin
  2
EX_WCIR
 70
     0
 10
0.0
 20
0.0
 30
0.0
  3
EX_WCIR
  1

  0
LINE
  5
BE
330
8E
100
AcDbEntity
  8
0
  6
CONTINUOUS
 62
     0
100
AcDbLine
 10
0.0
 20
0.0
 30
0.0
 11
-1.0
 21
0.0
 31
0.0
  0
CIRCLE
  5
BF
330
8E
100
AcDbEntity
  8
0
  6
CONTINUOUS
 62
     0
100
AcDbCircle
 10
0.0
 20
0.0
 30
0.0
 40
0.5
  0
ENDBLK
  5
90
330
8E
100
AcDbEntity
  8
0
100
AcDbBlockEnd
  0
BLOCK
  5
92
330
91
100
AcDbEntity
  8
0
100
AcDbBlockBegin
  2
EX_WCIR2
 70
     0
 10
0.0
 20
0.0
 30
0.0
  3
EX_WCIR2
  1

  0
LINE
  5
C0
330
91
100
AcDbEntity
  8
0
  6
CONTINUOUS
 62
     0
100
AcDbLine
 10
-0.5
 20
0.0
 30
0.0
 11
-1.0
 21
0.0
 31
0.0
  0
CIRCLE
  5
C1
330
91
100
AcDbEntity
  8
0
  6
CONTINUOUS
 62
     0
100
AcDbCircle
 10
0.0
 20
0.0
 30
0.0
 40
0.5
  0
ENDBLK
  5
93
330
91
100
AcDbEntity
  8
0
100
AcDbBlockEnd
  0
BLOCK
  5
95
330
94
100
AcDbEntity
  8
0
100
AcDbBlockBegin
  2
EX_WNORM
 70
     0
 10
0.0
 20
0.0
 30
0.0
  3
EX_WNORM
  1

  0
LINE
  5
C2
330
94
100
AcDbEntity
  8
0
  6
CONTINUOUS
 62
     0
100
AcDbLine
 10
-1.0
 20
0.0
 30
0.0
 11
-1.0
 21
0.0
 31
0.0
  0
LINE
  5
C3
330
94
100
AcDbEntity
  8
0
  6
CONTINUOUS
 62
     0
100
AcDbLine
 10
0.0
 20
0.0
 30
0.0
 11
-1.0
 21
0.166666667
 31
0.0
  0
LINE
  5
C4
330
94
100
AcDbEntity
  8
0
  6
CONTINUOUS
 62
     0
100
AcDbLine
 10
0.0
 20
0.0
 30
0.0
 11
-1.0
 21
-0.166666667
 31
0.0
  0
LINE
  5
C5
330
94
100
AcDbEntity
  8
0
  6
CONTINUOUS
 62
     0
100
AcDbLine
 10
-1.0
 20
0.166666667
 30
0.0
 11
-1.0
 21
-0.166666667
 31
0.0
  0
ENDBLK
  5
96
330
94
100
AcDbEntity
  8
0
100
AcDbBlockEnd
  0
BLOCK
  5
98
330
97
100
AcDbEntity
  8
0
100
AcDbBlockBegin
  2
EX_NNORM
 70
     0
 10
0.0
 20
0.0
 30
0.0
  3
EX_NNORM
  1

  0
LINE
  5
C6
330
97
100
AcDbEntity
  8
0
  6
CONTINUOUS
 62
     0
100
AcDbLine
 10
0.0
 20
0.0
 30
0.0
 11
-1.0
 21
0.0
 31
0.0
  0
LINE
  5
C7
330
97
100
AcDbEntity
  8
0
  6
CONTINUOUS
 62
     0
100
AcDbLine
 10
0.0
 20
0.0
 30
0.0
 11
-1.0
 21
0.166666667
 31
0.0
  0
LINE
  5
C8
330
97
100
AcDbEntity
  8
0
  6
CONTINUOUS
 62
     0
100
AcDbLine
 10
0.0
 20
0.0
 30
0.0
 11
-1.0
 21
-0.166666667
 31
0.0
  0
LINE
  5
C9
330
97
100
AcDbEntity
  8
0
  6
CONTINUOUS
 62
     0
100
AcDbLine
 10
-1.0
 20
0.166666667
 30
0.0
 11
-1.0
 21
-0.166666667
 31
0.0
  0
ENDBLK
  5
99
330
97
100
AcDbEntity
  8
0
100
AcDbBlockEnd
  0
BLOCK
  5
9B
330
9A
100
AcDbEntity
  8
0
100
AcDbBlockBegin
  2
EX_BBOX
 70
     0
 10
0.0
 20
0.0
 30
0.0
  3
EX_BBOX
  1

  0
LINE
  5
CA
330
9A
100
AcDbEntity
  8
0
  6
CONTINUOUS
 62
     0
100
AcDbLine
 10
0.0
 20
0.0
 30
0.0
 11
-1.0
 21
0.0
 31
0.0
  0
LINE
  5
CB
330
9A
100
AcDbEntity
  8
0
  6
CONTINUOUS
 62
     0
100
AcDbLine
 10
-0.5
 20
0.5
 30
0.0
 11
0.5
 21
0.5
 31
0.0
  0
LINE
  5
CC
330
9A
100
AcDbEntity
  8
0
  6
CONTINUOUS
 62
     0
100
AcDbLine
 10
0.5
 20
0.5
 30
0.0
 11
0.5
 21
-0.5
 31
0.0
  0
LINE
  5
CD
330
9A
100
AcDbEntity
  8
0
  6
CONTINUOUS
 62
     0
100
AcDbLine
 10
0.5
 20
-0.5
 30
0.0
 11
-0.5
 21
-0.5
 31
0.0
  0
LINE
  5
CE
330
9A
100
AcDbEntity
  8
0
  6
CONTINUOUS
 62
     0
100
AcDbLine
 10
-0.5
 20
-0.5
 30
0.0
 11
-0.5
 21
0.5
 31
0.0
  0
LINE
  5
CF
330
9A
100
AcDbEntity
  8
0
  6
CONTINUOUS
 62
     0
100
AcDbLine
 10
-0.25
 20
0.25
 30
0.0
 11
0.25
 21
0.25
 31
0.0
  0
LINE
  5
D0
330
9A
100
AcDbEntity
  8
0
  6
CONTINUOUS
 62
     0
100
AcDbLine
 10
0.25
 20
0.25
 30
0.0
 11
0.25
 21
-0.25
 31
0.0
  0
LINE
  5
D1
330
9A
100
AcDbEntity
  8
0
  6
CONTINUOUS
 62
     0
100
AcDbLine
 10
0.25
 20
-0.25
 30
0.0
 11
-0.25
 21
-0.25
 31
0.0
  0
LINE
  5
D2
330
9A
100
AcDbEntity
  8
0
  6
CONTINUOUS
 62
     0
100
AcDbLine
 10
-0.25
 20
-0.25
 30
0.0
 11
-0.25
 21
0.25
 31
0.0
  0
ENDBLK
  5
9C
330
9A
100
AcDbEntity
  8
0
100
AcDbBlockEnd
  0
BLOCK
  5
9E
330
9D
100
AcDbEntity
  8
0
100
AcDbBlockBegin
  2
EX_WBOX
 70
     0
 10
0.0
 20
0.0
 30
0.0
  3
EX_WBOX
  1

  0
LINE
  5
D3
330
9D
100
AcDbEntity
  8
0
  6
CONTINUOUS
 62
     0
100
AcDbLine
 10
-0.5
 20
0.0
 30
0.0
 11
-1.0
 21
0.0
 31
0.0
  0
LINE
  5
D4
330
9D
100
AcDbEntity
  8
0
  6
CONTINUOUS
 62
     0
100
AcDbLine
 10
-0.5
 20
0.5
 30
0.0
 11
0.5
 21
0.5
 31
0.0
  0
LINE
  5
D5
330
9D
100
AcDbEntity
  8
0
  6
CONTINUOUS
 62
     0
100
AcDbLine
 10
0.5
 20
0.5
 30
0.0
 11
0.5
 21
-0.5
 31
0.0
  0
LINE
  5
D6
330
9D
100
AcDbEntity
  8
0
  6
CONTINUOUS
 62
     0
100
AcDbLine
 10
0.5
 20
-0.5
 30
0.0
 11
-0.5
 21
-0.5
 31
0.0
  0
LINE
  5
D7
330
9D
100
AcDbEntity
  8
0
  6
CONTINUOUS
 62
     0
100
AcDbLine
 10
-0.5
 20
-0.5
 30
0.0
 11
-0.5
 21
0.5
 31
0.0
  0
ENDBLK
  5
9F
330
9D
100
AcDbEntity
  8
0
100
AcDbBlockEnd
  0
BLOCK
  5
A1
330
A0
100
AcDbEntity
  8
0
100
AcDbBlockBegin
  2
EX_INTEGRAL
 70
     0
 10
0.0
 20
0.0
 30
0.0
  3
EX_INTEGRAL
  1

  0
LINE
  5
D8
330
A0
100
AcDbEntity
  8
0
  6
CONTINUOUS
 62
     0
100
AcDbLine
 10
0.0
 20
0.0
 30
0.0
 11
-1.0
 21
0.0
 31
0.0
  0
ARC
  5
D9
330
A0
100
AcDbEntity
  8
0
  6
CONTINUOUS
 62
     0
100
AcDbCircle
 10
0.542115
 20
0.164992
 30
0.0
 40
0.56667
100
AcDbArc
 50
73.07249033629006
 51
196.9275130221199
  0
ARC
  5
DA
330
A0
100
AcDbEntity
  8
0
  6
CONTINUOUS
 62
     0
100
AcDbCircle
 10
-0.542115
 20
-0.164992
 30
0.0
 40
0.56667
100
AcDbArc
 50
253.0724869220464
 51
16.9275130559125
  0
ENDBLK
  5
A2
330
A0
100
AcDbEntity
  8
0
100
AcDbBlockEnd
  0
BLOCK
  5
A4
330
A3
100
AcDbEntity
  8
0
100
AcDbBlockBegin
  2
SYM-1
 70
     0
 10
0.0
 20
0.0
 30
0.0
  3
SYM-1
  1

  0
ARC
  5
DB
330
A3
100
AcDbEntity
  8
0
  6
CONTINUOUS
 62
     7
100
AcDbCircle
 10
2113.775901575495
 20
2251.279292968537
 30
0.0
 40
29.6409090909091
100
AcDbArc
 50
344.3418469798809
 51
15.65815302011909
  0
LINE
  5
DC
330
A3
100
AcDbEntity
  8
0
  6
CONTINUOUS
 62
     7
100
AcDbLine
 10
2142.316810666404
 20
2259.279292968537
 30
0.0
 11
2133.416810666405
 21
2259.279292968537
 31
0.0
  0
LINE
  5
DD
330
A3
100
AcDbEntity
  8
0
  6
CONTINUOUS
 62
     7
100
AcDbLine
 10
2142.316810666404
 20
2243.279292968537
 30
0.0
 11
2133.416810666405
 21
2243.279292968537
 31
0.0
  0
LINE
  5
DE
330
A3
100
AcDbEntity
  8
0
  6
CONTINUOUS
 62
     7
100
AcDbLine
 10
2133.416810666405
 20
2237.429292968538
 30
0.0
 11
2142.316810666404
 21
2237.429292968538
 31
0.0
  0
ARC
  5
DF
330
A3
100
AcDbEntity
  8
0
  6
CONTINUOUS
 62
     7
100
AcDbCircle
 10
2138.977890211859
 20
2240.354292968538
 30
0.0
 40
4.438920454545305
100
AcDbArc
 50
318.7806141249314
 51
41.21938587506865
  0
LINE
  5
E0
330
A3
100
AcDbEntity
  8
0
  6
CONTINUOUS
 62
     7
100
AcDbLine
 10
2133.416810666405
 20
2265.129292968538
 30
0.0
 11
2142.316810666404
 21
2265.129292968538
 31
0.0
  0
ARC
  5
E1
330
A3
100
AcDbEntity
  8
0
  6
CONTINUOUS
 62
     7
100
AcDbCircle
 10
2138.977890211859
 20
2262.204292968538
 30
0.0
 40
4.438920454545305
100
AcDbArc
 50
318.7806141249314
 51
41.21938587506865
  0
LINE
  5
E2
330
A3
100
AcDbEntity
  8
0
  6
CONTINUOUS
 62
     7
100
AcDbLine
 10
2143.416810666403
 20
2262.204292968538
 30
0.0
 11
2143.416810666403
 21
2240.354292968538
 31
0.0
  0
ENDBLK
  5
A5
330
A3
100
AcDbEntity
  8
0
100
AcDbBlockEnd
  0
BLOCK
  5
A7
330
A6
100
AcDbEntity
  8
0
100
AcDbBlockBegin
  2
SYM-2
 70
     0
 10
0.0
 20
0.0
 30
0.0
  3
SYM-2
  1

  0
ARC
  5
E3
330
A6
100
AcDbEntity
  8
0
  6
CONTINUOUS
 62
     7
100
AcDbCircle
 10
2113.775901575497
 20
1177.279292968512
 30
0.0
 40
29.6409090909091
100
AcDbArc
 50
344.341846979881
 51
15.65815302011909
  0
LINE
  5
E4
330
A6
100
AcDbEntity
  8
0
  6
CONTINUOUS
 62
     7
100
AcDbLine
 10
2142.316810666406
 20
1169.279292968512
 30
0.0
 11
2133.416810666408
 21
1169.279292968512
 31
0.0
  0
LINE
  5
E5
330
A6
100
AcDbEntity
  8
0
  6
CONTINUOUS
 62
     7
100
AcDbLine
 10
2142.316810666406
 20
1185.279292968511
 30
0.0
 11
2133.416810666408
 21
1185.279292968511
 31
0.0
  0
LINE
  5
E6
330
A6
100
AcDbEntity
  8
0
  6
CONTINUOUS
 62
     7
100
AcDbLine
 10
2133.416810666408
 20
1191.129292968512
 30
0.0
 11
2142.316810666406
 21
1191.129292968512
 31
0.0
  0
ARC
  5
E7
330
A6
100
AcDbEntity
  8
0
  6
CONTINUOUS
 62
     7
100
AcDbCircle
 10
2138.977890211862
 20
1188.204292968511
 30
0.0
 40
4.438920454545305
100
AcDbArc
 50
318.7806141249314
 51
41.21938587506865
  0
LINE
  5
E8
330
A6
100
AcDbEntity
  8
0
  6
CONTINUOUS
 62
     7
100
AcDbLine
 10
2133.416810666408
 20
1163.429292968512
 30
0.0
 11
2142.316810666406
 21
1163.429292968512
 31
0.0
  0
ARC
  5
E9
330
A6
100
AcDbEntity
  8
0
  6
CONTINUOUS
 62
     7
100
AcDbCircle
 10
2138.977890211862
 20
1166.354292968513
 30
0.0
 40
4.438920454545305
100
AcDbArc
 50
318.7806141249314
 51
41.21938587506865
  0
LINE
  5
EA
330
A6
100
AcDbEntity
  8
0
  6
CONTINUOUS
 62
     7
100
AcDbLine
 10
2143.416810666406
 20
1166.354292968513
 30
0.0
 11
2143.416810666406
 21
1188.204292968511
 31
0.0
  0
ENDBLK
  5
A8
330
A6
100
AcDbEntity
  8
0
100
AcDbBlockEnd
  0
BLOCK
  5
639
330
638
100
AcDbEntity
  8
0
100
AcDbBlockBegin
  2
*D17
 70
     1
 10
0.0
 20
0.0
 30
0.0
  3
*D17
  1

  0
LINE
  5
63B
330
638
100
AcDbEntity
  8
LAY-20
  6
CONTINUOUS
 62
     4
100
AcDbLine
 10
571.2213562370202
 20
757.2585859367005
 30
0.0
 11
571.2213562370202
 21
852.2585859366759
 31
0.0
  0
LINE
  5
63C
330
638
100
AcDbEntity
  8
LAY-20
  6
CONTINUOUS
 62
     4
100
AcDbLine
 10
1067.22135623703
 20
757.2585859367041
 30
0.0
 11
1067.22135623703
 21
852.2585859366759
 31
0.0
  0
LINE
  5
63D
330
638
100
AcDbEntity
  8
LAY-20
  6
CONTINUOUS
 62
     4
100
AcDbLine
 10
596.2213562370202
 20
837.2585859366998
 30
0.0
 11
1042.22135623703
 21
837.2585859366998
 31
0.0
  0
INSERT
  5
63E
330
638
100
AcDbEntity
  8
LAY-20
 62
     4
100
AcDbBlockReference
  2
EX_BNORM
 10
571.2213562370202
 20
837.2585859366998
 30
0.0
 41
25.0
 42
25.0
 43
25.0
 50
180.0
  0
INSERT
  5
63F
330
638
100
AcDbEntity
  8
LAY-20
 62
     4
100
AcDbBlockReference
  2
EX_BNORM
 10
1067.22135623703
 20
837.2585859366998
 30
0.0
 41
25.0
 42
25.0
 43
25.0
  0
MTEXT
  5
640
330
638
100
AcDbEntity
  8
LAY-20
 62
     7
100
AcDbMText
 10
819.2213562370217
 20
862.2585859366907
 30
0.0
 40
31.181104
 41
0.0
 71
     5
 72
     1
  1
496
  7
EXCADDIM1
  0
POINT
  5
641
330
638
100
AcDbEntity
  8
DEFPOINTS
 62
     0
100
AcDbPoint
 10
571.2213562370202
 20
742.2585859367005
 30
0.0
  0
POINT
  5
642
330
638
100
AcDbEntity
  8
DEFPOINTS
 62
     0
100
AcDbPoint
 10
1067.22135623703
 20
742.2585859367041
 30
0.0
  0
POINT
  5
643
330
638
100
AcDbEntity
  8
DEFPOINTS
 62
     0
100
AcDbPoint
 10
1067.22135623703
 20
837.2585859366998
 30
0.0
  0
ENDBLK
  5
63A
330
638
100
AcDbEntity
  8
0
100
AcDbBlockEnd
  0
BLOCK
  5
646
330
645
100
AcDbEntity
  8
0
100
AcDbBlockBegin
  2
*D18
 70
     1
 10
0.0
 20
0.0
 30
0.0
  3
*D18
  1

  0
LINE
  5
648
330
645
100
AcDbEntity
  8
LAY-20
  6
CONTINUOUS
 62
     4
100
AcDbLine
 10
1573.22135623701
 20
757.2585859367294
 30
0.0
 11
1573.22135623701
 21
922.2585859367016
 31
0.0
  0
LINE
  5
649
330
645
100
AcDbEntity
  8
LAY-20
  6
CONTINUOUS
 62
     4
100
AcDbLine
 10
563.2213562370184
 20
757.2585859367305
 30
0.0
 11
563.2213562370184
 21
922.2585859367016
 31
0.0
  0
LINE
  5
64A
330
645
100
AcDbEntity
  8
LAY-20
  6
CONTINUOUS
 62
     4
100
AcDbLine
 10
1548.22135623701
 20
907.2585859367013
 30
0.0
 11
588.2213562370184
 21
907.2585859367013
 31
0.0
  0
INSERT
  5
64B
330
645
100
AcDbEntity
  8
LAY-20
 62
     4
100
AcDbBlockReference
  2
EX_BNORM
 10
1573.22135623701
 20
907.2585859367013
 30
0.0
 41
25.0
 42
25.0
 43
25.0
  0
INSERT
  5
64C
330
645
100
AcDbEntity
  8
LAY-20
 62
     4
100
AcDbBlockReference
  2
EX_BNORM
 10
563.2213562370184
 20
907.2585859367013
 30
0.0
 41
25.0
 42
25.0
 43
25.0
 50
180.0
  0
MTEXT
  5
64D
330
645
100
AcDbEntity
  8
LAY-20
 62
     7
100
AcDbMText
 10
1068.221356237014
 20
932.2585859367005
 30
0.0
 40
31.181104
 41
0.0
 71
     5
 72
     1
  1
1010
  7
EXCADDIM1
  0
POINT
  5
64E
330
645
100
AcDbEntity
  8
DEFPOINTS
 62
     0
100
AcDbPoint
 10
1573.22135623701
 20
742.2585859367294
 30
0.0
  0
POINT
  5
64F
330
645
100
AcDbEntity
  8
DEFPOINTS
 62
     0
100
AcDbPoint
 10
563.2213562370184
 20
742.2585859367305
 30
0.0
  0
POINT
  5
650
330
645
100
AcDbEntity
  8
DEFPOINTS
 62
     0
100
AcDbPoint
 10
563.2213562370184
 20
907.2585859367013
 30
0.0
  0
ENDBLK
  5
647
330
645
100
AcDbEntity
  8
0
100
AcDbBlockEnd
  0
BLOCK
  5
653
330
652
100
AcDbEntity
  8
0
100
AcDbBlockBegin
  2
*D19
 70
     1
 10
0.0
 20
0.0
 30
0.0
  3
*D19
  1

  0
LINE
  5
655
330
652
100
AcDbEntity
  8
LAY-20
  6
CONTINUOUS
 62
     4
100
AcDbLine
 10
618.2213562373295
 20
577.2585859367496
 30
0.0
 11
618.2213562373295
 21
477.25858593673
 31
0.0
  0
LINE
  5
656
330
652
100
AcDbEntity
  8
LAY-20
  6
CONTINUOUS
 62
     4
100
AcDbLine
 10
1518.221356236911
 20
577.2585859367496
 30
0.0
 11
1518.221356236911
 21
477.25858593673
 31
0.0
  0
LINE
  5
657
330
652
100
AcDbEntity
  8
LAY-20
  6
CONTINUOUS
 62
     4
100
AcDbLine
 10
643.2213562373295
 20
492.25858593673
 30
0.0
 11
1493.221356236911
 21
492.25858593673
 31
0.0
  0
INSERT
  5
658
330
652
100
AcDbEntity
  8
LAY-20
 62
     4
100
AcDbBlockReference
  2
EX_BNORM
 10
618.2213562373295
 20
492.25858593673
 30
0.0
 41
25.0
 42
25.0
 43
25.0
 50
180.0
  0
INSERT
  5
659
330
652
100
AcDbEntity
  8
LAY-20
 62
     4
100
AcDbBlockReference
  2
EX_BNORM
 10
1518.221356236911
 20
492.25858593673
 30
0.0
 41
25.0
 42
25.0
 43
25.0
  0
MTEXT
  5
65A
330
652
100
AcDbEntity
  8
LAY-20
 62
     7
100
AcDbMText
 10
1068.22135623712
 20
517.25858593673
 30
0.0
 40
31.181104
 41
0.0
 71
     5
 72
     1
  1
900
  7
EXCADDIM1
  0
POINT
  5
65B
330
652
100
AcDbEntity
  8
DEFPOINTS
 62
     0
100
AcDbPoint
 10
618.2213562373295
 20
592.2585859367496
 30
0.0
  0
POINT
  5
65C
330
652
100
AcDbEntity
  8
DEFPOINTS
 62
     0
100
AcDbPoint
 10
1518.221356236911
 20
592.2585859367496
 30
0.0
  0
POINT
  5
65D
330
652
100
AcDbEntity
  8
DEFPOINTS
 62
     0
100
AcDbPoint
 10
1518.221356236911
 20
492.25858593673
 30
0.0
  0
ENDBLK
  5
654
330
652
100
AcDbEntity
  8
0
100
AcDbBlockEnd
  0
BLOCK
  5
660
330
65F
100
AcDbEntity
  8
0
100
AcDbBlockBegin
  2
*D20
 70
     1
 10
0.0
 20
0.0
 30
0.0
  3
*D20
  1

  0
LINE
  5
662
330
65F
100
AcDbEntity
  8
LAY-20
  6
CONTINUOUS
 62
     4
100
AcDbLine
 10
1579.221356237015
 20
592.2585859367509
 30
0.0
 11
1731.576695296297
 21
592.2585859367509
 31
0.0
  0
LINE
  5
663
330
65F
100
AcDbEntity
  8
LAY-20
  6
CONTINUOUS
 62
     4
100
AcDbLine
 10
1588.22135623701
 20
737.2585859367496
 30
0.0
 11
1731.576695296297
 21
737.2585859367496
 31
0.0
  0
LINE
  5
664
330
65F
100
AcDbEntity
  8
LAY-20
  6
CONTINUOUS
 62
     4
100
AcDbLine
 10
1716.576695296297
 20
617.2585859367509
 30
0.0
 11
1716.576695296297
 21
712.2585859367496
 31
0.0
  0
INSERT
  5
665
330
65F
100
AcDbEntity
  8
LAY-20
 62
     4
100
AcDbBlockReference
  2
EX_BNORM
 10
1716.576695296297
 20
592.2585859367509
 30
0.0
 41
25.0
 42
25.0
 43
25.0
 50
270.0
  0
INSERT
  5
666
330
65F
100
AcDbEntity
  8
LAY-20
 62
     4
100
AcDbBlockReference
  2
EX_BNORM
 10
1716.576695296297
 20
737.2585859367496
 30
0.0
 41
25.0
 42
25.0
 43
25.0
 50
90.0
  0
MTEXT
  5
667
330
65F
100
AcDbEntity
  8
LAY-20
 62
     7
100
AcDbMText
 10
1691.5766952963
 20
664.7585859367491
 30
0.0
 40
31.181104
 41
0.0
 71
     5
 72
     1
  1
145
  7
EXCADDIM1
 11
0.0
 21
1.0
 31
0.0
  0
POINT
  5
668
330
65F
100
AcDbEntity
  8
DEFPOINTS
 62
     0
100
AcDbPoint
 10
1564.221356237015
 20
592.2585859367509
 30
0.0
  0
POINT
  5
669
330
65F
100
AcDbEntity
  8
DEFPOINTS
 62
     0
100
AcDbPoint
 10
1573.22135623701
 20
737.2585859367496
 30
0.0
  0
POINT
  5
66A
330
65F
100
AcDbEntity
  8
DEFPOINTS
 62
     0
100
AcDbPoint
 10
1716.576695296297
 20
737.2585859367496
 30
0.0
  0
ENDBLK
  5
661
330
65F
100
AcDbEntity
  8
0
100
AcDbBlockEnd
  0
BLOCK
  5
66D
330
66C
100
AcDbEntity
  8
0
100
AcDbBlockBegin
  2
*D21
 70
     1
 10
0.0
 20
0.0
 30
0.0
  3
*D21
  1

  0
LINE
  5
66F
330
66C
100
AcDbEntity
  8
LAY-20
  6
CONTINUOUS
 62
     4
100
AcDbLine
 10
2056.416810666408
 20
2286.279292968649
 30
0.0
 11
1956.416810666399
 21
2286.279292968649
 31
0.0
  0
LINE
  5
670
330
66C
100
AcDbEntity
  8
LAY-20
  6
CONTINUOUS
 62
     4
100
AcDbLine
 10
2056.416810666408
 20
1142.27929296845
 30
0.0
 11
1956.416810666399
 21
1142.27929296845
 31
0.0
  0
LINE
  5
671
330
66C
100
AcDbEntity
  8
LAY-20
  6
CONTINUOUS
 62
     4
100
AcDbLine
 10
1971.4168106664
 20
2261.279292968649
 30
0.0
 11
1971.4168106664
 21
1167.27929296845
 31
0.0
  0
INSERT
  5
672
330
66C
100
AcDbEntity
  8
LAY-20
 62
     4
100
AcDbBlockReference
  2
EX_BNORM
 10
1971.4168106664
 20
2286.279292968649
 30
0.0
 41
25.0
 42
25.0
 43
25.0
 50
90.0
  0
INSERT
  5
673
330
66C
100
AcDbEntity
  8
LAY-20
 62
     4
100
AcDbBlockReference
  2
EX_BNORM
 10
1971.4168106664
 20
1142.27929296845
 30
0.0
 41
25.0
 42
25.0
 43
25.0
 50
270.0
  0
MTEXT
  5
674
330
66C
100
AcDbEntity
  8
LAY-20
 62
     7
100
AcDbMText
 10
1946.4168106664
 20
1714.279292968549
 30
0.0
 40
31.181104
 41
0.0
 71
     5
 72
     1
  1
1144
  7
EXCADDIM1
 11
0.0
 21
1.0
 31
0.0
  0
POINT
  5
675
330
66C
100
AcDbEntity
  8
DEFPOINTS
 62
     0
100
AcDbPoint
 10
2071.416810666408
 20
2286.279292968649
 30
0.0
  0
POINT
  5
676
330
66C
100
AcDbEntity
  8
DEFPOINTS
 62
     0
100
AcDbPoint
 10
2071.416810666408
 20
1142.27929296845
 30
0.0
  0
POINT
  5
677
330
66C
100
AcDbEntity
  8
DEFPOINTS
 62
     0
100
AcDbPoint
 10
1971.4168106664
 20
1142.27929296845
 30
0.0
  0
ENDBLK
  5
66E
330
66C
100
AcDbEntity
  8
0
100
AcDbBlockEnd
  0
BLOCK
  5
67A
330
679
100
AcDbEntity
  8
0
100
AcDbBlockBegin
  2
*D22
 70
     1
 10
0.0
 20
0.0
 30
0.0
  3
*D22
  1

  0
LINE
  5
67C
330
679
100
AcDbEntity
  8
LAY-20
  6
CONTINUOUS
 62
     4
100
AcDbLine
 10
2056.416810666412
 20
1133.279292968449
 30
0.0
 11
1886.4168106664
 21
1133.279292968449
 31
0.0
  0
LINE
  5
67D
330
679
100
AcDbEntity
  8
LAY-20
  6
CONTINUOUS
 62
     4
100
AcDbLine
 10
2056.416810666412
 20
2295.27929296875
 30
0.0
 11
1886.4168106664
 21
2295.27929296875
 31
0.0
  0
LINE
  5
67E
330
679
100
AcDbEntity
  8
LAY-20
  6
CONTINUOUS
 62
     4
100
AcDbLine
 10
1901.4168106664
 20
1158.279292968449
 30
0.0
 11
1901.4168106664
 21
2270.27929296875
 31
0.0
  0
INSERT
  5
67F
330
679
100
AcDbEntity
  8
LAY-20
 62
     4
100
AcDbBlockReference
  2
EX_BNORM
 10
1901.4168106664
 20
1133.279292968449
 30
0.0
 41
25.0
 42
25.0
 43
25.0
 50
270.0
  0
INSERT
  5
680
330
679
100
AcDbEntity
  8
LAY-20
 62
     4
100
AcDbBlockReference
  2
EX_BNORM
 10
1901.4168106664
 20
2295.27929296875
 30
0.0
 41
25.0
 42
25.0
 43
25.0
 50
90.0
  0
MTEXT
  5
681
330
679
100
AcDbEntity
  8
LAY-20
 62
     7
100
AcDbMText
 10
1876.4168106664
 20
1714.2792929686
 30
0.0
 40
31.181104
 41
0.0
 71
     5
 72
     1
  1
1162
  7
EXCADDIM1
 11
0.0
 21
1.0
 31
0.0
  0
POINT
  5
682
330
679
100
AcDbEntity
  8
DEFPOINTS
 62
     0
100
AcDbPoint
 10
2071.416810666412
 20
1133.279292968449
 30
0.0
  0
POINT
  5
683
330
679
100
AcDbEntity
  8
DEFPOINTS
 62
     0
100
AcDbPoint
 10
2071.416810666412
 20
2295.27929296875
 30
0.0
  0
POINT
  5
684
330
679
100
AcDbEntity
  8
DEFPOINTS
 62
     0
100
AcDbPoint
 10
1901.4168106664
 20
2295.27929296875
 30
0.0
  0
ENDBLK
  5
67B
330
679
100
AcDbEntity
  8
0
100
AcDbBlockEnd
  0
BLOCK
  5
687
330
686
100
AcDbEntity
  8
0
100
AcDbBlockBegin
  2
*D23
 70
     1
 10
0.0
 20
0.0
 30
0.0
  3
*D23
  1

  0
LINE
  5
689
330
686
100
AcDbEntity
  8
LAY-20
  6
CONTINUOUS
 62
     4
100
AcDbLine
 10
2231.41681066641
 20
1264.279292968549
 30
0.0
 11
2331.416810666399
 21
1264.279292968549
 31
0.0
  0
LINE
  5
68A
330
686
100
AcDbEntity
  8
LAY-20
  6
CONTINUOUS
 62
     4
100
AcDbLine
 10
2231.41681066641
 20
2164.27929296855
 30
0.0
 11
2331.416810666399
 21
2164.27929296855
 31
0.0
  0
LINE
  5
68B
330
686
100
AcDbEntity
  8
LAY-20
  6
CONTINUOUS
 62
     4
100
AcDbLine
 10
2316.4168106664
 20
1289.279292968549
 30
0.0
 11
2316.4168106664
 21
2139.27929296855
 31
0.0
  0
INSERT
  5
68C
330
686
100
AcDbEntity
  8
LAY-20
 62
     4
100
AcDbBlockReference
  2
EX_BNORM
 10
2316.4168106664
 20
1264.279292968549
 30
0.0
 41
25.0
 42
25.0
 43
25.0
 50
270.0
  0
INSERT
  5
68D
330
686
100
AcDbEntity
  8
LAY-20
 62
     4
100
AcDbBlockReference
  2
EX_BNORM
 10
2316.4168106664
 20
2164.27929296855
 30
0.0
 41
25.0
 42
25.0
 43
25.0
 50
90.0
  0
MTEXT
  5
68E
330
686
100
AcDbEntity
  8
LAY-20
 62
     7
100
AcDbMText
 10
2291.4168106664
 20
1714.27929296855
 30
0.0
 40
31.181104
 41
0.0
 71
     5
 72
     1
  1
900
  7
EXCADDIM1
 11
0.0
 21
1.0
 31
0.0
  0
POINT
  5
68F
330
686
100
AcDbEntity
  8
DEFPOINTS
 62
     0
100
AcDbPoint
 10
2216.41681066641
 20
1264.279292968549
 30
0.0
  0
POINT
  5
690
330
686
100
AcDbEntity
  8
DEFPOINTS
 62
     0
100
AcDbPoint
 10
2216.41681066641
 20
2164.27929296855
 30
0.0
  0
POINT
  5
691
330
686
100
AcDbEntity
  8
DEFPOINTS
 62
     0
100
AcDbPoint
 10
2316.4168106664
 20
2164.27929296855
 30
0.0
  0
ENDBLK
  5
688
330
686
100
AcDbEntity
  8
0
100
AcDbBlockEnd
  0
BLOCK
  5
694
330
693
100
AcDbEntity
  8
0
100
AcDbBlockBegin
  2
*D24
 70
     1
 10
0.0
 20
0.0
 30
0.0
  3
*D24
  1

  0
LINE
  5
696
330
693
100
AcDbEntity
  8
LAY-20
  6
CONTINUOUS
 62
     4
100
AcDbLine
 10
1268.0
 20
732.7585859367
 30
0.0
 11
1268.0
 21
737.2585859366999
 31
0.0
  0
LINE
  5
697
330
693
100
AcDbEntity
  8
LAY-20
  6
CONTINUOUS
 62
     4
100
AcDbLine
 10
1268.0
 20
707.7585859367
 30
0.0
 11
1268.0
 21
682.7585859367
 31
0.0
  0
LINE
  5
698
330
693
100
AcDbEntity
  8
LAY-20
  6
CONTINUOUS
 62
     4
100
AcDbLine
 10
1268.0
 20
762.2585859366999
 30
0.0
 11
1268.0
 21
787.2585859366999
 31
0.0
  0
INSERT
  5
699
330
693
100
AcDbEntity
  8
LAY-20
 62
     4
100
AcDbBlockReference
  2
EX_BNORM
 10
1268.0
 20
732.7585859367
 30
0.0
 41
25.0
 42
25.0
 43
25.0
 50
90.0
  0
INSERT
  5
69A
330
693
100
AcDbEntity
  8
LAY-20
 62
     4
100
AcDbBlockReference
  2
EX_BNORM
 10
1268.0
 20
737.2585859366999
 30
0.0
 41
25.0
 42
25.0
 43
25.0
 50
270.0
  0
MTEXT
  5
69B
330
693
100
AcDbEntity
  8
LAY-20
 62
     7
100
AcDbMText
 10
1243.0
 20
802.2585859366994
 30
0.0
 40
31.181104
 41
0.0
 71
     5
 72
     1
  1
4.5
  7
EXCADDIM1
 11
0.0
 21
1.0
 31
0.0
  0
POINT
  5
69C
330
693
100
AcDbEntity
  8
DEFPOINTS
 62
     0
100
AcDbPoint
 10
1268.0
 20
732.7585859367
 30
0.0
  0
POINT
  5
69D
330
693
100
AcDbEntity
  8
DEFPOINTS
 62
     0
100
AcDbPoint
 10
1268.0
 20
737.2585859366999
 30
0.0
  0
POINT
  5
69E
330
693
100
AcDbEntity
  8
DEFPOINTS
 62
     0
100
AcDbPoint
 10
1268.0
 20
737.2585859366999
 30
0.0
  0
ENDBLK
  5
695
330
693
100
AcDbEntity
  8
0
100
AcDbBlockEnd
  0
ENDSEC
  0
SECTION
  2
ENTITIES
  0
INSERT
  5
EB
330
1F
100
AcDbEntity
  8
LAY-10
  6
CONTINUOUS
 62
     0
100
AcDbBlockReference
  2
SYM-1
 10
0.0
 20
0.0
 30
0.0
  0
INSERT
  5
EC
330
1F
100
AcDbEntity
  8
LAY-10
  6
CONTINUOUS
 62
     0
100
AcDbBlockReference
  2
SYM-2
 10
0.0
 20
0.0
 30
0.0
  0
LINE
  5
ED
330
1F
100
AcDbEntity
  8
LAY-10
  6
CONTINUOUS
 62
     7
100
AcDbLine
 10
2205.84444430255
 20
2211.779292968555
 30
0.0
 11
2205.416810666412
 21
2211.351659332417
 31
0.0
  0
LINE
  5
EE
330
1F
100
AcDbEntity
  8
LAY-10
  6
CONTINUOUS
 62
     7
100
AcDbLine
 10
2207.258657864933
 20
2211.779292968562
 30
0.0
 11
2205.416810666401
 21
2209.937445770034
 31
0.0
  0
LINE
  5
EF
330
1F
100
AcDbEntity
  8
LAY-10
  6
CONTINUOUS
 62
     7
100
AcDbLine
 10
2208.672871427295
 20
2211.779292968553
 30
0.0
 11
2205.416810666414
 21
2208.523232207671
 31
0.0
  0
LINE
  5
F0
330
1F
100
AcDbEntity
  8
LAY-10
  6
CONTINUOUS
 62
     7
100
AcDbLine
 10
2210.087084989677
 20
2211.779292968561
 30
0.0
 11
2205.416810666403
 21
2207.109018645289
 31
0.0
  0
LINE
  5
F1
330
1F
100
AcDbEntity
  8
LAY-10
  6
CONTINUOUS
 62
     7
100
AcDbLine
 10
2210.416810666434
 20
2210.694805082946
 30
0.0
 11
2205.416810666416
 21
2205.694805082927
 31
0.0
  0
LINE
  5
F2
330
1F
100
AcDbEntity
  8
LAY-10
  6
CONTINUOUS
 62
     7
100
AcDbLine
 10
2210.416810666443
 20
2209.280591520584
 30
0.0
 11
2205.416810666405
 21
2204.280591520544
 31
0.0
  0
LINE
  5
F3
330
1F
100
AcDbEntity
  8
LAY-10
  6
CONTINUOUS
 62
     7
100
AcDbLine
 10
2210.416810666434
 20
2207.866377958202
 30
0.0
 11
2205.416810666416
 21
2202.866377958181
 31
0.0
  0
LINE
  5
F4
330
1F
100
AcDbEntity
  8
LAY-10
  6
CONTINUOUS
 62
     7
100
AcDbLine
 10
2210.416810666447
 20
2206.452164395838
 30
0.0
 11
2205.416810666405
 21
2201.452164395799
 31
0.0
  0
LINE
  5
F5
330
1F
100
AcDbEntity
  8
LAY-10
  6
CONTINUOUS
 62
     7
100
AcDbLine
 10
2210.416810666436
 20
2205.037950833456
 30
0.0
 11
2205.416810666417
 21
2200.037950833436
 31
0.0
  0
LINE
  5
F6
330
1F
100
AcDbEntity
  8
LAY-10
  6
CONTINUOUS
 62
     7
100
AcDbLine
 10
2210.416810666448
 20
2203.623737271092
 30
0.0
 11
2205.416810666406
 21
2198.623737271054
 31
0.0
  0
LINE
  5
F7
330
1F
100
AcDbEntity
  8
LAY-10
  6
CONTINUOUS
 62
     7
100
AcDbLine
 10
2210.416810666437
 20
2202.209523708712
 30
0.0
 11
2205.416810666417
 21
2197.209523708691
 31
0.0
  0
LINE
  5
F8
330
1F
100
AcDbEntity
  8
LAY-10
  6
CONTINUOUS
 62
     7
100
AcDbLine
 10
2210.41681066645
 20
2200.795310146349
 30
0.0
 11
2205.41681066641
 21
2195.795310146308
 31
0.0
  0
LINE
  5
F9
330
1F
100
AcDbEntity
  8
LAY-10
  6
CONTINUOUS
 62
     7
100
AcDbLine
 10
2210.416810666439
 20
2199.381096583967
 30
0.0
 11
2205.416810666419
 21
2194.381096583947
 31
0.0
  0
LINE
  5
FA
330
1F
100
AcDbEntity
  8
LAY-10
  6
CONTINUOUS
 62
     7
100
AcDbLine
 10
2210.41681066645
 20
2197.966883021602
 30
0.0
 11
2205.416810666412
 21
2192.966883021564
 31
0.0
  0
LINE
  5
FB
330
1F
100
AcDbEntity
  8
LAY-10
  6
CONTINUOUS
 62
     7
100
AcDbLine
 10
2210.416810666439
 20
2196.552669459222
 30
0.0
 11
2205.416810666419
 21
2191.552669459201
 31
0.0
  0
LINE
  5
FC
330
1F
100
AcDbEntity
  8
LAY-10
  6
CONTINUOUS
 62
     7
100
AcDbLine
 10
2210.416810666432
 20
2195.138455896839
 30
0.0
 11
2205.416810666412
 21
2190.138455896818
 31
0.0
  0
LINE
  5
FD
330
1F
100
AcDbEntity
  8
LAY-10
  6
CONTINUOUS
 62
     7
100
AcDbLine
 10
2210.416810666441
 20
2193.724242334476
 30
0.0
 11
2205.416810666421
 21
2188.724242334455
 31
0.0
  0
LINE
  5
FE
330
1F
100
AcDbEntity
  8
LAY-10
  6
CONTINUOUS
 62
     7
100
AcDbLine
 10
2210.416810666432
 20
2192.310028772094
 30
0.0
 11
2205.416810666414
 21
2187.310028772074
 31
0.0
  0
LINE
  5
FF
330
1F
100
AcDbEntity
  8
LAY-10
  6
CONTINUOUS
 62
     7
100
AcDbLine
 10
2210.416810666443
 20
2190.89581520973
 30
0.0
 11
2205.416810666423
 21
2185.895815209711
 31
0.0
  0
LINE
  5
100
330
1F
100
AcDbEntity
  8
LAY-10
  6
CONTINUOUS
 62
     7
100
AcDbLine
 10
2210.416810666434
 20
2189.48160164735
 30
0.0
 11
2205.416810666416
 21
2184.48160164733
 31
0.0
  0
LINE
  5
101
330
1F
100
AcDbEntity
  8
LAY-10
  6
CONTINUOUS
 62
     7
100
AcDbLine
 10
2210.416810666443
 20
2188.067388084986
 30
0.0
 11
2205.416810666405
 21
2183.067388084948
 31
0.0
  0
LINE
  5
102
330
1F
100
AcDbEntity
  8
LAY-10
  6
CONTINUOUS
 62
     7
100
AcDbLine
 10
2210.416810666436
 20
2186.653174522604
 30
0.0
 11
2205.416810666417
 21
2181.653174522583
 31
0.0
  0
LINE
  5
103
330
1F
100
AcDbEntity
  8
LAY-10
  6
CONTINUOUS
 62
     7
100
AcDbLine
 10
2210.416810666447
 20
2185.238960960241
 30
0.0
 11
2205.416810666405
 21
2180.238960960201
 31
0.0
  0
LINE
  5
104
330
1F
100
AcDbEntity
  8
LAY-10
  6
CONTINUOUS
 62
     7
100
AcDbLine
 10
2210.416810666436
 20
2183.82474739786
 30
0.0
 11
2205.416810666417
 21
2178.824747397838
 31
0.0
  0
LINE
  5
105
330
1F
100
AcDbEntity
  8
LAY-10
  6
CONTINUOUS
 62
     7
100
AcDbLine
 10
2210.416810666426
 20
2182.410533835477
 30
0.0
 11
2205.416810666406
 21
2177.410533835456
 31
0.0
  0
LINE
  5
106
330
1F
100
AcDbEntity
  8
LAY-10
  6
CONTINUOUS
 62
     7
100
AcDbLine
 10
2210.416810666437
 20
2180.996320273115
 30
0.0
 11
2205.416810666417
 21
2175.996320273095
 31
0.0
  0
LINE
  5
107
330
1F
100
AcDbEntity
  8
LAY-10
  6
CONTINUOUS
 62
     7
100
AcDbLine
 10
2210.416810666428
 20
2179.582106710731
 30
0.0
 11
2205.41681066641
 21
2174.582106710713
 31
0.0
  0
LINE
  5
108
330
1F
100
AcDbEntity
  8
LAY-10
  6
CONTINUOUS
 62
     7
100
AcDbLine
 10
2210.416810666439
 20
2178.167893148368
 30
0.0
 11
2205.416810666419
 21
2173.167893148348
 31
0.0
  0
LINE
  5
109
330
1F
100
AcDbEntity
  8
LAY-10
  6
CONTINUOUS
 62
     7
100
AcDbLine
 10
2210.41681066643
 20
2176.753679585987
 30
0.0
 11
2205.442424048993
 21
2171.779292968548
 31
0.0
  0
LINE
  5
10A
330
1F
100
AcDbEntity
  8
LAY-10
  6
CONTINUOUS
 62
     7
100
AcDbLine
 10
2210.416810666441
 20
2175.339466023624
 30
0.0
 11
2206.856637611353
 21
2171.779292968537
 31
0.0
  0
LINE
  5
10B
330
1F
100
AcDbEntity
  8
LAY-10
  6
CONTINUOUS
 62
     7
100
AcDbLine
 10
2210.416810666432
 20
2173.925252461241
 30
0.0
 11
2208.270851173716
 21
2171.779292968527
 31
0.0
  0
LINE
  5
10C
330
1F
100
AcDbEntity
  8
LAY-10
  6
CONTINUOUS
 62
     7
100
AcDbLine
 10
2210.416810666441
 20
2172.511038898881
 30
0.0
 11
2209.685064736098
 21
2171.779292968537
 31
0.0
  0
LINE
  5
10D
330
1F
100
AcDbEntity
  8
LAY-10
  6
CONTINUOUS
 62
     7
100
AcDbLine
 10
2122.416810666392
 20
2271.207215029855
 30
0.0
 11
2122.488888605088
 21
2271.279292968552
 31
0.0
  0
LINE
  5
10E
330
1F
100
AcDbEntity
  8
LAY-10
  6
CONTINUOUS
 62
     7
100
AcDbLine
 10
2122.416810666403
 20
2269.793001467493
 30
0.0
 11
2123.903102167454
 21
2271.279292968541
 31
0.0
  0
LINE
  5
10F
330
1F
100
AcDbEntity
  8
LAY-10
  6
CONTINUOUS
 62
     7
100
AcDbLine
 10
2122.416810666414
 20
2268.378787905128
 30
0.0
 11
2125.317315729834
 21
2271.27929296855
 31
0.0
  0
LINE
  5
110
330
1F
100
AcDbEntity
  8
LAY-10
  6
CONTINUOUS
 62
     7
100
AcDbLine
 10
2122.416810666405
 20
2266.964574342747
 30
0.0
 11
2126.731529292197
 21
2271.279292968539
 31
0.0
  0
LINE
  5
111
330
1F
100
AcDbEntity
  8
LAY-10
  6
CONTINUOUS
 62
     7
100
AcDbLine
 10
2122.416810666414
 20
2265.550360780384
 30
0.0
 11
2127.416810666396
 21
2270.550360780366
 31
0.0
  0
LINE
  5
112
330
1F
100
AcDbEntity
  8
LAY-10
  6
CONTINUOUS
 62
     7
100
AcDbLine
 10
2122.416810666406
 20
2264.136147218001
 30
0.0
 11
2127.416810666405
 21
2269.136147218002
 31
0.0
  0
LINE
  5
113
330
1F
100
AcDbEntity
  8
LAY-10
  6
CONTINUOUS
 62
     7
100
AcDbLine
 10
2123.474169979324
 20
2263.779292968547
 30
0.0
 11
2127.416810666396
 21
2267.72193365562
 31
0.0
  0
LINE
  5
114
330
1F
100
AcDbEntity
  8
LAY-10
  6
CONTINUOUS
 62
     7
100
AcDbLine
 10
2124.888383541705
 20
2263.779292968556
 30
0.0
 11
2127.416810666408
 21
2266.307720093258
 31
0.0
  0
LINE
  5
115
330
1F
100
AcDbEntity
  8
LAY-10
  6
CONTINUOUS
 62
     7
100
AcDbLine
 10
2126.302597104089
 20
2263.779292968563
 30
0.0
 11
2127.416810666397
 21
2264.893506530875
 31
0.0
  0
LINE
  5
116
330
1F
100
AcDbEntity
  8
LAY-10
  6
CONTINUOUS
 62
     7
100
AcDbLine
 10
2122.41681066641
 20
2238.12243871902
 30
0.0
 11
2123.073664915934
 21
2238.779292968547
 31
0.0
  0
LINE
  5
117
330
1F
100
AcDbEntity
  8
LAY-10
  6
CONTINUOUS
 62
     7
100
AcDbLine
 10
2122.416810666401
 20
2236.708225156641
 30
0.0
 11
2124.487878478319
 21
2238.779292968556
 31
0.0
  0
LINE
  5
118
330
1F
100
AcDbEntity
  8
LAY-10
  6
CONTINUOUS
 62
     7
100
AcDbLine
 10
2122.41681066641
 20
2235.294011594277
 30
0.0
 11
2125.902092040679
 21
2238.779292968545
 31
0.0
  0
LINE
  5
119
330
1F
100
AcDbEntity
  8
LAY-10
  6
CONTINUOUS
 62
     7
100
AcDbLine
 10
2122.416810666421
 20
2233.879798031914
 30
0.0
 11
2127.316305603062
 21
2238.779292968555
 31
0.0
  0
LINE
  5
11A
330
1F
100
AcDbEntity
  8
LAY-10
  6
CONTINUOUS
 62
     7
100
AcDbLine
 10
2122.416810666414
 20
2232.465584469533
 30
0.0
 11
2127.416810666394
 21
2237.465584469514
 31
0.0
  0
LINE
  5
11B
330
1F
100
AcDbEntity
  8
LAY-10
  6
CONTINUOUS
 62
     7
100
AcDbLine
 10
2122.644732727807
 20
2231.279292968553
 30
0.0
 11
2127.416810666403
 21
2236.05137090715
 31
0.0
  0
LINE
  5
11C
330
1F
100
AcDbEntity
  8
LAY-10
  6
CONTINUOUS
 62
     7
100
AcDbLine
 10
2124.058946290187
 20
2231.279292968561
 30
0.0
 11
2127.416810666396
 21
2234.63715734477
 31
0.0
  0
LINE
  5
11D
330
1F
100
AcDbEntity
  8
LAY-10
  6
CONTINUOUS
 62
     7
100
AcDbLine
 10
2125.47315985255
 20
2231.279292968553
 30
0.0
 11
2127.416810666405
 21
2233.222943782407
 31
0.0
  0
LINE
  5
11E
330
1F
100
AcDbEntity
  8
LAY-10
  6
CONTINUOUS
 62
     7
100
AcDbLine
 10
2126.887373414912
 20
2231.279292968543
 30
0.0
 11
2127.416810666396
 21
2231.808730220025
 31
0.0
  0
LINE
  5
11F
330
1F
100
AcDbEntity
  8
LAY-10
  6
CONTINUOUS
 62
     7
100
AcDbLine
 10
2205.84444430255
 20
1216.779292968624
 30
0.0
 11
2205.416810666412
 21
1217.206926604762
 31
0.0
  0
LINE
  5
120
330
1F
100
AcDbEntity
  8
LAY-10
  6
CONTINUOUS
 62
     7
100
AcDbLine
 10
2207.258657864933
 20
1216.779292968614
 30
0.0
 11
2205.416810666401
 21
1218.621140167144
 31
0.0
  0
LINE
  5
121
330
1F
100
AcDbEntity
  8
LAY-10
  6
CONTINUOUS
 62
     7
100
AcDbLine
 10
2208.672871427295
 20
1216.779292968626
 30
0.0
 11
2205.416810666414
 21
1220.035353729508
 31
0.0
  0
LINE
  5
122
330
1F
100
AcDbEntity
  8
LAY-10
  6
CONTINUOUS
 62
     7
100
AcDbLine
 10
2210.087084989677
 20
1216.779292968617
 30
0.0
 11
2205.416810666403
 21
1221.449567291888
 31
0.0
  0
LINE
  5
123
330
1F
100
AcDbEntity
  8
LAY-10
  6
CONTINUOUS
 62
     7
100
AcDbLine
 10
2210.416810666434
 20
1217.863780854233
 30
0.0
 11
2205.416810666416
 21
1222.863780854252
 31
0.0
  0
LINE
  5
124
330
1F
100
AcDbEntity
  8
LAY-10
  6
CONTINUOUS
 62
     7
100
AcDbLine
 10
2210.416810666443
 20
1219.277994416595
 30
0.0
 11
2205.416810666405
 21
1224.277994416634
 31
0.0
  0
LINE
  5
125
330
1F
100
AcDbEntity
  8
LAY-10
  6
CONTINUOUS
 62
     7
100
AcDbLine
 10
2210.416810666434
 20
1220.692207978977
 30
0.0
 11
2205.416810666416
 21
1225.692207978997
 31
0.0
  0
LINE
  5
126
330
1F
100
AcDbEntity
  8
LAY-10
  6
CONTINUOUS
 62
     7
100
AcDbLine
 10
2210.416810666447
 20
1222.106421541341
 30
0.0
 11
2205.416810666405
 21
1227.10642154138
 31
0.0
  0
LINE
  5
127
330
1F
100
AcDbEntity
  8
LAY-10
  6
CONTINUOUS
 62
     7
100
AcDbLine
 10
2210.416810666436
 20
1223.520635103722
 30
0.0
 11
2205.416810666417
 21
1228.520635103742
 31
0.0
  0
LINE
  5
128
330
1F
100
AcDbEntity
  8
LAY-10
  6
CONTINUOUS
 62
     7
100
AcDbLine
 10
2210.416810666448
 20
1224.934848666086
 30
0.0
 11
2205.416810666406
 21
1229.934848666125
 31
0.0
  0
LINE
  5
129
330
1F
100
AcDbEntity
  8
LAY-10
  6
CONTINUOUS
 62
     7
100
AcDbLine
 10
2210.416810666437
 20
1226.349062228468
 30
0.0
 11
2205.416810666417
 21
1231.349062228487
 31
0.0
  0
LINE
  5
12A
330
1F
100
AcDbEntity
  8
LAY-10
  6
CONTINUOUS
 62
     7
100
AcDbLine
 10
2210.41681066645
 20
1227.76327579083
 30
0.0
 11
2205.41681066641
 21
1232.76327579087
 31
0.0
  0
LINE
  5
12B
330
1F
100
AcDbEntity
  8
LAY-10
  6
CONTINUOUS
 62
     7
100
AcDbLine
 10
2210.416810666439
 20
1229.177489353212
 30
0.0
 11
2205.416810666419
 21
1234.177489353233
 31
0.0
  0
LINE
  5
12C
330
1F
100
AcDbEntity
  8
LAY-10
  6
CONTINUOUS
 62
     7
100
AcDbLine
 10
2210.41681066645
 20
1230.591702915575
 30
0.0
 11
2205.416810666412
 21
1235.591702915614
 31
0.0
  0
LINE
  5
12D
330
1F
100
AcDbEntity
  8
LAY-10
  6
CONTINUOUS
 62
     7
100
AcDbLine
 10
2210.416810666439
 20
1232.005916477957
 30
0.0
 11
2205.416810666419
 21
1237.005916477978
 31
0.0
  0
LINE
  5
12E
330
1F
100
AcDbEntity
  8
LAY-10
  6
CONTINUOUS
 62
     7
100
AcDbLine
 10
2210.416810666432
 20
1233.420130040339
 30
0.0
 11
2205.416810666412
 21
1238.42013004036
 31
0.0
  0
LINE
  5
12F
330
1F
100
AcDbEntity
  8
LAY-10
  6
CONTINUOUS
 62
     7
100
AcDbLine
 10
2210.416810666441
 20
1234.834343602702
 30
0.0
 11
2205.416810666421
 21
1239.834343602722
 31
0.0
  0
LINE
  5
130
330
1F
100
AcDbEntity
  8
LAY-10
  6
CONTINUOUS
 62
     7
100
AcDbLine
 10
2210.416810666432
 20
1236.248557165084
 30
0.0
 11
2205.416810666414
 21
1241.248557165103
 31
0.0
  0
LINE
  5
131
330
1F
100
AcDbEntity
  8
LAY-10
  6
CONTINUOUS
 62
     7
100
AcDbLine
 10
2210.416810666443
 20
1237.662770727447
 30
0.0
 11
2205.416810666423
 21
1242.662770727467
 31
0.0
  0
LINE
  5
132
330
1F
100
AcDbEntity
  8
LAY-10
  6
CONTINUOUS
 62
     7
100
AcDbLine
 10
2210.416810666434
 20
1239.07698428983
 30
0.0
 11
2205.416810666416
 21
1244.07698428985
 31
0.0
  0
LINE
  5
133
330
1F
100
AcDbEntity
  8
LAY-10
  6
CONTINUOUS
 62
     7
100
AcDbLine
 10
2210.416810666443
 20
1240.491197852192
 30
0.0
 11
2205.416810666405
 21
1245.491197852231
 31
0.0
  0
LINE
  5
134
330
1F
100
AcDbEntity
  8
LAY-10
  6
CONTINUOUS
 62
     7
100
AcDbLine
 10
2210.416810666436
 20
1241.905411414575
 30
0.0
 11
2205.416810666417
 21
1246.905411414595
 31
0.0
  0
LINE
  5
135
330
1F
100
AcDbEntity
  8
LAY-10
  6
CONTINUOUS
 62
     7
100
AcDbLine
 10
2210.416810666447
 20
1243.319624976936
 30
0.0
 11
2205.416810666405
 21
1248.319624976977
 31
0.0
  0
LINE
  5
136
330
1F
100
AcDbEntity
  8
LAY-10
  6
CONTINUOUS
 62
     7
100
AcDbLine
 10
2210.416810666436
 20
1244.733838539319
 30
0.0
 11
2205.416810666417
 21
1249.73383853934
 31
0.0
  0
LINE
  5
137
330
1F
100
AcDbEntity
  8
LAY-10
  6
CONTINUOUS
 62
     7
100
AcDbLine
 10
2210.416810666426
 20
1246.148052101702
 30
0.0
 11
2205.416810666406
 21
1251.148052101722
 31
0.0
  0
LINE
  5
138
330
1F
100
AcDbEntity
  8
LAY-10
  6
CONTINUOUS
 62
     7
100
AcDbLine
 10
2210.416810666437
 20
1247.562265664064
 30
0.0
 11
2205.416810666417
 21
1252.562265664083
 31
0.0
  0
LINE
  5
139
330
1F
100
AcDbEntity
  8
LAY-10
  6
CONTINUOUS
 62
     7
100
AcDbLine
 10
2210.416810666428
 20
1248.976479226446
 30
0.0
 11
2205.41681066641
 21
1253.976479226466
 31
0.0
  0
LINE
  5
13A
330
1F
100
AcDbEntity
  8
LAY-10
  6
CONTINUOUS
 62
     7
100
AcDbLine
 10
2210.416810666439
 20
1250.390692788809
 30
0.0
 11
2205.416810666419
 21
1255.390692788829
 31
0.0
  0
LINE
  5
13B
330
1F
100
AcDbEntity
  8
LAY-10
  6
CONTINUOUS
 62
     7
100
AcDbLine
 10
2210.41681066643
 20
1251.804906351192
 30
0.0
 11
2205.442424048993
 21
1256.77929296863
 31
0.0
  0
LINE
  5
13C
330
1F
100
AcDbEntity
  8
LAY-10
  6
CONTINUOUS
 62
     7
100
AcDbLine
 10
2210.416810666441
 20
1253.219119913554
 30
0.0
 11
2206.856637611353
 21
1256.779292968642
 31
0.0
  0
LINE
  5
13D
330
1F
100
AcDbEntity
  8
LAY-10
  6
CONTINUOUS
 62
     7
100
AcDbLine
 10
2210.416810666432
 20
1254.633333475937
 30
0.0
 11
2208.270851173716
 21
1256.779292968651
 31
0.0
  0
LINE
  5
13E
330
1F
100
AcDbEntity
  8
LAY-10
  6
CONTINUOUS
 62
     7
100
AcDbLine
 10
2210.416810666441
 20
1256.047547038298
 30
0.0
 11
2209.685064736098
 21
1256.779292968642
 31
0.0
  0
LINE
  5
13F
330
1F
100
AcDbEntity
  8
LAY-10
  6
CONTINUOUS
 62
     7
100
AcDbLine
 10
2122.416810666394
 20
1157.351370907195
 30
0.0
 11
2122.488888605089
 21
1157.279292968496
 31
0.0
  0
LINE
  5
140
330
1F
100
AcDbEntity
  8
LAY-10
  6
CONTINUOUS
 62
     7
100
AcDbLine
 10
2122.416810666405
 20
1158.765584469558
 30
0.0
 11
2123.903102167455
 21
1157.279292968508
 31
0.0
  0
LINE
  5
141
330
1F
100
AcDbEntity
  8
LAY-10
  6
CONTINUOUS
 62
     7
100
AcDbLine
 10
2122.416810666416
 20
1160.179798031922
 30
0.0
 11
2125.317315729838
 21
1157.279292968498
 31
0.0
  0
LINE
  5
142
330
1F
100
AcDbEntity
  8
LAY-10
  6
CONTINUOUS
 62
     7
100
AcDbLine
 10
2122.416810666406
 20
1161.594011594301
 30
0.0
 11
2126.731529292199
 21
1157.279292968509
 31
0.0
  0
LINE
  5
143
330
1F
100
AcDbEntity
  8
LAY-10
  6
CONTINUOUS
 62
     7
100
AcDbLine
 10
2122.416810666416
 20
1163.008225156666
 30
0.0
 11
2127.416810666397
 21
1158.008225156684
 31
0.0
  0
LINE
  5
144
330
1F
100
AcDbEntity
  8
LAY-10
  6
CONTINUOUS
 62
     7
100
AcDbLine
 10
2122.416810666406
 20
1164.422438719049
 30
0.0
 11
2127.416810666408
 21
1159.422438719047
 31
0.0
  0
LINE
  5
145
330
1F
100
AcDbEntity
  8
LAY-10
  6
CONTINUOUS
 62
     7
100
AcDbLine
 10
2123.474169979324
 20
1164.779292968503
 30
0.0
 11
2127.416810666397
 21
1160.836652281429
 31
0.0
  0
LINE
  5
146
330
1F
100
AcDbEntity
  8
LAY-10
  6
CONTINUOUS
 62
     7
100
AcDbLine
 10
2124.888383541708
 20
1164.779292968494
 30
0.0
 11
2127.416810666412
 21
1162.250865843791
 31
0.0
  0
LINE
  5
147
330
1F
100
AcDbEntity
  8
LAY-10
  6
CONTINUOUS
 62
     7
100
AcDbLine
 10
2126.302597104091
 20
1164.779292968487
 30
0.0
 11
2127.416810666399
 21
1163.665079406173
 31
0.0
  0
LINE
  5
148
330
1F
100
AcDbEntity
  8
LAY-10
  6
CONTINUOUS
 62
     7
100
AcDbLine
 10
2122.416810666412
 20
1190.436147218028
 30
0.0
 11
2123.073664915936
 21
1189.779292968502
 31
0.0
  0
LINE
  5
149
330
1F
100
AcDbEntity
  8
LAY-10
  6
CONTINUOUS
 62
     7
100
AcDbLine
 10
2122.416810666405
 20
1191.85036078041
 30
0.0
 11
2124.487878478319
 21
1189.779292968494
 31
0.0
  0
LINE
  5
14A
330
1F
100
AcDbEntity
  8
LAY-10
  6
CONTINUOUS
 62
     7
100
AcDbLine
 10
2122.416810666414
 20
1193.264574342771
 30
0.0
 11
2125.902092040683
 21
1189.779292968505
 31
0.0
  0
LINE
  5
14B
330
1F
100
AcDbEntity
  8
LAY-10
  6
CONTINUOUS
 62
     7
100
AcDbLine
 10
2122.416810666423
 20
1194.678787905136
 30
0.0
 11
2127.316305603063
 21
1189.779292968496
 31
0.0
  0
LINE
  5
14C
330
1F
100
AcDbEntity
  8
LAY-10
  6
CONTINUOUS
 62
     7
100
AcDbLine
 10
2122.416810666416
 20
1196.093001467518
 30
0.0
 11
2127.416810666396
 21
1191.093001467536
 31
0.0
  0
LINE
  5
14D
330
1F
100
AcDbEntity
  8
LAY-10
  6
CONTINUOUS
 62
     7
100
AcDbLine
 10
2122.644732727808
 20
1197.279292968497
 30
0.0
 11
2127.416810666408
 21
1192.507215029899
 31
0.0
  0
LINE
  5
14E
330
1F
100
AcDbEntity
  8
LAY-10
  6
CONTINUOUS
 62
     7
100
AcDbLine
 10
2124.058946290189
 20
1197.279292968487
 30
0.0
 11
2127.416810666397
 21
1193.92142859228
 31
0.0
  0
LINE
  5
14F
330
1F
100
AcDbEntity
  8
LAY-10
  6
CONTINUOUS
 62
     7
100
AcDbLine
 10
2125.473159852551
 20
1197.279292968498
 30
0.0
 11
2127.416810666408
 21
1195.335642154642
 31
0.0
  0
LINE
  5
150
330
1F
100
AcDbEntity
  8
LAY-10
  6
CONTINUOUS
 62
     7
100
AcDbLine
 10
2126.887373414916
 20
1197.279292968507
 30
0.0
 11
2127.416810666397
 21
1196.749855717025
 31
0.0
  0
LINE
  5
151
330
1F
100
AcDbEntity
  8
LAY-10
  6
CONTINUOUS
 62
     7
100
AcDbLine
 10
999.2213562373095
 20
732.7585859369499
 30
0.0
 11
999.2213562373095
 21
724.7585859369499
 31
0.0
  0
LINE
  5
152
330
1F
100
AcDbEntity
  8
LAY-10
  6
CONTINUOUS
 62
     7
100
AcDbLine
 10
939.2213562373095
 20
732.7585859369499
 30
0.0
 11
939.2213562373095
 21
724.7585859369499
 31
0.0
  0
LINE
  5
153
330
1F
100
AcDbEntity
  8
LAY-10
  6
CONTINUOUS
 62
     7
100
AcDbLine
 10
999.2213562373095
 20
724.7585859369499
 30
0.0
 11
981.2213562373095
 21
724.7585859369499
 31
0.0
  0
LINE
  5
154
330
1F
100
AcDbEntity
  8
LAY-10
  6
CONTINUOUS
 62
     7
100
AcDbLine
 10
939.2213562373095
 20
724.7585859369499
 30
0.0
 11
957.2213562373095
 21
724.7585859369499
 31
0.0
  0
ARC
  5
155
330
1F
100
AcDbEntity
  8
LAY-10
  6
CONTINUOUS
 62
     7
100
AcDbCircle
 10
981.2213562373095
 20
715.7585859369499
 30
0.0
 40
9.0
100
AcDbArc
 50
90.00000000000001
 51
180.0
  0
ARC
  5
156
330
1F
100
AcDbEntity
  8
LAY-10
  6
CONTINUOUS
 62
     7
100
AcDbCircle
 10
957.2213562373095
 20
715.7585859369499
 30
0.0
 40
9.0
100
AcDbArc
 50
0.0
 51
90.00000000000001
  0
LINE
  5
157
330
1F
100
AcDbEntity
  8
LAY-10
  6
CONTINUOUS
 62
     7
100
AcDbLine
 10
972.2213562373095
 20
624.7585859369499
 30
0.0
 11
972.2213562373095
 21
715.7585859369499
 31
0.0
  0
LINE
  5
158
330
1F
100
AcDbEntity
  8
LAY-10
  6
CONTINUOUS
 62
     7
100
AcDbLine
 10
966.2213562373095
 20
624.7585859369499
 30
0.0
 11
966.2213562373095
 21
715.7585859369499
 31
0.0
  0
LINE
  5
159
330
1F
100
AcDbEntity
  8
LAY-10
  6
CONTINUOUS
 62
     7
100
AcDbLine
 10
939.2213562373095
 20
607.7585859369499
 30
0.0
 11
939.2213562373095
 21
615.7585859369499
 31
0.0
  0
LINE
  5
15A
330
1F
100
AcDbEntity
  8
LAY-10
  6
CONTINUOUS
 62
     7
100
AcDbLine
 10
999.2213562373095
 20
615.7585859369499
 30
0.0
 11
981.2213562373095
 21
615.7585859369499
 31
0.0
  0
LINE
  5
15B
330
1F
100
AcDbEntity
  8
LAY-10
  6
CONTINUOUS
 62
     7
100
AcDbLine
 10
939.2213562373095
 20
615.7585859369499
 30
0.0
 11
957.2213562373095
 21
615.7585859369499
 31
0.0
  0
ARC
  5
15C
330
1F
100
AcDbEntity
  8
LAY-10
  6
CONTINUOUS
 62
     7
100
AcDbCircle
 10
981.2213562373095
 20
624.7585859369499
 30
0.0
 40
9.0
100
AcDbArc
 50
180.0
 51
270.0000000000002
  0
ARC
  5
15D
330
1F
100
AcDbEntity
  8
LAY-10
  6
CONTINUOUS
 62
     7
100
AcDbCircle
 10
957.2213562373095
 20
624.7585859369499
 30
0.0
 40
9.0
100
AcDbArc
 50
270.0000000000002
 51
0.0
  0
LINE
  5
15E
330
1F
100
AcDbEntity
  8
LAY-10
  6
CONTINUOUS
 62
     7
100
AcDbLine
 10
999.2213562373095
 20
603.2585859365497
 30
0.0
 11
999.2213562373095
 21
615.7585859369499
 31
0.0
  0
LINE
  5
15F
330
1F
100
AcDbEntity
  8
LAY-10
  6
CONTINUOUS
 62
     7
100
AcDbLine
 10
849.2213562373095
 20
732.7585859368498
 30
0.0
 11
849.2213562373095
 21
724.7585859368498
 31
0.0
  0
LINE
  5
160
330
1F
100
AcDbEntity
  8
LAY-10
  6
CONTINUOUS
 62
     7
100
AcDbLine
 10
789.2213562373095
 20
732.7585859368498
 30
0.0
 11
789.2213562373095
 21
724.7585859368498
 31
0.0
  0
LINE
  5
161
330
1F
100
AcDbEntity
  8
LAY-10
  6
CONTINUOUS
 62
     7
100
AcDbLine
 10
849.2213562373095
 20
724.7585859368498
 30
0.0
 11
831.2213562373095
 21
724.7585859368498
 31
0.0
  0
LINE
  5
162
330
1F
100
AcDbEntity
  8
LAY-10
  6
CONTINUOUS
 62
     7
100
AcDbLine
 10
789.2213562373095
 20
724.7585859368498
 30
0.0
 11
807.2213562373095
 21
724.7585859368498
 31
0.0
  0
ARC
  5
163
330
1F
100
AcDbEntity
  8
LAY-10
  6
CONTINUOUS
 62
     7
100
AcDbCircle
 10
831.2213562373095
 20
715.7585859368498
 30
0.0
 40
9.0
100
AcDbArc
 50
90.00000000000001
 51
180.0
  0
ARC
  5
164
330
1F
100
AcDbEntity
  8
LAY-10
  6
CONTINUOUS
 62
     7
100
AcDbCircle
 10
807.2213562373095
 20
715.7585859368498
 30
0.0
 40
9.0
100
AcDbArc
 50
0.0
 51
90.00000000000001
  0
LINE
  5
165
330
1F
100
AcDbEntity
  8
LAY-10
  6
CONTINUOUS
 62
     7
100
AcDbLine
 10
822.2213562373095
 20
624.7585859368498
 30
0.0
 11
822.2213562373095
 21
715.7585859368498
 31
0.0
  0
LINE
  5
166
330
1F
100
AcDbEntity
  8
LAY-10
  6
CONTINUOUS
 62
     7
100
AcDbLine
 10
816.2213562373095
 20
624.7585859368498
 30
0.0
 11
816.2213562373095
 21
715.7585859368498
 31
0.0
  0
LINE
  5
167
330
1F
100
AcDbEntity
  8
LAY-10
  6
CONTINUOUS
 62
     7
100
AcDbLine
 10
849.2213562373095
 20
607.7585859368498
 30
0.0
 11
849.2213562373095
 21
615.7585859368498
 31
0.0
  0
LINE
  5
168
330
1F
100
AcDbEntity
  8
LAY-10
  6
CONTINUOUS
 62
     7
100
AcDbLine
 10
789.2213562373095
 20
607.7585859368498
 30
0.0
 11
789.2213562373095
 21
615.7585859368498
 31
0.0
  0
LINE
  5
169
330
1F
100
AcDbEntity
  8
LAY-10
  6
CONTINUOUS
 62
     7
100
AcDbLine
 10
849.2213562373095
 20
615.7585859368498
 30
0.0
 11
831.2213562373095
 21
615.7585859368498
 31
0.0
  0
LINE
  5
16A
330
1F
100
AcDbEntity
  8
LAY-10
  6
CONTINUOUS
 62
     7
100
AcDbLine
 10
789.2213562373095
 20
615.7585859368498
 30
0.0
 11
807.2213562373095
 21
615.7585859368498
 31
0.0
  0
ARC
  5
16B
330
1F
100
AcDbEntity
  8
LAY-10
  6
CONTINUOUS
 62
     7
100
AcDbCircle
 10
831.2213562373095
 20
624.7585859368498
 30
0.0
 40
9.0
100
AcDbArc
 50
180.0
 51
270.0000000000002
  0
ARC
  5
16C
330
1F
100
AcDbEntity
  8
LAY-10
  6
CONTINUOUS
 62
     7
100
AcDbCircle
 10
807.2213562373095
 20
624.7585859368498
 30
0.0
 40
9.0
100
AcDbArc
 50
270.0000000000002
 51
0.0
  0
LINE
  5
16D
330
1F
100
AcDbEntity
  8
LAY-10
  6
CONTINUOUS
 62
     7
100
AcDbLine
 10
699.2213562373095
 20
732.7585859369499
 30
0.0
 11
699.2213562373095
 21
724.7585859369499
 31
0.0
  0
LINE
  5
16E
330
1F
100
AcDbEntity
  8
LAY-10
  6
CONTINUOUS
 62
     7
100
AcDbLine
 10
639.2213562373095
 20
732.7585859369499
 30
0.0
 11
639.2213562373095
 21
724.7585859369499
 31
0.0
  0
LINE
  5
16F
330
1F
100
AcDbEntity
  8
LAY-10
  6
CONTINUOUS
 62
     7
100
AcDbLine
 10
699.2213562373095
 20
724.7585859369499
 30
0.0
 11
681.2213562373095
 21
724.7585859369499
 31
0.0
  0
LINE
  5
170
330
1F
100
AcDbEntity
  8
LAY-10
  6
CONTINUOUS
 62
     7
100
AcDbLine
 10
639.2213562373095
 20
724.7585859369499
 30
0.0
 11
657.2213562373095
 21
724.7585859369499
 31
0.0
  0
ARC
  5
171
330
1F
100
AcDbEntity
  8
LAY-10
  6
CONTINUOUS
 62
     7
100
AcDbCircle
 10
681.2213562373095
 20
715.7585859369499
 30
0.0
 40
9.0
100
AcDbArc
 50
90.00000000000001
 51
180.0
  0
ARC
  5
172
330
1F
100
AcDbEntity
  8
LAY-10
  6
CONTINUOUS
 62
     7
100
AcDbCircle
 10
657.2213562373095
 20
715.7585859369499
 30
0.0
 40
9.0
100
AcDbArc
 50
0.0
 51
90.00000000000001
  0
LINE
  5
173
330
1F
100
AcDbEntity
  8
LAY-10
  6
CONTINUOUS
 62
     7
100
AcDbLine
 10
672.2213562373095
 20
624.7585859369499
 30
0.0
 11
672.2213562373095
 21
715.7585859369499
 31
0.0
  0
LINE
  5
174
330
1F
100
AcDbEntity
  8
LAY-10
  6
CONTINUOUS
 62
     7
100
AcDbLine
 10
666.2213562373095
 20
624.7585859369499
 30
0.0
 11
666.2213562373095
 21
715.7585859369499
 31
0.0
  0
LINE
  5
175
330
1F
100
AcDbEntity
  8
LAY-10
  6
CONTINUOUS
 62
     7
100
AcDbLine
 10
699.2213562373095
 20
607.7585859369499
 30
0.0
 11
699.2213562373095
 21
615.7585859369499
 31
0.0
  0
LINE
  5
176
330
1F
100
AcDbEntity
  8
LAY-10
  6
CONTINUOUS
 62
     7
100
AcDbLine
 10
699.2213562373095
 20
615.7585859369499
 30
0.0
 11
681.2213562373095
 21
615.7585859369499
 31
0.0
  0
LINE
  5
177
330
1F
100
AcDbEntity
  8
LAY-10
  6
CONTINUOUS
 62
     7
100
AcDbLine
 10
639.2213562373095
 20
615.7585859369499
 30
0.0
 11
657.2213562373095
 21
615.7585859369499
 31
0.0
  0
ARC
  5
178
330
1F
100
AcDbEntity
  8
LAY-10
  6
CONTINUOUS
 62
     7
100
AcDbCircle
 10
681.2213562373095
 20
624.7585859369499
 30
0.0
 40
9.0
100
AcDbArc
 50
180.0
 51
270.0000000000002
  0
ARC
  5
179
330
1F
100
AcDbEntity
  8
LAY-10
  6
CONTINUOUS
 62
     7
100
AcDbCircle
 10
657.2213562373095
 20
624.7585859369499
 30
0.0
 40
9.0
100
AcDbArc
 50
270.0000000000002
 51
0.0
  0
LINE
  5
17A
330
1F
100
AcDbEntity
  8
LAY-10
  6
CONTINUOUS
 62
     7
100
AcDbLine
 10
639.2213562373095
 20
603.2585859365497
 30
0.0
 11
639.2213562373095
 21
615.7585859369499
 31
0.0
  0
LINE
  5
17B
330
1F
100
AcDbEntity
  8
LAY-10
  6
CONTINUOUS
 62
     7
100
AcDbLine
 10
1497.22135623751
 20
732.7585859369499
 30
0.0
 11
1497.22135623751
 21
724.7585859369499
 31
0.0
  0
LINE
  5
17C
330
1F
100
AcDbEntity
  8
LAY-10
  6
CONTINUOUS
 62
     7
100
AcDbLine
 10
1437.22135623751
 20
732.7585859369499
 30
0.0
 11
1437.22135623751
 21
724.7585859369499
 31
0.0
  0
LINE
  5
17D
330
1F
100
AcDbEntity
  8
LAY-10
  6
CONTINUOUS
 62
     7
100
AcDbLine
 10
1497.22135623751
 20
724.7585859369499
 30
0.0
 11
1479.22135623751
 21
724.7585859369499
 31
0.0
  0
LINE
  5
17E
330
1F
100
AcDbEntity
  8
LAY-10
  6
CONTINUOUS
 62
     7
100
AcDbLine
 10
1437.22135623751
 20
724.7585859369499
 30
0.0
 11
1455.22135623751
 21
724.7585859369499
 31
0.0
  0
ARC
  5
17F
330
1F
100
AcDbEntity
  8
LAY-10
  6
CONTINUOUS
 62
     7
100
AcDbCircle
 10
1479.22135623751
 20
715.7585859369499
 30
0.0
 40
9.0
100
AcDbArc
 50
90.00000000000001
 51
180.0
  0
ARC
  5
180
330
1F
100
AcDbEntity
  8
LAY-10
  6
CONTINUOUS
 62
     7
100
AcDbCircle
 10
1455.22135623751
 20
715.7585859369499
 30
0.0
 40
9.0
100
AcDbArc
 50
0.0
 51
90.00000000000001
  0
LINE
  5
181
330
1F
100
AcDbEntity
  8
LAY-10
  6
CONTINUOUS
 62
     7
100
AcDbLine
 10
1470.22135623751
 20
624.7585859369499
 30
0.0
 11
1470.22135623751
 21
715.7585859369499
 31
0.0
  0
LINE
  5
182
330
1F
100
AcDbEntity
  8
LAY-10
  6
CONTINUOUS
 62
     7
100
AcDbLine
 10
1464.22135623751
 20
624.7585859369499
 30
0.0
 11
1464.22135623751
 21
715.7585859369499
 31
0.0
  0
LINE
  5
183
330
1F
100
AcDbEntity
  8
LAY-10
  6
CONTINUOUS
 62
     7
100
AcDbLine
 10
1437.22135623751
 20
607.7585859369499
 30
0.0
 11
1437.22135623751
 21
615.7585859369499
 31
0.0
  0
LINE
  5
184
330
1F
100
AcDbEntity
  8
LAY-10
  6
CONTINUOUS
 62
     7
100
AcDbLine
 10
1497.22135623751
 20
615.7585859369499
 30
0.0
 11
1479.22135623751
 21
615.7585859369499
 31
0.0
  0
LINE
  5
185
330
1F
100
AcDbEntity
  8
LAY-10
  6
CONTINUOUS
 62
     7
100
AcDbLine
 10
1437.22135623751
 20
615.7585859369499
 30
0.0
 11
1455.22135623751
 21
615.7585859369499
 31
0.0
  0
ARC
  5
186
330
1F
100
AcDbEntity
  8
LAY-10
  6
CONTINUOUS
 62
     7
100
AcDbCircle
 10
1479.22135623751
 20
624.7585859369499
 30
0.0
 40
9.0
100
AcDbArc
 50
180.0
 51
270.0000000000002
  0
ARC
  5
187
330
1F
100
AcDbEntity
  8
LAY-10
  6
CONTINUOUS
 62
     7
100
AcDbCircle
 10
1455.22135623751
 20
624.7585859369499
 30
0.0
 40
9.0
100
AcDbArc
 50
270.0000000000002
 51
0.0
  0
LINE
  5
188
330
1F
100
AcDbEntity
  8
LAY-10
  6
CONTINUOUS
 62
     7
100
AcDbLine
 10
1497.22135623751
 20
603.2585859365497
 30
0.0
 11
1497.22135623751
 21
615.7585859369499
 31
0.0
  0
LINE
  5
189
330
1F
100
AcDbEntity
  8
LAY-10
  6
CONTINUOUS
 62
     7
100
AcDbLine
 10
1347.22135623751
 20
732.7585859368498
 30
0.0
 11
1347.22135623751
 21
724.7585859368498
 31
0.0
  0
LINE
  5
18A
330
1F
100
AcDbEntity
  8
LAY-10
  6
CONTINUOUS
 62
     7
100
AcDbLine
 10
1287.22135623751
 20
732.7585859368498
 30
0.0
 11
1287.22135623751
 21
724.7585859368498
 31
0.0
  0
LINE
  5
18B
330
1F
100
AcDbEntity
  8
LAY-10
  6
CONTINUOUS
 62
     7
100
AcDbLine
 10
1347.22135623751
 20
724.7585859368498
 30
0.0
 11
1329.22135623751
 21
724.7585859368498
 31
0.0
  0
LINE
  5
18C
330
1F
100
AcDbEntity
  8
LAY-10
  6
CONTINUOUS
 62
     7
100
AcDbLine
 10
1287.22135623751
 20
724.7585859368498
 30
0.0
 11
1305.22135623751
 21
724.7585859368498
 31
0.0
  0
ARC
  5
18D
330
1F
100
AcDbEntity
  8
LAY-10
  6
CONTINUOUS
 62
     7
100
AcDbCircle
 10
1329.22135623751
 20
715.7585859368498
 30
0.0
 40
9.0
100
AcDbArc
 50
90.00000000000001
 51
180.0
  0
ARC
  5
18E
330
1F
100
AcDbEntity
  8
LAY-10
  6
CONTINUOUS
 62
     7
100
AcDbCircle
 10
1305.22135623751
 20
715.7585859368498
 30
0.0
 40
9.0
100
AcDbArc
 50
0.0
 51
90.00000000000001
  0
LINE
  5
18F
330
1F
100
AcDbEntity
  8
LAY-10
  6
CONTINUOUS
 62
     7
100
AcDbLine
 10
1320.22135623751
 20
624.7585859368498
 30
0.0
 11
1320.22135623751
 21
715.7585859368498
 31
0.0
  0
LINE
  5
190
330
1F
100
AcDbEntity
  8
LAY-10
  6
CONTINUOUS
 62
     7
100
AcDbLine
 10
1314.22135623751
 20
624.7585859368498
 30
0.0
 11
1314.22135623751
 21
715.7585859368498
 31
0.0
  0
LINE
  5
191
330
1F
100
AcDbEntity
  8
LAY-10
  6
CONTINUOUS
 62
     7
100
AcDbLine
 10
1347.22135623751
 20
607.7585859368498
 30
0.0
 11
1347.22135623751
 21
615.7585859368498
 31
0.0
  0
LINE
  5
192
330
1F
100
AcDbEntity
  8
LAY-10
  6
CONTINUOUS
 62
     7
100
AcDbLine
 10
1287.22135623751
 20
607.7585859368498
 30
0.0
 11
1287.22135623751
 21
615.7585859368498
 31
0.0
  0
LINE
  5
193
330
1F
100
AcDbEntity
  8
LAY-10
  6
CONTINUOUS
 62
     7
100
AcDbLine
 10
1347.22135623751
 20
615.7585859368498
 30
0.0
 11
1329.22135623751
 21
615.7585859368498
 31
0.0
  0
LINE
  5
194
330
1F
100
AcDbEntity
  8
LAY-10
  6
CONTINUOUS
 62
     7
100
AcDbLine
 10
1287.22135623751
 20
615.7585859368498
 30
0.0
 11
1305.22135623751
 21
615.7585859368498
 31
0.0
  0
ARC
  5
195
330
1F
100
AcDbEntity
  8
LAY-10
  6
CONTINUOUS
 62
     7
100
AcDbCircle
 10
1329.22135623751
 20
624.7585859368498
 30
0.0
 40
9.0
100
AcDbArc
 50
180.0
 51
270.0000000000002
  0
ARC
  5
196
330
1F
100
AcDbEntity
  8
LAY-10
  6
CONTINUOUS
 62
     7
100
AcDbCircle
 10
1305.22135623751
 20
624.7585859368498
 30
0.0
 40
9.0
100
AcDbArc
 50
270.0000000000002
 51
0.0
  0
LINE
  5
197
330
1F
100
AcDbEntity
  8
LAY-10
  6
CONTINUOUS
 62
     7
100
AcDbLine
 10
1197.22135623751
 20
732.7585859369499
 30
0.0
 11
1197.22135623751
 21
724.7585859369499
 31
0.0
  0
LINE
  5
198
330
1F
100
AcDbEntity
  8
LAY-10
  6
CONTINUOUS
 62
     7
100
AcDbLine
 10
1137.22135623751
 20
732.7585859369499
 30
0.0
 11
1137.22135623751
 21
724.7585859369499
 31
0.0
  0
LINE
  5
199
330
1F
100
AcDbEntity
  8
LAY-10
  6
CONTINUOUS
 62
     7
100
AcDbLine
 10
1197.22135623751
 20
724.7585859369499
 30
0.0
 11
1179.22135623751
 21
724.7585859369499
 31
0.0
  0
LINE
  5
19A
330
1F
100
AcDbEntity
  8
LAY-10
  6
CONTINUOUS
 62
     7
100
AcDbLine
 10
1137.22135623751
 20
724.7585859369499
 30
0.0
 11
1155.22135623751
 21
724.7585859369499
 31
0.0
  0
ARC
  5
19B
330
1F
100
AcDbEntity
  8
LAY-10
  6
CONTINUOUS
 62
     7
100
AcDbCircle
 10
1179.22135623751
 20
715.7585859369499
 30
0.0
 40
9.0
100
AcDbArc
 50
90.00000000000001
 51
180.0
  0
ARC
  5
19C
330
1F
100
AcDbEntity
  8
LAY-10
  6
CONTINUOUS
 62
     7
100
AcDbCircle
 10
1155.22135623751
 20
715.7585859369499
 30
0.0
 40
9.0
100
AcDbArc
 50
0.0
 51
90.00000000000001
  0
LINE
  5
19D
330
1F
100
AcDbEntity
  8
LAY-10
  6
CONTINUOUS
 62
     7
100
AcDbLine
 10
1170.22135623751
 20
624.7585859369499
 30
0.0
 11
1170.22135623751
 21
715.7585859369499
 31
0.0
  0
LINE
  5
19E
330
1F
100
AcDbEntity
  8
LAY-10
  6
CONTINUOUS
 62
     7
100
AcDbLine
 10
1164.22135623751
 20
624.7585859369499
 30
0.0
 11
1164.22135623751
 21
715.7585859369499
 31
0.0
  0
LINE
  5
19F
330
1F
100
AcDbEntity
  8
LAY-10
  6
CONTINUOUS
 62
     7
100
AcDbLine
 10
1197.22135623751
 20
607.7585859369499
 30
0.0
 11
1197.22135623751
 21
615.7585859369499
 31
0.0
  0
LINE
  5
1A0
330
1F
100
AcDbEntity
  8
LAY-10
  6
CONTINUOUS
 62
     7
100
AcDbLine
 10
1197.22135623751
 20
615.7585859369499
 30
0.0
 11
1179.22135623751
 21
615.7585859369499
 31
0.0
  0
LINE
  5
1A1
330
1F
100
AcDbEntity
  8
LAY-10
  6
CONTINUOUS
 62
     7
100
AcDbLine
 10
1137.22135623751
 20
615.7585859369499
 30
0.0
 11
1155.22135623751
 21
615.7585859369499
 31
0.0
  0
ARC
  5
1A2
330
1F
100
AcDbEntity
  8
LAY-10
  6
CONTINUOUS
 62
     7
100
AcDbCircle
 10
1179.22135623751
 20
624.7585859369499
 30
0.0
 40
9.0
100
AcDbArc
 50
180.0
 51
270.0000000000002
  0
ARC
  5
1A3
330
1F
100
AcDbEntity
  8
LAY-10
  6
CONTINUOUS
 62
     7
100
AcDbCircle
 10
1155.22135623751
 20
624.7585859369499
 30
0.0
 40
9.0
100
AcDbArc
 50
270.0000000000002
 51
0.0
  0
LINE
  5
1A4
330
1F
100
AcDbEntity
  8
LAY-10
  6
CONTINUOUS
 62
     7
100
AcDbLine
 10
1137.22135623751
 20
603.2585859365497
 30
0.0
 11
1137.22135623751
 21
615.7585859369499
 31
0.0
  0
LINE
  5
1A5
330
1F
100
AcDbEntity
  8
LAY-10
  6
CONTINUOUS
 62
     7
100
AcDbLine
 10
563.2213562370184
 20
2295.27929296875
 30
0.0
 11
569.2213562370221
 21
2289.27929296875
 31
0.0
  0
LINE
  5
1A6
330
1F
100
AcDbEntity
  8
LAY-10
  6
CONTINUOUS
 62
     7
100
AcDbLine
 10
654.7213562369766
 20
2276.279292968612
 30
0.0
 11
654.7213562369692
 21
2226.279292968618
 31
0.0
  0
LINE
  5
1A7
330
1F
100
AcDbEntity
  8
LAY-10
  6
CONTINUOUS
 62
     7
100
AcDbLine
 10
654.7213562369766
 20
2276.279292968612
 30
0.0
 11
604.7213562369766
 21
2276.279292968619
 31
0.0
  0
LINE
  5
1A8
330
1F
100
AcDbEntity
  8
LAY-10
  6
CONTINUOUS
 62
     7
100
AcDbLine
 10
604.7213562369766
 20
2276.279292968619
 30
0.0
 11
604.7213562369693
 21
2226.279292968626
 31
0.0
  0
LINE
  5
1A9
330
1F
100
AcDbEntity
  8
LAY-10
  6
CONTINUOUS
 62
     7
100
AcDbLine
 10
606.2213562369802
 20
2274.779292968625
 30
0.0
 11
606.2213562369802
 21
2270.779292968623
 31
0.0
  0
LINE
  5
1AA
330
1F
100
AcDbEntity
  8
LAY-10
  6
CONTINUOUS
 62
     7
100
AcDbLine
 10
606.221356236973
 20
2227.779292968624
 30
0.0
 11
653.2213562369728
 21
2227.779292968618
 31
0.0
  0
LINE
  5
1AB
330
1F
100
AcDbEntity
  8
LAY-10
  6
CONTINUOUS
 62
     7
100
AcDbLine
 10
606.2213562369766
 20
2248.779292968624
 30
0.0
 11
653.2213562369766
 21
2248.779292968617
 31
0.0
  0
LINE
  5
1AC
330
1F
100
AcDbEntity
  8
LAY-10
  6
CONTINUOUS
 62
     7
100
AcDbLine
 10
606.2213562369766
 20
2253.779292968624
 30
0.0
 11
653.2213562369766
 21
2253.779292968617
 31
0.0
  0
LINE
  5
1AD
330
1F
100
AcDbEntity
  8
LAY-10
  6
CONTINUOUS
 62
     7
100
AcDbLine
 10
653.2213562369711
 20
2242.779292968618
 30
0.0
 11
606.2213562369693
 21
2242.779292968624
 31
0.0
  0
LINE
  5
1AE
330
1F
100
AcDbEntity
  8
LAY-10
  6
CONTINUOUS
 62
     7
100
AcDbLine
 10
653.2213562369728
 20
2237.779292968618
 30
0.0
 11
606.2213562369693
 21
2237.779292968624
 31
0.0
  0
LINE
  5
1AF
330
1F
100
AcDbEntity
  8
LAY-10
  6
CONTINUOUS
 62
     7
100
AcDbLine
 10
653.2213562369675
 20
2231.779292968619
 30
0.0
 11
606.2213562369693
 21
2231.779292968626
 31
0.0
  0
LINE
  5
1B0
330
1F
100
AcDbEntity
  8
LAY-10
  6
CONTINUOUS
 62
     7
100
AcDbLine
 10
653.2213562369728
 20
2259.779292968617
 30
0.0
 11
606.221356236973
 21
2259.779292968622
 31
0.0
  0
LINE
  5
1B1
330
1F
100
AcDbEntity
  8
LAY-10
  6
CONTINUOUS
 62
     7
100
AcDbLine
 10
653.2213562369802
 20
2264.779292968616
 30
0.0
 11
606.2213562369766
 21
2264.779292968622
 31
0.0
  0
LINE
  5
1B2
330
1F
100
AcDbEntity
  8
LAY-10
  6
CONTINUOUS
 62
     7
100
AcDbLine
 10
653.2213562369728
 20
2270.779292968617
 30
0.0
 11
606.2213562369766
 21
2270.779292968623
 31
0.0
  0
LINE
  5
1B3
330
1F
100
AcDbEntity
  8
LAY-10
  6
CONTINUOUS
 62
     7
100
AcDbLine
 10
606.2213562369693
 20
2231.779292968624
 30
0.0
 11
605.2213562369693
 21
2232.029292968624
 31
0.0
  0
LINE
  5
1B4
330
1F
100
AcDbEntity
  8
LAY-10
  6
CONTINUOUS
 62
     7
100
AcDbLine
 10
605.2213562369693
 20
2237.529292968624
 30
0.0
 11
606.2213562369693
 21
2237.779292968624
 31
0.0
  0
LINE
  5
1B5
330
1F
100
AcDbEntity
  8
LAY-10
  6
CONTINUOUS
 62
     7
100
AcDbLine
 10
605.2213562369693
 20
2237.529292968624
 30
0.0
 11
605.2213562369693
 21
2232.029292968624
 31
0.0
  0
LINE
  5
1B6
330
1F
100
AcDbEntity
  8
LAY-10
  6
CONTINUOUS
 62
     7
100
AcDbLine
 10
606.221356236973
 20
2231.779292968626
 30
0.0
 11
606.221356236973
 21
2227.779292968624
 31
0.0
  0
LINE
  5
1B7
330
1F
100
AcDbEntity
  8
LAY-10
  6
CONTINUOUS
 62
     7
100
AcDbLine
 10
606.2213562369693
 20
2242.779292968624
 30
0.0
 11
605.221356236973
 21
2243.029292968624
 31
0.0
  0
LINE
  5
1B8
330
1F
100
AcDbEntity
  8
LAY-10
  6
CONTINUOUS
 62
     7
100
AcDbLine
 10
605.221356236973
 20
2248.529292968623
 30
0.0
 11
606.221356236973
 21
2248.779292968624
 31
0.0
  0
LINE
  5
1B9
330
1F
100
AcDbEntity
  8
LAY-10
  6
CONTINUOUS
 62
     7
100
AcDbLine
 10
605.221356236973
 20
2248.529292968623
 30
0.0
 11
605.221356236973
 21
2243.029292968624
 31
0.0
  0
LINE
  5
1BA
330
1F
100
AcDbEntity
  8
LAY-10
  6
CONTINUOUS
 62
     7
100
AcDbLine
 10
606.221356236973
 20
2253.779292968624
 30
0.0
 11
605.221356236973
 21
2254.029292968624
 31
0.0
  0
LINE
  5
1BB
330
1F
100
AcDbEntity
  8
LAY-10
  6
CONTINUOUS
 62
     7
100
AcDbLine
 10
605.221356236973
 20
2259.529292968626
 30
0.0
 11
606.221356236973
 21
2259.779292968623
 31
0.0
  0
LINE
  5
1BC
330
1F
100
AcDbEntity
  8
LAY-10
  6
CONTINUOUS
 62
     7
100
AcDbLine
 10
605.221356236973
 20
2259.529292968626
 30
0.0
 11
605.221356236973
 21
2254.029292968624
 31
0.0
  0
LINE
  5
1BD
330
1F
100
AcDbEntity
  8
LAY-10
  6
CONTINUOUS
 62
     7
100
AcDbLine
 10
606.2213562369766
 20
2264.779292968623
 30
0.0
 11
605.2213562369748
 21
2265.029292968624
 31
0.0
  0
LINE
  5
1BE
330
1F
100
AcDbEntity
  8
LAY-10
  6
CONTINUOUS
 62
     7
100
AcDbLine
 10
605.2213562369748
 20
2270.529292968624
 30
0.0
 11
606.2213562369766
 21
2270.779292968623
 31
0.0
  0
LINE
  5
1BF
330
1F
100
AcDbEntity
  8
LAY-10
  6
CONTINUOUS
 62
     7
100
AcDbLine
 10
605.2213562369748
 20
2270.529292968624
 30
0.0
 11
605.2213562369748
 21
2265.029292968624
 31
0.0
  0
LINE
  5
1C0
330
1F
100
AcDbEntity
  8
LAY-10
  6
CONTINUOUS
 62
     7
100
AcDbLine
 10
606.221356236973
 20
2242.779292968624
 30
0.0
 11
606.221356236973
 21
2237.779292968624
 31
0.0
  0
LINE
  5
1C1
330
1F
100
AcDbEntity
  8
LAY-10
  6
CONTINUOUS
 62
     7
100
AcDbLine
 10
606.2213562369766
 20
2253.779292968624
 30
0.0
 11
606.2213562369766
 21
2248.779292968624
 31
0.0
  0
LINE
  5
1C2
330
1F
100
AcDbEntity
  8
LAY-10
  6
CONTINUOUS
 62
     7
100
AcDbLine
 10
606.2213562369802
 20
2264.779292968623
 30
0.0
 11
606.2213562369766
 21
2259.779292968622
 31
0.0
  0
LINE
  5
1C3
330
1F
100
AcDbEntity
  8
LAY-10
  6
CONTINUOUS
 62
     7
100
AcDbLine
 10
653.2213562369766
 20
2231.779292968617
 30
0.0
 11
654.2213562369748
 21
2232.029292968617
 31
0.0
  0
LINE
  5
1C4
330
1F
100
AcDbEntity
  8
LAY-10
  6
CONTINUOUS
 62
     7
100
AcDbLine
 10
654.2213562369765
 20
2237.529292968616
 30
0.0
 11
653.2213562369766
 21
2237.779292968616
 31
0.0
  0
LINE
  5
1C5
330
1F
100
AcDbEntity
  8
LAY-10
  6
CONTINUOUS
 62
     7
100
AcDbLine
 10
654.2213562369765
 20
2237.529292968616
 30
0.0
 11
654.2213562369748
 21
2232.029292968617
 31
0.0
  0
LINE
  5
1C6
330
1F
100
AcDbEntity
  8
LAY-10
  6
CONTINUOUS
 62
     7
100
AcDbLine
 10
653.2213562369802
 20
2242.779292968618
 30
0.0
 11
654.2213562369748
 21
2243.029292968617
 31
0.0
  0
LINE
  5
1C7
330
1F
100
AcDbEntity
  8
LAY-10
  6
CONTINUOUS
 62
     7
100
AcDbLine
 10
654.2213562369765
 20
2248.529292968619
 30
0.0
 11
653.2213562369802
 21
2248.779292968617
 31
0.0
  0
LINE
  5
1C8
330
1F
100
AcDbEntity
  8
LAY-10
  6
CONTINUOUS
 62
     7
100
AcDbLine
 10
654.2213562369765
 20
2248.529292968619
 30
0.0
 11
654.2213562369748
 21
2243.029292968617
 31
0.0
  0
LINE
  5
1C9
330
1F
100
AcDbEntity
  8
LAY-10
  6
CONTINUOUS
 62
     7
100
AcDbLine
 10
653.2213562369802
 20
2253.779292968617
 30
0.0
 11
654.2213562369765
 21
2254.029292968618
 31
0.0
  0
LINE
  5
1CA
330
1F
100
AcDbEntity
  8
LAY-10
  6
CONTINUOUS
 62
     7
100
AcDbLine
 10
654.2213562369784
 20
2259.52929296862
 30
0.0
 11
653.2213562369802
 21
2259.779292968619
 31
0.0
  0
LINE
  5
1CB
330
1F
100
AcDbEntity
  8
LAY-10
  6
CONTINUOUS
 62
     7
100
AcDbLine
 10
654.2213562369784
 20
2259.52929296862
 30
0.0
 11
654.2213562369765
 21
2254.029292968618
 31
0.0
  0
LINE
  5
1CC
330
1F
100
AcDbEntity
  8
LAY-10
  6
CONTINUOUS
 62
     7
100
AcDbLine
 10
653.2213562369839
 20
2264.779292968616
 30
0.0
 11
654.2213562369802
 21
2265.029292968617
 31
0.0
  0
LINE
  5
1CD
330
1F
100
AcDbEntity
  8
LAY-10
  6
CONTINUOUS
 62
     7
100
AcDbLine
 10
654.2213562369802
 20
2270.529292968616
 30
0.0
 11
653.2213562369839
 21
2270.779292968617
 31
0.0
  0
LINE
  5
1CE
330
1F
100
AcDbEntity
  8
LAY-10
  6
CONTINUOUS
 62
     7
100
AcDbLine
 10
654.2213562369802
 20
2270.529292968616
 30
0.0
 11
654.2213562369802
 21
2265.029292968617
 31
0.0
  0
LINE
  5
1CF
330
1F
100
AcDbEntity
  8
LAY-10
  6
CONTINUOUS
 62
     7
100
AcDbLine
 10
653.2213562369728
 20
2227.779292968618
 30
0.0
 11
653.2213562369728
 21
2231.779292968619
 31
0.0
  0
LINE
  5
1D0
330
1F
100
AcDbEntity
  8
LAY-10
  6
CONTINUOUS
 62
     7
100
AcDbLine
 10
653.2213562369728
 20
2237.779292968618
 30
0.0
 11
653.2213562369728
 21
2242.779292968618
 31
0.0
  0
LINE
  5
1D1
330
1F
100
AcDbEntity
  8
LAY-10
  6
CONTINUOUS
 62
     7
100
AcDbLine
 10
653.2213562369766
 20
2248.779292968617
 30
0.0
 11
653.2213562369766
 21
2253.779292968617
 31
0.0
  0
LINE
  5
1D2
330
1F
100
AcDbEntity
  8
LAY-10
  6
CONTINUOUS
 62
     7
100
AcDbLine
 10
653.2213562369766
 20
2259.779292968617
 30
0.0
 11
653.2213562369802
 21
2264.779292968616
 31
0.0
  0
LINE
  5
1D3
330
1F
100
AcDbEntity
  8
LAY-10
  6
CONTINUOUS
 62
     7
100
AcDbLine
 10
653.2213562369802
 20
2270.779292968617
 30
0.0
 11
653.2213562369802
 21
2274.779292968618
 31
0.0
  0
LINE
  5
1D4
330
1F
100
AcDbEntity
  8
LAY-10
  6
CONTINUOUS
 62
     7
100
AcDbLine
 10
625.7213562369766
 20
2273.279292968621
 30
0.0
 11
633.7213562369748
 21
2273.279292968621
 31
0.0
  0
LINE
  5
1D5
330
1F
100
AcDbEntity
  8
LAY-10
  6
CONTINUOUS
 62
     7
100
AcDbLine
 10
625.7213562369802
 20
2276.279292968619
 30
0.0
 11
625.7213562369802
 21
2273.279292968621
 31
0.0
  0
LINE
  5
1D6
330
1F
100
AcDbEntity
  8
LAY-10
  6
CONTINUOUS
 62
     7
100
AcDbLine
 10
633.7213562369784
 20
2276.279292968619
 30
0.0
 11
633.7213562369784
 21
2273.279292968621
 31
0.0
  0
LINE
  5
1D7
330
1F
100
AcDbEntity
  8
LAY-10
  6
CONTINUOUS
 62
     7
100
AcDbLine
 10
653.2213562369802
 20
2274.779292968618
 30
0.0
 11
633.7213562369784
 21
2274.779292968621
 31
0.0
  0
LINE
  5
1D8
330
1F
100
AcDbEntity
  8
LAY-10
  6
CONTINUOUS
 62
     7
100
AcDbLine
 10
625.7213562369802
 20
2274.779292968621
 30
0.0
 11
606.2213562369802
 21
2274.779292968625
 31
0.0
  0
LINE
  5
1D9
330
1F
100
AcDbEntity
  8
LAY-10
  6
CONTINUOUS
 62
     7
100
AcDbLine
 10
654.7213562369692
 20
2226.279292968618
 30
0.0
 11
604.7213562369693
 21
2226.279292968626
 31
0.0
  0
CIRCLE
  5
1DA
330
1F
100
AcDbEntity
  8
LAY-10
  6
CONTINUOUS
 62
     7
100
AcDbCircle
 10
684.7213562369257
 20
2251.279292968655
 30
0.0
 40
13.00000000000001
  0
CIRCLE
  5
1DB
330
1F
100
AcDbEntity
  8
LAY-10
  6
CONTINUOUS
 62
     7
100
AcDbCircle
 10
684.7213562369075
 20
2251.279292968642
 30
0.0
 40
12.75000000000001
  0
LINE
  5
1DC
330
1F
100
AcDbEntity
  8
LAY-10
  6
CONTINUOUS
 62
     7
100
AcDbLine
 10
684.7213562368911
 20
2247.279292968658
 30
0.0
 11
678.2213562368929
 21
2251.279292968656
 31
0.0
  0
LINE
  5
1DD
330
1F
100
AcDbEntity
  8
LAY-10
  6
CONTINUOUS
 62
     7
100
AcDbLine
 10
691.2213562368947
 20
2251.279292968656
 30
0.0
 11
684.7213562368911
 21
2247.279292968658
 31
0.0
  0
LINE
  5
1DE
330
1F
100
AcDbEntity
  8
LAY-10
  6
CONTINUOUS
 62
     7
100
AcDbLine
 10
684.7213562368911
 20
2255.279292968658
 30
0.0
 11
691.2213562368947
 21
2251.279292968656
 31
0.0
  0
LINE
  5
1DF
330
1F
100
AcDbEntity
  8
LAY-10
  6
CONTINUOUS
 62
     7
100
AcDbLine
 10
678.2213562368929
 20
2251.279292968656
 30
0.0
 11
684.7213562368911
 21
2255.279292968658
 31
0.0
  0
LINE
  5
1E0
330
1F
100
AcDbEntity
  8
LAY-10
  6
CONTINUOUS
 62
     7
100
AcDbLine
 10
688.7213562368966
 20
2261.779292968658
 30
0.0
 11
680.7213562368947
 21
2261.779292968658
 31
0.0
  0
LINE
  5
1E1
330
1F
100
AcDbEntity
  8
LAY-10
  6
CONTINUOUS
 62
     7
100
AcDbLine
 10
688.7213562368966
 20
2261.779292968658
 30
0.0
 11
688.7213562368966
 21
2263.385592981459
 31
0.0
  0
LINE
  5
1E2
330
1F
100
AcDbEntity
  8
LAY-10
  6
CONTINUOUS
 62
     7
100
AcDbLine
 10
680.7213562368947
 20
2261.779292968658
 30
0.0
 11
680.7213562368947
 21
2263.385592981459
 31
0.0
  0
LINE
  5
1E3
330
1F
100
AcDbEntity
  8
LAY-10
  6
CONTINUOUS
 62
     7
100
AcDbLine
 10
654.7213562369657
 20
1152.279292968588
 30
0.0
 11
654.721356236962
 21
1202.279292968582
 31
0.0
  0
LINE
  5
1E4
330
1F
100
AcDbEntity
  8
LAY-10
  6
CONTINUOUS
 62
     7
100
AcDbLine
 10
654.7213562369657
 20
1152.279292968588
 30
0.0
 11
604.7213562369675
 21
1152.279292968581
 31
0.0
  0
LINE
  5
1E5
330
1F
100
AcDbEntity
  8
LAY-10
  6
CONTINUOUS
 62
     7
100
AcDbLine
 10
604.7213562369675
 20
1152.279292968581
 30
0.0
 11
604.7213562369584
 21
1202.279292968575
 31
0.0
  0
LINE
  5
1E6
330
1F
100
AcDbEntity
  8
LAY-10
  6
CONTINUOUS
 62
     7
100
AcDbLine
 10
606.2213562369675
 20
1153.779292968574
 30
0.0
 11
606.2213562369675
 21
1157.779292968577
 31
0.0
  0
LINE
  5
1E7
330
1F
100
AcDbEntity
  8
LAY-10
  6
CONTINUOUS
 62
     7
100
AcDbLine
 10
606.221356236962
 20
1200.779292968576
 30
0.0
 11
653.221356236962
 21
1200.779292968583
 31
0.0
  0
LINE
  5
1E8
330
1F
100
AcDbEntity
  8
LAY-10
  6
CONTINUOUS
 62
     7
100
AcDbLine
 10
606.2213562369639
 20
1179.779292968576
 30
0.0
 11
653.2213562369637
 21
1179.779292968583
 31
0.0
  0
LINE
  5
1E9
330
1F
100
AcDbEntity
  8
LAY-10
  6
CONTINUOUS
 62
     7
100
AcDbLine
 10
606.2213562369639
 20
1174.779292968577
 30
0.0
 11
653.2213562369657
 21
1174.779292968583
 31
0.0
  0
LINE
  5
1EA
330
1F
100
AcDbEntity
  8
LAY-10
  6
CONTINUOUS
 62
     7
100
AcDbLine
 10
653.221356236962
 20
1185.779292968583
 30
0.0
 11
606.221356236962
 21
1185.779292968576
 31
0.0
  0
LINE
  5
1EB
330
1F
100
AcDbEntity
  8
LAY-10
  6
CONTINUOUS
 62
     7
100
AcDbLine
 10
653.221356236962
 20
1190.779292968581
 30
0.0
 11
606.221356236962
 21
1190.779292968577
 31
0.0
  0
LINE
  5
1EC
330
1F
100
AcDbEntity
  8
LAY-10
  6
CONTINUOUS
 62
     7
100
AcDbLine
 10
653.2213562369584
 20
1196.779292968581
 30
0.0
 11
606.221356236962
 21
1196.779292968575
 31
0.0
  0
LINE
  5
1ED
330
1F
100
AcDbEntity
  8
LAY-10
  6
CONTINUOUS
 62
     7
100
AcDbLine
 10
653.221356236962
 20
1168.779292968585
 30
0.0
 11
606.2213562369639
 21
1168.779292968578
 31
0.0
  0
LINE
  5
1EE
330
1F
100
AcDbEntity
  8
LAY-10
  6
CONTINUOUS
 62
     7
100
AcDbLine
 10
653.2213562369675
 20
1163.779292968585
 30
0.0
 11
606.2213562369639
 21
1163.779292968578
 31
0.0
  0
LINE
  5
1EF
330
1F
100
AcDbEntity
  8
LAY-10
  6
CONTINUOUS
 62
     7
100
AcDbLine
 10
653.221356236962
 20
1157.779292968584
 30
0.0
 11
606.2213562369639
 21
1157.779292968577
 31
0.0
  0
LINE
  5
1F0
330
1F
100
AcDbEntity
  8
LAY-10
  6
CONTINUOUS
 62
     7
100
AcDbLine
 10
606.221356236962
 20
1196.779292968575
 30
0.0
 11
605.2213562369602
 21
1196.529292968577
 31
0.0
  0
LINE
  5
1F1
330
1F
100
AcDbEntity
  8
LAY-10
  6
CONTINUOUS
 62
     7
100
AcDbLine
 10
605.2213562369602
 20
1191.029292968576
 30
0.0
 11
606.221356236962
 21
1190.779292968577
 31
0.0
  0
LINE
  5
1F2
330
1F
100
AcDbEntity
  8
LAY-10
  6
CONTINUOUS
 62
     7
100
AcDbLine
 10
605.2213562369602
 20
1191.029292968576
 30
0.0
 11
605.2213562369602
 21
1196.529292968577
 31
0.0
  0
LINE
  5
1F3
330
1F
100
AcDbEntity
  8
LAY-10
  6
CONTINUOUS
 62
     7
100
AcDbLine
 10
606.221356236962
 20
1196.779292968575
 30
0.0
 11
606.221356236962
 21
1200.779292968576
 31
0.0
  0
LINE
  5
1F4
330
1F
100
AcDbEntity
  8
LAY-10
  6
CONTINUOUS
 62
     7
100
AcDbLine
 10
606.221356236962
 20
1185.779292968576
 30
0.0
 11
605.221356236962
 21
1185.529292968575
 31
0.0
  0
LINE
  5
1F5
330
1F
100
AcDbEntity
  8
LAY-10
  6
CONTINUOUS
 62
     7
100
AcDbLine
 10
605.221356236962
 20
1180.029292968576
 30
0.0
 11
606.221356236962
 21
1179.779292968576
 31
0.0
  0
LINE
  5
1F6
330
1F
100
AcDbEntity
  8
LAY-10
  6
CONTINUOUS
 62
     7
100
AcDbLine
 10
605.221356236962
 20
1180.029292968576
 30
0.0
 11
605.221356236962
 21
1185.529292968575
 31
0.0
  0
LINE
  5
1F7
330
1F
100
AcDbEntity
  8
LAY-10
  6
CONTINUOUS
 62
     7
100
AcDbLine
 10
606.221356236962
 20
1174.779292968577
 30
0.0
 11
605.221356236962
 21
1174.529292968576
 31
0.0
  0
LINE
  5
1F8
330
1F
100
AcDbEntity
  8
LAY-10
  6
CONTINUOUS
 62
     7
100
AcDbLine
 10
605.2213562369639
 20
1169.029292968575
 30
0.0
 11
606.2213562369639
 21
1168.779292968576
 31
0.0
  0
LINE
  5
1F9
330
1F
100
AcDbEntity
  8
LAY-10
  6
CONTINUOUS
 62
     7
100
AcDbLine
 10
605.2213562369639
 20
1169.029292968575
 30
0.0
 11
605.221356236962
 21
1174.529292968576
 31
0.0
  0
LINE
  5
1FA
330
1F
100
AcDbEntity
  8
LAY-10
  6
CONTINUOUS
 62
     7
100
AcDbLine
 10
606.2213562369639
 20
1163.779292968577
 30
0.0
 11
605.2213562369657
 21
1163.529292968577
 31
0.0
  0
LINE
  5
1FB
330
1F
100
AcDbEntity
  8
LAY-10
  6
CONTINUOUS
 62
     7
100
AcDbLine
 10
605.2213562369657
 20
1158.029292968577
 30
0.0
 11
606.2213562369639
 21
1157.779292968577
 31
0.0
  0
LINE
  5
1FC
330
1F
100
AcDbEntity
  8
LAY-10
  6
CONTINUOUS
 62
     7
100
AcDbLine
 10
605.2213562369657
 20
1158.029292968577
 30
0.0
 11
605.2213562369657
 21
1163.529292968577
 31
0.0
  0
LINE
  5
1FD
330
1F
100
AcDbEntity
  8
LAY-10
  6
CONTINUOUS
 62
     7
100
AcDbLine
 10
606.2213562369639
 20
1185.779292968576
 30
0.0
 11
606.2213562369639
 21
1190.779292968577
 31
0.0
  0
LINE
  5
1FE
330
1F
100
AcDbEntity
  8
LAY-10
  6
CONTINUOUS
 62
     7
100
AcDbLine
 10
606.2213562369639
 20
1174.779292968577
 30
0.0
 11
606.2213562369639
 21
1179.779292968576
 31
0.0
  0
LINE
  5
1FF
330
1F
100
AcDbEntity
  8
LAY-10
  6
CONTINUOUS
 62
     7
100
AcDbLine
 10
606.2213562369675
 20
1163.779292968577
 30
0.0
 11
606.2213562369639
 21
1168.779292968578
 31
0.0
  0
LINE
  5
200
330
1F
100
AcDbEntity
  8
LAY-10
  6
CONTINUOUS
 62
     7
100
AcDbLine
 10
653.2213562369657
 20
1196.779292968583
 30
0.0
 11
654.2213562369657
 21
1196.529292968584
 31
0.0
  0
LINE
  5
201
330
1F
100
AcDbEntity
  8
LAY-10
  6
CONTINUOUS
 62
     7
100
AcDbLine
 10
654.2213562369693
 20
1191.029292968585
 30
0.0
 11
653.2213562369657
 21
1190.779292968584
 31
0.0
  0
LINE
  5
202
330
1F
100
AcDbEntity
  8
LAY-10
  6
CONTINUOUS
 62
     7
100
AcDbLine
 10
654.2213562369693
 20
1191.029292968585
 30
0.0
 11
654.2213562369657
 21
1196.529292968584
 31
0.0
  0
LINE
  5
203
330
1F
100
AcDbEntity
  8
LAY-10
  6
CONTINUOUS
 62
     7
100
AcDbLine
 10
653.2213562369675
 20
1185.779292968583
 30
0.0
 11
654.2213562369657
 21
1185.529292968583
 31
0.0
  0
LINE
  5
204
330
1F
100
AcDbEntity
  8
LAY-10
  6
CONTINUOUS
 62
     7
100
AcDbLine
 10
654.2213562369693
 20
1180.029292968581
 30
0.0
 11
653.2213562369675
 21
1179.779292968583
 31
0.0
  0
LINE
  5
205
330
1F
100
AcDbEntity
  8
LAY-10
  6
CONTINUOUS
 62
     7
100
AcDbLine
 10
654.2213562369693
 20
1180.029292968581
 30
0.0
 11
654.2213562369657
 21
1185.529292968583
 31
0.0
  0
LINE
  5
206
330
1F
100
AcDbEntity
  8
LAY-10
  6
CONTINUOUS
 62
     7
100
AcDbLine
 10
653.2213562369711
 20
1174.779292968583
 30
0.0
 11
654.2213562369693
 21
1174.529292968583
 31
0.0
  0
LINE
  5
207
330
1F
100
AcDbEntity
  8
LAY-10
  6
CONTINUOUS
 62
     7
100
AcDbLine
 10
654.2213562369693
 20
1169.029292968581
 30
0.0
 11
653.2213562369711
 21
1168.779292968581
 31
0.0
  0
LINE
  5
208
330
1F
100
AcDbEntity
  8
LAY-10
  6
CONTINUOUS
 62
     7
100
AcDbLine
 10
654.2213562369693
 20
1169.029292968581
 30
0.0
 11
654.2213562369693
 21
1174.529292968583
 31
0.0
  0
LINE
  5
209
330
1F
100
AcDbEntity
  8
LAY-10
  6
CONTINUOUS
 62
     7
100
AcDbLine
 10
653.2213562369728
 20
1163.779292968585
 30
0.0
 11
654.221356236973
 21
1163.529292968582
 31
0.0
  0
LINE
  5
20A
330
1F
100
AcDbEntity
  8
LAY-10
  6
CONTINUOUS
 62
     7
100
AcDbLine
 10
654.221356236973
 20
1158.029292968585
 30
0.0
 11
653.2213562369728
 21
1157.779292968583
 31
0.0
  0
LINE
  5
20B
330
1F
100
AcDbEntity
  8
LAY-10
  6
CONTINUOUS
 62
     7
100
AcDbLine
 10
654.221356236973
 20
1158.029292968585
 30
0.0
 11
654.221356236973
 21
1163.529292968582
 31
0.0
  0
LINE
  5
20C
330
1F
100
AcDbEntity
  8
LAY-10
  6
CONTINUOUS
 62
     7
100
AcDbLine
 10
653.221356236962
 20
1200.779292968583
 30
0.0
 11
653.221356236962
 21
1196.779292968581
 31
0.0
  0
LINE
  5
20D
330
1F
100
AcDbEntity
  8
LAY-10
  6
CONTINUOUS
 62
     7
100
AcDbLine
 10
653.221356236962
 20
1190.779292968581
 30
0.0
 11
653.221356236962
 21
1185.779292968583
 31
0.0
  0
LINE
  5
20E
330
1F
100
AcDbEntity
  8
LAY-10
  6
CONTINUOUS
 62
     7
100
AcDbLine
 10
653.2213562369637
 20
1179.779292968583
 30
0.0
 11
653.2213562369657
 21
1174.779292968583
 31
0.0
  0
LINE
  5
20F
330
1F
100
AcDbEntity
  8
LAY-10
  6
CONTINUOUS
 62
     7
100
AcDbLine
 10
653.2213562369657
 20
1168.779292968585
 30
0.0
 11
653.2213562369675
 21
1163.779292968585
 31
0.0
  0
LINE
  5
210
330
1F
100
AcDbEntity
  8
LAY-10
  6
CONTINUOUS
 62
     7
100
AcDbLine
 10
653.2213562369675
 20
1157.779292968584
 30
0.0
 11
653.2213562369711
 21
1153.779292968582
 31
0.0
  0
LINE
  5
211
330
1F
100
AcDbEntity
  8
LAY-10
  6
CONTINUOUS
 62
     7
100
AcDbLine
 10
625.7213562369657
 20
1155.279292968579
 30
0.0
 11
633.7213562369657
 21
1155.279292968579
 31
0.0
  0
LINE
  5
212
330
1F
100
AcDbEntity
  8
LAY-10
  6
CONTINUOUS
 62
     7
100
AcDbLine
 10
625.7213562369693
 20
1152.279292968581
 30
0.0
 11
625.7213562369693
 21
1155.279292968579
 31
0.0
  0
LINE
  5
213
330
1F
100
AcDbEntity
  8
LAY-10
  6
CONTINUOUS
 62
     7
100
AcDbLine
 10
633.7213562369693
 20
1152.279292968581
 30
0.0
 11
633.7213562369693
 21
1155.279292968579
 31
0.0
  0
LINE
  5
214
330
1F
100
AcDbEntity
  8
LAY-10
  6
CONTINUOUS
 62
     7
100
AcDbLine
 10
653.2213562369711
 20
1153.779292968582
 30
0.0
 11
633.7213562369693
 21
1153.779292968579
 31
0.0
  0
LINE
  5
215
330
1F
100
AcDbEntity
  8
LAY-10
  6
CONTINUOUS
 62
     7
100
AcDbLine
 10
625.7213562369693
 20
1153.779292968579
 30
0.0
 11
606.2213562369675
 21
1153.779292968574
 31
0.0
  0
LINE
  5
216
330
1F
100
AcDbEntity
  8
LAY-10
  6
CONTINUOUS
 62
     7
100
AcDbLine
 10
654.721356236962
 20
1202.279292968582
 30
0.0
 11
604.7213562369584
 21
1202.279292968575
 31
0.0
  0
CIRCLE
  5
217
330
1F
100
AcDbEntity
  8
LAY-10
  6
CONTINUOUS
 62
     7
100
AcDbCircle
 10
684.7213562369146
 20
1177.279292968545
 30
0.0
 40
13.00000000000001
  0
CIRCLE
  5
218
330
1F
100
AcDbEntity
  8
LAY-10
  6
CONTINUOUS
 62
     7
100
AcDbCircle
 10
684.7213562369146
 20
1177.279292968558
 30
0.0
 40
12.75000000000001
  0
LINE
  5
219
330
1F
100
AcDbEntity
  8
LAY-10
  6
CONTINUOUS
 62
     7
100
AcDbLine
 10
684.7213562369293
 20
1181.279292968542
 30
0.0
 11
691.2213562369275
 21
1177.279292968544
 31
0.0
  0
LINE
  5
21A
330
1F
100
AcDbEntity
  8
LAY-10
  6
CONTINUOUS
 62
     7
100
AcDbLine
 10
678.2213562369257
 20
1177.279292968544
 30
0.0
 11
684.7213562369293
 21
1181.279292968542
 31
0.0
  0
LINE
  5
21B
330
1F
100
AcDbEntity
  8
LAY-10
  6
CONTINUOUS
 62
     7
100
AcDbLine
 10
684.7213562369293
 20
1173.279292968543
 30
0.0
 11
678.2213562369257
 21
1177.279292968544
 31
0.0
  0
LINE
  5
21C
330
1F
100
AcDbEntity
  8
LAY-10
  6
CONTINUOUS
 62
     7
100
AcDbLine
 10
691.2213562369275
 20
1177.279292968544
 30
0.0
 11
684.7213562369293
 21
1173.279292968543
 31
0.0
  0
LINE
  5
21D
330
1F
100
AcDbEntity
  8
LAY-10
  6
CONTINUOUS
 62
     7
100
AcDbLine
 10
680.7213562369257
 20
1166.779292968542
 30
0.0
 11
688.7213562369257
 21
1166.779292968542
 31
0.0
  0
LINE
  5
21E
330
1F
100
AcDbEntity
  8
LAY-10
  6
CONTINUOUS
 62
     7
100
AcDbLine
 10
680.7213562369257
 20
1166.779292968542
 30
0.0
 11
680.7213562369257
 21
1165.172992955741
 31
0.0
  0
LINE
  5
21F
330
1F
100
AcDbEntity
  8
LAY-10
  6
CONTINUOUS
 62
     7
100
AcDbLine
 10
688.7213562369257
 20
1166.779292968542
 30
0.0
 11
688.7213562369257
 21
1165.172992955741
 31
0.0
  0
LINE
  5
220
330
1F
100
AcDbEntity
  8
LAY-10
  6
CONTINUOUS
 62
     7
100
AcDbLine
 10
527.8228714272341
 20
1959.779292968618
 30
0.0
 11
527.8228714272341
 21
1968.779292968619
 31
0.0
  0
LINE
  5
221
330
1F
100
AcDbEntity
  8
LAY-10
  6
CONTINUOUS
 62
     7
100
AcDbLine
 10
563.2213562370166
 20
1959.779292968619
 30
0.0
 11
527.8228714272341
 21
1959.779292968619
 31
0.0
  0
LINE
  5
222
330
1F
100
AcDbEntity
  8
LAY-10
  6
CONTINUOUS
 62
     7
100
AcDbLine
 10
563.2213562370166
 20
1968.779292968617
 30
0.0
 11
527.8228714272341
 21
1968.779292968617
 31
0.0
  0
LINE
  5
223
330
1F
100
AcDbEntity
  8
LAY-10
  6
CONTINUOUS
 62
     7
100
AcDbLine
 10
527.8228714272341
 20
1468.779292968532
 30
0.0
 11
527.8228714272341
 21
1459.779292968529
 31
0.0
  0
LINE
  5
224
330
1F
100
AcDbEntity
  8
LAY-10
  6
CONTINUOUS
 62
     7
100
AcDbLine
 10
563.2213562370166
 20
1468.77929296853
 30
0.0
 11
527.8228714272341
 21
1468.77929296853
 31
0.0
  0
LINE
  5
225
330
1F
100
AcDbEntity
  8
LAY-10
  6
CONTINUOUS
 62
     7
100
AcDbLine
 10
563.2213562370166
 20
1459.779292968531
 30
0.0
 11
527.8228714272341
 21
1459.779292968531
 31
0.0
  0
LINE
  5
226
330
1F
100
AcDbEntity
  8
LAY-10
  6
CONTINUOUS
 62
     7
100
AcDbLine
 10
569.2213562370202
 20
1139.279292968401
 30
0.0
 11
569.2213562370221
 21
2289.27929296865
 31
0.0
  0
LINE
  5
227
330
1F
100
AcDbEntity
  8
LAY-10
  6
CONTINUOUS
 62
     7
100
AcDbLine
 10
571.2213562370184
 20
1142.2792929685
 30
0.0
 11
571.2213562370202
 21
2286.279292968648
 31
0.0
  0
LINE
  5
228
330
1F
100
AcDbEntity
  8
LAY-10
  6
CONTINUOUS
 62
     7
100
AcDbLine
 10
563.2213562370166
 20
1133.279292968401
 30
0.0
 11
563.2213562370184
 21
2295.27929296865
 31
0.0
  0
LINE
  5
229
330
1F
100
AcDbEntity
  8
LAY-10
  6
CONTINUOUS
 62
     7
100
AcDbLine
 10
1573.221356237008
 20
1133.279292968401
 30
0.0
 11
1573.221356237009
 21
2295.27929296865
 31
0.0
  0
LINE
  5
22A
330
1F
100
AcDbEntity
  8
LAY-10
  6
CONTINUOUS
 62
     7
100
AcDbLine
 10
1567.221356237008
 20
1139.279292968401
 30
0.0
 11
1567.221356237011
 21
2289.27929296865
 31
0.0
  0
LINE
  5
22B
330
1F
100
AcDbEntity
  8
LAY-10
  6
CONTINUOUS
 62
     7
100
AcDbLine
 10
1573.221356237011
 20
2295.27929296875
 30
0.0
 11
563.2213562370184
 21
2295.27929296875
 31
0.0
  0
LINE
  5
22C
330
1F
100
AcDbEntity
  8
LAY-10
  6
CONTINUOUS
 62
     7
100
AcDbLine
 10
1573.221356237008
 20
1133.279292968401
 30
0.0
 11
563.2213562370166
 21
1133.279292968401
 31
0.0
  0
LINE
  5
22D
330
1F
100
AcDbEntity
  8
LAY-10
  6
CONTINUOUS
 62
     7
100
AcDbLine
 10
1567.221356237008
 20
1139.279292968403
 30
0.0
 11
569.2213562370202
 21
1139.279292968403
 31
0.0
  0
LINE
  5
22E
330
1F
100
AcDbEntity
  8
LAY-10
  6
CONTINUOUS
 62
     7
100
AcDbLine
 10
1067.221356237026
 20
1142.279292968499
 30
0.0
 11
1067.22135623703
 21
2286.279292968647
 31
0.0
  0
LINE
  5
22F
330
1F
100
AcDbEntity
  8
LAY-10
  6
CONTINUOUS
 62
     7
100
AcDbLine
 10
1067.221356237026
 20
1142.279292968499
 30
0.0
 11
571.2213562370184
 21
1142.279292968501
 31
0.0
  0
LINE
  5
230
330
1F
100
AcDbEntity
  8
LAY-10
  6
CONTINUOUS
 62
     7
100
AcDbLine
 10
949.7213562370948
 20
2261.779292968658
 30
0.0
 11
949.7213562370948
 21
2263.385592981457
 31
0.0
  0
LINE
  5
231
330
1F
100
AcDbEntity
  8
LAY-10
  6
CONTINUOUS
 62
     7
100
AcDbLine
 10
957.7213562370935
 20
2261.779292968658
 30
0.0
 11
957.7213562370935
 21
2263.385592981457
 31
0.0
  0
LINE
  5
232
330
1F
100
AcDbEntity
  8
LAY-10
  6
CONTINUOUS
 62
     7
100
AcDbLine
 10
957.7213562370935
 20
2261.779292968658
 30
0.0
 11
949.7213562370948
 21
2261.779292968658
 31
0.0
  0
LINE
  5
233
330
1F
100
AcDbEntity
  8
LAY-10
  6
CONTINUOUS
 62
     7
100
AcDbLine
 10
947.2213562370912
 20
2251.279292968654
 30
0.0
 11
953.7213562370912
 21
2255.279292968657
 31
0.0
  0
LINE
  5
234
330
1F
100
AcDbEntity
  8
LAY-10
  6
CONTINUOUS
 62
     7
100
AcDbLine
 10
953.7213562370912
 20
2255.279292968657
 30
0.0
 11
960.221356237093
 21
2251.279292968654
 31
0.0
  0
LINE
  5
235
330
1F
100
AcDbEntity
  8
LAY-10
  6
CONTINUOUS
 62
     7
100
AcDbLine
 10
960.221356237093
 20
2251.279292968654
 30
0.0
 11
953.7213562370912
 21
2247.279292968656
 31
0.0
  0
LINE
  5
236
330
1F
100
AcDbEntity
  8
LAY-10
  6
CONTINUOUS
 62
     7
100
AcDbLine
 10
953.7213562370912
 20
2247.279292968656
 30
0.0
 11
947.2213562370912
 21
2251.279292968654
 31
0.0
  0
CIRCLE
  5
237
330
1F
100
AcDbEntity
  8
LAY-10
  6
CONTINUOUS
 62
     7
100
AcDbCircle
 10
953.7213562371057
 20
2251.279292968641
 30
0.0
 40
12.75000000000001
  0
CIRCLE
  5
238
330
1F
100
AcDbEntity
  8
LAY-10
  6
CONTINUOUS
 62
     7
100
AcDbCircle
 10
953.7213562371148
 20
2251.279292968654
 30
0.0
 40
13.00000000000001
  0
LINE
  5
239
330
1F
100
AcDbEntity
  8
LAY-10
  6
CONTINUOUS
 62
     7
100
AcDbLine
 10
983.7213562370681
 20
2226.279292968617
 30
0.0
 11
1033.721356237072
 21
2226.279292968624
 31
0.0
  0
LINE
  5
23A
330
1F
100
AcDbEntity
  8
LAY-10
  6
CONTINUOUS
 62
     7
100
AcDbLine
 10
1012.721356237058
 20
2274.779292968619
 30
0.0
 11
1032.22135623706
 21
2274.779292968623
 31
0.0
  0
LINE
  5
23B
330
1F
100
AcDbEntity
  8
LAY-10
  6
CONTINUOUS
 62
     7
100
AcDbLine
 10
985.2213562370607
 20
2274.779292968617
 30
0.0
 11
1004.72135623706
 21
2274.779292968619
 31
0.0
  0
LINE
  5
23C
330
1F
100
AcDbEntity
  8
LAY-10
  6
CONTINUOUS
 62
     7
100
AcDbLine
 10
1004.72135623706
 20
2276.279292968617
 30
0.0
 11
1004.72135623706
 21
2273.279292968619
 31
0.0
  0
LINE
  5
23D
330
1F
100
AcDbEntity
  8
LAY-10
  6
CONTINUOUS
 62
     7
100
AcDbLine
 10
1012.721356237058
 20
2276.279292968617
 30
0.0
 11
1012.721356237058
 21
2273.279292968619
 31
0.0
  0
LINE
  5
23E
330
1F
100
AcDbEntity
  8
LAY-10
  6
CONTINUOUS
 62
     7
100
AcDbLine
 10
1012.721356237064
 20
2273.279292968619
 30
0.0
 11
1004.721356237062
 21
2273.279292968619
 31
0.0
  0
LINE
  5
23F
330
1F
100
AcDbEntity
  8
LAY-10
  6
CONTINUOUS
 62
     7
100
AcDbLine
 10
985.2213562370607
 20
2270.779292968615
 30
0.0
 11
985.2213562370607
 21
2274.779292968617
 31
0.0
  0
LINE
  5
240
330
1F
100
AcDbEntity
  8
LAY-10
  6
CONTINUOUS
 62
     7
100
AcDbLine
 10
985.2213562370639
 20
2259.779292968615
 30
0.0
 11
985.2213562370607
 21
2264.779292968614
 31
0.0
  0
LINE
  5
241
330
1F
100
AcDbEntity
  8
LAY-10
  6
CONTINUOUS
 62
     7
100
AcDbLine
 10
985.2213562370639
 20
2248.779292968616
 30
0.0
 11
985.2213562370639
 21
2253.779292968615
 31
0.0
  0
LINE
  5
242
330
1F
100
AcDbEntity
  8
LAY-10
  6
CONTINUOUS
 62
     7
100
AcDbLine
 10
985.2213562370675
 20
2237.779292968617
 30
0.0
 11
985.2213562370675
 21
2242.779292968617
 31
0.0
  0
LINE
  5
243
330
1F
100
AcDbEntity
  8
LAY-10
  6
CONTINUOUS
 62
     7
100
AcDbLine
 10
985.2213562370675
 20
2227.779292968617
 30
0.0
 11
985.2213562370675
 21
2231.779292968617
 31
0.0
  0
LINE
  5
244
330
1F
100
AcDbEntity
  8
LAY-10
  6
CONTINUOUS
 62
     7
100
AcDbLine
 10
984.2213562370586
 20
2270.529292968614
 30
0.0
 11
984.2213562370586
 21
2265.029292968615
 31
0.0
  0
LINE
  5
245
330
1F
100
AcDbEntity
  8
LAY-10
  6
CONTINUOUS
 62
     7
100
AcDbLine
 10
984.2213562370586
 20
2270.529292968614
 30
0.0
 11
985.2213562370566
 21
2270.779292968616
 31
0.0
  0
LINE
  5
246
330
1F
100
AcDbEntity
  8
LAY-10
  6
CONTINUOUS
 62
     7
100
AcDbLine
 10
985.2213562370566
 20
2264.779292968614
 30
0.0
 11
984.2213562370586
 21
2265.029292968615
 31
0.0
  0
LINE
  5
247
330
1F
100
AcDbEntity
  8
LAY-10
  6
CONTINUOUS
 62
     7
100
AcDbLine
 10
984.2213562370608
 20
2259.529292968618
 30
0.0
 11
984.2213562370608
 21
2254.029292968617
 31
0.0
  0
LINE
  5
248
330
1F
100
AcDbEntity
  8
LAY-10
  6
CONTINUOUS
 62
     7
100
AcDbLine
 10
984.2213562370608
 20
2259.529292968618
 30
0.0
 11
985.2213562370607
 21
2259.779292968618
 31
0.0
  0
LINE
  5
249
330
1F
100
AcDbEntity
  8
LAY-10
  6
CONTINUOUS
 62
     7
100
AcDbLine
 10
985.2213562370607
 20
2253.779292968615
 30
0.0
 11
984.2213562370608
 21
2254.029292968617
 31
0.0
  0
LINE
  5
24A
330
1F
100
AcDbEntity
  8
LAY-10
  6
CONTINUOUS
 62
     7
100
AcDbLine
 10
984.2213562370608
 20
2248.529292968618
 30
0.0
 11
984.2213562370625
 21
2243.029292968617
 31
0.0
  0
LINE
  5
24B
330
1F
100
AcDbEntity
  8
LAY-10
  6
CONTINUOUS
 62
     7
100
AcDbLine
 10
984.2213562370608
 20
2248.529292968618
 30
0.0
 11
985.2213562370607
 21
2248.779292968616
 31
0.0
  0
LINE
  5
24C
330
1F
100
AcDbEntity
  8
LAY-10
  6
CONTINUOUS
 62
     7
100
AcDbLine
 10
985.2213562370607
 20
2242.779292968617
 30
0.0
 11
984.2213562370625
 21
2243.029292968617
 31
0.0
  0
LINE
  5
24D
330
1F
100
AcDbEntity
  8
LAY-10
  6
CONTINUOUS
 62
     7
100
AcDbLine
 10
984.2213562370608
 20
2237.529292968615
 30
0.0
 11
984.2213562370625
 21
2232.029292968615
 31
0.0
  0
LINE
  5
24E
330
1F
100
AcDbEntity
  8
LAY-10
  6
CONTINUOUS
 62
     7
100
AcDbLine
 10
984.2213562370608
 20
2237.529292968615
 30
0.0
 11
985.2213562370639
 21
2237.779292968614
 31
0.0
  0
LINE
  5
24F
330
1F
100
AcDbEntity
  8
LAY-10
  6
CONTINUOUS
 62
     7
100
AcDbLine
 10
985.2213562370639
 20
2231.779292968617
 30
0.0
 11
984.2213562370625
 21
2232.029292968615
 31
0.0
  0
LINE
  5
250
330
1F
100
AcDbEntity
  8
LAY-10
  6
CONTINUOUS
 62
     7
100
AcDbLine
 10
1032.22135623706
 20
2264.779292968621
 30
0.0
 11
1032.221356237064
 21
2259.77929296862
 31
0.0
  0
LINE
  5
251
330
1F
100
AcDbEntity
  8
LAY-10
  6
CONTINUOUS
 62
     7
100
AcDbLine
 10
1032.221356237064
 20
2253.779292968622
 30
0.0
 11
1032.221356237064
 21
2248.779292968622
 31
0.0
  0
LINE
  5
252
330
1F
100
AcDbEntity
  8
LAY-10
  6
CONTINUOUS
 62
     7
100
AcDbLine
 10
1032.221356237068
 20
2242.779292968622
 30
0.0
 11
1032.221356237068
 21
2237.779292968622
 31
0.0
  0
LINE
  5
253
330
1F
100
AcDbEntity
  8
LAY-10
  6
CONTINUOUS
 62
     7
100
AcDbLine
 10
1033.221356237066
 20
2270.529292968622
 30
0.0
 11
1033.221356237066
 21
2265.029292968622
 31
0.0
  0
LINE
  5
254
330
1F
100
AcDbEntity
  8
LAY-10
  6
CONTINUOUS
 62
     7
100
AcDbLine
 10
1033.221356237066
 20
2270.529292968622
 30
0.0
 11
1032.221356237064
 21
2270.779292968622
 31
0.0
  0
LINE
  5
255
330
1F
100
AcDbEntity
  8
LAY-10
  6
CONTINUOUS
 62
     7
100
AcDbLine
 10
1032.221356237064
 20
2264.779292968621
 30
0.0
 11
1033.221356237066
 21
2265.029292968622
 31
0.0
  0
LINE
  5
256
330
1F
100
AcDbEntity
  8
LAY-10
  6
CONTINUOUS
 62
     7
100
AcDbLine
 10
1033.221356237068
 20
2259.529292968624
 30
0.0
 11
1033.221356237068
 21
2254.029292968622
 31
0.0
  0
LINE
  5
257
330
1F
100
AcDbEntity
  8
LAY-10
  6
CONTINUOUS
 62
     7
100
AcDbLine
 10
1033.221356237068
 20
2259.529292968624
 30
0.0
 11
1032.221356237068
 21
2259.779292968621
 31
0.0
  0
LINE
  5
258
330
1F
100
AcDbEntity
  8
LAY-10
  6
CONTINUOUS
 62
     7
100
AcDbLine
 10
1032.221356237068
 20
2253.779292968622
 30
0.0
 11
1033.221356237068
 21
2254.029292968622
 31
0.0
  0
LINE
  5
259
330
1F
100
AcDbEntity
  8
LAY-10
  6
CONTINUOUS
 62
     7
100
AcDbLine
 10
1033.221356237068
 20
2248.529292968621
 30
0.0
 11
1033.221356237068
 21
2243.029292968622
 31
0.0
  0
LINE
  5
25A
330
1F
100
AcDbEntity
  8
LAY-10
  6
CONTINUOUS
 62
     7
100
AcDbLine
 10
1033.221356237068
 20
2248.529292968621
 30
0.0
 11
1032.221356237068
 21
2248.779292968622
 31
0.0
  0
LINE
  5
25B
330
1F
100
AcDbEntity
  8
LAY-10
  6
CONTINUOUS
 62
     7
100
AcDbLine
 10
1032.221356237069
 20
2242.779292968622
 30
0.0
 11
1033.221356237068
 21
2243.029292968622
 31
0.0
  0
LINE
  5
25C
330
1F
100
AcDbEntity
  8
LAY-10
  6
CONTINUOUS
 62
     7
100
AcDbLine
 10
1032.221356237068
 20
2231.779292968624
 30
0.0
 11
1032.221356237068
 21
2227.779292968622
 31
0.0
  0
LINE
  5
25D
330
1F
100
AcDbEntity
  8
LAY-10
  6
CONTINUOUS
 62
     7
100
AcDbLine
 10
1033.221356237071
 20
2237.529292968622
 30
0.0
 11
1033.221356237071
 21
2232.029292968622
 31
0.0
  0
LINE
  5
25E
330
1F
100
AcDbEntity
  8
LAY-10
  6
CONTINUOUS
 62
     7
100
AcDbLine
 10
1033.221356237071
 20
2237.529292968622
 30
0.0
 11
1032.221356237069
 21
2237.779292968622
 31
0.0
  0
LINE
  5
25F
330
1F
100
AcDbEntity
  8
LAY-10
  6
CONTINUOUS
 62
     7
100
AcDbLine
 10
1032.221356237069
 20
2231.779292968622
 30
0.0
 11
1033.221356237071
 21
2232.029292968622
 31
0.0
  0
LINE
  5
260
330
1F
100
AcDbEntity
  8
LAY-10
  6
CONTINUOUS
 62
     7
100
AcDbLine
 10
985.2213562370675
 20
2270.779292968615
 30
0.0
 11
1032.221356237064
 21
2270.779292968622
 31
0.0
  0
LINE
  5
261
330
1F
100
AcDbEntity
  8
LAY-10
  6
CONTINUOUS
 62
     7
100
AcDbLine
 10
985.2213562370607
 20
2264.779292968614
 30
0.0
 11
1032.221356237064
 21
2264.77929296862
 31
0.0
  0
LINE
  5
262
330
1F
100
AcDbEntity
  8
LAY-10
  6
CONTINUOUS
 62
     7
100
AcDbLine
 10
985.2213562370675
 20
2259.779292968615
 30
0.0
 11
1032.221356237068
 21
2259.77929296862
 31
0.0
  0
LINE
  5
263
330
1F
100
AcDbEntity
  8
LAY-10
  6
CONTINUOUS
 62
     7
100
AcDbLine
 10
985.2213562370713
 20
2231.779292968617
 30
0.0
 11
1032.221356237069
 21
2231.779292968624
 31
0.0
  0
LINE
  5
264
330
1F
100
AcDbEntity
  8
LAY-10
  6
CONTINUOUS
 62
     7
100
AcDbLine
 10
985.2213562370675
 20
2237.779292968617
 30
0.0
 11
1032.221356237069
 21
2237.779292968622
 31
0.0
  0
LINE
  5
265
330
1F
100
AcDbEntity
  8
LAY-10
  6
CONTINUOUS
 62
     7
100
AcDbLine
 10
985.2213562370694
 20
2242.779292968617
 30
0.0
 11
1032.221356237069
 21
2242.779292968622
 31
0.0
  0
LINE
  5
266
330
1F
100
AcDbEntity
  8
LAY-10
  6
CONTINUOUS
 62
     7
100
AcDbLine
 10
1032.221356237064
 20
2253.779292968622
 30
0.0
 11
985.2213562370639
 21
2253.779292968615
 31
0.0
  0
LINE
  5
267
330
1F
100
AcDbEntity
  8
LAY-10
  6
CONTINUOUS
 62
     7
100
AcDbLine
 10
1032.221356237064
 20
2248.779292968622
 30
0.0
 11
985.2213562370639
 21
2248.779292968616
 31
0.0
  0
LINE
  5
268
330
1F
100
AcDbEntity
  8
LAY-10
  6
CONTINUOUS
 62
     7
100
AcDbLine
 10
1032.221356237068
 20
2227.779292968622
 30
0.0
 11
985.2213562370675
 21
2227.779292968617
 31
0.0
  0
LINE
  5
269
330
1F
100
AcDbEntity
  8
LAY-10
  6
CONTINUOUS
 62
     7
100
AcDbLine
 10
1032.22135623706
 20
2274.779292968623
 30
0.0
 11
1032.22135623706
 21
2270.779292968622
 31
0.0
  0
LINE
  5
26A
330
1F
100
AcDbEntity
  8
LAY-10
  6
CONTINUOUS
 62
     7
100
AcDbLine
 10
1033.721356237064
 20
2276.279292968617
 30
0.0
 11
1033.721356237072
 21
2226.279292968624
 31
0.0
  0
LINE
  5
26B
330
1F
100
AcDbEntity
  8
LAY-10
  6
CONTINUOUS
 62
     7
100
AcDbLine
 10
983.7213562370639
 20
2276.27929296861
 30
0.0
 11
1033.721356237064
 21
2276.279292968617
 31
0.0
  0
LINE
  5
26C
330
1F
100
AcDbEntity
  8
LAY-10
  6
CONTINUOUS
 62
     7
100
AcDbLine
 10
983.7213562370639
 20
2276.27929296861
 30
0.0
 11
983.7213562370681
 21
2226.279292968617
 31
0.0
  0
LINE
  5
26D
330
1F
100
AcDbEntity
  8
LAY-10
  6
CONTINUOUS
 62
     7
100
AcDbLine
 10
1067.22135623703
 20
2286.279292968647
 30
0.0
 11
571.2213562370202
 21
2286.279292968647
 31
0.0
  0
LINE
  5
26E
330
1F
100
AcDbEntity
  8
LAY-10
  6
CONTINUOUS
 62
     7
100
AcDbLine
 10
1567.221356237011
 20
2289.279292968748
 30
0.0
 11
569.2213562370221
 21
2289.279292968748
 31
0.0
  0
LINE
  5
26F
330
1F
100
AcDbEntity
  8
LAY-10
  6
CONTINUOUS
 62
     7
100
AcDbLine
 10
983.7213562370439
 20
1152.279292968488
 30
0.0
 11
983.7213562370512
 21
1202.279292968482
 31
0.0
  0
LINE
  5
270
330
1F
100
AcDbEntity
  8
LAY-10
  6
CONTINUOUS
 62
     7
100
AcDbLine
 10
983.7213562370439
 20
1152.279292968488
 30
0.0
 11
1033.721356237044
 21
1152.279292968481
 31
0.0
  0
LINE
  5
271
330
1F
100
AcDbEntity
  8
LAY-10
  6
CONTINUOUS
 62
     7
100
AcDbLine
 10
1033.721356237044
 20
1152.279292968481
 30
0.0
 11
1033.721356237052
 21
1202.279292968474
 31
0.0
  0
LINE
  5
272
330
1F
100
AcDbEntity
  8
LAY-10
  6
CONTINUOUS
 62
     7
100
AcDbLine
 10
1032.22135623704
 20
1153.779292968475
 30
0.0
 11
1032.22135623704
 21
1157.779292968477
 31
0.0
  0
LINE
  5
273
330
1F
100
AcDbEntity
  8
LAY-10
  6
CONTINUOUS
 62
     7
100
AcDbLine
 10
1032.221356237048
 20
1200.779292968476
 30
0.0
 11
985.2213562370475
 21
1200.779292968482
 31
0.0
  0
LINE
  5
274
330
1F
100
AcDbEntity
  8
LAY-10
  6
CONTINUOUS
 62
     7
100
AcDbLine
 10
1032.221356237044
 20
1179.779292968476
 30
0.0
 11
985.221356237044
 21
1179.779292968483
 31
0.0
  0
LINE
  5
275
330
1F
100
AcDbEntity
  8
LAY-10
  6
CONTINUOUS
 62
     7
100
AcDbLine
 10
1032.221356237044
 20
1174.779292968476
 30
0.0
 11
985.221356237044
 21
1174.779292968484
 31
0.0
  0
LINE
  5
276
330
1F
100
AcDbEntity
  8
LAY-10
  6
CONTINUOUS
 62
     7
100
AcDbLine
 10
985.2213562370493
 20
1185.779292968482
 30
0.0
 11
1032.221356237052
 21
1185.779292968476
 31
0.0
  0
LINE
  5
277
330
1F
100
AcDbEntity
  8
LAY-10
  6
CONTINUOUS
 62
     7
100
AcDbLine
 10
985.2213562370475
 20
1190.779292968482
 30
0.0
 11
1032.221356237052
 21
1190.779292968476
 31
0.0
  0
LINE
  5
278
330
1F
100
AcDbEntity
  8
LAY-10
  6
CONTINUOUS
 62
     7
100
AcDbLine
 10
985.2213562370531
 20
1196.779292968481
 30
0.0
 11
1032.221356237052
 21
1196.779292968474
 31
0.0
  0
LINE
  5
279
330
1F
100
AcDbEntity
  8
LAY-10
  6
CONTINUOUS
 62
     7
100
AcDbLine
 10
985.2213562370475
 20
1168.779292968484
 30
0.0
 11
1032.221356237048
 21
1168.779292968478
 31
0.0
  0
LINE
  5
27A
330
1F
100
AcDbEntity
  8
LAY-10
  6
CONTINUOUS
 62
     7
100
AcDbLine
 10
985.2213562370403
 20
1163.779292968484
 30
0.0
 11
1032.221356237044
 21
1163.779292968478
 31
0.0
  0
LINE
  5
27B
330
1F
100
AcDbEntity
  8
LAY-10
  6
CONTINUOUS
 62
     7
100
AcDbLine
 10
985.2213562370475
 20
1157.779292968483
 30
0.0
 11
1032.221356237044
 21
1157.779292968477
 31
0.0
  0
LINE
  5
27C
330
1F
100
AcDbEntity
  8
LAY-10
  6
CONTINUOUS
 62
     7
100
AcDbLine
 10
1032.221356237052
 20
1196.779292968476
 30
0.0
 11
1033.221356237052
 21
1196.529292968476
 31
0.0
  0
LINE
  5
27D
330
1F
100
AcDbEntity
  8
LAY-10
  6
CONTINUOUS
 62
     7
100
AcDbLine
 10
1033.221356237052
 20
1191.029292968476
 30
0.0
 11
1032.221356237052
 21
1190.779292968476
 31
0.0
  0
LINE
  5
27E
330
1F
100
AcDbEntity
  8
LAY-10
  6
CONTINUOUS
 62
     7
100
AcDbLine
 10
1033.221356237052
 20
1191.029292968476
 30
0.0
 11
1033.221356237052
 21
1196.529292968476
 31
0.0
  0
LINE
  5
27F
330
1F
100
AcDbEntity
  8
LAY-10
  6
CONTINUOUS
 62
     7
100
AcDbLine
 10
1032.221356237048
 20
1196.779292968474
 30
0.0
 11
1032.221356237048
 21
1200.779292968476
 31
0.0
  0
LINE
  5
280
330
1F
100
AcDbEntity
  8
LAY-10
  6
CONTINUOUS
 62
     7
100
AcDbLine
 10
1032.221356237052
 20
1185.779292968476
 30
0.0
 11
1033.221356237048
 21
1185.529292968476
 31
0.0
  0
LINE
  5
281
330
1F
100
AcDbEntity
  8
LAY-10
  6
CONTINUOUS
 62
     7
100
AcDbLine
 10
1033.221356237048
 20
1180.029292968477
 30
0.0
 11
1032.221356237048
 21
1179.779292968476
 31
0.0
  0
LINE
  5
282
330
1F
100
AcDbEntity
  8
LAY-10
  6
CONTINUOUS
 62
     7
100
AcDbLine
 10
1033.221356237048
 20
1180.029292968477
 30
0.0
 11
1033.221356237048
 21
1185.529292968476
 31
0.0
  0
LINE
  5
283
330
1F
100
AcDbEntity
  8
LAY-10
  6
CONTINUOUS
 62
     7
100
AcDbLine
 10
1032.221356237048
 20
1174.779292968476
 30
0.0
 11
1033.221356237048
 21
1174.529292968476
 31
0.0
  0
LINE
  5
284
330
1F
100
AcDbEntity
  8
LAY-10
  6
CONTINUOUS
 62
     7
100
AcDbLine
 10
1033.221356237048
 20
1169.029292968474
 30
0.0
 11
1032.221356237048
 21
1168.779292968477
 31
0.0
  0
LINE
  5
285
330
1F
100
AcDbEntity
  8
LAY-10
  6
CONTINUOUS
 62
     7
100
AcDbLine
 10
1033.221356237048
 20
1169.029292968474
 30
0.0
 11
1033.221356237048
 21
1174.529292968476
 31
0.0
  0
LINE
  5
286
330
1F
100
AcDbEntity
  8
LAY-10
  6
CONTINUOUS
 62
     7
100
AcDbLine
 10
1032.221356237044
 20
1163.779292968477
 30
0.0
 11
1033.221356237046
 21
1163.529292968476
 31
0.0
  0
LINE
  5
287
330
1F
100
AcDbEntity
  8
LAY-10
  6
CONTINUOUS
 62
     7
100
AcDbLine
 10
1033.221356237046
 20
1158.029292968476
 30
0.0
 11
1032.221356237044
 21
1157.779292968477
 31
0.0
  0
LINE
  5
288
330
1F
100
AcDbEntity
  8
LAY-10
  6
CONTINUOUS
 62
     7
100
AcDbLine
 10
1033.221356237046
 20
1158.029292968476
 30
0.0
 11
1033.221356237046
 21
1163.529292968476
 31
0.0
  0
LINE
  5
289
330
1F
100
AcDbEntity
  8
LAY-10
  6
CONTINUOUS
 62
     7
100
AcDbLine
 10
1032.221356237048
 20
1185.779292968476
 30
0.0
 11
1032.221356237048
 21
1190.779292968476
 31
0.0
  0
LINE
  5
28A
330
1F
100
AcDbEntity
  8
LAY-10
  6
CONTINUOUS
 62
     7
100
AcDbLine
 10
1032.221356237044
 20
1174.779292968476
 30
0.0
 11
1032.221356237044
 21
1179.779292968476
 31
0.0
  0
LINE
  5
28B
330
1F
100
AcDbEntity
  8
LAY-10
  6
CONTINUOUS
 62
     7
100
AcDbLine
 10
1032.22135623704
 20
1163.779292968477
 30
0.0
 11
1032.221356237044
 21
1168.779292968478
 31
0.0
  0
LINE
  5
28C
330
1F
100
AcDbEntity
  8
LAY-10
  6
CONTINUOUS
 62
     7
100
AcDbLine
 10
985.221356237044
 20
1196.779292968483
 30
0.0
 11
984.2213562370457
 21
1196.529292968484
 31
0.0
  0
LINE
  5
28D
330
1F
100
AcDbEntity
  8
LAY-10
  6
CONTINUOUS
 62
     7
100
AcDbLine
 10
984.2213562370439
 20
1191.029292968484
 30
0.0
 11
985.221356237044
 21
1190.779292968484
 31
0.0
  0
LINE
  5
28E
330
1F
100
AcDbEntity
  8
LAY-10
  6
CONTINUOUS
 62
     7
100
AcDbLine
 10
984.2213562370439
 20
1191.029292968484
 30
0.0
 11
984.2213562370457
 21
1196.529292968484
 31
0.0
  0
LINE
  5
28F
330
1F
100
AcDbEntity
  8
LAY-10
  6
CONTINUOUS
 62
     7
100
AcDbLine
 10
985.2213562370403
 20
1185.779292968482
 30
0.0
 11
984.2213562370457
 21
1185.529292968483
 31
0.0
  0
LINE
  5
290
330
1F
100
AcDbEntity
  8
LAY-10
  6
CONTINUOUS
 62
     7
100
AcDbLine
 10
984.2213562370439
 20
1180.029292968481
 30
0.0
 11
985.2213562370403
 21
1179.779292968483
 31
0.0
  0
LINE
  5
291
330
1F
100
AcDbEntity
  8
LAY-10
  6
CONTINUOUS
 62
     7
100
AcDbLine
 10
984.2213562370439
 20
1180.029292968481
 30
0.0
 11
984.2213562370457
 21
1185.529292968483
 31
0.0
  0
LINE
  5
292
330
1F
100
AcDbEntity
  8
LAY-10
  6
CONTINUOUS
 62
     7
100
AcDbLine
 10
985.2213562370403
 20
1174.779292968484
 30
0.0
 11
984.2213562370439
 21
1174.529292968482
 31
0.0
  0
LINE
  5
293
330
1F
100
AcDbEntity
  8
LAY-10
  6
CONTINUOUS
 62
     7
100
AcDbLine
 10
984.2213562370421
 20
1169.02929296848
 30
0.0
 11
985.2213562370403
 21
1168.779292968481
 31
0.0
  0
LINE
  5
294
330
1F
100
AcDbEntity
  8
LAY-10
  6
CONTINUOUS
 62
     7
100
AcDbLine
 10
984.2213562370421
 20
1169.02929296848
 30
0.0
 11
984.2213562370439
 21
1174.529292968482
 31
0.0
  0
LINE
  5
295
330
1F
100
AcDbEntity
  8
LAY-10
  6
CONTINUOUS
 62
     7
100
AcDbLine
 10
985.2213562370366
 20
1163.779292968484
 30
0.0
 11
984.2213562370404
 21
1163.529292968483
 31
0.0
  0
LINE
  5
296
330
1F
100
AcDbEntity
  8
LAY-10
  6
CONTINUOUS
 62
     7
100
AcDbLine
 10
984.2213562370404
 20
1158.029292968484
 30
0.0
 11
985.2213562370366
 21
1157.779292968482
 31
0.0
  0
LINE
  5
297
330
1F
100
AcDbEntity
  8
LAY-10
  6
CONTINUOUS
 62
     7
100
AcDbLine
 10
984.2213562370404
 20
1158.029292968484
 30
0.0
 11
984.2213562370404
 21
1163.529292968483
 31
0.0
  0
LINE
  5
298
330
1F
100
AcDbEntity
  8
LAY-10
  6
CONTINUOUS
 62
     7
100
AcDbLine
 10
985.2213562370475
 20
1200.779292968482
 30
0.0
 11
985.2213562370475
 21
1196.779292968481
 31
0.0
  0
LINE
  5
299
330
1F
100
AcDbEntity
  8
LAY-10
  6
CONTINUOUS
 62
     7
100
AcDbLine
 10
985.2213562370475
 20
1190.779292968482
 30
0.0
 11
985.2213562370475
 21
1185.779292968482
 31
0.0
  0
LINE
  5
29A
330
1F
100
AcDbEntity
  8
LAY-10
  6
CONTINUOUS
 62
     7
100
AcDbLine
 10
985.221356237044
 20
1179.779292968483
 30
0.0
 11
985.221356237044
 21
1174.779292968484
 31
0.0
  0
LINE
  5
29B
330
1F
100
AcDbEntity
  8
LAY-10
  6
CONTINUOUS
 62
     7
100
AcDbLine
 10
985.221356237044
 20
1168.779292968484
 30
0.0
 11
985.2213562370403
 21
1163.779292968484
 31
0.0
  0
LINE
  5
29C
330
1F
100
AcDbEntity
  8
LAY-10
  6
CONTINUOUS
 62
     7
100
AcDbLine
 10
985.2213562370403
 20
1157.779292968483
 30
0.0
 11
985.2213562370403
 21
1153.779292968482
 31
0.0
  0
LINE
  5
29D
330
1F
100
AcDbEntity
  8
LAY-10
  6
CONTINUOUS
 62
     7
100
AcDbLine
 10
1012.721356237044
 20
1155.279292968479
 30
0.0
 11
1004.721356237046
 21
1155.279292968479
 31
0.0
  0
LINE
  5
29E
330
1F
100
AcDbEntity
  8
LAY-10
  6
CONTINUOUS
 62
     7
100
AcDbLine
 10
1012.72135623704
 20
1152.279292968481
 30
0.0
 11
1012.72135623704
 21
1155.279292968479
 31
0.0
  0
LINE
  5
29F
330
1F
100
AcDbEntity
  8
LAY-10
  6
CONTINUOUS
 62
     7
100
AcDbLine
 10
1004.721356237042
 20
1152.279292968481
 30
0.0
 11
1004.721356237042
 21
1155.279292968479
 31
0.0
  0
LINE
  5
2A0
330
1F
100
AcDbEntity
  8
LAY-10
  6
CONTINUOUS
 62
     7
100
AcDbLine
 10
985.2213562370403
 20
1153.779292968482
 30
0.0
 11
1004.721356237042
 21
1153.779292968479
 31
0.0
  0
LINE
  5
2A1
330
1F
100
AcDbEntity
  8
LAY-10
  6
CONTINUOUS
 62
     7
100
AcDbLine
 10
1012.72135623704
 20
1153.779292968479
 30
0.0
 11
1032.22135623704
 21
1153.779292968475
 31
0.0
  0
LINE
  5
2A2
330
1F
100
AcDbEntity
  8
LAY-10
  6
CONTINUOUS
 62
     7
100
AcDbLine
 10
983.7213562370512
 20
1202.279292968482
 30
0.0
 11
1033.721356237052
 21
1202.279292968474
 31
0.0
  0
CIRCLE
  5
2A3
330
1F
100
AcDbEntity
  8
LAY-10
  6
CONTINUOUS
 62
     7
100
AcDbCircle
 10
953.7213562370948
 20
1177.279292968445
 30
0.0
 40
13.00000000000001
  0
CIRCLE
  5
2A4
330
1F
100
AcDbEntity
  8
LAY-10
  6
CONTINUOUS
 62
     7
100
AcDbCircle
 10
953.721356237113
 20
1177.279292968458
 30
0.0
 40
12.75000000000001
  0
LINE
  5
2A5
330
1F
100
AcDbEntity
  8
LAY-10
  6
CONTINUOUS
 62
     7
100
AcDbLine
 10
953.7213562371295
 20
1181.279292968443
 30
0.0
 11
960.2213562371276
 21
1177.279292968444
 31
0.0
  0
LINE
  5
2A6
330
1F
100
AcDbEntity
  8
LAY-10
  6
CONTINUOUS
 62
     7
100
AcDbLine
 10
947.2213562371257
 20
1177.279292968444
 30
0.0
 11
953.7213562371295
 21
1181.279292968443
 31
0.0
  0
LINE
  5
2A7
330
1F
100
AcDbEntity
  8
LAY-10
  6
CONTINUOUS
 62
     7
100
AcDbLine
 10
953.7213562371295
 20
1173.279292968443
 30
0.0
 11
947.2213562371257
 21
1177.279292968444
 31
0.0
  0
LINE
  5
2A8
330
1F
100
AcDbEntity
  8
LAY-10
  6
CONTINUOUS
 62
     7
100
AcDbLine
 10
960.2213562371276
 20
1177.279292968444
 30
0.0
 11
953.7213562371295
 21
1173.279292968443
 31
0.0
  0
LINE
  5
2A9
330
1F
100
AcDbEntity
  8
LAY-10
  6
CONTINUOUS
 62
     7
100
AcDbLine
 10
949.721356237124
 20
1166.779292968441
 30
0.0
 11
957.7213562371259
 21
1166.779292968441
 31
0.0
  0
LINE
  5
2AA
330
1F
100
AcDbEntity
  8
LAY-10
  6
CONTINUOUS
 62
     7
100
AcDbLine
 10
949.721356237124
 20
1166.779292968441
 30
0.0
 11
949.721356237124
 21
1165.172992955641
 31
0.0
  0
LINE
  5
2AB
330
1F
100
AcDbEntity
  8
LAY-10
  6
CONTINUOUS
 62
     7
100
AcDbLine
 10
957.7213562371259
 20
1166.779292968441
 30
0.0
 11
957.7213562371259
 21
1165.172992955641
 31
0.0
  0
LINE
  5
2AC
330
1F
100
AcDbEntity
  8
LAY-10
  6
CONTINUOUS
 62
     7
100
AcDbLine
 10
1152.721356237277
 20
2276.279292968612
 30
0.0
 11
1152.721356237269
 21
2226.279292968618
 31
0.0
  0
LINE
  5
2AD
330
1F
100
AcDbEntity
  8
LAY-10
  6
CONTINUOUS
 62
     7
100
AcDbLine
 10
1152.721356237277
 20
2276.279292968612
 30
0.0
 11
1102.721356237277
 21
2276.279292968619
 31
0.0
  0
LINE
  5
2AE
330
1F
100
AcDbEntity
  8
LAY-10
  6
CONTINUOUS
 62
     7
100
AcDbLine
 10
1102.721356237277
 20
2276.279292968619
 30
0.0
 11
1102.721356237269
 21
2226.279292968626
 31
0.0
  0
LINE
  5
2AF
330
1F
100
AcDbEntity
  8
LAY-10
  6
CONTINUOUS
 62
     7
100
AcDbLine
 10
1104.22135623728
 20
2274.779292968625
 30
0.0
 11
1104.22135623728
 21
2270.779292968623
 31
0.0
  0
LINE
  5
2B0
330
1F
100
AcDbEntity
  8
LAY-10
  6
CONTINUOUS
 62
     7
100
AcDbLine
 10
1104.221356237273
 20
2227.779292968624
 30
0.0
 11
1151.221356237273
 21
2227.779292968618
 31
0.0
  0
LINE
  5
2B1
330
1F
100
AcDbEntity
  8
LAY-10
  6
CONTINUOUS
 62
     7
100
AcDbLine
 10
1104.221356237277
 20
2248.779292968624
 30
0.0
 11
1151.221356237277
 21
2248.779292968617
 31
0.0
  0
LINE
  5
2B2
330
1F
100
AcDbEntity
  8
LAY-10
  6
CONTINUOUS
 62
     7
100
AcDbLine
 10
1104.221356237277
 20
2253.779292968624
 30
0.0
 11
1151.221356237277
 21
2253.779292968617
 31
0.0
  0
LINE
  5
2B3
330
1F
100
AcDbEntity
  8
LAY-10
  6
CONTINUOUS
 62
     7
100
AcDbLine
 10
1151.221356237271
 20
2242.779292968618
 30
0.0
 11
1104.221356237269
 21
2242.779292968624
 31
0.0
  0
LINE
  5
2B4
330
1F
100
AcDbEntity
  8
LAY-10
  6
CONTINUOUS
 62
     7
100
AcDbLine
 10
1151.221356237273
 20
2237.779292968618
 30
0.0
 11
1104.221356237269
 21
2237.779292968624
 31
0.0
  0
LINE
  5
2B5
330
1F
100
AcDbEntity
  8
LAY-10
  6
CONTINUOUS
 62
     7
100
AcDbLine
 10
1151.221356237268
 20
2231.779292968619
 30
0.0
 11
1104.221356237269
 21
2231.779292968626
 31
0.0
  0
LINE
  5
2B6
330
1F
100
AcDbEntity
  8
LAY-10
  6
CONTINUOUS
 62
     7
100
AcDbLine
 10
1151.221356237273
 20
2259.779292968617
 30
0.0
 11
1104.221356237273
 21
2259.779292968622
 31
0.0
  0
LINE
  5
2B7
330
1F
100
AcDbEntity
  8
LAY-10
  6
CONTINUOUS
 62
     7
100
AcDbLine
 10
1151.22135623728
 20
2264.779292968616
 30
0.0
 11
1104.221356237277
 21
2264.779292968622
 31
0.0
  0
LINE
  5
2B8
330
1F
100
AcDbEntity
  8
LAY-10
  6
CONTINUOUS
 62
     7
100
AcDbLine
 10
1151.221356237273
 20
2270.779292968617
 30
0.0
 11
1104.221356237277
 21
2270.779292968623
 31
0.0
  0
LINE
  5
2B9
330
1F
100
AcDbEntity
  8
LAY-10
  6
CONTINUOUS
 62
     7
100
AcDbLine
 10
1104.221356237269
 20
2231.779292968624
 30
0.0
 11
1103.221356237269
 21
2232.029292968624
 31
0.0
  0
LINE
  5
2BA
330
1F
100
AcDbEntity
  8
LAY-10
  6
CONTINUOUS
 62
     7
100
AcDbLine
 10
1103.221356237269
 20
2237.529292968624
 30
0.0
 11
1104.221356237269
 21
2237.779292968624
 31
0.0
  0
LINE
  5
2BB
330
1F
100
AcDbEntity
  8
LAY-10
  6
CONTINUOUS
 62
     7
100
AcDbLine
 10
1103.221356237269
 20
2237.529292968624
 30
0.0
 11
1103.221356237269
 21
2232.029292968624
 31
0.0
  0
LINE
  5
2BC
330
1F
100
AcDbEntity
  8
LAY-10
  6
CONTINUOUS
 62
     7
100
AcDbLine
 10
1104.221356237273
 20
2231.779292968626
 30
0.0
 11
1104.221356237273
 21
2227.779292968624
 31
0.0
  0
LINE
  5
2BD
330
1F
100
AcDbEntity
  8
LAY-10
  6
CONTINUOUS
 62
     7
100
AcDbLine
 10
1104.221356237269
 20
2242.779292968624
 30
0.0
 11
1103.221356237273
 21
2243.029292968624
 31
0.0
  0
LINE
  5
2BE
330
1F
100
AcDbEntity
  8
LAY-10
  6
CONTINUOUS
 62
     7
100
AcDbLine
 10
1103.221356237273
 20
2248.529292968623
 30
0.0
 11
1104.221356237273
 21
2248.779292968624
 31
0.0
  0
LINE
  5
2BF
330
1F
100
AcDbEntity
  8
LAY-10
  6
CONTINUOUS
 62
     7
100
AcDbLine
 10
1103.221356237273
 20
2248.529292968623
 30
0.0
 11
1103.221356237273
 21
2243.029292968624
 31
0.0
  0
LINE
  5
2C0
330
1F
100
AcDbEntity
  8
LAY-10
  6
CONTINUOUS
 62
     7
100
AcDbLine
 10
1104.221356237273
 20
2253.779292968624
 30
0.0
 11
1103.221356237273
 21
2254.029292968624
 31
0.0
  0
LINE
  5
2C1
330
1F
100
AcDbEntity
  8
LAY-10
  6
CONTINUOUS
 62
     7
100
AcDbLine
 10
1103.221356237273
 20
2259.529292968626
 30
0.0
 11
1104.221356237273
 21
2259.779292968623
 31
0.0
  0
LINE
  5
2C2
330
1F
100
AcDbEntity
  8
LAY-10
  6
CONTINUOUS
 62
     7
100
AcDbLine
 10
1103.221356237273
 20
2259.529292968626
 30
0.0
 11
1103.221356237273
 21
2254.029292968624
 31
0.0
  0
LINE
  5
2C3
330
1F
100
AcDbEntity
  8
LAY-10
  6
CONTINUOUS
 62
     7
100
AcDbLine
 10
1104.221356237277
 20
2264.779292968623
 30
0.0
 11
1103.221356237275
 21
2265.029292968624
 31
0.0
  0
LINE
  5
2C4
330
1F
100
AcDbEntity
  8
LAY-10
  6
CONTINUOUS
 62
     7
100
AcDbLine
 10
1103.221356237275
 20
2270.529292968624
 30
0.0
 11
1104.221356237277
 21
2270.779292968623
 31
0.0
  0
LINE
  5
2C5
330
1F
100
AcDbEntity
  8
LAY-10
  6
CONTINUOUS
 62
     7
100
AcDbLine
 10
1103.221356237275
 20
2270.529292968624
 30
0.0
 11
1103.221356237275
 21
2265.029292968624
 31
0.0
  0
LINE
  5
2C6
330
1F
100
AcDbEntity
  8
LAY-10
  6
CONTINUOUS
 62
     7
100
AcDbLine
 10
1104.221356237273
 20
2242.779292968624
 30
0.0
 11
1104.221356237273
 21
2237.779292968624
 31
0.0
  0
LINE
  5
2C7
330
1F
100
AcDbEntity
  8
LAY-10
  6
CONTINUOUS
 62
     7
100
AcDbLine
 10
1104.221356237277
 20
2253.779292968624
 30
0.0
 11
1104.221356237277
 21
2248.779292968624
 31
0.0
  0
LINE
  5
2C8
330
1F
100
AcDbEntity
  8
LAY-10
  6
CONTINUOUS
 62
     7
100
AcDbLine
 10
1104.22135623728
 20
2264.779292968623
 30
0.0
 11
1104.221356237277
 21
2259.779292968622
 31
0.0
  0
LINE
  5
2C9
330
1F
100
AcDbEntity
  8
LAY-10
  6
CONTINUOUS
 62
     7
100
AcDbLine
 10
1151.221356237277
 20
2231.779292968617
 30
0.0
 11
1152.221356237275
 21
2232.029292968617
 31
0.0
  0
LINE
  5
2CA
330
1F
100
AcDbEntity
  8
LAY-10
  6
CONTINUOUS
 62
     7
100
AcDbLine
 10
1152.221356237277
 20
2237.529292968616
 30
0.0
 11
1151.221356237277
 21
2237.779292968616
 31
0.0
  0
LINE
  5
2CB
330
1F
100
AcDbEntity
  8
LAY-10
  6
CONTINUOUS
 62
     7
100
AcDbLine
 10
1152.221356237277
 20
2237.529292968616
 30
0.0
 11
1152.221356237275
 21
2232.029292968617
 31
0.0
  0
LINE
  5
2CC
330
1F
100
AcDbEntity
  8
LAY-10
  6
CONTINUOUS
 62
     7
100
AcDbLine
 10
1151.22135623728
 20
2242.779292968618
 30
0.0
 11
1152.221356237275
 21
2243.029292968617
 31
0.0
  0
LINE
  5
2CD
330
1F
100
AcDbEntity
  8
LAY-10
  6
CONTINUOUS
 62
     7
100
AcDbLine
 10
1152.221356237277
 20
2248.529292968619
 30
0.0
 11
1151.22135623728
 21
2248.779292968617
 31
0.0
  0
LINE
  5
2CE
330
1F
100
AcDbEntity
  8
LAY-10
  6
CONTINUOUS
 62
     7
100
AcDbLine
 10
1152.221356237277
 20
2248.529292968619
 30
0.0
 11
1152.221356237275
 21
2243.029292968617
 31
0.0
  0
LINE
  5
2CF
330
1F
100
AcDbEntity
  8
LAY-10
  6
CONTINUOUS
 62
     7
100
AcDbLine
 10
1151.22135623728
 20
2253.779292968617
 30
0.0
 11
1152.221356237277
 21
2254.029292968618
 31
0.0
  0
LINE
  5
2D0
330
1F
100
AcDbEntity
  8
LAY-10
  6
CONTINUOUS
 62
     7
100
AcDbLine
 10
1152.221356237279
 20
2259.52929296862
 30
0.0
 11
1151.22135623728
 21
2259.779292968619
 31
0.0
  0
LINE
  5
2D1
330
1F
100
AcDbEntity
  8
LAY-10
  6
CONTINUOUS
 62
     7
100
AcDbLine
 10
1152.221356237279
 20
2259.52929296862
 30
0.0
 11
1152.221356237277
 21
2254.029292968618
 31
0.0
  0
LINE
  5
2D2
330
1F
100
AcDbEntity
  8
LAY-10
  6
CONTINUOUS
 62
     7
100
AcDbLine
 10
1151.221356237284
 20
2264.779292968616
 30
0.0
 11
1152.22135623728
 21
2265.029292968617
 31
0.0
  0
LINE
  5
2D3
330
1F
100
AcDbEntity
  8
LAY-10
  6
CONTINUOUS
 62
     7
100
AcDbLine
 10
1152.22135623728
 20
2270.529292968616
 30
0.0
 11
1151.221356237284
 21
2270.779292968617
 31
0.0
  0
LINE
  5
2D4
330
1F
100
AcDbEntity
  8
LAY-10
  6
CONTINUOUS
 62
     7
100
AcDbLine
 10
1152.22135623728
 20
2270.529292968616
 30
0.0
 11
1152.22135623728
 21
2265.029292968617
 31
0.0
  0
LINE
  5
2D5
330
1F
100
AcDbEntity
  8
LAY-10
  6
CONTINUOUS
 62
     7
100
AcDbLine
 10
1151.221356237273
 20
2227.779292968618
 30
0.0
 11
1151.221356237273
 21
2231.779292968619
 31
0.0
  0
LINE
  5
2D6
330
1F
100
AcDbEntity
  8
LAY-10
  6
CONTINUOUS
 62
     7
100
AcDbLine
 10
1151.221356237273
 20
2237.779292968618
 30
0.0
 11
1151.221356237273
 21
2242.779292968618
 31
0.0
  0
LINE
  5
2D7
330
1F
100
AcDbEntity
  8
LAY-10
  6
CONTINUOUS
 62
     7
100
AcDbLine
 10
1151.221356237277
 20
2248.779292968617
 30
0.0
 11
1151.221356237277
 21
2253.779292968617
 31
0.0
  0
LINE
  5
2D8
330
1F
100
AcDbEntity
  8
LAY-10
  6
CONTINUOUS
 62
     7
100
AcDbLine
 10
1151.221356237277
 20
2259.779292968617
 30
0.0
 11
1151.22135623728
 21
2264.779292968616
 31
0.0
  0
LINE
  5
2D9
330
1F
100
AcDbEntity
  8
LAY-10
  6
CONTINUOUS
 62
     7
100
AcDbLine
 10
1151.22135623728
 20
2270.779292968617
 30
0.0
 11
1151.22135623728
 21
2274.779292968618
 31
0.0
  0
LINE
  5
2DA
330
1F
100
AcDbEntity
  8
LAY-10
  6
CONTINUOUS
 62
     7
100
AcDbLine
 10
1123.721356237277
 20
2273.279292968621
 30
0.0
 11
1131.721356237275
 21
2273.279292968621
 31
0.0
  0
LINE
  5
2DB
330
1F
100
AcDbEntity
  8
LAY-10
  6
CONTINUOUS
 62
     7
100
AcDbLine
 10
1123.72135623728
 20
2276.279292968619
 30
0.0
 11
1123.72135623728
 21
2273.279292968621
 31
0.0
  0
LINE
  5
2DC
330
1F
100
AcDbEntity
  8
LAY-10
  6
CONTINUOUS
 62
     7
100
AcDbLine
 10
1131.721356237279
 20
2276.279292968619
 30
0.0
 11
1131.721356237279
 21
2273.279292968621
 31
0.0
  0
LINE
  5
2DD
330
1F
100
AcDbEntity
  8
LAY-10
  6
CONTINUOUS
 62
     7
100
AcDbLine
 10
1151.22135623728
 20
2274.779292968618
 30
0.0
 11
1131.721356237279
 21
2274.779292968621
 31
0.0
  0
LINE
  5
2DE
330
1F
100
AcDbEntity
  8
LAY-10
  6
CONTINUOUS
 62
     7
100
AcDbLine
 10
1123.72135623728
 20
2274.779292968621
 30
0.0
 11
1104.22135623728
 21
2274.779292968625
 31
0.0
  0
LINE
  5
2DF
330
1F
100
AcDbEntity
  8
LAY-10
  6
CONTINUOUS
 62
     7
100
AcDbLine
 10
1152.721356237269
 20
2226.279292968618
 30
0.0
 11
1102.721356237269
 21
2226.279292968626
 31
0.0
  0
CIRCLE
  5
2E0
330
1F
100
AcDbEntity
  8
LAY-10
  6
CONTINUOUS
 62
     7
100
AcDbCircle
 10
1182.721356237226
 20
2251.279292968655
 30
0.0
 40
13.00000000000001
  0
CIRCLE
  5
2E1
330
1F
100
AcDbEntity
  8
LAY-10
  6
CONTINUOUS
 62
     7
100
AcDbCircle
 10
1182.721356237208
 20
2251.279292968642
 30
0.0
 40
12.75000000000001
  0
LINE
  5
2E2
330
1F
100
AcDbEntity
  8
LAY-10
  6
CONTINUOUS
 62
     7
100
AcDbLine
 10
1182.721356237191
 20
2247.279292968658
 30
0.0
 11
1176.221356237193
 21
2251.279292968656
 31
0.0
  0
LINE
  5
2E3
330
1F
100
AcDbEntity
  8
LAY-10
  6
CONTINUOUS
 62
     7
100
AcDbLine
 10
1189.221356237195
 20
2251.279292968656
 30
0.0
 11
1182.721356237191
 21
2247.279292968658
 31
0.0
  0
LINE
  5
2E4
330
1F
100
AcDbEntity
  8
LAY-10
  6
CONTINUOUS
 62
     7
100
AcDbLine
 10
1182.721356237191
 20
2255.279292968658
 30
0.0
 11
1189.221356237195
 21
2251.279292968656
 31
0.0
  0
LINE
  5
2E5
330
1F
100
AcDbEntity
  8
LAY-10
  6
CONTINUOUS
 62
     7
100
AcDbLine
 10
1176.221356237193
 20
2251.279292968656
 30
0.0
 11
1182.721356237191
 21
2255.279292968658
 31
0.0
  0
LINE
  5
2E6
330
1F
100
AcDbEntity
  8
LAY-10
  6
CONTINUOUS
 62
     7
100
AcDbLine
 10
1186.721356237197
 20
2261.779292968658
 30
0.0
 11
1178.721356237195
 21
2261.779292968658
 31
0.0
  0
LINE
  5
2E7
330
1F
100
AcDbEntity
  8
LAY-10
  6
CONTINUOUS
 62
     7
100
AcDbLine
 10
1186.721356237197
 20
2261.779292968658
 30
0.0
 11
1186.721356237197
 21
2263.385592981459
 31
0.0
  0
LINE
  5
2E8
330
1F
100
AcDbEntity
  8
LAY-10
  6
CONTINUOUS
 62
     7
100
AcDbLine
 10
1178.721356237195
 20
2261.779292968658
 30
0.0
 11
1178.721356237195
 21
2263.385592981459
 31
0.0
  0
LINE
  5
2E9
330
1F
100
AcDbEntity
  8
LAY-10
  6
CONTINUOUS
 62
     7
100
AcDbLine
 10
1152.721356237266
 20
1152.279292968588
 30
0.0
 11
1152.721356237262
 21
1202.279292968582
 31
0.0
  0
LINE
  5
2EA
330
1F
100
AcDbEntity
  8
LAY-10
  6
CONTINUOUS
 62
     7
100
AcDbLine
 10
1152.721356237266
 20
1152.279292968588
 30
0.0
 11
1102.721356237268
 21
1152.279292968581
 31
0.0
  0
LINE
  5
2EB
330
1F
100
AcDbEntity
  8
LAY-10
  6
CONTINUOUS
 62
     7
100
AcDbLine
 10
1102.721356237268
 20
1152.279292968581
 30
0.0
 11
1102.721356237259
 21
1202.279292968575
 31
0.0
  0
LINE
  5
2EC
330
1F
100
AcDbEntity
  8
LAY-10
  6
CONTINUOUS
 62
     7
100
AcDbLine
 10
1104.221356237268
 20
1153.779292968574
 30
0.0
 11
1104.221356237268
 21
1157.779292968577
 31
0.0
  0
LINE
  5
2ED
330
1F
100
AcDbEntity
  8
LAY-10
  6
CONTINUOUS
 62
     7
100
AcDbLine
 10
1104.221356237262
 20
1200.779292968576
 30
0.0
 11
1151.221356237262
 21
1200.779292968583
 31
0.0
  0
LINE
  5
2EE
330
1F
100
AcDbEntity
  8
LAY-10
  6
CONTINUOUS
 62
     7
100
AcDbLine
 10
1104.221356237264
 20
1179.779292968576
 30
0.0
 11
1151.221356237264
 21
1179.779292968583
 31
0.0
  0
LINE
  5
2EF
330
1F
100
AcDbEntity
  8
LAY-10
  6
CONTINUOUS
 62
     7
100
AcDbLine
 10
1104.221356237264
 20
1174.779292968577
 30
0.0
 11
1151.221356237266
 21
1174.779292968583
 31
0.0
  0
LINE
  5
2F0
330
1F
100
AcDbEntity
  8
LAY-10
  6
CONTINUOUS
 62
     7
100
AcDbLine
 10
1151.221356237262
 20
1185.779292968583
 30
0.0
 11
1104.221356237262
 21
1185.779292968576
 31
0.0
  0
LINE
  5
2F1
330
1F
100
AcDbEntity
  8
LAY-10
  6
CONTINUOUS
 62
     7
100
AcDbLine
 10
1151.221356237262
 20
1190.779292968581
 30
0.0
 11
1104.221356237262
 21
1190.779292968577
 31
0.0
  0
LINE
  5
2F2
330
1F
100
AcDbEntity
  8
LAY-10
  6
CONTINUOUS
 62
     7
100
AcDbLine
 10
1151.221356237259
 20
1196.779292968581
 30
0.0
 11
1104.221356237262
 21
1196.779292968575
 31
0.0
  0
LINE
  5
2F3
330
1F
100
AcDbEntity
  8
LAY-10
  6
CONTINUOUS
 62
     7
100
AcDbLine
 10
1151.221356237262
 20
1168.779292968585
 30
0.0
 11
1104.221356237264
 21
1168.779292968578
 31
0.0
  0
LINE
  5
2F4
330
1F
100
AcDbEntity
  8
LAY-10
  6
CONTINUOUS
 62
     7
100
AcDbLine
 10
1151.221356237268
 20
1163.779292968585
 30
0.0
 11
1104.221356237264
 21
1163.779292968578
 31
0.0
  0
LINE
  5
2F5
330
1F
100
AcDbEntity
  8
LAY-10
  6
CONTINUOUS
 62
     7
100
AcDbLine
 10
1151.221356237262
 20
1157.779292968584
 30
0.0
 11
1104.221356237264
 21
1157.779292968577
 31
0.0
  0
LINE
  5
2F6
330
1F
100
AcDbEntity
  8
LAY-10
  6
CONTINUOUS
 62
     7
100
AcDbLine
 10
1104.221356237262
 20
1196.779292968575
 30
0.0
 11
1103.22135623726
 21
1196.529292968577
 31
0.0
  0
LINE
  5
2F7
330
1F
100
AcDbEntity
  8
LAY-10
  6
CONTINUOUS
 62
     7
100
AcDbLine
 10
1103.22135623726
 20
1191.029292968576
 30
0.0
 11
1104.221356237262
 21
1190.779292968577
 31
0.0
  0
LINE
  5
2F8
330
1F
100
AcDbEntity
  8
LAY-10
  6
CONTINUOUS
 62
     7
100
AcDbLine
 10
1103.22135623726
 20
1191.029292968576
 30
0.0
 11
1103.22135623726
 21
1196.529292968577
 31
0.0
  0
LINE
  5
2F9
330
1F
100
AcDbEntity
  8
LAY-10
  6
CONTINUOUS
 62
     7
100
AcDbLine
 10
1104.221356237262
 20
1196.779292968575
 30
0.0
 11
1104.221356237262
 21
1200.779292968576
 31
0.0
  0
LINE
  5
2FA
330
1F
100
AcDbEntity
  8
LAY-10
  6
CONTINUOUS
 62
     7
100
AcDbLine
 10
1104.221356237262
 20
1185.779292968576
 30
0.0
 11
1103.221356237262
 21
1185.529292968575
 31
0.0
  0
LINE
  5
2FB
330
1F
100
AcDbEntity
  8
LAY-10
  6
CONTINUOUS
 62
     7
100
AcDbLine
 10
1103.221356237262
 20
1180.029292968576
 30
0.0
 11
1104.221356237262
 21
1179.779292968576
 31
0.0
  0
LINE
  5
2FC
330
1F
100
AcDbEntity
  8
LAY-10
  6
CONTINUOUS
 62
     7
100
AcDbLine
 10
1103.221356237262
 20
1180.029292968576
 30
0.0
 11
1103.221356237262
 21
1185.529292968575
 31
0.0
  0
LINE
  5
2FD
330
1F
100
AcDbEntity
  8
LAY-10
  6
CONTINUOUS
 62
     7
100
AcDbLine
 10
1104.221356237262
 20
1174.779292968577
 30
0.0
 11
1103.221356237262
 21
1174.529292968576
 31
0.0
  0
LINE
  5
2FE
330
1F
100
AcDbEntity
  8
LAY-10
  6
CONTINUOUS
 62
     7
100
AcDbLine
 10
1103.221356237264
 20
1169.029292968575
 30
0.0
 11
1104.221356237264
 21
1168.779292968576
 31
0.0
  0
LINE
  5
2FF
330
1F
100
AcDbEntity
  8
LAY-10
  6
CONTINUOUS
 62
     7
100
AcDbLine
 10
1103.221356237264
 20
1169.029292968575
 30
0.0
 11
1103.221356237262
 21
1174.529292968576
 31
0.0
  0
LINE
  5
300
330
1F
100
AcDbEntity
  8
LAY-10
  6
CONTINUOUS
 62
     7
100
AcDbLine
 10
1104.221356237264
 20
1163.779292968577
 30
0.0
 11
1103.221356237266
 21
1163.529292968577
 31
0.0
  0
LINE
  5
301
330
1F
100
AcDbEntity
  8
LAY-10
  6
CONTINUOUS
 62
     7
100
AcDbLine
 10
1103.221356237266
 20
1158.029292968577
 30
0.0
 11
1104.221356237264
 21
1157.779292968577
 31
0.0
  0
LINE
  5
302
330
1F
100
AcDbEntity
  8
LAY-10
  6
CONTINUOUS
 62
     7
100
AcDbLine
 10
1103.221356237266
 20
1158.029292968577
 30
0.0
 11
1103.221356237266
 21
1163.529292968577
 31
0.0
  0
LINE
  5
303
330
1F
100
AcDbEntity
  8
LAY-10
  6
CONTINUOUS
 62
     7
100
AcDbLine
 10
1104.221356237264
 20
1185.779292968576
 30
0.0
 11
1104.221356237264
 21
1190.779292968577
 31
0.0
  0
LINE
  5
304
330
1F
100
AcDbEntity
  8
LAY-10
  6
CONTINUOUS
 62
     7
100
AcDbLine
 10
1104.221356237264
 20
1174.779292968577
 30
0.0
 11
1104.221356237264
 21
1179.779292968576
 31
0.0
  0
LINE
  5
305
330
1F
100
AcDbEntity
  8
LAY-10
  6
CONTINUOUS
 62
     7
100
AcDbLine
 10
1104.221356237268
 20
1163.779292968577
 30
0.0
 11
1104.221356237264
 21
1168.779292968578
 31
0.0
  0
LINE
  5
306
330
1F
100
AcDbEntity
  8
LAY-10
  6
CONTINUOUS
 62
     7
100
AcDbLine
 10
1151.221356237266
 20
1196.779292968583
 30
0.0
 11
1152.221356237266
 21
1196.529292968584
 31
0.0
  0
LINE
  5
307
330
1F
100
AcDbEntity
  8
LAY-10
  6
CONTINUOUS
 62
     7
100
AcDbLine
 10
1152.221356237269
 20
1191.029292968585
 30
0.0
 11
1151.221356237266
 21
1190.779292968584
 31
0.0
  0
LINE
  5
308
330
1F
100
AcDbEntity
  8
LAY-10
  6
CONTINUOUS
 62
     7
100
AcDbLine
 10
1152.221356237269
 20
1191.029292968585
 30
0.0
 11
1152.221356237266
 21
1196.529292968584
 31
0.0
  0
LINE
  5
309
330
1F
100
AcDbEntity
  8
LAY-10
  6
CONTINUOUS
 62
     7
100
AcDbLine
 10
1151.221356237268
 20
1185.779292968583
 30
0.0
 11
1152.221356237266
 21
1185.529292968583
 31
0.0
  0
LINE
  5
30A
330
1F
100
AcDbEntity
  8
LAY-10
  6
CONTINUOUS
 62
     7
100
AcDbLine
 10
1152.221356237269
 20
1180.029292968581
 30
0.0
 11
1151.221356237268
 21
1179.779292968583
 31
0.0
  0
LINE
  5
30B
330
1F
100
AcDbEntity
  8
LAY-10
  6
CONTINUOUS
 62
     7
100
AcDbLine
 10
1152.221356237269
 20
1180.029292968581
 30
0.0
 11
1152.221356237266
 21
1185.529292968583
 31
0.0
  0
LINE
  5
30C
330
1F
100
AcDbEntity
  8
LAY-10
  6
CONTINUOUS
 62
     7
100
AcDbLine
 10
1151.221356237271
 20
1174.779292968583
 30
0.0
 11
1152.221356237269
 21
1174.529292968583
 31
0.0
  0
LINE
  5
30D
330
1F
100
AcDbEntity
  8
LAY-10
  6
CONTINUOUS
 62
     7
100
AcDbLine
 10
1152.221356237269
 20
1169.029292968581
 30
0.0
 11
1151.221356237271
 21
1168.779292968581
 31
0.0
  0
LINE
  5
30E
330
1F
100
AcDbEntity
  8
LAY-10
  6
CONTINUOUS
 62
     7
100
AcDbLine
 10
1152.221356237269
 20
1169.029292968581
 30
0.0
 11
1152.221356237269
 21
1174.529292968583
 31
0.0
  0
LINE
  5
30F
330
1F
100
AcDbEntity
  8
LAY-10
  6
CONTINUOUS
 62
     7
100
AcDbLine
 10
1151.221356237273
 20
1163.779292968585
 30
0.0
 11
1152.221356237273
 21
1163.529292968582
 31
0.0
  0
LINE
  5
310
330
1F
100
AcDbEntity
  8
LAY-10
  6
CONTINUOUS
 62
     7
100
AcDbLine
 10
1152.221356237273
 20
1158.029292968585
 30
0.0
 11
1151.221356237273
 21
1157.779292968583
 31
0.0
  0
LINE
  5
311
330
1F
100
AcDbEntity
  8
LAY-10
  6
CONTINUOUS
 62
     7
100
AcDbLine
 10
1152.221356237273
 20
1158.029292968585
 30
0.0
 11
1152.221356237273
 21
1163.529292968582
 31
0.0
  0
LINE
  5
312
330
1F
100
AcDbEntity
  8
LAY-10
  6
CONTINUOUS
 62
     7
100
AcDbLine
 10
1151.221356237262
 20
1200.779292968583
 30
0.0
 11
1151.221356237262
 21
1196.779292968581
 31
0.0
  0
LINE
  5
313
330
1F
100
AcDbEntity
  8
LAY-10
  6
CONTINUOUS
 62
     7
100
AcDbLine
 10
1151.221356237262
 20
1190.779292968581
 30
0.0
 11
1151.221356237262
 21
1185.779292968583
 31
0.0
  0
LINE
  5
314
330
1F
100
AcDbEntity
  8
LAY-10
  6
CONTINUOUS
 62
     7
100
AcDbLine
 10
1151.221356237264
 20
1179.779292968583
 30
0.0
 11
1151.221356237266
 21
1174.779292968583
 31
0.0
  0
LINE
  5
315
330
1F
100
AcDbEntity
  8
LAY-10
  6
CONTINUOUS
 62
     7
100
AcDbLine
 10
1151.221356237266
 20
1168.779292968585
 30
0.0
 11
1151.221356237268
 21
1163.779292968585
 31
0.0
  0
LINE
  5
316
330
1F
100
AcDbEntity
  8
LAY-10
  6
CONTINUOUS
 62
     7
100
AcDbLine
 10
1151.221356237268
 20
1157.779292968584
 30
0.0
 11
1151.221356237271
 21
1153.779292968582
 31
0.0
  0
LINE
  5
317
330
1F
100
AcDbEntity
  8
LAY-10
  6
CONTINUOUS
 62
     7
100
AcDbLine
 10
1123.721356237266
 20
1155.279292968579
 30
0.0
 11
1131.721356237266
 21
1155.279292968579
 31
0.0
  0
LINE
  5
318
330
1F
100
AcDbEntity
  8
LAY-10
  6
CONTINUOUS
 62
     7
100
AcDbLine
 10
1123.721356237269
 20
1152.279292968581
 30
0.0
 11
1123.721356237269
 21
1155.279292968579
 31
0.0
  0
LINE
  5
319
330
1F
100
AcDbEntity
  8
LAY-10
  6
CONTINUOUS
 62
     7
100
AcDbLine
 10
1131.721356237269
 20
1152.279292968581
 30
0.0
 11
1131.721356237269
 21
1155.279292968579
 31
0.0
  0
LINE
  5
31A
330
1F
100
AcDbEntity
  8
LAY-10
  6
CONTINUOUS
 62
     7
100
AcDbLine
 10
1151.221356237271
 20
1153.779292968582
 30
0.0
 11
1131.721356237269
 21
1153.779292968579
 31
0.0
  0
LINE
  5
31B
330
1F
100
AcDbEntity
  8
LAY-10
  6
CONTINUOUS
 62
     7
100
AcDbLine
 10
1123.721356237269
 20
1153.779292968579
 30
0.0
 11
1104.221356237268
 21
1153.779292968574
 31
0.0
  0
LINE
  5
31C
330
1F
100
AcDbEntity
  8
LAY-10
  6
CONTINUOUS
 62
     7
100
AcDbLine
 10
1152.721356237262
 20
1202.279292968582
 30
0.0
 11
1102.721356237259
 21
1202.279292968575
 31
0.0
  0
CIRCLE
  5
31D
330
1F
100
AcDbEntity
  8
LAY-10
  6
CONTINUOUS
 62
     7
100
AcDbCircle
 10
1182.721356237215
 20
1177.279292968545
 30
0.0
 40
13.00000000000001
  0
CIRCLE
  5
31E
330
1F
100
AcDbEntity
  8
LAY-10
  6
CONTINUOUS
 62
     7
100
AcDbCircle
 10
1182.721356237215
 20
1177.279292968558
 30
0.0
 40
12.75000000000001
  0
LINE
  5
31F
330
1F
100
AcDbEntity
  8
LAY-10
  6
CONTINUOUS
 62
     7
100
AcDbLine
 10
1182.721356237229
 20
1181.279292968542
 30
0.0
 11
1189.221356237228
 21
1177.279292968544
 31
0.0
  0
LINE
  5
320
330
1F
100
AcDbEntity
  8
LAY-10
  6
CONTINUOUS
 62
     7
100
AcDbLine
 10
1176.221356237226
 20
1177.279292968544
 30
0.0
 11
1182.721356237229
 21
1181.279292968542
 31
0.0
  0
LINE
  5
321
330
1F
100
AcDbEntity
  8
LAY-10
  6
CONTINUOUS
 62
     7
100
AcDbLine
 10
1182.721356237229
 20
1173.279292968543
 30
0.0
 11
1176.221356237226
 21
1177.279292968544
 31
0.0
  0
LINE
  5
322
330
1F
100
AcDbEntity
  8
LAY-10
  6
CONTINUOUS
 62
     7
100
AcDbLine
 10
1189.221356237228
 20
1177.279292968544
 30
0.0
 11
1182.721356237229
 21
1173.279292968543
 31
0.0
  0
LINE
  5
323
330
1F
100
AcDbEntity
  8
LAY-10
  6
CONTINUOUS
 62
     7
100
AcDbLine
 10
1178.721356237226
 20
1166.779292968542
 30
0.0
 11
1186.721356237226
 21
1166.779292968542
 31
0.0
  0
LINE
  5
324
330
1F
100
AcDbEntity
  8
LAY-10
  6
CONTINUOUS
 62
     7
100
AcDbLine
 10
1178.721356237226
 20
1166.779292968542
 30
0.0
 11
1178.721356237226
 21
1165.172992955741
 31
0.0
  0
LINE
  5
325
330
1F
100
AcDbEntity
  8
LAY-10
  6
CONTINUOUS
 62
     7
100
AcDbLine
 10
1186.721356237226
 20
1166.779292968542
 30
0.0
 11
1186.721356237226
 21
1165.172992955741
 31
0.0
  0
LINE
  5
326
330
1F
100
AcDbEntity
  8
LAY-10
  6
CONTINUOUS
 62
     7
100
AcDbLine
 10
1069.221356237319
 20
1142.2792929685
 30
0.0
 11
1069.22135623732
 21
2286.279292968648
 31
0.0
  0
LINE
  5
327
330
1F
100
AcDbEntity
  8
LAY-10
  6
CONTINUOUS
 62
     7
100
AcDbLine
 10
1565.221356237326
 20
1142.279292968499
 30
0.0
 11
1565.221356237329
 21
2286.279292968647
 31
0.0
  0
LINE
  5
328
330
1F
100
AcDbEntity
  8
LAY-10
  6
CONTINUOUS
 62
     7
100
AcDbLine
 10
1565.221356237326
 20
1142.279292968499
 30
0.0
 11
1069.221356237319
 21
1142.279292968501
 31
0.0
  0
LINE
  5
329
330
1F
100
AcDbEntity
  8
LAY-10
  6
CONTINUOUS
 62
     7
100
AcDbLine
 10
1447.721356237395
 20
2261.779292968658
 30
0.0
 11
1447.721356237395
 21
2263.385592981457
 31
0.0
  0
LINE
  5
32A
330
1F
100
AcDbEntity
  8
LAY-10
  6
CONTINUOUS
 62
     7
100
AcDbLine
 10
1455.721356237393
 20
2261.779292968658
 30
0.0
 11
1455.721356237393
 21
2263.385592981457
 31
0.0
  0
LINE
  5
32B
330
1F
100
AcDbEntity
  8
LAY-10
  6
CONTINUOUS
 62
     7
100
AcDbLine
 10
1455.721356237393
 20
2261.779292968658
 30
0.0
 11
1447.721356237395
 21
2261.779292968658
 31
0.0
  0
LINE
  5
32C
330
1F
100
AcDbEntity
  8
LAY-10
  6
CONTINUOUS
 62
     7
100
AcDbLine
 10
1445.221356237391
 20
2251.279292968654
 30
0.0
 11
1451.721356237391
 21
2255.279292968657
 31
0.0
  0
LINE
  5
32D
330
1F
100
AcDbEntity
  8
LAY-10
  6
CONTINUOUS
 62
     7
100
AcDbLine
 10
1451.721356237391
 20
2255.279292968657
 30
0.0
 11
1458.221356237393
 21
2251.279292968654
 31
0.0
  0
LINE
  5
32E
330
1F
100
AcDbEntity
  8
LAY-10
  6
CONTINUOUS
 62
     7
100
AcDbLine
 10
1458.221356237393
 20
2251.279292968654
 30
0.0
 11
1451.721356237391
 21
2247.279292968656
 31
0.0
  0
LINE
  5
32F
330
1F
100
AcDbEntity
  8
LAY-10
  6
CONTINUOUS
 62
     7
100
AcDbLine
 10
1451.721356237391
 20
2247.279292968656
 30
0.0
 11
1445.221356237391
 21
2251.279292968654
 31
0.0
  0
CIRCLE
  5
330
330
1F
100
AcDbEntity
  8
LAY-10
  6
CONTINUOUS
 62
     7
100
AcDbCircle
 10
1451.721356237406
 20
2251.279292968641
 30
0.0
 40
12.75000000000001
  0
CIRCLE
  5
331
330
1F
100
AcDbEntity
  8
LAY-10
  6
CONTINUOUS
 62
     7
100
AcDbCircle
 10
1451.721356237415
 20
2251.279292968654
 30
0.0
 40
13.00000000000001
  0
LINE
  5
332
330
1F
100
AcDbEntity
  8
LAY-10
  6
CONTINUOUS
 62
     7
100
AcDbLine
 10
1481.721356237368
 20
2226.279292968617
 30
0.0
 11
1531.721356237371
 21
2226.279292968624
 31
0.0
  0
LINE
  5
333
330
1F
100
AcDbEntity
  8
LAY-10
  6
CONTINUOUS
 62
     7
100
AcDbLine
 10
1510.721356237359
 20
2274.779292968619
 30
0.0
 11
1530.22135623736
 21
2274.779292968623
 31
0.0
  0
LINE
  5
334
330
1F
100
AcDbEntity
  8
LAY-10
  6
CONTINUOUS
 62
     7
100
AcDbLine
 10
1483.22135623736
 20
2274.779292968617
 30
0.0
 11
1502.72135623736
 21
2274.779292968619
 31
0.0
  0
LINE
  5
335
330
1F
100
AcDbEntity
  8
LAY-10
  6
CONTINUOUS
 62
     7
100
AcDbLine
 10
1502.72135623736
 20
2276.279292968617
 30
0.0
 11
1502.72135623736
 21
2273.279292968619
 31
0.0
  0
LINE
  5
336
330
1F
100
AcDbEntity
  8
LAY-10
  6
CONTINUOUS
 62
     7
100
AcDbLine
 10
1510.721356237359
 20
2276.279292968617
 30
0.0
 11
1510.721356237359
 21
2273.279292968619
 31
0.0
  0
LINE
  5
337
330
1F
100
AcDbEntity
  8
LAY-10
  6
CONTINUOUS
 62
     7
100
AcDbLine
 10
1510.721356237364
 20
2273.279292968619
 30
0.0
 11
1502.721356237362
 21
2273.279292968619
 31
0.0
  0
LINE
  5
338
330
1F
100
AcDbEntity
  8
LAY-10
  6
CONTINUOUS
 62
     7
100
AcDbLine
 10
1483.22135623736
 20
2270.779292968615
 30
0.0
 11
1483.22135623736
 21
2274.779292968617
 31
0.0
  0
LINE
  5
339
330
1F
100
AcDbEntity
  8
LAY-10
  6
CONTINUOUS
 62
     7
100
AcDbLine
 10
1483.221356237364
 20
2259.779292968615
 30
0.0
 11
1483.22135623736
 21
2264.779292968614
 31
0.0
  0
LINE
  5
33A
330
1F
100
AcDbEntity
  8
LAY-10
  6
CONTINUOUS
 62
     7
100
AcDbLine
 10
1483.221356237364
 20
2248.779292968616
 30
0.0
 11
1483.221356237364
 21
2253.779292968615
 31
0.0
  0
LINE
  5
33B
330
1F
100
AcDbEntity
  8
LAY-10
  6
CONTINUOUS
 62
     7
100
AcDbLine
 10
1483.221356237368
 20
2237.779292968617
 30
0.0
 11
1483.221356237368
 21
2242.779292968617
 31
0.0
  0
LINE
  5
33C
330
1F
100
AcDbEntity
  8
LAY-10
  6
CONTINUOUS
 62
     7
100
AcDbLine
 10
1483.221356237368
 20
2227.779292968617
 30
0.0
 11
1483.221356237368
 21
2231.779292968617
 31
0.0
  0
LINE
  5
33D
330
1F
100
AcDbEntity
  8
LAY-10
  6
CONTINUOUS
 62
     7
100
AcDbLine
 10
1482.221356237358
 20
2270.529292968614
 30
0.0
 11
1482.221356237358
 21
2265.029292968615
 31
0.0
  0
LINE
  5
33E
330
1F
100
AcDbEntity
  8
LAY-10
  6
CONTINUOUS
 62
     7
100
AcDbLine
 10
1482.221356237358
 20
2270.529292968614
 30
0.0
 11
1483.221356237357
 21
2270.779292968616
 31
0.0
  0
LINE
  5
33F
330
1F
100
AcDbEntity
  8
LAY-10
  6
CONTINUOUS
 62
     7
100
AcDbLine
 10
1483.221356237357
 20
2264.779292968614
 30
0.0
 11
1482.221356237358
 21
2265.029292968615
 31
0.0
  0
LINE
  5
340
330
1F
100
AcDbEntity
  8
LAY-10
  6
CONTINUOUS
 62
     7
100
AcDbLine
 10
1482.22135623736
 20
2259.529292968618
 30
0.0
 11
1482.22135623736
 21
2254.029292968617
 31
0.0
  0
LINE
  5
341
330
1F
100
AcDbEntity
  8
LAY-10
  6
CONTINUOUS
 62
     7
100
AcDbLine
 10
1482.22135623736
 20
2259.529292968618
 30
0.0
 11
1483.22135623736
 21
2259.779292968618
 31
0.0
  0
LINE
  5
342
330
1F
100
AcDbEntity
  8
LAY-10
  6
CONTINUOUS
 62
     7
100
AcDbLine
 10
1483.22135623736
 20
2253.779292968615
 30
0.0
 11
1482.22135623736
 21
2254.029292968617
 31
0.0
  0
LINE
  5
343
330
1F
100
AcDbEntity
  8
LAY-10
  6
CONTINUOUS
 62
     7
100
AcDbLine
 10
1482.22135623736
 20
2248.529292968618
 30
0.0
 11
1482.221356237362
 21
2243.029292968617
 31
0.0
  0
LINE
  5
344
330
1F
100
AcDbEntity
  8
LAY-10
  6
CONTINUOUS
 62
     7
100
AcDbLine
 10
1482.22135623736
 20
2248.529292968618
 30
0.0
 11
1483.22135623736
 21
2248.779292968616
 31
0.0
  0
LINE
  5
345
330
1F
100
AcDbEntity
  8
LAY-10
  6
CONTINUOUS
 62
     7
100
AcDbLine
 10
1483.22135623736
 20
2242.779292968617
 30
0.0
 11
1482.221356237362
 21
2243.029292968617
 31
0.0
  0
LINE
  5
346
330
1F
100
AcDbEntity
  8
LAY-10
  6
CONTINUOUS
 62
     7
100
AcDbLine
 10
1482.22135623736
 20
2237.529292968615
 30
0.0
 11
1482.221356237362
 21
2232.029292968615
 31
0.0
  0
LINE
  5
347
330
1F
100
AcDbEntity
  8
LAY-10
  6
CONTINUOUS
 62
     7
100
AcDbLine
 10
1482.22135623736
 20
2237.529292968615
 30
0.0
 11
1483.221356237364
 21
2237.779292968614
 31
0.0
  0
LINE
  5
348
330
1F
100
AcDbEntity
  8
LAY-10
  6
CONTINUOUS
 62
     7
100
AcDbLine
 10
1483.221356237364
 20
2231.779292968617
 30
0.0
 11
1482.221356237362
 21
2232.029292968615
 31
0.0
  0
LINE
  5
349
330
1F
100
AcDbEntity
  8
LAY-10
  6
CONTINUOUS
 62
     7
100
AcDbLine
 10
1530.22135623736
 20
2264.779292968621
 30
0.0
 11
1530.221356237364
 21
2259.77929296862
 31
0.0
  0
LINE
  5
34A
330
1F
100
AcDbEntity
  8
LAY-10
  6
CONTINUOUS
 62
     7
100
AcDbLine
 10
1530.221356237364
 20
2253.779292968622
 30
0.0
 11
1530.221356237364
 21
2248.779292968622
 31
0.0
  0
LINE
  5
34B
330
1F
100
AcDbEntity
  8
LAY-10
  6
CONTINUOUS
 62
     7
100
AcDbLine
 10
1530.221356237368
 20
2242.779292968622
 30
0.0
 11
1530.221356237368
 21
2237.779292968622
 31
0.0
  0
LINE
  5
34C
330
1F
100
AcDbEntity
  8
LAY-10
  6
CONTINUOUS
 62
     7
100
AcDbLine
 10
1531.221356237366
 20
2270.529292968622
 30
0.0
 11
1531.221356237366
 21
2265.029292968622
 31
0.0
  0
LINE
  5
34D
330
1F
100
AcDbEntity
  8
LAY-10
  6
CONTINUOUS
 62
     7
100
AcDbLine
 10
1531.221356237366
 20
2270.529292968622
 30
0.0
 11
1530.221356237364
 21
2270.779292968622
 31
0.0
  0
LINE
  5
34E
330
1F
100
AcDbEntity
  8
LAY-10
  6
CONTINUOUS
 62
     7
100
AcDbLine
 10
1530.221356237364
 20
2264.779292968621
 30
0.0
 11
1531.221356237366
 21
2265.029292968622
 31
0.0
  0
LINE
  5
34F
330
1F
100
AcDbEntity
  8
LAY-10
  6
CONTINUOUS
 62
     7
100
AcDbLine
 10
1531.221356237368
 20
2259.529292968624
 30
0.0
 11
1531.221356237368
 21
2254.029292968622
 31
0.0
  0
LINE
  5
350
330
1F
100
AcDbEntity
  8
LAY-10
  6
CONTINUOUS
 62
     7
100
AcDbLine
 10
1531.221356237368
 20
2259.529292968624
 30
0.0
 11
1530.221356237368
 21
2259.779292968621
 31
0.0
  0
LINE
  5
351
330
1F
100
AcDbEntity
  8
LAY-10
  6
CONTINUOUS
 62
     7
100
AcDbLine
 10
1530.221356237368
 20
2253.779292968622
 30
0.0
 11
1531.221356237368
 21
2254.029292968622
 31
0.0
  0
LINE
  5
352
330
1F
100
AcDbEntity
  8
LAY-10
  6
CONTINUOUS
 62
     7
100
AcDbLine
 10
1531.221356237368
 20
2248.529292968621
 30
0.0
 11
1531.221356237368
 21
2243.029292968622
 31
0.0
  0
LINE
  5
353
330
1F
100
AcDbEntity
  8
LAY-10
  6
CONTINUOUS
 62
     7
100
AcDbLine
 10
1531.221356237368
 20
2248.529292968621
 30
0.0
 11
1530.221356237368
 21
2248.779292968622
 31
0.0
  0
LINE
  5
354
330
1F
100
AcDbEntity
  8
LAY-10
  6
CONTINUOUS
 62
     7
100
AcDbLine
 10
1530.221356237369
 20
2242.779292968622
 30
0.0
 11
1531.221356237368
 21
2243.029292968622
 31
0.0
  0
LINE
  5
355
330
1F
100
AcDbEntity
  8
LAY-10
  6
CONTINUOUS
 62
     7
100
AcDbLine
 10
1530.221356237368
 20
2231.779292968624
 30
0.0
 11
1530.221356237368
 21
2227.779292968622
 31
0.0
  0
LINE
  5
356
330
1F
100
AcDbEntity
  8
LAY-10
  6
CONTINUOUS
 62
     7
100
AcDbLine
 10
1531.221356237371
 20
2237.529292968622
 30
0.0
 11
1531.221356237371
 21
2232.029292968622
 31
0.0
  0
LINE
  5
357
330
1F
100
AcDbEntity
  8
LAY-10
  6
CONTINUOUS
 62
     7
100
AcDbLine
 10
1531.221356237371
 20
2237.529292968622
 30
0.0
 11
1530.221356237369
 21
2237.779292968622
 31
0.0
  0
LINE
  5
358
330
1F
100
AcDbEntity
  8
LAY-10
  6
CONTINUOUS
 62
     7
100
AcDbLine
 10
1530.221356237369
 20
2231.779292968622
 30
0.0
 11
1531.221356237371
 21
2232.029292968622
 31
0.0
  0
LINE
  5
359
330
1F
100
AcDbEntity
  8
LAY-10
  6
CONTINUOUS
 62
     7
100
AcDbLine
 10
1483.221356237368
 20
2270.779292968615
 30
0.0
 11
1530.221356237364
 21
2270.779292968622
 31
0.0
  0
LINE
  5
35A
330
1F
100
AcDbEntity
  8
LAY-10
  6
CONTINUOUS
 62
     7
100
AcDbLine
 10
1483.22135623736
 20
2264.779292968614
 30
0.0
 11
1530.221356237364
 21
2264.77929296862
 31
0.0
  0
LINE
  5
35B
330
1F
100
AcDbEntity
  8
LAY-10
  6
CONTINUOUS
 62
     7
100
AcDbLine
 10
1483.221356237368
 20
2259.779292968615
 30
0.0
 11
1530.221356237368
 21
2259.77929296862
 31
0.0
  0
LINE
  5
35C
330
1F
100
AcDbEntity
  8
LAY-10
  6
CONTINUOUS
 62
     7
100
AcDbLine
 10
1483.221356237371
 20
2231.779292968617
 30
0.0
 11
1530.221356237369
 21
2231.779292968624
 31
0.0
  0
LINE
  5
35D
330
1F
100
AcDbEntity
  8
LAY-10
  6
CONTINUOUS
 62
     7
100
AcDbLine
 10
1483.221356237368
 20
2237.779292968617
 30
0.0
 11
1530.221356237369
 21
2237.779292968622
 31
0.0
  0
LINE
  5
35E
330
1F
100
AcDbEntity
  8
LAY-10
  6
CONTINUOUS
 62
     7
100
AcDbLine
 10
1483.221356237369
 20
2242.779292968617
 30
0.0
 11
1530.221356237369
 21
2242.779292968622
 31
0.0
  0
LINE
  5
35F
330
1F
100
AcDbEntity
  8
LAY-10
  6
CONTINUOUS
 62
     7
100
AcDbLine
 10
1530.221356237364
 20
2253.779292968622
 30
0.0
 11
1483.221356237364
 21
2253.779292968615
 31
0.0
  0
LINE
  5
360
330
1F
100
AcDbEntity
  8
LAY-10
  6
CONTINUOUS
 62
     7
100
AcDbLine
 10
1530.221356237364
 20
2248.779292968622
 30
0.0
 11
1483.221356237364
 21
2248.779292968616
 31
0.0
  0
LINE
  5
361
330
1F
100
AcDbEntity
  8
LAY-10
  6
CONTINUOUS
 62
     7
100
AcDbLine
 10
1530.221356237368
 20
2227.779292968622
 30
0.0
 11
1483.221356237368
 21
2227.779292968617
 31
0.0
  0
LINE
  5
362
330
1F
100
AcDbEntity
  8
LAY-10
  6
CONTINUOUS
 62
     7
100
AcDbLine
 10
1530.22135623736
 20
2274.779292968623
 30
0.0
 11
1530.22135623736
 21
2270.779292968622
 31
0.0
  0
LINE
  5
363
330
1F
100
AcDbEntity
  8
LAY-10
  6
CONTINUOUS
 62
     7
100
AcDbLine
 10
1531.721356237364
 20
2276.279292968617
 30
0.0
 11
1531.721356237371
 21
2226.279292968624
 31
0.0
  0
LINE
  5
364
330
1F
100
AcDbEntity
  8
LAY-10
  6
CONTINUOUS
 62
     7
100
AcDbLine
 10
1481.721356237364
 20
2276.27929296861
 30
0.0
 11
1531.721356237364
 21
2276.279292968617
 31
0.0
  0
LINE
  5
365
330
1F
100
AcDbEntity
  8
LAY-10
  6
CONTINUOUS
 62
     7
100
AcDbLine
 10
1481.721356237364
 20
2276.27929296861
 30
0.0
 11
1481.721356237368
 21
2226.279292968617
 31
0.0
  0
LINE
  5
366
330
1F
100
AcDbEntity
  8
LAY-10
  6
CONTINUOUS
 62
     7
100
AcDbLine
 10
1565.221356237329
 20
2286.279292968647
 30
0.0
 11
1069.22135623732
 21
2286.279292968647
 31
0.0
  0
LINE
  5
367
330
1F
100
AcDbEntity
  8
LAY-10
  6
CONTINUOUS
 62
     7
100
AcDbLine
 10
1481.721356237344
 20
1152.279292968488
 30
0.0
 11
1481.721356237351
 21
1202.279292968482
 31
0.0
  0
LINE
  5
368
330
1F
100
AcDbEntity
  8
LAY-10
  6
CONTINUOUS
 62
     7
100
AcDbLine
 10
1481.721356237344
 20
1152.279292968488
 30
0.0
 11
1531.721356237344
 21
1152.279292968481
 31
0.0
  0
LINE
  5
369
330
1F
100
AcDbEntity
  8
LAY-10
  6
CONTINUOUS
 62
     7
100
AcDbLine
 10
1531.721356237344
 20
1152.279292968481
 30
0.0
 11
1531.721356237351
 21
1202.279292968474
 31
0.0
  0
LINE
  5
36A
330
1F
100
AcDbEntity
  8
LAY-10
  6
CONTINUOUS
 62
     7
100
AcDbLine
 10
1530.22135623734
 20
1153.779292968475
 30
0.0
 11
1530.22135623734
 21
1157.779292968477
 31
0.0
  0
LINE
  5
36B
330
1F
100
AcDbEntity
  8
LAY-10
  6
CONTINUOUS
 62
     7
100
AcDbLine
 10
1530.221356237348
 20
1200.779292968476
 30
0.0
 11
1483.221356237348
 21
1200.779292968482
 31
0.0
  0
LINE
  5
36C
330
1F
100
AcDbEntity
  8
LAY-10
  6
CONTINUOUS
 62
     7
100
AcDbLine
 10
1530.221356237344
 20
1179.779292968476
 30
0.0
 11
1483.221356237344
 21
1179.779292968483
 31
0.0
  0
LINE
  5
36D
330
1F
100
AcDbEntity
  8
LAY-10
  6
CONTINUOUS
 62
     7
100
AcDbLine
 10
1530.221356237344
 20
1174.779292968476
 30
0.0
 11
1483.221356237344
 21
1174.779292968484
 31
0.0
  0
LINE
  5
36E
330
1F
100
AcDbEntity
  8
LAY-10
  6
CONTINUOUS
 62
     7
100
AcDbLine
 10
1483.221356237349
 20
1185.779292968482
 30
0.0
 11
1530.221356237351
 21
1185.779292968476
 31
0.0
  0
LINE
  5
36F
330
1F
100
AcDbEntity
  8
LAY-10
  6
CONTINUOUS
 62
     7
100
AcDbLine
 10
1483.221356237348
 20
1190.779292968482
 30
0.0
 11
1530.221356237351
 21
1190.779292968476
 31
0.0
  0
LINE
  5
370
330
1F
100
AcDbEntity
  8
LAY-10
  6
CONTINUOUS
 62
     7
100
AcDbLine
 10
1483.221356237353
 20
1196.779292968481
 30
0.0
 11
1530.221356237351
 21
1196.779292968474
 31
0.0
  0
LINE
  5
371
330
1F
100
AcDbEntity
  8
LAY-10
  6
CONTINUOUS
 62
     7
100
AcDbLine
 10
1483.221356237348
 20
1168.779292968484
 30
0.0
 11
1530.221356237348
 21
1168.779292968478
 31
0.0
  0
LINE
  5
372
330
1F
100
AcDbEntity
  8
LAY-10
  6
CONTINUOUS
 62
     7
100
AcDbLine
 10
1483.22135623734
 20
1163.779292968484
 30
0.0
 11
1530.221356237344
 21
1163.779292968478
 31
0.0
  0
LINE
  5
373
330
1F
100
AcDbEntity
  8
LAY-10
  6
CONTINUOUS
 62
     7
100
AcDbLine
 10
1483.221356237348
 20
1157.779292968483
 30
0.0
 11
1530.221356237344
 21
1157.779292968477
 31
0.0
  0
LINE
  5
374
330
1F
100
AcDbEntity
  8
LAY-10
  6
CONTINUOUS
 62
     7
100
AcDbLine
 10
1530.221356237351
 20
1196.779292968476
 30
0.0
 11
1531.221356237351
 21
1196.529292968476
 31
0.0
  0
LINE
  5
375
330
1F
100
AcDbEntity
  8
LAY-10
  6
CONTINUOUS
 62
     7
100
AcDbLine
 10
1531.221356237351
 20
1191.029292968476
 30
0.0
 11
1530.221356237351
 21
1190.779292968476
 31
0.0
  0
LINE
  5
376
330
1F
100
AcDbEntity
  8
LAY-10
  6
CONTINUOUS
 62
     7
100
AcDbLine
 10
1531.221356237351
 20
1191.029292968476
 30
0.0
 11
1531.221356237351
 21
1196.529292968476
 31
0.0
  0
LINE
  5
377
330
1F
100
AcDbEntity
  8
LAY-10
  6
CONTINUOUS
 62
     7
100
AcDbLine
 10
1530.221356237348
 20
1196.779292968474
 30
0.0
 11
1530.221356237348
 21
1200.779292968476
 31
0.0
  0
LINE
  5
378
330
1F
100
AcDbEntity
  8
LAY-10
  6
CONTINUOUS
 62
     7
100
AcDbLine
 10
1530.221356237351
 20
1185.779292968476
 30
0.0
 11
1531.221356237348
 21
1185.529292968476
 31
0.0
  0
LINE
  5
379
330
1F
100
AcDbEntity
  8
LAY-10
  6
CONTINUOUS
 62
     7
100
AcDbLine
 10
1531.221356237348
 20
1180.029292968477
 30
0.0
 11
1530.221356237348
 21
1179.779292968476
 31
0.0
  0
LINE
  5
37A
330
1F
100
AcDbEntity
  8
LAY-10
  6
CONTINUOUS
 62
     7
100
AcDbLine
 10
1531.221356237348
 20
1180.029292968477
 30
0.0
 11
1531.221356237348
 21
1185.529292968476
 31
0.0
  0
LINE
  5
37B
330
1F
100
AcDbEntity
  8
LAY-10
  6
CONTINUOUS
 62
     7
100
AcDbLine
 10
1530.221356237348
 20
1174.779292968476
 30
0.0
 11
1531.221356237348
 21
1174.529292968476
 31
0.0
  0
LINE
  5
37C
330
1F
100
AcDbEntity
  8
LAY-10
  6
CONTINUOUS
 62
     7
100
AcDbLine
 10
1531.221356237348
 20
1169.029292968474
 30
0.0
 11
1530.221356237348
 21
1168.779292968477
 31
0.0
  0
LINE
  5
37D
330
1F
100
AcDbEntity
  8
LAY-10
  6
CONTINUOUS
 62
     7
100
AcDbLine
 10
1531.221356237348
 20
1169.029292968474
 30
0.0
 11
1531.221356237348
 21
1174.529292968476
 31
0.0
  0
LINE
  5
37E
330
1F
100
AcDbEntity
  8
LAY-10
  6
CONTINUOUS
 62
     7
100
AcDbLine
 10
1530.221356237344
 20
1163.779292968477
 30
0.0
 11
1531.221356237346
 21
1163.529292968476
 31
0.0
  0
LINE
  5
37F
330
1F
100
AcDbEntity
  8
LAY-10
  6
CONTINUOUS
 62
     7
100
AcDbLine
 10
1531.221356237346
 20
1158.029292968476
 30
0.0
 11
1530.221356237344
 21
1157.779292968477
 31
0.0
  0
LINE
  5
380
330
1F
100
AcDbEntity
  8
LAY-10
  6
CONTINUOUS
 62
     7
100
AcDbLine
 10
1531.221356237346
 20
1158.029292968476
 30
0.0
 11
1531.221356237346
 21
1163.529292968476
 31
0.0
  0
LINE
  5
381
330
1F
100
AcDbEntity
  8
LAY-10
  6
CONTINUOUS
 62
     7
100
AcDbLine
 10
1530.221356237348
 20
1185.779292968476
 30
0.0
 11
1530.221356237348
 21
1190.779292968476
 31
0.0
  0
LINE
  5
382
330
1F
100
AcDbEntity
  8
LAY-10
  6
CONTINUOUS
 62
     7
100
AcDbLine
 10
1530.221356237344
 20
1174.779292968476
 30
0.0
 11
1530.221356237344
 21
1179.779292968476
 31
0.0
  0
LINE
  5
383
330
1F
100
AcDbEntity
  8
LAY-10
  6
CONTINUOUS
 62
     7
100
AcDbLine
 10
1530.22135623734
 20
1163.779292968477
 30
0.0
 11
1530.221356237344
 21
1168.779292968478
 31
0.0
  0
LINE
  5
384
330
1F
100
AcDbEntity
  8
LAY-10
  6
CONTINUOUS
 62
     7
100
AcDbLine
 10
1483.221356237344
 20
1196.779292968483
 30
0.0
 11
1482.221356237346
 21
1196.529292968484
 31
0.0
  0
LINE
  5
385
330
1F
100
AcDbEntity
  8
LAY-10
  6
CONTINUOUS
 62
     7
100
AcDbLine
 10
1482.221356237344
 20
1191.029292968484
 30
0.0
 11
1483.221356237344
 21
1190.779292968484
 31
0.0
  0
LINE
  5
386
330
1F
100
AcDbEntity
  8
LAY-10
  6
CONTINUOUS
 62
     7
100
AcDbLine
 10
1482.221356237344
 20
1191.029292968484
 30
0.0
 11
1482.221356237346
 21
1196.529292968484
 31
0.0
  0
LINE
  5
387
330
1F
100
AcDbEntity
  8
LAY-10
  6
CONTINUOUS
 62
     7
100
AcDbLine
 10
1483.22135623734
 20
1185.779292968482
 30
0.0
 11
1482.221356237346
 21
1185.529292968483
 31
0.0
  0
LINE
  5
388
330
1F
100
AcDbEntity
  8
LAY-10
  6
CONTINUOUS
 62
     7
100
AcDbLine
 10
1482.221356237344
 20
1180.029292968481
 30
0.0
 11
1483.22135623734
 21
1179.779292968483
 31
0.0
  0
LINE
  5
389
330
1F
100
AcDbEntity
  8
LAY-10
  6
CONTINUOUS
 62
     7
100
AcDbLine
 10
1482.221356237344
 20
1180.029292968481
 30
0.0
 11
1482.221356237346
 21
1185.529292968483
 31
0.0
  0
LINE
  5
38A
330
1F
100
AcDbEntity
  8
LAY-10
  6
CONTINUOUS
 62
     7
100
AcDbLine
 10
1483.22135623734
 20
1174.779292968484
 30
0.0
 11
1482.221356237344
 21
1174.529292968482
 31
0.0
  0
LINE
  5
38B
330
1F
100
AcDbEntity
  8
LAY-10
  6
CONTINUOUS
 62
     7
100
AcDbLine
 10
1482.221356237342
 20
1169.02929296848
 30
0.0
 11
1483.22135623734
 21
1168.779292968481
 31
0.0
  0
LINE
  5
38C
330
1F
100
AcDbEntity
  8
LAY-10
  6
CONTINUOUS
 62
     7
100
AcDbLine
 10
1482.221356237342
 20
1169.02929296848
 30
0.0
 11
1482.221356237344
 21
1174.529292968482
 31
0.0
  0
LINE
  5
38D
330
1F
100
AcDbEntity
  8
LAY-10
  6
CONTINUOUS
 62
     7
100
AcDbLine
 10
1483.221356237337
 20
1163.779292968484
 30
0.0
 11
1482.22135623734
 21
1163.529292968483
 31
0.0
  0
LINE
  5
38E
330
1F
100
AcDbEntity
  8
LAY-10
  6
CONTINUOUS
 62
     7
100
AcDbLine
 10
1482.22135623734
 20
1158.029292968484
 30
0.0
 11
1483.221356237337
 21
1157.779292968482
 31
0.0
  0
LINE
  5
38F
330
1F
100
AcDbEntity
  8
LAY-10
  6
CONTINUOUS
 62
     7
100
AcDbLine
 10
1482.22135623734
 20
1158.029292968484
 30
0.0
 11
1482.22135623734
 21
1163.529292968483
 31
0.0
  0
LINE
  5
390
330
1F
100
AcDbEntity
  8
LAY-10
  6
CONTINUOUS
 62
     7
100
AcDbLine
 10
1483.221356237348
 20
1200.779292968482
 30
0.0
 11
1483.221356237348
 21
1196.779292968481
 31
0.0
  0
LINE
  5
391
330
1F
100
AcDbEntity
  8
LAY-10
  6
CONTINUOUS
 62
     7
100
AcDbLine
 10
1483.221356237348
 20
1190.779292968482
 30
0.0
 11
1483.221356237348
 21
1185.779292968482
 31
0.0
  0
LINE
  5
392
330
1F
100
AcDbEntity
  8
LAY-10
  6
CONTINUOUS
 62
     7
100
AcDbLine
 10
1483.221356237344
 20
1179.779292968483
 30
0.0
 11
1483.221356237344
 21
1174.779292968484
 31
0.0
  0
LINE
  5
393
330
1F
100
AcDbEntity
  8
LAY-10
  6
CONTINUOUS
 62
     7
100
AcDbLine
 10
1483.221356237344
 20
1168.779292968484
 30
0.0
 11
1483.22135623734
 21
1163.779292968484
 31
0.0
  0
LINE
  5
394
330
1F
100
AcDbEntity
  8
LAY-10
  6
CONTINUOUS
 62
     7
100
AcDbLine
 10
1483.22135623734
 20
1157.779292968483
 30
0.0
 11
1483.22135623734
 21
1153.779292968482
 31
0.0
  0
LINE
  5
395
330
1F
100
AcDbEntity
  8
LAY-10
  6
CONTINUOUS
 62
     7
100
AcDbLine
 10
1510.721356237344
 20
1155.279292968479
 30
0.0
 11
1502.721356237346
 21
1155.279292968479
 31
0.0
  0
LINE
  5
396
330
1F
100
AcDbEntity
  8
LAY-10
  6
CONTINUOUS
 62
     7
100
AcDbLine
 10
1510.72135623734
 20
1152.279292968481
 30
0.0
 11
1510.72135623734
 21
1155.279292968479
 31
0.0
  0
LINE
  5
397
330
1F
100
AcDbEntity
  8
LAY-10
  6
CONTINUOUS
 62
     7
100
AcDbLine
 10
1502.721356237342
 20
1152.279292968481
 30
0.0
 11
1502.721356237342
 21
1155.279292968479
 31
0.0
  0
LINE
  5
398
330
1F
100
AcDbEntity
  8
LAY-10
  6
CONTINUOUS
 62
     7
100
AcDbLine
 10
1483.22135623734
 20
1153.779292968482
 30
0.0
 11
1502.721356237342
 21
1153.779292968479
 31
0.0
  0
LINE
  5
399
330
1F
100
AcDbEntity
  8
LAY-10
  6
CONTINUOUS
 62
     7
100
AcDbLine
 10
1510.72135623734
 20
1153.779292968479
 30
0.0
 11
1530.22135623734
 21
1153.779292968475
 31
0.0
  0
LINE
  5
39A
330
1F
100
AcDbEntity
  8
LAY-10
  6
CONTINUOUS
 62
     7
100
AcDbLine
 10
1481.721356237351
 20
1202.279292968482
 30
0.0
 11
1531.721356237351
 21
1202.279292968474
 31
0.0
  0
CIRCLE
  5
39B
330
1F
100
AcDbEntity
  8
LAY-10
  6
CONTINUOUS
 62
     7
100
AcDbCircle
 10
1451.721356237395
 20
1177.279292968445
 30
0.0
 40
13.00000000000001
  0
CIRCLE
  5
39C
330
1F
100
AcDbEntity
  8
LAY-10
  6
CONTINUOUS
 62
     7
100
AcDbCircle
 10
1451.721356237413
 20
1177.279292968458
 30
0.0
 40
12.75000000000001
  0
LINE
  5
39D
330
1F
100
AcDbEntity
  8
LAY-10
  6
CONTINUOUS
 62
     7
100
AcDbLine
 10
1451.721356237429
 20
1181.279292968443
 30
0.0
 11
1458.221356237428
 21
1177.279292968444
 31
0.0
  0
LINE
  5
39E
330
1F
100
AcDbEntity
  8
LAY-10
  6
CONTINUOUS
 62
     7
100
AcDbLine
 10
1445.221356237426
 20
1177.279292968444
 30
0.0
 11
1451.721356237429
 21
1181.279292968443
 31
0.0
  0
LINE
  5
39F
330
1F
100
AcDbEntity
  8
LAY-10
  6
CONTINUOUS
 62
     7
100
AcDbLine
 10
1451.721356237429
 20
1173.279292968443
 30
0.0
 11
1445.221356237426
 21
1177.279292968444
 31
0.0
  0
LINE
  5
3A0
330
1F
100
AcDbEntity
  8
LAY-10
  6
CONTINUOUS
 62
     7
100
AcDbLine
 10
1458.221356237428
 20
1177.279292968444
 30
0.0
 11
1451.721356237429
 21
1173.279292968443
 31
0.0
  0
LINE
  5
3A1
330
1F
100
AcDbEntity
  8
LAY-10
  6
CONTINUOUS
 62
     7
100
AcDbLine
 10
1447.721356237424
 20
1166.779292968441
 30
0.0
 11
1455.721356237426
 21
1166.779292968441
 31
0.0
  0
LINE
  5
3A2
330
1F
100
AcDbEntity
  8
LAY-10
  6
CONTINUOUS
 62
     7
100
AcDbLine
 10
1447.721356237424
 20
1166.779292968441
 30
0.0
 11
1447.721356237424
 21
1165.172992955641
 31
0.0
  0
LINE
  5
3A3
330
1F
100
AcDbEntity
  8
LAY-10
  6
CONTINUOUS
 62
     7
100
AcDbLine
 10
1455.721356237426
 20
1166.779292968441
 30
0.0
 11
1455.721356237426
 21
1165.172992955641
 31
0.0
  0
LINE
  5
3A4
330
1F
100
AcDbEntity
  8
LAY-10
  6
CONTINUOUS
 62
     7
100
AcDbLine
 10
1608.619841047198
 20
1959.779292968617
 30
0.0
 11
1608.619841047198
 21
1968.779292968617
 31
0.0
  0
LINE
  5
3A5
330
1F
100
AcDbEntity
  8
LAY-10
  6
CONTINUOUS
 62
     7
100
AcDbLine
 10
1573.221356237415
 20
1959.779292968617
 30
0.0
 11
1608.619841047198
 21
1959.779292968617
 31
0.0
  0
LINE
  5
3A6
330
1F
100
AcDbEntity
  8
LAY-10
  6
CONTINUOUS
 62
     7
100
AcDbLine
 10
1573.221356237415
 20
1968.779292968616
 30
0.0
 11
1608.619841047198
 21
1968.779292968616
 31
0.0
  0
LINE
  5
3A7
330
1F
100
AcDbEntity
  8
LAY-10
  6
CONTINUOUS
 62
     7
100
AcDbLine
 10
1608.619841047196
 20
1468.77929296853
 30
0.0
 11
1608.619841047196
 21
1459.779292968527
 31
0.0
  0
LINE
  5
3A8
330
1F
100
AcDbEntity
  8
LAY-10
  6
CONTINUOUS
 62
     7
100
AcDbLine
 10
1573.221356237414
 20
1468.779292968528
 30
0.0
 11
1608.619841047196
 21
1468.779292968528
 31
0.0
  0
LINE
  5
3A9
330
1F
100
AcDbEntity
  8
LAY-10
  6
CONTINUOUS
 62
     7
100
AcDbLine
 10
1573.221356237414
 20
1459.779292968529
 30
0.0
 11
1608.619841047196
 21
1459.779292968529
 31
0.0
  0
LINE
  5
3AA
330
1F
100
AcDbEntity
  8
LAY-10
  6
CONTINUOUS
 62
     7
100
AcDbLine
 10
632.7213562348065
 20
2279.63463202745
 30
0.0
 11
639.3660171761189
 21
2286.27929296865
 31
0.0
  0
LINE
  5
3AB
330
1F
100
AcDbEntity
  8
LAY-10
  6
CONTINUOUS
 62
     7
100
AcDbLine
 10
579.6883476490079
 20
2244.279292967648
 30
0.0
 11
597.366017178309
 21
2226.601623438349
 31
0.0
  0
LINE
  5
3AC
330
1F
100
AcDbEntity
  8
LAY-10
  6
CONTINUOUS
 62
     7
100
AcDbLine
 10
597.3660171777087
 20
2261.956962497748
 30
0.0
 11
579.6883476484077
 21
2279.634632027047
 31
0.0
  0
LINE
  5
3AD
330
1F
100
AcDbEntity
  8
LAY-10
  6
CONTINUOUS
 62
     7
100
AcDbLine
 10
668.0766952963081
 20
2173.568614850649
 30
0.0
 11
685.7543648260094
 21
2191.246284380649
 31
0.0
  0
LINE
  5
3AE
330
1F
100
AcDbEntity
  8
LAY-10
  6
CONTINUOUS
 62
     7
100
AcDbLine
 10
685.7543648260094
 20
2226.601623439649
 30
0.0
 11
668.0766952963081
 21
2208.92395390965
 31
0.0
  0
LINE
  5
3AF
330
1F
100
AcDbEntity
  8
LAY-10
  6
CONTINUOUS
 62
     7
100
AcDbLine
 10
774.1427124745082
 20
2261.95696249865
 30
0.0
 11
756.4650429448088
 21
2279.634632028649
 31
0.0
  0
LINE
  5
3B0
330
1F
100
AcDbEntity
  8
LAY-10
  6
CONTINUOUS
 62
     7
100
AcDbLine
 10
780.7873734158426
 20
2286.27929296865
 30
0.0
 11
774.1427124755796
 21
2279.634632028649
 31
0.0
  0
LINE
  5
3B1
330
1F
100
AcDbEntity
  8
LAY-10
  6
CONTINUOUS
 62
     7
100
AcDbLine
 10
745.4320343561725
 20
2286.27929296865
 30
0.0
 11
738.7873734159098
 21
2279.634632028649
 31
0.0
  0
LINE
  5
3B2
330
1F
100
AcDbEntity
  8
LAY-10
  6
CONTINUOUS
 62
     7
100
AcDbLine
 10
710.0766952964955
 20
2286.27929296865
 30
0.0
 11
703.4320343556087
 21
2279.634632027649
 31
0.0
  0
LINE
  5
3B3
330
1F
100
AcDbEntity
  8
LAY-10
  6
CONTINUOUS
 62
     7
100
AcDbLine
 10
571.2213562370093
 20
2076.713275792704
 30
0.0
 11
579.6883476478092
 21
2085.180267203648
 31
0.0
  0
LINE
  5
3B4
330
1F
100
AcDbEntity
  8
LAY-10
  6
CONTINUOUS
 62
     7
100
AcDbLine
 10
579.6883476478092
 20
2102.857936732648
 30
0.0
 11
597.3660171775086
 21
2085.180267203648
 31
0.0
  0
LINE
  5
3B5
330
1F
100
AcDbEntity
  8
LAY-10
  6
CONTINUOUS
 62
     7
100
AcDbLine
 10
597.3660171775086
 20
2102.857936732648
 30
0.0
 11
615.0436867072099
 21
2120.535606262649
 31
0.0
  0
LINE
  5
3B6
330
1F
100
AcDbEntity
  8
LAY-10
  6
CONTINUOUS
 62
     7
100
AcDbLine
 10
615.0436867073099
 20
2173.568614850649
 30
0.0
 11
632.7213562369093
 21
2155.890945321649
 31
0.0
  0
LINE
  5
3B7
330
1F
100
AcDbEntity
  8
LAY-10
  6
CONTINUOUS
 62
     7
100
AcDbLine
 10
650.3990257666087
 20
2191.246284380649
 30
0.0
 11
632.7213562369093
 21
2173.568614850649
 31
0.0
  0
LINE
  5
3B8
330
1F
100
AcDbEntity
  8
LAY-10
  6
CONTINUOUS
 62
     7
100
AcDbLine
 10
615.0436867073099
 20
2191.246284380649
 30
0.0
 11
597.3660171776087
 21
2173.568614850649
 31
0.0
  0
LINE
  5
3B9
330
1F
100
AcDbEntity
  8
LAY-10
  6
CONTINUOUS
 62
     7
100
AcDbLine
 10
650.3990257666087
 20
2173.568614850649
 30
0.0
 11
668.0766952963081
 21
2155.890945321649
 31
0.0
  0
LINE
  5
3BA
330
1F
100
AcDbEntity
  8
LAY-10
  6
CONTINUOUS
 62
     7
100
AcDbLine
 10
632.7213562369093
 20
2138.213275791649
 30
0.0
 11
650.3990257666087
 21
2155.890945321649
 31
0.0
  0
LINE
  5
3BB
330
1F
100
AcDbEntity
  8
LAY-10
  6
CONTINUOUS
 62
     7
100
AcDbLine
 10
615.0436867072099
 20
2138.213275791649
 30
0.0
 11
632.7213562369093
 21
2120.535606262649
 31
0.0
  0
LINE
  5
3BC
330
1F
100
AcDbEntity
  8
LAY-10
  6
CONTINUOUS
 62
     7
100
AcDbLine
 10
597.3660171775086
 20
2155.890945321648
 30
0.0
 11
579.6883476479093
 21
2173.568614850649
 31
0.0
  0
LINE
  5
3BD
330
1F
100
AcDbEntity
  8
LAY-10
  6
CONTINUOUS
 62
     7
100
AcDbLine
 10
579.6883476479093
 20
2191.246284380649
 30
0.0
 11
571.2213562370093
 21
2182.779292969605
 31
0.0
  0
LINE
  5
3BE
330
1F
100
AcDbEntity
  8
LAY-10
  6
CONTINUOUS
 62
     7
100
AcDbLine
 10
579.6883476479093
 20
2155.890945321648
 30
0.0
 11
571.2213562370093
 21
2147.423953910605
 31
0.0
  0
LINE
  5
3BF
330
1F
100
AcDbEntity
  8
LAY-10
  6
CONTINUOUS
 62
     7
100
AcDbLine
 10
579.6883476479093
 20
2138.213275791649
 30
0.0
 11
597.3660171775086
 21
2120.535606262649
 31
0.0
  0
LINE
  5
3C0
330
1F
100
AcDbEntity
  8
LAY-10
  6
CONTINUOUS
 62
     7
100
AcDbLine
 10
615.0436867072099
 20
2155.890945321648
 30
0.0
 11
597.3660171775086
 21
2138.213275791649
 31
0.0
  0
LINE
  5
3C1
330
1F
100
AcDbEntity
  8
LAY-10
  6
CONTINUOUS
 62
     7
100
AcDbLine
 10
579.6883476478092
 20
2120.535606262648
 30
0.0
 11
571.2213562370093
 21
2112.068614851704
 31
0.0
  0
LINE
  5
3C2
330
1F
100
AcDbEntity
  8
LAY-10
  6
CONTINUOUS
 62
     7
100
AcDbLine
 10
703.4320343557088
 20
2261.95696249865
 30
0.0
 11
685.7543648260094
 21
2279.634632028649
 31
0.0
  0
LINE
  5
3C3
330
1F
100
AcDbEntity
  8
LAY-10
  6
CONTINUOUS
 62
     7
100
AcDbLine
 10
650.3990257667087
 20
2208.92395390965
 30
0.0
 11
668.0766952963081
 21
2191.246284380649
 31
0.0
  0
LINE
  5
3C4
330
1F
100
AcDbEntity
  8
LAY-10
  6
CONTINUOUS
 62
     7
100
AcDbLine
 10
685.7543648260094
 20
2208.92395390965
 30
0.0
 11
703.4320343557088
 21
2191.246284380649
 31
0.0
  0
LINE
  5
3C5
330
1F
100
AcDbEntity
  8
LAY-10
  6
CONTINUOUS
 62
     7
100
AcDbLine
 10
703.4320343557088
 20
2244.27929296865
 30
0.0
 11
721.1097038853081
 21
2261.95696249865
 31
0.0
  0
LINE
  5
3C6
330
1F
100
AcDbEntity
  8
LAY-10
  6
CONTINUOUS
 62
     7
100
AcDbLine
 10
703.4320343557088
 20
2208.92395390965
 30
0.0
 11
721.1097038853081
 21
2226.601623439649
 31
0.0
  0
LINE
  5
3C7
330
1F
100
AcDbEntity
  8
LAY-10
  6
CONTINUOUS
 62
     7
100
AcDbLine
 10
721.1097038853081
 20
2244.27929296865
 30
0.0
 11
738.7873734150094
 21
2226.601623439649
 31
0.0
  0
LINE
  5
3C8
330
1F
100
AcDbEntity
  8
LAY-10
  6
CONTINUOUS
 62
     7
100
AcDbLine
 10
632.7213562369093
 20
2191.246284380649
 30
0.0
 11
615.0436867073099
 21
2208.92395390965
 31
0.0
  0
LINE
  5
3C9
330
1F
100
AcDbEntity
  8
LAY-10
  6
CONTINUOUS
 62
     7
100
AcDbLine
 10
597.3660171776087
 20
2191.246284380649
 30
0.0
 11
579.6883476479093
 21
2208.92395390965
 31
0.0
  0
LINE
  5
3CA
330
1F
100
AcDbEntity
  8
LAY-10
  6
CONTINUOUS
 62
     7
100
AcDbLine
 10
579.6883476480093
 20
2226.601623440648
 30
0.0
 11
571.2213562370093
 21
2218.134632029504
 31
0.0
  0
LINE
  5
3CB
330
1F
100
AcDbEntity
  8
LAY-10
  6
CONTINUOUS
 62
     7
100
AcDbLine
 10
674.7213562377133
 20
2286.27929296865
 30
0.0
 11
668.0766952955059
 21
2279.634632026854
 31
0.0
  0
LINE
  5
3CC
330
1F
100
AcDbEntity
  8
LAY-10
  6
CONTINUOUS
 62
     7
100
AcDbLine
 10
579.6883476493099
 20
2261.956962497046
 30
0.0
 11
571.2213562369839
 21
2253.489971084576
 31
0.0
  0
LINE
  5
3CD
330
1F
100
AcDbEntity
  8
LAY-10
  6
CONTINUOUS
 62
     7
100
AcDbLine
 10
597.3660171775086
 20
2279.634632025846
 30
0.0
 11
604.0106781199706
 21
2286.279292968647
 31
0.0
  0
LINE
  5
3CE
330
1F
100
AcDbEntity
  8
LAY-10
  6
CONTINUOUS
 62
     7
100
AcDbLine
 10
738.2940442131644
 20
2262.450291700602
 30
0.0
 11
721.10970388541
 21
2279.634632028649
 31
0.0
  0
LINE
  5
3CF
330
1F
100
AcDbEntity
  8
LAY-10
  6
CONTINUOUS
 62
     7
100
AcDbLine
 10
738.7873734147092
 20
2244.27929296865
 30
0.0
 11
756.4650429443086
 21
2261.95696249865
 31
0.0
  0
LINE
  5
3D0
330
1F
100
AcDbEntity
  8
LAY-10
  6
CONTINUOUS
 62
     7
100
AcDbLine
 10
615.0436867078065
 20
2279.634632026448
 30
0.0
 11
618.3990257656374
 21
2276.279292968617
 31
0.0
  0
LINE
  5
3D1
330
1F
100
AcDbEntity
  8
LAY-10
  6
CONTINUOUS
 62
     7
100
AcDbLine
 10
604.721356236973
 20
2251.634632027138
 30
0.0
 11
597.3660171780089
 21
2244.279292968048
 31
0.0
  0
LINE
  5
3D2
330
1F
100
AcDbEntity
  8
LAY-10
  6
CONTINUOUS
 62
     7
100
AcDbLine
 10
614.7213562362908
 20
2226.279292968624
 30
0.0
 11
597.3660171776087
 21
2208.92395390965
 31
0.0
  0
LINE
  5
3D3
330
1F
100
AcDbEntity
  8
LAY-10
  6
CONTINUOUS
 62
     7
100
AcDbLine
 10
668.0766952948111
 20
2226.601623438552
 30
0.0
 11
654.721356236973
 21
2239.956962496841
 31
0.0
  0
LINE
  5
3D4
330
1F
100
AcDbEntity
  8
LAY-10
  6
CONTINUOUS
 62
     7
100
AcDbLine
 10
650.0766952956841
 20
2226.279292968619
 30
0.0
 11
632.7213562370093
 21
2208.92395390965
 31
0.0
  0
LINE
  5
3D5
330
1F
100
AcDbEntity
  8
LAY-10
  6
CONTINUOUS
 62
     7
100
AcDbLine
 10
668.0766952948075
 20
2261.956962497853
 30
0.0
 11
654.7213562369766
 21
2275.312301556209
 31
0.0
  0
LINE
  5
3D6
330
1F
100
AcDbEntity
  8
LAY-10
  6
CONTINUOUS
 62
     7
100
AcDbLine
 10
653.7543648246105
 20
2276.279292968612
 30
0.0
 11
650.3990257658047
 21
2279.634632027551
 31
0.0
  0
LINE
  5
3D7
330
1F
100
AcDbEntity
  8
LAY-10
  6
CONTINUOUS
 62
     7
100
AcDbLine
 10
672.0730990588513
 20
2248.27569673126
 30
0.0
 11
668.6990257666171
 21
2244.901623438968
 31
0.0
  0
LINE
  5
3D8
330
1F
100
AcDbEntity
  8
LAY-10
  6
CONTINUOUS
 62
     7
100
AcDbLine
 10
690.4326148913028
 20
2239.601042903542
 30
0.0
 11
703.4320343557088
 21
2226.601623439649
 31
0.0
  0
LINE
  5
3D9
330
1F
100
AcDbEntity
  8
LAY-10
  6
CONTINUOUS
 62
     7
100
AcDbLine
 10
1005.721356239214
 20
1148.92395390965
 30
0.0
 11
999.0766952979016
 21
1142.27929296845
 31
0.0
  0
LINE
  5
3DA
330
1F
100
AcDbEntity
  8
LAY-10
  6
CONTINUOUS
 62
     7
100
AcDbLine
 10
1058.754364825013
 20
1184.279292969452
 30
0.0
 11
1041.076695295712
 21
1201.956962498751
 31
0.0
  0
LINE
  5
3DB
330
1F
100
AcDbEntity
  8
LAY-10
  6
CONTINUOUS
 62
     7
100
AcDbLine
 10
1041.076695296312
 20
1166.601623439352
 30
0.0
 11
1058.754364825613
 21
1148.923953910053
 31
0.0
  0
LINE
  5
3DC
330
1F
100
AcDbEntity
  8
LAY-10
  6
CONTINUOUS
 62
     7
100
AcDbLine
 10
970.3660171777125
 20
1254.989971086451
 30
0.0
 11
952.6883476480111
 21
1237.312301556451
 31
0.0
  0
LINE
  5
3DD
330
1F
100
AcDbEntity
  8
LAY-10
  6
CONTINUOUS
 62
     7
100
AcDbLine
 10
952.6883476480111
 20
1201.956962497451
 30
0.0
 11
970.3660171777125
 21
1219.63463202745
 31
0.0
  0
LINE
  5
3DE
330
1F
100
AcDbEntity
  8
LAY-10
  6
CONTINUOUS
 62
     7
100
AcDbLine
 10
864.2999999995124
 20
1166.60162343845
 30
0.0
 11
881.9776695292117
 21
1148.923953908451
 31
0.0
  0
LINE
  5
3DF
330
1F
100
AcDbEntity
  8
LAY-10
  6
CONTINUOUS
 62
     7
100
AcDbLine
 10
857.655339058178
 20
1142.27929296845
 30
0.0
 11
864.2999999984409
 21
1148.923953908451
 31
0.0
  0
LINE
  5
3E0
330
1F
100
AcDbEntity
  8
LAY-10
  6
CONTINUOUS
 62
     7
100
AcDbLine
 10
893.0106781178479
 20
1142.27929296845
 30
0.0
 11
899.6553390581107
 21
1148.923953908451
 31
0.0
  0
LINE
  5
3E1
330
1F
100
AcDbEntity
  8
LAY-10
  6
CONTINUOUS
 62
     7
100
AcDbLine
 10
928.366017177525
 20
1142.27929296845
 30
0.0
 11
935.0106781184118
 21
1148.923953909451
 31
0.0
  0
LINE
  5
3E2
330
1F
100
AcDbEntity
  8
LAY-10
  6
CONTINUOUS
 62
     7
100
AcDbLine
 10
1067.221356237012
 20
1351.845310144397
 30
0.0
 11
1058.754364826212
 21
1343.378318733452
 31
0.0
  0
LINE
  5
3E3
330
1F
100
AcDbEntity
  8
LAY-10
  6
CONTINUOUS
 62
     7
100
AcDbLine
 10
1058.754364826212
 20
1325.700649204452
 30
0.0
 11
1041.076695296512
 21
1343.378318733452
 31
0.0
  0
LINE
  5
3E4
330
1F
100
AcDbEntity
  8
LAY-10
  6
CONTINUOUS
 62
     7
100
AcDbLine
 10
1041.076695296512
 20
1325.700649204452
 30
0.0
 11
1023.399025766811
 21
1308.022979674452
 31
0.0
  0
LINE
  5
3E5
330
1F
100
AcDbEntity
  8
LAY-10
  6
CONTINUOUS
 62
     7
100
AcDbLine
 10
1023.399025766711
 20
1254.989971086451
 30
0.0
 11
1005.721356237111
 21
1272.667640615451
 31
0.0
  0
LINE
  5
3E6
330
1F
100
AcDbEntity
  8
LAY-10
  6
CONTINUOUS
 62
     7
100
AcDbLine
 10
988.0436867074118
 20
1237.312301556451
 30
0.0
 11
1005.721356237111
 21
1254.989971086451
 31
0.0
  0
LINE
  5
3E7
330
1F
100
AcDbEntity
  8
LAY-10
  6
CONTINUOUS
 62
     7
100
AcDbLine
 10
1023.399025766711
 20
1237.312301556451
 30
0.0
 11
1041.076695296412
 21
1254.989971086451
 31
0.0
  0
LINE
  5
3E8
330
1F
100
AcDbEntity
  8
LAY-10
  6
CONTINUOUS
 62
     7
100
AcDbLine
 10
988.0436867074118
 20
1254.989971086451
 30
0.0
 11
970.3660171777125
 21
1272.667640615451
 31
0.0
  0
LINE
  5
3E9
330
1F
100
AcDbEntity
  8
LAY-10
  6
CONTINUOUS
 62
     7
100
AcDbLine
 10
1005.721356237111
 20
1290.345310145451
 30
0.0
 11
988.0436867074118
 21
1272.667640615451
 31
0.0
  0
LINE
  5
3EA
330
1F
100
AcDbEntity
  8
LAY-10
  6
CONTINUOUS
 62
     7
100
AcDbLine
 10
1023.399025766811
 20
1290.345310145451
 30
0.0
 11
1005.721356237111
 21
1308.022979674452
 31
0.0
  0
LINE
  5
3EB
330
1F
100
AcDbEntity
  8
LAY-10
  6
CONTINUOUS
 62
     7
100
AcDbLine
 10
1041.076695296512
 20
1272.667640615452
 30
0.0
 11
1058.754364826112
 21
1254.989971086451
 31
0.0
  0
LINE
  5
3EC
330
1F
100
AcDbEntity
  8
LAY-10
  6
CONTINUOUS
 62
     7
100
AcDbLine
 10
1058.754364826112
 20
1237.312301556451
 30
0.0
 11
1067.221356237012
 21
1245.779292967495
 31
0.0
  0
LINE
  5
3ED
330
1F
100
AcDbEntity
  8
LAY-10
  6
CONTINUOUS
 62
     7
100
AcDbLine
 10
1058.754364826112
 20
1272.667640615452
 30
0.0
 11
1067.221356237012
 21
1281.134632026495
 31
0.0
  0
LINE
  5
3EE
330
1F
100
AcDbEntity
  8
LAY-10
  6
CONTINUOUS
 62
     7
100
AcDbLine
 10
1058.754364826112
 20
1290.345310145451
 30
0.0
 11
1041.076695296512
 21
1308.022979674452
 31
0.0
  0
LINE
  5
3EF
330
1F
100
AcDbEntity
  8
LAY-10
  6
CONTINUOUS
 62
     7
100
AcDbLine
 10
1023.399025766811
 20
1272.667640615452
 30
0.0
 11
1041.076695296512
 21
1290.345310145451
 31
0.0
  0
LINE
  5
3F0
330
1F
100
AcDbEntity
  8
LAY-10
  6
CONTINUOUS
 62
     7
100
AcDbLine
 10
1058.754364826212
 20
1308.022979674452
 30
0.0
 11
1067.221356237012
 21
1316.489971085396
 31
0.0
  0
LINE
  5
3F1
330
1F
100
AcDbEntity
  8
LAY-10
  6
CONTINUOUS
 62
     7
100
AcDbLine
 10
935.0106781183117
 20
1166.60162343845
 30
0.0
 11
952.6883476480111
 21
1148.923953908451
 31
0.0
  0
LINE
  5
3F2
330
1F
100
AcDbEntity
  8
LAY-10
  6
CONTINUOUS
 62
     7
100
AcDbLine
 10
988.0436867073117
 20
1219.63463202745
 30
0.0
 11
970.3660171777125
 21
1237.312301556451
 31
0.0
  0
LINE
  5
3F3
330
1F
100
AcDbEntity
  8
LAY-10
  6
CONTINUOUS
 62
     7
100
AcDbLine
 10
952.6883476480111
 20
1219.63463202745
 30
0.0
 11
935.0106781183117
 21
1237.312301556451
 31
0.0
  0
LINE
  5
3F4
330
1F
100
AcDbEntity
  8
LAY-10
  6
CONTINUOUS
 62
     7
100
AcDbLine
 10
935.0106781183117
 20
1184.27929296845
 30
0.0
 11
917.3330085887125
 21
1166.60162343845
 31
0.0
  0
LINE
  5
3F5
330
1F
100
AcDbEntity
  8
LAY-10
  6
CONTINUOUS
 62
     7
100
AcDbLine
 10
935.0106781183117
 20
1219.63463202745
 30
0.0
 11
917.3330085887125
 21
1201.956962497451
 31
0.0
  0
LINE
  5
3F6
330
1F
100
AcDbEntity
  8
LAY-10
  6
CONTINUOUS
 62
     7
100
AcDbLine
 10
917.3330085887125
 20
1184.27929296845
 30
0.0
 11
899.6553390590111
 21
1201.956962497451
 31
0.0
  0
LINE
  5
3F7
330
1F
100
AcDbEntity
  8
LAY-10
  6
CONTINUOUS
 62
     7
100
AcDbLine
 10
1005.721356237111
 20
1237.312301556451
 30
0.0
 11
1023.399025766711
 21
1219.63463202745
 31
0.0
  0
LINE
  5
3F8
330
1F
100
AcDbEntity
  8
LAY-10
  6
CONTINUOUS
 62
     7
100
AcDbLine
 10
1041.076695296412
 20
1237.312301556451
 30
0.0
 11
1058.754364826112
 21
1219.63463202745
 31
0.0
  0
LINE
  5
3F9
330
1F
100
AcDbEntity
  8
LAY-10
  6
CONTINUOUS
 62
     7
100
AcDbLine
 10
1058.754364826012
 20
1201.956962496452
 30
0.0
 11
1067.221356237012
 21
1210.423953907596
 31
0.0
  0
LINE
  5
3FA
330
1F
100
AcDbEntity
  8
LAY-10
  6
CONTINUOUS
 62
     7
100
AcDbLine
 10
963.7213562363072
 20
1142.27929296845
 30
0.0
 11
970.3660171785145
 21
1148.923953910246
 31
0.0
  0
LINE
  5
3FB
330
1F
100
AcDbEntity
  8
LAY-10
  6
CONTINUOUS
 62
     7
100
AcDbLine
 10
1058.754364824711
 20
1166.601623440054
 30
0.0
 11
1067.221356237037
 21
1175.068614852524
 31
0.0
  0
LINE
  5
3FC
330
1F
100
AcDbEntity
  8
LAY-10
  6
CONTINUOUS
 62
     7
100
AcDbLine
 10
1041.076695296512
 20
1148.923953911254
 30
0.0
 11
1034.43203435405
 21
1142.279292968452
 31
0.0
  0
LINE
  5
3FD
330
1F
100
AcDbEntity
  8
LAY-10
  6
CONTINUOUS
 62
     7
100
AcDbLine
 10
900.1486682608561
 20
1166.108294236498
 30
0.0
 11
917.3330085886105
 21
1148.923953908451
 31
0.0
  0
LINE
  5
3FE
330
1F
100
AcDbEntity
  8
LAY-10
  6
CONTINUOUS
 62
     7
100
AcDbLine
 10
899.6553390593112
 20
1184.27929296845
 30
0.0
 11
881.9776695297119
 21
1166.60162343845
 31
0.0
  0
LINE
  5
3FF
330
1F
100
AcDbEntity
  8
LAY-10
  6
CONTINUOUS
 62
     7
100
AcDbLine
 10
1023.399025766214
 20
1148.923953910652
 30
0.0
 11
1020.043686708383
 21
1152.279292968482
 31
0.0
  0
LINE
  5
400
330
1F
100
AcDbEntity
  8
LAY-10
  6
CONTINUOUS
 62
     7
100
AcDbLine
 10
1033.721356237048
 20
1176.923953909962
 30
0.0
 11
1041.076695296012
 21
1184.279292969052
 31
0.0
  0
LINE
  5
401
330
1F
100
AcDbEntity
  8
LAY-10
  6
CONTINUOUS
 62
     7
100
AcDbLine
 10
1023.72135623773
 20
1202.279292968476
 30
0.0
 11
1041.076695296412
 21
1219.63463202745
 31
0.0
  0
LINE
  5
402
330
1F
100
AcDbEntity
  8
LAY-10
  6
CONTINUOUS
 62
     7
100
AcDbLine
 10
970.3660171792094
 20
1201.956962498548
 30
0.0
 11
983.7213562370476
 21
1188.601623440259
 31
0.0
  0
LINE
  5
403
330
1F
100
AcDbEntity
  8
LAY-10
  6
CONTINUOUS
 62
     7
100
AcDbLine
 10
988.3660171783363
 20
1202.279292968481
 30
0.0
 11
1005.721356237011
 21
1219.63463202745
 31
0.0
  0
LINE
  5
404
330
1F
100
AcDbEntity
  8
LAY-10
  6
CONTINUOUS
 62
     7
100
AcDbLine
 10
970.3660171792131
 20
1166.601623439247
 30
0.0
 11
983.7213562370439
 21
1153.246284380891
 31
0.0
  0
LINE
  5
405
330
1F
100
AcDbEntity
  8
LAY-10
  6
CONTINUOUS
 62
     7
100
AcDbLine
 10
984.6883476494099
 20
1152.279292968488
 30
0.0
 11
988.0436867082159
 21
1148.923953909549
 31
0.0
  0
LINE
  5
406
330
1F
100
AcDbEntity
  8
LAY-10
  6
CONTINUOUS
 62
     7
100
AcDbLine
 10
966.3696134151692
 20
1180.28288920584
 30
0.0
 11
969.7436867074034
 21
1183.656962498132
 31
0.0
  0
LINE
  5
407
330
1F
100
AcDbEntity
  8
LAY-10
  6
CONTINUOUS
 62
     7
100
AcDbLine
 10
948.0100975827177
 20
1188.957543033558
 30
0.0
 11
935.0106781183117
 21
1201.956962497451
 31
0.0
  0
LINE
  5
408
330
1F
100
AcDbEntity
  8
LAY-10
  6
CONTINUOUS
 62
     7
100
AcDbLine
 10
1130.721356235107
 20
2279.63463202745
 30
0.0
 11
1137.366017176419
 21
2286.27929296865
 31
0.0
  0
LINE
  5
409
330
1F
100
AcDbEntity
  8
LAY-10
  6
CONTINUOUS
 62
     7
100
AcDbLine
 10
1077.688347649308
 20
2244.279292967648
 30
0.0
 11
1095.366017178609
 21
2226.601623438349
 31
0.0
  0
LINE
  5
40A
330
1F
100
AcDbEntity
  8
LAY-10
  6
CONTINUOUS
 62
     7
100
AcDbLine
 10
1095.366017178009
 20
2261.956962497748
 30
0.0
 11
1077.688347648708
 21
2279.634632027047
 31
0.0
  0
LINE
  5
40B
330
1F
100
AcDbEntity
  8
LAY-10
  6
CONTINUOUS
 62
     7
100
AcDbLine
 10
1166.076695296608
 20
2173.568614850649
 30
0.0
 11
1183.754364826309
 21
2191.246284380649
 31
0.0
  0
LINE
  5
40C
330
1F
100
AcDbEntity
  8
LAY-10
  6
CONTINUOUS
 62
     7
100
AcDbLine
 10
1183.754364826309
 20
2226.601623439649
 30
0.0
 11
1166.076695296608
 21
2208.92395390965
 31
0.0
  0
LINE
  5
40D
330
1F
100
AcDbEntity
  8
LAY-10
  6
CONTINUOUS
 62
     7
100
AcDbLine
 10
1272.142712474808
 20
2261.95696249865
 30
0.0
 11
1254.465042945109
 21
2279.634632028649
 31
0.0
  0
LINE
  5
40E
330
1F
100
AcDbEntity
  8
LAY-10
  6
CONTINUOUS
 62
     7
100
AcDbLine
 10
1278.787373416143
 20
2286.27929296865
 30
0.0
 11
1272.14271247588
 21
2279.634632028649
 31
0.0
  0
LINE
  5
40F
330
1F
100
AcDbEntity
  8
LAY-10
  6
CONTINUOUS
 62
     7
100
AcDbLine
 10
1243.432034356473
 20
2286.27929296865
 30
0.0
 11
1236.78737341621
 21
2279.634632028649
 31
0.0
  0
LINE
  5
410
330
1F
100
AcDbEntity
  8
LAY-10
  6
CONTINUOUS
 62
     7
100
AcDbLine
 10
1208.076695296796
 20
2286.27929296865
 30
0.0
 11
1201.432034355909
 21
2279.634632027649
 31
0.0
  0
LINE
  5
411
330
1F
100
AcDbEntity
  8
LAY-10
  6
CONTINUOUS
 62
     7
100
AcDbLine
 10
1069.221356237309
 20
2076.713275792704
 30
0.0
 11
1077.688347648109
 21
2085.180267203648
 31
0.0
  0
LINE
  5
412
330
1F
100
AcDbEntity
  8
LAY-10
  6
CONTINUOUS
 62
     7
100
AcDbLine
 10
1077.688347648109
 20
2102.857936732648
 30
0.0
 11
1095.366017177809
 21
2085.180267203648
 31
0.0
  0
LINE
  5
413
330
1F
100
AcDbEntity
  8
LAY-10
  6
CONTINUOUS
 62
     7
100
AcDbLine
 10
1095.366017177809
 20
2102.857936732648
 30
0.0
 11
1113.04368670751
 21
2120.535606262649
 31
0.0
  0
LINE
  5
414
330
1F
100
AcDbEntity
  8
LAY-10
  6
CONTINUOUS
 62
     7
100
AcDbLine
 10
1113.04368670761
 20
2173.568614850649
 30
0.0
 11
1130.721356237209
 21
2155.890945321649
 31
0.0
  0
LINE
  5
415
330
1F
100
AcDbEntity
  8
LAY-10
  6
CONTINUOUS
 62
     7
100
AcDbLine
 10
1148.399025766909
 20
2191.246284380649
 30
0.0
 11
1130.721356237209
 21
2173.568614850649
 31
0.0
  0
LINE
  5
416
330
1F
100
AcDbEntity
  8
LAY-10
  6
CONTINUOUS
 62
     7
100
AcDbLine
 10
1113.04368670761
 20
2191.246284380649
 30
0.0
 11
1095.366017177909
 21
2173.568614850649
 31
0.0
  0
LINE
  5
417
330
1F
100
AcDbEntity
  8
LAY-10
  6
CONTINUOUS
 62
     7
100
AcDbLine
 10
1148.399025766909
 20
2173.568614850649
 30
0.0
 11
1166.076695296608
 21
2155.890945321649
 31
0.0
  0
LINE
  5
418
330
1F
100
AcDbEntity
  8
LAY-10
  6
CONTINUOUS
 62
     7
100
AcDbLine
 10
1130.721356237209
 20
2138.213275791649
 30
0.0
 11
1148.399025766909
 21
2155.890945321649
 31
0.0
  0
LINE
  5
419
330
1F
100
AcDbEntity
  8
LAY-10
  6
CONTINUOUS
 62
     7
100
AcDbLine
 10
1113.04368670751
 20
2138.213275791649
 30
0.0
 11
1130.721356237209
 21
2120.535606262649
 31
0.0
  0
LINE
  5
41A
330
1F
100
AcDbEntity
  8
LAY-10
  6
CONTINUOUS
 62
     7
100
AcDbLine
 10
1095.366017177809
 20
2155.890945321648
 30
0.0
 11
1077.688347648209
 21
2173.568614850649
 31
0.0
  0
LINE
  5
41B
330
1F
100
AcDbEntity
  8
LAY-10
  6
CONTINUOUS
 62
     7
100
AcDbLine
 10
1077.688347648209
 20
2191.246284380649
 30
0.0
 11
1069.221356237309
 21
2182.779292969605
 31
0.0
  0
LINE
  5
41C
330
1F
100
AcDbEntity
  8
LAY-10
  6
CONTINUOUS
 62
     7
100
AcDbLine
 10
1077.688347648209
 20
2155.890945321648
 30
0.0
 11
1069.221356237309
 21
2147.423953910605
 31
0.0
  0
LINE
  5
41D
330
1F
100
AcDbEntity
  8
LAY-10
  6
CONTINUOUS
 62
     7
100
AcDbLine
 10
1077.688347648209
 20
2138.213275791649
 30
0.0
 11
1095.366017177809
 21
2120.535606262649
 31
0.0
  0
LINE
  5
41E
330
1F
100
AcDbEntity
  8
LAY-10
  6
CONTINUOUS
 62
     7
100
AcDbLine
 10
1113.04368670751
 20
2155.890945321648
 30
0.0
 11
1095.366017177809
 21
2138.213275791649
 31
0.0
  0
LINE
  5
41F
330
1F
100
AcDbEntity
  8
LAY-10
  6
CONTINUOUS
 62
     7
100
AcDbLine
 10
1077.688347648109
 20
2120.535606262648
 30
0.0
 11
1069.221356237309
 21
2112.068614851704
 31
0.0
  0
LINE
  5
420
330
1F
100
AcDbEntity
  8
LAY-10
  6
CONTINUOUS
 62
     7
100
AcDbLine
 10
1201.432034356009
 20
2261.95696249865
 30
0.0
 11
1183.754364826309
 21
2279.634632028649
 31
0.0
  0
LINE
  5
421
330
1F
100
AcDbEntity
  8
LAY-10
  6
CONTINUOUS
 62
     7
100
AcDbLine
 10
1148.399025767009
 20
2208.92395390965
 30
0.0
 11
1166.076695296608
 21
2191.246284380649
 31
0.0
  0
LINE
  5
422
330
1F
100
AcDbEntity
  8
LAY-10
  6
CONTINUOUS
 62
     7
100
AcDbLine
 10
1183.754364826309
 20
2208.92395390965
 30
0.0
 11
1201.432034356009
 21
2191.246284380649
 31
0.0
  0
LINE
  5
423
330
1F
100
AcDbEntity
  8
LAY-10
  6
CONTINUOUS
 62
     7
100
AcDbLine
 10
1201.432034356009
 20
2244.27929296865
 30
0.0
 11
1219.109703885608
 21
2261.95696249865
 31
0.0
  0
LINE
  5
424
330
1F
100
AcDbEntity
  8
LAY-10
  6
CONTINUOUS
 62
     7
100
AcDbLine
 10
1201.432034356009
 20
2208.92395390965
 30
0.0
 11
1219.109703885608
 21
2226.601623439649
 31
0.0
  0
LINE
  5
425
330
1F
100
AcDbEntity
  8
LAY-10
  6
CONTINUOUS
 62
     7
100
AcDbLine
 10
1219.109703885608
 20
2244.27929296865
 30
0.0
 11
1236.78737341531
 21
2226.601623439649
 31
0.0
  0
LINE
  5
426
330
1F
100
AcDbEntity
  8
LAY-10
  6
CONTINUOUS
 62
     7
100
AcDbLine
 10
1130.721356237209
 20
2191.246284380649
 30
0.0
 11
1113.04368670761
 21
2208.92395390965
 31
0.0
  0
LINE
  5
427
330
1F
100
AcDbEntity
  8
LAY-10
  6
CONTINUOUS
 62
     7
100
AcDbLine
 10
1095.366017177909
 20
2191.246284380649
 30
0.0
 11
1077.688347648209
 21
2208.92395390965
 31
0.0
  0
LINE
  5
428
330
1F
100
AcDbEntity
  8
LAY-10
  6
CONTINUOUS
 62
     7
100
AcDbLine
 10
1077.688347648309
 20
2226.601623440648
 30
0.0
 11
1069.221356237309
 21
2218.134632029504
 31
0.0
  0
LINE
  5
429
330
1F
100
AcDbEntity
  8
LAY-10
  6
CONTINUOUS
 62
     7
100
AcDbLine
 10
1172.721356238013
 20
2286.27929296865
 30
0.0
 11
1166.076695295806
 21
2279.634632026854
 31
0.0
  0
LINE
  5
42A
330
1F
100
AcDbEntity
  8
LAY-10
  6
CONTINUOUS
 62
     7
100
AcDbLine
 10
1077.68834764961
 20
2261.956962497046
 30
0.0
 11
1069.221356237284
 21
2253.489971084576
 31
0.0
  0
LINE
  5
42B
330
1F
100
AcDbEntity
  8
LAY-10
  6
CONTINUOUS
 62
     7
100
AcDbLine
 10
1095.366017177809
 20
2279.634632025846
 30
0.0
 11
1102.010678120271
 21
2286.279292968647
 31
0.0
  0
LINE
  5
42C
330
1F
100
AcDbEntity
  8
LAY-10
  6
CONTINUOUS
 62
     7
100
AcDbLine
 10
1236.294044213465
 20
2262.450291700602
 30
0.0
 11
1219.10970388571
 21
2279.634632028649
 31
0.0
  0
LINE
  5
42D
330
1F
100
AcDbEntity
  8
LAY-10
  6
CONTINUOUS
 62
     7
100
AcDbLine
 10
1236.787373415009
 20
2244.27929296865
 30
0.0
 11
1254.465042944609
 21
2261.95696249865
 31
0.0
  0
LINE
  5
42E
330
1F
100
AcDbEntity
  8
LAY-10
  6
CONTINUOUS
 62
     7
100
AcDbLine
 10
1113.043686708107
 20
2279.634632026448
 30
0.0
 11
1116.399025765937
 21
2276.279292968617
 31
0.0
  0
LINE
  5
42F
330
1F
100
AcDbEntity
  8
LAY-10
  6
CONTINUOUS
 62
     7
100
AcDbLine
 10
1102.721356237273
 20
2251.634632027138
 30
0.0
 11
1095.366017178309
 21
2244.279292968048
 31
0.0
  0
LINE
  5
430
330
1F
100
AcDbEntity
  8
LAY-10
  6
CONTINUOUS
 62
     7
100
AcDbLine
 10
1112.721356236591
 20
2226.279292968624
 30
0.0
 11
1095.366017177909
 21
2208.92395390965
 31
0.0
  0
LINE
  5
431
330
1F
100
AcDbEntity
  8
LAY-10
  6
CONTINUOUS
 62
     7
100
AcDbLine
 10
1166.076695295111
 20
2226.601623438552
 30
0.0
 11
1152.721356237273
 21
2239.956962496841
 31
0.0
  0
LINE
  5
432
330
1F
100
AcDbEntity
  8
LAY-10
  6
CONTINUOUS
 62
     7
100
AcDbLine
 10
1148.076695295984
 20
2226.279292968619
 30
0.0
 11
1130.721356237309
 21
2208.92395390965
 31
0.0
  0
LINE
  5
433
330
1F
100
AcDbEntity
  8
LAY-10
  6
CONTINUOUS
 62
     7
100
AcDbLine
 10
1166.076695295108
 20
2261.956962497853
 30
0.0
 11
1152.721356237277
 21
2275.312301556209
 31
0.0
  0
LINE
  5
434
330
1F
100
AcDbEntity
  8
LAY-10
  6
CONTINUOUS
 62
     7
100
AcDbLine
 10
1151.754364824911
 20
2276.279292968612
 30
0.0
 11
1148.399025766105
 21
2279.634632027551
 31
0.0
  0
LINE
  5
435
330
1F
100
AcDbEntity
  8
LAY-10
  6
CONTINUOUS
 62
     7
100
AcDbLine
 10
1170.073099059151
 20
2248.27569673126
 30
0.0
 11
1166.699025766917
 21
2244.901623438968
 31
0.0
  0
LINE
  5
436
330
1F
100
AcDbEntity
  8
LAY-10
  6
CONTINUOUS
 62
     7
100
AcDbLine
 10
1188.432614891603
 20
2239.601042903542
 30
0.0
 11
1201.432034356009
 21
2226.601623439649
 31
0.0
  0
LINE
  5
437
330
1F
100
AcDbEntity
  8
LAY-10
  6
CONTINUOUS
 62
     7
100
AcDbLine
 10
1503.721356239514
 20
1148.92395390965
 30
0.0
 11
1497.076695298202
 21
1142.27929296845
 31
0.0
  0
LINE
  5
438
330
1F
100
AcDbEntity
  8
LAY-10
  6
CONTINUOUS
 62
     7
100
AcDbLine
 10
1556.754364825313
 20
1184.279292969452
 30
0.0
 11
1539.076695296012
 21
1201.956962498751
 31
0.0
  0
LINE
  5
439
330
1F
100
AcDbEntity
  8
LAY-10
  6
CONTINUOUS
 62
     7
100
AcDbLine
 10
1539.076695296612
 20
1166.601623439352
 30
0.0
 11
1556.754364825913
 21
1148.923953910053
 31
0.0
  0
LINE
  5
43A
330
1F
100
AcDbEntity
  8
LAY-10
  6
CONTINUOUS
 62
     7
100
AcDbLine
 10
1468.366017178012
 20
1254.989971086451
 30
0.0
 11
1450.688347648311
 21
1237.312301556451
 31
0.0
  0
LINE
  5
43B
330
1F
100
AcDbEntity
  8
LAY-10
  6
CONTINUOUS
 62
     7
100
AcDbLine
 10
1450.688347648311
 20
1201.956962497451
 30
0.0
 11
1468.366017178012
 21
1219.63463202745
 31
0.0
  0
LINE
  5
43C
330
1F
100
AcDbEntity
  8
LAY-10
  6
CONTINUOUS
 62
     7
100
AcDbLine
 10
1362.299999999812
 20
1166.60162343845
 30
0.0
 11
1379.977669529512
 21
1148.923953908451
 31
0.0
  0
LINE
  5
43D
330
1F
100
AcDbEntity
  8
LAY-10
  6
CONTINUOUS
 62
     7
100
AcDbLine
 10
1355.655339058478
 20
1142.27929296845
 30
0.0
 11
1362.299999998741
 21
1148.923953908451
 31
0.0
  0
LINE
  5
43E
330
1F
100
AcDbEntity
  8
LAY-10
  6
CONTINUOUS
 62
     7
100
AcDbLine
 10
1391.010678118148
 20
1142.27929296845
 30
0.0
 11
1397.655339058411
 21
1148.923953908451
 31
0.0
  0
LINE
  5
43F
330
1F
100
AcDbEntity
  8
LAY-10
  6
CONTINUOUS
 62
     7
100
AcDbLine
 10
1426.366017177825
 20
1142.27929296845
 30
0.0
 11
1433.010678118712
 21
1148.923953909451
 31
0.0
  0
LINE
  5
440
330
1F
100
AcDbEntity
  8
LAY-10
  6
CONTINUOUS
 62
     7
100
AcDbLine
 10
1565.221356237311
 20
1351.845310144397
 30
0.0
 11
1556.754364826511
 21
1343.378318733452
 31
0.0
  0
LINE
  5
441
330
1F
100
AcDbEntity
  8
LAY-10
  6
CONTINUOUS
 62
     7
100
AcDbLine
 10
1556.754364826511
 20
1325.700649204452
 30
0.0
 11
1539.076695296812
 21
1343.378318733452
 31
0.0
  0
LINE
  5
442
330
1F
100
AcDbEntity
  8
LAY-10
  6
CONTINUOUS
 62
     7
100
AcDbLine
 10
1539.076695296812
 20
1325.700649204452
 30
0.0
 11
1521.399025767111
 21
1308.022979674452
 31
0.0
  0
LINE
  5
443
330
1F
100
AcDbEntity
  8
LAY-10
  6
CONTINUOUS
 62
     7
100
AcDbLine
 10
1521.399025767011
 20
1254.989971086451
 30
0.0
 11
1503.721356237411
 21
1272.667640615451
 31
0.0
  0
LINE
  5
444
330
1F
100
AcDbEntity
  8
LAY-10
  6
CONTINUOUS
 62
     7
100
AcDbLine
 10
1486.043686707712
 20
1237.312301556451
 30
0.0
 11
1503.721356237411
 21
1254.989971086451
 31
0.0
  0
LINE
  5
445
330
1F
100
AcDbEntity
  8
LAY-10
  6
CONTINUOUS
 62
     7
100
AcDbLine
 10
1521.399025767011
 20
1237.312301556451
 30
0.0
 11
1539.076695296712
 21
1254.989971086451
 31
0.0
  0
LINE
  5
446
330
1F
100
AcDbEntity
  8
LAY-10
  6
CONTINUOUS
 62
     7
100
AcDbLine
 10
1486.043686707712
 20
1254.989971086451
 30
0.0
 11
1468.366017178012
 21
1272.667640615451
 31
0.0
  0
LINE
  5
447
330
1F
100
AcDbEntity
  8
LAY-10
  6
CONTINUOUS
 62
     7
100
AcDbLine
 10
1503.721356237411
 20
1290.345310145451
 30
0.0
 11
1486.043686707712
 21
1272.667640615451
 31
0.0
  0
LINE
  5
448
330
1F
100
AcDbEntity
  8
LAY-10
  6
CONTINUOUS
 62
     7
100
AcDbLine
 10
1521.399025767111
 20
1290.345310145451
 30
0.0
 11
1503.721356237411
 21
1308.022979674452
 31
0.0
  0
LINE
  5
449
330
1F
100
AcDbEntity
  8
LAY-10
  6
CONTINUOUS
 62
     7
100
AcDbLine
 10
1539.076695296812
 20
1272.667640615452
 30
0.0
 11
1556.754364826411
 21
1254.989971086451
 31
0.0
  0
LINE
  5
44A
330
1F
100
AcDbEntity
  8
LAY-10
  6
CONTINUOUS
 62
     7
100
AcDbLine
 10
1556.754364826411
 20
1237.312301556451
 30
0.0
 11
1565.221356237311
 21
1245.779292967495
 31
0.0
  0
LINE
  5
44B
330
1F
100
AcDbEntity
  8
LAY-10
  6
CONTINUOUS
 62
     7
100
AcDbLine
 10
1556.754364826411
 20
1272.667640615452
 30
0.0
 11
1565.221356237311
 21
1281.134632026495
 31
0.0
  0
LINE
  5
44C
330
1F
100
AcDbEntity
  8
LAY-10
  6
CONTINUOUS
 62
     7
100
AcDbLine
 10
1556.754364826411
 20
1290.345310145451
 30
0.0
 11
1539.076695296812
 21
1308.022979674452
 31
0.0
  0
LINE
  5
44D
330
1F
100
AcDbEntity
  8
LAY-10
  6
CONTINUOUS
 62
     7
100
AcDbLine
 10
1521.399025767111
 20
1272.667640615452
 30
0.0
 11
1539.076695296812
 21
1290.345310145451
 31
0.0
  0
LINE
  5
44E
330
1F
100
AcDbEntity
  8
LAY-10
  6
CONTINUOUS
 62
     7
100
AcDbLine
 10
1556.754364826511
 20
1308.022979674452
 30
0.0
 11
1565.221356237311
 21
1316.489971085396
 31
0.0
  0
LINE
  5
44F
330
1F
100
AcDbEntity
  8
LAY-10
  6
CONTINUOUS
 62
     7
100
AcDbLine
 10
1433.010678118612
 20
1166.60162343845
 30
0.0
 11
1450.688347648311
 21
1148.923953908451
 31
0.0
  0
LINE
  5
450
330
1F
100
AcDbEntity
  8
LAY-10
  6
CONTINUOUS
 62
     7
100
AcDbLine
 10
1486.043686707612
 20
1219.63463202745
 30
0.0
 11
1468.366017178012
 21
1237.312301556451
 31
0.0
  0
LINE
  5
451
330
1F
100
AcDbEntity
  8
LAY-10
  6
CONTINUOUS
 62
     7
100
AcDbLine
 10
1450.688347648311
 20
1219.63463202745
 30
0.0
 11
1433.010678118612
 21
1237.312301556451
 31
0.0
  0
LINE
  5
452
330
1F
100
AcDbEntity
  8
LAY-10
  6
CONTINUOUS
 62
     7
100
AcDbLine
 10
1433.010678118612
 20
1184.27929296845
 30
0.0
 11
1415.333008589012
 21
1166.60162343845
 31
0.0
  0
LINE
  5
453
330
1F
100
AcDbEntity
  8
LAY-10
  6
CONTINUOUS
 62
     7
100
AcDbLine
 10
1433.010678118612
 20
1219.63463202745
 30
0.0
 11
1415.333008589012
 21
1201.956962497451
 31
0.0
  0
LINE
  5
454
330
1F
100
AcDbEntity
  8
LAY-10
  6
CONTINUOUS
 62
     7
100
AcDbLine
 10
1415.333008589012
 20
1184.27929296845
 30
0.0
 11
1397.655339059311
 21
1201.956962497451
 31
0.0
  0
LINE
  5
455
330
1F
100
AcDbEntity
  8
LAY-10
  6
CONTINUOUS
 62
     7
100
AcDbLine
 10
1503.721356237411
 20
1237.312301556451
 30
0.0
 11
1521.399025767011
 21
1219.63463202745
 31
0.0
  0
LINE
  5
456
330
1F
100
AcDbEntity
  8
LAY-10
  6
CONTINUOUS
 62
     7
100
AcDbLine
 10
1539.076695296712
 20
1237.312301556451
 30
0.0
 11
1556.754364826411
 21
1219.63463202745
 31
0.0
  0
LINE
  5
457
330
1F
100
AcDbEntity
  8
LAY-10
  6
CONTINUOUS
 62
     7
100
AcDbLine
 10
1556.754364826311
 20
1201.956962496452
 30
0.0
 11
1565.221356237311
 21
1210.423953907596
 31
0.0
  0
LINE
  5
458
330
1F
100
AcDbEntity
  8
LAY-10
  6
CONTINUOUS
 62
     7
100
AcDbLine
 10
1461.721356236607
 20
1142.27929296845
 30
0.0
 11
1468.366017178815
 21
1148.923953910246
 31
0.0
  0
LINE
  5
459
330
1F
100
AcDbEntity
  8
LAY-10
  6
CONTINUOUS
 62
     7
100
AcDbLine
 10
1556.754364825011
 20
1166.601623440054
 30
0.0
 11
1565.221356237337
 21
1175.068614852524
 31
0.0
  0
LINE
  5
45A
330
1F
100
AcDbEntity
  8
LAY-10
  6
CONTINUOUS
 62
     7
100
AcDbLine
 10
1539.076695296812
 20
1148.923953911254
 30
0.0
 11
1532.43203435435
 21
1142.279292968452
 31
0.0
  0
LINE
  5
45B
330
1F
100
AcDbEntity
  8
LAY-10
  6
CONTINUOUS
 62
     7
100
AcDbLine
 10
1398.148668261156
 20
1166.108294236498
 30
0.0
 11
1415.333008588911
 21
1148.923953908451
 31
0.0
  0
LINE
  5
45C
330
1F
100
AcDbEntity
  8
LAY-10
  6
CONTINUOUS
 62
     7
100
AcDbLine
 10
1397.655339059611
 20
1184.27929296845
 30
0.0
 11
1379.977669530012
 21
1166.60162343845
 31
0.0
  0
LINE
  5
45D
330
1F
100
AcDbEntity
  8
LAY-10
  6
CONTINUOUS
 62
     7
100
AcDbLine
 10
1521.399025766514
 20
1148.923953910652
 30
0.0
 11
1518.043686708683
 21
1152.279292968482
 31
0.0
  0
LINE
  5
45E
330
1F
100
AcDbEntity
  8
LAY-10
  6
CONTINUOUS
 62
     7
100
AcDbLine
 10
1531.721356237347
 20
1176.923953909962
 30
0.0
 11
1539.076695296312
 21
1184.279292969052
 31
0.0
  0
LINE
  5
45F
330
1F
100
AcDbEntity
  8
LAY-10
  6
CONTINUOUS
 62
     7
100
AcDbLine
 10
1521.72135623803
 20
1202.279292968476
 30
0.0
 11
1539.076695296712
 21
1219.63463202745
 31
0.0
  0
LINE
  5
460
330
1F
100
AcDbEntity
  8
LAY-10
  6
CONTINUOUS
 62
     7
100
AcDbLine
 10
1468.36601717951
 20
1201.956962498548
 30
0.0
 11
1481.721356237347
 21
1188.601623440259
 31
0.0
  0
LINE
  5
461
330
1F
100
AcDbEntity
  8
LAY-10
  6
CONTINUOUS
 62
     7
100
AcDbLine
 10
1486.366017178636
 20
1202.279292968481
 30
0.0
 11
1503.721356237311
 21
1219.63463202745
 31
0.0
  0
LINE
  5
462
330
1F
100
AcDbEntity
  8
LAY-10
  6
CONTINUOUS
 62
     7
100
AcDbLine
 10
1468.366017179513
 20
1166.601623439247
 30
0.0
 11
1481.721356237344
 21
1153.246284380891
 31
0.0
  0
LINE
  5
463
330
1F
100
AcDbEntity
  8
LAY-10
  6
CONTINUOUS
 62
     7
100
AcDbLine
 10
1482.68834764971
 20
1152.279292968488
 30
0.0
 11
1486.043686708516
 21
1148.923953909549
 31
0.0
  0
LINE
  5
464
330
1F
100
AcDbEntity
  8
LAY-10
  6
CONTINUOUS
 62
     7
100
AcDbLine
 10
1464.369613415469
 20
1180.28288920584
 30
0.0
 11
1467.743686707704
 21
1183.656962498132
 31
0.0
  0
LINE
  5
465
330
1F
100
AcDbEntity
  8
LAY-10
  6
CONTINUOUS
 62
     7
100
AcDbLine
 10
1446.010097583018
 20
1188.957543033558
 30
0.0
 11
1433.010678118612
 21
1201.956962497451
 31
0.0
  0
CIRCLE
  5
466
330
1F
100
AcDbEntity
  8
LAY-10
  6
CONTINUOUS
 62
     7
100
AcDbCircle
 10
713.2213562372644
 20
2320.279292968651
 30
0.0
 40
7.5
  0
LINE
  5
467
330
1F
100
AcDbEntity
  8
LAY-10
  6
CONTINUOUS
 62
     7
100
AcDbLine
 10
738.2213562372517
 20
2295.279292968751
 30
0.0
 11
738.2213562372517
 21
2345.279292968652
 31
0.0
  0
LINE
  5
468
330
1F
100
AcDbEntity
  8
LAY-10
  6
CONTINUOUS
 62
     7
100
AcDbLine
 10
688.2213562372499
 20
2345.279292968652
 30
0.0
 11
738.2213562372517
 21
2345.279292968652
 31
0.0
  0
LINE
  5
469
330
1F
100
AcDbEntity
  8
LAY-10
  6
CONTINUOUS
 62
     7
100
AcDbLine
 10
688.2213562372499
 20
2295.279292968751
 30
0.0
 11
688.2213562372499
 21
2345.279292968652
 31
0.0
  0
LINE
  5
46A
330
1F
100
AcDbEntity
  8
LAY-10
  6
CONTINUOUS
 62
     7
100
AcDbLine
 10
1063.721356237219
 20
2330.677777778526
 30
0.0
 11
1072.721356237221
 21
2330.677777778526
 31
0.0
  0
LINE
  5
46B
330
1F
100
AcDbEntity
  8
LAY-10
  6
CONTINUOUS
 62
     7
100
AcDbLine
 10
1063.721356237221
 20
2295.279292968743
 30
0.0
 11
1063.721356237221
 21
2330.677777778526
 31
0.0
  0
LINE
  5
46C
330
1F
100
AcDbEntity
  8
LAY-10
  6
CONTINUOUS
 62
     7
100
AcDbLine
 10
1072.721356237219
 20
2295.279292968743
 30
0.0
 11
1072.721356237219
 21
2330.677777778526
 31
0.0
  0
LINE
  5
46D
330
1F
100
AcDbEntity
  8
LAY-10
  6
CONTINUOUS
 62
     7
100
AcDbLine
 10
1448.221356237264
 20
2345.27929296865
 30
0.0
 11
1398.221356237264
 21
2345.27929296865
 31
0.0
  0
CIRCLE
  5
46E
330
1F
100
AcDbEntity
  8
LAY-10
  6
CONTINUOUS
 62
     7
100
AcDbCircle
 10
1423.221356237249
 20
2320.27929296865
 30
0.0
 40
7.5
  0
LINE
  5
46F
330
1F
100
AcDbEntity
  8
LAY-10
  6
CONTINUOUS
 62
     7
100
AcDbLine
 10
1448.221356237264
 20
2295.27929296875
 30
0.0
 11
1448.221356237264
 21
2345.27929296865
 31
0.0
  0
LINE
  5
470
330
1F
100
AcDbEntity
  8
LAY-10
  6
CONTINUOUS
 62
     7
100
AcDbLine
 10
1398.221356237264
 20
2295.27929296875
 30
0.0
 11
1398.221356237264
 21
2345.27929296865
 31
0.0
  0
CIRCLE
  5
471
330
1F
100
AcDbEntity
  8
LAY-10
  6
CONTINUOUS
 62
     7
100
AcDbCircle
 10
713.2213562372644
 20
1108.279292968398
 30
0.0
 40
7.5
  0
LINE
  5
472
330
1F
100
AcDbEntity
  8
LAY-10
  6
CONTINUOUS
 62
     7
100
AcDbLine
 10
738.2213562372518
 20
1133.279292968298
 30
0.0
 11
738.2213562372518
 21
1083.279292968398
 31
0.0
  0
LINE
  5
473
330
1F
100
AcDbEntity
  8
LAY-10
  6
CONTINUOUS
 62
     7
100
AcDbLine
 10
688.22135623725
 20
1083.279292968398
 30
0.0
 11
738.2213562372518
 21
1083.279292968398
 31
0.0
  0
LINE
  5
474
330
1F
100
AcDbEntity
  8
LAY-10
  6
CONTINUOUS
 62
     7
100
AcDbLine
 10
688.22135623725
 20
1133.279292968298
 30
0.0
 11
688.22135623725
 21
1083.279292968398
 31
0.0
  0
LINE
  5
475
330
1F
100
AcDbEntity
  8
LAY-10
  6
CONTINUOUS
 62
     7
100
AcDbLine
 10
1063.721356237219
 20
1097.880808158523
 30
0.0
 11
1072.721356237221
 21
1097.880808158523
 31
0.0
  0
LINE
  5
476
330
1F
100
AcDbEntity
  8
LAY-10
  6
CONTINUOUS
 62
     7
100
AcDbLine
 10
1063.721356237221
 20
1133.279292968306
 30
0.0
 11
1063.721356237221
 21
1097.880808158523
 31
0.0
  0
LINE
  5
477
330
1F
100
AcDbEntity
  8
LAY-10
  6
CONTINUOUS
 62
     7
100
AcDbLine
 10
1072.721356237219
 20
1133.279292968306
 30
0.0
 11
1072.721356237219
 21
1097.880808158523
 31
0.0
  0
LINE
  5
478
330
1F
100
AcDbEntity
  8
LAY-10
  6
CONTINUOUS
 62
     7
100
AcDbLine
 10
1448.221356237264
 20
1083.2792929684
 30
0.0
 11
1398.221356237264
 21
1083.2792929684
 31
0.0
  0
CIRCLE
  5
479
330
1F
100
AcDbEntity
  8
LAY-10
  6
CONTINUOUS
 62
     7
100
AcDbCircle
 10
1423.22135623725
 20
1108.279292968399
 30
0.0
 40
7.5
  0
LINE
  5
47A
330
1F
100
AcDbEntity
  8
LAY-10
  6
CONTINUOUS
 62
     7
100
AcDbLine
 10
1448.221356237264
 20
1133.279292968299
 30
0.0
 11
1448.221356237264
 21
1083.2792929684
 31
0.0
  0
LINE
  5
47B
330
1F
100
AcDbEntity
  8
LAY-10
  6
CONTINUOUS
 62
     7
100
AcDbLine
 10
1398.221356237264
 20
1133.279292968299
 30
0.0
 11
1398.221356237264
 21
1083.2792929684
 31
0.0
  0
LINE
  5
47C
330
1F
100
AcDbEntity
  8
LAY-10
  6
CONTINUOUS
 62
     7
100
AcDbLine
 10
2140.916810666417
 20
2067.279292968556
 30
0.0
 11
2075.916810666417
 21
2067.279292968557
 31
0.0
  0
LINE
  5
47D
330
1F
100
AcDbEntity
  8
LAY-10
  6
CONTINUOUS
 62
     7
100
AcDbLine
 10
2140.916810666417
 20
2061.279292968556
 30
0.0
 11
2075.916810666417
 21
2061.279292968557
 31
0.0
  0
LINE
  5
47E
330
1F
100
AcDbEntity
  8
LAY-10
  6
CONTINUOUS
 62
     7
100
AcDbLine
 10
2140.916810666417
 20
2061.279292968556
 30
0.0
 11
2140.916810666417
 21
2086.279292968556
 31
0.0
  0
LINE
  5
47F
330
1F
100
AcDbEntity
  8
LAY-10
  6
CONTINUOUS
 62
     7
100
AcDbLine
 10
2100.916810666419
 20
2067.279292968557
 30
0.0
 11
2100.916810666419
 21
2102.258054968556
 31
0.0
  0
LINE
  5
480
330
1F
100
AcDbEntity
  8
LAY-10
  6
CONTINUOUS
 62
     7
100
AcDbLine
 10
2108.566804666419
 20
2106.498046968555
 30
0.0
 11
2140.916810666417
 21
2086.279292968556
 31
0.0
  0
ARC
  5
481
330
1F
100
AcDbEntity
  8
LAY-10
  6
CONTINUOUS
 62
     7
100
AcDbCircle
 10
2105.916810666417
 20
2102.258054968556
 30
0.0
 40
5.0
100
AcDbArc
 50
57.99461699998903
 51
180.0
  0
LINE
  5
482
330
1F
100
AcDbEntity
  8
LAY-10
  6
CONTINUOUS
 62
     7
100
AcDbLine
 10
2140.916810666417
 20
2167.279292968557
 30
0.0
 11
2075.916810666417
 21
2167.279292968557
 31
0.0
  0
LINE
  5
483
330
1F
100
AcDbEntity
  8
LAY-10
  6
CONTINUOUS
 62
     7
100
AcDbLine
 10
2140.916810666417
 20
2161.279292968556
 30
0.0
 11
2075.916810666417
 21
2161.279292968556
 31
0.0
  0
LINE
  5
484
330
1F
100
AcDbEntity
  8
LAY-10
  6
CONTINUOUS
 62
     7
100
AcDbLine
 10
2140.916810666417
 20
2161.279292968556
 30
0.0
 11
2140.916810666417
 21
2186.279292968556
 31
0.0
  0
LINE
  5
485
330
1F
100
AcDbEntity
  8
LAY-10
  6
CONTINUOUS
 62
     7
100
AcDbLine
 10
2100.916810666419
 20
2167.279292968557
 30
0.0
 11
2100.916810666419
 21
2202.258054968557
 31
0.0
  0
LINE
  5
486
330
1F
100
AcDbEntity
  8
LAY-10
  6
CONTINUOUS
 62
     7
100
AcDbLine
 10
2108.566804666419
 20
2206.498046968555
 30
0.0
 11
2140.916810666417
 21
2186.279292968556
 31
0.0
  0
ARC
  5
487
330
1F
100
AcDbEntity
  8
LAY-10
  6
CONTINUOUS
 62
     7
100
AcDbCircle
 10
2105.916810666417
 20
2202.258054968557
 30
0.0
 40
5.0
100
AcDbArc
 50
57.99461699998903
 51
180.0
  0
LINE
  5
488
330
1F
100
AcDbEntity
  8
LAY-10
  6
CONTINUOUS
 62
     7
100
AcDbLine
 10
2140.91681066641
 20
2211.779292968551
 30
0.0
 11
2140.91681066641
 21
2217.77929296855
 31
0.0
  0
LINE
  5
489
330
1F
100
AcDbEntity
  8
LAY-10
  6
CONTINUOUS
 62
     7
100
AcDbLine
 10
2075.91681066641
 20
2217.77929296855
 30
0.0
 11
2140.91681066641
 21
2217.77929296855
 31
0.0
  0
ARC
  5
48A
330
1F
100
AcDbEntity
  8
LAY-10
  6
CONTINUOUS
 62
     7
100
AcDbCircle
 10
2136.416810666414
 20
2232.279292968494
 30
0.0
 40
9.0
100
AcDbArc
 50
180.0
 51
270.0
  0
ARC
  5
48B
330
1F
100
AcDbEntity
  8
LAY-10
  6
CONTINUOUS
 62
     7
100
AcDbCircle
 10
2124.416810666412
 20
2286.279292968636
 30
0.0
 40
3.000000000000001
100
AcDbArc
 50
0.0
 51
90.00000000000001
  0
ARC
  5
48C
330
1F
100
AcDbEntity
  8
LAY-10
  6
CONTINUOUS
 62
     7
100
AcDbCircle
 10
2124.416810666412
 20
2286.279292968636
 30
0.0
 40
9.0
100
AcDbArc
 50
0.0
 51
90.00000000000001
  0
LINE
  5
48D
330
1F
100
AcDbEntity
  8
LAY-10
  6
CONTINUOUS
 62
     7
100
AcDbLine
 10
2071.41681066641
 20
2289.279292968635
 30
0.0
 11
2071.41681066641
 21
2295.279292968635
 31
0.0
  0
LINE
  5
48E
330
1F
100
AcDbEntity
  8
LAY-10
  6
CONTINUOUS
 62
     7
100
AcDbLine
 10
2071.41681066641
 20
2289.279292968635
 30
0.0
 11
2124.416810666412
 21
2289.279292968637
 31
0.0
  0
LINE
  5
48F
330
1F
100
AcDbEntity
  8
LAY-10
  6
CONTINUOUS
 62
     7
100
AcDbLine
 10
2071.41681066641
 20
2295.279292968635
 30
0.0
 11
2124.416810666412
 21
2295.279292968636
 31
0.0
  0
LINE
  5
490
330
1F
100
AcDbEntity
  8
LAY-10
  6
CONTINUOUS
 62
     7
100
AcDbLine
 10
2176.772149725765
 20
2321.634632027919
 30
0.0
 11
2141.416810666439
 21
2286.27929296859
 31
0.0
  0
LINE
  5
491
330
1F
100
AcDbEntity
  8
LAY-10
  6
CONTINUOUS
 62
     7
100
AcDbLine
 10
2171.115295476276
 20
2327.29148627741
 30
0.0
 11
2176.772149725765
 21
2321.634632027919
 31
0.0
  0
LINE
  5
492
330
1F
100
AcDbEntity
  8
LAY-10
  6
CONTINUOUS
 62
     7
100
AcDbLine
 10
2071.41681066641
 20
2276.279292968573
 30
0.0
 11
2075.916810666406
 21
2276.279292968572
 31
0.0
  0
LINE
  5
493
330
1F
100
AcDbEntity
  8
LAY-10
  6
CONTINUOUS
 62
     7
100
AcDbLine
 10
2071.41681066641
 20
2286.279292968582
 30
0.0
 11
2075.916810666408
 21
2286.279292968582
 31
0.0
  0
ARC
  5
494
330
1F
100
AcDbEntity
  8
LAY-10
  6
CONTINUOUS
 62
     7
100
AcDbCircle
 10
2133.416810666405
 20
2237.429292968538
 30
0.0
 40
3.000000000000003
100
AcDbArc
 50
270.0
 51
0.0
  0
ARC
  5
495
330
1F
100
AcDbEntity
  8
LAY-10
  6
CONTINUOUS
 62
     7
100
AcDbCircle
 10
2133.416810666405
 20
2237.429292968538
 30
0.0
 40
2.0
100
AcDbArc
 50
270.0
 51
0.0
  0
ARC
  5
496
330
1F
100
AcDbEntity
  8
LAY-10
  6
CONTINUOUS
 62
     7
100
AcDbCircle
 10
2133.416810666405
 20
2237.429292968538
 30
0.0
 40
1.0
100
AcDbArc
 50
270.0
 51
0.0
  0
ARC
  5
497
330
1F
100
AcDbEntity
  8
LAY-10
  6
CONTINUOUS
 62
     7
100
AcDbCircle
 10
2133.416810666405
 20
2265.129292968538
 30
0.0
 40
3.000000000000003
100
AcDbArc
 50
0.0
 51
90.00000000000001
  0
ARC
  5
498
330
1F
100
AcDbEntity
  8
LAY-10
  6
CONTINUOUS
 62
     7
100
AcDbCircle
 10
2133.416810666405
 20
2265.129292968538
 30
0.0
 40
2.0
100
AcDbArc
 50
0.0
 51
90.00000000000001
  0
ARC
  5
499
330
1F
100
AcDbEntity
  8
LAY-10
  6
CONTINUOUS
 62
     7
100
AcDbCircle
 10
2133.416810666405
 20
2265.129292968538
 30
0.0
 40
1.0
100
AcDbArc
 50
0.0
 51
90.00000000000001
  0
LINE
  5
49A
330
1F
100
AcDbEntity
  8
LAY-10
  6
CONTINUOUS
 62
     7
100
AcDbLine
 10
2113.216810666402
 20
2266.279292968537
 30
0.0
 11
2116.416810666405
 21
2266.279292968537
 31
0.0
  0
LINE
  5
49B
330
1F
100
AcDbEntity
  8
LAY-10
  6
CONTINUOUS
 62
     7
100
AcDbLine
 10
2113.216810666402
 20
2236.279292968537
 30
0.0
 11
2116.416810666405
 21
2236.279292968537
 31
0.0
  0
LINE
  5
49C
330
1F
100
AcDbEntity
  8
LAY-10
  6
CONTINUOUS
 62
     7
100
AcDbLine
 10
2113.216810666402
 20
2266.279292968537
 30
0.0
 11
2113.216810666402
 21
2236.279292968537
 31
0.0
  0
LINE
  5
49D
330
1F
100
AcDbEntity
  8
LAY-10
  6
CONTINUOUS
 62
     7
100
AcDbLine
 10
2113.216810666411
 20
2243.279292968536
 30
0.0
 11
2101.84481066641
 21
2243.279292968536
 31
0.0
  0
LINE
  5
49E
330
1F
100
AcDbEntity
  8
LAY-10
  6
CONTINUOUS
 62
     7
100
AcDbLine
 10
2113.216810666411
 20
2259.279292968536
 30
0.0
 11
2101.84481066641
 21
2259.279292968536
 31
0.0
  0
LINE
  5
49F
330
1F
100
AcDbEntity
  8
LAY-10
  6
CONTINUOUS
 62
     7
100
AcDbLine
 10
2113.216810666411
 20
2265.129292968535
 30
0.0
 11
2101.84481066641
 21
2265.129292968535
 31
0.0
  0
LINE
  5
4A0
330
1F
100
AcDbEntity
  8
LAY-10
  6
CONTINUOUS
 62
     7
100
AcDbLine
 10
2113.216810666411
 20
2237.429292968535
 30
0.0
 11
2101.84481066641
 21
2237.429292968535
 31
0.0
  0
LINE
  5
4A1
330
1F
100
AcDbEntity
  8
LAY-10
  6
CONTINUOUS
 62
     7
100
AcDbLine
 10
2133.416810666405
 20
2243.279292968537
 30
0.0
 11
2116.416810666408
 21
2243.279292968537
 31
0.0
  0
LINE
  5
4A2
330
1F
100
AcDbEntity
  8
LAY-10
  6
CONTINUOUS
 62
     7
100
AcDbLine
 10
2133.416810666405
 20
2259.279292968537
 30
0.0
 11
2116.416810666408
 21
2259.279292968537
 31
0.0
  0
LINE
  5
4A3
330
1F
100
AcDbEntity
  8
LAY-10
  6
CONTINUOUS
 62
     7
100
AcDbLine
 10
2122.416810666408
 20
2263.779292968536
 30
0.0
 11
2116.416810666405
 21
2263.779292968536
 31
0.0
  0
LINE
  5
4A4
330
1F
100
AcDbEntity
  8
LAY-10
  6
CONTINUOUS
 62
     7
100
AcDbLine
 10
2122.416810666408
 20
2238.779292968536
 30
0.0
 11
2116.416810666408
 21
2238.779292968536
 31
0.0
  0
ARC
  5
4A5
330
1F
100
AcDbEntity
  8
LAY-10
  6
CONTINUOUS
 62
     7
100
AcDbCircle
 10
2120.686830322432
 20
2251.279292968537
 30
0.0
 40
20.47001965601966
100
AcDbArc
 50
156.9947512290631
 51
203.0052487709369
  0
ARC
  5
4A6
330
1F
100
AcDbEntity
  8
LAY-10
  6
CONTINUOUS
 62
     7
100
AcDbCircle
 10
2103.658459622185
 20
2262.204292968535
 30
0.0
 40
3.441648955773841
100
AcDbArc
 50
121.8010203972052
 51
238.1989796027948
  0
ARC
  5
4A7
330
1F
100
AcDbEntity
  8
LAY-10
  6
CONTINUOUS
 62
     7
100
AcDbCircle
 10
2103.658459622185
 20
2240.354292968535
 30
0.0
 40
3.441648955773841
100
AcDbArc
 50
121.8010203972052
 51
238.1989796027948
  0
LINE
  5
4A8
330
1F
100
AcDbEntity
  8
LAY-10
  6
CONTINUOUS
 62
     7
100
AcDbLine
 10
2100.216810666413
 20
2240.354292968535
 30
0.0
 11
2100.216810666413
 21
2262.204292968535
 31
0.0
  0
ARC
  5
4A9
330
1F
100
AcDbEntity
  8
LAY-10
  6
CONTINUOUS
 62
     7
100
AcDbCircle
 10
2100.216810666398
 20
2262.279292968534
 30
0.0
 40
1.0
100
AcDbArc
 50
80.35284919912797
 51
180.0
  0
ARC
  5
4AA
330
1F
100
AcDbEntity
  8
LAY-10
  6
CONTINUOUS
 62
     7
100
AcDbCircle
 10
2100.216810666398
 20
2240.279292968534
 30
0.0
 40
1.0
100
AcDbArc
 50
180.0
 51
279.6471508008721
  0
LINE
  5
4AB
330
1F
100
AcDbEntity
  8
LAY-10
  6
CONTINUOUS
 62
     7
100
AcDbLine
 10
2071.916810666372
 20
2273.279292968534
 30
0.0
 11
2079.91681066637
 21
2273.279292968534
 31
0.0
  0
LINE
  5
4AC
330
1F
100
AcDbEntity
  8
LAY-10
  6
CONTINUOUS
 62
     7
100
AcDbLine
 10
2071.916810666372
 20
2270.779292968536
 30
0.0
 11
2071.916810666372
 21
2274.779292968535
 31
0.0
  0
LINE
  5
4AD
330
1F
100
AcDbEntity
  8
LAY-10
  6
CONTINUOUS
 62
     7
100
AcDbLine
 10
2071.916810666372
 20
2259.779292968537
 30
0.0
 11
2071.916810666372
 21
2264.779292968534
 31
0.0
  0
LINE
  5
4AE
330
1F
100
AcDbEntity
  8
LAY-10
  6
CONTINUOUS
 62
     7
100
AcDbLine
 10
2072.91681066637
 20
2265.029292968534
 30
0.0
 11
2072.91681066637
 21
2270.529292968534
 31
0.0
  0
LINE
  5
4AF
330
1F
100
AcDbEntity
  8
LAY-10
  6
CONTINUOUS
 62
     7
100
AcDbLine
 10
2072.91681066637
 20
2254.029292968534
 30
0.0
 11
2072.91681066637
 21
2259.529292968536
 31
0.0
  0
LINE
  5
4B0
330
1F
100
AcDbEntity
  8
LAY-10
  6
CONTINUOUS
 62
     7
100
AcDbLine
 10
2071.916810666372
 20
2248.779292968536
 30
0.0
 11
2071.916810666372
 21
2253.779292968534
 31
0.0
  0
LINE
  5
4B1
330
1F
100
AcDbEntity
  8
LAY-10
  6
CONTINUOUS
 62
     7
100
AcDbLine
 10
2071.916810666372
 20
2237.779292968536
 30
0.0
 11
2071.916810666372
 21
2242.779292968534
 31
0.0
  0
LINE
  5
4B2
330
1F
100
AcDbEntity
  8
LAY-10
  6
CONTINUOUS
 62
     7
100
AcDbLine
 10
2071.916810666372
 20
2227.779292968534
 30
0.0
 11
2071.916810666372
 21
2231.779292968535
 31
0.0
  0
LINE
  5
4B3
330
1F
100
AcDbEntity
  8
LAY-10
  6
CONTINUOUS
 62
     7
100
AcDbLine
 10
2072.91681066637
 20
2243.029292968535
 30
0.0
 11
2072.91681066637
 21
2248.529292968537
 31
0.0
  0
LINE
  5
4B4
330
1F
100
AcDbEntity
  8
LAY-10
  6
CONTINUOUS
 62
     7
100
AcDbLine
 10
2072.91681066637
 20
2232.029292968534
 30
0.0
 11
2072.91681066637
 21
2237.529292968536
 31
0.0
  0
LINE
  5
4B5
330
1F
100
AcDbEntity
  8
LAY-10
  6
CONTINUOUS
 62
     7
100
AcDbLine
 10
2072.916810666374
 20
2270.529292968534
 30
0.0
 11
2071.916810666376
 21
2270.779292968534
 31
0.0
  0
LINE
  5
4B6
330
1F
100
AcDbEntity
  8
LAY-10
  6
CONTINUOUS
 62
     7
100
AcDbLine
 10
2071.916810666376
 20
2264.779292968534
 30
0.0
 11
2072.916810666374
 21
2265.029292968534
 31
0.0
  0
LINE
  5
4B7
330
1F
100
AcDbEntity
  8
LAY-10
  6
CONTINUOUS
 62
     7
100
AcDbLine
 10
2072.916810666374
 20
2259.529292968534
 30
0.0
 11
2071.916810666376
 21
2259.779292968535
 31
0.0
  0
LINE
  5
4B8
330
1F
100
AcDbEntity
  8
LAY-10
  6
CONTINUOUS
 62
     7
100
AcDbLine
 10
2071.916810666376
 20
2253.779292968534
 30
0.0
 11
2072.916810666374
 21
2254.029292968534
 31
0.0
  0
LINE
  5
4B9
330
1F
100
AcDbEntity
  8
LAY-10
  6
CONTINUOUS
 62
     7
100
AcDbLine
 10
2072.916810666374
 20
2232.029292968534
 30
0.0
 11
2071.916810666376
 21
2231.779292968535
 31
0.0
  0
LINE
  5
4BA
330
1F
100
AcDbEntity
  8
LAY-10
  6
CONTINUOUS
 62
     7
100
AcDbLine
 10
2071.916810666376
 20
2237.779292968534
 30
0.0
 11
2072.916810666374
 21
2237.529292968534
 31
0.0
  0
LINE
  5
4BB
330
1F
100
AcDbEntity
  8
LAY-10
  6
CONTINUOUS
 62
     7
100
AcDbLine
 10
2072.916810666374
 20
2243.029292968535
 30
0.0
 11
2071.916810666376
 21
2242.779292968534
 31
0.0
  0
LINE
  5
4BC
330
1F
100
AcDbEntity
  8
LAY-10
  6
CONTINUOUS
 62
     7
100
AcDbLine
 10
2071.916810666376
 20
2248.779292968534
 30
0.0
 11
2072.916810666374
 21
2248.529292968535
 31
0.0
  0
LINE
  5
4BD
330
1F
100
AcDbEntity
  8
LAY-10
  6
CONTINUOUS
 62
     7
100
AcDbLine
 10
2091.91681066637
 20
2274.279292968534
 30
0.0
 11
2098.401881916446
 21
2272.658025156016
 31
0.0
  0
LINE
  5
4BE
330
1F
100
AcDbEntity
  8
LAY-10
  6
CONTINUOUS
 62
     7
100
AcDbLine
 10
2084.419292071266
 20
2266.729541109023
 30
0.0
 11
2099.016314385392
 21
2268.189243340436
 31
0.0
  0
LINE
  5
4BF
330
1F
100
AcDbEntity
  8
LAY-10
  6
CONTINUOUS
 62
     7
100
AcDbLine
 10
2079.91681066637
 20
2240.804230779094
 30
0.0
 11
2079.91681066637
 21
2261.754355157974
 31
0.0
  0
LINE
  5
4C0
330
1F
100
AcDbEntity
  8
LAY-10
  6
CONTINUOUS
 62
     7
100
AcDbLine
 10
2084.419292071266
 20
2235.829044828046
 30
0.0
 11
2099.016314385392
 21
2234.369342596633
 31
0.0
  0
LINE
  5
4C1
330
1F
100
AcDbEntity
  8
LAY-10
  6
CONTINUOUS
 62
     7
100
AcDbLine
 10
2091.91681066637
 20
2228.279292968534
 30
0.0
 11
2098.401881916446
 21
2229.900560781053
 31
0.0
  0
LINE
  5
4C2
330
1F
100
AcDbEntity
  8
LAY-10
  6
CONTINUOUS
 62
     7
100
AcDbLine
 10
2071.916810666372
 20
2274.779292968535
 30
0.0
 11
2073.41681066637
 21
2276.279292968534
 31
0.0
  0
LINE
  5
4C3
330
1F
100
AcDbEntity
  8
LAY-10
  6
CONTINUOUS
 62
     7
100
AcDbLine
 10
2071.916810666372
 20
2227.779292968534
 30
0.0
 11
2073.41681066637
 21
2226.279292968534
 31
0.0
  0
ARC
  5
4C4
330
1F
100
AcDbEntity
  8
LAY-10
  6
CONTINUOUS
 62
     7
100
AcDbCircle
 10
2084.916810666372
 20
2261.754355157974
 30
0.0
 40
5.0
100
AcDbArc
 50
95.71059313749761
 51
180.0
  0
ARC
  5
4C5
330
1F
100
AcDbEntity
  8
LAY-10
  6
CONTINUOUS
 62
     7
100
AcDbCircle
 10
2098.91681066637
 20
2269.184280530647
 30
0.0
 40
1.0
100
AcDbArc
 50
275.710593137497
 51
0.0
  0
ARC
  5
4C6
330
1F
100
AcDbEntity
  8
LAY-10
  6
CONTINUOUS
 62
     7
100
AcDbCircle
 10
2097.91681066637
 20
2270.717740155726
 30
0.0
 40
2.0
100
AcDbArc
 50
0.0
 51
75.96375653207986
  0
LINE
  5
4C7
330
1F
100
AcDbEntity
  8
LAY-10
  6
CONTINUOUS
 62
     7
100
AcDbLine
 10
2091.91681066637
 20
2274.279292968534
 30
0.0
 11
2091.91681066637
 21
2272.279292968534
 31
0.0
  0
LINE
  5
4C8
330
1F
100
AcDbEntity
  8
LAY-10
  6
CONTINUOUS
 62
     7
100
AcDbLine
 10
2083.91681066637
 20
2274.279292968534
 30
0.0
 11
2083.91681066637
 21
2272.279292968534
 31
0.0
  0
LINE
  5
4C9
330
1F
100
AcDbEntity
  8
LAY-10
  6
CONTINUOUS
 62
     7
100
AcDbLine
 10
2079.91681066637
 20
2273.279292968534
 30
0.0
 11
2083.91681066637
 21
2272.279292968534
 31
0.0
  0
LINE
  5
4CA
330
1F
100
AcDbEntity
  8
LAY-10
  6
CONTINUOUS
 62
     7
100
AcDbLine
 10
2083.91681066637
 20
2274.279292968534
 30
0.0
 11
2091.91681066637
 21
2272.279292968534
 31
0.0
  0
ARC
  5
4CB
330
1F
100
AcDbEntity
  8
LAY-10
  6
CONTINUOUS
 62
     7
100
AcDbCircle
 10
2084.916810666372
 20
2240.804230779094
 30
0.0
 40
5.0
100
AcDbArc
 50
180.0
 51
264.2894068625025
  0
ARC
  5
4CC
330
1F
100
AcDbEntity
  8
LAY-10
  6
CONTINUOUS
 62
     7
100
AcDbCircle
 10
2098.91681066637
 20
2233.374305406423
 30
0.0
 40
1.0
100
AcDbArc
 50
0.0
 51
84.28940686250297
  0
ARC
  5
4CD
330
1F
100
AcDbEntity
  8
LAY-10
  6
CONTINUOUS
 62
     7
100
AcDbCircle
 10
2097.91681066637
 20
2231.840845781343
 30
0.0
 40
2.0
100
AcDbArc
 50
284.0362434679201
 51
0.0
  0
LINE
  5
4CE
330
1F
100
AcDbEntity
  8
LAY-10
  6
CONTINUOUS
 62
     7
100
AcDbLine
 10
2091.91681066637
 20
2228.279292968534
 30
0.0
 11
2091.91681066637
 21
2230.279292968534
 31
0.0
  0
LINE
  5
4CF
330
1F
100
AcDbEntity
  8
LAY-10
  6
CONTINUOUS
 62
     7
100
AcDbLine
 10
2083.91681066637
 20
2228.279292968534
 30
0.0
 11
2083.91681066637
 21
2230.279292968534
 31
0.0
  0
LINE
  5
4D0
330
1F
100
AcDbEntity
  8
LAY-10
  6
CONTINUOUS
 62
     7
100
AcDbLine
 10
2075.916810666372
 20
2229.279292968535
 30
0.0
 11
2079.91681066637
 21
2229.279292968535
 31
0.0
  0
LINE
  5
4D1
330
1F
100
AcDbEntity
  8
LAY-10
  6
CONTINUOUS
 62
     7
100
AcDbLine
 10
2079.91681066637
 20
2229.279292968535
 30
0.0
 11
2083.91681066637
 21
2230.279292968534
 31
0.0
  0
LINE
  5
4D2
330
1F
100
AcDbEntity
  8
LAY-10
  6
CONTINUOUS
 62
     7
100
AcDbLine
 10
2083.91681066637
 20
2228.279292968534
 30
0.0
 11
2091.91681066637
 21
2230.279292968534
 31
0.0
  0
LINE
  5
4D3
330
1F
100
AcDbEntity
  8
LAY-10
  6
CONTINUOUS
 62
     7
100
AcDbLine
 10
2099.2168106664
 20
2240.279292968534
 30
0.0
 11
2099.2168106664
 21
2262.279292968534
 31
0.0
  0
LINE
  5
4D4
330
1F
100
AcDbEntity
  8
LAY-10
  6
CONTINUOUS
 62
     7
100
AcDbLine
 10
2094.416810666405
 20
2259.279292968537
 30
0.0
 11
2093.416810666403
 21
2258.279292968537
 31
0.0
  0
LINE
  5
4D5
330
1F
100
AcDbEntity
  8
LAY-10
  6
CONTINUOUS
 62
     7
100
AcDbLine
 10
2093.416810666403
 20
2244.279292968537
 30
0.0
 11
2094.416810666405
 21
2243.279292968537
 31
0.0
  0
LINE
  5
4D6
330
1F
100
AcDbEntity
  8
LAY-10
  6
CONTINUOUS
 62
     7
100
AcDbLine
 10
2093.416810666403
 20
2258.279292968537
 30
0.0
 11
2093.416810666403
 21
2244.279292968537
 31
0.0
  0
LINE
  5
4D7
330
1F
100
AcDbEntity
  8
LAY-10
  6
CONTINUOUS
 62
     7
100
AcDbLine
 10
2099.216810666406
 20
2259.279292968537
 30
0.0
 11
2094.416810666405
 21
2259.279292968537
 31
0.0
  0
LINE
  5
4D8
330
1F
100
AcDbEntity
  8
LAY-10
  6
CONTINUOUS
 62
     7
100
AcDbLine
 10
2099.216810666406
 20
2243.279292968537
 30
0.0
 11
2094.416810666405
 21
2243.279292968537
 31
0.0
  0
LINE
  5
4D9
330
1F
100
AcDbEntity
  8
LAY-10
  6
CONTINUOUS
 62
     7
100
AcDbLine
 10
2099.916810666372
 20
2263.233232169954
 30
0.0
 11
2099.916810666372
 21
2270.717740155726
 31
0.0
  0
LINE
  5
4DA
330
1F
100
AcDbEntity
  8
LAY-10
  6
CONTINUOUS
 62
     7
100
AcDbLine
 10
2099.916810666372
 20
2231.840845781338
 30
0.0
 11
2099.916810666372
 21
2239.325353767127
 31
0.0
  0
LINE
  5
4DB
330
1F
100
AcDbEntity
  8
LAY-10
  6
CONTINUOUS
 62
     7
100
AcDbLine
 10
2116.416810666408
 20
2228.579292968568
 30
0.0
 11
2075.916810666372
 21
2228.579292968568
 31
0.0
  0
LINE
  5
4DC
330
1F
100
AcDbEntity
  8
LAY-10
  6
CONTINUOUS
 62
     7
100
AcDbLine
 10
2116.416810666408
 20
2226.279292968567
 30
0.0
 11
2073.416810666339
 21
2226.279292968566
 31
0.0
  0
LINE
  5
4DD
330
1F
100
AcDbEntity
  8
LAY-10
  6
CONTINUOUS
 62
     7
100
AcDbLine
 10
2075.916810666372
 20
2273.979292968574
 30
0.0
 11
2116.416810666408
 21
2273.979292968575
 31
0.0
  0
LINE
  5
4DE
330
1F
100
AcDbEntity
  8
LAY-10
  6
CONTINUOUS
 62
     7
100
AcDbLine
 10
2073.41681066641
 20
2276.279292968575
 30
0.0
 11
2114.416810666408
 21
2276.279292968576
 31
0.0
  0
ARC
  5
4DF
330
1F
100
AcDbEntity
  8
LAY-10
  6
CONTINUOUS
 62
     7
100
AcDbCircle
 10
2114.416810666408
 20
2274.279292968576
 30
0.0
 40
2.0
100
AcDbArc
 50
0.0
 51
90.00000000000001
  0
LINE
  5
4E0
330
1F
100
AcDbEntity
  8
LAY-10
  6
CONTINUOUS
 62
     7
100
AcDbLine
 10
2071.416810666406
 20
2226.279292968573
 30
0.0
 11
2075.916810666408
 21
2226.279292968573
 31
0.0
  0
ARC
  5
4E1
330
1F
100
AcDbEntity
  8
LAY-10
  6
CONTINUOUS
 62
     7
100
AcDbCircle
 10
2136.416810666414
 20
2232.279292968494
 30
0.0
 40
3.000000000000001
100
AcDbArc
 50
180.0
 51
270.0
  0
LINE
  5
4E2
330
1F
100
AcDbEntity
  8
LAY-10
  6
CONTINUOUS
 62
     7
100
AcDbLine
 10
2116.41681066641
 20
2217.77929296855
 30
0.0
 11
2116.41681066641
 21
2274.27929296855
 31
0.0
  0
LINE
  5
4E3
330
1F
100
AcDbEntity
  8
LAY-10
  6
CONTINUOUS
 62
     7
100
AcDbLine
 10
2127.416810666412
 20
2259.279292968537
 30
0.0
 11
2127.416810666412
 21
2286.279292968552
 31
0.0
  0
LINE
  5
4E4
330
1F
100
AcDbEntity
  8
LAY-10
  6
CONTINUOUS
 62
     7
100
AcDbLine
 10
2141.416810666439
 20
2286.2792929686
 30
0.0
 11
2141.416810666439
 21
2265.129292968538
 31
0.0
  0
LINE
  5
4E5
330
1F
100
AcDbEntity
  8
LAY-10
  6
CONTINUOUS
 62
     7
100
AcDbLine
 10
2075.916810666408
 20
2282.279292968576
 30
0.0
 11
2115.416810666406
 21
2282.279292968577
 31
0.0
  0
LINE
  5
4E6
330
1F
100
AcDbEntity
  8
LAY-10
  6
CONTINUOUS
 62
     7
100
AcDbLine
 10
2122.416810666406
 20
2275.279292968576
 30
0.0
 11
2122.416810666406
 21
2259.279292968537
 31
0.0
  0
ARC
  5
4E7
330
1F
100
AcDbEntity
  8
LAY-10
  6
CONTINUOUS
 62
     7
100
AcDbCircle
 10
2115.416810666406
 20
2275.279292968576
 30
0.0
 40
7.0
100
AcDbArc
 50
0.0
 51
90.00000000000001
  0
LINE
  5
4E8
330
1F
100
AcDbEntity
  8
LAY-10
  6
CONTINUOUS
 62
     7
100
AcDbLine
 10
2075.916810666408
 20
2273.279292968534
 30
0.0
 11
2075.916810666408
 21
2286.279292968551
 31
0.0
  0
LINE
  5
4E9
330
1F
100
AcDbEntity
  8
LAY-10
  6
CONTINUOUS
 62
     7
100
AcDbLine
 10
2140.916810666417
 20
1267.279292968556
 30
0.0
 11
2075.916810666417
 21
1267.279292968557
 31
0.0
  0
LINE
  5
4EA
330
1F
100
AcDbEntity
  8
LAY-10
  6
CONTINUOUS
 62
     7
100
AcDbLine
 10
2140.916810666417
 20
1261.279292968555
 30
0.0
 11
2075.916810666417
 21
1261.279292968557
 31
0.0
  0
ARC
  5
4EB
330
1F
100
AcDbEntity
  8
LAY-10
  6
CONTINUOUS
 62
     7
100
AcDbCircle
 10
2105.916810666417
 20
1302.258054968556
 30
0.0
 40
5.0
100
AcDbArc
 50
57.99461699998903
 51
180.0
  0
LINE
  5
4EC
330
1F
100
AcDbEntity
  8
LAY-10
  6
CONTINUOUS
 62
     7
100
AcDbLine
 10
2108.566804666419
 20
1306.498046968555
 30
0.0
 11
2140.916810666417
 21
1286.279292968556
 31
0.0
  0
LINE
  5
4ED
330
1F
100
AcDbEntity
  8
LAY-10
  6
CONTINUOUS
 62
     7
100
AcDbLine
 10
2100.916810666419
 20
1267.279292968557
 30
0.0
 11
2100.916810666419
 21
1302.258054968556
 31
0.0
  0
LINE
  5
4EE
330
1F
100
AcDbEntity
  8
LAY-10
  6
CONTINUOUS
 62
     7
100
AcDbLine
 10
2140.916810666417
 20
1261.279292968555
 30
0.0
 11
2140.916810666417
 21
1286.279292968556
 31
0.0
  0
LINE
  5
4EF
330
1F
100
AcDbEntity
  8
LAY-10
  6
CONTINUOUS
 62
     7
100
AcDbLine
 10
2140.91681066641
 20
1216.779292968597
 30
0.0
 11
2140.91681066641
 21
1210.779292968597
 31
0.0
  0
LINE
  5
4F0
330
1F
100
AcDbEntity
  8
LAY-10
  6
CONTINUOUS
 62
     7
100
AcDbLine
 10
2075.91681066641
 20
1210.779292968597
 30
0.0
 11
2140.91681066641
 21
1210.779292968597
 31
0.0
  0
ARC
  5
4F1
330
1F
100
AcDbEntity
  8
LAY-10
  6
CONTINUOUS
 62
     7
100
AcDbCircle
 10
2136.416810666416
 20
1196.279292968556
 30
0.0
 40
9.0
100
AcDbArc
 50
90.00000000000001
 51
180.0
  0
ARC
  5
4F2
330
1F
100
AcDbEntity
  8
LAY-10
  6
CONTINUOUS
 62
     7
100
AcDbCircle
 10
2124.416810666414
 20
1142.279292968414
 30
0.0
 40
3.000000000000001
100
AcDbArc
 50
270.0
 51
0.0
  0
ARC
  5
4F3
330
1F
100
AcDbEntity
  8
LAY-10
  6
CONTINUOUS
 62
     7
100
AcDbCircle
 10
2124.416810666414
 20
1142.279292968414
 30
0.0
 40
9.0
100
AcDbArc
 50
270.0
 51
0.0
  0
LINE
  5
4F4
330
1F
100
AcDbEntity
  8
LAY-10
  6
CONTINUOUS
 62
     7
100
AcDbLine
 10
2071.416810666412
 20
1139.279292968415
 30
0.0
 11
2071.416810666412
 21
1133.279292968415
 31
0.0
  0
LINE
  5
4F5
330
1F
100
AcDbEntity
  8
LAY-10
  6
CONTINUOUS
 62
     7
100
AcDbLine
 10
2071.416810666412
 20
1139.279292968415
 30
0.0
 11
2124.416810666414
 21
1139.279292968415
 31
0.0
  0
LINE
  5
4F6
330
1F
100
AcDbEntity
  8
LAY-10
  6
CONTINUOUS
 62
     7
100
AcDbLine
 10
2071.416810666412
 20
1133.279292968415
 30
0.0
 11
2124.416810666414
 21
1133.279292968415
 31
0.0
  0
LINE
  5
4F7
330
1F
100
AcDbEntity
  8
LAY-10
  6
CONTINUOUS
 62
     7
100
AcDbLine
 10
2176.772149725767
 20
1106.923953909132
 30
0.0
 11
2141.416810666441
 21
1142.279292968459
 31
0.0
  0
LINE
  5
4F8
330
1F
100
AcDbEntity
  8
LAY-10
  6
CONTINUOUS
 62
     7
100
AcDbLine
 10
2171.115295476277
 20
1101.267099659639
 30
0.0
 11
2176.772149725767
 21
1106.923953909132
 31
0.0
  0
LINE
  5
4F9
330
1F
100
AcDbEntity
  8
LAY-10
  6
CONTINUOUS
 62
     7
100
AcDbLine
 10
2071.416810666412
 20
1152.279292968476
 30
0.0
 11
2075.91681066641
 21
1152.279292968477
 31
0.0
  0
LINE
  5
4FA
330
1F
100
AcDbEntity
  8
LAY-10
  6
CONTINUOUS
 62
     7
100
AcDbLine
 10
2071.416810666412
 20
1142.279292968467
 30
0.0
 11
2075.91681066641
 21
1142.279292968467
 31
0.0
  0
ARC
  5
4FB
330
1F
100
AcDbEntity
  8
LAY-10
  6
CONTINUOUS
 62
     7
100
AcDbCircle
 10
2133.416810666408
 20
1191.129292968512
 30
0.0
 40
3.000000000000003
100
AcDbArc
 50
0.0
 51
90.00000000000001
  0
ARC
  5
4FC
330
1F
100
AcDbEntity
  8
LAY-10
  6
CONTINUOUS
 62
     7
100
AcDbCircle
 10
2133.416810666408
 20
1191.129292968512
 30
0.0
 40
2.0
100
AcDbArc
 50
0.0
 51
90.00000000000001
  0
ARC
  5
4FD
330
1F
100
AcDbEntity
  8
LAY-10
  6
CONTINUOUS
 62
     7
100
AcDbCircle
 10
2133.416810666408
 20
1191.129292968512
 30
0.0
 40
1.0
100
AcDbArc
 50
0.0
 51
90.00000000000001
  0
ARC
  5
4FE
330
1F
100
AcDbEntity
  8
LAY-10
  6
CONTINUOUS
 62
     7
100
AcDbCircle
 10
2133.416810666408
 20
1163.429292968512
 30
0.0
 40
3.000000000000003
100
AcDbArc
 50
270.0
 51
0.0
  0
ARC
  5
4FF
330
1F
100
AcDbEntity
  8
LAY-10
  6
CONTINUOUS
 62
     7
100
AcDbCircle
 10
2133.416810666408
 20
1163.429292968512
 30
0.0
 40
2.0
100
AcDbArc
 50
270.0
 51
0.0
  0
ARC
  5
500
330
1F
100
AcDbEntity
  8
LAY-10
  6
CONTINUOUS
 62
     7
100
AcDbCircle
 10
2133.416810666408
 20
1163.429292968512
 30
0.0
 40
1.0
100
AcDbArc
 50
270.0
 51
0.0
  0
LINE
  5
501
330
1F
100
AcDbEntity
  8
LAY-10
  6
CONTINUOUS
 62
     7
100
AcDbLine
 10
2113.216810666408
 20
1162.279292968513
 30
0.0
 11
2116.416810666408
 21
1162.279292968513
 31
0.0
  0
LINE
  5
502
330
1F
100
AcDbEntity
  8
LAY-10
  6
CONTINUOUS
 62
     7
100
AcDbLine
 10
2113.216810666408
 20
1192.279292968514
 30
0.0
 11
2116.416810666408
 21
1192.279292968514
 31
0.0
  0
LINE
  5
503
330
1F
100
AcDbEntity
  8
LAY-10
  6
CONTINUOUS
 62
     7
100
AcDbLine
 10
2113.216810666408
 20
1162.279292968513
 30
0.0
 11
2113.216810666408
 21
1192.279292968514
 31
0.0
  0
LINE
  5
504
330
1F
100
AcDbEntity
  8
LAY-10
  6
CONTINUOUS
 62
     7
100
AcDbLine
 10
2113.216810666415
 20
1185.279292968513
 30
0.0
 11
2101.844810666415
 21
1185.279292968513
 31
0.0
  0
LINE
  5
505
330
1F
100
AcDbEntity
  8
LAY-10
  6
CONTINUOUS
 62
     7
100
AcDbLine
 10
2113.216810666415
 20
1169.279292968513
 30
0.0
 11
2101.844810666415
 21
1169.279292968513
 31
0.0
  0
LINE
  5
506
330
1F
100
AcDbEntity
  8
LAY-10
  6
CONTINUOUS
 62
     7
100
AcDbLine
 10
2113.216810666415
 20
1163.429292968515
 30
0.0
 11
2101.844810666415
 21
1163.429292968515
 31
0.0
  0
LINE
  5
507
330
1F
100
AcDbEntity
  8
LAY-10
  6
CONTINUOUS
 62
     7
100
AcDbLine
 10
2113.216810666415
 20
1191.129292968514
 30
0.0
 11
2101.844810666415
 21
1191.129292968514
 31
0.0
  0
LINE
  5
508
330
1F
100
AcDbEntity
  8
LAY-10
  6
CONTINUOUS
 62
     7
100
AcDbLine
 10
2133.416810666408
 20
1185.279292968511
 30
0.0
 11
2116.41681066641
 21
1185.279292968511
 31
0.0
  0
LINE
  5
509
330
1F
100
AcDbEntity
  8
LAY-10
  6
CONTINUOUS
 62
     7
100
AcDbLine
 10
2133.416810666408
 20
1169.279292968512
 30
0.0
 11
2116.41681066641
 21
1169.279292968512
 31
0.0
  0
LINE
  5
50A
330
1F
100
AcDbEntity
  8
LAY-10
  6
CONTINUOUS
 62
     7
100
AcDbLine
 10
2122.41681066641
 20
1164.779292968514
 30
0.0
 11
2116.416810666408
 21
1164.779292968514
 31
0.0
  0
LINE
  5
50B
330
1F
100
AcDbEntity
  8
LAY-10
  6
CONTINUOUS
 62
     7
100
AcDbLine
 10
2122.41681066641
 20
1189.779292968514
 30
0.0
 11
2116.41681066641
 21
1189.779292968514
 31
0.0
  0
ARC
  5
50C
330
1F
100
AcDbEntity
  8
LAY-10
  6
CONTINUOUS
 62
     7
100
AcDbCircle
 10
2120.686830322434
 20
1177.279292968514
 30
0.0
 40
20.47001965601966
100
AcDbArc
 50
156.9947512290631
 51
203.005248770937
  0
ARC
  5
50D
330
1F
100
AcDbEntity
  8
LAY-10
  6
CONTINUOUS
 62
     7
100
AcDbCircle
 10
2103.658459622186
 20
1166.354292968515
 30
0.0
 40
3.441648955773841
100
AcDbArc
 50
121.8010203972052
 51
238.1989796027948
  0
ARC
  5
50E
330
1F
100
AcDbEntity
  8
LAY-10
  6
CONTINUOUS
 62
     7
100
AcDbCircle
 10
2103.658459622186
 20
1188.204292968515
 30
0.0
 40
3.441648955773841
100
AcDbArc
 50
121.8010203972052
 51
238.1989796027948
  0
LINE
  5
50F
330
1F
100
AcDbEntity
  8
LAY-10
  6
CONTINUOUS
 62
     7
100
AcDbLine
 10
2100.216810666413
 20
1188.204292968515
 30
0.0
 11
2100.216810666413
 21
1166.354292968515
 31
0.0
  0
ARC
  5
510
330
1F
100
AcDbEntity
  8
LAY-10
  6
CONTINUOUS
 62
     7
100
AcDbCircle
 10
2100.2168106664
 20
1166.279292968515
 30
0.0
 40
1.0
100
AcDbArc
 50
180.0
 51
279.6471508008721
  0
ARC
  5
511
330
1F
100
AcDbEntity
  8
LAY-10
  6
CONTINUOUS
 62
     7
100
AcDbCircle
 10
2100.2168106664
 20
1188.279292968516
 30
0.0
 40
1.0
100
AcDbArc
 50
80.35284919912797
 51
180.0
  0
LINE
  5
512
330
1F
100
AcDbEntity
  8
LAY-10
  6
CONTINUOUS
 62
     7
100
AcDbLine
 10
2071.916810666376
 20
1155.279292968516
 30
0.0
 11
2079.916810666374
 21
1155.279292968516
 31
0.0
  0
LINE
  5
513
330
1F
100
AcDbEntity
  8
LAY-10
  6
CONTINUOUS
 62
     7
100
AcDbLine
 10
2071.916810666376
 20
1157.779292968514
 30
0.0
 11
2071.916810666376
 21
1153.779292968516
 31
0.0
  0
LINE
  5
514
330
1F
100
AcDbEntity
  8
LAY-10
  6
CONTINUOUS
 62
     7
100
AcDbLine
 10
2071.916810666376
 20
1168.779292968514
 30
0.0
 11
2071.916810666376
 21
1163.779292968516
 31
0.0
  0
LINE
  5
515
330
1F
100
AcDbEntity
  8
LAY-10
  6
CONTINUOUS
 62
     7
100
AcDbLine
 10
2072.916810666372
 20
1163.529292968514
 30
0.0
 11
2072.916810666372
 21
1158.029292968515
 31
0.0
  0
LINE
  5
516
330
1F
100
AcDbEntity
  8
LAY-10
  6
CONTINUOUS
 62
     7
100
AcDbLine
 10
2072.916810666372
 20
1174.529292968516
 30
0.0
 11
2072.916810666372
 21
1169.029292968514
 31
0.0
  0
LINE
  5
517
330
1F
100
AcDbEntity
  8
LAY-10
  6
CONTINUOUS
 62
     7
100
AcDbLine
 10
2071.916810666376
 20
1179.779292968514
 30
0.0
 11
2071.916810666376
 21
1174.779292968515
 31
0.0
  0
LINE
  5
518
330
1F
100
AcDbEntity
  8
LAY-10
  6
CONTINUOUS
 62
     7
100
AcDbLine
 10
2071.916810666376
 20
1190.779292968513
 30
0.0
 11
2071.916810666376
 21
1185.779292968516
 31
0.0
  0
LINE
  5
519
330
1F
100
AcDbEntity
  8
LAY-10
  6
CONTINUOUS
 62
     7
100
AcDbLine
 10
2071.916810666376
 20
1200.779292968516
 30
0.0
 11
2071.916810666376
 21
1196.779292968515
 31
0.0
  0
LINE
  5
51A
330
1F
100
AcDbEntity
  8
LAY-10
  6
CONTINUOUS
 62
     7
100
AcDbLine
 10
2072.916810666372
 20
1185.529292968516
 30
0.0
 11
2072.916810666372
 21
1180.029292968514
 31
0.0
  0
LINE
  5
51B
330
1F
100
AcDbEntity
  8
LAY-10
  6
CONTINUOUS
 62
     7
100
AcDbLine
 10
2072.916810666374
 20
1196.529292968516
 30
0.0
 11
2072.916810666372
 21
1191.029292968514
 31
0.0
  0
LINE
  5
51C
330
1F
100
AcDbEntity
  8
LAY-10
  6
CONTINUOUS
 62
     7
100
AcDbLine
 10
2072.916810666376
 20
1158.029292968515
 30
0.0
 11
2071.916810666377
 21
1157.779292968516
 31
0.0
  0
LINE
  5
51D
330
1F
100
AcDbEntity
  8
LAY-10
  6
CONTINUOUS
 62
     7
100
AcDbLine
 10
2071.916810666377
 20
1163.779292968516
 30
0.0
 11
2072.916810666376
 21
1163.529292968514
 31
0.0
  0
LINE
  5
51E
330
1F
100
AcDbEntity
  8
LAY-10
  6
CONTINUOUS
 62
     7
100
AcDbLine
 10
2072.916810666376
 20
1169.029292968516
 30
0.0
 11
2071.916810666377
 21
1168.779292968516
 31
0.0
  0
LINE
  5
51F
330
1F
100
AcDbEntity
  8
LAY-10
  6
CONTINUOUS
 62
     7
100
AcDbLine
 10
2071.916810666377
 20
1174.779292968515
 30
0.0
 11
2072.916810666376
 21
1174.529292968516
 31
0.0
  0
LINE
  5
520
330
1F
100
AcDbEntity
  8
LAY-10
  6
CONTINUOUS
 62
     7
100
AcDbLine
 10
2072.916810666377
 20
1196.529292968516
 30
0.0
 11
2071.916810666377
 21
1196.779292968515
 31
0.0
  0
LINE
  5
521
330
1F
100
AcDbEntity
  8
LAY-10
  6
CONTINUOUS
 62
     7
100
AcDbLine
 10
2071.916810666377
 20
1190.779292968515
 30
0.0
 11
2072.916810666376
 21
1191.029292968516
 31
0.0
  0
LINE
  5
522
330
1F
100
AcDbEntity
  8
LAY-10
  6
CONTINUOUS
 62
     7
100
AcDbLine
 10
2072.916810666376
 20
1185.529292968516
 30
0.0
 11
2071.916810666377
 21
1185.779292968516
 31
0.0
  0
LINE
  5
523
330
1F
100
AcDbEntity
  8
LAY-10
  6
CONTINUOUS
 62
     7
100
AcDbLine
 10
2071.916810666377
 20
1179.779292968516
 30
0.0
 11
2072.916810666376
 21
1180.029292968516
 31
0.0
  0
LINE
  5
524
330
1F
100
AcDbEntity
  8
LAY-10
  6
CONTINUOUS
 62
     7
100
AcDbLine
 10
2091.916810666374
 20
1154.279292968515
 30
0.0
 11
2098.401881916448
 21
1155.900560781033
 31
0.0
  0
LINE
  5
525
330
1F
100
AcDbEntity
  8
LAY-10
  6
CONTINUOUS
 62
     7
100
AcDbLine
 10
2084.419292071269
 20
1161.829044828027
 30
0.0
 11
2099.016314385394
 21
1160.369342596613
 31
0.0
  0
LINE
  5
526
330
1F
100
AcDbEntity
  8
LAY-10
  6
CONTINUOUS
 62
     7
100
AcDbLine
 10
2079.916810666374
 20
1187.754355157956
 30
0.0
 11
2079.916810666374
 21
1166.804230779075
 31
0.0
  0
LINE
  5
527
330
1F
100
AcDbEntity
  8
LAY-10
  6
CONTINUOUS
 62
     7
100
AcDbLine
 10
2084.419292071269
 20
1192.729541109003
 30
0.0
 11
2099.016314385394
 21
1194.189243340416
 31
0.0
  0
LINE
  5
528
330
1F
100
AcDbEntity
  8
LAY-10
  6
CONTINUOUS
 62
     7
100
AcDbLine
 10
2091.916810666374
 20
1200.279292968516
 30
0.0
 11
2098.401881916449
 21
1198.658025155995
 31
0.0
  0
LINE
  5
529
330
1F
100
AcDbEntity
  8
LAY-10
  6
CONTINUOUS
 62
     7
100
AcDbLine
 10
2071.916810666376
 20
1153.779292968516
 30
0.0
 11
2073.416810666372
 21
1152.279292968514
 31
0.0
  0
LINE
  5
52A
330
1F
100
AcDbEntity
  8
LAY-10
  6
CONTINUOUS
 62
     7
100
AcDbLine
 10
2071.916810666376
 20
1200.779292968516
 30
0.0
 11
2073.416810666376
 21
1202.279292968516
 31
0.0
  0
ARC
  5
52B
330
1F
100
AcDbEntity
  8
LAY-10
  6
CONTINUOUS
 62
     7
100
AcDbCircle
 10
2084.916810666376
 20
1166.804230779075
 30
0.0
 40
5.0
100
AcDbArc
 50
180.0
 51
264.2894068625025
  0
ARC
  5
52C
330
1F
100
AcDbEntity
  8
LAY-10
  6
CONTINUOUS
 62
     7
100
AcDbCircle
 10
2098.916810666374
 20
1159.374305406403
 30
0.0
 40
1.0
100
AcDbArc
 50
0.0
 51
84.28940686250037
  0
ARC
  5
52D
330
1F
100
AcDbEntity
  8
LAY-10
  6
CONTINUOUS
 62
     7
100
AcDbCircle
 10
2097.916810666374
 20
1157.840845781325
 30
0.0
 40
2.0
100
AcDbArc
 50
284.0362434679201
 51
0.0
  0
LINE
  5
52E
330
1F
100
AcDbEntity
  8
LAY-10
  6
CONTINUOUS
 62
     7
100
AcDbLine
 10
2091.916810666374
 20
1154.279292968515
 30
0.0
 11
2091.916810666374
 21
1156.279292968516
 31
0.0
  0
LINE
  5
52F
330
1F
100
AcDbEntity
  8
LAY-10
  6
CONTINUOUS
 62
     7
100
AcDbLine
 10
2083.916810666374
 20
1154.279292968515
 30
0.0
 11
2083.916810666374
 21
1156.279292968516
 31
0.0
  0
LINE
  5
530
330
1F
100
AcDbEntity
  8
LAY-10
  6
CONTINUOUS
 62
     7
100
AcDbLine
 10
2079.916810666374
 20
1155.279292968516
 30
0.0
 11
2083.916810666374
 21
1156.279292968516
 31
0.0
  0
LINE
  5
531
330
1F
100
AcDbEntity
  8
LAY-10
  6
CONTINUOUS
 62
     7
100
AcDbLine
 10
2083.916810666374
 20
1154.279292968515
 30
0.0
 11
2091.916810666374
 21
1156.279292968516
 31
0.0
  0
ARC
  5
532
330
1F
100
AcDbEntity
  8
LAY-10
  6
CONTINUOUS
 62
     7
100
AcDbCircle
 10
2084.916810666376
 20
1187.754355157956
 30
0.0
 40
5.0
100
AcDbArc
 50
95.71059313749761
 51
180.0
  0
ARC
  5
533
330
1F
100
AcDbEntity
  8
LAY-10
  6
CONTINUOUS
 62
     7
100
AcDbCircle
 10
2098.916810666374
 20
1195.184280530627
 30
0.0
 40
1.0
100
AcDbArc
 50
275.7105931374997
 51
0.0
  0
ARC
  5
534
330
1F
100
AcDbEntity
  8
LAY-10
  6
CONTINUOUS
 62
     7
100
AcDbCircle
 10
2097.916810666374
 20
1196.717740155706
 30
0.0
 40
2.0
100
AcDbArc
 50
0.0
 51
75.96375653207986
  0
LINE
  5
535
330
1F
100
AcDbEntity
  8
LAY-10
  6
CONTINUOUS
 62
     7
100
AcDbLine
 10
2091.916810666374
 20
1200.279292968516
 30
0.0
 11
2091.916810666374
 21
1198.279292968515
 31
0.0
  0
LINE
  5
536
330
1F
100
AcDbEntity
  8
LAY-10
  6
CONTINUOUS
 62
     7
100
AcDbLine
 10
2083.916810666374
 20
1200.279292968516
 30
0.0
 11
2083.916810666374
 21
1198.279292968515
 31
0.0
  0
LINE
  5
537
330
1F
100
AcDbEntity
  8
LAY-10
  6
CONTINUOUS
 62
     7
100
AcDbLine
 10
2075.916810666374
 20
1199.279292968514
 30
0.0
 11
2079.916810666374
 21
1199.279292968514
 31
0.0
  0
LINE
  5
538
330
1F
100
AcDbEntity
  8
LAY-10
  6
CONTINUOUS
 62
     7
100
AcDbLine
 10
2079.916810666374
 20
1199.279292968514
 30
0.0
 11
2083.916810666374
 21
1198.279292968515
 31
0.0
  0
LINE
  5
539
330
1F
100
AcDbEntity
  8
LAY-10
  6
CONTINUOUS
 62
     7
100
AcDbLine
 10
2083.916810666374
 20
1200.279292968516
 30
0.0
 11
2091.916810666374
 21
1198.279292968515
 31
0.0
  0
LINE
  5
53A
330
1F
100
AcDbEntity
  8
LAY-10
  6
CONTINUOUS
 62
     7
100
AcDbLine
 10
2099.2168106664
 20
1188.279292968516
 30
0.0
 11
2099.2168106664
 21
1166.279292968515
 31
0.0
  0
LINE
  5
53B
330
1F
100
AcDbEntity
  8
LAY-10
  6
CONTINUOUS
 62
     7
100
AcDbLine
 10
2094.416810666406
 20
1169.279292968512
 30
0.0
 11
2093.416810666406
 21
1170.279292968511
 31
0.0
  0
LINE
  5
53C
330
1F
100
AcDbEntity
  8
LAY-10
  6
CONTINUOUS
 62
     7
100
AcDbLine
 10
2093.416810666406
 20
1184.279292968512
 30
0.0
 11
2094.416810666406
 21
1185.279292968511
 31
0.0
  0
LINE
  5
53D
330
1F
100
AcDbEntity
  8
LAY-10
  6
CONTINUOUS
 62
     7
100
AcDbLine
 10
2093.416810666406
 20
1170.279292968511
 30
0.0
 11
2093.416810666406
 21
1184.279292968512
 31
0.0
  0
LINE
  5
53E
330
1F
100
AcDbEntity
  8
LAY-10
  6
CONTINUOUS
 62
     7
100
AcDbLine
 10
2099.216810666408
 20
1169.279292968512
 30
0.0
 11
2094.416810666406
 21
1169.279292968512
 31
0.0
  0
LINE
  5
53F
330
1F
100
AcDbEntity
  8
LAY-10
  6
CONTINUOUS
 62
     7
100
AcDbLine
 10
2099.216810666408
 20
1185.279292968511
 30
0.0
 11
2094.416810666406
 21
1185.279292968511
 31
0.0
  0
LINE
  5
540
330
1F
100
AcDbEntity
  8
LAY-10
  6
CONTINUOUS
 62
     7
100
AcDbLine
 10
2099.916810666376
 20
1165.325353767096
 30
0.0
 11
2099.916810666376
 21
1157.840845781325
 31
0.0
  0
LINE
  5
541
330
1F
100
AcDbEntity
  8
LAY-10
  6
CONTINUOUS
 62
     7
100
AcDbLine
 10
2099.916810666376
 20
1196.717740155713
 30
0.0
 11
2099.916810666376
 21
1189.233232169922
 31
0.0
  0
LINE
  5
542
330
1F
100
AcDbEntity
  8
LAY-10
  6
CONTINUOUS
 62
     7
100
AcDbLine
 10
2116.41681066641
 20
1199.979292968482
 30
0.0
 11
2075.916810666374
 21
1199.979292968482
 31
0.0
  0
LINE
  5
543
330
1F
100
AcDbEntity
  8
LAY-10
  6
CONTINUOUS
 62
     7
100
AcDbLine
 10
2116.41681066641
 20
1202.279292968483
 30
0.0
 11
2073.416810666341
 21
1202.279292968483
 31
0.0
  0
LINE
  5
544
330
1F
100
AcDbEntity
  8
LAY-10
  6
CONTINUOUS
 62
     7
100
AcDbLine
 10
2075.916810666374
 20
1154.579292968476
 30
0.0
 11
2116.41681066641
 21
1154.579292968476
 31
0.0
  0
LINE
  5
545
330
1F
100
AcDbEntity
  8
LAY-10
  6
CONTINUOUS
 62
     7
100
AcDbLine
 10
2073.416810666414
 20
1152.279292968473
 30
0.0
 11
2114.41681066641
 21
1152.279292968473
 31
0.0
  0
ARC
  5
546
330
1F
100
AcDbEntity
  8
LAY-10
  6
CONTINUOUS
 62
     7
100
AcDbCircle
 10
2114.41681066641
 20
1154.279292968474
 30
0.0
 40
2.0
100
AcDbArc
 50
270.0
 51
0.0
  0
LINE
  5
547
330
1F
100
AcDbEntity
  8
LAY-10
  6
CONTINUOUS
 62
     7
100
AcDbLine
 10
2071.416810666408
 20
1202.279292968477
 30
0.0
 11
2075.91681066641
 21
1202.279292968477
 31
0.0
  0
ARC
  5
548
330
1F
100
AcDbEntity
  8
LAY-10
  6
CONTINUOUS
 62
     7
100
AcDbCircle
 10
2136.416810666416
 20
1196.279292968556
 30
0.0
 40
3.000000000000001
100
AcDbArc
 50
90.00000000000001
 51
180.0
  0
LINE
  5
549
330
1F
100
AcDbEntity
  8
LAY-10
  6
CONTINUOUS
 62
     7
100
AcDbLine
 10
2122.41681066641
 20
1210.779292968597
 30
0.0
 11
2122.41681066641
 21
1185.279292968511
 31
0.0
  0
LINE
  5
54A
330
1F
100
AcDbEntity
  8
LAY-10
  6
CONTINUOUS
 62
     7
100
AcDbLine
 10
2141.416810666441
 20
1142.27929296845
 30
0.0
 11
2141.416810666441
 21
1163.429292968512
 31
0.0
  0
LINE
  5
54B
330
1F
100
AcDbEntity
  8
LAY-10
  6
CONTINUOUS
 62
     7
100
AcDbLine
 10
2116.41681066641
 20
1210.779292968597
 30
0.0
 11
2116.41681066641
 21
1154.27929296845
 31
0.0
  0
LINE
  5
54C
330
1F
100
AcDbEntity
  8
LAY-10
  6
CONTINUOUS
 62
     7
100
AcDbLine
 10
2127.416810666416
 20
1169.279292968512
 30
0.0
 11
2127.416810666416
 21
1142.279292968496
 31
0.0
  0
LINE
  5
54D
330
1F
100
AcDbEntity
  8
LAY-10
  6
CONTINUOUS
 62
     7
100
AcDbLine
 10
2075.91681066641
 20
1146.279292968459
 30
0.0
 11
2115.41681066641
 21
1146.279292968459
 31
0.0
  0
LINE
  5
54E
330
1F
100
AcDbEntity
  8
LAY-10
  6
CONTINUOUS
 62
     7
100
AcDbLine
 10
2122.41681066641
 20
1153.279292968458
 30
0.0
 11
2122.41681066641
 21
1169.279292968512
 31
0.0
  0
ARC
  5
54F
330
1F
100
AcDbEntity
  8
LAY-10
  6
CONTINUOUS
 62
     7
100
AcDbCircle
 10
2115.41681066641
 20
1153.279292968458
 30
0.0
 40
7.0
100
AcDbArc
 50
270.0
 51
0.0
  0
LINE
  5
550
330
1F
100
AcDbEntity
  8
LAY-10
  6
CONTINUOUS
 62
     7
100
AcDbLine
 10
2075.91681066641
 20
1155.279292968516
 30
0.0
 11
2075.91681066641
 21
1142.279292968498
 31
0.0
  0
LINE
  5
551
330
1F
100
AcDbEntity
  8
LAY-10
  6
CONTINUOUS
 62
     7
100
AcDbLine
 10
2140.916810666417
 20
1967.279292968556
 30
0.0
 11
2075.916810666417
 21
1967.279292968557
 31
0.0
  0
LINE
  5
552
330
1F
100
AcDbEntity
  8
LAY-10
  6
CONTINUOUS
 62
     7
100
AcDbLine
 10
2140.916810666417
 20
1961.279292968556
 30
0.0
 11
2075.916810666417
 21
1961.279292968557
 31
0.0
  0
LINE
  5
553
330
1F
100
AcDbEntity
  8
LAY-10
  6
CONTINUOUS
 62
     7
100
AcDbLine
 10
2140.916810666417
 20
1961.279292968556
 30
0.0
 11
2140.916810666417
 21
1986.279292968556
 31
0.0
  0
LINE
  5
554
330
1F
100
AcDbEntity
  8
LAY-10
  6
CONTINUOUS
 62
     7
100
AcDbLine
 10
2100.916810666419
 20
1967.279292968557
 30
0.0
 11
2100.916810666419
 21
2002.258054968556
 31
0.0
  0
LINE
  5
555
330
1F
100
AcDbEntity
  8
LAY-10
  6
CONTINUOUS
 62
     7
100
AcDbLine
 10
2108.566804666419
 20
2006.498046968556
 30
0.0
 11
2140.916810666417
 21
1986.279292968556
 31
0.0
  0
ARC
  5
556
330
1F
100
AcDbEntity
  8
LAY-10
  6
CONTINUOUS
 62
     7
100
AcDbCircle
 10
2105.916810666417
 20
2002.258054968556
 30
0.0
 40
5.0
100
AcDbArc
 50
57.99461699998903
 51
180.0
  0
LINE
  5
557
330
1F
100
AcDbEntity
  8
LAY-10
  6
CONTINUOUS
 62
     7
100
AcDbLine
 10
2140.916810666417
 20
1867.279292968557
 30
0.0
 11
2075.916810666417
 21
1867.279292968557
 31
0.0
  0
LINE
  5
558
330
1F
100
AcDbEntity
  8
LAY-10
  6
CONTINUOUS
 62
     7
100
AcDbLine
 10
2140.916810666417
 20
1861.279292968556
 30
0.0
 11
2075.916810666417
 21
1861.279292968556
 31
0.0
  0
LINE
  5
559
330
1F
100
AcDbEntity
  8
LAY-10
  6
CONTINUOUS
 62
     7
100
AcDbLine
 10
2140.916810666417
 20
1861.279292968556
 30
0.0
 11
2140.916810666417
 21
1886.279292968556
 31
0.0
  0
LINE
  5
55A
330
1F
100
AcDbEntity
  8
LAY-10
  6
CONTINUOUS
 62
     7
100
AcDbLine
 10
2100.916810666419
 20
1867.279292968557
 30
0.0
 11
2100.916810666419
 21
1902.258054968557
 31
0.0
  0
LINE
  5
55B
330
1F
100
AcDbEntity
  8
LAY-10
  6
CONTINUOUS
 62
     7
100
AcDbLine
 10
2108.566804666419
 20
1906.498046968557
 30
0.0
 11
2140.916810666417
 21
1886.279292968556
 31
0.0
  0
ARC
  5
55C
330
1F
100
AcDbEntity
  8
LAY-10
  6
CONTINUOUS
 62
     7
100
AcDbCircle
 10
2105.916810666417
 20
1902.258054968557
 30
0.0
 40
5.0
100
AcDbArc
 50
57.99461699998903
 51
180.0
  0
ARC
  5
55D
330
1F
100
AcDbEntity
  8
LAY-10
  6
CONTINUOUS
 62
     7
100
AcDbCircle
 10
2105.916810666417
 20
1802.258054968556
 30
0.0
 40
5.0
100
AcDbArc
 50
57.99461699998903
 51
180.0
  0
LINE
  5
55E
330
1F
100
AcDbEntity
  8
LAY-10
  6
CONTINUOUS
 62
     7
100
AcDbLine
 10
2140.916810666417
 20
1761.279292968556
 30
0.0
 11
2075.916810666417
 21
1761.279292968556
 31
0.0
  0
LINE
  5
55F
330
1F
100
AcDbEntity
  8
LAY-10
  6
CONTINUOUS
 62
     7
100
AcDbLine
 10
2140.916810666417
 20
1767.279292968557
 30
0.0
 11
2075.916810666417
 21
1767.279292968557
 31
0.0
  0
LINE
  5
560
330
1F
100
AcDbEntity
  8
LAY-10
  6
CONTINUOUS
 62
     7
100
AcDbLine
 10
2100.916810666419
 20
1767.279292968557
 30
0.0
 11
2100.916810666419
 21
1802.258054968556
 31
0.0
  0
LINE
  5
561
330
1F
100
AcDbEntity
  8
LAY-10
  6
CONTINUOUS
 62
     7
100
AcDbLine
 10
2140.916810666417
 20
1761.279292968556
 30
0.0
 11
2140.916810666417
 21
1786.279292968556
 31
0.0
  0
LINE
  5
562
330
1F
100
AcDbEntity
  8
LAY-10
  6
CONTINUOUS
 62
     7
100
AcDbLine
 10
2108.566804666419
 20
1806.498046968557
 30
0.0
 11
2140.916810666417
 21
1786.279292968556
 31
0.0
  0
ARC
  5
563
330
1F
100
AcDbEntity
  8
LAY-10
  6
CONTINUOUS
 62
     7
100
AcDbCircle
 10
2105.916810666417
 20
1702.258054968556
 30
0.0
 40
5.0
100
AcDbArc
 50
57.99461699998903
 51
180.0
  0
LINE
  5
564
330
1F
100
AcDbEntity
  8
LAY-10
  6
CONTINUOUS
 62
     7
100
AcDbLine
 10
2140.916810666417
 20
1661.279292968556
 30
0.0
 11
2075.916810666417
 21
1661.279292968556
 31
0.0
  0
LINE
  5
565
330
1F
100
AcDbEntity
  8
LAY-10
  6
CONTINUOUS
 62
     7
100
AcDbLine
 10
2140.916810666417
 20
1667.279292968556
 30
0.0
 11
2075.916810666417
 21
1667.279292968556
 31
0.0
  0
LINE
  5
566
330
1F
100
AcDbEntity
  8
LAY-10
  6
CONTINUOUS
 62
     7
100
AcDbLine
 10
2100.916810666419
 20
1667.279292968556
 30
0.0
 11
2100.916810666419
 21
1702.258054968556
 31
0.0
  0
LINE
  5
567
330
1F
100
AcDbEntity
  8
LAY-10
  6
CONTINUOUS
 62
     7
100
AcDbLine
 10
2140.916810666417
 20
1661.279292968556
 30
0.0
 11
2140.916810666417
 21
1686.279292968556
 31
0.0
  0
LINE
  5
568
330
1F
100
AcDbEntity
  8
LAY-10
  6
CONTINUOUS
 62
     7
100
AcDbLine
 10
2108.566804666419
 20
1706.498046968556
 30
0.0
 11
2140.916810666417
 21
1686.279292968556
 31
0.0
  0
ARC
  5
569
330
1F
100
AcDbEntity
  8
LAY-10
  6
CONTINUOUS
 62
     7
100
AcDbCircle
 10
2105.916810666417
 20
1602.258054968557
 30
0.0
 40
5.0
100
AcDbArc
 50
57.99461699998903
 51
180.0
  0
LINE
  5
56A
330
1F
100
AcDbEntity
  8
LAY-10
  6
CONTINUOUS
 62
     7
100
AcDbLine
 10
2140.916810666417
 20
1561.279292968556
 30
0.0
 11
2075.916810666417
 21
1561.279292968556
 31
0.0
  0
LINE
  5
56B
330
1F
100
AcDbEntity
  8
LAY-10
  6
CONTINUOUS
 62
     7
100
AcDbLine
 10
2140.916810666417
 20
1567.279292968557
 30
0.0
 11
2075.916810666417
 21
1567.279292968557
 31
0.0
  0
LINE
  5
56C
330
1F
100
AcDbEntity
  8
LAY-10
  6
CONTINUOUS
 62
     7
100
AcDbLine
 10
2100.916810666419
 20
1567.279292968557
 30
0.0
 11
2100.916810666419
 21
1602.258054968557
 31
0.0
  0
LINE
  5
56D
330
1F
100
AcDbEntity
  8
LAY-10
  6
CONTINUOUS
 62
     7
100
AcDbLine
 10
2140.916810666417
 20
1561.279292968556
 30
0.0
 11
2140.916810666417
 21
1586.279292968556
 31
0.0
  0
LINE
  5
56E
330
1F
100
AcDbEntity
  8
LAY-10
  6
CONTINUOUS
 62
     7
100
AcDbLine
 10
2108.566804666419
 20
1606.498046968557
 30
0.0
 11
2140.916810666417
 21
1586.279292968556
 31
0.0
  0
LINE
  5
56F
330
1F
100
AcDbEntity
  8
LAY-10
  6
CONTINUOUS
 62
     7
100
AcDbLine
 10
2140.916810666417
 20
1467.279292968556
 30
0.0
 11
2075.916810666417
 21
1467.279292968556
 31
0.0
  0
LINE
  5
570
330
1F
100
AcDbEntity
  8
LAY-10
  6
CONTINUOUS
 62
     7
100
AcDbLine
 10
2140.916810666417
 20
1461.279292968556
 30
0.0
 11
2075.916810666417
 21
1461.279292968556
 31
0.0
  0
LINE
  5
571
330
1F
100
AcDbEntity
  8
LAY-10
  6
CONTINUOUS
 62
     7
100
AcDbLine
 10
2140.916810666417
 20
1461.279292968556
 30
0.0
 11
2140.916810666417
 21
1486.279292968556
 31
0.0
  0
LINE
  5
572
330
1F
100
AcDbEntity
  8
LAY-10
  6
CONTINUOUS
 62
     7
100
AcDbLine
 10
2100.916810666419
 20
1467.279292968556
 30
0.0
 11
2100.916810666419
 21
1502.258054968556
 31
0.0
  0
ARC
  5
573
330
1F
100
AcDbEntity
  8
LAY-10
  6
CONTINUOUS
 62
     7
100
AcDbCircle
 10
2105.916810666417
 20
1502.258054968556
 30
0.0
 40
5.0
100
AcDbArc
 50
57.99461699998903
 51
180.0
  0
LINE
  5
574
330
1F
100
AcDbEntity
  8
LAY-10
  6
CONTINUOUS
 62
     7
100
AcDbLine
 10
2108.566804666419
 20
1506.498046968555
 30
0.0
 11
2140.916810666417
 21
1486.279292968556
 31
0.0
  0
LINE
  5
575
330
1F
100
AcDbEntity
  8
LAY-10
  6
CONTINUOUS
 62
     7
100
AcDbLine
 10
2108.566804666419
 20
1406.498046968556
 30
0.0
 11
2140.916810666417
 21
1386.279292968556
 31
0.0
  0
LINE
  5
576
330
1F
100
AcDbEntity
  8
LAY-10
  6
CONTINUOUS
 62
     7
100
AcDbLine
 10
2100.916810666419
 20
1367.279292968556
 30
0.0
 11
2100.916810666419
 21
1402.258054968556
 31
0.0
  0
LINE
  5
577
330
1F
100
AcDbEntity
  8
LAY-10
  6
CONTINUOUS
 62
     7
100
AcDbLine
 10
2140.916810666417
 20
1361.279292968556
 30
0.0
 11
2075.916810666417
 21
1361.279292968556
 31
0.0
  0
LINE
  5
578
330
1F
100
AcDbEntity
  8
LAY-10
  6
CONTINUOUS
 62
     7
100
AcDbLine
 10
2140.916810666417
 20
1367.279292968556
 30
0.0
 11
2075.916810666417
 21
1367.279292968556
 31
0.0
  0
LINE
  5
579
330
1F
100
AcDbEntity
  8
LAY-10
  6
CONTINUOUS
 62
     7
100
AcDbLine
 10
2140.916810666417
 20
1361.279292968556
 30
0.0
 11
2140.916810666417
 21
1386.279292968556
 31
0.0
  0
ARC
  5
57A
330
1F
100
AcDbEntity
  8
LAY-10
  6
CONTINUOUS
 62
     7
100
AcDbCircle
 10
2105.916810666417
 20
1402.258054968556
 30
0.0
 40
5.0
100
AcDbArc
 50
57.99461699998903
 51
180.0
  0
LINE
  5
57B
330
1F
100
AcDbEntity
  8
LAY-10
  6
CONTINUOUS
 62
     7
100
AcDbLine
 10
2071.416810666408
 20
2286.279292968649
 30
0.0
 11
2071.416810666408
 21
1142.27929296845
 31
0.0
  0
LINE
  5
57C
330
1F
100
AcDbEntity
  8
LAY-10
  6
CONTINUOUS
 62
     7
100
AcDbLine
 10
2075.91681066641
 20
1199.27929296855
 30
0.0
 11
2075.91681066641
 21
2229.27929296855
 31
0.0
  0
LINE
  5
57D
330
1F
100
AcDbEntity
  8
LAY-10
  6
CONTINUOUS
 62
     7
100
AcDbLine
 10
2210.416810666441
 20
2164.279292968575
 30
0.0
 11
2216.41681066641
 21
2164.279292968575
 31
0.0
  0
LINE
  5
57E
330
1F
100
AcDbEntity
  8
LAY-10
  6
CONTINUOUS
 62
     7
100
AcDbLine
 10
2075.91681066641
 20
2211.779292968547
 30
0.0
 11
2205.416810666412
 21
2211.779292968547
 31
0.0
  0
LINE
  5
57F
330
1F
100
AcDbEntity
  8
LAY-10
  6
CONTINUOUS
 62
     7
100
AcDbLine
 10
2216.41681066641
 20
2220.779292968736
 30
0.0
 11
2216.41681066641
 21
2164.279292968575
 31
0.0
  0
ARC
  5
580
330
1F
100
AcDbEntity
  8
LAY-10
  6
CONTINUOUS
 62
     7
100
AcDbCircle
 10
2207.416810666412
 20
2220.279292968496
 30
0.0
 40
9.0
100
AcDbArc
 50
0.0
 51
90.0000000000029
  0
ARC
  5
581
330
1F
100
AcDbEntity
  8
LAY-10
  6
CONTINUOUS
 62
     7
100
AcDbCircle
 10
2207.416810666443
 20
2220.279292968496
 30
0.0
 40
3.000000000000001
100
AcDbArc
 50
0.0
 51
90.00000000000001
  0
LINE
  5
582
330
1F
100
AcDbEntity
  8
LAY-10
  6
CONTINUOUS
 62
     7
100
AcDbLine
 10
2207.41681066641
 20
2229.279292968495
 30
0.0
 11
2136.416810666408
 21
2229.279292968494
 31
0.0
  0
LINE
  5
583
330
1F
100
AcDbEntity
  8
LAY-10
  6
CONTINUOUS
 62
     7
100
AcDbLine
 10
2207.416810666443
 20
2223.279292968495
 30
0.0
 11
2136.416810666408
 21
2223.279292968495
 31
0.0
  0
LINE
  5
584
330
1F
100
AcDbEntity
  8
LAY-10
  6
CONTINUOUS
 62
     7
100
AcDbLine
 10
2210.416810666441
 20
2164.279292968575
 30
0.0
 11
2210.416810666441
 21
2220.27929296855
 31
0.0
  0
LINE
  5
585
330
1F
100
AcDbEntity
  8
LAY-10
  6
CONTINUOUS
 62
     7
100
AcDbLine
 10
2210.416810666441
 20
1264.279292968574
 30
0.0
 11
2216.41681066641
 21
1264.279292968574
 31
0.0
  0
ARC
  5
586
330
1F
100
AcDbEntity
  8
LAY-10
  6
CONTINUOUS
 62
     7
100
AcDbCircle
 10
2207.416810666412
 20
1208.279292968556
 30
0.0
 40
9.0
100
AcDbArc
 50
270.0
 51
0.0
  0
ARC
  5
587
330
1F
100
AcDbEntity
  8
LAY-10
  6
CONTINUOUS
 62
     7
100
AcDbCircle
 10
2207.416810666443
 20
1208.279292968556
 30
0.0
 40
3.000000000000001
100
AcDbArc
 50
270.0
 51
0.0
  0
LINE
  5
588
330
1F
100
AcDbEntity
  8
LAY-10
  6
CONTINUOUS
 62
     7
100
AcDbLine
 10
2216.41681066641
 20
1208.27929296855
 30
0.0
 11
2216.41681066641
 21
1264.279292968574
 31
0.0
  0
LINE
  5
589
330
1F
100
AcDbEntity
  8
LAY-10
  6
CONTINUOUS
 62
     7
100
AcDbLine
 10
2075.91681066641
 20
1216.779292968617
 30
0.0
 11
2205.416810666412
 21
1216.779292968617
 31
0.0
  0
LINE
  5
58A
330
1F
100
AcDbEntity
  8
LAY-10
  6
CONTINUOUS
 62
     7
100
AcDbLine
 10
2200.91681066641
 20
1260.779292968619
 30
0.0
 11
2205.41681066639
 21
1260.779292968619
 31
0.0
  0
LINE
  5
58B
330
1F
100
AcDbEntity
  8
LAY-10
  6
CONTINUOUS
 62
     7
100
AcDbLine
 10
2207.416810666412
 20
1199.279292968555
 30
0.0
 11
2136.41681066641
 21
1199.279292968555
 31
0.0
  0
LINE
  5
58C
330
1F
100
AcDbEntity
  8
LAY-10
  6
CONTINUOUS
 62
     7
100
AcDbLine
 10
2207.416810666443
 20
1205.279292968556
 30
0.0
 11
2136.41681066641
 21
1205.279292968556
 31
0.0
  0
LINE
  5
58D
330
1F
100
AcDbEntity
  8
LAY-10
  6
CONTINUOUS
 62
     7
100
AcDbLine
 10
2205.41681066639
 20
1216.779292968617
 30
0.0
 11
2205.41681066639
 21
1260.779292968619
 31
0.0
  0
LINE
  5
58E
330
1F
100
AcDbEntity
  8
LAY-10
  6
CONTINUOUS
 62
     7
100
AcDbLine
 10
2210.416810666443
 20
1208.27929296855
 30
0.0
 11
2210.416810666443
 21
1264.279292968574
 31
0.0
  0
LINE
  5
58F
330
1F
100
AcDbEntity
  8
LAY-10
  6
CONTINUOUS
 62
     7
100
AcDbLine
 10
2200.91681066641
 20
1216.779292968617
 30
0.0
 11
2200.91681066641
 21
2211.779292968547
 31
0.0
  0
LINE
  5
590
330
1F
100
AcDbEntity
  8
LAY-10
  6
CONTINUOUS
 62
     7
100
AcDbLine
 10
2192.91681066641
 20
1216.779292968617
 30
0.0
 11
2192.91681066641
 21
2211.779292968547
 31
0.0
  0
LINE
  5
591
330
1F
100
AcDbEntity
  8
LAY-10
  6
CONTINUOUS
 62
     7
100
AcDbLine
 10
2083.916810666408
 20
2161.279292968557
 30
0.0
 11
2083.916810666408
 21
2067.279292968557
 31
0.0
  0
LINE
  5
592
330
1F
100
AcDbEntity
  8
LAY-10
  6
CONTINUOUS
 62
     7
100
AcDbLine
 10
2083.916810666408
 20
2211.779292968547
 30
0.0
 11
2083.916810666408
 21
2167.279292968557
 31
0.0
  0
LINE
  5
593
330
1F
100
AcDbEntity
  8
LAY-10
  6
CONTINUOUS
 62
     7
100
AcDbLine
 10
2083.916810666405
 20
1261.279292968555
 30
0.0
 11
2083.916810666405
 21
1216.779292968617
 31
0.0
  0
LINE
  5
594
330
1F
100
AcDbEntity
  8
LAY-10
  6
CONTINUOUS
 62
     7
100
AcDbLine
 10
2083.916810666405
 20
1461.279292968556
 30
0.0
 11
2083.916810666405
 21
1367.279292968556
 31
0.0
  0
LINE
  5
595
330
1F
100
AcDbEntity
  8
LAY-10
  6
CONTINUOUS
 62
     7
100
AcDbLine
 10
2083.916810666405
 20
1561.279292968556
 30
0.0
 11
2083.916810666405
 21
1467.279292968556
 31
0.0
  0
LINE
  5
596
330
1F
100
AcDbEntity
  8
LAY-10
  6
CONTINUOUS
 62
     7
100
AcDbLine
 10
2083.916810666405
 20
1661.279292968556
 30
0.0
 11
2083.916810666405
 21
1567.279292968557
 31
0.0
  0
LINE
  5
597
330
1F
100
AcDbEntity
  8
LAY-10
  6
CONTINUOUS
 62
     7
100
AcDbLine
 10
2083.916810666406
 20
1761.279292968556
 30
0.0
 11
2083.916810666405
 21
1667.279292968556
 31
0.0
  0
LINE
  5
598
330
1F
100
AcDbEntity
  8
LAY-10
  6
CONTINUOUS
 62
     7
100
AcDbLine
 10
2083.916810666406
 20
1861.279292968556
 30
0.0
 11
2083.916810666406
 21
1767.279292968557
 31
0.0
  0
LINE
  5
599
330
1F
100
AcDbEntity
  8
LAY-10
  6
CONTINUOUS
 62
     7
100
AcDbLine
 10
2083.916810666408
 20
1961.279292968557
 30
0.0
 11
2083.916810666408
 21
1867.279292968557
 31
0.0
  0
LINE
  5
59A
330
1F
100
AcDbEntity
  8
LAY-10
  6
CONTINUOUS
 62
     7
100
AcDbLine
 10
2083.916810666408
 20
2061.279292968557
 30
0.0
 11
2083.916810666408
 21
1967.279292968557
 31
0.0
  0
LINE
  5
59B
330
1F
100
AcDbEntity
  8
LAY-10
  6
CONTINUOUS
 62
     7
100
AcDbLine
 10
2083.916810666405
 20
1361.27929296855
 30
0.0
 11
2083.916810666405
 21
1267.279292968557
 31
0.0
  0
LINE
  5
59C
330
1F
100
AcDbEntity
  8
LAY-10
  6
CONTINUOUS
 62
     7
100
AcDbLine
 10
2133.416810666408
 20
1184.27929296851
 30
0.0
 11
2116.41681066641
 21
1184.27929296851
 31
0.0
  0
LINE
  5
59D
330
1F
100
AcDbEntity
  8
LAY-10
  6
CONTINUOUS
 62
     7
100
AcDbLine
 10
2133.416810666408
 20
1170.279292968511
 30
0.0
 11
2116.41681066641
 21
1170.279292968511
 31
0.0
  0
LINE
  5
59E
330
1F
100
AcDbEntity
  8
LAY-10
  6
CONTINUOUS
 62
     7
100
AcDbLine
 10
2094.416810666406
 20
1169.279292968512
 30
0.0
 11
2094.416810666406
 21
1185.279292968511
 31
0.0
  0
LINE
  5
59F
330
1F
100
AcDbEntity
  8
LAY-10
  6
CONTINUOUS
 62
     7
100
AcDbLine
 10
2099.2168106664
 20
1184.27929296851
 30
0.0
 11
2093.416810666406
 21
1184.279292968512
 31
0.0
  0
LINE
  5
5A0
330
1F
100
AcDbEntity
  8
LAY-10
  6
CONTINUOUS
 62
     7
100
AcDbLine
 10
2099.2168106664
 20
1170.279292968511
 30
0.0
 11
2093.416810666406
 21
1170.279292968511
 31
0.0
  0
LINE
  5
5A1
330
1F
100
AcDbEntity
  8
LAY-10
  6
CONTINUOUS
 62
     7
100
AcDbLine
 10
2133.416810666405
 20
2258.279292968537
 30
0.0
 11
2116.416810666408
 21
2258.279292968537
 31
0.0
  0
LINE
  5
5A2
330
1F
100
AcDbEntity
  8
LAY-10
  6
CONTINUOUS
 62
     7
100
AcDbLine
 10
2133.416810666405
 20
2244.279292968539
 30
0.0
 11
2116.416810666408
 21
2244.279292968539
 31
0.0
  0
LINE
  5
5A3
330
1F
100
AcDbEntity
  8
LAY-10
  6
CONTINUOUS
 62
     7
100
AcDbLine
 10
2099.2168106664
 20
2258.279292968537
 30
0.0
 11
2093.416810666403
 21
2258.279292968537
 31
0.0
  0
LINE
  5
5A4
330
1F
100
AcDbEntity
  8
LAY-10
  6
CONTINUOUS
 62
     7
100
AcDbLine
 10
2094.416810666405
 20
2259.279292968537
 30
0.0
 11
2094.416810666405
 21
2243.279292968537
 31
0.0
  0
LINE
  5
5A5
330
1F
100
AcDbEntity
  8
LAY-10
  6
CONTINUOUS
 62
     7
100
AcDbLine
 10
2099.2168106664
 20
2244.279292968539
 30
0.0
 11
2093.416810666403
 21
2244.279292968537
 31
0.0
  0
LINE
  5
5A6
330
1F
100
AcDbEntity
  8
LAY-10
  6
CONTINUOUS
 62
     7
100
AcDbLine
 10
2133.416810666412
 20
2232.279292968394
 30
0.0
 11
2133.416810666412
 21
2345.27929296865
 31
0.0
  0
LINE
  5
5A7
330
1F
100
AcDbEntity
  8
LAY-10
  6
CONTINUOUS
 62
     7
100
AcDbLine
 10
2133.416810666253
 20
2345.27929296865
 30
0.0
 11
2139.416810666289
 21
2345.27929296865
 31
0.0
  0
LINE
  5
5A8
330
1F
100
AcDbEntity
  8
LAY-10
  6
CONTINUOUS
 62
     7
100
AcDbLine
 10
2133.416810666249
 20
2327.779292968567
 30
0.0
 11
2139.416810666249
 21
2327.779292968567
 31
0.0
  0
LINE
  5
5A9
330
1F
100
AcDbEntity
  8
LAY-10
  6
CONTINUOUS
 62
     7
100
AcDbLine
 10
2133.416810666249
 20
2312.779292968516
 30
0.0
 11
2139.416810666249
 21
2312.779292968516
 31
0.0
  0
LINE
  5
5AA
330
1F
100
AcDbEntity
  8
LAY-10
  6
CONTINUOUS
 62
     7
100
AcDbLine
 10
2139.416810666289
 20
2265.12929296855
 30
0.0
 11
2139.416810666289
 21
2345.27929296865
 31
0.0
  0
LINE
  5
5AB
330
1F
100
AcDbEntity
  8
LAY-10
  6
CONTINUOUS
 62
     7
100
AcDbLine
 10
2171.115295476276
 20
2327.29148627741
 30
0.0
 11
2139.416810666289
 21
2295.593001467424
 31
0.0
  0
LINE
  5
5AC
330
1F
100
AcDbEntity
  8
LAY-10
  6
CONTINUOUS
 62
     7
100
AcDbLine
 10
2133.416810666253
 20
1083.2792929684
 30
0.0
 11
2139.416810666289
 21
1083.2792929684
 31
0.0
  0
LINE
  5
5AD
330
1F
100
AcDbEntity
  8
LAY-10
  6
CONTINUOUS
 62
     7
100
AcDbLine
 10
2133.416810666249
 20
1100.779292968483
 30
0.0
 11
2139.416810666249
 21
1100.779292968483
 31
0.0
  0
LINE
  5
5AE
330
1F
100
AcDbEntity
  8
LAY-10
  6
CONTINUOUS
 62
     7
100
AcDbLine
 10
2133.416810666249
 20
1115.779292968533
 30
0.0
 11
2139.416810666249
 21
1115.779292968533
 31
0.0
  0
LINE
  5
5AF
330
1F
100
AcDbEntity
  8
LAY-10
  6
CONTINUOUS
 62
     7
100
AcDbLine
 10
2139.416810666289
 20
1163.429292968499
 30
0.0
 11
2139.416810666289
 21
1083.2792929684
 31
0.0
  0
LINE
  5
5B0
330
1F
100
AcDbEntity
  8
LAY-10
  6
CONTINUOUS
 62
     7
100
AcDbLine
 10
2133.416810666414
 20
1196.279292968657
 30
0.0
 11
2133.416810666414
 21
1083.2792929684
 31
0.0
  0
LINE
  5
5B1
330
1F
100
AcDbEntity
  8
LAY-10
  6
CONTINUOUS
 62
     7
100
AcDbLine
 10
2171.115295476277
 20
1101.267099659639
 30
0.0
 11
2139.416810666289
 21
1132.965584469626
 31
0.0
  0
LINE
  5
5B2
330
1F
100
AcDbEntity
  8
LAY-10
  6
CONTINUOUS
 62
     7
100
AcDbLine
 10
2122.41681066641
 20
2217.77929296855
 30
0.0
 11
2122.41681066641
 21
2243.279292968537
 31
0.0
  0
LINE
  5
5B3
330
1F
100
AcDbEntity
  8
LAY-10
  6
CONTINUOUS
 62
     7
100
AcDbLine
 10
571.2213562370093
 20
732.7585859366994
 30
0.0
 11
571.2213562370093
 21
737.2585859366995
 31
0.0
  0
LINE
  5
5B4
330
1F
100
AcDbEntity
  8
LAY-10
  6
CONTINUOUS
 62
     7
100
AcDbLine
 10
576.2213562370348
 20
732.7585919367525
 30
0.0
 11
576.2213562370348
 21
667.7585919367534
 31
0.0
  0
LINE
  5
5B5
330
1F
100
AcDbEntity
  8
LAY-10
  6
CONTINUOUS
 62
     7
100
AcDbLine
 10
582.2213562370348
 20
732.7585919367525
 30
0.0
 11
582.2213562370348
 21
667.7585919367534
 31
0.0
  0
LINE
  5
5B6
330
1F
100
AcDbEntity
  8
LAY-10
  6
CONTINUOUS
 62
     7
100
AcDbLine
 10
563.2213562372312
 20
737.2585859367022
 30
0.0
 11
569.2213562372749
 21
737.2585859367022
 31
0.0
  0
LINE
  5
5B7
330
1F
100
AcDbEntity
  8
LAY-10
  6
CONTINUOUS
 62
     7
100
AcDbLine
 10
519.8660171779488
 20
639.9032468774362
 30
0.0
 11
555.2213562372713
 21
675.2585859367623
 31
0.0
  0
LINE
  5
5B8
330
1F
100
AcDbEntity
  8
LAY-10
  6
CONTINUOUS
 62
     7
100
AcDbLine
 10
525.5228714274367
 20
634.2463926279447
 30
0.0
 11
519.8660171779488
 21
639.9032468774362
 31
0.0
  0
LINE
  5
5B9
330
1F
100
AcDbEntity
  8
LAY-10
  6
CONTINUOUS
 62
     7
100
AcDbLine
 10
525.5228714274367
 20
634.2463926279447
 30
0.0
 11
560.8782104867682
 21
669.6017316872726
 31
0.0
  0
ARC
  5
5BA
330
1F
100
AcDbEntity
  8
LAY-10
  6
CONTINUOUS
 62
     7
100
AcDbCircle
 10
555.2213562372713
 20
675.2585859367623
 30
0.0
 40
8.0
100
AcDbArc
 50
315.0000000000093
 51
0.0
  0
LINE
  5
5BB
330
1F
100
AcDbEntity
  8
LAY-10
  6
CONTINUOUS
 62
     7
100
AcDbLine
 10
555.2213562372713
 20
675.2585859367623
 30
0.0
 11
555.2213562372713
 21
706.4448774377774
 31
0.0
  0
LINE
  5
5BC
330
1F
100
AcDbEntity
  8
LAY-10
  6
CONTINUOUS
 62
     7
100
AcDbLine
 10
555.2213562372713
 20
706.4448774377774
 30
0.0
 11
563.2213562372749
 21
706.4448774377774
 31
0.0
  0
LINE
  5
5BD
330
1F
100
AcDbEntity
  8
LAY-10
  6
CONTINUOUS
 62
     7
100
AcDbLine
 10
1067.22135623701
 20
732.7585859367032
 30
0.0
 11
1067.22135623701
 21
737.2585859367041
 31
0.0
  0
LINE
  5
5BE
330
1F
100
AcDbEntity
  8
LAY-10
  6
CONTINUOUS
 62
     7
100
AcDbLine
 10
571.2213562370202
 20
737.2585859367005
 30
0.0
 11
1067.22135623703
 21
737.2585859367041
 31
0.0
  0
LINE
  5
5BF
330
1F
100
AcDbEntity
  8
LAY-10
  6
CONTINUOUS
 62
     7
100
AcDbLine
 10
1062.221356237028
 20
732.7585919367561
 30
0.0
 11
1062.221356237028
 21
667.7585919367561
 31
0.0
  0
LINE
  5
5C0
330
1F
100
AcDbEntity
  8
LAY-10
  6
CONTINUOUS
 62
     7
100
AcDbLine
 10
1056.221356237026
 20
732.7585919367561
 30
0.0
 11
1056.221356237026
 21
667.7585919367561
 31
0.0
  0
LINE
  5
5C1
330
1F
100
AcDbEntity
  8
LAY-10
  6
CONTINUOUS
 62
     7
100
AcDbLine
 10
571.2213562370202
 20
732.7585859367005
 30
0.0
 11
1067.22135623703
 21
732.7585859367032
 31
0.0
  0
LINE
  5
5C2
330
1F
100
AcDbEntity
  8
LAY-10
  6
CONTINUOUS
 62
     7
100
AcDbLine
 10
1573.221356237009
 20
737.2585859367022
 30
0.0
 11
1567.221356236966
 21
737.2585859367022
 31
0.0
  0
LINE
  5
5C3
330
1F
100
AcDbEntity
  8
LAY-10
  6
CONTINUOUS
 62
     7
100
AcDbLine
 10
1616.576695296297
 20
639.9032468774353
 30
0.0
 11
1581.221356236969
 21
675.2585859367623
 31
0.0
  0
LINE
  5
5C4
330
1F
100
AcDbEntity
  8
LAY-10
  6
CONTINUOUS
 62
     7
100
AcDbLine
 10
1610.919841046808
 20
634.2463926279447
 30
0.0
 11
1616.576695296297
 21
639.9032468774353
 31
0.0
  0
LINE
  5
5C5
330
1F
100
AcDbEntity
  8
LAY-10
  6
CONTINUOUS
 62
     7
100
AcDbLine
 10
1610.919841046808
 20
634.2463926279447
 30
0.0
 11
1575.564501987478
 21
669.6017316872716
 31
0.0
  0
ARC
  5
5C6
330
1F
100
AcDbEntity
  8
LAY-10
  6
CONTINUOUS
 62
     7
100
AcDbCircle
 10
1581.221356236969
 20
675.2585859367623
 30
0.0
 40
8.0
100
AcDbArc
 50
180.0
 51
224.9999999999908
  0
LINE
  5
5C7
330
1F
100
AcDbEntity
  8
LAY-10
  6
CONTINUOUS
 62
     7
100
AcDbLine
 10
1581.221356236969
 20
675.2585859367623
 30
0.0
 11
1581.221356236969
 21
706.4448774377774
 31
0.0
  0
LINE
  5
5C8
330
1F
100
AcDbEntity
  8
LAY-10
  6
CONTINUOUS
 62
     7
100
AcDbLine
 10
1581.221356236969
 20
706.4448774377774
 30
0.0
 11
1573.221356236971
 21
706.4448774377774
 31
0.0
  0
LINE
  5
5C9
330
1F
100
AcDbEntity
  8
LAY-10
  6
CONTINUOUS
 62
     7
100
AcDbLine
 10
1565.221356237235
 20
732.7585859366993
 30
0.0
 11
1565.221356237235
 21
737.2585859366993
 31
0.0
  0
LINE
  5
5CA
330
1F
100
AcDbEntity
  8
LAY-10
  6
CONTINUOUS
 62
     7
100
AcDbLine
 10
1560.221356237209
 20
732.7585919367523
 30
0.0
 11
1560.221356237209
 21
667.7585919367534
 31
0.0
  0
LINE
  5
5CB
330
1F
100
AcDbEntity
  8
LAY-10
  6
CONTINUOUS
 62
     7
100
AcDbLine
 10
1554.221356237209
 20
732.7585919367523
 30
0.0
 11
1554.221356237209
 21
667.7585919367534
 31
0.0
  0
LINE
  5
5CC
330
1F
100
AcDbEntity
  8
LAY-10
  6
CONTINUOUS
 62
     7
100
AcDbLine
 10
1069.221356237234
 20
732.7585859367032
 30
0.0
 11
1069.221356237234
 21
737.2585859367041
 31
0.0
  0
LINE
  5
5CD
330
1F
100
AcDbEntity
  8
LAY-10
  6
CONTINUOUS
 62
     7
100
AcDbLine
 10
1565.221356237224
 20
737.2585859367002
 30
0.0
 11
1069.221356237214
 21
737.2585859367041
 31
0.0
  0
LINE
  5
5CE
330
1F
100
AcDbEntity
  8
LAY-10
  6
CONTINUOUS
 62
     7
100
AcDbLine
 10
1074.221356237216
 20
732.7585919367561
 30
0.0
 11
1074.221356237216
 21
667.7585919367561
 31
0.0
  0
LINE
  5
5CF
330
1F
100
AcDbEntity
  8
LAY-10
  6
CONTINUOUS
 62
     7
100
AcDbLine
 10
1080.221356237218
 20
732.7585919367561
 30
0.0
 11
1080.221356237218
 21
667.7585919367561
 31
0.0
  0
LINE
  5
5D0
330
1F
100
AcDbEntity
  8
LAY-10
  6
CONTINUOUS
 62
     7
100
AcDbLine
 10
1565.221356237224
 20
732.7585859367002
 30
0.0
 11
1069.221356237214
 21
732.7585859367032
 31
0.0
  0
LINE
  5
5D1
330
1F
100
AcDbEntity
  8
LAY-10
  6
CONTINUOUS
 62
     7
100
AcDbLine
 10
1062.22135623701
 20
676.7585859367026
 30
0.0
 11
1074.22135623721
 21
676.7585859367026
 31
0.0
  0
LINE
  5
5D2
330
1F
100
AcDbEntity
  8
LAY-10
  6
CONTINUOUS
 62
     7
100
AcDbLine
 10
1074.22135623721
 20
681.7585859367026
 30
0.0
 11
1062.22135623701
 21
681.7585859367026
 31
0.0
  0
LINE
  5
5D3
330
1F
100
AcDbEntity
  8
LAY-10
  6
CONTINUOUS
 62
     7
100
AcDbLine
 10
1567.221356236968
 20
681.7585859367026
 30
0.0
 11
1560.221356237209
 21
681.7585859367026
 31
0.0
  0
LINE
  5
5D4
330
1F
100
AcDbEntity
  8
LAY-10
  6
CONTINUOUS
 62
     7
100
AcDbLine
 10
1560.221356237209
 20
676.7585859367026
 30
0.0
 11
1567.221356236968
 21
676.758585936703
 31
0.0
  0
LINE
  5
5D5
330
1F
100
AcDbEntity
  8
LAY-10
  6
CONTINUOUS
 62
     7
100
AcDbLine
 10
576.2213562370348
 20
681.7585859367026
 30
0.0
 11
569.2213562373099
 21
681.7585859367026
 31
0.0
  0
LINE
  5
5D6
330
1F
100
AcDbEntity
  8
LAY-10
  6
CONTINUOUS
 62
     7
100
AcDbLine
 10
569.2213562373099
 20
676.7585859367026
 30
0.0
 11
576.2213562370348
 21
676.7585859367026
 31
0.0
  0
ARC
  5
5D7
330
1F
100
AcDbEntity
  8
LAY-10
  6
CONTINUOUS
 62
     7
100
AcDbCircle
 10
572.2213562372713
 20
601.2585859367314
 30
0.0
 40
9.0
100
AcDbArc
 50
180.0
 51
270.0
  0
LINE
  5
5D8
330
1F
100
AcDbEntity
  8
LAY-10
  6
CONTINUOUS
 62
     7
100
AcDbLine
 10
563.2213562372749
 20
737.2585859367305
 30
0.0
 11
563.2213562372749
 21
601.2585859367314
 31
0.0
  0
LINE
  5
5D9
330
1F
100
AcDbEntity
  8
LAY-10
  6
CONTINUOUS
 62
     7
100
AcDbLine
 10
618.2213562373295
 20
592.2585859367323
 30
0.0
 11
572.2213562372312
 21
592.2585859367323
 31
0.0
  0
ARC
  5
5DA
330
1F
100
AcDbEntity
  8
LAY-10
  6
CONTINUOUS
 62
     7
100
AcDbCircle
 10
1564.221356236969
 20
601.2585859367314
 30
0.0
 40
9.0
100
AcDbArc
 50
270.0
 51
0.0
  0
LINE
  5
5DB
330
1F
100
AcDbEntity
  8
LAY-10
  6
CONTINUOUS
 62
     7
100
AcDbLine
 10
1567.221356236966
 20
737.2585859367294
 30
0.0
 11
1567.221356236971
 21
601.2585859367314
 31
0.0
  0
LINE
  5
5DC
330
1F
100
AcDbEntity
  8
LAY-10
  6
CONTINUOUS
 62
     7
100
AcDbLine
 10
1573.221356236967
 20
737.2585859367294
 30
0.0
 11
1573.221356236971
 21
601.2585859367314
 31
0.0
  0
LINE
  5
5DD
330
1F
100
AcDbEntity
  8
LAY-10
  6
CONTINUOUS
 62
     7
100
AcDbLine
 10
1518.22135623694
 20
592.2585859367314
 30
0.0
 11
1518.22135623694
 21
598.2585859367496
 31
0.0
  0
LINE
  5
5DE
330
1F
100
AcDbEntity
  8
LAY-10
  6
CONTINUOUS
 62
     7
100
AcDbLine
 10
1518.22135623694
 20
592.2585859367314
 30
0.0
 11
1564.221356237015
 21
592.2585859367314
 31
0.0
  0
LINE
  5
5DF
330
1F
100
AcDbEntity
  8
LAY-10
  6
CONTINUOUS
 62
     7
100
AcDbLine
 10
572.2213562373113
 20
598.2585859367232
 30
0.0
 11
1564.221356237009
 21
598.2585859367352
 31
0.0
  0
LINE
  5
5E0
330
1F
100
AcDbEntity
  8
LAY-10
  6
CONTINUOUS
 62
     7
100
AcDbLine
 10
618.2213562373099
 20
592.2585859367498
 30
0.0
 11
618.2213562373099
 21
598.2585859367236
 31
0.0
  0
LINE
  5
5E1
330
1F
100
AcDbEntity
  8
LAY-10
  6
CONTINUOUS
 62
     7
100
AcDbLine
 10
639.2213562373095
 20
607.7585859369026
 30
0.0
 11
999.2213562373095
 21
607.7585859369026
 31
0.0
  0
LINE
  5
5E2
330
1F
100
AcDbEntity
  8
LAY-10
  6
CONTINUOUS
 62
     7
100
AcDbLine
 10
966.2213562373095
 20
667.7585919369028
 30
0.0
 11
822.2213562373095
 21
667.7585919369028
 31
0.0
  0
LINE
  5
5E3
330
1F
100
AcDbEntity
  8
LAY-10
  6
CONTINUOUS
 62
     7
100
AcDbLine
 10
816.2213562373095
 20
667.7585919368028
 30
0.0
 11
672.2213562373095
 21
667.7585919368028
 31
0.0
  0
LINE
  5
5E4
330
1F
100
AcDbEntity
  8
LAY-10
  6
CONTINUOUS
 62
     7
100
AcDbLine
 10
1137.22135623751
 20
607.7585859369026
 30
0.0
 11
1497.22135623751
 21
607.7585859369026
 31
0.0
  0
LINE
  5
5E5
330
1F
100
AcDbEntity
  8
LAY-10
  6
CONTINUOUS
 62
     7
100
AcDbLine
 10
1464.22135623751
 20
667.7585919369028
 30
0.0
 11
1320.22135623751
 21
667.7585919369028
 31
0.0
  0
LINE
  5
5E6
330
1F
100
AcDbEntity
  8
LAY-10
  6
CONTINUOUS
 62
     7
100
AcDbLine
 10
1314.22135623751
 20
667.7585919368028
 30
0.0
 11
1170.22135623751
 21
667.7585919368028
 31
0.0
  0
LINE
  5
5E7
330
1F
100
AcDbEntity
  8
LAY-10
  6
CONTINUOUS
 62
     7
100
AcDbLine
 10
1470.22135623751
 20
667.7585919367516
 30
0.0
 11
1560.221356237209
 21
667.7585919367525
 31
0.0
  0
LINE
  5
5E8
330
1F
100
AcDbEntity
  8
LAY-10
  6
CONTINUOUS
 62
     7
100
AcDbLine
 10
1074.221356237216
 20
667.7585919367561
 30
0.0
 11
1164.22135623751
 21
667.7585919367561
 31
0.0
  0
LINE
  5
5E9
330
1F
100
AcDbEntity
  8
LAY-10
  6
CONTINUOUS
 62
     7
100
AcDbLine
 10
1062.221356237028
 20
667.7585919367561
 30
0.0
 11
972.2213562373095
 21
667.7585919367561
 31
0.0
  0
LINE
  5
5EA
330
1F
100
AcDbEntity
  8
LAY-10
  6
CONTINUOUS
 62
     7
100
AcDbLine
 10
666.2213562373095
 20
667.7585919367516
 30
0.0
 11
576.2213562370348
 21
667.7585919367525
 31
0.0
  0
LINE
  5
5EB
330
1F
100
AcDbEntity
  8
LAY-10
  6
CONTINUOUS
 62
     7
100
AcDbLine
 10
1564.221356236962
 20
603.2585859367207
 30
0.0
 11
572.2213562372986
 21
603.2585859367277
 31
0.0
  0
ARC
  5
5EC
330
1F
100
AcDbEntity
  8
LAY-10
  6
CONTINUOUS
 62
     7
100
AcDbCircle
 10
1564.221356236969
 20
601.2585859367314
 30
0.0
 40
3.000000000000001
100
AcDbArc
 50
270.0
 51
0.0
  0
LINE
  5
5ED
330
1F
100
AcDbEntity
  8
LAY-10
  6
CONTINUOUS
 62
     7
100
AcDbLine
 10
1564.221356237211
 20
603.2585859367496
 30
0.0
 11
1564.221356237211
 21
598.2585859367496
 31
0.0
  0
LINE
  5
5EE
330
1F
100
AcDbEntity
  8
LAY-10
  6
CONTINUOUS
 62
     7
100
AcDbLine
 10
569.2213562372749
 20
737.2585859367305
 30
0.0
 11
569.2213562372731
 21
601.2585859367314
 31
0.0
  0
ARC
  5
5EF
330
1F
100
AcDbEntity
  8
LAY-10
  6
CONTINUOUS
 62
     7
100
AcDbCircle
 10
572.2213562372713
 20
601.2585859367314
 30
0.0
 40
3.000000000000001
100
AcDbArc
 50
180.0
 51
270.0
  0
LINE
  5
5F0
330
1F
100
AcDbEntity
  8
LAY-10
  6
CONTINUOUS
 62
     7
100
AcDbLine
 10
572.2213562373095
 20
598.2585859367496
 30
0.0
 11
572.2213562373095
 21
603.2585859367277
 31
0.0
  0
LINE
  5
5F1
330
1F
100
AcDbEntity
  8
LAY-10
  6
CONTINUOUS
 62
     7
100
AcDbLine
 10
2127.416810666416
 20
1197.279292968555
 30
0.0
 11
2127.416810666416
 21
1185.279292968511
 31
0.0
  0
LINE
  5
5F2
330
1F
100
AcDbEntity
  8
LAY-10
  6
CONTINUOUS
 62
     7
100
AcDbLine
 10
2122.41681066641
 20
1157.279292968496
 30
0.0
 11
2127.416810666408
 21
1157.279292968496
 31
0.0
  0
LINE
  5
5F3
330
1F
100
AcDbEntity
  8
LAY-10
  6
CONTINUOUS
 62
     7
100
AcDbLine
 10
2127.416810666412
 20
1197.279292968497
 30
0.0
 11
2122.41681066641
 21
1197.279292968497
 31
0.0
  0
LINE
  5
5F4
330
1F
100
AcDbEntity
  8
LAY-10
  6
CONTINUOUS
 62
     7
100
AcDbLine
 10
2122.41681066641
 20
1164.779292968496
 30
0.0
 11
2127.416810666408
 21
1164.779292968496
 31
0.0
  0
LINE
  5
5F5
330
1F
100
AcDbEntity
  8
LAY-10
  6
CONTINUOUS
 62
     7
100
AcDbLine
 10
2122.41681066641
 20
1189.779292968497
 30
0.0
 11
2127.416810666408
 21
1189.779292968497
 31
0.0
  0
LINE
  5
5F6
330
1F
100
AcDbEntity
  8
LAY-10
  6
CONTINUOUS
 62
     7
100
AcDbLine
 10
2210.41681066641
 20
1256.779292968644
 30
0.0
 11
2205.416810666412
 21
1256.779292968644
 31
0.0
  0
LINE
  5
5F7
330
1F
100
AcDbEntity
  8
LAY-10
  6
CONTINUOUS
 62
     7
100
AcDbLine
 10
2205.416810666412
 20
1216.779292968618
 30
0.0
 11
2210.416810666441
 21
1216.779292968618
 31
0.0
  0
LINE
  5
5F8
330
1F
100
AcDbEntity
  8
LAY-10
  6
CONTINUOUS
 62
     7
100
AcDbLine
 10
2200.91681066641
 20
2167.779292968547
 30
0.0
 11
2205.41681066639
 21
2167.779292968547
 31
0.0
  0
LINE
  5
5F9
330
1F
100
AcDbEntity
  8
LAY-10
  6
CONTINUOUS
 62
     7
100
AcDbLine
 10
2205.416810666412
 20
2211.779292968547
 30
0.0
 11
2205.416810666412
 21
2167.77929296865
 31
0.0
  0
LINE
  5
5FA
330
1F
100
AcDbEntity
  8
LAY-10
  6
CONTINUOUS
 62
     7
100
AcDbLine
 10
2210.41681066641
 20
2171.779292968535
 30
0.0
 11
2205.416810666412
 21
2171.779292968535
 31
0.0
  0
LINE
  5
5FB
330
1F
100
AcDbEntity
  8
LAY-10
  6
CONTINUOUS
 62
     7
100
AcDbLine
 10
2205.416810666412
 20
2211.779292968559
 30
0.0
 11
2210.416810666441
 21
2211.779292968559
 31
0.0
  0
LINE
  5
5FC
330
1F
100
AcDbEntity
  8
LAY-10
  6
CONTINUOUS
 62
     7
100
AcDbLine
 10
2127.416810666412
 20
2231.279292968494
 30
0.0
 11
2127.416810666412
 21
2243.279292968537
 31
0.0
  0
LINE
  5
5FD
330
1F
100
AcDbEntity
  8
LAY-10
  6
CONTINUOUS
 62
     7
100
AcDbLine
 10
2122.416810666408
 20
2271.279292968552
 30
0.0
 11
2127.416810666403
 21
2271.279292968552
 31
0.0
  0
LINE
  5
5FE
330
1F
100
AcDbEntity
  8
LAY-10
  6
CONTINUOUS
 62
     7
100
AcDbLine
 10
2127.41681066641
 20
2231.279292968553
 30
0.0
 11
2122.416810666406
 21
2231.279292968553
 31
0.0
  0
LINE
  5
5FF
330
1F
100
AcDbEntity
  8
LAY-10
  6
CONTINUOUS
 62
     7
100
AcDbLine
 10
2122.416810666408
 20
2263.779292968552
 30
0.0
 11
2127.416810666403
 21
2263.779292968552
 31
0.0
  0
LINE
  5
600
330
1F
100
AcDbEntity
  8
LAY-10
  6
CONTINUOUS
 62
     7
100
AcDbLine
 10
2122.416810666406
 20
2238.779292968553
 30
0.0
 11
2127.416810666403
 21
2238.779292968553
 31
0.0
  0
LINE
  5
601
330
1F
100
AcDbEntity
  8
LAY-10
  6
CENTER
 62
     2
100
AcDbLine
 10
1068.221356237217
 20
2348.079292968624
 30
0.0
 11
1068.221356237215
 21
1079.77929296855
 31
0.0
  0
LINE
  5
602
330
1F
100
AcDbEntity
  8
LAY-10
  6
CENTER
 62
     2
100
AcDbLine
 10
660.2213562367982
 20
2251.279292968615
 30
0.0
 11
598.1713562370173
 21
2251.279292968624
 31
0.0
  0
LINE
  5
603
330
1F
100
AcDbEntity
  8
LAY-10
  6
CENTER
 62
     2
100
AcDbLine
 10
629.721356237013
 20
2221.87929296875
 30
0.0
 11
629.7213562370239
 21
2283.279292968619
 31
0.0
  0
LINE
  5
604
330
1F
100
AcDbEntity
  8
LAY-10
  6
CENTER
 62
     2
100
AcDbLine
 10
660.2213562367891
 20
1177.279292968585
 30
0.0
 11
598.1713562370101
 21
1177.279292968575
 31
0.0
  0
LINE
  5
605
330
1F
100
AcDbEntity
  8
LAY-10
  6
CENTER
 62
     2
100
AcDbLine
 10
629.7213562370039
 20
1206.67929296845
 30
0.0
 11
629.721356237013
 21
1145.279292968581
 31
0.0
  0
LINE
  5
606
330
1F
100
AcDbEntity
  8
LAY-10
  6
CENTER
 62
     2
100
AcDbLine
 10
515.3213562371079
 20
1964.279292968612
 30
0.0
 11
563.2213562370166
 21
1964.279292968612
 31
0.0
  0
LINE
  5
607
330
1F
100
AcDbEntity
  8
LAY-10
  6
CENTER
 62
     2
100
AcDbLine
 10
515.3213562371079
 20
1464.279292968536
 30
0.0
 11
563.2213562370166
 21
1464.279292968536
 31
0.0
  0
LINE
  5
608
330
1F
100
AcDbEntity
  8
LAY-10
  6
CENTER
 62
     2
100
AcDbLine
 10
1008.721356237028
 20
2221.879292968748
 30
0.0
 11
1008.721356237017
 21
2283.279292968617
 31
0.0
  0
LINE
  5
609
330
1F
100
AcDbEntity
  8
LAY-10
  6
CENTER
 62
     2
100
AcDbLine
 10
978.2213562372422
 20
2251.279292968613
 30
0.0
 11
1040.27135623702
 21
2251.279292968622
 31
0.0
  0
LINE
  5
60A
330
1F
100
AcDbEntity
  8
LAY-10
  6
CENTER
 62
     2
100
AcDbLine
 10
500.7213562370748
 20
1714.279292968525
 30
0.0
 11
1646.119841047212
 21
1714.279292968525
 31
0.0
  0
LINE
  5
60B
330
1F
100
AcDbEntity
  8
LAY-10
  6
CENTER
 62
     2
100
AcDbLine
 10
978.2213562372222
 20
1177.279292968485
 30
0.0
 11
1040.271356237004
 21
1177.279292968476
 31
0.0
  0
LINE
  5
60C
330
1F
100
AcDbEntity
  8
LAY-10
  6
CENTER
 62
     2
100
AcDbLine
 10
1008.721356237008
 20
1206.67929296835
 30
0.0
 11
1008.721356236997
 21
1145.279292968481
 31
0.0
  0
LINE
  5
60D
330
1F
100
AcDbEntity
  8
LAY-10
  6
CENTER
 62
     2
100
AcDbLine
 10
1158.221356237098
 20
2251.279292968615
 30
0.0
 11
1096.171356237317
 21
2251.279292968624
 31
0.0
  0
LINE
  5
60E
330
1F
100
AcDbEntity
  8
LAY-10
  6
CENTER
 62
     2
100
AcDbLine
 10
1127.721356237313
 20
2221.87929296875
 30
0.0
 11
1127.721356237324
 21
2283.279292968619
 31
0.0
  0
LINE
  5
60F
330
1F
100
AcDbEntity
  8
LAY-10
  6
CENTER
 62
     2
100
AcDbLine
 10
1158.221356237089
 20
1177.279292968585
 30
0.0
 11
1096.17135623731
 21
1177.279292968575
 31
0.0
  0
LINE
  5
610
330
1F
100
AcDbEntity
  8
LAY-10
  6
CENTER
 62
     2
100
AcDbLine
 10
1127.721356237304
 20
1206.67929296845
 30
0.0
 11
1127.721356237313
 21
1145.279292968581
 31
0.0
  0
LINE
  5
611
330
1F
100
AcDbEntity
  8
LAY-10
  6
CENTER
 62
     2
100
AcDbLine
 10
1506.721356237328
 20
2221.879292968748
 30
0.0
 11
1506.721356237317
 21
2283.279292968617
 31
0.0
  0
LINE
  5
612
330
1F
100
AcDbEntity
  8
LAY-10
  6
CENTER
 62
     2
100
AcDbLine
 10
1476.221356237542
 20
2251.279292968613
 30
0.0
 11
1538.27135623732
 21
2251.279292968622
 31
0.0
  0
LINE
  5
613
330
1F
100
AcDbEntity
  8
LAY-10
  6
CENTER
 62
     2
100
AcDbLine
 10
1476.221356237522
 20
1177.279292968485
 30
0.0
 11
1538.271356237303
 21
1177.279292968476
 31
0.0
  0
LINE
  5
614
330
1F
100
AcDbEntity
  8
LAY-10
  6
CENTER
 62
     2
100
AcDbLine
 10
1506.721356237308
 20
1206.67929296835
 30
0.0
 11
1506.721356237297
 21
1145.279292968481
 31
0.0
  0
LINE
  5
615
330
1F
100
AcDbEntity
  8
LAY-10
  6
CENTER
 62
     2
100
AcDbLine
 10
1621.121356237324
 20
1964.27929296861
 30
0.0
 11
1573.221356237415
 21
1964.27929296861
 31
0.0
  0
LINE
  5
616
330
1F
100
AcDbEntity
  8
LAY-10
  6
CENTER
 62
     2
100
AcDbLine
 10
1621.121356237322
 20
1464.279292968535
 30
0.0
 11
1573.221356237414
 21
1464.279292968535
 31
0.0
  0
LINE
  5
617
330
1F
100
AcDbEntity
  8
LAY-10
  6
CENTER
 62
     2
100
AcDbLine
 10
1451.721356237395
 20
1192.291851851753
 30
0.0
 11
1451.721356237393
 21
1161.331851851751
 31
0.0
  0
LINE
  5
618
330
1F
100
AcDbEntity
  8
LAY-10
  6
CENTER
 62
     2
100
AcDbLine
 10
1467.101356237456
 20
1177.279292968458
 30
0.0
 11
1435.301356237457
 21
1177.279292968458
 31
0.0
  0
LINE
  5
619
330
1F
100
AcDbEntity
  8
LAY-10
  6
CENTER
 62
     2
100
AcDbLine
 10
1182.721356237213
 20
1192.291851851853
 30
0.0
 11
1182.721356237217
 21
1161.33185185185
 31
0.0
  0
LINE
  5
61A
330
1F
100
AcDbEntity
  8
LAY-10
  6
CENTER
 62
     2
100
AcDbLine
 10
1167.341356237156
 20
1177.279292968558
 30
0.0
 11
1199.141356237153
 21
1177.279292968558
 31
0.0
  0
LINE
  5
61B
330
1F
100
AcDbEntity
  8
LAY-10
  6
CENTER
 62
     2
100
AcDbLine
 10
953.7213562370948
 20
1192.291851851753
 30
0.0
 11
953.7213562370931
 21
1161.331851851751
 31
0.0
  0
LINE
  5
61C
330
1F
100
AcDbEntity
  8
LAY-10
  6
CENTER
 62
     2
100
AcDbLine
 10
969.1013562371559
 20
1177.279292968458
 30
0.0
 11
937.3013562371566
 21
1177.279292968458
 31
0.0
  0
LINE
  5
61D
330
1F
100
AcDbEntity
  8
LAY-10
  6
CENTER
 62
     2
100
AcDbLine
 10
684.7213562369129
 20
1192.291851851853
 30
0.0
 11
684.7213562369166
 21
1161.33185185185
 31
0.0
  0
LINE
  5
61E
330
1F
100
AcDbEntity
  8
LAY-10
  6
CENTER
 62
     2
100
AcDbLine
 10
669.3413562368554
 20
1177.279292968558
 30
0.0
 11
701.141356236853
 21
1177.279292968558
 31
0.0
  0
LINE
  5
61F
330
1F
100
AcDbEntity
  8
LAY-10
  6
CENTER
 62
     2
100
AcDbLine
 10
684.7213562369257
 20
2236.266734085347
 30
0.0
 11
684.7213562369275
 21
2267.226734085349
 31
0.0
  0
LINE
  5
620
330
1F
100
AcDbEntity
  8
LAY-10
  6
CENTER
 62
     2
100
AcDbLine
 10
669.3413562368645
 20
2251.279292968642
 30
0.0
 11
701.1413562368639
 21
2251.279292968642
 31
0.0
  0
LINE
  5
621
330
1F
100
AcDbEntity
  8
LAY-10
  6
CENTER
 62
     2
100
AcDbLine
 10
953.7213562371148
 20
2236.266734085345
 30
0.0
 11
953.721356237113
 21
2267.226734085347
 31
0.0
  0
LINE
  5
622
330
1F
100
AcDbEntity
  8
LAY-10
  6
CENTER
 62
     2
100
AcDbLine
 10
969.1013562371728
 20
2251.27929296864
 30
0.0
 11
937.3013562371767
 21
2251.27929296864
 31
0.0
  0
LINE
  5
623
330
1F
100
AcDbEntity
  8
LAY-10
  6
CENTER
 62
     2
100
AcDbLine
 10
1182.721356237226
 20
2236.266734085347
 30
0.0
 11
1182.721356237228
 21
2267.226734085349
 31
0.0
  0
LINE
  5
624
330
1F
100
AcDbEntity
  8
LAY-10
  6
CENTER
 62
     2
100
AcDbLine
 10
1167.341356237165
 20
2251.279292968642
 30
0.0
 11
1199.141356237164
 21
2251.279292968642
 31
0.0
  0
LINE
  5
625
330
1F
100
AcDbEntity
  8
LAY-10
  6
CENTER
 62
     2
100
AcDbLine
 10
1451.721356237415
 20
2236.266734085345
 30
0.0
 11
1451.721356237413
 21
2267.226734085347
 31
0.0
  0
LINE
  5
626
330
1F
100
AcDbEntity
  8
LAY-10
  6
CENTER
 62
     2
100
AcDbLine
 10
1467.101356237472
 20
2251.27929296864
 30
0.0
 11
1435.301356237477
 21
2251.27929296864
 31
0.0
  0
LINE
  5
627
330
1F
100
AcDbEntity
  8
LAY-10
  6
CENTER
 62
     2
100
AcDbLine
 10
1405.26984104745
 20
2320.279292968679
 30
0.0
 11
1440.069841047449
 21
2320.279292968679
 31
0.0
  0
LINE
  5
628
330
1F
100
AcDbEntity
  8
LAY-10
  6
CENTER
 62
     2
100
AcDbLine
 10
1423.221356237251
 20
2356.829292968449
 30
0.0
 11
1423.221356237251
 21
2295.27929296875
 31
0.0
  0
LINE
  5
629
330
1F
100
AcDbEntity
  8
LAY-10
  6
CENTER
 62
     2
100
AcDbLine
 10
731.1728714270638
 20
2320.27929296868
 30
0.0
 11
696.3728714270646
 21
2320.27929296868
 31
0.0
  0
LINE
  5
62A
330
1F
100
AcDbEntity
  8
LAY-10
  6
CENTER
 62
     2
100
AcDbLine
 10
713.2213562372626
 20
2356.829292968451
 30
0.0
 11
713.2213562372626
 21
2295.279292968751
 31
0.0
  0
LINE
  5
62B
330
1F
100
AcDbEntity
  8
LAY-10
  6
CENTER
 62
     2
100
AcDbLine
 10
1405.26984104745
 20
1108.27929296837
 30
0.0
 11
1440.06984104745
 21
1108.27929296837
 31
0.0
  0
LINE
  5
62C
330
1F
100
AcDbEntity
  8
LAY-10
  6
CENTER
 62
     2
100
AcDbLine
 10
1423.221356237252
 20
1071.7292929686
 30
0.0
 11
1423.221356237252
 21
1133.279292968299
 31
0.0
  0
LINE
  5
62D
330
1F
100
AcDbEntity
  8
LAY-10
  6
CENTER
 62
     2
100
AcDbLine
 10
731.172871427064
 20
1108.279292968369
 30
0.0
 11
696.3728714270648
 21
1108.279292968369
 31
0.0
  0
LINE
  5
62E
330
1F
100
AcDbEntity
  8
LAY-10
  6
CENTER
 62
     2
100
AcDbLine
 10
713.2213562372627
 20
1071.729292968599
 30
0.0
 11
713.2213562372627
 21
1133.279292968298
 31
0.0
  0
LINE
  5
62F
330
1F
100
AcDbEntity
  8
LAY-10
  6
CENTER
 62
     2
100
AcDbLine
 10
2067.521356237207
 20
2251.279292968567
 30
0.0
 11
2147.921356237209
 21
2251.279292968567
 31
0.0
  0
LINE
  5
630
330
1F
100
AcDbEntity
  8
LAY-10
  6
CENTER
 62
     2
100
AcDbLine
 10
2067.521356237213
 20
1177.279292968483
 30
0.0
 11
2147.921356237211
 21
1177.279292968483
 31
0.0
  0
LINE
  5
631
330
1F
100
AcDbEntity
  8
LAY-10
  6
CENTER
 62
     2
100
AcDbLine
 10
2013.019841047212
 20
1714.279292968525
 30
0.0
 11
2259.519841047212
 21
1714.279292968525
 31
0.0
  0
LINE
  5
632
330
1F
100
AcDbEntity
  8
LAY-10
  6
CENTER
 62
     2
100
AcDbLine
 10
2128.069841047052
 20
2320.279292968542
 30
0.0
 11
2146.519841047049
 21
2320.279292968542
 31
0.0
  0
LINE
  5
633
330
1F
100
AcDbEntity
  8
LAY-10
  6
CENTER
 62
     2
100
AcDbLine
 10
2128.069841047052
 20
1108.279292968508
 30
0.0
 11
2146.519841047049
 21
1108.279292968508
 31
0.0
  0
LINE
  5
634
330
1F
100
AcDbEntity
  8
LAY-10
  6
CENTER
 62
     2
100
AcDbLine
 10
1068.221356237122
 20
755.55707074685
 30
0.0
 11
1068.221356237122
 21
560.5792929684502
 31
0.0
  0
DIMENSION
  5
636
330
1F
100
AcDbEntity
  8
LAY-20
  6
CONTINUOUS
 62
     4
100
AcDbDimension
  2
*D17
 10
1067.22135623703
 20
837.2585859366998
 30
0.0
 11
819.2213562370217
 21
862.2585859366907
 31
0.0
 70
   160
  3
ISO-25
100
AcDbAlignedDimension
 13
571.2213562370202
 23
742.2585859367005
 33
0.0
 14
1067.22135623703
 24
742.2585859367041
 34
0.0
100
AcDbRotatedDimension
1001
ACAD
1000
DSTYLE
1002
{
1070
   270
1070
     2
1070
     6
1000
EX_BNORM
1070
     7
1000
EX_BNORM
1070
    41
1040
25.0
1070
    42
1040
15.0
1070
    44
1040
14.99999999997613
1070
    73
1070
     0
1070
    74
1070
     0
1070
    75
1070
     0
1070
    76
1070
     0
1070
    77
1070
     1
1070
    78
1070
     8
1070
   140
1040
31.181104
1070
   147
1040
0.0
1070
   173
1070
     1
1070
   176
1070
     4
1070
   177
1070
     4
1070
   178
1070
     7
1070
   271
1070
     1
1070
   277
1070
     2
1070
   279
1070
     2
1070
   280
1070
     0
1070
   287
1070
     5
1070
   340
1005
635
1002
}
  0
DIMENSION
  5
644
330
1F
100
AcDbEntity
  8
LAY-20
  6
CONTINUOUS
 62
     4
100
AcDbDimension
  2
*D18
 10
563.2213562370184
 20
907.2585859367013
 30
0.0
 11
1068.221356237014
 21
932.2585859367005
 31
0.0
 70
   160
  3
ISO-25
100
AcDbAlignedDimension
 13
1573.22135623701
 23
742.2585859367294
 33
0.0
 14
563.2213562370184
 24
742.2585859367305
 34
0.0
100
AcDbRotatedDimension
1001
ACAD
1000
DSTYLE
1002
{
1070
   270
1070
     2
1070
     6
1000
EX_BNORM
1070
     7
1000
EX_BNORM
1070
    41
1040
25.0
1070
    42
1040
15.0
1070
    44
1040
15.00000000000034
1070
    73
1070
     0
1070
    74
1070
     0
1070
    75
1070
     0
1070
    76
1070
     0
1070
    77
1070
     1
1070
    78
1070
     8
1070
   140
1040
31.181104
1070
   147
1040
0.0
1070
   173
1070
     1
1070
   176
1070
     4
1070
   177
1070
     4
1070
   178
1070
     7
1070
   271
1070
     1
1070
   277
1070
     2
1070
   279
1070
     2
1070
   280
1070
     0
1070
   287
1070
     5
1070
   340
1005
635
1002
}
  0
DIMENSION
  5
651
330
1F
100
AcDbEntity
  8
LAY-20
  6
CONTINUOUS
 62
     4
100
AcDbDimension
  2
*D19
 10
1518.221356236911
 20
492.25858593673
 30
0.0
 11
1068.22135623712
 21
517.25858593673
 31
0.0
 70
   160
  3
ISO-25
100
AcDbAlignedDimension
 13
618.2213562373295
 23
592.2585859367496
 33
0.0
 14
1518.221356236911
 24
592.2585859367496
 34
0.0
100
AcDbRotatedDimension
1001
ACAD
1000
DSTYLE
1002
{
1070
   270
1070
     2
1070
     6
1000
EX_BNORM
1070
     7
1000
EX_BNORM
1070
    41
1040
25.0
1070
    42
1040
15.0
1070
    44
1040
15.0
1070
    73
1070
     0
1070
    74
1070
     0
1070
    75
1070
     0
1070
    76
1070
     0
1070
    77
1070
     1
1070
    78
1070
     8
1070
   140
1040
31.181104
1070
   147
1040
0.0
1070
   173
1070
     1
1070
   176
1070
     4
1070
   177
1070
     4
1070
   178
1070
     7
1070
   271
1070
     1
1070
   277
1070
     2
1070
   279
1070
     2
1070
   280
1070
     0
1070
   287
1070
     5
1070
   340
1005
635
1002
}
  0
DIMENSION
  5
65E
330
1F
100
AcDbEntity
  8
LAY-20
  6
CONTINUOUS
 62
     4
100
AcDbDimension
  2
*D20
 10
1716.576695296297
 20
737.2585859367496
 30
0.0
 11
1691.5766952963
 21
664.7585859367491
 31
0.0
 70
   160
  3
ISO-25
100
AcDbAlignedDimension
 13
1564.221356237015
 23
592.2585859367509
 33
0.0
 14
1573.22135623701
 24
737.2585859367496
 34
0.0
 50
90.0
100
AcDbRotatedDimension
1001
ACAD
1000
DSTYLE
1002
{
1070
   270
1070
     2
1070
     6
1000
EX_BNORM
1070
     7
1000
EX_BNORM
1070
    41
1040
25.0
1070
    42
1040
15.0
1070
    44
1040
15.0
1070
    73
1070
     0
1070
    74
1070
     0
1070
    75
1070
     0
1070
    76
1070
     0
1070
    77
1070
     1
1070
    78
1070
     8
1070
   140
1040
31.181104
1070
   147
1040
0.0
1070
   173
1070
     1
1070
   176
1070
     4
1070
   177
1070
     4
1070
   178
1070
     7
1070
   271
1070
     1
1070
   277
1070
     2
1070
   279
1070
     2
1070
   280
1070
     0
1070
   287
1070
     5
1070
   340
1005
635
1002
}
  0
DIMENSION
  5
66B
330
1F
100
AcDbEntity
  8
LAY-20
  6
CONTINUOUS
 62
     4
100
AcDbDimension
  2
*D21
 10
1971.4168106664
 20
1142.27929296845
 30
0.0
 11
1946.4168106664
 21
1714.279292968549
 31
0.0
 70
   160
  3
ISO-25
100
AcDbAlignedDimension
 13
2071.416810666408
 23
2286.279292968649
 33
0.0
 14
2071.416810666408
 24
1142.27929296845
 34
0.0
 50
90.0
100
AcDbRotatedDimension
1001
ACAD
1000
DSTYLE
1002
{
1070
   270
1070
     2
1070
     6
1000
EX_BNORM
1070
     7
1000
EX_BNORM
1070
    41
1040
25.0
1070
    42
1040
15.0
1070
    44
1040
15.00000000000068
1070
    73
1070
     0
1070
    74
1070
     0
1070
    75
1070
     0
1070
    76
1070
     0
1070
    77
1070
     1
1070
    78
1070
     8
1070
   140
1040
31.181104
1070
   147
1040
0.0
1070
   173
1070
     1
1070
   176
1070
     4
1070
   177
1070
     4
1070
   178
1070
     7
1070
   271
1070
     1
1070
   277
1070
     2
1070
   279
1070
     2
1070
   280
1070
     0
1070
   287
1070
     5
1070
   340
1005
635
1002
}
  0
DIMENSION
  5
678
330
1F
100
AcDbEntity
  8
LAY-20
  6
CONTINUOUS
 62
     4
100
AcDbDimension
  2
*D22
 10
1901.4168106664
 20
2295.27929296875
 30
0.0
 11
1876.4168106664
 21
1714.2792929686
 31
0.0
 70
   160
  3
ISO-25
100
AcDbAlignedDimension
 13
2071.416810666412
 23
1133.279292968449
 33
0.0
 14
2071.416810666412
 24
2295.27929296875
 34
0.0
 50
90.0
100
AcDbRotatedDimension
1001
ACAD
1000
DSTYLE
1002
{
1070
   270
1070
     2
1070
     6
1000
EX_BNORM
1070
     7
1000
EX_BNORM
1070
    41
1040
25.0
1070
    42
1040
15.0
1070
    44
1040
15.00000000000023
1070
    73
1070
     0
1070
    74
1070
     0
1070
    75
1070
     0
1070
    76
1070
     0
1070
    77
1070
     1
1070
    78
1070
     8
1070
   140
1040
31.181104
1070
   147
1040
0.0
1070
   173
1070
     1
1070
   176
1070
     4
1070
   177
1070
     4
1070
   178
1070
     7
1070
   271
1070
     1
1070
   277
1070
     2
1070
   279
1070
     2
1070
   280
1070
     0
1070
   287
1070
     5
1070
   340
1005
635
1002
}
  0
DIMENSION
  5
685
330
1F
100
AcDbEntity
  8
LAY-20
  6
CONTINUOUS
 62
     4
100
AcDbDimension
  2
*D23
 10
2316.4168106664
 20
2164.27929296855
 30
0.0
 11
2291.4168106664
 21
1714.27929296855
 31
0.0
 70
   160
  3
ISO-25
100
AcDbAlignedDimension
 13
2216.41681066641
 23
1264.279292968549
 33
0.0
 14
2216.41681066641
 24
2164.27929296855
 34
0.0
 50
90.0
100
AcDbRotatedDimension
1001
ACAD
1000
DSTYLE
1002
{
1070
   270
1070
     2
1070
     6
1000
EX_BNORM
1070
     7
1000
EX_BNORM
1070
    41
1040
25.0
1070
    42
1040
15.0
1070
    44
1040
14.99999999999909
1070
    73
1070
     0
1070
    74
1070
     0
1070
    75
1070
     0
1070
    76
1070
     0
1070
    77
1070
     1
1070
    78
1070
     8
1070
   140
1040
31.181104
1070
   147
1040
0.0
1070
   173
1070
     1
1070
   176
1070
     4
1070
   177
1070
     4
1070
   178
1070
     7
1070
   271
1070
     1
1070
   277
1070
     2
1070
   279
1070
     2
1070
   280
1070
     0
1070
   287
1070
     5
1070
   340
1005
635
1002
}
  0
DIMENSION
  5
692
330
1F
100
AcDbEntity
  8
LAY-20
  6
CONTINUOUS
 62
     4
100
AcDbDimension
  2
*D24
 10
1268.0
 20
737.2585859366999
 30
0.0
 11
1243.0
 21
802.2585859366994
 31
0.0
 70
   160
  3
ISO-25
100
AcDbAlignedDimension
 13
1268.0
 23
732.7585859367
 33
0.0
 14
1268.0
 24
737.2585859366999
 34
0.0
 50
90.0
100
AcDbRotatedDimension
1001
ACAD
1000
DSTYLE
1002
{
1070
   270
1070
     2
1070
     6
1000
EX_BNORM
1070
     7
1000
EX_BNORM
1070
    41
1040
25.0
1070
    42
1040
0.0
1070
    44
1040
0.0
1070
    73
1070
     0
1070
    74
1070
     0
1070
    75
1070
     1
1070
    76
1070
     1
1070
    77
1070
     1
1070
    78
1070
     8
1070
   140
1040
31.181104
1070
   147
1040
0.0
1070
   173
1070
     1
1070
   176
1070
     4
1070
   177
1070
     4
1070
   178
1070
     7
1070
   271
1070
     1
1070
   277
1070
     2
1070
   279
1070
     2
1070
   280
1070
     2
1070
   287
1070
     5
1070
   340
1005
635
1002
}
  0
LINE
  5
69F
330
1F
100
AcDbEntity
  8
LAY-255
  6
CONTINUOUS
 62
     7
100
AcDbLine
 10
50.0
 20
100.0
 30
0.0
 11
3850.0
 21
100.0
 31
0.0
  0
LINE
  5
6A0
330
1F
100
AcDbEntity
  8
LAY-255
  6
CONTINUOUS
 62
     7
100
AcDbLine
 10
3850.0
 20
100.0
 30
0.0
 11
3850.0
 21
2800.0
 31
0.0
  0
LINE
  5
6A1
330
1F
100
AcDbEntity
  8
LAY-255
  6
CONTINUOUS
 62
     7
100
AcDbLine
 10
50.0
 20
2800.0
 30
0.0
 11
3850.0
 21
2800.0
 31
0.0
  0
LINE
  5
6A2
330
1F
100
AcDbEntity
  8
LAY-255
  6
CONTINUOUS
 62
     7
100
AcDbLine
 10
50.0
 20
100.0
 30
0.0
 11
50.0
 21
2800.0
 31
0.0
  0
LINE
  5
6A3
330
1F
100
AcDbEntity
  8
LAY-255
  6
CONTINUOUS
 62
     7
100
AcDbLine
 10
3850.0
 20
219.9999999999999
 30
0.0
 11
2850.0
 21
219.9999999999999
 31
0.0
  0
LINE
  5
6A4
330
1F
100
AcDbEntity
  8
LAY-255
  6
CONTINUOUS
 62
     7
100
AcDbLine
 10
2888.0
 20
160.0
 30
0.0
 11
2968.0
 21
210.0
 31
0.0
  0
LINE
  5
6A5
330
1F
100
AcDbEntity
  8
LAY-255
  6
CONTINUOUS
 62
     7
100
AcDbLine
 10
2968.0
 20
210.0
 30
0.0
 11
3048.0
 21
160.0
 31
0.0
  0
LINE
  5
6A6
330
1F
100
AcDbEntity
  8
LAY-255
  6
CONTINUOUS
 62
     7
100
AcDbLine
 10
3048.0
 20
160.0
 30
0.0
 11
2968.0
 21
110.0
 31
0.0
  0
LINE
  5
6A7
330
1F
100
AcDbEntity
  8
LAY-255
  6
CONTINUOUS
 62
     7
100
AcDbLine
 10
2968.0
 20
110.0
 30
0.0
 11
2888.0
 21
160.0
 31
0.0
  0
LINE
  5
6A8
330
1F
100
AcDbEntity
  8
LAY-255
  6
CONTINUOUS
 62
     4
100
AcDbLine
 10
2850.0
 20
279.9999999999999
 30
0.0
 11
3850.0
 21
279.9999999999999
 31
0.0
  0
LINE
  5
6A9
330
1F
100
AcDbEntity
  8
LAY-255
  6
CONTINUOUS
 62
     7
100
AcDbLine
 10
2850.0
 20
100.0
 30
0.0
 11
2850.0
 21
670.0
 31
0.0
  0
POINT
  5
6AA
330
1F
100
AcDbEntity
  8
LAY-255
  6
CONTINUOUS
 62
     7
100
AcDbPoint
 10
2890.0
 20
399.9999999999999
 30
0.0
  0
LINE
  5
6AB
330
1F
100
AcDbEntity
  8
LAY-255
  6
CONTINUOUS
 62
     4
100
AcDbLine
 10
3350.0
 20
279.9999999999999
 30
0.0
 11
3350.0
 21
220.0
 31
0.0
  0
LINE
  5
6AC
330
1F
100
AcDbEntity
  8
LAY-255
  6
CONTINUOUS
 62
     7
100
AcDbLine
 10
3850.0
 20
670.0
 30
0.0
 11
2850.0
 21
670.0
 31
0.0
  0
LINE
  5
6AD
330
1F
100
AcDbEntity
  8
LAY-255
  6
CONTINUOUS
 62
     4
100
AcDbLine
 10
3830.0
 20
549.9999999999999
 30
0.0
 11
2870.0
 21
549.9999999999999
 31
0.0
  0
LINE
  5
6AE
330
1F
100
AcDbEntity
  8
LAY-255
  6
CONTINUOUS
 62
     4
100
AcDbLine
 10
3830.0
 20
610.0
 30
0.0
 11
2870.0
 21
610.0
 31
0.0
  0
POINT
  5
6AF
330
1F
100
AcDbEntity
  8
LAY-255
  6
CONTINUOUS
 62
     7
100
AcDbPoint
 10
2890.0
 20
499.9999999999999
 30
0.0
  0
POINT
  5
6B0
330
1F
100
AcDbEntity
  8
LAY-255
  6
CONTINUOUS
 62
     7
100
AcDbPoint
 10
3000.0
 20
559.9999999999999
 30
0.0
  0
POINT
  5
6B1
330
1F
100
AcDbEntity
  8
LAY-255
  6
CONTINUOUS
 62
     7
100
AcDbPoint
 10
3000.0
 20
620.0
 30
0.0
  0
POINT
  5
6B2
330
1F
100
AcDbEntity
  8
LAY-255
  6
CONTINUOUS
 62
     7
100
AcDbPoint
 10
2890.0
 20
349.9999999999999
 30
0.0
  0
POINT
  5
6B3
330
1F
100
AcDbEntity
  8
LAY-255
  6
CONTINUOUS
 62
     7
100
AcDbPoint
 10
2890.0
 20
449.9999999999999
 30
0.0
  0
POINT
  5
6B4
330
1F
100
AcDbEntity
  8
LAY-255
  6
CONTINUOUS
 62
     7
100
AcDbPoint
 10
2890.0
 20
299.9999999999998
 30
0.0
  0
TEXT
  5
6B5
330
1F
100
AcDbEntity
  8
LAY-255
  6
CONTINUOUS
 62
     7
100
AcDbText
 10
3081.3837890625
 20
155.4375
 30
0.0
 40
51.5625
  1
福西鋳物株式会社
 41
1.342691999659091
  7
EXCADSTD
100
AcDbText
  0
TEXT
  5
6B6
330
1F
100
AcDbEntity
  8
LAY-255
  6
CONTINUOUS
 62
     7
100
AcDbText
 10
3085.09375
 20
119.8125
 30
0.0
 40
17.1875
  1
ＦＵＫＵＮＩＳＨＩ
 41
1.204799226045263
  7
EXCADSTD
100
AcDbText
  0
TEXT
  5
6B7
330
1F
100
AcDbEntity
  8
LAY-255
  6
CONTINUOUS
 62
     7
100
AcDbText
 10
3327.191964285714
 20
119.8125
 30
0.0
 40
17.1875
  1
ＦＯＵＮＤＲＹ
 41
1.243252752978497
  7
EXCADSTD
100
AcDbText
  0
TEXT
  5
6B8
330
1F
100
AcDbEntity
  8
LAY-255
  6
CONTINUOUS
 62
     7
100
AcDbText
 10
3519.945914381009
 20
119.8125
 30
0.0
 40
17.1875
  1
ＣＯ.,ＬＴＤ.
 41
1.243831036226633
  7
EXCADSTD
100
AcDbText
  0
TEXT
  5
6B9
330
1F
100
AcDbEntity
  8
LAY-255
  6
CONTINUOUS
 62
     7
100
AcDbText
 10
2940.34375
 20
137.1875
 30
0.0
 40
51.5625
  1
S
 41
0.7582677563636363
  7
EXCADSTD
100
AcDbText
  0
TEXT
  5
6BA
330
1F
100
AcDbEntity
  8
LAY-255
  6
CONTINUOUS
 62
     7
100
AcDbText
 10
2971.046875
 20
137.4941037736
 30
0.0
 40
51.5625
  1
F
 41
0.7440945272727272
  7
EXCADSTD
100
AcDbText
  0
TEXT
  5
6BB
330
1F
100
AcDbEntity
  8
LAY-255
  6
CONTINUOUS
 62
     7
100
AcDbText
 10
3371.0546875
 20
244.2187499999999
 30
0.0
 40
25.78125
  1
縮尺
 41
1.080708718181818
  7
EXCADSTD
100
AcDbText
  0
TEXT
  5
6BC
330
1F
100
AcDbEntity
  8
LAY-255
  6
CONTINUOUS
 62
     7
100
AcDbText
 10
2872.65625
 20
565.6249999999999
 30
0.0
 40
34.375
  1
型式
 41
1.056348480681818
  7
EXCADSTD
100
AcDbText
  0
TEXT
  5
6BD
330
1F
100
AcDbEntity
  8
LAY-255
  6
CONTINUOUS
 62
     7
100
AcDbText
 10
2874.21875
 20
625.625
 30
0.0
 40
34.375
  1
品名
 41
0.9788386340909091
  7
EXCADSTD
100
AcDbText
  0
TEXT
  5
6BE
330
1F
100
AcDbEntity
  8
LAY-255
  6
CONTINUOUS
 62
     7
100
AcDbText
 10
2871.5234375
 20
244.2187499999999
 30
0.0
 40
25.78125
  1
作成日
 41
1.000629973818182
  7
EXCADSTD
100
AcDbText
  0
TEXT
  5
6BF
330
1F
100
AcDbEntity
  8
LAY-255
  6
CONTINUOUS
 62
     7
100
AcDbText
 10
3001.5625
 20
625.625
 30
0.0
 40
34.375
  1
縞鋼板製マシンハッチ
 41
1.016284949586777
  7
EXCADSTD
100
AcDbText
  0
TEXT
  5
6C0
330
1F
100
AcDbEntity
  8
LAY-255
  6
CONTINUOUS
 62
     7
100
AcDbText
 10
3012.8125
 20
235.6249999999999
 30
0.0
 40
34.375
  1
１７／０７／２５
 41
0.9652981384415584
  7
EXCADSTD
100
AcDbText
  0
TEXT
  5
6C1
330
1F
100
AcDbEntity
  8
LAY-255
  6
CONTINUOUS
 62
     7
100
AcDbText
 10
2891.40625
 20
505.6249999999999
 30
0.0
 40
34.375
  1
材質：スチール（溶融亜鉛めっき）
 41
0.9761562007682457
  7
EXCADSTD
100
AcDbText
  0
TEXT
  5
6C2
330
1F
100
AcDbEntity
  8
LAY-255
  6
CONTINUOUS
 62
     7
100
AcDbText
 10
2893.90625
 20
455.725
 30
0.0
 40
34.375
  1
構造：ボルト固定式
 41
1.021279830379747
  7
EXCADSTD
100
AcDbText
  0
TEXT
  5
6C3
330
1F
100
AcDbEntity
  8
LAY-255
  6
CONTINUOUS
 62
     7
100
AcDbText
 10
3007.5
 20
565.6249999999999
 30
0.0
 40
34.375
  1
ＳＦ－９０ＣＭ－１４Ｒ型
 41
1.00449418439108
  7
EXCADSTD
100
AcDbText
  0
TEXT
  5
6C4
330
1F
100
AcDbEntity
  8
LAY-255
  6
CONTINUOUS
 62
     7
100
AcDbText
 10
2892.03125
 20
405.6249999999999
 30
0.0
 40
34.375
  1
適用荷重：Ｔ－１４
 41
1.00244199424626
  7
EXCADSTD
100
AcDbText
  0
TEXT
  5
6C5
330
1F
100
AcDbEntity
  8
LAY-255
  6
CONTINUOUS
 62
     7
100
AcDbText
 10
3482.8125
 20
235.6249999999999
 30
0.0
 40
34.375
  1
１：１０
 41
0.9243863385026738
  7
EXCADSTD
100
AcDbText
  0
ENDSEC
  0
SECTION
  2
OBJECTS
  0
DICTIONARY
  5
C
330
0
100
AcDbDictionary
  3
ACAD_GROUP
350
D
  3
ACAD_LAYOUT
350
1A
  3
ACAD_MATERIAL
350
43
  3
ACAD_MLEADERSTYLE
350
6B
  3
ACAD_MLINESTYLE
350
17
  3
ACAD_PLOTSETTINGS
350
19
  3
ACAD_SCALELIST
350
47
  3
ACAD_VISUALSTYLE
350
2A
  3
ACDBHEADERROUNDTRIPXREC
350
6C6
  3
ACDBVARIABLEDICTIONARY
350
6E7
  0
DICTIONARY
  5
6F2
330
8
100
AcDbDictionary
280
     1
  3
ACAD_XREC_ROUNDTRIP
360
6F3
  0
DICTIONARY
  5
D
102
{ACAD_REACTORS
330
C
102
}
330
C
100
AcDbDictionary
  0
DICTIONARY
  5
1A
102
{ACAD_REACTORS
330
C
102
}
330
C
100
AcDbDictionary
  0
DICTIONARY
  5
43
102
{ACAD_REACTORS
330
C
102
}
330
C
100
AcDbDictionary
  3
BYBLOCK
350
45
  3
BYLAYER
350
44
  3
GLOBAL
350
46
  0
DICTIONARY
  5
6B
102
{ACAD_REACTORS
330
C
102
}
330
C
100
AcDbDictionary
  3
STANDARD
350
6C
  0
DICTIONARY
  5
17
102
{ACAD_REACTORS
330
C
102
}
330
C
100
AcDbDictionary
  3
STANDARD
350
18
  0
DICTIONARY
  5
19
102
{ACAD_REACTORS
330
C
102
}
330
C
100
AcDbDictionary
  0
DICTIONARY
  5
47
102
{ACAD_REACTORS
330
C
102
}
330
C
100
AcDbDictionary
  3
A0
350
48
  3
A1
350
49
  3
A2
350
4A
  3
A3
350
4B
  3
A4
350
4C
  3
A5
350
4D
  3
A6
350
4E
  3
A7
350
4F
  3
A8
350
50
  3
A9
350
51
  3
B0
350
52
  3
B1
350
53
  3
B2
350
54
  3
B3
350
55
  3
B4
350
56
  3
B5
350
57
  3
B6
350
58
  3
B7
350
59
  3
B8
350
5A
  3
B9
350
5B
  3
C0
350
5C
  3
C1
350
5D
  3
C2
350
5E
  3
C3
350
5F
  3
C4
350
60
  3
C5
350
61
  3
C6
350
62
  3
C7
350
63
  3
C8
350
64
  3
C9
350
65
  3
D0
350
66
  3
D1
350
67
  3
D2
350
68
  0
DICTIONARY
  5
2A
102
{ACAD_REACTORS
330
C
102
}
330
C
100
AcDbDictionary
  3
2DWIREFRAME
350
2F
  3
BASIC
350
32
  3
BRIGHTEN
350
36
  3
COLORCHANGE
350
3A
  3
CONCEPTUAL
350
34
  3
DIM
350
35
  3
EDGECOLOROFF
350
3D
  3
FACEPATTERN
350
39
  3
FLAT
350
2B
  3
FLATWITHEDGES
350
2C
  3
GOURAUD
350
2D
  3
GOURAUDWITHEDGES
350
2E
  3
HIDDEN
350
31
  3
JITTEROFF
350
3B
  3
LINEPATTERN
350
38
  3
OVERHANGOFF
350
3C
  3
REALISTIC
350
33
  3
SHADED
350
42
  3
SHADED_WITH_EDGES
350
41
  3
SHADES_OF_GRAY
350
3E
  3
SKETCHY
350
3F
  3
THICKEN
350
37
  3
WIREFRAME
350
30
  3
X-RAY
350
40
  0
DICTIONARY
  5
6C6
102
{ACAD_REACTORS
330
C
102
}
330
C
100
AcDbDictionary
  3
CEPSNID
350
6D0
  3
CEPSNTYPE
350
6CF
  3
DIMSTYLEDATA
350
6E6
  3
FINGERPRINTGUID
350
6D1
  3
HYPERLINKBASE
350
6C9
  3
INSUNITS
350
6CE
  3
LAYOUTDICT
350
6CB
  3
LWETCUNION
350
6CD
  3
PLOTSETDICT
350
6CC
  3
PSVPSCALE
350
6D3
  3
PUCSBASE
350
6D6
  3
PUCSORGBACK
350
6DC
  3
PUCSORGBOTTOM
350
6D8
  3
PUCSORGFRONT
350
6DB
  3
PUCSORGLEFT
350
6D9
  3
PUCSORGRIGHT
350
6DA
  3
PUCSORGTOP
350
6D7
  3
PUCSORTHOREF
350
6D4
  3
PUCSORTHOVIEW
350
6D5
  3
STYLESHEET
350
6CA
  3
TSTACKALIGN
350
6C7
  3
TSTACKSIZE
350
6C8
  3
UCSBASE
350
6DF
  3
UCSORGBACK
350
6E5
  3
UCSORGBOTTOM
350
6E1
  3
UCSORGFRONT
350
6E4
  3
UCSORGLEFT
350
6E2
  3
UCSORGRIGHT
350
6E3
  3
UCSORGTOP
350
6E0
  3
UCSORTHOREF
350
6DD
  3
UCSORTHOVIEW
350
6DE
  3
VERSIONGUID
350
6D2
  0
DICTIONARY
  5
6E7
102
{ACAD_REACTORS
330
C
102
}
330
C
100
AcDbDictionary
  3
CANNOSCALE
350
6F4
  3
CENTEREXE
350
6EE
  3
CENTERLTYPEFILE
350
6EF
  3
CMLEADERSTYLE
350
6E9
  3
CTABLESTYLE
350
6E8
  3
DIMASSOC
350
6F0
  3
HIDETEXT
350
6F1
  3
MSLTSCALE
350
6F5
  3
PSOLHEIGHT
350
6EB
  3
PSOLWIDTH
350
6EA
  0
XRECORD
  5
6F3
102
{ACAD_REACTORS
330
6F2
102
}
330
6F2
100
AcDbXrecord
102
VTR_0.000_0.000_1.000_1.000_VISUALSTYLE
340
2F
102
VTR_0.000_0.000_1.000_1.000_GRIDDISPLAY
 70
     3
102
VTR_0.000_0.000_1.000_1.000_GRIDMAJOR
 70
     5
102
VTR_0.000_0.000_1.000_1.000_DEFAULTLIGHTING
280
     1
102
VTR_0.000_0.000_1.000_1.000_DEFAULTLIGHTINGTYPE
 70
     1
102
VTR_0.000_0.000_1.000_1.000_BRIGHTNESS
141
0.0
102
VTR_0.000_0.000_1.000_1.000_CONTRAST
142
0.0
  0
MATERIAL
  5
45
102
{ACAD_REACTORS
330
43
102
}
102
{ACAD_XDICTIONARY
360
6F8
102
}
330
43
100
AcDbMaterial
  1
BYBLOCK
  0
MATERIAL
  5
44
102
{ACAD_REACTORS
330
43
102
}
102
{ACAD_XDICTIONARY
360
6F6
102
}
330
43
100
AcDbMaterial
  1
BYLAYER
  0
MATERIAL
  5
46
102
{ACAD_REACTORS
330
43
102
}
102
{ACAD_XDICTIONARY
360
6FA
102
}
330
43
100
AcDbMaterial
  1
GLOBAL
  0
ACAD_PROXY_OBJECT
  5
6C
102
{ACAD_REACTORS
330
6B
102
}
330
6B
100
AcDbProxyObject
 90
      499
 91
      505
 93
      610
310
40901902A4063FBFFFFFE0000000000000020400000000000020404214DD185B99185C990000000000000104090141901A00000000000004100000000000000041025764000000000000039000
340
14
340
0
340
11
340
0
 94
        0
1001
ACAD_MLEADERVER
1070
     2
  0
MLINESTYLE
  5
18
102
{ACAD_REACTORS
330
17
102
}
330
17
100
AcDbMlineStyle
  2
Standard
 70
     0
  3

 62
   256
 51
90.0
 52
90.0
 71
     2
 49
0.5
 62
   256
  6
BYLAYER
 49
-0.5
 62
   256
  6
BYLAYER
  0
ACAD_PROXY_OBJECT
  5
48
102
{ACAD_REACTORS
330
47
102
}
330
47
100
AcDbProxyObject
 90
      499
 91
      503
 93
       41
310
903313A31580
  0
ACAD_PROXY_OBJECT
  5
49
102
{ACAD_REACTORS
330
47
102
}
330
47
100
AcDbProxyObject
 90
      499
 91
      503
 93
      105
310
903313A324000000000000004000
  0
ACAD_PROXY_OBJECT
  5
4A
102
{ACAD_REACTORS
330
47
102
}
330
47
100
AcDbProxyObject
 90
      499
 91
      503
 93
      105
310
903313A344000000000000104000
  0
ACAD_PROXY_OBJECT
  5
4B
102
{ACAD_REACTORS
330
47
102
}
330
47
100
AcDbProxyObject
 90
      499
 91
      503
 93
      105
310
903313A354000000000000144000
  0
ACAD_PROXY_OBJECT
  5
4C
102
{ACAD_REACTORS
330
47
102
}
330
47
100
AcDbProxyObject
 90
      499
 91
      503
 93
      105
310
903313A384000000000000204000
  0
ACAD_PROXY_OBJECT
  5
4D
102
{ACAD_REACTORS
330
47
102
}
330
47
100
AcDbProxyObject
 90
      499
 91
      503
 93
      113
310
904313A31304000000000000244000
  0
ACAD_PROXY_OBJECT
  5
4E
102
{ACAD_REACTORS
330
47
102
}
330
47
100
AcDbProxyObject
 90
      499
 91
      503
 93
      113
310
904313A31364000000000000304000
  0
ACAD_PROXY_OBJECT
  5
4F
102
{ACAD_REACTORS
330
47
102
}
330
47
100
AcDbProxyObject
 90
      499
 91
      503
 93
      113
310
904313A32304000000000000344000
  0
ACAD_PROXY_OBJECT
  5
50
102
{ACAD_REACTORS
330
47
102
}
330
47
100
AcDbProxyObject
 90
      499
 91
      503
 93
      113
310
904313A333040000000000003E4000
  0
ACAD_PROXY_OBJECT
  5
51
102
{ACAD_REACTORS
330
47
102
}
330
47
100
AcDbProxyObject
 90
      499
 91
      503
 93
      113
310
904313A34304000000000000444000
  0
ACAD_PROXY_OBJECT
  5
52
102
{ACAD_REACTORS
330
47
102
}
330
47
100
AcDbProxyObject
 90
      499
 91
      503
 93
      113
310
904313A35304000000000000494000
  0
ACAD_PROXY_OBJECT
  5
53
102
{ACAD_REACTORS
330
47
102
}
330
47
100
AcDbProxyObject
 90
      499
 91
      503
 93
      121
310
905313A3130304000000000000594000
  0
ACAD_PROXY_OBJECT
  5
54
102
{ACAD_REACTORS
330
47
102
}
330
47
100
AcDbProxyObject
 90
      499
 91
      503
 93
      105
310
903323A310000000000000010100
  0
ACAD_PROXY_OBJECT
  5
55
102
{ACAD_REACTORS
330
47
102
}
330
47
100
AcDbProxyObject
 90
      499
 91
      503
 93
      105
310
903343A310000000000000410100
  0
ACAD_PROXY_OBJECT
  5
56
102
{ACAD_REACTORS
330
47
102
}
330
47
100
AcDbProxyObject
 90
      499
 91
      503
 93
      105
310
903383A310000000000000810100
  0
ACAD_PROXY_OBJECT
  5
57
102
{ACAD_REACTORS
330
47
102
}
330
47
100
AcDbProxyObject
 90
      499
 91
      503
 93
      113
310
90431303A310000000000000910100
  0
ACAD_PROXY_OBJECT
  5
58
102
{ACAD_REACTORS
330
47
102
}
330
47
100
AcDbProxyObject
 90
      499
 91
      503
 93
      121
310
9053130303A310000000000001650100
  0
ACAD_PROXY_OBJECT
  5
59
102
{ACAD_REACTORS
330
47
102
}
330
47
100
AcDbProxyObject
 90
      499
 91
      503
 93
      257
310
90E312F31323822203D2031272D3022000000000000200FC000000000000284000
  0
ACAD_PROXY_OBJECT
  5
5A
102
{ACAD_REACTORS
330
47
102
}
330
47
100
AcDbProxyObject
 90
      499
 91
      503
 93
      249
310
90D312F363422203D2031272D3022000000000000240FC000000000000284000
  0
ACAD_PROXY_OBJECT
  5
5B
102
{ACAD_REACTORS
330
47
102
}
330
47
100
AcDbProxyObject
 90
      499
 91
      503
 93
      249
310
90D312F333222203D2031272D3022000000000000280FC000000000000284000
  0
ACAD_PROXY_OBJECT
  5
5C
102
{ACAD_REACTORS
330
47
102
}
330
47
100
AcDbProxyObject
 90
      499
 91
      503
 93
      249
310
90D312F313622203D2031272D30220000000000002C0FC000000000000284000
  0
ACAD_PROXY_OBJECT
  5
5D
102
{ACAD_REACTORS
330
47
102
}
330
47
100
AcDbProxyObject
 90
      499
 91
      503
 93
      249
310
90D332F333222203D2031272D30220000000000002E0FC000000000000284000
  0
ACAD_PROXY_OBJECT
  5
5E
102
{ACAD_REACTORS
330
47
102
}
330
47
100
AcDbProxyObject
 90
      499
 91
      503
 93
      241
310
90C312F3822203D2031272D3022000000000000300FC000000000000284000
  0
ACAD_PROXY_OBJECT
  5
5F
102
{ACAD_REACTORS
330
47
102
}
330
47
100
AcDbProxyObject
 90
      499
 91
      503
 93
      249
310
90D332F313622203D2031272D3022000000000000320FC000000000000284000
  0
ACAD_PROXY_OBJECT
  5
60
102
{ACAD_REACTORS
330
47
102
}
330
47
100
AcDbProxyObject
 90
      499
 91
      503
 93
      241
310
90C312F3422203D2031272D3022000000000000340FC000000000000284000
  0
ACAD_PROXY_OBJECT
  5
61
102
{ACAD_REACTORS
330
47
102
}
330
47
100
AcDbProxyObject
 90
      499
 91
      503
 93
      241
310
90C332F3822203D2031272D3022000000000000360FC000000000000284000
  0
ACAD_PROXY_OBJECT
  5
62
102
{ACAD_REACTORS
330
47
102
}
330
47
100
AcDbProxyObject
 90
      499
 91
      503
 93
      241
310
90C312F3222203D2031272D3022000000000000380FC000000000000284000
  0
ACAD_PROXY_OBJECT
  5
63
102
{ACAD_REACTORS
330
47
102
}
330
47
100
AcDbProxyObject
 90
      499
 91
      503
 93
      241
310
90C332F3422203D2031272D30220000000000003A0FC000000000000284000
  0
ACAD_PROXY_OBJECT
  5
64
102
{ACAD_REACTORS
330
47
102
}
330
47
100
AcDbProxyObject
 90
      499
 91
      503
 93
      161
310
90A3122203D2031272D30224000000000000284000
  0
ACAD_PROXY_OBJECT
  5
65
102
{ACAD_REACTORS
330
47
102
}
330
47
100
AcDbProxyObject
 90
      499
 91
      503
 93
      257
310
90E312D312F3222203D2031272D30220000000000003E0FC000000000000284000
  0
ACAD_PROXY_OBJECT
  5
66
102
{ACAD_REACTORS
330
47
102
}
330
47
100
AcDbProxyObject
 90
      499
 91
      503
 93
      225
310
90A3322203D2031272D302200000000000002100000000000000284000
  0
ACAD_PROXY_OBJECT
  5
67
102
{ACAD_REACTORS
330
47
102
}
330
47
100
AcDbProxyObject
 90
      499
 91
      503
 93
      225
310
90A3622203D2031272D302200000000000006100000000000000284000
  0
ACAD_PROXY_OBJECT
  5
68
102
{ACAD_REACTORS
330
47
102
}
330
47
100
AcDbProxyObject
 90
      499
 91
      503
 93
      249
310
90D31272D3022203D2031272D30220000000000000A100000000000000284000
  0
ACAD_PROXY_OBJECT
  5
2F
102
{ACAD_REACTORS
330
2A
102
}
330
2A
100
AcDbProxyObject
 90
      499
 91
      501
 93
      436
310
42CC9915DA5C99599C985B595049028333333333333E33F0000000000000F90107901411070040501600405405064090741402480A0340
1001
ACAD
1000
AcDbSavedByObjectVersion
1070
     0
  0
ACAD_PROXY_OBJECT
  5
32
102
{ACAD_REACTORS
330
2A
102
}
330
2A
100
AcDbProxyObject
 90
      499
 91
      501
 93
      388
310
4150985CDA58D07406404333333333333E33F0000000000000F90107A41107004050150841D405064090741402480A0350
1001
ACAD
1000
AcDbSavedByObjectVersion
1070
     0
  0
ACAD_PROXY_OBJECT
  5
36
102
{ACAD_REACTORS
330
2A
102
}
330
2A
100
AcDbProxyObject
 90
      499
 91
      501
 93
      428
310
42109C9A59DA1D195B90C409028333333333333E33F0000000000000F9010790141107004050150841D405064090741402480A029950
1001
ACAD
1000
AcDbSavedByObjectVersion
1070
     0
  0
ACAD_PROXY_OBJECT
  5
3A
102
{ACAD_REACTORS
330
2A
102
}
330
2A
100
AcDbProxyObject
 90
      499
 91
      501
 93
      452
310
42D0DBDB1BDC90DA185B99D95104090240C333333333333E33F0000000000000F90108901411070040501508421405064090741402480A0350
1001
ACAD
1000
AcDbSavedByObjectVersion
1070
     0
  0
ACAD_PROXY_OBJECT
  5
34
102
{ACAD_REACTORS
330
2A
102
}
330
2A
100
AcDbProxyObject
 90
      499
 91
      501
 93
      500
310
4290DBDB98D95C1D1D585B10940D028333333333333E33F0000000000000F90107902409070040501000000000018199010841D405064090740C02480A0340
1001
ACAD
1000
AcDbSavedByObjectVersion
1070
     0
  0
ACAD_PROXY_OBJECT
  5
35
102
{ACAD_REACTORS
330
2A
102
}
330
2A
100
AcDbProxyObject
 90
      499
 91
      501
 93
      412
310
40D11A5B50B409028333333333333E33F0000000000000F9010790141107004050150841D405064090741402480A02677FFFFFD0
1001
ACAD
1000
AcDbSavedByObjectVersion
1070
     0
  0
ACAD_PROXY_OBJECT
  5
3D
102
{ACAD_REACTORS
330
2A
102
}
330
2A
100
AcDbProxyObject
 90
      499
 91
      501
 93
      452
310
43115919D950DBDB1BDC93D999916409028333333333333E33F0000000000000F9010790141107004050150841D405064090741402480A0350
1001
ACAD
1000
AcDbSavedByObjectVersion
1070
     0
  0
ACAD_PROXY_OBJECT
  5
39
102
{ACAD_REACTORS
330
2A
102
}
330
2A
100
AcDbProxyObject
 90
      499
 91
      501
 93
      444
310
42D19858D95C185D1D195C9B90F409028333333333333E33F0000000000000F9010790141107004050150841D405064090741402480A0350
1001
ACAD
1000
AcDbSavedByObjectVersion
1070
     0
  0
ACAD_PROXY_OBJECT
  5
2B
102
{ACAD_REACTORS
330
2A
102
}
330
2A
100
AcDbProxyObject
 90
      499
 91
      501
 93
      380
310
41119B185D240901404333333333333E33F0000000000000F9010740A907004050150841D405064090741402480A1B50
1001
ACAD
1000
AcDbSavedByObjectVersion
1070
     0
  0
ACAD_PROXY_OBJECT
  5
2C
102
{ACAD_REACTORS
330
2A
102
}
330
2A
100
AcDbProxyObject
 90
      499
 91
      501
 93
      468
310
43519B185D15DA5D1A115919D95CD0140901404333333333333E33F0000000000000F90107409019070040501600405405064090741402480A1B50
1001
ACAD
1000
AcDbSavedByObjectVersion
1070
     0
  0
ACAD_PROXY_OBJECT
  5
2D
102
{ACAD_REACTORS
330
2A
102
}
330
2A
100
AcDbProxyObject
 90
      499
 91
      501
 93
      404
310
41D1DBDD5C985D5910240902404333333333333E33F0000000000000F9010740A9070040501641D405064090741402480A1B50
1001
ACAD
1000
AcDbSavedByObjectVersion
1070
     0
  0
ACAD_PROXY_OBJECT
  5
2E
102
{ACAD_REACTORS
330
2A
102
}
330
2A
100
AcDbProxyObject
 90
      499
 91
      501
 93
      492
310
4411DBDD5C985D5915DA5D1A115919D95CD0340902404333333333333E33F0000000000000F90107409019070040501600405405064090741402480A1B50
1001
ACAD
1000
AcDbSavedByObjectVersion
1070
     0
  0
ACAD_PROXY_OBJECT
  5
31
102
{ACAD_REACTORS
330
2A
102
}
330
2A
100
AcDbProxyObject
 90
      499
 91
      501
 93
      476
310
41921A5919195B90640502408333333333333E33F0000000000000F901079024090700405020000000000001110200405405064090740C02480A0340
1001
ACAD
1000
AcDbSavedByObjectVersion
1070
     0
  0
ACAD_PROXY_OBJECT
  5
3B
102
{ACAD_REACTORS
330
2A
102
}
330
2A
100
AcDbProxyObject
 90
      499
 91
      501
 93
      428
310
42529A5D1D195C93D999914409028333333333333E33F0000000000000F9010790141107004050150A41D405064090741402480A0350
1001
ACAD
1000
AcDbSavedByObjectVersion
1070
     0
  0
ACAD_PROXY_OBJECT
  5
38
102
{ACAD_REACTORS
330
2A
102
}
330
2A
100
AcDbProxyObject
 90
      499
 91
      501
 93
      444
310
42D31A5B995C185D1D195C9B90E409028333333333333E33F0000000000000F9010790141107004050750841D405064090741402483A0350
1001
ACAD
1000
AcDbSavedByObjectVersion
1070
     0
  0
ACAD_PROXY_OBJECT
  5
3C
102
{ACAD_REACTORS
330
2A
102
}
330
2A
100
AcDbProxyObject
 90
      499
 91
      501
 93
      444
310
42D3DD995C9A185B99D3D999915409028333333333333E33F0000000000000F9010790141107004050150941D405064090741402480A0350
1001
ACAD
1000
AcDbSavedByObjectVersion
1070
     0
  0
ACAD_PROXY_OBJECT
  5
33
102
{ACAD_REACTORS
330
2A
102
}
330
2A
100
AcDbProxyObject
 90
      499
 91
      501
 93
      428
310
425499585B1A5CDD1A58D08409038333333333333E33F0000000000000F9010740A907004050150800405405064090740C02480A1B40
1001
ACAD
1000
AcDbSavedByObjectVersion
1070
     0
  0
ACAD_PROXY_OBJECT
  5
42
102
{ACAD_REACTORS
330
2A
102
}
330
2A
100
AcDbProxyObject
 90
      499
 91
      501
 93
      420
310
4194DA1859195911B40902404333333333333E33F0000000000000F9010740A41107004050150800405405064090840C02480A0B40
1001
ACAD
1000
AcDbSavedByObjectVersion
1070
     0
  0
ACAD_PROXY_OBJECT
  5
41
102
{ACAD_REACTORS
330
2A
102
}
330
2A
100
AcDbProxyObject
 90
      499
 91
      501
 93
      516
310
4454DA18591959081DDA5D1A08195919D95CD1A40902404333333333333E33F0000000000000F901074090142907004050250800405405064090740C02480A0B40
1001
ACAD
1000
AcDbSavedByObjectVersion
1070
     0
  0
ACAD_PROXY_OBJECT
  5
3E
102
{ACAD_REACTORS
330
2A
102
}
330
2A
100
AcDbProxyObject
 90
      499
 91
      501
 93
      532
310
4394DA1859195CC81BD98811DC985E5174090240C333333333333E33F0000000000000F901079024090741D01000000000000111010841D405064090740C02480A0340
1001
ACAD
1000
AcDbSavedByObjectVersion
1070
     0
  0
ACAD_PROXY_OBJECT
  5
3F
102
{ACAD_REACTORS
330
2A
102
}
330
2A
100
AcDbProxyObject
 90
      499
 91
      501
 93
      476
310
41D4DAD95D18DA1E51840502408333333333333E33F0000000000000F901079024090741D01000000000000111010B41D405064090741802480A0340
1001
ACAD
1000
AcDbSavedByObjectVersion
1070
     0
  0
ACAD_PROXY_OBJECT
  5
37
102
{ACAD_REACTORS
330
2A
102
}
330
2A
100
AcDbProxyObject
 90
      499
 91
      501
 93
      412
310
41D51A1A58DAD95B90D409028333333333333E33F0000000000000F9010790141107004050150C41D405064090741402480A0350
1001
ACAD
1000
AcDbSavedByObjectVersion
1070
     0
  0
ACAD_PROXY_OBJECT
  5
30
102
{ACAD_REACTORS
330
2A
102
}
330
2A
100
AcDbProxyObject
 90
      499
 91
      501
 93
      420
310
4255DA5C99599C985B595059028333333333333E33F0000000000000F90107901411070040501600405405064090740C02480A0340
1001
ACAD
1000
AcDbSavedByObjectVersion
1070
     0
  0
ACAD_PROXY_OBJECT
  5
40
102
{ACAD_REACTORS
330
2A
102
}
330
2A
100
AcDbProxyObject
 90
      499
 91
      501
 93
      404
310
41560B54985E51940902404000000000000E03F0000000000000F9010740501907004050150841D405064090740C02480A1B40
1001
ACAD
1000
AcDbSavedByObjectVersion
1070
     0
  0
XRECORD
  5
6D0
102
{ACAD_REACTORS
330
6C6
102
}
330
6C6
100
AcDbXrecord
340
0
  0
XRECORD
  5
6CF
102
{ACAD_REACTORS
330
6C6
102
}
330
6C6
100
AcDbXrecord
 90
        0
  0
XRECORD
  5
6E6
102
{ACAD_REACTORS
330
6C6
102
}
330
6C6
100
AcDbXrecord
1000
DSTYLE
1002
{
1070
   340
340
11
1002
}
  0
XRECORD
  5
6D1
102
{ACAD_REACTORS
330
6C6
102
}
330
6C6
100
AcDbXrecord
  1
{c1e7d3fd-f309-49c1-9307-bcf6472b273c}
  0
XRECORD
  5
6C9
102
{ACAD_REACTORS
330
6C6
102
}
330
6C6
100
AcDbXrecord
  1

  0
XRECORD
  5
6CE
102
{ACAD_REACTORS
330
6C6
102
}
330
6C6
100
AcDbXrecord
 90
        4
  0
XRECORD
  5
6CB
102
{ACAD_REACTORS
330
6C6
102
}
330
6C6
100
AcDbXrecord
340
1A
  0
XRECORD
  5
6CD
102
{ACAD_REACTORS
330
6C6
102
}
330
6C6
100
AcDbXrecord
 90
    10781
  0
XRECORD
  5
6CC
102
{ACAD_REACTORS
330
6C6
102
}
330
6C6
100
AcDbXrecord
340
19
  0
XRECORD
  5
6D3
102
{ACAD_REACTORS
330
6C6
102
}
330
6C6
100
AcDbXrecord
 40
0.0
  0
XRECORD
  5
6D6
102
{ACAD_REACTORS
330
6C6
102
}
330
6C6
100
AcDbXrecord
340
0
  0
XRECORD
  5
6DC
102
{ACAD_REACTORS
330
6C6
102
}
330
6C6
100
AcDbXrecord
 10
0.0
 20
0.0
 30
0.0
  0
XRECORD
  5
6D8
102
{ACAD_REACTORS
330
6C6
102
}
330
6C6
100
AcDbXrecord
 10
0.0
 20
0.0
 30
0.0
  0
XRECORD
  5
6DB
102
{ACAD_REACTORS
330
6C6
102
}
330
6C6
100
AcDbXrecord
 10
0.0
 20
0.0
 30
0.0
  0
XRECORD
  5
6D9
102
{ACAD_REACTORS
330
6C6
102
}
330
6C6
100
AcDbXrecord
 10
0.0
 20
0.0
 30
0.0
  0
XRECORD
  5
6DA
102
{ACAD_REACTORS
330
6C6
102
}
330
6C6
100
AcDbXrecord
 10
0.0
 20
0.0
 30
0.0
  0
XRECORD
  5
6D7
102
{ACAD_REACTORS
330
6C6
102
}
330
6C6
100
AcDbXrecord
 10
0.0
 20
0.0
 30
0.0
  0
XRECORD
  5
6D4
102
{ACAD_REACTORS
330
6C6
102
}
330
6C6
100
AcDbXrecord
340
0
  0
XRECORD
  5
6D5
102
{ACAD_REACTORS
330
6C6
102
}
330
6C6
100
AcDbXrecord
 70
     0
  0
XRECORD
  5
6CA
102
{ACAD_REACTORS
330
6C6
102
}
330
6C6
100
AcDbXrecord
  1

  0
XRECORD
  5
6C7
102
{ACAD_REACTORS
330
6C6
102
}
330
6C6
100
AcDbXrecord
 90
        1
  0
XRECORD
  5
6C8
102
{ACAD_REACTORS
330
6C6
102
}
330
6C6
100
AcDbXrecord
 90
       70
  0
XRECORD
  5
6DF
102
{ACAD_REACTORS
330
6C6
102
}
330
6C6
100
AcDbXrecord
340
0
  0
XRECORD
  5
6E5
102
{ACAD_REACTORS
330
6C6
102
}
330
6C6
100
AcDbXrecord
 10
0.0
 20
0.0
 30
0.0
  0
XRECORD
  5
6E1
102
{ACAD_REACTORS
330
6C6
102
}
330
6C6
100
AcDbXrecord
 10
0.0
 20
0.0
 30
0.0
  0
XRECORD
  5
6E4
102
{ACAD_REACTORS
330
6C6
102
}
330
6C6
100
AcDbXrecord
 10
0.0
 20
0.0
 30
0.0
  0
XRECORD
  5
6E2
102
{ACAD_REACTORS
330
6C6
102
}
330
6C6
100
AcDbXrecord
 10
0.0
 20
0.0
 30
0.0
  0
XRECORD
  5
6E3
102
{ACAD_REACTORS
330
6C6
102
}
330
6C6
100
AcDbXrecord
 10
0.0
 20
0.0
 30
0.0
  0
XRECORD
  5
6E0
102
{ACAD_REACTORS
330
6C6
102
}
330
6C6
100
AcDbXrecord
 10
0.0
 20
0.0
 30
0.0
  0
XRECORD
  5
6DD
102
{ACAD_REACTORS
330
6C6
102
}
330
6C6
100
AcDbXrecord
340
0
  0
XRECORD
  5
6DE
102
{ACAD_REACTORS
330
6C6
102
}
330
6C6
100
AcDbXrecord
 70
     0
  0
XRECORD
  5
6D2
102
{ACAD_REACTORS
330
6C6
102
}
330
6C6
100
AcDbXrecord
  1
{FAEB1C32-E019-11D5-929B-00C0DF256EC4}
  0
DICTIONARYVAR
  5
6F4
102
{ACAD_REACTORS
330
6E7
102
}
330
6E7
100
DictionaryVariables
280
     0
  1
1:1
  0
DICTIONARYVAR
  5
6EE
102
{ACAD_REACTORS
330
6E7
102
}
330
6E7
100
DictionaryVariables
280
     0
  1
3.500000
  0
DICTIONARYVAR
  5
6EF
102
{ACAD_REACTORS
330
6E7
102
}
330
6E7
100
DictionaryVariables
280
     0
  1
acadiso.lin
  0
DICTIONARYVAR
  5
6E9
102
{ACAD_REACTORS
330
6E7
102
}
330
6E7
100
DictionaryVariables
280
     0
  1
Standard
  0
DICTIONARYVAR
  5
6E8
102
{ACAD_REACTORS
330
6E7
102
}
330
6E7
100
DictionaryVariables
280
     0
  1
Standard
  0
DICTIONARYVAR
  5
6F0
102
{ACAD_REACTORS
330
6E7
102
}
330
6E7
100
DictionaryVariables
280
     0
  1
2
  0
DICTIONARYVAR
  5
6F1
102
{ACAD_REACTORS
330
6E7
102
}
330
6E7
100
DictionaryVariables
280
     0
  1
1
  0
DICTIONARYVAR
  5
6F5
102
{ACAD_REACTORS
330
6E7
102
}
330
6E7
100
DictionaryVariables
280
     0
  1
1
  0
DICTIONARYVAR
  5
6EB
102
{ACAD_REACTORS
330
6E7
102
}
330
6E7
100
DictionaryVariables
280
     0
  1
80.000000
  0
DICTIONARYVAR
  5
6EA
102
{ACAD_REACTORS
330
6E7
102
}
330
6E7
100
DictionaryVariables
280
     0
  1
5.000000
  0
DICTIONARY
  5
6F8
330
45
100
AcDbDictionary
280
     1
  3
ACAD_XREC_ROUNDTRIP
360
6F9
  0
DICTIONARY
  5
6F6
330
44
100
AcDbDictionary
280
     1
  3
ACAD_XREC_ROUNDTRIP
360
6F7
  0
DICTIONARY
  5
6FA
330
46
100
AcDbDictionary
280
     1
  3
ACAD_XREC_ROUNDTRIP
360
6FB
  0
XRECORD
  5
6F9
102
{ACAD_REACTORS
330
6F8
102
}
330
6F8
100
AcDbXrecord
102
MATERIAL
148
0.0
149
0.0
149
0.0
 93
        0
 94
      127
282
     0
 72
     1
 77
     1
171
     1
175
     1
179
     1
273
     0
  0
XRECORD
  5
6F7
102
{ACAD_REACTORS
330
6F6
102
}
330
6F6
100
AcDbXrecord
102
MATERIAL
148
0.0
149
0.0
149
0.0
 93
        0
 94
      127
282
     0
 72
     1
 77
     1
171
     1
175
     1
179
     1
273
     0
  0
XRECORD
  5
6FB
102
{ACAD_REACTORS
330
6FA
102
}
330
6FA
100
AcDbXrecord
102
MATERIAL
148
0.0
149
0.0
149
0.0
 93
        0
 94
      127
282
     0
 72
     1
 77
     1
171
     1
175
     1
179
     1
273
     0
  0
ENDSEC
  0
EOF
