  0
SECTION
  2
HEADER
  9
$ACADVER
  1
AC1014
  9
$ACADMAINTVER
 70
     9
  9
$DWGCODEPAGE
  3
ANSI_932
  9
$INSBASE
 10
0.0
 20
0.0
 30
0.0
  9
$EXTMIN
 10
50.0
 20
100.0
 30
0.0
  9
$EXTMAX
 10
3850.0
 20
2800.0
 30
0.0
  9
$LIMMIN
 10
0.0
 20
0.0
  9
$LIMMAX
 10
420.0
 20
297.0
  9
$ORTHOMODE
 70
     0
  9
$REGENMODE
 70
     1
  9
$FILLMODE
 70
     1
  9
$QTEXTMODE
 70
     0
  9
$MIRRTEXT
 70
     1
  9
$DRAGMODE
 70
     2
  9
$LTSCALE
 40
0.2
  9
$OSMODE
 70
    37
  9
$ATTMODE
 70
     1
  9
$TEXTSIZE
 40
2.5
  9
$TRACEWID
 40
1.0
  9
$TEXTSTYLE
  7
STANDARD
  9
$CLAYER
  8
LAY-10
  9
$CELTYPE
  6
BYLAYER
  9
$CECOLOR
 62
   256
  9
$CELTSCALE
 40
1.0
  9
$DELOBJ
 70
     1
  9
$DISPSILH
 70
     0
  9
$DIMSCALE
 40
1.0
  9
$DIMASZ
 40
2.5
  9
$DIMEXO
 40
0.625
  9
$DIMDLI
 40
3.75
  9
$DIMRND
 40
0.0
  9
$DIMDLE
 40
0.0
  9
$DIMEXE
 40
1.25
  9
$DIMTP
 40
0.0
  9
$DIMTM
 40
0.0
  9
$DIMTXT
 40
2.5
  9
$DIMCEN
 40
2.5
  9
$DIMTSZ
 40
0.0
  9
$DIMTOL
 70
     0
  9
$DIMLIM
 70
     0
  9
$DIMTIH
 70
     0
  9
$DIMTOH
 70
     0
  9
$DIMSE1
 70
     0
  9
$DIMSE2
 70
     0
  9
$DIMTAD
 70
     1
  9
$DIMZIN
 70
     8
  9
$DIMBLK
  1

  9
$DIMASO
 70
     1
  9
$DIMSHO
 70
     1
  9
$DIMPOST
  1

  9
$DIMAPOST
  1

  9
$DIMALT
 70
     0
  9
$DIMALTD
 70
     3
  9
$DIMALTF
 40
0.03937007874016
  9
$DIMLFAC
 40
1.0
  9
$DIMTOFL
 70
     1
  9
$DIMTVP
 40
0.0
  9
$DIMTIX
 70
     0
  9
$DIMSOXD
 70
     0
  9
$DIMSAH
 70
     0
  9
$DIMBLK1
  1

  9
$DIMBLK2
  1

  9
$DIMSTYLE
  2
ISO-25
  9
$DIMCLRD
 70
     0
  9
$DIMCLRE
 70
     0
  9
$DIMCLRT
 70
     0
  9
$DIMTFAC
 40
1.0
  9
$DIMGAP
 40
0.625
  9
$DIMJUST
 70
     0
  9
$DIMSD1
 70
     0
  9
$DIMSD2
 70
     0
  9
$DIMTOLJ
 70
     0
  9
$DIMTZIN
 70
     8
  9
$DIMALTZ
 70
     0
  9
$DIMALTTZ
 70
     0
  9
$DIMFIT
 70
     3
  9
$DIMUPT
 70
     0
  9
$DIMUNIT
 70
     2
  9
$DIMDEC
 70
     2
  9
$DIMTDEC
 70
     2
  9
$DIMALTU
 70
     2
  9
$DIMALTTD
 70
     3
  9
$DIMTXSTY
  7
STANDARD
  9
$DIMAUNIT
 70
     0
  9
$LUNITS
 70
     2
  9
$LUPREC
 70
     4
  9
$SKETCHINC
 40
1.0
  9
$FILLETRAD
 40
10.0
  9
$AUNITS
 70
     0
  9
$AUPREC
 70
     0
  9
$MENU
  1
.
  9
$ELEVATION
 40
0.0
  9
$PELEVATION
 40
0.0
  9
$THICKNESS
 40
0.0
  9
$LIMCHECK
 70
     0
  9
$CHAMFERA
 40
0.0
  9
$CHAMFERB
 40
0.0
  9
$CHAMFERC
 40
0.0
  9
$CHAMFERD
 40
0.0
  9
$SKPOLY
 70
     0
  9
$TDCREATE
 40
2459229.333538495
  9
$TDUPDATE
 40
2459229.333539502
  9
$TDINDWG
 40
0.0000000116
  9
$TDUSRTIMER
 40
0.0000000116
  9
$USRTIMER
 70
     1
  9
$ANGBASE
 50
0.0
  9
$ANGDIR
 70
     0
  9
$PDMODE
 70
     0
  9
$PDSIZE
 40
0.0
  9
$PLINEWID
 40
0.0
  9
$COORDS
 70
     1
  9
$SPLFRAME
 70
     0
  9
$SPLINETYPE
 70
     6
  9
$SPLINESEGS
 70
     8
  9
$ATTDIA
 70
     0
  9
$ATTREQ
 70
     1
  9
$HANDLING
 70
     1
  9
$HANDSEED
  5
5B5
  9
$SURFTAB1
 70
     6
  9
$SURFTAB2
 70
     6
  9
$SURFTYPE
 70
     6
  9
$SURFU
 70
     6
  9
$SURFV
 70
     6
  9
$UCSNAME
  2

  9
$UCSORG
 10
0.0
 20
0.0
 30
0.0
  9
$UCSXDIR
 10
1.0
 20
0.0
 30
0.0
  9
$UCSYDIR
 10
0.0
 20
1.0
 30
0.0
  9
$PUCSNAME
  2

  9
$PUCSORG
 10
0.0
 20
0.0
 30
0.0
  9
$PUCSXDIR
 10
1.0
 20
0.0
 30
0.0
  9
$PUCSYDIR
 10
0.0
 20
1.0
 30
0.0
  9
$USERI1
 70
     0
  9
$USERI2
 70
     0
  9
$USERI3
 70
     0
  9
$USERI4
 70
     0
  9
$USERI5
 70
     0
  9
$USERR1
 40
0.0
  9
$USERR2
 40
0.0
  9
$USERR3
 40
0.0
  9
$USERR4
 40
0.0
  9
$USERR5
 40
0.0
  9
$WORLDVIEW
 70
     1
  9
$SHADEDGE
 70
     3
  9
$SHADEDIF
 70
    70
  9
$TILEMODE
 70
     1
  9
$MAXACTVP
 70
    64
  9
$PINSBASE
 10
0.0
 20
0.0
 30
0.0
  9
$PLIMCHECK
 70
     0
  9
$PEXTMIN
 10
1.000000000000000E+20
 20
1.000000000000000E+20
 30
1.000000000000000E+20
  9
$PEXTMAX
 10
-1.000000000000000E+20
 20
-1.000000000000000E+20
 30
-1.000000000000000E+20
  9
$PLIMMIN
 10
0.0
 20
0.0
  9
$PLIMMAX
 10
420.0
 20
297.0
  9
$UNITMODE
 70
     0
  9
$VISRETAIN
 70
     1
  9
$PLINEGEN
 70
     0
  9
$PSLTSCALE
 70
     1
  9
$TREEDEPTH
 70
  3020
  9
$PICKSTYLE
 70
     1
  9
$CMLSTYLE
  2
STANDARD
  9
$CMLJUST
 70
     0
  9
$CMLSCALE
 40
20.0
  9
$PROXYGRAPHICS
 70
     1
  9
$MEASUREMENT
 70
     1
  0
ENDSEC
  0
SECTION
  2
CLASSES
  0
CLASS
  1
ACDBDICTIONARYWDFLT
  2
AcDbDictionaryWithDefault
  3
ObjectDBX Classes
 90
        0
280
     0
281
     0
  0
CLASS
  1
VISUALSTYLE
  2
AcDbVisualStyle
  3
ObjectDBX Classes
 90
     4095
280
     0
281
     0
  0
CLASS
  1
MATERIAL
  2
AcDbMaterial
  3
ObjectDBX Classes
 90
     1153
280
     0
281
     0
  0
CLASS
  1
SCALE
  2
AcDbScale
  3
ObjectDBX Classes
 90
     1153
280
     0
281
     0
  0
CLASS
  1
TABLESTYLE
  2
AcDbTableStyle
  3
ObjectDBX Classes
 90
     4095
280
     0
281
     0
  0
CLASS
  1
MLEADERSTYLE
  2
AcDbMLeaderStyle
  3
ACDB_MLEADERSTYLE_CLASS
 90
     4095
280
     0
281
     0
  0
CLASS
  1
SUN
  2
AcDbSun
  3
SCENEOE
 90
     1153
280
     0
281
     0
  0
CLASS
  1
DICTIONARYVAR
  2
AcDbDictionaryVar
  3
ObjectDBX Classes
 90
        0
280
     0
281
     0
  0
CLASS
  1
XRECORD
  2
AcDbXrecord
  3
ObjectDBX Classes
 90
        0
280
     0
281
     0
  0
CLASS
  1
LWPOLYLINE
  2
AcDbPolyline
  3
ObjectDBX Classes
 90
        0
280
     0
281
     1
  0
CLASS
  1
HATCH
  2
AcDbHatch
  3
ObjectDBX Classes
 90
        0
280
     0
281
     1
  0
CLASS
  1
ACDBPLACEHOLDER
  2
AcDbPlaceHolder
  3
ObjectDBX Classes
 90
        0
280
     0
281
     0
  0
CLASS
  1
LAYOUT
  2
AcDbLayout
  3
ObjectDBX Classes
 90
        0
280
     0
281
     0
  0
ENDSEC
  0
SECTION
  2
TABLES
  0
TABLE
  2
VPORT
  5
8
102
{ACAD_XDICTIONARY
360
5AA
102
}
330
0
100
AcDbSymbolTable
 70
     1
  0
VPORT
  5
29
330
8
100
AcDbSymbolTableRecord
100
AcDbViewportTableRecord
  2
*ACTIVE
 70
     0
 10
0.0
 20
0.0
 11
1.0
 21
1.0
 12
1950.0
 22
1450.0
 13
0.0
 23
0.0
 14
10.0
 24
10.0
 15
10.0
 25
10.0
 16
0.0
 26
0.0
 36
1.0
 17
0.0
 27
0.0
 37
0.0
 40
2700.0
 41
1.407407407407408
 42
50.0
 43
0.0
 44
0.0
 50
0.0
 51
0.0
 71
     0
 72
  1000
 73
     1
 74
     3
 75
     0
 76
     0
 77
     0
 78
     0
  0
ENDTAB
  0
TABLE
  2
LTYPE
  5
5
330
0
100
AcDbSymbolTable
 70
     6
  0
LTYPE
  5
14
330
5
100
AcDbSymbolTableRecord
100
AcDbLinetypeTableRecord
  2
BYBLOCK
 70
     0
  3

 72
    65
 73
     0
 40
0.0
  0
LTYPE
  5
15
330
5
100
AcDbSymbolTableRecord
100
AcDbLinetypeTableRecord
  2
BYLAYER
 70
     0
  3

 72
    65
 73
     0
 40
0.0
  0
LTYPE
  5
16
330
5
100
AcDbSymbolTableRecord
100
AcDbLinetypeTableRecord
  2
CONTINUOUS
 70
     0
  3
Solid line
 72
    65
 73
     0
 40
0.0
  0
LTYPE
  5
6E
330
5
100
AcDbSymbolTableRecord
100
AcDbLinetypeTableRecord
  2
HIDDEN
 70
     0
  3
Hidden __ __ __ __ __ __ __ __ __ __ __ __ __ __
 72
    65
 73
     2
 40
9.524999999999999
 49
6.35
 74
     0
 49
-3.175
 74
     0
  0
LTYPE
  5
6F
330
5
100
AcDbSymbolTableRecord
100
AcDbLinetypeTableRecord
  2
CENTER
 70
     0
  3
Center ____ _ ____ _ ____ _ ____ _ ____ _ ____
 72
    65
 73
     4
 40
50.8
 49
31.75
 74
     0
 49
-6.35
 74
     0
 49
6.35
 74
     0
 49
-6.35
 74
     0
  0
LTYPE
  5
70
330
5
100
AcDbSymbolTableRecord
100
AcDbLinetypeTableRecord
  2
PHANTOM
 70
     0
  3
Phantom ______  __  __  ______  __  __  ______ 
 72
    65
 73
     6
 40
63.50000000000001
 49
31.75
 74
     0
 49
-6.35
 74
     0
 49
6.35
 74
     0
 49
-6.35
 74
     0
 49
6.35
 74
     0
 49
-6.35
 74
     0
  0
LTYPE
  5
71
330
5
100
AcDbSymbolTableRecord
100
AcDbLinetypeTableRecord
  2
ACAD_ISO06W100
 70
     0
  3
ISO long-dash triple-dot ____ ... ____ ... ____
 72
    65
 73
     8
 40
36.0
 49
24.0
 74
     0
 49
-3.0
 74
     0
 49
0.0
 74
     0
 49
-3.0
 74
     0
 49
0.0
 74
     0
 49
-3.0
 74
     0
 49
0.0
 74
     0
 49
-3.0
 74
     0
  0
LTYPE
  5
72
330
5
100
AcDbSymbolTableRecord
100
AcDbLinetypeTableRecord
  2
ACAD_ISO15W100
 70
     0
  3
ISO double-dash triple-dot __ __ . . . __ __ . .
 72
    65
 73
    10
 40
39.0
 49
12.0
 74
     0
 49
-3.0
 74
     0
 49
12.0
 74
     0
 49
-3.0
 74
     0
 49
0.0
 74
     0
 49
-3.0
 74
     0
 49
0.0
 74
     0
 49
-3.0
 74
     0
 49
0.0
 74
     0
 49
-3.0
 74
     0
  0
ENDTAB
  0
TABLE
  2
LAYER
  5
2
330
0
100
AcDbSymbolTable
 70
     6
  0
LAYER
  5
10
330
2
100
AcDbSymbolTableRecord
100
AcDbLayerTableRecord
  2
0
 70
     0
 62
     7
  6
CONTINUOUS
  0
LAYER
  5
75
330
2
100
AcDbSymbolTableRecord
100
AcDbLayerTableRecord
  2
LAY-10
 70
     0
 62
     7
  6
CONTINUOUS
  0
LAYER
  5
76
330
2
100
AcDbSymbolTableRecord
100
AcDbLayerTableRecord
  2
LAY-11
 70
     0
 62
     7
  6
CONTINUOUS
  0
LAYER
  5
77
330
2
100
AcDbSymbolTableRecord
100
AcDbLayerTableRecord
  2
LAY-20
 70
     0
 62
     7
  6
CONTINUOUS
  0
LAYER
  5
78
330
2
100
AcDbSymbolTableRecord
100
AcDbLayerTableRecord
  2
LAY-255
 70
     0
 62
     7
  6
CONTINUOUS
  0
LAYER
  5
4D4
330
2
100
AcDbSymbolTableRecord
100
AcDbLayerTableRecord
  2
DEFPOINTS
 70
     0
 62
     7
  6
CONTINUOUS
  0
ENDTAB
  0
TABLE
  2
STYLE
  5
3
330
0
100
AcDbSymbolTable
 70
     4
  0
STYLE
  5
11
330
3
100
AcDbSymbolTableRecord
100
AcDbTextStyleTableRecord
  2
STANDARD
 70
     0
 40
0.0
 41
1.0
 50
0.0
 71
     0
 42
2.5
  3
simplex
  4
bigfont
  0
STYLE
  5
73
330
3
100
AcDbSymbolTableRecord
100
AcDbTextStyleTableRecord
  2
EXCADSTD
 70
     0
 40
0.0
 41
1.0
 50
0.0
 71
     0
 42
2.5
  3
simplex
  4
bigfont
  0
STYLE
  5
74
330
3
100
AcDbSymbolTableRecord
100
AcDbTextStyleTableRecord
  2
EXCADVERT
 70
     4
 40
0.0
 41
1.0
 50
0.0
 71
     0
 42
2.5
  3
simplex
  4
bigfont
  0
STYLE
  5
4D2
330
3
100
AcDbSymbolTableRecord
100
AcDbTextStyleTableRecord
  2
EXCADDIM1
 70
     0
 40
0.0
 41
0.84
 50
0.0
 71
     0
 42
2.5
  3
simplex
  4
bigfont
  0
ENDTAB
  0
TABLE
  2
VIEW
  5
6
330
0
100
AcDbSymbolTable
 70
     0
  0
ENDTAB
  0
TABLE
  2
UCS
  5
7
330
0
100
AcDbSymbolTable
 70
     0
  0
ENDTAB
  0
TABLE
  2
APPID
  5
9
330
0
100
AcDbSymbolTable
 70
     2
  0
APPID
  5
12
330
9
100
AcDbSymbolTableRecord
100
AcDbRegAppTableRecord
  2
ACAD
 70
     0
  0
APPID
  5
5B4
330
9
100
AcDbSymbolTableRecord
100
AcDbRegAppTableRecord
  2
ACAD_MLEADERVER
 70
     0
  0
ENDTAB
  0
TABLE
  2
DIMSTYLE
  5
A
330
0
100
AcDbSymbolTable
 70
     1
  0
DIMSTYLE
105
27
102
{ACAD_REACTORS
330
4D3
330
4E1
330
4EE
330
4FB
330
508
330
515
330
522
330
52F
330
53C
330
549
102
}
330
A
100
AcDbSymbolTableRecord
100
AcDbDimStyleTableRecord
  2
ISO-25
 70
     0
  3

  4

  5

  6

  7

 40
1.0
 41
2.5
 42
0.625
 43
3.75
 44
1.25
 45
0.0
 46
0.0
 47
0.0
 48
0.0
140
2.5
141
2.5
142
0.0
143
0.03937007874016
144
1.0
145
0.0
146
1.0
147
0.625
 71
     0
 72
     0
 73
     0
 74
     0
 75
     0
 76
     0
 77
     1
 78
     8
170
     0
171
     3
172
     1
173
     0
174
     0
175
     0
176
     0
177
     0
178
     0
270
     2
271
     2
272
     2
273
     2
274
     3
340
11
275
     0
280
     0
281
     0
282
     0
283
     0
284
     8
285
     0
286
     0
287
     5
288
     0
  0
ENDTAB
  0
TABLE
  2
BLOCK_RECORD
  5
1
330
0
100
AcDbSymbolTable
 70
    24
  0
BLOCK_RECORD
  5
1F
330
1
100
AcDbSymbolTableRecord
100
AcDbBlockTableRecord
  2
*MODEL_SPACE
  0
BLOCK_RECORD
  5
1B
330
1
100
AcDbSymbolTableRecord
100
AcDbBlockTableRecord
  2
*PAPER_SPACE
  0
BLOCK_RECORD
  5
79
330
1
100
AcDbSymbolTableRecord
100
AcDbBlockTableRecord
  2
EX_NORM
  0
BLOCK_RECORD
  5
7C
330
1
100
AcDbSymbolTableRecord
100
AcDbBlockTableRecord
  2
EX_BNORM
  0
BLOCK_RECORD
  5
7F
330
1
100
AcDbSymbolTableRecord
100
AcDbBlockTableRecord
  2
EX_BCIR
  0
BLOCK_RECORD
  5
82
330
1
100
AcDbSymbolTableRecord
100
AcDbBlockTableRecord
  2
EX_RCIVIL
  0
BLOCK_RECORD
  5
85
330
1
100
AcDbSymbolTableRecord
100
AcDbBlockTableRecord
  2
EX_SLANT
  0
BLOCK_RECORD
  5
88
330
1
100
AcDbSymbolTableRecord
100
AcDbBlockTableRecord
  2
EX_NONE
  0
BLOCK_RECORD
  5
8B
330
1
100
AcDbSymbolTableRecord
100
AcDbBlockTableRecord
  2
EX_CIVIL
  0
BLOCK_RECORD
  5
8E
330
1
100
AcDbSymbolTableRecord
100
AcDbBlockTableRecord
  2
EX_WCIR
  0
BLOCK_RECORD
  5
91
330
1
100
AcDbSymbolTableRecord
100
AcDbBlockTableRecord
  2
EX_WCIR2
  0
BLOCK_RECORD
  5
94
330
1
100
AcDbSymbolTableRecord
100
AcDbBlockTableRecord
  2
EX_WNORM
  0
BLOCK_RECORD
  5
97
330
1
100
AcDbSymbolTableRecord
100
AcDbBlockTableRecord
  2
EX_NNORM
  0
BLOCK_RECORD
  5
9A
330
1
100
AcDbSymbolTableRecord
100
AcDbBlockTableRecord
  2
EX_BBOX
  0
BLOCK_RECORD
  5
9D
330
1
100
AcDbSymbolTableRecord
100
AcDbBlockTableRecord
  2
EX_WBOX
  0
BLOCK_RECORD
  5
A0
330
1
100
AcDbSymbolTableRecord
100
AcDbBlockTableRecord
  2
EX_INTEGRAL
  0
BLOCK_RECORD
  5
4D5
330
1
100
AcDbSymbolTableRecord
100
AcDbBlockTableRecord
  2
*D15
  0
BLOCK_RECORD
  5
4E2
330
1
100
AcDbSymbolTableRecord
100
AcDbBlockTableRecord
  2
*D16
  0
BLOCK_RECORD
  5
4EF
330
1
100
AcDbSymbolTableRecord
100
AcDbBlockTableRecord
  2
*D17
  0
BLOCK_RECORD
  5
4FC
330
1
100
AcDbSymbolTableRecord
100
AcDbBlockTableRecord
  2
*D18
  0
BLOCK_RECORD
  5
509
330
1
100
AcDbSymbolTableRecord
100
AcDbBlockTableRecord
  2
*D19
  0
BLOCK_RECORD
  5
516
330
1
100
AcDbSymbolTableRecord
100
AcDbBlockTableRecord
  2
*D20
  0
BLOCK_RECORD
  5
523
330
1
100
AcDbSymbolTableRecord
100
AcDbBlockTableRecord
  2
*D21
  0
BLOCK_RECORD
  5
530
330
1
100
AcDbSymbolTableRecord
100
AcDbBlockTableRecord
  2
*D22
  0
BLOCK_RECORD
  5
53D
330
1
100
AcDbSymbolTableRecord
100
AcDbBlockTableRecord
  2
*D23
  0
BLOCK_RECORD
  5
54A
330
1
100
AcDbSymbolTableRecord
100
AcDbBlockTableRecord
  2
*D24
  0
ENDTAB
  0
ENDSEC
  0
SECTION
  2
BLOCKS
  0
BLOCK
  5
20
330
1F
100
AcDbEntity
  8
0
100
AcDbBlockBegin
  2
*MODEL_SPACE
 70
     0
 10
0.0
 20
0.0
 30
0.0
  3
*MODEL_SPACE
  1

  0
ENDBLK
  5
21
330
1F
100
AcDbEntity
  8
0
100
AcDbBlockEnd
  0
BLOCK
  5
1C
330
1B
100
AcDbEntity
 67
     1
  8
0
100
AcDbBlockBegin
  2
*PAPER_SPACE
 70
     0
 10
0.0
 20
0.0
 30
0.0
  3
*PAPER_SPACE
  1

  0
ENDBLK
  5
1D
330
1B
100
AcDbEntity
 67
     1
  8
0
100
AcDbBlockEnd
  0
BLOCK
  5
7A
330
79
100
AcDbEntity
  8
0
100
AcDbBlockBegin
  2
EX_NORM
 70
     0
 10
0.0
 20
0.0
 30
0.0
  3
EX_NORM
  1

  0
LINE
  5
A3
330
79
100
AcDbEntity
  8
0
  6
CONTINUOUS
 62
     0
100
AcDbLine
 10
0.0
 20
0.0
 30
0.0
 11
-1.0
 21
0.0
 31
0.0
  0
LINE
  5
A4
330
79
100
AcDbEntity
  8
0
  6
CONTINUOUS
 62
     0
100
AcDbLine
 10
0.0
 20
0.0
 30
0.0
 11
-1.0
 21
0.166666667
 31
0.0
  0
LINE
  5
A5
330
79
100
AcDbEntity
  8
0
  6
CONTINUOUS
 62
     0
100
AcDbLine
 10
0.0
 20
0.0
 30
0.0
 11
-1.0
 21
-0.166666667
 31
0.0
  0
ENDBLK
  5
7B
330
79
100
AcDbEntity
  8
0
100
AcDbBlockEnd
  0
BLOCK
  5
7D
330
7C
100
AcDbEntity
  8
0
100
AcDbBlockBegin
  2
EX_BNORM
 70
     0
 10
0.0
 20
0.0
 30
0.0
  3
EX_BNORM
  1

  0
LINE
  5
A6
330
7C
100
AcDbEntity
  8
0
  6
CONTINUOUS
 62
     0
100
AcDbLine
 10
0.0
 20
0.0
 30
0.0
 11
-1.0
 21
0.0
 31
0.0
  0
LINE
  5
A7
330
7C
100
AcDbEntity
  8
0
  6
CONTINUOUS
 62
     0
100
AcDbLine
 10
0.0
 20
0.0
 30
0.0
 11
-1.0
 21
0.166666667
 31
0.0
  0
LINE
  5
A8
330
7C
100
AcDbEntity
  8
0
  6
CONTINUOUS
 62
     0
100
AcDbLine
 10
0.0
 20
0.0
 30
0.0
 11
-1.0
 21
-0.166666667
 31
0.0
  0
LINE
  5
A9
330
7C
100
AcDbEntity
  8
0
  6
CONTINUOUS
 62
     0
100
AcDbLine
 10
0.0
 20
0.0
 30
0.0
 11
-1.0
 21
0.083333333
 31
0.0
  0
LINE
  5
AA
330
7C
100
AcDbEntity
  8
0
  6
CONTINUOUS
 62
     0
100
AcDbLine
 10
0.0
 20
0.0
 30
0.0
 11
-1.0
 21
-0.083333333
 31
0.0
  0
LINE
  5
AB
330
7C
100
AcDbEntity
  8
0
  6
CONTINUOUS
 62
     0
100
AcDbLine
 10
-1.0
 20
0.166666667
 30
0.0
 11
-1.0
 21
-0.166666667
 31
0.0
  0
ENDBLK
  5
7E
330
7C
100
AcDbEntity
  8
0
100
AcDbBlockEnd
  0
BLOCK
  5
80
330
7F
100
AcDbEntity
  8
0
100
AcDbBlockBegin
  2
EX_BCIR
 70
     0
 10
0.0
 20
0.0
 30
0.0
  3
EX_BCIR
  1

  0
LINE
  5
AC
330
7F
100
AcDbEntity
  8
0
  6
CONTINUOUS
 62
     0
100
AcDbLine
 10
0.0
 20
0.0
 30
0.0
 11
-1.0
 21
0.0
 31
0.0
  0
CIRCLE
  5
AD
330
7F
100
AcDbEntity
  8
0
  6
CONTINUOUS
 62
     0
100
AcDbCircle
 10
0.0
 20
0.0
 30
0.0
 40
0.5
  0
CIRCLE
  5
AE
330
7F
100
AcDbEntity
  8
0
  6
CONTINUOUS
 62
     0
100
AcDbCircle
 10
0.0
 20
0.0
 30
0.0
 40
0.25
  0
ENDBLK
  5
81
330
7F
100
AcDbEntity
  8
0
100
AcDbBlockEnd
  0
BLOCK
  5
83
330
82
100
AcDbEntity
  8
0
100
AcDbBlockBegin
  2
EX_RCIVIL
 70
     0
 10
0.0
 20
0.0
 30
0.0
  3
EX_RCIVIL
  1

  0
LINE
  5
AF
330
82
100
AcDbEntity
  8
0
  6
CONTINUOUS
 62
     0
100
AcDbLine
 10
0.0
 20
0.0
 30
0.0
 11
-1.0
 21
0.0
 31
0.0
  0
LINE
  5
B0
330
82
100
AcDbEntity
  8
0
  6
CONTINUOUS
 62
     0
100
AcDbLine
 10
-1.0
 20
-0.25
 30
0.0
 11
0.0
 21
-0.25
 31
0.0
  0
LINE
  5
B1
330
82
100
AcDbEntity
  8
0
  6
CONTINUOUS
 62
     0
100
AcDbLine
 10
-1.0
 20
-0.125
 30
0.0
 11
0.0
 21
-0.125
 31
0.0
  0
ENDBLK
  5
84
330
82
100
AcDbEntity
  8
0
100
AcDbBlockEnd
  0
BLOCK
  5
86
330
85
100
AcDbEntity
  8
0
100
AcDbBlockBegin
  2
EX_SLANT
 70
     0
 10
0.0
 20
0.0
 30
0.0
  3
EX_SLANT
  1

  0
LINE
  5
B2
330
85
100
AcDbEntity
  8
0
  6
CONTINUOUS
 62
     0
100
AcDbLine
 10
0.0
 20
0.0
 30
0.0
 11
-1.0
 21
0.0
 31
0.0
  0
LINE
  5
B3
330
85
100
AcDbEntity
  8
0
  6
CONTINUOUS
 62
     0
100
AcDbLine
 10
0.707106781
 20
0.707106781
 30
0.0
 11
-0.707106781
 21
-0.707106781
 31
0.0
  0
ENDBLK
  5
87
330
85
100
AcDbEntity
  8
0
100
AcDbBlockEnd
  0
BLOCK
  5
89
330
88
100
AcDbEntity
  8
0
100
AcDbBlockBegin
  2
EX_NONE
 70
     0
 10
0.0
 20
0.0
 30
0.0
  3
EX_NONE
  1

  0
LINE
  5
B4
330
88
100
AcDbEntity
  8
0
  6
CONTINUOUS
 62
     0
100
AcDbLine
 10
0.0
 20
0.0
 30
0.0
 11
-1.0
 21
0.0
 31
0.0
  0
ENDBLK
  5
8A
330
88
100
AcDbEntity
  8
0
100
AcDbBlockEnd
  0
BLOCK
  5
8C
330
8B
100
AcDbEntity
  8
0
100
AcDbBlockBegin
  2
EX_CIVIL
 70
     0
 10
0.0
 20
0.0
 30
0.0
  3
EX_CIVIL
  1

  0
LINE
  5
B5
330
8B
100
AcDbEntity
  8
0
  6
CONTINUOUS
 62
     0
100
AcDbLine
 10
0.0
 20
0.0
 30
0.0
 11
-1.0
 21
0.0
 31
0.0
  0
LINE
  5
B6
330
8B
100
AcDbEntity
  8
0
  6
CONTINUOUS
 62
     0
100
AcDbLine
 10
-1.0
 20
0.25
 30
0.0
 11
0.0
 21
0.25
 31
0.0
  0
LINE
  5
B7
330
8B
100
AcDbEntity
  8
0
  6
CONTINUOUS
 62
     0
100
AcDbLine
 10
-1.0
 20
0.125
 30
0.0
 11
0.0
 21
0.125
 31
0.0
  0
ENDBLK
  5
8D
330
8B
100
AcDbEntity
  8
0
100
AcDbBlockEnd
  0
BLOCK
  5
8F
330
8E
100
AcDbEntity
  8
0
100
AcDbBlockBegin
  2
EX_WCIR
 70
     0
 10
0.0
 20
0.0
 30
0.0
  3
EX_WCIR
  1

  0
LINE
  5
B8
330
8E
100
AcDbEntity
  8
0
  6
CONTINUOUS
 62
     0
100
AcDbLine
 10
0.0
 20
0.0
 30
0.0
 11
-1.0
 21
0.0
 31
0.0
  0
CIRCLE
  5
B9
330
8E
100
AcDbEntity
  8
0
  6
CONTINUOUS
 62
     0
100
AcDbCircle
 10
0.0
 20
0.0
 30
0.0
 40
0.5
  0
ENDBLK
  5
90
330
8E
100
AcDbEntity
  8
0
100
AcDbBlockEnd
  0
BLOCK
  5
92
330
91
100
AcDbEntity
  8
0
100
AcDbBlockBegin
  2
EX_WCIR2
 70
     0
 10
0.0
 20
0.0
 30
0.0
  3
EX_WCIR2
  1

  0
LINE
  5
BA
330
91
100
AcDbEntity
  8
0
  6
CONTINUOUS
 62
     0
100
AcDbLine
 10
-0.5
 20
0.0
 30
0.0
 11
-1.0
 21
0.0
 31
0.0
  0
CIRCLE
  5
BB
330
91
100
AcDbEntity
  8
0
  6
CONTINUOUS
 62
     0
100
AcDbCircle
 10
0.0
 20
0.0
 30
0.0
 40
0.5
  0
ENDBLK
  5
93
330
91
100
AcDbEntity
  8
0
100
AcDbBlockEnd
  0
BLOCK
  5
95
330
94
100
AcDbEntity
  8
0
100
AcDbBlockBegin
  2
EX_WNORM
 70
     0
 10
0.0
 20
0.0
 30
0.0
  3
EX_WNORM
  1

  0
LINE
  5
BC
330
94
100
AcDbEntity
  8
0
  6
CONTINUOUS
 62
     0
100
AcDbLine
 10
-1.0
 20
0.0
 30
0.0
 11
-1.0
 21
0.0
 31
0.0
  0
LINE
  5
BD
330
94
100
AcDbEntity
  8
0
  6
CONTINUOUS
 62
     0
100
AcDbLine
 10
0.0
 20
0.0
 30
0.0
 11
-1.0
 21
0.166666667
 31
0.0
  0
LINE
  5
BE
330
94
100
AcDbEntity
  8
0
  6
CONTINUOUS
 62
     0
100
AcDbLine
 10
0.0
 20
0.0
 30
0.0
 11
-1.0
 21
-0.166666667
 31
0.0
  0
LINE
  5
BF
330
94
100
AcDbEntity
  8
0
  6
CONTINUOUS
 62
     0
100
AcDbLine
 10
-1.0
 20
0.166666667
 30
0.0
 11
-1.0
 21
-0.166666667
 31
0.0
  0
ENDBLK
  5
96
330
94
100
AcDbEntity
  8
0
100
AcDbBlockEnd
  0
BLOCK
  5
98
330
97
100
AcDbEntity
  8
0
100
AcDbBlockBegin
  2
EX_NNORM
 70
     0
 10
0.0
 20
0.0
 30
0.0
  3
EX_NNORM
  1

  0
LINE
  5
C0
330
97
100
AcDbEntity
  8
0
  6
CONTINUOUS
 62
     0
100
AcDbLine
 10
0.0
 20
0.0
 30
0.0
 11
-1.0
 21
0.0
 31
0.0
  0
LINE
  5
C1
330
97
100
AcDbEntity
  8
0
  6
CONTINUOUS
 62
     0
100
AcDbLine
 10
0.0
 20
0.0
 30
0.0
 11
-1.0
 21
0.166666667
 31
0.0
  0
LINE
  5
C2
330
97
100
AcDbEntity
  8
0
  6
CONTINUOUS
 62
     0
100
AcDbLine
 10
0.0
 20
0.0
 30
0.0
 11
-1.0
 21
-0.166666667
 31
0.0
  0
LINE
  5
C3
330
97
100
AcDbEntity
  8
0
  6
CONTINUOUS
 62
     0
100
AcDbLine
 10
-1.0
 20
0.166666667
 30
0.0
 11
-1.0
 21
-0.166666667
 31
0.0
  0
ENDBLK
  5
99
330
97
100
AcDbEntity
  8
0
100
AcDbBlockEnd
  0
BLOCK
  5
9B
330
9A
100
AcDbEntity
  8
0
100
AcDbBlockBegin
  2
EX_BBOX
 70
     0
 10
0.0
 20
0.0
 30
0.0
  3
EX_BBOX
  1

  0
LINE
  5
C4
330
9A
100
AcDbEntity
  8
0
  6
CONTINUOUS
 62
     0
100
AcDbLine
 10
0.0
 20
0.0
 30
0.0
 11
-1.0
 21
0.0
 31
0.0
  0
LINE
  5
C5
330
9A
100
AcDbEntity
  8
0
  6
CONTINUOUS
 62
     0
100
AcDbLine
 10
-0.5
 20
0.5
 30
0.0
 11
0.5
 21
0.5
 31
0.0
  0
LINE
  5
C6
330
9A
100
AcDbEntity
  8
0
  6
CONTINUOUS
 62
     0
100
AcDbLine
 10
0.5
 20
0.5
 30
0.0
 11
0.5
 21
-0.5
 31
0.0
  0
LINE
  5
C7
330
9A
100
AcDbEntity
  8
0
  6
CONTINUOUS
 62
     0
100
AcDbLine
 10
0.5
 20
-0.5
 30
0.0
 11
-0.5
 21
-0.5
 31
0.0
  0
LINE
  5
C8
330
9A
100
AcDbEntity
  8
0
  6
CONTINUOUS
 62
     0
100
AcDbLine
 10
-0.5
 20
-0.5
 30
0.0
 11
-0.5
 21
0.5
 31
0.0
  0
LINE
  5
C9
330
9A
100
AcDbEntity
  8
0
  6
CONTINUOUS
 62
     0
100
AcDbLine
 10
-0.25
 20
0.25
 30
0.0
 11
0.25
 21
0.25
 31
0.0
  0
LINE
  5
CA
330
9A
100
AcDbEntity
  8
0
  6
CONTINUOUS
 62
     0
100
AcDbLine
 10
0.25
 20
0.25
 30
0.0
 11
0.25
 21
-0.25
 31
0.0
  0
LINE
  5
CB
330
9A
100
AcDbEntity
  8
0
  6
CONTINUOUS
 62
     0
100
AcDbLine
 10
0.25
 20
-0.25
 30
0.0
 11
-0.25
 21
-0.25
 31
0.0
  0
LINE
  5
CC
330
9A
100
AcDbEntity
  8
0
  6
CONTINUOUS
 62
     0
100
AcDbLine
 10
-0.25
 20
-0.25
 30
0.0
 11
-0.25
 21
0.25
 31
0.0
  0
ENDBLK
  5
9C
330
9A
100
AcDbEntity
  8
0
100
AcDbBlockEnd
  0
BLOCK
  5
9E
330
9D
100
AcDbEntity
  8
0
100
AcDbBlockBegin
  2
EX_WBOX
 70
     0
 10
0.0
 20
0.0
 30
0.0
  3
EX_WBOX
  1

  0
LINE
  5
CD
330
9D
100
AcDbEntity
  8
0
  6
CONTINUOUS
 62
     0
100
AcDbLine
 10
-0.5
 20
0.0
 30
0.0
 11
-1.0
 21
0.0
 31
0.0
  0
LINE
  5
CE
330
9D
100
AcDbEntity
  8
0
  6
CONTINUOUS
 62
     0
100
AcDbLine
 10
-0.5
 20
0.5
 30
0.0
 11
0.5
 21
0.5
 31
0.0
  0
LINE
  5
CF
330
9D
100
AcDbEntity
  8
0
  6
CONTINUOUS
 62
     0
100
AcDbLine
 10
0.5
 20
0.5
 30
0.0
 11
0.5
 21
-0.5
 31
0.0
  0
LINE
  5
D0
330
9D
100
AcDbEntity
  8
0
  6
CONTINUOUS
 62
     0
100
AcDbLine
 10
0.5
 20
-0.5
 30
0.0
 11
-0.5
 21
-0.5
 31
0.0
  0
LINE
  5
D1
330
9D
100
AcDbEntity
  8
0
  6
CONTINUOUS
 62
     0
100
AcDbLine
 10
-0.5
 20
-0.5
 30
0.0
 11
-0.5
 21
0.5
 31
0.0
  0
ENDBLK
  5
9F
330
9D
100
AcDbEntity
  8
0
100
AcDbBlockEnd
  0
BLOCK
  5
A1
330
A0
100
AcDbEntity
  8
0
100
AcDbBlockBegin
  2
EX_INTEGRAL
 70
     0
 10
0.0
 20
0.0
 30
0.0
  3
EX_INTEGRAL
  1

  0
LINE
  5
D2
330
A0
100
AcDbEntity
  8
0
  6
CONTINUOUS
 62
     0
100
AcDbLine
 10
0.0
 20
0.0
 30
0.0
 11
-1.0
 21
0.0
 31
0.0
  0
ARC
  5
D3
330
A0
100
AcDbEntity
  8
0
  6
CONTINUOUS
 62
     0
100
AcDbCircle
 10
0.542115
 20
0.164992
 30
0.0
 40
0.56667
100
AcDbArc
 50
73.07249033629006
 51
196.9275130221199
  0
ARC
  5
D4
330
A0
100
AcDbEntity
  8
0
  6
CONTINUOUS
 62
     0
100
AcDbCircle
 10
-0.542115
 20
-0.164992
 30
0.0
 40
0.56667
100
AcDbArc
 50
253.0724869220464
 51
16.9275130559125
  0
ENDBLK
  5
A2
330
A0
100
AcDbEntity
  8
0
100
AcDbBlockEnd
  0
BLOCK
  5
4D6
330
4D5
100
AcDbEntity
  8
0
100
AcDbBlockBegin
  2
*D15
 70
     1
 10
0.0
 20
0.0
 30
0.0
  3
*D15
  1

  0
LINE
  5
4D8
330
4D5
100
AcDbEntity
  8
LAY-20
  6
CONTINUOUS
 62
     4
100
AcDbLine
 10
467.8076841561203
 20
873.7520497555903
 30
0.0
 11
467.8076841561203
 21
1043.7520497556
 31
0.0
  0
LINE
  5
4D9
330
4D5
100
AcDbEntity
  8
LAY-20
  6
CONTINUOUS
 62
     4
100
AcDbLine
 10
1569.8076841562
 20
873.7520497555903
 30
0.0
 11
1569.8076841562
 21
1043.7520497556
 31
0.0
  0
LINE
  5
4DA
330
4D5
100
AcDbEntity
  8
LAY-20
  6
CONTINUOUS
 62
     4
100
AcDbLine
 10
492.8076841561203
 20
1028.7520497556
 30
0.0
 11
1544.8076841562
 21
1028.7520497556
 31
0.0
  0
INSERT
  5
4DB
330
4D5
100
AcDbEntity
  8
LAY-20
 62
     4
100
AcDbBlockReference
  2
EX_BNORM
 10
467.8076841561203
 20
1028.7520497556
 30
0.0
 41
25.0
 42
25.0
 43
25.0
 50
180.0
  0
INSERT
  5
4DC
330
4D5
100
AcDbEntity
  8
LAY-20
 62
     4
100
AcDbBlockReference
  2
EX_BNORM
 10
1569.8076841562
 20
1028.7520497556
 30
0.0
 41
25.0
 42
25.0
 43
25.0
  0
MTEXT
  5
4DD
330
4D5
100
AcDbEntity
  8
LAY-20
 62
     7
100
AcDbMText
 10
1018.80768415616
 20
1053.7520497556
 30
0.0
 40
31.181104
 41
0.0
 71
     5
 72
     1
  1
1102
  7
EXCADDIM1
  0
POINT
  5
4DE
330
4D5
100
AcDbEntity
  8
DEFPOINTS
 62
     0
100
AcDbPoint
 10
467.8076841561203
 20
858.7520497555903
 30
0.0
  0
POINT
  5
4DF
330
4D5
100
AcDbEntity
  8
DEFPOINTS
 62
     0
100
AcDbPoint
 10
1569.8076841562
 20
858.7520497555903
 30
0.0
  0
POINT
  5
4E0
330
4D5
100
AcDbEntity
  8
DEFPOINTS
 62
     0
100
AcDbPoint
 10
1569.8076841562
 20
1028.7520497556
 30
0.0
  0
ENDBLK
  5
4D7
330
4D5
100
AcDbEntity
  8
0
100
AcDbBlockEnd
  0
BLOCK
  5
4E3
330
4E2
100
AcDbEntity
  8
0
100
AcDbBlockBegin
  2
*D16
 70
     1
 10
0.0
 20
0.0
 30
0.0
  3
*D16
  1

  0
LINE
  5
4E5
330
4E2
100
AcDbEntity
  8
LAY-20
  6
CONTINUOUS
 62
     4
100
AcDbLine
 10
483.8076841562424
 20
873.7520497555934
 30
0.0
 11
483.8076841562424
 21
973.7520497556
 31
0.0
  0
LINE
  5
4E6
330
4E2
100
AcDbEntity
  8
LAY-20
  6
CONTINUOUS
 62
     4
100
AcDbLine
 10
1017.807684156115
 20
873.7520497555956
 30
0.0
 11
1017.807684156115
 21
973.7520497556
 31
0.0
  0
LINE
  5
4E7
330
4E2
100
AcDbEntity
  8
LAY-20
  6
CONTINUOUS
 62
     4
100
AcDbLine
 10
508.8076841562424
 20
958.7520497556
 30
0.0
 11
992.8076841561151
 21
958.7520497556
 31
0.0
  0
INSERT
  5
4E8
330
4E2
100
AcDbEntity
  8
LAY-20
 62
     4
100
AcDbBlockReference
  2
EX_BNORM
 10
483.8076841562424
 20
958.7520497556
 30
0.0
 41
25.0
 42
25.0
 43
25.0
 50
180.0
  0
INSERT
  5
4E9
330
4E2
100
AcDbEntity
  8
LAY-20
 62
     4
100
AcDbBlockReference
  2
EX_BNORM
 10
1017.807684156115
 20
958.7520497556
 30
0.0
 41
25.0
 42
25.0
 43
25.0
  0
MTEXT
  5
4EA
330
4E2
100
AcDbEntity
  8
LAY-20
 62
     7
100
AcDbMText
 10
750.8076841561788
 20
983.7520497556
 30
0.0
 40
31.181104
 41
0.0
 71
     5
 72
     1
  1
534
  7
EXCADDIM1
  0
POINT
  5
4EB
330
4E2
100
AcDbEntity
  8
DEFPOINTS
 62
     0
100
AcDbPoint
 10
483.8076841562424
 20
858.7520497555934
 30
0.0
  0
POINT
  5
4EC
330
4E2
100
AcDbEntity
  8
DEFPOINTS
 62
     0
100
AcDbPoint
 10
1017.807684156115
 20
858.7520497555956
 30
0.0
  0
POINT
  5
4ED
330
4E2
100
AcDbEntity
  8
DEFPOINTS
 62
     0
100
AcDbPoint
 10
1017.807684156115
 20
958.7520497556
 30
0.0
  0
ENDBLK
  5
4E4
330
4E2
100
AcDbEntity
  8
0
100
AcDbBlockEnd
  0
BLOCK
  5
4F0
330
4EF
100
AcDbEntity
  8
0
100
AcDbBlockBegin
  2
*D17
 70
     1
 10
0.0
 20
0.0
 30
0.0
  3
*D17
  1

  0
LINE
  5
4F2
330
4EF
100
AcDbEntity
  8
LAY-20
  6
CONTINUOUS
 62
     4
100
AcDbLine
 10
1468.8076841562
 20
718.7520497555901
 30
0.0
 11
1468.8076841562
 21
618.7520497555902
 31
0.0
  0
LINE
  5
4F3
330
4EF
100
AcDbEntity
  8
LAY-20
  6
CONTINUOUS
 62
     4
100
AcDbLine
 10
568.8076841561201
 20
718.75204975559
 30
0.0
 11
568.8076841561201
 21
618.7520497555902
 31
0.0
  0
LINE
  5
4F4
330
4EF
100
AcDbEntity
  8
LAY-20
  6
CONTINUOUS
 62
     4
100
AcDbLine
 10
1443.8076841562
 20
633.75204975559
 30
0.0
 11
593.8076841561201
 21
633.75204975559
 31
0.0
  0
INSERT
  5
4F5
330
4EF
100
AcDbEntity
  8
LAY-20
 62
     4
100
AcDbBlockReference
  2
EX_BNORM
 10
1468.8076841562
 20
633.75204975559
 30
0.0
 41
25.0
 42
25.0
 43
25.0
  0
INSERT
  5
4F6
330
4EF
100
AcDbEntity
  8
LAY-20
 62
     4
100
AcDbBlockReference
  2
EX_BNORM
 10
568.8076841561201
 20
633.75204975559
 30
0.0
 41
25.0
 42
25.0
 43
25.0
 50
180.0
  0
MTEXT
  5
4F7
330
4EF
100
AcDbEntity
  8
LAY-20
 62
     7
100
AcDbMText
 10
1018.80768415616
 20
658.7520497555898
 30
0.0
 40
31.181104
 41
0.0
 71
     5
 72
     1
  1
900
  7
EXCADDIM1
  0
POINT
  5
4F8
330
4EF
100
AcDbEntity
  8
DEFPOINTS
 62
     0
100
AcDbPoint
 10
1468.8076841562
 20
733.7520497555901
 30
0.0
  0
POINT
  5
4F9
330
4EF
100
AcDbEntity
  8
DEFPOINTS
 62
     0
100
AcDbPoint
 10
568.8076841561201
 20
733.75204975559
 30
0.0
  0
POINT
  5
4FA
330
4EF
100
AcDbEntity
  8
DEFPOINTS
 62
     0
100
AcDbPoint
 10
568.8076841561201
 20
633.75204975559
 30
0.0
  0
ENDBLK
  5
4F1
330
4EF
100
AcDbEntity
  8
0
100
AcDbBlockEnd
  0
BLOCK
  5
4FD
330
4FC
100
AcDbEntity
  8
0
100
AcDbBlockBegin
  2
*D18
 70
     1
 10
0.0
 20
0.0
 30
0.0
  3
*D18
  1

  0
LINE
  5
4FF
330
4FC
100
AcDbEntity
  8
LAY-20
  6
CONTINUOUS
 62
     4
100
AcDbLine
 10
1530.0076841562
 20
733.7520497555901
 30
0.0
 11
1713.706168965999
 21
733.7520497555901
 31
0.0
  0
LINE
  5
500
330
4FC
100
AcDbEntity
  8
LAY-20
  6
CONTINUOUS
 62
     4
100
AcDbLine
 10
1584.8076841562
 20
858.7520497555903
 30
0.0
 11
1713.706168965999
 21
858.7520497555903
 31
0.0
  0
LINE
  5
501
330
4FC
100
AcDbEntity
  8
LAY-20
  6
CONTINUOUS
 62
     4
100
AcDbLine
 10
1698.706168966
 20
758.7520497555901
 30
0.0
 11
1698.706168966
 21
833.7520497555903
 31
0.0
  0
INSERT
  5
502
330
4FC
100
AcDbEntity
  8
LAY-20
 62
     4
100
AcDbBlockReference
  2
EX_BNORM
 10
1698.706168966
 20
733.7520497555901
 30
0.0
 41
25.0
 42
25.0
 43
25.0
 50
270.0
  0
INSERT
  5
503
330
4FC
100
AcDbEntity
  8
LAY-20
 62
     4
100
AcDbBlockReference
  2
EX_BNORM
 10
1698.706168966
 20
858.7520497555903
 30
0.0
 41
25.0
 42
25.0
 43
25.0
 50
90.0
  0
MTEXT
  5
504
330
4FC
100
AcDbEntity
  8
LAY-20
 62
     7
100
AcDbMText
 10
1673.706168966
 20
796.25204975559
 30
0.0
 40
31.181104
 41
0.0
 71
     5
 72
     1
  1
125
  7
EXCADDIM1
 11
0.0
 21
1.0
 31
0.0
  0
POINT
  5
505
330
4FC
100
AcDbEntity
  8
DEFPOINTS
 62
     0
100
AcDbPoint
 10
1515.0076841562
 20
733.7520497555901
 30
0.0
  0
POINT
  5
506
330
4FC
100
AcDbEntity
  8
DEFPOINTS
 62
     0
100
AcDbPoint
 10
1569.8076841562
 20
858.7520497555903
 30
0.0
  0
POINT
  5
507
330
4FC
100
AcDbEntity
  8
DEFPOINTS
 62
     0
100
AcDbPoint
 10
1698.706168966
 20
858.7520497555903
 30
0.0
  0
ENDBLK
  5
4FE
330
4FC
100
AcDbEntity
  8
0
100
AcDbBlockEnd
  0
BLOCK
  5
50A
330
509
100
AcDbEntity
  8
0
100
AcDbBlockBegin
  2
*D19
 70
     1
 10
0.0
 20
0.0
 30
0.0
  3
*D19
  1

  0
LINE
  5
50C
330
509
100
AcDbEntity
  8
LAY-20
  6
CONTINUOUS
 62
     4
100
AcDbLine
 10
1561.0076841562
 20
800.0520497555999
 30
0.0
 11
1561.0076841562
 21
548.75204975559
 31
0.0
  0
LINE
  5
50D
330
509
100
AcDbEntity
  8
LAY-20
  6
CONTINUOUS
 62
     4
100
AcDbLine
 10
476.6076841561401
 20
800.0520497555999
 30
0.0
 11
476.6076841561401
 21
548.75204975559
 31
0.0
  0
LINE
  5
50E
330
509
100
AcDbEntity
  8
LAY-20
  6
CONTINUOUS
 62
     4
100
AcDbLine
 10
1536.0076841562
 20
563.75204975559
 30
0.0
 11
501.6076841561401
 21
563.75204975559
 31
0.0
  0
INSERT
  5
50F
330
509
100
AcDbEntity
  8
LAY-20
 62
     4
100
AcDbBlockReference
  2
EX_BNORM
 10
1561.0076841562
 20
563.75204975559
 30
0.0
 41
25.0
 42
25.0
 43
25.0
  0
INSERT
  5
510
330
509
100
AcDbEntity
  8
LAY-20
 62
     4
100
AcDbBlockReference
  2
EX_BNORM
 10
476.6076841561401
 20
563.75204975559
 30
0.0
 41
25.0
 42
25.0
 43
25.0
 50
180.0
  0
MTEXT
  5
511
330
509
100
AcDbEntity
  8
LAY-20
 62
     7
100
AcDbMText
 10
1018.80768415617
 20
588.75204975559
 30
0.0
 40
31.181104
 41
0.0
 71
     5
 72
     1
  1
1084
  7
EXCADDIM1
  0
POINT
  5
512
330
509
100
AcDbEntity
  8
DEFPOINTS
 62
     0
100
AcDbPoint
 10
1561.0076841562
 20
815.0520497555999
 30
0.0
  0
POINT
  5
513
330
509
100
AcDbEntity
  8
DEFPOINTS
 62
     0
100
AcDbPoint
 10
476.6076841561401
 20
815.0520497555999
 30
0.0
  0
POINT
  5
514
330
509
100
AcDbEntity
  8
DEFPOINTS
 62
     0
100
AcDbPoint
 10
476.6076841561401
 20
563.75204975559
 30
0.0
  0
ENDBLK
  5
50B
330
509
100
AcDbEntity
  8
0
100
AcDbBlockEnd
  0
BLOCK
  5
517
330
516
100
AcDbEntity
  8
0
100
AcDbBlockBegin
  2
*D20
 70
     1
 10
0.0
 20
0.0
 30
0.0
  3
*D20
  1

  0
LINE
  5
519
330
516
100
AcDbEntity
  8
LAY-20
  6
CONTINUOUS
 62
     4
100
AcDbLine
 10
1909.52351127151
 20
1213.47069133732
 30
0.0
 11
1739.5235112715
 21
1213.47069133732
 31
0.0
  0
LINE
  5
51A
330
516
100
AcDbEntity
  8
LAY-20
  6
CONTINUOUS
 62
     4
100
AcDbLine
 10
1909.52351127151
 20
2315.4706913374
 30
0.0
 11
1739.5235112715
 21
2315.4706913374
 31
0.0
  0
LINE
  5
51B
330
516
100
AcDbEntity
  8
LAY-20
  6
CONTINUOUS
 62
     4
100
AcDbLine
 10
1754.5235112715
 20
1238.47069133732
 30
0.0
 11
1754.5235112715
 21
2290.4706913374
 31
0.0
  0
INSERT
  5
51C
330
516
100
AcDbEntity
  8
LAY-20
 62
     4
100
AcDbBlockReference
  2
EX_BNORM
 10
1754.5235112715
 20
1213.47069133732
 30
0.0
 41
25.0
 42
25.0
 43
25.0
 50
270.0
  0
INSERT
  5
51D
330
516
100
AcDbEntity
  8
LAY-20
 62
     4
100
AcDbBlockReference
  2
EX_BNORM
 10
1754.5235112715
 20
2315.4706913374
 30
0.0
 41
25.0
 42
25.0
 43
25.0
 50
90.0
  0
MTEXT
  5
51E
330
516
100
AcDbEntity
  8
LAY-20
 62
     7
100
AcDbMText
 10
1729.5235112715
 20
1764.47069133736
 30
0.0
 40
31.181104
 41
0.0
 71
     5
 72
     1
  1
1102
  7
EXCADDIM1
 11
0.0
 21
1.0
 31
0.0
  0
POINT
  5
51F
330
516
100
AcDbEntity
  8
DEFPOINTS
 62
     0
100
AcDbPoint
 10
1924.52351127151
 20
1213.47069133732
 30
0.0
  0
POINT
  5
520
330
516
100
AcDbEntity
  8
DEFPOINTS
 62
     0
100
AcDbPoint
 10
1924.52351127151
 20
2315.4706913374
 30
0.0
  0
POINT
  5
521
330
516
100
AcDbEntity
  8
DEFPOINTS
 62
     0
100
AcDbPoint
 10
1754.5235112715
 20
2315.4706913374
 30
0.0
  0
ENDBLK
  5
518
330
516
100
AcDbEntity
  8
0
100
AcDbBlockEnd
  0
BLOCK
  5
524
330
523
100
AcDbEntity
  8
0
100
AcDbBlockBegin
  2
*D21
 70
     1
 10
0.0
 20
0.0
 30
0.0
  3
*D21
  1

  0
LINE
  5
526
330
523
100
AcDbEntity
  8
LAY-20
  6
CONTINUOUS
 62
     4
100
AcDbLine
 10
1909.523511271507
 20
1229.470691337442
 30
0.0
 11
1809.5235112715
 21
1229.470691337442
 31
0.0
  0
LINE
  5
527
330
523
100
AcDbEntity
  8
LAY-20
  6
CONTINUOUS
 62
     4
100
AcDbLine
 10
1909.523511271505
 20
2299.470691337415
 30
0.0
 11
1809.5235112715
 21
2299.470691337415
 31
0.0
  0
LINE
  5
528
330
523
100
AcDbEntity
  8
LAY-20
  6
CONTINUOUS
 62
     4
100
AcDbLine
 10
1824.5235112715
 20
1254.470691337442
 30
0.0
 11
1824.5235112715
 21
2274.470691337415
 31
0.0
  0
INSERT
  5
529
330
523
100
AcDbEntity
  8
LAY-20
 62
     4
100
AcDbBlockReference
  2
EX_BNORM
 10
1824.5235112715
 20
1229.470691337442
 30
0.0
 41
25.0
 42
25.0
 43
25.0
 50
270.0
  0
INSERT
  5
52A
330
523
100
AcDbEntity
  8
LAY-20
 62
     4
100
AcDbBlockReference
  2
EX_BNORM
 10
1824.5235112715
 20
2299.470691337415
 30
0.0
 41
25.0
 42
25.0
 43
25.0
 50
90.0
  0
MTEXT
  5
52B
330
523
100
AcDbEntity
  8
LAY-20
 62
     7
100
AcDbMText
 10
1799.5235112715
 20
1764.470691337428
 30
0.0
 40
31.181104
 41
0.0
 71
     5
 72
     1
  1
1070
  7
EXCADDIM1
 11
0.0
 21
1.0
 31
0.0
  0
POINT
  5
52C
330
523
100
AcDbEntity
  8
DEFPOINTS
 62
     0
100
AcDbPoint
 10
1924.523511271507
 20
1229.470691337442
 30
0.0
  0
POINT
  5
52D
330
523
100
AcDbEntity
  8
DEFPOINTS
 62
     0
100
AcDbPoint
 10
1924.523511271505
 20
2299.470691337415
 30
0.0
  0
POINT
  5
52E
330
523
100
AcDbEntity
  8
DEFPOINTS
 62
     0
100
AcDbPoint
 10
1824.5235112715
 20
2299.470691337415
 30
0.0
  0
ENDBLK
  5
525
330
523
100
AcDbEntity
  8
0
100
AcDbBlockEnd
  0
BLOCK
  5
531
330
530
100
AcDbEntity
  8
0
100
AcDbBlockBegin
  2
*D22
 70
     1
 10
0.0
 20
0.0
 30
0.0
  3
*D22
  1

  0
LINE
  5
533
330
530
100
AcDbEntity
  8
LAY-20
  6
CONTINUOUS
 62
     4
100
AcDbLine
 10
2064.52351127151
 20
2214.4706913374
 30
0.0
 11
2164.52351127151
 21
2214.470691337399
 31
0.0
  0
LINE
  5
534
330
530
100
AcDbEntity
  8
LAY-20
  6
CONTINUOUS
 62
     4
100
AcDbLine
 10
2064.52351127151
 20
1314.47069133732
 30
0.0
 11
2164.52351127151
 21
1314.47069133732
 31
0.0
  0
LINE
  5
535
330
530
100
AcDbEntity
  8
LAY-20
  6
CONTINUOUS
 62
     4
100
AcDbLine
 10
2149.52351127151
 20
2189.470691337399
 30
0.0
 11
2149.52351127151
 21
1339.47069133732
 31
0.0
  0
INSERT
  5
536
330
530
100
AcDbEntity
  8
LAY-20
 62
     4
100
AcDbBlockReference
  2
EX_BNORM
 10
2149.52351127151
 20
2214.470691337399
 30
0.0
 41
25.0
 42
25.0
 43
25.0
 50
90.0
  0
INSERT
  5
537
330
530
100
AcDbEntity
  8
LAY-20
 62
     4
100
AcDbBlockReference
  2
EX_BNORM
 10
2149.52351127151
 20
1314.47069133732
 30
0.0
 41
25.0
 42
25.0
 43
25.0
 50
270.0
  0
MTEXT
  5
538
330
530
100
AcDbEntity
  8
LAY-20
 62
     7
100
AcDbMText
 10
2124.52351127151
 20
1764.47069133736
 30
0.0
 40
31.181104
 41
0.0
 71
     5
 72
     1
  1
900
  7
EXCADDIM1
 11
0.0
 21
1.0
 31
0.0
  0
POINT
  5
539
330
530
100
AcDbEntity
  8
DEFPOINTS
 62
     0
100
AcDbPoint
 10
2049.52351127151
 20
2214.4706913374
 30
0.0
  0
POINT
  5
53A
330
530
100
AcDbEntity
  8
DEFPOINTS
 62
     0
100
AcDbPoint
 10
2049.52351127151
 20
1314.47069133732
 30
0.0
  0
POINT
  5
53B
330
530
100
AcDbEntity
  8
DEFPOINTS
 62
     0
100
AcDbPoint
 10
2149.52351127151
 20
1314.47069133732
 30
0.0
  0
ENDBLK
  5
532
330
530
100
AcDbEntity
  8
0
100
AcDbBlockEnd
  0
BLOCK
  5
53E
330
53D
100
AcDbEntity
  8
0
100
AcDbBlockBegin
  2
*D23
 70
     1
 10
0.0
 20
0.0
 30
0.0
  3
*D23
  1

  0
LINE
  5
540
330
53D
100
AcDbEntity
  8
LAY-20
  6
CONTINUOUS
 62
     4
100
AcDbLine
 10
1983.2235112715
 20
2306.6706913374
 30
0.0
 11
2234.52351127151
 21
2306.670691337399
 31
0.0
  0
LINE
  5
541
330
53D
100
AcDbEntity
  8
LAY-20
  6
CONTINUOUS
 62
     4
100
AcDbLine
 10
1983.2235112715
 20
1222.27069133734
 30
0.0
 11
2234.52351127151
 21
1222.27069133734
 31
0.0
  0
LINE
  5
542
330
53D
100
AcDbEntity
  8
LAY-20
  6
CONTINUOUS
 62
     4
100
AcDbLine
 10
2219.52351127151
 20
2281.670691337399
 30
0.0
 11
2219.52351127151
 21
1247.27069133734
 31
0.0
  0
INSERT
  5
543
330
53D
100
AcDbEntity
  8
LAY-20
 62
     4
100
AcDbBlockReference
  2
EX_BNORM
 10
2219.52351127151
 20
2306.670691337399
 30
0.0
 41
25.0
 42
25.0
 43
25.0
 50
90.0
  0
INSERT
  5
544
330
53D
100
AcDbEntity
  8
LAY-20
 62
     4
100
AcDbBlockReference
  2
EX_BNORM
 10
2219.52351127151
 20
1222.27069133734
 30
0.0
 41
25.0
 42
25.0
 43
25.0
 50
270.0
  0
MTEXT
  5
545
330
53D
100
AcDbEntity
  8
LAY-20
 62
     7
100
AcDbMText
 10
2194.52351127151
 20
1764.47069133737
 30
0.0
 40
31.181104
 41
0.0
 71
     5
 72
     1
  1
1084
  7
EXCADDIM1
 11
0.0
 21
1.0
 31
0.0
  0
POINT
  5
546
330
53D
100
AcDbEntity
  8
DEFPOINTS
 62
     0
100
AcDbPoint
 10
1968.2235112715
 20
2306.6706913374
 30
0.0
  0
POINT
  5
547
330
53D
100
AcDbEntity
  8
DEFPOINTS
 62
     0
100
AcDbPoint
 10
1968.2235112715
 20
1222.27069133734
 30
0.0
  0
POINT
  5
548
330
53D
100
AcDbEntity
  8
DEFPOINTS
 62
     0
100
AcDbPoint
 10
2219.52351127151
 20
1222.27069133734
 30
0.0
  0
ENDBLK
  5
53F
330
53D
100
AcDbEntity
  8
0
100
AcDbBlockEnd
  0
BLOCK
  5
54B
330
54A
100
AcDbEntity
  8
0
100
AcDbBlockBegin
  2
*D24
 70
     1
 10
0.0
 20
0.0
 30
0.0
  3
*D24
  1

  0
LINE
  5
54D
330
54A
100
AcDbEntity
  8
LAY-20
  6
CONTINUOUS
 62
     4
100
AcDbLine
 10
1189.0
 20
854.25204975558
 30
0.0
 11
1189.0
 21
858.7520497555801
 31
0.0
  0
LINE
  5
54E
330
54A
100
AcDbEntity
  8
LAY-20
  6
CONTINUOUS
 62
     4
100
AcDbLine
 10
1189.0
 20
829.25204975558
 30
0.0
 11
1189.0
 21
804.25204975558
 31
0.0
  0
LINE
  5
54F
330
54A
100
AcDbEntity
  8
LAY-20
  6
CONTINUOUS
 62
     4
100
AcDbLine
 10
1189.0
 20
883.7520497555801
 30
0.0
 11
1189.0
 21
908.7520497555801
 31
0.0
  0
INSERT
  5
550
330
54A
100
AcDbEntity
  8
LAY-20
 62
     4
100
AcDbBlockReference
  2
EX_BNORM
 10
1189.0
 20
854.25204975558
 30
0.0
 41
25.0
 42
25.0
 43
25.0
 50
90.0
  0
INSERT
  5
551
330
54A
100
AcDbEntity
  8
LAY-20
 62
     4
100
AcDbBlockReference
  2
EX_BNORM
 10
1189.0
 20
858.7520497555801
 30
0.0
 41
25.0
 42
25.0
 43
25.0
 50
270.0
  0
MTEXT
  5
552
330
54A
100
AcDbEntity
  8
LAY-20
 62
     7
100
AcDbMText
 10
1164.0
 20
923.7520497555796
 30
0.0
 40
31.181104
 41
0.0
 71
     5
 72
     1
  1
4.5
  7
EXCADDIM1
 11
0.0
 21
1.0
 31
0.0
  0
POINT
  5
553
330
54A
100
AcDbEntity
  8
DEFPOINTS
 62
     0
100
AcDbPoint
 10
1189.0
 20
854.25204975558
 30
0.0
  0
POINT
  5
554
330
54A
100
AcDbEntity
  8
DEFPOINTS
 62
     0
100
AcDbPoint
 10
1189.0
 20
858.7520497555801
 30
0.0
  0
POINT
  5
555
330
54A
100
AcDbEntity
  8
DEFPOINTS
 62
     0
100
AcDbPoint
 10
1189.0
 20
858.7520497555801
 30
0.0
  0
ENDBLK
  5
54C
330
54A
100
AcDbEntity
  8
0
100
AcDbBlockEnd
  0
ENDSEC
  0
SECTION
  2
ENTITIES
  0
LINE
  5
D5
330
1F
100
AcDbEntity
  8
LAY-10
  6
CONTINUOUS
 62
     7
100
AcDbLine
 10
740.8076841562399
 20
854.2520497555705
 30
0.0
 11
740.8076841562399
 21
838.2320497555698
 31
0.0
  0
LINE
  5
D6
330
1F
100
AcDbEntity
  8
LAY-10
  6
CONTINUOUS
 62
     7
100
AcDbLine
 10
760.8076841562399
 20
854.2520497555705
 30
0.0
 11
760.8076841562399
 21
838.2320497555698
 31
0.0
  0
ARC
  5
D7
330
1F
100
AcDbEntity
  8
LAY-10
  6
CONTINUOUS
 62
     7
100
AcDbCircle
 10
750.8076841562399
 20
862.4945750080957
 30
0.0
 40
26.24252525252526
100
AcDbArc
 50
247.6005879524137
 51
292.3994120475866
  0
LINE
  5
D8
330
1F
100
AcDbEntity
  8
LAY-10
  6
CONTINUOUS
 62
     7
100
AcDbLine
 10
732.3076841562398
 20
854.2520497555705
 30
0.0
 11
732.3076841562398
 21
838.2320497555698
 31
0.0
  0
ARC
  5
D9
330
1F
100
AcDbEntity
  8
LAY-10
  6
CONTINUOUS
 62
     7
100
AcDbCircle
 10
736.5576841562389
 20
841.8032871293078
 30
0.0
 40
5.55123737373727
100
AcDbArc
 50
220.0400382874338
 51
319.9599617125664
  0
LINE
  5
DA
330
1F
100
AcDbEntity
  8
LAY-10
  6
CONTINUOUS
 62
     7
100
AcDbLine
 10
769.3076841562398
 20
854.2520497555705
 30
0.0
 11
769.3076841562398
 21
838.2320497555698
 31
0.0
  0
ARC
  5
DB
330
1F
100
AcDbEntity
  8
LAY-10
  6
CONTINUOUS
 62
     7
100
AcDbCircle
 10
765.0576841562398
 20
841.8032871293078
 30
0.0
 40
5.55123737373741
100
AcDbArc
 50
220.0400382874356
 51
319.9599617125647
  0
LINE
  5
DC
330
1F
100
AcDbEntity
  8
LAY-10
  6
CONTINUOUS
 62
     7
100
AcDbLine
 10
737.3076841562389
 20
836.2520497555704
 30
0.0
 11
764.3076841562398
 21
836.2520497555704
 31
0.0
  0
LINE
  5
DD
330
1F
100
AcDbEntity
  8
LAY-10
  6
CONTINUOUS
 62
     7
100
AcDbLine
 10
1276.8076841562
 20
854.2520497555804
 30
0.0
 11
1276.8076841562
 21
838.23204975558
 31
0.0
  0
LINE
  5
DE
330
1F
100
AcDbEntity
  8
LAY-10
  6
CONTINUOUS
 62
     7
100
AcDbLine
 10
1296.8076841562
 20
854.2520497555804
 30
0.0
 11
1296.8076841562
 21
838.23204975558
 31
0.0
  0
ARC
  5
DF
330
1F
100
AcDbEntity
  8
LAY-10
  6
CONTINUOUS
 62
     7
100
AcDbCircle
 10
1286.8076841562
 20
862.4945750081059
 30
0.0
 40
26.24252525252526
100
AcDbArc
 50
247.6005879524137
 51
292.3994120475866
  0
LINE
  5
E0
330
1F
100
AcDbEntity
  8
LAY-10
  6
CONTINUOUS
 62
     7
100
AcDbLine
 10
1268.3076841562
 20
854.2520497555804
 30
0.0
 11
1268.3076841562
 21
838.23204975558
 31
0.0
  0
ARC
  5
E1
330
1F
100
AcDbEntity
  8
LAY-10
  6
CONTINUOUS
 62
     7
100
AcDbCircle
 10
1272.557684156199
 20
841.8032871293178
 30
0.0
 40
5.55123737373727
100
AcDbArc
 50
220.0400382874338
 51
319.9599617125664
  0
LINE
  5
E2
330
1F
100
AcDbEntity
  8
LAY-10
  6
CONTINUOUS
 62
     7
100
AcDbLine
 10
1305.3076841562
 20
854.2520497555804
 30
0.0
 11
1305.3076841562
 21
838.23204975558
 31
0.0
  0
ARC
  5
E3
330
1F
100
AcDbEntity
  8
LAY-10
  6
CONTINUOUS
 62
     7
100
AcDbCircle
 10
1301.0576841562
 20
841.8032871293178
 30
0.0
 40
5.55123737373741
100
AcDbArc
 50
220.0400382874356
 51
319.9599617125647
  0
LINE
  5
E4
330
1F
100
AcDbEntity
  8
LAY-10
  6
CONTINUOUS
 62
     7
100
AcDbLine
 10
1273.307684156199
 20
836.2520497555804
 30
0.0
 11
1300.3076841562
 21
836.2520497555804
 31
0.0
  0
LINE
  5
E5
330
1F
100
AcDbEntity
  8
LAY-10
  6
CONTINUOUS
 62
     7
100
AcDbLine
 10
1929.0235112715
 20
2258.470691337386
 30
0.0
 11
1945.0435112715
 21
2258.470691337386
 31
0.0
  0
LINE
  5
E6
330
1F
100
AcDbEntity
  8
LAY-10
  6
CONTINUOUS
 62
     7
100
AcDbLine
 10
1947.0235112715
 20
2289.330691337286
 30
0.0
 11
1947.0235112715
 21
2259.610691337386
 31
0.0
  0
LINE
  5
E7
330
1F
100
AcDbEntity
  8
LAY-10
  6
CONTINUOUS
 62
     7
100
AcDbLine
 10
1929.0235112715
 20
1270.465062405101
 30
0.0
 11
1945.0435112715
 21
1270.465062405101
 31
0.0
  0
LINE
  5
E8
330
1F
100
AcDbEntity
  8
LAY-10
  6
CONTINUOUS
 62
     7
100
AcDbLine
 10
1947.0235112715
 20
1239.6050624052
 30
0.0
 11
1947.0235112715
 21
1269.3250624051
 31
0.0
  0
LINE
  5
E9
330
1F
100
AcDbEntity
  8
LAY-10
  6
CONTINUOUS
 62
     7
100
AcDbLine
 10
1995.923511271654
 20
2253.202674191912
 30
0.0
 11
1997.591528417178
 21
2254.870691337434
 31
0.0
  0
LINE
  5
EA
330
1F
100
AcDbEntity
  8
LAY-10
  6
CONTINUOUS
 62
     7
100
AcDbLine
 10
1995.923511271654
 20
2239.06053856818
 30
0.0
 11
2011.733664040909
 21
2254.870691337434
 31
0.0
  0
LINE
  5
EB
330
1F
100
AcDbEntity
  8
LAY-10
  6
CONTINUOUS
 62
     7
100
AcDbLine
 10
1995.923511271654
 20
2224.91840294445
 30
0.0
 11
2025.875799664639
 21
2254.870691337434
 31
0.0
  0
LINE
  5
EC
330
1F
100
AcDbEntity
  8
LAY-10
  6
CONTINUOUS
 62
     7
100
AcDbLine
 10
1995.923511271654
 20
2210.776267320719
 30
0.0
 11
2040.01793528837
 21
2254.870691337434
 31
0.0
  0
LINE
  5
ED
330
1F
100
AcDbEntity
  8
LAY-10
  6
CONTINUOUS
 62
     7
100
AcDbLine
 10
1995.923511271654
 20
2196.634131696987
 30
0.0
 11
2042.723511271638
 21
2243.434131696971
 31
0.0
  0
LINE
  5
EE
330
1F
100
AcDbEntity
  8
LAY-10
  6
CONTINUOUS
 62
     7
100
AcDbLine
 10
1995.923511271654
 20
2182.491996073257
 30
0.0
 11
2042.723511271638
 21
2229.29199607324
 31
0.0
  0
LINE
  5
EF
330
1F
100
AcDbEntity
  8
LAY-10
  6
CONTINUOUS
 62
     7
100
AcDbLine
 10
1995.923511271654
 20
2168.349860449525
 30
0.0
 11
2042.723511271638
 21
2215.149860449509
 31
0.0
  0
LINE
  5
F0
330
1F
100
AcDbEntity
  8
LAY-10
  6
CONTINUOUS
 62
     7
100
AcDbLine
 10
1995.923511271654
 20
2154.207724825795
 30
0.0
 11
2042.723511271638
 21
2201.007724825778
 31
0.0
  0
LINE
  5
F1
330
1F
100
AcDbEntity
  8
LAY-10
  6
CONTINUOUS
 62
     7
100
AcDbLine
 10
1995.923511271654
 20
2140.065589202064
 30
0.0
 11
2042.723511271638
 21
2186.865589202047
 31
0.0
  0
LINE
  5
F2
330
1F
100
AcDbEntity
  8
LAY-10
  6
CONTINUOUS
 62
     7
100
AcDbLine
 10
1995.923511271654
 20
2125.923453578333
 30
0.0
 11
2042.723511271638
 21
2172.723453578316
 31
0.0
  0
LINE
  5
F3
330
1F
100
AcDbEntity
  8
LAY-10
  6
CONTINUOUS
 62
     7
100
AcDbLine
 10
1995.923511271654
 20
2111.781317954602
 30
0.0
 11
2042.723511271638
 21
2158.581317954586
 31
0.0
  0
LINE
  5
F4
330
1F
100
AcDbEntity
  8
LAY-10
  6
CONTINUOUS
 62
     7
100
AcDbLine
 10
1995.923511271654
 20
2097.639182330871
 30
0.0
 11
2042.723511271638
 21
2144.439182330854
 31
0.0
  0
LINE
  5
F5
330
1F
100
AcDbEntity
  8
LAY-10
  6
CONTINUOUS
 62
     7
100
AcDbLine
 10
1995.923511271654
 20
2083.49704670714
 30
0.0
 11
2042.723511271638
 21
2130.297046707124
 31
0.0
  0
LINE
  5
F6
330
1F
100
AcDbEntity
  8
LAY-10
  6
CONTINUOUS
 62
     7
100
AcDbLine
 10
1995.923511271641
 20
2069.354911083396
 30
0.0
 11
2042.723511271638
 21
2116.154911083392
 31
0.0
  0
LINE
  5
F7
330
1F
100
AcDbEntity
  8
LAY-10
  6
CONTINUOUS
 62
     7
100
AcDbLine
 10
1995.923511271641
 20
2055.212775459666
 30
0.0
 11
2042.723511271638
 21
2102.012775459661
 31
0.0
  0
LINE
  5
F8
330
1F
100
AcDbEntity
  8
LAY-10
  6
CONTINUOUS
 62
     7
100
AcDbLine
 10
1995.923511271641
 20
2041.070639835935
 30
0.0
 11
2042.723511271638
 21
2087.870639835931
 31
0.0
  0
LINE
  5
F9
330
1F
100
AcDbEntity
  8
LAY-10
  6
CONTINUOUS
 62
     7
100
AcDbLine
 10
1995.923511271641
 20
2026.928504212204
 30
0.0
 11
2042.723511271638
 21
2073.7285042122
 31
0.0
  0
LINE
  5
FA
330
1F
100
AcDbEntity
  8
LAY-10
  6
CONTINUOUS
 62
     7
100
AcDbLine
 10
1995.923511271642
 20
2012.786368588473
 30
0.0
 11
2042.723511271638
 21
2059.586368588469
 31
0.0
  0
LINE
  5
FB
330
1F
100
AcDbEntity
  8
LAY-10
  6
CONTINUOUS
 62
     7
100
AcDbLine
 10
1995.923511271641
 20
1998.644232964742
 30
0.0
 11
2042.723511271638
 21
2045.444232964738
 31
0.0
  0
LINE
  5
FC
330
1F
100
AcDbEntity
  8
LAY-10
  6
CONTINUOUS
 62
     7
100
AcDbLine
 10
1995.923511271641
 20
1984.502097341011
 30
0.0
 11
2042.723511271638
 21
2031.302097341007
 31
0.0
  0
LINE
  5
FD
330
1F
100
AcDbEntity
  8
LAY-10
  6
CONTINUOUS
 62
     7
100
AcDbLine
 10
1995.923511271641
 20
1970.35996171728
 30
0.0
 11
2042.723511271638
 21
2017.159961717276
 31
0.0
  0
LINE
  5
FE
330
1F
100
AcDbEntity
  8
LAY-10
  6
CONTINUOUS
 62
     7
100
AcDbLine
 10
1995.923511271641
 20
1956.217826093549
 30
0.0
 11
2042.723511271638
 21
2003.017826093545
 31
0.0
  0
LINE
  5
FF
330
1F
100
AcDbEntity
  8
LAY-10
  6
CONTINUOUS
 62
     7
100
AcDbLine
 10
1995.923511271642
 20
1942.075690469818
 30
0.0
 11
2042.723511271638
 21
1988.875690469814
 31
0.0
  0
LINE
  5
100
330
1F
100
AcDbEntity
  8
LAY-10
  6
CONTINUOUS
 62
     7
100
AcDbLine
 10
1995.923511271641
 20
1927.933554846087
 30
0.0
 11
2042.723511271638
 21
1974.733554846083
 31
0.0
  0
LINE
  5
101
330
1F
100
AcDbEntity
  8
LAY-10
  6
CONTINUOUS
 62
     7
100
AcDbLine
 10
1995.923511271641
 20
1913.791419222356
 30
0.0
 11
2042.723511271638
 21
1960.591419222352
 31
0.0
  0
LINE
  5
102
330
1F
100
AcDbEntity
  8
LAY-10
  6
CONTINUOUS
 62
     7
100
AcDbLine
 10
1995.923511271641
 20
1899.649283598625
 30
0.0
 11
2042.723511271638
 21
1946.449283598621
 31
0.0
  0
LINE
  5
103
330
1F
100
AcDbEntity
  8
LAY-10
  6
CONTINUOUS
 62
     7
100
AcDbLine
 10
1995.923511271641
 20
1885.507147974894
 30
0.0
 11
2042.723511271638
 21
1932.30714797489
 31
0.0
  0
LINE
  5
104
330
1F
100
AcDbEntity
  8
LAY-10
  6
CONTINUOUS
 62
     7
100
AcDbLine
 10
1995.923511271642
 20
1871.365012351164
 30
0.0
 11
2042.723511271638
 21
1918.165012351159
 31
0.0
  0
LINE
  5
105
330
1F
100
AcDbEntity
  8
LAY-10
  6
CONTINUOUS
 62
     7
100
AcDbLine
 10
1995.923511271641
 20
1857.222876727432
 30
0.0
 11
2042.723511271638
 21
1904.022876727429
 31
0.0
  0
LINE
  5
106
330
1F
100
AcDbEntity
  8
LAY-10
  6
CONTINUOUS
 62
     7
100
AcDbLine
 10
1995.923511271641
 20
1843.080741103702
 30
0.0
 11
2042.723511271638
 21
1889.880741103697
 31
0.0
  0
LINE
  5
107
330
1F
100
AcDbEntity
  8
LAY-10
  6
CONTINUOUS
 62
     7
100
AcDbLine
 10
1995.923511271641
 20
1828.938605479971
 30
0.0
 11
2042.723511271638
 21
1875.738605479967
 31
0.0
  0
LINE
  5
108
330
1F
100
AcDbEntity
  8
LAY-10
  6
CONTINUOUS
 62
     7
100
AcDbLine
 10
1995.923511271641
 20
1814.79646985624
 30
0.0
 11
2042.723511271638
 21
1861.596469856236
 31
0.0
  0
LINE
  5
109
330
1F
100
AcDbEntity
  8
LAY-10
  6
CONTINUOUS
 62
     7
100
AcDbLine
 10
1995.923511271642
 20
1800.654334232509
 30
0.0
 11
2042.723511271638
 21
1847.454334232505
 31
0.0
  0
LINE
  5
10A
330
1F
100
AcDbEntity
  8
LAY-10
  6
CONTINUOUS
 62
     7
100
AcDbLine
 10
1995.923511271641
 20
1786.512198608778
 30
0.0
 11
2042.723511271638
 21
1833.312198608774
 31
0.0
  0
LINE
  5
10B
330
1F
100
AcDbEntity
  8
LAY-10
  6
CONTINUOUS
 62
     7
100
AcDbLine
 10
1995.923511271641
 20
1772.370062985047
 30
0.0
 11
2042.723511271638
 21
1819.170062985043
 31
0.0
  0
LINE
  5
10C
330
1F
100
AcDbEntity
  8
LAY-10
  6
CONTINUOUS
 62
     7
100
AcDbLine
 10
1995.923511271641
 20
1758.227927361316
 30
0.0
 11
2042.723511271638
 21
1805.027927361312
 31
0.0
  0
LINE
  5
10D
330
1F
100
AcDbEntity
  8
LAY-10
  6
CONTINUOUS
 62
     7
100
AcDbLine
 10
1995.923511271641
 20
1744.085791737584
 30
0.0
 11
2042.723511271638
 21
1790.885791737581
 31
0.0
  0
LINE
  5
10E
330
1F
100
AcDbEntity
  8
LAY-10
  6
CONTINUOUS
 62
     7
100
AcDbLine
 10
1995.923511271642
 20
1729.943656113854
 30
0.0
 11
2042.723511271638
 21
1776.74365611385
 31
0.0
  0
LINE
  5
10F
330
1F
100
AcDbEntity
  8
LAY-10
  6
CONTINUOUS
 62
     7
100
AcDbLine
 10
1995.923511271641
 20
1715.801520490123
 30
0.0
 11
2042.723511271638
 21
1762.601520490119
 31
0.0
  0
LINE
  5
110
330
1F
100
AcDbEntity
  8
LAY-10
  6
CONTINUOUS
 62
     7
100
AcDbLine
 10
1995.923511271641
 20
1701.659384866392
 30
0.0
 11
2042.723511271638
 21
1748.459384866388
 31
0.0
  0
LINE
  5
111
330
1F
100
AcDbEntity
  8
LAY-10
  6
CONTINUOUS
 62
     7
100
AcDbLine
 10
1995.923511271641
 20
1687.517249242661
 30
0.0
 11
2042.723511271638
 21
1734.317249242657
 31
0.0
  0
LINE
  5
112
330
1F
100
AcDbEntity
  8
LAY-10
  6
CONTINUOUS
 62
     7
100
AcDbLine
 10
1995.923511271641
 20
1673.37511361893
 30
0.0
 11
2042.723511271638
 21
1720.175113618926
 31
0.0
  0
LINE
  5
113
330
1F
100
AcDbEntity
  8
LAY-10
  6
CONTINUOUS
 62
     7
100
AcDbLine
 10
1995.923511271642
 20
1659.232977995199
 30
0.0
 11
2042.723511271638
 21
1706.032977995196
 31
0.0
  0
LINE
  5
114
330
1F
100
AcDbEntity
  8
LAY-10
  6
CONTINUOUS
 62
     7
100
AcDbLine
 10
1995.923511271641
 20
1645.090842371468
 30
0.0
 11
2042.723511271638
 21
1691.890842371464
 31
0.0
  0
LINE
  5
115
330
1F
100
AcDbEntity
  8
LAY-10
  6
CONTINUOUS
 62
     7
100
AcDbLine
 10
1995.923511271641
 20
1630.948706747737
 30
0.0
 11
2042.723511271638
 21
1677.748706747733
 31
0.0
  0
LINE
  5
116
330
1F
100
AcDbEntity
  8
LAY-10
  6
CONTINUOUS
 62
     7
100
AcDbLine
 10
1995.923511271641
 20
1616.806571124006
 30
0.0
 11
2042.723511271638
 21
1663.606571124002
 31
0.0
  0
LINE
  5
117
330
1F
100
AcDbEntity
  8
LAY-10
  6
CONTINUOUS
 62
     7
100
AcDbLine
 10
1995.923511271641
 20
1602.664435500275
 30
0.0
 11
2042.723511271638
 21
1649.464435500271
 31
0.0
  0
LINE
  5
118
330
1F
100
AcDbEntity
  8
LAY-10
  6
CONTINUOUS
 62
     7
100
AcDbLine
 10
1995.923511271642
 20
1588.522299876544
 30
0.0
 11
2042.723511271638
 21
1635.322299876541
 31
0.0
  0
LINE
  5
119
330
1F
100
AcDbEntity
  8
LAY-10
  6
CONTINUOUS
 62
     7
100
AcDbLine
 10
1995.923511271641
 20
1574.380164252814
 30
0.0
 11
2042.723511271638
 21
1621.180164252809
 31
0.0
  0
LINE
  5
11A
330
1F
100
AcDbEntity
  8
LAY-10
  6
CONTINUOUS
 62
     7
100
AcDbLine
 10
1995.923511271641
 20
1560.238028629083
 30
0.0
 11
2042.723511271638
 21
1607.038028629079
 31
0.0
  0
LINE
  5
11B
330
1F
100
AcDbEntity
  8
LAY-10
  6
CONTINUOUS
 62
     7
100
AcDbLine
 10
1995.923511271641
 20
1546.095893005352
 30
0.0
 11
2042.723511271638
 21
1592.895893005348
 31
0.0
  0
LINE
  5
11C
330
1F
100
AcDbEntity
  8
LAY-10
  6
CONTINUOUS
 62
     7
100
AcDbLine
 10
1995.923511271641
 20
1531.95375738162
 30
0.0
 11
2042.723511271638
 21
1578.753757381617
 31
0.0
  0
LINE
  5
11D
330
1F
100
AcDbEntity
  8
LAY-10
  6
CONTINUOUS
 62
     7
100
AcDbLine
 10
1995.923511271641
 20
1517.811621757889
 30
0.0
 11
2042.723511271638
 21
1564.611621757886
 31
0.0
  0
LINE
  5
11E
330
1F
100
AcDbEntity
  8
LAY-10
  6
CONTINUOUS
 62
     7
100
AcDbLine
 10
1995.923511271641
 20
1503.669486134159
 30
0.0
 11
2042.723511271638
 21
1550.469486134155
 31
0.0
  0
LINE
  5
11F
330
1F
100
AcDbEntity
  8
LAY-10
  6
CONTINUOUS
 62
     7
100
AcDbLine
 10
1995.923511271641
 20
1489.527350510428
 30
0.0
 11
2042.723511271638
 21
1536.327350510424
 31
0.0
  0
LINE
  5
120
330
1F
100
AcDbEntity
  8
LAY-10
  6
CONTINUOUS
 62
     7
100
AcDbLine
 10
1995.923511271641
 20
1475.385214886697
 30
0.0
 11
2042.723511271638
 21
1522.185214886693
 31
0.0
  0
LINE
  5
121
330
1F
100
AcDbEntity
  8
LAY-10
  6
CONTINUOUS
 62
     7
100
AcDbLine
 10
1995.923511271641
 20
1461.243079262966
 30
0.0
 11
2042.723511271638
 21
1508.043079262962
 31
0.0
  0
LINE
  5
122
330
1F
100
AcDbEntity
  8
LAY-10
  6
CONTINUOUS
 62
     7
100
AcDbLine
 10
1995.923511271641
 20
1447.100943639234
 30
0.0
 11
2042.723511271638
 21
1493.900943639231
 31
0.0
  0
LINE
  5
123
330
1F
100
AcDbEntity
  8
LAY-10
  6
CONTINUOUS
 62
     7
100
AcDbLine
 10
1995.923511271641
 20
1432.958808015504
 30
0.0
 11
2042.723511271638
 21
1479.7588080155
 31
0.0
  0
LINE
  5
124
330
1F
100
AcDbEntity
  8
LAY-10
  6
CONTINUOUS
 62
     7
100
AcDbLine
 10
1995.923511271641
 20
1418.816672391773
 30
0.0
 11
2042.723511271638
 21
1465.616672391769
 31
0.0
  0
LINE
  5
125
330
1F
100
AcDbEntity
  8
LAY-10
  6
CONTINUOUS
 62
     7
100
AcDbLine
 10
1995.923511271641
 20
1404.674536768042
 30
0.0
 11
2042.723511271638
 21
1451.474536768038
 31
0.0
  0
LINE
  5
126
330
1F
100
AcDbEntity
  8
LAY-10
  6
CONTINUOUS
 62
     7
100
AcDbLine
 10
1995.923511271641
 20
1390.532401144311
 30
0.0
 11
2042.723511271638
 21
1437.332401144307
 31
0.0
  0
LINE
  5
127
330
1F
100
AcDbEntity
  8
LAY-10
  6
CONTINUOUS
 62
     7
100
AcDbLine
 10
1995.923511271641
 20
1376.39026552058
 30
0.0
 11
2042.723511271638
 21
1423.190265520576
 31
0.0
  0
LINE
  5
128
330
1F
100
AcDbEntity
  8
LAY-10
  6
CONTINUOUS
 62
     7
100
AcDbLine
 10
1995.923511271641
 20
1362.248129896849
 30
0.0
 11
2042.723511271638
 21
1409.048129896845
 31
0.0
  0
LINE
  5
129
330
1F
100
AcDbEntity
  8
LAY-10
  6
CONTINUOUS
 62
     7
100
AcDbLine
 10
1995.923511271641
 20
1348.105994273118
 30
0.0
 11
2042.723511271638
 21
1394.905994273114
 31
0.0
  0
LINE
  5
12A
330
1F
100
AcDbEntity
  8
LAY-10
  6
CONTINUOUS
 62
     7
100
AcDbLine
 10
1995.923511271641
 20
1333.963858649387
 30
0.0
 11
2042.723511271638
 21
1380.763858649383
 31
0.0
  0
LINE
  5
12B
330
1F
100
AcDbEntity
  8
LAY-10
  6
CONTINUOUS
 62
     7
100
AcDbLine
 10
1995.923511271641
 20
1319.821723025656
 30
0.0
 11
2042.723511271638
 21
1366.621723025652
 31
0.0
  0
LINE
  5
12C
330
1F
100
AcDbEntity
  8
LAY-10
  6
CONTINUOUS
 62
     7
100
AcDbLine
 10
1995.923511271641
 20
1305.679587401925
 30
0.0
 11
2042.723511271638
 21
1352.479587401921
 31
0.0
  0
LINE
  5
12D
330
1F
100
AcDbEntity
  8
LAY-10
  6
CONTINUOUS
 62
     7
100
AcDbLine
 10
1995.923511271641
 20
1291.537451778194
 30
0.0
 11
2042.723511271638
 21
1338.33745177819
 31
0.0
  0
LINE
  5
12E
330
1F
100
AcDbEntity
  8
LAY-10
  6
CONTINUOUS
 62
     7
100
AcDbLine
 10
1995.923511271641
 20
1277.395316154463
 30
0.0
 11
2042.723511271638
 21
1324.195316154459
 31
0.0
  0
LINE
  5
12F
330
1F
100
AcDbEntity
  8
LAY-10
  6
CONTINUOUS
 62
     7
100
AcDbLine
 10
2006.741022078339
 20
1274.07069133743
 30
0.0
 11
2042.723511271638
 21
1310.053180530728
 31
0.0
  0
LINE
  5
130
330
1F
100
AcDbEntity
  8
LAY-10
  6
CONTINUOUS
 62
     7
100
AcDbLine
 10
2020.88315770207
 20
1274.07069133743
 30
0.0
 11
2042.723511271638
 21
1295.911044906997
 31
0.0
  0
LINE
  5
131
330
1F
100
AcDbEntity
  8
LAY-10
  6
CONTINUOUS
 62
     7
100
AcDbLine
 10
2035.025293325814
 20
1274.070691337443
 30
0.0
 11
2042.723511271638
 21
1281.768909283266
 31
0.0
  0
LINE
  5
132
330
1F
100
AcDbEntity
  8
LAY-10
  6
CONTINUOUS
 62
     7
100
AcDbLine
 10
2005.57346805885
 20
1274.070691337447
 30
0.0
 11
1995.923511271641
 21
1283.720648124656
 31
0.0
  0
LINE
  5
133
330
1F
100
AcDbEntity
  8
LAY-10
  6
CONTINUOUS
 62
     7
100
AcDbLine
 10
2019.715603682581
 20
1274.070691337447
 30
0.0
 11
1995.923511271641
 21
1297.862783748387
 31
0.0
  0
LINE
  5
134
330
1F
100
AcDbEntity
  8
LAY-10
  6
CONTINUOUS
 62
     7
100
AcDbLine
 10
2033.857739306325
 20
1274.070691337434
 30
0.0
 11
1995.923511271641
 21
1312.004919372117
 31
0.0
  0
LINE
  5
135
330
1F
100
AcDbEntity
  8
LAY-10
  6
CONTINUOUS
 62
     7
100
AcDbLine
 10
2042.723511271638
 20
1279.347054995852
 30
0.0
 11
1995.923511271641
 21
1326.147054995849
 31
0.0
  0
LINE
  5
136
330
1F
100
AcDbEntity
  8
LAY-10
  6
CONTINUOUS
 62
     7
100
AcDbLine
 10
2042.723511271638
 20
1293.489190619583
 30
0.0
 11
1995.923511271641
 21
1340.289190619579
 31
0.0
  0
LINE
  5
137
330
1F
100
AcDbEntity
  8
LAY-10
  6
CONTINUOUS
 62
     7
100
AcDbLine
 10
2042.723511271638
 20
1307.631326243314
 30
0.0
 11
1995.923511271641
 21
1354.43132624331
 31
0.0
  0
LINE
  5
138
330
1F
100
AcDbEntity
  8
LAY-10
  6
CONTINUOUS
 62
     7
100
AcDbLine
 10
2042.723511271638
 20
1321.773461867045
 30
0.0
 11
1995.923511271641
 21
1368.573461867041
 31
0.0
  0
LINE
  5
139
330
1F
100
AcDbEntity
  8
LAY-10
  6
CONTINUOUS
 62
     7
100
AcDbLine
 10
2042.723511271638
 20
1335.915597490776
 30
0.0
 11
1995.923511271641
 21
1382.715597490772
 31
0.0
  0
LINE
  5
13A
330
1F
100
AcDbEntity
  8
LAY-10
  6
CONTINUOUS
 62
     7
100
AcDbLine
 10
2042.723511271638
 20
1350.057733114507
 30
0.0
 11
1995.923511271641
 21
1396.857733114503
 31
0.0
  0
LINE
  5
13B
330
1F
100
AcDbEntity
  8
LAY-10
  6
CONTINUOUS
 62
     7
100
AcDbLine
 10
2042.723511271638
 20
1364.199868738238
 30
0.0
 11
1995.923511271641
 21
1410.999868738234
 31
0.0
  0
LINE
  5
13C
330
1F
100
AcDbEntity
  8
LAY-10
  6
CONTINUOUS
 62
     7
100
AcDbLine
 10
2042.723511271638
 20
1378.342004361969
 30
0.0
 11
1995.923511271641
 21
1425.142004361965
 31
0.0
  0
LINE
  5
13D
330
1F
100
AcDbEntity
  8
LAY-10
  6
CONTINUOUS
 62
     7
100
AcDbLine
 10
2042.723511271638
 20
1392.4841399857
 30
0.0
 11
1995.923511271641
 21
1439.284139985696
 31
0.0
  0
LINE
  5
13E
330
1F
100
AcDbEntity
  8
LAY-10
  6
CONTINUOUS
 62
     7
100
AcDbLine
 10
2042.723511271638
 20
1406.626275609431
 30
0.0
 11
1995.923511271641
 21
1453.426275609427
 31
0.0
  0
LINE
  5
13F
330
1F
100
AcDbEntity
  8
LAY-10
  6
CONTINUOUS
 62
     7
100
AcDbLine
 10
2042.723511271638
 20
1420.768411233162
 30
0.0
 11
1995.923511271641
 21
1467.568411233158
 31
0.0
  0
LINE
  5
140
330
1F
100
AcDbEntity
  8
LAY-10
  6
CONTINUOUS
 62
     7
100
AcDbLine
 10
2042.723511271638
 20
1434.910546856892
 30
0.0
 11
1995.923511271641
 21
1481.710546856888
 31
0.0
  0
LINE
  5
141
330
1F
100
AcDbEntity
  8
LAY-10
  6
CONTINUOUS
 62
     7
100
AcDbLine
 10
2042.723511271638
 20
1449.052682480623
 30
0.0
 11
1995.923511271641
 21
1495.852682480619
 31
0.0
  0
LINE
  5
142
330
1F
100
AcDbEntity
  8
LAY-10
  6
CONTINUOUS
 62
     7
100
AcDbLine
 10
2042.723511271638
 20
1463.194818104354
 30
0.0
 11
1995.923511271641
 21
1509.994818104351
 31
0.0
  0
LINE
  5
143
330
1F
100
AcDbEntity
  8
LAY-10
  6
CONTINUOUS
 62
     7
100
AcDbLine
 10
2042.723511271638
 20
1477.336953728086
 30
0.0
 11
1995.923511271641
 21
1524.136953728082
 31
0.0
  0
LINE
  5
144
330
1F
100
AcDbEntity
  8
LAY-10
  6
CONTINUOUS
 62
     7
100
AcDbLine
 10
2042.723511271638
 20
1491.479089351817
 30
0.0
 11
1995.923511271641
 21
1538.279089351812
 31
0.0
  0
LINE
  5
145
330
1F
100
AcDbEntity
  8
LAY-10
  6
CONTINUOUS
 62
     7
100
AcDbLine
 10
2042.723511271638
 20
1505.621224975547
 30
0.0
 11
1995.923511271641
 21
1552.421224975544
 31
0.0
  0
LINE
  5
146
330
1F
100
AcDbEntity
  8
LAY-10
  6
CONTINUOUS
 62
     7
100
AcDbLine
 10
2042.723511271638
 20
1519.763360599278
 30
0.0
 11
1995.923511271641
 21
1566.563360599275
 31
0.0
  0
LINE
  5
147
330
1F
100
AcDbEntity
  8
LAY-10
  6
CONTINUOUS
 62
     7
100
AcDbLine
 10
2042.723511271638
 20
1533.90549622301
 30
0.0
 11
1995.923511271641
 21
1580.705496223006
 31
0.0
  0
LINE
  5
148
330
1F
100
AcDbEntity
  8
LAY-10
  6
CONTINUOUS
 62
     7
100
AcDbLine
 10
2042.723511271638
 20
1548.047631846741
 30
0.0
 11
1995.923511271641
 21
1594.847631846737
 31
0.0
  0
LINE
  5
149
330
1F
100
AcDbEntity
  8
LAY-10
  6
CONTINUOUS
 62
     7
100
AcDbLine
 10
2042.723511271638
 20
1562.189767470472
 30
0.0
 11
1995.923511271641
 21
1608.989767470467
 31
0.0
  0
LINE
  5
14A
330
1F
100
AcDbEntity
  8
LAY-10
  6
CONTINUOUS
 62
     7
100
AcDbLine
 10
2042.723511271638
 20
1576.331903094202
 30
0.0
 11
1995.923511271641
 21
1623.131903094198
 31
0.0
  0
LINE
  5
14B
330
1F
100
AcDbEntity
  8
LAY-10
  6
CONTINUOUS
 62
     7
100
AcDbLine
 10
2042.723511271638
 20
1590.474038717933
 30
0.0
 11
1995.923511271641
 21
1637.274038717929
 31
0.0
  0
LINE
  5
14C
330
1F
100
AcDbEntity
  8
LAY-10
  6
CONTINUOUS
 62
     7
100
AcDbLine
 10
2042.723511271638
 20
1604.616174341664
 30
0.0
 11
1995.923511271641
 21
1651.41617434166
 31
0.0
  0
LINE
  5
14D
330
1F
100
AcDbEntity
  8
LAY-10
  6
CONTINUOUS
 62
     7
100
AcDbLine
 10
2042.723511271638
 20
1618.758309965395
 30
0.0
 11
1995.923511271641
 21
1665.558309965391
 31
0.0
  0
LINE
  5
14E
330
1F
100
AcDbEntity
  8
LAY-10
  6
CONTINUOUS
 62
     7
100
AcDbLine
 10
2042.723511271638
 20
1632.900445589126
 30
0.0
 11
1995.923511271641
 21
1679.700445589122
 31
0.0
  0
LINE
  5
14F
330
1F
100
AcDbEntity
  8
LAY-10
  6
CONTINUOUS
 62
     7
100
AcDbLine
 10
2042.723511271638
 20
1647.042581212857
 30
0.0
 11
1995.923511271641
 21
1693.842581212853
 31
0.0
  0
LINE
  5
150
330
1F
100
AcDbEntity
  8
LAY-10
  6
CONTINUOUS
 62
     7
100
AcDbLine
 10
2042.723511271638
 20
1661.184716836588
 30
0.0
 11
1995.923511271641
 21
1707.984716836584
 31
0.0
  0
LINE
  5
151
330
1F
100
AcDbEntity
  8
LAY-10
  6
CONTINUOUS
 62
     7
100
AcDbLine
 10
2042.723511271638
 20
1675.326852460319
 30
0.0
 11
1995.923511271641
 21
1722.126852460315
 31
0.0
  0
LINE
  5
152
330
1F
100
AcDbEntity
  8
LAY-10
  6
CONTINUOUS
 62
     7
100
AcDbLine
 10
2042.723511271638
 20
1689.46898808405
 30
0.0
 11
1995.923511271641
 21
1736.268988084046
 31
0.0
  0
LINE
  5
153
330
1F
100
AcDbEntity
  8
LAY-10
  6
CONTINUOUS
 62
     7
100
AcDbLine
 10
2042.723511271638
 20
1703.611123707781
 30
0.0
 11
1995.923511271641
 21
1750.411123707777
 31
0.0
  0
LINE
  5
154
330
1F
100
AcDbEntity
  8
LAY-10
  6
CONTINUOUS
 62
     7
100
AcDbLine
 10
2042.723511271638
 20
1717.753259331512
 30
0.0
 11
1995.923511271641
 21
1764.553259331508
 31
0.0
  0
LINE
  5
155
330
1F
100
AcDbEntity
  8
LAY-10
  6
CONTINUOUS
 62
     7
100
AcDbLine
 10
2042.723511271638
 20
1731.895394955243
 30
0.0
 11
1995.923511271641
 21
1778.695394955239
 31
0.0
  0
LINE
  5
156
330
1F
100
AcDbEntity
  8
LAY-10
  6
CONTINUOUS
 62
     7
100
AcDbLine
 10
2042.723511271638
 20
1746.037530578974
 30
0.0
 11
1995.923511271641
 21
1792.83753057897
 31
0.0
  0
LINE
  5
157
330
1F
100
AcDbEntity
  8
LAY-10
  6
CONTINUOUS
 62
     7
100
AcDbLine
 10
2042.723511271638
 20
1760.179666202705
 30
0.0
 11
1995.923511271641
 21
1806.979666202701
 31
0.0
  0
LINE
  5
158
330
1F
100
AcDbEntity
  8
LAY-10
  6
CONTINUOUS
 62
     7
100
AcDbLine
 10
2042.723511271638
 20
1774.321801826435
 30
0.0
 11
1995.923511271641
 21
1821.121801826432
 31
0.0
  0
LINE
  5
159
330
1F
100
AcDbEntity
  8
LAY-10
  6
CONTINUOUS
 62
     7
100
AcDbLine
 10
2042.723511271638
 20
1788.463937450166
 30
0.0
 11
1995.923511271641
 21
1835.263937450163
 31
0.0
  0
LINE
  5
15A
330
1F
100
AcDbEntity
  8
LAY-10
  6
CONTINUOUS
 62
     7
100
AcDbLine
 10
2042.723511271638
 20
1802.606073073898
 30
0.0
 11
1995.923511271641
 21
1849.406073073894
 31
0.0
  0
LINE
  5
15B
330
1F
100
AcDbEntity
  8
LAY-10
  6
CONTINUOUS
 62
     7
100
AcDbLine
 10
2042.723511271638
 20
1816.748208697629
 30
0.0
 11
1995.923511271641
 21
1863.548208697625
 31
0.0
  0
LINE
  5
15C
330
1F
100
AcDbEntity
  8
LAY-10
  6
CONTINUOUS
 62
     7
100
AcDbLine
 10
2042.723511271638
 20
1830.89034432136
 30
0.0
 11
1995.923511271641
 21
1877.690344321356
 31
0.0
  0
LINE
  5
15D
330
1F
100
AcDbEntity
  8
LAY-10
  6
CONTINUOUS
 62
     7
100
AcDbLine
 10
2042.723511271638
 20
1845.03247994509
 30
0.0
 11
1995.923511271641
 21
1891.832479945087
 31
0.0
  0
LINE
  5
15E
330
1F
100
AcDbEntity
  8
LAY-10
  6
CONTINUOUS
 62
     7
100
AcDbLine
 10
2042.723511271638
 20
1859.174615568821
 30
0.0
 11
1995.923511271641
 21
1905.974615568817
 31
0.0
  0
LINE
  5
15F
330
1F
100
AcDbEntity
  8
LAY-10
  6
CONTINUOUS
 62
     7
100
AcDbLine
 10
2042.723511271638
 20
1873.316751192552
 30
0.0
 11
1995.923511271641
 21
1920.116751192548
 31
0.0
  0
LINE
  5
160
330
1F
100
AcDbEntity
  8
LAY-10
  6
CONTINUOUS
 62
     7
100
AcDbLine
 10
2042.723511271638
 20
1887.458886816283
 30
0.0
 11
1995.923511271641
 21
1934.25888681628
 31
0.0
  0
LINE
  5
161
330
1F
100
AcDbEntity
  8
LAY-10
  6
CONTINUOUS
 62
     7
100
AcDbLine
 10
2042.723511271638
 20
1901.601022440015
 30
0.0
 11
1995.923511271641
 21
1948.40102244001
 31
0.0
  0
LINE
  5
162
330
1F
100
AcDbEntity
  8
LAY-10
  6
CONTINUOUS
 62
     7
100
AcDbLine
 10
2042.723511271638
 20
1915.743158063745
 30
0.0
 11
1995.923511271641
 21
1962.543158063741
 31
0.0
  0
LINE
  5
163
330
1F
100
AcDbEntity
  8
LAY-10
  6
CONTINUOUS
 62
     7
100
AcDbLine
 10
2042.723511271638
 20
1929.885293687476
 30
0.0
 11
1995.923511271641
 21
1976.685293687472
 31
0.0
  0
LINE
  5
164
330
1F
100
AcDbEntity
  8
LAY-10
  6
CONTINUOUS
 62
     7
100
AcDbLine
 10
2042.723511271638
 20
1944.027429311207
 30
0.0
 11
1995.923511271641
 21
1990.827429311203
 31
0.0
  0
LINE
  5
165
330
1F
100
AcDbEntity
  8
LAY-10
  6
CONTINUOUS
 62
     7
100
AcDbLine
 10
2042.723511271638
 20
1958.169564934938
 30
0.0
 11
1995.923511271641
 21
2004.969564934934
 31
0.0
  0
LINE
  5
166
330
1F
100
AcDbEntity
  8
LAY-10
  6
CONTINUOUS
 62
     7
100
AcDbLine
 10
2042.723511271638
 20
1972.311700558669
 30
0.0
 11
1995.923511271641
 21
2019.111700558665
 31
0.0
  0
LINE
  5
167
330
1F
100
AcDbEntity
  8
LAY-10
  6
CONTINUOUS
 62
     7
100
AcDbLine
 10
2042.723511271638
 20
1986.4538361824
 30
0.0
 11
1995.923511271641
 21
2033.253836182396
 31
0.0
  0
LINE
  5
168
330
1F
100
AcDbEntity
  8
LAY-10
  6
CONTINUOUS
 62
     7
100
AcDbLine
 10
2042.723511271638
 20
2000.595971806131
 30
0.0
 11
1995.923511271641
 21
2047.395971806127
 31
0.0
  0
LINE
  5
169
330
1F
100
AcDbEntity
  8
LAY-10
  6
CONTINUOUS
 62
     7
100
AcDbLine
 10
2042.723511271638
 20
2014.738107429862
 30
0.0
 11
1995.923511271641
 21
2061.538107429858
 31
0.0
  0
LINE
  5
16A
330
1F
100
AcDbEntity
  8
LAY-10
  6
CONTINUOUS
 62
     7
100
AcDbLine
 10
2042.723511271638
 20
2028.880243053593
 30
0.0
 11
1995.923511271641
 21
2075.680243053589
 31
0.0
  0
LINE
  5
16B
330
1F
100
AcDbEntity
  8
LAY-10
  6
CONTINUOUS
 62
     7
100
AcDbLine
 10
2042.723511271638
 20
2043.022378677324
 30
0.0
 11
1995.923511271641
 21
2089.82237867732
 31
0.0
  0
LINE
  5
16C
330
1F
100
AcDbEntity
  8
LAY-10
  6
CONTINUOUS
 62
     7
100
AcDbLine
 10
2042.723511271638
 20
2057.164514301055
 30
0.0
 11
1995.923511271641
 21
2103.96451430105
 31
0.0
  0
LINE
  5
16D
330
1F
100
AcDbEntity
  8
LAY-10
  6
CONTINUOUS
 62
     7
100
AcDbLine
 10
2042.723511271638
 20
2071.306649924785
 30
0.0
 11
1995.923511271641
 21
2118.106649924781
 31
0.0
  0
LINE
  5
16E
330
1F
100
AcDbEntity
  8
LAY-10
  6
CONTINUOUS
 62
     7
100
AcDbLine
 10
2042.723511271638
 20
2085.448785548516
 30
0.0
 11
1995.923511271641
 21
2132.248785548512
 31
0.0
  0
LINE
  5
16F
330
1F
100
AcDbEntity
  8
LAY-10
  6
CONTINUOUS
 62
     7
100
AcDbLine
 10
2042.723511271638
 20
2099.590921172247
 30
0.0
 11
1995.923511271641
 21
2146.390921172243
 31
0.0
  0
LINE
  5
170
330
1F
100
AcDbEntity
  8
LAY-10
  6
CONTINUOUS
 62
     7
100
AcDbLine
 10
2042.723511271638
 20
2113.733056795978
 30
0.0
 11
1995.923511271641
 21
2160.533056795975
 31
0.0
  0
LINE
  5
171
330
1F
100
AcDbEntity
  8
LAY-10
  6
CONTINUOUS
 62
     7
100
AcDbLine
 10
2042.723511271638
 20
2127.875192419709
 30
0.0
 11
1995.923511271641
 21
2174.675192419705
 31
0.0
  0
LINE
  5
172
330
1F
100
AcDbEntity
  8
LAY-10
  6
CONTINUOUS
 62
     7
100
AcDbLine
 10
2042.723511271638
 20
2142.01732804344
 30
0.0
 11
1995.923511271641
 21
2188.817328043436
 31
0.0
  0
LINE
  5
173
330
1F
100
AcDbEntity
  8
LAY-10
  6
CONTINUOUS
 62
     7
100
AcDbLine
 10
2042.723511271638
 20
2156.159463667171
 30
0.0
 11
1995.923511271641
 21
2202.959463667167
 31
0.0
  0
LINE
  5
174
330
1F
100
AcDbEntity
  8
LAY-10
  6
CONTINUOUS
 62
     7
100
AcDbLine
 10
2042.723511271638
 20
2170.301599290902
 30
0.0
 11
1995.923511271641
 21
2217.101599290898
 31
0.0
  0
LINE
  5
175
330
1F
100
AcDbEntity
  8
LAY-10
  6
CONTINUOUS
 62
     7
100
AcDbLine
 10
2042.723511271638
 20
2184.443734914633
 30
0.0
 11
1995.923511271641
 21
2231.243734914629
 31
0.0
  0
LINE
  5
176
330
1F
100
AcDbEntity
  8
LAY-10
  6
CONTINUOUS
 62
     7
100
AcDbLine
 10
2042.723511271638
 20
2198.585870538363
 30
0.0
 11
1995.923511271641
 21
2245.38587053836
 31
0.0
  0
LINE
  5
177
330
1F
100
AcDbEntity
  8
LAY-10
  6
CONTINUOUS
 62
     7
100
AcDbLine
 10
2042.723511271638
 20
2212.728006162095
 30
0.0
 11
2000.580826096294
 21
2254.870691337438
 31
0.0
  0
LINE
  5
178
330
1F
100
AcDbEntity
  8
LAY-10
  6
CONTINUOUS
 62
     7
100
AcDbLine
 10
2042.723511271638
 20
2226.870141785826
 30
0.0
 11
2014.722961720025
 21
2254.870691337438
 31
0.0
  0
LINE
  5
179
330
1F
100
AcDbEntity
  8
LAY-10
  6
CONTINUOUS
 62
     7
100
AcDbLine
 10
2042.723511271638
 20
2241.012277409557
 30
0.0
 11
2028.865097343756
 21
2254.870691337438
 31
0.0
  0
LINE
  5
17A
330
1F
100
AcDbEntity
  8
LAY-10
  6
CONTINUOUS
 62
     7
100
AcDbLine
 10
528.4076841562095
 20
775.7560652101002
 30
0.0
 11
540.0036687016094
 21
787.3520497555002
 31
0.0
  0
LINE
  5
17B
330
1F
100
AcDbEntity
  8
LAY-10
  6
CONTINUOUS
 62
     7
100
AcDbLine
 10
528.4076841562095
 20
761.6139295863696
 30
0.0
 11
554.1458043253399
 21
787.3520497555002
 31
0.0
  0
LINE
  5
17C
330
1F
100
AcDbEntity
  8
LAY-10
  6
CONTINUOUS
 62
     7
100
AcDbLine
 10
528.4076841562095
 20
747.4717939626386
 30
0.0
 11
568.287939949071
 21
787.3520497555002
 31
0.0
  0
LINE
  5
17D
330
1F
100
AcDbEntity
  8
LAY-10
  6
CONTINUOUS
 62
     7
100
AcDbLine
 10
535.6300755727933
 20
740.5520497554912
 30
0.0
 11
582.430075572802
 21
787.3520497555002
 31
0.0
  0
LINE
  5
17E
330
1F
100
AcDbEntity
  8
LAY-10
  6
CONTINUOUS
 62
     7
100
AcDbLine
 10
549.7722111965239
 20
740.5520497554912
 30
0.0
 11
596.5722111965331
 21
787.3520497555002
 31
0.0
  0
LINE
  5
17F
330
1F
100
AcDbEntity
  8
LAY-10
  6
CONTINUOUS
 62
     7
100
AcDbLine
 10
563.914346820255
 20
740.5520497554912
 30
0.0
 11
610.7143468202638
 21
787.3520497555002
 31
0.0
  0
LINE
  5
180
330
1F
100
AcDbEntity
  8
LAY-10
  6
CONTINUOUS
 62
     7
100
AcDbLine
 10
578.056482443986
 20
740.5520497554912
 30
0.0
 11
624.8564824439949
 21
787.3520497555002
 31
0.0
  0
LINE
  5
181
330
1F
100
AcDbEntity
  8
LAY-10
  6
CONTINUOUS
 62
     7
100
AcDbLine
 10
592.1986180677171
 20
740.5520497554912
 30
0.0
 11
638.9986180677259
 21
787.3520497555002
 31
0.0
  0
LINE
  5
182
330
1F
100
AcDbEntity
  8
LAY-10
  6
CONTINUOUS
 62
     7
100
AcDbLine
 10
606.3407536914476
 20
740.5520497554912
 30
0.0
 11
653.1407536914569
 21
787.3520497555002
 31
0.0
  0
LINE
  5
183
330
1F
100
AcDbEntity
  8
LAY-10
  6
CONTINUOUS
 62
     7
100
AcDbLine
 10
620.4828893151787
 20
740.5520497554912
 30
0.0
 11
667.2828893151876
 21
787.3520497555002
 31
0.0
  0
LINE
  5
184
330
1F
100
AcDbEntity
  8
LAY-10
  6
CONTINUOUS
 62
     7
100
AcDbLine
 10
634.6250249389097
 20
740.5520497554912
 30
0.0
 11
681.4250249389187
 21
787.3520497555002
 31
0.0
  0
LINE
  5
185
330
1F
100
AcDbEntity
  8
LAY-10
  6
CONTINUOUS
 62
     7
100
AcDbLine
 10
648.7671605626408
 20
740.5520497554912
 30
0.0
 11
695.5671605626497
 21
787.3520497555002
 31
0.0
  0
LINE
  5
186
330
1F
100
AcDbEntity
  8
LAY-10
  6
CONTINUOUS
 62
     7
100
AcDbLine
 10
662.9092961863714
 20
740.5520497554912
 30
0.0
 11
709.7092961863808
 21
787.3520497555002
 31
0.0
  0
LINE
  5
187
330
1F
100
AcDbEntity
  8
LAY-10
  6
CONTINUOUS
 62
     7
100
AcDbLine
 10
677.0514318101025
 20
740.5520497554912
 30
0.0
 11
723.8514318101119
 21
787.3520497555002
 31
0.0
  0
LINE
  5
188
330
1F
100
AcDbEntity
  8
LAY-10
  6
CONTINUOUS
 62
     7
100
AcDbLine
 10
691.1935674338336
 20
740.5520497554912
 30
0.0
 11
737.9935674338425
 21
787.3520497555002
 31
0.0
  0
LINE
  5
189
330
1F
100
AcDbEntity
  8
LAY-10
  6
CONTINUOUS
 62
     7
100
AcDbLine
 10
705.3357030575646
 20
740.5520497554912
 30
0.0
 11
752.1357030575736
 21
787.3520497555002
 31
0.0
  0
LINE
  5
18A
330
1F
100
AcDbEntity
  8
LAY-10
  6
CONTINUOUS
 62
     7
100
AcDbLine
 10
719.4778386812953
 20
740.5520497554912
 30
0.0
 11
766.2778386813046
 21
787.3520497555002
 31
0.0
  0
LINE
  5
18B
330
1F
100
AcDbEntity
  8
LAY-10
  6
CONTINUOUS
 62
     7
100
AcDbLine
 10
733.6199743050264
 20
740.5520497554912
 30
0.0
 11
780.4199743050357
 21
787.3520497555002
 31
0.0
  0
LINE
  5
18C
330
1F
100
AcDbEntity
  8
LAY-10
  6
CONTINUOUS
 62
     7
100
AcDbLine
 10
747.7621099287575
 20
740.5520497554912
 30
0.0
 11
794.5621099287663
 21
787.3520497555002
 31
0.0
  0
LINE
  5
18D
330
1F
100
AcDbEntity
  8
LAY-10
  6
CONTINUOUS
 62
     7
100
AcDbLine
 10
761.9042455524885
 20
740.5520497554912
 30
0.0
 11
808.7042455524974
 21
787.3520497555002
 31
0.0
  0
LINE
  5
18E
330
1F
100
AcDbEntity
  8
LAY-10
  6
CONTINUOUS
 62
     7
100
AcDbLine
 10
776.0463811762196
 20
740.5520497554912
 30
0.0
 11
822.8463811762284
 21
787.3520497555002
 31
0.0
  0
LINE
  5
18F
330
1F
100
AcDbEntity
  8
LAY-10
  6
CONTINUOUS
 62
     7
100
AcDbLine
 10
790.1885167999502
 20
740.5520497554912
 30
0.0
 11
836.9885167999593
 21
787.3520497555002
 31
0.0
  0
LINE
  5
190
330
1F
100
AcDbEntity
  8
LAY-10
  6
CONTINUOUS
 62
     7
100
AcDbLine
 10
804.3306524236813
 20
740.5520497554912
 30
0.0
 11
851.1306524236903
 21
787.3520497555002
 31
0.0
  0
LINE
  5
191
330
1F
100
AcDbEntity
  8
LAY-10
  6
CONTINUOUS
 62
     7
100
AcDbLine
 10
818.4727880474123
 20
740.5520497554912
 30
0.0
 11
865.2727880474214
 21
787.3520497555002
 31
0.0
  0
LINE
  5
192
330
1F
100
AcDbEntity
  8
LAY-10
  6
CONTINUOUS
 62
     7
100
AcDbLine
 10
832.614923671143
 20
740.5520497554912
 30
0.0
 11
879.4149236711525
 21
787.3520497555002
 31
0.0
  0
LINE
  5
193
330
1F
100
AcDbEntity
  8
LAY-10
  6
CONTINUOUS
 62
     7
100
AcDbLine
 10
846.757059294874
 20
740.5520497554912
 30
0.0
 11
893.557059294883
 21
787.3520497555002
 31
0.0
  0
LINE
  5
194
330
1F
100
AcDbEntity
  8
LAY-10
  6
CONTINUOUS
 62
     7
100
AcDbLine
 10
860.8991949186051
 20
740.5520497554912
 30
0.0
 11
907.699194918614
 21
787.3520497555002
 31
0.0
  0
LINE
  5
195
330
1F
100
AcDbEntity
  8
LAY-10
  6
CONTINUOUS
 62
     7
100
AcDbLine
 10
875.0413305423361
 20
740.5520497554912
 30
0.0
 11
921.8413305423451
 21
787.3520497555002
 31
0.0
  0
LINE
  5
196
330
1F
100
AcDbEntity
  8
LAY-10
  6
CONTINUOUS
 62
     7
100
AcDbLine
 10
889.183466166067
 20
740.5520497554912
 30
0.0
 11
935.9834661660761
 21
787.3520497555002
 31
0.0
  0
LINE
  5
197
330
1F
100
AcDbEntity
  8
LAY-10
  6
CONTINUOUS
 62
     7
100
AcDbLine
 10
903.325601789798
 20
740.5520497554912
 30
0.0
 11
950.1256017898066
 21
787.3520497555002
 31
0.0
  0
LINE
  5
198
330
1F
100
AcDbEntity
  8
LAY-10
  6
CONTINUOUS
 62
     7
100
AcDbLine
 10
917.4677374135291
 20
740.5520497554912
 30
0.0
 11
964.2677374135377
 21
787.3520497555002
 31
0.0
  0
LINE
  5
199
330
1F
100
AcDbEntity
  8
LAY-10
  6
CONTINUOUS
 62
     7
100
AcDbLine
 10
931.60987303726
 20
740.5520497554912
 30
0.0
 11
978.4098730372688
 21
787.3520497555002
 31
0.0
  0
LINE
  5
19A
330
1F
100
AcDbEntity
  8
LAY-10
  6
CONTINUOUS
 62
     7
100
AcDbLine
 10
945.7520086609907
 20
740.5520497554912
 30
0.0
 11
992.5520086609998
 21
787.3520497555002
 31
0.0
  0
LINE
  5
19B
330
1F
100
AcDbEntity
  8
LAY-10
  6
CONTINUOUS
 62
     7
100
AcDbLine
 10
959.8941442847217
 20
740.5520497554912
 30
0.0
 11
1006.69414428473
 21
787.3520497555002
 31
0.0
  0
LINE
  5
19C
330
1F
100
AcDbEntity
  8
LAY-10
  6
CONTINUOUS
 62
     7
100
AcDbLine
 10
974.0362799084528
 20
740.5520497554912
 30
0.0
 11
1020.836279908462
 21
787.3520497555002
 31
0.0
  0
LINE
  5
19D
330
1F
100
AcDbEntity
  8
LAY-10
  6
CONTINUOUS
 62
     7
100
AcDbLine
 10
988.1784155321839
 20
740.5520497554912
 30
0.0
 11
1034.978415532193
 21
787.3520497555002
 31
0.0
  0
LINE
  5
19E
330
1F
100
AcDbEntity
  8
LAY-10
  6
CONTINUOUS
 62
     7
100
AcDbLine
 10
1002.320551155914
 20
740.5520497554912
 30
0.0
 11
1049.120551155924
 21
787.3520497555002
 31
0.0
  0
LINE
  5
19F
330
1F
100
AcDbEntity
  8
LAY-10
  6
CONTINUOUS
 62
     7
100
AcDbLine
 10
1016.462686779645
 20
740.5520497554912
 30
0.0
 11
1063.262686779654
 21
787.3520497555002
 31
0.0
  0
LINE
  5
1A0
330
1F
100
AcDbEntity
  8
LAY-10
  6
CONTINUOUS
 62
     7
100
AcDbLine
 10
1030.604822403377
 20
740.5520497554912
 30
0.0
 11
1077.404822403385
 21
787.3520497555002
 31
0.0
  0
LINE
  5
1A1
330
1F
100
AcDbEntity
  8
LAY-10
  6
CONTINUOUS
 62
     7
100
AcDbLine
 10
1044.746958027108
 20
740.5520497554912
 30
0.0
 11
1091.546958027116
 21
787.3520497555002
 31
0.0
  0
LINE
  5
1A2
330
1F
100
AcDbEntity
  8
LAY-10
  6
CONTINUOUS
 62
     7
100
AcDbLine
 10
1058.889093650838
 20
740.5520497554912
 30
0.0
 11
1105.689093650848
 21
787.3520497555002
 31
0.0
  0
LINE
  5
1A3
330
1F
100
AcDbEntity
  8
LAY-10
  6
CONTINUOUS
 62
     7
100
AcDbLine
 10
1073.031229274569
 20
740.5520497554912
 30
0.0
 11
1119.831229274578
 21
787.3520497555002
 31
0.0
  0
LINE
  5
1A4
330
1F
100
AcDbEntity
  8
LAY-10
  6
CONTINUOUS
 62
     7
100
AcDbLine
 10
1087.1733648983
 20
740.5520497554912
 30
0.0
 11
1133.973364898309
 21
787.3520497555002
 31
0.0
  0
LINE
  5
1A5
330
1F
100
AcDbEntity
  8
LAY-10
  6
CONTINUOUS
 62
     7
100
AcDbLine
 10
1101.315500522031
 20
740.5520497554912
 30
0.0
 11
1148.11550052204
 21
787.3520497555002
 31
0.0
  0
LINE
  5
1A6
330
1F
100
AcDbEntity
  8
LAY-10
  6
CONTINUOUS
 62
     7
100
AcDbLine
 10
1115.457636145763
 20
740.5520497554912
 30
0.0
 11
1162.257636145771
 21
787.3520497555002
 31
0.0
  0
LINE
  5
1A7
330
1F
100
AcDbEntity
  8
LAY-10
  6
CONTINUOUS
 62
     7
100
AcDbLine
 10
1129.599771769493
 20
740.5520497554909
 30
0.0
 11
1176.399771769502
 21
787.3520497555002
 31
0.0
  0
LINE
  5
1A8
330
1F
100
AcDbEntity
  8
LAY-10
  6
CONTINUOUS
 62
     7
100
AcDbLine
 10
1143.741907393224
 20
740.5520497554912
 30
0.0
 11
1190.541907393233
 21
787.3520497555002
 31
0.0
  0
LINE
  5
1A9
330
1F
100
AcDbEntity
  8
LAY-10
  6
CONTINUOUS
 62
     7
100
AcDbLine
 10
1157.884043016955
 20
740.5520497554909
 30
0.0
 11
1204.684043016964
 21
787.3520497555002
 31
0.0
  0
LINE
  5
1AA
330
1F
100
AcDbEntity
  8
LAY-10
  6
CONTINUOUS
 62
     7
100
AcDbLine
 10
1172.026178640686
 20
740.5520497554912
 30
0.0
 11
1218.826178640695
 21
787.3520497555002
 31
0.0
  0
LINE
  5
1AB
330
1F
100
AcDbEntity
  8
LAY-10
  6
CONTINUOUS
 62
     7
100
AcDbLine
 10
1186.168314264417
 20
740.5520497554909
 30
0.0
 11
1232.968314264426
 21
787.3520497555002
 31
0.0
  0
LINE
  5
1AC
330
1F
100
AcDbEntity
  8
LAY-10
  6
CONTINUOUS
 62
     7
100
AcDbLine
 10
1200.310449888148
 20
740.5520497554912
 30
0.0
 11
1247.110449888157
 21
787.3520497555002
 31
0.0
  0
LINE
  5
1AD
330
1F
100
AcDbEntity
  8
LAY-10
  6
CONTINUOUS
 62
     7
100
AcDbLine
 10
1214.452585511879
 20
740.5520497554909
 30
0.0
 11
1261.252585511888
 21
787.3520497555002
 31
0.0
  0
LINE
  5
1AE
330
1F
100
AcDbEntity
  8
LAY-10
  6
CONTINUOUS
 62
     7
100
AcDbLine
 10
1228.59472113561
 20
740.5520497554912
 30
0.0
 11
1275.394721135619
 21
787.3520497555002
 31
0.0
  0
LINE
  5
1AF
330
1F
100
AcDbEntity
  8
LAY-10
  6
CONTINUOUS
 62
     7
100
AcDbLine
 10
1242.736856759341
 20
740.5520497554909
 30
0.0
 11
1289.53685675935
 21
787.3520497555002
 31
0.0
  0
LINE
  5
1B0
330
1F
100
AcDbEntity
  8
LAY-10
  6
CONTINUOUS
 62
     7
100
AcDbLine
 10
1256.878992383072
 20
740.5520497554912
 30
0.0
 11
1303.678992383081
 21
787.3520497555002
 31
0.0
  0
LINE
  5
1B1
330
1F
100
AcDbEntity
  8
LAY-10
  6
CONTINUOUS
 62
     7
100
AcDbLine
 10
1271.021128006803
 20
740.5520497554909
 30
0.0
 11
1317.821128006812
 21
787.3520497555002
 31
0.0
  0
LINE
  5
1B2
330
1F
100
AcDbEntity
  8
LAY-10
  6
CONTINUOUS
 62
     7
100
AcDbLine
 10
1285.163263630534
 20
740.5520497554912
 30
0.0
 11
1331.963263630543
 21
787.3520497555002
 31
0.0
  0
LINE
  5
1B3
330
1F
100
AcDbEntity
  8
LAY-10
  6
CONTINUOUS
 62
     7
100
AcDbLine
 10
1299.305399254265
 20
740.5520497554909
 30
0.0
 11
1346.105399254274
 21
787.3520497555002
 31
0.0
  0
LINE
  5
1B4
330
1F
100
AcDbEntity
  8
LAY-10
  6
CONTINUOUS
 62
     7
100
AcDbLine
 10
1313.447534877996
 20
740.5520497554909
 30
0.0
 11
1360.247534878004
 21
787.3520497555002
 31
0.0
  0
LINE
  5
1B5
330
1F
100
AcDbEntity
  8
LAY-10
  6
CONTINUOUS
 62
     7
100
AcDbLine
 10
1327.589670501727
 20
740.5520497554909
 30
0.0
 11
1374.389670501735
 21
787.3520497555002
 31
0.0
  0
LINE
  5
1B6
330
1F
100
AcDbEntity
  8
LAY-10
  6
CONTINUOUS
 62
     7
100
AcDbLine
 10
1341.731806125458
 20
740.5520497554909
 30
0.0
 11
1388.531806125466
 21
787.3520497555002
 31
0.0
  0
LINE
  5
1B7
330
1F
100
AcDbEntity
  8
LAY-10
  6
CONTINUOUS
 62
     7
100
AcDbLine
 10
1355.873941749188
 20
740.5520497554909
 30
0.0
 11
1402.673941749197
 21
787.3520497555002
 31
0.0
  0
LINE
  5
1B8
330
1F
100
AcDbEntity
  8
LAY-10
  6
CONTINUOUS
 62
     7
100
AcDbLine
 10
1370.016077372919
 20
740.5520497554909
 30
0.0
 11
1416.816077372928
 21
787.3520497555002
 31
0.0
  0
LINE
  5
1B9
330
1F
100
AcDbEntity
  8
LAY-10
  6
CONTINUOUS
 62
     7
100
AcDbLine
 10
1384.15821299665
 20
740.5520497554909
 30
0.0
 11
1430.958212996649
 21
787.3520497554898
 31
0.0
  0
LINE
  5
1BA
330
1F
100
AcDbEntity
  8
LAY-10
  6
CONTINUOUS
 62
     7
100
AcDbLine
 10
1398.300348620382
 20
740.5520497554909
 30
0.0
 11
1445.10034862038
 21
787.3520497554898
 31
0.0
  0
LINE
  5
1BB
330
1F
100
AcDbEntity
  8
LAY-10
  6
CONTINUOUS
 62
     7
100
AcDbLine
 10
1412.442484244112
 20
740.5520497554909
 30
0.0
 11
1459.242484244111
 21
787.3520497554898
 31
0.0
  0
LINE
  5
1BC
330
1F
100
AcDbEntity
  8
LAY-10
  6
CONTINUOUS
 62
     7
100
AcDbLine
 10
1426.584619867843
 20
740.5520497554909
 30
0.0
 11
1473.384619867842
 21
787.3520497554898
 31
0.0
  0
LINE
  5
1BD
330
1F
100
AcDbEntity
  8
LAY-10
  6
CONTINUOUS
 62
     7
100
AcDbLine
 10
1440.726755491574
 20
740.5520497554909
 30
0.0
 11
1487.526755491573
 21
787.3520497554898
 31
0.0
  0
LINE
  5
1BE
330
1F
100
AcDbEntity
  8
LAY-10
  6
CONTINUOUS
 62
     7
100
AcDbLine
 10
1454.868891115305
 20
740.5520497554909
 30
0.0
 11
1501.668891115303
 21
787.3520497554898
 31
0.0
  0
LINE
  5
1BF
330
1F
100
AcDbEntity
  8
LAY-10
  6
CONTINUOUS
 62
     7
100
AcDbLine
 10
1469.011026739036
 20
740.5520497554909
 30
0.0
 11
1509.207684156145
 21
780.7487071726001
 31
0.0
  0
LINE
  5
1C0
330
1F
100
AcDbEntity
  8
LAY-10
  6
CONTINUOUS
 62
     7
100
AcDbLine
 10
1483.153162362767
 20
740.5520497554909
 30
0.0
 11
1509.207684156145
 21
766.6065715488686
 31
0.0
  0
LINE
  5
1C1
330
1F
100
AcDbEntity
  8
LAY-10
  6
CONTINUOUS
 62
     7
100
AcDbLine
 10
1497.295297986498
 20
740.5520497554909
 30
0.0
 11
1509.207684156145
 21
752.464435925138
 31
0.0
  0
LINE
  5
1C2
330
1F
100
AcDbEntity
  8
LAY-10
  6
CONTINUOUS
 62
     7
100
AcDbLine
 10
536.818416276219
 20
740.5520497555009
 30
0.0
 11
528.4076841562122
 21
748.9627818755076
 31
0.0
  0
LINE
  5
1C3
330
1F
100
AcDbEntity
  8
LAY-10
  6
CONTINUOUS
 62
     7
100
AcDbLine
 10
550.96055189995
 20
740.5520497555009
 30
0.0
 11
528.4076841562122
 21
763.1049174992387
 31
0.0
  0
LINE
  5
1C4
330
1F
100
AcDbEntity
  8
LAY-10
  6
CONTINUOUS
 62
     7
100
AcDbLine
 10
565.1026875236811
 20
740.5520497555009
 30
0.0
 11
528.4076841562122
 21
777.2470531229693
 31
0.0
  0
LINE
  5
1C5
330
1F
100
AcDbEntity
  8
LAY-10
  6
CONTINUOUS
 62
     7
100
AcDbLine
 10
579.2448231474117
 20
740.5520497555009
 30
0.0
 11
532.4448231474133
 21
787.3520497554993
 31
0.0
  0
LINE
  5
1C6
330
1F
100
AcDbEntity
  8
LAY-10
  6
CONTINUOUS
 62
     7
100
AcDbLine
 10
593.3869587711428
 20
740.5520497555009
 30
0.0
 11
546.5869587711439
 21
787.3520497554993
 31
0.0
  0
LINE
  5
1C7
330
1F
100
AcDbEntity
  8
LAY-10
  6
CONTINUOUS
 62
     7
100
AcDbLine
 10
607.5290943948738
 20
740.5520497555009
 30
0.0
 11
560.729094394875
 21
787.3520497554993
 31
0.0
  0
LINE
  5
1C8
330
1F
100
AcDbEntity
  8
LAY-10
  6
CONTINUOUS
 62
     7
100
AcDbLine
 10
621.6712300186049
 20
740.5520497555009
 30
0.0
 11
574.8712300186061
 21
787.3520497554993
 31
0.0
  0
LINE
  5
1C9
330
1F
100
AcDbEntity
  8
LAY-10
  6
CONTINUOUS
 62
     7
100
AcDbLine
 10
635.8133656423355
 20
740.5520497555009
 30
0.0
 11
589.0133656423371
 21
787.3520497554993
 31
0.0
  0
LINE
  5
1CA
330
1F
100
AcDbEntity
  8
LAY-10
  6
CONTINUOUS
 62
     7
100
AcDbLine
 10
649.9555012660666
 20
740.5520497555009
 30
0.0
 11
603.1555012660677
 21
787.3520497554993
 31
0.0
  0
LINE
  5
1CB
330
1F
100
AcDbEntity
  8
LAY-10
  6
CONTINUOUS
 62
     7
100
AcDbLine
 10
664.0976368897976
 20
740.5520497555009
 30
0.0
 11
617.2976368897988
 21
787.3520497554993
 31
0.0
  0
LINE
  5
1CC
330
1F
100
AcDbEntity
  8
LAY-10
  6
CONTINUOUS
 62
     7
100
AcDbLine
 10
678.2397725135287
 20
740.5520497555009
 30
0.0
 11
631.4397725135299
 21
787.3520497554993
 31
0.0
  0
LINE
  5
1CD
330
1F
100
AcDbEntity
  8
LAY-10
  6
CONTINUOUS
 62
     7
100
AcDbLine
 10
692.3819081372593
 20
740.5520497555009
 30
0.0
 11
645.5819081372609
 21
787.3520497554993
 31
0.0
  0
LINE
  5
1CE
330
1F
100
AcDbEntity
  8
LAY-10
  6
CONTINUOUS
 62
     7
100
AcDbLine
 10
706.5240437609904
 20
740.5520497555009
 30
0.0
 11
659.7240437609914
 21
787.3520497554993
 31
0.0
  0
LINE
  5
1CF
330
1F
100
AcDbEntity
  8
LAY-10
  6
CONTINUOUS
 62
     7
100
AcDbLine
 10
720.6661793847214
 20
740.5520497555009
 30
0.0
 11
673.8661793847226
 21
787.3520497554993
 31
0.0
  0
LINE
  5
1D0
330
1F
100
AcDbEntity
  8
LAY-10
  6
CONTINUOUS
 62
     7
100
AcDbLine
 10
734.8083150084525
 20
740.5520497555009
 30
0.0
 11
688.0083150084537
 21
787.3520497554993
 31
0.0
  0
LINE
  5
1D1
330
1F
100
AcDbEntity
  8
LAY-10
  6
CONTINUOUS
 62
     7
100
AcDbLine
 10
748.9504506321831
 20
740.5520497555009
 30
0.0
 11
702.1504506321847
 21
787.3520497554993
 31
0.0
  0
LINE
  5
1D2
330
1F
100
AcDbEntity
  8
LAY-10
  6
CONTINUOUS
 62
     7
100
AcDbLine
 10
763.0925862559142
 20
740.5520497555009
 30
0.0
 11
716.2925862559152
 21
787.3520497554993
 31
0.0
  0
LINE
  5
1D3
330
1F
100
AcDbEntity
  8
LAY-10
  6
CONTINUOUS
 62
     7
100
AcDbLine
 10
777.2347218796455
 20
740.5520497555009
 30
0.0
 11
730.4347218796463
 21
787.3520497554993
 31
0.0
  0
LINE
  5
1D4
330
1F
100
AcDbEntity
  8
LAY-10
  6
CONTINUOUS
 62
     7
100
AcDbLine
 10
791.3768575033765
 20
740.5520497555009
 30
0.0
 11
744.5768575033774
 21
787.3520497554993
 31
0.0
  0
LINE
  5
1D5
330
1F
100
AcDbEntity
  8
LAY-10
  6
CONTINUOUS
 62
     7
100
AcDbLine
 10
805.518993127107
 20
740.5520497555009
 30
0.0
 11
758.7189931271084
 21
787.3520497554993
 31
0.0
  0
LINE
  5
1D6
330
1F
100
AcDbEntity
  8
LAY-10
  6
CONTINUOUS
 62
     7
100
AcDbLine
 10
819.6611287508381
 20
740.5520497555009
 30
0.0
 11
772.8611287508392
 21
787.3520497554993
 31
0.0
  0
LINE
  5
1D7
330
1F
100
AcDbEntity
  8
LAY-10
  6
CONTINUOUS
 62
     7
100
AcDbLine
 10
833.8032643745692
 20
740.5520497555009
 30
0.0
 11
787.0032643745702
 21
787.3520497554993
 31
0.0
  0
LINE
  5
1D8
330
1F
100
AcDbEntity
  8
LAY-10
  6
CONTINUOUS
 62
     7
100
AcDbLine
 10
847.9453999982996
 20
740.5520497555009
 30
0.0
 11
801.1453999983013
 21
787.3520497554993
 31
0.0
  0
LINE
  5
1D9
330
1F
100
AcDbEntity
  8
LAY-10
  6
CONTINUOUS
 62
     7
100
AcDbLine
 10
862.0875356220307
 20
740.5520497555009
 30
0.0
 11
815.2875356220324
 21
787.3520497554993
 31
0.0
  0
LINE
  5
1DA
330
1F
100
AcDbEntity
  8
LAY-10
  6
CONTINUOUS
 62
     7
100
AcDbLine
 10
876.2296712457618
 20
740.5520497555009
 30
0.0
 11
829.429671245763
 21
787.3520497554993
 31
0.0
  0
LINE
  5
1DB
330
1F
100
AcDbEntity
  8
LAY-10
  6
CONTINUOUS
 62
     7
100
AcDbLine
 10
890.3718068694928
 20
740.5520497555009
 30
0.0
 11
843.571806869494
 21
787.3520497554993
 31
0.0
  0
LINE
  5
1DC
330
1F
100
AcDbEntity
  8
LAY-10
  6
CONTINUOUS
 62
     7
100
AcDbLine
 10
904.5139424932235
 20
740.5520497555009
 30
0.0
 11
857.7139424932251
 21
787.3520497554993
 31
0.0
  0
LINE
  5
1DD
330
1F
100
AcDbEntity
  8
LAY-10
  6
CONTINUOUS
 62
     7
100
AcDbLine
 10
918.6560781169545
 20
740.5520497555009
 30
0.0
 11
871.8560781169557
 21
787.3520497554993
 31
0.0
  0
LINE
  5
1DE
330
1F
100
AcDbEntity
  8
LAY-10
  6
CONTINUOUS
 62
     7
100
AcDbLine
 10
932.7982137406856
 20
740.5520497555009
 30
0.0
 11
885.9982137406868
 21
787.3520497554993
 31
0.0
  0
LINE
  5
1DF
330
1F
100
AcDbEntity
  8
LAY-10
  6
CONTINUOUS
 62
     7
100
AcDbLine
 10
946.9403493644166
 20
740.5520497555009
 30
0.0
 11
900.1403493644178
 21
787.3520497554993
 31
0.0
  0
LINE
  5
1E0
330
1F
100
AcDbEntity
  8
LAY-10
  6
CONTINUOUS
 62
     7
100
AcDbLine
 10
961.0824849881473
 20
740.5520497555009
 30
0.0
 11
914.2824849881489
 21
787.3520497554993
 31
0.0
  0
LINE
  5
1E1
330
1F
100
AcDbEntity
  8
LAY-10
  6
CONTINUOUS
 62
     7
100
AcDbLine
 10
975.2246206118783
 20
740.5520497555009
 30
0.0
 11
928.4246206118795
 21
787.3520497554993
 31
0.0
  0
LINE
  5
1E2
330
1F
100
AcDbEntity
  8
LAY-10
  6
CONTINUOUS
 62
     7
100
AcDbLine
 10
989.3667562356094
 20
740.5520497555009
 30
0.0
 11
942.5667562356106
 21
787.3520497554993
 31
0.0
  0
LINE
  5
1E3
330
1F
100
AcDbEntity
  8
LAY-10
  6
CONTINUOUS
 62
     7
100
AcDbLine
 10
1003.50889185934
 20
740.5520497555009
 30
0.0
 11
956.7088918593416
 21
787.3520497554993
 31
0.0
  0
LINE
  5
1E4
330
1F
100
AcDbEntity
  8
LAY-10
  6
CONTINUOUS
 62
     7
100
AcDbLine
 10
1017.651027483071
 20
740.5520497555009
 30
0.0
 11
970.8510274830727
 21
787.3520497554993
 31
0.0
  0
LINE
  5
1E5
330
1F
100
AcDbEntity
  8
LAY-10
  6
CONTINUOUS
 62
     7
100
AcDbLine
 10
1031.793163106802
 20
740.5520497555009
 30
0.0
 11
984.9931631068034
 21
787.3520497554993
 31
0.0
  0
LINE
  5
1E6
330
1F
100
AcDbEntity
  8
LAY-10
  6
CONTINUOUS
 62
     7
100
AcDbLine
 10
1045.935298730533
 20
740.5520497555009
 30
0.0
 11
999.1352987305345
 21
787.3520497554993
 31
0.0
  0
LINE
  5
1E7
330
1F
100
AcDbEntity
  8
LAY-10
  6
CONTINUOUS
 62
     7
100
AcDbLine
 10
1060.077434354264
 20
740.5520497555009
 30
0.0
 11
1013.277434354266
 21
787.3520497554993
 31
0.0
  0
LINE
  5
1E8
330
1F
100
AcDbEntity
  8
LAY-10
  6
CONTINUOUS
 62
     7
100
AcDbLine
 10
1074.219569978005
 20
740.5520497554909
 30
0.0
 11
1027.419569977997
 21
787.3520497554993
 31
0.0
  0
LINE
  5
1E9
330
1F
100
AcDbEntity
  8
LAY-10
  6
CONTINUOUS
 62
     7
100
AcDbLine
 10
1088.361705601737
 20
740.5520497554909
 30
0.0
 11
1041.561705601727
 21
787.3520497554993
 31
0.0
  0
LINE
  5
1EA
330
1F
100
AcDbEntity
  8
LAY-10
  6
CONTINUOUS
 62
     7
100
AcDbLine
 10
1102.503841225468
 20
740.5520497554909
 30
0.0
 11
1055.703841225458
 21
787.3520497554993
 31
0.0
  0
LINE
  5
1EB
330
1F
100
AcDbEntity
  8
LAY-10
  6
CONTINUOUS
 62
     7
100
AcDbLine
 10
1116.645976849198
 20
740.5520497554909
 30
0.0
 11
1069.845976849189
 21
787.3520497554993
 31
0.0
  0
LINE
  5
1EC
330
1F
100
AcDbEntity
  8
LAY-10
  6
CONTINUOUS
 62
     7
100
AcDbLine
 10
1130.788112472929
 20
740.5520497554909
 30
0.0
 11
1083.98811247292
 21
787.3520497554993
 31
0.0
  0
LINE
  5
1ED
330
1F
100
AcDbEntity
  8
LAY-10
  6
CONTINUOUS
 62
     7
100
AcDbLine
 10
1144.93024809666
 20
740.5520497554909
 30
0.0
 11
1098.130248096651
 21
787.3520497554993
 31
0.0
  0
LINE
  5
1EE
330
1F
100
AcDbEntity
  8
LAY-10
  6
CONTINUOUS
 62
     7
100
AcDbLine
 10
1159.072383720391
 20
740.5520497554909
 30
0.0
 11
1112.272383720382
 21
787.3520497554993
 31
0.0
  0
LINE
  5
1EF
330
1F
100
AcDbEntity
  8
LAY-10
  6
CONTINUOUS
 62
     7
100
AcDbLine
 10
1173.214519344122
 20
740.5520497554909
 30
0.0
 11
1126.414519344113
 21
787.3520497554993
 31
0.0
  0
LINE
  5
1F0
330
1F
100
AcDbEntity
  8
LAY-10
  6
CONTINUOUS
 62
     7
100
AcDbLine
 10
1187.356654967853
 20
740.5520497554909
 30
0.0
 11
1140.556654967844
 21
787.3520497554993
 31
0.0
  0
LINE
  5
1F1
330
1F
100
AcDbEntity
  8
LAY-10
  6
CONTINUOUS
 62
     7
100
AcDbLine
 10
1201.498790591584
 20
740.5520497554909
 30
0.0
 11
1154.698790591575
 21
787.3520497554993
 31
0.0
  0
LINE
  5
1F2
330
1F
100
AcDbEntity
  8
LAY-10
  6
CONTINUOUS
 62
     7
100
AcDbLine
 10
1215.640926215315
 20
740.5520497554909
 30
0.0
 11
1168.840926215306
 21
787.3520497554993
 31
0.0
  0
LINE
  5
1F3
330
1F
100
AcDbEntity
  8
LAY-10
  6
CONTINUOUS
 62
     7
100
AcDbLine
 10
1229.783061839046
 20
740.5520497554909
 30
0.0
 11
1182.983061839037
 21
787.3520497554993
 31
0.0
  0
LINE
  5
1F4
330
1F
100
AcDbEntity
  8
LAY-10
  6
CONTINUOUS
 62
     7
100
AcDbLine
 10
1243.925197462777
 20
740.5520497554909
 30
0.0
 11
1197.125197462768
 21
787.3520497554993
 31
0.0
  0
LINE
  5
1F5
330
1F
100
AcDbEntity
  8
LAY-10
  6
CONTINUOUS
 62
     7
100
AcDbLine
 10
1258.067333086508
 20
740.5520497554909
 30
0.0
 11
1211.267333086499
 21
787.3520497554993
 31
0.0
  0
LINE
  5
1F6
330
1F
100
AcDbEntity
  8
LAY-10
  6
CONTINUOUS
 62
     7
100
AcDbLine
 10
1272.209468710239
 20
740.5520497554909
 30
0.0
 11
1225.40946871023
 21
787.3520497554993
 31
0.0
  0
LINE
  5
1F7
330
1F
100
AcDbEntity
  8
LAY-10
  6
CONTINUOUS
 62
     7
100
AcDbLine
 10
1286.35160433397
 20
740.5520497554909
 30
0.0
 11
1239.551604333971
 21
787.3520497554892
 31
0.0
  0
LINE
  5
1F8
330
1F
100
AcDbEntity
  8
LAY-10
  6
CONTINUOUS
 62
     7
100
AcDbLine
 10
1300.493739957701
 20
740.5520497554909
 30
0.0
 11
1253.693739957702
 21
787.3520497554892
 31
0.0
  0
LINE
  5
1F9
330
1F
100
AcDbEntity
  8
LAY-10
  6
CONTINUOUS
 62
     7
100
AcDbLine
 10
1314.635875581432
 20
740.5520497554909
 30
0.0
 11
1267.835875581433
 21
787.3520497554892
 31
0.0
  0
LINE
  5
1FA
330
1F
100
AcDbEntity
  8
LAY-10
  6
CONTINUOUS
 62
     7
100
AcDbLine
 10
1328.778011205163
 20
740.5520497554909
 30
0.0
 11
1281.978011205164
 21
787.3520497554892
 31
0.0
  0
LINE
  5
1FB
330
1F
100
AcDbEntity
  8
LAY-10
  6
CONTINUOUS
 62
     7
100
AcDbLine
 10
1342.920146828893
 20
740.5520497554909
 30
0.0
 11
1296.120146828895
 21
787.3520497554892
 31
0.0
  0
LINE
  5
1FC
330
1F
100
AcDbEntity
  8
LAY-10
  6
CONTINUOUS
 62
     7
100
AcDbLine
 10
1357.062282452624
 20
740.5520497554909
 30
0.0
 11
1310.262282452626
 21
787.3520497554892
 31
0.0
  0
LINE
  5
1FD
330
1F
100
AcDbEntity
  8
LAY-10
  6
CONTINUOUS
 62
     7
100
AcDbLine
 10
1371.204418076356
 20
740.5520497554909
 30
0.0
 11
1324.404418076356
 21
787.3520497554892
 31
0.0
  0
LINE
  5
1FE
330
1F
100
AcDbEntity
  8
LAY-10
  6
CONTINUOUS
 62
     7
100
AcDbLine
 10
1385.346553700087
 20
740.5520497554909
 30
0.0
 11
1338.546553700087
 21
787.3520497554892
 31
0.0
  0
LINE
  5
1FF
330
1F
100
AcDbEntity
  8
LAY-10
  6
CONTINUOUS
 62
     7
100
AcDbLine
 10
1399.488689323817
 20
740.5520497554909
 30
0.0
 11
1352.688689323818
 21
787.3520497554892
 31
0.0
  0
LINE
  5
200
330
1F
100
AcDbEntity
  8
LAY-10
  6
CONTINUOUS
 62
     7
100
AcDbLine
 10
1413.630824947548
 20
740.5520497554909
 30
0.0
 11
1366.830824947549
 21
787.3520497554892
 31
0.0
  0
LINE
  5
201
330
1F
100
AcDbEntity
  8
LAY-10
  6
CONTINUOUS
 62
     7
100
AcDbLine
 10
1427.772960571279
 20
740.5520497554909
 30
0.0
 11
1380.972960571281
 21
787.3520497554892
 31
0.0
  0
LINE
  5
202
330
1F
100
AcDbEntity
  8
LAY-10
  6
CONTINUOUS
 62
     7
100
AcDbLine
 10
1441.91509619501
 20
740.5520497554909
 30
0.0
 11
1395.115096195012
 21
787.3520497554892
 31
0.0
  0
LINE
  5
203
330
1F
100
AcDbEntity
  8
LAY-10
  6
CONTINUOUS
 62
     7
100
AcDbLine
 10
1456.057231818741
 20
740.5520497554909
 30
0.0
 11
1409.257231818743
 21
787.3520497554892
 31
0.0
  0
LINE
  5
204
330
1F
100
AcDbEntity
  8
LAY-10
  6
CONTINUOUS
 62
     7
100
AcDbLine
 10
1470.199367442472
 20
740.5520497554909
 30
0.0
 11
1423.399367442474
 21
787.3520497554892
 31
0.0
  0
LINE
  5
205
330
1F
100
AcDbEntity
  8
LAY-10
  6
CONTINUOUS
 62
     7
100
AcDbLine
 10
1484.341503066203
 20
740.5520497554904
 30
0.0
 11
1437.541503066204
 21
787.3520497554892
 31
0.0
  0
LINE
  5
206
330
1F
100
AcDbEntity
  8
LAY-10
  6
CONTINUOUS
 62
     7
100
AcDbLine
 10
1498.483638689934
 20
740.5520497554909
 30
0.0
 11
1451.683638689935
 21
787.3520497554892
 31
0.0
  0
LINE
  5
207
330
1F
100
AcDbEntity
  8
LAY-10
  6
CONTINUOUS
 62
     7
100
AcDbLine
 10
1509.207684156137
 20
743.9701399130181
 30
0.0
 11
1465.825774313666
 21
787.3520497554892
 31
0.0
  0
LINE
  5
208
330
1F
100
AcDbEntity
  8
LAY-10
  6
CONTINUOUS
 62
     7
100
AcDbLine
 10
1509.207684156137
 20
758.1122755367497
 30
0.0
 11
1479.967909937398
 21
787.3520497554892
 31
0.0
  0
LINE
  5
209
330
1F
100
AcDbEntity
  8
LAY-10
  6
CONTINUOUS
 62
     7
100
AcDbLine
 10
1509.207684156137
 20
772.2544111604805
 30
0.0
 11
1494.110045561128
 21
787.3520497554892
 31
0.0
  0
LINE
  5
20A
330
1F
100
AcDbEntity
  8
LAY-10
  6
CONTINUOUS
 62
     7
100
AcDbLine
 10
1509.207684156137
 20
786.3965467842115
 30
0.0
 11
1508.252181184859
 21
787.3520497554892
 31
0.0
  0
LINE
  5
20B
330
1F
100
AcDbEntity
  8
LAY-10
  6
CONTINUOUS
 62
     7
100
AcDbLine
 10
1971.02351127151
 20
1647.970691337496
 30
0.0
 11
1971.02351127151
 21
1880.970691337219
 31
0.0
  0
LINE
  5
20C
330
1F
100
AcDbEntity
  8
LAY-10
  6
CONTINUOUS
 62
     7
100
AcDbLine
 10
1924.523511271508
 20
2300.470691337397
 30
0.0
 11
1924.523511271508
 21
2315.470691337397
 31
0.0
  0
LINE
  5
20D
330
1F
100
AcDbEntity
  8
LAY-10
  6
CONTINUOUS
 62
     7
100
AcDbLine
 10
1924.523511271508
 20
2300.470691337397
 30
0.0
 11
1939.523511271508
 21
2300.470691337397
 31
0.0
  0
LINE
  5
20E
330
1F
100
AcDbEntity
  8
LAY-10
  6
CONTINUOUS
 62
     7
100
AcDbLine
 10
1927.523511271507
 20
2303.470691337394
 30
0.0
 11
1927.523511271507
 21
2315.470691337397
 31
0.0
  0
LINE
  5
20F
330
1F
100
AcDbEntity
  8
LAY-10
  6
CONTINUOUS
 62
     7
100
AcDbLine
 10
1939.523511271508
 20
2300.470691337397
 30
0.0
 11
1939.523511271508
 21
2303.470691337394
 31
0.0
  0
LINE
  5
210
330
1F
100
AcDbEntity
  8
LAY-10
  6
CONTINUOUS
 62
     7
100
AcDbLine
 10
1924.523511271508
 20
2315.470691337397
 30
0.0
 11
1927.523511271507
 21
2315.470691337397
 31
0.0
  0
LINE
  5
211
330
1F
100
AcDbEntity
  8
LAY-10
  6
CONTINUOUS
 62
     7
100
AcDbLine
 10
2046.323511271509
 20
2260.4706913374
 30
0.0
 11
2046.323511271509
 21
2214.470691337396
 31
0.0
  0
LINE
  5
212
330
1F
100
AcDbEntity
  8
LAY-10
  6
CONTINUOUS
 62
     7
100
AcDbLine
 10
1994.323511271557
 20
2256.470691337329
 30
0.0
 11
2046.323511271559
 21
2256.470691337329
 31
0.0
  0
LINE
  5
213
330
1F
100
AcDbEntity
  8
LAY-10
  6
CONTINUOUS
 62
     7
100
AcDbLine
 10
2042.723511271558
 20
2254.870691337329
 30
0.0
 11
1995.923511271557
 21
2254.870691337329
 31
0.0
  0
LINE
  5
214
330
1F
100
AcDbEntity
  8
LAY-10
  6
CONTINUOUS
 62
     7
100
AcDbLine
 10
2046.323511271559
 20
2231.470691337331
 30
0.0
 11
2044.323511271557
 21
2231.470691337331
 31
0.0
  0
LINE
  5
215
330
1F
100
AcDbEntity
  8
LAY-10
  6
CONTINUOUS
 62
     7
100
AcDbLine
 10
2049.52351127151
 20
2260.670691337402
 30
0.0
 11
2049.52351127151
 21
2214.470691337396
 31
0.0
  0
LINE
  5
216
330
1F
100
AcDbEntity
  8
LAY-10
  6
CONTINUOUS
 62
     7
100
AcDbLine
 10
2046.323511271513
 20
2214.470691337396
 30
0.0
 11
2049.52351127151
 21
2214.470691337396
 31
0.0
  0
ARC
  5
217
330
1F
100
AcDbEntity
  8
LAY-10
  6
CONTINUOUS
 62
     7
100
AcDbCircle
 10
2046.523511271509
 20
2260.670691337402
 30
0.0
 40
3.000000000000003
100
AcDbArc
 50
0.0
 51
90.00000000000001
  0
LINE
  5
218
330
1F
100
AcDbEntity
  8
LAY-10
  6
CONTINUOUS
 62
     7
100
AcDbLine
 10
1977.223511271496
 20
2263.670691337403
 30
0.0
 11
2046.523511271509
 21
2263.670691337403
 31
0.0
  0
LINE
  5
219
330
1F
100
AcDbEntity
  8
LAY-10
  6
CONTINUOUS
 62
     7
100
AcDbLine
 10
1977.023511271497
 20
2260.4706913374
 30
0.0
 11
2046.323511271513
 21
2260.4706913374
 31
0.0
  0
ARC
  5
21A
330
1F
100
AcDbEntity
  8
LAY-10
  6
CONTINUOUS
 62
     7
100
AcDbCircle
 10
1968.023511271498
 20
2300.470691337363
 30
0.0
 40
3.000000000000003
100
AcDbArc
 50
0.0
 51
90.00000000000001
  0
ARC
  5
21B
330
1F
100
AcDbEntity
  8
LAY-10
  6
CONTINUOUS
 62
     7
100
AcDbCircle
 10
1968.223511271497
 20
2300.670691337362
 30
0.0
 40
6.000000000000006
100
AcDbArc
 50
0.0
 51
90.00000000000001
  0
ARC
  5
21C
330
1F
100
AcDbEntity
  8
LAY-10
  6
CONTINUOUS
 62
     7
100
AcDbCircle
 10
1977.223511271496
 20
2266.670691337402
 30
0.0
 40
3.000000000000003
100
AcDbArc
 50
180.0
 51
270.0
  0
ARC
  5
21D
330
1F
100
AcDbEntity
  8
LAY-10
  6
CONTINUOUS
 62
     7
100
AcDbCircle
 10
1977.023511271497
 20
2266.470691337402
 30
0.0
 40
6.000000000000006
100
AcDbArc
 50
180.0
 51
270.0
  0
LINE
  5
21E
330
1F
100
AcDbEntity
  8
LAY-10
  6
CONTINUOUS
 62
     7
100
AcDbLine
 10
1982.223511271598
 20
2273.356982838408
 30
0.0
 11
1974.223511271597
 21
2273.356982838408
 31
0.0
  0
LINE
  5
21F
330
1F
100
AcDbEntity
  8
LAY-10
  6
CONTINUOUS
 62
     7
100
AcDbLine
 10
1982.223511271598
 20
2303.35698283841
 30
0.0
 11
1982.223511271598
 21
2273.356982838408
 31
0.0
  0
ARC
  5
220
330
1F
100
AcDbEntity
  8
LAY-10
  6
CONTINUOUS
 62
     7
100
AcDbCircle
 10
1982.223511271598
 20
2303.35698283841
 30
0.0
 40
8.0
100
AcDbArc
 50
135.0000000000047
 51
180.0
  0
LINE
  5
221
330
1F
100
AcDbEntity
  8
LAY-10
  6
CONTINUOUS
 62
     7
100
AcDbLine
 10
2011.921996081432
 20
2344.369176147229
 30
0.0
 11
1976.566657022105
 21
2309.013837087902
 31
0.0
  0
LINE
  5
222
330
1F
100
AcDbEntity
  8
LAY-10
  6
CONTINUOUS
 62
     7
100
AcDbLine
 10
2017.578850330923
 20
2338.712321897739
 30
0.0
 11
1982.223511271598
 21
2303.35698283841
 31
0.0
  0
LINE
  5
223
330
1F
100
AcDbEntity
  8
LAY-10
  6
CONTINUOUS
 62
     7
100
AcDbLine
 10
2011.921996081432
 20
2344.369176147229
 30
0.0
 11
2017.578850330925
 21
2338.712321897739
 31
0.0
  0
LINE
  5
224
330
1F
100
AcDbEntity
  8
LAY-10
  6
CONTINUOUS
 62
     7
100
AcDbLine
 10
1974.223511271498
 20
2266.670691337402
 30
0.0
 11
1974.223511271498
 21
2303.35698283841
 31
0.0
  0
LINE
  5
225
330
1F
100
AcDbEntity
  8
LAY-10
  6
CONTINUOUS
 62
     7
100
AcDbLine
 10
1927.523511271507
 20
2303.470691337394
 30
0.0
 11
1968.023511271498
 21
2303.470691337394
 31
0.0
  0
LINE
  5
226
330
1F
100
AcDbEntity
  8
LAY-10
  6
CONTINUOUS
 62
     7
100
AcDbLine
 10
1968.223511271497
 20
2306.670691337393
 30
0.0
 11
1927.523511271507
 21
2306.670691337393
 31
0.0
  0
LINE
  5
227
330
1F
100
AcDbEntity
  8
LAY-10
  6
CONTINUOUS
 62
     7
100
AcDbLine
 10
1971.0235112715
 20
2299.470691337399
 30
0.0
 11
1924.523511271515
 21
2299.470691337399
 31
0.0
  0
LINE
  5
228
330
1F
100
AcDbEntity
  8
LAY-10
  6
CONTINUOUS
 62
     7
100
AcDbLine
 10
1969.023511271521
 20
2298.961137777381
 30
0.0
 11
1971.023511271524
 21
2297.155841119176
 31
0.0
  0
LINE
  5
229
330
1F
100
AcDbEntity
  8
LAY-10
  6
CONTINUOUS
 62
     7
100
AcDbLine
 10
1969.023511271523
 20
2298.254030996193
 30
0.0
 11
1971.023511271524
 21
2296.448734337991
 31
0.0
  0
LINE
  5
22A
330
1F
100
AcDbEntity
  8
LAY-10
  6
CONTINUOUS
 62
     7
100
AcDbLine
 10
1969.023511271521
 20
2297.546924215008
 30
0.0
 11
1971.023511271524
 21
2295.741627556802
 31
0.0
  0
LINE
  5
22B
330
1F
100
AcDbEntity
  8
LAY-10
  6
CONTINUOUS
 62
     7
100
AcDbLine
 10
1969.023511271523
 20
2296.839817433819
 30
0.0
 11
1971.023511271524
 21
2295.034520775618
 31
0.0
  0
LINE
  5
22C
330
1F
100
AcDbEntity
  8
LAY-10
  6
CONTINUOUS
 62
     7
100
AcDbLine
 10
1969.023511271521
 20
2296.132710652636
 30
0.0
 11
1971.023511271524
 21
2294.32741399443
 31
0.0
  0
LINE
  5
22D
330
1F
100
AcDbEntity
  8
LAY-10
  6
CONTINUOUS
 62
     7
100
AcDbLine
 10
1969.023511271523
 20
2295.425603871448
 30
0.0
 11
1971.0254613804
 21
2293.623653762572
 31
0.0
  0
LINE
  5
22E
330
1F
100
AcDbEntity
  8
LAY-10
  6
CONTINUOUS
 62
     7
100
AcDbLine
 10
1969.023511271521
 20
2294.718497090261
 30
0.0
 11
1971.023511271524
 21
2292.916950351943
 31
0.0
  0
LINE
  5
22F
330
1F
100
AcDbEntity
  8
LAY-10
  6
CONTINUOUS
 62
     7
100
AcDbLine
 10
1969.023511271523
 20
2294.011390309075
 30
0.0
 11
1971.023511271521
 21
2292.211390309076
 31
0.0
  0
LINE
  5
230
330
1F
100
AcDbEntity
  8
LAY-10
  6
CONTINUOUS
 62
     7
100
AcDbLine
 10
1969.023511271521
 20
2293.30428352789
 30
0.0
 11
1971.023511271525
 21
2291.504283527889
 31
0.0
  0
LINE
  5
231
330
1F
100
AcDbEntity
  8
LAY-10
  6
CONTINUOUS
 62
     7
100
AcDbLine
 10
1969.023511271523
 20
2292.597176746702
 30
0.0
 11
1971.023511271521
 21
2290.797176746704
 31
0.0
  0
LINE
  5
232
330
1F
100
AcDbEntity
  8
LAY-10
  6
CONTINUOUS
 62
     7
100
AcDbLine
 10
1969.023511271521
 20
2291.890069965517
 30
0.0
 11
1971.023511271525
 21
2290.090069965516
 31
0.0
  0
LINE
  5
233
330
1F
100
AcDbEntity
  8
LAY-10
  6
CONTINUOUS
 62
     7
100
AcDbLine
 10
1969.023511271523
 20
2291.182963184328
 30
0.0
 11
1971.023511271521
 21
2289.38296318433
 31
0.0
  0
LINE
  5
234
330
1F
100
AcDbEntity
  8
LAY-10
  6
CONTINUOUS
 62
     7
100
AcDbLine
 10
1969.023511271521
 20
2290.475856403144
 30
0.0
 11
1971.023511271525
 21
2288.675856403143
 31
0.0
  0
LINE
  5
235
330
1F
100
AcDbEntity
  8
LAY-10
  6
CONTINUOUS
 62
     7
100
AcDbLine
 10
1969.023511271523
 20
2289.768749621956
 30
0.0
 11
1971.023511271521
 21
2287.968749621958
 31
0.0
  0
LINE
  5
236
330
1F
100
AcDbEntity
  8
LAY-10
  6
CONTINUOUS
 62
     7
100
AcDbLine
 10
1969.023511271521
 20
2289.061642840771
 30
0.0
 11
1971.023511271525
 21
2287.261642840767
 31
0.0
  0
LINE
  5
237
330
1F
100
AcDbEntity
  8
LAY-10
  6
CONTINUOUS
 62
     7
100
AcDbLine
 10
1969.023511271523
 20
2288.354536059583
 30
0.0
 11
1971.023511271521
 21
2286.554536059584
 31
0.0
  0
LINE
  5
238
330
1F
100
AcDbEntity
  8
LAY-10
  6
CONTINUOUS
 62
     7
100
AcDbLine
 10
1969.023511271521
 20
2287.647429278398
 30
0.0
 11
1971.023511271525
 21
2285.847429278395
 31
0.0
  0
LINE
  5
239
330
1F
100
AcDbEntity
  8
LAY-10
  6
CONTINUOUS
 62
     7
100
AcDbLine
 10
1969.023511271523
 20
2286.94032249721
 30
0.0
 11
1971.023511271521
 21
2285.140322497212
 31
0.0
  0
LINE
  5
23A
330
1F
100
AcDbEntity
  8
LAY-10
  6
CONTINUOUS
 62
     7
100
AcDbLine
 10
1969.023511271521
 20
2286.233215716024
 30
0.0
 11
1971.023511271525
 21
2284.433215716022
 31
0.0
  0
LINE
  5
23B
330
1F
100
AcDbEntity
  8
LAY-10
  6
CONTINUOUS
 62
     7
100
AcDbLine
 10
1969.023511271523
 20
2285.526108934836
 30
0.0
 11
1971.02351127152
 21
2283.726108934839
 31
0.0
  0
LINE
  5
23C
330
1F
100
AcDbEntity
  8
LAY-10
  6
CONTINUOUS
 62
     7
100
AcDbLine
 10
1969.023511271521
 20
2284.819002153652
 30
0.0
 11
1971.023511271525
 21
2283.019002153649
 31
0.0
  0
LINE
  5
23D
330
1F
100
AcDbEntity
  8
LAY-10
  6
CONTINUOUS
 62
     7
100
AcDbLine
 10
1969.023511271523
 20
2284.111895372461
 30
0.0
 11
1971.02351127152
 21
2282.311895372467
 31
0.0
  0
LINE
  5
23E
330
1F
100
AcDbEntity
  8
LAY-10
  6
CONTINUOUS
 62
     7
100
AcDbLine
 10
1969.023511271521
 20
2283.404788591278
 30
0.0
 11
1971.023511271525
 21
2281.604788591276
 31
0.0
  0
LINE
  5
23F
330
1F
100
AcDbEntity
  8
LAY-10
  6
CONTINUOUS
 62
     7
100
AcDbLine
 10
1969.023511271523
 20
2282.69768181009
 30
0.0
 11
1971.02351127152
 21
2280.897681810093
 31
0.0
  0
LINE
  5
240
330
1F
100
AcDbEntity
  8
LAY-10
  6
CONTINUOUS
 62
     7
100
AcDbLine
 10
1969.023511271521
 20
2281.990575028906
 30
0.0
 11
1971.023511271525
 21
2280.190575028904
 31
0.0
  0
LINE
  5
241
330
1F
100
AcDbEntity
  8
LAY-10
  6
CONTINUOUS
 62
     7
100
AcDbLine
 10
1969.023511271523
 20
2281.283468247716
 30
0.0
 11
1971.02351127152
 21
2279.48346824772
 31
0.0
  0
LINE
  5
242
330
1F
100
AcDbEntity
  8
LAY-10
  6
CONTINUOUS
 62
     7
100
AcDbLine
 10
1969.023511271521
 20
2280.576361466533
 30
0.0
 11
1971.023511271523
 21
2278.77636146653
 31
0.0
  0
LINE
  5
243
330
1F
100
AcDbEntity
  8
LAY-10
  6
CONTINUOUS
 62
     7
100
AcDbLine
 10
1969.023511271523
 20
2279.869254685344
 30
0.0
 11
1971.02351127152
 21
2278.069254685347
 31
0.0
  0
LINE
  5
244
330
1F
100
AcDbEntity
  8
LAY-10
  6
CONTINUOUS
 62
     7
100
AcDbLine
 10
1969.023511271521
 20
2279.162147904161
 30
0.0
 11
1971.023511271523
 21
2277.362147904158
 31
0.0
  0
LINE
  5
245
330
1F
100
AcDbEntity
  8
LAY-10
  6
CONTINUOUS
 62
     7
100
AcDbLine
 10
1969.023511271523
 20
2278.455041122971
 30
0.0
 11
1971.02351127152
 21
2276.655041122975
 31
0.0
  0
LINE
  5
246
330
1F
100
AcDbEntity
  8
LAY-10
  6
CONTINUOUS
 62
     7
100
AcDbLine
 10
1969.023511271521
 20
2277.747934341788
 30
0.0
 11
1971.023511271523
 21
2275.947934341784
 31
0.0
  0
LINE
  5
247
330
1F
100
AcDbEntity
  8
LAY-10
  6
CONTINUOUS
 62
     7
100
AcDbLine
 10
1969.023511271523
 20
2277.040827560598
 30
0.0
 11
1971.02351127152
 21
2275.240827560602
 31
0.0
  0
LINE
  5
248
330
1F
100
AcDbEntity
  8
LAY-10
  6
CONTINUOUS
 62
     7
100
AcDbLine
 10
1969.02351127152
 20
2276.333720779415
 30
0.0
 11
1971.023511271523
 21
2274.533720779412
 31
0.0
  0
LINE
  5
249
330
1F
100
AcDbEntity
  8
LAY-10
  6
CONTINUOUS
 62
     7
100
AcDbLine
 10
1969.023511271523
 20
2275.626613998224
 30
0.0
 11
1971.02351127152
 21
2273.826613998229
 31
0.0
  0
LINE
  5
24A
330
1F
100
AcDbEntity
  8
LAY-10
  6
CONTINUOUS
 62
     7
100
AcDbLine
 10
1969.02351127152
 20
2274.919507217042
 30
0.0
 11
1971.023511271523
 21
2273.119507217039
 31
0.0
  0
LINE
  5
24B
330
1F
100
AcDbEntity
  8
LAY-10
  6
CONTINUOUS
 62
     7
100
AcDbLine
 10
1969.023511271523
 20
2274.212400435852
 30
0.0
 11
1971.02351127152
 21
2272.412400435855
 31
0.0
  0
LINE
  5
24C
330
1F
100
AcDbEntity
  8
LAY-10
  6
CONTINUOUS
 62
     7
100
AcDbLine
 10
1969.02351127152
 20
2273.505293654669
 30
0.0
 11
1971.023511271523
 21
2271.705293654667
 31
0.0
  0
LINE
  5
24D
330
1F
100
AcDbEntity
  8
LAY-10
  6
CONTINUOUS
 62
     7
100
AcDbLine
 10
1969.023511271523
 20
2272.798186873478
 30
0.0
 11
1971.02351127152
 21
2270.998186873483
 31
0.0
  0
LINE
  5
24E
330
1F
100
AcDbEntity
  8
LAY-10
  6
CONTINUOUS
 62
     7
100
AcDbLine
 10
1969.02351127152
 20
2272.091080092296
 30
0.0
 11
1971.023511271523
 21
2270.291080092293
 31
0.0
  0
LINE
  5
24F
330
1F
100
AcDbEntity
  8
LAY-10
  6
CONTINUOUS
 62
     7
100
AcDbLine
 10
1969.023511271522
 20
2271.383973311106
 30
0.0
 11
1971.02351127152
 21
2269.583973311109
 31
0.0
  0
LINE
  5
250
330
1F
100
AcDbEntity
  8
LAY-10
  6
CONTINUOUS
 62
     7
100
AcDbLine
 10
1969.02351127152
 20
2270.676866529924
 30
0.0
 11
1970.429686464303
 21
2269.470691337141
 31
0.0
  0
LINE
  5
251
330
1F
100
AcDbEntity
  8
LAY-10
  6
CONTINUOUS
 62
     7
100
AcDbLine
 10
1969.023511271522
 20
2269.969759748733
 30
0.0
 11
1969.52257968312
 21
2269.470691337138
 31
0.0
  0
LINE
  5
252
330
1F
100
AcDbEntity
  8
LAY-10
  6
CONTINUOUS
 62
     7
100
AcDbLine
 10
1969.242370837287
 20
2299.470691337221
 30
0.0
 11
1971.023511271524
 21
2297.862947900363
 31
0.0
  0
LINE
  5
253
330
1F
100
AcDbEntity
  8
LAY-10
  6
CONTINUOUS
 62
     7
100
AcDbLine
 10
1970.025739906269
 20
2299.470691337221
 30
0.0
 11
1971.023511271524
 21
2298.570054681548
 31
0.0
  0
LINE
  5
254
330
1F
100
AcDbEntity
  8
LAY-10
  6
CONTINUOUS
 62
     7
100
AcDbLine
 10
1970.809108975253
 20
2299.470691337221
 30
0.0
 11
1971.023511271524
 21
2299.277161462737
 31
0.0
  0
LINE
  5
255
330
1F
100
AcDbEntity
  8
LAY-10
  6
CONTINUOUS
 62
     7
100
AcDbLine
 10
1969.023511271525
 20
2269.470691337289
 30
0.0
 11
1971.023511271525
 21
2269.470691337289
 31
0.0
  0
ARC
  5
256
330
1F
100
AcDbEntity
  8
LAY-10
  6
CONTINUOUS
 62
     7
100
AcDbCircle
 10
1968.023511271529
 20
2261.470691337439
 30
0.0
 40
2.0
100
AcDbArc
 50
180.0
 51
270.0
  0
ARC
  5
257
330
1F
100
AcDbEntity
  8
LAY-10
  6
CONTINUOUS
 62
     7
100
AcDbCircle
 10
1931.023511271528
 20
2298.470691337439
 30
0.0
 40
2.0
100
AcDbArc
 50
180.0
 51
270.0
  0
ARC
  5
258
330
1F
100
AcDbEntity
  8
LAY-10
  6
CONTINUOUS
 62
     7
100
AcDbCircle
 10
1961.523511271528
 20
2291.970691337439
 30
0.0
 40
4.5
100
AcDbArc
 50
0.0000000000001719
 51
90.00000000000001
  0
LINE
  5
259
330
1F
100
AcDbEntity
  8
LAY-10
  6
CONTINUOUS
 62
     7
100
AcDbLine
 10
1969.023511271528
 20
2259.470691337439
 30
0.0
 11
1968.023511271529
 21
2259.470691337439
 31
0.0
  0
LINE
  5
25A
330
1F
100
AcDbEntity
  8
LAY-10
  6
CONTINUOUS
 62
     7
100
AcDbLine
 10
1961.523511271528
 20
2296.470691337439
 30
0.0
 11
1931.023511271529
 21
2296.470691337439
 31
0.0
  0
ARC
  5
25B
330
1F
100
AcDbEntity
  8
LAY-10
  6
CONTINUOUS
 62
     7
100
AcDbCircle
 10
1935.57917189952
 20
2264.905234815647
 30
0.0
 40
11.44452137582097
100
AcDbArc
 50
325.7892959705179
 51
359.6768682252611
  0
ARC
  5
25C
330
1F
100
AcDbEntity
  8
LAY-10
  6
CONTINUOUS
 62
     7
100
AcDbCircle
 10
1899.589808009758
 20
2260.10651870413
 30
0.0
 40
47.66936747686547
100
AcDbArc
 50
5.69959291512632
 51
17.53745579046277
  0
ARC
  5
25D
330
1F
100
AcDbEntity
  8
LAY-10
  6
CONTINUOUS
 62
     7
100
AcDbCircle
 10
1935.57917189952
 20
2284.036147859044
 30
0.0
 40
11.44452137582097
100
AcDbArc
 50
0.3231317747390464
 51
34.21070402948217
  0
ARC
  5
25E
330
1F
100
AcDbEntity
  8
LAY-10
  6
CONTINUOUS
 62
     7
100
AcDbCircle
 10
1899.589808009758
 20
2288.83486397056
 30
0.0
 40
47.66936747686547
100
AcDbArc
 50
342.4625442095373
 51
354.3004070848737
  0
LINE
  5
25F
330
1F
100
AcDbEntity
  8
LAY-10
  6
CONTINUOUS
 62
     7
100
AcDbLine
 10
1929.0235112715
 20
2274.470691337346
 30
0.0
 11
1945.0435112715
 21
2274.470691337346
 31
0.0
  0
LINE
  5
260
330
1F
100
AcDbEntity
  8
LAY-10
  6
CONTINUOUS
 62
     7
100
AcDbLine
 10
1929.0235112715
 20
2290.470691337364
 30
0.0
 11
1945.0435112715
 21
2290.470691337364
 31
0.0
  0
ARC
  5
261
330
1F
100
AcDbEntity
  8
LAY-10
  6
CONTINUOUS
 62
     7
100
AcDbCircle
 10
1944.818238047457
 20
2261.151429042305
 30
0.0
 40
2.690186363068871
100
AcDbArc
 50
274.8035101233804
 51
325.0595135576195
  0
ARC
  5
262
330
1F
100
AcDbEntity
  8
LAY-10
  6
CONTINUOUS
 62
     7
100
AcDbCircle
 10
1944.818238047457
 20
2287.789953632387
 30
0.0
 40
2.690186363068871
100
AcDbArc
 50
34.94048644238069
 51
85.19648987661962
  0
LINE
  5
263
330
1F
100
AcDbEntity
  8
LAY-10
  6
CONTINUOUS
 62
     7
100
AcDbLine
 10
902.3076841562968
 20
812.25204975559
 30
0.0
 11
1135.30768415602
 21
812.25204975559
 31
0.0
  0
ARC
  5
264
330
1F
100
AcDbEntity
  8
LAY-10
  6
CONTINUOUS
 62
     7
100
AcDbCircle
 10
979.8076841562398
 20
815.2520497555713
 30
0.0
 40
2.0
100
AcDbArc
 50
90.00000000000001
 51
180.0
  0
ARC
  5
265
330
1F
100
AcDbEntity
  8
LAY-10
  6
CONTINUOUS
 62
     7
100
AcDbCircle
 10
1016.80768415624
 20
852.2520497555723
 30
0.0
 40
2.0
100
AcDbArc
 50
90.00000000000001
 51
180.0
  0
ARC
  5
266
330
1F
100
AcDbEntity
  8
LAY-10
  6
CONTINUOUS
 62
     7
100
AcDbCircle
 10
1010.30768415624
 20
821.7520497555722
 30
0.0
 40
4.5
100
AcDbArc
 50
270.0000000000002
 51
0.0
  0
LINE
  5
267
330
1F
100
AcDbEntity
  8
LAY-10
  6
CONTINUOUS
 62
     7
100
AcDbLine
 10
977.8076841562398
 20
814.2520497555722
 30
0.0
 11
977.8076841562398
 21
815.2520497555713
 31
0.0
  0
LINE
  5
268
330
1F
100
AcDbEntity
  8
LAY-10
  6
CONTINUOUS
 62
     7
100
AcDbLine
 10
1014.80768415624
 20
821.7520497555722
 30
0.0
 11
1014.80768415624
 21
852.2520497555713
 31
0.0
  0
LINE
  5
269
330
1F
100
AcDbEntity
  8
LAY-10
  6
CONTINUOUS
 62
     7
100
AcDbLine
 10
1017.80768415624
 20
814.2520497555722
 30
0.0
 11
1017.80768415624
 21
858.752049755575
 31
0.0
  0
ARC
  5
26A
330
1F
100
AcDbEntity
  8
LAY-10
  6
CONTINUOUS
 62
     7
100
AcDbCircle
 10
1020.8076841562
 20
852.2520497555822
 30
0.0
 40
2.0
100
AcDbArc
 50
0.0000000000000573
 51
90.00000000000009
  0
LINE
  5
26B
330
1F
100
AcDbEntity
  8
LAY-10
  6
CONTINUOUS
 62
     7
100
AcDbLine
 10
1022.8076841562
 20
821.7520497555822
 30
0.0
 11
1022.8076841562
 21
852.2520497555814
 31
0.0
  0
ARC
  5
26C
330
1F
100
AcDbEntity
  8
LAY-10
  6
CONTINUOUS
 62
     7
100
AcDbCircle
 10
1027.3076841562
 20
821.7520497555822
 30
0.0
 40
4.5
100
AcDbArc
 50
180.0000000000002
 51
270.0000000000002
  0
ARC
  5
26D
330
1F
100
AcDbEntity
  8
LAY-10
  6
CONTINUOUS
 62
     7
100
AcDbCircle
 10
1057.8076841562
 20
815.2520497555813
 30
0.0
 40
2.0
100
AcDbArc
 50
0.0000000000000573
 51
90.00000000000009
  0
LINE
  5
26E
330
1F
100
AcDbEntity
  8
LAY-10
  6
CONTINUOUS
 62
     7
100
AcDbLine
 10
1059.8076841562
 20
814.2520497555822
 30
0.0
 11
1059.8076841562
 21
815.2520497555813
 31
0.0
  0
LINE
  5
26F
330
1F
100
AcDbEntity
  8
LAY-10
  6
CONTINUOUS
 62
     7
100
AcDbLine
 10
1019.8076841562
 20
858.7520497555801
 30
0.0
 11
1019.8076841562
 21
814.2520497555912
 31
0.0
  0
LINE
  5
270
330
1F
100
AcDbEntity
  8
LAY-10
  6
CONTINUOUS
 62
     7
100
AcDbLine
 10
1924.523511271508
 20
1228.470691337337
 30
0.0
 11
1924.523511271508
 21
1213.470691337337
 31
0.0
  0
LINE
  5
271
330
1F
100
AcDbEntity
  8
LAY-10
  6
CONTINUOUS
 62
     7
100
AcDbLine
 10
1924.523511271508
 20
1228.470691337337
 30
0.0
 11
1939.523511271508
 21
1228.470691337337
 31
0.0
  0
LINE
  5
272
330
1F
100
AcDbEntity
  8
LAY-10
  6
CONTINUOUS
 62
     7
100
AcDbLine
 10
1927.523511271507
 20
1225.47069133734
 30
0.0
 11
1927.523511271507
 21
1213.470691337337
 31
0.0
  0
LINE
  5
273
330
1F
100
AcDbEntity
  8
LAY-10
  6
CONTINUOUS
 62
     7
100
AcDbLine
 10
1939.523511271508
 20
1228.470691337337
 30
0.0
 11
1939.523511271508
 21
1225.47069133734
 31
0.0
  0
LINE
  5
274
330
1F
100
AcDbEntity
  8
LAY-10
  6
CONTINUOUS
 62
     7
100
AcDbLine
 10
1924.523511271508
 20
1213.470691337337
 30
0.0
 11
1927.523511271507
 21
1213.470691337337
 31
0.0
  0
LINE
  5
275
330
1F
100
AcDbEntity
  8
LAY-10
  6
CONTINUOUS
 62
     7
100
AcDbLine
 10
2046.323511271509
 20
1268.470691337335
 30
0.0
 11
2046.323511271509
 21
1314.470691337339
 31
0.0
  0
LINE
  5
276
330
1F
100
AcDbEntity
  8
LAY-10
  6
CONTINUOUS
 62
     7
100
AcDbLine
 10
1994.323511271557
 20
1272.470691337406
 30
0.0
 11
2046.323511271559
 21
1272.470691337406
 31
0.0
  0
LINE
  5
277
330
1F
100
AcDbEntity
  8
LAY-10
  6
CONTINUOUS
 62
     7
100
AcDbLine
 10
2042.723511271558
 20
1274.070691337405
 30
0.0
 11
1995.923511271557
 21
1274.070691337405
 31
0.0
  0
LINE
  5
278
330
1F
100
AcDbEntity
  8
LAY-10
  6
CONTINUOUS
 62
     7
100
AcDbLine
 10
2046.323511271559
 20
1297.470691337404
 30
0.0
 11
2044.323511271557
 21
1297.470691337404
 31
0.0
  0
LINE
  5
279
330
1F
100
AcDbEntity
  8
LAY-10
  6
CONTINUOUS
 62
     7
100
AcDbLine
 10
2049.52351127151
 20
1268.270691337332
 30
0.0
 11
2049.52351127151
 21
1314.470691337339
 31
0.0
  0
LINE
  5
27A
330
1F
100
AcDbEntity
  8
LAY-10
  6
CONTINUOUS
 62
     7
100
AcDbLine
 10
2046.323511271513
 20
1314.470691337339
 30
0.0
 11
2049.52351127151
 21
1314.470691337339
 31
0.0
  0
ARC
  5
27B
330
1F
100
AcDbEntity
  8
LAY-10
  6
CONTINUOUS
 62
     7
100
AcDbCircle
 10
2046.523511271509
 20
1268.270691337332
 30
0.0
 40
3.000000000000003
100
AcDbArc
 50
270.0
 51
0.0000000000001719
  0
LINE
  5
27C
330
1F
100
AcDbEntity
  8
LAY-10
  6
CONTINUOUS
 62
     7
100
AcDbLine
 10
1977.223511271496
 20
1265.270691337331
 30
0.0
 11
2046.523511271509
 21
1265.270691337331
 31
0.0
  0
LINE
  5
27D
330
1F
100
AcDbEntity
  8
LAY-10
  6
CONTINUOUS
 62
     7
100
AcDbLine
 10
1977.023511271497
 20
1268.470691337335
 30
0.0
 11
2046.323511271513
 21
1268.470691337335
 31
0.0
  0
ARC
  5
27E
330
1F
100
AcDbEntity
  8
LAY-10
  6
CONTINUOUS
 62
     7
100
AcDbCircle
 10
1968.023511271498
 20
1228.470691337371
 30
0.0
 40
3.000000000000003
100
AcDbArc
 50
270.0
 51
0.0000000000001719
  0
ARC
  5
27F
330
1F
100
AcDbEntity
  8
LAY-10
  6
CONTINUOUS
 62
     7
100
AcDbCircle
 10
1968.223511271497
 20
1228.270691337372
 30
0.0
 40
6.000000000000006
100
AcDbArc
 50
270.0
 51
0.0000000000001719
  0
ARC
  5
280
330
1F
100
AcDbEntity
  8
LAY-10
  6
CONTINUOUS
 62
     7
100
AcDbCircle
 10
1977.223511271496
 20
1262.270691337332
 30
0.0
 40
3.000000000000003
100
AcDbArc
 50
90.00000000000001
 51
180.0
  0
ARC
  5
281
330
1F
100
AcDbEntity
  8
LAY-10
  6
CONTINUOUS
 62
     7
100
AcDbCircle
 10
1977.023511271497
 20
1262.470691337333
 30
0.0
 40
6.000000000000006
100
AcDbArc
 50
90.00000000000001
 51
180.0
  0
LINE
  5
282
330
1F
100
AcDbEntity
  8
LAY-10
  6
CONTINUOUS
 62
     7
100
AcDbLine
 10
1982.223511271598
 20
1255.584399836326
 30
0.0
 11
1974.223511271597
 21
1255.584399836326
 31
0.0
  0
LINE
  5
283
330
1F
100
AcDbEntity
  8
LAY-10
  6
CONTINUOUS
 62
     7
100
AcDbLine
 10
1982.223511271598
 20
1225.584399836324
 30
0.0
 11
1982.223511271598
 21
1255.584399836326
 31
0.0
  0
ARC
  5
284
330
1F
100
AcDbEntity
  8
LAY-10
  6
CONTINUOUS
 62
     7
100
AcDbCircle
 10
1982.223511271598
 20
1225.584399836324
 30
0.0
 40
8.0
100
AcDbArc
 50
180.0
 51
224.9999999999946
  0
LINE
  5
285
330
1F
100
AcDbEntity
  8
LAY-10
  6
CONTINUOUS
 62
     7
100
AcDbLine
 10
2011.921996081432
 20
1184.572206527505
 30
0.0
 11
1976.566657022105
 21
1219.927545586833
 31
0.0
  0
LINE
  5
286
330
1F
100
AcDbEntity
  8
LAY-10
  6
CONTINUOUS
 62
     7
100
AcDbLine
 10
2017.578850330923
 20
1190.229060776996
 30
0.0
 11
1982.223511271598
 21
1225.584399836324
 31
0.0
  0
LINE
  5
287
330
1F
100
AcDbEntity
  8
LAY-10
  6
CONTINUOUS
 62
     7
100
AcDbLine
 10
2011.921996081432
 20
1184.572206527505
 30
0.0
 11
2017.578850330925
 21
1190.229060776996
 31
0.0
  0
LINE
  5
288
330
1F
100
AcDbEntity
  8
LAY-10
  6
CONTINUOUS
 62
     7
100
AcDbLine
 10
1974.223511271498
 20
1262.270691337332
 30
0.0
 11
1974.223511271498
 21
1225.584399836324
 31
0.0
  0
LINE
  5
289
330
1F
100
AcDbEntity
  8
LAY-10
  6
CONTINUOUS
 62
     7
100
AcDbLine
 10
1927.523511271507
 20
1225.47069133734
 30
0.0
 11
1968.023511271498
 21
1225.47069133734
 31
0.0
  0
LINE
  5
28A
330
1F
100
AcDbEntity
  8
LAY-10
  6
CONTINUOUS
 62
     7
100
AcDbLine
 10
1968.223511271497
 20
1222.270691337341
 30
0.0
 11
1927.523511271507
 21
1222.270691337341
 31
0.0
  0
ARC
  5
28B
330
1F
100
AcDbEntity
  8
LAY-10
  6
CONTINUOUS
 62
     7
100
AcDbCircle
 10
1931.023511271528
 20
1230.47069133744
 30
0.0
 40
2.0
100
AcDbArc
 50
90.00000000000009
 51
180.0000000000001
  0
LINE
  5
28C
330
1F
100
AcDbEntity
  8
LAY-10
  6
CONTINUOUS
 62
     7
100
AcDbLine
 10
1961.523511271528
 20
1232.47069133744
 30
0.0
 11
1931.023511271529
 21
1232.47069133744
 31
0.0
  0
ARC
  5
28D
330
1F
100
AcDbEntity
  8
LAY-10
  6
CONTINUOUS
 62
     7
100
AcDbCircle
 10
1961.523511271528
 20
1236.97069133744
 30
0.0
 40
4.5
100
AcDbArc
 50
270.0000000000002
 51
0.0000000000001719
  0
ARC
  5
28E
330
1F
100
AcDbEntity
  8
LAY-10
  6
CONTINUOUS
 62
     7
100
AcDbCircle
 10
1968.023511271529
 20
1267.47069133744
 30
0.0
 40
2.0
100
AcDbArc
 50
90.00000000000009
 51
180.0000000000001
  0
LINE
  5
28F
330
1F
100
AcDbEntity
  8
LAY-10
  6
CONTINUOUS
 62
     7
100
AcDbLine
 10
1969.023511271528
 20
1269.470691337439
 30
0.0
 11
1968.023511271529
 21
1269.470691337439
 31
0.0
  0
LINE
  5
290
330
1F
100
AcDbEntity
  8
LAY-10
  6
CONTINUOUS
 62
     7
100
AcDbLine
 10
1924.52351127153
 20
1229.47069133744
 30
0.0
 11
1971.0235112715
 21
1229.47069133744
 31
0.0
  0
LINE
  5
291
330
1F
100
AcDbEntity
  8
LAY-10
  6
CONTINUOUS
 62
     7
100
AcDbLine
 10
1969.023511271502
 20
1258.961137777521
 30
0.0
 11
1971.023511271504
 21
1257.155841119316
 31
0.0
  0
LINE
  5
292
330
1F
100
AcDbEntity
  8
LAY-10
  6
CONTINUOUS
 62
     7
100
AcDbLine
 10
1969.023511271503
 20
1258.254030996333
 30
0.0
 11
1971.023511271504
 21
1256.448734338131
 31
0.0
  0
LINE
  5
293
330
1F
100
AcDbEntity
  8
LAY-10
  6
CONTINUOUS
 62
     7
100
AcDbLine
 10
1969.023511271502
 20
1257.546924215148
 30
0.0
 11
1971.023511271504
 21
1255.741627556942
 31
0.0
  0
LINE
  5
294
330
1F
100
AcDbEntity
  8
LAY-10
  6
CONTINUOUS
 62
     7
100
AcDbLine
 10
1969.023511271503
 20
1256.839817433959
 30
0.0
 11
1971.023511271504
 21
1255.034520775758
 31
0.0
  0
LINE
  5
295
330
1F
100
AcDbEntity
  8
LAY-10
  6
CONTINUOUS
 62
     7
100
AcDbLine
 10
1969.023511271502
 20
1256.132710652776
 30
0.0
 11
1971.023511271504
 21
1254.32741399457
 31
0.0
  0
LINE
  5
296
330
1F
100
AcDbEntity
  8
LAY-10
  6
CONTINUOUS
 62
     7
100
AcDbLine
 10
1969.023511271503
 20
1255.425603871588
 30
0.0
 11
1971.025461380381
 21
1253.623653762712
 31
0.0
  0
LINE
  5
297
330
1F
100
AcDbEntity
  8
LAY-10
  6
CONTINUOUS
 62
     7
100
AcDbLine
 10
1969.023511271502
 20
1254.718497090401
 30
0.0
 11
1971.023511271504
 21
1252.916950352083
 31
0.0
  0
LINE
  5
298
330
1F
100
AcDbEntity
  8
LAY-10
  6
CONTINUOUS
 62
     7
100
AcDbLine
 10
1969.023511271503
 20
1254.011390309214
 30
0.0
 11
1971.023511271501
 21
1252.211390309216
 31
0.0
  0
LINE
  5
299
330
1F
100
AcDbEntity
  8
LAY-10
  6
CONTINUOUS
 62
     7
100
AcDbLine
 10
1969.023511271502
 20
1253.30428352803
 30
0.0
 11
1971.023511271505
 21
1251.504283528029
 31
0.0
  0
LINE
  5
29A
330
1F
100
AcDbEntity
  8
LAY-10
  6
CONTINUOUS
 62
     7
100
AcDbLine
 10
1969.023511271503
 20
1252.597176746842
 30
0.0
 11
1971.023511271501
 21
1250.797176746844
 31
0.0
  0
LINE
  5
29B
330
1F
100
AcDbEntity
  8
LAY-10
  6
CONTINUOUS
 62
     7
100
AcDbLine
 10
1969.023511271502
 20
1251.890069965656
 30
0.0
 11
1971.023511271505
 21
1250.090069965656
 31
0.0
  0
LINE
  5
29C
330
1F
100
AcDbEntity
  8
LAY-10
  6
CONTINUOUS
 62
     7
100
AcDbLine
 10
1969.023511271503
 20
1251.182963184468
 30
0.0
 11
1971.023511271501
 21
1249.382963184469
 31
0.0
  0
LINE
  5
29D
330
1F
100
AcDbEntity
  8
LAY-10
  6
CONTINUOUS
 62
     7
100
AcDbLine
 10
1969.023511271502
 20
1250.475856403283
 30
0.0
 11
1971.023511271505
 21
1248.675856403283
 31
0.0
  0
LINE
  5
29E
330
1F
100
AcDbEntity
  8
LAY-10
  6
CONTINUOUS
 62
     7
100
AcDbLine
 10
1969.023511271503
 20
1249.768749622096
 30
0.0
 11
1971.023511271501
 21
1247.968749622097
 31
0.0
  0
LINE
  5
29F
330
1F
100
AcDbEntity
  8
LAY-10
  6
CONTINUOUS
 62
     7
100
AcDbLine
 10
1969.023511271502
 20
1249.061642840911
 30
0.0
 11
1971.023511271505
 21
1247.261642840907
 31
0.0
  0
LINE
  5
2A0
330
1F
100
AcDbEntity
  8
LAY-10
  6
CONTINUOUS
 62
     7
100
AcDbLine
 10
1969.023511271503
 20
1248.354536059723
 30
0.0
 11
1971.023511271501
 21
1246.554536059724
 31
0.0
  0
LINE
  5
2A1
330
1F
100
AcDbEntity
  8
LAY-10
  6
CONTINUOUS
 62
     7
100
AcDbLine
 10
1969.023511271502
 20
1247.647429278538
 30
0.0
 11
1971.023511271505
 21
1245.847429278535
 31
0.0
  0
LINE
  5
2A2
330
1F
100
AcDbEntity
  8
LAY-10
  6
CONTINUOUS
 62
     7
100
AcDbLine
 10
1969.023511271503
 20
1246.94032249735
 30
0.0
 11
1971.023511271501
 21
1245.140322497352
 31
0.0
  0
LINE
  5
2A3
330
1F
100
AcDbEntity
  8
LAY-10
  6
CONTINUOUS
 62
     7
100
AcDbLine
 10
1969.023511271502
 20
1246.233215716164
 30
0.0
 11
1971.023511271505
 21
1244.433215716162
 31
0.0
  0
LINE
  5
2A4
330
1F
100
AcDbEntity
  8
LAY-10
  6
CONTINUOUS
 62
     7
100
AcDbLine
 10
1969.023511271503
 20
1245.526108934976
 30
0.0
 11
1971.0235112715
 21
1243.726108934979
 31
0.0
  0
LINE
  5
2A5
330
1F
100
AcDbEntity
  8
LAY-10
  6
CONTINUOUS
 62
     7
100
AcDbLine
 10
1969.023511271502
 20
1244.819002153792
 30
0.0
 11
1971.023511271505
 21
1243.019002153789
 31
0.0
  0
LINE
  5
2A6
330
1F
100
AcDbEntity
  8
LAY-10
  6
CONTINUOUS
 62
     7
100
AcDbLine
 10
1969.023511271503
 20
1244.111895372601
 30
0.0
 11
1971.0235112715
 21
1242.311895372607
 31
0.0
  0
LINE
  5
2A7
330
1F
100
AcDbEntity
  8
LAY-10
  6
CONTINUOUS
 62
     7
100
AcDbLine
 10
1969.023511271502
 20
1243.404788591418
 30
0.0
 11
1971.023511271505
 21
1241.604788591416
 31
0.0
  0
LINE
  5
2A8
330
1F
100
AcDbEntity
  8
LAY-10
  6
CONTINUOUS
 62
     7
100
AcDbLine
 10
1969.023511271503
 20
1242.69768181023
 30
0.0
 11
1971.0235112715
 21
1240.897681810233
 31
0.0
  0
LINE
  5
2A9
330
1F
100
AcDbEntity
  8
LAY-10
  6
CONTINUOUS
 62
     7
100
AcDbLine
 10
1969.023511271502
 20
1241.990575029046
 30
0.0
 11
1971.023511271505
 21
1240.190575029044
 31
0.0
  0
LINE
  5
2AA
330
1F
100
AcDbEntity
  8
LAY-10
  6
CONTINUOUS
 62
     7
100
AcDbLine
 10
1969.023511271503
 20
1241.283468247856
 30
0.0
 11
1971.0235112715
 21
1239.48346824786
 31
0.0
  0
LINE
  5
2AB
330
1F
100
AcDbEntity
  8
LAY-10
  6
CONTINUOUS
 62
     7
100
AcDbLine
 10
1969.023511271502
 20
1240.576361466673
 30
0.0
 11
1971.023511271503
 21
1238.776361466669
 31
0.0
  0
LINE
  5
2AC
330
1F
100
AcDbEntity
  8
LAY-10
  6
CONTINUOUS
 62
     7
100
AcDbLine
 10
1969.023511271503
 20
1239.869254685483
 30
0.0
 11
1971.0235112715
 21
1238.069254685488
 31
0.0
  0
LINE
  5
2AD
330
1F
100
AcDbEntity
  8
LAY-10
  6
CONTINUOUS
 62
     7
100
AcDbLine
 10
1969.023511271502
 20
1239.162147904301
 30
0.0
 11
1971.023511271503
 21
1237.362147904297
 31
0.0
  0
LINE
  5
2AE
330
1F
100
AcDbEntity
  8
LAY-10
  6
CONTINUOUS
 62
     7
100
AcDbLine
 10
1969.023511271503
 20
1238.455041123111
 30
0.0
 11
1971.0235112715
 21
1236.655041123114
 31
0.0
  0
LINE
  5
2AF
330
1F
100
AcDbEntity
  8
LAY-10
  6
CONTINUOUS
 62
     7
100
AcDbLine
 10
1969.023511271502
 20
1237.747934341928
 30
0.0
 11
1971.023511271503
 21
1235.947934341924
 31
0.0
  0
LINE
  5
2B0
330
1F
100
AcDbEntity
  8
LAY-10
  6
CONTINUOUS
 62
     7
100
AcDbLine
 10
1969.023511271503
 20
1237.040827560738
 30
0.0
 11
1971.0235112715
 21
1235.240827560742
 31
0.0
  0
LINE
  5
2B1
330
1F
100
AcDbEntity
  8
LAY-10
  6
CONTINUOUS
 62
     7
100
AcDbLine
 10
1969.0235112715
 20
1236.333720779555
 30
0.0
 11
1971.023511271503
 21
1234.533720779552
 31
0.0
  0
LINE
  5
2B2
330
1F
100
AcDbEntity
  8
LAY-10
  6
CONTINUOUS
 62
     7
100
AcDbLine
 10
1969.023511271503
 20
1235.626613998364
 30
0.0
 11
1971.0235112715
 21
1233.826613998369
 31
0.0
  0
LINE
  5
2B3
330
1F
100
AcDbEntity
  8
LAY-10
  6
CONTINUOUS
 62
     7
100
AcDbLine
 10
1969.0235112715
 20
1234.919507217182
 30
0.0
 11
1971.023511271503
 21
1233.119507217179
 31
0.0
  0
LINE
  5
2B4
330
1F
100
AcDbEntity
  8
LAY-10
  6
CONTINUOUS
 62
     7
100
AcDbLine
 10
1969.023511271503
 20
1234.212400435992
 30
0.0
 11
1971.0235112715
 21
1232.412400435995
 31
0.0
  0
LINE
  5
2B5
330
1F
100
AcDbEntity
  8
LAY-10
  6
CONTINUOUS
 62
     7
100
AcDbLine
 10
1969.0235112715
 20
1233.505293654809
 30
0.0
 11
1971.023511271503
 21
1231.705293654807
 31
0.0
  0
LINE
  5
2B6
330
1F
100
AcDbEntity
  8
LAY-10
  6
CONTINUOUS
 62
     7
100
AcDbLine
 10
1969.023511271503
 20
1232.798186873618
 30
0.0
 11
1971.0235112715
 21
1230.998186873623
 31
0.0
  0
LINE
  5
2B7
330
1F
100
AcDbEntity
  8
LAY-10
  6
CONTINUOUS
 62
     7
100
AcDbLine
 10
1969.0235112715
 20
1232.091080092436
 30
0.0
 11
1971.023511271503
 21
1230.291080092433
 31
0.0
  0
LINE
  5
2B8
330
1F
100
AcDbEntity
  8
LAY-10
  6
CONTINUOUS
 62
     7
100
AcDbLine
 10
1969.023511271502
 20
1231.383973311246
 30
0.0
 11
1971.0235112715
 21
1229.583973311249
 31
0.0
  0
LINE
  5
2B9
330
1F
100
AcDbEntity
  8
LAY-10
  6
CONTINUOUS
 62
     7
100
AcDbLine
 10
1969.0235112715
 20
1230.676866530064
 30
0.0
 11
1970.429686464282
 21
1229.470691337281
 31
0.0
  0
LINE
  5
2BA
330
1F
100
AcDbEntity
  8
LAY-10
  6
CONTINUOUS
 62
     7
100
AcDbLine
 10
1969.023511271502
 20
1229.969759748873
 30
0.0
 11
1969.5225796831
 21
1229.470691337278
 31
0.0
  0
LINE
  5
2BB
330
1F
100
AcDbEntity
  8
LAY-10
  6
CONTINUOUS
 62
     7
100
AcDbLine
 10
1969.242370837267
 20
1259.470691337361
 30
0.0
 11
1971.023511271504
 21
1257.862947900503
 31
0.0
  0
LINE
  5
2BC
330
1F
100
AcDbEntity
  8
LAY-10
  6
CONTINUOUS
 62
     7
100
AcDbLine
 10
1970.025739906249
 20
1259.470691337361
 30
0.0
 11
1971.023511271504
 21
1258.570054681688
 31
0.0
  0
LINE
  5
2BD
330
1F
100
AcDbEntity
  8
LAY-10
  6
CONTINUOUS
 62
     7
100
AcDbLine
 10
1970.809108975233
 20
1259.470691337361
 30
0.0
 11
1971.023511271504
 21
1259.277161462877
 31
0.0
  0
LINE
  5
2BE
330
1F
100
AcDbEntity
  8
LAY-10
  6
CONTINUOUS
 62
     7
100
AcDbLine
 10
1969.023511271525
 20
1259.470691337444
 30
0.0
 11
1971.023511271525
 21
1259.470691337444
 31
0.0
  0
ARC
  5
2BF
330
1F
100
AcDbEntity
  8
LAY-10
  6
CONTINUOUS
 62
     7
100
AcDbCircle
 10
1935.579171899521
 20
1264.03051892684
 30
0.0
 40
11.44452137582097
100
AcDbArc
 50
0.3231317747390464
 51
34.21070402948342
  0
ARC
  5
2C0
330
1F
100
AcDbEntity
  8
LAY-10
  6
CONTINUOUS
 62
     7
100
AcDbCircle
 10
1899.589808009759
 20
1268.829235038356
 30
0.0
 40
47.66936747686547
100
AcDbArc
 50
342.4625442095373
 51
354.3004070848737
  0
ARC
  5
2C1
330
1F
100
AcDbEntity
  8
LAY-10
  6
CONTINUOUS
 62
     7
100
AcDbCircle
 10
1935.579171899521
 20
1244.899605883442
 30
0.0
 40
11.44452137582097
100
AcDbArc
 50
325.7892959705166
 51
359.676868225261
  0
ARC
  5
2C2
330
1F
100
AcDbEntity
  8
LAY-10
  6
CONTINUOUS
 62
     7
100
AcDbCircle
 10
1899.589808009759
 20
1240.100889771926
 30
0.0
 40
47.66936747686547
100
AcDbArc
 50
5.69959291512632
 51
17.53745579046277
  0
LINE
  5
2C3
330
1F
100
AcDbEntity
  8
LAY-10
  6
CONTINUOUS
 62
     7
100
AcDbLine
 10
1929.0235112715
 20
1254.465062405141
 30
0.0
 11
1945.0435112715
 21
1254.465062405141
 31
0.0
  0
LINE
  5
2C4
330
1F
100
AcDbEntity
  8
LAY-10
  6
CONTINUOUS
 62
     7
100
AcDbLine
 10
1929.0235112715
 20
1238.465062405122
 30
0.0
 11
1945.0435112715
 21
1238.465062405122
 31
0.0
  0
ARC
  5
2C5
330
1F
100
AcDbEntity
  8
LAY-10
  6
CONTINUOUS
 62
     7
100
AcDbCircle
 10
1944.818238047457
 20
1267.784324700181
 30
0.0
 40
2.690186363068871
100
AcDbArc
 50
34.94048644238069
 51
85.19648987661962
  0
ARC
  5
2C6
330
1F
100
AcDbEntity
  8
LAY-10
  6
CONTINUOUS
 62
     7
100
AcDbCircle
 10
1944.818238047457
 20
1241.1458001101
 30
0.0
 40
2.690186363068871
100
AcDbArc
 50
274.8035101233804
 51
325.0595135576194
  0
LINE
  5
2C7
330
1F
100
AcDbEntity
  8
LAY-10
  6
CONTINUOUS
 62
     7
100
AcDbLine
 10
482.8076841561376
 20
858.7520497555922
 30
0.0
 11
467.8076841561376
 21
858.7520497555922
 31
0.0
  0
LINE
  5
2C8
330
1F
100
AcDbEntity
  8
LAY-10
  6
CONTINUOUS
 62
     7
100
AcDbLine
 10
482.8076841561376
 20
858.7520497555922
 30
0.0
 11
482.8076841561376
 21
843.7520497555922
 31
0.0
  0
LINE
  5
2C9
330
1F
100
AcDbEntity
  8
LAY-10
  6
CONTINUOUS
 62
     7
100
AcDbLine
 10
479.8076841561403
 20
855.7520497555925
 30
0.0
 11
467.8076841561376
 21
855.7520497555925
 31
0.0
  0
LINE
  5
2CA
330
1F
100
AcDbEntity
  8
LAY-10
  6
CONTINUOUS
 62
     7
100
AcDbLine
 10
482.8076841561376
 20
843.7520497555922
 30
0.0
 11
479.8076841561403
 21
843.7520497555922
 31
0.0
  0
LINE
  5
2CB
330
1F
100
AcDbEntity
  8
LAY-10
  6
CONTINUOUS
 62
     7
100
AcDbLine
 10
467.8076841561376
 20
858.7520497555922
 30
0.0
 11
467.8076841561376
 21
855.7520497555925
 31
0.0
  0
LINE
  5
2CC
330
1F
100
AcDbEntity
  8
LAY-10
  6
CONTINUOUS
 62
     7
100
AcDbLine
 10
522.8076841561351
 20
736.952049755591
 30
0.0
 11
568.807684156139
 21
736.9520497555914
 31
0.0
  0
LINE
  5
2CD
330
1F
100
AcDbEntity
  8
LAY-10
  6
CONTINUOUS
 62
     7
100
AcDbLine
 10
526.8076841562058
 20
788.9520497555435
 30
0.0
 11
526.8076841562058
 21
736.9520497555416
 31
0.0
  0
LINE
  5
2CE
330
1F
100
AcDbEntity
  8
LAY-10
  6
CONTINUOUS
 62
     7
100
AcDbLine
 10
528.4076841562053
 20
740.5520497555415
 30
0.0
 11
528.4076841562053
 21
787.3520497555423
 31
0.0
  0
LINE
  5
2CF
330
1F
100
AcDbEntity
  8
LAY-10
  6
CONTINUOUS
 62
     7
100
AcDbLine
 10
602.1076841562056
 20
789.9520497555428
 30
0.0
 11
602.1076841562056
 21
788.9520497555435
 31
0.0
  0
CIRCLE
  5
2D0
330
1F
100
AcDbEntity
  8
LAY-10
  6
CONTINUOUS
 62
     7
100
AcDbCircle
 10
658.8076841562106
 20
791.9520497555427
 30
0.0
 40
3.000000000000003
  0
ARC
  5
2D1
330
1F
100
AcDbEntity
  8
LAY-10
  6
CONTINUOUS
 62
     7
100
AcDbCircle
 10
615.1067931552379
 20
791.9511587545742
 30
0.0
 40
2.999108999030569
100
AcDbArc
 50
90.00000000000001
 51
270.0000000000002
  0
ARC
  5
2D2
330
1F
100
AcDbEntity
  8
LAY-10
  6
CONTINUOUS
 62
     7
100
AcDbCircle
 10
611.1076841562062
 20
789.9520497555428
 30
0.0
 40
1.0
100
AcDbArc
 50
270.0000000000002
 51
0.0
  0
LINE
  5
2D3
330
1F
100
AcDbEntity
  8
LAY-10
  6
CONTINUOUS
 62
     7
100
AcDbLine
 10
611.1076841562062
 20
791.952049755543
 30
0.0
 11
611.1076841562062
 21
789.9520497555428
 31
0.0
  0
LINE
  5
2D4
330
1F
100
AcDbEntity
  8
LAY-10
  6
CONTINUOUS
 62
     7
100
AcDbLine
 10
611.1076841562062
 20
789.9520497555428
 30
0.0
 11
602.1076841562056
 21
789.9520497555428
 31
0.0
  0
LINE
  5
2D5
330
1F
100
AcDbEntity
  8
LAY-10
  6
CONTINUOUS
 62
     7
100
AcDbLine
 10
658.8985515361276
 20
794.9506732929797
 30
0.0
 11
615.1067931552379
 21
794.9506732929797
 31
0.0
  0
ARC
  5
2D6
330
1F
100
AcDbEntity
  8
LAY-10
  6
CONTINUOUS
 62
     7
100
AcDbCircle
 10
615.1076841562074
 20
791.952049755543
 30
0.0
 40
4.0
100
AcDbArc
 50
48.56057832087367
 51
180.0
  0
LINE
  5
2D7
330
1F
100
AcDbEntity
  8
LAY-10
  6
CONTINUOUS
 62
     7
100
AcDbLine
 10
612.107684156209
 20
789.9520497555428
 30
0.0
 11
612.107684156209
 21
791.952049755543
 31
0.0
  0
LINE
  5
2D8
330
1F
100
AcDbEntity
  8
LAY-10
  6
CONTINUOUS
 62
     7
100
AcDbLine
 10
551.8076841562041
 20
736.9520497555416
 30
0.0
 11
551.8076841562041
 21
738.9520497555429
 31
0.0
  0
LINE
  5
2D9
330
1F
100
AcDbEntity
  8
LAY-10
  6
CONTINUOUS
 62
     7
100
AcDbLine
 10
522.6076841561326
 20
733.7520497555903
 30
0.0
 11
568.807684156139
 21
733.7520497555903
 31
0.0
  0
LINE
  5
2DA
330
1F
100
AcDbEntity
  8
LAY-10
  6
CONTINUOUS
 62
     7
100
AcDbLine
 10
568.807684156139
 20
736.9520497555868
 30
0.0
 11
568.807684156139
 21
733.7520497555903
 31
0.0
  0
ARC
  5
2DB
330
1F
100
AcDbEntity
  8
LAY-10
  6
CONTINUOUS
 62
     7
100
AcDbCircle
 10
522.6076841561326
 20
736.7520497555906
 30
0.0
 40
3.000000000000003
100
AcDbArc
 50
180.0
 51
270.0000000000002
  0
LINE
  5
2DC
330
1F
100
AcDbEntity
  8
LAY-10
  6
CONTINUOUS
 62
     7
100
AcDbLine
 10
519.6076841561314
 20
806.0520497556038
 30
0.0
 11
519.6076841561314
 21
736.7520497555906
 31
0.0
  0
LINE
  5
2DD
330
1F
100
AcDbEntity
  8
LAY-10
  6
CONTINUOUS
 62
     7
100
AcDbLine
 10
522.8076841561351
 20
806.2520497556036
 30
0.0
 11
522.8076841561351
 21
736.9520497555868
 31
0.0
  0
ARC
  5
2DE
330
1F
100
AcDbEntity
  8
LAY-10
  6
CONTINUOUS
 62
     7
100
AcDbCircle
 10
482.8076841561715
 20
815.2520497556014
 30
0.0
 40
3.000000000000003
100
AcDbArc
 50
180.0
 51
270.0000000000002
  0
ARC
  5
2DF
330
1F
100
AcDbEntity
  8
LAY-10
  6
CONTINUOUS
 62
     7
100
AcDbCircle
 10
482.6076841561724
 20
815.0520497556028
 30
0.0
 40
6.000000000000006
100
AcDbArc
 50
180.0
 51
270.0000000000002
  0
ARC
  5
2E0
330
1F
100
AcDbEntity
  8
LAY-10
  6
CONTINUOUS
 62
     7
100
AcDbCircle
 10
516.6076841561326
 20
806.0520497556038
 30
0.0
 40
3.000000000000003
100
AcDbArc
 50
0.0
 51
90.00000000000001
  0
ARC
  5
2E1
330
1F
100
AcDbEntity
  8
LAY-10
  6
CONTINUOUS
 62
     7
100
AcDbCircle
 10
516.8076841561331
 20
806.2520497556036
 30
0.0
 40
6.000000000000006
100
AcDbArc
 50
0.0
 51
90.00000000000001
  0
LINE
  5
2E2
330
1F
100
AcDbEntity
  8
LAY-10
  6
CONTINUOUS
 62
     7
100
AcDbLine
 10
509.9213926551265
 20
801.0520497555018
 30
0.0
 11
509.9213926551265
 21
809.0520497555027
 31
0.0
  0
LINE
  5
2E3
330
1F
100
AcDbEntity
  8
LAY-10
  6
CONTINUOUS
 62
     7
100
AcDbLine
 10
479.9213926551247
 20
801.0520497555018
 30
0.0
 11
509.9213926551265
 21
801.0520497555018
 31
0.0
  0
ARC
  5
2E4
330
1F
100
AcDbEntity
  8
LAY-10
  6
CONTINUOUS
 62
     7
100
AcDbCircle
 10
479.9213926551247
 20
801.0520497555018
 30
0.0
 40
8.0
100
AcDbArc
 50
90.00000000000001
 51
134.9999999999946
  0
LINE
  5
2E5
330
1F
100
AcDbEntity
  8
LAY-10
  6
CONTINUOUS
 62
     7
100
AcDbLine
 10
438.9091993463055
 20
771.3535649456679
 30
0.0
 11
474.2645384056329
 21
806.7089040049952
 31
0.0
  0
LINE
  5
2E6
330
1F
100
AcDbEntity
  8
LAY-10
  6
CONTINUOUS
 62
     7
100
AcDbLine
 10
444.5660535957958
 20
765.6967106961772
 30
0.0
 11
479.9213926551247
 21
801.0520497555018
 31
0.0
  0
LINE
  5
2E7
330
1F
100
AcDbEntity
  8
LAY-10
  6
CONTINUOUS
 62
     7
100
AcDbLine
 10
438.9091993463055
 20
771.3535649456679
 30
0.0
 11
444.5660535957958
 21
765.6967106961747
 31
0.0
  0
LINE
  5
2E8
330
1F
100
AcDbEntity
  8
LAY-10
  6
CONTINUOUS
 62
     7
100
AcDbLine
 10
516.6076841561326
 20
809.0520497556025
 30
0.0
 11
479.9213926551247
 21
809.0520497556025
 31
0.0
  0
LINE
  5
2E9
330
1F
100
AcDbEntity
  8
LAY-10
  6
CONTINUOUS
 62
     7
100
AcDbLine
 10
479.8076841561403
 20
855.7520497555925
 30
0.0
 11
479.8076841561403
 21
815.2520497556014
 31
0.0
  0
LINE
  5
2EA
330
1F
100
AcDbEntity
  8
LAY-10
  6
CONTINUOUS
 62
     7
100
AcDbLine
 10
476.6076841561417
 20
815.0520497556028
 30
0.0
 11
476.6076841561417
 21
855.7520497555925
 31
0.0
  0
ARC
  5
2EB
330
1F
100
AcDbEntity
  8
LAY-10
  6
CONTINUOUS
 62
     7
100
AcDbCircle
 10
484.8076841562398
 20
852.2520497555723
 30
0.0
 40
2.0
100
AcDbArc
 50
0.0000000000000573
 51
90.00000000000009
  0
LINE
  5
2EC
330
1F
100
AcDbEntity
  8
LAY-10
  6
CONTINUOUS
 62
     7
100
AcDbLine
 10
486.8076841562403
 20
821.7520497555722
 30
0.0
 11
486.8076841562403
 21
852.2520497555712
 31
0.0
  0
ARC
  5
2ED
330
1F
100
AcDbEntity
  8
LAY-10
  6
CONTINUOUS
 62
     7
100
AcDbCircle
 10
491.3076841562402
 20
821.7520497555722
 30
0.0
 40
4.5
100
AcDbArc
 50
180.0000000000002
 51
270.0000000000002
  0
ARC
  5
2EE
330
1F
100
AcDbEntity
  8
LAY-10
  6
CONTINUOUS
 62
     7
100
AcDbCircle
 10
521.8076841562403
 20
815.2520497555713
 30
0.0
 40
2.0
100
AcDbArc
 50
0.0000000000000573
 51
90.00000000000009
  0
LINE
  5
2EF
330
1F
100
AcDbEntity
  8
LAY-10
  6
CONTINUOUS
 62
     7
100
AcDbLine
 10
523.8076841562398
 20
814.2520497555722
 30
0.0
 11
523.8076841562398
 21
815.2520497555713
 31
0.0
  0
LINE
  5
2F0
330
1F
100
AcDbEntity
  8
LAY-10
  6
CONTINUOUS
 62
     7
100
AcDbLine
 10
1010.30768415624
 20
817.2520497555713
 30
0.0
 11
491.3076841562402
 21
817.2520497555712
 31
0.0
  0
LINE
  5
2F1
330
1F
100
AcDbEntity
  8
LAY-10
  6
CONTINUOUS
 62
     7
100
AcDbLine
 10
483.8076841562402
 20
858.752049755575
 30
0.0
 11
1017.80768415624
 21
858.752049755575
 31
0.0
  0
LINE
  5
2F2
330
1F
100
AcDbEntity
  8
LAY-10
  6
CONTINUOUS
 62
     7
100
AcDbLine
 10
483.8076841562402
 20
854.2520497555751
 30
0.0
 11
1017.80768415624
 21
854.2520497555751
 31
0.0
  0
LINE
  5
2F3
330
1F
100
AcDbEntity
  8
LAY-10
  6
CONTINUOUS
 62
     7
100
AcDbLine
 10
483.80768415624
 20
858.75204975557
 30
0.0
 11
483.80768415624
 21
812.2520497555996
 31
0.0
  0
LINE
  5
2F4
330
1F
100
AcDbEntity
  8
LAY-10
  6
CONTINUOUS
 62
     7
100
AcDbLine
 10
513.2981305963214
 20
814.2520497555986
 30
0.0
 11
511.4928339381164
 21
812.2520497555959
 31
0.0
  0
LINE
  5
2F5
330
1F
100
AcDbEntity
  8
LAY-10
  6
CONTINUOUS
 62
     7
100
AcDbLine
 10
512.5910238151333
 20
814.2520497555967
 30
0.0
 11
510.7857271569314
 21
812.2520497555959
 31
0.0
  0
LINE
  5
2F6
330
1F
100
AcDbEntity
  8
LAY-10
  6
CONTINUOUS
 62
     7
100
AcDbLine
 10
511.883917033948
 20
814.2520497555986
 30
0.0
 11
510.0786203757422
 21
812.2520497555959
 31
0.0
  0
LINE
  5
2F7
330
1F
100
AcDbEntity
  8
LAY-10
  6
CONTINUOUS
 62
     7
100
AcDbLine
 10
511.1768102527599
 20
814.2520497555967
 30
0.0
 11
509.3715135945582
 21
812.2520497555959
 31
0.0
  0
LINE
  5
2F8
330
1F
100
AcDbEntity
  8
LAY-10
  6
CONTINUOUS
 62
     7
100
AcDbLine
 10
510.4697034715759
 20
814.2520497555986
 30
0.0
 11
508.6644068133701
 21
812.2520497555959
 31
0.0
  0
LINE
  5
2F9
330
1F
100
AcDbEntity
  8
LAY-10
  6
CONTINUOUS
 62
     7
100
AcDbLine
 10
509.762596690388
 20
814.2520497555967
 30
0.0
 11
507.9606465815119
 21
812.2500996467195
 31
0.0
  0
LINE
  5
2FA
330
1F
100
AcDbEntity
  8
LAY-10
  6
CONTINUOUS
 62
     7
100
AcDbLine
 10
509.0554899092014
 20
814.2520497555986
 30
0.0
 11
507.2539431708834
 21
812.2520497555959
 31
0.0
  0
LINE
  5
2FB
330
1F
100
AcDbEntity
  8
LAY-10
  6
CONTINUOUS
 62
     7
100
AcDbLine
 10
508.3483831280147
 20
814.2520497555967
 30
0.0
 11
506.5483831280163
 21
812.2520497555985
 31
0.0
  0
LINE
  5
2FC
330
1F
100
AcDbEntity
  8
LAY-10
  6
CONTINUOUS
 62
     7
100
AcDbLine
 10
507.6412763468302
 20
814.2520497555986
 30
0.0
 11
505.8412763468292
 21
812.2520497555951
 31
0.0
  0
LINE
  5
2FD
330
1F
100
AcDbEntity
  8
LAY-10
  6
CONTINUOUS
 62
     7
100
AcDbLine
 10
506.9341695656426
 20
814.2520497555967
 30
0.0
 11
505.1341695656442
 21
812.2520497555985
 31
0.0
  0
LINE
  5
2FE
330
1F
100
AcDbEntity
  8
LAY-10
  6
CONTINUOUS
 62
     7
100
AcDbLine
 10
506.227062784457
 20
814.2520497555986
 30
0.0
 11
504.4270627844559
 21
812.2520497555951
 31
0.0
  0
LINE
  5
2FF
330
1F
100
AcDbEntity
  8
LAY-10
  6
CONTINUOUS
 62
     7
100
AcDbLine
 10
505.519956003268
 20
814.2520497555967
 30
0.0
 11
503.7199560032697
 21
812.2520497555985
 31
0.0
  0
LINE
  5
300
330
1F
100
AcDbEntity
  8
LAY-10
  6
CONTINUOUS
 62
     7
100
AcDbLine
 10
504.8128492220836
 20
814.2520497555986
 30
0.0
 11
503.012849222083
 21
812.2520497555951
 31
0.0
  0
LINE
  5
301
330
1F
100
AcDbEntity
  8
LAY-10
  6
CONTINUOUS
 62
     7
100
AcDbLine
 10
504.1057424408961
 20
814.2520497555967
 30
0.0
 11
502.3057424408977
 21
812.2520497555985
 31
0.0
  0
LINE
  5
302
330
1F
100
AcDbEntity
  8
LAY-10
  6
CONTINUOUS
 62
     7
100
AcDbLine
 10
503.3986356597107
 20
814.2520497555986
 30
0.0
 11
501.5986356597069
 21
812.2520497555951
 31
0.0
  0
LINE
  5
303
330
1F
100
AcDbEntity
  8
LAY-10
  6
CONTINUOUS
 62
     7
100
AcDbLine
 10
502.6915288785236
 20
814.2520497555967
 30
0.0
 11
500.8915288785242
 21
812.2520497555985
 31
0.0
  0
LINE
  5
304
330
1F
100
AcDbEntity
  8
LAY-10
  6
CONTINUOUS
 62
     7
100
AcDbLine
 10
501.9844220973387
 20
814.2520497555986
 30
0.0
 11
500.1844220973358
 21
812.2520497555951
 31
0.0
  0
LINE
  5
305
330
1F
100
AcDbEntity
  8
LAY-10
  6
CONTINUOUS
 62
     7
100
AcDbLine
 10
501.2773153161503
 20
814.2520497555967
 30
0.0
 11
499.4773153161519
 21
812.2520497555985
 31
0.0
  0
LINE
  5
306
330
1F
100
AcDbEntity
  8
LAY-10
  6
CONTINUOUS
 62
     7
100
AcDbLine
 10
500.5702085349641
 20
814.2520497555986
 30
0.0
 11
498.7702085349625
 21
812.2520497555951
 31
0.0
  0
LINE
  5
307
330
1F
100
AcDbEntity
  8
LAY-10
  6
CONTINUOUS
 62
     7
100
AcDbLine
 10
499.8631017537759
 20
814.2520497555967
 30
0.0
 11
498.0631017537791
 21
812.2520497555996
 31
0.0
  0
LINE
  5
308
330
1F
100
AcDbEntity
  8
LAY-10
  6
CONTINUOUS
 62
     7
100
AcDbLine
 10
499.1559949725921
 20
814.2520497555986
 30
0.0
 11
497.3559949725892
 21
812.2520497555951
 31
0.0
  0
LINE
  5
309
330
1F
100
AcDbEntity
  8
LAY-10
  6
CONTINUOUS
 62
     7
100
AcDbLine
 10
498.4488881914014
 20
814.2520497555967
 30
0.0
 11
496.648888191407
 21
812.2520497555996
 31
0.0
  0
LINE
  5
30A
330
1F
100
AcDbEntity
  8
LAY-10
  6
CONTINUOUS
 62
     7
100
AcDbLine
 10
497.7417814102187
 20
814.2520497555986
 30
0.0
 11
495.9417814102163
 21
812.2520497555951
 31
0.0
  0
LINE
  5
30B
330
1F
100
AcDbEntity
  8
LAY-10
  6
CONTINUOUS
 62
     7
100
AcDbLine
 10
497.0346746290302
 20
814.2520497555967
 30
0.0
 11
495.2346746290337
 21
812.2520497555996
 31
0.0
  0
LINE
  5
30C
330
1F
100
AcDbEntity
  8
LAY-10
  6
CONTINUOUS
 62
     7
100
AcDbLine
 10
496.3275678478464
 20
814.2520497555986
 30
0.0
 11
494.5275678478442
 21
812.2520497555951
 31
0.0
  0
LINE
  5
30D
330
1F
100
AcDbEntity
  8
LAY-10
  6
CONTINUOUS
 62
     7
100
AcDbLine
 10
495.6204610666569
 20
814.2520497555967
 30
0.0
 11
493.8204610666604
 21
812.2520497555996
 31
0.0
  0
LINE
  5
30E
330
1F
100
AcDbEntity
  8
LAY-10
  6
CONTINUOUS
 62
     7
100
AcDbLine
 10
494.9133542854735
 20
814.2520497555986
 30
0.0
 11
493.1133542854697
 21
812.2520497555968
 31
0.0
  0
LINE
  5
30F
330
1F
100
AcDbEntity
  8
LAY-10
  6
CONTINUOUS
 62
     7
100
AcDbLine
 10
494.2062475042836
 20
814.2520497555967
 30
0.0
 11
492.4062475042879
 21
812.2520497555996
 31
0.0
  0
LINE
  5
310
330
1F
100
AcDbEntity
  8
LAY-10
  6
CONTINUOUS
 62
     7
100
AcDbLine
 10
493.4991407231014
 20
814.2520497555986
 30
0.0
 11
491.6991407230977
 21
812.2520497555968
 31
0.0
  0
LINE
  5
311
330
1F
100
AcDbEntity
  8
LAY-10
  6
CONTINUOUS
 62
     7
100
AcDbLine
 10
492.7920339419107
 20
814.2520497555967
 30
0.0
 11
490.9920339419147
 21
812.2520497555996
 31
0.0
  0
LINE
  5
312
330
1F
100
AcDbEntity
  8
LAY-10
  6
CONTINUOUS
 62
     7
100
AcDbLine
 10
492.0849271607281
 20
814.2520497555986
 30
0.0
 11
490.2849271607242
 21
812.2520497555968
 31
0.0
  0
LINE
  5
313
330
1F
100
AcDbEntity
  8
LAY-10
  6
CONTINUOUS
 62
     7
100
AcDbLine
 10
491.3778203795387
 20
814.2520497555967
 30
0.0
 11
489.5778203795418
 21
812.2520497555996
 31
0.0
  0
LINE
  5
314
330
1F
100
AcDbEntity
  8
LAY-10
  6
CONTINUOUS
 62
     7
100
AcDbLine
 10
490.6707135983548
 20
814.2520497555995
 30
0.0
 11
488.8707135983523
 21
812.2520497555968
 31
0.0
  0
LINE
  5
315
330
1F
100
AcDbEntity
  8
LAY-10
  6
CONTINUOUS
 62
     7
100
AcDbLine
 10
489.9636068171641
 20
814.2520497555967
 30
0.0
 11
488.1636068171697
 21
812.2520497555996
 31
0.0
  0
LINE
  5
316
330
1F
100
AcDbEntity
  8
LAY-10
  6
CONTINUOUS
 62
     7
100
AcDbLine
 10
489.2565000359824
 20
814.2520497555995
 30
0.0
 11
487.456500035979
 21
812.2520497555968
 31
0.0
  0
LINE
  5
317
330
1F
100
AcDbEntity
  8
LAY-10
  6
CONTINUOUS
 62
     7
100
AcDbLine
 10
488.5493932547921
 20
814.2520497555967
 30
0.0
 11
486.7493932547951
 21
812.2520497555996
 31
0.0
  0
LINE
  5
318
330
1F
100
AcDbEntity
  8
LAY-10
  6
CONTINUOUS
 62
     7
100
AcDbLine
 10
487.8422864736091
 20
814.2520497555995
 30
0.0
 11
486.042286473607
 21
812.2520497555968
 31
0.0
  0
LINE
  5
319
330
1F
100
AcDbEntity
  8
LAY-10
  6
CONTINUOUS
 62
     7
100
AcDbLine
 10
487.1351796924187
 20
814.2520497555967
 30
0.0
 11
485.3351796924231
 21
812.2520497555996
 31
0.0
  0
LINE
  5
31A
330
1F
100
AcDbEntity
  8
LAY-10
  6
CONTINUOUS
 62
     7
100
AcDbLine
 10
486.4280729112362
 20
814.2520497555995
 30
0.0
 11
484.6280729112337
 21
812.2520497555968
 31
0.0
  0
LINE
  5
31B
330
1F
100
AcDbEntity
  8
LAY-10
  6
CONTINUOUS
 62
     7
100
AcDbLine
 10
485.7209661300467
 20
814.2520497555978
 30
0.0
 11
483.9209661300497
 21
812.2520497555996
 31
0.0
  0
LINE
  5
31C
330
1F
100
AcDbEntity
  8
LAY-10
  6
CONTINUOUS
 62
     7
100
AcDbLine
 10
485.0138593488641
 20
814.2520497555995
 30
0.0
 11
483.807684156081
 21
812.8458745628174
 31
0.0
  0
LINE
  5
31D
330
1F
100
AcDbEntity
  8
LAY-10
  6
CONTINUOUS
 62
     7
100
AcDbLine
 10
484.3067525676735
 20
814.2520497555978
 30
0.0
 11
483.8076841560783
 21
813.7529813440002
 31
0.0
  0
LINE
  5
31E
330
1F
100
AcDbEntity
  8
LAY-10
  6
CONTINUOUS
 62
     7
100
AcDbLine
 10
513.8076841561611
 20
814.0331901898332
 30
0.0
 11
512.1999407193031
 21
812.2520497555959
 31
0.0
  0
LINE
  5
31F
330
1F
100
AcDbEntity
  8
LAY-10
  6
CONTINUOUS
 62
     7
100
AcDbLine
 10
513.8076841561611
 20
813.249821120851
 30
0.0
 11
512.9070475004887
 21
812.2520497555959
 31
0.0
  0
LINE
  5
320
330
1F
100
AcDbEntity
  8
LAY-10
  6
CONTINUOUS
 62
     7
100
AcDbLine
 10
513.8076841561611
 20
812.4664520518669
 30
0.0
 11
513.6141542816769
 21
812.2520497555959
 31
0.0
  0
LINE
  5
321
330
1F
100
AcDbEntity
  8
LAY-10
  6
CONTINUOUS
 62
     7
100
AcDbLine
 10
513.8076841562447
 20
814.2520497555751
 30
0.0
 11
513.8076841562447
 21
812.2520497555748
 31
0.0
  0
LINE
  5
322
330
1F
100
AcDbEntity
  8
LAY-10
  6
CONTINUOUS
 62
     7
100
AcDbLine
 10
1554.807684156197
 20
858.7520497555922
 30
0.0
 11
1569.807684156197
 21
858.7520497555922
 31
0.0
  0
LINE
  5
323
330
1F
100
AcDbEntity
  8
LAY-10
  6
CONTINUOUS
 62
     7
100
AcDbLine
 10
1554.807684156197
 20
858.7520497555922
 30
0.0
 11
1554.807684156197
 21
843.7520497555922
 31
0.0
  0
LINE
  5
324
330
1F
100
AcDbEntity
  8
LAY-10
  6
CONTINUOUS
 62
     7
100
AcDbLine
 10
1557.807684156194
 20
855.7520497555925
 30
0.0
 11
1569.807684156197
 21
855.7520497555925
 31
0.0
  0
LINE
  5
325
330
1F
100
AcDbEntity
  8
LAY-10
  6
CONTINUOUS
 62
     7
100
AcDbLine
 10
1554.807684156197
 20
843.7520497555922
 30
0.0
 11
1557.807684156194
 21
843.7520497555922
 31
0.0
  0
LINE
  5
326
330
1F
100
AcDbEntity
  8
LAY-10
  6
CONTINUOUS
 62
     7
100
AcDbLine
 10
1569.807684156197
 20
858.7520497555922
 30
0.0
 11
1569.807684156197
 21
855.7520497555925
 31
0.0
  0
LINE
  5
327
330
1F
100
AcDbEntity
  8
LAY-10
  6
CONTINUOUS
 62
     7
100
AcDbLine
 10
1514.8076841562
 20
736.952049755591
 30
0.0
 11
1468.807684156196
 21
736.9520497555915
 31
0.0
  0
LINE
  5
328
330
1F
100
AcDbEntity
  8
LAY-10
  6
CONTINUOUS
 62
     7
100
AcDbLine
 10
1510.807684156129
 20
788.9520497555435
 30
0.0
 11
1510.807684156129
 21
736.9520497555417
 31
0.0
  0
LINE
  5
329
330
1F
100
AcDbEntity
  8
LAY-10
  6
CONTINUOUS
 62
     7
100
AcDbLine
 10
1509.20768415613
 20
740.5520497555416
 30
0.0
 11
1509.20768415613
 21
787.3520497555425
 31
0.0
  0
LINE
  5
32A
330
1F
100
AcDbEntity
  8
LAY-10
  6
CONTINUOUS
 62
     7
100
AcDbLine
 10
1435.507684156129
 20
789.9520497555428
 30
0.0
 11
1435.507684156129
 21
788.9520497555435
 31
0.0
  0
CIRCLE
  5
32B
330
1F
100
AcDbEntity
  8
LAY-10
  6
CONTINUOUS
 62
     7
100
AcDbCircle
 10
1378.807684156124
 20
791.9520497555428
 30
0.0
 40
3.000000000000003
  0
ARC
  5
32C
330
1F
100
AcDbEntity
  8
LAY-10
  6
CONTINUOUS
 62
     7
100
AcDbCircle
 10
1422.508575157097
 20
791.9511587545743
 30
0.0
 40
2.999108999030569
100
AcDbArc
 50
270.0
 51
90.00000000000001
  0
ARC
  5
32D
330
1F
100
AcDbEntity
  8
LAY-10
  6
CONTINUOUS
 62
     7
100
AcDbCircle
 10
1426.507684156129
 20
789.9520497555428
 30
0.0
 40
1.0
100
AcDbArc
 50
180.0
 51
270.0
  0
LINE
  5
32E
330
1F
100
AcDbEntity
  8
LAY-10
  6
CONTINUOUS
 62
     7
100
AcDbLine
 10
1426.507684156129
 20
791.952049755543
 30
0.0
 11
1426.507684156129
 21
789.9520497555428
 31
0.0
  0
LINE
  5
32F
330
1F
100
AcDbEntity
  8
LAY-10
  6
CONTINUOUS
 62
     7
100
AcDbLine
 10
1426.507684156129
 20
789.9520497555428
 30
0.0
 11
1435.507684156129
 21
789.9520497555428
 31
0.0
  0
LINE
  5
330
330
1F
100
AcDbEntity
  8
LAY-10
  6
CONTINUOUS
 62
     7
100
AcDbLine
 10
1378.716816776207
 20
794.9506732929798
 30
0.0
 11
1422.508575157097
 21
794.9506732929798
 31
0.0
  0
ARC
  5
331
330
1F
100
AcDbEntity
  8
LAY-10
  6
CONTINUOUS
 62
     7
100
AcDbCircle
 10
1422.507684156128
 20
791.952049755543
 30
0.0
 40
4.0
100
AcDbArc
 50
0.0
 51
131.4394216791276
  0
LINE
  5
332
330
1F
100
AcDbEntity
  8
LAY-10
  6
CONTINUOUS
 62
     7
100
AcDbLine
 10
1425.507684156126
 20
789.9520497555428
 30
0.0
 11
1425.507684156126
 21
791.952049755543
 31
0.0
  0
LINE
  5
333
330
1F
100
AcDbEntity
  8
LAY-10
  6
CONTINUOUS
 62
     7
100
AcDbLine
 10
1485.807684156131
 20
736.9520497555417
 30
0.0
 11
1485.807684156131
 21
738.952049755543
 31
0.0
  0
LINE
  5
334
330
1F
100
AcDbEntity
  8
LAY-10
  6
CONTINUOUS
 62
     7
100
AcDbLine
 10
1515.007684156202
 20
733.7520497555903
 30
0.0
 11
1468.807684156196
 21
733.7520497555903
 31
0.0
  0
LINE
  5
335
330
1F
100
AcDbEntity
  8
LAY-10
  6
CONTINUOUS
 62
     7
100
AcDbLine
 10
1468.807684156196
 20
736.9520497555868
 30
0.0
 11
1468.807684156196
 21
733.7520497555903
 31
0.0
  0
ARC
  5
336
330
1F
100
AcDbEntity
  8
LAY-10
  6
CONTINUOUS
 62
     7
100
AcDbCircle
 10
1515.007684156202
 20
736.7520497555907
 30
0.0
 40
3.000000000000003
100
AcDbArc
 50
270.0
 51
0.0
  0
LINE
  5
337
330
1F
100
AcDbEntity
  8
LAY-10
  6
CONTINUOUS
 62
     7
100
AcDbLine
 10
1518.007684156203
 20
806.0520497556038
 30
0.0
 11
1518.007684156203
 21
736.7520497555907
 31
0.0
  0
LINE
  5
338
330
1F
100
AcDbEntity
  8
LAY-10
  6
CONTINUOUS
 62
     7
100
AcDbLine
 10
1514.8076841562
 20
806.2520497556036
 30
0.0
 11
1514.8076841562
 21
736.9520497555868
 31
0.0
  0
ARC
  5
339
330
1F
100
AcDbEntity
  8
LAY-10
  6
CONTINUOUS
 62
     7
100
AcDbCircle
 10
1554.807684156163
 20
815.2520497556015
 30
0.0
 40
3.000000000000003
100
AcDbArc
 50
270.0
 51
0.0
  0
ARC
  5
33A
330
1F
100
AcDbEntity
  8
LAY-10
  6
CONTINUOUS
 62
     7
100
AcDbCircle
 10
1555.007684156163
 20
815.0520497556029
 30
0.0
 40
6.000000000000006
100
AcDbArc
 50
270.0
 51
0.0
  0
ARC
  5
33B
330
1F
100
AcDbEntity
  8
LAY-10
  6
CONTINUOUS
 62
     7
100
AcDbCircle
 10
1521.007684156202
 20
806.0520497556038
 30
0.0
 40
3.000000000000003
100
AcDbArc
 50
90.00000000000001
 51
180.0
  0
ARC
  5
33C
330
1F
100
AcDbEntity
  8
LAY-10
  6
CONTINUOUS
 62
     7
100
AcDbCircle
 10
1520.807684156202
 20
806.2520497556036
 30
0.0
 40
6.000000000000006
100
AcDbArc
 50
90.00000000000001
 51
180.0
  0
LINE
  5
33D
330
1F
100
AcDbEntity
  8
LAY-10
  6
CONTINUOUS
 62
     7
100
AcDbLine
 10
1527.693975657208
 20
801.0520497555018
 30
0.0
 11
1527.693975657208
 21
809.0520497555028
 31
0.0
  0
LINE
  5
33E
330
1F
100
AcDbEntity
  8
LAY-10
  6
CONTINUOUS
 62
     7
100
AcDbLine
 10
1557.69397565721
 20
801.0520497555018
 30
0.0
 11
1527.693975657208
 21
801.0520497555018
 31
0.0
  0
ARC
  5
33F
330
1F
100
AcDbEntity
  8
LAY-10
  6
CONTINUOUS
 62
     7
100
AcDbCircle
 10
1557.69397565721
 20
801.0520497555018
 30
0.0
 40
8.0
100
AcDbArc
 50
45.00000000000463
 51
90.00000000000001
  0
LINE
  5
340
330
1F
100
AcDbEntity
  8
LAY-10
  6
CONTINUOUS
 62
     7
100
AcDbLine
 10
1598.70616896603
 20
771.353564945668
 30
0.0
 11
1563.350829906702
 21
806.7089040049952
 31
0.0
  0
LINE
  5
341
330
1F
100
AcDbEntity
  8
LAY-10
  6
CONTINUOUS
 62
     7
100
AcDbLine
 10
1593.049314716539
 20
765.6967106961772
 30
0.0
 11
1557.69397565721
 21
801.0520497555018
 31
0.0
  0
LINE
  5
342
330
1F
100
AcDbEntity
  8
LAY-10
  6
CONTINUOUS
 62
     7
100
AcDbLine
 10
1598.70616896603
 20
771.353564945668
 30
0.0
 11
1593.049314716539
 21
765.6967106961748
 31
0.0
  0
LINE
  5
343
330
1F
100
AcDbEntity
  8
LAY-10
  6
CONTINUOUS
 62
     7
100
AcDbLine
 10
1521.007684156202
 20
809.0520497556025
 30
0.0
 11
1557.69397565721
 21
809.0520497556025
 31
0.0
  0
LINE
  5
344
330
1F
100
AcDbEntity
  8
LAY-10
  6
CONTINUOUS
 62
     7
100
AcDbLine
 10
1557.807684156194
 20
855.7520497555925
 30
0.0
 11
1557.807684156194
 21
815.2520497556015
 31
0.0
  0
LINE
  5
345
330
1F
100
AcDbEntity
  8
LAY-10
  6
CONTINUOUS
 62
     7
100
AcDbLine
 10
1561.007684156193
 20
815.0520497556029
 30
0.0
 11
1561.007684156193
 21
855.7520497555925
 31
0.0
  0
ARC
  5
346
330
1F
100
AcDbEntity
  8
LAY-10
  6
CONTINUOUS
 62
     7
100
AcDbCircle
 10
1515.8076841562
 20
815.2520497555813
 30
0.0
 40
2.0
100
AcDbArc
 50
90.00000000000001
 51
180.0
  0
ARC
  5
347
330
1F
100
AcDbEntity
  8
LAY-10
  6
CONTINUOUS
 62
     7
100
AcDbCircle
 10
1552.8076841562
 20
852.2520497555822
 30
0.0
 40
2.0
100
AcDbArc
 50
90.00000000000001
 51
180.0
  0
ARC
  5
348
330
1F
100
AcDbEntity
  8
LAY-10
  6
CONTINUOUS
 62
     7
100
AcDbCircle
 10
1546.3076841562
 20
821.7520497555822
 30
0.0
 40
4.5
100
AcDbArc
 50
270.0000000000002
 51
0.0
  0
LINE
  5
349
330
1F
100
AcDbEntity
  8
LAY-10
  6
CONTINUOUS
 62
     7
100
AcDbLine
 10
1513.8076841562
 20
814.2520497555822
 30
0.0
 11
1513.8076841562
 21
815.2520497555813
 31
0.0
  0
LINE
  5
34A
330
1F
100
AcDbEntity
  8
LAY-10
  6
CONTINUOUS
 62
     7
100
AcDbLine
 10
1550.8076841562
 20
821.7520497555822
 30
0.0
 11
1550.8076841562
 21
852.2520497555814
 31
0.0
  0
LINE
  5
34B
330
1F
100
AcDbEntity
  8
LAY-10
  6
CONTINUOUS
 62
     7
100
AcDbLine
 10
1546.3076841562
 20
817.2520497555814
 30
0.0
 11
1027.3076841562
 21
817.2520497555814
 31
0.0
  0
LINE
  5
34C
330
1F
100
AcDbEntity
  8
LAY-10
  6
CONTINUOUS
 62
     7
100
AcDbLine
 10
1019.8076841562
 20
858.752049755585
 30
0.0
 11
1553.8076841562
 21
858.752049755585
 31
0.0
  0
LINE
  5
34D
330
1F
100
AcDbEntity
  8
LAY-10
  6
CONTINUOUS
 62
     7
100
AcDbLine
 10
1019.8076841562
 20
854.252049755585
 30
0.0
 11
1553.8076841562
 21
854.252049755585
 31
0.0
  0
LINE
  5
34E
330
1F
100
AcDbEntity
  8
LAY-10
  6
CONTINUOUS
 62
     7
100
AcDbLine
 10
1553.8076841562
 20
812.2520497555997
 30
0.0
 11
1553.8076841562
 21
858.752049755585
 31
0.0
  0
LINE
  5
34F
330
1F
100
AcDbEntity
  8
LAY-10
  6
CONTINUOUS
 62
     7
100
AcDbLine
 10
1553.298130596181
 20
814.2520497555787
 30
0.0
 11
1551.492833937976
 21
812.252049755576
 31
0.0
  0
LINE
  5
350
330
1F
100
AcDbEntity
  8
LAY-10
  6
CONTINUOUS
 62
     7
100
AcDbLine
 10
1552.591023814993
 20
814.2520497555769
 30
0.0
 11
1550.785727156791
 21
812.252049755576
 31
0.0
  0
LINE
  5
351
330
1F
100
AcDbEntity
  8
LAY-10
  6
CONTINUOUS
 62
     7
100
AcDbLine
 10
1551.883917033808
 20
814.2520497555787
 30
0.0
 11
1550.078620375602
 21
812.252049755576
 31
0.0
  0
LINE
  5
352
330
1F
100
AcDbEntity
  8
LAY-10
  6
CONTINUOUS
 62
     7
100
AcDbLine
 10
1551.17681025262
 20
814.2520497555769
 30
0.0
 11
1549.371513594418
 21
812.252049755576
 31
0.0
  0
LINE
  5
353
330
1F
100
AcDbEntity
  8
LAY-10
  6
CONTINUOUS
 62
     7
100
AcDbLine
 10
1550.469703471436
 20
814.2520497555787
 30
0.0
 11
1548.66440681323
 21
812.252049755576
 31
0.0
  0
LINE
  5
354
330
1F
100
AcDbEntity
  8
LAY-10
  6
CONTINUOUS
 62
     7
100
AcDbLine
 10
1549.762596690248
 20
814.2520497555769
 30
0.0
 11
1547.960646581372
 21
812.2500996466996
 31
0.0
  0
LINE
  5
355
330
1F
100
AcDbEntity
  8
LAY-10
  6
CONTINUOUS
 62
     7
100
AcDbLine
 10
1549.055489909061
 20
814.2520497555787
 30
0.0
 11
1547.253943170743
 21
812.252049755576
 31
0.0
  0
LINE
  5
356
330
1F
100
AcDbEntity
  8
LAY-10
  6
CONTINUOUS
 62
     7
100
AcDbLine
 10
1548.348383127875
 20
814.2520497555769
 30
0.0
 11
1546.548383127876
 21
812.2520497555787
 31
0.0
  0
LINE
  5
357
330
1F
100
AcDbEntity
  8
LAY-10
  6
CONTINUOUS
 62
     7
100
AcDbLine
 10
1547.64127634669
 20
814.2520497555787
 30
0.0
 11
1545.841276346689
 21
812.2520497555752
 31
0.0
  0
LINE
  5
358
330
1F
100
AcDbEntity
  8
LAY-10
  6
CONTINUOUS
 62
     7
100
AcDbLine
 10
1546.934169565503
 20
814.2520497555769
 30
0.0
 11
1545.134169565504
 21
812.2520497555787
 31
0.0
  0
LINE
  5
359
330
1F
100
AcDbEntity
  8
LAY-10
  6
CONTINUOUS
 62
     7
100
AcDbLine
 10
1546.227062784317
 20
814.2520497555787
 30
0.0
 11
1544.427062784316
 21
812.2520497555752
 31
0.0
  0
LINE
  5
35A
330
1F
100
AcDbEntity
  8
LAY-10
  6
CONTINUOUS
 62
     7
100
AcDbLine
 10
1545.519956003128
 20
814.2520497555769
 30
0.0
 11
1543.71995600313
 21
812.2520497555787
 31
0.0
  0
LINE
  5
35B
330
1F
100
AcDbEntity
  8
LAY-10
  6
CONTINUOUS
 62
     7
100
AcDbLine
 10
1544.812849221943
 20
814.2520497555787
 30
0.0
 11
1543.012849221943
 21
812.2520497555752
 31
0.0
  0
LINE
  5
35C
330
1F
100
AcDbEntity
  8
LAY-10
  6
CONTINUOUS
 62
     7
100
AcDbLine
 10
1544.105742440756
 20
814.2520497555769
 30
0.0
 11
1542.305742440758
 21
812.2520497555787
 31
0.0
  0
LINE
  5
35D
330
1F
100
AcDbEntity
  8
LAY-10
  6
CONTINUOUS
 62
     7
100
AcDbLine
 10
1543.398635659571
 20
814.2520497555787
 30
0.0
 11
1541.598635659567
 21
812.2520497555752
 31
0.0
  0
LINE
  5
35E
330
1F
100
AcDbEntity
  8
LAY-10
  6
CONTINUOUS
 62
     7
100
AcDbLine
 10
1542.691528878383
 20
814.2520497555769
 30
0.0
 11
1540.891528878384
 21
812.2520497555787
 31
0.0
  0
LINE
  5
35F
330
1F
100
AcDbEntity
  8
LAY-10
  6
CONTINUOUS
 62
     7
100
AcDbLine
 10
1541.984422097199
 20
814.2520497555787
 30
0.0
 11
1540.184422097196
 21
812.2520497555752
 31
0.0
  0
LINE
  5
360
330
1F
100
AcDbEntity
  8
LAY-10
  6
CONTINUOUS
 62
     7
100
AcDbLine
 10
1541.27731531601
 20
814.2520497555769
 30
0.0
 11
1539.477315316012
 21
812.2520497555787
 31
0.0
  0
LINE
  5
361
330
1F
100
AcDbEntity
  8
LAY-10
  6
CONTINUOUS
 62
     7
100
AcDbLine
 10
1540.570208534824
 20
814.2520497555787
 30
0.0
 11
1538.770208534822
 21
812.2520497555752
 31
0.0
  0
LINE
  5
362
330
1F
100
AcDbEntity
  8
LAY-10
  6
CONTINUOUS
 62
     7
100
AcDbLine
 10
1539.863101753636
 20
814.2520497555769
 30
0.0
 11
1538.063101753639
 21
812.2520497555797
 31
0.0
  0
LINE
  5
363
330
1F
100
AcDbEntity
  8
LAY-10
  6
CONTINUOUS
 62
     7
100
AcDbLine
 10
1539.155994972452
 20
814.2520497555787
 30
0.0
 11
1537.355994972449
 21
812.2520497555752
 31
0.0
  0
LINE
  5
364
330
1F
100
AcDbEntity
  8
LAY-10
  6
CONTINUOUS
 62
     7
100
AcDbLine
 10
1538.448888191261
 20
814.2520497555769
 30
0.0
 11
1536.648888191267
 21
812.2520497555797
 31
0.0
  0
LINE
  5
365
330
1F
100
AcDbEntity
  8
LAY-10
  6
CONTINUOUS
 62
     7
100
AcDbLine
 10
1537.741781410079
 20
814.2520497555787
 30
0.0
 11
1535.941781410076
 21
812.2520497555752
 31
0.0
  0
LINE
  5
366
330
1F
100
AcDbEntity
  8
LAY-10
  6
CONTINUOUS
 62
     7
100
AcDbLine
 10
1537.03467462889
 20
814.2520497555769
 30
0.0
 11
1535.234674628894
 21
812.2520497555797
 31
0.0
  0
LINE
  5
367
330
1F
100
AcDbEntity
  8
LAY-10
  6
CONTINUOUS
 62
     7
100
AcDbLine
 10
1536.327567847706
 20
814.2520497555787
 30
0.0
 11
1534.527567847704
 21
812.2520497555752
 31
0.0
  0
LINE
  5
368
330
1F
100
AcDbEntity
  8
LAY-10
  6
CONTINUOUS
 62
     7
100
AcDbLine
 10
1535.620461066517
 20
814.2520497555769
 30
0.0
 11
1533.82046106652
 21
812.2520497555797
 31
0.0
  0
LINE
  5
369
330
1F
100
AcDbEntity
  8
LAY-10
  6
CONTINUOUS
 62
     7
100
AcDbLine
 10
1534.913354285333
 20
814.2520497555787
 30
0.0
 11
1533.11335428533
 21
812.2520497555769
 31
0.0
  0
LINE
  5
36A
330
1F
100
AcDbEntity
  8
LAY-10
  6
CONTINUOUS
 62
     7
100
AcDbLine
 10
1534.206247504143
 20
814.2520497555769
 30
0.0
 11
1532.406247504148
 21
812.2520497555797
 31
0.0
  0
LINE
  5
36B
330
1F
100
AcDbEntity
  8
LAY-10
  6
CONTINUOUS
 62
     7
100
AcDbLine
 10
1533.499140722961
 20
814.2520497555787
 30
0.0
 11
1531.699140722958
 21
812.2520497555769
 31
0.0
  0
LINE
  5
36C
330
1F
100
AcDbEntity
  8
LAY-10
  6
CONTINUOUS
 62
     7
100
AcDbLine
 10
1532.792033941771
 20
814.2520497555769
 30
0.0
 11
1530.992033941774
 21
812.2520497555797
 31
0.0
  0
LINE
  5
36D
330
1F
100
AcDbEntity
  8
LAY-10
  6
CONTINUOUS
 62
     7
100
AcDbLine
 10
1532.084927160588
 20
814.2520497555787
 30
0.0
 11
1530.284927160584
 21
812.2520497555769
 31
0.0
  0
LINE
  5
36E
330
1F
100
AcDbEntity
  8
LAY-10
  6
CONTINUOUS
 62
     7
100
AcDbLine
 10
1531.377820379399
 20
814.2520497555769
 30
0.0
 11
1529.577820379402
 21
812.2520497555797
 31
0.0
  0
LINE
  5
36F
330
1F
100
AcDbEntity
  8
LAY-10
  6
CONTINUOUS
 62
     7
100
AcDbLine
 10
1530.670713598215
 20
814.2520497555796
 30
0.0
 11
1528.870713598212
 21
812.2520497555769
 31
0.0
  0
LINE
  5
370
330
1F
100
AcDbEntity
  8
LAY-10
  6
CONTINUOUS
 62
     7
100
AcDbLine
 10
1529.963606817024
 20
814.2520497555769
 30
0.0
 11
1528.16360681703
 21
812.2520497555797
 31
0.0
  0
LINE
  5
371
330
1F
100
AcDbEntity
  8
LAY-10
  6
CONTINUOUS
 62
     7
100
AcDbLine
 10
1529.256500035842
 20
814.2520497555796
 30
0.0
 11
1527.456500035839
 21
812.2520497555769
 31
0.0
  0
LINE
  5
372
330
1F
100
AcDbEntity
  8
LAY-10
  6
CONTINUOUS
 62
     7
100
AcDbLine
 10
1528.549393254652
 20
814.2520497555769
 30
0.0
 11
1526.749393254655
 21
812.2520497555797
 31
0.0
  0
LINE
  5
373
330
1F
100
AcDbEntity
  8
LAY-10
  6
CONTINUOUS
 62
     7
100
AcDbLine
 10
1527.842286473469
 20
814.2520497555796
 30
0.0
 11
1526.042286473467
 21
812.2520497555769
 31
0.0
  0
LINE
  5
374
330
1F
100
AcDbEntity
  8
LAY-10
  6
CONTINUOUS
 62
     7
100
AcDbLine
 10
1527.135179692279
 20
814.2520497555769
 30
0.0
 11
1525.335179692283
 21
812.2520497555797
 31
0.0
  0
LINE
  5
375
330
1F
100
AcDbEntity
  8
LAY-10
  6
CONTINUOUS
 62
     7
100
AcDbLine
 10
1526.428072911096
 20
814.2520497555796
 30
0.0
 11
1524.628072911094
 21
812.2520497555769
 31
0.0
  0
LINE
  5
376
330
1F
100
AcDbEntity
  8
LAY-10
  6
CONTINUOUS
 62
     7
100
AcDbLine
 10
1525.720966129907
 20
814.2520497555779
 30
0.0
 11
1523.92096612991
 21
812.2520497555797
 31
0.0
  0
LINE
  5
377
330
1F
100
AcDbEntity
  8
LAY-10
  6
CONTINUOUS
 62
     7
100
AcDbLine
 10
1525.013859348724
 20
814.2520497555796
 30
0.0
 11
1523.807684155941
 21
812.8458745627976
 31
0.0
  0
LINE
  5
378
330
1F
100
AcDbEntity
  8
LAY-10
  6
CONTINUOUS
 62
     7
100
AcDbLine
 10
1524.306752567533
 20
814.2520497555779
 30
0.0
 11
1523.807684155938
 21
813.7529813439804
 31
0.0
  0
LINE
  5
379
330
1F
100
AcDbEntity
  8
LAY-10
  6
CONTINUOUS
 62
     7
100
AcDbLine
 10
1553.807684156021
 20
814.0331901898134
 30
0.0
 11
1552.199940719163
 21
812.252049755576
 31
0.0
  0
LINE
  5
37A
330
1F
100
AcDbEntity
  8
LAY-10
  6
CONTINUOUS
 62
     7
100
AcDbLine
 10
1553.807684156021
 20
813.2498211208311
 30
0.0
 11
1552.907047500349
 21
812.252049755576
 31
0.0
  0
LINE
  5
37B
330
1F
100
AcDbEntity
  8
LAY-10
  6
CONTINUOUS
 62
     7
100
AcDbLine
 10
1553.807684156021
 20
812.4664520518471
 30
0.0
 11
1553.614154281537
 21
812.252049755576
 31
0.0
  0
LINE
  5
37C
330
1F
100
AcDbEntity
  8
LAY-10
  6
CONTINUOUS
 62
     7
100
AcDbLine
 10
1523.807684156089
 20
814.2520497555748
 30
0.0
 11
1523.807684156089
 21
812.2520497555748
 31
0.0
  0
LINE
  5
37D
330
1F
100
AcDbEntity
  8
LAY-10
  6
CONTINUOUS
 62
     7
100
AcDbLine
 10
1510.807684156201
 20
788.952049755541
 30
0.0
 11
526.8076841562058
 21
788.9520497555435
 31
0.0
  0
LINE
  5
37E
330
1F
100
AcDbEntity
  8
LAY-10
  6
CONTINUOUS
 62
     7
100
AcDbLine
 10
526.8076841562058
 20
738.9520497555429
 30
0.0
 11
1510.807684156201
 21
738.952049755543
 31
0.0
  0
LINE
  5
37F
330
1F
100
AcDbEntity
  8
LAY-10
  6
CONTINUOUS
 62
     7
100
AcDbLine
 10
1509.207684156198
 20
787.352049755541
 30
0.0
 11
528.4076841562053
 21
787.3520497555423
 31
0.0
  0
LINE
  5
380
330
1F
100
AcDbEntity
  8
LAY-10
  6
CONTINUOUS
 62
     7
100
AcDbLine
 10
528.4076841562053
 20
740.5520497555415
 30
0.0
 11
1509.207684156198
 21
740.5520497555416
 31
0.0
  0
LINE
  5
381
330
1F
100
AcDbEntity
  8
LAY-10
  6
CONTINUOUS
 62
     7
100
AcDbLine
 10
482.8076841561879
 20
812.2520497555996
 30
0.0
 11
1554.8076841562
 21
812.2520497555997
 31
0.0
  0
LINE
  5
382
330
1F
100
AcDbEntity
  8
LAY-10
  6
CONTINUOUS
 62
     7
100
AcDbLine
 10
483.80768415624
 20
814.2520497555906
 30
0.0
 11
1553.8076841562
 21
814.252049755591
 31
0.0
  0
LINE
  5
383
330
1F
100
AcDbEntity
  8
LAY-10
  6
CONTINUOUS
 62
     7
100
AcDbLine
 10
1994.323511271559
 20
2256.470691337401
 30
0.0
 11
1994.323511271557
 21
1272.470691337406
 31
0.0
  0
LINE
  5
384
330
1F
100
AcDbEntity
  8
LAY-10
  6
CONTINUOUS
 62
     7
100
AcDbLine
 10
2044.323511271557
 20
1272.470691337406
 30
0.0
 11
2044.323511271557
 21
2256.470691337401
 31
0.0
  0
LINE
  5
385
330
1F
100
AcDbEntity
  8
LAY-10
  6
CONTINUOUS
 62
     7
100
AcDbLine
 10
1995.923511271559
 20
2254.870691337398
 30
0.0
 11
1995.923511271557
 21
1274.070691337405
 31
0.0
  0
LINE
  5
386
330
1F
100
AcDbEntity
  8
LAY-10
  6
CONTINUOUS
 62
     7
100
AcDbLine
 10
2042.723511271558
 20
1274.070691337405
 30
0.0
 11
2042.723511271558
 21
2254.870691337398
 31
0.0
  0
LINE
  5
387
330
1F
100
AcDbEntity
  8
LAY-10
  6
CONTINUOUS
 62
     7
100
AcDbLine
 10
1971.0235112715
 20
1228.470691337388
 30
0.0
 11
1971.0235112715
 21
2300.4706913374
 31
0.0
  0
LINE
  5
388
330
1F
100
AcDbEntity
  8
LAY-10
  6
CONTINUOUS
 62
     7
100
AcDbLine
 10
1966.023511271529
 20
2291.970691337439
 30
0.0
 11
1966.023511271529
 21
1236.97069133744
 31
0.0
  0
LINE
  5
389
330
1F
100
AcDbEntity
  8
LAY-10
  6
CONTINUOUS
 62
     7
100
AcDbLine
 10
1924.523511271525
 20
1229.47069133744
 30
0.0
 11
1924.523511271525
 21
2299.470691337439
 31
0.0
  0
LINE
  5
38A
330
1F
100
AcDbEntity
  8
LAY-10
  6
CONTINUOUS
 62
     7
100
AcDbLine
 10
1929.023511271525
 20
1229.47069133744
 30
0.0
 11
1929.023511271525
 21
2299.470691337439
 31
0.0
  0
LINE
  5
38B
330
1F
100
AcDbEntity
  8
LAY-10
  6
CONTINUOUS
 62
     7
100
AcDbLine
 10
1969.023511271509
 20
1229.47069133744
 30
0.0
 11
1969.023511271509
 21
2299.470691337399
 31
0.0
  0
LINE
  5
38C
330
1F
100
AcDbEntity
  8
LAY-10
  6
CONTINUOUS
 62
     7
100
AcDbLine
 10
1988.32351127164
 20
1578.620691337417
 30
0.0
 11
1994.323511271647
 21
1578.620691337417
 31
0.0
  0
LINE
  5
38D
330
1F
100
AcDbEntity
  8
LAY-10
  6
CONTINUOUS
 62
     7
100
AcDbLine
 10
1988.32351127164
 20
1408.320691337417
 30
0.0
 11
1994.323511271647
 21
1408.320691337417
 31
0.0
  0
LINE
  5
38E
330
1F
100
AcDbEntity
  8
LAY-10
  6
CONTINUOUS
 62
     7
100
AcDbLine
 10
1986.32351127164
 20
1548.620691337417
 30
0.0
 11
1994.323511271647
 21
1548.620691337417
 31
0.0
  0
LINE
  5
38F
330
1F
100
AcDbEntity
  8
LAY-10
  6
CONTINUOUS
 62
     7
100
AcDbLine
 10
1986.32351127164
 20
1568.620691337417
 30
0.0
 11
1986.32351127164
 21
1548.620691337417
 31
0.0
  0
LINE
  5
390
330
1F
100
AcDbEntity
  8
LAY-10
  6
CONTINUOUS
 62
     7
100
AcDbLine
 10
1986.32351127164
 20
1438.620691337417
 30
0.0
 11
1986.32351127164
 21
1418.620691337417
 31
0.0
  0
LINE
  5
391
330
1F
100
AcDbEntity
  8
LAY-10
  6
CONTINUOUS
 62
     7
100
AcDbLine
 10
1988.32351127164
 20
1578.620691337417
 30
0.0
 11
1988.32351127164
 21
1568.620691337417
 31
0.0
  0
LINE
  5
392
330
1F
100
AcDbEntity
  8
LAY-10
  6
CONTINUOUS
 62
     7
100
AcDbLine
 10
1988.32351127164
 20
1548.620691337417
 30
0.0
 11
1988.32351127164
 21
1438.620691337417
 31
0.0
  0
LINE
  5
393
330
1F
100
AcDbEntity
  8
LAY-10
  6
CONTINUOUS
 62
     7
100
AcDbLine
 10
1988.32351127164
 20
1418.620691337417
 30
0.0
 11
1988.32351127164
 21
1408.320691337417
 31
0.0
  0
LINE
  5
394
330
1F
100
AcDbEntity
  8
LAY-10
  6
CONTINUOUS
 62
     7
100
AcDbLine
 10
1986.32351127164
 20
1438.620691337417
 30
0.0
 11
1994.323511271647
 21
1438.620691337417
 31
0.0
  0
LINE
  5
395
330
1F
100
AcDbEntity
  8
LAY-10
  6
CONTINUOUS
 62
     7
100
AcDbLine
 10
1986.32351127164
 20
1418.620691337417
 30
0.0
 11
1994.323511271647
 21
1418.620691337417
 31
0.0
  0
LINE
  5
396
330
1F
100
AcDbEntity
  8
LAY-10
  6
CONTINUOUS
 62
     7
100
AcDbLine
 10
1986.32351127164
 20
1568.620691337417
 30
0.0
 11
1994.323511271647
 21
1568.620691337417
 31
0.0
  0
ARC
  5
397
330
1F
100
AcDbEntity
  8
LAY-10
  6
CONTINUOUS
 62
     7
100
AcDbCircle
 10
1991.323511271647
 20
1540.620691337419
 30
0.0
 40
3.000000000000003
100
AcDbArc
 50
180.0
 51
270.0000000000002
  0
ARC
  5
398
330
1F
100
AcDbEntity
  8
LAY-10
  6
CONTINUOUS
 62
     7
100
AcDbCircle
 10
1991.323511271647
 20
1540.620691337419
 30
0.0
 40
3.000000000000003
100
AcDbArc
 50
270.0000000000002
 51
0.0
  0
ARC
  5
399
330
1F
100
AcDbEntity
  8
LAY-10
  6
CONTINUOUS
 62
     7
100
AcDbCircle
 10
1991.323511271647
 20
1446.620691337417
 30
0.0
 40
3.000000000000003
100
AcDbArc
 50
90.00000000000001
 51
180.0
  0
ARC
  5
39A
330
1F
100
AcDbEntity
  8
LAY-10
  6
CONTINUOUS
 62
     7
100
AcDbCircle
 10
1991.323511271647
 20
1446.620691337417
 30
0.0
 40
3.000000000000003
100
AcDbArc
 50
0.0
 51
90.00000000000001
  0
LINE
  5
39B
330
1F
100
AcDbEntity
  8
LAY-10
  6
CONTINUOUS
 62
     7
100
AcDbLine
 10
1993.32351127164
 20
1548.620691337417
 30
0.0
 11
1993.32351127164
 21
1568.620691337417
 31
0.0
  0
LINE
  5
39C
330
1F
100
AcDbEntity
  8
LAY-10
  6
CONTINUOUS
 62
     7
100
AcDbLine
 10
1993.32351127164
 20
1418.620691337417
 30
0.0
 11
1993.32351127164
 21
1438.620691337417
 31
0.0
  0
LINE
  5
39D
330
1F
100
AcDbEntity
  8
LAY-10
  6
CONTINUOUS
 62
     7
100
AcDbLine
 10
1988.32351127164
 20
1950.320691337619
 30
0.0
 11
1994.323511271647
 21
1950.320691337619
 31
0.0
  0
LINE
  5
39E
330
1F
100
AcDbEntity
  8
LAY-10
  6
CONTINUOUS
 62
     7
100
AcDbLine
 10
1988.32351127164
 20
2120.620691337618
 30
0.0
 11
1994.323511271647
 21
2120.620691337618
 31
0.0
  0
LINE
  5
39F
330
1F
100
AcDbEntity
  8
LAY-10
  6
CONTINUOUS
 62
     7
100
AcDbLine
 10
1986.32351127164
 20
1980.32069133762
 30
0.0
 11
1994.323511271647
 21
1980.32069133762
 31
0.0
  0
LINE
  5
3A0
330
1F
100
AcDbEntity
  8
LAY-10
  6
CONTINUOUS
 62
     7
100
AcDbLine
 10
1986.32351127164
 20
1960.320691337619
 30
0.0
 11
1986.32351127164
 21
1980.32069133762
 31
0.0
  0
LINE
  5
3A1
330
1F
100
AcDbEntity
  8
LAY-10
  6
CONTINUOUS
 62
     7
100
AcDbLine
 10
1986.32351127164
 20
2090.320691337618
 30
0.0
 11
1986.32351127164
 21
2110.320691337619
 31
0.0
  0
LINE
  5
3A2
330
1F
100
AcDbEntity
  8
LAY-10
  6
CONTINUOUS
 62
     7
100
AcDbLine
 10
1988.32351127164
 20
1950.320691337619
 30
0.0
 11
1988.32351127164
 21
1960.320691337619
 31
0.0
  0
LINE
  5
3A3
330
1F
100
AcDbEntity
  8
LAY-10
  6
CONTINUOUS
 62
     7
100
AcDbLine
 10
1988.32351127164
 20
1980.32069133762
 30
0.0
 11
1988.32351127164
 21
2090.320691337618
 31
0.0
  0
LINE
  5
3A4
330
1F
100
AcDbEntity
  8
LAY-10
  6
CONTINUOUS
 62
     7
100
AcDbLine
 10
1988.32351127164
 20
2110.320691337619
 30
0.0
 11
1988.32351127164
 21
2120.620691337618
 31
0.0
  0
LINE
  5
3A5
330
1F
100
AcDbEntity
  8
LAY-10
  6
CONTINUOUS
 62
     7
100
AcDbLine
 10
1986.32351127164
 20
2090.320691337618
 30
0.0
 11
1994.323511271647
 21
2090.320691337618
 31
0.0
  0
LINE
  5
3A6
330
1F
100
AcDbEntity
  8
LAY-10
  6
CONTINUOUS
 62
     7
100
AcDbLine
 10
1986.32351127164
 20
2110.320691337619
 30
0.0
 11
1994.323511271647
 21
2110.320691337619
 31
0.0
  0
LINE
  5
3A7
330
1F
100
AcDbEntity
  8
LAY-10
  6
CONTINUOUS
 62
     7
100
AcDbLine
 10
1986.32351127164
 20
1960.320691337619
 30
0.0
 11
1994.323511271647
 21
1960.320691337619
 31
0.0
  0
ARC
  5
3A8
330
1F
100
AcDbEntity
  8
LAY-10
  6
CONTINUOUS
 62
     7
100
AcDbCircle
 10
1991.323511271647
 20
1988.320691337617
 30
0.0
 40
3.000000000000003
100
AcDbArc
 50
90.00000000000001
 51
180.0
  0
ARC
  5
3A9
330
1F
100
AcDbEntity
  8
LAY-10
  6
CONTINUOUS
 62
     7
100
AcDbCircle
 10
1991.323511271647
 20
1988.320691337617
 30
0.0
 40
3.000000000000003
100
AcDbArc
 50
0.0
 51
90.00000000000001
  0
ARC
  5
3AA
330
1F
100
AcDbEntity
  8
LAY-10
  6
CONTINUOUS
 62
     7
100
AcDbCircle
 10
1991.323511271647
 20
2082.320691337618
 30
0.0
 40
3.000000000000003
100
AcDbArc
 50
180.0
 51
270.0
  0
ARC
  5
3AB
330
1F
100
AcDbEntity
  8
LAY-10
  6
CONTINUOUS
 62
     7
100
AcDbCircle
 10
1991.323511271647
 20
2082.320691337618
 30
0.0
 40
3.000000000000003
100
AcDbArc
 50
270.0
 51
0.0
  0
LINE
  5
3AC
330
1F
100
AcDbEntity
  8
LAY-10
  6
CONTINUOUS
 62
     7
100
AcDbLine
 10
1993.32351127164
 20
1980.32069133762
 30
0.0
 11
1993.32351127164
 21
1960.320691337619
 31
0.0
  0
LINE
  5
3AD
330
1F
100
AcDbEntity
  8
LAY-10
  6
CONTINUOUS
 62
     7
100
AcDbLine
 10
1993.32351127164
 20
2110.320691337619
 30
0.0
 11
1993.32351127164
 21
2090.320691337618
 31
0.0
  0
LINE
  5
3AE
330
1F
100
AcDbEntity
  8
LAY-10
  6
CONTINUOUS
 62
     7
100
AcDbLine
 10
438.9035704142008
 20
2009.970691337366
 30
0.0
 11
438.9035704142008
 21
2018.970691337366
 31
0.0
  0
LINE
  5
3AF
330
1F
100
AcDbEntity
  8
LAY-10
  6
CONTINUOUS
 62
     7
100
AcDbLine
 10
467.8020552240379
 20
2018.970691337366
 30
0.0
 11
438.9035704142008
 21
2018.970691337366
 31
0.0
  0
LINE
  5
3B0
330
1F
100
AcDbEntity
  8
LAY-10
  6
CONTINUOUS
 62
     7
100
AcDbLine
 10
467.8020552240379
 20
2009.970691337366
 30
0.0
 11
438.9035704142008
 21
2009.970691337366
 31
0.0
  0
LINE
  5
3B1
330
1F
100
AcDbEntity
  8
LAY-10
  6
CONTINUOUS
 62
     7
100
AcDbLine
 10
438.9035704142008
 20
1518.970691337405
 30
0.0
 11
438.9035704142008
 21
1509.970691337404
 31
0.0
  0
LINE
  5
3B2
330
1F
100
AcDbEntity
  8
LAY-10
  6
CONTINUOUS
 62
     7
100
AcDbLine
 10
467.8020552240379
 20
1509.970691337404
 30
0.0
 11
438.9035704142008
 21
1509.970691337404
 31
0.0
  0
LINE
  5
3B3
330
1F
100
AcDbEntity
  8
LAY-10
  6
CONTINUOUS
 62
     7
100
AcDbLine
 10
467.8020552240379
 20
1518.970691337404
 30
0.0
 11
438.9035704142008
 21
1518.970691337405
 31
0.0
  0
LINE
  5
3B4
330
1F
100
AcDbEntity
  8
LAY-10
  6
CONTINUOUS
 62
     7
100
AcDbLine
 10
1598.706168965748
 20
2009.970691337362
 30
0.0
 11
1598.706168965748
 21
2018.970691337363
 31
0.0
  0
LINE
  5
3B5
330
1F
100
AcDbEntity
  8
LAY-10
  6
CONTINUOUS
 62
     7
100
AcDbLine
 10
1569.807684155911
 20
2018.970691337363
 30
0.0
 11
1598.706168965748
 21
2018.970691337363
 31
0.0
  0
LINE
  5
3B6
330
1F
100
AcDbEntity
  8
LAY-10
  6
CONTINUOUS
 62
     7
100
AcDbLine
 10
1569.807684155911
 20
2009.970691337362
 30
0.0
 11
1598.706168965748
 21
2009.970691337362
 31
0.0
  0
LINE
  5
3B7
330
1F
100
AcDbEntity
  8
LAY-10
  6
CONTINUOUS
 62
     7
100
AcDbLine
 10
1598.706168965746
 20
1518.970691337402
 30
0.0
 11
1598.706168965746
 21
1509.970691337401
 31
0.0
  0
LINE
  5
3B8
330
1F
100
AcDbEntity
  8
LAY-10
  6
CONTINUOUS
 62
     7
100
AcDbLine
 10
1569.807684155909
 20
1509.9706913374
 30
0.0
 11
1598.706168965746
 21
1509.970691337401
 31
0.0
  0
LINE
  5
3B9
330
1F
100
AcDbEntity
  8
LAY-10
  6
CONTINUOUS
 62
     7
100
AcDbLine
 10
1569.807684155909
 20
1518.970691337401
 30
0.0
 11
1598.706168965746
 21
1518.970691337402
 31
0.0
  0
LINE
  5
3BA
330
1F
100
AcDbEntity
  8
LAY-10
  6
CONTINUOUS
 62
     7
100
AcDbLine
 10
467.8076841561207
 20
2315.470691337342
 30
0.0
 11
482.8076841561207
 21
2300.470691337342
 31
0.0
  0
LINE
  5
3BB
330
1F
100
AcDbEntity
  8
LAY-10
  6
CONTINUOUS
 62
     7
100
AcDbLine
 10
483.8076841561189
 20
2299.470691337341
 30
0.0
 11
1017.807684156119
 21
2299.470691337343
 31
0.0
  0
LINE
  5
3BC
330
1F
100
AcDbEntity
  8
LAY-10
  6
CONTINUOUS
 62
     7
100
AcDbLine
 10
1554.807684156022
 20
2300.470691337342
 30
0.0
 11
1569.807684156022
 21
2315.470691337342
 31
0.0
  0
LINE
  5
3BD
330
1F
100
AcDbEntity
  8
LAY-10
  6
CONTINUOUS
 62
     7
100
AcDbLine
 10
467.8076841561207
 20
2315.470691337342
 30
0.0
 11
1569.807684156022
 21
2315.470691337342
 31
0.0
  0
LINE
  5
3BE
330
1F
100
AcDbEntity
  8
LAY-10
  6
CONTINUOUS
 62
     7
100
AcDbLine
 10
1554.807684156022
 20
2300.470691337342
 30
0.0
 11
482.8076841561207
 21
2300.470691337342
 31
0.0
  0
LINE
  5
3BF
330
1F
100
AcDbEntity
  8
LAY-10
  6
CONTINUOUS
 62
     7
100
AcDbLine
 10
482.807684156117
 20
1228.470691337344
 30
0.0
 11
467.807684156117
 21
1213.470691337344
 31
0.0
  0
LINE
  5
3C0
330
1F
100
AcDbEntity
  8
LAY-10
  6
CONTINUOUS
 62
     7
100
AcDbLine
 10
483.8076841561189
 20
1229.470691337342
 30
0.0
 11
1017.807684156121
 21
1229.470691337343
 31
0.0
  0
LINE
  5
3C1
330
1F
100
AcDbEntity
  8
LAY-10
  6
CONTINUOUS
 62
     7
100
AcDbLine
 10
1554.807684156021
 20
1228.470691337344
 30
0.0
 11
1569.807684156021
 21
1213.470691337346
 31
0.0
  0
LINE
  5
3C2
330
1F
100
AcDbEntity
  8
LAY-10
  6
CONTINUOUS
 62
     7
100
AcDbLine
 10
467.807684156117
 20
1213.470691337344
 30
0.0
 11
1569.807684156021
 21
1213.470691337343
 31
0.0
  0
LINE
  5
3C3
330
1F
100
AcDbEntity
  8
LAY-10
  6
CONTINUOUS
 62
     7
100
AcDbLine
 10
1554.807684156021
 20
1228.470691337343
 30
0.0
 11
482.807684156117
 21
1228.470691337344
 31
0.0
  0
LINE
  5
3C4
330
1F
100
AcDbEntity
  8
LAY-10
  6
CONTINUOUS
 62
     7
100
AcDbLine
 10
1017.807684156121
 20
1229.470691337343
 30
0.0
 11
1017.807684156119
 21
2299.470691337343
 31
0.0
  0
LINE
  5
3C5
330
1F
100
AcDbEntity
  8
LAY-10
  6
CONTINUOUS
 62
     7
100
AcDbLine
 10
483.8076841561189
 20
2299.470691337341
 30
0.0
 11
483.8076841561189
 21
1229.470691337342
 31
0.0
  0
LINE
  5
3C6
330
1F
100
AcDbEntity
  8
LAY-10
  6
CONTINUOUS
 62
     7
100
AcDbLine
 10
482.807684156117
 20
1228.470691337344
 30
0.0
 11
482.8076841561207
 21
2300.470691337342
 31
0.0
  0
LINE
  5
3C7
330
1F
100
AcDbEntity
  8
LAY-10
  6
CONTINUOUS
 62
     7
100
AcDbLine
 10
467.807684156117
 20
1213.470691337344
 30
0.0
 11
467.8076841561207
 21
2315.470691337342
 31
0.0
  0
LINE
  5
3C8
330
1F
100
AcDbEntity
  8
LAY-10
  6
CONTINUOUS
 62
     7
100
AcDbLine
 10
1554.807684156022
 20
2300.470691337342
 30
0.0
 11
1554.807684156021
 21
1228.470691337343
 31
0.0
  0
LINE
  5
3C9
330
1F
100
AcDbEntity
  8
LAY-10
  6
CONTINUOUS
 62
     7
100
AcDbLine
 10
1569.807684156021
 20
1213.470691337344
 30
0.0
 11
1569.807684156022
 21
2315.470691337342
 31
0.0
  0
CIRCLE
  5
3CA
330
1F
100
AcDbEntity
  8
LAY-10
  6
CONTINUOUS
 62
     7
100
AcDbCircle
 10
750.8076841561203
 20
2274.47069133734
 30
0.0
 40
13.00000000000001
  0
LINE
  5
3CB
330
1F
100
AcDbEntity
  8
LAY-10
  6
CONTINUOUS
 62
     7
100
AcDbLine
 10
746.8076841561203
 20
2274.470691337346
 30
0.0
 11
750.8076841561203
 21
2267.970691337346
 31
0.0
  0
LINE
  5
3CC
330
1F
100
AcDbEntity
  8
LAY-10
  6
CONTINUOUS
 62
     7
100
AcDbLine
 10
750.8076841561203
 20
2280.970691337346
 30
0.0
 11
746.8076841561203
 21
2274.470691337346
 31
0.0
  0
LINE
  5
3CD
330
1F
100
AcDbEntity
  8
LAY-10
  6
CONTINUOUS
 62
     7
100
AcDbLine
 10
754.8076841561203
 20
2274.470691337346
 30
0.0
 11
750.8076841561203
 21
2280.970691337346
 31
0.0
  0
LINE
  5
3CE
330
1F
100
AcDbEntity
  8
LAY-10
  6
CONTINUOUS
 62
     7
100
AcDbLine
 10
750.8076841561203
 20
2267.970691337346
 30
0.0
 11
754.8076841561203
 21
2274.470691337346
 31
0.0
  0
ARC
  5
3CF
330
1F
100
AcDbEntity
  8
LAY-10
  6
CONTINUOUS
 62
     7
100
AcDbCircle
 10
750.8076841561203
 20
2274.470691337346
 30
0.0
 40
12.75000000000001
100
AcDbArc
 50
18.2838899404031
 51
341.7161100595971
  0
LINE
  5
3D0
330
1F
100
AcDbEntity
  8
LAY-10
  6
CONTINUOUS
 62
     7
100
AcDbLine
 10
761.3076841561203
 20
2278.470691337345
 30
0.0
 11
761.3076841561203
 21
2270.470691337347
 31
0.0
  0
LINE
  5
3D1
330
1F
100
AcDbEntity
  8
LAY-10
  6
CONTINUOUS
 62
     7
100
AcDbLine
 10
761.3076841561203
 20
2278.470691337345
 30
0.0
 11
762.9139841689235
 21
2278.470691337345
 31
0.0
  0
LINE
  5
3D2
330
1F
100
AcDbEntity
  8
LAY-10
  6
CONTINUOUS
 62
     7
100
AcDbLine
 10
761.3076841561203
 20
2270.470691337347
 30
0.0
 11
762.9139841689235
 21
2270.470691337347
 31
0.0
  0
CIRCLE
  5
3D3
330
1F
100
AcDbEntity
  8
LAY-10
  6
CONTINUOUS
 62
     7
100
AcDbCircle
 10
750.8076841561208
 20
1254.470691337545
 30
0.0
 40
13.00000000000001
  0
LINE
  5
3D4
330
1F
100
AcDbEntity
  8
LAY-10
  6
CONTINUOUS
 62
     7
100
AcDbLine
 10
746.8076841561208
 20
1254.47069133754
 30
0.0
 11
750.8076841561208
 21
1260.97069133754
 31
0.0
  0
LINE
  5
3D5
330
1F
100
AcDbEntity
  8
LAY-10
  6
CONTINUOUS
 62
     7
100
AcDbLine
 10
750.8076841561208
 20
1247.97069133754
 30
0.0
 11
746.8076841561208
 21
1254.47069133754
 31
0.0
  0
LINE
  5
3D6
330
1F
100
AcDbEntity
  8
LAY-10
  6
CONTINUOUS
 62
     7
100
AcDbLine
 10
754.8076841561207
 20
1254.47069133754
 30
0.0
 11
750.8076841561208
 21
1247.97069133754
 31
0.0
  0
LINE
  5
3D7
330
1F
100
AcDbEntity
  8
LAY-10
  6
CONTINUOUS
 62
     7
100
AcDbLine
 10
750.8076841561208
 20
1260.97069133754
 30
0.0
 11
754.8076841561207
 21
1254.47069133754
 31
0.0
  0
ARC
  5
3D8
330
1F
100
AcDbEntity
  8
LAY-10
  6
CONTINUOUS
 62
     7
100
AcDbCircle
 10
750.8076841561208
 20
1254.47069133754
 30
0.0
 40
12.75000000000001
100
AcDbArc
 50
18.2838899404031
 51
341.716110059597
  0
LINE
  5
3D9
330
1F
100
AcDbEntity
  8
LAY-10
  6
CONTINUOUS
 62
     7
100
AcDbLine
 10
761.3076841561208
 20
1250.470691337541
 30
0.0
 11
761.3076841561208
 21
1258.470691337539
 31
0.0
  0
LINE
  5
3DA
330
1F
100
AcDbEntity
  8
LAY-10
  6
CONTINUOUS
 62
     7
100
AcDbLine
 10
761.3076841561208
 20
1250.470691337541
 30
0.0
 11
762.9139841689241
 21
1250.470691337541
 31
0.0
  0
LINE
  5
3DB
330
1F
100
AcDbEntity
  8
LAY-10
  6
CONTINUOUS
 62
     7
100
AcDbLine
 10
761.3076841561208
 20
1258.470691337539
 30
0.0
 11
762.9139841689241
 21
1258.470691337539
 31
0.0
  0
LINE
  5
3DC
330
1F
100
AcDbEntity
  8
LAY-10
  6
CONTINUOUS
 62
     7
100
AcDbLine
 10
650.8803721322956
 20
2275.641690069292
 30
0.0
 11
633.6960318045399
 21
2292.826030397339
 31
0.0
  0
LINE
  5
3DD
330
1F
100
AcDbEntity
  8
LAY-10
  6
CONTINUOUS
 62
     7
100
AcDbLine
 10
509.952345096639
 20
2292.826030394536
 30
0.0
 11
516.5970060391019
 21
2299.470691337337
 31
0.0
  0
LINE
  5
3DE
330
1F
100
AcDbEntity
  8
LAY-10
  6
CONTINUOUS
 62
     7
100
AcDbLine
 10
492.2746755684399
 20
2275.148360865736
 30
0.0
 11
483.8076841561148
 21
2266.681369453266
 31
0.0
  0
LINE
  5
3DF
330
1F
100
AcDbEntity
  8
LAY-10
  6
CONTINUOUS
 62
     7
100
AcDbLine
 10
587.3076841568436
 20
2299.470691337339
 30
0.0
 11
580.6630232146358
 21
2292.826030395543
 31
0.0
  0
LINE
  5
3E0
330
1F
100
AcDbEntity
  8
LAY-10
  6
CONTINUOUS
 62
     7
100
AcDbLine
 10
492.2746755671398
 20
2239.793021809338
 30
0.0
 11
483.8076841561398
 21
2231.326030398194
 31
0.0
  0
LINE
  5
3E1
330
1F
100
AcDbEntity
  8
LAY-10
  6
CONTINUOUS
 62
     7
100
AcDbLine
 10
527.6300146264398
 20
2239.793021808338
 30
0.0
 11
509.9523450967395
 21
2222.11535227834
 31
0.0
  0
LINE
  5
3E2
330
1F
100
AcDbEntity
  8
LAY-10
  6
CONTINUOUS
 62
     7
100
AcDbLine
 10
509.9523450967395
 20
2204.437682749339
 30
0.0
 11
492.2746755670397
 21
2222.11535227834
 31
0.0
  0
LINE
  5
3E3
330
1F
100
AcDbEntity
  8
LAY-10
  6
CONTINUOUS
 62
     7
100
AcDbLine
 10
545.3076841560396
 20
2204.437682749338
 30
0.0
 11
527.6300146264398
 21
2222.11535227834
 31
0.0
  0
LINE
  5
3E4
330
1F
100
AcDbEntity
  8
LAY-10
  6
CONTINUOUS
 62
     7
100
AcDbLine
 10
633.6960318044394
 20
2257.470691337339
 30
0.0
 11
651.3737013341396
 21
2239.793021808338
 31
0.0
  0
LINE
  5
3E5
330
1F
100
AcDbEntity
  8
LAY-10
  6
CONTINUOUS
 62
     7
100
AcDbLine
 10
616.0183622748395
 20
2222.115352278339
 30
0.0
 11
633.6960318044394
 21
2239.793021808338
 31
0.0
  0
LINE
  5
3E6
330
1F
100
AcDbEntity
  8
LAY-10
  6
CONTINUOUS
 62
     7
100
AcDbLine
 10
616.0183622748395
 20
2257.470691337339
 30
0.0
 11
633.6960318044394
 21
2275.148360867339
 31
0.0
  0
LINE
  5
3E7
330
1F
100
AcDbEntity
  8
LAY-10
  6
CONTINUOUS
 62
     7
100
AcDbLine
 10
598.3406927451397
 20
2222.115352278339
 30
0.0
 11
616.0183622748395
 21
2204.437682749339
 31
0.0
  0
LINE
  5
3E8
330
1F
100
AcDbEntity
  8
LAY-10
  6
CONTINUOUS
 62
     7
100
AcDbLine
 10
562.9853536858395
 20
2239.793021808338
 30
0.0
 11
545.3076841561397
 21
2222.115352278339
 31
0.0
  0
LINE
  5
3E9
330
1F
100
AcDbEntity
  8
LAY-10
  6
CONTINUOUS
 62
     7
100
AcDbLine
 10
562.9853536858395
 20
2222.115352278339
 30
0.0
 11
580.6630232154394
 21
2204.437682749339
 31
0.0
  0
LINE
  5
3EA
330
1F
100
AcDbEntity
  8
LAY-10
  6
CONTINUOUS
 62
     7
100
AcDbLine
 10
598.3406927451397
 20
2257.470691337339
 30
0.0
 11
616.0183622748395
 21
2239.793021808338
 31
0.0
  0
LINE
  5
3EB
330
1F
100
AcDbEntity
  8
LAY-10
  6
CONTINUOUS
 62
     7
100
AcDbLine
 10
616.0183622748395
 20
2275.148360867339
 30
0.0
 11
598.3406927451397
 21
2292.826030397338
 31
0.0
  0
LINE
  5
3EC
330
1F
100
AcDbEntity
  8
LAY-10
  6
CONTINUOUS
 62
     7
100
AcDbLine
 10
492.2746755669397
 20
2133.727004631338
 30
0.0
 11
483.8076841561398
 21
2125.260013220394
 31
0.0
  0
LINE
  5
3ED
330
1F
100
AcDbEntity
  8
LAY-10
  6
CONTINUOUS
 62
     7
100
AcDbLine
 10
527.6300146263397
 20
2169.082343690338
 30
0.0
 11
509.9523450966399
 21
2151.404674160339
 31
0.0
  0
LINE
  5
3EE
330
1F
100
AcDbEntity
  8
LAY-10
  6
CONTINUOUS
 62
     7
100
AcDbLine
 10
492.2746755670397
 20
2151.404674160339
 30
0.0
 11
509.9523450966399
 21
2133.727004631339
 31
0.0
  0
LINE
  5
3EF
330
1F
100
AcDbEntity
  8
LAY-10
  6
CONTINUOUS
 62
     7
100
AcDbLine
 10
492.2746755670397
 20
2169.082343690338
 30
0.0
 11
483.8076841561398
 21
2160.615352279295
 31
0.0
  0
LINE
  5
3F0
330
1F
100
AcDbEntity
  8
LAY-10
  6
CONTINUOUS
 62
     7
100
AcDbLine
 10
492.2746755670397
 20
2204.437682749339
 30
0.0
 11
483.8076841561398
 21
2195.970691338295
 31
0.0
  0
LINE
  5
3F1
330
1F
100
AcDbEntity
  8
LAY-10
  6
CONTINUOUS
 62
     7
100
AcDbLine
 10
509.9523450966399
 20
2169.082343690338
 30
0.0
 11
492.2746755670397
 21
2186.760013219339
 31
0.0
  0
LINE
  5
3F2
330
1F
100
AcDbEntity
  8
LAY-10
  6
CONTINUOUS
 62
     7
100
AcDbLine
 10
527.6300146263397
 20
2151.404674160339
 30
0.0
 11
545.3076841560396
 21
2133.727004631339
 31
0.0
  0
LINE
  5
3F3
330
1F
100
AcDbEntity
  8
LAY-10
  6
CONTINUOUS
 62
     7
100
AcDbLine
 10
545.3076841560396
 20
2151.404674160339
 30
0.0
 11
562.9853536857395
 21
2169.082343690339
 31
0.0
  0
LINE
  5
3F4
330
1F
100
AcDbEntity
  8
LAY-10
  6
CONTINUOUS
 62
     7
100
AcDbLine
 10
562.9853536857395
 20
2186.760013219338
 30
0.0
 11
580.6630232154394
 21
2169.082343690339
 31
0.0
  0
LINE
  5
3F5
330
1F
100
AcDbEntity
  8
LAY-10
  6
CONTINUOUS
 62
     7
100
AcDbLine
 10
527.6300146264398
 20
2204.437682749339
 30
0.0
 11
509.9523450967395
 21
2186.760013219339
 31
0.0
  0
LINE
  5
3F6
330
1F
100
AcDbEntity
  8
LAY-10
  6
CONTINUOUS
 62
     7
100
AcDbLine
 10
562.9853536857395
 20
2204.437682749338
 30
0.0
 11
545.3076841560396
 21
2186.760013219338
 31
0.0
  0
LINE
  5
3F7
330
1F
100
AcDbEntity
  8
LAY-10
  6
CONTINUOUS
 62
     7
100
AcDbLine
 10
527.6300146264398
 20
2186.760013219339
 30
0.0
 11
545.3076841560396
 21
2169.082343690339
 31
0.0
  0
LINE
  5
3F8
330
1F
100
AcDbEntity
  8
LAY-10
  6
CONTINUOUS
 62
     7
100
AcDbLine
 10
509.9523450966399
 20
2116.049335101338
 30
0.0
 11
527.6300146263397
 21
2133.727004631339
 31
0.0
  0
LINE
  5
3F9
330
1F
100
AcDbEntity
  8
LAY-10
  6
CONTINUOUS
 62
     7
100
AcDbLine
 10
492.2746755669397
 20
2116.049335101338
 30
0.0
 11
509.9523450966399
 21
2098.371665572338
 31
0.0
  0
LINE
  5
3FA
330
1F
100
AcDbEntity
  8
LAY-10
  6
CONTINUOUS
 62
     7
100
AcDbLine
 10
483.8076841561398
 20
2089.904674161394
 30
0.0
 11
492.2746755669397
 21
2098.371665572338
 31
0.0
  0
LINE
  5
3FB
330
1F
100
AcDbEntity
  8
LAY-10
  6
CONTINUOUS
 62
     7
100
AcDbLine
 10
622.6630232156267
 20
2299.470691337339
 30
0.0
 11
616.0183622747395
 21
2292.826030396339
 31
0.0
  0
LINE
  5
3FC
330
1F
100
AcDbEntity
  8
LAY-10
  6
CONTINUOUS
 62
     7
100
AcDbLine
 10
658.0183622753034
 20
2299.470691337339
 30
0.0
 11
651.3737013350396
 21
2292.826030397338
 31
0.0
  0
LINE
  5
3FD
330
1F
100
AcDbEntity
  8
LAY-10
  6
CONTINUOUS
 62
     7
100
AcDbLine
 10
693.3737013349732
 20
2299.470691337339
 30
0.0
 11
686.7290403947095
 21
2292.826030397338
 31
0.0
  0
LINE
  5
3FE
330
1F
100
AcDbEntity
  8
LAY-10
  6
CONTINUOUS
 62
     7
100
AcDbLine
 10
598.3406927451397
 20
2239.793021808338
 30
0.0
 11
580.6630232154394
 21
2222.115352278339
 31
0.0
  0
LINE
  5
3FF
330
1F
100
AcDbEntity
  8
LAY-10
  6
CONTINUOUS
 62
     7
100
AcDbLine
 10
580.6630232154394
 20
2186.760013219338
 30
0.0
 11
598.3406927451397
 21
2204.437682749339
 31
0.0
  0
LINE
  5
400
330
1F
100
AcDbEntity
  8
LAY-10
  6
CONTINUOUS
 62
     7
100
AcDbLine
 10
527.630014626839
 20
2275.148360866738
 30
0.0
 11
509.9523450971402
 21
2257.470691336738
 31
0.0
  0
LINE
  5
401
330
1F
100
AcDbEntity
  8
LAY-10
  6
CONTINUOUS
 62
     7
100
AcDbLine
 10
509.9523450968396
 20
2275.148360866437
 30
0.0
 11
492.2746755675391
 21
2292.826030395736
 31
0.0
  0
LINE
  5
402
330
1F
100
AcDbEntity
  8
LAY-10
  6
CONTINUOUS
 62
     7
100
AcDbLine
 10
492.2746755681393
 20
2257.470691336338
 30
0.0
 11
509.9523450974403
 21
2239.793021807039
 31
0.0
  0
LINE
  5
403
330
1F
100
AcDbEntity
  8
LAY-10
  6
CONTINUOUS
 62
     7
100
AcDbLine
 10
598.3406927451397
 20
2275.148360867339
 30
0.0
 11
584.8076841561401
 21
2261.61535227811
 31
0.0
  0
LINE
  5
404
330
1F
100
AcDbEntity
  8
LAY-10
  6
CONTINUOUS
 62
     7
100
AcDbLine
 10
527.6300146269377
 20
2292.826030395138
 30
0.0
 11
545.3076841562383
 21
2275.148360865839
 31
0.0
  0
LINE
  5
405
330
1F
100
AcDbEntity
  8
LAY-10
  6
CONTINUOUS
 62
     7
100
AcDbLine
 10
545.3076841549391
 20
2257.470691336839
 30
0.0
 11
562.9853536849373
 21
2275.148360866541
 31
0.0
  0
LINE
  5
406
330
1F
100
AcDbEntity
  8
LAY-10
  6
CONTINUOUS
 62
     7
100
AcDbLine
 10
580.6630232139382
 20
2275.148360866542
 30
0.0
 11
562.985353684936
 21
2292.826030396241
 31
0.0
  0
LINE
  5
407
330
1F
100
AcDbEntity
  8
LAY-10
  6
CONTINUOUS
 62
     7
100
AcDbLine
 10
580.663023213941
 20
2239.793021807242
 30
0.0
 11
562.9853536849387
 21
2257.470691336841
 31
0.0
  0
LINE
  5
408
330
1F
100
AcDbEntity
  8
LAY-10
  6
CONTINUOUS
 62
     7
100
AcDbLine
 10
545.3076841539378
 20
2292.82603039614
 30
0.0
 11
551.9523450952497
 21
2299.470691337339
 31
0.0
  0
LINE
  5
409
330
1F
100
AcDbEntity
  8
LAY-10
  6
CONTINUOUS
 62
     7
100
AcDbLine
 10
545.30768415584
 20
2239.793021808039
 30
0.0
 11
527.6300146265403
 21
2257.470691337339
 31
0.0
  0
LINE
  5
40A
330
1F
100
AcDbEntity
  8
LAY-10
  6
CONTINUOUS
 62
     7
100
AcDbLine
 10
669.0513708627404
 20
2275.148360868338
 30
0.0
 11
651.3737013334403
 21
2257.470691338039
 31
0.0
  0
LINE
  5
40B
330
1F
100
AcDbEntity
  8
LAY-10
  6
CONTINUOUS
 62
     7
100
AcDbLine
 10
669.0513708620415
 20
2292.826030398038
 30
0.0
 11
686.7290403917403
 21
2275.148360869038
 31
0.0
  0
LINE
  5
40C
330
1F
100
AcDbEntity
  8
LAY-10
  6
CONTINUOUS
 62
     7
100
AcDbLine
 10
850.7349961799247
 20
1253.299692605308
 30
0.0
 11
867.9193365076804
 21
1236.115352277261
 31
0.0
  0
LINE
  5
40D
330
1F
100
AcDbEntity
  8
LAY-10
  6
CONTINUOUS
 62
     7
100
AcDbLine
 10
991.6630232155813
 20
1236.115352280064
 30
0.0
 11
985.0183622731183
 21
1229.470691337263
 31
0.0
  0
LINE
  5
40E
330
1F
100
AcDbEntity
  8
LAY-10
  6
CONTINUOUS
 62
     7
100
AcDbLine
 10
1009.34069274378
 20
1253.793021808864
 30
0.0
 11
1017.807684156106
 21
1262.260013221335
 31
0.0
  0
LINE
  5
40F
330
1F
100
AcDbEntity
  8
LAY-10
  6
CONTINUOUS
 62
     7
100
AcDbLine
 10
914.3076841553767
 20
1229.470691337261
 30
0.0
 11
920.9523450975844
 21
1236.115352279057
 31
0.0
  0
LINE
  5
410
330
1F
100
AcDbEntity
  8
LAY-10
  6
CONTINUOUS
 62
     7
100
AcDbLine
 10
1009.340692745081
 20
1289.148360865262
 30
0.0
 11
1017.807684156081
 21
1297.615352276406
 31
0.0
  0
LINE
  5
411
330
1F
100
AcDbEntity
  8
LAY-10
  6
CONTINUOUS
 62
     7
100
AcDbLine
 10
973.9853536857805
 20
1289.148360866262
 30
0.0
 11
991.6630232154807
 21
1306.82603039626
 31
0.0
  0
LINE
  5
412
330
1F
100
AcDbEntity
  8
LAY-10
  6
CONTINUOUS
 62
     7
100
AcDbLine
 10
991.6630232154807
 20
1324.503699925262
 30
0.0
 11
1009.340692745181
 21
1306.82603039626
 31
0.0
  0
LINE
  5
413
330
1F
100
AcDbEntity
  8
LAY-10
  6
CONTINUOUS
 62
     7
100
AcDbLine
 10
956.3076841561806
 20
1324.503699925262
 30
0.0
 11
973.9853536857805
 21
1306.82603039626
 31
0.0
  0
LINE
  5
414
330
1F
100
AcDbEntity
  8
LAY-10
  6
CONTINUOUS
 62
     7
100
AcDbLine
 10
867.9193365077808
 20
1271.470691337261
 30
0.0
 11
850.2416669780805
 21
1289.148360866262
 31
0.0
  0
LINE
  5
415
330
1F
100
AcDbEntity
  8
LAY-10
  6
CONTINUOUS
 62
     7
100
AcDbLine
 10
885.5970060373807
 20
1306.826030396262
 30
0.0
 11
867.9193365077808
 21
1289.148360866262
 31
0.0
  0
LINE
  5
416
330
1F
100
AcDbEntity
  8
LAY-10
  6
CONTINUOUS
 62
     7
100
AcDbLine
 10
885.5970060373807
 20
1271.470691337261
 30
0.0
 11
867.9193365077808
 21
1253.793021807262
 31
0.0
  0
LINE
  5
417
330
1F
100
AcDbEntity
  8
LAY-10
  6
CONTINUOUS
 62
     7
100
AcDbLine
 10
903.2746755670805
 20
1306.826030396262
 30
0.0
 11
885.5970060373807
 21
1324.503699925262
 31
0.0
  0
LINE
  5
418
330
1F
100
AcDbEntity
  8
LAY-10
  6
CONTINUOUS
 62
     7
100
AcDbLine
 10
938.6300146263807
 20
1289.148360866262
 30
0.0
 11
956.3076841560805
 21
1306.826030396262
 31
0.0
  0
LINE
  5
419
330
1F
100
AcDbEntity
  8
LAY-10
  6
CONTINUOUS
 62
     7
100
AcDbLine
 10
938.6300146263807
 20
1306.826030396262
 30
0.0
 11
920.9523450967808
 21
1324.503699925262
 31
0.0
  0
LINE
  5
41A
330
1F
100
AcDbEntity
  8
LAY-10
  6
CONTINUOUS
 62
     7
100
AcDbLine
 10
903.2746755670805
 20
1271.470691337261
 30
0.0
 11
885.5970060373807
 21
1289.148360866262
 31
0.0
  0
LINE
  5
41B
330
1F
100
AcDbEntity
  8
LAY-10
  6
CONTINUOUS
 62
     7
100
AcDbLine
 10
885.5970060373807
 20
1253.793021807262
 30
0.0
 11
903.2746755670805
 21
1236.115352277262
 31
0.0
  0
LINE
  5
41C
330
1F
100
AcDbEntity
  8
LAY-10
  6
CONTINUOUS
 62
     7
100
AcDbLine
 10
1009.340692745281
 20
1395.214378043262
 30
0.0
 11
1017.807684156081
 21
1403.681369454206
 31
0.0
  0
LINE
  5
41D
330
1F
100
AcDbEntity
  8
LAY-10
  6
CONTINUOUS
 62
     7
100
AcDbLine
 10
973.9853536858806
 20
1359.859038984262
 30
0.0
 11
991.6630232155803
 21
1377.536708514262
 31
0.0
  0
LINE
  5
41E
330
1F
100
AcDbEntity
  8
LAY-10
  6
CONTINUOUS
 62
     7
100
AcDbLine
 10
1009.340692745181
 20
1377.536708514262
 30
0.0
 11
991.6630232155803
 21
1395.214378043261
 31
0.0
  0
LINE
  5
41F
330
1F
100
AcDbEntity
  8
LAY-10
  6
CONTINUOUS
 62
     7
100
AcDbLine
 10
1009.340692745181
 20
1359.859038984262
 30
0.0
 11
1017.807684156081
 21
1368.326030395306
 31
0.0
  0
LINE
  5
420
330
1F
100
AcDbEntity
  8
LAY-10
  6
CONTINUOUS
 62
     7
100
AcDbLine
 10
1009.340692745181
 20
1324.503699925262
 30
0.0
 11
1017.807684156081
 21
1332.970691336305
 31
0.0
  0
LINE
  5
421
330
1F
100
AcDbEntity
  8
LAY-10
  6
CONTINUOUS
 62
     7
100
AcDbLine
 10
991.6630232155803
 20
1359.859038984262
 30
0.0
 11
1009.340692745181
 21
1342.181369455261
 31
0.0
  0
LINE
  5
422
330
1F
100
AcDbEntity
  8
LAY-10
  6
CONTINUOUS
 62
     7
100
AcDbLine
 10
973.9853536858806
 20
1377.536708514262
 30
0.0
 11
956.3076841561806
 21
1395.214378043261
 31
0.0
  0
LINE
  5
423
330
1F
100
AcDbEntity
  8
LAY-10
  6
CONTINUOUS
 62
     7
100
AcDbLine
 10
956.3076841561806
 20
1377.536708514262
 30
0.0
 11
938.6300146264807
 21
1359.859038984261
 31
0.0
  0
LINE
  5
424
330
1F
100
AcDbEntity
  8
LAY-10
  6
CONTINUOUS
 62
     7
100
AcDbLine
 10
938.6300146264807
 20
1342.181369455262
 30
0.0
 11
920.9523450967808
 21
1359.859038984261
 31
0.0
  0
LINE
  5
425
330
1F
100
AcDbEntity
  8
LAY-10
  6
CONTINUOUS
 62
     7
100
AcDbLine
 10
973.9853536857805
 20
1324.503699925262
 30
0.0
 11
991.6630232154807
 21
1342.181369455261
 31
0.0
  0
LINE
  5
426
330
1F
100
AcDbEntity
  8
LAY-10
  6
CONTINUOUS
 62
     7
100
AcDbLine
 10
938.6300146264807
 20
1324.503699925262
 30
0.0
 11
956.3076841561806
 21
1342.181369455262
 31
0.0
  0
LINE
  5
427
330
1F
100
AcDbEntity
  8
LAY-10
  6
CONTINUOUS
 62
     7
100
AcDbLine
 10
973.9853536857805
 20
1342.181369455261
 30
0.0
 11
956.3076841561806
 21
1359.859038984261
 31
0.0
  0
LINE
  5
428
330
1F
100
AcDbEntity
  8
LAY-10
  6
CONTINUOUS
 62
     7
100
AcDbLine
 10
991.6630232155803
 20
1412.892047573262
 30
0.0
 11
973.9853536858806
 21
1395.214378043261
 31
0.0
  0
LINE
  5
429
330
1F
100
AcDbEntity
  8
LAY-10
  6
CONTINUOUS
 62
     7
100
AcDbLine
 10
1009.340692745281
 20
1412.892047573262
 30
0.0
 11
991.6630232155803
 21
1430.569717102262
 31
0.0
  0
LINE
  5
42A
330
1F
100
AcDbEntity
  8
LAY-10
  6
CONTINUOUS
 62
     7
100
AcDbLine
 10
1017.807684156081
 20
1439.036708513206
 30
0.0
 11
1009.340692745281
 21
1430.569717102262
 31
0.0
  0
LINE
  5
42B
330
1F
100
AcDbEntity
  8
LAY-10
  6
CONTINUOUS
 62
     7
100
AcDbLine
 10
878.9523450965936
 20
1229.470691337261
 30
0.0
 11
885.5970060374807
 21
1236.115352278262
 31
0.0
  0
LINE
  5
42C
330
1F
100
AcDbEntity
  8
LAY-10
  6
CONTINUOUS
 62
     7
100
AcDbLine
 10
843.5970060369169
 20
1229.470691337261
 30
0.0
 11
850.2416669771806
 21
1236.115352277262
 31
0.0
  0
LINE
  5
42D
330
1F
100
AcDbEntity
  8
LAY-10
  6
CONTINUOUS
 62
     7
100
AcDbLine
 10
808.2416669772471
 20
1229.470691337261
 30
0.0
 11
814.8863279175107
 21
1236.115352277262
 31
0.0
  0
LINE
  5
42E
330
1F
100
AcDbEntity
  8
LAY-10
  6
CONTINUOUS
 62
     7
100
AcDbLine
 10
903.2746755670805
 20
1289.148360866262
 30
0.0
 11
920.9523450967808
 21
1306.826030396262
 31
0.0
  0
LINE
  5
42F
330
1F
100
AcDbEntity
  8
LAY-10
  6
CONTINUOUS
 62
     7
100
AcDbLine
 10
920.9523450967808
 20
1342.181369455262
 30
0.0
 11
903.2746755670805
 21
1324.503699925262
 31
0.0
  0
LINE
  5
430
330
1F
100
AcDbEntity
  8
LAY-10
  6
CONTINUOUS
 62
     7
100
AcDbLine
 10
973.9853536853811
 20
1253.793021807863
 30
0.0
 11
991.6630232150801
 21
1271.470691337862
 31
0.0
  0
LINE
  5
431
330
1F
100
AcDbEntity
  8
LAY-10
  6
CONTINUOUS
 62
     7
100
AcDbLine
 10
991.6630232153807
 20
1253.793021808164
 30
0.0
 11
1009.340692744681
 21
1236.115352278865
 31
0.0
  0
LINE
  5
432
330
1F
100
AcDbEntity
  8
LAY-10
  6
CONTINUOUS
 62
     7
100
AcDbLine
 10
1009.340692744081
 20
1271.470691338262
 30
0.0
 11
991.66302321478
 21
1289.148360867562
 31
0.0
  0
LINE
  5
433
330
1F
100
AcDbEntity
  8
LAY-10
  6
CONTINUOUS
 62
     7
100
AcDbLine
 10
903.2746755670805
 20
1253.793021807262
 30
0.0
 11
916.8076841560801
 21
1267.326030396491
 31
0.0
  0
LINE
  5
434
330
1F
100
AcDbEntity
  8
LAY-10
  6
CONTINUOUS
 62
     7
100
AcDbLine
 10
973.9853536852826
 20
1236.115352279462
 30
0.0
 11
956.307684155982
 21
1253.793021808761
 31
0.0
  0
LINE
  5
435
330
1F
100
AcDbEntity
  8
LAY-10
  6
CONTINUOUS
 62
     7
100
AcDbLine
 10
956.3076841572811
 20
1271.470691337761
 30
0.0
 11
938.6300146272829
 21
1253.793021808059
 31
0.0
  0
LINE
  5
436
330
1F
100
AcDbEntity
  8
LAY-10
  6
CONTINUOUS
 62
     7
100
AcDbLine
 10
920.952345098282
 20
1253.793021808058
 30
0.0
 11
938.6300146272843
 21
1236.11535227836
 31
0.0
  0
LINE
  5
437
330
1F
100
AcDbEntity
  8
LAY-10
  6
CONTINUOUS
 62
     7
100
AcDbLine
 10
920.9523450982792
 20
1289.148360867358
 30
0.0
 11
938.6300146272816
 21
1271.470691337759
 31
0.0
  0
LINE
  5
438
330
1F
100
AcDbEntity
  8
LAY-10
  6
CONTINUOUS
 62
     7
100
AcDbLine
 10
956.3076841582824
 20
1236.115352278461
 30
0.0
 11
949.6630232169705
 21
1229.470691337261
 31
0.0
  0
LINE
  5
439
330
1F
100
AcDbEntity
  8
LAY-10
  6
CONTINUOUS
 62
     7
100
AcDbLine
 10
956.3076841563802
 20
1289.148360866561
 30
0.0
 11
973.9853536856799
 21
1271.470691337261
 31
0.0
  0
LINE
  5
43A
330
1F
100
AcDbEntity
  8
LAY-10
  6
CONTINUOUS
 62
     7
100
AcDbLine
 10
832.5639974494798
 20
1253.793021806262
 30
0.0
 11
850.24166697878
 21
1271.470691336562
 31
0.0
  0
LINE
  5
43B
330
1F
100
AcDbEntity
  8
LAY-10
  6
CONTINUOUS
 62
     7
100
AcDbLine
 10
832.5639974501787
 20
1236.115352276563
 30
0.0
 11
814.8863279204797
 21
1253.793021805563
 31
0.0
  0
LINE
  5
43C
330
1F
100
AcDbEntity
  8
LAY-10
  6
CONTINUOUS
 62
     7
100
AcDbLine
 10
1019.807684156199
 20
2299.470691337341
 30
0.0
 11
1553.807684156199
 21
2299.470691337343
 31
0.0
  0
LINE
  5
43D
330
1F
100
AcDbEntity
  8
LAY-10
  6
CONTINUOUS
 62
     7
100
AcDbLine
 10
1019.807684156199
 20
1229.470691337342
 30
0.0
 11
1553.807684156201
 21
1229.470691337343
 31
0.0
  0
LINE
  5
43E
330
1F
100
AcDbEntity
  8
LAY-10
  6
CONTINUOUS
 62
     7
100
AcDbLine
 10
1553.807684156201
 20
1229.470691337343
 30
0.0
 11
1553.807684156199
 21
2299.470691337343
 31
0.0
  0
LINE
  5
43F
330
1F
100
AcDbEntity
  8
LAY-10
  6
CONTINUOUS
 62
     7
100
AcDbLine
 10
1019.807684156199
 20
2299.470691337341
 30
0.0
 11
1019.807684156199
 21
1229.470691337342
 31
0.0
  0
CIRCLE
  5
440
330
1F
100
AcDbEntity
  8
LAY-10
  6
CONTINUOUS
 62
     7
100
AcDbCircle
 10
1286.8076841562
 20
2274.47069133734
 30
0.0
 40
13.00000000000001
  0
LINE
  5
441
330
1F
100
AcDbEntity
  8
LAY-10
  6
CONTINUOUS
 62
     7
100
AcDbLine
 10
1282.8076841562
 20
2274.470691337346
 30
0.0
 11
1286.8076841562
 21
2267.970691337346
 31
0.0
  0
LINE
  5
442
330
1F
100
AcDbEntity
  8
LAY-10
  6
CONTINUOUS
 62
     7
100
AcDbLine
 10
1286.8076841562
 20
2280.970691337346
 30
0.0
 11
1282.8076841562
 21
2274.470691337346
 31
0.0
  0
LINE
  5
443
330
1F
100
AcDbEntity
  8
LAY-10
  6
CONTINUOUS
 62
     7
100
AcDbLine
 10
1290.8076841562
 20
2274.470691337346
 30
0.0
 11
1286.8076841562
 21
2280.970691337346
 31
0.0
  0
LINE
  5
444
330
1F
100
AcDbEntity
  8
LAY-10
  6
CONTINUOUS
 62
     7
100
AcDbLine
 10
1286.8076841562
 20
2267.970691337346
 30
0.0
 11
1290.8076841562
 21
2274.470691337346
 31
0.0
  0
ARC
  5
445
330
1F
100
AcDbEntity
  8
LAY-10
  6
CONTINUOUS
 62
     7
100
AcDbCircle
 10
1286.8076841562
 20
2274.470691337346
 30
0.0
 40
12.75000000000001
100
AcDbArc
 50
18.2838899404031
 51
341.7161100595971
  0
LINE
  5
446
330
1F
100
AcDbEntity
  8
LAY-10
  6
CONTINUOUS
 62
     7
100
AcDbLine
 10
1297.3076841562
 20
2278.470691337345
 30
0.0
 11
1297.3076841562
 21
2270.470691337347
 31
0.0
  0
LINE
  5
447
330
1F
100
AcDbEntity
  8
LAY-10
  6
CONTINUOUS
 62
     7
100
AcDbLine
 10
1297.3076841562
 20
2278.470691337345
 30
0.0
 11
1298.913984169004
 21
2278.470691337345
 31
0.0
  0
LINE
  5
448
330
1F
100
AcDbEntity
  8
LAY-10
  6
CONTINUOUS
 62
     7
100
AcDbLine
 10
1297.3076841562
 20
2270.470691337347
 30
0.0
 11
1298.913984169004
 21
2270.470691337347
 31
0.0
  0
CIRCLE
  5
449
330
1F
100
AcDbEntity
  8
LAY-10
  6
CONTINUOUS
 62
     7
100
AcDbCircle
 10
1286.807684156201
 20
1254.470691337545
 30
0.0
 40
13.00000000000001
  0
LINE
  5
44A
330
1F
100
AcDbEntity
  8
LAY-10
  6
CONTINUOUS
 62
     7
100
AcDbLine
 10
1282.807684156201
 20
1254.47069133754
 30
0.0
 11
1286.807684156201
 21
1260.97069133754
 31
0.0
  0
LINE
  5
44B
330
1F
100
AcDbEntity
  8
LAY-10
  6
CONTINUOUS
 62
     7
100
AcDbLine
 10
1286.807684156201
 20
1247.97069133754
 30
0.0
 11
1282.807684156201
 21
1254.47069133754
 31
0.0
  0
LINE
  5
44C
330
1F
100
AcDbEntity
  8
LAY-10
  6
CONTINUOUS
 62
     7
100
AcDbLine
 10
1290.807684156201
 20
1254.47069133754
 30
0.0
 11
1286.807684156201
 21
1247.97069133754
 31
0.0
  0
LINE
  5
44D
330
1F
100
AcDbEntity
  8
LAY-10
  6
CONTINUOUS
 62
     7
100
AcDbLine
 10
1286.807684156201
 20
1260.97069133754
 30
0.0
 11
1290.807684156201
 21
1254.47069133754
 31
0.0
  0
ARC
  5
44E
330
1F
100
AcDbEntity
  8
LAY-10
  6
CONTINUOUS
 62
     7
100
AcDbCircle
 10
1286.807684156201
 20
1254.47069133754
 30
0.0
 40
12.75000000000001
100
AcDbArc
 50
18.2838899404031
 51
341.716110059597
  0
LINE
  5
44F
330
1F
100
AcDbEntity
  8
LAY-10
  6
CONTINUOUS
 62
     7
100
AcDbLine
 10
1297.307684156201
 20
1250.470691337541
 30
0.0
 11
1297.307684156201
 21
1258.470691337539
 31
0.0
  0
LINE
  5
450
330
1F
100
AcDbEntity
  8
LAY-10
  6
CONTINUOUS
 62
     7
100
AcDbLine
 10
1297.307684156201
 20
1250.470691337541
 30
0.0
 11
1298.913984169004
 21
1250.470691337541
 31
0.0
  0
LINE
  5
451
330
1F
100
AcDbEntity
  8
LAY-10
  6
CONTINUOUS
 62
     7
100
AcDbLine
 10
1297.307684156201
 20
1258.470691337539
 30
0.0
 11
1298.913984169004
 21
1258.470691337539
 31
0.0
  0
LINE
  5
452
330
1F
100
AcDbEntity
  8
LAY-10
  6
CONTINUOUS
 62
     7
100
AcDbLine
 10
1186.880372132376
 20
2275.641690069292
 30
0.0
 11
1169.69603180462
 21
2292.826030397339
 31
0.0
  0
LINE
  5
453
330
1F
100
AcDbEntity
  8
LAY-10
  6
CONTINUOUS
 62
     7
100
AcDbLine
 10
1045.952345096719
 20
2292.826030394536
 30
0.0
 11
1052.597006039182
 21
2299.470691337337
 31
0.0
  0
LINE
  5
454
330
1F
100
AcDbEntity
  8
LAY-10
  6
CONTINUOUS
 62
     7
100
AcDbLine
 10
1028.27467556852
 20
2275.148360865736
 30
0.0
 11
1019.807684156195
 21
2266.681369453266
 31
0.0
  0
LINE
  5
455
330
1F
100
AcDbEntity
  8
LAY-10
  6
CONTINUOUS
 62
     7
100
AcDbLine
 10
1123.307684156924
 20
2299.470691337339
 30
0.0
 11
1116.663023214716
 21
2292.826030395543
 31
0.0
  0
LINE
  5
456
330
1F
100
AcDbEntity
  8
LAY-10
  6
CONTINUOUS
 62
     7
100
AcDbLine
 10
1028.27467556722
 20
2239.793021809338
 30
0.0
 11
1019.80768415622
 21
2231.326030398194
 31
0.0
  0
LINE
  5
457
330
1F
100
AcDbEntity
  8
LAY-10
  6
CONTINUOUS
 62
     7
100
AcDbLine
 10
1063.63001462652
 20
2239.793021808338
 30
0.0
 11
1045.952345096819
 21
2222.11535227834
 31
0.0
  0
LINE
  5
458
330
1F
100
AcDbEntity
  8
LAY-10
  6
CONTINUOUS
 62
     7
100
AcDbLine
 10
1045.952345096819
 20
2204.437682749339
 30
0.0
 11
1028.27467556712
 21
2222.11535227834
 31
0.0
  0
LINE
  5
459
330
1F
100
AcDbEntity
  8
LAY-10
  6
CONTINUOUS
 62
     7
100
AcDbLine
 10
1081.30768415612
 20
2204.437682749338
 30
0.0
 11
1063.63001462652
 21
2222.11535227834
 31
0.0
  0
LINE
  5
45A
330
1F
100
AcDbEntity
  8
LAY-10
  6
CONTINUOUS
 62
     7
100
AcDbLine
 10
1169.696031804519
 20
2257.470691337339
 30
0.0
 11
1187.37370133422
 21
2239.793021808338
 31
0.0
  0
LINE
  5
45B
330
1F
100
AcDbEntity
  8
LAY-10
  6
CONTINUOUS
 62
     7
100
AcDbLine
 10
1152.01836227492
 20
2222.115352278339
 30
0.0
 11
1169.696031804519
 21
2239.793021808338
 31
0.0
  0
LINE
  5
45C
330
1F
100
AcDbEntity
  8
LAY-10
  6
CONTINUOUS
 62
     7
100
AcDbLine
 10
1152.01836227492
 20
2257.470691337339
 30
0.0
 11
1169.696031804519
 21
2275.148360867339
 31
0.0
  0
LINE
  5
45D
330
1F
100
AcDbEntity
  8
LAY-10
  6
CONTINUOUS
 62
     7
100
AcDbLine
 10
1134.34069274522
 20
2222.115352278339
 30
0.0
 11
1152.01836227492
 21
2204.437682749339
 31
0.0
  0
LINE
  5
45E
330
1F
100
AcDbEntity
  8
LAY-10
  6
CONTINUOUS
 62
     7
100
AcDbLine
 10
1098.98535368592
 20
2239.793021808338
 30
0.0
 11
1081.30768415622
 21
2222.115352278339
 31
0.0
  0
LINE
  5
45F
330
1F
100
AcDbEntity
  8
LAY-10
  6
CONTINUOUS
 62
     7
100
AcDbLine
 10
1098.98535368592
 20
2222.115352278339
 30
0.0
 11
1116.663023215519
 21
2204.437682749339
 31
0.0
  0
LINE
  5
460
330
1F
100
AcDbEntity
  8
LAY-10
  6
CONTINUOUS
 62
     7
100
AcDbLine
 10
1134.34069274522
 20
2257.470691337339
 30
0.0
 11
1152.01836227492
 21
2239.793021808338
 31
0.0
  0
LINE
  5
461
330
1F
100
AcDbEntity
  8
LAY-10
  6
CONTINUOUS
 62
     7
100
AcDbLine
 10
1152.01836227492
 20
2275.148360867339
 30
0.0
 11
1134.34069274522
 21
2292.826030397338
 31
0.0
  0
LINE
  5
462
330
1F
100
AcDbEntity
  8
LAY-10
  6
CONTINUOUS
 62
     7
100
AcDbLine
 10
1028.27467556702
 20
2133.727004631338
 30
0.0
 11
1019.80768415622
 21
2125.260013220394
 31
0.0
  0
LINE
  5
463
330
1F
100
AcDbEntity
  8
LAY-10
  6
CONTINUOUS
 62
     7
100
AcDbLine
 10
1063.63001462642
 20
2169.082343690338
 30
0.0
 11
1045.95234509672
 21
2151.404674160339
 31
0.0
  0
LINE
  5
464
330
1F
100
AcDbEntity
  8
LAY-10
  6
CONTINUOUS
 62
     7
100
AcDbLine
 10
1028.27467556712
 20
2151.404674160339
 30
0.0
 11
1045.95234509672
 21
2133.727004631339
 31
0.0
  0
LINE
  5
465
330
1F
100
AcDbEntity
  8
LAY-10
  6
CONTINUOUS
 62
     7
100
AcDbLine
 10
1028.27467556712
 20
2169.082343690338
 30
0.0
 11
1019.80768415622
 21
2160.615352279295
 31
0.0
  0
LINE
  5
466
330
1F
100
AcDbEntity
  8
LAY-10
  6
CONTINUOUS
 62
     7
100
AcDbLine
 10
1028.27467556712
 20
2204.437682749339
 30
0.0
 11
1019.80768415622
 21
2195.970691338295
 31
0.0
  0
LINE
  5
467
330
1F
100
AcDbEntity
  8
LAY-10
  6
CONTINUOUS
 62
     7
100
AcDbLine
 10
1045.95234509672
 20
2169.082343690338
 30
0.0
 11
1028.27467556712
 21
2186.760013219339
 31
0.0
  0
LINE
  5
468
330
1F
100
AcDbEntity
  8
LAY-10
  6
CONTINUOUS
 62
     7
100
AcDbLine
 10
1063.63001462642
 20
2151.404674160339
 30
0.0
 11
1081.30768415612
 21
2133.727004631339
 31
0.0
  0
LINE
  5
469
330
1F
100
AcDbEntity
  8
LAY-10
  6
CONTINUOUS
 62
     7
100
AcDbLine
 10
1081.30768415612
 20
2151.404674160339
 30
0.0
 11
1098.98535368582
 21
2169.082343690339
 31
0.0
  0
LINE
  5
46A
330
1F
100
AcDbEntity
  8
LAY-10
  6
CONTINUOUS
 62
     7
100
AcDbLine
 10
1098.98535368582
 20
2186.760013219338
 30
0.0
 11
1116.663023215519
 21
2169.082343690339
 31
0.0
  0
LINE
  5
46B
330
1F
100
AcDbEntity
  8
LAY-10
  6
CONTINUOUS
 62
     7
100
AcDbLine
 10
1063.63001462652
 20
2204.437682749339
 30
0.0
 11
1045.952345096819
 21
2186.760013219339
 31
0.0
  0
LINE
  5
46C
330
1F
100
AcDbEntity
  8
LAY-10
  6
CONTINUOUS
 62
     7
100
AcDbLine
 10
1098.98535368582
 20
2204.437682749338
 30
0.0
 11
1081.30768415612
 21
2186.760013219338
 31
0.0
  0
LINE
  5
46D
330
1F
100
AcDbEntity
  8
LAY-10
  6
CONTINUOUS
 62
     7
100
AcDbLine
 10
1063.63001462652
 20
2186.760013219339
 30
0.0
 11
1081.30768415612
 21
2169.082343690339
 31
0.0
  0
LINE
  5
46E
330
1F
100
AcDbEntity
  8
LAY-10
  6
CONTINUOUS
 62
     7
100
AcDbLine
 10
1045.95234509672
 20
2116.049335101338
 30
0.0
 11
1063.63001462642
 21
2133.727004631339
 31
0.0
  0
LINE
  5
46F
330
1F
100
AcDbEntity
  8
LAY-10
  6
CONTINUOUS
 62
     7
100
AcDbLine
 10
1028.27467556702
 20
2116.049335101338
 30
0.0
 11
1045.95234509672
 21
2098.371665572338
 31
0.0
  0
LINE
  5
470
330
1F
100
AcDbEntity
  8
LAY-10
  6
CONTINUOUS
 62
     7
100
AcDbLine
 10
1019.80768415622
 20
2089.904674161394
 30
0.0
 11
1028.27467556702
 21
2098.371665572338
 31
0.0
  0
LINE
  5
471
330
1F
100
AcDbEntity
  8
LAY-10
  6
CONTINUOUS
 62
     7
100
AcDbLine
 10
1158.663023215707
 20
2299.470691337339
 30
0.0
 11
1152.01836227482
 21
2292.826030396339
 31
0.0
  0
LINE
  5
472
330
1F
100
AcDbEntity
  8
LAY-10
  6
CONTINUOUS
 62
     7
100
AcDbLine
 10
1194.018362275383
 20
2299.470691337339
 30
0.0
 11
1187.37370133512
 21
2292.826030397338
 31
0.0
  0
LINE
  5
473
330
1F
100
AcDbEntity
  8
LAY-10
  6
CONTINUOUS
 62
     7
100
AcDbLine
 10
1229.373701335053
 20
2299.470691337339
 30
0.0
 11
1222.72904039479
 21
2292.826030397338
 31
0.0
  0
LINE
  5
474
330
1F
100
AcDbEntity
  8
LAY-10
  6
CONTINUOUS
 62
     7
100
AcDbLine
 10
1134.34069274522
 20
2239.793021808338
 30
0.0
 11
1116.663023215519
 21
2222.115352278339
 31
0.0
  0
LINE
  5
475
330
1F
100
AcDbEntity
  8
LAY-10
  6
CONTINUOUS
 62
     7
100
AcDbLine
 10
1116.663023215519
 20
2186.760013219338
 30
0.0
 11
1134.34069274522
 21
2204.437682749339
 31
0.0
  0
LINE
  5
476
330
1F
100
AcDbEntity
  8
LAY-10
  6
CONTINUOUS
 62
     7
100
AcDbLine
 10
1063.630014626919
 20
2275.148360866738
 30
0.0
 11
1045.95234509722
 21
2257.470691336738
 31
0.0
  0
LINE
  5
477
330
1F
100
AcDbEntity
  8
LAY-10
  6
CONTINUOUS
 62
     7
100
AcDbLine
 10
1045.95234509692
 20
2275.148360866437
 30
0.0
 11
1028.274675567619
 21
2292.826030395736
 31
0.0
  0
LINE
  5
478
330
1F
100
AcDbEntity
  8
LAY-10
  6
CONTINUOUS
 62
     7
100
AcDbLine
 10
1028.274675568219
 20
2257.470691336338
 30
0.0
 11
1045.95234509752
 21
2239.793021807039
 31
0.0
  0
LINE
  5
479
330
1F
100
AcDbEntity
  8
LAY-10
  6
CONTINUOUS
 62
     7
100
AcDbLine
 10
1134.34069274522
 20
2275.148360867339
 30
0.0
 11
1120.80768415622
 21
2261.61535227811
 31
0.0
  0
LINE
  5
47A
330
1F
100
AcDbEntity
  8
LAY-10
  6
CONTINUOUS
 62
     7
100
AcDbLine
 10
1063.630014627018
 20
2292.826030395138
 30
0.0
 11
1081.307684156318
 21
2275.148360865839
 31
0.0
  0
LINE
  5
47B
330
1F
100
AcDbEntity
  8
LAY-10
  6
CONTINUOUS
 62
     7
100
AcDbLine
 10
1081.307684155019
 20
2257.470691336839
 30
0.0
 11
1098.985353685017
 21
2275.148360866541
 31
0.0
  0
LINE
  5
47C
330
1F
100
AcDbEntity
  8
LAY-10
  6
CONTINUOUS
 62
     7
100
AcDbLine
 10
1116.663023214018
 20
2275.148360866542
 30
0.0
 11
1098.985353685016
 21
2292.826030396241
 31
0.0
  0
LINE
  5
47D
330
1F
100
AcDbEntity
  8
LAY-10
  6
CONTINUOUS
 62
     7
100
AcDbLine
 10
1116.663023214021
 20
2239.793021807242
 30
0.0
 11
1098.985353685019
 21
2257.470691336841
 31
0.0
  0
LINE
  5
47E
330
1F
100
AcDbEntity
  8
LAY-10
  6
CONTINUOUS
 62
     7
100
AcDbLine
 10
1081.307684154018
 20
2292.82603039614
 30
0.0
 11
1087.95234509533
 21
2299.470691337339
 31
0.0
  0
LINE
  5
47F
330
1F
100
AcDbEntity
  8
LAY-10
  6
CONTINUOUS
 62
     7
100
AcDbLine
 10
1081.30768415592
 20
2239.793021808039
 30
0.0
 11
1063.63001462662
 21
2257.470691337339
 31
0.0
  0
LINE
  5
480
330
1F
100
AcDbEntity
  8
LAY-10
  6
CONTINUOUS
 62
     7
100
AcDbLine
 10
1205.05137086282
 20
2275.148360868338
 30
0.0
 11
1187.37370133352
 21
2257.470691338039
 31
0.0
  0
LINE
  5
481
330
1F
100
AcDbEntity
  8
LAY-10
  6
CONTINUOUS
 62
     7
100
AcDbLine
 10
1205.051370862122
 20
2292.826030398038
 30
0.0
 11
1222.72904039182
 21
2275.148360869038
 31
0.0
  0
LINE
  5
482
330
1F
100
AcDbEntity
  8
LAY-10
  6
CONTINUOUS
 62
     7
100
AcDbLine
 10
1386.734996180005
 20
1253.299692605308
 30
0.0
 11
1403.91933650776
 21
1236.115352277261
 31
0.0
  0
LINE
  5
483
330
1F
100
AcDbEntity
  8
LAY-10
  6
CONTINUOUS
 62
     7
100
AcDbLine
 10
1527.663023215661
 20
1236.115352280064
 30
0.0
 11
1521.018362273198
 21
1229.470691337263
 31
0.0
  0
LINE
  5
484
330
1F
100
AcDbEntity
  8
LAY-10
  6
CONTINUOUS
 62
     7
100
AcDbLine
 10
1545.340692743861
 20
1253.793021808864
 30
0.0
 11
1553.807684156186
 21
1262.260013221335
 31
0.0
  0
LINE
  5
485
330
1F
100
AcDbEntity
  8
LAY-10
  6
CONTINUOUS
 62
     7
100
AcDbLine
 10
1450.307684155457
 20
1229.470691337261
 30
0.0
 11
1456.952345097664
 21
1236.115352279057
 31
0.0
  0
LINE
  5
486
330
1F
100
AcDbEntity
  8
LAY-10
  6
CONTINUOUS
 62
     7
100
AcDbLine
 10
1545.340692745161
 20
1289.148360865262
 30
0.0
 11
1553.807684156161
 21
1297.615352276406
 31
0.0
  0
LINE
  5
487
330
1F
100
AcDbEntity
  8
LAY-10
  6
CONTINUOUS
 62
     7
100
AcDbLine
 10
1509.98535368586
 20
1289.148360866262
 30
0.0
 11
1527.663023215561
 21
1306.82603039626
 31
0.0
  0
LINE
  5
488
330
1F
100
AcDbEntity
  8
LAY-10
  6
CONTINUOUS
 62
     7
100
AcDbLine
 10
1527.663023215561
 20
1324.503699925262
 30
0.0
 11
1545.340692745261
 21
1306.82603039626
 31
0.0
  0
LINE
  5
489
330
1F
100
AcDbEntity
  8
LAY-10
  6
CONTINUOUS
 62
     7
100
AcDbLine
 10
1492.307684156261
 20
1324.503699925262
 30
0.0
 11
1509.98535368586
 21
1306.82603039626
 31
0.0
  0
LINE
  5
48A
330
1F
100
AcDbEntity
  8
LAY-10
  6
CONTINUOUS
 62
     7
100
AcDbLine
 10
1403.919336507861
 20
1271.470691337261
 30
0.0
 11
1386.241666978161
 21
1289.148360866262
 31
0.0
  0
LINE
  5
48B
330
1F
100
AcDbEntity
  8
LAY-10
  6
CONTINUOUS
 62
     7
100
AcDbLine
 10
1421.597006037461
 20
1306.826030396262
 30
0.0
 11
1403.919336507861
 21
1289.148360866262
 31
0.0
  0
LINE
  5
48C
330
1F
100
AcDbEntity
  8
LAY-10
  6
CONTINUOUS
 62
     7
100
AcDbLine
 10
1421.597006037461
 20
1271.470691337261
 30
0.0
 11
1403.919336507861
 21
1253.793021807262
 31
0.0
  0
LINE
  5
48D
330
1F
100
AcDbEntity
  8
LAY-10
  6
CONTINUOUS
 62
     7
100
AcDbLine
 10
1439.274675567161
 20
1306.826030396262
 30
0.0
 11
1421.597006037461
 21
1324.503699925262
 31
0.0
  0
LINE
  5
48E
330
1F
100
AcDbEntity
  8
LAY-10
  6
CONTINUOUS
 62
     7
100
AcDbLine
 10
1474.630014626461
 20
1289.148360866262
 30
0.0
 11
1492.307684156161
 21
1306.826030396262
 31
0.0
  0
LINE
  5
48F
330
1F
100
AcDbEntity
  8
LAY-10
  6
CONTINUOUS
 62
     7
100
AcDbLine
 10
1474.630014626461
 20
1306.826030396262
 30
0.0
 11
1456.952345096861
 21
1324.503699925262
 31
0.0
  0
LINE
  5
490
330
1F
100
AcDbEntity
  8
LAY-10
  6
CONTINUOUS
 62
     7
100
AcDbLine
 10
1439.274675567161
 20
1271.470691337261
 30
0.0
 11
1421.597006037461
 21
1289.148360866262
 31
0.0
  0
LINE
  5
491
330
1F
100
AcDbEntity
  8
LAY-10
  6
CONTINUOUS
 62
     7
100
AcDbLine
 10
1421.597006037461
 20
1253.793021807262
 30
0.0
 11
1439.274675567161
 21
1236.115352277262
 31
0.0
  0
LINE
  5
492
330
1F
100
AcDbEntity
  8
LAY-10
  6
CONTINUOUS
 62
     7
100
AcDbLine
 10
1545.340692745361
 20
1395.214378043262
 30
0.0
 11
1553.807684156161
 21
1403.681369454206
 31
0.0
  0
LINE
  5
493
330
1F
100
AcDbEntity
  8
LAY-10
  6
CONTINUOUS
 62
     7
100
AcDbLine
 10
1509.98535368596
 20
1359.859038984262
 30
0.0
 11
1527.66302321566
 21
1377.536708514262
 31
0.0
  0
LINE
  5
494
330
1F
100
AcDbEntity
  8
LAY-10
  6
CONTINUOUS
 62
     7
100
AcDbLine
 10
1545.340692745261
 20
1377.536708514262
 30
0.0
 11
1527.66302321566
 21
1395.214378043261
 31
0.0
  0
LINE
  5
495
330
1F
100
AcDbEntity
  8
LAY-10
  6
CONTINUOUS
 62
     7
100
AcDbLine
 10
1545.340692745261
 20
1359.859038984262
 30
0.0
 11
1553.807684156161
 21
1368.326030395306
 31
0.0
  0
LINE
  5
496
330
1F
100
AcDbEntity
  8
LAY-10
  6
CONTINUOUS
 62
     7
100
AcDbLine
 10
1545.340692745261
 20
1324.503699925262
 30
0.0
 11
1553.807684156161
 21
1332.970691336305
 31
0.0
  0
LINE
  5
497
330
1F
100
AcDbEntity
  8
LAY-10
  6
CONTINUOUS
 62
     7
100
AcDbLine
 10
1527.66302321566
 20
1359.859038984262
 30
0.0
 11
1545.340692745261
 21
1342.181369455261
 31
0.0
  0
LINE
  5
498
330
1F
100
AcDbEntity
  8
LAY-10
  6
CONTINUOUS
 62
     7
100
AcDbLine
 10
1509.98535368596
 20
1377.536708514262
 30
0.0
 11
1492.307684156261
 21
1395.214378043261
 31
0.0
  0
LINE
  5
499
330
1F
100
AcDbEntity
  8
LAY-10
  6
CONTINUOUS
 62
     7
100
AcDbLine
 10
1492.307684156261
 20
1377.536708514262
 30
0.0
 11
1474.630014626561
 21
1359.859038984261
 31
0.0
  0
LINE
  5
49A
330
1F
100
AcDbEntity
  8
LAY-10
  6
CONTINUOUS
 62
     7
100
AcDbLine
 10
1474.630014626561
 20
1342.181369455262
 30
0.0
 11
1456.952345096861
 21
1359.859038984261
 31
0.0
  0
LINE
  5
49B
330
1F
100
AcDbEntity
  8
LAY-10
  6
CONTINUOUS
 62
     7
100
AcDbLine
 10
1509.98535368586
 20
1324.503699925262
 30
0.0
 11
1527.663023215561
 21
1342.181369455261
 31
0.0
  0
LINE
  5
49C
330
1F
100
AcDbEntity
  8
LAY-10
  6
CONTINUOUS
 62
     7
100
AcDbLine
 10
1474.630014626561
 20
1324.503699925262
 30
0.0
 11
1492.307684156261
 21
1342.181369455262
 31
0.0
  0
LINE
  5
49D
330
1F
100
AcDbEntity
  8
LAY-10
  6
CONTINUOUS
 62
     7
100
AcDbLine
 10
1509.98535368586
 20
1342.181369455261
 30
0.0
 11
1492.307684156261
 21
1359.859038984261
 31
0.0
  0
LINE
  5
49E
330
1F
100
AcDbEntity
  8
LAY-10
  6
CONTINUOUS
 62
     7
100
AcDbLine
 10
1527.66302321566
 20
1412.892047573262
 30
0.0
 11
1509.98535368596
 21
1395.214378043261
 31
0.0
  0
LINE
  5
49F
330
1F
100
AcDbEntity
  8
LAY-10
  6
CONTINUOUS
 62
     7
100
AcDbLine
 10
1545.340692745361
 20
1412.892047573262
 30
0.0
 11
1527.66302321566
 21
1430.569717102262
 31
0.0
  0
LINE
  5
4A0
330
1F
100
AcDbEntity
  8
LAY-10
  6
CONTINUOUS
 62
     7
100
AcDbLine
 10
1553.807684156161
 20
1439.036708513206
 30
0.0
 11
1545.340692745361
 21
1430.569717102262
 31
0.0
  0
LINE
  5
4A1
330
1F
100
AcDbEntity
  8
LAY-10
  6
CONTINUOUS
 62
     7
100
AcDbLine
 10
1414.952345096674
 20
1229.470691337261
 30
0.0
 11
1421.597006037561
 21
1236.115352278262
 31
0.0
  0
LINE
  5
4A2
330
1F
100
AcDbEntity
  8
LAY-10
  6
CONTINUOUS
 62
     7
100
AcDbLine
 10
1379.597006036997
 20
1229.470691337261
 30
0.0
 11
1386.24166697726
 21
1236.115352277262
 31
0.0
  0
LINE
  5
4A3
330
1F
100
AcDbEntity
  8
LAY-10
  6
CONTINUOUS
 62
     7
100
AcDbLine
 10
1344.241666977327
 20
1229.470691337261
 30
0.0
 11
1350.886327917591
 21
1236.115352277262
 31
0.0
  0
LINE
  5
4A4
330
1F
100
AcDbEntity
  8
LAY-10
  6
CONTINUOUS
 62
     7
100
AcDbLine
 10
1439.274675567161
 20
1289.148360866262
 30
0.0
 11
1456.952345096861
 21
1306.826030396262
 31
0.0
  0
LINE
  5
4A5
330
1F
100
AcDbEntity
  8
LAY-10
  6
CONTINUOUS
 62
     7
100
AcDbLine
 10
1456.952345096861
 20
1342.181369455262
 30
0.0
 11
1439.274675567161
 21
1324.503699925262
 31
0.0
  0
LINE
  5
4A6
330
1F
100
AcDbEntity
  8
LAY-10
  6
CONTINUOUS
 62
     7
100
AcDbLine
 10
1509.985353685461
 20
1253.793021807863
 30
0.0
 11
1527.66302321516
 21
1271.470691337862
 31
0.0
  0
LINE
  5
4A7
330
1F
100
AcDbEntity
  8
LAY-10
  6
CONTINUOUS
 62
     7
100
AcDbLine
 10
1527.663023215461
 20
1253.793021808164
 30
0.0
 11
1545.340692744761
 21
1236.115352278865
 31
0.0
  0
LINE
  5
4A8
330
1F
100
AcDbEntity
  8
LAY-10
  6
CONTINUOUS
 62
     7
100
AcDbLine
 10
1545.340692744161
 20
1271.470691338262
 30
0.0
 11
1527.66302321486
 21
1289.148360867562
 31
0.0
  0
LINE
  5
4A9
330
1F
100
AcDbEntity
  8
LAY-10
  6
CONTINUOUS
 62
     7
100
AcDbLine
 10
1439.274675567161
 20
1253.793021807262
 30
0.0
 11
1452.80768415616
 21
1267.326030396491
 31
0.0
  0
LINE
  5
4AA
330
1F
100
AcDbEntity
  8
LAY-10
  6
CONTINUOUS
 62
     7
100
AcDbLine
 10
1509.985353685362
 20
1236.115352279462
 30
0.0
 11
1492.307684156062
 21
1253.793021808761
 31
0.0
  0
LINE
  5
4AB
330
1F
100
AcDbEntity
  8
LAY-10
  6
CONTINUOUS
 62
     7
100
AcDbLine
 10
1492.307684157361
 20
1271.470691337761
 30
0.0
 11
1474.630014627363
 21
1253.793021808059
 31
0.0
  0
LINE
  5
4AC
330
1F
100
AcDbEntity
  8
LAY-10
  6
CONTINUOUS
 62
     7
100
AcDbLine
 10
1456.952345098362
 20
1253.793021808058
 30
0.0
 11
1474.630014627364
 21
1236.11535227836
 31
0.0
  0
LINE
  5
4AD
330
1F
100
AcDbEntity
  8
LAY-10
  6
CONTINUOUS
 62
     7
100
AcDbLine
 10
1456.952345098359
 20
1289.148360867358
 30
0.0
 11
1474.630014627362
 21
1271.470691337759
 31
0.0
  0
LINE
  5
4AE
330
1F
100
AcDbEntity
  8
LAY-10
  6
CONTINUOUS
 62
     7
100
AcDbLine
 10
1492.307684158362
 20
1236.115352278461
 30
0.0
 11
1485.663023217051
 21
1229.470691337261
 31
0.0
  0
LINE
  5
4AF
330
1F
100
AcDbEntity
  8
LAY-10
  6
CONTINUOUS
 62
     7
100
AcDbLine
 10
1492.30768415646
 20
1289.148360866561
 30
0.0
 11
1509.98535368576
 21
1271.470691337261
 31
0.0
  0
LINE
  5
4B0
330
1F
100
AcDbEntity
  8
LAY-10
  6
CONTINUOUS
 62
     7
100
AcDbLine
 10
1368.56399744956
 20
1253.793021806262
 30
0.0
 11
1386.24166697886
 21
1271.470691336562
 31
0.0
  0
LINE
  5
4B1
330
1F
100
AcDbEntity
  8
LAY-10
  6
CONTINUOUS
 62
     7
100
AcDbLine
 10
1368.563997450259
 20
1236.115352276563
 30
0.0
 11
1350.88632792056
 21
1253.793021805563
 31
0.0
  0
LINE
  5
4B2
330
1F
100
AcDbEntity
  8
LAY-10
  6
CONTINUOUS
 62
     7
100
AcDbLine
 10
773.3076841562344
 20
1184.566577595381
 30
0.0
 11
764.3076841562341
 21
1184.566577595381
 31
0.0
  0
LINE
  5
4B3
330
1F
100
AcDbEntity
  8
LAY-10
  6
CONTINUOUS
 62
     7
100
AcDbLine
 10
764.3076841562341
 20
1213.465062405218
 30
0.0
 11
764.3076841562341
 21
1184.566577595381
 31
0.0
  0
LINE
  5
4B4
330
1F
100
AcDbEntity
  8
LAY-10
  6
CONTINUOUS
 62
     7
100
AcDbLine
 10
773.3076841562344
 20
1213.465062405218
 30
0.0
 11
773.3076841562344
 21
1184.566577595381
 31
0.0
  0
LINE
  5
4B5
330
1F
100
AcDbEntity
  8
LAY-10
  6
CONTINUOUS
 62
     7
100
AcDbLine
 10
1264.307684156195
 20
1184.566577595381
 30
0.0
 11
1273.307684156197
 21
1184.566577595381
 31
0.0
  0
LINE
  5
4B6
330
1F
100
AcDbEntity
  8
LAY-10
  6
CONTINUOUS
 62
     7
100
AcDbLine
 10
1273.307684156197
 20
1213.465062405218
 30
0.0
 11
1273.307684156197
 21
1184.566577595381
 31
0.0
  0
LINE
  5
4B7
330
1F
100
AcDbEntity
  8
LAY-10
  6
CONTINUOUS
 62
     7
100
AcDbLine
 10
1264.307684156196
 20
1213.465062405218
 30
0.0
 11
1264.307684156195
 21
1184.566577595381
 31
0.0
  0
LINE
  5
4B8
330
1F
100
AcDbEntity
  8
LAY-10
  6
CONTINUOUS
 62
     7
100
AcDbLine
 10
773.3076841562337
 20
2344.374805079505
 30
0.0
 11
764.3076841562333
 21
2344.374805079505
 31
0.0
  0
LINE
  5
4B9
330
1F
100
AcDbEntity
  8
LAY-10
  6
CONTINUOUS
 62
     7
100
AcDbLine
 10
764.3076841562333
 20
2315.476320269668
 30
0.0
 11
764.3076841562333
 21
2344.374805079505
 31
0.0
  0
LINE
  5
4BA
330
1F
100
AcDbEntity
  8
LAY-10
  6
CONTINUOUS
 62
     7
100
AcDbLine
 10
773.3076841562337
 20
2315.476320269668
 30
0.0
 11
773.3076841562337
 21
2344.374805079505
 31
0.0
  0
LINE
  5
4BB
330
1F
100
AcDbEntity
  8
LAY-10
  6
CONTINUOUS
 62
     7
100
AcDbLine
 10
1264.307684156194
 20
2344.374805079506
 30
0.0
 11
1273.307684156196
 21
2344.374805079506
 31
0.0
  0
LINE
  5
4BC
330
1F
100
AcDbEntity
  8
LAY-10
  6
CONTINUOUS
 62
     7
100
AcDbLine
 10
1273.307684156196
 20
2315.476320269669
 30
0.0
 11
1273.307684156196
 21
2344.374805079506
 31
0.0
  0
LINE
  5
4BD
330
1F
100
AcDbEntity
  8
LAY-10
  6
CONTINUOUS
 62
     7
100
AcDbLine
 10
1264.307684156195
 20
2315.476320269669
 30
0.0
 11
1264.307684156194
 21
2344.374805079506
 31
0.0
  0
LINE
  5
4BE
330
1F
100
AcDbEntity
  8
LAY-10
  6
CENTER
 62
     2
100
AcDbLine
 10
1910.94250381031
 20
1764.470691337367
 30
0.0
 11
2056.7755610271
 21
1764.470691337367
 31
0.0
  0
LINE
  5
4BF
330
1F
100
AcDbEntity
  8
LAY-10
  6
CENTER
 62
     2
100
AcDbLine
 10
1018.807684156167
 20
872.3330572167904
 30
0.0
 11
1018.807684156167
 21
726.5
 31
0.0
  0
LINE
  5
4C0
330
1F
100
AcDbEntity
  8
LAY-10
  6
CENTER
 62
     2
100
AcDbLine
 10
467.8020552240379
 20
1514.470691337405
 30
0.0
 11
431.3020552240843
 21
1514.470691337406
 31
0.0
  0
LINE
  5
4C1
330
1F
100
AcDbEntity
  8
LAY-10
  6
CENTER
 62
     2
100
AcDbLine
 10
467.8020552240379
 20
2014.470691337365
 30
0.0
 11
426.0020552240386
 21
2014.470691337366
 31
0.0
  0
LINE
  5
4C2
330
1F
100
AcDbEntity
  8
LAY-10
  6
CENTER
 62
     2
100
AcDbLine
 10
1569.807684155911
 20
2014.470691337361
 30
0.0
 11
1611.607684155911
 21
2014.470691337362
 31
0.0
  0
LINE
  5
4C3
330
1F
100
AcDbEntity
  8
LAY-10
  6
CENTER
 62
     2
100
AcDbLine
 10
1569.807684155909
 20
1514.470691337401
 30
0.0
 11
1606.307684155863
 21
1514.470691337401
 31
0.0
  0
LINE
  5
4C4
330
1F
100
AcDbEntity
  8
LAY-10
  6
CENTER
 62
     2
100
AcDbLine
 10
426.5076841557667
 20
1764.470691337443
 30
0.0
 11
1611.60768415587
 21
1764.470691337443
 31
0.0
  0
LINE
  5
4C5
330
1F
100
AcDbEntity
  8
LAY-10
  6
CENTER
 62
     2
100
AcDbLine
 10
750.8076841561203
 20
2293.070691337391
 30
0.0
 11
750.8076841561203
 21
2254.170691337391
 31
0.0
  0
LINE
  5
4C6
330
1F
100
AcDbEntity
  8
LAY-10
  6
CENTER
 62
     2
100
AcDbLine
 10
732.2826841561207
 20
2274.470691337389
 30
0.0
 11
769.7826841561198
 21
2274.470691337389
 31
0.0
  0
LINE
  5
4C7
330
1F
100
AcDbEntity
  8
LAY-10
  6
CENTER
 62
     2
100
AcDbLine
 10
750.8076841561208
 20
1235.870691337495
 30
0.0
 11
750.8076841561208
 21
1274.770691337495
 31
0.0
  0
LINE
  5
4C8
330
1F
100
AcDbEntity
  8
LAY-10
  6
CENTER
 62
     2
100
AcDbLine
 10
732.2826841561211
 20
1254.470691337496
 30
0.0
 11
769.7826841561204
 21
1254.470691337496
 31
0.0
  0
LINE
  5
4C9
330
1F
100
AcDbEntity
  8
LAY-10
  6
CENTER
 62
     2
100
AcDbLine
 10
1286.8076841562
 20
2293.070691337391
 30
0.0
 11
1286.8076841562
 21
2254.170691337391
 31
0.0
  0
LINE
  5
4CA
330
1F
100
AcDbEntity
  8
LAY-10
  6
CENTER
 62
     2
100
AcDbLine
 10
1268.282684156201
 20
2274.470691337389
 30
0.0
 11
1305.7826841562
 21
2274.470691337389
 31
0.0
  0
LINE
  5
4CB
330
1F
100
AcDbEntity
  8
LAY-10
  6
CENTER
 62
     2
100
AcDbLine
 10
1286.807684156201
 20
1235.870691337495
 30
0.0
 11
1286.807684156201
 21
1274.770691337495
 31
0.0
  0
LINE
  5
4CC
330
1F
100
AcDbEntity
  8
LAY-10
  6
CENTER
 62
     2
100
AcDbLine
 10
1268.282684156201
 20
1254.470691337496
 30
0.0
 11
1305.7826841562
 21
1254.470691337496
 31
0.0
  0
LINE
  5
4CD
330
1F
100
AcDbEntity
  8
LAY-10
  6
CENTER
 62
     2
100
AcDbLine
 10
1018.807684156175
 20
2351.97069133729
 30
0.0
 11
1018.807684156174
 21
1171.670691337389
 31
0.0
  0
LINE
  5
4CE
330
1F
100
AcDbEntity
  8
LAY-10
  6
CENTER
 62
     2
100
AcDbLine
 10
1268.807684156196
 20
1213.465062405218
 30
0.0
 11
1268.807684156195
 21
1176.965062405264
 31
0.0
  0
LINE
  5
4CF
330
1F
100
AcDbEntity
  8
LAY-10
  6
CENTER
 62
     2
100
AcDbLine
 10
768.8076841562355
 20
1213.465062405218
 30
0.0
 11
768.8076841562339
 21
1171.665062405218
 31
0.0
  0
LINE
  5
4D0
330
1F
100
AcDbEntity
  8
LAY-10
  6
CENTER
 62
     2
100
AcDbLine
 10
1268.807684156195
 20
2315.476320269669
 30
0.0
 11
1268.807684156194
 21
2351.976320269622
 31
0.0
  0
LINE
  5
4D1
330
1F
100
AcDbEntity
  8
LAY-10
  6
CENTER
 62
     2
100
AcDbLine
 10
768.8076841562347
 20
2315.476320269668
 30
0.0
 11
768.8076841562332
 21
2357.276320269667
 31
0.0
  0
DIMENSION
  5
4D3
330
1F
100
AcDbEntity
  8
LAY-20
  6
CONTINUOUS
 62
     4
100
AcDbDimension
  2
*D15
 10
1569.8076841562
 20
1028.7520497556
 30
0.0
 11
1018.80768415616
 21
1053.7520497556
 31
0.0
 70
   160
  3
ISO-25
100
AcDbAlignedDimension
 13
467.8076841561203
 23
858.7520497555903
 33
0.0
 14
1569.8076841562
 24
858.7520497555903
 34
0.0
100
AcDbRotatedDimension
1001
ACAD
1000
DSTYLE
1002
{
1070
   270
1070
     2
1070
     6
1000
EX_BNORM
1070
     7
1000
EX_BNORM
1070
    41
1040
25.0
1070
    42
1040
15.0
1070
    44
1040
15.0
1070
    73
1070
     0
1070
    74
1070
     0
1070
    75
1070
     0
1070
    76
1070
     0
1070
    77
1070
     1
1070
    78
1070
     8
1070
   140
1040
31.181104
1070
   147
1040
0.0
1070
   173
1070
     1
1070
   176
1070
     4
1070
   177
1070
     4
1070
   178
1070
     7
1070
   271
1070
     1
1070
   277
1070
     2
1070
   279
1070
     2
1070
   280
1070
     0
1070
   287
1070
     5
1070
   340
1005
4D2
1002
}
  0
DIMENSION
  5
4E1
330
1F
100
AcDbEntity
  8
LAY-20
  6
CONTINUOUS
 62
     4
100
AcDbDimension
  2
*D16
 10
1017.807684156115
 20
958.7520497556
 30
0.0
 11
750.8076841561788
 21
983.7520497556
 31
0.0
 70
   160
  3
ISO-25
100
AcDbAlignedDimension
 13
483.8076841562424
 23
858.7520497555934
 33
0.0
 14
1017.807684156115
 24
858.7520497555956
 34
0.0
100
AcDbRotatedDimension
1001
ACAD
1000
DSTYLE
1002
{
1070
   270
1070
     2
1070
     6
1000
EX_BNORM
1070
     7
1000
EX_BNORM
1070
    41
1040
25.0
1070
    42
1040
15.0
1070
    44
1040
15.0
1070
    73
1070
     0
1070
    74
1070
     0
1070
    75
1070
     0
1070
    76
1070
     0
1070
    77
1070
     1
1070
    78
1070
     8
1070
   140
1040
31.181104
1070
   147
1040
0.0
1070
   173
1070
     1
1070
   176
1070
     4
1070
   177
1070
     4
1070
   178
1070
     7
1070
   271
1070
     1
1070
   277
1070
     2
1070
   279
1070
     2
1070
   280
1070
     0
1070
   287
1070
     5
1070
   340
1005
4D2
1002
}
  0
DIMENSION
  5
4EE
330
1F
100
AcDbEntity
  8
LAY-20
  6
CONTINUOUS
 62
     4
100
AcDbDimension
  2
*D17
 10
568.8076841561201
 20
633.75204975559
 30
0.0
 11
1018.80768415616
 21
658.7520497555898
 31
0.0
 70
   160
  3
ISO-25
100
AcDbAlignedDimension
 13
1468.8076841562
 23
733.7520497555901
 33
0.0
 14
568.8076841561201
 24
733.75204975559
 34
0.0
100
AcDbRotatedDimension
1001
ACAD
1000
DSTYLE
1002
{
1070
   270
1070
     2
1070
     6
1000
EX_BNORM
1070
     7
1000
EX_BNORM
1070
    41
1040
25.0
1070
    42
1040
15.0
1070
    44
1040
14.99999999999977
1070
    73
1070
     0
1070
    74
1070
     0
1070
    75
1070
     0
1070
    76
1070
     0
1070
    77
1070
     1
1070
    78
1070
     8
1070
   140
1040
31.181104
1070
   147
1040
0.0
1070
   173
1070
     1
1070
   176
1070
     4
1070
   177
1070
     4
1070
   178
1070
     7
1070
   271
1070
     1
1070
   277
1070
     2
1070
   279
1070
     2
1070
   280
1070
     0
1070
   287
1070
     5
1070
   340
1005
4D2
1002
}
  0
DIMENSION
  5
4FB
330
1F
100
AcDbEntity
  8
LAY-20
  6
CONTINUOUS
 62
     4
100
AcDbDimension
  2
*D18
 10
1698.706168966
 20
858.7520497555903
 30
0.0
 11
1673.706168966
 21
796.25204975559
 31
0.0
 70
   160
  3
ISO-25
100
AcDbAlignedDimension
 13
1515.0076841562
 23
733.7520497555901
 33
0.0
 14
1569.8076841562
 24
858.7520497555903
 34
0.0
 50
90.0
100
AcDbRotatedDimension
1001
ACAD
1000
DSTYLE
1002
{
1070
   270
1070
     2
1070
     6
1000
EX_BNORM
1070
     7
1000
EX_BNORM
1070
    41
1040
25.0
1070
    42
1040
15.0
1070
    44
1040
14.99999999999955
1070
    73
1070
     0
1070
    74
1070
     0
1070
    75
1070
     0
1070
    76
1070
     0
1070
    77
1070
     1
1070
    78
1070
     8
1070
   140
1040
31.181104
1070
   147
1040
0.0
1070
   173
1070
     1
1070
   176
1070
     4
1070
   177
1070
     4
1070
   178
1070
     7
1070
   271
1070
     1
1070
   277
1070
     2
1070
   279
1070
     2
1070
   280
1070
     0
1070
   287
1070
     5
1070
   340
1005
4D2
1002
}
  0
DIMENSION
  5
508
330
1F
100
AcDbEntity
  8
LAY-20
  6
CONTINUOUS
 62
     4
100
AcDbDimension
  2
*D19
 10
476.6076841561401
 20
563.75204975559
 30
0.0
 11
1018.80768415617
 21
588.75204975559
 31
0.0
 70
   160
  3
ISO-25
100
AcDbAlignedDimension
 13
1561.0076841562
 23
815.0520497555999
 33
0.0
 14
476.6076841561401
 24
815.0520497555999
 34
0.0
100
AcDbRotatedDimension
1001
ACAD
1000
DSTYLE
1002
{
1070
   270
1070
     2
1070
     6
1000
EX_BNORM
1070
     7
1000
EX_BNORM
1070
    41
1040
25.0
1070
    42
1040
15.0
1070
    44
1040
15.0
1070
    73
1070
     0
1070
    74
1070
     0
1070
    75
1070
     0
1070
    76
1070
     0
1070
    77
1070
     1
1070
    78
1070
     0
1070
   140
1040
31.181104
1070
   147
1040
0.0
1070
   173
1070
     1
1070
   176
1070
     4
1070
   177
1070
     4
1070
   178
1070
     7
1070
   271
1070
     0
1070
   277
1070
     2
1070
   279
1070
     2
1070
   280
1070
     0
1070
   287
1070
     5
1070
   340
1005
4D2
1002
}
  0
DIMENSION
  5
515
330
1F
100
AcDbEntity
  8
LAY-20
  6
CONTINUOUS
 62
     4
100
AcDbDimension
  2
*D20
 10
1754.5235112715
 20
2315.4706913374
 30
0.0
 11
1729.5235112715
 21
1764.47069133736
 31
0.0
 70
   160
  3
ISO-25
100
AcDbAlignedDimension
 13
1924.52351127151
 23
1213.47069133732
 33
0.0
 14
1924.52351127151
 24
2315.4706913374
 34
0.0
 50
90.0
100
AcDbRotatedDimension
1001
ACAD
1000
DSTYLE
1002
{
1070
   270
1070
     2
1070
     6
1000
EX_BNORM
1070
     7
1000
EX_BNORM
1070
    41
1040
25.0
1070
    42
1040
15.0
1070
    44
1040
15.0
1070
    73
1070
     0
1070
    74
1070
     0
1070
    75
1070
     0
1070
    76
1070
     0
1070
    77
1070
     1
1070
    78
1070
     8
1070
   140
1040
31.181104
1070
   147
1040
0.0
1070
   173
1070
     1
1070
   176
1070
     4
1070
   177
1070
     4
1070
   178
1070
     7
1070
   271
1070
     1
1070
   277
1070
     2
1070
   279
1070
     2
1070
   280
1070
     0
1070
   287
1070
     5
1070
   340
1005
4D2
1002
}
  0
DIMENSION
  5
522
330
1F
100
AcDbEntity
  8
LAY-20
  6
CONTINUOUS
 62
     4
100
AcDbDimension
  2
*D21
 10
1824.5235112715
 20
2299.470691337415
 30
0.0
 11
1799.5235112715
 21
1764.470691337428
 31
0.0
 70
   160
  3
ISO-25
100
AcDbAlignedDimension
 13
1924.523511271507
 23
1229.470691337442
 33
0.0
 14
1924.523511271505
 24
2299.470691337415
 34
0.0
 50
90.0
100
AcDbRotatedDimension
1001
ACAD
1000
DSTYLE
1002
{
1070
   270
1070
     2
1070
     6
1000
EX_BNORM
1070
     7
1000
EX_BNORM
1070
    41
1040
25.0
1070
    42
1040
15.0
1070
    44
1040
15.0
1070
    73
1070
     0
1070
    74
1070
     0
1070
    75
1070
     0
1070
    76
1070
     0
1070
    77
1070
     1
1070
    78
1070
     8
1070
   140
1040
31.181104
1070
   147
1040
0.0
1070
   173
1070
     1
1070
   176
1070
     4
1070
   177
1070
     4
1070
   178
1070
     7
1070
   271
1070
     1
1070
   277
1070
     2
1070
   279
1070
     2
1070
   280
1070
     0
1070
   287
1070
     5
1070
   340
1005
4D2
1002
}
  0
DIMENSION
  5
52F
330
1F
100
AcDbEntity
  8
LAY-20
  6
CONTINUOUS
 62
     4
100
AcDbDimension
  2
*D22
 10
2149.52351127151
 20
1314.47069133732
 30
0.0
 11
2124.52351127151
 21
1764.47069133736
 31
0.0
 70
   160
  3
ISO-25
100
AcDbAlignedDimension
 13
2049.52351127151
 23
2214.4706913374
 33
0.0
 14
2049.52351127151
 24
1314.47069133732
 34
0.0
 50
90.0
100
AcDbRotatedDimension
1001
ACAD
1000
DSTYLE
1002
{
1070
   270
1070
     2
1070
     6
1000
EX_BNORM
1070
     7
1000
EX_BNORM
1070
    41
1040
25.0
1070
    42
1040
15.0
1070
    44
1040
15.0
1070
    73
1070
     0
1070
    74
1070
     0
1070
    75
1070
     0
1070
    76
1070
     0
1070
    77
1070
     1
1070
    78
1070
     8
1070
   140
1040
31.181104
1070
   147
1040
0.0
1070
   173
1070
     1
1070
   176
1070
     4
1070
   177
1070
     4
1070
   178
1070
     7
1070
   271
1070
     1
1070
   277
1070
     2
1070
   279
1070
     2
1070
   280
1070
     0
1070
   287
1070
     5
1070
   340
1005
4D2
1002
}
  0
DIMENSION
  5
53C
330
1F
100
AcDbEntity
  8
LAY-20
  6
CONTINUOUS
 62
     4
100
AcDbDimension
  2
*D23
 10
2219.52351127151
 20
1222.27069133734
 30
0.0
 11
2194.52351127151
 21
1764.47069133737
 31
0.0
 70
   160
  3
ISO-25
100
AcDbAlignedDimension
 13
1968.2235112715
 23
2306.6706913374
 33
0.0
 14
1968.2235112715
 24
1222.27069133734
 34
0.0
 50
90.0
100
AcDbRotatedDimension
1001
ACAD
1000
DSTYLE
1002
{
1070
   270
1070
     2
1070
     6
1000
EX_BNORM
1070
     7
1000
EX_BNORM
1070
    41
1040
25.0
1070
    42
1040
15.0
1070
    44
1040
15.0
1070
    73
1070
     0
1070
    74
1070
     0
1070
    75
1070
     0
1070
    76
1070
     0
1070
    77
1070
     1
1070
    78
1070
     0
1070
   140
1040
31.181104
1070
   147
1040
0.0
1070
   173
1070
     1
1070
   176
1070
     4
1070
   177
1070
     4
1070
   178
1070
     7
1070
   271
1070
     0
1070
   277
1070
     2
1070
   279
1070
     2
1070
   280
1070
     0
1070
   287
1070
     5
1070
   340
1005
4D2
1002
}
  0
DIMENSION
  5
549
330
1F
100
AcDbEntity
  8
LAY-20
  6
CONTINUOUS
 62
     4
100
AcDbDimension
  2
*D24
 10
1189.0
 20
858.7520497555801
 30
0.0
 11
1164.0
 21
923.7520497555796
 31
0.0
 70
   160
  3
ISO-25
100
AcDbAlignedDimension
 13
1189.0
 23
854.25204975558
 33
0.0
 14
1189.0
 24
858.7520497555801
 34
0.0
 50
90.0
100
AcDbRotatedDimension
1001
ACAD
1000
DSTYLE
1002
{
1070
   270
1070
     2
1070
     6
1000
EX_BNORM
1070
     7
1000
EX_BNORM
1070
    41
1040
25.0
1070
    42
1040
0.0
1070
    44
1040
0.0
1070
    73
1070
     0
1070
    74
1070
     0
1070
    75
1070
     1
1070
    76
1070
     1
1070
    77
1070
     1
1070
    78
1070
     8
1070
   140
1040
31.181104
1070
   147
1040
0.0
1070
   173
1070
     1
1070
   176
1070
     4
1070
   177
1070
     4
1070
   178
1070
     7
1070
   271
1070
     1
1070
   277
1070
     2
1070
   279
1070
     2
1070
   280
1070
     2
1070
   287
1070
     5
1070
   340
1005
4D2
1002
}
  0
LINE
  5
556
330
1F
100
AcDbEntity
  8
LAY-255
  6
CONTINUOUS
 62
     7
100
AcDbLine
 10
3850.0
 20
219.9999999999999
 30
0.0
 11
2850.0
 21
219.9999999999999
 31
0.0
  0
LINE
  5
557
330
1F
100
AcDbEntity
  8
LAY-255
  6
CONTINUOUS
 62
     7
100
AcDbLine
 10
2888.0
 20
160.0
 30
0.0
 11
2968.0
 21
210.0
 31
0.0
  0
LINE
  5
558
330
1F
100
AcDbEntity
  8
LAY-255
  6
CONTINUOUS
 62
     7
100
AcDbLine
 10
2968.0
 20
210.0
 30
0.0
 11
3048.0
 21
160.0
 31
0.0
  0
LINE
  5
559
330
1F
100
AcDbEntity
  8
LAY-255
  6
CONTINUOUS
 62
     7
100
AcDbLine
 10
3048.0
 20
160.0
 30
0.0
 11
2968.0
 21
110.0
 31
0.0
  0
LINE
  5
55A
330
1F
100
AcDbEntity
  8
LAY-255
  6
CONTINUOUS
 62
     7
100
AcDbLine
 10
2968.0
 20
110.0
 30
0.0
 11
2888.0
 21
160.0
 31
0.0
  0
LINE
  5
55B
330
1F
100
AcDbEntity
  8
LAY-255
  6
CONTINUOUS
 62
     7
100
AcDbLine
 10
50.0
 20
100.0
 30
0.0
 11
3850.0
 21
100.0
 31
0.0
  0
LINE
  5
55C
330
1F
100
AcDbEntity
  8
LAY-255
  6
CONTINUOUS
 62
     7
100
AcDbLine
 10
50.0
 20
2800.0
 30
0.0
 11
3850.0
 21
2800.0
 31
0.0
  0
LINE
  5
55D
330
1F
100
AcDbEntity
  8
LAY-255
  6
CONTINUOUS
 62
     7
100
AcDbLine
 10
50.0
 20
100.0
 30
0.0
 11
50.0
 21
2800.0
 31
0.0
  0
LINE
  5
55E
330
1F
100
AcDbEntity
  8
LAY-255
  6
CONTINUOUS
 62
     7
100
AcDbLine
 10
3850.0
 20
100.0
 30
0.0
 11
3850.0
 21
2800.0
 31
0.0
  0
LINE
  5
55F
330
1F
100
AcDbEntity
  8
LAY-255
  6
CONTINUOUS
 62
     4
100
AcDbLine
 10
2850.0
 20
279.9999999999999
 30
0.0
 11
3850.0
 21
279.9999999999999
 31
0.0
  0
LINE
  5
560
330
1F
100
AcDbEntity
  8
LAY-255
  6
CONTINUOUS
 62
     7
100
AcDbLine
 10
2850.0
 20
100.0
 30
0.0
 11
2850.0
 21
670.0
 31
0.0
  0
POINT
  5
561
330
1F
100
AcDbEntity
  8
LAY-255
  6
CONTINUOUS
 62
     7
100
AcDbPoint
 10
2890.0
 20
399.9999999999999
 30
0.0
  0
LINE
  5
562
330
1F
100
AcDbEntity
  8
LAY-255
  6
CONTINUOUS
 62
     4
100
AcDbLine
 10
3350.0
 20
279.9999999999999
 30
0.0
 11
3350.0
 21
220.0
 31
0.0
  0
LINE
  5
563
330
1F
100
AcDbEntity
  8
LAY-255
  6
CONTINUOUS
 62
     7
100
AcDbLine
 10
3850.0
 20
670.0
 30
0.0
 11
2850.0
 21
670.0
 31
0.0
  0
LINE
  5
564
330
1F
100
AcDbEntity
  8
LAY-255
  6
CONTINUOUS
 62
     4
100
AcDbLine
 10
3830.0
 20
549.9999999999999
 30
0.0
 11
2870.0
 21
549.9999999999999
 31
0.0
  0
LINE
  5
565
330
1F
100
AcDbEntity
  8
LAY-255
  6
CONTINUOUS
 62
     4
100
AcDbLine
 10
3830.0
 20
610.0
 30
0.0
 11
2870.0
 21
610.0
 31
0.0
  0
POINT
  5
566
330
1F
100
AcDbEntity
  8
LAY-255
  6
CONTINUOUS
 62
     7
100
AcDbPoint
 10
2890.0
 20
499.9999999999999
 30
0.0
  0
POINT
  5
567
330
1F
100
AcDbEntity
  8
LAY-255
  6
CONTINUOUS
 62
     7
100
AcDbPoint
 10
3000.0
 20
559.9999999999999
 30
0.0
  0
POINT
  5
568
330
1F
100
AcDbEntity
  8
LAY-255
  6
CONTINUOUS
 62
     7
100
AcDbPoint
 10
3000.0
 20
620.0
 30
0.0
  0
POINT
  5
569
330
1F
100
AcDbEntity
  8
LAY-255
  6
CONTINUOUS
 62
     7
100
AcDbPoint
 10
2890.0
 20
349.9999999999999
 30
0.0
  0
POINT
  5
56A
330
1F
100
AcDbEntity
  8
LAY-255
  6
CONTINUOUS
 62
     7
100
AcDbPoint
 10
2890.0
 20
449.9999999999999
 30
0.0
  0
POINT
  5
56B
330
1F
100
AcDbEntity
  8
LAY-255
  6
CONTINUOUS
 62
     7
100
AcDbPoint
 10
2890.0
 20
299.9999999999998
 30
0.0
  0
TEXT
  5
56C
330
1F
100
AcDbEntity
  8
LAY-255
  6
CONTINUOUS
 62
     7
100
AcDbText
 10
3081.3837890625
 20
155.4375
 30
0.0
 40
51.5625
  1
福西鋳物株式会社
 41
1.342691999659091
  7
EXCADSTD
100
AcDbText
  0
TEXT
  5
56D
330
1F
100
AcDbEntity
  8
LAY-255
  6
CONTINUOUS
 62
     7
100
AcDbText
 10
3085.09375
 20
119.8125
 30
0.0
 40
17.1875
  1
ＦＵＫＵＮＩＳＨＩ
 41
1.204799226045263
  7
EXCADSTD
100
AcDbText
  0
TEXT
  5
56E
330
1F
100
AcDbEntity
  8
LAY-255
  6
CONTINUOUS
 62
     7
100
AcDbText
 10
3327.191964285714
 20
119.8125
 30
0.0
 40
17.1875
  1
ＦＯＵＮＤＲＹ
 41
1.243252752978497
  7
EXCADSTD
100
AcDbText
  0
TEXT
  5
56F
330
1F
100
AcDbEntity
  8
LAY-255
  6
CONTINUOUS
 62
     7
100
AcDbText
 10
3519.945914381009
 20
119.8125
 30
0.0
 40
17.1875
  1
ＣＯ.,ＬＴＤ.
 41
1.243831036226633
  7
EXCADSTD
100
AcDbText
  0
TEXT
  5
570
330
1F
100
AcDbEntity
  8
LAY-255
  6
CONTINUOUS
 62
     7
100
AcDbText
 10
2940.34375
 20
137.1875
 30
0.0
 40
51.5625
  1
S
 41
0.7582677563636363
  7
EXCADSTD
100
AcDbText
  0
TEXT
  5
571
330
1F
100
AcDbEntity
  8
LAY-255
  6
CONTINUOUS
 62
     7
100
AcDbText
 10
2971.046875
 20
137.4941037736
 30
0.0
 40
51.5625
  1
F
 41
0.7440945272727272
  7
EXCADSTD
100
AcDbText
  0
TEXT
  5
572
330
1F
100
AcDbEntity
  8
LAY-255
  6
CONTINUOUS
 62
     7
100
AcDbText
 10
3371.0546875
 20
244.2187499999999
 30
0.0
 40
25.78125
  1
縮尺
 41
1.080708718181818
  7
EXCADSTD
100
AcDbText
  0
TEXT
  5
573
330
1F
100
AcDbEntity
  8
LAY-255
  6
CONTINUOUS
 62
     7
100
AcDbText
 10
2872.65625
 20
565.6249999999999
 30
0.0
 40
34.375
  1
型式
 41
1.056348480681818
  7
EXCADSTD
100
AcDbText
  0
TEXT
  5
574
330
1F
100
AcDbEntity
  8
LAY-255
  6
CONTINUOUS
 62
     7
100
AcDbText
 10
2874.21875
 20
625.625
 30
0.0
 40
34.375
  1
品名
 41
0.9788386340909091
  7
EXCADSTD
100
AcDbText
  0
TEXT
  5
575
330
1F
100
AcDbEntity
  8
LAY-255
  6
CONTINUOUS
 62
     7
100
AcDbText
 10
2871.5234375
 20
244.2187499999999
 30
0.0
 40
25.78125
  1
作成日
 41
1.000629973818182
  7
EXCADSTD
100
AcDbText
  0
TEXT
  5
576
330
1F
100
AcDbEntity
  8
LAY-255
  6
CONTINUOUS
 62
     7
100
AcDbText
 10
2891.40625
 20
505.6249999999999
 30
0.0
 40
34.375
  1
材質：スチール
 41
1.029301719225037
  7
EXCADSTD
100
AcDbText
  0
TEXT
  5
577
330
1F
100
AcDbEntity
  8
LAY-255
  6
CONTINUOUS
 62
     7
100
AcDbText
 10
3482.8125
 20
235.6249999999999
 30
0.0
 40
34.375
  1
１：１０
 41
0.9243863385026738
  7
EXCADSTD
100
AcDbText
  0
TEXT
  5
578
330
1F
100
AcDbEntity
  8
LAY-255
  6
CONTINUOUS
 62
     7
100
AcDbText
 10
3009.84375
 20
235.6249999999999
 30
0.0
 40
34.375
  1
２０／０８／０３
 41
0.9733971264935065
  7
EXCADSTD
100
AcDbText
  0
TEXT
  5
579
330
1F
100
AcDbEntity
  8
LAY-255
  6
CONTINUOUS
 62
     7
100
AcDbText
 10
3001.5625
 20
625.625
 30
0.0
 40
34.375
  1
縞鋼板製マシンハッチ
 41
1.016284949586777
  7
EXCADSTD
100
AcDbText
  0
TEXT
  5
57A
330
1F
100
AcDbEntity
  8
LAY-255
  6
CONTINUOUS
 62
     7
100
AcDbText
 10
2893.75
 20
455.6249999999999
 30
0.0
 40
34.375
  1
受枠目地：ステンレス鋼
 41
1.012216953889409
  7
EXCADSTD
100
AcDbText
  0
TEXT
  5
57B
330
1F
100
AcDbEntity
  8
LAY-255
  6
CONTINUOUS
 62
     7
100
AcDbText
 10
2892.03125
 20
405.6249999999999
 30
0.0
 40
34.375
  1
適用荷重：歩行用
 41
1.015410627012987
  7
EXCADSTD
100
AcDbText
  0
TEXT
  5
57C
330
1F
100
AcDbEntity
  8
LAY-255
  6
CONTINUOUS
 62
     7
100
AcDbText
 10
2892.65625
 20
355.6249999999999
 30
0.0
 40
34.375
  1
耐火材中蓋付き
 41
1.014779968107303
  7
EXCADSTD
100
AcDbText
  0
TEXT
  5
57D
330
1F
100
AcDbEntity
  8
LAY-255
  6
CONTINUOUS
 62
     7
100
AcDbText
 10
3007.5
 20
565.6249999999999
 30
0.0
 40
34.375
  1
ＳＦ－９０ＣＭ－１Ｆ型
 41
1.0041805868791
  7
EXCADSTD
100
AcDbText
  0
ENDSEC
  0
SECTION
  2
OBJECTS
  0
DICTIONARY
  5
C
330
0
100
AcDbDictionary
  3
ACAD_GROUP
350
D
  3
ACAD_LAYOUT
350
1A
  3
ACAD_MATERIAL
350
43
  3
ACAD_MLEADERSTYLE
350
6B
  3
ACAD_MLINESTYLE
350
17
  3
ACAD_PLOTSETTINGS
350
19
  3
ACAD_SCALELIST
350
47
  3
ACAD_VISUALSTYLE
350
2A
  3
ACDBHEADERROUNDTRIPXREC
350
57E
  3
ACDBVARIABLEDICTIONARY
350
59F
  0
DICTIONARY
  5
5AA
330
8
100
AcDbDictionary
280
     1
  3
ACAD_XREC_ROUNDTRIP
360
5AB
  0
DICTIONARY
  5
D
102
{ACAD_REACTORS
330
C
102
}
330
C
100
AcDbDictionary
  0
DICTIONARY
  5
1A
102
{ACAD_REACTORS
330
C
102
}
330
C
100
AcDbDictionary
  0
DICTIONARY
  5
43
102
{ACAD_REACTORS
330
C
102
}
330
C
100
AcDbDictionary
  3
BYBLOCK
350
45
  3
BYLAYER
350
44
  3
GLOBAL
350
46
  0
DICTIONARY
  5
6B
102
{ACAD_REACTORS
330
C
102
}
330
C
100
AcDbDictionary
  3
STANDARD
350
6C
  0
DICTIONARY
  5
17
102
{ACAD_REACTORS
330
C
102
}
330
C
100
AcDbDictionary
  3
STANDARD
350
18
  0
DICTIONARY
  5
19
102
{ACAD_REACTORS
330
C
102
}
330
C
100
AcDbDictionary
  0
DICTIONARY
  5
47
102
{ACAD_REACTORS
330
C
102
}
330
C
100
AcDbDictionary
  3
A0
350
48
  3
A1
350
49
  3
A2
350
4A
  3
A3
350
4B
  3
A4
350
4C
  3
A5
350
4D
  3
A6
350
4E
  3
A7
350
4F
  3
A8
350
50
  3
A9
350
51
  3
B0
350
52
  3
B1
350
53
  3
B2
350
54
  3
B3
350
55
  3
B4
350
56
  3
B5
350
57
  3
B6
350
58
  3
B7
350
59
  3
B8
350
5A
  3
B9
350
5B
  3
C0
350
5C
  3
C1
350
5D
  3
C2
350
5E
  3
C3
350
5F
  3
C4
350
60
  3
C5
350
61
  3
C6
350
62
  3
C7
350
63
  3
C8
350
64
  3
C9
350
65
  3
D0
350
66
  3
D1
350
67
  3
D2
350
68
  0
DICTIONARY
  5
2A
102
{ACAD_REACTORS
330
C
102
}
330
C
100
AcDbDictionary
  3
2DWIREFRAME
350
2F
  3
BASIC
350
32
  3
BRIGHTEN
350
36
  3
COLORCHANGE
350
3A
  3
CONCEPTUAL
350
34
  3
DIM
350
35
  3
EDGECOLOROFF
350
3D
  3
FACEPATTERN
350
39
  3
FLAT
350
2B
  3
FLATWITHEDGES
350
2C
  3
GOURAUD
350
2D
  3
GOURAUDWITHEDGES
350
2E
  3
HIDDEN
350
31
  3
JITTEROFF
350
3B
  3
LINEPATTERN
350
38
  3
OVERHANGOFF
350
3C
  3
REALISTIC
350
33
  3
SHADED
350
42
  3
SHADED_WITH_EDGES
350
41
  3
SHADES_OF_GRAY
350
3E
  3
SKETCHY
350
3F
  3
THICKEN
350
37
  3
WIREFRAME
350
30
  3
X-RAY
350
40
  0
DICTIONARY
  5
57E
102
{ACAD_REACTORS
330
C
102
}
330
C
100
AcDbDictionary
  3
CEPSNID
350
588
  3
CEPSNTYPE
350
587
  3
DIMSTYLEDATA
350
59E
  3
FINGERPRINTGUID
350
589
  3
HYPERLINKBASE
350
581
  3
INSUNITS
350
586
  3
LAYOUTDICT
350
583
  3
LWETCUNION
350
585
  3
PLOTSETDICT
350
584
  3
PSVPSCALE
350
58B
  3
PUCSBASE
350
58E
  3
PUCSORGBACK
350
594
  3
PUCSORGBOTTOM
350
590
  3
PUCSORGFRONT
350
593
  3
PUCSORGLEFT
350
591
  3
PUCSORGRIGHT
350
592
  3
PUCSORGTOP
350
58F
  3
PUCSORTHOREF
350
58C
  3
PUCSORTHOVIEW
350
58D
  3
STYLESHEET
350
582
  3
TSTACKALIGN
350
57F
  3
TSTACKSIZE
350
580
  3
UCSBASE
350
597
  3
UCSORGBACK
350
59D
  3
UCSORGBOTTOM
350
599
  3
UCSORGFRONT
350
59C
  3
UCSORGLEFT
350
59A
  3
UCSORGRIGHT
350
59B
  3
UCSORGTOP
350
598
  3
UCSORTHOREF
350
595
  3
UCSORTHOVIEW
350
596
  3
VERSIONGUID
350
58A
  0
DICTIONARY
  5
59F
102
{ACAD_REACTORS
330
C
102
}
330
C
100
AcDbDictionary
  3
CANNOSCALE
350
5AC
  3
CENTEREXE
350
5A6
  3
CENTERLTYPEFILE
350
5A7
  3
CMLEADERSTYLE
350
5A1
  3
CTABLESTYLE
350
5A0
  3
DIMASSOC
350
5A8
  3
HIDETEXT
350
5A9
  3
MSLTSCALE
350
5AD
  3
PSOLHEIGHT
350
5A3
  3
PSOLWIDTH
350
5A2
  0
XRECORD
  5
5AB
102
{ACAD_REACTORS
330
5AA
102
}
330
5AA
100
AcDbXrecord
102
VTR_0.000_0.000_1.000_1.000_VISUALSTYLE
340
2F
102
VTR_0.000_0.000_1.000_1.000_GRIDDISPLAY
 70
     3
102
VTR_0.000_0.000_1.000_1.000_GRIDMAJOR
 70
     5
102
VTR_0.000_0.000_1.000_1.000_DEFAULTLIGHTING
280
     1
102
VTR_0.000_0.000_1.000_1.000_DEFAULTLIGHTINGTYPE
 70
     1
102
VTR_0.000_0.000_1.000_1.000_BRIGHTNESS
141
0.0
102
VTR_0.000_0.000_1.000_1.000_CONTRAST
142
0.0
  0
MATERIAL
  5
45
102
{ACAD_REACTORS
330
43
102
}
102
{ACAD_XDICTIONARY
360
5B0
102
}
330
43
100
AcDbMaterial
  1
BYBLOCK
  0
MATERIAL
  5
44
102
{ACAD_REACTORS
330
43
102
}
102
{ACAD_XDICTIONARY
360
5AE
102
}
330
43
100
AcDbMaterial
  1
BYLAYER
  0
MATERIAL
  5
46
102
{ACAD_REACTORS
330
43
102
}
102
{ACAD_XDICTIONARY
360
5B2
102
}
330
43
100
AcDbMaterial
  1
GLOBAL
  0
ACAD_PROXY_OBJECT
  5
6C
102
{ACAD_REACTORS
330
6B
102
}
330
6B
100
AcDbProxyObject
 90
      499
 91
      505
 93
      610
310
40901902A4063FBFFFFFE0000000000000020400000000000020404214DD185B99185C990000000000000104090141901A00000000000004100000000000000041025764000000000000039000
340
14
340
0
340
11
340
0
 94
        0
1001
ACAD_MLEADERVER
1070
     2
  0
MLINESTYLE
  5
18
102
{ACAD_REACTORS
330
17
102
}
330
17
100
AcDbMlineStyle
  2
Standard
 70
     0
  3

 62
   256
 51
90.0
 52
90.0
 71
     2
 49
0.5
 62
   256
  6
BYLAYER
 49
-0.5
 62
   256
  6
BYLAYER
  0
ACAD_PROXY_OBJECT
  5
48
102
{ACAD_REACTORS
330
47
102
}
330
47
100
AcDbProxyObject
 90
      499
 91
      503
 93
       41
310
903313A31580
  0
ACAD_PROXY_OBJECT
  5
49
102
{ACAD_REACTORS
330
47
102
}
330
47
100
AcDbProxyObject
 90
      499
 91
      503
 93
      105
310
903313A324000000000000004000
  0
ACAD_PROXY_OBJECT
  5
4A
102
{ACAD_REACTORS
330
47
102
}
330
47
100
AcDbProxyObject
 90
      499
 91
      503
 93
      105
310
903313A344000000000000104000
  0
ACAD_PROXY_OBJECT
  5
4B
102
{ACAD_REACTORS
330
47
102
}
330
47
100
AcDbProxyObject
 90
      499
 91
      503
 93
      105
310
903313A354000000000000144000
  0
ACAD_PROXY_OBJECT
  5
4C
102
{ACAD_REACTORS
330
47
102
}
330
47
100
AcDbProxyObject
 90
      499
 91
      503
 93
      105
310
903313A384000000000000204000
  0
ACAD_PROXY_OBJECT
  5
4D
102
{ACAD_REACTORS
330
47
102
}
330
47
100
AcDbProxyObject
 90
      499
 91
      503
 93
      113
310
904313A31304000000000000244000
  0
ACAD_PROXY_OBJECT
  5
4E
102
{ACAD_REACTORS
330
47
102
}
330
47
100
AcDbProxyObject
 90
      499
 91
      503
 93
      113
310
904313A31364000000000000304000
  0
ACAD_PROXY_OBJECT
  5
4F
102
{ACAD_REACTORS
330
47
102
}
330
47
100
AcDbProxyObject
 90
      499
 91
      503
 93
      113
310
904313A32304000000000000344000
  0
ACAD_PROXY_OBJECT
  5
50
102
{ACAD_REACTORS
330
47
102
}
330
47
100
AcDbProxyObject
 90
      499
 91
      503
 93
      113
310
904313A333040000000000003E4000
  0
ACAD_PROXY_OBJECT
  5
51
102
{ACAD_REACTORS
330
47
102
}
330
47
100
AcDbProxyObject
 90
      499
 91
      503
 93
      113
310
904313A34304000000000000444000
  0
ACAD_PROXY_OBJECT
  5
52
102
{ACAD_REACTORS
330
47
102
}
330
47
100
AcDbProxyObject
 90
      499
 91
      503
 93
      113
310
904313A35304000000000000494000
  0
ACAD_PROXY_OBJECT
  5
53
102
{ACAD_REACTORS
330
47
102
}
330
47
100
AcDbProxyObject
 90
      499
 91
      503
 93
      121
310
905313A3130304000000000000594000
  0
ACAD_PROXY_OBJECT
  5
54
102
{ACAD_REACTORS
330
47
102
}
330
47
100
AcDbProxyObject
 90
      499
 91
      503
 93
      105
310
903323A310000000000000010100
  0
ACAD_PROXY_OBJECT
  5
55
102
{ACAD_REACTORS
330
47
102
}
330
47
100
AcDbProxyObject
 90
      499
 91
      503
 93
      105
310
903343A310000000000000410100
  0
ACAD_PROXY_OBJECT
  5
56
102
{ACAD_REACTORS
330
47
102
}
330
47
100
AcDbProxyObject
 90
      499
 91
      503
 93
      105
310
903383A310000000000000810100
  0
ACAD_PROXY_OBJECT
  5
57
102
{ACAD_REACTORS
330
47
102
}
330
47
100
AcDbProxyObject
 90
      499
 91
      503
 93
      113
310
90431303A310000000000000910100
  0
ACAD_PROXY_OBJECT
  5
58
102
{ACAD_REACTORS
330
47
102
}
330
47
100
AcDbProxyObject
 90
      499
 91
      503
 93
      121
310
9053130303A310000000000001650100
  0
ACAD_PROXY_OBJECT
  5
59
102
{ACAD_REACTORS
330
47
102
}
330
47
100
AcDbProxyObject
 90
      499
 91
      503
 93
      257
310
90E312F31323822203D2031272D3022000000000000200FC000000000000284000
  0
ACAD_PROXY_OBJECT
  5
5A
102
{ACAD_REACTORS
330
47
102
}
330
47
100
AcDbProxyObject
 90
      499
 91
      503
 93
      249
310
90D312F363422203D2031272D3022000000000000240FC000000000000284000
  0
ACAD_PROXY_OBJECT
  5
5B
102
{ACAD_REACTORS
330
47
102
}
330
47
100
AcDbProxyObject
 90
      499
 91
      503
 93
      249
310
90D312F333222203D2031272D3022000000000000280FC000000000000284000
  0
ACAD_PROXY_OBJECT
  5
5C
102
{ACAD_REACTORS
330
47
102
}
330
47
100
AcDbProxyObject
 90
      499
 91
      503
 93
      249
310
90D312F313622203D2031272D30220000000000002C0FC000000000000284000
  0
ACAD_PROXY_OBJECT
  5
5D
102
{ACAD_REACTORS
330
47
102
}
330
47
100
AcDbProxyObject
 90
      499
 91
      503
 93
      249
310
90D332F333222203D2031272D30220000000000002E0FC000000000000284000
  0
ACAD_PROXY_OBJECT
  5
5E
102
{ACAD_REACTORS
330
47
102
}
330
47
100
AcDbProxyObject
 90
      499
 91
      503
 93
      241
310
90C312F3822203D2031272D3022000000000000300FC000000000000284000
  0
ACAD_PROXY_OBJECT
  5
5F
102
{ACAD_REACTORS
330
47
102
}
330
47
100
AcDbProxyObject
 90
      499
 91
      503
 93
      249
310
90D332F313622203D2031272D3022000000000000320FC000000000000284000
  0
ACAD_PROXY_OBJECT
  5
60
102
{ACAD_REACTORS
330
47
102
}
330
47
100
AcDbProxyObject
 90
      499
 91
      503
 93
      241
310
90C312F3422203D2031272D3022000000000000340FC000000000000284000
  0
ACAD_PROXY_OBJECT
  5
61
102
{ACAD_REACTORS
330
47
102
}
330
47
100
AcDbProxyObject
 90
      499
 91
      503
 93
      241
310
90C332F3822203D2031272D3022000000000000360FC000000000000284000
  0
ACAD_PROXY_OBJECT
  5
62
102
{ACAD_REACTORS
330
47
102
}
330
47
100
AcDbProxyObject
 90
      499
 91
      503
 93
      241
310
90C312F3222203D2031272D3022000000000000380FC000000000000284000
  0
ACAD_PROXY_OBJECT
  5
63
102
{ACAD_REACTORS
330
47
102
}
330
47
100
AcDbProxyObject
 90
      499
 91
      503
 93
      241
310
90C332F3422203D2031272D30220000000000003A0FC000000000000284000
  0
ACAD_PROXY_OBJECT
  5
64
102
{ACAD_REACTORS
330
47
102
}
330
47
100
AcDbProxyObject
 90
      499
 91
      503
 93
      161
310
90A3122203D2031272D30224000000000000284000
  0
ACAD_PROXY_OBJECT
  5
65
102
{ACAD_REACTORS
330
47
102
}
330
47
100
AcDbProxyObject
 90
      499
 91
      503
 93
      257
310
90E312D312F3222203D2031272D30220000000000003E0FC000000000000284000
  0
ACAD_PROXY_OBJECT
  5
66
102
{ACAD_REACTORS
330
47
102
}
330
47
100
AcDbProxyObject
 90
      499
 91
      503
 93
      225
310
90A3322203D2031272D302200000000000002100000000000000284000
  0
ACAD_PROXY_OBJECT
  5
67
102
{ACAD_REACTORS
330
47
102
}
330
47
100
AcDbProxyObject
 90
      499
 91
      503
 93
      225
310
90A3622203D2031272D302200000000000006100000000000000284000
  0
ACAD_PROXY_OBJECT
  5
68
102
{ACAD_REACTORS
330
47
102
}
330
47
100
AcDbProxyObject
 90
      499
 91
      503
 93
      249
310
90D31272D3022203D2031272D30220000000000000A100000000000000284000
  0
ACAD_PROXY_OBJECT
  5
2F
102
{ACAD_REACTORS
330
2A
102
}
330
2A
100
AcDbProxyObject
 90
      499
 91
      501
 93
      436
310
42CC9915DA5C99599C985B595049028333333333333E33F0000000000000F90107901411070040501600405405064090741402480A0340
1001
ACAD
1000
AcDbSavedByObjectVersion
1070
     0
  0
ACAD_PROXY_OBJECT
  5
32
102
{ACAD_REACTORS
330
2A
102
}
330
2A
100
AcDbProxyObject
 90
      499
 91
      501
 93
      388
310
4150985CDA58D07406404333333333333E33F0000000000000F90107A41107004050150841D405064090741402480A0350
1001
ACAD
1000
AcDbSavedByObjectVersion
1070
     0
  0
ACAD_PROXY_OBJECT
  5
36
102
{ACAD_REACTORS
330
2A
102
}
330
2A
100
AcDbProxyObject
 90
      499
 91
      501
 93
      428
310
42109C9A59DA1D195B90C409028333333333333E33F0000000000000F9010790141107004050150841D405064090741402480A029950
1001
ACAD
1000
AcDbSavedByObjectVersion
1070
     0
  0
ACAD_PROXY_OBJECT
  5
3A
102
{ACAD_REACTORS
330
2A
102
}
330
2A
100
AcDbProxyObject
 90
      499
 91
      501
 93
      452
310
42D0DBDB1BDC90DA185B99D95104090240C333333333333E33F0000000000000F90108901411070040501508421405064090741402480A0350
1001
ACAD
1000
AcDbSavedByObjectVersion
1070
     0
  0
ACAD_PROXY_OBJECT
  5
34
102
{ACAD_REACTORS
330
2A
102
}
330
2A
100
AcDbProxyObject
 90
      499
 91
      501
 93
      500
310
4290DBDB98D95C1D1D585B10940D028333333333333E33F0000000000000F90107902409070040501000000000018199010841D405064090740C02480A0340
1001
ACAD
1000
AcDbSavedByObjectVersion
1070
     0
  0
ACAD_PROXY_OBJECT
  5
35
102
{ACAD_REACTORS
330
2A
102
}
330
2A
100
AcDbProxyObject
 90
      499
 91
      501
 93
      412
310
40D11A5B50B409028333333333333E33F0000000000000F9010790141107004050150841D405064090741402480A02677FFFFFD0
1001
ACAD
1000
AcDbSavedByObjectVersion
1070
     0
  0
ACAD_PROXY_OBJECT
  5
3D
102
{ACAD_REACTORS
330
2A
102
}
330
2A
100
AcDbProxyObject
 90
      499
 91
      501
 93
      452
310
43115919D950DBDB1BDC93D999916409028333333333333E33F0000000000000F9010790141107004050150841D405064090741402480A0350
1001
ACAD
1000
AcDbSavedByObjectVersion
1070
     0
  0
ACAD_PROXY_OBJECT
  5
39
102
{ACAD_REACTORS
330
2A
102
}
330
2A
100
AcDbProxyObject
 90
      499
 91
      501
 93
      444
310
42D19858D95C185D1D195C9B90F409028333333333333E33F0000000000000F9010790141107004050150841D405064090741402480A0350
1001
ACAD
1000
AcDbSavedByObjectVersion
1070
     0
  0
ACAD_PROXY_OBJECT
  5
2B
102
{ACAD_REACTORS
330
2A
102
}
330
2A
100
AcDbProxyObject
 90
      499
 91
      501
 93
      380
310
41119B185D240901404333333333333E33F0000000000000F9010740A907004050150841D405064090741402480A1B50
1001
ACAD
1000
AcDbSavedByObjectVersion
1070
     0
  0
ACAD_PROXY_OBJECT
  5
2C
102
{ACAD_REACTORS
330
2A
102
}
330
2A
100
AcDbProxyObject
 90
      499
 91
      501
 93
      468
310
43519B185D15DA5D1A115919D95CD0140901404333333333333E33F0000000000000F90107409019070040501600405405064090741402480A1B50
1001
ACAD
1000
AcDbSavedByObjectVersion
1070
     0
  0
ACAD_PROXY_OBJECT
  5
2D
102
{ACAD_REACTORS
330
2A
102
}
330
2A
100
AcDbProxyObject
 90
      499
 91
      501
 93
      404
310
41D1DBDD5C985D5910240902404333333333333E33F0000000000000F9010740A9070040501641D405064090741402480A1B50
1001
ACAD
1000
AcDbSavedByObjectVersion
1070
     0
  0
ACAD_PROXY_OBJECT
  5
2E
102
{ACAD_REACTORS
330
2A
102
}
330
2A
100
AcDbProxyObject
 90
      499
 91
      501
 93
      492
310
4411DBDD5C985D5915DA5D1A115919D95CD0340902404333333333333E33F0000000000000F90107409019070040501600405405064090741402480A1B50
1001
ACAD
1000
AcDbSavedByObjectVersion
1070
     0
  0
ACAD_PROXY_OBJECT
  5
31
102
{ACAD_REACTORS
330
2A
102
}
330
2A
100
AcDbProxyObject
 90
      499
 91
      501
 93
      476
310
41921A5919195B90640502408333333333333E33F0000000000000F901079024090700405020000000000001110200405405064090740C02480A0340
1001
ACAD
1000
AcDbSavedByObjectVersion
1070
     0
  0
ACAD_PROXY_OBJECT
  5
3B
102
{ACAD_REACTORS
330
2A
102
}
330
2A
100
AcDbProxyObject
 90
      499
 91
      501
 93
      428
310
42529A5D1D195C93D999914409028333333333333E33F0000000000000F9010790141107004050150A41D405064090741402480A0350
1001
ACAD
1000
AcDbSavedByObjectVersion
1070
     0
  0
ACAD_PROXY_OBJECT
  5
38
102
{ACAD_REACTORS
330
2A
102
}
330
2A
100
AcDbProxyObject
 90
      499
 91
      501
 93
      444
310
42D31A5B995C185D1D195C9B90E409028333333333333E33F0000000000000F9010790141107004050750841D405064090741402483A0350
1001
ACAD
1000
AcDbSavedByObjectVersion
1070
     0
  0
ACAD_PROXY_OBJECT
  5
3C
102
{ACAD_REACTORS
330
2A
102
}
330
2A
100
AcDbProxyObject
 90
      499
 91
      501
 93
      444
310
42D3DD995C9A185B99D3D999915409028333333333333E33F0000000000000F9010790141107004050150941D405064090741402480A0350
1001
ACAD
1000
AcDbSavedByObjectVersion
1070
     0
  0
ACAD_PROXY_OBJECT
  5
33
102
{ACAD_REACTORS
330
2A
102
}
330
2A
100
AcDbProxyObject
 90
      499
 91
      501
 93
      428
310
425499585B1A5CDD1A58D08409038333333333333E33F0000000000000F9010740A907004050150800405405064090740C02480A1B40
1001
ACAD
1000
AcDbSavedByObjectVersion
1070
     0
  0
ACAD_PROXY_OBJECT
  5
42
102
{ACAD_REACTORS
330
2A
102
}
330
2A
100
AcDbProxyObject
 90
      499
 91
      501
 93
      420
310
4194DA1859195911B40902404333333333333E33F0000000000000F9010740A41107004050150800405405064090840C02480A0B40
1001
ACAD
1000
AcDbSavedByObjectVersion
1070
     0
  0
ACAD_PROXY_OBJECT
  5
41
102
{ACAD_REACTORS
330
2A
102
}
330
2A
100
AcDbProxyObject
 90
      499
 91
      501
 93
      516
310
4454DA18591959081DDA5D1A08195919D95CD1A40902404333333333333E33F0000000000000F901074090142907004050250800405405064090740C02480A0B40
1001
ACAD
1000
AcDbSavedByObjectVersion
1070
     0
  0
ACAD_PROXY_OBJECT
  5
3E
102
{ACAD_REACTORS
330
2A
102
}
330
2A
100
AcDbProxyObject
 90
      499
 91
      501
 93
      532
310
4394DA1859195CC81BD98811DC985E5174090240C333333333333E33F0000000000000F901079024090741D01000000000000111010841D405064090740C02480A0340
1001
ACAD
1000
AcDbSavedByObjectVersion
1070
     0
  0
ACAD_PROXY_OBJECT
  5
3F
102
{ACAD_REACTORS
330
2A
102
}
330
2A
100
AcDbProxyObject
 90
      499
 91
      501
 93
      476
310
41D4DAD95D18DA1E51840502408333333333333E33F0000000000000F901079024090741D01000000000000111010B41D405064090741802480A0340
1001
ACAD
1000
AcDbSavedByObjectVersion
1070
     0
  0
ACAD_PROXY_OBJECT
  5
37
102
{ACAD_REACTORS
330
2A
102
}
330
2A
100
AcDbProxyObject
 90
      499
 91
      501
 93
      412
310
41D51A1A58DAD95B90D409028333333333333E33F0000000000000F9010790141107004050150C41D405064090741402480A0350
1001
ACAD
1000
AcDbSavedByObjectVersion
1070
     0
  0
ACAD_PROXY_OBJECT
  5
30
102
{ACAD_REACTORS
330
2A
102
}
330
2A
100
AcDbProxyObject
 90
      499
 91
      501
 93
      420
310
4255DA5C99599C985B595059028333333333333E33F0000000000000F90107901411070040501600405405064090740C02480A0340
1001
ACAD
1000
AcDbSavedByObjectVersion
1070
     0
  0
ACAD_PROXY_OBJECT
  5
40
102
{ACAD_REACTORS
330
2A
102
}
330
2A
100
AcDbProxyObject
 90
      499
 91
      501
 93
      404
310
41560B54985E51940902404000000000000E03F0000000000000F9010740501907004050150841D405064090740C02480A1B40
1001
ACAD
1000
AcDbSavedByObjectVersion
1070
     0
  0
XRECORD
  5
588
102
{ACAD_REACTORS
330
57E
102
}
330
57E
100
AcDbXrecord
340
0
  0
XRECORD
  5
587
102
{ACAD_REACTORS
330
57E
102
}
330
57E
100
AcDbXrecord
 90
        0
  0
XRECORD
  5
59E
102
{ACAD_REACTORS
330
57E
102
}
330
57E
100
AcDbXrecord
1000
DSTYLE
1002
{
1070
   340
340
11
1002
}
  0
XRECORD
  5
589
102
{ACAD_REACTORS
330
57E
102
}
330
57E
100
AcDbXrecord
  1
{5d593b24-716c-4a96-b3ed-b90d1da5f2d9}
  0
XRECORD
  5
581
102
{ACAD_REACTORS
330
57E
102
}
330
57E
100
AcDbXrecord
  1

  0
XRECORD
  5
586
102
{ACAD_REACTORS
330
57E
102
}
330
57E
100
AcDbXrecord
 90
        4
  0
XRECORD
  5
583
102
{ACAD_REACTORS
330
57E
102
}
330
57E
100
AcDbXrecord
340
1A
  0
XRECORD
  5
585
102
{ACAD_REACTORS
330
57E
102
}
330
57E
100
AcDbXrecord
 90
    10781
  0
XRECORD
  5
584
102
{ACAD_REACTORS
330
57E
102
}
330
57E
100
AcDbXrecord
340
19
  0
XRECORD
  5
58B
102
{ACAD_REACTORS
330
57E
102
}
330
57E
100
AcDbXrecord
 40
0.0
  0
XRECORD
  5
58E
102
{ACAD_REACTORS
330
57E
102
}
330
57E
100
AcDbXrecord
340
0
  0
XRECORD
  5
594
102
{ACAD_REACTORS
330
57E
102
}
330
57E
100
AcDbXrecord
 10
0.0
 20
0.0
 30
0.0
  0
XRECORD
  5
590
102
{ACAD_REACTORS
330
57E
102
}
330
57E
100
AcDbXrecord
 10
0.0
 20
0.0
 30
0.0
  0
XRECORD
  5
593
102
{ACAD_REACTORS
330
57E
102
}
330
57E
100
AcDbXrecord
 10
0.0
 20
0.0
 30
0.0
  0
XRECORD
  5
591
102
{ACAD_REACTORS
330
57E
102
}
330
57E
100
AcDbXrecord
 10
0.0
 20
0.0
 30
0.0
  0
XRECORD
  5
592
102
{ACAD_REACTORS
330
57E
102
}
330
57E
100
AcDbXrecord
 10
0.0
 20
0.0
 30
0.0
  0
XRECORD
  5
58F
102
{ACAD_REACTORS
330
57E
102
}
330
57E
100
AcDbXrecord
 10
0.0
 20
0.0
 30
0.0
  0
XRECORD
  5
58C
102
{ACAD_REACTORS
330
57E
102
}
330
57E
100
AcDbXrecord
340
0
  0
XRECORD
  5
58D
102
{ACAD_REACTORS
330
57E
102
}
330
57E
100
AcDbXrecord
 70
     0
  0
XRECORD
  5
582
102
{ACAD_REACTORS
330
57E
102
}
330
57E
100
AcDbXrecord
  1

  0
XRECORD
  5
57F
102
{ACAD_REACTORS
330
57E
102
}
330
57E
100
AcDbXrecord
 90
        1
  0
XRECORD
  5
580
102
{ACAD_REACTORS
330
57E
102
}
330
57E
100
AcDbXrecord
 90
       70
  0
XRECORD
  5
597
102
{ACAD_REACTORS
330
57E
102
}
330
57E
100
AcDbXrecord
340
0
  0
XRECORD
  5
59D
102
{ACAD_REACTORS
330
57E
102
}
330
57E
100
AcDbXrecord
 10
0.0
 20
0.0
 30
0.0
  0
XRECORD
  5
599
102
{ACAD_REACTORS
330
57E
102
}
330
57E
100
AcDbXrecord
 10
0.0
 20
0.0
 30
0.0
  0
XRECORD
  5
59C
102
{ACAD_REACTORS
330
57E
102
}
330
57E
100
AcDbXrecord
 10
0.0
 20
0.0
 30
0.0
  0
XRECORD
  5
59A
102
{ACAD_REACTORS
330
57E
102
}
330
57E
100
AcDbXrecord
 10
0.0
 20
0.0
 30
0.0
  0
XRECORD
  5
59B
102
{ACAD_REACTORS
330
57E
102
}
330
57E
100
AcDbXrecord
 10
0.0
 20
0.0
 30
0.0
  0
XRECORD
  5
598
102
{ACAD_REACTORS
330
57E
102
}
330
57E
100
AcDbXrecord
 10
0.0
 20
0.0
 30
0.0
  0
XRECORD
  5
595
102
{ACAD_REACTORS
330
57E
102
}
330
57E
100
AcDbXrecord
340
0
  0
XRECORD
  5
596
102
{ACAD_REACTORS
330
57E
102
}
330
57E
100
AcDbXrecord
 70
     0
  0
XRECORD
  5
58A
102
{ACAD_REACTORS
330
57E
102
}
330
57E
100
AcDbXrecord
  1
{FAEB1C32-E019-11D5-929B-00C0DF256EC4}
  0
DICTIONARYVAR
  5
5AC
102
{ACAD_REACTORS
330
59F
102
}
330
59F
100
DictionaryVariables
280
     0
  1
1:1
  0
DICTIONARYVAR
  5
5A6
102
{ACAD_REACTORS
330
59F
102
}
330
59F
100
DictionaryVariables
280
     0
  1
3.500000
  0
DICTIONARYVAR
  5
5A7
102
{ACAD_REACTORS
330
59F
102
}
330
59F
100
DictionaryVariables
280
     0
  1
acadiso.lin
  0
DICTIONARYVAR
  5
5A1
102
{ACAD_REACTORS
330
59F
102
}
330
59F
100
DictionaryVariables
280
     0
  1
Standard
  0
DICTIONARYVAR
  5
5A0
102
{ACAD_REACTORS
330
59F
102
}
330
59F
100
DictionaryVariables
280
     0
  1
Standard
  0
DICTIONARYVAR
  5
5A8
102
{ACAD_REACTORS
330
59F
102
}
330
59F
100
DictionaryVariables
280
     0
  1
2
  0
DICTIONARYVAR
  5
5A9
102
{ACAD_REACTORS
330
59F
102
}
330
59F
100
DictionaryVariables
280
     0
  1
1
  0
DICTIONARYVAR
  5
5AD
102
{ACAD_REACTORS
330
59F
102
}
330
59F
100
DictionaryVariables
280
     0
  1
1
  0
DICTIONARYVAR
  5
5A3
102
{ACAD_REACTORS
330
59F
102
}
330
59F
100
DictionaryVariables
280
     0
  1
80.000000
  0
DICTIONARYVAR
  5
5A2
102
{ACAD_REACTORS
330
59F
102
}
330
59F
100
DictionaryVariables
280
     0
  1
5.000000
  0
DICTIONARY
  5
5B0
330
45
100
AcDbDictionary
280
     1
  3
ACAD_XREC_ROUNDTRIP
360
5B1
  0
DICTIONARY
  5
5AE
330
44
100
AcDbDictionary
280
     1
  3
ACAD_XREC_ROUNDTRIP
360
5AF
  0
DICTIONARY
  5
5B2
330
46
100
AcDbDictionary
280
     1
  3
ACAD_XREC_ROUNDTRIP
360
5B3
  0
XRECORD
  5
5B1
102
{ACAD_REACTORS
330
5B0
102
}
330
5B0
100
AcDbXrecord
102
MATERIAL
148
0.0
149
0.0
149
0.0
 93
        0
 94
      127
282
     0
 72
     1
 77
     1
171
     1
175
     1
179
     1
273
     0
  0
XRECORD
  5
5AF
102
{ACAD_REACTORS
330
5AE
102
}
330
5AE
100
AcDbXrecord
102
MATERIAL
148
0.0
149
0.0
149
0.0
 93
        0
 94
      127
282
     0
 72
     1
 77
     1
171
     1
175
     1
179
     1
273
     0
  0
XRECORD
  5
5B3
102
{ACAD_REACTORS
330
5B2
102
}
330
5B2
100
AcDbXrecord
102
MATERIAL
148
0.0
149
0.0
149
0.0
 93
        0
 94
      127
282
     0
 72
     1
 77
     1
171
     1
175
     1
179
     1
273
     0
  0
ENDSEC
  0
EOF
