  0
SECTION
  2
HEADER
  9
$ACADVER
  1
AC1014
  9
$ACADMAINTVER
 70
     9
  9
$DWGCODEPAGE
  3
ANSI_932
  9
$INSBASE
 10
0.0
 20
0.0
 30
0.0
  9
$EXTMIN
 10
50.0
 20
100.0
 30
0.0
  9
$EXTMAX
 10
3850.0
 20
2800.0
 30
0.0
  9
$LIMMIN
 10
0.0
 20
0.0
  9
$LIMMAX
 10
420.0
 20
297.0
  9
$ORTHOMODE
 70
     0
  9
$REGENMODE
 70
     1
  9
$FILLMODE
 70
     1
  9
$QTEXTMODE
 70
     0
  9
$MIRRTEXT
 70
     1
  9
$DRAGMODE
 70
     2
  9
$LTSCALE
 40
0.2
  9
$OSMODE
 70
    37
  9
$ATTMODE
 70
     1
  9
$TEXTSIZE
 40
2.5
  9
$TRACEWID
 40
1.0
  9
$TEXTSTYLE
  7
STANDARD
  9
$CLAYER
  8
LAY-10
  9
$CELTYPE
  6
BYLAYER
  9
$CECOLOR
 62
   256
  9
$CELTSCALE
 40
1.0
  9
$DELOBJ
 70
     1
  9
$DISPSILH
 70
     0
  9
$DIMSCALE
 40
1.0
  9
$DIMASZ
 40
2.5
  9
$DIMEXO
 40
0.625
  9
$DIMDLI
 40
3.75
  9
$DIMRND
 40
0.0
  9
$DIMDLE
 40
0.0
  9
$DIMEXE
 40
1.25
  9
$DIMTP
 40
0.0
  9
$DIMTM
 40
0.0
  9
$DIMTXT
 40
2.5
  9
$DIMCEN
 40
2.5
  9
$DIMTSZ
 40
0.0
  9
$DIMTOL
 70
     0
  9
$DIMLIM
 70
     0
  9
$DIMTIH
 70
     0
  9
$DIMTOH
 70
     0
  9
$DIMSE1
 70
     0
  9
$DIMSE2
 70
     0
  9
$DIMTAD
 70
     1
  9
$DIMZIN
 70
     8
  9
$DIMBLK
  1

  9
$DIMASO
 70
     1
  9
$DIMSHO
 70
     1
  9
$DIMPOST
  1

  9
$DIMAPOST
  1

  9
$DIMALT
 70
     0
  9
$DIMALTD
 70
     3
  9
$DIMALTF
 40
0.03937007874016
  9
$DIMLFAC
 40
1.0
  9
$DIMTOFL
 70
     1
  9
$DIMTVP
 40
0.0
  9
$DIMTIX
 70
     0
  9
$DIMSOXD
 70
     0
  9
$DIMSAH
 70
     0
  9
$DIMBLK1
  1

  9
$DIMBLK2
  1

  9
$DIMSTYLE
  2
ISO-25
  9
$DIMCLRD
 70
     0
  9
$DIMCLRE
 70
     0
  9
$DIMCLRT
 70
     0
  9
$DIMTFAC
 40
1.0
  9
$DIMGAP
 40
0.625
  9
$DIMJUST
 70
     0
  9
$DIMSD1
 70
     0
  9
$DIMSD2
 70
     0
  9
$DIMTOLJ
 70
     0
  9
$DIMTZIN
 70
     8
  9
$DIMALTZ
 70
     0
  9
$DIMALTTZ
 70
     0
  9
$DIMFIT
 70
     3
  9
$DIMUPT
 70
     0
  9
$DIMUNIT
 70
     2
  9
$DIMDEC
 70
     2
  9
$DIMTDEC
 70
     2
  9
$DIMALTU
 70
     2
  9
$DIMALTTD
 70
     3
  9
$DIMTXSTY
  7
STANDARD
  9
$DIMAUNIT
 70
     0
  9
$LUNITS
 70
     2
  9
$LUPREC
 70
     4
  9
$SKETCHINC
 40
1.0
  9
$FILLETRAD
 40
10.0
  9
$AUNITS
 70
     0
  9
$AUPREC
 70
     0
  9
$MENU
  1
.
  9
$ELEVATION
 40
0.0
  9
$PELEVATION
 40
0.0
  9
$THICKNESS
 40
0.0
  9
$LIMCHECK
 70
     0
  9
$CHAMFERA
 40
0.0
  9
$CHAMFERB
 40
0.0
  9
$CHAMFERC
 40
0.0
  9
$CHAMFERD
 40
0.0
  9
$SKPOLY
 70
     0
  9
$TDCREATE
 40
2459229.333584445
  9
$TDUPDATE
 40
2459229.333585868
  9
$TDINDWG
 40
0.0000000116
  9
$TDUSRTIMER
 40
0.0000000116
  9
$USRTIMER
 70
     1
  9
$ANGBASE
 50
0.0
  9
$ANGDIR
 70
     0
  9
$PDMODE
 70
     0
  9
$PDSIZE
 40
0.0
  9
$PLINEWID
 40
0.0
  9
$COORDS
 70
     1
  9
$SPLFRAME
 70
     0
  9
$SPLINETYPE
 70
     6
  9
$SPLINESEGS
 70
     8
  9
$ATTDIA
 70
     0
  9
$ATTREQ
 70
     1
  9
$HANDLING
 70
     1
  9
$HANDSEED
  5
6EB
  9
$SURFTAB1
 70
     6
  9
$SURFTAB2
 70
     6
  9
$SURFTYPE
 70
     6
  9
$SURFU
 70
     6
  9
$SURFV
 70
     6
  9
$UCSNAME
  2

  9
$UCSORG
 10
0.0
 20
0.0
 30
0.0
  9
$UCSXDIR
 10
1.0
 20
0.0
 30
0.0
  9
$UCSYDIR
 10
0.0
 20
1.0
 30
0.0
  9
$PUCSNAME
  2

  9
$PUCSORG
 10
0.0
 20
0.0
 30
0.0
  9
$PUCSXDIR
 10
1.0
 20
0.0
 30
0.0
  9
$PUCSYDIR
 10
0.0
 20
1.0
 30
0.0
  9
$USERI1
 70
     0
  9
$USERI2
 70
     0
  9
$USERI3
 70
     0
  9
$USERI4
 70
     0
  9
$USERI5
 70
     0
  9
$USERR1
 40
0.0
  9
$USERR2
 40
0.0
  9
$USERR3
 40
0.0
  9
$USERR4
 40
0.0
  9
$USERR5
 40
0.0
  9
$WORLDVIEW
 70
     1
  9
$SHADEDGE
 70
     3
  9
$SHADEDIF
 70
    70
  9
$TILEMODE
 70
     1
  9
$MAXACTVP
 70
    64
  9
$PINSBASE
 10
0.0
 20
0.0
 30
0.0
  9
$PLIMCHECK
 70
     0
  9
$PEXTMIN
 10
1.000000000000000E+20
 20
1.000000000000000E+20
 30
1.000000000000000E+20
  9
$PEXTMAX
 10
-1.000000000000000E+20
 20
-1.000000000000000E+20
 30
-1.000000000000000E+20
  9
$PLIMMIN
 10
0.0
 20
0.0
  9
$PLIMMAX
 10
420.0
 20
297.0
  9
$UNITMODE
 70
     0
  9
$VISRETAIN
 70
     1
  9
$PLINEGEN
 70
     0
  9
$PSLTSCALE
 70
     1
  9
$TREEDEPTH
 70
  3020
  9
$PICKSTYLE
 70
     1
  9
$CMLSTYLE
  2
STANDARD
  9
$CMLJUST
 70
     0
  9
$CMLSCALE
 40
20.0
  9
$PROXYGRAPHICS
 70
     1
  9
$MEASUREMENT
 70
     1
  0
ENDSEC
  0
SECTION
  2
CLASSES
  0
CLASS
  1
ACDBDICTIONARYWDFLT
  2
AcDbDictionaryWithDefault
  3
ObjectDBX Classes
 90
        0
280
     0
281
     0
  0
CLASS
  1
VISUALSTYLE
  2
AcDbVisualStyle
  3
ObjectDBX Classes
 90
     4095
280
     0
281
     0
  0
CLASS
  1
MATERIAL
  2
AcDbMaterial
  3
ObjectDBX Classes
 90
     1153
280
     0
281
     0
  0
CLASS
  1
SCALE
  2
AcDbScale
  3
ObjectDBX Classes
 90
     1153
280
     0
281
     0
  0
CLASS
  1
TABLESTYLE
  2
AcDbTableStyle
  3
ObjectDBX Classes
 90
     4095
280
     0
281
     0
  0
CLASS
  1
MLEADERSTYLE
  2
AcDbMLeaderStyle
  3
ACDB_MLEADERSTYLE_CLASS
 90
     4095
280
     0
281
     0
  0
CLASS
  1
SUN
  2
AcDbSun
  3
SCENEOE
 90
     1153
280
     0
281
     0
  0
CLASS
  1
DICTIONARYVAR
  2
AcDbDictionaryVar
  3
ObjectDBX Classes
 90
        0
280
     0
281
     0
  0
CLASS
  1
XRECORD
  2
AcDbXrecord
  3
ObjectDBX Classes
 90
        0
280
     0
281
     0
  0
CLASS
  1
LWPOLYLINE
  2
AcDbPolyline
  3
ObjectDBX Classes
 90
        0
280
     0
281
     1
  0
CLASS
  1
HATCH
  2
AcDbHatch
  3
ObjectDBX Classes
 90
        0
280
     0
281
     1
  0
CLASS
  1
ACDBPLACEHOLDER
  2
AcDbPlaceHolder
  3
ObjectDBX Classes
 90
        0
280
     0
281
     0
  0
CLASS
  1
LAYOUT
  2
AcDbLayout
  3
ObjectDBX Classes
 90
        0
280
     0
281
     0
  0
ENDSEC
  0
SECTION
  2
TABLES
  0
TABLE
  2
VPORT
  5
8
102
{ACAD_XDICTIONARY
360
6E0
102
}
330
0
100
AcDbSymbolTable
 70
     1
  0
VPORT
  5
29
330
8
100
AcDbSymbolTableRecord
100
AcDbViewportTableRecord
  2
*ACTIVE
 70
     0
 10
0.0
 20
0.0
 11
1.0
 21
1.0
 12
1950.0
 22
1450.0
 13
0.0
 23
0.0
 14
10.0
 24
10.0
 15
10.0
 25
10.0
 16
0.0
 26
0.0
 36
1.0
 17
0.0
 27
0.0
 37
0.0
 40
2700.0
 41
1.407407407407408
 42
50.0
 43
0.0
 44
0.0
 50
0.0
 51
0.0
 71
     0
 72
  1000
 73
     1
 74
     3
 75
     0
 76
     0
 77
     0
 78
     0
  0
ENDTAB
  0
TABLE
  2
LTYPE
  5
5
330
0
100
AcDbSymbolTable
 70
     6
  0
LTYPE
  5
14
330
5
100
AcDbSymbolTableRecord
100
AcDbLinetypeTableRecord
  2
BYBLOCK
 70
     0
  3

 72
    65
 73
     0
 40
0.0
  0
LTYPE
  5
15
330
5
100
AcDbSymbolTableRecord
100
AcDbLinetypeTableRecord
  2
BYLAYER
 70
     0
  3

 72
    65
 73
     0
 40
0.0
  0
LTYPE
  5
16
330
5
100
AcDbSymbolTableRecord
100
AcDbLinetypeTableRecord
  2
CONTINUOUS
 70
     0
  3
Solid line
 72
    65
 73
     0
 40
0.0
  0
LTYPE
  5
6E
330
5
100
AcDbSymbolTableRecord
100
AcDbLinetypeTableRecord
  2
HIDDEN
 70
     0
  3
Hidden __ __ __ __ __ __ __ __ __ __ __ __ __ __
 72
    65
 73
     2
 40
9.524999999999999
 49
6.35
 74
     0
 49
-3.175
 74
     0
  0
LTYPE
  5
6F
330
5
100
AcDbSymbolTableRecord
100
AcDbLinetypeTableRecord
  2
CENTER
 70
     0
  3
Center ____ _ ____ _ ____ _ ____ _ ____ _ ____
 72
    65
 73
     4
 40
50.8
 49
31.75
 74
     0
 49
-6.35
 74
     0
 49
6.35
 74
     0
 49
-6.35
 74
     0
  0
LTYPE
  5
70
330
5
100
AcDbSymbolTableRecord
100
AcDbLinetypeTableRecord
  2
PHANTOM
 70
     0
  3
Phantom ______  __  __  ______  __  __  ______ 
 72
    65
 73
     6
 40
63.50000000000001
 49
31.75
 74
     0
 49
-6.35
 74
     0
 49
6.35
 74
     0
 49
-6.35
 74
     0
 49
6.35
 74
     0
 49
-6.35
 74
     0
  0
LTYPE
  5
71
330
5
100
AcDbSymbolTableRecord
100
AcDbLinetypeTableRecord
  2
ACAD_ISO06W100
 70
     0
  3
ISO long-dash triple-dot ____ ... ____ ... ____
 72
    65
 73
     8
 40
36.0
 49
24.0
 74
     0
 49
-3.0
 74
     0
 49
0.0
 74
     0
 49
-3.0
 74
     0
 49
0.0
 74
     0
 49
-3.0
 74
     0
 49
0.0
 74
     0
 49
-3.0
 74
     0
  0
LTYPE
  5
72
330
5
100
AcDbSymbolTableRecord
100
AcDbLinetypeTableRecord
  2
ACAD_ISO15W100
 70
     0
  3
ISO double-dash triple-dot __ __ . . . __ __ . .
 72
    65
 73
    10
 40
39.0
 49
12.0
 74
     0
 49
-3.0
 74
     0
 49
12.0
 74
     0
 49
-3.0
 74
     0
 49
0.0
 74
     0
 49
-3.0
 74
     0
 49
0.0
 74
     0
 49
-3.0
 74
     0
 49
0.0
 74
     0
 49
-3.0
 74
     0
  0
ENDTAB
  0
TABLE
  2
LAYER
  5
2
330
0
100
AcDbSymbolTable
 70
     6
  0
LAYER
  5
10
330
2
100
AcDbSymbolTableRecord
100
AcDbLayerTableRecord
  2
0
 70
     0
 62
     7
  6
CONTINUOUS
  0
LAYER
  5
75
330
2
100
AcDbSymbolTableRecord
100
AcDbLayerTableRecord
  2
LAY-10
 70
     0
 62
     7
  6
CONTINUOUS
  0
LAYER
  5
76
330
2
100
AcDbSymbolTableRecord
100
AcDbLayerTableRecord
  2
LAY-11
 70
     0
 62
     7
  6
CONTINUOUS
  0
LAYER
  5
77
330
2
100
AcDbSymbolTableRecord
100
AcDbLayerTableRecord
  2
LAY-20
 70
     0
 62
     7
  6
CONTINUOUS
  0
LAYER
  5
78
330
2
100
AcDbSymbolTableRecord
100
AcDbLayerTableRecord
  2
LAY-255
 70
     0
 62
     7
  6
CONTINUOUS
  0
LAYER
  5
EF
330
2
100
AcDbSymbolTableRecord
100
AcDbLayerTableRecord
  2
DEFPOINTS
 70
     0
 62
     7
  6
CONTINUOUS
  0
ENDTAB
  0
TABLE
  2
STYLE
  5
3
330
0
100
AcDbSymbolTable
 70
     4
  0
STYLE
  5
11
330
3
100
AcDbSymbolTableRecord
100
AcDbTextStyleTableRecord
  2
STANDARD
 70
     0
 40
0.0
 41
1.0
 50
0.0
 71
     0
 42
2.5
  3
simplex
  4
bigfont
  0
STYLE
  5
73
330
3
100
AcDbSymbolTableRecord
100
AcDbTextStyleTableRecord
  2
EXCADSTD
 70
     0
 40
0.0
 41
1.0
 50
0.0
 71
     0
 42
2.5
  3
simplex
  4
bigfont
  0
STYLE
  5
74
330
3
100
AcDbSymbolTableRecord
100
AcDbTextStyleTableRecord
  2
EXCADVERT
 70
     4
 40
0.0
 41
1.0
 50
0.0
 71
     0
 42
2.5
  3
simplex
  4
bigfont
  0
STYLE
  5
ED
330
3
100
AcDbSymbolTableRecord
100
AcDbTextStyleTableRecord
  2
EXCADDIM1
 70
     0
 40
0.0
 41
0.84
 50
0.0
 71
     0
 42
2.5
  3
simplex
  4
bigfont
  0
ENDTAB
  0
TABLE
  2
VIEW
  5
6
330
0
100
AcDbSymbolTable
 70
     0
  0
ENDTAB
  0
TABLE
  2
UCS
  5
7
330
0
100
AcDbSymbolTable
 70
     0
  0
ENDTAB
  0
TABLE
  2
APPID
  5
9
330
0
100
AcDbSymbolTable
 70
     2
  0
APPID
  5
12
330
9
100
AcDbSymbolTableRecord
100
AcDbRegAppTableRecord
  2
ACAD
 70
     0
  0
APPID
  5
6EA
330
9
100
AcDbSymbolTableRecord
100
AcDbRegAppTableRecord
  2
ACAD_MLEADERVER
 70
     0
  0
ENDTAB
  0
TABLE
  2
DIMSTYLE
  5
A
330
0
100
AcDbSymbolTable
 70
     1
  0
DIMSTYLE
105
27
102
{ACAD_REACTORS
330
EE
330
FC
330
109
330
116
330
143
330
150
330
15D
330
680
102
}
330
A
100
AcDbSymbolTableRecord
100
AcDbDimStyleTableRecord
  2
ISO-25
 70
     0
  3

  4

  5

  6

  7

 40
1.0
 41
2.5
 42
0.625
 43
3.75
 44
1.25
 45
0.0
 46
0.0
 47
0.0
 48
0.0
140
2.5
141
2.5
142
0.0
143
0.03937007874016
144
1.0
145
0.0
146
1.0
147
0.625
 71
     0
 72
     0
 73
     0
 74
     0
 75
     0
 76
     0
 77
     1
 78
     8
170
     0
171
     3
172
     1
173
     0
174
     0
175
     0
176
     0
177
     0
178
     0
270
     2
271
     2
272
     2
273
     2
274
     3
340
11
275
     0
280
     0
281
     0
282
     0
283
     0
284
     8
285
     0
286
     0
287
     5
288
     0
  0
ENDTAB
  0
TABLE
  2
BLOCK_RECORD
  5
1
330
0
100
AcDbSymbolTable
 70
    24
  0
BLOCK_RECORD
  5
1F
330
1
100
AcDbSymbolTableRecord
100
AcDbBlockTableRecord
  2
*MODEL_SPACE
  0
BLOCK_RECORD
  5
1B
330
1
100
AcDbSymbolTableRecord
100
AcDbBlockTableRecord
  2
*PAPER_SPACE
  0
BLOCK_RECORD
  5
79
330
1
100
AcDbSymbolTableRecord
100
AcDbBlockTableRecord
  2
EX_NORM
  0
BLOCK_RECORD
  5
7C
330
1
100
AcDbSymbolTableRecord
100
AcDbBlockTableRecord
  2
EX_BNORM
  0
BLOCK_RECORD
  5
7F
330
1
100
AcDbSymbolTableRecord
100
AcDbBlockTableRecord
  2
EX_BCIR
  0
BLOCK_RECORD
  5
82
330
1
100
AcDbSymbolTableRecord
100
AcDbBlockTableRecord
  2
EX_RCIVIL
  0
BLOCK_RECORD
  5
85
330
1
100
AcDbSymbolTableRecord
100
AcDbBlockTableRecord
  2
EX_SLANT
  0
BLOCK_RECORD
  5
88
330
1
100
AcDbSymbolTableRecord
100
AcDbBlockTableRecord
  2
EX_NONE
  0
BLOCK_RECORD
  5
8B
330
1
100
AcDbSymbolTableRecord
100
AcDbBlockTableRecord
  2
EX_CIVIL
  0
BLOCK_RECORD
  5
8E
330
1
100
AcDbSymbolTableRecord
100
AcDbBlockTableRecord
  2
EX_WCIR
  0
BLOCK_RECORD
  5
91
330
1
100
AcDbSymbolTableRecord
100
AcDbBlockTableRecord
  2
EX_WCIR2
  0
BLOCK_RECORD
  5
94
330
1
100
AcDbSymbolTableRecord
100
AcDbBlockTableRecord
  2
EX_WNORM
  0
BLOCK_RECORD
  5
97
330
1
100
AcDbSymbolTableRecord
100
AcDbBlockTableRecord
  2
EX_NNORM
  0
BLOCK_RECORD
  5
9A
330
1
100
AcDbSymbolTableRecord
100
AcDbBlockTableRecord
  2
EX_BBOX
  0
BLOCK_RECORD
  5
9D
330
1
100
AcDbSymbolTableRecord
100
AcDbBlockTableRecord
  2
EX_WBOX
  0
BLOCK_RECORD
  5
A0
330
1
100
AcDbSymbolTableRecord
100
AcDbBlockTableRecord
  2
EX_INTEGRAL
  0
BLOCK_RECORD
  5
A3
330
1
100
AcDbSymbolTableRecord
100
AcDbBlockTableRecord
  2
SYM-1
  0
BLOCK_RECORD
  5
A6
330
1
100
AcDbSymbolTableRecord
100
AcDbBlockTableRecord
  2
SYM-2
  0
BLOCK_RECORD
  5
F0
330
1
100
AcDbSymbolTableRecord
100
AcDbBlockTableRecord
  2
*D17
  0
BLOCK_RECORD
  5
FD
330
1
100
AcDbSymbolTableRecord
100
AcDbBlockTableRecord
  2
*D18
  0
BLOCK_RECORD
  5
10A
330
1
100
AcDbSymbolTableRecord
100
AcDbBlockTableRecord
  2
*D19
  0
BLOCK_RECORD
  5
117
330
1
100
AcDbSymbolTableRecord
100
AcDbBlockTableRecord
  2
*D20
  0
BLOCK_RECORD
  5
144
330
1
100
AcDbSymbolTableRecord
100
AcDbBlockTableRecord
  2
*D21
  0
BLOCK_RECORD
  5
151
330
1
100
AcDbSymbolTableRecord
100
AcDbBlockTableRecord
  2
*D22
  0
BLOCK_RECORD
  5
15E
330
1
100
AcDbSymbolTableRecord
100
AcDbBlockTableRecord
  2
*D23
  0
BLOCK_RECORD
  5
681
330
1
100
AcDbSymbolTableRecord
100
AcDbBlockTableRecord
  2
*D24
  0
ENDTAB
  0
ENDSEC
  0
SECTION
  2
BLOCKS
  0
BLOCK
  5
20
330
1F
100
AcDbEntity
  8
0
100
AcDbBlockBegin
  2
*MODEL_SPACE
 70
     0
 10
0.0
 20
0.0
 30
0.0
  3
*MODEL_SPACE
  1

  0
ENDBLK
  5
21
330
1F
100
AcDbEntity
  8
0
100
AcDbBlockEnd
  0
BLOCK
  5
1C
330
1B
100
AcDbEntity
 67
     1
  8
0
100
AcDbBlockBegin
  2
*PAPER_SPACE
 70
     0
 10
0.0
 20
0.0
 30
0.0
  3
*PAPER_SPACE
  1

  0
ENDBLK
  5
1D
330
1B
100
AcDbEntity
 67
     1
  8
0
100
AcDbBlockEnd
  0
BLOCK
  5
7A
330
79
100
AcDbEntity
  8
0
100
AcDbBlockBegin
  2
EX_NORM
 70
     0
 10
0.0
 20
0.0
 30
0.0
  3
EX_NORM
  1

  0
LINE
  5
A9
330
79
100
AcDbEntity
  8
0
  6
CONTINUOUS
 62
     0
100
AcDbLine
 10
0.0
 20
0.0
 30
0.0
 11
-1.0
 21
0.0
 31
0.0
  0
LINE
  5
AA
330
79
100
AcDbEntity
  8
0
  6
CONTINUOUS
 62
     0
100
AcDbLine
 10
0.0
 20
0.0
 30
0.0
 11
-1.0
 21
0.166666667
 31
0.0
  0
LINE
  5
AB
330
79
100
AcDbEntity
  8
0
  6
CONTINUOUS
 62
     0
100
AcDbLine
 10
0.0
 20
0.0
 30
0.0
 11
-1.0
 21
-0.166666667
 31
0.0
  0
ENDBLK
  5
7B
330
79
100
AcDbEntity
  8
0
100
AcDbBlockEnd
  0
BLOCK
  5
7D
330
7C
100
AcDbEntity
  8
0
100
AcDbBlockBegin
  2
EX_BNORM
 70
     0
 10
0.0
 20
0.0
 30
0.0
  3
EX_BNORM
  1

  0
LINE
  5
AC
330
7C
100
AcDbEntity
  8
0
  6
CONTINUOUS
 62
     0
100
AcDbLine
 10
0.0
 20
0.0
 30
0.0
 11
-1.0
 21
0.0
 31
0.0
  0
LINE
  5
AD
330
7C
100
AcDbEntity
  8
0
  6
CONTINUOUS
 62
     0
100
AcDbLine
 10
0.0
 20
0.0
 30
0.0
 11
-1.0
 21
0.166666667
 31
0.0
  0
LINE
  5
AE
330
7C
100
AcDbEntity
  8
0
  6
CONTINUOUS
 62
     0
100
AcDbLine
 10
0.0
 20
0.0
 30
0.0
 11
-1.0
 21
-0.166666667
 31
0.0
  0
LINE
  5
AF
330
7C
100
AcDbEntity
  8
0
  6
CONTINUOUS
 62
     0
100
AcDbLine
 10
0.0
 20
0.0
 30
0.0
 11
-1.0
 21
0.083333333
 31
0.0
  0
LINE
  5
B0
330
7C
100
AcDbEntity
  8
0
  6
CONTINUOUS
 62
     0
100
AcDbLine
 10
0.0
 20
0.0
 30
0.0
 11
-1.0
 21
-0.083333333
 31
0.0
  0
LINE
  5
B1
330
7C
100
AcDbEntity
  8
0
  6
CONTINUOUS
 62
     0
100
AcDbLine
 10
-1.0
 20
0.166666667
 30
0.0
 11
-1.0
 21
-0.166666667
 31
0.0
  0
ENDBLK
  5
7E
330
7C
100
AcDbEntity
  8
0
100
AcDbBlockEnd
  0
BLOCK
  5
80
330
7F
100
AcDbEntity
  8
0
100
AcDbBlockBegin
  2
EX_BCIR
 70
     0
 10
0.0
 20
0.0
 30
0.0
  3
EX_BCIR
  1

  0
LINE
  5
B2
330
7F
100
AcDbEntity
  8
0
  6
CONTINUOUS
 62
     0
100
AcDbLine
 10
0.0
 20
0.0
 30
0.0
 11
-1.0
 21
0.0
 31
0.0
  0
CIRCLE
  5
B3
330
7F
100
AcDbEntity
  8
0
  6
CONTINUOUS
 62
     0
100
AcDbCircle
 10
0.0
 20
0.0
 30
0.0
 40
0.5
  0
CIRCLE
  5
B4
330
7F
100
AcDbEntity
  8
0
  6
CONTINUOUS
 62
     0
100
AcDbCircle
 10
0.0
 20
0.0
 30
0.0
 40
0.25
  0
ENDBLK
  5
81
330
7F
100
AcDbEntity
  8
0
100
AcDbBlockEnd
  0
BLOCK
  5
83
330
82
100
AcDbEntity
  8
0
100
AcDbBlockBegin
  2
EX_RCIVIL
 70
     0
 10
0.0
 20
0.0
 30
0.0
  3
EX_RCIVIL
  1

  0
LINE
  5
B5
330
82
100
AcDbEntity
  8
0
  6
CONTINUOUS
 62
     0
100
AcDbLine
 10
0.0
 20
0.0
 30
0.0
 11
-1.0
 21
0.0
 31
0.0
  0
LINE
  5
B6
330
82
100
AcDbEntity
  8
0
  6
CONTINUOUS
 62
     0
100
AcDbLine
 10
-1.0
 20
-0.25
 30
0.0
 11
0.0
 21
-0.25
 31
0.0
  0
LINE
  5
B7
330
82
100
AcDbEntity
  8
0
  6
CONTINUOUS
 62
     0
100
AcDbLine
 10
-1.0
 20
-0.125
 30
0.0
 11
0.0
 21
-0.125
 31
0.0
  0
ENDBLK
  5
84
330
82
100
AcDbEntity
  8
0
100
AcDbBlockEnd
  0
BLOCK
  5
86
330
85
100
AcDbEntity
  8
0
100
AcDbBlockBegin
  2
EX_SLANT
 70
     0
 10
0.0
 20
0.0
 30
0.0
  3
EX_SLANT
  1

  0
LINE
  5
B8
330
85
100
AcDbEntity
  8
0
  6
CONTINUOUS
 62
     0
100
AcDbLine
 10
0.0
 20
0.0
 30
0.0
 11
-1.0
 21
0.0
 31
0.0
  0
LINE
  5
B9
330
85
100
AcDbEntity
  8
0
  6
CONTINUOUS
 62
     0
100
AcDbLine
 10
0.707106781
 20
0.707106781
 30
0.0
 11
-0.707106781
 21
-0.707106781
 31
0.0
  0
ENDBLK
  5
87
330
85
100
AcDbEntity
  8
0
100
AcDbBlockEnd
  0
BLOCK
  5
89
330
88
100
AcDbEntity
  8
0
100
AcDbBlockBegin
  2
EX_NONE
 70
     0
 10
0.0
 20
0.0
 30
0.0
  3
EX_NONE
  1

  0
LINE
  5
BA
330
88
100
AcDbEntity
  8
0
  6
CONTINUOUS
 62
     0
100
AcDbLine
 10
0.0
 20
0.0
 30
0.0
 11
-1.0
 21
0.0
 31
0.0
  0
ENDBLK
  5
8A
330
88
100
AcDbEntity
  8
0
100
AcDbBlockEnd
  0
BLOCK
  5
8C
330
8B
100
AcDbEntity
  8
0
100
AcDbBlockBegin
  2
EX_CIVIL
 70
     0
 10
0.0
 20
0.0
 30
0.0
  3
EX_CIVIL
  1

  0
LINE
  5
BB
330
8B
100
AcDbEntity
  8
0
  6
CONTINUOUS
 62
     0
100
AcDbLine
 10
0.0
 20
0.0
 30
0.0
 11
-1.0
 21
0.0
 31
0.0
  0
LINE
  5
BC
330
8B
100
AcDbEntity
  8
0
  6
CONTINUOUS
 62
     0
100
AcDbLine
 10
-1.0
 20
0.25
 30
0.0
 11
0.0
 21
0.25
 31
0.0
  0
LINE
  5
BD
330
8B
100
AcDbEntity
  8
0
  6
CONTINUOUS
 62
     0
100
AcDbLine
 10
-1.0
 20
0.125
 30
0.0
 11
0.0
 21
0.125
 31
0.0
  0
ENDBLK
  5
8D
330
8B
100
AcDbEntity
  8
0
100
AcDbBlockEnd
  0
BLOCK
  5
8F
330
8E
100
AcDbEntity
  8
0
100
AcDbBlockBegin
  2
EX_WCIR
 70
     0
 10
0.0
 20
0.0
 30
0.0
  3
EX_WCIR
  1

  0
LINE
  5
BE
330
8E
100
AcDbEntity
  8
0
  6
CONTINUOUS
 62
     0
100
AcDbLine
 10
0.0
 20
0.0
 30
0.0
 11
-1.0
 21
0.0
 31
0.0
  0
CIRCLE
  5
BF
330
8E
100
AcDbEntity
  8
0
  6
CONTINUOUS
 62
     0
100
AcDbCircle
 10
0.0
 20
0.0
 30
0.0
 40
0.5
  0
ENDBLK
  5
90
330
8E
100
AcDbEntity
  8
0
100
AcDbBlockEnd
  0
BLOCK
  5
92
330
91
100
AcDbEntity
  8
0
100
AcDbBlockBegin
  2
EX_WCIR2
 70
     0
 10
0.0
 20
0.0
 30
0.0
  3
EX_WCIR2
  1

  0
LINE
  5
C0
330
91
100
AcDbEntity
  8
0
  6
CONTINUOUS
 62
     0
100
AcDbLine
 10
-0.5
 20
0.0
 30
0.0
 11
-1.0
 21
0.0
 31
0.0
  0
CIRCLE
  5
C1
330
91
100
AcDbEntity
  8
0
  6
CONTINUOUS
 62
     0
100
AcDbCircle
 10
0.0
 20
0.0
 30
0.0
 40
0.5
  0
ENDBLK
  5
93
330
91
100
AcDbEntity
  8
0
100
AcDbBlockEnd
  0
BLOCK
  5
95
330
94
100
AcDbEntity
  8
0
100
AcDbBlockBegin
  2
EX_WNORM
 70
     0
 10
0.0
 20
0.0
 30
0.0
  3
EX_WNORM
  1

  0
LINE
  5
C2
330
94
100
AcDbEntity
  8
0
  6
CONTINUOUS
 62
     0
100
AcDbLine
 10
-1.0
 20
0.0
 30
0.0
 11
-1.0
 21
0.0
 31
0.0
  0
LINE
  5
C3
330
94
100
AcDbEntity
  8
0
  6
CONTINUOUS
 62
     0
100
AcDbLine
 10
0.0
 20
0.0
 30
0.0
 11
-1.0
 21
0.166666667
 31
0.0
  0
LINE
  5
C4
330
94
100
AcDbEntity
  8
0
  6
CONTINUOUS
 62
     0
100
AcDbLine
 10
0.0
 20
0.0
 30
0.0
 11
-1.0
 21
-0.166666667
 31
0.0
  0
LINE
  5
C5
330
94
100
AcDbEntity
  8
0
  6
CONTINUOUS
 62
     0
100
AcDbLine
 10
-1.0
 20
0.166666667
 30
0.0
 11
-1.0
 21
-0.166666667
 31
0.0
  0
ENDBLK
  5
96
330
94
100
AcDbEntity
  8
0
100
AcDbBlockEnd
  0
BLOCK
  5
98
330
97
100
AcDbEntity
  8
0
100
AcDbBlockBegin
  2
EX_NNORM
 70
     0
 10
0.0
 20
0.0
 30
0.0
  3
EX_NNORM
  1

  0
LINE
  5
C6
330
97
100
AcDbEntity
  8
0
  6
CONTINUOUS
 62
     0
100
AcDbLine
 10
0.0
 20
0.0
 30
0.0
 11
-1.0
 21
0.0
 31
0.0
  0
LINE
  5
C7
330
97
100
AcDbEntity
  8
0
  6
CONTINUOUS
 62
     0
100
AcDbLine
 10
0.0
 20
0.0
 30
0.0
 11
-1.0
 21
0.166666667
 31
0.0
  0
LINE
  5
C8
330
97
100
AcDbEntity
  8
0
  6
CONTINUOUS
 62
     0
100
AcDbLine
 10
0.0
 20
0.0
 30
0.0
 11
-1.0
 21
-0.166666667
 31
0.0
  0
LINE
  5
C9
330
97
100
AcDbEntity
  8
0
  6
CONTINUOUS
 62
     0
100
AcDbLine
 10
-1.0
 20
0.166666667
 30
0.0
 11
-1.0
 21
-0.166666667
 31
0.0
  0
ENDBLK
  5
99
330
97
100
AcDbEntity
  8
0
100
AcDbBlockEnd
  0
BLOCK
  5
9B
330
9A
100
AcDbEntity
  8
0
100
AcDbBlockBegin
  2
EX_BBOX
 70
     0
 10
0.0
 20
0.0
 30
0.0
  3
EX_BBOX
  1

  0
LINE
  5
CA
330
9A
100
AcDbEntity
  8
0
  6
CONTINUOUS
 62
     0
100
AcDbLine
 10
0.0
 20
0.0
 30
0.0
 11
-1.0
 21
0.0
 31
0.0
  0
LINE
  5
CB
330
9A
100
AcDbEntity
  8
0
  6
CONTINUOUS
 62
     0
100
AcDbLine
 10
-0.5
 20
0.5
 30
0.0
 11
0.5
 21
0.5
 31
0.0
  0
LINE
  5
CC
330
9A
100
AcDbEntity
  8
0
  6
CONTINUOUS
 62
     0
100
AcDbLine
 10
0.5
 20
0.5
 30
0.0
 11
0.5
 21
-0.5
 31
0.0
  0
LINE
  5
CD
330
9A
100
AcDbEntity
  8
0
  6
CONTINUOUS
 62
     0
100
AcDbLine
 10
0.5
 20
-0.5
 30
0.0
 11
-0.5
 21
-0.5
 31
0.0
  0
LINE
  5
CE
330
9A
100
AcDbEntity
  8
0
  6
CONTINUOUS
 62
     0
100
AcDbLine
 10
-0.5
 20
-0.5
 30
0.0
 11
-0.5
 21
0.5
 31
0.0
  0
LINE
  5
CF
330
9A
100
AcDbEntity
  8
0
  6
CONTINUOUS
 62
     0
100
AcDbLine
 10
-0.25
 20
0.25
 30
0.0
 11
0.25
 21
0.25
 31
0.0
  0
LINE
  5
D0
330
9A
100
AcDbEntity
  8
0
  6
CONTINUOUS
 62
     0
100
AcDbLine
 10
0.25
 20
0.25
 30
0.0
 11
0.25
 21
-0.25
 31
0.0
  0
LINE
  5
D1
330
9A
100
AcDbEntity
  8
0
  6
CONTINUOUS
 62
     0
100
AcDbLine
 10
0.25
 20
-0.25
 30
0.0
 11
-0.25
 21
-0.25
 31
0.0
  0
LINE
  5
D2
330
9A
100
AcDbEntity
  8
0
  6
CONTINUOUS
 62
     0
100
AcDbLine
 10
-0.25
 20
-0.25
 30
0.0
 11
-0.25
 21
0.25
 31
0.0
  0
ENDBLK
  5
9C
330
9A
100
AcDbEntity
  8
0
100
AcDbBlockEnd
  0
BLOCK
  5
9E
330
9D
100
AcDbEntity
  8
0
100
AcDbBlockBegin
  2
EX_WBOX
 70
     0
 10
0.0
 20
0.0
 30
0.0
  3
EX_WBOX
  1

  0
LINE
  5
D3
330
9D
100
AcDbEntity
  8
0
  6
CONTINUOUS
 62
     0
100
AcDbLine
 10
-0.5
 20
0.0
 30
0.0
 11
-1.0
 21
0.0
 31
0.0
  0
LINE
  5
D4
330
9D
100
AcDbEntity
  8
0
  6
CONTINUOUS
 62
     0
100
AcDbLine
 10
-0.5
 20
0.5
 30
0.0
 11
0.5
 21
0.5
 31
0.0
  0
LINE
  5
D5
330
9D
100
AcDbEntity
  8
0
  6
CONTINUOUS
 62
     0
100
AcDbLine
 10
0.5
 20
0.5
 30
0.0
 11
0.5
 21
-0.5
 31
0.0
  0
LINE
  5
D6
330
9D
100
AcDbEntity
  8
0
  6
CONTINUOUS
 62
     0
100
AcDbLine
 10
0.5
 20
-0.5
 30
0.0
 11
-0.5
 21
-0.5
 31
0.0
  0
LINE
  5
D7
330
9D
100
AcDbEntity
  8
0
  6
CONTINUOUS
 62
     0
100
AcDbLine
 10
-0.5
 20
-0.5
 30
0.0
 11
-0.5
 21
0.5
 31
0.0
  0
ENDBLK
  5
9F
330
9D
100
AcDbEntity
  8
0
100
AcDbBlockEnd
  0
BLOCK
  5
A1
330
A0
100
AcDbEntity
  8
0
100
AcDbBlockBegin
  2
EX_INTEGRAL
 70
     0
 10
0.0
 20
0.0
 30
0.0
  3
EX_INTEGRAL
  1

  0
LINE
  5
D8
330
A0
100
AcDbEntity
  8
0
  6
CONTINUOUS
 62
     0
100
AcDbLine
 10
0.0
 20
0.0
 30
0.0
 11
-1.0
 21
0.0
 31
0.0
  0
ARC
  5
D9
330
A0
100
AcDbEntity
  8
0
  6
CONTINUOUS
 62
     0
100
AcDbCircle
 10
0.542115
 20
0.164992
 30
0.0
 40
0.56667
100
AcDbArc
 50
73.07249033629006
 51
196.9275130221199
  0
ARC
  5
DA
330
A0
100
AcDbEntity
  8
0
  6
CONTINUOUS
 62
     0
100
AcDbCircle
 10
-0.542115
 20
-0.164992
 30
0.0
 40
0.56667
100
AcDbArc
 50
253.0724869220464
 51
16.9275130559125
  0
ENDBLK
  5
A2
330
A0
100
AcDbEntity
  8
0
100
AcDbBlockEnd
  0
BLOCK
  5
A4
330
A3
100
AcDbEntity
  8
0
100
AcDbBlockBegin
  2
SYM-1
 70
     0
 10
0.0
 20
0.0
 30
0.0
  3
SYM-1
  1

  0
ARC
  5
DB
330
A3
100
AcDbEntity
  8
0
  6
CONTINUOUS
 62
     7
100
AcDbCircle
 10
2005.056060528285
 20
2116.500000000086
 30
0.0
 40
29.6409090909091
100
AcDbArc
 50
344.3418469798809
 51
15.65815302011909
  0
LINE
  5
DC
330
A3
100
AcDbEntity
  8
0
  6
CONTINUOUS
 62
     7
100
AcDbLine
 10
2033.596969619194
 20
2124.500000000087
 30
0.0
 11
2024.696969619195
 21
2124.500000000087
 31
0.0
  0
LINE
  5
DD
330
A3
100
AcDbEntity
  8
0
  6
CONTINUOUS
 62
     7
100
AcDbLine
 10
2033.596969619194
 20
2108.500000000087
 30
0.0
 11
2024.696969619195
 21
2108.500000000087
 31
0.0
  0
LINE
  5
DE
330
A3
100
AcDbEntity
  8
0
  6
CONTINUOUS
 62
     7
100
AcDbLine
 10
2024.696969619195
 20
2102.650000000087
 30
0.0
 11
2033.596969619194
 21
2102.650000000087
 31
0.0
  0
ARC
  5
DF
330
A3
100
AcDbEntity
  8
0
  6
CONTINUOUS
 62
     7
100
AcDbCircle
 10
2030.258049164648
 20
2105.575000000088
 30
0.0
 40
4.438920454545305
100
AcDbArc
 50
318.7806141249314
 51
41.21938587506865
  0
LINE
  5
E0
330
A3
100
AcDbEntity
  8
0
  6
CONTINUOUS
 62
     7
100
AcDbLine
 10
2024.696969619195
 20
2130.350000000088
 30
0.0
 11
2033.596969619194
 21
2130.350000000088
 31
0.0
  0
ARC
  5
E1
330
A3
100
AcDbEntity
  8
0
  6
CONTINUOUS
 62
     7
100
AcDbCircle
 10
2030.258049164648
 20
2127.425000000087
 30
0.0
 40
4.438920454545305
100
AcDbArc
 50
318.7806141249314
 51
41.21938587506865
  0
LINE
  5
E2
330
A3
100
AcDbEntity
  8
0
  6
CONTINUOUS
 62
     7
100
AcDbLine
 10
2034.696969619192
 20
2127.425000000087
 30
0.0
 11
2034.696969619192
 21
2105.575000000088
 31
0.0
  0
ENDBLK
  5
A5
330
A3
100
AcDbEntity
  8
0
100
AcDbBlockEnd
  0
BLOCK
  5
A7
330
A6
100
AcDbEntity
  8
0
100
AcDbBlockBegin
  2
SYM-2
 70
     0
 10
0.0
 20
0.0
 30
0.0
  3
SYM-2
  1

  0
ARC
  5
E3
330
A6
100
AcDbEntity
  8
0
  6
CONTINUOUS
 62
     7
100
AcDbCircle
 10
2005.056060528287
 20
1242.500000000062
 30
0.0
 40
29.6409090909091
100
AcDbArc
 50
344.341846979881
 51
15.65815302011909
  0
LINE
  5
E4
330
A6
100
AcDbEntity
  8
0
  6
CONTINUOUS
 62
     7
100
AcDbLine
 10
2033.596969619196
 20
1234.500000000062
 30
0.0
 11
2024.696969619197
 21
1234.500000000062
 31
0.0
  0
LINE
  5
E5
330
A6
100
AcDbEntity
  8
0
  6
CONTINUOUS
 62
     7
100
AcDbLine
 10
2033.596969619196
 20
1250.500000000061
 30
0.0
 11
2024.696969619197
 21
1250.500000000061
 31
0.0
  0
LINE
  5
E6
330
A6
100
AcDbEntity
  8
0
  6
CONTINUOUS
 62
     7
100
AcDbLine
 10
2024.696969619197
 20
1256.350000000062
 30
0.0
 11
2033.596969619196
 21
1256.350000000062
 31
0.0
  0
ARC
  5
E7
330
A6
100
AcDbEntity
  8
0
  6
CONTINUOUS
 62
     7
100
AcDbCircle
 10
2030.258049164652
 20
1253.425000000061
 30
0.0
 40
4.438920454545305
100
AcDbArc
 50
318.7806141249314
 51
41.21938587506865
  0
LINE
  5
E8
330
A6
100
AcDbEntity
  8
0
  6
CONTINUOUS
 62
     7
100
AcDbLine
 10
2024.696969619197
 20
1228.650000000061
 30
0.0
 11
2033.596969619196
 21
1228.650000000061
 31
0.0
  0
ARC
  5
E9
330
A6
100
AcDbEntity
  8
0
  6
CONTINUOUS
 62
     7
100
AcDbCircle
 10
2030.258049164652
 20
1231.575000000063
 30
0.0
 40
4.438920454545305
100
AcDbArc
 50
318.7806141249314
 51
41.21938587506865
  0
LINE
  5
EA
330
A6
100
AcDbEntity
  8
0
  6
CONTINUOUS
 62
     7
100
AcDbLine
 10
2034.696969619196
 20
1231.575000000063
 30
0.0
 11
2034.696969619196
 21
1253.425000000061
 31
0.0
  0
ENDBLK
  5
A8
330
A6
100
AcDbEntity
  8
0
100
AcDbBlockEnd
  0
BLOCK
  5
F1
330
F0
100
AcDbEntity
  8
0
100
AcDbBlockBegin
  2
*D17
 70
     1
 10
0.0
 20
0.0
 30
0.0
  3
*D17
  1

  0
LINE
  5
F3
330
F0
100
AcDbEntity
  8
LAY-10
  6
CONTINUOUS
 62
     4
100
AcDbLine
 10
1548.101515189799
 20
802.0792929682798
 30
0.0
 11
1548.101515189799
 21
967.0792929683014
 31
0.0
  0
LINE
  5
F4
330
F0
100
AcDbEntity
  8
LAY-10
  6
CONTINUOUS
 62
     4
100
AcDbLine
 10
738.1015151898084
 20
802.0792929682807
 30
0.0
 11
738.1015151898084
 21
967.0792929683014
 31
0.0
  0
LINE
  5
F5
330
F0
100
AcDbEntity
  8
LAY-10
  6
CONTINUOUS
 62
     4
100
AcDbLine
 10
1523.101515189799
 20
952.0792929683014
 30
0.0
 11
763.1015151898084
 21
952.0792929683014
 31
0.0
  0
INSERT
  5
F6
330
F0
100
AcDbEntity
  8
LAY-10
 62
     4
100
AcDbBlockReference
  2
EX_BNORM
 10
1548.101515189799
 20
952.0792929683014
 30
0.0
 41
25.0
 42
25.0
 43
25.0
  0
INSERT
  5
F7
330
F0
100
AcDbEntity
  8
LAY-10
 62
     4
100
AcDbBlockReference
  2
EX_BNORM
 10
738.1015151898084
 20
952.0792929683014
 30
0.0
 41
25.0
 42
25.0
 43
25.0
 50
180.0
  0
MTEXT
  5
F8
330
F0
100
AcDbEntity
  8
LAY-10
 62
     7
100
AcDbMText
 10
1143.101515189805
 20
977.0792929683003
 30
0.0
 40
31.181104
 41
0.0
 71
     5
 72
     1
  1
810
  7
EXCADDIM1
  0
POINT
  5
F9
330
F0
100
AcDbEntity
  8
DEFPOINTS
 62
     0
100
AcDbPoint
 10
1548.101515189799
 20
787.0792929682798
 30
0.0
  0
POINT
  5
FA
330
F0
100
AcDbEntity
  8
DEFPOINTS
 62
     0
100
AcDbPoint
 10
738.1015151898084
 20
787.0792929682807
 30
0.0
  0
POINT
  5
FB
330
F0
100
AcDbEntity
  8
DEFPOINTS
 62
     0
100
AcDbPoint
 10
738.1015151898084
 20
952.0792929683014
 30
0.0
  0
ENDBLK
  5
F2
330
F0
100
AcDbEntity
  8
0
100
AcDbBlockEnd
  0
BLOCK
  5
FE
330
FD
100
AcDbEntity
  8
0
100
AcDbBlockBegin
  2
*D18
 70
     1
 10
0.0
 20
0.0
 30
0.0
  3
*D18
  1

  0
LINE
  5
100
330
FD
100
AcDbEntity
  8
LAY-10
  6
CONTINUOUS
 62
     4
100
AcDbLine
 10
746.1015151898098
 20
802.0792929682507
 30
0.0
 11
746.1015151898098
 21
897.0792929682484
 31
0.0
  0
LINE
  5
101
330
FD
100
AcDbEntity
  8
LAY-10
  6
CONTINUOUS
 62
     4
100
AcDbLine
 10
1142.10151518982
 20
802.0792929682543
 30
0.0
 11
1142.10151518982
 21
897.0792929682484
 31
0.0
  0
LINE
  5
102
330
FD
100
AcDbEntity
  8
LAY-10
  6
CONTINUOUS
 62
     4
100
AcDbLine
 10
771.1015151898098
 20
882.0792929682484
 30
0.0
 11
1117.10151518982
 21
882.0792929682484
 31
0.0
  0
INSERT
  5
103
330
FD
100
AcDbEntity
  8
LAY-10
 62
     4
100
AcDbBlockReference
  2
EX_BNORM
 10
746.1015151898098
 20
882.0792929682484
 30
0.0
 41
25.0
 42
25.0
 43
25.0
 50
180.0
  0
INSERT
  5
104
330
FD
100
AcDbEntity
  8
LAY-10
 62
     4
100
AcDbBlockReference
  2
EX_BNORM
 10
1142.10151518982
 20
882.0792929682484
 30
0.0
 41
25.0
 42
25.0
 43
25.0
  0
MTEXT
  5
105
330
FD
100
AcDbEntity
  8
LAY-10
 62
     7
100
AcDbMText
 10
944.1015151897699
 20
907.0792929682646
 30
0.0
 40
31.181104
 41
0.0
 71
     5
 72
     1
  1
396
  7
EXCADDIM1
  0
POINT
  5
106
330
FD
100
AcDbEntity
  8
DEFPOINTS
 62
     0
100
AcDbPoint
 10
746.1015151898098
 20
787.0792929682507
 30
0.0
  0
POINT
  5
107
330
FD
100
AcDbEntity
  8
DEFPOINTS
 62
     0
100
AcDbPoint
 10
1142.10151518982
 20
787.0792929682543
 30
0.0
  0
POINT
  5
108
330
FD
100
AcDbEntity
  8
DEFPOINTS
 62
     0
100
AcDbPoint
 10
1142.10151518982
 20
882.0792929682484
 30
0.0
  0
ENDBLK
  5
FF
330
FD
100
AcDbEntity
  8
0
100
AcDbBlockEnd
  0
BLOCK
  5
10B
330
10A
100
AcDbEntity
  8
0
100
AcDbBlockBegin
  2
*D19
 70
     1
 10
0.0
 20
0.0
 30
0.0
  3
*D19
  1

  0
LINE
  5
10D
330
10A
100
AcDbEntity
  8
LAY-10
  6
CONTINUOUS
 62
     4
100
AcDbLine
 10
793.101515190119
 20
597.0792929682998
 30
0.0
 11
793.101515190119
 21
497.07929296828
 31
0.0
  0
LINE
  5
10E
330
10A
100
AcDbEntity
  8
LAY-10
  6
CONTINUOUS
 62
     4
100
AcDbLine
 10
1493.101515189701
 20
597.0792929682998
 30
0.0
 11
1493.101515189701
 21
497.07929296828
 31
0.0
  0
LINE
  5
10F
330
10A
100
AcDbEntity
  8
LAY-10
  6
CONTINUOUS
 62
     4
100
AcDbLine
 10
818.101515190119
 20
512.07929296828
 30
0.0
 11
1468.101515189701
 21
512.07929296828
 31
0.0
  0
INSERT
  5
110
330
10A
100
AcDbEntity
  8
LAY-10
 62
     4
100
AcDbBlockReference
  2
EX_BNORM
 10
793.101515190119
 20
512.07929296828
 30
0.0
 41
25.0
 42
25.0
 43
25.0
 50
180.0
  0
INSERT
  5
111
330
10A
100
AcDbEntity
  8
LAY-10
 62
     4
100
AcDbBlockReference
  2
EX_BNORM
 10
1493.101515189701
 20
512.07929296828
 30
0.0
 41
25.0
 42
25.0
 43
25.0
  0
MTEXT
  5
112
330
10A
100
AcDbEntity
  8
LAY-10
 62
     7
100
AcDbMText
 10
1143.10151518991
 20
537.07929296828
 30
0.0
 40
31.181104
 41
0.0
 71
     5
 72
     1
  1
700
  7
EXCADDIM1
  0
POINT
  5
113
330
10A
100
AcDbEntity
  8
DEFPOINTS
 62
     0
100
AcDbPoint
 10
793.101515190119
 20
612.0792929682998
 30
0.0
  0
POINT
  5
114
330
10A
100
AcDbEntity
  8
DEFPOINTS
 62
     0
100
AcDbPoint
 10
1493.101515189701
 20
612.0792929682998
 30
0.0
  0
POINT
  5
115
330
10A
100
AcDbEntity
  8
DEFPOINTS
 62
     0
100
AcDbPoint
 10
1493.101515189701
 20
512.07929296828
 30
0.0
  0
ENDBLK
  5
10C
330
10A
100
AcDbEntity
  8
0
100
AcDbBlockEnd
  0
BLOCK
  5
118
330
117
100
AcDbEntity
  8
0
100
AcDbBlockBegin
  2
*D20
 70
     1
 10
0.0
 20
0.0
 30
0.0
  3
*D20
  1

  0
LINE
  5
11A
330
117
100
AcDbEntity
  8
LAY-10
  6
CONTINUOUS
 62
     4
100
AcDbLine
 10
1554.101515189805
 20
612.0792929683007
 30
0.0
 11
1706.456854249097
 21
612.0792929683007
 31
0.0
  0
LINE
  5
11B
330
117
100
AcDbEntity
  8
LAY-10
  6
CONTINUOUS
 62
     4
100
AcDbLine
 10
1563.101515189799
 20
782.0792929682998
 30
0.0
 11
1706.456854249097
 21
782.0792929682998
 31
0.0
  0
LINE
  5
11C
330
117
100
AcDbEntity
  8
LAY-10
  6
CONTINUOUS
 62
     4
100
AcDbLine
 10
1691.456854249097
 20
637.0792929683007
 30
0.0
 11
1691.456854249097
 21
757.0792929682998
 31
0.0
  0
INSERT
  5
11D
330
117
100
AcDbEntity
  8
LAY-10
 62
     4
100
AcDbBlockReference
  2
EX_BNORM
 10
1691.456854249097
 20
612.0792929683007
 30
0.0
 41
25.0
 42
25.0
 43
25.0
 50
270.0
  0
INSERT
  5
11E
330
117
100
AcDbEntity
  8
LAY-10
 62
     4
100
AcDbBlockReference
  2
EX_BNORM
 10
1691.456854249097
 20
782.0792929682998
 30
0.0
 41
25.0
 42
25.0
 43
25.0
 50
90.0
  0
MTEXT
  5
11F
330
117
100
AcDbEntity
  8
LAY-10
 62
     7
100
AcDbMText
 10
1666.4568542491
 20
697.0792929682998
 30
0.0
 40
31.181104
 41
0.0
 71
     5
 72
     1
  1
170
  7
EXCADDIM1
 11
0.0
 21
1.0
 31
0.0
  0
POINT
  5
120
330
117
100
AcDbEntity
  8
DEFPOINTS
 62
     0
100
AcDbPoint
 10
1539.101515189805
 20
612.0792929683007
 30
0.0
  0
POINT
  5
121
330
117
100
AcDbEntity
  8
DEFPOINTS
 62
     0
100
AcDbPoint
 10
1548.101515189799
 20
782.0792929682998
 30
0.0
  0
POINT
  5
122
330
117
100
AcDbEntity
  8
DEFPOINTS
 62
     0
100
AcDbPoint
 10
1691.456854249097
 20
782.0792929682998
 30
0.0
  0
ENDBLK
  5
119
330
117
100
AcDbEntity
  8
0
100
AcDbBlockEnd
  0
BLOCK
  5
145
330
144
100
AcDbEntity
  8
0
100
AcDbBlockBegin
  2
*D21
 70
     1
 10
0.0
 20
0.0
 30
0.0
  3
*D21
  1

  0
LINE
  5
147
330
144
100
AcDbEntity
  8
LAY-10
  6
CONTINUOUS
 62
     4
100
AcDbLine
 10
2147.6969696192
 20
1329.5000000001
 30
0.0
 11
2247.6969696192
 21
1329.5000000001
 31
0.0
  0
LINE
  5
148
330
144
100
AcDbEntity
  8
LAY-10
  6
CONTINUOUS
 62
     4
100
AcDbLine
 10
2147.6969696192
 20
2029.5000000001
 30
0.0
 11
2247.6969696192
 21
2029.5000000001
 31
0.0
  0
LINE
  5
149
330
144
100
AcDbEntity
  8
LAY-10
  6
CONTINUOUS
 62
     4
100
AcDbLine
 10
2232.6969696192
 20
1354.5000000001
 30
0.0
 11
2232.6969696192
 21
2004.5000000001
 31
0.0
  0
INSERT
  5
14A
330
144
100
AcDbEntity
  8
LAY-10
 62
     4
100
AcDbBlockReference
  2
EX_BNORM
 10
2232.6969696192
 20
1329.5000000001
 30
0.0
 41
25.0
 42
25.0
 43
25.0
 50
270.0
  0
INSERT
  5
14B
330
144
100
AcDbEntity
  8
LAY-10
 62
     4
100
AcDbBlockReference
  2
EX_BNORM
 10
2232.6969696192
 20
2029.5000000001
 30
0.0
 41
25.0
 42
25.0
 43
25.0
 50
90.0
  0
MTEXT
  5
14C
330
144
100
AcDbEntity
  8
LAY-10
 62
     7
100
AcDbMText
 10
2207.6969696192
 20
1679.5000000001
 30
0.0
 40
31.181104
 41
0.0
 71
     5
 72
     1
  1
700
  7
EXCADDIM1
 11
0.0
 21
1.0
 31
0.0
  0
POINT
  5
14D
330
144
100
AcDbEntity
  8
DEFPOINTS
 62
     0
100
AcDbPoint
 10
2132.6969696192
 20
1329.5000000001
 30
0.0
  0
POINT
  5
14E
330
144
100
AcDbEntity
  8
DEFPOINTS
 62
     0
100
AcDbPoint
 10
2132.6969696192
 20
2029.5000000001
 30
0.0
  0
POINT
  5
14F
330
144
100
AcDbEntity
  8
DEFPOINTS
 62
     0
100
AcDbPoint
 10
2232.6969696192
 20
2029.5000000001
 30
0.0
  0
ENDBLK
  5
146
330
144
100
AcDbEntity
  8
0
100
AcDbBlockEnd
  0
BLOCK
  5
152
330
151
100
AcDbEntity
  8
0
100
AcDbBlockBegin
  2
*D22
 70
     1
 10
0.0
 20
0.0
 30
0.0
  3
*D22
  1

  0
LINE
  5
154
330
151
100
AcDbEntity
  8
LAY-10
  6
CONTINUOUS
 62
     4
100
AcDbLine
 10
1947.696969619201
 20
1198.5
 30
0.0
 11
1777.6969696192
 21
1198.5
 31
0.0
  0
LINE
  5
155
330
151
100
AcDbEntity
  8
LAY-10
  6
CONTINUOUS
 62
     4
100
AcDbLine
 10
1947.696969619201
 20
2160.5000000003
 30
0.0
 11
1777.6969696192
 21
2160.5000000003
 31
0.0
  0
LINE
  5
156
330
151
100
AcDbEntity
  8
LAY-10
  6
CONTINUOUS
 62
     4
100
AcDbLine
 10
1792.6969696192
 20
1223.5
 30
0.0
 11
1792.6969696192
 21
2135.5000000003
 31
0.0
  0
INSERT
  5
157
330
151
100
AcDbEntity
  8
LAY-10
 62
     4
100
AcDbBlockReference
  2
EX_BNORM
 10
1792.6969696192
 20
1198.5
 30
0.0
 41
25.0
 42
25.0
 43
25.0
 50
270.0
  0
INSERT
  5
158
330
151
100
AcDbEntity
  8
LAY-10
 62
     4
100
AcDbBlockReference
  2
EX_BNORM
 10
1792.6969696192
 20
2160.5000000003
 30
0.0
 41
25.0
 42
25.0
 43
25.0
 50
90.0
  0
MTEXT
  5
159
330
151
100
AcDbEntity
  8
LAY-10
 62
     7
100
AcDbMText
 10
1767.6969696192
 20
1679.50000000015
 30
0.0
 40
31.181104
 41
0.0
 71
     5
 72
     1
  1
962
  7
EXCADDIM1
 11
0.0
 21
1.0
 31
0.0
  0
POINT
  5
15A
330
151
100
AcDbEntity
  8
DEFPOINTS
 62
     0
100
AcDbPoint
 10
1962.696969619201
 20
1198.5
 30
0.0
  0
POINT
  5
15B
330
151
100
AcDbEntity
  8
DEFPOINTS
 62
     0
100
AcDbPoint
 10
1962.696969619201
 20
2160.5000000003
 30
0.0
  0
POINT
  5
15C
330
151
100
AcDbEntity
  8
DEFPOINTS
 62
     0
100
AcDbPoint
 10
1792.6969696192
 20
2160.5000000003
 30
0.0
  0
ENDBLK
  5
153
330
151
100
AcDbEntity
  8
0
100
AcDbBlockEnd
  0
BLOCK
  5
15F
330
15E
100
AcDbEntity
  8
0
100
AcDbBlockBegin
  2
*D23
 70
     1
 10
0.0
 20
0.0
 30
0.0
  3
*D23
  1

  0
LINE
  5
161
330
15E
100
AcDbEntity
  8
LAY-10
  6
CONTINUOUS
 62
     4
100
AcDbLine
 10
1947.696969619197
 20
2151.500000000199
 30
0.0
 11
1847.696969619199
 21
2151.500000000199
 31
0.0
  0
LINE
  5
162
330
15E
100
AcDbEntity
  8
LAY-10
  6
CONTINUOUS
 62
     4
100
AcDbLine
 10
1947.696969619197
 20
1207.5
 30
0.0
 11
1847.696969619199
 21
1207.5
 31
0.0
  0
LINE
  5
163
330
15E
100
AcDbEntity
  8
LAY-10
  6
CONTINUOUS
 62
     4
100
AcDbLine
 10
1862.6969696192
 20
2126.500000000199
 30
0.0
 11
1862.6969696192
 21
1232.5
 31
0.0
  0
INSERT
  5
164
330
15E
100
AcDbEntity
  8
LAY-10
 62
     4
100
AcDbBlockReference
  2
EX_BNORM
 10
1862.6969696192
 20
2151.500000000199
 30
0.0
 41
25.0
 42
25.0
 43
25.0
 50
90.0
  0
INSERT
  5
165
330
15E
100
AcDbEntity
  8
LAY-10
 62
     4
100
AcDbBlockReference
  2
EX_BNORM
 10
1862.6969696192
 20
1207.5
 30
0.0
 41
25.0
 42
25.0
 43
25.0
 50
270.0
  0
MTEXT
  5
166
330
15E
100
AcDbEntity
  8
LAY-10
 62
     7
100
AcDbMText
 10
1837.6969696192
 20
1679.5000000001
 30
0.0
 40
31.181104
 41
0.0
 71
     5
 72
     1
  1
944
  7
EXCADDIM1
 11
0.0
 21
1.0
 31
0.0
  0
POINT
  5
167
330
15E
100
AcDbEntity
  8
DEFPOINTS
 62
     0
100
AcDbPoint
 10
1962.696969619197
 20
2151.500000000199
 30
0.0
  0
POINT
  5
168
330
15E
100
AcDbEntity
  8
DEFPOINTS
 62
     0
100
AcDbPoint
 10
1962.696969619197
 20
1207.5
 30
0.0
  0
POINT
  5
169
330
15E
100
AcDbEntity
  8
DEFPOINTS
 62
     0
100
AcDbPoint
 10
1862.6969696192
 20
1207.5
 30
0.0
  0
ENDBLK
  5
160
330
15E
100
AcDbEntity
  8
0
100
AcDbBlockEnd
  0
BLOCK
  5
682
330
681
100
AcDbEntity
  8
0
100
AcDbBlockBegin
  2
*D24
 70
     1
 10
0.0
 20
0.0
 30
0.0
  3
*D24
  1

  0
LINE
  5
684
330
681
100
AcDbEntity
  8
LAY-20
  6
CONTINUOUS
 62
     4
100
AcDbLine
 10
1284.0
 20
777.5792929682501
 30
0.0
 11
1284.0
 21
782.07929296825
 31
0.0
  0
LINE
  5
685
330
681
100
AcDbEntity
  8
LAY-20
  6
CONTINUOUS
 62
     4
100
AcDbLine
 10
1284.0
 20
752.5792929682501
 30
0.0
 11
1284.0
 21
727.5792929682501
 31
0.0
  0
LINE
  5
686
330
681
100
AcDbEntity
  8
LAY-20
  6
CONTINUOUS
 62
     4
100
AcDbLine
 10
1284.0
 20
807.07929296825
 30
0.0
 11
1284.0
 21
832.07929296825
 31
0.0
  0
INSERT
  5
687
330
681
100
AcDbEntity
  8
LAY-20
 62
     4
100
AcDbBlockReference
  2
EX_BNORM
 10
1284.0
 20
777.5792929682501
 30
0.0
 41
25.0
 42
25.0
 43
25.0
 50
90.0
  0
INSERT
  5
688
330
681
100
AcDbEntity
  8
LAY-20
 62
     4
100
AcDbBlockReference
  2
EX_BNORM
 10
1284.0
 20
782.07929296825
 30
0.0
 41
25.0
 42
25.0
 43
25.0
 50
270.0
  0
MTEXT
  5
689
330
681
100
AcDbEntity
  8
LAY-20
 62
     7
100
AcDbMText
 10
1259.0
 20
847.0792929682495
 30
0.0
 40
31.181104
 41
0.0
 71
     5
 72
     1
  1
4.5
  7
EXCADDIM1
 11
0.0
 21
1.0
 31
0.0
  0
POINT
  5
68A
330
681
100
AcDbEntity
  8
DEFPOINTS
 62
     0
100
AcDbPoint
 10
1284.0
 20
777.5792929682501
 30
0.0
  0
POINT
  5
68B
330
681
100
AcDbEntity
  8
DEFPOINTS
 62
     0
100
AcDbPoint
 10
1284.0
 20
782.07929296825
 30
0.0
  0
POINT
  5
68C
330
681
100
AcDbEntity
  8
DEFPOINTS
 62
     0
100
AcDbPoint
 10
1284.0
 20
782.07929296825
 30
0.0
  0
ENDBLK
  5
683
330
681
100
AcDbEntity
  8
0
100
AcDbBlockEnd
  0
ENDSEC
  0
SECTION
  2
ENTITIES
  0
INSERT
  5
EB
330
1F
100
AcDbEntity
  8
LAY-10
  6
CONTINUOUS
 62
     0
100
AcDbBlockReference
  2
SYM-1
 10
0.0
 20
0.0
 30
0.0
  0
INSERT
  5
EC
330
1F
100
AcDbEntity
  8
LAY-10
  6
CONTINUOUS
 62
     0
100
AcDbBlockReference
  2
SYM-2
 10
0.0
 20
0.0
 30
0.0
  0
DIMENSION
  5
EE
330
1F
100
AcDbEntity
  8
LAY-10
  6
CONTINUOUS
 62
     4
100
AcDbDimension
  2
*D17
 10
738.1015151898084
 20
952.0792929683014
 30
0.0
 11
1143.101515189805
 21
977.0792929683003
 31
0.0
 70
   160
  3
ISO-25
100
AcDbAlignedDimension
 13
1548.101515189799
 23
787.0792929682798
 33
0.0
 14
738.1015151898084
 24
787.0792929682807
 34
0.0
100
AcDbRotatedDimension
1001
ACAD
1000
DSTYLE
1002
{
1070
   270
1070
     2
1070
     6
1000
EX_BNORM
1070
     7
1000
EX_BNORM
1070
    41
1040
25.0
1070
    42
1040
15.0
1070
    44
1040
15.0
1070
    73
1070
     0
1070
    74
1070
     0
1070
    75
1070
     0
1070
    76
1070
     0
1070
    77
1070
     1
1070
    78
1070
     8
1070
   140
1040
31.181104
1070
   147
1040
0.0
1070
   173
1070
     1
1070
   176
1070
     4
1070
   177
1070
     4
1070
   178
1070
     7
1070
   271
1070
     1
1070
   277
1070
     2
1070
   279
1070
     2
1070
   280
1070
     0
1070
   287
1070
     5
1070
   340
1005
ED
1002
}
  0
DIMENSION
  5
FC
330
1F
100
AcDbEntity
  8
LAY-10
  6
CONTINUOUS
 62
     4
100
AcDbDimension
  2
*D18
 10
1142.10151518982
 20
882.0792929682484
 30
0.0
 11
944.1015151897699
 21
907.0792929682646
 31
0.0
 70
   160
  3
ISO-25
100
AcDbAlignedDimension
 13
746.1015151898098
 23
787.0792929682507
 33
0.0
 14
1142.10151518982
 24
787.0792929682543
 34
0.0
100
AcDbRotatedDimension
1001
ACAD
1000
DSTYLE
1002
{
1070
   270
1070
     2
1070
     6
1000
EX_BNORM
1070
     7
1000
EX_BNORM
1070
    41
1040
25.0
1070
    42
1040
15.0
1070
    44
1040
15.0
1070
    73
1070
     0
1070
    74
1070
     0
1070
    75
1070
     0
1070
    76
1070
     0
1070
    77
1070
     1
1070
    78
1070
     8
1070
   140
1040
31.181104
1070
   147
1040
0.0
1070
   173
1070
     1
1070
   176
1070
     4
1070
   177
1070
     4
1070
   178
1070
     7
1070
   271
1070
     1
1070
   277
1070
     2
1070
   279
1070
     2
1070
   280
1070
     0
1070
   287
1070
     5
1070
   340
1005
ED
1002
}
  0
DIMENSION
  5
109
330
1F
100
AcDbEntity
  8
LAY-10
  6
CONTINUOUS
 62
     4
100
AcDbDimension
  2
*D19
 10
1493.101515189701
 20
512.07929296828
 30
0.0
 11
1143.10151518991
 21
537.07929296828
 31
0.0
 70
   160
  3
ISO-25
100
AcDbAlignedDimension
 13
793.101515190119
 23
612.0792929682998
 33
0.0
 14
1493.101515189701
 24
612.0792929682998
 34
0.0
100
AcDbRotatedDimension
1001
ACAD
1000
DSTYLE
1002
{
1070
   270
1070
     2
1070
     6
1000
EX_BNORM
1070
     7
1000
EX_BNORM
1070
    41
1040
25.0
1070
    42
1040
15.0
1070
    44
1040
15.0
1070
    73
1070
     0
1070
    74
1070
     0
1070
    75
1070
     0
1070
    76
1070
     0
1070
    77
1070
     1
1070
    78
1070
     8
1070
   140
1040
31.181104
1070
   147
1040
0.0
1070
   173
1070
     1
1070
   176
1070
     4
1070
   177
1070
     4
1070
   178
1070
     7
1070
   271
1070
     1
1070
   277
1070
     2
1070
   279
1070
     2
1070
   280
1070
     0
1070
   287
1070
     5
1070
   340
1005
ED
1002
}
  0
DIMENSION
  5
116
330
1F
100
AcDbEntity
  8
LAY-10
  6
CONTINUOUS
 62
     4
100
AcDbDimension
  2
*D20
 10
1691.456854249097
 20
782.0792929682998
 30
0.0
 11
1666.4568542491
 21
697.0792929682998
 31
0.0
 70
   160
  3
ISO-25
100
AcDbAlignedDimension
 13
1539.101515189805
 23
612.0792929683007
 33
0.0
 14
1548.101515189799
 24
782.0792929682998
 34
0.0
 50
90.0
100
AcDbRotatedDimension
1001
ACAD
1000
DSTYLE
1002
{
1070
   270
1070
     2
1070
     6
1000
EX_BNORM
1070
     7
1000
EX_BNORM
1070
    41
1040
25.0
1070
    42
1040
15.0
1070
    44
1040
15.0
1070
    73
1070
     0
1070
    74
1070
     0
1070
    75
1070
     0
1070
    76
1070
     0
1070
    77
1070
     1
1070
    78
1070
     8
1070
   140
1040
31.181104
1070
   147
1040
0.0
1070
   173
1070
     1
1070
   176
1070
     4
1070
   177
1070
     4
1070
   178
1070
     7
1070
   271
1070
     1
1070
   277
1070
     2
1070
   279
1070
     2
1070
   280
1070
     0
1070
   287
1070
     5
1070
   340
1005
ED
1002
}
  0
LINE
  5
123
330
1F
100
AcDbEntity
  8
LAY-10
  6
CONTINUOUS
 62
     7
100
AcDbLine
 10
2122.124603255339
 20
2077.000000000105
 30
0.0
 11
2121.696969619202
 21
2076.572366363966
 31
0.0
  0
LINE
  5
124
330
1F
100
AcDbEntity
  8
LAY-10
  6
CONTINUOUS
 62
     7
100
AcDbLine
 10
2123.538816817722
 20
2077.000000000112
 30
0.0
 11
2121.69696961919
 21
2075.158152801584
 31
0.0
  0
LINE
  5
125
330
1F
100
AcDbEntity
  8
LAY-10
  6
CONTINUOUS
 62
     7
100
AcDbLine
 10
2124.953030380084
 20
2077.000000000102
 30
0.0
 11
2121.696969619203
 21
2073.743939239221
 31
0.0
  0
LINE
  5
126
330
1F
100
AcDbEntity
  8
LAY-10
  6
CONTINUOUS
 62
     7
100
AcDbLine
 10
2126.367243942466
 20
2077.000000000111
 30
0.0
 11
2121.696969619192
 21
2072.329725676838
 31
0.0
  0
LINE
  5
127
330
1F
100
AcDbEntity
  8
LAY-10
  6
CONTINUOUS
 62
     7
100
AcDbLine
 10
2126.696969619223
 20
2075.915512114496
 30
0.0
 11
2121.696969619205
 21
2070.915512114477
 31
0.0
  0
LINE
  5
128
330
1F
100
AcDbEntity
  8
LAY-10
  6
CONTINUOUS
 62
     7
100
AcDbLine
 10
2126.696969619233
 20
2074.501298552133
 30
0.0
 11
2121.696969619194
 21
2069.501298552093
 31
0.0
  0
LINE
  5
129
330
1F
100
AcDbEntity
  8
LAY-10
  6
CONTINUOUS
 62
     7
100
AcDbLine
 10
2126.696969619223
 20
2073.087084989751
 30
0.0
 11
2121.696969619205
 21
2068.087084989731
 31
0.0
  0
LINE
  5
12A
330
1F
100
AcDbEntity
  8
LAY-10
  6
CONTINUOUS
 62
     7
100
AcDbLine
 10
2126.696969619235
 20
2071.672871427388
 30
0.0
 11
2121.696969619194
 21
2066.672871427349
 31
0.0
  0
LINE
  5
12B
330
1F
100
AcDbEntity
  8
LAY-10
  6
CONTINUOUS
 62
     7
100
AcDbLine
 10
2126.696969619225
 20
2070.258657865006
 30
0.0
 11
2121.696969619206
 21
2065.258657864985
 31
0.0
  0
LINE
  5
12C
330
1F
100
AcDbEntity
  8
LAY-10
  6
CONTINUOUS
 62
     7
100
AcDbLine
 10
2126.696969619238
 20
2068.844444302642
 30
0.0
 11
2121.696969619196
 21
2063.844444302603
 31
0.0
  0
LINE
  5
12D
330
1F
100
AcDbEntity
  8
LAY-10
  6
CONTINUOUS
 62
     7
100
AcDbLine
 10
2126.696969619226
 20
2067.430230740262
 30
0.0
 11
2121.696969619206
 21
2062.43023074024
 31
0.0
  0
LINE
  5
12E
330
1F
100
AcDbEntity
  8
LAY-10
  6
CONTINUOUS
 62
     7
100
AcDbLine
 10
2126.696969619239
 20
2066.016017177898
 30
0.0
 11
2121.696969619199
 21
2061.016017177858
 31
0.0
  0
LINE
  5
12F
330
1F
100
AcDbEntity
  8
LAY-10
  6
CONTINUOUS
 62
     7
100
AcDbLine
 10
2126.696969619228
 20
2064.601803615516
 30
0.0
 11
2121.696969619209
 21
2059.601803615496
 31
0.0
  0
LINE
  5
130
330
1F
100
AcDbEntity
  8
LAY-10
  6
CONTINUOUS
 62
     7
100
AcDbLine
 10
2126.696969619239
 20
2063.187590053152
 30
0.0
 11
2121.696969619202
 21
2058.187590053114
 31
0.0
  0
LINE
  5
131
330
1F
100
AcDbEntity
  8
LAY-10
  6
CONTINUOUS
 62
     7
100
AcDbLine
 10
2126.696969619228
 20
2061.773376490771
 30
0.0
 11
2121.696969619209
 21
2056.77337649075
 31
0.0
  0
LINE
  5
132
330
1F
100
AcDbEntity
  8
LAY-10
  6
CONTINUOUS
 62
     7
100
AcDbLine
 10
2126.696969619221
 20
2060.359162928388
 30
0.0
 11
2121.696969619202
 21
2055.359162928368
 31
0.0
  0
LINE
  5
133
330
1F
100
AcDbEntity
  8
LAY-10
  6
CONTINUOUS
 62
     7
100
AcDbLine
 10
2126.69696961923
 20
2058.944949366026
 30
0.0
 11
2121.69696961921
 21
2053.944949366005
 31
0.0
  0
LINE
  5
134
330
1F
100
AcDbEntity
  8
LAY-10
  6
CONTINUOUS
 62
     7
100
AcDbLine
 10
2126.696969619221
 20
2057.530735803643
 30
0.0
 11
2121.696969619203
 21
2052.530735803623
 31
0.0
  0
LINE
  5
135
330
1F
100
AcDbEntity
  8
LAY-10
  6
CONTINUOUS
 62
     7
100
AcDbLine
 10
2126.696969619233
 20
2056.11652224128
 30
0.0
 11
2121.696969619212
 21
2051.116522241261
 31
0.0
  0
LINE
  5
136
330
1F
100
AcDbEntity
  8
LAY-10
  6
CONTINUOUS
 62
     7
100
AcDbLine
 10
2126.696969619223
 20
2054.702308678899
 30
0.0
 11
2121.696969619205
 21
2049.702308678879
 31
0.0
  0
LINE
  5
137
330
1F
100
AcDbEntity
  8
LAY-10
  6
CONTINUOUS
 62
     7
100
AcDbLine
 10
2126.696969619233
 20
2053.288095116535
 30
0.0
 11
2121.696969619194
 21
2048.288095116497
 31
0.0
  0
LINE
  5
138
330
1F
100
AcDbEntity
  8
LAY-10
  6
CONTINUOUS
 62
     7
100
AcDbLine
 10
2126.696969619225
 20
2051.873881554154
 30
0.0
 11
2121.696969619206
 21
2046.873881554133
 31
0.0
  0
LINE
  5
139
330
1F
100
AcDbEntity
  8
LAY-10
  6
CONTINUOUS
 62
     7
100
AcDbLine
 10
2126.696969619235
 20
2050.45966799179
 30
0.0
 11
2121.696969619194
 21
2045.459667991752
 31
0.0
  0
LINE
  5
13A
330
1F
100
AcDbEntity
  8
LAY-10
  6
CONTINUOUS
 62
     7
100
AcDbLine
 10
2126.696969619225
 20
2049.045454429409
 30
0.0
 11
2121.696969619206
 21
2044.045454429387
 31
0.0
  0
LINE
  5
13B
330
1F
100
AcDbEntity
  8
LAY-10
  6
CONTINUOUS
 62
     7
100
AcDbLine
 10
2126.696969619215
 20
2047.631240867026
 30
0.0
 11
2121.696969619196
 21
2042.631240867006
 31
0.0
  0
LINE
  5
13C
330
1F
100
AcDbEntity
  8
LAY-10
  6
CONTINUOUS
 62
     7
100
AcDbLine
 10
2126.696969619226
 20
2046.217027304665
 30
0.0
 11
2121.696969619206
 21
2041.217027304644
 31
0.0
  0
LINE
  5
13D
330
1F
100
AcDbEntity
  8
LAY-10
  6
CONTINUOUS
 62
     7
100
AcDbLine
 10
2126.696969619218
 20
2044.802813742281
 30
0.0
 11
2121.696969619199
 21
2039.802813742262
 31
0.0
  0
LINE
  5
13E
330
1F
100
AcDbEntity
  8
LAY-10
  6
CONTINUOUS
 62
     7
100
AcDbLine
 10
2126.696969619228
 20
2043.388600179919
 30
0.0
 11
2121.696969619209
 21
2038.388600179899
 31
0.0
  0
LINE
  5
13F
330
1F
100
AcDbEntity
  8
LAY-10
  6
CONTINUOUS
 62
     7
100
AcDbLine
 10
2126.696969619219
 20
2041.974386617537
 30
0.0
 11
2121.722583001781
 21
2037.000000000098
 31
0.0
  0
LINE
  5
140
330
1F
100
AcDbEntity
  8
LAY-10
  6
CONTINUOUS
 62
     7
100
AcDbLine
 10
2126.69696961923
 20
2040.560173055173
 30
0.0
 11
2123.136796564143
 21
2037.000000000087
 31
0.0
  0
LINE
  5
141
330
1F
100
AcDbEntity
  8
LAY-10
  6
CONTINUOUS
 62
     7
100
AcDbLine
 10
2126.696969619221
 20
2039.145959492791
 30
0.0
 11
2124.551010126504
 21
2037.000000000078
 31
0.0
  0
LINE
  5
142
330
1F
100
AcDbEntity
  8
LAY-10
  6
CONTINUOUS
 62
     7
100
AcDbLine
 10
2126.69696961923
 20
2037.73174593043
 30
0.0
 11
2125.965223688887
 21
2037.000000000087
 31
0.0
  0
DIMENSION
  5
143
330
1F
100
AcDbEntity
  8
LAY-10
  6
CONTINUOUS
 62
     4
100
AcDbDimension
  2
*D21
 10
2232.6969696192
 20
2029.5000000001
 30
0.0
 11
2207.6969696192
 21
1679.5000000001
 31
0.0
 70
   160
  3
ISO-25
100
AcDbAlignedDimension
 13
2132.6969696192
 23
1329.5000000001
 33
0.0
 14
2132.6969696192
 24
2029.5000000001
 34
0.0
 50
90.0
100
AcDbRotatedDimension
1001
ACAD
1000
DSTYLE
1002
{
1070
   270
1070
     2
1070
     6
1000
EX_BNORM
1070
     7
1000
EX_BNORM
1070
    41
1040
25.0
1070
    42
1040
15.0
1070
    44
1040
15.0
1070
    73
1070
     0
1070
    74
1070
     0
1070
    75
1070
     0
1070
    76
1070
     0
1070
    77
1070
     1
1070
    78
1070
     8
1070
   140
1040
31.181104
1070
   147
1040
0.0
1070
   173
1070
     1
1070
   176
1070
     4
1070
   177
1070
     4
1070
   178
1070
     7
1070
   271
1070
     1
1070
   277
1070
     2
1070
   279
1070
     2
1070
   280
1070
     0
1070
   287
1070
     5
1070
   340
1005
ED
1002
}
  0
DIMENSION
  5
150
330
1F
100
AcDbEntity
  8
LAY-10
  6
CONTINUOUS
 62
     4
100
AcDbDimension
  2
*D22
 10
1792.6969696192
 20
2160.5000000003
 30
0.0
 11
1767.6969696192
 21
1679.50000000015
 31
0.0
 70
   160
  3
ISO-25
100
AcDbAlignedDimension
 13
1962.696969619201
 23
1198.5
 33
0.0
 14
1962.696969619201
 24
2160.5000000003
 34
0.0
 50
90.0
100
AcDbRotatedDimension
1001
ACAD
1000
DSTYLE
1002
{
1070
   270
1070
     2
1070
     6
1000
EX_BNORM
1070
     7
1000
EX_BNORM
1070
    41
1040
25.0
1070
    42
1040
15.0
1070
    44
1040
14.99999999999977
1070
    73
1070
     0
1070
    74
1070
     0
1070
    75
1070
     0
1070
    76
1070
     0
1070
    77
1070
     1
1070
    78
1070
     8
1070
   140
1040
31.181104
1070
   147
1040
0.0
1070
   173
1070
     1
1070
   176
1070
     4
1070
   177
1070
     4
1070
   178
1070
     7
1070
   271
1070
     1
1070
   277
1070
     2
1070
   279
1070
     2
1070
   280
1070
     0
1070
   287
1070
     5
1070
   340
1005
ED
1002
}
  0
DIMENSION
  5
15D
330
1F
100
AcDbEntity
  8
LAY-10
  6
CONTINUOUS
 62
     4
100
AcDbDimension
  2
*D23
 10
1862.6969696192
 20
1207.5
 30
0.0
 11
1837.6969696192
 21
1679.5000000001
 31
0.0
 70
   160
  3
ISO-25
100
AcDbAlignedDimension
 13
1962.696969619197
 23
2151.500000000199
 33
0.0
 14
1962.696969619197
 24
1207.5
 34
0.0
 50
90.0
100
AcDbRotatedDimension
1001
ACAD
1000
DSTYLE
1002
{
1070
   270
1070
     2
1070
     6
1000
EX_BNORM
1070
     7
1000
EX_BNORM
1070
    41
1040
25.0
1070
    42
1040
15.0
1070
    44
1040
15.00000000000045
1070
    73
1070
     0
1070
    74
1070
     0
1070
    75
1070
     0
1070
    76
1070
     0
1070
    77
1070
     1
1070
    78
1070
     8
1070
   140
1040
31.181104
1070
   147
1040
0.0
1070
   173
1070
     1
1070
   176
1070
     4
1070
   177
1070
     4
1070
   178
1070
     7
1070
   271
1070
     1
1070
   277
1070
     2
1070
   279
1070
     2
1070
   280
1070
     0
1070
   287
1070
     5
1070
   340
1005
ED
1002
}
  0
LINE
  5
16A
330
1F
100
AcDbEntity
  8
LAY-10
  6
CONTINUOUS
 62
     7
100
AcDbLine
 10
2013.696969619181
 20
2136.427922061404
 30
0.0
 11
2013.769047557877
 21
2136.500000000102
 31
0.0
  0
LINE
  5
16B
330
1F
100
AcDbEntity
  8
LAY-10
  6
CONTINUOUS
 62
     7
100
AcDbLine
 10
2013.696969619192
 20
2135.013708499042
 30
0.0
 11
2015.183261120243
 21
2136.500000000091
 31
0.0
  0
LINE
  5
16C
330
1F
100
AcDbEntity
  8
LAY-10
  6
CONTINUOUS
 62
     7
100
AcDbLine
 10
2013.696969619203
 20
2133.599494936678
 30
0.0
 11
2016.597474682624
 21
2136.5000000001
 31
0.0
  0
LINE
  5
16D
330
1F
100
AcDbEntity
  8
LAY-10
  6
CONTINUOUS
 62
     7
100
AcDbLine
 10
2013.696969619194
 20
2132.185281374297
 30
0.0
 11
2018.011688244986
 21
2136.500000000089
 31
0.0
  0
LINE
  5
16E
330
1F
100
AcDbEntity
  8
LAY-10
  6
CONTINUOUS
 62
     7
100
AcDbLine
 10
2013.696969619203
 20
2130.771067811933
 30
0.0
 11
2018.696969619185
 21
2135.771067811915
 31
0.0
  0
LINE
  5
16F
330
1F
100
AcDbEntity
  8
LAY-10
  6
CONTINUOUS
 62
     7
100
AcDbLine
 10
2013.696969619196
 20
2129.35685424955
 30
0.0
 11
2018.696969619194
 21
2134.356854249552
 31
0.0
  0
LINE
  5
170
330
1F
100
AcDbEntity
  8
LAY-10
  6
CONTINUOUS
 62
     7
100
AcDbLine
 10
2014.754328932113
 20
2129.000000000095
 30
0.0
 11
2018.696969619185
 21
2132.94264068717
 31
0.0
  0
LINE
  5
171
330
1F
100
AcDbEntity
  8
LAY-10
  6
CONTINUOUS
 62
     7
100
AcDbLine
 10
2016.168542494494
 20
2129.000000000106
 30
0.0
 11
2018.696969619198
 21
2131.528427124807
 31
0.0
  0
LINE
  5
172
330
1F
100
AcDbEntity
  8
LAY-10
  6
CONTINUOUS
 62
     7
100
AcDbLine
 10
2017.582756056878
 20
2129.000000000113
 30
0.0
 11
2018.696969619187
 21
2130.114213562425
 31
0.0
  0
LINE
  5
173
330
1F
100
AcDbEntity
  8
LAY-10
  6
CONTINUOUS
 62
     7
100
AcDbLine
 10
2013.696969619199
 20
2103.34314575057
 30
0.0
 11
2014.353823868724
 21
2104.000000000096
 31
0.0
  0
LINE
  5
174
330
1F
100
AcDbEntity
  8
LAY-10
  6
CONTINUOUS
 62
     7
100
AcDbLine
 10
2013.696969619191
 20
2101.92893218819
 30
0.0
 11
2015.768037431108
 21
2104.000000000105
 31
0.0
  0
LINE
  5
175
330
1F
100
AcDbEntity
  8
LAY-10
  6
CONTINUOUS
 62
     7
100
AcDbLine
 10
2013.696969619199
 20
2100.514718625827
 30
0.0
 11
2017.182250993468
 21
2104.000000000095
 31
0.0
  0
LINE
  5
176
330
1F
100
AcDbEntity
  8
LAY-10
  6
CONTINUOUS
 62
     7
100
AcDbLine
 10
2013.69696961921
 20
2099.100505063463
 30
0.0
 11
2018.596464555851
 21
2104.000000000104
 31
0.0
  0
LINE
  5
177
330
1F
100
AcDbEntity
  8
LAY-10
  6
CONTINUOUS
 62
     7
100
AcDbLine
 10
2013.696969619203
 20
2097.686291501082
 30
0.0
 11
2018.696969619183
 21
2102.686291501064
 31
0.0
  0
LINE
  5
178
330
1F
100
AcDbEntity
  8
LAY-10
  6
CONTINUOUS
 62
     7
100
AcDbLine
 10
2013.924891680596
 20
2096.500000000102
 30
0.0
 11
2018.696969619192
 21
2101.2720779387
 31
0.0
  0
LINE
  5
179
330
1F
100
AcDbEntity
  8
LAY-10
  6
CONTINUOUS
 62
     7
100
AcDbLine
 10
2015.339105242977
 20
2096.500000000111
 30
0.0
 11
2018.696969619185
 21
2099.857864376319
 31
0.0
  0
LINE
  5
17A
330
1F
100
AcDbEntity
  8
LAY-10
  6
CONTINUOUS
 62
     7
100
AcDbLine
 10
2016.753318805339
 20
2096.500000000102
 30
0.0
 11
2018.696969619194
 21
2098.443650813957
 31
0.0
  0
LINE
  5
17B
330
1F
100
AcDbEntity
  8
LAY-10
  6
CONTINUOUS
 62
     7
100
AcDbLine
 10
2018.167532367701
 20
2096.500000000093
 30
0.0
 11
2018.696969619185
 21
2097.029437251575
 31
0.0
  0
LINE
  5
17C
330
1F
100
AcDbEntity
  8
LAY-10
  6
CONTINUOUS
 62
     7
100
AcDbLine
 10
2122.124603255339
 20
1282.000000000174
 30
0.0
 11
2121.696969619202
 21
1282.427633636312
 31
0.0
  0
LINE
  5
17D
330
1F
100
AcDbEntity
  8
LAY-10
  6
CONTINUOUS
 62
     7
100
AcDbLine
 10
2123.538816817722
 20
1282.000000000165
 30
0.0
 11
2121.69696961919
 21
1283.841847198694
 31
0.0
  0
LINE
  5
17E
330
1F
100
AcDbEntity
  8
LAY-10
  6
CONTINUOUS
 62
     7
100
AcDbLine
 10
2124.953030380084
 20
1282.000000000176
 30
0.0
 11
2121.696969619203
 21
1285.256060761058
 31
0.0
  0
LINE
  5
17F
330
1F
100
AcDbEntity
  8
LAY-10
  6
CONTINUOUS
 62
     7
100
AcDbLine
 10
2126.367243942466
 20
1282.000000000166
 30
0.0
 11
2121.696969619192
 21
1286.670274323439
 31
0.0
  0
LINE
  5
180
330
1F
100
AcDbEntity
  8
LAY-10
  6
CONTINUOUS
 62
     7
100
AcDbLine
 10
2126.696969619223
 20
1283.084487885782
 30
0.0
 11
2121.696969619205
 21
1288.084487885802
 31
0.0
  0
LINE
  5
181
330
1F
100
AcDbEntity
  8
LAY-10
  6
CONTINUOUS
 62
     7
100
AcDbLine
 10
2126.696969619233
 20
1284.498701448146
 30
0.0
 11
2121.696969619194
 21
1289.498701448184
 31
0.0
  0
LINE
  5
182
330
1F
100
AcDbEntity
  8
LAY-10
  6
CONTINUOUS
 62
     7
100
AcDbLine
 10
2126.696969619223
 20
1285.912915010526
 30
0.0
 11
2121.696969619205
 21
1290.912915010547
 31
0.0
  0
LINE
  5
183
330
1F
100
AcDbEntity
  8
LAY-10
  6
CONTINUOUS
 62
     7
100
AcDbLine
 10
2126.696969619235
 20
1287.327128572891
 30
0.0
 11
2121.696969619194
 21
1292.327128572929
 31
0.0
  0
LINE
  5
184
330
1F
100
AcDbEntity
  8
LAY-10
  6
CONTINUOUS
 62
     7
100
AcDbLine
 10
2126.696969619225
 20
1288.741342135272
 30
0.0
 11
2121.696969619206
 21
1293.741342135293
 31
0.0
  0
LINE
  5
185
330
1F
100
AcDbEntity
  8
LAY-10
  6
CONTINUOUS
 62
     7
100
AcDbLine
 10
2126.696969619238
 20
1290.155555697635
 30
0.0
 11
2121.696969619196
 21
1295.155555697675
 31
0.0
  0
LINE
  5
186
330
1F
100
AcDbEntity
  8
LAY-10
  6
CONTINUOUS
 62
     7
100
AcDbLine
 10
2126.696969619226
 20
1291.569769260018
 30
0.0
 11
2121.696969619206
 21
1296.569769260037
 31
0.0
  0
LINE
  5
187
330
1F
100
AcDbEntity
  8
LAY-10
  6
CONTINUOUS
 62
     7
100
AcDbLine
 10
2126.696969619239
 20
1292.983982822379
 30
0.0
 11
2121.696969619199
 21
1297.98398282242
 31
0.0
  0
LINE
  5
188
330
1F
100
AcDbEntity
  8
LAY-10
  6
CONTINUOUS
 62
     7
100
AcDbLine
 10
2126.696969619228
 20
1294.398196384762
 30
0.0
 11
2121.696969619209
 21
1299.398196384783
 31
0.0
  0
LINE
  5
189
330
1F
100
AcDbEntity
  8
LAY-10
  6
CONTINUOUS
 62
     7
100
AcDbLine
 10
2126.696969619239
 20
1295.812409947125
 30
0.0
 11
2121.696969619202
 21
1300.812409947164
 31
0.0
  0
LINE
  5
18A
330
1F
100
AcDbEntity
  8
LAY-10
  6
CONTINUOUS
 62
     7
100
AcDbLine
 10
2126.696969619228
 20
1297.226623509508
 30
0.0
 11
2121.696969619209
 21
1302.226623509528
 31
0.0
  0
LINE
  5
18B
330
1F
100
AcDbEntity
  8
LAY-10
  6
CONTINUOUS
 62
     7
100
AcDbLine
 10
2126.696969619221
 20
1298.640837071889
 30
0.0
 11
2121.696969619202
 21
1303.64083707191
 31
0.0
  0
LINE
  5
18C
330
1F
100
AcDbEntity
  8
LAY-10
  6
CONTINUOUS
 62
     7
100
AcDbLine
 10
2126.69696961923
 20
1300.055050634251
 30
0.0
 11
2121.69696961921
 21
1305.055050634272
 31
0.0
  0
LINE
  5
18D
330
1F
100
AcDbEntity
  8
LAY-10
  6
CONTINUOUS
 62
     7
100
AcDbLine
 10
2126.696969619221
 20
1301.469264196635
 30
0.0
 11
2121.696969619203
 21
1306.469264196653
 31
0.0
  0
LINE
  5
18E
330
1F
100
AcDbEntity
  8
LAY-10
  6
CONTINUOUS
 62
     7
100
AcDbLine
 10
2126.696969619233
 20
1302.883477758997
 30
0.0
 11
2121.696969619212
 21
1307.883477759017
 31
0.0
  0
LINE
  5
18F
330
1F
100
AcDbEntity
  8
LAY-10
  6
CONTINUOUS
 62
     7
100
AcDbLine
 10
2126.696969619223
 20
1304.29769132138
 30
0.0
 11
2121.696969619205
 21
1309.297691321399
 31
0.0
  0
LINE
  5
190
330
1F
100
AcDbEntity
  8
LAY-10
  6
CONTINUOUS
 62
     7
100
AcDbLine
 10
2126.696969619233
 20
1305.711904883742
 30
0.0
 11
2121.696969619194
 21
1310.711904883782
 31
0.0
  0
LINE
  5
191
330
1F
100
AcDbEntity
  8
LAY-10
  6
CONTINUOUS
 62
     7
100
AcDbLine
 10
2126.696969619225
 20
1307.126118446125
 30
0.0
 11
2121.696969619206
 21
1312.126118446145
 31
0.0
  0
LINE
  5
192
330
1F
100
AcDbEntity
  8
LAY-10
  6
CONTINUOUS
 62
     7
100
AcDbLine
 10
2126.696969619235
 20
1308.540332008487
 30
0.0
 11
2121.696969619194
 21
1313.540332008527
 31
0.0
  0
LINE
  5
193
330
1F
100
AcDbEntity
  8
LAY-10
  6
CONTINUOUS
 62
     7
100
AcDbLine
 10
2126.696969619225
 20
1309.954545570869
 30
0.0
 11
2121.696969619206
 21
1314.954545570889
 31
0.0
  0
LINE
  5
194
330
1F
100
AcDbEntity
  8
LAY-10
  6
CONTINUOUS
 62
     7
100
AcDbLine
 10
2126.696969619215
 20
1311.368759133252
 30
0.0
 11
2121.696969619196
 21
1316.368759133272
 31
0.0
  0
LINE
  5
195
330
1F
100
AcDbEntity
  8
LAY-10
  6
CONTINUOUS
 62
     7
100
AcDbLine
 10
2126.696969619226
 20
1312.782972695614
 30
0.0
 11
2121.696969619206
 21
1317.782972695634
 31
0.0
  0
LINE
  5
196
330
1F
100
AcDbEntity
  8
LAY-10
  6
CONTINUOUS
 62
     7
100
AcDbLine
 10
2126.696969619218
 20
1314.197186257997
 30
0.0
 11
2121.696969619199
 21
1319.197186258016
 31
0.0
  0
LINE
  5
197
330
1F
100
AcDbEntity
  8
LAY-10
  6
CONTINUOUS
 62
     7
100
AcDbLine
 10
2126.696969619228
 20
1315.611399820359
 30
0.0
 11
2121.696969619209
 21
1320.611399820379
 31
0.0
  0
LINE
  5
198
330
1F
100
AcDbEntity
  8
LAY-10
  6
CONTINUOUS
 62
     7
100
AcDbLine
 10
2126.696969619219
 20
1317.025613382742
 30
0.0
 11
2121.722583001781
 21
1322.00000000018
 31
0.0
  0
LINE
  5
199
330
1F
100
AcDbEntity
  8
LAY-10
  6
CONTINUOUS
 62
     7
100
AcDbLine
 10
2126.69696961923
 20
1318.439826945104
 30
0.0
 11
2123.136796564143
 21
1322.000000000192
 31
0.0
  0
LINE
  5
19A
330
1F
100
AcDbEntity
  8
LAY-10
  6
CONTINUOUS
 62
     7
100
AcDbLine
 10
2126.696969619221
 20
1319.854040507486
 30
0.0
 11
2124.551010126504
 21
1322.000000000201
 31
0.0
  0
LINE
  5
19B
330
1F
100
AcDbEntity
  8
LAY-10
  6
CONTINUOUS
 62
     7
100
AcDbLine
 10
2126.69696961923
 20
1321.268254069849
 30
0.0
 11
2125.965223688887
 21
1322.000000000192
 31
0.0
  0
LINE
  5
19C
330
1F
100
AcDbEntity
  8
LAY-10
  6
CONTINUOUS
 62
     7
100
AcDbLine
 10
2013.696969619183
 20
1222.572077938745
 30
0.0
 11
2013.769047557879
 21
1222.500000000047
 31
0.0
  0
LINE
  5
19D
330
1F
100
AcDbEntity
  8
LAY-10
  6
CONTINUOUS
 62
     7
100
AcDbLine
 10
2013.696969619194
 20
1223.986291501108
 30
0.0
 11
2015.183261120245
 21
1222.500000000058
 31
0.0
  0
LINE
  5
19E
330
1F
100
AcDbEntity
  8
LAY-10
  6
CONTINUOUS
 62
     7
100
AcDbLine
 10
2013.696969619205
 20
1225.400505063471
 30
0.0
 11
2016.597474682627
 21
1222.500000000049
 31
0.0
  0
LINE
  5
19F
330
1F
100
AcDbEntity
  8
LAY-10
  6
CONTINUOUS
 62
     7
100
AcDbLine
 10
2013.696969619196
 20
1226.814718625851
 30
0.0
 11
2018.011688244988
 21
1222.500000000059
 31
0.0
  0
LINE
  5
1A0
330
1F
100
AcDbEntity
  8
LAY-10
  6
CONTINUOUS
 62
     7
100
AcDbLine
 10
2013.696969619205
 20
1228.228932188216
 30
0.0
 11
2018.696969619187
 21
1223.228932188234
 31
0.0
  0
LINE
  5
1A1
330
1F
100
AcDbEntity
  8
LAY-10
  6
CONTINUOUS
 62
     7
100
AcDbLine
 10
2013.696969619196
 20
1229.643145750599
 30
0.0
 11
2018.696969619198
 21
1224.643145750597
 31
0.0
  0
LINE
  5
1A2
330
1F
100
AcDbEntity
  8
LAY-10
  6
CONTINUOUS
 62
     7
100
AcDbLine
 10
2014.754328932113
 20
1230.000000000053
 30
0.0
 11
2018.696969619187
 21
1226.057359312979
 31
0.0
  0
LINE
  5
1A3
330
1F
100
AcDbEntity
  8
LAY-10
  6
CONTINUOUS
 62
     7
100
AcDbLine
 10
2016.168542494497
 20
1230.000000000044
 30
0.0
 11
2018.696969619201
 21
1227.471572875342
 31
0.0
  0
LINE
  5
1A4
330
1F
100
AcDbEntity
  8
LAY-10
  6
CONTINUOUS
 62
     7
100
AcDbLine
 10
2017.58275605688
 20
1230.000000000036
 30
0.0
 11
2018.696969619189
 21
1228.885786437724
 31
0.0
  0
LINE
  5
1A5
330
1F
100
AcDbEntity
  8
LAY-10
  6
CONTINUOUS
 62
     7
100
AcDbLine
 10
2013.696969619201
 20
1255.656854249578
 30
0.0
 11
2014.353823868726
 21
1255.000000000053
 31
0.0
  0
LINE
  5
1A6
330
1F
100
AcDbEntity
  8
LAY-10
  6
CONTINUOUS
 62
     7
100
AcDbLine
 10
2013.696969619194
 20
1257.071067811959
 30
0.0
 11
2015.768037431108
 21
1255.000000000044
 31
0.0
  0
LINE
  5
1A7
330
1F
100
AcDbEntity
  8
LAY-10
  6
CONTINUOUS
 62
     7
100
AcDbLine
 10
2013.696969619203
 20
1258.485281374322
 30
0.0
 11
2017.182250993472
 21
1255.000000000055
 31
0.0
  0
LINE
  5
1A8
330
1F
100
AcDbEntity
  8
LAY-10
  6
CONTINUOUS
 62
     7
100
AcDbLine
 10
2013.696969619212
 20
1259.899494936686
 30
0.0
 11
2018.596464555853
 21
1255.000000000045
 31
0.0
  0
LINE
  5
1A9
330
1F
100
AcDbEntity
  8
LAY-10
  6
CONTINUOUS
 62
     7
100
AcDbLine
 10
2013.696969619205
 20
1261.313708499068
 30
0.0
 11
2018.696969619185
 21
1256.313708499086
 31
0.0
  0
LINE
  5
1AA
330
1F
100
AcDbEntity
  8
LAY-10
  6
CONTINUOUS
 62
     7
100
AcDbLine
 10
2013.924891680598
 20
1262.500000000047
 30
0.0
 11
2018.696969619198
 21
1257.727922061449
 31
0.0
  0
LINE
  5
1AB
330
1F
100
AcDbEntity
  8
LAY-10
  6
CONTINUOUS
 62
     7
100
AcDbLine
 10
2015.339105242978
 20
1262.500000000038
 30
0.0
 11
2018.696969619187
 21
1259.14213562383
 31
0.0
  0
LINE
  5
1AC
330
1F
100
AcDbEntity
  8
LAY-10
  6
CONTINUOUS
 62
     7
100
AcDbLine
 10
2016.753318805341
 20
1262.500000000048
 30
0.0
 11
2018.696969619198
 21
1260.556349186193
 31
0.0
  0
LINE
  5
1AD
330
1F
100
AcDbEntity
  8
LAY-10
  6
CONTINUOUS
 62
     7
100
AcDbLine
 10
2018.167532367705
 20
1262.500000000057
 30
0.0
 11
2018.696969619187
 21
1261.970562748575
 31
0.0
  0
LINE
  5
1AE
330
1F
100
AcDbEntity
  8
LAY-10
  6
CONTINUOUS
 62
     7
100
AcDbLine
 10
702.7030303800236
 20
1925.000000000168
 30
0.0
 11
702.7030303800236
 21
1934.000000000169
 31
0.0
  0
LINE
  5
1AF
330
1F
100
AcDbEntity
  8
LAY-10
  6
CONTINUOUS
 62
     7
100
AcDbLine
 10
738.1015151898064
 20
1925.000000000169
 30
0.0
 11
702.7030303800236
 21
1925.000000000169
 31
0.0
  0
LINE
  5
1B0
330
1F
100
AcDbEntity
  8
LAY-10
  6
CONTINUOUS
 62
     7
100
AcDbLine
 10
738.1015151898064
 20
1934.000000000168
 30
0.0
 11
702.7030303800236
 21
1934.000000000168
 31
0.0
  0
LINE
  5
1B1
330
1F
100
AcDbEntity
  8
LAY-10
  6
CONTINUOUS
 62
     7
100
AcDbLine
 10
702.7030303800236
 20
1434.000000000082
 30
0.0
 11
702.7030303800236
 21
1425.000000000079
 31
0.0
  0
LINE
  5
1B2
330
1F
100
AcDbEntity
  8
LAY-10
  6
CONTINUOUS
 62
     7
100
AcDbLine
 10
738.1015151898064
 20
1434.00000000008
 30
0.0
 11
702.7030303800236
 21
1434.00000000008
 31
0.0
  0
LINE
  5
1B3
330
1F
100
AcDbEntity
  8
LAY-10
  6
CONTINUOUS
 62
     7
100
AcDbLine
 10
738.1015151898064
 20
1425.000000000081
 30
0.0
 11
702.7030303800236
 21
1425.000000000081
 31
0.0
  0
LINE
  5
1B4
330
1F
100
AcDbEntity
  8
LAY-10
  6
CONTINUOUS
 62
     7
100
AcDbLine
 10
1583.499999999988
 20
1925.000000000167
 30
0.0
 11
1583.499999999988
 21
1934.000000000168
 31
0.0
  0
LINE
  5
1B5
330
1F
100
AcDbEntity
  8
LAY-10
  6
CONTINUOUS
 62
     7
100
AcDbLine
 10
1548.101515190206
 20
1925.000000000168
 30
0.0
 11
1583.499999999988
 21
1925.000000000168
 31
0.0
  0
LINE
  5
1B6
330
1F
100
AcDbEntity
  8
LAY-10
  6
CONTINUOUS
 62
     7
100
AcDbLine
 10
1548.101515190206
 20
1934.000000000166
 30
0.0
 11
1583.499999999988
 21
1934.000000000166
 31
0.0
  0
LINE
  5
1B7
330
1F
100
AcDbEntity
  8
LAY-10
  6
CONTINUOUS
 62
     7
100
AcDbLine
 10
1583.499999999986
 20
1434.00000000008
 30
0.0
 11
1583.499999999985
 21
1425.000000000077
 31
0.0
  0
LINE
  5
1B8
330
1F
100
AcDbEntity
  8
LAY-10
  6
CONTINUOUS
 62
     7
100
AcDbLine
 10
1548.101515190203
 20
1434.000000000078
 30
0.0
 11
1583.499999999986
 21
1434.000000000078
 31
0.0
  0
LINE
  5
1B9
330
1F
100
AcDbEntity
  8
LAY-10
  6
CONTINUOUS
 62
     7
100
AcDbLine
 10
1548.101515190203
 20
1425.000000000079
 30
0.0
 11
1583.499999999985
 21
1425.000000000079
 31
0.0
  0
LINE
  5
1BA
330
1F
100
AcDbEntity
  8
LAY-10
  6
CONTINUOUS
 62
     7
100
AcDbLine
 10
1024.601515189885
 20
2127.000000000206
 30
0.0
 11
1024.601515189885
 21
2128.606300013006
 31
0.0
  0
LINE
  5
1BB
330
1F
100
AcDbEntity
  8
LAY-10
  6
CONTINUOUS
 62
     7
100
AcDbLine
 10
1032.601515189883
 20
2127.000000000206
 30
0.0
 11
1032.601515189883
 21
2128.606300013006
 31
0.0
  0
LINE
  5
1BC
330
1F
100
AcDbEntity
  8
LAY-10
  6
CONTINUOUS
 62
     7
100
AcDbLine
 10
1032.601515189883
 20
2127.000000000206
 30
0.0
 11
1024.601515189885
 21
2127.000000000206
 31
0.0
  0
LINE
  5
1BD
330
1F
100
AcDbEntity
  8
LAY-10
  6
CONTINUOUS
 62
     7
100
AcDbLine
 10
1022.101515189881
 20
2116.500000000204
 30
0.0
 11
1028.601515189881
 21
2120.500000000206
 31
0.0
  0
LINE
  5
1BE
330
1F
100
AcDbEntity
  8
LAY-10
  6
CONTINUOUS
 62
     7
100
AcDbLine
 10
1028.601515189881
 20
2120.500000000206
 30
0.0
 11
1035.101515189883
 21
2116.500000000204
 31
0.0
  0
LINE
  5
1BF
330
1F
100
AcDbEntity
  8
LAY-10
  6
CONTINUOUS
 62
     7
100
AcDbLine
 10
1035.101515189883
 20
2116.500000000204
 30
0.0
 11
1028.601515189881
 21
2112.500000000206
 31
0.0
  0
LINE
  5
1C0
330
1F
100
AcDbEntity
  8
LAY-10
  6
CONTINUOUS
 62
     7
100
AcDbLine
 10
1028.601515189881
 20
2112.500000000206
 30
0.0
 11
1022.101515189881
 21
2116.500000000204
 31
0.0
  0
CIRCLE
  5
1C1
330
1F
100
AcDbEntity
  8
LAY-10
  6
CONTINUOUS
 62
     7
100
AcDbCircle
 10
1028.601515189896
 20
2116.500000000191
 30
0.0
 40
12.75000000000001
  0
CIRCLE
  5
1C2
330
1F
100
AcDbEntity
  8
LAY-10
  6
CONTINUOUS
 62
     7
100
AcDbCircle
 10
1028.601515189905
 20
2116.500000000204
 30
0.0
 40
13.00000000000001
  0
LINE
  5
1C3
330
1F
100
AcDbEntity
  8
LAY-10
  6
CONTINUOUS
 62
     7
100
AcDbLine
 10
1058.601515189858
 20
2091.500000000166
 30
0.0
 11
1108.601515189861
 21
2091.500000000174
 31
0.0
  0
LINE
  5
1C4
330
1F
100
AcDbEntity
  8
LAY-10
  6
CONTINUOUS
 62
     7
100
AcDbLine
 10
1087.601515189848
 20
2140.000000000169
 30
0.0
 11
1107.10151518985
 21
2140.000000000173
 31
0.0
  0
LINE
  5
1C5
330
1F
100
AcDbEntity
  8
LAY-10
  6
CONTINUOUS
 62
     7
100
AcDbLine
 10
1060.10151518985
 20
2140.000000000166
 30
0.0
 11
1079.60151518985
 21
2140.000000000169
 31
0.0
  0
LINE
  5
1C6
330
1F
100
AcDbEntity
  8
LAY-10
  6
CONTINUOUS
 62
     7
100
AcDbLine
 10
1079.60151518985
 20
2141.500000000167
 30
0.0
 11
1079.60151518985
 21
2138.500000000169
 31
0.0
  0
LINE
  5
1C7
330
1F
100
AcDbEntity
  8
LAY-10
  6
CONTINUOUS
 62
     7
100
AcDbLine
 10
1087.601515189848
 20
2141.500000000167
 30
0.0
 11
1087.601515189848
 21
2138.500000000169
 31
0.0
  0
LINE
  5
1C8
330
1F
100
AcDbEntity
  8
LAY-10
  6
CONTINUOUS
 62
     7
100
AcDbLine
 10
1087.601515189854
 20
2138.500000000169
 30
0.0
 11
1079.601515189852
 21
2138.500000000169
 31
0.0
  0
LINE
  5
1C9
330
1F
100
AcDbEntity
  8
LAY-10
  6
CONTINUOUS
 62
     7
100
AcDbLine
 10
1060.10151518985
 20
2136.000000000165
 30
0.0
 11
1060.10151518985
 21
2140.000000000166
 31
0.0
  0
LINE
  5
1CA
330
1F
100
AcDbEntity
  8
LAY-10
  6
CONTINUOUS
 62
     7
100
AcDbLine
 10
1060.101515189854
 20
2125.000000000164
 30
0.0
 11
1060.10151518985
 21
2130.000000000163
 31
0.0
  0
LINE
  5
1CB
330
1F
100
AcDbEntity
  8
LAY-10
  6
CONTINUOUS
 62
     7
100
AcDbLine
 10
1060.101515189854
 20
2114.000000000166
 30
0.0
 11
1060.101515189854
 21
2119.000000000165
 31
0.0
  0
LINE
  5
1CC
330
1F
100
AcDbEntity
  8
LAY-10
  6
CONTINUOUS
 62
     7
100
AcDbLine
 10
1060.101515189857
 20
2103.000000000166
 30
0.0
 11
1060.101515189857
 21
2108.000000000166
 31
0.0
  0
LINE
  5
1CD
330
1F
100
AcDbEntity
  8
LAY-10
  6
CONTINUOUS
 62
     7
100
AcDbLine
 10
1060.101515189857
 20
2093.000000000166
 30
0.0
 11
1060.101515189857
 21
2097.000000000167
 31
0.0
  0
LINE
  5
1CE
330
1F
100
AcDbEntity
  8
LAY-10
  6
CONTINUOUS
 62
     7
100
AcDbLine
 10
1059.101515189848
 20
2135.750000000164
 30
0.0
 11
1059.101515189848
 21
2130.250000000165
 31
0.0
  0
LINE
  5
1CF
330
1F
100
AcDbEntity
  8
LAY-10
  6
CONTINUOUS
 62
     7
100
AcDbLine
 10
1059.101515189848
 20
2135.750000000164
 30
0.0
 11
1060.101515189847
 21
2136.000000000166
 31
0.0
  0
LINE
  5
1D0
330
1F
100
AcDbEntity
  8
LAY-10
  6
CONTINUOUS
 62
     7
100
AcDbLine
 10
1060.101515189847
 20
2130.000000000163
 30
0.0
 11
1059.101515189848
 21
2130.250000000165
 31
0.0
  0
LINE
  5
1D1
330
1F
100
AcDbEntity
  8
LAY-10
  6
CONTINUOUS
 62
     7
100
AcDbLine
 10
1059.10151518985
 20
2124.750000000167
 30
0.0
 11
1059.10151518985
 21
2119.250000000166
 31
0.0
  0
LINE
  5
1D2
330
1F
100
AcDbEntity
  8
LAY-10
  6
CONTINUOUS
 62
     7
100
AcDbLine
 10
1059.10151518985
 20
2124.750000000167
 30
0.0
 11
1060.10151518985
 21
2125.000000000167
 31
0.0
  0
LINE
  5
1D3
330
1F
100
AcDbEntity
  8
LAY-10
  6
CONTINUOUS
 62
     7
100
AcDbLine
 10
1060.10151518985
 20
2119.000000000165
 30
0.0
 11
1059.10151518985
 21
2119.250000000166
 31
0.0
  0
LINE
  5
1D4
330
1F
100
AcDbEntity
  8
LAY-10
  6
CONTINUOUS
 62
     7
100
AcDbLine
 10
1059.10151518985
 20
2113.750000000167
 30
0.0
 11
1059.101515189852
 21
2108.250000000166
 31
0.0
  0
LINE
  5
1D5
330
1F
100
AcDbEntity
  8
LAY-10
  6
CONTINUOUS
 62
     7
100
AcDbLine
 10
1059.10151518985
 20
2113.750000000167
 30
0.0
 11
1060.10151518985
 21
2114.000000000166
 31
0.0
  0
LINE
  5
1D6
330
1F
100
AcDbEntity
  8
LAY-10
  6
CONTINUOUS
 62
     7
100
AcDbLine
 10
1060.10151518985
 20
2108.000000000166
 30
0.0
 11
1059.101515189852
 21
2108.250000000166
 31
0.0
  0
LINE
  5
1D7
330
1F
100
AcDbEntity
  8
LAY-10
  6
CONTINUOUS
 62
     7
100
AcDbLine
 10
1059.10151518985
 20
2102.750000000164
 30
0.0
 11
1059.101515189852
 21
2097.250000000165
 31
0.0
  0
LINE
  5
1D8
330
1F
100
AcDbEntity
  8
LAY-10
  6
CONTINUOUS
 62
     7
100
AcDbLine
 10
1059.10151518985
 20
2102.750000000164
 30
0.0
 11
1060.101515189854
 21
2103.000000000164
 31
0.0
  0
LINE
  5
1D9
330
1F
100
AcDbEntity
  8
LAY-10
  6
CONTINUOUS
 62
     7
100
AcDbLine
 10
1060.101515189854
 20
2097.000000000166
 30
0.0
 11
1059.101515189852
 21
2097.250000000165
 31
0.0
  0
LINE
  5
1DA
330
1F
100
AcDbEntity
  8
LAY-10
  6
CONTINUOUS
 62
     7
100
AcDbLine
 10
1107.10151518985
 20
2130.000000000171
 30
0.0
 11
1107.101515189854
 21
2125.00000000017
 31
0.0
  0
LINE
  5
1DB
330
1F
100
AcDbEntity
  8
LAY-10
  6
CONTINUOUS
 62
     7
100
AcDbLine
 10
1107.101515189854
 20
2119.000000000171
 30
0.0
 11
1107.101515189854
 21
2114.000000000172
 31
0.0
  0
LINE
  5
1DC
330
1F
100
AcDbEntity
  8
LAY-10
  6
CONTINUOUS
 62
     7
100
AcDbLine
 10
1107.101515189858
 20
2108.000000000172
 30
0.0
 11
1107.101515189858
 21
2103.000000000171
 31
0.0
  0
LINE
  5
1DD
330
1F
100
AcDbEntity
  8
LAY-10
  6
CONTINUOUS
 62
     7
100
AcDbLine
 10
1108.101515189856
 20
2135.750000000171
 30
0.0
 11
1108.101515189856
 21
2130.250000000171
 31
0.0
  0
LINE
  5
1DE
330
1F
100
AcDbEntity
  8
LAY-10
  6
CONTINUOUS
 62
     7
100
AcDbLine
 10
1108.101515189856
 20
2135.750000000171
 30
0.0
 11
1107.101515189854
 21
2136.000000000171
 31
0.0
  0
LINE
  5
1DF
330
1F
100
AcDbEntity
  8
LAY-10
  6
CONTINUOUS
 62
     7
100
AcDbLine
 10
1107.101515189854
 20
2130.000000000171
 30
0.0
 11
1108.101515189856
 21
2130.250000000171
 31
0.0
  0
LINE
  5
1E0
330
1F
100
AcDbEntity
  8
LAY-10
  6
CONTINUOUS
 62
     7
100
AcDbLine
 10
1108.101515189858
 20
2124.750000000174
 30
0.0
 11
1108.101515189858
 21
2119.250000000172
 31
0.0
  0
LINE
  5
1E1
330
1F
100
AcDbEntity
  8
LAY-10
  6
CONTINUOUS
 62
     7
100
AcDbLine
 10
1108.101515189858
 20
2124.750000000174
 30
0.0
 11
1107.101515189858
 21
2125.000000000171
 31
0.0
  0
LINE
  5
1E2
330
1F
100
AcDbEntity
  8
LAY-10
  6
CONTINUOUS
 62
     7
100
AcDbLine
 10
1107.101515189858
 20
2119.000000000171
 30
0.0
 11
1108.101515189858
 21
2119.250000000172
 31
0.0
  0
LINE
  5
1E3
330
1F
100
AcDbEntity
  8
LAY-10
  6
CONTINUOUS
 62
     7
100
AcDbLine
 10
1108.101515189858
 20
2113.750000000171
 30
0.0
 11
1108.101515189858
 21
2108.250000000172
 31
0.0
  0
LINE
  5
1E4
330
1F
100
AcDbEntity
  8
LAY-10
  6
CONTINUOUS
 62
     7
100
AcDbLine
 10
1108.101515189858
 20
2113.750000000171
 30
0.0
 11
1107.101515189858
 21
2114.000000000172
 31
0.0
  0
LINE
  5
1E5
330
1F
100
AcDbEntity
  8
LAY-10
  6
CONTINUOUS
 62
     7
100
AcDbLine
 10
1107.101515189859
 20
2108.000000000172
 30
0.0
 11
1108.101515189858
 21
2108.250000000172
 31
0.0
  0
LINE
  5
1E6
330
1F
100
AcDbEntity
  8
LAY-10
  6
CONTINUOUS
 62
     7
100
AcDbLine
 10
1107.101515189858
 20
2097.000000000174
 30
0.0
 11
1107.101515189858
 21
2093.000000000172
 31
0.0
  0
LINE
  5
1E7
330
1F
100
AcDbEntity
  8
LAY-10
  6
CONTINUOUS
 62
     7
100
AcDbLine
 10
1108.101515189861
 20
2102.750000000172
 30
0.0
 11
1108.101515189861
 21
2097.250000000172
 31
0.0
  0
LINE
  5
1E8
330
1F
100
AcDbEntity
  8
LAY-10
  6
CONTINUOUS
 62
     7
100
AcDbLine
 10
1108.101515189861
 20
2102.750000000172
 30
0.0
 11
1107.101515189859
 21
2103.000000000171
 31
0.0
  0
LINE
  5
1E9
330
1F
100
AcDbEntity
  8
LAY-10
  6
CONTINUOUS
 62
     7
100
AcDbLine
 10
1107.101515189859
 20
2097.000000000172
 30
0.0
 11
1108.101515189861
 21
2097.250000000172
 31
0.0
  0
LINE
  5
1EA
330
1F
100
AcDbEntity
  8
LAY-10
  6
CONTINUOUS
 62
     7
100
AcDbLine
 10
1060.101515189857
 20
2136.000000000165
 30
0.0
 11
1107.101515189854
 21
2136.000000000171
 31
0.0
  0
LINE
  5
1EB
330
1F
100
AcDbEntity
  8
LAY-10
  6
CONTINUOUS
 62
     7
100
AcDbLine
 10
1060.10151518985
 20
2130.000000000163
 30
0.0
 11
1107.101515189854
 21
2130.00000000017
 31
0.0
  0
LINE
  5
1EC
330
1F
100
AcDbEntity
  8
LAY-10
  6
CONTINUOUS
 62
     7
100
AcDbLine
 10
1060.101515189857
 20
2125.000000000164
 30
0.0
 11
1107.101515189858
 21
2125.00000000017
 31
0.0
  0
LINE
  5
1ED
330
1F
100
AcDbEntity
  8
LAY-10
  6
CONTINUOUS
 62
     7
100
AcDbLine
 10
1060.101515189861
 20
2097.000000000167
 30
0.0
 11
1107.101515189859
 21
2097.000000000174
 31
0.0
  0
LINE
  5
1EE
330
1F
100
AcDbEntity
  8
LAY-10
  6
CONTINUOUS
 62
     7
100
AcDbLine
 10
1060.101515189857
 20
2103.000000000166
 30
0.0
 11
1107.101515189859
 21
2103.000000000171
 31
0.0
  0
LINE
  5
1EF
330
1F
100
AcDbEntity
  8
LAY-10
  6
CONTINUOUS
 62
     7
100
AcDbLine
 10
1060.101515189859
 20
2108.000000000166
 30
0.0
 11
1107.101515189859
 21
2108.000000000172
 31
0.0
  0
LINE
  5
1F0
330
1F
100
AcDbEntity
  8
LAY-10
  6
CONTINUOUS
 62
     7
100
AcDbLine
 10
1107.101515189854
 20
2119.000000000171
 30
0.0
 11
1060.101515189854
 21
2119.000000000165
 31
0.0
  0
LINE
  5
1F1
330
1F
100
AcDbEntity
  8
LAY-10
  6
CONTINUOUS
 62
     7
100
AcDbLine
 10
1107.101515189854
 20
2114.000000000172
 30
0.0
 11
1060.101515189854
 21
2114.000000000166
 31
0.0
  0
LINE
  5
1F2
330
1F
100
AcDbEntity
  8
LAY-10
  6
CONTINUOUS
 62
     7
100
AcDbLine
 10
1107.101515189858
 20
2093.000000000172
 30
0.0
 11
1060.101515189857
 21
2093.000000000166
 31
0.0
  0
LINE
  5
1F3
330
1F
100
AcDbEntity
  8
LAY-10
  6
CONTINUOUS
 62
     7
100
AcDbLine
 10
1107.10151518985
 20
2140.000000000173
 30
0.0
 11
1107.10151518985
 21
2136.000000000171
 31
0.0
  0
LINE
  5
1F4
330
1F
100
AcDbEntity
  8
LAY-10
  6
CONTINUOUS
 62
     7
100
AcDbLine
 10
1108.601515189854
 20
2141.500000000167
 30
0.0
 11
1108.601515189861
 21
2091.500000000174
 31
0.0
  0
LINE
  5
1F5
330
1F
100
AcDbEntity
  8
LAY-10
  6
CONTINUOUS
 62
     7
100
AcDbLine
 10
1058.601515189854
 20
2141.500000000159
 30
0.0
 11
1108.601515189854
 21
2141.500000000167
 31
0.0
  0
LINE
  5
1F6
330
1F
100
AcDbEntity
  8
LAY-10
  6
CONTINUOUS
 62
     7
100
AcDbLine
 10
1058.601515189854
 20
2141.500000000159
 30
0.0
 11
1058.601515189858
 21
2091.500000000166
 31
0.0
  0
LINE
  5
1F7
330
1F
100
AcDbEntity
  8
LAY-10
  6
CONTINUOUS
 62
     7
100
AcDbLine
 10
738.101515189808
 20
2160.5000000003
 30
0.0
 11
744.1015151898116
 21
2154.5000000003
 31
0.0
  0
LINE
  5
1F8
330
1F
100
AcDbEntity
  8
LAY-10
  6
CONTINUOUS
 62
     7
100
AcDbLine
 10
829.6015151897661
 20
2141.500000000162
 30
0.0
 11
829.6015151897589
 21
2091.500000000168
 31
0.0
  0
LINE
  5
1F9
330
1F
100
AcDbEntity
  8
LAY-10
  6
CONTINUOUS
 62
     7
100
AcDbLine
 10
829.6015151897661
 20
2141.500000000162
 30
0.0
 11
779.6015151897661
 21
2141.500000000169
 31
0.0
  0
LINE
  5
1FA
330
1F
100
AcDbEntity
  8
LAY-10
  6
CONTINUOUS
 62
     7
100
AcDbLine
 10
779.6015151897661
 20
2141.500000000169
 30
0.0
 11
779.6015151897589
 21
2091.500000000175
 31
0.0
  0
LINE
  5
1FB
330
1F
100
AcDbEntity
  8
LAY-10
  6
CONTINUOUS
 62
     7
100
AcDbLine
 10
781.10151518977
 20
2140.000000000175
 30
0.0
 11
781.10151518977
 21
2136.000000000173
 31
0.0
  0
LINE
  5
1FC
330
1F
100
AcDbEntity
  8
LAY-10
  6
CONTINUOUS
 62
     7
100
AcDbLine
 10
781.1015151897625
 20
2093.000000000174
 30
0.0
 11
828.1015151897625
 21
2093.000000000167
 31
0.0
  0
LINE
  5
1FD
330
1F
100
AcDbEntity
  8
LAY-10
  6
CONTINUOUS
 62
     7
100
AcDbLine
 10
781.1015151897664
 20
2114.000000000174
 30
0.0
 11
828.1015151897662
 21
2114.000000000167
 31
0.0
  0
LINE
  5
1FE
330
1F
100
AcDbEntity
  8
LAY-10
  6
CONTINUOUS
 62
     7
100
AcDbLine
 10
781.1015151897664
 20
2119.000000000173
 30
0.0
 11
828.1015151897662
 21
2119.000000000166
 31
0.0
  0
LINE
  5
1FF
330
1F
100
AcDbEntity
  8
LAY-10
  6
CONTINUOUS
 62
     7
100
AcDbLine
 10
828.1015151897607
 20
2108.000000000167
 30
0.0
 11
781.101515189759
 21
2108.000000000174
 31
0.0
  0
LINE
  5
200
330
1F
100
AcDbEntity
  8
LAY-10
  6
CONTINUOUS
 62
     7
100
AcDbLine
 10
828.1015151897625
 20
2103.000000000168
 30
0.0
 11
781.101515189759
 21
2103.000000000173
 31
0.0
  0
LINE
  5
201
330
1F
100
AcDbEntity
  8
LAY-10
  6
CONTINUOUS
 62
     7
100
AcDbLine
 10
828.1015151897572
 20
2097.000000000169
 30
0.0
 11
781.101515189759
 21
2097.000000000176
 31
0.0
  0
LINE
  5
202
330
1F
100
AcDbEntity
  8
LAY-10
  6
CONTINUOUS
 62
     7
100
AcDbLine
 10
828.1015151897625
 20
2125.000000000166
 30
0.0
 11
781.1015151897625
 21
2125.000000000172
 31
0.0
  0
LINE
  5
203
330
1F
100
AcDbEntity
  8
LAY-10
  6
CONTINUOUS
 62
     7
100
AcDbLine
 10
828.1015151897698
 20
2130.000000000166
 30
0.0
 11
781.1015151897664
 21
2130.000000000172
 31
0.0
  0
LINE
  5
204
330
1F
100
AcDbEntity
  8
LAY-10
  6
CONTINUOUS
 62
     7
100
AcDbLine
 10
828.1015151897625
 20
2136.000000000166
 30
0.0
 11
781.1015151897664
 21
2136.000000000173
 31
0.0
  0
LINE
  5
205
330
1F
100
AcDbEntity
  8
LAY-10
  6
CONTINUOUS
 62
     7
100
AcDbLine
 10
781.101515189759
 20
2097.000000000174
 30
0.0
 11
780.1015151897589
 21
2097.250000000173
 31
0.0
  0
LINE
  5
206
330
1F
100
AcDbEntity
  8
LAY-10
  6
CONTINUOUS
 62
     7
100
AcDbLine
 10
780.1015151897589
 20
2102.750000000174
 30
0.0
 11
781.101515189759
 21
2103.000000000173
 31
0.0
  0
LINE
  5
207
330
1F
100
AcDbEntity
  8
LAY-10
  6
CONTINUOUS
 62
     7
100
AcDbLine
 10
780.1015151897589
 20
2102.750000000174
 30
0.0
 11
780.1015151897589
 21
2097.250000000173
 31
0.0
  0
LINE
  5
208
330
1F
100
AcDbEntity
  8
LAY-10
  6
CONTINUOUS
 62
     7
100
AcDbLine
 10
781.1015151897625
 20
2097.000000000176
 30
0.0
 11
781.1015151897625
 21
2093.000000000174
 31
0.0
  0
LINE
  5
209
330
1F
100
AcDbEntity
  8
LAY-10
  6
CONTINUOUS
 62
     7
100
AcDbLine
 10
781.101515189759
 20
2108.000000000174
 30
0.0
 11
780.1015151897625
 21
2108.250000000174
 31
0.0
  0
LINE
  5
20A
330
1F
100
AcDbEntity
  8
LAY-10
  6
CONTINUOUS
 62
     7
100
AcDbLine
 10
780.1015151897625
 20
2113.750000000173
 30
0.0
 11
781.1015151897625
 21
2114.000000000174
 31
0.0
  0
LINE
  5
20B
330
1F
100
AcDbEntity
  8
LAY-10
  6
CONTINUOUS
 62
     7
100
AcDbLine
 10
780.1015151897625
 20
2113.750000000173
 30
0.0
 11
780.1015151897625
 21
2108.250000000174
 31
0.0
  0
LINE
  5
20C
330
1F
100
AcDbEntity
  8
LAY-10
  6
CONTINUOUS
 62
     7
100
AcDbLine
 10
781.1015151897625
 20
2119.000000000173
 30
0.0
 11
780.1015151897625
 21
2119.250000000174
 31
0.0
  0
LINE
  5
20D
330
1F
100
AcDbEntity
  8
LAY-10
  6
CONTINUOUS
 62
     7
100
AcDbLine
 10
780.1015151897625
 20
2124.750000000176
 30
0.0
 11
781.1015151897625
 21
2125.000000000173
 31
0.0
  0
LINE
  5
20E
330
1F
100
AcDbEntity
  8
LAY-10
  6
CONTINUOUS
 62
     7
100
AcDbLine
 10
780.1015151897625
 20
2124.750000000176
 30
0.0
 11
780.1015151897625
 21
2119.250000000174
 31
0.0
  0
LINE
  5
20F
330
1F
100
AcDbEntity
  8
LAY-10
  6
CONTINUOUS
 62
     7
100
AcDbLine
 10
781.1015151897664
 20
2130.000000000173
 30
0.0
 11
780.1015151897645
 21
2130.250000000173
 31
0.0
  0
LINE
  5
210
330
1F
100
AcDbEntity
  8
LAY-10
  6
CONTINUOUS
 62
     7
100
AcDbLine
 10
780.1015151897645
 20
2135.750000000173
 30
0.0
 11
781.1015151897664
 21
2136.000000000173
 31
0.0
  0
LINE
  5
211
330
1F
100
AcDbEntity
  8
LAY-10
  6
CONTINUOUS
 62
     7
100
AcDbLine
 10
780.1015151897645
 20
2135.750000000173
 30
0.0
 11
780.1015151897645
 21
2130.250000000173
 31
0.0
  0
LINE
  5
212
330
1F
100
AcDbEntity
  8
LAY-10
  6
CONTINUOUS
 62
     7
100
AcDbLine
 10
781.1015151897625
 20
2108.000000000174
 30
0.0
 11
781.1015151897625
 21
2103.000000000173
 31
0.0
  0
LINE
  5
213
330
1F
100
AcDbEntity
  8
LAY-10
  6
CONTINUOUS
 62
     7
100
AcDbLine
 10
781.1015151897664
 20
2119.000000000173
 30
0.0
 11
781.1015151897664
 21
2114.000000000174
 31
0.0
  0
LINE
  5
214
330
1F
100
AcDbEntity
  8
LAY-10
  6
CONTINUOUS
 62
     7
100
AcDbLine
 10
781.10151518977
 20
2130.000000000173
 30
0.0
 11
781.1015151897664
 21
2125.000000000172
 31
0.0
  0
LINE
  5
215
330
1F
100
AcDbEntity
  8
LAY-10
  6
CONTINUOUS
 62
     7
100
AcDbLine
 10
828.1015151897662
 20
2097.000000000167
 30
0.0
 11
829.1015151897645
 21
2097.250000000166
 31
0.0
  0
LINE
  5
216
330
1F
100
AcDbEntity
  8
LAY-10
  6
CONTINUOUS
 62
     7
100
AcDbLine
 10
829.1015151897661
 20
2102.750000000166
 30
0.0
 11
828.1015151897662
 21
2103.000000000166
 31
0.0
  0
LINE
  5
217
330
1F
100
AcDbEntity
  8
LAY-10
  6
CONTINUOUS
 62
     7
100
AcDbLine
 10
829.1015151897661
 20
2102.750000000166
 30
0.0
 11
829.1015151897645
 21
2097.250000000166
 31
0.0
  0
LINE
  5
218
330
1F
100
AcDbEntity
  8
LAY-10
  6
CONTINUOUS
 62
     7
100
AcDbLine
 10
828.1015151897698
 20
2108.000000000167
 30
0.0
 11
829.1015151897645
 21
2108.250000000167
 31
0.0
  0
LINE
  5
219
330
1F
100
AcDbEntity
  8
LAY-10
  6
CONTINUOUS
 62
     7
100
AcDbLine
 10
829.1015151897661
 20
2113.750000000169
 30
0.0
 11
828.1015151897698
 21
2114.000000000167
 31
0.0
  0
LINE
  5
21A
330
1F
100
AcDbEntity
  8
LAY-10
  6
CONTINUOUS
 62
     7
100
AcDbLine
 10
829.1015151897661
 20
2113.750000000169
 30
0.0
 11
829.1015151897645
 21
2108.250000000167
 31
0.0
  0
LINE
  5
21B
330
1F
100
AcDbEntity
  8
LAY-10
  6
CONTINUOUS
 62
     7
100
AcDbLine
 10
828.1015151897698
 20
2119.000000000166
 30
0.0
 11
829.1015151897661
 21
2119.250000000167
 31
0.0
  0
LINE
  5
21C
330
1F
100
AcDbEntity
  8
LAY-10
  6
CONTINUOUS
 62
     7
100
AcDbLine
 10
829.101515189768
 20
2124.750000000169
 30
0.0
 11
828.1015151897698
 21
2125.000000000169
 31
0.0
  0
LINE
  5
21D
330
1F
100
AcDbEntity
  8
LAY-10
  6
CONTINUOUS
 62
     7
100
AcDbLine
 10
829.101515189768
 20
2124.750000000169
 30
0.0
 11
829.1015151897661
 21
2119.250000000167
 31
0.0
  0
LINE
  5
21E
330
1F
100
AcDbEntity
  8
LAY-10
  6
CONTINUOUS
 62
     7
100
AcDbLine
 10
828.1015151897734
 20
2130.000000000166
 30
0.0
 11
829.1015151897699
 21
2130.250000000166
 31
0.0
  0
LINE
  5
21F
330
1F
100
AcDbEntity
  8
LAY-10
  6
CONTINUOUS
 62
     7
100
AcDbLine
 10
829.1015151897699
 20
2135.750000000166
 30
0.0
 11
828.1015151897734
 21
2136.000000000167
 31
0.0
  0
LINE
  5
220
330
1F
100
AcDbEntity
  8
LAY-10
  6
CONTINUOUS
 62
     7
100
AcDbLine
 10
829.1015151897699
 20
2135.750000000166
 30
0.0
 11
829.1015151897699
 21
2130.250000000166
 31
0.0
  0
LINE
  5
221
330
1F
100
AcDbEntity
  8
LAY-10
  6
CONTINUOUS
 62
     7
100
AcDbLine
 10
828.1015151897625
 20
2093.000000000167
 30
0.0
 11
828.1015151897625
 21
2097.000000000169
 31
0.0
  0
LINE
  5
222
330
1F
100
AcDbEntity
  8
LAY-10
  6
CONTINUOUS
 62
     7
100
AcDbLine
 10
828.1015151897625
 20
2103.000000000168
 30
0.0
 11
828.1015151897625
 21
2108.000000000167
 31
0.0
  0
LINE
  5
223
330
1F
100
AcDbEntity
  8
LAY-10
  6
CONTINUOUS
 62
     7
100
AcDbLine
 10
828.1015151897662
 20
2114.000000000167
 30
0.0
 11
828.1015151897662
 21
2119.000000000166
 31
0.0
  0
LINE
  5
224
330
1F
100
AcDbEntity
  8
LAY-10
  6
CONTINUOUS
 62
     7
100
AcDbLine
 10
828.1015151897662
 20
2125.000000000166
 30
0.0
 11
828.1015151897698
 21
2130.000000000166
 31
0.0
  0
LINE
  5
225
330
1F
100
AcDbEntity
  8
LAY-10
  6
CONTINUOUS
 62
     7
100
AcDbLine
 10
828.1015151897698
 20
2136.000000000166
 30
0.0
 11
828.1015151897698
 21
2140.000000000167
 31
0.0
  0
LINE
  5
226
330
1F
100
AcDbEntity
  8
LAY-10
  6
CONTINUOUS
 62
     7
100
AcDbLine
 10
800.6015151897664
 20
2138.500000000171
 30
0.0
 11
808.6015151897643
 21
2138.500000000171
 31
0.0
  0
LINE
  5
227
330
1F
100
AcDbEntity
  8
LAY-10
  6
CONTINUOUS
 62
     7
100
AcDbLine
 10
800.60151518977
 20
2141.500000000169
 30
0.0
 11
800.60151518977
 21
2138.500000000171
 31
0.0
  0
LINE
  5
228
330
1F
100
AcDbEntity
  8
LAY-10
  6
CONTINUOUS
 62
     7
100
AcDbLine
 10
808.6015151897681
 20
2141.500000000169
 30
0.0
 11
808.6015151897681
 21
2138.500000000171
 31
0.0
  0
LINE
  5
229
330
1F
100
AcDbEntity
  8
LAY-10
  6
CONTINUOUS
 62
     7
100
AcDbLine
 10
828.1015151897698
 20
2140.000000000167
 30
0.0
 11
808.6015151897681
 21
2140.000000000171
 31
0.0
  0
LINE
  5
22A
330
1F
100
AcDbEntity
  8
LAY-10
  6
CONTINUOUS
 62
     7
100
AcDbLine
 10
800.60151518977
 20
2140.000000000171
 30
0.0
 11
781.10151518977
 21
2140.000000000175
 31
0.0
  0
LINE
  5
22B
330
1F
100
AcDbEntity
  8
LAY-10
  6
CONTINUOUS
 62
     7
100
AcDbLine
 10
829.6015151897589
 20
2091.500000000168
 30
0.0
 11
779.6015151897589
 21
2091.500000000175
 31
0.0
  0
CIRCLE
  5
22C
330
1F
100
AcDbEntity
  8
LAY-10
  6
CONTINUOUS
 62
     7
100
AcDbCircle
 10
859.601515189715
 20
2116.500000000205
 30
0.0
 40
13.00000000000001
  0
CIRCLE
  5
22D
330
1F
100
AcDbEntity
  8
LAY-10
  6
CONTINUOUS
 62
     7
100
AcDbCircle
 10
859.6015151896968
 20
2116.500000000192
 30
0.0
 40
12.75000000000001
  0
LINE
  5
22E
330
1F
100
AcDbEntity
  8
LAY-10
  6
CONTINUOUS
 62
     7
100
AcDbLine
 10
859.6015151896808
 20
2112.500000000207
 30
0.0
 11
853.1015151896825
 21
2116.500000000206
 31
0.0
  0
LINE
  5
22F
330
1F
100
AcDbEntity
  8
LAY-10
  6
CONTINUOUS
 62
     7
100
AcDbLine
 10
866.1015151896843
 20
2116.500000000206
 30
0.0
 11
859.6015151896808
 21
2112.500000000207
 31
0.0
  0
LINE
  5
230
330
1F
100
AcDbEntity
  8
LAY-10
  6
CONTINUOUS
 62
     7
100
AcDbLine
 10
859.6015151896808
 20
2120.500000000207
 30
0.0
 11
866.1015151896843
 21
2116.500000000206
 31
0.0
  0
LINE
  5
231
330
1F
100
AcDbEntity
  8
LAY-10
  6
CONTINUOUS
 62
     7
100
AcDbLine
 10
853.1015151896825
 20
2116.500000000206
 30
0.0
 11
859.6015151896808
 21
2120.500000000207
 31
0.0
  0
LINE
  5
232
330
1F
100
AcDbEntity
  8
LAY-10
  6
CONTINUOUS
 62
     7
100
AcDbLine
 10
863.6015151896862
 20
2127.000000000208
 30
0.0
 11
855.6015151896844
 21
2127.000000000208
 31
0.0
  0
LINE
  5
233
330
1F
100
AcDbEntity
  8
LAY-10
  6
CONTINUOUS
 62
     7
100
AcDbLine
 10
863.6015151896862
 20
2127.000000000208
 30
0.0
 11
863.6015151896862
 21
2128.606300013009
 31
0.0
  0
LINE
  5
234
330
1F
100
AcDbEntity
  8
LAY-10
  6
CONTINUOUS
 62
     7
100
AcDbLine
 10
855.6015151896844
 20
2127.000000000208
 30
0.0
 11
855.6015151896844
 21
2128.606300013009
 31
0.0
  0
LINE
  5
235
330
1F
100
AcDbEntity
  8
LAY-10
  6
CONTINUOUS
 62
     7
100
AcDbLine
 10
1142.10151518982
 20
2151.500000000196
 30
0.0
 11
746.1015151898098
 21
2151.500000000196
 31
0.0
  0
LINE
  5
236
330
1F
100
AcDbEntity
  8
LAY-10
  6
CONTINUOUS
 62
     7
100
AcDbLine
 10
1422.601515190185
 20
2127.000000000206
 30
0.0
 11
1422.601515190185
 21
2128.606300013006
 31
0.0
  0
LINE
  5
237
330
1F
100
AcDbEntity
  8
LAY-10
  6
CONTINUOUS
 62
     7
100
AcDbLine
 10
1430.601515190183
 20
2127.000000000206
 30
0.0
 11
1430.601515190183
 21
2128.606300013006
 31
0.0
  0
LINE
  5
238
330
1F
100
AcDbEntity
  8
LAY-10
  6
CONTINUOUS
 62
     7
100
AcDbLine
 10
1430.601515190183
 20
2127.000000000206
 30
0.0
 11
1422.601515190185
 21
2127.000000000206
 31
0.0
  0
LINE
  5
239
330
1F
100
AcDbEntity
  8
LAY-10
  6
CONTINUOUS
 62
     7
100
AcDbLine
 10
1420.101515190181
 20
2116.500000000204
 30
0.0
 11
1426.601515190182
 21
2120.500000000206
 31
0.0
  0
LINE
  5
23A
330
1F
100
AcDbEntity
  8
LAY-10
  6
CONTINUOUS
 62
     7
100
AcDbLine
 10
1426.601515190182
 20
2120.500000000206
 30
0.0
 11
1433.101515190183
 21
2116.500000000204
 31
0.0
  0
LINE
  5
23B
330
1F
100
AcDbEntity
  8
LAY-10
  6
CONTINUOUS
 62
     7
100
AcDbLine
 10
1433.101515190183
 20
2116.500000000204
 30
0.0
 11
1426.601515190182
 21
2112.500000000206
 31
0.0
  0
LINE
  5
23C
330
1F
100
AcDbEntity
  8
LAY-10
  6
CONTINUOUS
 62
     7
100
AcDbLine
 10
1426.601515190182
 20
2112.500000000206
 30
0.0
 11
1420.101515190181
 21
2116.500000000204
 31
0.0
  0
CIRCLE
  5
23D
330
1F
100
AcDbEntity
  8
LAY-10
  6
CONTINUOUS
 62
     7
100
AcDbCircle
 10
1426.601515190196
 20
2116.500000000191
 30
0.0
 40
12.75000000000001
  0
CIRCLE
  5
23E
330
1F
100
AcDbEntity
  8
LAY-10
  6
CONTINUOUS
 62
     7
100
AcDbCircle
 10
1426.601515190205
 20
2116.500000000204
 30
0.0
 40
13.00000000000001
  0
LINE
  5
23F
330
1F
100
AcDbEntity
  8
LAY-10
  6
CONTINUOUS
 62
     7
100
AcDbLine
 10
1456.601515190157
 20
2091.500000000166
 30
0.0
 11
1506.601515190162
 21
2091.500000000174
 31
0.0
  0
LINE
  5
240
330
1F
100
AcDbEntity
  8
LAY-10
  6
CONTINUOUS
 62
     7
100
AcDbLine
 10
1485.601515190148
 20
2140.000000000169
 30
0.0
 11
1505.101515190151
 21
2140.000000000173
 31
0.0
  0
LINE
  5
241
330
1F
100
AcDbEntity
  8
LAY-10
  6
CONTINUOUS
 62
     7
100
AcDbLine
 10
1458.10151519015
 20
2140.000000000166
 30
0.0
 11
1477.60151519015
 21
2140.000000000169
 31
0.0
  0
LINE
  5
242
330
1F
100
AcDbEntity
  8
LAY-10
  6
CONTINUOUS
 62
     7
100
AcDbLine
 10
1477.60151519015
 20
2141.500000000167
 30
0.0
 11
1477.60151519015
 21
2138.500000000169
 31
0.0
  0
LINE
  5
243
330
1F
100
AcDbEntity
  8
LAY-10
  6
CONTINUOUS
 62
     7
100
AcDbLine
 10
1485.601515190148
 20
2141.500000000167
 30
0.0
 11
1485.601515190148
 21
2138.500000000169
 31
0.0
  0
LINE
  5
244
330
1F
100
AcDbEntity
  8
LAY-10
  6
CONTINUOUS
 62
     7
100
AcDbLine
 10
1485.601515190154
 20
2138.500000000169
 30
0.0
 11
1477.601515190152
 21
2138.500000000169
 31
0.0
  0
LINE
  5
245
330
1F
100
AcDbEntity
  8
LAY-10
  6
CONTINUOUS
 62
     7
100
AcDbLine
 10
1458.10151519015
 20
2136.000000000165
 30
0.0
 11
1458.10151519015
 21
2140.000000000166
 31
0.0
  0
LINE
  5
246
330
1F
100
AcDbEntity
  8
LAY-10
  6
CONTINUOUS
 62
     7
100
AcDbLine
 10
1458.101515190154
 20
2125.000000000164
 30
0.0
 11
1458.10151519015
 21
2130.000000000163
 31
0.0
  0
LINE
  5
247
330
1F
100
AcDbEntity
  8
LAY-10
  6
CONTINUOUS
 62
     7
100
AcDbLine
 10
1458.101515190154
 20
2114.000000000166
 30
0.0
 11
1458.101515190154
 21
2119.000000000165
 31
0.0
  0
LINE
  5
248
330
1F
100
AcDbEntity
  8
LAY-10
  6
CONTINUOUS
 62
     7
100
AcDbLine
 10
1458.101515190158
 20
2103.000000000166
 30
0.0
 11
1458.101515190158
 21
2108.000000000166
 31
0.0
  0
LINE
  5
249
330
1F
100
AcDbEntity
  8
LAY-10
  6
CONTINUOUS
 62
     7
100
AcDbLine
 10
1458.101515190158
 20
2093.000000000166
 30
0.0
 11
1458.101515190158
 21
2097.000000000167
 31
0.0
  0
LINE
  5
24A
330
1F
100
AcDbEntity
  8
LAY-10
  6
CONTINUOUS
 62
     7
100
AcDbLine
 10
1457.101515190148
 20
2135.750000000164
 30
0.0
 11
1457.101515190148
 21
2130.250000000165
 31
0.0
  0
LINE
  5
24B
330
1F
100
AcDbEntity
  8
LAY-10
  6
CONTINUOUS
 62
     7
100
AcDbLine
 10
1457.101515190148
 20
2135.750000000164
 30
0.0
 11
1458.101515190147
 21
2136.000000000166
 31
0.0
  0
LINE
  5
24C
330
1F
100
AcDbEntity
  8
LAY-10
  6
CONTINUOUS
 62
     7
100
AcDbLine
 10
1458.101515190147
 20
2130.000000000163
 30
0.0
 11
1457.101515190148
 21
2130.250000000165
 31
0.0
  0
LINE
  5
24D
330
1F
100
AcDbEntity
  8
LAY-10
  6
CONTINUOUS
 62
     7
100
AcDbLine
 10
1457.10151519015
 20
2124.750000000167
 30
0.0
 11
1457.10151519015
 21
2119.250000000166
 31
0.0
  0
LINE
  5
24E
330
1F
100
AcDbEntity
  8
LAY-10
  6
CONTINUOUS
 62
     7
100
AcDbLine
 10
1457.10151519015
 20
2124.750000000167
 30
0.0
 11
1458.10151519015
 21
2125.000000000167
 31
0.0
  0
LINE
  5
24F
330
1F
100
AcDbEntity
  8
LAY-10
  6
CONTINUOUS
 62
     7
100
AcDbLine
 10
1458.10151519015
 20
2119.000000000165
 30
0.0
 11
1457.10151519015
 21
2119.250000000166
 31
0.0
  0
LINE
  5
250
330
1F
100
AcDbEntity
  8
LAY-10
  6
CONTINUOUS
 62
     7
100
AcDbLine
 10
1457.10151519015
 20
2113.750000000167
 30
0.0
 11
1457.101515190152
 21
2108.250000000166
 31
0.0
  0
LINE
  5
251
330
1F
100
AcDbEntity
  8
LAY-10
  6
CONTINUOUS
 62
     7
100
AcDbLine
 10
1457.10151519015
 20
2113.750000000167
 30
0.0
 11
1458.10151519015
 21
2114.000000000166
 31
0.0
  0
LINE
  5
252
330
1F
100
AcDbEntity
  8
LAY-10
  6
CONTINUOUS
 62
     7
100
AcDbLine
 10
1458.10151519015
 20
2108.000000000166
 30
0.0
 11
1457.101515190152
 21
2108.250000000166
 31
0.0
  0
LINE
  5
253
330
1F
100
AcDbEntity
  8
LAY-10
  6
CONTINUOUS
 62
     7
100
AcDbLine
 10
1457.10151519015
 20
2102.750000000164
 30
0.0
 11
1457.101515190152
 21
2097.250000000165
 31
0.0
  0
LINE
  5
254
330
1F
100
AcDbEntity
  8
LAY-10
  6
CONTINUOUS
 62
     7
100
AcDbLine
 10
1457.10151519015
 20
2102.750000000164
 30
0.0
 11
1458.101515190154
 21
2103.000000000164
 31
0.0
  0
LINE
  5
255
330
1F
100
AcDbEntity
  8
LAY-10
  6
CONTINUOUS
 62
     7
100
AcDbLine
 10
1458.101515190154
 20
2097.000000000166
 30
0.0
 11
1457.101515190152
 21
2097.250000000165
 31
0.0
  0
LINE
  5
256
330
1F
100
AcDbEntity
  8
LAY-10
  6
CONTINUOUS
 62
     7
100
AcDbLine
 10
1505.101515190151
 20
2130.000000000171
 30
0.0
 11
1505.101515190154
 21
2125.00000000017
 31
0.0
  0
LINE
  5
257
330
1F
100
AcDbEntity
  8
LAY-10
  6
CONTINUOUS
 62
     7
100
AcDbLine
 10
1505.101515190154
 20
2119.000000000171
 30
0.0
 11
1505.101515190154
 21
2114.000000000172
 31
0.0
  0
LINE
  5
258
330
1F
100
AcDbEntity
  8
LAY-10
  6
CONTINUOUS
 62
     7
100
AcDbLine
 10
1505.101515190158
 20
2108.000000000172
 30
0.0
 11
1505.101515190158
 21
2103.000000000171
 31
0.0
  0
LINE
  5
259
330
1F
100
AcDbEntity
  8
LAY-10
  6
CONTINUOUS
 62
     7
100
AcDbLine
 10
1506.101515190156
 20
2135.750000000171
 30
0.0
 11
1506.101515190156
 21
2130.250000000171
 31
0.0
  0
LINE
  5
25A
330
1F
100
AcDbEntity
  8
LAY-10
  6
CONTINUOUS
 62
     7
100
AcDbLine
 10
1506.101515190156
 20
2135.750000000171
 30
0.0
 11
1505.101515190154
 21
2136.000000000171
 31
0.0
  0
LINE
  5
25B
330
1F
100
AcDbEntity
  8
LAY-10
  6
CONTINUOUS
 62
     7
100
AcDbLine
 10
1505.101515190154
 20
2130.000000000171
 30
0.0
 11
1506.101515190156
 21
2130.250000000171
 31
0.0
  0
LINE
  5
25C
330
1F
100
AcDbEntity
  8
LAY-10
  6
CONTINUOUS
 62
     7
100
AcDbLine
 10
1506.101515190157
 20
2124.750000000174
 30
0.0
 11
1506.101515190157
 21
2119.250000000172
 31
0.0
  0
LINE
  5
25D
330
1F
100
AcDbEntity
  8
LAY-10
  6
CONTINUOUS
 62
     7
100
AcDbLine
 10
1506.101515190157
 20
2124.750000000174
 30
0.0
 11
1505.101515190158
 21
2125.000000000171
 31
0.0
  0
LINE
  5
25E
330
1F
100
AcDbEntity
  8
LAY-10
  6
CONTINUOUS
 62
     7
100
AcDbLine
 10
1505.101515190158
 20
2119.000000000171
 30
0.0
 11
1506.101515190157
 21
2119.250000000172
 31
0.0
  0
LINE
  5
25F
330
1F
100
AcDbEntity
  8
LAY-10
  6
CONTINUOUS
 62
     7
100
AcDbLine
 10
1506.101515190157
 20
2113.750000000171
 30
0.0
 11
1506.101515190157
 21
2108.250000000172
 31
0.0
  0
LINE
  5
260
330
1F
100
AcDbEntity
  8
LAY-10
  6
CONTINUOUS
 62
     7
100
AcDbLine
 10
1506.101515190157
 20
2113.750000000171
 30
0.0
 11
1505.101515190158
 21
2114.000000000172
 31
0.0
  0
LINE
  5
261
330
1F
100
AcDbEntity
  8
LAY-10
  6
CONTINUOUS
 62
     7
100
AcDbLine
 10
1505.101515190159
 20
2108.000000000172
 30
0.0
 11
1506.101515190157
 21
2108.250000000172
 31
0.0
  0
LINE
  5
262
330
1F
100
AcDbEntity
  8
LAY-10
  6
CONTINUOUS
 62
     7
100
AcDbLine
 10
1505.101515190158
 20
2097.000000000174
 30
0.0
 11
1505.101515190158
 21
2093.000000000172
 31
0.0
  0
LINE
  5
263
330
1F
100
AcDbEntity
  8
LAY-10
  6
CONTINUOUS
 62
     7
100
AcDbLine
 10
1506.101515190161
 20
2102.750000000172
 30
0.0
 11
1506.101515190161
 21
2097.250000000172
 31
0.0
  0
LINE
  5
264
330
1F
100
AcDbEntity
  8
LAY-10
  6
CONTINUOUS
 62
     7
100
AcDbLine
 10
1506.101515190161
 20
2102.750000000172
 30
0.0
 11
1505.101515190159
 21
2103.000000000171
 31
0.0
  0
LINE
  5
265
330
1F
100
AcDbEntity
  8
LAY-10
  6
CONTINUOUS
 62
     7
100
AcDbLine
 10
1505.101515190159
 20
2097.000000000172
 30
0.0
 11
1506.101515190161
 21
2097.250000000172
 31
0.0
  0
LINE
  5
266
330
1F
100
AcDbEntity
  8
LAY-10
  6
CONTINUOUS
 62
     7
100
AcDbLine
 10
1458.101515190158
 20
2136.000000000165
 30
0.0
 11
1505.101515190154
 21
2136.000000000171
 31
0.0
  0
LINE
  5
267
330
1F
100
AcDbEntity
  8
LAY-10
  6
CONTINUOUS
 62
     7
100
AcDbLine
 10
1458.10151519015
 20
2130.000000000163
 30
0.0
 11
1505.101515190154
 21
2130.00000000017
 31
0.0
  0
LINE
  5
268
330
1F
100
AcDbEntity
  8
LAY-10
  6
CONTINUOUS
 62
     7
100
AcDbLine
 10
1458.101515190158
 20
2125.000000000164
 30
0.0
 11
1505.101515190158
 21
2125.00000000017
 31
0.0
  0
LINE
  5
269
330
1F
100
AcDbEntity
  8
LAY-10
  6
CONTINUOUS
 62
     7
100
AcDbLine
 10
1458.101515190161
 20
2097.000000000167
 30
0.0
 11
1505.101515190159
 21
2097.000000000174
 31
0.0
  0
LINE
  5
26A
330
1F
100
AcDbEntity
  8
LAY-10
  6
CONTINUOUS
 62
     7
100
AcDbLine
 10
1458.101515190158
 20
2103.000000000166
 30
0.0
 11
1505.101515190159
 21
2103.000000000171
 31
0.0
  0
LINE
  5
26B
330
1F
100
AcDbEntity
  8
LAY-10
  6
CONTINUOUS
 62
     7
100
AcDbLine
 10
1458.10151519016
 20
2108.000000000166
 30
0.0
 11
1505.101515190159
 21
2108.000000000172
 31
0.0
  0
LINE
  5
26C
330
1F
100
AcDbEntity
  8
LAY-10
  6
CONTINUOUS
 62
     7
100
AcDbLine
 10
1505.101515190154
 20
2119.000000000171
 30
0.0
 11
1458.101515190154
 21
2119.000000000165
 31
0.0
  0
LINE
  5
26D
330
1F
100
AcDbEntity
  8
LAY-10
  6
CONTINUOUS
 62
     7
100
AcDbLine
 10
1505.101515190154
 20
2114.000000000172
 30
0.0
 11
1458.101515190154
 21
2114.000000000166
 31
0.0
  0
LINE
  5
26E
330
1F
100
AcDbEntity
  8
LAY-10
  6
CONTINUOUS
 62
     7
100
AcDbLine
 10
1505.101515190158
 20
2093.000000000172
 30
0.0
 11
1458.101515190158
 21
2093.000000000166
 31
0.0
  0
LINE
  5
26F
330
1F
100
AcDbEntity
  8
LAY-10
  6
CONTINUOUS
 62
     7
100
AcDbLine
 10
1505.101515190151
 20
2140.000000000173
 30
0.0
 11
1505.101515190151
 21
2136.000000000171
 31
0.0
  0
LINE
  5
270
330
1F
100
AcDbEntity
  8
LAY-10
  6
CONTINUOUS
 62
     7
100
AcDbLine
 10
1506.601515190154
 20
2141.500000000167
 30
0.0
 11
1506.601515190162
 21
2091.500000000174
 31
0.0
  0
LINE
  5
271
330
1F
100
AcDbEntity
  8
LAY-10
  6
CONTINUOUS
 62
     7
100
AcDbLine
 10
1456.601515190154
 20
2141.500000000159
 30
0.0
 11
1506.601515190154
 21
2141.500000000167
 31
0.0
  0
LINE
  5
272
330
1F
100
AcDbEntity
  8
LAY-10
  6
CONTINUOUS
 62
     7
100
AcDbLine
 10
1456.601515190154
 20
2141.500000000159
 30
0.0
 11
1456.601515190157
 21
2091.500000000166
 31
0.0
  0
LINE
  5
273
330
1F
100
AcDbEntity
  8
LAY-10
  6
CONTINUOUS
 62
     7
100
AcDbLine
 10
1227.601515190056
 20
1217.500000000138
 30
0.0
 11
1227.601515190052
 21
1267.500000000132
 31
0.0
  0
LINE
  5
274
330
1F
100
AcDbEntity
  8
LAY-10
  6
CONTINUOUS
 62
     7
100
AcDbLine
 10
1227.601515190056
 20
1217.500000000138
 30
0.0
 11
1177.601515190057
 21
1217.500000000131
 31
0.0
  0
LINE
  5
275
330
1F
100
AcDbEntity
  8
LAY-10
  6
CONTINUOUS
 62
     7
100
AcDbLine
 10
1177.601515190057
 20
1217.500000000131
 30
0.0
 11
1177.601515190048
 21
1267.500000000126
 31
0.0
  0
LINE
  5
276
330
1F
100
AcDbEntity
  8
LAY-10
  6
CONTINUOUS
 62
     7
100
AcDbLine
 10
1179.101515190057
 20
1219.000000000126
 30
0.0
 11
1179.101515190057
 21
1223.000000000127
 31
0.0
  0
LINE
  5
277
330
1F
100
AcDbEntity
  8
LAY-10
  6
CONTINUOUS
 62
     7
100
AcDbLine
 10
1179.101515190052
 20
1266.000000000126
 30
0.0
 11
1226.101515190052
 21
1266.000000000133
 31
0.0
  0
LINE
  5
278
330
1F
100
AcDbEntity
  8
LAY-10
  6
CONTINUOUS
 62
     7
100
AcDbLine
 10
1179.101515190054
 20
1245.000000000126
 30
0.0
 11
1226.101515190054
 21
1245.000000000133
 31
0.0
  0
LINE
  5
279
330
1F
100
AcDbEntity
  8
LAY-10
  6
CONTINUOUS
 62
     7
100
AcDbLine
 10
1179.101515190054
 20
1240.000000000127
 30
0.0
 11
1226.101515190056
 21
1240.000000000134
 31
0.0
  0
LINE
  5
27A
330
1F
100
AcDbEntity
  8
LAY-10
  6
CONTINUOUS
 62
     7
100
AcDbLine
 10
1226.101515190052
 20
1251.000000000133
 30
0.0
 11
1179.101515190052
 21
1251.000000000126
 31
0.0
  0
LINE
  5
27B
330
1F
100
AcDbEntity
  8
LAY-10
  6
CONTINUOUS
 62
     7
100
AcDbLine
 10
1226.101515190052
 20
1256.000000000131
 30
0.0
 11
1179.101515190052
 21
1256.000000000127
 31
0.0
  0
LINE
  5
27C
330
1F
100
AcDbEntity
  8
LAY-10
  6
CONTINUOUS
 62
     7
100
AcDbLine
 10
1226.101515190048
 20
1262.000000000131
 30
0.0
 11
1179.101515190052
 21
1262.000000000125
 31
0.0
  0
LINE
  5
27D
330
1F
100
AcDbEntity
  8
LAY-10
  6
CONTINUOUS
 62
     7
100
AcDbLine
 10
1226.101515190052
 20
1234.000000000135
 30
0.0
 11
1179.101515190054
 21
1234.000000000128
 31
0.0
  0
LINE
  5
27E
330
1F
100
AcDbEntity
  8
LAY-10
  6
CONTINUOUS
 62
     7
100
AcDbLine
 10
1226.101515190057
 20
1229.000000000135
 30
0.0
 11
1179.101515190054
 21
1229.000000000128
 31
0.0
  0
LINE
  5
27F
330
1F
100
AcDbEntity
  8
LAY-10
  6
CONTINUOUS
 62
     7
100
AcDbLine
 10
1226.101515190052
 20
1223.000000000134
 30
0.0
 11
1179.101515190054
 21
1223.000000000127
 31
0.0
  0
LINE
  5
280
330
1F
100
AcDbEntity
  8
LAY-10
  6
CONTINUOUS
 62
     7
100
AcDbLine
 10
1179.101515190052
 20
1262.000000000126
 30
0.0
 11
1178.10151519005
 21
1261.750000000127
 31
0.0
  0
LINE
  5
281
330
1F
100
AcDbEntity
  8
LAY-10
  6
CONTINUOUS
 62
     7
100
AcDbLine
 10
1178.10151519005
 20
1256.250000000126
 30
0.0
 11
1179.101515190052
 21
1256.000000000127
 31
0.0
  0
LINE
  5
282
330
1F
100
AcDbEntity
  8
LAY-10
  6
CONTINUOUS
 62
     7
100
AcDbLine
 10
1178.10151519005
 20
1256.250000000126
 30
0.0
 11
1178.10151519005
 21
1261.750000000127
 31
0.0
  0
LINE
  5
283
330
1F
100
AcDbEntity
  8
LAY-10
  6
CONTINUOUS
 62
     7
100
AcDbLine
 10
1179.101515190052
 20
1262.000000000125
 30
0.0
 11
1179.101515190052
 21
1266.000000000126
 31
0.0
  0
LINE
  5
284
330
1F
100
AcDbEntity
  8
LAY-10
  6
CONTINUOUS
 62
     7
100
AcDbLine
 10
1179.101515190052
 20
1251.000000000126
 30
0.0
 11
1178.101515190052
 21
1250.750000000126
 31
0.0
  0
LINE
  5
285
330
1F
100
AcDbEntity
  8
LAY-10
  6
CONTINUOUS
 62
     7
100
AcDbLine
 10
1178.101515190052
 20
1245.250000000127
 30
0.0
 11
1179.101515190052
 21
1245.000000000126
 31
0.0
  0
LINE
  5
286
330
1F
100
AcDbEntity
  8
LAY-10
  6
CONTINUOUS
 62
     7
100
AcDbLine
 10
1178.101515190052
 20
1245.250000000127
 30
0.0
 11
1178.101515190052
 21
1250.750000000126
 31
0.0
  0
LINE
  5
287
330
1F
100
AcDbEntity
  8
LAY-10
  6
CONTINUOUS
 62
     7
100
AcDbLine
 10
1179.101515190052
 20
1240.000000000127
 30
0.0
 11
1178.101515190052
 21
1239.750000000126
 31
0.0
  0
LINE
  5
288
330
1F
100
AcDbEntity
  8
LAY-10
  6
CONTINUOUS
 62
     7
100
AcDbLine
 10
1178.101515190054
 20
1234.250000000125
 30
0.0
 11
1179.101515190054
 21
1234.000000000127
 31
0.0
  0
LINE
  5
289
330
1F
100
AcDbEntity
  8
LAY-10
  6
CONTINUOUS
 62
     7
100
AcDbLine
 10
1178.101515190054
 20
1234.250000000125
 30
0.0
 11
1178.101515190052
 21
1239.750000000126
 31
0.0
  0
LINE
  5
28A
330
1F
100
AcDbEntity
  8
LAY-10
  6
CONTINUOUS
 62
     7
100
AcDbLine
 10
1179.101515190054
 20
1229.000000000127
 30
0.0
 11
1178.101515190056
 21
1228.750000000127
 31
0.0
  0
LINE
  5
28B
330
1F
100
AcDbEntity
  8
LAY-10
  6
CONTINUOUS
 62
     7
100
AcDbLine
 10
1178.101515190056
 20
1223.250000000127
 30
0.0
 11
1179.101515190054
 21
1223.000000000127
 31
0.0
  0
LINE
  5
28C
330
1F
100
AcDbEntity
  8
LAY-10
  6
CONTINUOUS
 62
     7
100
AcDbLine
 10
1178.101515190056
 20
1223.250000000127
 30
0.0
 11
1178.101515190056
 21
1228.750000000127
 31
0.0
  0
LINE
  5
28D
330
1F
100
AcDbEntity
  8
LAY-10
  6
CONTINUOUS
 62
     7
100
AcDbLine
 10
1179.101515190054
 20
1251.000000000126
 30
0.0
 11
1179.101515190054
 21
1256.000000000127
 31
0.0
  0
LINE
  5
28E
330
1F
100
AcDbEntity
  8
LAY-10
  6
CONTINUOUS
 62
     7
100
AcDbLine
 10
1179.101515190054
 20
1240.000000000127
 30
0.0
 11
1179.101515190054
 21
1245.000000000126
 31
0.0
  0
LINE
  5
28F
330
1F
100
AcDbEntity
  8
LAY-10
  6
CONTINUOUS
 62
     7
100
AcDbLine
 10
1179.101515190057
 20
1229.000000000127
 30
0.0
 11
1179.101515190054
 21
1234.000000000128
 31
0.0
  0
LINE
  5
290
330
1F
100
AcDbEntity
  8
LAY-10
  6
CONTINUOUS
 62
     7
100
AcDbLine
 10
1226.101515190056
 20
1262.000000000133
 30
0.0
 11
1227.101515190056
 21
1261.750000000134
 31
0.0
  0
LINE
  5
291
330
1F
100
AcDbEntity
  8
LAY-10
  6
CONTINUOUS
 62
     7
100
AcDbLine
 10
1227.101515190059
 20
1256.250000000135
 30
0.0
 11
1226.101515190056
 21
1256.000000000135
 31
0.0
  0
LINE
  5
292
330
1F
100
AcDbEntity
  8
LAY-10
  6
CONTINUOUS
 62
     7
100
AcDbLine
 10
1227.101515190059
 20
1256.250000000135
 30
0.0
 11
1227.101515190056
 21
1261.750000000134
 31
0.0
  0
LINE
  5
293
330
1F
100
AcDbEntity
  8
LAY-10
  6
CONTINUOUS
 62
     7
100
AcDbLine
 10
1226.101515190057
 20
1251.000000000133
 30
0.0
 11
1227.101515190056
 21
1250.750000000133
 31
0.0
  0
LINE
  5
294
330
1F
100
AcDbEntity
  8
LAY-10
  6
CONTINUOUS
 62
     7
100
AcDbLine
 10
1227.101515190059
 20
1245.250000000131
 30
0.0
 11
1226.101515190057
 21
1245.000000000133
 31
0.0
  0
LINE
  5
295
330
1F
100
AcDbEntity
  8
LAY-10
  6
CONTINUOUS
 62
     7
100
AcDbLine
 10
1227.101515190059
 20
1245.250000000131
 30
0.0
 11
1227.101515190056
 21
1250.750000000133
 31
0.0
  0
LINE
  5
296
330
1F
100
AcDbEntity
  8
LAY-10
  6
CONTINUOUS
 62
     7
100
AcDbLine
 10
1226.101515190061
 20
1240.000000000134
 30
0.0
 11
1227.101515190059
 21
1239.750000000133
 31
0.0
  0
LINE
  5
297
330
1F
100
AcDbEntity
  8
LAY-10
  6
CONTINUOUS
 62
     7
100
AcDbLine
 10
1227.101515190059
 20
1234.250000000131
 30
0.0
 11
1226.101515190061
 21
1234.000000000131
 31
0.0
  0
LINE
  5
298
330
1F
100
AcDbEntity
  8
LAY-10
  6
CONTINUOUS
 62
     7
100
AcDbLine
 10
1227.101515190059
 20
1234.250000000131
 30
0.0
 11
1227.101515190059
 21
1239.750000000133
 31
0.0
  0
LINE
  5
299
330
1F
100
AcDbEntity
  8
LAY-10
  6
CONTINUOUS
 62
     7
100
AcDbLine
 10
1226.101515190063
 20
1229.000000000135
 30
0.0
 11
1227.101515190063
 21
1228.750000000134
 31
0.0
  0
LINE
  5
29A
330
1F
100
AcDbEntity
  8
LAY-10
  6
CONTINUOUS
 62
     7
100
AcDbLine
 10
1227.101515190063
 20
1223.250000000135
 30
0.0
 11
1226.101515190063
 21
1223.000000000133
 31
0.0
  0
LINE
  5
29B
330
1F
100
AcDbEntity
  8
LAY-10
  6
CONTINUOUS
 62
     7
100
AcDbLine
 10
1227.101515190063
 20
1223.250000000135
 30
0.0
 11
1227.101515190063
 21
1228.750000000134
 31
0.0
  0
LINE
  5
29C
330
1F
100
AcDbEntity
  8
LAY-10
  6
CONTINUOUS
 62
     7
100
AcDbLine
 10
1226.101515190052
 20
1266.000000000133
 30
0.0
 11
1226.101515190052
 21
1262.000000000131
 31
0.0
  0
LINE
  5
29D
330
1F
100
AcDbEntity
  8
LAY-10
  6
CONTINUOUS
 62
     7
100
AcDbLine
 10
1226.101515190052
 20
1256.000000000131
 30
0.0
 11
1226.101515190052
 21
1251.000000000133
 31
0.0
  0
LINE
  5
29E
330
1F
100
AcDbEntity
  8
LAY-10
  6
CONTINUOUS
 62
     7
100
AcDbLine
 10
1226.101515190054
 20
1245.000000000133
 30
0.0
 11
1226.101515190056
 21
1240.000000000134
 31
0.0
  0
LINE
  5
29F
330
1F
100
AcDbEntity
  8
LAY-10
  6
CONTINUOUS
 62
     7
100
AcDbLine
 10
1226.101515190056
 20
1234.000000000135
 30
0.0
 11
1226.101515190057
 21
1229.000000000135
 31
0.0
  0
LINE
  5
2A0
330
1F
100
AcDbEntity
  8
LAY-10
  6
CONTINUOUS
 62
     7
100
AcDbLine
 10
1226.101515190057
 20
1223.000000000134
 30
0.0
 11
1226.101515190061
 21
1219.000000000133
 31
0.0
  0
LINE
  5
2A1
330
1F
100
AcDbEntity
  8
LAY-10
  6
CONTINUOUS
 62
     7
100
AcDbLine
 10
1198.601515190056
 20
1220.500000000129
 30
0.0
 11
1206.601515190056
 21
1220.500000000129
 31
0.0
  0
LINE
  5
2A2
330
1F
100
AcDbEntity
  8
LAY-10
  6
CONTINUOUS
 62
     7
100
AcDbLine
 10
1198.601515190059
 20
1217.500000000131
 30
0.0
 11
1198.601515190059
 21
1220.500000000129
 31
0.0
  0
LINE
  5
2A3
330
1F
100
AcDbEntity
  8
LAY-10
  6
CONTINUOUS
 62
     7
100
AcDbLine
 10
1206.601515190059
 20
1217.500000000131
 30
0.0
 11
1206.601515190059
 21
1220.500000000129
 31
0.0
  0
LINE
  5
2A4
330
1F
100
AcDbEntity
  8
LAY-10
  6
CONTINUOUS
 62
     7
100
AcDbLine
 10
1226.101515190061
 20
1219.000000000133
 30
0.0
 11
1206.601515190059
 21
1219.000000000129
 31
0.0
  0
LINE
  5
2A5
330
1F
100
AcDbEntity
  8
LAY-10
  6
CONTINUOUS
 62
     7
100
AcDbLine
 10
1198.601515190059
 20
1219.000000000129
 30
0.0
 11
1179.101515190057
 21
1219.000000000126
 31
0.0
  0
LINE
  5
2A6
330
1F
100
AcDbEntity
  8
LAY-10
  6
CONTINUOUS
 62
     7
100
AcDbLine
 10
1227.601515190052
 20
1267.500000000132
 30
0.0
 11
1177.601515190048
 21
1267.500000000126
 31
0.0
  0
CIRCLE
  5
2A7
330
1F
100
AcDbEntity
  8
LAY-10
  6
CONTINUOUS
 62
     7
100
AcDbCircle
 10
1257.601515190005
 20
1242.500000000095
 30
0.0
 40
13.00000000000001
  0
CIRCLE
  5
2A8
330
1F
100
AcDbEntity
  8
LAY-10
  6
CONTINUOUS
 62
     7
100
AcDbCircle
 10
1257.601515190005
 20
1242.500000000108
 30
0.0
 40
12.75000000000001
  0
LINE
  5
2A9
330
1F
100
AcDbEntity
  8
LAY-10
  6
CONTINUOUS
 62
     7
100
AcDbLine
 10
1257.601515190019
 20
1246.500000000092
 30
0.0
 11
1264.101515190017
 21
1242.500000000095
 31
0.0
  0
LINE
  5
2AA
330
1F
100
AcDbEntity
  8
LAY-10
  6
CONTINUOUS
 62
     7
100
AcDbLine
 10
1251.101515190016
 20
1242.500000000095
 30
0.0
 11
1257.601515190019
 21
1246.500000000092
 31
0.0
  0
LINE
  5
2AB
330
1F
100
AcDbEntity
  8
LAY-10
  6
CONTINUOUS
 62
     7
100
AcDbLine
 10
1257.601515190019
 20
1238.500000000093
 30
0.0
 11
1251.101515190016
 21
1242.500000000095
 31
0.0
  0
LINE
  5
2AC
330
1F
100
AcDbEntity
  8
LAY-10
  6
CONTINUOUS
 62
     7
100
AcDbLine
 10
1264.101515190017
 20
1242.500000000095
 30
0.0
 11
1257.601515190019
 21
1238.500000000093
 31
0.0
  0
LINE
  5
2AD
330
1F
100
AcDbEntity
  8
LAY-10
  6
CONTINUOUS
 62
     7
100
AcDbLine
 10
1253.601515190016
 20
1232.000000000092
 30
0.0
 11
1261.601515190016
 21
1232.000000000092
 31
0.0
  0
LINE
  5
2AE
330
1F
100
AcDbEntity
  8
LAY-10
  6
CONTINUOUS
 62
     7
100
AcDbLine
 10
1253.601515190016
 20
1232.000000000092
 30
0.0
 11
1253.601515190016
 21
1230.393699987291
 31
0.0
  0
LINE
  5
2AF
330
1F
100
AcDbEntity
  8
LAY-10
  6
CONTINUOUS
 62
     7
100
AcDbLine
 10
1261.601515190016
 20
1232.000000000092
 30
0.0
 11
1261.601515190016
 21
1230.393699987291
 31
0.0
  0
LINE
  5
2B0
330
1F
100
AcDbEntity
  8
LAY-10
  6
CONTINUOUS
 62
     7
100
AcDbLine
 10
829.6015151897552
 20
1217.500000000138
 30
0.0
 11
829.6015151897516
 21
1267.500000000132
 31
0.0
  0
LINE
  5
2B1
330
1F
100
AcDbEntity
  8
LAY-10
  6
CONTINUOUS
 62
     7
100
AcDbLine
 10
829.6015151897552
 20
1217.500000000138
 30
0.0
 11
779.601515189757
 21
1217.500000000131
 31
0.0
  0
LINE
  5
2B2
330
1F
100
AcDbEntity
  8
LAY-10
  6
CONTINUOUS
 62
     7
100
AcDbLine
 10
779.601515189757
 20
1217.500000000131
 30
0.0
 11
779.6015151897482
 21
1267.500000000126
 31
0.0
  0
LINE
  5
2B3
330
1F
100
AcDbEntity
  8
LAY-10
  6
CONTINUOUS
 62
     7
100
AcDbLine
 10
781.101515189757
 20
1219.000000000126
 30
0.0
 11
781.101515189757
 21
1223.000000000127
 31
0.0
  0
LINE
  5
2B4
330
1F
100
AcDbEntity
  8
LAY-10
  6
CONTINUOUS
 62
     7
100
AcDbLine
 10
781.1015151897516
 20
1266.000000000126
 30
0.0
 11
828.1015151897518
 21
1266.000000000133
 31
0.0
  0
LINE
  5
2B5
330
1F
100
AcDbEntity
  8
LAY-10
  6
CONTINUOUS
 62
     7
100
AcDbLine
 10
781.1015151897536
 20
1245.000000000126
 30
0.0
 11
828.1015151897534
 21
1245.000000000133
 31
0.0
  0
LINE
  5
2B6
330
1F
100
AcDbEntity
  8
LAY-10
  6
CONTINUOUS
 62
     7
100
AcDbLine
 10
781.1015151897536
 20
1240.000000000127
 30
0.0
 11
828.1015151897552
 21
1240.000000000134
 31
0.0
  0
LINE
  5
2B7
330
1F
100
AcDbEntity
  8
LAY-10
  6
CONTINUOUS
 62
     7
100
AcDbLine
 10
828.1015151897518
 20
1251.000000000133
 30
0.0
 11
781.1015151897516
 21
1251.000000000126
 31
0.0
  0
LINE
  5
2B8
330
1F
100
AcDbEntity
  8
LAY-10
  6
CONTINUOUS
 62
     7
100
AcDbLine
 10
828.1015151897518
 20
1256.000000000131
 30
0.0
 11
781.1015151897516
 21
1256.000000000127
 31
0.0
  0
LINE
  5
2B9
330
1F
100
AcDbEntity
  8
LAY-10
  6
CONTINUOUS
 62
     7
100
AcDbLine
 10
828.1015151897482
 20
1262.000000000131
 30
0.0
 11
781.1015151897516
 21
1262.000000000125
 31
0.0
  0
LINE
  5
2BA
330
1F
100
AcDbEntity
  8
LAY-10
  6
CONTINUOUS
 62
     7
100
AcDbLine
 10
828.1015151897518
 20
1234.000000000135
 30
0.0
 11
781.1015151897536
 21
1234.000000000128
 31
0.0
  0
LINE
  5
2BB
330
1F
100
AcDbEntity
  8
LAY-10
  6
CONTINUOUS
 62
     7
100
AcDbLine
 10
828.1015151897572
 20
1229.000000000135
 30
0.0
 11
781.1015151897536
 21
1229.000000000128
 31
0.0
  0
LINE
  5
2BC
330
1F
100
AcDbEntity
  8
LAY-10
  6
CONTINUOUS
 62
     7
100
AcDbLine
 10
828.1015151897518
 20
1223.000000000134
 30
0.0
 11
781.1015151897536
 21
1223.000000000127
 31
0.0
  0
LINE
  5
2BD
330
1F
100
AcDbEntity
  8
LAY-10
  6
CONTINUOUS
 62
     7
100
AcDbLine
 10
781.1015151897516
 20
1262.000000000126
 30
0.0
 11
780.1015151897498
 21
1261.750000000127
 31
0.0
  0
LINE
  5
2BE
330
1F
100
AcDbEntity
  8
LAY-10
  6
CONTINUOUS
 62
     7
100
AcDbLine
 10
780.1015151897498
 20
1256.250000000126
 30
0.0
 11
781.1015151897516
 21
1256.000000000127
 31
0.0
  0
LINE
  5
2BF
330
1F
100
AcDbEntity
  8
LAY-10
  6
CONTINUOUS
 62
     7
100
AcDbLine
 10
780.1015151897498
 20
1256.250000000126
 30
0.0
 11
780.1015151897498
 21
1261.750000000127
 31
0.0
  0
LINE
  5
2C0
330
1F
100
AcDbEntity
  8
LAY-10
  6
CONTINUOUS
 62
     7
100
AcDbLine
 10
781.1015151897516
 20
1262.000000000125
 30
0.0
 11
781.1015151897516
 21
1266.000000000126
 31
0.0
  0
LINE
  5
2C1
330
1F
100
AcDbEntity
  8
LAY-10
  6
CONTINUOUS
 62
     7
100
AcDbLine
 10
781.1015151897516
 20
1251.000000000126
 30
0.0
 11
780.1015151897516
 21
1250.750000000126
 31
0.0
  0
LINE
  5
2C2
330
1F
100
AcDbEntity
  8
LAY-10
  6
CONTINUOUS
 62
     7
100
AcDbLine
 10
780.1015151897516
 20
1245.250000000127
 30
0.0
 11
781.1015151897516
 21
1245.000000000126
 31
0.0
  0
LINE
  5
2C3
330
1F
100
AcDbEntity
  8
LAY-10
  6
CONTINUOUS
 62
     7
100
AcDbLine
 10
780.1015151897516
 20
1245.250000000127
 30
0.0
 11
780.1015151897516
 21
1250.750000000126
 31
0.0
  0
LINE
  5
2C4
330
1F
100
AcDbEntity
  8
LAY-10
  6
CONTINUOUS
 62
     7
100
AcDbLine
 10
781.1015151897516
 20
1240.000000000127
 30
0.0
 11
780.1015151897516
 21
1239.750000000126
 31
0.0
  0
LINE
  5
2C5
330
1F
100
AcDbEntity
  8
LAY-10
  6
CONTINUOUS
 62
     7
100
AcDbLine
 10
780.1015151897536
 20
1234.250000000125
 30
0.0
 11
781.1015151897536
 21
1234.000000000127
 31
0.0
  0
LINE
  5
2C6
330
1F
100
AcDbEntity
  8
LAY-10
  6
CONTINUOUS
 62
     7
100
AcDbLine
 10
780.1015151897536
 20
1234.250000000125
 30
0.0
 11
780.1015151897516
 21
1239.750000000126
 31
0.0
  0
LINE
  5
2C7
330
1F
100
AcDbEntity
  8
LAY-10
  6
CONTINUOUS
 62
     7
100
AcDbLine
 10
781.1015151897536
 20
1229.000000000127
 30
0.0
 11
780.1015151897553
 21
1228.750000000127
 31
0.0
  0
LINE
  5
2C8
330
1F
100
AcDbEntity
  8
LAY-10
  6
CONTINUOUS
 62
     7
100
AcDbLine
 10
780.1015151897553
 20
1223.250000000127
 30
0.0
 11
781.1015151897536
 21
1223.000000000127
 31
0.0
  0
LINE
  5
2C9
330
1F
100
AcDbEntity
  8
LAY-10
  6
CONTINUOUS
 62
     7
100
AcDbLine
 10
780.1015151897553
 20
1223.250000000127
 30
0.0
 11
780.1015151897553
 21
1228.750000000127
 31
0.0
  0
LINE
  5
2CA
330
1F
100
AcDbEntity
  8
LAY-10
  6
CONTINUOUS
 62
     7
100
AcDbLine
 10
781.1015151897536
 20
1251.000000000126
 30
0.0
 11
781.1015151897536
 21
1256.000000000127
 31
0.0
  0
LINE
  5
2CB
330
1F
100
AcDbEntity
  8
LAY-10
  6
CONTINUOUS
 62
     7
100
AcDbLine
 10
781.1015151897536
 20
1240.000000000127
 30
0.0
 11
781.1015151897536
 21
1245.000000000126
 31
0.0
  0
LINE
  5
2CC
330
1F
100
AcDbEntity
  8
LAY-10
  6
CONTINUOUS
 62
     7
100
AcDbLine
 10
781.101515189757
 20
1229.000000000127
 30
0.0
 11
781.1015151897536
 21
1234.000000000128
 31
0.0
  0
LINE
  5
2CD
330
1F
100
AcDbEntity
  8
LAY-10
  6
CONTINUOUS
 62
     7
100
AcDbLine
 10
828.1015151897552
 20
1262.000000000133
 30
0.0
 11
829.1015151897552
 21
1261.750000000134
 31
0.0
  0
LINE
  5
2CE
330
1F
100
AcDbEntity
  8
LAY-10
  6
CONTINUOUS
 62
     7
100
AcDbLine
 10
829.1015151897589
 20
1256.250000000135
 30
0.0
 11
828.1015151897552
 21
1256.000000000135
 31
0.0
  0
LINE
  5
2CF
330
1F
100
AcDbEntity
  8
LAY-10
  6
CONTINUOUS
 62
     7
100
AcDbLine
 10
829.1015151897589
 20
1256.250000000135
 30
0.0
 11
829.1015151897552
 21
1261.750000000134
 31
0.0
  0
LINE
  5
2D0
330
1F
100
AcDbEntity
  8
LAY-10
  6
CONTINUOUS
 62
     7
100
AcDbLine
 10
828.1015151897572
 20
1251.000000000133
 30
0.0
 11
829.1015151897552
 21
1250.750000000133
 31
0.0
  0
LINE
  5
2D1
330
1F
100
AcDbEntity
  8
LAY-10
  6
CONTINUOUS
 62
     7
100
AcDbLine
 10
829.1015151897589
 20
1245.250000000131
 30
0.0
 11
828.1015151897572
 21
1245.000000000133
 31
0.0
  0
LINE
  5
2D2
330
1F
100
AcDbEntity
  8
LAY-10
  6
CONTINUOUS
 62
     7
100
AcDbLine
 10
829.1015151897589
 20
1245.250000000131
 30
0.0
 11
829.1015151897552
 21
1250.750000000133
 31
0.0
  0
LINE
  5
2D3
330
1F
100
AcDbEntity
  8
LAY-10
  6
CONTINUOUS
 62
     7
100
AcDbLine
 10
828.1015151897607
 20
1240.000000000134
 30
0.0
 11
829.1015151897589
 21
1239.750000000133
 31
0.0
  0
LINE
  5
2D4
330
1F
100
AcDbEntity
  8
LAY-10
  6
CONTINUOUS
 62
     7
100
AcDbLine
 10
829.1015151897589
 20
1234.250000000131
 30
0.0
 11
828.1015151897607
 21
1234.000000000131
 31
0.0
  0
LINE
  5
2D5
330
1F
100
AcDbEntity
  8
LAY-10
  6
CONTINUOUS
 62
     7
100
AcDbLine
 10
829.1015151897589
 20
1234.250000000131
 30
0.0
 11
829.1015151897589
 21
1239.750000000133
 31
0.0
  0
LINE
  5
2D6
330
1F
100
AcDbEntity
  8
LAY-10
  6
CONTINUOUS
 62
     7
100
AcDbLine
 10
828.1015151897625
 20
1229.000000000135
 30
0.0
 11
829.1015151897625
 21
1228.750000000134
 31
0.0
  0
LINE
  5
2D7
330
1F
100
AcDbEntity
  8
LAY-10
  6
CONTINUOUS
 62
     7
100
AcDbLine
 10
829.1015151897625
 20
1223.250000000135
 30
0.0
 11
828.1015151897625
 21
1223.000000000133
 31
0.0
  0
LINE
  5
2D8
330
1F
100
AcDbEntity
  8
LAY-10
  6
CONTINUOUS
 62
     7
100
AcDbLine
 10
829.1015151897625
 20
1223.250000000135
 30
0.0
 11
829.1015151897625
 21
1228.750000000134
 31
0.0
  0
LINE
  5
2D9
330
1F
100
AcDbEntity
  8
LAY-10
  6
CONTINUOUS
 62
     7
100
AcDbLine
 10
828.1015151897518
 20
1266.000000000133
 30
0.0
 11
828.1015151897518
 21
1262.000000000131
 31
0.0
  0
LINE
  5
2DA
330
1F
100
AcDbEntity
  8
LAY-10
  6
CONTINUOUS
 62
     7
100
AcDbLine
 10
828.1015151897518
 20
1256.000000000131
 30
0.0
 11
828.1015151897518
 21
1251.000000000133
 31
0.0
  0
LINE
  5
2DB
330
1F
100
AcDbEntity
  8
LAY-10
  6
CONTINUOUS
 62
     7
100
AcDbLine
 10
828.1015151897534
 20
1245.000000000133
 30
0.0
 11
828.1015151897552
 21
1240.000000000134
 31
0.0
  0
LINE
  5
2DC
330
1F
100
AcDbEntity
  8
LAY-10
  6
CONTINUOUS
 62
     7
100
AcDbLine
 10
828.1015151897552
 20
1234.000000000135
 30
0.0
 11
828.1015151897572
 21
1229.000000000135
 31
0.0
  0
LINE
  5
2DD
330
1F
100
AcDbEntity
  8
LAY-10
  6
CONTINUOUS
 62
     7
100
AcDbLine
 10
828.1015151897572
 20
1223.000000000134
 30
0.0
 11
828.1015151897607
 21
1219.000000000133
 31
0.0
  0
LINE
  5
2DE
330
1F
100
AcDbEntity
  8
LAY-10
  6
CONTINUOUS
 62
     7
100
AcDbLine
 10
800.6015151897554
 20
1220.500000000129
 30
0.0
 11
808.6015151897556
 21
1220.500000000129
 31
0.0
  0
LINE
  5
2DF
330
1F
100
AcDbEntity
  8
LAY-10
  6
CONTINUOUS
 62
     7
100
AcDbLine
 10
800.6015151897591
 20
1217.500000000131
 30
0.0
 11
800.6015151897591
 21
1220.500000000129
 31
0.0
  0
LINE
  5
2E0
330
1F
100
AcDbEntity
  8
LAY-10
  6
CONTINUOUS
 62
     7
100
AcDbLine
 10
808.6015151897591
 20
1217.500000000131
 30
0.0
 11
808.6015151897591
 21
1220.500000000129
 31
0.0
  0
LINE
  5
2E1
330
1F
100
AcDbEntity
  8
LAY-10
  6
CONTINUOUS
 62
     7
100
AcDbLine
 10
828.1015151897607
 20
1219.000000000133
 30
0.0
 11
808.6015151897591
 21
1219.000000000129
 31
0.0
  0
LINE
  5
2E2
330
1F
100
AcDbEntity
  8
LAY-10
  6
CONTINUOUS
 62
     7
100
AcDbLine
 10
800.6015151897591
 20
1219.000000000129
 30
0.0
 11
781.101515189757
 21
1219.000000000126
 31
0.0
  0
LINE
  5
2E3
330
1F
100
AcDbEntity
  8
LAY-10
  6
CONTINUOUS
 62
     7
100
AcDbLine
 10
829.6015151897516
 20
1267.500000000132
 30
0.0
 11
779.6015151897482
 21
1267.500000000126
 31
0.0
  0
CIRCLE
  5
2E4
330
1F
100
AcDbEntity
  8
LAY-10
  6
CONTINUOUS
 62
     7
100
AcDbCircle
 10
859.6015151897041
 20
1242.500000000095
 30
0.0
 40
13.00000000000001
  0
CIRCLE
  5
2E5
330
1F
100
AcDbEntity
  8
LAY-10
  6
CONTINUOUS
 62
     7
100
AcDbCircle
 10
859.6015151897041
 20
1242.500000000108
 30
0.0
 40
12.75000000000001
  0
LINE
  5
2E6
330
1F
100
AcDbEntity
  8
LAY-10
  6
CONTINUOUS
 62
     7
100
AcDbLine
 10
859.6015151897191
 20
1246.500000000092
 30
0.0
 11
866.1015151897172
 21
1242.500000000095
 31
0.0
  0
LINE
  5
2E7
330
1F
100
AcDbEntity
  8
LAY-10
  6
CONTINUOUS
 62
     7
100
AcDbLine
 10
853.1015151897154
 20
1242.500000000095
 30
0.0
 11
859.6015151897191
 21
1246.500000000092
 31
0.0
  0
LINE
  5
2E8
330
1F
100
AcDbEntity
  8
LAY-10
  6
CONTINUOUS
 62
     7
100
AcDbLine
 10
859.6015151897191
 20
1238.500000000093
 30
0.0
 11
853.1015151897154
 21
1242.500000000095
 31
0.0
  0
LINE
  5
2E9
330
1F
100
AcDbEntity
  8
LAY-10
  6
CONTINUOUS
 62
     7
100
AcDbLine
 10
866.1015151897172
 20
1242.500000000095
 30
0.0
 11
859.6015151897191
 21
1238.500000000093
 31
0.0
  0
LINE
  5
2EA
330
1F
100
AcDbEntity
  8
LAY-10
  6
CONTINUOUS
 62
     7
100
AcDbLine
 10
855.6015151897152
 20
1232.000000000092
 30
0.0
 11
863.6015151897154
 21
1232.000000000092
 31
0.0
  0
LINE
  5
2EB
330
1F
100
AcDbEntity
  8
LAY-10
  6
CONTINUOUS
 62
     7
100
AcDbLine
 10
855.6015151897152
 20
1232.000000000092
 30
0.0
 11
855.6015151897152
 21
1230.393699987291
 31
0.0
  0
LINE
  5
2EC
330
1F
100
AcDbEntity
  8
LAY-10
  6
CONTINUOUS
 62
     7
100
AcDbLine
 10
863.6015151897154
 20
1232.000000000092
 30
0.0
 11
863.6015151897154
 21
1230.393699987291
 31
0.0
  0
LINE
  5
2ED
330
1F
100
AcDbEntity
  8
LAY-10
  6
CONTINUOUS
 62
     7
100
AcDbLine
 10
1540.101515190116
 20
1207.50000000005
 30
0.0
 11
1144.101515190108
 21
1207.500000000051
 31
0.0
  0
LINE
  5
2EE
330
1F
100
AcDbEntity
  8
LAY-10
  6
CONTINUOUS
 62
     7
100
AcDbLine
 10
1456.601515190134
 20
1217.500000000039
 30
0.0
 11
1456.601515190141
 21
1267.500000000032
 31
0.0
  0
LINE
  5
2EF
330
1F
100
AcDbEntity
  8
LAY-10
  6
CONTINUOUS
 62
     7
100
AcDbLine
 10
1456.601515190134
 20
1217.500000000039
 30
0.0
 11
1506.601515190134
 21
1217.500000000031
 31
0.0
  0
LINE
  5
2F0
330
1F
100
AcDbEntity
  8
LAY-10
  6
CONTINUOUS
 62
     7
100
AcDbLine
 10
1506.601515190134
 20
1217.500000000031
 30
0.0
 11
1506.601515190142
 21
1267.500000000025
 31
0.0
  0
LINE
  5
2F1
330
1F
100
AcDbEntity
  8
LAY-10
  6
CONTINUOUS
 62
     7
100
AcDbLine
 10
1505.101515190131
 20
1219.000000000025
 30
0.0
 11
1505.101515190131
 21
1223.000000000028
 31
0.0
  0
LINE
  5
2F2
330
1F
100
AcDbEntity
  8
LAY-10
  6
CONTINUOUS
 62
     7
100
AcDbLine
 10
1505.101515190137
 20
1266.000000000026
 30
0.0
 11
1458.101515190138
 21
1266.000000000032
 31
0.0
  0
LINE
  5
2F3
330
1F
100
AcDbEntity
  8
LAY-10
  6
CONTINUOUS
 62
     7
100
AcDbLine
 10
1505.101515190134
 20
1245.000000000026
 30
0.0
 11
1458.101515190134
 21
1245.000000000034
 31
0.0
  0
LINE
  5
2F4
330
1F
100
AcDbEntity
  8
LAY-10
  6
CONTINUOUS
 62
     7
100
AcDbLine
 10
1505.101515190134
 20
1240.000000000027
 30
0.0
 11
1458.101515190134
 21
1240.000000000034
 31
0.0
  0
LINE
  5
2F5
330
1F
100
AcDbEntity
  8
LAY-10
  6
CONTINUOUS
 62
     7
100
AcDbLine
 10
1458.101515190139
 20
1251.000000000032
 30
0.0
 11
1505.101515190141
 21
1251.000000000026
 31
0.0
  0
LINE
  5
2F6
330
1F
100
AcDbEntity
  8
LAY-10
  6
CONTINUOUS
 62
     7
100
AcDbLine
 10
1458.101515190138
 20
1256.000000000032
 30
0.0
 11
1505.101515190141
 21
1256.000000000026
 31
0.0
  0
LINE
  5
2F7
330
1F
100
AcDbEntity
  8
LAY-10
  6
CONTINUOUS
 62
     7
100
AcDbLine
 10
1458.101515190143
 20
1262.000000000032
 30
0.0
 11
1505.101515190141
 21
1262.000000000025
 31
0.0
  0
LINE
  5
2F8
330
1F
100
AcDbEntity
  8
LAY-10
  6
CONTINUOUS
 62
     7
100
AcDbLine
 10
1458.101515190138
 20
1234.000000000034
 30
0.0
 11
1505.101515190137
 21
1234.000000000028
 31
0.0
  0
LINE
  5
2F9
330
1F
100
AcDbEntity
  8
LAY-10
  6
CONTINUOUS
 62
     7
100
AcDbLine
 10
1458.101515190131
 20
1229.000000000035
 30
0.0
 11
1505.101515190134
 21
1229.000000000028
 31
0.0
  0
LINE
  5
2FA
330
1F
100
AcDbEntity
  8
LAY-10
  6
CONTINUOUS
 62
     7
100
AcDbLine
 10
1458.101515190138
 20
1223.000000000034
 30
0.0
 11
1505.101515190134
 21
1223.000000000028
 31
0.0
  0
LINE
  5
2FB
330
1F
100
AcDbEntity
  8
LAY-10
  6
CONTINUOUS
 62
     7
100
AcDbLine
 10
1505.101515190141
 20
1262.000000000026
 30
0.0
 11
1506.101515190142
 21
1261.750000000026
 31
0.0
  0
LINE
  5
2FC
330
1F
100
AcDbEntity
  8
LAY-10
  6
CONTINUOUS
 62
     7
100
AcDbLine
 10
1506.101515190142
 20
1256.250000000026
 30
0.0
 11
1505.101515190141
 21
1256.000000000026
 31
0.0
  0
LINE
  5
2FD
330
1F
100
AcDbEntity
  8
LAY-10
  6
CONTINUOUS
 62
     7
100
AcDbLine
 10
1506.101515190142
 20
1256.250000000026
 30
0.0
 11
1506.101515190142
 21
1261.750000000026
 31
0.0
  0
LINE
  5
2FE
330
1F
100
AcDbEntity
  8
LAY-10
  6
CONTINUOUS
 62
     7
100
AcDbLine
 10
1505.101515190137
 20
1262.000000000025
 30
0.0
 11
1505.101515190137
 21
1266.000000000026
 31
0.0
  0
LINE
  5
2FF
330
1F
100
AcDbEntity
  8
LAY-10
  6
CONTINUOUS
 62
     7
100
AcDbLine
 10
1505.101515190141
 20
1251.000000000026
 30
0.0
 11
1506.101515190137
 21
1250.750000000026
 31
0.0
  0
LINE
  5
300
330
1F
100
AcDbEntity
  8
LAY-10
  6
CONTINUOUS
 62
     7
100
AcDbLine
 10
1506.101515190137
 20
1245.250000000027
 30
0.0
 11
1505.101515190137
 21
1245.000000000026
 31
0.0
  0
LINE
  5
301
330
1F
100
AcDbEntity
  8
LAY-10
  6
CONTINUOUS
 62
     7
100
AcDbLine
 10
1506.101515190137
 20
1245.250000000027
 30
0.0
 11
1506.101515190137
 21
1250.750000000026
 31
0.0
  0
LINE
  5
302
330
1F
100
AcDbEntity
  8
LAY-10
  6
CONTINUOUS
 62
     7
100
AcDbLine
 10
1505.101515190137
 20
1240.000000000027
 30
0.0
 11
1506.101515190137
 21
1239.750000000026
 31
0.0
  0
LINE
  5
303
330
1F
100
AcDbEntity
  8
LAY-10
  6
CONTINUOUS
 62
     7
100
AcDbLine
 10
1506.101515190137
 20
1234.250000000025
 30
0.0
 11
1505.101515190137
 21
1234.000000000027
 31
0.0
  0
LINE
  5
304
330
1F
100
AcDbEntity
  8
LAY-10
  6
CONTINUOUS
 62
     7
100
AcDbLine
 10
1506.101515190137
 20
1234.250000000025
 30
0.0
 11
1506.101515190137
 21
1239.750000000026
 31
0.0
  0
LINE
  5
305
330
1F
100
AcDbEntity
  8
LAY-10
  6
CONTINUOUS
 62
     7
100
AcDbLine
 10
1505.101515190134
 20
1229.000000000027
 30
0.0
 11
1506.101515190136
 21
1228.750000000027
 31
0.0
  0
LINE
  5
306
330
1F
100
AcDbEntity
  8
LAY-10
  6
CONTINUOUS
 62
     7
100
AcDbLine
 10
1506.101515190136
 20
1223.250000000026
 30
0.0
 11
1505.101515190134
 21
1223.000000000028
 31
0.0
  0
LINE
  5
307
330
1F
100
AcDbEntity
  8
LAY-10
  6
CONTINUOUS
 62
     7
100
AcDbLine
 10
1506.101515190136
 20
1223.250000000026
 30
0.0
 11
1506.101515190136
 21
1228.750000000027
 31
0.0
  0
LINE
  5
308
330
1F
100
AcDbEntity
  8
LAY-10
  6
CONTINUOUS
 62
     7
100
AcDbLine
 10
1505.101515190137
 20
1251.000000000026
 30
0.0
 11
1505.101515190137
 21
1256.000000000026
 31
0.0
  0
LINE
  5
309
330
1F
100
AcDbEntity
  8
LAY-10
  6
CONTINUOUS
 62
     7
100
AcDbLine
 10
1505.101515190134
 20
1240.000000000027
 30
0.0
 11
1505.101515190134
 21
1245.000000000026
 31
0.0
  0
LINE
  5
30A
330
1F
100
AcDbEntity
  8
LAY-10
  6
CONTINUOUS
 62
     7
100
AcDbLine
 10
1505.101515190131
 20
1229.000000000027
 30
0.0
 11
1505.101515190134
 21
1234.000000000028
 31
0.0
  0
LINE
  5
30B
330
1F
100
AcDbEntity
  8
LAY-10
  6
CONTINUOUS
 62
     7
100
AcDbLine
 10
1458.101515190134
 20
1262.000000000034
 30
0.0
 11
1457.101515190136
 21
1261.750000000034
 31
0.0
  0
LINE
  5
30C
330
1F
100
AcDbEntity
  8
LAY-10
  6
CONTINUOUS
 62
     7
100
AcDbLine
 10
1457.101515190134
 20
1256.250000000035
 30
0.0
 11
1458.101515190134
 21
1256.000000000035
 31
0.0
  0
LINE
  5
30D
330
1F
100
AcDbEntity
  8
LAY-10
  6
CONTINUOUS
 62
     7
100
AcDbLine
 10
1457.101515190134
 20
1256.250000000035
 30
0.0
 11
1457.101515190136
 21
1261.750000000034
 31
0.0
  0
LINE
  5
30E
330
1F
100
AcDbEntity
  8
LAY-10
  6
CONTINUOUS
 62
     7
100
AcDbLine
 10
1458.101515190131
 20
1251.000000000032
 30
0.0
 11
1457.101515190136
 21
1250.750000000034
 31
0.0
  0
LINE
  5
30F
330
1F
100
AcDbEntity
  8
LAY-10
  6
CONTINUOUS
 62
     7
100
AcDbLine
 10
1457.101515190134
 20
1245.250000000032
 30
0.0
 11
1458.101515190131
 21
1245.000000000034
 31
0.0
  0
LINE
  5
310
330
1F
100
AcDbEntity
  8
LAY-10
  6
CONTINUOUS
 62
     7
100
AcDbLine
 10
1457.101515190134
 20
1245.250000000032
 30
0.0
 11
1457.101515190136
 21
1250.750000000034
 31
0.0
  0
LINE
  5
311
330
1F
100
AcDbEntity
  8
LAY-10
  6
CONTINUOUS
 62
     7
100
AcDbLine
 10
1458.101515190131
 20
1240.000000000034
 30
0.0
 11
1457.101515190134
 21
1239.750000000032
 31
0.0
  0
LINE
  5
312
330
1F
100
AcDbEntity
  8
LAY-10
  6
CONTINUOUS
 62
     7
100
AcDbLine
 10
1457.101515190132
 20
1234.25000000003
 30
0.0
 11
1458.101515190131
 21
1234.000000000032
 31
0.0
  0
LINE
  5
313
330
1F
100
AcDbEntity
  8
LAY-10
  6
CONTINUOUS
 62
     7
100
AcDbLine
 10
1457.101515190132
 20
1234.25000000003
 30
0.0
 11
1457.101515190134
 21
1239.750000000032
 31
0.0
  0
LINE
  5
314
330
1F
100
AcDbEntity
  8
LAY-10
  6
CONTINUOUS
 62
     7
100
AcDbLine
 10
1458.101515190127
 20
1229.000000000035
 30
0.0
 11
1457.10151519013
 21
1228.750000000034
 31
0.0
  0
LINE
  5
315
330
1F
100
AcDbEntity
  8
LAY-10
  6
CONTINUOUS
 62
     7
100
AcDbLine
 10
1457.10151519013
 20
1223.250000000035
 30
0.0
 11
1458.101515190127
 21
1223.000000000033
 31
0.0
  0
LINE
  5
316
330
1F
100
AcDbEntity
  8
LAY-10
  6
CONTINUOUS
 62
     7
100
AcDbLine
 10
1457.10151519013
 20
1223.250000000035
 30
0.0
 11
1457.10151519013
 21
1228.750000000034
 31
0.0
  0
LINE
  5
317
330
1F
100
AcDbEntity
  8
LAY-10
  6
CONTINUOUS
 62
     7
100
AcDbLine
 10
1458.101515190138
 20
1266.000000000032
 30
0.0
 11
1458.101515190138
 21
1262.000000000032
 31
0.0
  0
LINE
  5
318
330
1F
100
AcDbEntity
  8
LAY-10
  6
CONTINUOUS
 62
     7
100
AcDbLine
 10
1458.101515190138
 20
1256.000000000032
 30
0.0
 11
1458.101515190138
 21
1251.000000000032
 31
0.0
  0
LINE
  5
319
330
1F
100
AcDbEntity
  8
LAY-10
  6
CONTINUOUS
 62
     7
100
AcDbLine
 10
1458.101515190134
 20
1245.000000000034
 30
0.0
 11
1458.101515190134
 21
1240.000000000034
 31
0.0
  0
LINE
  5
31A
330
1F
100
AcDbEntity
  8
LAY-10
  6
CONTINUOUS
 62
     7
100
AcDbLine
 10
1458.101515190134
 20
1234.000000000034
 30
0.0
 11
1458.101515190131
 21
1229.000000000035
 31
0.0
  0
LINE
  5
31B
330
1F
100
AcDbEntity
  8
LAY-10
  6
CONTINUOUS
 62
     7
100
AcDbLine
 10
1458.101515190131
 20
1223.000000000034
 30
0.0
 11
1458.101515190131
 21
1219.000000000033
 31
0.0
  0
LINE
  5
31C
330
1F
100
AcDbEntity
  8
LAY-10
  6
CONTINUOUS
 62
     7
100
AcDbLine
 10
1485.601515190134
 20
1220.500000000029
 30
0.0
 11
1477.601515190136
 21
1220.500000000029
 31
0.0
  0
LINE
  5
31D
330
1F
100
AcDbEntity
  8
LAY-10
  6
CONTINUOUS
 62
     7
100
AcDbLine
 10
1485.60151519013
 20
1217.500000000031
 30
0.0
 11
1485.60151519013
 21
1220.500000000029
 31
0.0
  0
LINE
  5
31E
330
1F
100
AcDbEntity
  8
LAY-10
  6
CONTINUOUS
 62
     7
100
AcDbLine
 10
1477.601515190132
 20
1217.500000000031
 30
0.0
 11
1477.601515190132
 21
1220.500000000029
 31
0.0
  0
LINE
  5
31F
330
1F
100
AcDbEntity
  8
LAY-10
  6
CONTINUOUS
 62
     7
100
AcDbLine
 10
1458.101515190131
 20
1219.000000000033
 30
0.0
 11
1477.601515190132
 21
1219.00000000003
 31
0.0
  0
LINE
  5
320
330
1F
100
AcDbEntity
  8
LAY-10
  6
CONTINUOUS
 62
     7
100
AcDbLine
 10
1485.60151519013
 20
1219.00000000003
 30
0.0
 11
1505.101515190131
 21
1219.000000000025
 31
0.0
  0
LINE
  5
321
330
1F
100
AcDbEntity
  8
LAY-10
  6
CONTINUOUS
 62
     7
100
AcDbLine
 10
1456.601515190141
 20
1267.500000000032
 30
0.0
 11
1506.601515190142
 21
1267.500000000025
 31
0.0
  0
CIRCLE
  5
322
330
1F
100
AcDbEntity
  8
LAY-10
  6
CONTINUOUS
 62
     7
100
AcDbCircle
 10
1426.601515190185
 20
1242.499999999995
 30
0.0
 40
13.00000000000001
  0
CIRCLE
  5
323
330
1F
100
AcDbEntity
  8
LAY-10
  6
CONTINUOUS
 62
     7
100
AcDbCircle
 10
1426.601515190203
 20
1242.500000000008
 30
0.0
 40
12.75000000000001
  0
LINE
  5
324
330
1F
100
AcDbEntity
  8
LAY-10
  6
CONTINUOUS
 62
     7
100
AcDbLine
 10
1426.601515190219
 20
1246.499999999993
 30
0.0
 11
1433.101515190217
 21
1242.499999999995
 31
0.0
  0
LINE
  5
325
330
1F
100
AcDbEntity
  8
LAY-10
  6
CONTINUOUS
 62
     7
100
AcDbLine
 10
1420.101515190216
 20
1242.499999999995
 30
0.0
 11
1426.601515190219
 21
1246.499999999993
 31
0.0
  0
LINE
  5
326
330
1F
100
AcDbEntity
  8
LAY-10
  6
CONTINUOUS
 62
     7
100
AcDbLine
 10
1426.601515190219
 20
1238.499999999994
 30
0.0
 11
1420.101515190216
 21
1242.499999999995
 31
0.0
  0
LINE
  5
327
330
1F
100
AcDbEntity
  8
LAY-10
  6
CONTINUOUS
 62
     7
100
AcDbLine
 10
1433.101515190217
 20
1242.499999999995
 30
0.0
 11
1426.601515190219
 21
1238.499999999994
 31
0.0
  0
LINE
  5
328
330
1F
100
AcDbEntity
  8
LAY-10
  6
CONTINUOUS
 62
     7
100
AcDbLine
 10
1422.601515190214
 20
1231.999999999993
 30
0.0
 11
1430.601515190215
 21
1231.999999999993
 31
0.0
  0
LINE
  5
329
330
1F
100
AcDbEntity
  8
LAY-10
  6
CONTINUOUS
 62
     7
100
AcDbLine
 10
1422.601515190214
 20
1231.999999999993
 30
0.0
 11
1422.601515190214
 21
1230.393699987192
 31
0.0
  0
LINE
  5
32A
330
1F
100
AcDbEntity
  8
LAY-10
  6
CONTINUOUS
 62
     7
100
AcDbLine
 10
1430.601515190215
 20
1231.999999999993
 30
0.0
 11
1430.601515190215
 21
1230.393699987192
 31
0.0
  0
LINE
  5
32B
330
1F
100
AcDbEntity
  8
LAY-10
  6
CONTINUOUS
 62
     7
100
AcDbLine
 10
1142.101515189815
 20
1207.50000000005
 30
0.0
 11
1142.10151518982
 21
2151.500000000196
 31
0.0
  0
LINE
  5
32C
330
1F
100
AcDbEntity
  8
LAY-10
  6
CONTINUOUS
 62
     7
100
AcDbLine
 10
1144.101515190108
 20
1207.50000000005
 30
0.0
 11
1144.10151519011
 21
2151.500000000198
 31
0.0
  0
LINE
  5
32D
330
1F
100
AcDbEntity
  8
LAY-10
  6
CONTINUOUS
 62
     7
100
AcDbLine
 10
744.1015151898098
 20
1204.499999999951
 30
0.0
 11
744.1015151898116
 21
2154.500000000199
 31
0.0
  0
LINE
  5
32E
330
1F
100
AcDbEntity
  8
LAY-10
  6
CONTINUOUS
 62
     7
100
AcDbLine
 10
746.101515189808
 20
1207.50000000005
 30
0.0
 11
746.1015151898098
 21
2151.500000000198
 31
0.0
  0
LINE
  5
32F
330
1F
100
AcDbEntity
  8
LAY-10
  6
CONTINUOUS
 62
     7
100
AcDbLine
 10
738.1015151898064
 20
1198.499999999951
 30
0.0
 11
738.101515189808
 21
2160.5000000002
 31
0.0
  0
LINE
  5
330
330
1F
100
AcDbEntity
  8
LAY-10
  6
CONTINUOUS
 62
     7
100
AcDbLine
 10
1548.101515189798
 20
1198.499999999951
 30
0.0
 11
1548.101515189799
 21
2160.5000000002
 31
0.0
  0
LINE
  5
331
330
1F
100
AcDbEntity
  8
LAY-10
  6
CONTINUOUS
 62
     7
100
AcDbLine
 10
1542.101515189797
 20
1204.499999999951
 30
0.0
 11
1542.101515189801
 21
2154.500000000199
 31
0.0
  0
LINE
  5
332
330
1F
100
AcDbEntity
  8
LAY-10
  6
CONTINUOUS
 62
     7
100
AcDbLine
 10
1540.101515190116
 20
1207.50000000005
 30
0.0
 11
1540.101515190119
 21
2151.500000000196
 31
0.0
  0
LINE
  5
333
330
1F
100
AcDbEntity
  8
LAY-10
  6
CONTINUOUS
 62
     7
100
AcDbLine
 10
1540.101515190119
 20
2151.500000000196
 30
0.0
 11
1144.10151519011
 21
2151.500000000196
 31
0.0
  0
LINE
  5
334
330
1F
100
AcDbEntity
  8
LAY-10
  6
CONTINUOUS
 62
     7
100
AcDbLine
 10
1542.101515189801
 20
2154.500000000297
 30
0.0
 11
744.1015151898116
 21
2154.500000000297
 31
0.0
  0
LINE
  5
335
330
1F
100
AcDbEntity
  8
LAY-10
  6
CONTINUOUS
 62
     7
100
AcDbLine
 10
1548.101515189801
 20
2160.5000000003
 30
0.0
 11
738.101515189808
 21
2160.5000000003
 31
0.0
  0
LINE
  5
336
330
1F
100
AcDbEntity
  8
LAY-10
  6
CONTINUOUS
 62
     7
100
AcDbLine
 10
1142.101515189815
 20
1207.50000000005
 30
0.0
 11
746.101515189808
 21
1207.500000000051
 31
0.0
  0
LINE
  5
337
330
1F
100
AcDbEntity
  8
LAY-10
  6
CONTINUOUS
 62
     7
100
AcDbLine
 10
1542.101515189797
 20
1204.499999999954
 30
0.0
 11
744.1015151898098
 21
1204.499999999954
 31
0.0
  0
LINE
  5
338
330
1F
100
AcDbEntity
  8
LAY-10
  6
CONTINUOUS
 62
     7
100
AcDbLine
 10
1548.101515189798
 20
1198.499999999951
 30
0.0
 11
738.1015151898064
 21
1198.499999999951
 31
0.0
  0
LINE
  5
339
330
1F
100
AcDbEntity
  8
LAY-10
  6
CONTINUOUS
 62
     7
100
AcDbLine
 10
2032.196969619207
 20
1832.500000000106
 30
0.0
 11
1967.196969619207
 21
1832.500000000106
 31
0.0
  0
LINE
  5
33A
330
1F
100
AcDbEntity
  8
LAY-10
  6
CONTINUOUS
 62
     7
100
AcDbLine
 10
2032.196969619207
 20
1826.500000000106
 30
0.0
 11
1967.196969619207
 21
1826.500000000106
 31
0.0
  0
LINE
  5
33B
330
1F
100
AcDbEntity
  8
LAY-10
  6
CONTINUOUS
 62
     7
100
AcDbLine
 10
2032.196969619207
 20
1826.500000000106
 30
0.0
 11
2032.196969619207
 21
1851.500000000106
 31
0.0
  0
LINE
  5
33C
330
1F
100
AcDbEntity
  8
LAY-10
  6
CONTINUOUS
 62
     7
100
AcDbLine
 10
1992.196969619208
 20
1832.500000000106
 30
0.0
 11
1992.196969619208
 21
1867.478762000107
 31
0.0
  0
LINE
  5
33D
330
1F
100
AcDbEntity
  8
LAY-10
  6
CONTINUOUS
 62
     7
100
AcDbLine
 10
1999.846963619208
 20
1871.718754000107
 30
0.0
 11
2032.196969619207
 21
1851.500000000106
 31
0.0
  0
ARC
  5
33E
330
1F
100
AcDbEntity
  8
LAY-10
  6
CONTINUOUS
 62
     7
100
AcDbCircle
 10
1997.196969619207
 20
1867.478762000107
 30
0.0
 40
5.0
100
AcDbArc
 50
57.99461699998903
 51
180.0
  0
ARC
  5
33F
330
1F
100
AcDbEntity
  8
LAY-10
  6
CONTINUOUS
 62
     7
100
AcDbCircle
 10
1997.196969619207
 20
1767.478762000106
 30
0.0
 40
5.0
100
AcDbArc
 50
57.99461699998903
 51
180.0
  0
LINE
  5
340
330
1F
100
AcDbEntity
  8
LAY-10
  6
CONTINUOUS
 62
     7
100
AcDbLine
 10
2032.196969619207
 20
1726.500000000106
 30
0.0
 11
1967.196969619207
 21
1726.500000000106
 31
0.0
  0
LINE
  5
341
330
1F
100
AcDbEntity
  8
LAY-10
  6
CONTINUOUS
 62
     7
100
AcDbLine
 10
2032.196969619207
 20
1732.500000000106
 30
0.0
 11
1967.196969619207
 21
1732.500000000106
 31
0.0
  0
LINE
  5
342
330
1F
100
AcDbEntity
  8
LAY-10
  6
CONTINUOUS
 62
     7
100
AcDbLine
 10
1992.196969619208
 20
1732.500000000106
 30
0.0
 11
1992.196969619208
 21
1767.478762000106
 31
0.0
  0
LINE
  5
343
330
1F
100
AcDbEntity
  8
LAY-10
  6
CONTINUOUS
 62
     7
100
AcDbLine
 10
2032.196969619207
 20
1726.500000000106
 30
0.0
 11
2032.196969619207
 21
1751.500000000106
 31
0.0
  0
LINE
  5
344
330
1F
100
AcDbEntity
  8
LAY-10
  6
CONTINUOUS
 62
     7
100
AcDbLine
 10
1999.846963619208
 20
1771.718754000107
 30
0.0
 11
2032.196969619207
 21
1751.500000000106
 31
0.0
  0
ARC
  5
345
330
1F
100
AcDbEntity
  8
LAY-10
  6
CONTINUOUS
 62
     7
100
AcDbCircle
 10
1997.196969619207
 20
1667.478762000106
 30
0.0
 40
5.0
100
AcDbArc
 50
57.99461699998903
 51
180.0
  0
LINE
  5
346
330
1F
100
AcDbEntity
  8
LAY-10
  6
CONTINUOUS
 62
     7
100
AcDbLine
 10
2032.196969619207
 20
1626.500000000106
 30
0.0
 11
1967.196969619207
 21
1626.500000000106
 31
0.0
  0
LINE
  5
347
330
1F
100
AcDbEntity
  8
LAY-10
  6
CONTINUOUS
 62
     7
100
AcDbLine
 10
2032.196969619207
 20
1632.500000000106
 30
0.0
 11
1967.196969619207
 21
1632.500000000106
 31
0.0
  0
LINE
  5
348
330
1F
100
AcDbEntity
  8
LAY-10
  6
CONTINUOUS
 62
     7
100
AcDbLine
 10
1992.196969619208
 20
1632.500000000106
 30
0.0
 11
1992.196969619208
 21
1667.478762000106
 31
0.0
  0
LINE
  5
349
330
1F
100
AcDbEntity
  8
LAY-10
  6
CONTINUOUS
 62
     7
100
AcDbLine
 10
2032.196969619207
 20
1626.500000000106
 30
0.0
 11
2032.196969619207
 21
1651.500000000106
 31
0.0
  0
LINE
  5
34A
330
1F
100
AcDbEntity
  8
LAY-10
  6
CONTINUOUS
 62
     7
100
AcDbLine
 10
1999.846963619208
 20
1671.718754000106
 30
0.0
 11
2032.196969619207
 21
1651.500000000106
 31
0.0
  0
ARC
  5
34B
330
1F
100
AcDbEntity
  8
LAY-10
  6
CONTINUOUS
 62
     7
100
AcDbCircle
 10
1997.196969619207
 20
1567.478762000107
 30
0.0
 40
5.0
100
AcDbArc
 50
57.99461699998903
 51
180.0
  0
LINE
  5
34C
330
1F
100
AcDbEntity
  8
LAY-10
  6
CONTINUOUS
 62
     7
100
AcDbLine
 10
2032.196969619207
 20
1526.500000000106
 30
0.0
 11
1967.196969619207
 21
1526.500000000106
 31
0.0
  0
LINE
  5
34D
330
1F
100
AcDbEntity
  8
LAY-10
  6
CONTINUOUS
 62
     7
100
AcDbLine
 10
2032.196969619207
 20
1532.500000000107
 30
0.0
 11
1967.196969619207
 21
1532.500000000107
 31
0.0
  0
LINE
  5
34E
330
1F
100
AcDbEntity
  8
LAY-10
  6
CONTINUOUS
 62
     7
100
AcDbLine
 10
1992.196969619208
 20
1532.500000000107
 30
0.0
 11
1992.196969619208
 21
1567.478762000107
 31
0.0
  0
LINE
  5
34F
330
1F
100
AcDbEntity
  8
LAY-10
  6
CONTINUOUS
 62
     7
100
AcDbLine
 10
2032.196969619207
 20
1526.500000000106
 30
0.0
 11
2032.196969619207
 21
1551.500000000106
 31
0.0
  0
LINE
  5
350
330
1F
100
AcDbEntity
  8
LAY-10
  6
CONTINUOUS
 62
     7
100
AcDbLine
 10
1999.846963619208
 20
1571.718754000107
 30
0.0
 11
2032.196969619207
 21
1551.500000000106
 31
0.0
  0
LINE
  5
351
330
1F
100
AcDbEntity
  8
LAY-10
  6
CONTINUOUS
 62
     7
100
AcDbLine
 10
1974.196969619194
 20
1526.500000000106
 30
0.0
 11
1974.196969619194
 21
1432.500000000105
 31
0.0
  0
LINE
  5
352
330
1F
100
AcDbEntity
  8
LAY-10
  6
CONTINUOUS
 62
     7
100
AcDbLine
 10
1974.196969619194
 20
1626.500000000106
 30
0.0
 11
1974.196969619194
 21
1532.500000000107
 31
0.0
  0
LINE
  5
353
330
1F
100
AcDbEntity
  8
LAY-10
  6
CONTINUOUS
 62
     7
100
AcDbLine
 10
1974.196969619196
 20
1726.500000000106
 30
0.0
 11
1974.196969619194
 21
1632.500000000106
 31
0.0
  0
LINE
  5
354
330
1F
100
AcDbEntity
  8
LAY-10
  6
CONTINUOUS
 62
     7
100
AcDbLine
 10
1974.196969619196
 20
1826.500000000106
 30
0.0
 11
1974.196969619196
 21
1732.500000000106
 31
0.0
  0
LINE
  5
355
330
1F
100
AcDbEntity
  8
LAY-10
  6
CONTINUOUS
 62
     7
100
AcDbLine
 10
1974.196969619197
 20
1926.500000000107
 30
0.0
 11
1974.196969619197
 21
1832.500000000106
 31
0.0
  0
LINE
  5
356
330
1F
100
AcDbEntity
  8
LAY-10
  6
CONTINUOUS
 62
     7
100
AcDbLine
 10
2126.69696961923
 20
2029.500000000124
 30
0.0
 11
2132.6969696192
 21
2029.500000000124
 31
0.0
  0
LINE
  5
357
330
1F
100
AcDbEntity
  8
LAY-10
  6
CONTINUOUS
 62
     7
100
AcDbLine
 10
2032.196969619207
 20
1932.500000000106
 30
0.0
 11
1967.196969619207
 21
1932.500000000107
 31
0.0
  0
LINE
  5
358
330
1F
100
AcDbEntity
  8
LAY-10
  6
CONTINUOUS
 62
     7
100
AcDbLine
 10
2032.196969619207
 20
1926.500000000106
 30
0.0
 11
1967.196969619207
 21
1926.500000000107
 31
0.0
  0
LINE
  5
359
330
1F
100
AcDbEntity
  8
LAY-10
  6
CONTINUOUS
 62
     7
100
AcDbLine
 10
2032.196969619207
 20
1926.500000000106
 30
0.0
 11
2032.196969619207
 21
1951.500000000106
 31
0.0
  0
LINE
  5
35A
330
1F
100
AcDbEntity
  8
LAY-10
  6
CONTINUOUS
 62
     7
100
AcDbLine
 10
1992.196969619208
 20
1932.500000000107
 30
0.0
 11
1992.196969619208
 21
1967.478762000106
 31
0.0
  0
LINE
  5
35B
330
1F
100
AcDbEntity
  8
LAY-10
  6
CONTINUOUS
 62
     7
100
AcDbLine
 10
1999.846963619208
 20
1971.718754000105
 30
0.0
 11
2032.196969619207
 21
1951.500000000106
 31
0.0
  0
ARC
  5
35C
330
1F
100
AcDbEntity
  8
LAY-10
  6
CONTINUOUS
 62
     7
100
AcDbCircle
 10
1997.196969619207
 20
1967.478762000106
 30
0.0
 40
5.0
100
AcDbArc
 50
57.99461699998903
 51
180.0
  0
LINE
  5
35D
330
1F
100
AcDbEntity
  8
LAY-10
  6
CONTINUOUS
 62
     7
100
AcDbLine
 10
1974.196969619197
 20
2026.500000000107
 30
0.0
 11
1974.196969619197
 21
1932.500000000107
 31
0.0
  0
LINE
  5
35E
330
1F
100
AcDbEntity
  8
LAY-10
  6
CONTINUOUS
 62
     7
100
AcDbLine
 10
2032.196969619207
 20
2032.500000000106
 30
0.0
 11
1967.196969619207
 21
2032.500000000106
 31
0.0
  0
LINE
  5
35F
330
1F
100
AcDbEntity
  8
LAY-10
  6
CONTINUOUS
 62
     7
100
AcDbLine
 10
2032.196969619207
 20
2026.500000000106
 30
0.0
 11
1967.196969619207
 21
2026.500000000106
 31
0.0
  0
LINE
  5
360
330
1F
100
AcDbEntity
  8
LAY-10
  6
CONTINUOUS
 62
     7
100
AcDbLine
 10
2032.196969619207
 20
2026.500000000106
 30
0.0
 11
2032.196969619207
 21
2051.500000000105
 31
0.0
  0
LINE
  5
361
330
1F
100
AcDbEntity
  8
LAY-10
  6
CONTINUOUS
 62
     7
100
AcDbLine
 10
1992.196969619208
 20
2032.500000000106
 30
0.0
 11
1992.196969619208
 21
2067.478762000106
 31
0.0
  0
LINE
  5
362
330
1F
100
AcDbEntity
  8
LAY-10
  6
CONTINUOUS
 62
     7
100
AcDbLine
 10
1999.846963619208
 20
2071.718754000105
 30
0.0
 11
2032.196969619207
 21
2051.500000000105
 31
0.0
  0
ARC
  5
363
330
1F
100
AcDbEntity
  8
LAY-10
  6
CONTINUOUS
 62
     7
100
AcDbCircle
 10
1997.196969619207
 20
2067.478762000106
 30
0.0
 40
5.0
100
AcDbArc
 50
57.99461699998903
 51
180.0
  0
LINE
  5
364
330
1F
100
AcDbEntity
  8
LAY-10
  6
CONTINUOUS
 62
     7
100
AcDbLine
 10
2032.196969619199
 20
2077.0000000001
 30
0.0
 11
2032.196969619199
 21
2083.0000000001
 31
0.0
  0
LINE
  5
365
330
1F
100
AcDbEntity
  8
LAY-10
  6
CONTINUOUS
 62
     7
100
AcDbLine
 10
1967.1969696192
 20
2077.000000000096
 30
0.0
 11
2121.696969619202
 21
2077.000000000096
 31
0.0
  0
LINE
  5
366
330
1F
100
AcDbEntity
  8
LAY-10
  6
CONTINUOUS
 62
     7
100
AcDbLine
 10
1967.1969696192
 20
2083.0000000001
 30
0.0
 11
2032.196969619199
 21
2083.0000000001
 31
0.0
  0
LINE
  5
367
330
1F
100
AcDbEntity
  8
LAY-10
  6
CONTINUOUS
 62
     7
100
AcDbLine
 10
1974.196969619197
 20
2077.000000000096
 30
0.0
 11
1974.196969619197
 21
2032.500000000107
 31
0.0
  0
LINE
  5
368
330
1F
100
AcDbEntity
  8
LAY-10
  6
CONTINUOUS
 62
     7
100
AcDbLine
 10
2117.1969696192
 20
2033.000000000097
 30
0.0
 11
2121.696969619179
 21
2033.000000000097
 31
0.0
  0
LINE
  5
369
330
1F
100
AcDbEntity
  8
LAY-10
  6
CONTINUOUS
 62
     7
100
AcDbLine
 10
2132.6969696192
 20
2086.000000000285
 30
0.0
 11
2132.6969696192
 21
2029.500000000124
 31
0.0
  0
ARC
  5
36A
330
1F
100
AcDbEntity
  8
LAY-10
  6
CONTINUOUS
 62
     7
100
AcDbCircle
 10
2123.696969619201
 20
2085.500000000045
 30
0.0
 40
9.0
100
AcDbArc
 50
0.0
 51
90.0000000000029
  0
ARC
  5
36B
330
1F
100
AcDbEntity
  8
LAY-10
  6
CONTINUOUS
 62
     7
100
AcDbCircle
 10
2123.696969619232
 20
2085.500000000045
 30
0.0
 40
3.000000000000001
100
AcDbArc
 50
0.0
 51
90.00000000000001
  0
ARC
  5
36C
330
1F
100
AcDbEntity
  8
LAY-10
  6
CONTINUOUS
 62
     7
100
AcDbCircle
 10
2027.696969619203
 20
2097.500000000044
 30
0.0
 40
9.0
100
AcDbArc
 50
180.0
 51
270.0
  0
ARC
  5
36D
330
1F
100
AcDbEntity
  8
LAY-10
  6
CONTINUOUS
 62
     7
100
AcDbCircle
 10
2015.696969619201
 20
2151.500000000186
 30
0.0
 40
3.000000000000001
100
AcDbArc
 50
0.0
 51
90.00000000000001
  0
ARC
  5
36E
330
1F
100
AcDbEntity
  8
LAY-10
  6
CONTINUOUS
 62
     7
100
AcDbCircle
 10
2015.696969619201
 20
2151.500000000186
 30
0.0
 40
9.0
100
AcDbArc
 50
0.0
 51
90.00000000000001
  0
LINE
  5
36F
330
1F
100
AcDbEntity
  8
LAY-10
  6
CONTINUOUS
 62
     7
100
AcDbLine
 10
1962.696969619199
 20
2154.500000000185
 30
0.0
 11
1962.696969619199
 21
2160.500000000185
 31
0.0
  0
LINE
  5
370
330
1F
100
AcDbEntity
  8
LAY-10
  6
CONTINUOUS
 62
     7
100
AcDbLine
 10
1962.696969619199
 20
2154.500000000185
 30
0.0
 11
2015.696969619201
 21
2154.500000000186
 31
0.0
  0
LINE
  5
371
330
1F
100
AcDbEntity
  8
LAY-10
  6
CONTINUOUS
 62
     7
100
AcDbLine
 10
1962.696969619199
 20
2160.500000000185
 30
0.0
 11
2015.696969619201
 21
2160.500000000186
 31
0.0
  0
LINE
  5
372
330
1F
100
AcDbEntity
  8
LAY-10
  6
CONTINUOUS
 62
     7
100
AcDbLine
 10
2068.052308678555
 20
2186.855339059468
 30
0.0
 11
2032.696969619229
 21
2151.50000000014
 31
0.0
  0
LINE
  5
373
330
1F
100
AcDbEntity
  8
LAY-10
  6
CONTINUOUS
 62
     7
100
AcDbLine
 10
2062.395454429065
 20
2192.512193308959
 30
0.0
 11
2068.052308678555
 21
2186.855339059468
 31
0.0
  0
LINE
  5
374
330
1F
100
AcDbEntity
  8
LAY-10
  6
CONTINUOUS
 62
     7
100
AcDbLine
 10
2123.6969696192
 20
2094.500000000045
 30
0.0
 11
2027.696969619197
 21
2094.500000000044
 31
0.0
  0
LINE
  5
375
330
1F
100
AcDbEntity
  8
LAY-10
  6
CONTINUOUS
 62
     7
100
AcDbLine
 10
2123.696969619232
 20
2088.500000000044
 30
0.0
 11
2027.696969619197
 21
2088.500000000044
 31
0.0
  0
LINE
  5
376
330
1F
100
AcDbEntity
  8
LAY-10
  6
CONTINUOUS
 62
     7
100
AcDbLine
 10
1962.696969619199
 20
2141.500000000123
 30
0.0
 11
1967.196969619196
 21
2141.500000000122
 31
0.0
  0
LINE
  5
377
330
1F
100
AcDbEntity
  8
LAY-10
  6
CONTINUOUS
 62
     7
100
AcDbLine
 10
1962.696969619199
 20
2151.500000000132
 30
0.0
 11
1967.196969619197
 21
2151.500000000132
 31
0.0
  0
ARC
  5
378
330
1F
100
AcDbEntity
  8
LAY-10
  6
CONTINUOUS
 62
     7
100
AcDbCircle
 10
2024.696969619195
 20
2102.650000000087
 30
0.0
 40
3.000000000000003
100
AcDbArc
 50
270.0
 51
0.0
  0
ARC
  5
379
330
1F
100
AcDbEntity
  8
LAY-10
  6
CONTINUOUS
 62
     7
100
AcDbCircle
 10
2024.696969619195
 20
2102.650000000087
 30
0.0
 40
2.0
100
AcDbArc
 50
270.0
 51
0.0
  0
ARC
  5
37A
330
1F
100
AcDbEntity
  8
LAY-10
  6
CONTINUOUS
 62
     7
100
AcDbCircle
 10
2024.696969619195
 20
2102.650000000087
 30
0.0
 40
1.0
100
AcDbArc
 50
270.0
 51
0.0
  0
ARC
  5
37B
330
1F
100
AcDbEntity
  8
LAY-10
  6
CONTINUOUS
 62
     7
100
AcDbCircle
 10
2024.696969619195
 20
2130.350000000088
 30
0.0
 40
3.000000000000003
100
AcDbArc
 50
0.0
 51
90.00000000000001
  0
ARC
  5
37C
330
1F
100
AcDbEntity
  8
LAY-10
  6
CONTINUOUS
 62
     7
100
AcDbCircle
 10
2024.696969619195
 20
2130.350000000088
 30
0.0
 40
2.0
100
AcDbArc
 50
0.0
 51
90.00000000000001
  0
ARC
  5
37D
330
1F
100
AcDbEntity
  8
LAY-10
  6
CONTINUOUS
 62
     7
100
AcDbCircle
 10
2024.696969619195
 20
2130.350000000088
 30
0.0
 40
1.0
100
AcDbArc
 50
0.0
 51
90.00000000000001
  0
LINE
  5
37E
330
1F
100
AcDbEntity
  8
LAY-10
  6
CONTINUOUS
 62
     7
100
AcDbLine
 10
2004.496969619191
 20
2131.500000000085
 30
0.0
 11
2007.696969619194
 21
2131.500000000085
 31
0.0
  0
LINE
  5
37F
330
1F
100
AcDbEntity
  8
LAY-10
  6
CONTINUOUS
 62
     7
100
AcDbLine
 10
2004.496969619191
 20
2101.500000000085
 30
0.0
 11
2007.696969619194
 21
2101.500000000085
 31
0.0
  0
LINE
  5
380
330
1F
100
AcDbEntity
  8
LAY-10
  6
CONTINUOUS
 62
     7
100
AcDbLine
 10
2004.496969619191
 20
2131.500000000085
 30
0.0
 11
2004.496969619191
 21
2101.500000000085
 31
0.0
  0
LINE
  5
381
330
1F
100
AcDbEntity
  8
LAY-10
  6
CONTINUOUS
 62
     7
100
AcDbLine
 10
2004.4969696192
 20
2108.500000000085
 30
0.0
 11
1993.124969619199
 21
2108.500000000085
 31
0.0
  0
LINE
  5
382
330
1F
100
AcDbEntity
  8
LAY-10
  6
CONTINUOUS
 62
     7
100
AcDbLine
 10
2004.4969696192
 20
2124.500000000085
 30
0.0
 11
1993.124969619199
 21
2124.500000000085
 31
0.0
  0
LINE
  5
383
330
1F
100
AcDbEntity
  8
LAY-10
  6
CONTINUOUS
 62
     7
100
AcDbLine
 10
2004.4969696192
 20
2130.350000000084
 30
0.0
 11
1993.124969619199
 21
2130.350000000084
 31
0.0
  0
LINE
  5
384
330
1F
100
AcDbEntity
  8
LAY-10
  6
CONTINUOUS
 62
     7
100
AcDbLine
 10
2004.4969696192
 20
2102.650000000085
 30
0.0
 11
1993.124969619199
 21
2102.650000000085
 31
0.0
  0
LINE
  5
385
330
1F
100
AcDbEntity
  8
LAY-10
  6
CONTINUOUS
 62
     7
100
AcDbLine
 10
2024.696969619195
 20
2108.500000000087
 30
0.0
 11
2007.696969619197
 21
2108.500000000087
 31
0.0
  0
LINE
  5
386
330
1F
100
AcDbEntity
  8
LAY-10
  6
CONTINUOUS
 62
     7
100
AcDbLine
 10
2024.696969619195
 20
2124.500000000087
 30
0.0
 11
2007.696969619197
 21
2124.500000000087
 31
0.0
  0
LINE
  5
387
330
1F
100
AcDbEntity
  8
LAY-10
  6
CONTINUOUS
 62
     7
100
AcDbLine
 10
2013.696969619198
 20
2129.000000000085
 30
0.0
 11
2007.696969619194
 21
2129.000000000085
 31
0.0
  0
LINE
  5
388
330
1F
100
AcDbEntity
  8
LAY-10
  6
CONTINUOUS
 62
     7
100
AcDbLine
 10
2013.696969619198
 20
2104.000000000085
 30
0.0
 11
2007.696969619197
 21
2104.000000000085
 31
0.0
  0
ARC
  5
389
330
1F
100
AcDbEntity
  8
LAY-10
  6
CONTINUOUS
 62
     7
100
AcDbCircle
 10
2011.966989275221
 20
2116.500000000085
 30
0.0
 40
20.47001965601966
100
AcDbArc
 50
156.9947512290631
 51
203.0052487709369
  0
ARC
  5
38A
330
1F
100
AcDbEntity
  8
LAY-10
  6
CONTINUOUS
 62
     7
100
AcDbCircle
 10
1994.938618574974
 20
2127.425000000085
 30
0.0
 40
3.441648955773841
100
AcDbArc
 50
121.8010203972052
 51
238.1989796027948
  0
ARC
  5
38B
330
1F
100
AcDbEntity
  8
LAY-10
  6
CONTINUOUS
 62
     7
100
AcDbCircle
 10
1994.938618574974
 20
2105.575000000084
 30
0.0
 40
3.441648955773841
100
AcDbArc
 50
121.8010203972052
 51
238.1989796027948
  0
LINE
  5
38C
330
1F
100
AcDbEntity
  8
LAY-10
  6
CONTINUOUS
 62
     7
100
AcDbLine
 10
1991.496969619202
 20
2105.575000000084
 30
0.0
 11
1991.496969619202
 21
2127.425000000085
 31
0.0
  0
ARC
  5
38D
330
1F
100
AcDbEntity
  8
LAY-10
  6
CONTINUOUS
 62
     7
100
AcDbCircle
 10
1991.496969619188
 20
2127.500000000084
 30
0.0
 40
1.0
100
AcDbArc
 50
80.35284919912797
 51
180.0
  0
ARC
  5
38E
330
1F
100
AcDbEntity
  8
LAY-10
  6
CONTINUOUS
 62
     7
100
AcDbCircle
 10
1991.496969619188
 20
2105.500000000083
 30
0.0
 40
1.0
100
AcDbArc
 50
180.0
 51
279.6471508008721
  0
LINE
  5
38F
330
1F
100
AcDbEntity
  8
LAY-10
  6
CONTINUOUS
 62
     7
100
AcDbLine
 10
1963.196969619162
 20
2138.500000000084
 30
0.0
 11
1971.196969619159
 21
2138.500000000084
 31
0.0
  0
LINE
  5
390
330
1F
100
AcDbEntity
  8
LAY-10
  6
CONTINUOUS
 62
     7
100
AcDbLine
 10
1963.196969619162
 20
2136.000000000085
 30
0.0
 11
1963.196969619162
 21
2140.000000000084
 31
0.0
  0
LINE
  5
391
330
1F
100
AcDbEntity
  8
LAY-10
  6
CONTINUOUS
 62
     7
100
AcDbLine
 10
1963.196969619162
 20
2125.000000000085
 30
0.0
 11
1963.196969619162
 21
2130.000000000084
 31
0.0
  0
LINE
  5
392
330
1F
100
AcDbEntity
  8
LAY-10
  6
CONTINUOUS
 62
     7
100
AcDbLine
 10
1964.196969619159
 20
2130.250000000084
 30
0.0
 11
1964.196969619159
 21
2135.750000000084
 31
0.0
  0
LINE
  5
393
330
1F
100
AcDbEntity
  8
LAY-10
  6
CONTINUOUS
 62
     7
100
AcDbLine
 10
1964.196969619159
 20
2119.250000000084
 30
0.0
 11
1964.196969619159
 21
2124.750000000085
 31
0.0
  0
LINE
  5
394
330
1F
100
AcDbEntity
  8
LAY-10
  6
CONTINUOUS
 62
     7
100
AcDbLine
 10
1963.196969619162
 20
2114.000000000085
 30
0.0
 11
1963.196969619162
 21
2119.000000000084
 31
0.0
  0
LINE
  5
395
330
1F
100
AcDbEntity
  8
LAY-10
  6
CONTINUOUS
 62
     7
100
AcDbLine
 10
1963.196969619162
 20
2103.000000000085
 30
0.0
 11
1963.196969619162
 21
2108.000000000084
 31
0.0
  0
LINE
  5
396
330
1F
100
AcDbEntity
  8
LAY-10
  6
CONTINUOUS
 62
     7
100
AcDbLine
 10
1963.196969619162
 20
2093.000000000084
 30
0.0
 11
1963.196969619162
 21
2097.000000000084
 31
0.0
  0
LINE
  5
397
330
1F
100
AcDbEntity
  8
LAY-10
  6
CONTINUOUS
 62
     7
100
AcDbLine
 10
1964.196969619159
 20
2108.250000000084
 30
0.0
 11
1964.196969619159
 21
2113.750000000085
 31
0.0
  0
LINE
  5
398
330
1F
100
AcDbEntity
  8
LAY-10
  6
CONTINUOUS
 62
     7
100
AcDbLine
 10
1964.196969619159
 20
2097.250000000084
 30
0.0
 11
1964.196969619159
 21
2102.750000000085
 31
0.0
  0
LINE
  5
399
330
1F
100
AcDbEntity
  8
LAY-10
  6
CONTINUOUS
 62
     7
100
AcDbLine
 10
1964.196969619163
 20
2135.750000000084
 30
0.0
 11
1963.196969619165
 21
2136.000000000084
 31
0.0
  0
LINE
  5
39A
330
1F
100
AcDbEntity
  8
LAY-10
  6
CONTINUOUS
 62
     7
100
AcDbLine
 10
1963.196969619165
 20
2130.000000000084
 30
0.0
 11
1964.196969619163
 21
2130.250000000084
 31
0.0
  0
LINE
  5
39B
330
1F
100
AcDbEntity
  8
LAY-10
  6
CONTINUOUS
 62
     7
100
AcDbLine
 10
1964.196969619163
 20
2124.750000000084
 30
0.0
 11
1963.196969619165
 21
2125.000000000084
 31
0.0
  0
LINE
  5
39C
330
1F
100
AcDbEntity
  8
LAY-10
  6
CONTINUOUS
 62
     7
100
AcDbLine
 10
1963.196969619165
 20
2119.000000000084
 30
0.0
 11
1964.196969619163
 21
2119.250000000084
 31
0.0
  0
LINE
  5
39D
330
1F
100
AcDbEntity
  8
LAY-10
  6
CONTINUOUS
 62
     7
100
AcDbLine
 10
1964.196969619163
 20
2097.250000000084
 30
0.0
 11
1963.196969619165
 21
2097.000000000084
 31
0.0
  0
LINE
  5
39E
330
1F
100
AcDbEntity
  8
LAY-10
  6
CONTINUOUS
 62
     7
100
AcDbLine
 10
1963.196969619165
 20
2103.000000000084
 30
0.0
 11
1964.196969619163
 21
2102.750000000084
 31
0.0
  0
LINE
  5
39F
330
1F
100
AcDbEntity
  8
LAY-10
  6
CONTINUOUS
 62
     7
100
AcDbLine
 10
1964.196969619163
 20
2108.250000000084
 30
0.0
 11
1963.196969619165
 21
2108.000000000084
 31
0.0
  0
LINE
  5
3A0
330
1F
100
AcDbEntity
  8
LAY-10
  6
CONTINUOUS
 62
     7
100
AcDbLine
 10
1963.196969619165
 20
2114.000000000084
 30
0.0
 11
1964.196969619163
 21
2113.750000000084
 31
0.0
  0
LINE
  5
3A1
330
1F
100
AcDbEntity
  8
LAY-10
  6
CONTINUOUS
 62
     7
100
AcDbLine
 10
1983.19696961916
 20
2139.500000000084
 30
0.0
 11
1989.682040869235
 21
2137.878732187566
 31
0.0
  0
LINE
  5
3A2
330
1F
100
AcDbEntity
  8
LAY-10
  6
CONTINUOUS
 62
     7
100
AcDbLine
 10
1975.699451024055
 20
2131.950248140573
 30
0.0
 11
1990.296473338182
 21
2133.409950371986
 31
0.0
  0
LINE
  5
3A3
330
1F
100
AcDbEntity
  8
LAY-10
  6
CONTINUOUS
 62
     7
100
AcDbLine
 10
1971.196969619159
 20
2106.024937810643
 30
0.0
 11
1971.196969619159
 21
2126.975062189524
 31
0.0
  0
LINE
  5
3A4
330
1F
100
AcDbEntity
  8
LAY-10
  6
CONTINUOUS
 62
     7
100
AcDbLine
 10
1975.699451024055
 20
2101.049751859596
 30
0.0
 11
1990.296473338182
 21
2099.590049628183
 31
0.0
  0
LINE
  5
3A5
330
1F
100
AcDbEntity
  8
LAY-10
  6
CONTINUOUS
 62
     7
100
AcDbLine
 10
1983.19696961916
 20
2093.500000000084
 30
0.0
 11
1989.682040869235
 21
2095.121267812603
 31
0.0
  0
LINE
  5
3A6
330
1F
100
AcDbEntity
  8
LAY-10
  6
CONTINUOUS
 62
     7
100
AcDbLine
 10
1963.196969619162
 20
2140.000000000084
 30
0.0
 11
1964.696969619159
 21
2141.500000000084
 31
0.0
  0
LINE
  5
3A7
330
1F
100
AcDbEntity
  8
LAY-10
  6
CONTINUOUS
 62
     7
100
AcDbLine
 10
1963.196969619162
 20
2093.000000000084
 30
0.0
 11
1964.696969619159
 21
2091.500000000084
 31
0.0
  0
ARC
  5
3A8
330
1F
100
AcDbEntity
  8
LAY-10
  6
CONTINUOUS
 62
     7
100
AcDbCircle
 10
1976.196969619161
 20
2126.975062189524
 30
0.0
 40
5.0
100
AcDbArc
 50
95.71059313749761
 51
180.0
  0
ARC
  5
3A9
330
1F
100
AcDbEntity
  8
LAY-10
  6
CONTINUOUS
 62
     7
100
AcDbCircle
 10
1990.196969619159
 20
2134.404987562197
 30
0.0
 40
1.0
100
AcDbArc
 50
275.710593137497
 51
0.0
  0
ARC
  5
3AA
330
1F
100
AcDbEntity
  8
LAY-10
  6
CONTINUOUS
 62
     7
100
AcDbCircle
 10
1989.19696961916
 20
2135.938447187275
 30
0.0
 40
2.0
100
AcDbArc
 50
0.0
 51
75.96375653207986
  0
LINE
  5
3AB
330
1F
100
AcDbEntity
  8
LAY-10
  6
CONTINUOUS
 62
     7
100
AcDbLine
 10
1983.19696961916
 20
2139.500000000084
 30
0.0
 11
1983.19696961916
 21
2137.500000000084
 31
0.0
  0
LINE
  5
3AC
330
1F
100
AcDbEntity
  8
LAY-10
  6
CONTINUOUS
 62
     7
100
AcDbLine
 10
1975.196969619159
 20
2139.500000000084
 30
0.0
 11
1975.196969619159
 21
2137.500000000084
 31
0.0
  0
LINE
  5
3AD
330
1F
100
AcDbEntity
  8
LAY-10
  6
CONTINUOUS
 62
     7
100
AcDbLine
 10
1971.196969619159
 20
2138.500000000084
 30
0.0
 11
1975.196969619159
 21
2137.500000000084
 31
0.0
  0
LINE
  5
3AE
330
1F
100
AcDbEntity
  8
LAY-10
  6
CONTINUOUS
 62
     7
100
AcDbLine
 10
1975.196969619159
 20
2139.500000000084
 30
0.0
 11
1983.19696961916
 21
2137.500000000084
 31
0.0
  0
ARC
  5
3AF
330
1F
100
AcDbEntity
  8
LAY-10
  6
CONTINUOUS
 62
     7
100
AcDbCircle
 10
1976.196969619161
 20
2106.024937810643
 30
0.0
 40
5.0
100
AcDbArc
 50
180.0
 51
264.2894068625025
  0
ARC
  5
3B0
330
1F
100
AcDbEntity
  8
LAY-10
  6
CONTINUOUS
 62
     7
100
AcDbCircle
 10
1990.196969619159
 20
2098.595012437971
 30
0.0
 40
1.0
100
AcDbArc
 50
0.0
 51
84.28940686250297
  0
ARC
  5
3B1
330
1F
100
AcDbEntity
  8
LAY-10
  6
CONTINUOUS
 62
     7
100
AcDbCircle
 10
1989.19696961916
 20
2097.061552812893
 30
0.0
 40
2.0
100
AcDbArc
 50
284.0362434679201
 51
0.0
  0
LINE
  5
3B2
330
1F
100
AcDbEntity
  8
LAY-10
  6
CONTINUOUS
 62
     7
100
AcDbLine
 10
1983.19696961916
 20
2093.500000000084
 30
0.0
 11
1983.19696961916
 21
2095.500000000084
 31
0.0
  0
LINE
  5
3B3
330
1F
100
AcDbEntity
  8
LAY-10
  6
CONTINUOUS
 62
     7
100
AcDbLine
 10
1975.196969619159
 20
2093.500000000084
 30
0.0
 11
1975.196969619159
 21
2095.500000000084
 31
0.0
  0
LINE
  5
3B4
330
1F
100
AcDbEntity
  8
LAY-10
  6
CONTINUOUS
 62
     7
100
AcDbLine
 10
1967.196969619161
 20
2094.500000000085
 30
0.0
 11
1971.196969619159
 21
2094.500000000085
 31
0.0
  0
LINE
  5
3B5
330
1F
100
AcDbEntity
  8
LAY-10
  6
CONTINUOUS
 62
     7
100
AcDbLine
 10
1971.196969619159
 20
2094.500000000085
 30
0.0
 11
1975.196969619159
 21
2095.500000000084
 31
0.0
  0
LINE
  5
3B6
330
1F
100
AcDbEntity
  8
LAY-10
  6
CONTINUOUS
 62
     7
100
AcDbLine
 10
1975.196969619159
 20
2093.500000000084
 30
0.0
 11
1983.19696961916
 21
2095.500000000084
 31
0.0
  0
LINE
  5
3B7
330
1F
100
AcDbEntity
  8
LAY-10
  6
CONTINUOUS
 62
     7
100
AcDbLine
 10
1990.496969619189
 20
2105.500000000083
 30
0.0
 11
1990.496969619189
 21
2127.500000000084
 31
0.0
  0
LINE
  5
3B8
330
1F
100
AcDbEntity
  8
LAY-10
  6
CONTINUOUS
 62
     7
100
AcDbLine
 10
1985.696969619194
 20
2124.500000000087
 30
0.0
 11
1984.696969619192
 21
2123.500000000087
 31
0.0
  0
LINE
  5
3B9
330
1F
100
AcDbEntity
  8
LAY-10
  6
CONTINUOUS
 62
     7
100
AcDbLine
 10
1984.696969619192
 20
2109.500000000087
 30
0.0
 11
1985.696969619194
 21
2108.500000000087
 31
0.0
  0
LINE
  5
3BA
330
1F
100
AcDbEntity
  8
LAY-10
  6
CONTINUOUS
 62
     7
100
AcDbLine
 10
1984.696969619192
 20
2123.500000000087
 30
0.0
 11
1984.696969619192
 21
2109.500000000087
 31
0.0
  0
LINE
  5
3BB
330
1F
100
AcDbEntity
  8
LAY-10
  6
CONTINUOUS
 62
     7
100
AcDbLine
 10
1990.496969619195
 20
2124.500000000087
 30
0.0
 11
1985.696969619194
 21
2124.500000000087
 31
0.0
  0
LINE
  5
3BC
330
1F
100
AcDbEntity
  8
LAY-10
  6
CONTINUOUS
 62
     7
100
AcDbLine
 10
1990.496969619195
 20
2108.500000000087
 30
0.0
 11
1985.696969619194
 21
2108.500000000087
 31
0.0
  0
LINE
  5
3BD
330
1F
100
AcDbEntity
  8
LAY-10
  6
CONTINUOUS
 62
     7
100
AcDbLine
 10
1991.196969619161
 20
2128.453939201503
 30
0.0
 11
1991.196969619161
 21
2135.938447187275
 31
0.0
  0
LINE
  5
3BE
330
1F
100
AcDbEntity
  8
LAY-10
  6
CONTINUOUS
 62
     7
100
AcDbLine
 10
1991.196969619161
 20
2097.061552812887
 30
0.0
 11
1991.196969619161
 21
2104.546060798677
 31
0.0
  0
LINE
  5
3BF
330
1F
100
AcDbEntity
  8
LAY-10
  6
CONTINUOUS
 62
     7
100
AcDbLine
 10
2007.696969619197
 20
2093.800000000118
 30
0.0
 11
1967.196969619161
 21
2093.800000000118
 31
0.0
  0
LINE
  5
3C0
330
1F
100
AcDbEntity
  8
LAY-10
  6
CONTINUOUS
 62
     7
100
AcDbLine
 10
2007.696969619197
 20
2091.500000000116
 30
0.0
 11
1964.696969619129
 21
2091.500000000116
 31
0.0
  0
LINE
  5
3C1
330
1F
100
AcDbEntity
  8
LAY-10
  6
CONTINUOUS
 62
     7
100
AcDbLine
 10
1967.196969619161
 20
2139.200000000124
 30
0.0
 11
2007.696969619197
 21
2139.200000000124
 31
0.0
  0
LINE
  5
3C2
330
1F
100
AcDbEntity
  8
LAY-10
  6
CONTINUOUS
 62
     7
100
AcDbLine
 10
1964.696969619199
 20
2141.500000000125
 30
0.0
 11
2005.696969619198
 21
2141.500000000126
 31
0.0
  0
ARC
  5
3C3
330
1F
100
AcDbEntity
  8
LAY-10
  6
CONTINUOUS
 62
     7
100
AcDbCircle
 10
2005.696969619198
 20
2139.500000000126
 30
0.0
 40
2.0
100
AcDbArc
 50
0.0
 51
90.00000000000001
  0
LINE
  5
3C4
330
1F
100
AcDbEntity
  8
LAY-10
  6
CONTINUOUS
 62
     7
100
AcDbLine
 10
1962.696969619196
 20
2091.500000000122
 30
0.0
 11
1967.196969619197
 21
2091.500000000122
 31
0.0
  0
ARC
  5
3C5
330
1F
100
AcDbEntity
  8
LAY-10
  6
CONTINUOUS
 62
     7
100
AcDbCircle
 10
2027.696969619203
 20
2097.500000000044
 30
0.0
 40
3.000000000000001
100
AcDbArc
 50
180.0
 51
270.0
  0
LINE
  5
3C6
330
1F
100
AcDbEntity
  8
LAY-10
  6
CONTINUOUS
 62
     7
100
AcDbLine
 10
2007.696969619199
 20
2083.0000000001
 30
0.0
 11
2007.696969619199
 21
2139.5000000001
 31
0.0
  0
LINE
  5
3C7
330
1F
100
AcDbEntity
  8
LAY-10
  6
CONTINUOUS
 62
     7
100
AcDbLine
 10
2018.696969619201
 20
2124.500000000087
 30
0.0
 11
2018.696969619201
 21
2151.500000000102
 31
0.0
  0
LINE
  5
3C8
330
1F
100
AcDbEntity
  8
LAY-10
  6
CONTINUOUS
 62
     7
100
AcDbLine
 10
2032.696969619229
 20
2151.500000000149
 30
0.0
 11
2032.696969619229
 21
2130.350000000088
 31
0.0
  0
LINE
  5
3C9
330
1F
100
AcDbEntity
  8
LAY-10
  6
CONTINUOUS
 62
     7
100
AcDbLine
 10
1967.196969619197
 20
2147.500000000125
 30
0.0
 11
2006.696969619196
 21
2147.500000000126
 31
0.0
  0
LINE
  5
3CA
330
1F
100
AcDbEntity
  8
LAY-10
  6
CONTINUOUS
 62
     7
100
AcDbLine
 10
2013.696969619196
 20
2140.500000000126
 30
0.0
 11
2013.696969619196
 21
2124.500000000087
 31
0.0
  0
ARC
  5
3CB
330
1F
100
AcDbEntity
  8
LAY-10
  6
CONTINUOUS
 62
     7
100
AcDbCircle
 10
2006.696969619196
 20
2140.500000000126
 30
0.0
 40
7.0
100
AcDbArc
 50
0.0
 51
90.00000000000001
  0
LINE
  5
3CC
330
1F
100
AcDbEntity
  8
LAY-10
  6
CONTINUOUS
 62
     7
100
AcDbLine
 10
2126.69696961923
 20
2029.500000000124
 30
0.0
 11
2126.69696961923
 21
2085.500000000099
 31
0.0
  0
LINE
  5
3CD
330
1F
100
AcDbEntity
  8
LAY-10
  6
CONTINUOUS
 62
     7
100
AcDbLine
 10
2121.696969619202
 20
2077.000000000096
 30
0.0
 11
2121.696969619202
 21
2033.0000000002
 31
0.0
  0
LINE
  5
3CE
330
1F
100
AcDbEntity
  8
LAY-10
  6
CONTINUOUS
 62
     7
100
AcDbLine
 10
1967.196969619197
 20
2138.500000000084
 30
0.0
 11
1967.196969619197
 21
2151.500000000101
 31
0.0
  0
LINE
  5
3CF
330
1F
100
AcDbEntity
  8
LAY-10
  6
CONTINUOUS
 62
     7
100
AcDbLine
 10
2126.69696961923
 20
1329.500000000124
 30
0.0
 11
2132.6969696192
 21
1329.500000000124
 31
0.0
  0
ARC
  5
3D0
330
1F
100
AcDbEntity
  8
LAY-10
  6
CONTINUOUS
 62
     7
100
AcDbCircle
 10
2123.696969619201
 20
1273.500000000106
 30
0.0
 40
9.0
100
AcDbArc
 50
270.0
 51
0.0
  0
ARC
  5
3D1
330
1F
100
AcDbEntity
  8
LAY-10
  6
CONTINUOUS
 62
     7
100
AcDbCircle
 10
2123.696969619232
 20
1273.500000000106
 30
0.0
 40
3.000000000000001
100
AcDbArc
 50
270.0
 51
0.0
  0
LINE
  5
3D2
330
1F
100
AcDbEntity
  8
LAY-10
  6
CONTINUOUS
 62
     7
100
AcDbLine
 10
2132.6969696192
 20
1273.5000000001
 30
0.0
 11
2132.6969696192
 21
1329.500000000124
 31
0.0
  0
LINE
  5
3D3
330
1F
100
AcDbEntity
  8
LAY-10
  6
CONTINUOUS
 62
     7
100
AcDbLine
 10
1967.1969696192
 20
1282.000000000167
 30
0.0
 11
2121.696969619202
 21
1282.000000000167
 31
0.0
  0
LINE
  5
3D4
330
1F
100
AcDbEntity
  8
LAY-10
  6
CONTINUOUS
 62
     7
100
AcDbLine
 10
2117.1969696192
 20
1326.000000000169
 30
0.0
 11
2121.696969619179
 21
1326.000000000169
 31
0.0
  0
LINE
  5
3D5
330
1F
100
AcDbEntity
  8
LAY-10
  6
CONTINUOUS
 62
     7
100
AcDbLine
 10
2032.196969619207
 20
1332.500000000105
 30
0.0
 11
1967.196969619207
 21
1332.500000000106
 31
0.0
  0
LINE
  5
3D6
330
1F
100
AcDbEntity
  8
LAY-10
  6
CONTINUOUS
 62
     7
100
AcDbLine
 10
2032.196969619207
 20
1326.500000000106
 30
0.0
 11
1967.196969619207
 21
1326.500000000106
 31
0.0
  0
ARC
  5
3D7
330
1F
100
AcDbEntity
  8
LAY-10
  6
CONTINUOUS
 62
     7
100
AcDbCircle
 10
1997.196969619207
 20
1367.478762000106
 30
0.0
 40
5.0
100
AcDbArc
 50
57.99461699998903
 51
180.0
  0
LINE
  5
3D8
330
1F
100
AcDbEntity
  8
LAY-10
  6
CONTINUOUS
 62
     7
100
AcDbLine
 10
1999.846963619208
 20
1371.718754000106
 30
0.0
 11
2032.196969619207
 21
1351.500000000106
 31
0.0
  0
LINE
  5
3D9
330
1F
100
AcDbEntity
  8
LAY-10
  6
CONTINUOUS
 62
     7
100
AcDbLine
 10
1992.196969619208
 20
1332.500000000106
 30
0.0
 11
1992.196969619208
 21
1367.478762000106
 31
0.0
  0
LINE
  5
3DA
330
1F
100
AcDbEntity
  8
LAY-10
  6
CONTINUOUS
 62
     7
100
AcDbLine
 10
2032.196969619207
 20
1326.500000000106
 30
0.0
 11
2032.196969619207
 21
1351.500000000106
 31
0.0
  0
LINE
  5
3DB
330
1F
100
AcDbEntity
  8
LAY-10
  6
CONTINUOUS
 62
     7
100
AcDbLine
 10
1974.196969619194
 20
1326.500000000106
 30
0.0
 11
1974.196969619194
 21
1282.000000000167
 31
0.0
  0
LINE
  5
3DC
330
1F
100
AcDbEntity
  8
LAY-10
  6
CONTINUOUS
 62
     7
100
AcDbLine
 10
2032.196969619199
 20
1282.000000000147
 30
0.0
 11
2032.196969619199
 21
1276.000000000147
 31
0.0
  0
LINE
  5
3DD
330
1F
100
AcDbEntity
  8
LAY-10
  6
CONTINUOUS
 62
     7
100
AcDbLine
 10
1967.1969696192
 20
1276.000000000147
 30
0.0
 11
2032.196969619199
 21
1276.000000000147
 31
0.0
  0
ARC
  5
3DE
330
1F
100
AcDbEntity
  8
LAY-10
  6
CONTINUOUS
 62
     7
100
AcDbCircle
 10
2027.696969619205
 20
1261.500000000106
 30
0.0
 40
9.0
100
AcDbArc
 50
90.00000000000001
 51
180.0
  0
ARC
  5
3DF
330
1F
100
AcDbEntity
  8
LAY-10
  6
CONTINUOUS
 62
     7
100
AcDbCircle
 10
2015.696969619203
 20
1207.499999999965
 30
0.0
 40
3.000000000000001
100
AcDbArc
 50
270.0
 51
0.0
  0
ARC
  5
3E0
330
1F
100
AcDbEntity
  8
LAY-10
  6
CONTINUOUS
 62
     7
100
AcDbCircle
 10
2015.696969619203
 20
1207.499999999965
 30
0.0
 40
9.0
100
AcDbArc
 50
270.0
 51
0.0
  0
LINE
  5
3E1
330
1F
100
AcDbEntity
  8
LAY-10
  6
CONTINUOUS
 62
     7
100
AcDbLine
 10
1962.696969619201
 20
1204.499999999965
 30
0.0
 11
1962.696969619201
 21
1198.499999999965
 31
0.0
  0
LINE
  5
3E2
330
1F
100
AcDbEntity
  8
LAY-10
  6
CONTINUOUS
 62
     7
100
AcDbLine
 10
1962.696969619201
 20
1204.499999999965
 30
0.0
 11
2015.696969619203
 21
1204.499999999965
 31
0.0
  0
LINE
  5
3E3
330
1F
100
AcDbEntity
  8
LAY-10
  6
CONTINUOUS
 62
     7
100
AcDbLine
 10
1962.696969619201
 20
1198.499999999965
 30
0.0
 11
2015.696969619203
 21
1198.499999999965
 31
0.0
  0
LINE
  5
3E4
330
1F
100
AcDbEntity
  8
LAY-10
  6
CONTINUOUS
 62
     7
100
AcDbLine
 10
2068.052308678556
 20
1172.144660940682
 30
0.0
 11
2032.69696961923
 21
1207.500000000009
 31
0.0
  0
LINE
  5
3E5
330
1F
100
AcDbEntity
  8
LAY-10
  6
CONTINUOUS
 62
     7
100
AcDbLine
 10
2062.395454429066
 20
1166.487806691191
 30
0.0
 11
2068.052308678556
 21
1172.144660940682
 31
0.0
  0
LINE
  5
3E6
330
1F
100
AcDbEntity
  8
LAY-10
  6
CONTINUOUS
 62
     7
100
AcDbLine
 10
2123.696969619201
 20
1264.500000000106
 30
0.0
 11
2027.6969696192
 21
1264.500000000106
 31
0.0
  0
LINE
  5
3E7
330
1F
100
AcDbEntity
  8
LAY-10
  6
CONTINUOUS
 62
     7
100
AcDbLine
 10
2123.696969619232
 20
1270.500000000106
 30
0.0
 11
2027.6969696192
 21
1270.500000000106
 31
0.0
  0
LINE
  5
3E8
330
1F
100
AcDbEntity
  8
LAY-10
  6
CONTINUOUS
 62
     7
100
AcDbLine
 10
1962.696969619201
 20
1217.500000000026
 30
0.0
 11
1967.1969696192
 21
1217.500000000027
 31
0.0
  0
LINE
  5
3E9
330
1F
100
AcDbEntity
  8
LAY-10
  6
CONTINUOUS
 62
     7
100
AcDbLine
 10
1962.696969619201
 20
1207.500000000017
 30
0.0
 11
1967.1969696192
 21
1207.500000000017
 31
0.0
  0
LINE
  5
3EA
330
1F
100
AcDbEntity
  8
LAY-10
  6
CONTINUOUS
 62
     7
100
AcDbLine
 10
2004.496969619197
 20
1227.500000000064
 30
0.0
 11
2007.696969619197
 21
1227.500000000064
 31
0.0
  0
LINE
  5
3EB
330
1F
100
AcDbEntity
  8
LAY-10
  6
CONTINUOUS
 62
     7
100
AcDbLine
 10
2004.496969619197
 20
1257.500000000064
 30
0.0
 11
2007.696969619197
 21
1257.500000000064
 31
0.0
  0
LINE
  5
3EC
330
1F
100
AcDbEntity
  8
LAY-10
  6
CONTINUOUS
 62
     7
100
AcDbLine
 10
2004.496969619197
 20
1227.500000000064
 30
0.0
 11
2004.496969619197
 21
1257.500000000064
 31
0.0
  0
LINE
  5
3ED
330
1F
100
AcDbEntity
  8
LAY-10
  6
CONTINUOUS
 62
     7
100
AcDbLine
 10
2004.496969619204
 20
1250.500000000064
 30
0.0
 11
1993.124969619205
 21
1250.500000000064
 31
0.0
  0
LINE
  5
3EE
330
1F
100
AcDbEntity
  8
LAY-10
  6
CONTINUOUS
 62
     7
100
AcDbLine
 10
2004.496969619204
 20
1234.500000000064
 30
0.0
 11
1993.124969619205
 21
1234.500000000064
 31
0.0
  0
LINE
  5
3EF
330
1F
100
AcDbEntity
  8
LAY-10
  6
CONTINUOUS
 62
     7
100
AcDbLine
 10
2004.496969619204
 20
1228.650000000065
 30
0.0
 11
1993.124969619205
 21
1228.650000000065
 31
0.0
  0
LINE
  5
3F0
330
1F
100
AcDbEntity
  8
LAY-10
  6
CONTINUOUS
 62
     7
100
AcDbLine
 10
2004.496969619204
 20
1256.350000000064
 30
0.0
 11
1993.124969619205
 21
1256.350000000064
 31
0.0
  0
LINE
  5
3F1
330
1F
100
AcDbEntity
  8
LAY-10
  6
CONTINUOUS
 62
     7
100
AcDbLine
 10
2024.696969619197
 20
1250.500000000061
 30
0.0
 11
2007.696969619199
 21
1250.500000000061
 31
0.0
  0
LINE
  5
3F2
330
1F
100
AcDbEntity
  8
LAY-10
  6
CONTINUOUS
 62
     7
100
AcDbLine
 10
2024.696969619197
 20
1234.500000000062
 30
0.0
 11
2007.696969619199
 21
1234.500000000062
 31
0.0
  0
LINE
  5
3F3
330
1F
100
AcDbEntity
  8
LAY-10
  6
CONTINUOUS
 62
     7
100
AcDbLine
 10
2013.696969619199
 20
1230.000000000064
 30
0.0
 11
2007.696969619197
 21
1230.000000000064
 31
0.0
  0
LINE
  5
3F4
330
1F
100
AcDbEntity
  8
LAY-10
  6
CONTINUOUS
 62
     7
100
AcDbLine
 10
2013.696969619199
 20
1255.000000000064
 30
0.0
 11
2007.696969619199
 21
1255.000000000064
 31
0.0
  0
ARC
  5
3F5
330
1F
100
AcDbEntity
  8
LAY-10
  6
CONTINUOUS
 62
     7
100
AcDbCircle
 10
2011.966989275223
 20
1242.500000000064
 30
0.0
 40
20.47001965601966
100
AcDbArc
 50
156.9947512290631
 51
203.005248770937
  0
ARC
  5
3F6
330
1F
100
AcDbEntity
  8
LAY-10
  6
CONTINUOUS
 62
     7
100
AcDbCircle
 10
1994.938618574976
 20
1231.575000000064
 30
0.0
 40
3.441648955773841
100
AcDbArc
 50
121.8010203972052
 51
238.1989796027948
  0
ARC
  5
3F7
330
1F
100
AcDbEntity
  8
LAY-10
  6
CONTINUOUS
 62
     7
100
AcDbCircle
 10
1994.938618574976
 20
1253.425000000065
 30
0.0
 40
3.441648955773841
100
AcDbArc
 50
121.8010203972052
 51
238.1989796027948
  0
LINE
  5
3F8
330
1F
100
AcDbEntity
  8
LAY-10
  6
CONTINUOUS
 62
     7
100
AcDbLine
 10
1991.496969619202
 20
1253.425000000065
 30
0.0
 11
1991.496969619202
 21
1231.575000000064
 31
0.0
  0
ARC
  5
3F9
330
1F
100
AcDbEntity
  8
LAY-10
  6
CONTINUOUS
 62
     7
100
AcDbCircle
 10
1991.496969619189
 20
1231.500000000065
 30
0.0
 40
1.0
100
AcDbArc
 50
180.0
 51
279.6471508008721
  0
ARC
  5
3FA
330
1F
100
AcDbEntity
  8
LAY-10
  6
CONTINUOUS
 62
     7
100
AcDbCircle
 10
1991.496969619189
 20
1253.500000000065
 30
0.0
 40
1.0
100
AcDbArc
 50
80.35284919912797
 51
180.0
  0
LINE
  5
3FB
330
1F
100
AcDbEntity
  8
LAY-10
  6
CONTINUOUS
 62
     7
100
AcDbLine
 10
1963.196969619165
 20
1220.500000000065
 30
0.0
 11
1971.196969619163
 21
1220.500000000065
 31
0.0
  0
LINE
  5
3FC
330
1F
100
AcDbEntity
  8
LAY-10
  6
CONTINUOUS
 62
     7
100
AcDbLine
 10
1963.196969619165
 20
1223.000000000064
 30
0.0
 11
1963.196969619165
 21
1219.000000000065
 31
0.0
  0
LINE
  5
3FD
330
1F
100
AcDbEntity
  8
LAY-10
  6
CONTINUOUS
 62
     7
100
AcDbLine
 10
1963.196969619165
 20
1234.000000000064
 30
0.0
 11
1963.196969619165
 21
1229.000000000065
 31
0.0
  0
LINE
  5
3FE
330
1F
100
AcDbEntity
  8
LAY-10
  6
CONTINUOUS
 62
     7
100
AcDbLine
 10
1964.196969619162
 20
1228.750000000065
 30
0.0
 11
1964.196969619162
 21
1223.250000000065
 31
0.0
  0
LINE
  5
3FF
330
1F
100
AcDbEntity
  8
LAY-10
  6
CONTINUOUS
 62
     7
100
AcDbLine
 10
1964.196969619162
 20
1239.750000000065
 30
0.0
 11
1964.196969619162
 21
1234.250000000064
 31
0.0
  0
LINE
  5
400
330
1F
100
AcDbEntity
  8
LAY-10
  6
CONTINUOUS
 62
     7
100
AcDbLine
 10
1963.196969619165
 20
1245.000000000064
 30
0.0
 11
1963.196969619165
 21
1240.000000000065
 31
0.0
  0
LINE
  5
401
330
1F
100
AcDbEntity
  8
LAY-10
  6
CONTINUOUS
 62
     7
100
AcDbLine
 10
1963.196969619165
 20
1256.000000000063
 30
0.0
 11
1963.196969619165
 21
1251.000000000065
 31
0.0
  0
LINE
  5
402
330
1F
100
AcDbEntity
  8
LAY-10
  6
CONTINUOUS
 62
     7
100
AcDbLine
 10
1963.196969619165
 20
1266.000000000065
 30
0.0
 11
1963.196969619165
 21
1262.000000000065
 31
0.0
  0
LINE
  5
403
330
1F
100
AcDbEntity
  8
LAY-10
  6
CONTINUOUS
 62
     7
100
AcDbLine
 10
1964.196969619162
 20
1250.750000000065
 30
0.0
 11
1964.196969619162
 21
1245.250000000064
 31
0.0
  0
LINE
  5
404
330
1F
100
AcDbEntity
  8
LAY-10
  6
CONTINUOUS
 62
     7
100
AcDbLine
 10
1964.196969619163
 20
1261.750000000065
 30
0.0
 11
1964.196969619162
 21
1256.250000000064
 31
0.0
  0
LINE
  5
405
330
1F
100
AcDbEntity
  8
LAY-10
  6
CONTINUOUS
 62
     7
100
AcDbLine
 10
1964.196969619165
 20
1223.250000000065
 30
0.0
 11
1963.196969619167
 21
1223.000000000065
 31
0.0
  0
LINE
  5
406
330
1F
100
AcDbEntity
  8
LAY-10
  6
CONTINUOUS
 62
     7
100
AcDbLine
 10
1963.196969619167
 20
1229.000000000065
 30
0.0
 11
1964.196969619165
 21
1228.750000000065
 31
0.0
  0
LINE
  5
407
330
1F
100
AcDbEntity
  8
LAY-10
  6
CONTINUOUS
 62
     7
100
AcDbLine
 10
1964.196969619165
 20
1234.250000000065
 30
0.0
 11
1963.196969619167
 21
1234.000000000065
 31
0.0
  0
LINE
  5
408
330
1F
100
AcDbEntity
  8
LAY-10
  6
CONTINUOUS
 62
     7
100
AcDbLine
 10
1963.196969619167
 20
1240.000000000065
 30
0.0
 11
1964.196969619165
 21
1239.750000000065
 31
0.0
  0
LINE
  5
409
330
1F
100
AcDbEntity
  8
LAY-10
  6
CONTINUOUS
 62
     7
100
AcDbLine
 10
1964.196969619167
 20
1261.750000000065
 30
0.0
 11
1963.196969619167
 21
1262.000000000065
 31
0.0
  0
LINE
  5
40A
330
1F
100
AcDbEntity
  8
LAY-10
  6
CONTINUOUS
 62
     7
100
AcDbLine
 10
1963.196969619167
 20
1256.000000000065
 30
0.0
 11
1964.196969619165
 21
1256.250000000065
 31
0.0
  0
LINE
  5
40B
330
1F
100
AcDbEntity
  8
LAY-10
  6
CONTINUOUS
 62
     7
100
AcDbLine
 10
1964.196969619165
 20
1250.750000000065
 30
0.0
 11
1963.196969619167
 21
1251.000000000065
 31
0.0
  0
LINE
  5
40C
330
1F
100
AcDbEntity
  8
LAY-10
  6
CONTINUOUS
 62
     7
100
AcDbLine
 10
1963.196969619167
 20
1245.000000000065
 30
0.0
 11
1964.196969619165
 21
1245.250000000065
 31
0.0
  0
LINE
  5
40D
330
1F
100
AcDbEntity
  8
LAY-10
  6
CONTINUOUS
 62
     7
100
AcDbLine
 10
1983.196969619163
 20
1219.500000000065
 30
0.0
 11
1989.682040869237
 21
1221.121267812583
 31
0.0
  0
LINE
  5
40E
330
1F
100
AcDbEntity
  8
LAY-10
  6
CONTINUOUS
 62
     7
100
AcDbLine
 10
1975.699451024059
 20
1227.049751859577
 30
0.0
 11
1990.296473338183
 21
1225.590049628163
 31
0.0
  0
LINE
  5
40F
330
1F
100
AcDbEntity
  8
LAY-10
  6
CONTINUOUS
 62
     7
100
AcDbLine
 10
1971.196969619163
 20
1252.975062189505
 30
0.0
 11
1971.196969619163
 21
1232.024937810625
 31
0.0
  0
LINE
  5
410
330
1F
100
AcDbEntity
  8
LAY-10
  6
CONTINUOUS
 62
     7
100
AcDbLine
 10
1975.699451024059
 20
1257.950248140553
 30
0.0
 11
1990.296473338183
 21
1259.409950371967
 31
0.0
  0
LINE
  5
411
330
1F
100
AcDbEntity
  8
LAY-10
  6
CONTINUOUS
 62
     7
100
AcDbLine
 10
1983.196969619163
 20
1265.500000000065
 30
0.0
 11
1989.682040869239
 21
1263.878732187545
 31
0.0
  0
LINE
  5
412
330
1F
100
AcDbEntity
  8
LAY-10
  6
CONTINUOUS
 62
     7
100
AcDbLine
 10
1963.196969619165
 20
1219.000000000065
 30
0.0
 11
1964.696969619162
 21
1217.500000000065
 31
0.0
  0
LINE
  5
413
330
1F
100
AcDbEntity
  8
LAY-10
  6
CONTINUOUS
 62
     7
100
AcDbLine
 10
1963.196969619165
 20
1266.000000000065
 30
0.0
 11
1964.696969619165
 21
1267.500000000065
 31
0.0
  0
ARC
  5
414
330
1F
100
AcDbEntity
  8
LAY-10
  6
CONTINUOUS
 62
     7
100
AcDbCircle
 10
1976.196969619165
 20
1232.024937810625
 30
0.0
 40
5.0
100
AcDbArc
 50
180.0
 51
264.2894068625025
  0
ARC
  5
415
330
1F
100
AcDbEntity
  8
LAY-10
  6
CONTINUOUS
 62
     7
100
AcDbCircle
 10
1990.196969619163
 20
1224.595012437952
 30
0.0
 40
1.0
100
AcDbArc
 50
0.0
 51
84.28940686250037
  0
ARC
  5
416
330
1F
100
AcDbEntity
  8
LAY-10
  6
CONTINUOUS
 62
     7
100
AcDbCircle
 10
1989.196969619163
 20
1223.061552812875
 30
0.0
 40
2.0
100
AcDbArc
 50
284.0362434679201
 51
0.0
  0
LINE
  5
417
330
1F
100
AcDbEntity
  8
LAY-10
  6
CONTINUOUS
 62
     7
100
AcDbLine
 10
1983.196969619163
 20
1219.500000000065
 30
0.0
 11
1983.196969619163
 21
1221.500000000065
 31
0.0
  0
LINE
  5
418
330
1F
100
AcDbEntity
  8
LAY-10
  6
CONTINUOUS
 62
     7
100
AcDbLine
 10
1975.196969619163
 20
1219.500000000065
 30
0.0
 11
1975.196969619163
 21
1221.500000000065
 31
0.0
  0
LINE
  5
419
330
1F
100
AcDbEntity
  8
LAY-10
  6
CONTINUOUS
 62
     7
100
AcDbLine
 10
1971.196969619163
 20
1220.500000000065
 30
0.0
 11
1975.196969619163
 21
1221.500000000065
 31
0.0
  0
LINE
  5
41A
330
1F
100
AcDbEntity
  8
LAY-10
  6
CONTINUOUS
 62
     7
100
AcDbLine
 10
1975.196969619163
 20
1219.500000000065
 30
0.0
 11
1983.196969619163
 21
1221.500000000065
 31
0.0
  0
ARC
  5
41B
330
1F
100
AcDbEntity
  8
LAY-10
  6
CONTINUOUS
 62
     7
100
AcDbCircle
 10
1976.196969619165
 20
1252.975062189505
 30
0.0
 40
5.0
100
AcDbArc
 50
95.71059313749761
 51
180.0
  0
ARC
  5
41C
330
1F
100
AcDbEntity
  8
LAY-10
  6
CONTINUOUS
 62
     7
100
AcDbCircle
 10
1990.196969619163
 20
1260.404987562177
 30
0.0
 40
1.0
100
AcDbArc
 50
275.7105931374997
 51
0.0
  0
ARC
  5
41D
330
1F
100
AcDbEntity
  8
LAY-10
  6
CONTINUOUS
 62
     7
100
AcDbCircle
 10
1989.196969619163
 20
1261.938447187256
 30
0.0
 40
2.0
100
AcDbArc
 50
0.0
 51
75.96375653207986
  0
LINE
  5
41E
330
1F
100
AcDbEntity
  8
LAY-10
  6
CONTINUOUS
 62
     7
100
AcDbLine
 10
1983.196969619163
 20
1265.500000000065
 30
0.0
 11
1983.196969619163
 21
1263.500000000065
 31
0.0
  0
LINE
  5
41F
330
1F
100
AcDbEntity
  8
LAY-10
  6
CONTINUOUS
 62
     7
100
AcDbLine
 10
1975.196969619163
 20
1265.500000000065
 30
0.0
 11
1975.196969619163
 21
1263.500000000065
 31
0.0
  0
LINE
  5
420
330
1F
100
AcDbEntity
  8
LAY-10
  6
CONTINUOUS
 62
     7
100
AcDbLine
 10
1967.196969619163
 20
1264.500000000065
 30
0.0
 11
1971.196969619163
 21
1264.500000000065
 31
0.0
  0
LINE
  5
421
330
1F
100
AcDbEntity
  8
LAY-10
  6
CONTINUOUS
 62
     7
100
AcDbLine
 10
1971.196969619163
 20
1264.500000000065
 30
0.0
 11
1975.196969619163
 21
1263.500000000065
 31
0.0
  0
LINE
  5
422
330
1F
100
AcDbEntity
  8
LAY-10
  6
CONTINUOUS
 62
     7
100
AcDbLine
 10
1975.196969619163
 20
1265.500000000065
 30
0.0
 11
1983.196969619163
 21
1263.500000000065
 31
0.0
  0
LINE
  5
423
330
1F
100
AcDbEntity
  8
LAY-10
  6
CONTINUOUS
 62
     7
100
AcDbLine
 10
1990.496969619189
 20
1253.500000000065
 30
0.0
 11
1990.496969619189
 21
1231.500000000065
 31
0.0
  0
LINE
  5
424
330
1F
100
AcDbEntity
  8
LAY-10
  6
CONTINUOUS
 62
     7
100
AcDbLine
 10
1985.696969619196
 20
1234.500000000062
 30
0.0
 11
1984.696969619196
 21
1235.500000000061
 31
0.0
  0
LINE
  5
425
330
1F
100
AcDbEntity
  8
LAY-10
  6
CONTINUOUS
 62
     7
100
AcDbLine
 10
1984.696969619196
 20
1249.500000000062
 30
0.0
 11
1985.696969619196
 21
1250.500000000061
 31
0.0
  0
LINE
  5
426
330
1F
100
AcDbEntity
  8
LAY-10
  6
CONTINUOUS
 62
     7
100
AcDbLine
 10
1984.696969619196
 20
1235.500000000061
 30
0.0
 11
1984.696969619196
 21
1249.500000000062
 31
0.0
  0
LINE
  5
427
330
1F
100
AcDbEntity
  8
LAY-10
  6
CONTINUOUS
 62
     7
100
AcDbLine
 10
1990.496969619197
 20
1234.500000000062
 30
0.0
 11
1985.696969619196
 21
1234.500000000062
 31
0.0
  0
LINE
  5
428
330
1F
100
AcDbEntity
  8
LAY-10
  6
CONTINUOUS
 62
     7
100
AcDbLine
 10
1990.496969619197
 20
1250.500000000061
 30
0.0
 11
1985.696969619196
 21
1250.500000000061
 31
0.0
  0
LINE
  5
429
330
1F
100
AcDbEntity
  8
LAY-10
  6
CONTINUOUS
 62
     7
100
AcDbLine
 10
1991.196969619165
 20
1230.546060798646
 30
0.0
 11
1991.196969619165
 21
1223.061552812875
 31
0.0
  0
LINE
  5
42A
330
1F
100
AcDbEntity
  8
LAY-10
  6
CONTINUOUS
 62
     7
100
AcDbLine
 10
1991.196969619165
 20
1261.938447187263
 30
0.0
 11
1991.196969619165
 21
1254.453939201473
 31
0.0
  0
LINE
  5
42B
330
1F
100
AcDbEntity
  8
LAY-10
  6
CONTINUOUS
 62
     7
100
AcDbLine
 10
2007.696969619199
 20
1265.200000000032
 30
0.0
 11
1967.196969619163
 21
1265.200000000032
 31
0.0
  0
LINE
  5
42C
330
1F
100
AcDbEntity
  8
LAY-10
  6
CONTINUOUS
 62
     7
100
AcDbLine
 10
2007.696969619199
 20
1267.500000000034
 30
0.0
 11
1964.69696961913
 21
1267.500000000034
 31
0.0
  0
LINE
  5
42D
330
1F
100
AcDbEntity
  8
LAY-10
  6
CONTINUOUS
 62
     7
100
AcDbLine
 10
1967.196969619163
 20
1219.800000000026
 30
0.0
 11
2007.696969619199
 21
1219.800000000026
 31
0.0
  0
LINE
  5
42E
330
1F
100
AcDbEntity
  8
LAY-10
  6
CONTINUOUS
 62
     7
100
AcDbLine
 10
1964.696969619203
 20
1217.500000000025
 30
0.0
 11
2005.696969619199
 21
1217.500000000025
 31
0.0
  0
ARC
  5
42F
330
1F
100
AcDbEntity
  8
LAY-10
  6
CONTINUOUS
 62
     7
100
AcDbCircle
 10
2005.696969619199
 20
1219.500000000025
 30
0.0
 40
2.0
100
AcDbArc
 50
270.0
 51
0.0
  0
LINE
  5
430
330
1F
100
AcDbEntity
  8
LAY-10
  6
CONTINUOUS
 62
     7
100
AcDbLine
 10
1962.696969619197
 20
1267.500000000027
 30
0.0
 11
1967.1969696192
 21
1267.500000000027
 31
0.0
  0
LINE
  5
431
330
1F
100
AcDbEntity
  8
LAY-10
  6
CONTINUOUS
 62
     7
100
AcDbLine
 10
2013.696969619199
 20
1276.000000000147
 30
0.0
 11
2013.696969619199
 21
1250.500000000061
 31
0.0
  0
LINE
  5
432
330
1F
100
AcDbEntity
  8
LAY-10
  6
CONTINUOUS
 62
     7
100
AcDbLine
 10
2032.69696961923
 20
1207.5
 30
0.0
 11
2032.69696961923
 21
1228.650000000061
 31
0.0
  0
LINE
  5
433
330
1F
100
AcDbEntity
  8
LAY-10
  6
CONTINUOUS
 62
     7
100
AcDbLine
 10
2007.696969619199
 20
1276.000000000147
 30
0.0
 11
2007.696969619199
 21
1219.5
 31
0.0
  0
LINE
  5
434
330
1F
100
AcDbEntity
  8
LAY-10
  6
CONTINUOUS
 62
     7
100
AcDbLine
 10
2018.696969619205
 20
1234.500000000062
 30
0.0
 11
2018.696969619205
 21
1207.500000000047
 31
0.0
  0
LINE
  5
435
330
1F
100
AcDbEntity
  8
LAY-10
  6
CONTINUOUS
 62
     7
100
AcDbLine
 10
1967.1969696192
 20
1211.500000000009
 30
0.0
 11
2006.6969696192
 21
1211.500000000009
 31
0.0
  0
ARC
  5
436
330
1F
100
AcDbEntity
  8
LAY-10
  6
CONTINUOUS
 62
     7
100
AcDbCircle
 10
2006.6969696192
 20
1218.500000000009
 30
0.0
 40
7.0
100
AcDbArc
 50
270.0
 51
0.0
  0
LINE
  5
437
330
1F
100
AcDbEntity
  8
LAY-10
  6
CONTINUOUS
 62
     7
100
AcDbLine
 10
2121.696969619179
 20
1282.000000000167
 30
0.0
 11
2121.696969619179
 21
1326.000000000169
 31
0.0
  0
LINE
  5
438
330
1F
100
AcDbEntity
  8
LAY-10
  6
CONTINUOUS
 62
     7
100
AcDbLine
 10
2126.696969619233
 20
1273.5000000001
 30
0.0
 11
2126.696969619233
 21
1329.500000000124
 31
0.0
  0
LINE
  5
439
330
1F
100
AcDbEntity
  8
LAY-10
  6
CONTINUOUS
 62
     7
100
AcDbLine
 10
1967.1969696192
 20
1220.500000000065
 30
0.0
 11
1967.1969696192
 21
1207.500000000049
 31
0.0
  0
LINE
  5
43A
330
1F
100
AcDbEntity
  8
LAY-10
  6
CONTINUOUS
 62
     7
100
AcDbLine
 10
1999.846963619208
 20
1471.718754000106
 30
0.0
 11
2032.196969619207
 21
1451.500000000106
 31
0.0
  0
LINE
  5
43B
330
1F
100
AcDbEntity
  8
LAY-10
  6
CONTINUOUS
 62
     7
100
AcDbLine
 10
1992.196969619208
 20
1432.500000000105
 30
0.0
 11
1992.196969619208
 21
1467.478762000106
 31
0.0
  0
LINE
  5
43C
330
1F
100
AcDbEntity
  8
LAY-10
  6
CONTINUOUS
 62
     7
100
AcDbLine
 10
2032.196969619207
 20
1426.500000000106
 30
0.0
 11
1967.196969619207
 21
1426.500000000106
 31
0.0
  0
LINE
  5
43D
330
1F
100
AcDbEntity
  8
LAY-10
  6
CONTINUOUS
 62
     7
100
AcDbLine
 10
2032.196969619207
 20
1432.500000000105
 30
0.0
 11
1967.196969619207
 21
1432.500000000105
 31
0.0
  0
LINE
  5
43E
330
1F
100
AcDbEntity
  8
LAY-10
  6
CONTINUOUS
 62
     7
100
AcDbLine
 10
2032.196969619207
 20
1426.500000000106
 30
0.0
 11
2032.196969619207
 21
1451.500000000106
 31
0.0
  0
ARC
  5
43F
330
1F
100
AcDbEntity
  8
LAY-10
  6
CONTINUOUS
 62
     7
100
AcDbCircle
 10
1997.196969619207
 20
1467.478762000106
 30
0.0
 40
5.0
100
AcDbArc
 50
57.99461699998903
 51
180.0
  0
LINE
  5
440
330
1F
100
AcDbEntity
  8
LAY-10
  6
CONTINUOUS
 62
     7
100
AcDbLine
 10
1974.196969619194
 20
1426.5000000001
 30
0.0
 11
1974.196969619194
 21
1332.500000000106
 31
0.0
  0
LINE
  5
441
330
1F
100
AcDbEntity
  8
LAY-10
  6
CONTINUOUS
 62
     7
100
AcDbLine
 10
2117.1969696192
 20
1282.000000000167
 30
0.0
 11
2117.1969696192
 21
2077.000000000096
 31
0.0
  0
LINE
  5
442
330
1F
100
AcDbEntity
  8
LAY-10
  6
CONTINUOUS
 62
     7
100
AcDbLine
 10
2110.1969696192
 20
1282.000000000167
 30
0.0
 11
2110.1969696192
 21
2077.000000000096
 31
0.0
  0
LINE
  5
443
330
1F
100
AcDbEntity
  8
LAY-10
  6
CONTINUOUS
 62
     7
100
AcDbLine
 10
1962.696969619197
 20
2151.500000000199
 30
0.0
 11
1962.696969619197
 21
1207.5
 31
0.0
  0
LINE
  5
444
330
1F
100
AcDbEntity
  8
LAY-10
  6
CONTINUOUS
 62
     7
100
AcDbLine
 10
1967.1969696192
 20
1264.5000000001
 30
0.0
 11
1967.1969696192
 21
2094.5000000001
 31
0.0
  0
LINE
  5
445
330
1F
100
AcDbEntity
  8
LAY-10
  6
CONTINUOUS
 62
     7
100
AcDbLine
 10
807.6015151875961
 20
2144.855339059
 30
0.0
 11
814.2461761289085
 21
2151.5000000002
 31
0.0
  0
LINE
  5
446
330
1F
100
AcDbEntity
  8
LAY-10
  6
CONTINUOUS
 62
     7
100
AcDbLine
 10
754.5685066017975
 20
2109.499999999198
 30
0.0
 11
772.2461761310988
 21
2091.822330469899
 31
0.0
  0
LINE
  5
447
330
1F
100
AcDbEntity
  8
LAY-10
  6
CONTINUOUS
 62
     7
100
AcDbLine
 10
772.2461761304985
 20
2127.177669529297
 30
0.0
 11
754.5685066011972
 21
2144.855339058597
 31
0.0
  0
LINE
  5
448
330
1F
100
AcDbEntity
  8
LAY-10
  6
CONTINUOUS
 62
     7
100
AcDbLine
 10
842.9568542490978
 20
2038.789321882199
 30
0.0
 11
860.6345237787989
 21
2056.466991412198
 31
0.0
  0
LINE
  5
449
330
1F
100
AcDbEntity
  8
LAY-10
  6
CONTINUOUS
 62
     7
100
AcDbLine
 10
860.6345237787989
 20
2091.822330471199
 30
0.0
 11
842.9568542490978
 21
2074.1446609412
 31
0.0
  0
LINE
  5
44A
330
1F
100
AcDbEntity
  8
LAY-10
  6
CONTINUOUS
 62
     7
100
AcDbLine
 10
949.022871427298
 20
2127.1776695302
 30
0.0
 11
931.3452018975984
 21
2144.855339060199
 31
0.0
  0
LINE
  5
44B
330
1F
100
AcDbEntity
  8
LAY-10
  6
CONTINUOUS
 62
     7
100
AcDbLine
 10
955.6675323686324
 20
2151.5000000002
 30
0.0
 11
949.0228714283692
 21
2144.855339060199
 31
0.0
  0
LINE
  5
44C
330
1F
100
AcDbEntity
  8
LAY-10
  6
CONTINUOUS
 62
     7
100
AcDbLine
 10
920.3121933089622
 20
2151.5000000002
 30
0.0
 11
913.6675323686993
 21
2144.855339060199
 31
0.0
  0
LINE
  5
44D
330
1F
100
AcDbEntity
  8
LAY-10
  6
CONTINUOUS
 62
     7
100
AcDbLine
 10
884.956854249285
 20
2151.5000000002
 30
0.0
 11
878.3121933083983
 21
2144.855339059199
 31
0.0
  0
LINE
  5
44E
330
1F
100
AcDbEntity
  8
LAY-10
  6
CONTINUOUS
 62
     7
100
AcDbLine
 10
746.1015151897991
 20
1941.933982824253
 30
0.0
 11
754.568506600599
 21
1950.400974235198
 31
0.0
  0
LINE
  5
44F
330
1F
100
AcDbEntity
  8
LAY-10
  6
CONTINUOUS
 62
     7
100
AcDbLine
 10
754.568506600599
 20
1968.078643764198
 30
0.0
 11
772.2461761302982
 21
1950.400974235198
 31
0.0
  0
LINE
  5
450
330
1F
100
AcDbEntity
  8
LAY-10
  6
CONTINUOUS
 62
     7
100
AcDbLine
 10
772.2461761302982
 20
1968.078643764198
 30
0.0
 11
789.9238456599994
 21
1985.756313294198
 31
0.0
  0
LINE
  5
451
330
1F
100
AcDbEntity
  8
LAY-10
  6
CONTINUOUS
 62
     7
100
AcDbLine
 10
789.9238456600997
 20
2038.789321882199
 30
0.0
 11
807.6015151896988
 21
2021.1116523532
 31
0.0
  0
LINE
  5
452
330
1F
100
AcDbEntity
  8
LAY-10
  6
CONTINUOUS
 62
     7
100
AcDbLine
 10
825.2791847193982
 20
2056.466991412198
 30
0.0
 11
807.6015151896988
 21
2038.789321882199
 31
0.0
  0
LINE
  5
453
330
1F
100
AcDbEntity
  8
LAY-10
  6
CONTINUOUS
 62
     7
100
AcDbLine
 10
789.9238456600997
 20
2056.466991412198
 30
0.0
 11
772.2461761303982
 21
2038.789321882199
 31
0.0
  0
LINE
  5
454
330
1F
100
AcDbEntity
  8
LAY-10
  6
CONTINUOUS
 62
     7
100
AcDbLine
 10
825.2791847193982
 20
2038.789321882199
 30
0.0
 11
842.9568542490978
 21
2021.1116523532
 31
0.0
  0
LINE
  5
455
330
1F
100
AcDbEntity
  8
LAY-10
  6
CONTINUOUS
 62
     7
100
AcDbLine
 10
807.6015151896988
 20
2003.433982823198
 30
0.0
 11
825.2791847193982
 21
2021.1116523532
 31
0.0
  0
LINE
  5
456
330
1F
100
AcDbEntity
  8
LAY-10
  6
CONTINUOUS
 62
     7
100
AcDbLine
 10
789.9238456599994
 20
2003.433982823198
 30
0.0
 11
807.6015151896988
 21
1985.756313294198
 31
0.0
  0
LINE
  5
457
330
1F
100
AcDbEntity
  8
LAY-10
  6
CONTINUOUS
 62
     7
100
AcDbLine
 10
772.2461761302982
 20
2021.111652353198
 30
0.0
 11
754.5685066006988
 21
2038.789321882199
 31
0.0
  0
LINE
  5
458
330
1F
100
AcDbEntity
  8
LAY-10
  6
CONTINUOUS
 62
     7
100
AcDbLine
 10
754.5685066006988
 20
2056.466991412198
 30
0.0
 11
746.1015151897991
 21
2048.000000001155
 31
0.0
  0
LINE
  5
459
330
1F
100
AcDbEntity
  8
LAY-10
  6
CONTINUOUS
 62
     7
100
AcDbLine
 10
754.5685066006988
 20
2021.111652353198
 30
0.0
 11
746.1015151897991
 21
2012.644660942155
 31
0.0
  0
LINE
  5
45A
330
1F
100
AcDbEntity
  8
LAY-10
  6
CONTINUOUS
 62
     7
100
AcDbLine
 10
754.5685066006988
 20
2003.433982823198
 30
0.0
 11
772.2461761302982
 21
1985.756313294198
 31
0.0
  0
LINE
  5
45B
330
1F
100
AcDbEntity
  8
LAY-10
  6
CONTINUOUS
 62
     7
100
AcDbLine
 10
789.9238456599994
 20
2021.111652353198
 30
0.0
 11
772.2461761302982
 21
2003.433982823198
 31
0.0
  0
LINE
  5
45C
330
1F
100
AcDbEntity
  8
LAY-10
  6
CONTINUOUS
 62
     7
100
AcDbLine
 10
754.568506600599
 20
1985.756313294197
 30
0.0
 11
746.1015151897991
 21
1977.289321883254
 31
0.0
  0
LINE
  5
45D
330
1F
100
AcDbEntity
  8
LAY-10
  6
CONTINUOUS
 62
     7
100
AcDbLine
 10
878.3121933084985
 20
2127.1776695302
 30
0.0
 11
860.6345237787989
 21
2144.855339060199
 31
0.0
  0
LINE
  5
45E
330
1F
100
AcDbEntity
  8
LAY-10
  6
CONTINUOUS
 62
     7
100
AcDbLine
 10
825.2791847194985
 20
2074.1446609412
 30
0.0
 11
842.9568542490978
 21
2056.466991412198
 31
0.0
  0
LINE
  5
45F
330
1F
100
AcDbEntity
  8
LAY-10
  6
CONTINUOUS
 62
     7
100
AcDbLine
 10
860.6345237787989
 20
2074.1446609412
 30
0.0
 11
878.3121933084985
 21
2056.466991412198
 31
0.0
  0
LINE
  5
460
330
1F
100
AcDbEntity
  8
LAY-10
  6
CONTINUOUS
 62
     7
100
AcDbLine
 10
878.3121933084985
 20
2109.500000000199
 30
0.0
 11
895.9898628380978
 21
2127.1776695302
 31
0.0
  0
LINE
  5
461
330
1F
100
AcDbEntity
  8
LAY-10
  6
CONTINUOUS
 62
     7
100
AcDbLine
 10
878.3121933084985
 20
2074.1446609412
 30
0.0
 11
895.9898628380978
 21
2091.822330471199
 31
0.0
  0
LINE
  5
462
330
1F
100
AcDbEntity
  8
LAY-10
  6
CONTINUOUS
 62
     7
100
AcDbLine
 10
895.9898628380978
 20
2109.500000000199
 30
0.0
 11
913.6675323677989
 21
2091.822330471199
 31
0.0
  0
LINE
  5
463
330
1F
100
AcDbEntity
  8
LAY-10
  6
CONTINUOUS
 62
     7
100
AcDbLine
 10
807.6015151896988
 20
2056.466991412198
 30
0.0
 11
789.9238456600997
 21
2074.1446609412
 31
0.0
  0
LINE
  5
464
330
1F
100
AcDbEntity
  8
LAY-10
  6
CONTINUOUS
 62
     7
100
AcDbLine
 10
772.2461761303982
 20
2056.466991412198
 30
0.0
 11
754.5685066006988
 21
2074.1446609412
 31
0.0
  0
LINE
  5
465
330
1F
100
AcDbEntity
  8
LAY-10
  6
CONTINUOUS
 62
     7
100
AcDbLine
 10
754.5685066007989
 20
2091.822330472197
 30
0.0
 11
746.1015151897991
 21
2083.355339061054
 31
0.0
  0
LINE
  5
466
330
1F
100
AcDbEntity
  8
LAY-10
  6
CONTINUOUS
 62
     7
100
AcDbLine
 10
849.601515190503
 20
2151.5000000002
 30
0.0
 11
842.9568542482955
 21
2144.855339058403
 31
0.0
  0
LINE
  5
467
330
1F
100
AcDbEntity
  8
LAY-10
  6
CONTINUOUS
 62
     7
100
AcDbLine
 10
754.5685066020997
 20
2127.177669528596
 30
0.0
 11
746.1015151897734
 21
2118.710678116126
 31
0.0
  0
LINE
  5
468
330
1F
100
AcDbEntity
  8
LAY-10
  6
CONTINUOUS
 62
     7
100
AcDbLine
 10
772.2461761302982
 20
2144.855339057396
 30
0.0
 11
778.8908370727604
 21
2151.500000000197
 31
0.0
  0
LINE
  5
469
330
1F
100
AcDbEntity
  8
LAY-10
  6
CONTINUOUS
 62
     7
100
AcDbLine
 10
913.1742031659542
 20
2127.670998732151
 30
0.0
 11
895.9898628381995
 21
2144.855339060199
 31
0.0
  0
LINE
  5
46A
330
1F
100
AcDbEntity
  8
LAY-10
  6
CONTINUOUS
 62
     7
100
AcDbLine
 10
913.6675323674988
 20
2109.500000000199
 30
0.0
 11
931.3452018970981
 21
2127.1776695302
 31
0.0
  0
LINE
  5
46B
330
1F
100
AcDbEntity
  8
LAY-10
  6
CONTINUOUS
 62
     7
100
AcDbLine
 10
789.923845660596
 20
2144.855339057998
 30
0.0
 11
793.2791847184269
 21
2141.500000000167
 31
0.0
  0
LINE
  5
46C
330
1F
100
AcDbEntity
  8
LAY-10
  6
CONTINUOUS
 62
     7
100
AcDbLine
 10
779.6015151897626
 20
2116.855339058687
 30
0.0
 11
772.2461761307986
 21
2109.499999999598
 31
0.0
  0
LINE
  5
46D
330
1F
100
AcDbEntity
  8
LAY-10
  6
CONTINUOUS
 62
     7
100
AcDbLine
 10
789.6015151890806
 20
2091.500000000174
 30
0.0
 11
772.2461761303982
 21
2074.1446609412
 31
0.0
  0
LINE
  5
46E
330
1F
100
AcDbEntity
  8
LAY-10
  6
CONTINUOUS
 62
     7
100
AcDbLine
 10
842.9568542476006
 20
2091.822330470102
 30
0.0
 11
829.6015151897626
 21
2105.177669528391
 31
0.0
  0
LINE
  5
46F
330
1F
100
AcDbEntity
  8
LAY-10
  6
CONTINUOUS
 62
     7
100
AcDbLine
 10
824.9568542484737
 20
2091.500000000169
 30
0.0
 11
807.6015151897989
 21
2074.1446609412
 31
0.0
  0
LINE
  5
470
330
1F
100
AcDbEntity
  8
LAY-10
  6
CONTINUOUS
 62
     7
100
AcDbLine
 10
842.9568542475971
 20
2127.177669529402
 30
0.0
 11
829.6015151897661
 21
2140.533008587759
 31
0.0
  0
LINE
  5
471
330
1F
100
AcDbEntity
  8
LAY-10
  6
CONTINUOUS
 62
     7
100
AcDbLine
 10
828.6345237774003
 20
2141.500000000162
 30
0.0
 11
825.2791847185945
 21
2144.855339059101
 31
0.0
  0
LINE
  5
472
330
1F
100
AcDbEntity
  8
LAY-10
  6
CONTINUOUS
 62
     7
100
AcDbLine
 10
846.9532580116411
 20
2113.49640376281
 30
0.0
 11
843.5791847194068
 21
2110.122330470518
 31
0.0
  0
LINE
  5
473
330
1F
100
AcDbEntity
  8
LAY-10
  6
CONTINUOUS
 62
     7
100
AcDbLine
 10
865.3127738440926
 20
2104.821749935091
 30
0.0
 11
878.3121933084985
 21
2091.822330471199
 31
0.0
  0
LINE
  5
474
330
1F
100
AcDbEntity
  8
LAY-10
  6
CONTINUOUS
 62
     7
100
AcDbLine
 10
1478.601515192304
 20
1214.144660941201
 30
0.0
 11
1471.956854250992
 21
1207.5
 31
0.0
  0
LINE
  5
475
330
1F
100
AcDbEntity
  8
LAY-10
  6
CONTINUOUS
 62
     7
100
AcDbLine
 10
1531.634523778103
 20
1249.500000001002
 30
0.0
 11
1513.956854248801
 21
1267.177669530302
 31
0.0
  0
LINE
  5
476
330
1F
100
AcDbEntity
  8
LAY-10
  6
CONTINUOUS
 62
     7
100
AcDbLine
 10
1513.956854249402
 20
1231.822330470904
 30
0.0
 11
1531.634523778703
 21
1214.144660941604
 31
0.0
  0
LINE
  5
477
330
1F
100
AcDbEntity
  8
LAY-10
  6
CONTINUOUS
 62
     7
100
AcDbLine
 10
1443.246176130802
 20
1320.210678118001
 30
0.0
 11
1425.568506601101
 21
1302.533008588002
 31
0.0
  0
LINE
  5
478
330
1F
100
AcDbEntity
  8
LAY-10
  6
CONTINUOUS
 62
     7
100
AcDbLine
 10
1425.568506601101
 20
1267.177669529001
 30
0.0
 11
1443.246176130802
 21
1284.855339059001
 31
0.0
  0
LINE
  5
479
330
1F
100
AcDbEntity
  8
LAY-10
  6
CONTINUOUS
 62
     7
100
AcDbLine
 10
1337.180158952603
 20
1231.822330470001
 30
0.0
 11
1354.857828482302
 21
1214.144660940001
 31
0.0
  0
LINE
  5
47A
330
1F
100
AcDbEntity
  8
LAY-10
  6
CONTINUOUS
 62
     7
100
AcDbLine
 10
1330.535498011268
 20
1207.5
 30
0.0
 11
1337.180158951531
 21
1214.144660940001
 31
0.0
  0
LINE
  5
47B
330
1F
100
AcDbEntity
  8
LAY-10
  6
CONTINUOUS
 62
     7
100
AcDbLine
 10
1365.890837070938
 20
1207.5
 30
0.0
 11
1372.535498011201
 21
1214.144660940001
 31
0.0
  0
LINE
  5
47C
330
1F
100
AcDbEntity
  8
LAY-10
  6
CONTINUOUS
 62
     7
100
AcDbLine
 10
1401.246176130615
 20
1207.5
 30
0.0
 11
1407.890837071502
 21
1214.144660941002
 31
0.0
  0
LINE
  5
47D
330
1F
100
AcDbEntity
  8
LAY-10
  6
CONTINUOUS
 62
     7
100
AcDbLine
 10
1540.101515190101
 20
1417.066017175946
 30
0.0
 11
1531.634523779301
 21
1408.599025765002
 31
0.0
  0
LINE
  5
47E
330
1F
100
AcDbEntity
  8
LAY-10
  6
CONTINUOUS
 62
     7
100
AcDbLine
 10
1531.634523779301
 20
1390.921356236002
 30
0.0
 11
1513.956854249602
 21
1408.599025765002
 31
0.0
  0
LINE
  5
47F
330
1F
100
AcDbEntity
  8
LAY-10
  6
CONTINUOUS
 62
     7
100
AcDbLine
 10
1513.956854249602
 20
1390.921356236002
 30
0.0
 11
1496.279184719901
 21
1373.243686706001
 31
0.0
  0
LINE
  5
480
330
1F
100
AcDbEntity
  8
LAY-10
  6
CONTINUOUS
 62
     7
100
AcDbLine
 10
1496.279184719801
 20
1320.210678118001
 30
0.0
 11
1478.601515190201
 21
1337.888347647001
 31
0.0
  0
LINE
  5
481
330
1F
100
AcDbEntity
  8
LAY-10
  6
CONTINUOUS
 62
     7
100
AcDbLine
 10
1460.923845660502
 20
1302.533008588002
 30
0.0
 11
1478.601515190201
 21
1320.210678118001
 31
0.0
  0
LINE
  5
482
330
1F
100
AcDbEntity
  8
LAY-10
  6
CONTINUOUS
 62
     7
100
AcDbLine
 10
1496.279184719801
 20
1302.533008588002
 30
0.0
 11
1513.956854249502
 21
1320.210678118001
 31
0.0
  0
LINE
  5
483
330
1F
100
AcDbEntity
  8
LAY-10
  6
CONTINUOUS
 62
     7
100
AcDbLine
 10
1460.923845660502
 20
1320.210678118001
 30
0.0
 11
1443.246176130802
 21
1337.888347647001
 31
0.0
  0
LINE
  5
484
330
1F
100
AcDbEntity
  8
LAY-10
  6
CONTINUOUS
 62
     7
100
AcDbLine
 10
1478.601515190201
 20
1355.566017177002
 30
0.0
 11
1460.923845660502
 21
1337.888347647001
 31
0.0
  0
LINE
  5
485
330
1F
100
AcDbEntity
  8
LAY-10
  6
CONTINUOUS
 62
     7
100
AcDbLine
 10
1496.279184719901
 20
1355.566017177002
 30
0.0
 11
1478.601515190201
 21
1373.243686706001
 31
0.0
  0
LINE
  5
486
330
1F
100
AcDbEntity
  8
LAY-10
  6
CONTINUOUS
 62
     7
100
AcDbLine
 10
1513.956854249602
 20
1337.888347647002
 30
0.0
 11
1531.634523779201
 21
1320.210678118001
 31
0.0
  0
LINE
  5
487
330
1F
100
AcDbEntity
  8
LAY-10
  6
CONTINUOUS
 62
     7
100
AcDbLine
 10
1531.634523779201
 20
1302.533008588002
 30
0.0
 11
1540.101515190101
 21
1310.999999999046
 31
0.0
  0
LINE
  5
488
330
1F
100
AcDbEntity
  8
LAY-10
  6
CONTINUOUS
 62
     7
100
AcDbLine
 10
1531.634523779201
 20
1337.888347647002
 30
0.0
 11
1540.101515190101
 21
1346.355339058046
 31
0.0
  0
LINE
  5
489
330
1F
100
AcDbEntity
  8
LAY-10
  6
CONTINUOUS
 62
     7
100
AcDbLine
 10
1531.634523779201
 20
1355.566017177002
 30
0.0
 11
1513.956854249602
 21
1373.243686706001
 31
0.0
  0
LINE
  5
48A
330
1F
100
AcDbEntity
  8
LAY-10
  6
CONTINUOUS
 62
     7
100
AcDbLine
 10
1496.279184719901
 20
1337.888347647002
 30
0.0
 11
1513.956854249602
 21
1355.566017177002
 31
0.0
  0
LINE
  5
48B
330
1F
100
AcDbEntity
  8
LAY-10
  6
CONTINUOUS
 62
     7
100
AcDbLine
 10
1531.634523779301
 20
1373.243686706002
 30
0.0
 11
1540.101515190101
 21
1381.710678116946
 31
0.0
  0
LINE
  5
48C
330
1F
100
AcDbEntity
  8
LAY-10
  6
CONTINUOUS
 62
     7
100
AcDbLine
 10
1407.890837071402
 20
1231.822330470001
 30
0.0
 11
1425.568506601101
 21
1214.144660940001
 31
0.0
  0
LINE
  5
48D
330
1F
100
AcDbEntity
  8
LAY-10
  6
CONTINUOUS
 62
     7
100
AcDbLine
 10
1460.923845660402
 20
1284.855339059001
 30
0.0
 11
1443.246176130802
 21
1302.533008588002
 31
0.0
  0
LINE
  5
48E
330
1F
100
AcDbEntity
  8
LAY-10
  6
CONTINUOUS
 62
     7
100
AcDbLine
 10
1425.568506601101
 20
1284.855339059001
 30
0.0
 11
1407.890837071402
 21
1302.533008588002
 31
0.0
  0
LINE
  5
48F
330
1F
100
AcDbEntity
  8
LAY-10
  6
CONTINUOUS
 62
     7
100
AcDbLine
 10
1407.890837071402
 20
1249.5
 30
0.0
 11
1390.213167541802
 21
1231.822330470001
 31
0.0
  0
LINE
  5
490
330
1F
100
AcDbEntity
  8
LAY-10
  6
CONTINUOUS
 62
     7
100
AcDbLine
 10
1407.890837071402
 20
1284.855339059001
 30
0.0
 11
1390.213167541802
 21
1267.177669529001
 31
0.0
  0
LINE
  5
491
330
1F
100
AcDbEntity
  8
LAY-10
  6
CONTINUOUS
 62
     7
100
AcDbLine
 10
1390.213167541802
 20
1249.5
 30
0.0
 11
1372.535498012101
 21
1267.177669529001
 31
0.0
  0
LINE
  5
492
330
1F
100
AcDbEntity
  8
LAY-10
  6
CONTINUOUS
 62
     7
100
AcDbLine
 10
1478.601515190201
 20
1302.533008588002
 30
0.0
 11
1496.279184719801
 21
1284.855339059001
 31
0.0
  0
LINE
  5
493
330
1F
100
AcDbEntity
  8
LAY-10
  6
CONTINUOUS
 62
     7
100
AcDbLine
 10
1513.956854249502
 20
1302.533008588002
 30
0.0
 11
1531.634523779201
 21
1284.855339059001
 31
0.0
  0
LINE
  5
494
330
1F
100
AcDbEntity
  8
LAY-10
  6
CONTINUOUS
 62
     7
100
AcDbLine
 10
1531.634523779101
 20
1267.177669528002
 30
0.0
 11
1540.101515190101
 21
1275.644660939146
 31
0.0
  0
LINE
  5
495
330
1F
100
AcDbEntity
  8
LAY-10
  6
CONTINUOUS
 62
     7
100
AcDbLine
 10
1436.601515189397
 20
1207.5
 30
0.0
 11
1443.246176131605
 21
1214.144660941797
 31
0.0
  0
LINE
  5
496
330
1F
100
AcDbEntity
  8
LAY-10
  6
CONTINUOUS
 62
     7
100
AcDbLine
 10
1531.6345237778
 20
1231.822330471604
 30
0.0
 11
1540.101515190127
 21
1240.289321884075
 31
0.0
  0
LINE
  5
497
330
1F
100
AcDbEntity
  8
LAY-10
  6
CONTINUOUS
 62
     7
100
AcDbLine
 10
1513.956854249602
 20
1214.144660942805
 30
0.0
 11
1507.31219330714
 21
1207.500000000003
 31
0.0
  0
LINE
  5
498
330
1F
100
AcDbEntity
  8
LAY-10
  6
CONTINUOUS
 62
     7
100
AcDbLine
 10
1373.028827213946
 20
1231.329001268048
 30
0.0
 11
1390.2131675417
 21
1214.144660940001
 31
0.0
  0
LINE
  5
499
330
1F
100
AcDbEntity
  8
LAY-10
  6
CONTINUOUS
 62
     7
100
AcDbLine
 10
1372.535498012401
 20
1249.5
 30
0.0
 11
1354.857828482802
 21
1231.822330470001
 31
0.0
  0
LINE
  5
49A
330
1F
100
AcDbEntity
  8
LAY-10
  6
CONTINUOUS
 62
     7
100
AcDbLine
 10
1496.279184719304
 20
1214.144660942203
 30
0.0
 11
1492.923845661473
 21
1217.500000000033
 31
0.0
  0
LINE
  5
49B
330
1F
100
AcDbEntity
  8
LAY-10
  6
CONTINUOUS
 62
     7
100
AcDbLine
 10
1506.601515190137
 20
1242.144660941512
 30
0.0
 11
1513.956854249102
 21
1249.500000000602
 31
0.0
  0
LINE
  5
49C
330
1F
100
AcDbEntity
  8
LAY-10
  6
CONTINUOUS
 62
     7
100
AcDbLine
 10
1496.60151519082
 20
1267.500000000026
 30
0.0
 11
1513.956854249502
 21
1284.855339059001
 31
0.0
  0
LINE
  5
49D
330
1F
100
AcDbEntity
  8
LAY-10
  6
CONTINUOUS
 62
     7
100
AcDbLine
 10
1443.2461761323
 20
1267.177669530099
 30
0.0
 11
1456.601515190137
 21
1253.82233047181
 31
0.0
  0
LINE
  5
49E
330
1F
100
AcDbEntity
  8
LAY-10
  6
CONTINUOUS
 62
     7
100
AcDbLine
 10
1461.246176131426
 20
1267.500000000031
 30
0.0
 11
1478.601515190101
 21
1284.855339059001
 31
0.0
  0
LINE
  5
49F
330
1F
100
AcDbEntity
  8
LAY-10
  6
CONTINUOUS
 62
     7
100
AcDbLine
 10
1443.246176132303
 20
1231.822330470797
 30
0.0
 11
1456.601515190134
 21
1218.466991412442
 31
0.0
  0
LINE
  5
4A0
330
1F
100
AcDbEntity
  8
LAY-10
  6
CONTINUOUS
 62
     7
100
AcDbLine
 10
1457.5685066025
 20
1217.500000000039
 30
0.0
 11
1460.923845661306
 21
1214.1446609411
 31
0.0
  0
LINE
  5
4A1
330
1F
100
AcDbEntity
  8
LAY-10
  6
CONTINUOUS
 62
     7
100
AcDbLine
 10
1439.249772368259
 20
1245.50359623739
 30
0.0
 11
1442.623845660493
 21
1248.877669529682
 31
0.0
  0
LINE
  5
4A2
330
1F
100
AcDbEntity
  8
LAY-10
  6
CONTINUOUS
 62
     7
100
AcDbLine
 10
1420.890256535808
 20
1254.178250065108
 30
0.0
 11
1407.890837071402
 21
1267.177669529001
 31
0.0
  0
LINE
  5
4A3
330
1F
100
AcDbEntity
  8
LAY-10
  6
CONTINUOUS
 62
     7
100
AcDbLine
 10
2041.700505063251
 20
772.5597643227602
 30
0.0
 11
2041.700505063251
 21
774.2264309894235
 31
0.0
  0
LINE
  5
4A4
330
1F
100
AcDbEntity
  8
LAY-10
  6
CONTINUOUS
 62
     7
100
AcDbLine
 10
1990.496969619189
 20
1249.50000000006
 30
0.0
 11
1984.696969619196
 21
1249.500000000062
 31
0.0
  0
LINE
  5
4A5
330
1F
100
AcDbEntity
  8
LAY-10
  6
CONTINUOUS
 62
     7
100
AcDbLine
 10
1985.696969619196
 20
1234.500000000062
 30
0.0
 11
1985.696969619196
 21
1250.500000000061
 31
0.0
  0
LINE
  5
4A6
330
1F
100
AcDbEntity
  8
LAY-10
  6
CONTINUOUS
 62
     7
100
AcDbLine
 10
1990.496969619189
 20
1235.500000000061
 30
0.0
 11
1984.696969619196
 21
1235.500000000061
 31
0.0
  0
LINE
  5
4A7
330
1F
100
AcDbEntity
  8
LAY-10
  6
CONTINUOUS
 62
     7
100
AcDbLine
 10
2024.696969619197
 20
1235.500000000061
 30
0.0
 11
2007.696969619199
 21
1235.500000000061
 31
0.0
  0
LINE
  5
4A8
330
1F
100
AcDbEntity
  8
LAY-10
  6
CONTINUOUS
 62
     7
100
AcDbLine
 10
2024.696969619197
 20
1249.50000000006
 30
0.0
 11
2007.696969619199
 21
1249.50000000006
 31
0.0
  0
LINE
  5
4A9
330
1F
100
AcDbEntity
  8
LAY-10
  6
CONTINUOUS
 62
     7
100
AcDbLine
 10
2024.696969619195
 20
2123.500000000087
 30
0.0
 11
2007.696969619197
 21
2123.500000000087
 31
0.0
  0
LINE
  5
4AA
330
1F
100
AcDbEntity
  8
LAY-10
  6
CONTINUOUS
 62
     7
100
AcDbLine
 10
2024.696969619195
 20
2109.500000000089
 30
0.0
 11
2007.696969619197
 21
2109.500000000089
 31
0.0
  0
LINE
  5
4AB
330
1F
100
AcDbEntity
  8
LAY-10
  6
CONTINUOUS
 62
     7
100
AcDbLine
 10
1985.696969619194
 20
2124.500000000087
 30
0.0
 11
1985.696969619194
 21
2108.500000000087
 31
0.0
  0
LINE
  5
4AC
330
1F
100
AcDbEntity
  8
LAY-10
  6
CONTINUOUS
 62
     7
100
AcDbLine
 10
1990.496969619189
 20
2123.500000000087
 30
0.0
 11
1984.696969619192
 21
2123.500000000087
 31
0.0
  0
LINE
  5
4AD
330
1F
100
AcDbEntity
  8
LAY-10
  6
CONTINUOUS
 62
     7
100
AcDbLine
 10
1990.496969619189
 20
2109.500000000089
 30
0.0
 11
1984.696969619192
 21
2109.500000000087
 31
0.0
  0
LINE
  5
4AE
330
1F
100
AcDbEntity
  8
LAY-10
  6
CONTINUOUS
 62
     7
100
AcDbLine
 10
2013.696969619199
 20
2083.0000000001
 30
0.0
 11
2013.696969619199
 21
2108.500000000087
 31
0.0
  0
LINE
  5
4AF
330
1F
100
AcDbEntity
  8
LAY-10
  6
CONTINUOUS
 62
     7
100
AcDbLine
 10
1227.601515190038
 20
2141.500000000162
 30
0.0
 11
1227.601515190031
 21
2091.500000000168
 31
0.0
  0
LINE
  5
4B0
330
1F
100
AcDbEntity
  8
LAY-10
  6
CONTINUOUS
 62
     7
100
AcDbLine
 10
1227.601515190038
 20
2141.500000000162
 30
0.0
 11
1177.601515190038
 21
2141.500000000169
 31
0.0
  0
LINE
  5
4B1
330
1F
100
AcDbEntity
  8
LAY-10
  6
CONTINUOUS
 62
     7
100
AcDbLine
 10
1177.601515190038
 20
2141.500000000169
 30
0.0
 11
1177.601515190031
 21
2091.500000000175
 31
0.0
  0
LINE
  5
4B2
330
1F
100
AcDbEntity
  8
LAY-10
  6
CONTINUOUS
 62
     7
100
AcDbLine
 10
1179.101515190042
 20
2140.000000000175
 30
0.0
 11
1179.101515190042
 21
2136.000000000173
 31
0.0
  0
LINE
  5
4B3
330
1F
100
AcDbEntity
  8
LAY-10
  6
CONTINUOUS
 62
     7
100
AcDbLine
 10
1179.101515190035
 20
2093.000000000174
 30
0.0
 11
1226.101515190035
 21
2093.000000000167
 31
0.0
  0
LINE
  5
4B4
330
1F
100
AcDbEntity
  8
LAY-10
  6
CONTINUOUS
 62
     7
100
AcDbLine
 10
1179.101515190038
 20
2114.000000000174
 30
0.0
 11
1226.101515190038
 21
2114.000000000167
 31
0.0
  0
LINE
  5
4B5
330
1F
100
AcDbEntity
  8
LAY-10
  6
CONTINUOUS
 62
     7
100
AcDbLine
 10
1179.101515190038
 20
2119.000000000173
 30
0.0
 11
1226.101515190038
 21
2119.000000000166
 31
0.0
  0
LINE
  5
4B6
330
1F
100
AcDbEntity
  8
LAY-10
  6
CONTINUOUS
 62
     7
100
AcDbLine
 10
1226.101515190033
 20
2108.000000000167
 30
0.0
 11
1179.101515190031
 21
2108.000000000174
 31
0.0
  0
LINE
  5
4B7
330
1F
100
AcDbEntity
  8
LAY-10
  6
CONTINUOUS
 62
     7
100
AcDbLine
 10
1226.101515190035
 20
2103.000000000168
 30
0.0
 11
1179.101515190031
 21
2103.000000000173
 31
0.0
  0
LINE
  5
4B8
330
1F
100
AcDbEntity
  8
LAY-10
  6
CONTINUOUS
 62
     7
100
AcDbLine
 10
1226.101515190029
 20
2097.000000000169
 30
0.0
 11
1179.101515190031
 21
2097.000000000176
 31
0.0
  0
LINE
  5
4B9
330
1F
100
AcDbEntity
  8
LAY-10
  6
CONTINUOUS
 62
     7
100
AcDbLine
 10
1226.101515190035
 20
2125.000000000166
 30
0.0
 11
1179.101515190035
 21
2125.000000000172
 31
0.0
  0
LINE
  5
4BA
330
1F
100
AcDbEntity
  8
LAY-10
  6
CONTINUOUS
 62
     7
100
AcDbLine
 10
1226.101515190042
 20
2130.000000000166
 30
0.0
 11
1179.101515190038
 21
2130.000000000172
 31
0.0
  0
LINE
  5
4BB
330
1F
100
AcDbEntity
  8
LAY-10
  6
CONTINUOUS
 62
     7
100
AcDbLine
 10
1226.101515190035
 20
2136.000000000166
 30
0.0
 11
1179.101515190038
 21
2136.000000000173
 31
0.0
  0
LINE
  5
4BC
330
1F
100
AcDbEntity
  8
LAY-10
  6
CONTINUOUS
 62
     7
100
AcDbLine
 10
1179.101515190031
 20
2097.000000000174
 30
0.0
 11
1178.101515190031
 21
2097.250000000173
 31
0.0
  0
LINE
  5
4BD
330
1F
100
AcDbEntity
  8
LAY-10
  6
CONTINUOUS
 62
     7
100
AcDbLine
 10
1178.101515190031
 20
2102.750000000174
 30
0.0
 11
1179.101515190031
 21
2103.000000000173
 31
0.0
  0
LINE
  5
4BE
330
1F
100
AcDbEntity
  8
LAY-10
  6
CONTINUOUS
 62
     7
100
AcDbLine
 10
1178.101515190031
 20
2102.750000000174
 30
0.0
 11
1178.101515190031
 21
2097.250000000173
 31
0.0
  0
LINE
  5
4BF
330
1F
100
AcDbEntity
  8
LAY-10
  6
CONTINUOUS
 62
     7
100
AcDbLine
 10
1179.101515190035
 20
2097.000000000176
 30
0.0
 11
1179.101515190035
 21
2093.000000000174
 31
0.0
  0
LINE
  5
4C0
330
1F
100
AcDbEntity
  8
LAY-10
  6
CONTINUOUS
 62
     7
100
AcDbLine
 10
1179.101515190031
 20
2108.000000000174
 30
0.0
 11
1178.101515190035
 21
2108.250000000174
 31
0.0
  0
LINE
  5
4C1
330
1F
100
AcDbEntity
  8
LAY-10
  6
CONTINUOUS
 62
     7
100
AcDbLine
 10
1178.101515190035
 20
2113.750000000173
 30
0.0
 11
1179.101515190035
 21
2114.000000000174
 31
0.0
  0
LINE
  5
4C2
330
1F
100
AcDbEntity
  8
LAY-10
  6
CONTINUOUS
 62
     7
100
AcDbLine
 10
1178.101515190035
 20
2113.750000000173
 30
0.0
 11
1178.101515190035
 21
2108.250000000174
 31
0.0
  0
LINE
  5
4C3
330
1F
100
AcDbEntity
  8
LAY-10
  6
CONTINUOUS
 62
     7
100
AcDbLine
 10
1179.101515190035
 20
2119.000000000173
 30
0.0
 11
1178.101515190035
 21
2119.250000000174
 31
0.0
  0
LINE
  5
4C4
330
1F
100
AcDbEntity
  8
LAY-10
  6
CONTINUOUS
 62
     7
100
AcDbLine
 10
1178.101515190035
 20
2124.750000000176
 30
0.0
 11
1179.101515190035
 21
2125.000000000173
 31
0.0
  0
LINE
  5
4C5
330
1F
100
AcDbEntity
  8
LAY-10
  6
CONTINUOUS
 62
     7
100
AcDbLine
 10
1178.101515190035
 20
2124.750000000176
 30
0.0
 11
1178.101515190035
 21
2119.250000000174
 31
0.0
  0
LINE
  5
4C6
330
1F
100
AcDbEntity
  8
LAY-10
  6
CONTINUOUS
 62
     7
100
AcDbLine
 10
1179.101515190038
 20
2130.000000000173
 30
0.0
 11
1178.101515190036
 21
2130.250000000173
 31
0.0
  0
LINE
  5
4C7
330
1F
100
AcDbEntity
  8
LAY-10
  6
CONTINUOUS
 62
     7
100
AcDbLine
 10
1178.101515190036
 20
2135.750000000173
 30
0.0
 11
1179.101515190038
 21
2136.000000000173
 31
0.0
  0
LINE
  5
4C8
330
1F
100
AcDbEntity
  8
LAY-10
  6
CONTINUOUS
 62
     7
100
AcDbLine
 10
1178.101515190036
 20
2135.750000000173
 30
0.0
 11
1178.101515190036
 21
2130.250000000173
 31
0.0
  0
LINE
  5
4C9
330
1F
100
AcDbEntity
  8
LAY-10
  6
CONTINUOUS
 62
     7
100
AcDbLine
 10
1179.101515190035
 20
2108.000000000174
 30
0.0
 11
1179.101515190035
 21
2103.000000000173
 31
0.0
  0
LINE
  5
4CA
330
1F
100
AcDbEntity
  8
LAY-10
  6
CONTINUOUS
 62
     7
100
AcDbLine
 10
1179.101515190038
 20
2119.000000000173
 30
0.0
 11
1179.101515190038
 21
2114.000000000174
 31
0.0
  0
LINE
  5
4CB
330
1F
100
AcDbEntity
  8
LAY-10
  6
CONTINUOUS
 62
     7
100
AcDbLine
 10
1179.101515190042
 20
2130.000000000173
 30
0.0
 11
1179.101515190038
 21
2125.000000000172
 31
0.0
  0
LINE
  5
4CC
330
1F
100
AcDbEntity
  8
LAY-10
  6
CONTINUOUS
 62
     7
100
AcDbLine
 10
1226.101515190038
 20
2097.000000000167
 30
0.0
 11
1227.101515190036
 21
2097.250000000166
 31
0.0
  0
LINE
  5
4CD
330
1F
100
AcDbEntity
  8
LAY-10
  6
CONTINUOUS
 62
     7
100
AcDbLine
 10
1227.101515190038
 20
2102.750000000166
 30
0.0
 11
1226.101515190038
 21
2103.000000000166
 31
0.0
  0
LINE
  5
4CE
330
1F
100
AcDbEntity
  8
LAY-10
  6
CONTINUOUS
 62
     7
100
AcDbLine
 10
1227.101515190038
 20
2102.750000000166
 30
0.0
 11
1227.101515190036
 21
2097.250000000166
 31
0.0
  0
LINE
  5
4CF
330
1F
100
AcDbEntity
  8
LAY-10
  6
CONTINUOUS
 62
     7
100
AcDbLine
 10
1226.101515190042
 20
2108.000000000167
 30
0.0
 11
1227.101515190036
 21
2108.250000000167
 31
0.0
  0
LINE
  5
4D0
330
1F
100
AcDbEntity
  8
LAY-10
  6
CONTINUOUS
 62
     7
100
AcDbLine
 10
1227.101515190038
 20
2113.750000000169
 30
0.0
 11
1226.101515190042
 21
2114.000000000167
 31
0.0
  0
LINE
  5
4D1
330
1F
100
AcDbEntity
  8
LAY-10
  6
CONTINUOUS
 62
     7
100
AcDbLine
 10
1227.101515190038
 20
2113.750000000169
 30
0.0
 11
1227.101515190036
 21
2108.250000000167
 31
0.0
  0
LINE
  5
4D2
330
1F
100
AcDbEntity
  8
LAY-10
  6
CONTINUOUS
 62
     7
100
AcDbLine
 10
1226.101515190042
 20
2119.000000000166
 30
0.0
 11
1227.101515190038
 21
2119.250000000167
 31
0.0
  0
LINE
  5
4D3
330
1F
100
AcDbEntity
  8
LAY-10
  6
CONTINUOUS
 62
     7
100
AcDbLine
 10
1227.10151519004
 20
2124.750000000169
 30
0.0
 11
1226.101515190042
 21
2125.000000000169
 31
0.0
  0
LINE
  5
4D4
330
1F
100
AcDbEntity
  8
LAY-10
  6
CONTINUOUS
 62
     7
100
AcDbLine
 10
1227.10151519004
 20
2124.750000000169
 30
0.0
 11
1227.101515190038
 21
2119.250000000167
 31
0.0
  0
LINE
  5
4D5
330
1F
100
AcDbEntity
  8
LAY-10
  6
CONTINUOUS
 62
     7
100
AcDbLine
 10
1226.101515190046
 20
2130.000000000166
 30
0.0
 11
1227.101515190042
 21
2130.250000000166
 31
0.0
  0
LINE
  5
4D6
330
1F
100
AcDbEntity
  8
LAY-10
  6
CONTINUOUS
 62
     7
100
AcDbLine
 10
1227.101515190042
 20
2135.750000000166
 30
0.0
 11
1226.101515190046
 21
2136.000000000167
 31
0.0
  0
LINE
  5
4D7
330
1F
100
AcDbEntity
  8
LAY-10
  6
CONTINUOUS
 62
     7
100
AcDbLine
 10
1227.101515190042
 20
2135.750000000166
 30
0.0
 11
1227.101515190042
 21
2130.250000000166
 31
0.0
  0
LINE
  5
4D8
330
1F
100
AcDbEntity
  8
LAY-10
  6
CONTINUOUS
 62
     7
100
AcDbLine
 10
1226.101515190035
 20
2093.000000000167
 30
0.0
 11
1226.101515190035
 21
2097.000000000169
 31
0.0
  0
LINE
  5
4D9
330
1F
100
AcDbEntity
  8
LAY-10
  6
CONTINUOUS
 62
     7
100
AcDbLine
 10
1226.101515190035
 20
2103.000000000168
 30
0.0
 11
1226.101515190035
 21
2108.000000000167
 31
0.0
  0
LINE
  5
4DA
330
1F
100
AcDbEntity
  8
LAY-10
  6
CONTINUOUS
 62
     7
100
AcDbLine
 10
1226.101515190038
 20
2114.000000000167
 30
0.0
 11
1226.101515190038
 21
2119.000000000166
 31
0.0
  0
LINE
  5
4DB
330
1F
100
AcDbEntity
  8
LAY-10
  6
CONTINUOUS
 62
     7
100
AcDbLine
 10
1226.101515190038
 20
2125.000000000166
 30
0.0
 11
1226.101515190042
 21
2130.000000000166
 31
0.0
  0
LINE
  5
4DC
330
1F
100
AcDbEntity
  8
LAY-10
  6
CONTINUOUS
 62
     7
100
AcDbLine
 10
1226.101515190042
 20
2136.000000000166
 30
0.0
 11
1226.101515190042
 21
2140.000000000167
 31
0.0
  0
LINE
  5
4DD
330
1F
100
AcDbEntity
  8
LAY-10
  6
CONTINUOUS
 62
     7
100
AcDbLine
 10
1198.601515190038
 20
2138.500000000171
 30
0.0
 11
1206.601515190036
 21
2138.500000000171
 31
0.0
  0
LINE
  5
4DE
330
1F
100
AcDbEntity
  8
LAY-10
  6
CONTINUOUS
 62
     7
100
AcDbLine
 10
1198.601515190042
 20
2141.500000000169
 30
0.0
 11
1198.601515190042
 21
2138.500000000171
 31
0.0
  0
LINE
  5
4DF
330
1F
100
AcDbEntity
  8
LAY-10
  6
CONTINUOUS
 62
     7
100
AcDbLine
 10
1206.60151519004
 20
2141.500000000169
 30
0.0
 11
1206.60151519004
 21
2138.500000000171
 31
0.0
  0
LINE
  5
4E0
330
1F
100
AcDbEntity
  8
LAY-10
  6
CONTINUOUS
 62
     7
100
AcDbLine
 10
1226.101515190042
 20
2140.000000000167
 30
0.0
 11
1206.60151519004
 21
2140.000000000171
 31
0.0
  0
LINE
  5
4E1
330
1F
100
AcDbEntity
  8
LAY-10
  6
CONTINUOUS
 62
     7
100
AcDbLine
 10
1198.601515190042
 20
2140.000000000171
 30
0.0
 11
1179.101515190042
 21
2140.000000000175
 31
0.0
  0
LINE
  5
4E2
330
1F
100
AcDbEntity
  8
LAY-10
  6
CONTINUOUS
 62
     7
100
AcDbLine
 10
1227.601515190031
 20
2091.500000000168
 30
0.0
 11
1177.601515190031
 21
2091.500000000175
 31
0.0
  0
CIRCLE
  5
4E3
330
1F
100
AcDbEntity
  8
LAY-10
  6
CONTINUOUS
 62
     7
100
AcDbCircle
 10
1257.601515189987
 20
2116.500000000205
 30
0.0
 40
13.00000000000001
  0
CIRCLE
  5
4E4
330
1F
100
AcDbEntity
  8
LAY-10
  6
CONTINUOUS
 62
     7
100
AcDbCircle
 10
1257.601515189969
 20
2116.500000000192
 30
0.0
 40
12.75000000000001
  0
LINE
  5
4E5
330
1F
100
AcDbEntity
  8
LAY-10
  6
CONTINUOUS
 62
     7
100
AcDbLine
 10
1257.601515189953
 20
2112.500000000207
 30
0.0
 11
1251.101515189955
 21
2116.500000000206
 31
0.0
  0
LINE
  5
4E6
330
1F
100
AcDbEntity
  8
LAY-10
  6
CONTINUOUS
 62
     7
100
AcDbLine
 10
1264.101515189956
 20
2116.500000000206
 30
0.0
 11
1257.601515189953
 21
2112.500000000207
 31
0.0
  0
LINE
  5
4E7
330
1F
100
AcDbEntity
  8
LAY-10
  6
CONTINUOUS
 62
     7
100
AcDbLine
 10
1257.601515189953
 20
2120.500000000207
 30
0.0
 11
1264.101515189956
 21
2116.500000000206
 31
0.0
  0
LINE
  5
4E8
330
1F
100
AcDbEntity
  8
LAY-10
  6
CONTINUOUS
 62
     7
100
AcDbLine
 10
1251.101515189955
 20
2116.500000000206
 30
0.0
 11
1257.601515189953
 21
2120.500000000207
 31
0.0
  0
LINE
  5
4E9
330
1F
100
AcDbEntity
  8
LAY-10
  6
CONTINUOUS
 62
     7
100
AcDbLine
 10
1261.601515189958
 20
2127.000000000208
 30
0.0
 11
1253.601515189956
 21
2127.000000000208
 31
0.0
  0
LINE
  5
4EA
330
1F
100
AcDbEntity
  8
LAY-10
  6
CONTINUOUS
 62
     7
100
AcDbLine
 10
1261.601515189958
 20
2127.000000000208
 30
0.0
 11
1261.601515189958
 21
2128.606300013009
 31
0.0
  0
LINE
  5
4EB
330
1F
100
AcDbEntity
  8
LAY-10
  6
CONTINUOUS
 62
     7
100
AcDbLine
 10
1253.601515189956
 20
2127.000000000208
 30
0.0
 11
1253.601515189956
 21
2128.606300013009
 31
0.0
  0
LINE
  5
4EC
330
1F
100
AcDbEntity
  8
LAY-10
  6
CONTINUOUS
 62
     7
100
AcDbLine
 10
1205.601515187868
 20
2144.855339059
 30
0.0
 11
1212.246176129181
 21
2151.5000000002
 31
0.0
  0
LINE
  5
4ED
330
1F
100
AcDbEntity
  8
LAY-10
  6
CONTINUOUS
 62
     7
100
AcDbLine
 10
1152.56850660207
 20
2109.499999999198
 30
0.0
 11
1170.246176131371
 21
2091.822330469899
 31
0.0
  0
LINE
  5
4EE
330
1F
100
AcDbEntity
  8
LAY-10
  6
CONTINUOUS
 62
     7
100
AcDbLine
 10
1170.24617613077
 20
2127.177669529297
 30
0.0
 11
1152.568506601469
 21
2144.855339058597
 31
0.0
  0
LINE
  5
4EF
330
1F
100
AcDbEntity
  8
LAY-10
  6
CONTINUOUS
 62
     7
100
AcDbLine
 10
1240.95685424937
 20
2038.789321882199
 30
0.0
 11
1258.634523779071
 21
2056.466991412198
 31
0.0
  0
LINE
  5
4F0
330
1F
100
AcDbEntity
  8
LAY-10
  6
CONTINUOUS
 62
     7
100
AcDbLine
 10
1258.634523779071
 20
2091.822330471199
 30
0.0
 11
1240.95685424937
 21
2074.1446609412
 31
0.0
  0
LINE
  5
4F1
330
1F
100
AcDbEntity
  8
LAY-10
  6
CONTINUOUS
 62
     7
100
AcDbLine
 10
1347.02287142757
 20
2127.1776695302
 30
0.0
 11
1329.345201897871
 21
2144.855339060199
 31
0.0
  0
LINE
  5
4F2
330
1F
100
AcDbEntity
  8
LAY-10
  6
CONTINUOUS
 62
     7
100
AcDbLine
 10
1353.667532368904
 20
2151.5000000002
 30
0.0
 11
1347.022871428641
 21
2144.855339060199
 31
0.0
  0
LINE
  5
4F3
330
1F
100
AcDbEntity
  8
LAY-10
  6
CONTINUOUS
 62
     7
100
AcDbLine
 10
1318.312193309234
 20
2151.5000000002
 30
0.0
 11
1311.667532368971
 21
2144.855339060199
 31
0.0
  0
LINE
  5
4F4
330
1F
100
AcDbEntity
  8
LAY-10
  6
CONTINUOUS
 62
     7
100
AcDbLine
 10
1282.956854249557
 20
2151.5000000002
 30
0.0
 11
1276.31219330867
 21
2144.855339059199
 31
0.0
  0
LINE
  5
4F5
330
1F
100
AcDbEntity
  8
LAY-10
  6
CONTINUOUS
 62
     7
100
AcDbLine
 10
1144.101515190071
 20
1941.933982824253
 30
0.0
 11
1152.568506600871
 21
1950.400974235198
 31
0.0
  0
LINE
  5
4F6
330
1F
100
AcDbEntity
  8
LAY-10
  6
CONTINUOUS
 62
     7
100
AcDbLine
 10
1152.568506600871
 20
1968.078643764198
 30
0.0
 11
1170.24617613057
 21
1950.400974235198
 31
0.0
  0
LINE
  5
4F7
330
1F
100
AcDbEntity
  8
LAY-10
  6
CONTINUOUS
 62
     7
100
AcDbLine
 10
1170.24617613057
 20
1968.078643764198
 30
0.0
 11
1187.923845660272
 21
1985.756313294198
 31
0.0
  0
LINE
  5
4F8
330
1F
100
AcDbEntity
  8
LAY-10
  6
CONTINUOUS
 62
     7
100
AcDbLine
 10
1187.923845660372
 20
2038.789321882199
 30
0.0
 11
1205.601515189971
 21
2021.1116523532
 31
0.0
  0
LINE
  5
4F9
330
1F
100
AcDbEntity
  8
LAY-10
  6
CONTINUOUS
 62
     7
100
AcDbLine
 10
1223.27918471967
 20
2056.466991412198
 30
0.0
 11
1205.601515189971
 21
2038.789321882199
 31
0.0
  0
LINE
  5
4FA
330
1F
100
AcDbEntity
  8
LAY-10
  6
CONTINUOUS
 62
     7
100
AcDbLine
 10
1187.923845660372
 20
2056.466991412198
 30
0.0
 11
1170.24617613067
 21
2038.789321882199
 31
0.0
  0
LINE
  5
4FB
330
1F
100
AcDbEntity
  8
LAY-10
  6
CONTINUOUS
 62
     7
100
AcDbLine
 10
1223.27918471967
 20
2038.789321882199
 30
0.0
 11
1240.95685424937
 21
2021.1116523532
 31
0.0
  0
LINE
  5
4FC
330
1F
100
AcDbEntity
  8
LAY-10
  6
CONTINUOUS
 62
     7
100
AcDbLine
 10
1205.601515189971
 20
2003.433982823198
 30
0.0
 11
1223.27918471967
 21
2021.1116523532
 31
0.0
  0
LINE
  5
4FD
330
1F
100
AcDbEntity
  8
LAY-10
  6
CONTINUOUS
 62
     7
100
AcDbLine
 10
1187.923845660272
 20
2003.433982823198
 30
0.0
 11
1205.601515189971
 21
1985.756313294198
 31
0.0
  0
LINE
  5
4FE
330
1F
100
AcDbEntity
  8
LAY-10
  6
CONTINUOUS
 62
     7
100
AcDbLine
 10
1170.24617613057
 20
2021.111652353198
 30
0.0
 11
1152.568506600971
 21
2038.789321882199
 31
0.0
  0
LINE
  5
4FF
330
1F
100
AcDbEntity
  8
LAY-10
  6
CONTINUOUS
 62
     7
100
AcDbLine
 10
1152.568506600971
 20
2056.466991412198
 30
0.0
 11
1144.101515190071
 21
2048.000000001155
 31
0.0
  0
LINE
  5
500
330
1F
100
AcDbEntity
  8
LAY-10
  6
CONTINUOUS
 62
     7
100
AcDbLine
 10
1152.568506600971
 20
2021.111652353198
 30
0.0
 11
1144.101515190071
 21
2012.644660942155
 31
0.0
  0
LINE
  5
501
330
1F
100
AcDbEntity
  8
LAY-10
  6
CONTINUOUS
 62
     7
100
AcDbLine
 10
1152.568506600971
 20
2003.433982823198
 30
0.0
 11
1170.24617613057
 21
1985.756313294198
 31
0.0
  0
LINE
  5
502
330
1F
100
AcDbEntity
  8
LAY-10
  6
CONTINUOUS
 62
     7
100
AcDbLine
 10
1187.923845660272
 20
2021.111652353198
 30
0.0
 11
1170.24617613057
 21
2003.433982823198
 31
0.0
  0
LINE
  5
503
330
1F
100
AcDbEntity
  8
LAY-10
  6
CONTINUOUS
 62
     7
100
AcDbLine
 10
1152.568506600871
 20
1985.756313294197
 30
0.0
 11
1144.101515190071
 21
1977.289321883254
 31
0.0
  0
LINE
  5
504
330
1F
100
AcDbEntity
  8
LAY-10
  6
CONTINUOUS
 62
     7
100
AcDbLine
 10
1276.31219330877
 20
2127.1776695302
 30
0.0
 11
1258.634523779071
 21
2144.855339060199
 31
0.0
  0
LINE
  5
505
330
1F
100
AcDbEntity
  8
LAY-10
  6
CONTINUOUS
 62
     7
100
AcDbLine
 10
1223.27918471977
 20
2074.1446609412
 30
0.0
 11
1240.95685424937
 21
2056.466991412198
 31
0.0
  0
LINE
  5
506
330
1F
100
AcDbEntity
  8
LAY-10
  6
CONTINUOUS
 62
     7
100
AcDbLine
 10
1258.634523779071
 20
2074.1446609412
 30
0.0
 11
1276.31219330877
 21
2056.466991412198
 31
0.0
  0
LINE
  5
507
330
1F
100
AcDbEntity
  8
LAY-10
  6
CONTINUOUS
 62
     7
100
AcDbLine
 10
1276.31219330877
 20
2109.500000000199
 30
0.0
 11
1293.98986283837
 21
2127.1776695302
 31
0.0
  0
LINE
  5
508
330
1F
100
AcDbEntity
  8
LAY-10
  6
CONTINUOUS
 62
     7
100
AcDbLine
 10
1276.31219330877
 20
2074.1446609412
 30
0.0
 11
1293.98986283837
 21
2091.822330471199
 31
0.0
  0
LINE
  5
509
330
1F
100
AcDbEntity
  8
LAY-10
  6
CONTINUOUS
 62
     7
100
AcDbLine
 10
1293.98986283837
 20
2109.500000000199
 30
0.0
 11
1311.667532368071
 21
2091.822330471199
 31
0.0
  0
LINE
  5
50A
330
1F
100
AcDbEntity
  8
LAY-10
  6
CONTINUOUS
 62
     7
100
AcDbLine
 10
1205.601515189971
 20
2056.466991412198
 30
0.0
 11
1187.923845660372
 21
2074.1446609412
 31
0.0
  0
LINE
  5
50B
330
1F
100
AcDbEntity
  8
LAY-10
  6
CONTINUOUS
 62
     7
100
AcDbLine
 10
1170.24617613067
 20
2056.466991412198
 30
0.0
 11
1152.568506600971
 21
2074.1446609412
 31
0.0
  0
LINE
  5
50C
330
1F
100
AcDbEntity
  8
LAY-10
  6
CONTINUOUS
 62
     7
100
AcDbLine
 10
1152.568506601071
 20
2091.822330472197
 30
0.0
 11
1144.101515190071
 21
2083.355339061054
 31
0.0
  0
LINE
  5
50D
330
1F
100
AcDbEntity
  8
LAY-10
  6
CONTINUOUS
 62
     7
100
AcDbLine
 10
1247.601515190775
 20
2151.5000000002
 30
0.0
 11
1240.956854248568
 21
2144.855339058403
 31
0.0
  0
LINE
  5
50E
330
1F
100
AcDbEntity
  8
LAY-10
  6
CONTINUOUS
 62
     7
100
AcDbLine
 10
1152.568506602372
 20
2127.177669528596
 30
0.0
 11
1144.101515190046
 21
2118.710678116126
 31
0.0
  0
LINE
  5
50F
330
1F
100
AcDbEntity
  8
LAY-10
  6
CONTINUOUS
 62
     7
100
AcDbLine
 10
1170.24617613057
 20
2144.855339057396
 30
0.0
 11
1176.890837073032
 21
2151.500000000197
 31
0.0
  0
LINE
  5
510
330
1F
100
AcDbEntity
  8
LAY-10
  6
CONTINUOUS
 62
     7
100
AcDbLine
 10
1311.174203166226
 20
2127.670998732151
 30
0.0
 11
1293.989862838471
 21
2144.855339060199
 31
0.0
  0
LINE
  5
511
330
1F
100
AcDbEntity
  8
LAY-10
  6
CONTINUOUS
 62
     7
100
AcDbLine
 10
1311.667532367771
 20
2109.500000000199
 30
0.0
 11
1329.34520189737
 21
2127.1776695302
 31
0.0
  0
LINE
  5
512
330
1F
100
AcDbEntity
  8
LAY-10
  6
CONTINUOUS
 62
     7
100
AcDbLine
 10
1187.923845660868
 20
2144.855339057998
 30
0.0
 11
1191.279184718699
 21
2141.500000000167
 31
0.0
  0
LINE
  5
513
330
1F
100
AcDbEntity
  8
LAY-10
  6
CONTINUOUS
 62
     7
100
AcDbLine
 10
1177.601515190035
 20
2116.855339058687
 30
0.0
 11
1170.246176131071
 21
2109.499999999598
 31
0.0
  0
LINE
  5
514
330
1F
100
AcDbEntity
  8
LAY-10
  6
CONTINUOUS
 62
     7
100
AcDbLine
 10
1187.601515189353
 20
2091.500000000174
 30
0.0
 11
1170.24617613067
 21
2074.1446609412
 31
0.0
  0
LINE
  5
515
330
1F
100
AcDbEntity
  8
LAY-10
  6
CONTINUOUS
 62
     7
100
AcDbLine
 10
1240.956854247873
 20
2091.822330470102
 30
0.0
 11
1227.601515190035
 21
2105.177669528391
 31
0.0
  0
LINE
  5
516
330
1F
100
AcDbEntity
  8
LAY-10
  6
CONTINUOUS
 62
     7
100
AcDbLine
 10
1222.956854248746
 20
2091.500000000169
 30
0.0
 11
1205.601515190071
 21
2074.1446609412
 31
0.0
  0
LINE
  5
517
330
1F
100
AcDbEntity
  8
LAY-10
  6
CONTINUOUS
 62
     7
100
AcDbLine
 10
1240.956854247869
 20
2127.177669529402
 30
0.0
 11
1227.601515190038
 21
2140.533008587759
 31
0.0
  0
LINE
  5
518
330
1F
100
AcDbEntity
  8
LAY-10
  6
CONTINUOUS
 62
     7
100
AcDbLine
 10
1226.634523777672
 20
2141.500000000162
 30
0.0
 11
1223.279184718866
 21
2144.855339059101
 31
0.0
  0
LINE
  5
519
330
1F
100
AcDbEntity
  8
LAY-10
  6
CONTINUOUS
 62
     7
100
AcDbLine
 10
1244.953258011913
 20
2113.49640376281
 30
0.0
 11
1241.579184719679
 21
2110.122330470518
 31
0.0
  0
LINE
  5
51A
330
1F
100
AcDbEntity
  8
LAY-10
  6
CONTINUOUS
 62
     7
100
AcDbLine
 10
1263.312773844365
 20
2104.821749935091
 30
0.0
 11
1276.31219330877
 21
2091.822330471199
 31
0.0
  0
LINE
  5
51B
330
1F
100
AcDbEntity
  8
LAY-10
  6
CONTINUOUS
 62
     7
100
AcDbLine
 10
1058.601515189882
 20
1217.500000000078
 30
0.0
 11
1058.601515189889
 21
1267.500000000072
 31
0.0
  0
LINE
  5
51C
330
1F
100
AcDbEntity
  8
LAY-10
  6
CONTINUOUS
 62
     7
100
AcDbLine
 10
1058.601515189882
 20
1217.500000000078
 30
0.0
 11
1108.601515189882
 21
1217.500000000071
 31
0.0
  0
LINE
  5
51D
330
1F
100
AcDbEntity
  8
LAY-10
  6
CONTINUOUS
 62
     7
100
AcDbLine
 10
1108.601515189882
 20
1217.500000000071
 30
0.0
 11
1108.601515189889
 21
1267.500000000065
 31
0.0
  0
LINE
  5
51E
330
1F
100
AcDbEntity
  8
LAY-10
  6
CONTINUOUS
 62
     7
100
AcDbLine
 10
1107.101515189878
 20
1219.000000000065
 30
0.0
 11
1107.101515189878
 21
1223.000000000067
 31
0.0
  0
LINE
  5
51F
330
1F
100
AcDbEntity
  8
LAY-10
  6
CONTINUOUS
 62
     7
100
AcDbLine
 10
1107.101515189886
 20
1266.000000000066
 30
0.0
 11
1060.101515189886
 21
1266.000000000073
 31
0.0
  0
LINE
  5
520
330
1F
100
AcDbEntity
  8
LAY-10
  6
CONTINUOUS
 62
     7
100
AcDbLine
 10
1107.101515189882
 20
1245.000000000066
 30
0.0
 11
1060.101515189882
 21
1245.000000000073
 31
0.0
  0
LINE
  5
521
330
1F
100
AcDbEntity
  8
LAY-10
  6
CONTINUOUS
 62
     7
100
AcDbLine
 10
1107.101515189882
 20
1240.000000000067
 30
0.0
 11
1060.101515189882
 21
1240.000000000073
 31
0.0
  0
LINE
  5
522
330
1F
100
AcDbEntity
  8
LAY-10
  6
CONTINUOUS
 62
     7
100
AcDbLine
 10
1060.101515189888
 20
1251.000000000073
 30
0.0
 11
1107.101515189889
 21
1251.000000000066
 31
0.0
  0
LINE
  5
523
330
1F
100
AcDbEntity
  8
LAY-10
  6
CONTINUOUS
 62
     7
100
AcDbLine
 10
1060.101515189886
 20
1256.000000000072
 30
0.0
 11
1107.101515189889
 21
1256.000000000067
 31
0.0
  0
LINE
  5
524
330
1F
100
AcDbEntity
  8
LAY-10
  6
CONTINUOUS
 62
     7
100
AcDbLine
 10
1060.101515189891
 20
1262.000000000071
 30
0.0
 11
1107.101515189889
 21
1262.000000000064
 31
0.0
  0
LINE
  5
525
330
1F
100
AcDbEntity
  8
LAY-10
  6
CONTINUOUS
 62
     7
100
AcDbLine
 10
1060.101515189886
 20
1234.000000000074
 30
0.0
 11
1107.101515189886
 21
1234.000000000068
 31
0.0
  0
LINE
  5
526
330
1F
100
AcDbEntity
  8
LAY-10
  6
CONTINUOUS
 62
     7
100
AcDbLine
 10
1060.101515189878
 20
1229.000000000074
 30
0.0
 11
1107.101515189882
 21
1229.000000000068
 31
0.0
  0
LINE
  5
527
330
1F
100
AcDbEntity
  8
LAY-10
  6
CONTINUOUS
 62
     7
100
AcDbLine
 10
1060.101515189886
 20
1223.000000000073
 30
0.0
 11
1107.101515189882
 21
1223.000000000067
 31
0.0
  0
LINE
  5
528
330
1F
100
AcDbEntity
  8
LAY-10
  6
CONTINUOUS
 62
     7
100
AcDbLine
 10
1107.101515189889
 20
1262.000000000066
 30
0.0
 11
1108.101515189889
 21
1261.750000000067
 31
0.0
  0
LINE
  5
529
330
1F
100
AcDbEntity
  8
LAY-10
  6
CONTINUOUS
 62
     7
100
AcDbLine
 10
1108.101515189889
 20
1256.250000000066
 30
0.0
 11
1107.101515189889
 21
1256.000000000067
 31
0.0
  0
LINE
  5
52A
330
1F
100
AcDbEntity
  8
LAY-10
  6
CONTINUOUS
 62
     7
100
AcDbLine
 10
1108.101515189889
 20
1256.250000000066
 30
0.0
 11
1108.101515189889
 21
1261.750000000067
 31
0.0
  0
LINE
  5
52B
330
1F
100
AcDbEntity
  8
LAY-10
  6
CONTINUOUS
 62
     7
100
AcDbLine
 10
1107.101515189886
 20
1262.000000000064
 30
0.0
 11
1107.101515189886
 21
1266.000000000066
 31
0.0
  0
LINE
  5
52C
330
1F
100
AcDbEntity
  8
LAY-10
  6
CONTINUOUS
 62
     7
100
AcDbLine
 10
1107.101515189889
 20
1251.000000000066
 30
0.0
 11
1108.101515189886
 21
1250.750000000066
 31
0.0
  0
LINE
  5
52D
330
1F
100
AcDbEntity
  8
LAY-10
  6
CONTINUOUS
 62
     7
100
AcDbLine
 10
1108.101515189886
 20
1245.250000000067
 30
0.0
 11
1107.101515189886
 21
1245.000000000066
 31
0.0
  0
LINE
  5
52E
330
1F
100
AcDbEntity
  8
LAY-10
  6
CONTINUOUS
 62
     7
100
AcDbLine
 10
1108.101515189886
 20
1245.250000000067
 30
0.0
 11
1108.101515189886
 21
1250.750000000066
 31
0.0
  0
LINE
  5
52F
330
1F
100
AcDbEntity
  8
LAY-10
  6
CONTINUOUS
 62
     7
100
AcDbLine
 10
1107.101515189886
 20
1240.000000000067
 30
0.0
 11
1108.101515189886
 21
1239.750000000066
 31
0.0
  0
LINE
  5
530
330
1F
100
AcDbEntity
  8
LAY-10
  6
CONTINUOUS
 62
     7
100
AcDbLine
 10
1108.101515189886
 20
1234.250000000064
 30
0.0
 11
1107.101515189886
 21
1234.000000000067
 31
0.0
  0
LINE
  5
531
330
1F
100
AcDbEntity
  8
LAY-10
  6
CONTINUOUS
 62
     7
100
AcDbLine
 10
1108.101515189886
 20
1234.250000000064
 30
0.0
 11
1108.101515189886
 21
1239.750000000066
 31
0.0
  0
LINE
  5
532
330
1F
100
AcDbEntity
  8
LAY-10
  6
CONTINUOUS
 62
     7
100
AcDbLine
 10
1107.101515189882
 20
1229.000000000067
 30
0.0
 11
1108.101515189884
 21
1228.750000000067
 31
0.0
  0
LINE
  5
533
330
1F
100
AcDbEntity
  8
LAY-10
  6
CONTINUOUS
 62
     7
100
AcDbLine
 10
1108.101515189884
 20
1223.250000000067
 30
0.0
 11
1107.101515189882
 21
1223.000000000067
 31
0.0
  0
LINE
  5
534
330
1F
100
AcDbEntity
  8
LAY-10
  6
CONTINUOUS
 62
     7
100
AcDbLine
 10
1108.101515189884
 20
1223.250000000067
 30
0.0
 11
1108.101515189884
 21
1228.750000000067
 31
0.0
  0
LINE
  5
535
330
1F
100
AcDbEntity
  8
LAY-10
  6
CONTINUOUS
 62
     7
100
AcDbLine
 10
1107.101515189886
 20
1251.000000000066
 30
0.0
 11
1107.101515189886
 21
1256.000000000067
 31
0.0
  0
LINE
  5
536
330
1F
100
AcDbEntity
  8
LAY-10
  6
CONTINUOUS
 62
     7
100
AcDbLine
 10
1107.101515189882
 20
1240.000000000067
 30
0.0
 11
1107.101515189882
 21
1245.000000000066
 31
0.0
  0
LINE
  5
537
330
1F
100
AcDbEntity
  8
LAY-10
  6
CONTINUOUS
 62
     7
100
AcDbLine
 10
1107.101515189878
 20
1229.000000000067
 30
0.0
 11
1107.101515189882
 21
1234.000000000068
 31
0.0
  0
LINE
  5
538
330
1F
100
AcDbEntity
  8
LAY-10
  6
CONTINUOUS
 62
     7
100
AcDbLine
 10
1060.101515189882
 20
1262.000000000073
 30
0.0
 11
1059.101515189884
 21
1261.750000000073
 31
0.0
  0
LINE
  5
539
330
1F
100
AcDbEntity
  8
LAY-10
  6
CONTINUOUS
 62
     7
100
AcDbLine
 10
1059.101515189882
 20
1256.250000000074
 30
0.0
 11
1060.101515189882
 21
1256.000000000074
 31
0.0
  0
LINE
  5
53A
330
1F
100
AcDbEntity
  8
LAY-10
  6
CONTINUOUS
 62
     7
100
AcDbLine
 10
1059.101515189882
 20
1256.250000000074
 30
0.0
 11
1059.101515189884
 21
1261.750000000073
 31
0.0
  0
LINE
  5
53B
330
1F
100
AcDbEntity
  8
LAY-10
  6
CONTINUOUS
 62
     7
100
AcDbLine
 10
1060.101515189878
 20
1251.000000000073
 30
0.0
 11
1059.101515189884
 21
1250.750000000073
 31
0.0
  0
LINE
  5
53C
330
1F
100
AcDbEntity
  8
LAY-10
  6
CONTINUOUS
 62
     7
100
AcDbLine
 10
1059.101515189882
 20
1245.250000000071
 30
0.0
 11
1060.101515189878
 21
1245.000000000073
 31
0.0
  0
LINE
  5
53D
330
1F
100
AcDbEntity
  8
LAY-10
  6
CONTINUOUS
 62
     7
100
AcDbLine
 10
1059.101515189882
 20
1245.250000000071
 30
0.0
 11
1059.101515189884
 21
1250.750000000073
 31
0.0
  0
LINE
  5
53E
330
1F
100
AcDbEntity
  8
LAY-10
  6
CONTINUOUS
 62
     7
100
AcDbLine
 10
1060.101515189878
 20
1240.000000000073
 30
0.0
 11
1059.101515189882
 21
1239.750000000073
 31
0.0
  0
LINE
  5
53F
330
1F
100
AcDbEntity
  8
LAY-10
  6
CONTINUOUS
 62
     7
100
AcDbLine
 10
1059.10151518988
 20
1234.250000000071
 30
0.0
 11
1060.101515189878
 21
1234.000000000071
 31
0.0
  0
LINE
  5
540
330
1F
100
AcDbEntity
  8
LAY-10
  6
CONTINUOUS
 62
     7
100
AcDbLine
 10
1059.10151518988
 20
1234.250000000071
 30
0.0
 11
1059.101515189882
 21
1239.750000000073
 31
0.0
  0
LINE
  5
541
330
1F
100
AcDbEntity
  8
LAY-10
  6
CONTINUOUS
 62
     7
100
AcDbLine
 10
1060.101515189875
 20
1229.000000000074
 30
0.0
 11
1059.101515189878
 21
1228.750000000073
 31
0.0
  0
LINE
  5
542
330
1F
100
AcDbEntity
  8
LAY-10
  6
CONTINUOUS
 62
     7
100
AcDbLine
 10
1059.101515189878
 20
1223.250000000074
 30
0.0
 11
1060.101515189875
 21
1223.000000000073
 31
0.0
  0
LINE
  5
543
330
1F
100
AcDbEntity
  8
LAY-10
  6
CONTINUOUS
 62
     7
100
AcDbLine
 10
1059.101515189878
 20
1223.250000000074
 30
0.0
 11
1059.101515189878
 21
1228.750000000073
 31
0.0
  0
LINE
  5
544
330
1F
100
AcDbEntity
  8
LAY-10
  6
CONTINUOUS
 62
     7
100
AcDbLine
 10
1060.101515189886
 20
1266.000000000073
 30
0.0
 11
1060.101515189886
 21
1262.000000000071
 31
0.0
  0
LINE
  5
545
330
1F
100
AcDbEntity
  8
LAY-10
  6
CONTINUOUS
 62
     7
100
AcDbLine
 10
1060.101515189886
 20
1256.000000000072
 30
0.0
 11
1060.101515189886
 21
1251.000000000073
 31
0.0
  0
LINE
  5
546
330
1F
100
AcDbEntity
  8
LAY-10
  6
CONTINUOUS
 62
     7
100
AcDbLine
 10
1060.101515189882
 20
1245.000000000073
 30
0.0
 11
1060.101515189882
 21
1240.000000000073
 31
0.0
  0
LINE
  5
547
330
1F
100
AcDbEntity
  8
LAY-10
  6
CONTINUOUS
 62
     7
100
AcDbLine
 10
1060.101515189882
 20
1234.000000000074
 30
0.0
 11
1060.101515189878
 21
1229.000000000074
 31
0.0
  0
LINE
  5
548
330
1F
100
AcDbEntity
  8
LAY-10
  6
CONTINUOUS
 62
     7
100
AcDbLine
 10
1060.101515189878
 20
1223.000000000073
 30
0.0
 11
1060.101515189878
 21
1219.000000000073
 31
0.0
  0
LINE
  5
549
330
1F
100
AcDbEntity
  8
LAY-10
  6
CONTINUOUS
 62
     7
100
AcDbLine
 10
1087.601515189882
 20
1220.500000000069
 30
0.0
 11
1079.601515189884
 21
1220.500000000069
 31
0.0
  0
LINE
  5
54A
330
1F
100
AcDbEntity
  8
LAY-10
  6
CONTINUOUS
 62
     7
100
AcDbLine
 10
1087.601515189878
 20
1217.500000000071
 30
0.0
 11
1087.601515189878
 21
1220.500000000069
 31
0.0
  0
LINE
  5
54B
330
1F
100
AcDbEntity
  8
LAY-10
  6
CONTINUOUS
 62
     7
100
AcDbLine
 10
1079.60151518988
 20
1217.500000000071
 30
0.0
 11
1079.60151518988
 21
1220.500000000069
 31
0.0
  0
LINE
  5
54C
330
1F
100
AcDbEntity
  8
LAY-10
  6
CONTINUOUS
 62
     7
100
AcDbLine
 10
1060.101515189878
 20
1219.000000000073
 30
0.0
 11
1079.60151518988
 21
1219.000000000069
 31
0.0
  0
LINE
  5
54D
330
1F
100
AcDbEntity
  8
LAY-10
  6
CONTINUOUS
 62
     7
100
AcDbLine
 10
1087.601515189878
 20
1219.000000000069
 30
0.0
 11
1107.101515189878
 21
1219.000000000065
 31
0.0
  0
LINE
  5
54E
330
1F
100
AcDbEntity
  8
LAY-10
  6
CONTINUOUS
 62
     7
100
AcDbLine
 10
1058.601515189889
 20
1267.500000000072
 30
0.0
 11
1108.601515189889
 21
1267.500000000065
 31
0.0
  0
CIRCLE
  5
54F
330
1F
100
AcDbEntity
  8
LAY-10
  6
CONTINUOUS
 62
     7
100
AcDbCircle
 10
1028.601515189933
 20
1242.500000000035
 30
0.0
 40
13.00000000000001
  0
CIRCLE
  5
550
330
1F
100
AcDbEntity
  8
LAY-10
  6
CONTINUOUS
 62
     7
100
AcDbCircle
 10
1028.601515189951
 20
1242.500000000048
 30
0.0
 40
12.75000000000001
  0
LINE
  5
551
330
1F
100
AcDbEntity
  8
LAY-10
  6
CONTINUOUS
 62
     7
100
AcDbLine
 10
1028.601515189968
 20
1246.500000000033
 30
0.0
 11
1035.101515189966
 21
1242.500000000034
 31
0.0
  0
LINE
  5
552
330
1F
100
AcDbEntity
  8
LAY-10
  6
CONTINUOUS
 62
     7
100
AcDbLine
 10
1022.101515189964
 20
1242.500000000034
 30
0.0
 11
1028.601515189968
 21
1246.500000000033
 31
0.0
  0
LINE
  5
553
330
1F
100
AcDbEntity
  8
LAY-10
  6
CONTINUOUS
 62
     7
100
AcDbLine
 10
1028.601515189968
 20
1238.500000000033
 30
0.0
 11
1022.101515189964
 21
1242.500000000034
 31
0.0
  0
LINE
  5
554
330
1F
100
AcDbEntity
  8
LAY-10
  6
CONTINUOUS
 62
     7
100
AcDbLine
 10
1035.101515189966
 20
1242.500000000034
 30
0.0
 11
1028.601515189968
 21
1238.500000000033
 31
0.0
  0
LINE
  5
555
330
1F
100
AcDbEntity
  8
LAY-10
  6
CONTINUOUS
 62
     7
100
AcDbLine
 10
1024.601515189962
 20
1232.000000000032
 30
0.0
 11
1032.601515189964
 21
1232.000000000032
 31
0.0
  0
LINE
  5
556
330
1F
100
AcDbEntity
  8
LAY-10
  6
CONTINUOUS
 62
     7
100
AcDbLine
 10
1024.601515189962
 20
1232.000000000032
 30
0.0
 11
1024.601515189962
 21
1230.393699987231
 31
0.0
  0
LINE
  5
557
330
1F
100
AcDbEntity
  8
LAY-10
  6
CONTINUOUS
 62
     7
100
AcDbLine
 10
1032.601515189964
 20
1232.000000000032
 30
0.0
 11
1032.601515189964
 21
1230.393699987231
 31
0.0
  0
LINE
  5
558
330
1F
100
AcDbEntity
  8
LAY-10
  6
CONTINUOUS
 62
     7
100
AcDbLine
 10
1080.601515192052
 20
1214.14466094124
 30
0.0
 11
1073.95685425074
 21
1207.50000000004
 31
0.0
  0
LINE
  5
559
330
1F
100
AcDbEntity
  8
LAY-10
  6
CONTINUOUS
 62
     7
100
AcDbLine
 10
1133.634523777851
 20
1249.500000001042
 30
0.0
 11
1115.956854248549
 21
1267.177669530341
 31
0.0
  0
LINE
  5
55A
330
1F
100
AcDbEntity
  8
LAY-10
  6
CONTINUOUS
 62
     7
100
AcDbLine
 10
1115.95685424915
 20
1231.822330470942
 30
0.0
 11
1133.634523778451
 21
1214.144660941643
 31
0.0
  0
LINE
  5
55B
330
1F
100
AcDbEntity
  8
LAY-10
  6
CONTINUOUS
 62
     7
100
AcDbLine
 10
1045.246176130551
 20
1320.210678118041
 30
0.0
 11
1027.568506600849
 21
1302.533008588042
 31
0.0
  0
LINE
  5
55C
330
1F
100
AcDbEntity
  8
LAY-10
  6
CONTINUOUS
 62
     7
100
AcDbLine
 10
1027.568506600849
 20
1267.177669529041
 30
0.0
 11
1045.246176130551
 21
1284.85533905904
 31
0.0
  0
LINE
  5
55D
330
1F
100
AcDbEntity
  8
LAY-10
  6
CONTINUOUS
 62
     7
100
AcDbLine
 10
939.1801589523502
 20
1231.82233047004
 30
0.0
 11
956.8578284820499
 21
1214.144660940041
 31
0.0
  0
LINE
  5
55E
330
1F
100
AcDbEntity
  8
LAY-10
  6
CONTINUOUS
 62
     7
100
AcDbLine
 10
932.535498011016
 20
1207.50000000004
 30
0.0
 11
939.180158951279
 21
1214.144660940041
 31
0.0
  0
LINE
  5
55F
330
1F
100
AcDbEntity
  8
LAY-10
  6
CONTINUOUS
 62
     7
100
AcDbLine
 10
967.8908370706861
 20
1207.50000000004
 30
0.0
 11
974.5354980109489
 21
1214.144660940041
 31
0.0
  0
LINE
  5
560
330
1F
100
AcDbEntity
  8
LAY-10
  6
CONTINUOUS
 62
     7
100
AcDbLine
 10
1003.246176130363
 20
1207.50000000004
 30
0.0
 11
1009.89083707125
 21
1214.144660941041
 31
0.0
  0
LINE
  5
561
330
1F
100
AcDbEntity
  8
LAY-10
  6
CONTINUOUS
 62
     7
100
AcDbLine
 10
1142.101515189849
 20
1417.066017175987
 30
0.0
 11
1133.634523779049
 21
1408.599025765042
 31
0.0
  0
LINE
  5
562
330
1F
100
AcDbEntity
  8
LAY-10
  6
CONTINUOUS
 62
     7
100
AcDbLine
 10
1133.634523779049
 20
1390.921356236042
 30
0.0
 11
1115.95685424935
 21
1408.599025765042
 31
0.0
  0
LINE
  5
563
330
1F
100
AcDbEntity
  8
LAY-10
  6
CONTINUOUS
 62
     7
100
AcDbLine
 10
1115.95685424935
 20
1390.921356236042
 30
0.0
 11
1098.279184719649
 21
1373.243686706042
 31
0.0
  0
LINE
  5
564
330
1F
100
AcDbEntity
  8
LAY-10
  6
CONTINUOUS
 62
     7
100
AcDbLine
 10
1098.279184719549
 20
1320.210678118041
 30
0.0
 11
1080.601515189949
 21
1337.888347647041
 31
0.0
  0
LINE
  5
565
330
1F
100
AcDbEntity
  8
LAY-10
  6
CONTINUOUS
 62
     7
100
AcDbLine
 10
1062.92384566025
 20
1302.533008588042
 30
0.0
 11
1080.601515189949
 21
1320.210678118041
 31
0.0
  0
LINE
  5
566
330
1F
100
AcDbEntity
  8
LAY-10
  6
CONTINUOUS
 62
     7
100
AcDbLine
 10
1098.279184719549
 20
1302.533008588042
 30
0.0
 11
1115.95685424925
 21
1320.210678118041
 31
0.0
  0
LINE
  5
567
330
1F
100
AcDbEntity
  8
LAY-10
  6
CONTINUOUS
 62
     7
100
AcDbLine
 10
1062.92384566025
 20
1320.210678118041
 30
0.0
 11
1045.246176130551
 21
1337.888347647041
 31
0.0
  0
LINE
  5
568
330
1F
100
AcDbEntity
  8
LAY-10
  6
CONTINUOUS
 62
     7
100
AcDbLine
 10
1080.601515189949
 20
1355.566017177042
 30
0.0
 11
1062.92384566025
 21
1337.888347647041
 31
0.0
  0
LINE
  5
569
330
1F
100
AcDbEntity
  8
LAY-10
  6
CONTINUOUS
 62
     7
100
AcDbLine
 10
1098.279184719649
 20
1355.566017177042
 30
0.0
 11
1080.601515189949
 21
1373.243686706042
 31
0.0
  0
LINE
  5
56A
330
1F
100
AcDbEntity
  8
LAY-10
  6
CONTINUOUS
 62
     7
100
AcDbLine
 10
1115.95685424935
 20
1337.888347647042
 30
0.0
 11
1133.634523778949
 21
1320.210678118041
 31
0.0
  0
LINE
  5
56B
330
1F
100
AcDbEntity
  8
LAY-10
  6
CONTINUOUS
 62
     7
100
AcDbLine
 10
1133.634523778949
 20
1302.533008588042
 30
0.0
 11
1142.101515189849
 21
1310.999999999085
 31
0.0
  0
LINE
  5
56C
330
1F
100
AcDbEntity
  8
LAY-10
  6
CONTINUOUS
 62
     7
100
AcDbLine
 10
1133.634523778949
 20
1337.888347647042
 30
0.0
 11
1142.101515189849
 21
1346.355339058085
 31
0.0
  0
LINE
  5
56D
330
1F
100
AcDbEntity
  8
LAY-10
  6
CONTINUOUS
 62
     7
100
AcDbLine
 10
1133.634523778949
 20
1355.566017177042
 30
0.0
 11
1115.95685424935
 21
1373.243686706042
 31
0.0
  0
LINE
  5
56E
330
1F
100
AcDbEntity
  8
LAY-10
  6
CONTINUOUS
 62
     7
100
AcDbLine
 10
1098.279184719649
 20
1337.888347647042
 30
0.0
 11
1115.95685424935
 21
1355.566017177042
 31
0.0
  0
LINE
  5
56F
330
1F
100
AcDbEntity
  8
LAY-10
  6
CONTINUOUS
 62
     7
100
AcDbLine
 10
1133.634523779049
 20
1373.243686706043
 30
0.0
 11
1142.101515189849
 21
1381.710678116986
 31
0.0
  0
LINE
  5
570
330
1F
100
AcDbEntity
  8
LAY-10
  6
CONTINUOUS
 62
     7
100
AcDbLine
 10
1009.89083707115
 20
1231.82233047004
 30
0.0
 11
1027.568506600849
 21
1214.144660940041
 31
0.0
  0
LINE
  5
571
330
1F
100
AcDbEntity
  8
LAY-10
  6
CONTINUOUS
 62
     7
100
AcDbLine
 10
1062.92384566015
 20
1284.85533905904
 30
0.0
 11
1045.246176130551
 21
1302.533008588042
 31
0.0
  0
LINE
  5
572
330
1F
100
AcDbEntity
  8
LAY-10
  6
CONTINUOUS
 62
     7
100
AcDbLine
 10
1027.568506600849
 20
1284.85533905904
 30
0.0
 11
1009.89083707115
 21
1302.533008588042
 31
0.0
  0
LINE
  5
573
330
1F
100
AcDbEntity
  8
LAY-10
  6
CONTINUOUS
 62
     7
100
AcDbLine
 10
1009.89083707115
 20
1249.500000000041
 30
0.0
 11
992.2131675415505
 21
1231.82233047004
 31
0.0
  0
LINE
  5
574
330
1F
100
AcDbEntity
  8
LAY-10
  6
CONTINUOUS
 62
     7
100
AcDbLine
 10
1009.89083707115
 20
1284.85533905904
 30
0.0
 11
992.2131675415505
 21
1267.177669529041
 31
0.0
  0
LINE
  5
575
330
1F
100
AcDbEntity
  8
LAY-10
  6
CONTINUOUS
 62
     7
100
AcDbLine
 10
992.2131675415505
 20
1249.500000000041
 30
0.0
 11
974.5354980118493
 21
1267.177669529041
 31
0.0
  0
LINE
  5
576
330
1F
100
AcDbEntity
  8
LAY-10
  6
CONTINUOUS
 62
     7
100
AcDbLine
 10
1080.601515189949
 20
1302.533008588042
 30
0.0
 11
1098.279184719549
 21
1284.85533905904
 31
0.0
  0
LINE
  5
577
330
1F
100
AcDbEntity
  8
LAY-10
  6
CONTINUOUS
 62
     7
100
AcDbLine
 10
1115.95685424925
 20
1302.533008588042
 30
0.0
 11
1133.634523778949
 21
1284.85533905904
 31
0.0
  0
LINE
  5
578
330
1F
100
AcDbEntity
  8
LAY-10
  6
CONTINUOUS
 62
     7
100
AcDbLine
 10
1133.634523778849
 20
1267.177669528043
 30
0.0
 11
1142.101515189849
 21
1275.644660939186
 31
0.0
  0
LINE
  5
579
330
1F
100
AcDbEntity
  8
LAY-10
  6
CONTINUOUS
 62
     7
100
AcDbLine
 10
1038.601515189145
 20
1207.50000000004
 30
0.0
 11
1045.246176131353
 21
1214.144660941837
 31
0.0
  0
LINE
  5
57A
330
1F
100
AcDbEntity
  8
LAY-10
  6
CONTINUOUS
 62
     7
100
AcDbLine
 10
1133.634523777549
 20
1231.822330471644
 30
0.0
 11
1142.101515189875
 21
1240.289321884114
 31
0.0
  0
LINE
  5
57B
330
1F
100
AcDbEntity
  8
LAY-10
  6
CONTINUOUS
 62
     7
100
AcDbLine
 10
1115.95685424935
 20
1214.144660942844
 30
0.0
 11
1109.312193306888
 21
1207.500000000043
 31
0.0
  0
LINE
  5
57C
330
1F
100
AcDbEntity
  8
LAY-10
  6
CONTINUOUS
 62
     7
100
AcDbLine
 10
975.0288272136942
 20
1231.329001268089
 30
0.0
 11
992.2131675414488
 21
1214.144660940041
 31
0.0
  0
LINE
  5
57D
330
1F
100
AcDbEntity
  8
LAY-10
  6
CONTINUOUS
 62
     7
100
AcDbLine
 10
974.5354980121494
 20
1249.500000000041
 30
0.0
 11
956.8578284825501
 21
1231.82233047004
 31
0.0
  0
LINE
  5
57E
330
1F
100
AcDbEntity
  8
LAY-10
  6
CONTINUOUS
 62
     7
100
AcDbLine
 10
1098.279184719052
 20
1214.144660942242
 30
0.0
 11
1094.923845661221
 21
1217.500000000073
 31
0.0
  0
LINE
  5
57F
330
1F
100
AcDbEntity
  8
LAY-10
  6
CONTINUOUS
 62
     7
100
AcDbLine
 10
1108.601515189886
 20
1242.144660941553
 30
0.0
 11
1115.95685424885
 21
1249.500000000642
 31
0.0
  0
LINE
  5
580
330
1F
100
AcDbEntity
  8
LAY-10
  6
CONTINUOUS
 62
     7
100
AcDbLine
 10
1098.601515190568
 20
1267.500000000066
 30
0.0
 11
1115.95685424925
 21
1284.85533905904
 31
0.0
  0
LINE
  5
581
330
1F
100
AcDbEntity
  8
LAY-10
  6
CONTINUOUS
 62
     7
100
AcDbLine
 10
1045.246176132048
 20
1267.177669530138
 30
0.0
 11
1058.601515189886
 21
1253.822330471849
 31
0.0
  0
LINE
  5
582
330
1F
100
AcDbEntity
  8
LAY-10
  6
CONTINUOUS
 62
     7
100
AcDbLine
 10
1063.246176131174
 20
1267.500000000071
 30
0.0
 11
1080.601515189849
 21
1284.85533905904
 31
0.0
  0
LINE
  5
583
330
1F
100
AcDbEntity
  8
LAY-10
  6
CONTINUOUS
 62
     7
100
AcDbLine
 10
1045.246176132051
 20
1231.822330470838
 30
0.0
 11
1058.601515189882
 21
1218.466991412481
 31
0.0
  0
LINE
  5
584
330
1F
100
AcDbEntity
  8
LAY-10
  6
CONTINUOUS
 62
     7
100
AcDbLine
 10
1059.568506602248
 20
1217.500000000078
 30
0.0
 11
1062.923845661054
 21
1214.144660941139
 31
0.0
  0
LINE
  5
585
330
1F
100
AcDbEntity
  8
LAY-10
  6
CONTINUOUS
 62
     7
100
AcDbLine
 10
1041.249772368007
 20
1245.50359623743
 30
0.0
 11
1044.623845660241
 21
1248.877669529722
 31
0.0
  0
LINE
  5
586
330
1F
100
AcDbEntity
  8
LAY-10
  6
CONTINUOUS
 62
     7
100
AcDbLine
 10
1022.890256535556
 20
1254.178250065149
 30
0.0
 11
1009.89083707115
 21
1267.177669529041
 31
0.0
  0
LINE
  5
587
330
1F
100
AcDbEntity
  8
LAY-10
  6
CONTINUOUS
 62
     7
100
AcDbLine
 10
863.1015151900035
 20
2210.500000000201
 30
0.0
 11
913.1015151900053
 21
2210.500000000201
 31
0.0
  0
LINE
  5
588
330
1F
100
AcDbEntity
  8
LAY-10
  6
CONTINUOUS
 62
     7
100
AcDbLine
 10
913.1015151900053
 20
2160.500000000301
 30
0.0
 11
913.1015151900053
 21
2210.500000000201
 31
0.0
  0
CIRCLE
  5
589
330
1F
100
AcDbEntity
  8
LAY-10
  6
CONTINUOUS
 62
     7
100
AcDbCircle
 10
888.1015151900181
 20
2185.500000000201
 30
0.0
 40
7.5
  0
LINE
  5
58A
330
1F
100
AcDbEntity
  8
LAY-10
  6
CONTINUOUS
 62
     7
100
AcDbLine
 10
863.1015151900035
 20
2160.500000000301
 30
0.0
 11
863.1015151900035
 21
2210.500000000201
 31
0.0
  0
LINE
  5
58B
330
1F
100
AcDbEntity
  8
LAY-10
  6
CONTINUOUS
 62
     7
100
AcDbLine
 10
1373.101515190016
 20
2160.5000000003
 30
0.0
 11
1373.101515190016
 21
2210.5000000002
 31
0.0
  0
LINE
  5
58C
330
1F
100
AcDbEntity
  8
LAY-10
  6
CONTINUOUS
 62
     7
100
AcDbLine
 10
1423.101515190016
 20
2210.5000000002
 30
0.0
 11
1373.101515190016
 21
2210.5000000002
 31
0.0
  0
CIRCLE
  5
58D
330
1F
100
AcDbEntity
  8
LAY-10
  6
CONTINUOUS
 62
     7
100
AcDbCircle
 10
1398.101515190003
 20
2185.5000000002
 30
0.0
 40
7.5
  0
LINE
  5
58E
330
1F
100
AcDbEntity
  8
LAY-10
  6
CONTINUOUS
 62
     7
100
AcDbLine
 10
1423.101515190016
 20
2160.5000000003
 30
0.0
 11
1423.101515190016
 21
2210.5000000002
 31
0.0
  0
LINE
  5
58F
330
1F
100
AcDbEntity
  8
LAY-10
  6
CONTINUOUS
 62
     7
100
AcDbLine
 10
863.1015151900035
 20
1148.499999999948
 30
0.0
 11
913.1015151900053
 21
1148.499999999948
 31
0.0
  0
LINE
  5
590
330
1F
100
AcDbEntity
  8
LAY-10
  6
CONTINUOUS
 62
     7
100
AcDbLine
 10
913.1015151900053
 20
1198.499999999848
 30
0.0
 11
913.1015151900053
 21
1148.499999999948
 31
0.0
  0
CIRCLE
  5
591
330
1F
100
AcDbEntity
  8
LAY-10
  6
CONTINUOUS
 62
     7
100
AcDbCircle
 10
888.1015151900181
 20
1173.499999999948
 30
0.0
 40
7.5
  0
LINE
  5
592
330
1F
100
AcDbEntity
  8
LAY-10
  6
CONTINUOUS
 62
     7
100
AcDbLine
 10
863.1015151900035
 20
1198.499999999848
 30
0.0
 11
863.1015151900035
 21
1148.499999999948
 31
0.0
  0
LINE
  5
593
330
1F
100
AcDbEntity
  8
LAY-10
  6
CONTINUOUS
 62
     7
100
AcDbLine
 10
1373.101515190016
 20
1198.499999999849
 30
0.0
 11
1373.101515190016
 21
1148.499999999949
 31
0.0
  0
LINE
  5
594
330
1F
100
AcDbEntity
  8
LAY-10
  6
CONTINUOUS
 62
     7
100
AcDbLine
 10
1423.101515190016
 20
1148.499999999949
 30
0.0
 11
1373.101515190016
 21
1148.499999999949
 31
0.0
  0
CIRCLE
  5
595
330
1F
100
AcDbEntity
  8
LAY-10
  6
CONTINUOUS
 62
     7
100
AcDbCircle
 10
1398.101515190003
 20
1173.499999999949
 30
0.0
 40
7.5
  0
LINE
  5
596
330
1F
100
AcDbEntity
  8
LAY-10
  6
CONTINUOUS
 62
     7
100
AcDbLine
 10
1423.101515190016
 20
1198.499999999849
 30
0.0
 11
1423.101515190016
 21
1148.499999999949
 31
0.0
  0
LINE
  5
597
330
1F
100
AcDbEntity
  8
LAY-10
  6
CONTINUOUS
 62
     7
100
AcDbLine
 10
2024.696969619202
 20
2097.499999999944
 30
0.0
 11
2024.696969619202
 21
2210.5000000003
 31
0.0
  0
LINE
  5
598
330
1F
100
AcDbEntity
  8
LAY-10
  6
CONTINUOUS
 62
     7
100
AcDbLine
 10
2024.696969619202
 20
2210.5000000003
 30
0.0
 11
2030.696969619183
 21
2210.5000000003
 31
0.0
  0
LINE
  5
599
330
1F
100
AcDbEntity
  8
LAY-10
  6
CONTINUOUS
 62
     7
100
AcDbLine
 10
2024.69696961916
 20
2193.000000000217
 30
0.0
 11
2030.69696961916
 21
2193.000000000217
 31
0.0
  0
LINE
  5
59A
330
1F
100
AcDbEntity
  8
LAY-10
  6
CONTINUOUS
 62
     7
100
AcDbLine
 10
2024.69696961916
 20
2178.000000000166
 30
0.0
 11
2030.69696961916
 21
2178.000000000166
 31
0.0
  0
LINE
  5
59B
330
1F
100
AcDbEntity
  8
LAY-10
  6
CONTINUOUS
 62
     7
100
AcDbLine
 10
2030.696969619183
 20
2130.3500000001
 30
0.0
 11
2030.696969619183
 21
2210.5000000003
 31
0.0
  0
LINE
  5
59C
330
1F
100
AcDbEntity
  8
LAY-10
  6
CONTINUOUS
 62
     7
100
AcDbLine
 10
2062.395454429065
 20
2192.512193308959
 30
0.0
 11
2030.696969619183
 21
2160.813708499078
 31
0.0
  0
LINE
  5
59D
330
1F
100
AcDbEntity
  8
LAY-10
  6
CONTINUOUS
 62
     7
100
AcDbLine
 10
2024.696969619202
 20
1148.499999999849
 30
0.0
 11
2030.696969619183
 21
1148.499999999849
 31
0.0
  0
LINE
  5
59E
330
1F
100
AcDbEntity
  8
LAY-10
  6
CONTINUOUS
 62
     7
100
AcDbLine
 10
2024.69696961916
 20
1165.999999999932
 30
0.0
 11
2030.69696961916
 21
1165.999999999932
 31
0.0
  0
LINE
  5
59F
330
1F
100
AcDbEntity
  8
LAY-10
  6
CONTINUOUS
 62
     7
100
AcDbLine
 10
2024.69696961916
 20
1180.999999999982
 30
0.0
 11
2030.69696961916
 21
1180.999999999982
 31
0.0
  0
LINE
  5
5A0
330
1F
100
AcDbEntity
  8
LAY-10
  6
CONTINUOUS
 62
     7
100
AcDbLine
 10
2030.696969619183
 20
1228.650000000049
 30
0.0
 11
2030.696969619183
 21
1148.499999999849
 31
0.0
  0
LINE
  5
5A1
330
1F
100
AcDbEntity
  8
LAY-10
  6
CONTINUOUS
 62
     7
100
AcDbLine
 10
2024.696969619203
 20
1261.500000000206
 30
0.0
 11
2024.696969619203
 21
1148.49999999985
 31
0.0
  0
LINE
  5
5A2
330
1F
100
AcDbEntity
  8
LAY-10
  6
CONTINUOUS
 62
     7
100
AcDbLine
 10
2062.395454429066
 20
1166.487806691191
 30
0.0
 11
2030.696969619183
 21
1198.186291501072
 31
0.0
  0
ARC
  5
5A3
330
1F
100
AcDbEntity
  8
LAY-10
  6
CONTINUOUS
 62
     7
100
AcDbCircle
 10
2024.696969619197
 20
1256.350000000062
 30
0.0
 40
3.000000000000003
100
AcDbArc
 50
0.0
 51
90.00000000000001
  0
ARC
  5
5A4
330
1F
100
AcDbEntity
  8
LAY-10
  6
CONTINUOUS
 62
     7
100
AcDbCircle
 10
2024.696969619197
 20
1256.350000000062
 30
0.0
 40
2.0
100
AcDbArc
 50
0.0
 51
90.00000000000001
  0
ARC
  5
5A5
330
1F
100
AcDbEntity
  8
LAY-10
  6
CONTINUOUS
 62
     7
100
AcDbCircle
 10
2024.696969619197
 20
1256.350000000062
 30
0.0
 40
1.0
100
AcDbArc
 50
0.0
 51
90.00000000000001
  0
ARC
  5
5A6
330
1F
100
AcDbEntity
  8
LAY-10
  6
CONTINUOUS
 62
     7
100
AcDbCircle
 10
2024.696969619197
 20
1228.650000000061
 30
0.0
 40
3.000000000000003
100
AcDbArc
 50
270.0
 51
0.0
  0
ARC
  5
5A7
330
1F
100
AcDbEntity
  8
LAY-10
  6
CONTINUOUS
 62
     7
100
AcDbCircle
 10
2024.696969619197
 20
1228.650000000061
 30
0.0
 40
2.0
100
AcDbArc
 50
270.0
 51
0.0
  0
ARC
  5
5A8
330
1F
100
AcDbEntity
  8
LAY-10
  6
CONTINUOUS
 62
     7
100
AcDbCircle
 10
2024.696969619197
 20
1228.650000000061
 30
0.0
 40
1.0
100
AcDbArc
 50
270.0
 51
0.0
  0
LINE
  5
5A9
330
1F
100
AcDbEntity
  8
LAY-10
  6
CONTINUOUS
 62
     7
100
AcDbLine
 10
2018.696969619205
 20
1262.500000000105
 30
0.0
 11
2018.696969619205
 21
1250.500000000061
 31
0.0
  0
ARC
  5
5AA
330
1F
100
AcDbEntity
  8
LAY-10
  6
CONTINUOUS
 62
     7
100
AcDbCircle
 10
2027.696969619205
 20
1261.500000000106
 30
0.0
 40
3.000000000000001
100
AcDbArc
 50
90.00000000000001
 51
180.0
  0
LINE
  5
5AB
330
1F
100
AcDbEntity
  8
LAY-10
  6
CONTINUOUS
 62
     7
100
AcDbLine
 10
2013.696969619199
 20
1218.500000000009
 30
0.0
 11
2013.696969619199
 21
1234.500000000062
 31
0.0
  0
LINE
  5
5AC
330
1F
100
AcDbEntity
  8
LAY-10
  6
CONTINUOUS
 62
     7
100
AcDbLine
 10
2013.696969619199
 20
1222.500000000047
 30
0.0
 11
2018.696969619198
 21
1222.500000000047
 31
0.0
  0
LINE
  5
5AD
330
1F
100
AcDbEntity
  8
LAY-10
  6
CONTINUOUS
 62
     7
100
AcDbLine
 10
2018.696969619201
 20
1262.500000000047
 30
0.0
 11
2013.696969619199
 21
1262.500000000047
 31
0.0
  0
LINE
  5
5AE
330
1F
100
AcDbEntity
  8
LAY-10
  6
CONTINUOUS
 62
     7
100
AcDbLine
 10
2013.696969619199
 20
1230.000000000047
 30
0.0
 11
2018.696969619198
 21
1230.000000000047
 31
0.0
  0
LINE
  5
5AF
330
1F
100
AcDbEntity
  8
LAY-10
  6
CONTINUOUS
 62
     7
100
AcDbLine
 10
2013.696969619199
 20
1255.000000000047
 30
0.0
 11
2018.696969619198
 21
1255.000000000047
 31
0.0
  0
LINE
  5
5B0
330
1F
100
AcDbEntity
  8
LAY-10
  6
CONTINUOUS
 62
     7
100
AcDbLine
 10
2126.696969619199
 20
1322.000000000194
 30
0.0
 11
2121.696969619202
 21
1322.000000000194
 31
0.0
  0
LINE
  5
5B1
330
1F
100
AcDbEntity
  8
LAY-10
  6
CONTINUOUS
 62
     7
100
AcDbLine
 10
2121.696969619202
 20
1282.000000000168
 30
0.0
 11
2126.69696961923
 21
1282.000000000168
 31
0.0
  0
LINE
  5
5B2
330
1F
100
AcDbEntity
  8
LAY-10
  6
CONTINUOUS
 62
     7
100
AcDbLine
 10
2126.696969619199
 20
2037.000000000084
 30
0.0
 11
2121.696969619202
 21
2037.000000000084
 31
0.0
  0
LINE
  5
5B3
330
1F
100
AcDbEntity
  8
LAY-10
  6
CONTINUOUS
 62
     7
100
AcDbLine
 10
2121.696969619202
 20
2077.000000000109
 30
0.0
 11
2126.69696961923
 21
2077.000000000109
 31
0.0
  0
LINE
  5
5B4
330
1F
100
AcDbEntity
  8
LAY-10
  6
CONTINUOUS
 62
     7
100
AcDbLine
 10
2018.696969619201
 20
2096.500000000044
 30
0.0
 11
2018.696969619201
 21
2108.500000000087
 31
0.0
  0
LINE
  5
5B5
330
1F
100
AcDbEntity
  8
LAY-10
  6
CONTINUOUS
 62
     7
100
AcDbLine
 10
2013.696969619198
 20
2136.500000000102
 30
0.0
 11
2018.696969619192
 21
2136.500000000102
 31
0.0
  0
LINE
  5
5B6
330
1F
100
AcDbEntity
  8
LAY-10
  6
CONTINUOUS
 62
     7
100
AcDbLine
 10
2018.6969696192
 20
2096.500000000102
 30
0.0
 11
2013.696969619196
 21
2096.500000000102
 31
0.0
  0
LINE
  5
5B7
330
1F
100
AcDbEntity
  8
LAY-10
  6
CONTINUOUS
 62
     7
100
AcDbLine
 10
2013.696969619198
 20
2129.000000000102
 30
0.0
 11
2018.696969619192
 21
2129.000000000102
 31
0.0
  0
LINE
  5
5B8
330
1F
100
AcDbEntity
  8
LAY-10
  6
CONTINUOUS
 62
     7
100
AcDbLine
 10
2013.696969619196
 20
2104.000000000102
 30
0.0
 11
2018.696969619192
 21
2104.000000000102
 31
0.0
  0
ARC
  5
5B9
330
1F
100
AcDbEntity
  8
LAY-10
  6
CONTINUOUS
 62
     7
100
AcDbCircle
 10
1344.001515189895
 20
478.999999999962
 30
0.0
 40
9.999999999999998
100
AcDbArc
 50
264.719129027609
 51
264.732151282235
  0
LINE
  5
5BA
330
1F
100
AcDbEntity
  8
LAY-10
  6
CONTINUOUS
 62
     7
100
AcDbLine
 10
1142.1015151898
 20
777.5792929682535
 30
0.0
 11
1142.1015151898
 21
782.0792929682543
 31
0.0
  0
LINE
  5
5BB
330
1F
100
AcDbEntity
  8
LAY-10
  6
CONTINUOUS
 62
     7
100
AcDbLine
 10
1137.101515189818
 20
777.5792989683064
 30
0.0
 11
1137.101515189818
 21
712.5792989683064
 31
0.0
  0
LINE
  5
5BC
330
1F
100
AcDbEntity
  8
LAY-10
  6
CONTINUOUS
 62
     7
100
AcDbLine
 10
1131.101515189816
 20
777.5792989683064
 30
0.0
 11
1131.101515189816
 21
712.5792989683064
 31
0.0
  0
LINE
  5
5BD
330
1F
100
AcDbEntity
  8
LAY-10
  6
CONTINUOUS
 62
     7
100
AcDbLine
 10
1144.101515190024
 20
777.5792929682535
 30
0.0
 11
1144.101515190024
 21
782.0792929682543
 31
0.0
  0
LINE
  5
5BE
330
1F
100
AcDbEntity
  8
LAY-10
  6
CONTINUOUS
 62
     7
100
AcDbLine
 10
1149.101515190006
 20
777.5792989683064
 30
0.0
 11
1149.101515190006
 21
712.5792989683064
 31
0.0
  0
LINE
  5
5BF
330
1F
100
AcDbEntity
  8
LAY-10
  6
CONTINUOUS
 62
     7
100
AcDbLine
 10
1155.101515190008
 20
777.5792989683064
 30
0.0
 11
1155.101515190008
 21
712.5792989683064
 31
0.0
  0
LINE
  5
5C0
330
1F
100
AcDbEntity
  8
LAY-10
  6
CONTINUOUS
 62
     7
100
AcDbLine
 10
1137.1015151898
 20
721.5792929682525
 30
0.0
 11
1149.10151519
 21
721.5792929682525
 31
0.0
  0
LINE
  5
5C1
330
1F
100
AcDbEntity
  8
LAY-10
  6
CONTINUOUS
 62
     7
100
AcDbLine
 10
1149.10151519
 20
726.5792929682525
 30
0.0
 11
1137.1015151898
 21
726.5792929682525
 31
0.0
  0
LINE
  5
5C2
330
1F
100
AcDbEntity
  8
LAY-10
  6
CONTINUOUS
 62
     7
100
AcDbLine
 10
746.1015151897993
 20
777.5792929682498
 30
0.0
 11
746.1015151897993
 21
782.0792929682498
 31
0.0
  0
LINE
  5
5C3
330
1F
100
AcDbEntity
  8
LAY-10
  6
CONTINUOUS
 62
     7
100
AcDbLine
 10
751.1015151898247
 20
777.5792989683027
 30
0.0
 11
751.1015151898247
 21
712.5792989683035
 31
0.0
  0
LINE
  5
5C4
330
1F
100
AcDbEntity
  8
LAY-10
  6
CONTINUOUS
 62
     7
100
AcDbLine
 10
757.1015151898243
 20
777.5792989683027
 30
0.0
 11
757.1015151898243
 21
712.5792989683035
 31
0.0
  0
LINE
  5
5C5
330
1F
100
AcDbEntity
  8
LAY-10
  6
CONTINUOUS
 62
     7
100
AcDbLine
 10
738.1015151900212
 20
782.0792929682525
 30
0.0
 11
744.1015151900644
 21
782.0792929682525
 31
0.0
  0
ARC
  5
5C6
330
1F
100
AcDbEntity
  8
LAY-10
  6
CONTINUOUS
 62
     7
100
AcDbCircle
 10
747.1015151900608
 20
621.0792929682816
 30
0.0
 40
3.000000000000001
100
AcDbArc
 50
180.0
 51
270.0
  0
ARC
  5
5C7
330
1F
100
AcDbEntity
  8
LAY-10
  6
CONTINUOUS
 62
     7
100
AcDbCircle
 10
747.1015151900608
 20
621.0792929682816
 30
0.0
 40
9.0
100
AcDbArc
 50
180.0
 51
270.0
  0
LINE
  5
5C8
330
1F
100
AcDbEntity
  8
LAY-10
  6
CONTINUOUS
 62
     7
100
AcDbLine
 10
744.1015151900644
 20
782.0792929682807
 30
0.0
 11
744.101515190063
 21
621.0792929682816
 31
0.0
  0
LINE
  5
5C9
330
1F
100
AcDbEntity
  8
LAY-10
  6
CONTINUOUS
 62
     7
100
AcDbLine
 10
738.1015151900649
 20
782.0792929682807
 30
0.0
 11
738.1015151900649
 21
621.0792929682816
 31
0.0
  0
LINE
  5
5CA
330
1F
100
AcDbEntity
  8
LAY-10
  6
CONTINUOUS
 62
     7
100
AcDbLine
 10
793.101515190119
 20
612.0792929682825
 30
0.0
 11
747.1015151900208
 21
612.0792929682825
 31
0.0
  0
LINE
  5
5CB
330
1F
100
AcDbEntity
  8
LAY-10
  6
CONTINUOUS
 62
     7
100
AcDbLine
 10
694.7461761307388
 20
684.7239539089865
 30
0.0
 11
730.1015151900608
 21
720.0792929683124
 31
0.0
  0
LINE
  5
5CC
330
1F
100
AcDbEntity
  8
LAY-10
  6
CONTINUOUS
 62
     7
100
AcDbLine
 10
700.4030303802263
 20
679.0670996594949
 30
0.0
 11
694.7461761307388
 21
684.7239539089865
 31
0.0
  0
LINE
  5
5CD
330
1F
100
AcDbEntity
  8
LAY-10
  6
CONTINUOUS
 62
     7
100
AcDbLine
 10
700.4030303802263
 20
679.0670996594949
 30
0.0
 11
735.7583694395581
 21
714.4224387188228
 31
0.0
  0
ARC
  5
5CE
330
1F
100
AcDbEntity
  8
LAY-10
  6
CONTINUOUS
 62
     7
100
AcDbCircle
 10
730.1015151900608
 20
720.0792929683124
 30
0.0
 40
8.0
100
AcDbArc
 50
315.0000000000093
 51
0.0
  0
LINE
  5
5CF
330
1F
100
AcDbEntity
  8
LAY-10
  6
CONTINUOUS
 62
     7
100
AcDbLine
 10
730.1015151900608
 20
720.0792929683124
 30
0.0
 11
730.1015151900608
 21
751.2655844693277
 31
0.0
  0
LINE
  5
5D0
330
1F
100
AcDbEntity
  8
LAY-10
  6
CONTINUOUS
 62
     7
100
AcDbLine
 10
730.1015151900608
 20
751.2655844693277
 30
0.0
 11
738.1015151900649
 21
751.2655844693277
 31
0.0
  0
LINE
  5
5D1
330
1F
100
AcDbEntity
  8
LAY-10
  6
CONTINUOUS
 62
     7
100
AcDbLine
 10
746.1015151898098
 20
782.0792929682507
 30
0.0
 11
1142.10151518982
 21
782.0792929682543
 31
0.0
  0
LINE
  5
5D2
330
1F
100
AcDbEntity
  8
LAY-10
  6
CONTINUOUS
 62
     7
100
AcDbLine
 10
746.1015151898098
 20
777.5792929682507
 30
0.0
 11
1142.10151518982
 21
777.5792929682535
 31
0.0
  0
LINE
  5
5D3
330
1F
100
AcDbEntity
  8
LAY-10
  6
CONTINUOUS
 62
     7
100
AcDbLine
 10
751.1015151898247
 20
726.5792929682525
 30
0.0
 11
744.1015151900999
 21
726.5792929682525
 31
0.0
  0
LINE
  5
5D4
330
1F
100
AcDbEntity
  8
LAY-10
  6
CONTINUOUS
 62
     7
100
AcDbLine
 10
744.1015151900999
 20
721.5792929682525
 30
0.0
 11
751.1015151898247
 21
721.5792929682525
 31
0.0
  0
LINE
  5
5D5
330
1F
100
AcDbEntity
  8
LAY-10
  6
CONTINUOUS
 62
     7
100
AcDbLine
 10
1548.101515189799
 20
782.0792929682525
 30
0.0
 11
1542.101515189756
 21
782.0792929682525
 31
0.0
  0
ARC
  5
5D6
330
1F
100
AcDbEntity
  8
LAY-10
  6
CONTINUOUS
 62
     7
100
AcDbCircle
 10
1539.101515189759
 20
621.0792929682816
 30
0.0
 40
3.000000000000001
100
AcDbArc
 50
270.0
 51
0.0
  0
ARC
  5
5D7
330
1F
100
AcDbEntity
  8
LAY-10
  6
CONTINUOUS
 62
     7
100
AcDbCircle
 10
1539.101515189759
 20
621.0792929682816
 30
0.0
 40
9.0
100
AcDbArc
 50
270.0
 51
0.0
  0
LINE
  5
5D8
330
1F
100
AcDbEntity
  8
LAY-10
  6
CONTINUOUS
 62
     7
100
AcDbLine
 10
1542.101515189756
 20
782.0792929682798
 30
0.0
 11
1542.101515189761
 21
621.0792929682816
 31
0.0
  0
LINE
  5
5D9
330
1F
100
AcDbEntity
  8
LAY-10
  6
CONTINUOUS
 62
     7
100
AcDbLine
 10
1548.101515189757
 20
782.0792929682798
 30
0.0
 11
1548.101515189761
 21
621.0792929682816
 31
0.0
  0
LINE
  5
5DA
330
1F
100
AcDbEntity
  8
LAY-10
  6
CONTINUOUS
 62
     7
100
AcDbLine
 10
1493.10151518973
 20
612.0792929682816
 30
0.0
 11
1493.10151518973
 21
618.0792929682998
 31
0.0
  0
LINE
  5
5DB
330
1F
100
AcDbEntity
  8
LAY-10
  6
CONTINUOUS
 62
     7
100
AcDbLine
 10
1591.456854249087
 20
684.7239539089855
 30
0.0
 11
1556.101515189759
 21
720.0792929683124
 31
0.0
  0
LINE
  5
5DC
330
1F
100
AcDbEntity
  8
LAY-10
  6
CONTINUOUS
 62
     7
100
AcDbLine
 10
1585.799999999597
 20
679.0670996594949
 30
0.0
 11
1591.456854249087
 21
684.7239539089855
 31
0.0
  0
LINE
  5
5DD
330
1F
100
AcDbEntity
  8
LAY-10
  6
CONTINUOUS
 62
     7
100
AcDbLine
 10
1585.799999999597
 20
679.0670996594949
 30
0.0
 11
1550.444660940268
 21
714.4224387188219
 31
0.0
  0
ARC
  5
5DE
330
1F
100
AcDbEntity
  8
LAY-10
  6
CONTINUOUS
 62
     7
100
AcDbCircle
 10
1556.101515189759
 20
720.0792929683124
 30
0.0
 40
8.0
100
AcDbArc
 50
180.0
 51
224.9999999999908
  0
LINE
  5
5DF
330
1F
100
AcDbEntity
  8
LAY-10
  6
CONTINUOUS
 62
     7
100
AcDbLine
 10
1556.101515189759
 20
720.0792929683124
 30
0.0
 11
1556.101515189759
 21
751.2655844693277
 31
0.0
  0
LINE
  5
5E0
330
1F
100
AcDbEntity
  8
LAY-10
  6
CONTINUOUS
 62
     7
100
AcDbLine
 10
1556.101515189759
 20
751.2655844693277
 30
0.0
 11
1548.101515189761
 21
751.2655844693277
 31
0.0
  0
LINE
  5
5E1
330
1F
100
AcDbEntity
  8
LAY-10
  6
CONTINUOUS
 62
     7
100
AcDbLine
 10
1493.10151518973
 20
612.0792929682816
 30
0.0
 11
1539.101515189805
 21
612.0792929682816
 31
0.0
  0
LINE
  5
5E2
330
1F
100
AcDbEntity
  8
LAY-10
  6
CONTINUOUS
 62
     7
100
AcDbLine
 10
1540.101515190025
 20
777.5792929682498
 30
0.0
 11
1540.101515190025
 21
782.0792929682498
 31
0.0
  0
LINE
  5
5E3
330
1F
100
AcDbEntity
  8
LAY-10
  6
CONTINUOUS
 62
     7
100
AcDbLine
 10
1535.10151519
 20
777.5792989683027
 30
0.0
 11
1535.10151519
 21
712.5792989683035
 31
0.0
  0
LINE
  5
5E4
330
1F
100
AcDbEntity
  8
LAY-10
  6
CONTINUOUS
 62
     7
100
AcDbLine
 10
1529.10151519
 20
777.5792989683027
 30
0.0
 11
1529.10151519
 21
712.5792989683035
 31
0.0
  0
LINE
  5
5E5
330
1F
100
AcDbEntity
  8
LAY-10
  6
CONTINUOUS
 62
     7
100
AcDbLine
 10
1540.101515190014
 20
782.0792929682507
 30
0.0
 11
1144.101515190004
 21
782.0792929682543
 31
0.0
  0
LINE
  5
5E6
330
1F
100
AcDbEntity
  8
LAY-10
  6
CONTINUOUS
 62
     7
100
AcDbLine
 10
1540.101515190014
 20
777.5792929682507
 30
0.0
 11
1144.101515190004
 21
777.5792929682535
 31
0.0
  0
LINE
  5
5E7
330
1F
100
AcDbEntity
  8
LAY-10
  6
CONTINUOUS
 62
     7
100
AcDbLine
 10
1542.101515189757
 20
726.5792929682525
 30
0.0
 11
1535.10151519
 21
726.5792929682525
 31
0.0
  0
LINE
  5
5E8
330
1F
100
AcDbEntity
  8
LAY-10
  6
CONTINUOUS
 62
     7
100
AcDbLine
 10
1535.10151519
 20
721.5792929682525
 30
0.0
 11
1542.101515189757
 21
721.5792929682534
 31
0.0
  0
LINE
  5
5E9
330
1F
100
AcDbEntity
  8
LAY-10
  6
CONTINUOUS
 62
     7
100
AcDbLine
 10
906.601515189768
 20
634.5792929683507
 30
0.0
 11
931.6015151897699
 21
634.5792929683507
 31
0.0
  0
LINE
  5
5EA
330
1F
100
AcDbEntity
  8
LAY-10
  6
CONTINUOUS
 62
     7
100
AcDbLine
 10
906.601515189768
 20
770.5792929683525
 30
0.0
 11
931.6015151897699
 21
770.5792929683525
 31
0.0
  0
LINE
  5
5EB
330
1F
100
AcDbEntity
  8
LAY-10
  6
CONTINUOUS
 62
     7
100
AcDbLine
 10
906.601515189768
 20
634.5792929683507
 30
0.0
 11
906.601515189768
 21
627.5792929683525
 31
0.0
  0
LINE
  5
5EC
330
1F
100
AcDbEntity
  8
LAY-10
  6
CONTINUOUS
 62
     7
100
AcDbLine
 10
906.601515189768
 20
770.5792929683525
 30
0.0
 11
906.601515189768
 21
777.5792929683525
 31
0.0
  0
LINE
  5
5ED
330
1F
100
AcDbEntity
  8
LAY-10
  6
CONTINUOUS
 62
     7
100
AcDbLine
 10
946.6015151897699
 20
760.5792929683525
 30
0.0
 11
946.6015151897699
 21
644.5792929683525
 31
0.0
  0
LINE
  5
5EE
330
1F
100
AcDbEntity
  8
LAY-10
  6
CONTINUOUS
 62
     7
100
AcDbLine
 10
941.601515189768
 20
760.5792929683525
 30
0.0
 11
941.601515189768
 21
644.5792929683525
 31
0.0
  0
LINE
  5
5EF
330
1F
100
AcDbEntity
  8
LAY-10
  6
CONTINUOUS
 62
     7
100
AcDbLine
 10
956.601515189768
 20
634.5792929683507
 30
0.0
 11
981.601515189768
 21
634.5792929683507
 31
0.0
  0
ARC
  5
5F0
330
1F
100
AcDbEntity
  8
LAY-10
  6
CONTINUOUS
 62
     7
100
AcDbCircle
 10
956.601515189768
 20
644.5792929683525
 30
0.0
 40
10.0
100
AcDbArc
 50
180.0
 51
270.0
  0
ARC
  5
5F1
330
1F
100
AcDbEntity
  8
LAY-10
  6
CONTINUOUS
 62
     7
100
AcDbCircle
 10
931.6015151897699
 20
644.5792929683525
 30
0.0
 40
10.0
100
AcDbArc
 50
270.0
 51
0.0
  0
LINE
  5
5F2
330
1F
100
AcDbEntity
  8
LAY-10
  6
CONTINUOUS
 62
     7
100
AcDbLine
 10
981.601515189768
 20
627.5792929683525
 30
0.0
 11
981.601515189768
 21
634.5792929683507
 31
0.0
  0
LINE
  5
5F3
330
1F
100
AcDbEntity
  8
LAY-10
  6
CONTINUOUS
 62
     7
100
AcDbLine
 10
956.601515189768
 20
770.5792929683525
 30
0.0
 11
981.601515189768
 21
770.5792929683525
 31
0.0
  0
ARC
  5
5F4
330
1F
100
AcDbEntity
  8
LAY-10
  6
CONTINUOUS
 62
     7
100
AcDbCircle
 10
956.601515189768
 20
760.5792929683525
 30
0.0
 40
10.0
100
AcDbArc
 50
90.00000000000001
 51
180.0
  0
ARC
  5
5F5
330
1F
100
AcDbEntity
  8
LAY-10
  6
CONTINUOUS
 62
     7
100
AcDbCircle
 10
931.6015151897699
 20
760.5792929683525
 30
0.0
 40
10.0
100
AcDbArc
 50
0.0
 51
90.00000000000001
  0
LINE
  5
5F6
330
1F
100
AcDbEntity
  8
LAY-10
  6
CONTINUOUS
 62
     7
100
AcDbLine
 10
981.601515189768
 20
770.5792929683525
 30
0.0
 11
981.601515189768
 21
777.5792929683525
 31
0.0
  0
LINE
  5
5F7
330
1F
100
AcDbEntity
  8
LAY-10
  6
CONTINUOUS
 62
     7
100
AcDbLine
 10
1041.601515189864
 20
634.5792929684526
 30
0.0
 11
1066.601515189864
 21
634.5792929684526
 31
0.0
  0
LINE
  5
5F8
330
1F
100
AcDbEntity
  8
LAY-10
  6
CONTINUOUS
 62
     7
100
AcDbLine
 10
1041.601515189864
 20
770.5792929684526
 30
0.0
 11
1066.601515189866
 21
770.5792929684526
 31
0.0
  0
LINE
  5
5F9
330
1F
100
AcDbEntity
  8
LAY-10
  6
CONTINUOUS
 62
     7
100
AcDbLine
 10
1041.601515189864
 20
634.5792929684526
 30
0.0
 11
1041.601515189864
 21
627.5792929684526
 31
0.0
  0
LINE
  5
5FA
330
1F
100
AcDbEntity
  8
LAY-10
  6
CONTINUOUS
 62
     7
100
AcDbLine
 10
1041.601515189864
 20
770.5792929684526
 30
0.0
 11
1041.601515189864
 21
777.5792929684526
 31
0.0
  0
LINE
  5
5FB
330
1F
100
AcDbEntity
  8
LAY-10
  6
CONTINUOUS
 62
     7
100
AcDbLine
 10
1081.601515189866
 20
760.5792929684526
 30
0.0
 11
1081.601515189866
 21
644.5792929684526
 31
0.0
  0
LINE
  5
5FC
330
1F
100
AcDbEntity
  8
LAY-10
  6
CONTINUOUS
 62
     7
100
AcDbLine
 10
1076.601515189868
 20
760.5792929684526
 30
0.0
 11
1076.601515189863
 21
644.5792929684526
 31
0.0
  0
LINE
  5
5FD
330
1F
100
AcDbEntity
  8
LAY-10
  6
CONTINUOUS
 62
     7
100
AcDbLine
 10
1091.601515189862
 20
634.5792929684526
 30
0.0
 11
1116.601515189864
 21
634.5792929684526
 31
0.0
  0
ARC
  5
5FE
330
1F
100
AcDbEntity
  8
LAY-10
  6
CONTINUOUS
 62
     7
100
AcDbCircle
 10
1091.601515189862
 20
644.5792929684526
 30
0.0
 40
10.0
100
AcDbArc
 50
180.0
 51
270.0
  0
ARC
  5
5FF
330
1F
100
AcDbEntity
  8
LAY-10
  6
CONTINUOUS
 62
     7
100
AcDbCircle
 10
1066.601515189864
 20
644.5792929684526
 30
0.0
 40
10.0
100
AcDbArc
 50
270.0
 51
0.0
  0
LINE
  5
600
330
1F
100
AcDbEntity
  8
LAY-10
  6
CONTINUOUS
 62
     7
100
AcDbLine
 10
1091.601515189862
 20
770.5792929684526
 30
0.0
 11
1116.601515189864
 21
770.5792929684526
 31
0.0
  0
ARC
  5
601
330
1F
100
AcDbEntity
  8
LAY-10
  6
CONTINUOUS
 62
     7
100
AcDbCircle
 10
1091.601515189862
 20
760.5792929684526
 30
0.0
 40
10.0
100
AcDbArc
 50
90.00000000000001
 51
180.0
  0
ARC
  5
602
330
1F
100
AcDbEntity
  8
LAY-10
  6
CONTINUOUS
 62
     7
100
AcDbCircle
 10
1066.601515189866
 20
760.5792929684526
 30
0.0
 40
10.0
100
AcDbArc
 50
0.0
 51
90.00000000000001
  0
LINE
  5
603
330
1F
100
AcDbEntity
  8
LAY-10
  6
CONTINUOUS
 62
     7
100
AcDbLine
 10
1116.601515189864
 20
770.5792929684526
 30
0.0
 11
1116.601515189864
 21
777.5792929684526
 31
0.0
  0
LINE
  5
604
330
1F
100
AcDbEntity
  8
LAY-10
  6
CONTINUOUS
 62
     7
100
AcDbLine
 10
1116.601515189864
 20
623.0792929684271
 30
0.0
 11
1116.601515189864
 21
634.5792929684526
 31
0.0
  0
LINE
  5
605
330
1F
100
AcDbEntity
  8
LAY-10
  6
CONTINUOUS
 62
     7
100
AcDbLine
 10
1076.601515189863
 20
712.5792989684528
 30
0.0
 11
946.6015151897699
 21
712.5792989683528
 31
0.0
  0
LINE
  5
606
330
1F
100
AcDbEntity
  8
LAY-10
  6
CONTINUOUS
 62
     7
100
AcDbLine
 10
771.6015151897643
 20
770.5792929684526
 30
0.0
 11
796.6015151897643
 21
770.5792929684526
 31
0.0
  0
LINE
  5
607
330
1F
100
AcDbEntity
  8
LAY-10
  6
CONTINUOUS
 62
     7
100
AcDbLine
 10
771.6015151897643
 20
634.5792929684526
 30
0.0
 11
796.6015151897608
 21
634.5792929684526
 31
0.0
  0
LINE
  5
608
330
1F
100
AcDbEntity
  8
LAY-10
  6
CONTINUOUS
 62
     7
100
AcDbLine
 10
771.6015151897643
 20
770.5792929684526
 30
0.0
 11
771.6015151897643
 21
777.5792929684526
 31
0.0
  0
LINE
  5
609
330
1F
100
AcDbEntity
  8
LAY-10
  6
CONTINUOUS
 62
     7
100
AcDbLine
 10
846.6015151897643
 20
770.5792929684526
 30
0.0
 11
846.6015151897643
 21
777.5792929684526
 31
0.0
  0
LINE
  5
60A
330
1F
100
AcDbEntity
  8
LAY-10
  6
CONTINUOUS
 62
     7
100
AcDbLine
 10
846.6015151897643
 20
627.5792929684526
 30
0.0
 11
846.6015151897643
 21
634.5792929684526
 31
0.0
  0
LINE
  5
60B
330
1F
100
AcDbEntity
  8
LAY-10
  6
CONTINUOUS
 62
     7
100
AcDbLine
 10
806.6015151897643
 20
760.5792929684526
 30
0.0
 11
806.6015151897643
 21
644.5792929684544
 31
0.0
  0
LINE
  5
60C
330
1F
100
AcDbEntity
  8
LAY-10
  6
CONTINUOUS
 62
     7
100
AcDbLine
 10
811.6015151897643
 20
760.5792929684526
 30
0.0
 11
811.6015151897643
 21
644.5792929684544
 31
0.0
  0
LINE
  5
60D
330
1F
100
AcDbEntity
  8
LAY-10
  6
CONTINUOUS
 62
     7
100
AcDbLine
 10
821.6015151897643
 20
770.5792929684526
 30
0.0
 11
846.6015151897643
 21
770.5792929684526
 31
0.0
  0
LINE
  5
60E
330
1F
100
AcDbEntity
  8
LAY-10
  6
CONTINUOUS
 62
     7
100
AcDbLine
 10
821.6015151897643
 20
634.5792929684526
 30
0.0
 11
846.6015151897643
 21
634.5792929684526
 31
0.0
  0
ARC
  5
60F
330
1F
100
AcDbEntity
  8
LAY-10
  6
CONTINUOUS
 62
     7
100
AcDbCircle
 10
796.6015151897608
 20
644.5792929684544
 30
0.0
 40
10.0
100
AcDbArc
 50
270.0
 51
0.0
  0
ARC
  5
610
330
1F
100
AcDbEntity
  8
LAY-10
  6
CONTINUOUS
 62
     7
100
AcDbCircle
 10
821.6015151897643
 20
644.5792929684544
 30
0.0
 40
10.0
100
AcDbArc
 50
180.0
 51
270.0
  0
ARC
  5
611
330
1F
100
AcDbEntity
  8
LAY-10
  6
CONTINUOUS
 62
     7
100
AcDbCircle
 10
796.6015151897643
 20
760.5792929684526
 30
0.0
 40
10.0
100
AcDbArc
 50
0.0
 51
90.00000000000001
  0
ARC
  5
612
330
1F
100
AcDbEntity
  8
LAY-10
  6
CONTINUOUS
 62
     7
100
AcDbCircle
 10
821.6015151897643
 20
760.5792929684526
 30
0.0
 40
10.0
100
AcDbArc
 50
90.00000000000001
 51
180.0
  0
LINE
  5
613
330
1F
100
AcDbEntity
  8
LAY-10
  6
CONTINUOUS
 62
     7
100
AcDbLine
 10
771.6015151897643
 20
634.5792929684526
 30
0.0
 11
771.6015151897643
 21
623.0792929684271
 31
0.0
  0
LINE
  5
614
330
1F
100
AcDbEntity
  8
LAY-10
  6
CONTINUOUS
 62
     7
100
AcDbLine
 10
771.6015211897663
 20
627.5792929684526
 30
0.0
 11
1116.601515189864
 21
627.5792929684526
 31
0.0
  0
LINE
  5
615
330
1F
100
AcDbEntity
  8
LAY-10
  6
CONTINUOUS
 62
     7
100
AcDbLine
 10
806.6015151897643
 20
712.5792989683018
 30
0.0
 11
751.1015151898247
 21
712.5792989683027
 31
0.0
  0
LINE
  5
616
330
1F
100
AcDbEntity
  8
LAY-10
  6
CONTINUOUS
 62
     7
100
AcDbLine
 10
941.601515189768
 20
712.5792989683528
 30
0.0
 11
811.6015151897643
 21
712.5792989683528
 31
0.0
  0
LINE
  5
617
330
1F
100
AcDbEntity
  8
LAY-10
  6
CONTINUOUS
 62
     7
100
AcDbLine
 10
1137.101515189818
 20
712.5792989683064
 30
0.0
 11
1081.601515189866
 21
712.5792989683064
 31
0.0
  0
LINE
  5
618
330
1F
100
AcDbEntity
  8
LAY-10
  6
CONTINUOUS
 62
     7
100
AcDbLine
 10
1379.601515190057
 20
634.5792929683507
 30
0.0
 11
1354.601515190056
 21
634.5792929683507
 31
0.0
  0
LINE
  5
619
330
1F
100
AcDbEntity
  8
LAY-10
  6
CONTINUOUS
 62
     7
100
AcDbLine
 10
1379.601515190058
 20
770.5792929683525
 30
0.0
 11
1354.601515190056
 21
770.5792929683525
 31
0.0
  0
LINE
  5
61A
330
1F
100
AcDbEntity
  8
LAY-10
  6
CONTINUOUS
 62
     7
100
AcDbLine
 10
1379.601515190057
 20
634.5792929683507
 30
0.0
 11
1379.601515190057
 21
627.5792929683525
 31
0.0
  0
LINE
  5
61B
330
1F
100
AcDbEntity
  8
LAY-10
  6
CONTINUOUS
 62
     7
100
AcDbLine
 10
1379.601515190058
 20
770.5792929683525
 30
0.0
 11
1379.601515190058
 21
777.5792929683525
 31
0.0
  0
LINE
  5
61C
330
1F
100
AcDbEntity
  8
LAY-10
  6
CONTINUOUS
 62
     7
100
AcDbLine
 10
1339.601515190056
 20
760.5792929683525
 30
0.0
 11
1339.601515190056
 21
644.5792929683525
 31
0.0
  0
LINE
  5
61D
330
1F
100
AcDbEntity
  8
LAY-10
  6
CONTINUOUS
 62
     7
100
AcDbLine
 10
1344.601515190058
 20
760.5792929683525
 30
0.0
 11
1344.601515190057
 21
644.5792929683525
 31
0.0
  0
LINE
  5
61E
330
1F
100
AcDbEntity
  8
LAY-10
  6
CONTINUOUS
 62
     7
100
AcDbLine
 10
1329.601515190057
 20
634.5792929683507
 30
0.0
 11
1304.601515190057
 21
634.5792929683507
 31
0.0
  0
ARC
  5
61F
330
1F
100
AcDbEntity
  8
LAY-10
  6
CONTINUOUS
 62
     7
100
AcDbCircle
 10
1329.601515190057
 20
644.5792929683525
 30
0.0
 40
10.0
100
AcDbArc
 50
270.0
 51
0.0
  0
ARC
  5
620
330
1F
100
AcDbEntity
  8
LAY-10
  6
CONTINUOUS
 62
     7
100
AcDbCircle
 10
1354.601515190056
 20
644.5792929683525
 30
0.0
 40
10.0
100
AcDbArc
 50
180.0
 51
270.0
  0
LINE
  5
621
330
1F
100
AcDbEntity
  8
LAY-10
  6
CONTINUOUS
 62
     7
100
AcDbLine
 10
1304.601515190057
 20
627.5792929683525
 30
0.0
 11
1304.601515190057
 21
634.5792929683507
 31
0.0
  0
LINE
  5
622
330
1F
100
AcDbEntity
  8
LAY-10
  6
CONTINUOUS
 62
     7
100
AcDbLine
 10
1329.601515190058
 20
770.5792929683525
 30
0.0
 11
1304.601515190058
 21
770.5792929683525
 31
0.0
  0
ARC
  5
623
330
1F
100
AcDbEntity
  8
LAY-10
  6
CONTINUOUS
 62
     7
100
AcDbCircle
 10
1329.601515190058
 20
760.5792929683525
 30
0.0
 40
10.0
100
AcDbArc
 50
0.0
 51
90.00000000000001
  0
ARC
  5
624
330
1F
100
AcDbEntity
  8
LAY-10
  6
CONTINUOUS
 62
     7
100
AcDbCircle
 10
1354.601515190056
 20
760.5792929683525
 30
0.0
 40
10.0
100
AcDbArc
 50
90.00000000000001
 51
180.0
  0
LINE
  5
625
330
1F
100
AcDbEntity
  8
LAY-10
  6
CONTINUOUS
 62
     7
100
AcDbLine
 10
1304.601515190058
 20
770.5792929683525
 30
0.0
 11
1304.601515190058
 21
777.5792929683525
 31
0.0
  0
LINE
  5
626
330
1F
100
AcDbEntity
  8
LAY-10
  6
CONTINUOUS
 62
     7
100
AcDbLine
 10
1244.601515189961
 20
634.5792929684526
 30
0.0
 11
1219.601515189961
 21
634.5792929684526
 31
0.0
  0
LINE
  5
627
330
1F
100
AcDbEntity
  8
LAY-10
  6
CONTINUOUS
 62
     7
100
AcDbLine
 10
1244.601515189961
 20
770.5792929684526
 30
0.0
 11
1219.601515189959
 21
770.5792929684526
 31
0.0
  0
LINE
  5
628
330
1F
100
AcDbEntity
  8
LAY-10
  6
CONTINUOUS
 62
     7
100
AcDbLine
 10
1244.601515189961
 20
634.5792929684526
 30
0.0
 11
1244.601515189961
 21
627.5792929684526
 31
0.0
  0
LINE
  5
629
330
1F
100
AcDbEntity
  8
LAY-10
  6
CONTINUOUS
 62
     7
100
AcDbLine
 10
1244.601515189961
 20
770.5792929684526
 30
0.0
 11
1244.601515189961
 21
777.5792929684526
 31
0.0
  0
LINE
  5
62A
330
1F
100
AcDbEntity
  8
LAY-10
  6
CONTINUOUS
 62
     7
100
AcDbLine
 10
1204.601515189959
 20
760.5792929684526
 30
0.0
 11
1204.601515189959
 21
644.5792929684526
 31
0.0
  0
LINE
  5
62B
330
1F
100
AcDbEntity
  8
LAY-10
  6
CONTINUOUS
 62
     7
100
AcDbLine
 10
1209.601515189957
 20
760.5792929684526
 30
0.0
 11
1209.601515189963
 21
644.5792929684526
 31
0.0
  0
LINE
  5
62C
330
1F
100
AcDbEntity
  8
LAY-10
  6
CONTINUOUS
 62
     7
100
AcDbLine
 10
1194.601515189963
 20
634.5792929684526
 30
0.0
 11
1169.601515189961
 21
634.5792929684526
 31
0.0
  0
ARC
  5
62D
330
1F
100
AcDbEntity
  8
LAY-10
  6
CONTINUOUS
 62
     7
100
AcDbCircle
 10
1194.601515189963
 20
644.5792929684526
 30
0.0
 40
10.0
100
AcDbArc
 50
270.0
 51
0.0
  0
ARC
  5
62E
330
1F
100
AcDbEntity
  8
LAY-10
  6
CONTINUOUS
 62
     7
100
AcDbCircle
 10
1219.601515189961
 20
644.5792929684526
 30
0.0
 40
10.0
100
AcDbArc
 50
180.0
 51
270.0
  0
LINE
  5
62F
330
1F
100
AcDbEntity
  8
LAY-10
  6
CONTINUOUS
 62
     7
100
AcDbLine
 10
1194.601515189963
 20
770.5792929684526
 30
0.0
 11
1169.601515189961
 21
770.5792929684526
 31
0.0
  0
ARC
  5
630
330
1F
100
AcDbEntity
  8
LAY-10
  6
CONTINUOUS
 62
     7
100
AcDbCircle
 10
1194.601515189963
 20
760.5792929684526
 30
0.0
 40
10.0
100
AcDbArc
 50
0.0
 51
90.00000000000001
  0
ARC
  5
631
330
1F
100
AcDbEntity
  8
LAY-10
  6
CONTINUOUS
 62
     7
100
AcDbCircle
 10
1219.601515189959
 20
760.5792929684526
 30
0.0
 40
10.0
100
AcDbArc
 50
90.00000000000001
 51
180.0
  0
LINE
  5
632
330
1F
100
AcDbEntity
  8
LAY-10
  6
CONTINUOUS
 62
     7
100
AcDbLine
 10
1169.601515189961
 20
770.5792929684526
 30
0.0
 11
1169.601515189961
 21
777.5792929684526
 31
0.0
  0
LINE
  5
633
330
1F
100
AcDbEntity
  8
LAY-10
  6
CONTINUOUS
 62
     7
100
AcDbLine
 10
1169.601515189961
 20
623.0792929684271
 30
0.0
 11
1169.601515189961
 21
634.5792929684526
 31
0.0
  0
LINE
  5
634
330
1F
100
AcDbEntity
  8
LAY-10
  6
CONTINUOUS
 62
     7
100
AcDbLine
 10
1209.601515189963
 20
712.5792989684528
 30
0.0
 11
1339.601515190056
 21
712.5792989683528
 31
0.0
  0
LINE
  5
635
330
1F
100
AcDbEntity
  8
LAY-10
  6
CONTINUOUS
 62
     7
100
AcDbLine
 10
1514.601515190061
 20
770.5792929684526
 30
0.0
 11
1489.601515190061
 21
770.5792929684526
 31
0.0
  0
LINE
  5
636
330
1F
100
AcDbEntity
  8
LAY-10
  6
CONTINUOUS
 62
     7
100
AcDbLine
 10
1514.601515190061
 20
634.5792929684526
 30
0.0
 11
1489.601515190065
 21
634.5792929684526
 31
0.0
  0
LINE
  5
637
330
1F
100
AcDbEntity
  8
LAY-10
  6
CONTINUOUS
 62
     7
100
AcDbLine
 10
1514.601515190061
 20
770.5792929684526
 30
0.0
 11
1514.601515190061
 21
777.5792929684526
 31
0.0
  0
LINE
  5
638
330
1F
100
AcDbEntity
  8
LAY-10
  6
CONTINUOUS
 62
     7
100
AcDbLine
 10
1439.601515190061
 20
770.5792929684526
 30
0.0
 11
1439.601515190061
 21
777.5792929684526
 31
0.0
  0
LINE
  5
639
330
1F
100
AcDbEntity
  8
LAY-10
  6
CONTINUOUS
 62
     7
100
AcDbLine
 10
1439.601515190061
 20
627.5792929684526
 30
0.0
 11
1439.601515190061
 21
634.5792929684526
 31
0.0
  0
LINE
  5
63A
330
1F
100
AcDbEntity
  8
LAY-10
  6
CONTINUOUS
 62
     7
100
AcDbLine
 10
1479.601515190061
 20
760.5792929684526
 30
0.0
 11
1479.601515190061
 21
644.5792929684544
 31
0.0
  0
LINE
  5
63B
330
1F
100
AcDbEntity
  8
LAY-10
  6
CONTINUOUS
 62
     7
100
AcDbLine
 10
1474.601515190061
 20
760.5792929684526
 30
0.0
 11
1474.601515190061
 21
644.5792929684544
 31
0.0
  0
LINE
  5
63C
330
1F
100
AcDbEntity
  8
LAY-10
  6
CONTINUOUS
 62
     7
100
AcDbLine
 10
1464.601515190061
 20
770.5792929684526
 30
0.0
 11
1439.601515190061
 21
770.5792929684526
 31
0.0
  0
LINE
  5
63D
330
1F
100
AcDbEntity
  8
LAY-10
  6
CONTINUOUS
 62
     7
100
AcDbLine
 10
1464.601515190061
 20
634.5792929684526
 30
0.0
 11
1439.601515190061
 21
634.5792929684526
 31
0.0
  0
ARC
  5
63E
330
1F
100
AcDbEntity
  8
LAY-10
  6
CONTINUOUS
 62
     7
100
AcDbCircle
 10
1489.601515190065
 20
644.5792929684544
 30
0.0
 40
10.0
100
AcDbArc
 50
180.0
 51
270.0
  0
ARC
  5
63F
330
1F
100
AcDbEntity
  8
LAY-10
  6
CONTINUOUS
 62
     7
100
AcDbCircle
 10
1464.601515190061
 20
644.5792929684544
 30
0.0
 40
10.0
100
AcDbArc
 50
270.0
 51
0.0
  0
ARC
  5
640
330
1F
100
AcDbEntity
  8
LAY-10
  6
CONTINUOUS
 62
     7
100
AcDbCircle
 10
1489.601515190061
 20
760.5792929684526
 30
0.0
 40
10.0
100
AcDbArc
 50
90.00000000000001
 51
180.0
  0
ARC
  5
641
330
1F
100
AcDbEntity
  8
LAY-10
  6
CONTINUOUS
 62
     7
100
AcDbCircle
 10
1464.601515190061
 20
760.5792929684526
 30
0.0
 40
10.0
100
AcDbArc
 50
0.0
 51
90.00000000000001
  0
LINE
  5
642
330
1F
100
AcDbEntity
  8
LAY-10
  6
CONTINUOUS
 62
     7
100
AcDbLine
 10
1514.601515190061
 20
634.5792929684526
 30
0.0
 11
1514.601515190061
 21
623.0792929684271
 31
0.0
  0
LINE
  5
643
330
1F
100
AcDbEntity
  8
LAY-10
  6
CONTINUOUS
 62
     7
100
AcDbLine
 10
1514.601509190059
 20
627.5792929684526
 30
0.0
 11
1169.601515189961
 21
627.5792929684526
 31
0.0
  0
LINE
  5
644
330
1F
100
AcDbEntity
  8
LAY-10
  6
CONTINUOUS
 62
     7
100
AcDbLine
 10
1344.601515190057
 20
712.5792989683528
 30
0.0
 11
1474.601515190061
 21
712.5792989683528
 31
0.0
  0
LINE
  5
645
330
1F
100
AcDbEntity
  8
LAY-10
  6
CONTINUOUS
 62
     7
100
AcDbLine
 10
1149.101515190006
 20
712.5792989683064
 30
0.0
 11
1204.601515189959
 21
712.5792989683064
 31
0.0
  0
LINE
  5
646
330
1F
100
AcDbEntity
  8
LAY-10
  6
CONTINUOUS
 62
     7
100
AcDbLine
 10
1479.601515190061
 20
712.5792989683018
 30
0.0
 11
1535.10151519
 21
712.5792989683027
 31
0.0
  0
LINE
  5
647
330
1F
100
AcDbEntity
  8
LAY-10
  6
CONTINUOUS
 62
     7
100
AcDbLine
 10
793.1015151900995
 20
612.0792929682998
 30
0.0
 11
793.1015151900995
 21
618.0792929682743
 31
0.0
  0
LINE
  5
648
330
1F
100
AcDbEntity
  8
LAY-10
  6
CONTINUOUS
 62
     7
100
AcDbLine
 10
1539.101515189752
 20
623.0792929682707
 30
0.0
 11
747.1015151900881
 21
623.079292968278
 31
0.0
  0
LINE
  5
649
330
1F
100
AcDbEntity
  8
LAY-10
  6
CONTINUOUS
 62
     7
100
AcDbLine
 10
747.1015151900989
 20
618.0792929682998
 30
0.0
 11
747.1015151900989
 21
623.079292968278
 31
0.0
  0
LINE
  5
64A
330
1F
100
AcDbEntity
  8
LAY-10
  6
CONTINUOUS
 62
     7
100
AcDbLine
 10
1539.101515190001
 20
623.0792929682998
 30
0.0
 11
1539.101515190001
 21
618.0792929682998
 31
0.0
  0
LINE
  5
64B
330
1F
100
AcDbEntity
  8
LAY-10
  6
CONTINUOUS
 62
     7
100
AcDbLine
 10
747.1015151900208
 20
618.0792929682816
 30
0.0
 11
1539.10151519
 21
618.0792929682649
 31
0.0
  0
LINE
  5
64C
330
1F
100
AcDbEntity
  8
LAY-10
  6
CENTER
 62
     2
100
AcDbLine
 10
690.2015151898979
 20
1929.500000000162
 30
0.0
 11
738.1015151898064
 21
1929.500000000162
 31
0.0
  0
LINE
  5
64D
330
1F
100
AcDbEntity
  8
LAY-10
  6
CENTER
 62
     2
100
AcDbLine
 10
690.2015151898979
 20
1429.500000000086
 30
0.0
 11
738.1015151898064
 21
1429.500000000086
 31
0.0
  0
LINE
  5
64E
330
1F
100
AcDbEntity
  8
LAY-10
  6
CENTER
 62
     2
100
AcDbLine
 10
1596.001515190114
 20
1929.50000000016
 30
0.0
 11
1548.101515190206
 21
1929.50000000016
 31
0.0
  0
LINE
  5
64F
330
1F
100
AcDbEntity
  8
LAY-10
  6
CENTER
 62
     2
100
AcDbLine
 10
1596.001515190112
 20
1429.500000000085
 30
0.0
 11
1548.101515190203
 21
1429.500000000085
 31
0.0
  0
LINE
  5
650
330
1F
100
AcDbEntity
  8
LAY-10
  6
CENTER
 62
     2
100
AcDbLine
 10
675.6015151898644
 20
1679.500000000075
 30
0.0
 11
1621.000000000002
 21
1679.500000000075
 31
0.0
  0
LINE
  5
651
330
1F
100
AcDbEntity
  8
LAY-10
  6
CENTER
 62
     2
100
AcDbLine
 10
1083.601515189818
 20
2087.100000000298
 30
0.0
 11
1083.601515189806
 21
2148.500000000166
 31
0.0
  0
LINE
  5
652
330
1F
100
AcDbEntity
  8
LAY-10
  6
CENTER
 62
     2
100
AcDbLine
 10
1053.101515190032
 20
2116.500000000163
 30
0.0
 11
1115.151515189809
 21
2116.500000000172
 31
0.0
  0
LINE
  5
653
330
1F
100
AcDbEntity
  8
LAY-10
  6
CENTER
 62
     2
100
AcDbLine
 10
835.1015151895882
 20
2116.500000000165
 30
0.0
 11
773.0515151898069
 21
2116.500000000174
 31
0.0
  0
LINE
  5
654
330
1F
100
AcDbEntity
  8
LAY-10
  6
CENTER
 62
     2
100
AcDbLine
 10
804.6015151898025
 20
2087.1000000003
 30
0.0
 11
804.6015151898138
 21
2148.500000000169
 31
0.0
  0
LINE
  5
655
330
1F
100
AcDbEntity
  8
LAY-10
  6
CENTER
 62
     2
100
AcDbLine
 10
1481.601515190118
 20
2087.100000000298
 30
0.0
 11
1481.601515190107
 21
2148.500000000166
 31
0.0
  0
LINE
  5
656
330
1F
100
AcDbEntity
  8
LAY-10
  6
CENTER
 62
     2
100
AcDbLine
 10
1451.101515190332
 20
2116.500000000163
 30
0.0
 11
1513.151515190109
 21
2116.500000000172
 31
0.0
  0
LINE
  5
657
330
1F
100
AcDbEntity
  8
LAY-10
  6
CENTER
 62
     2
100
AcDbLine
 10
1233.101515189879
 20
1242.500000000136
 30
0.0
 11
1171.0515151901
 21
1242.500000000126
 31
0.0
  0
LINE
  5
658
330
1F
100
AcDbEntity
  8
LAY-10
  6
CENTER
 62
     2
100
AcDbLine
 10
1202.601515190094
 20
1271.900000000001
 30
0.0
 11
1202.601515190103
 21
1210.500000000131
 31
0.0
  0
LINE
  5
659
330
1F
100
AcDbEntity
  8
LAY-10
  6
CENTER
 62
     2
100
AcDbLine
 10
835.1015151895788
 20
1242.500000000136
 30
0.0
 11
773.0515151897996
 21
1242.500000000126
 31
0.0
  0
LINE
  5
65A
330
1F
100
AcDbEntity
  8
LAY-10
  6
CENTER
 62
     2
100
AcDbLine
 10
804.6015151897936
 20
1271.900000000001
 30
0.0
 11
804.6015151898025
 21
1210.500000000131
 31
0.0
  0
LINE
  5
65B
330
1F
100
AcDbEntity
  8
LAY-10
  6
CENTER
 62
     2
100
AcDbLine
 10
1451.101515190312
 20
1242.500000000035
 30
0.0
 11
1513.151515190093
 21
1242.500000000026
 31
0.0
  0
LINE
  5
65C
330
1F
100
AcDbEntity
  8
LAY-10
  6
CENTER
 62
     2
100
AcDbLine
 10
1481.601515190097
 20
1271.899999999901
 30
0.0
 11
1481.601515190087
 21
1210.500000000032
 31
0.0
  0
LINE
  5
65D
330
1F
100
AcDbEntity
  8
LAY-10
  6
CENTER
 62
     2
100
AcDbLine
 10
1143.101515190006
 20
2213.300000000173
 30
0.0
 11
1143.101515190005
 21
1145.0000000001
 31
0.0
  0
LINE
  5
65E
330
1F
100
AcDbEntity
  8
LAY-10
  6
CENTER
 62
     2
100
AcDbLine
 10
1958.801515189997
 20
2116.500000000116
 30
0.0
 11
2039.201515189998
 21
2116.500000000116
 31
0.0
  0
LINE
  5
65F
330
1F
100
AcDbEntity
  8
LAY-10
  6
CENTER
 62
     2
100
AcDbLine
 10
1958.801515190003
 20
1242.500000000033
 30
0.0
 11
2039.20151519
 21
1242.500000000033
 31
0.0
  0
LINE
  5
660
330
1F
100
AcDbEntity
  8
LAY-10
  6
CENTER
 62
     2
100
AcDbLine
 10
1233.10151518986
 20
2116.500000000165
 30
0.0
 11
1171.051515190079
 21
2116.500000000174
 31
0.0
  0
LINE
  5
661
330
1F
100
AcDbEntity
  8
LAY-10
  6
CENTER
 62
     2
100
AcDbLine
 10
1202.601515190075
 20
2087.1000000003
 30
0.0
 11
1202.601515190086
 21
2148.500000000169
 31
0.0
  0
LINE
  5
662
330
1F
100
AcDbEntity
  8
LAY-10
  6
CENTER
 62
     2
100
AcDbLine
 10
1053.10151519006
 20
1242.500000000075
 30
0.0
 11
1115.151515189841
 21
1242.500000000066
 31
0.0
  0
LINE
  5
663
330
1F
100
AcDbEntity
  8
LAY-10
  6
CENTER
 62
     2
100
AcDbLine
 10
1083.601515189846
 20
1271.89999999994
 30
0.0
 11
1083.601515189835
 21
1210.500000000071
 31
0.0
  0
LINE
  5
664
330
1F
100
AcDbEntity
  8
LAY-10
  6
CENTER
 62
     2
100
AcDbLine
 10
1942.8
 20
1679.500000000075
 30
0.0
 11
2139.6
 21
1679.500000000075
 31
0.0
  0
LINE
  5
665
330
1F
100
AcDbEntity
  8
LAY-10
  6
CENTER
 62
     2
100
AcDbLine
 10
1441.981515190246
 20
1242.500000000008
 30
0.0
 11
1410.181515190247
 21
1242.500000000008
 31
0.0
  0
LINE
  5
666
330
1F
100
AcDbEntity
  8
LAY-10
  6
CENTER
 62
     2
100
AcDbLine
 10
1426.601515190185
 20
1257.512558883303
 30
0.0
 11
1426.601515190183
 21
1226.552558883302
 31
0.0
  0
LINE
  5
667
330
1F
100
AcDbEntity
  8
LAY-10
  6
CENTER
 62
     2
100
AcDbLine
 10
1257.601515190003
 20
1257.512558883403
 30
0.0
 11
1257.601515190006
 21
1226.552558883402
 31
0.0
  0
LINE
  5
668
330
1F
100
AcDbEntity
  8
LAY-10
  6
CENTER
 62
     2
100
AcDbLine
 10
1242.221515189945
 20
1242.500000000108
 30
0.0
 11
1274.021515189943
 21
1242.500000000108
 31
0.0
  0
LINE
  5
669
330
1F
100
AcDbEntity
  8
LAY-10
  6
CENTER
 62
     2
100
AcDbLine
 10
1028.601515189933
 20
1257.512558883343
 30
0.0
 11
1028.601515189931
 21
1226.552558883341
 31
0.0
  0
LINE
  5
66A
330
1F
100
AcDbEntity
  8
LAY-10
  6
CENTER
 62
     2
100
AcDbLine
 10
1043.981515189994
 20
1242.500000000048
 30
0.0
 11
1012.181515189995
 21
1242.500000000048
 31
0.0
  0
LINE
  5
66B
330
1F
100
AcDbEntity
  8
LAY-10
  6
CENTER
 62
     2
100
AcDbLine
 10
859.6015151897027
 20
1257.512558883403
 30
0.0
 11
859.6015151897061
 21
1226.552558883402
 31
0.0
  0
LINE
  5
66C
330
1F
100
AcDbEntity
  8
LAY-10
  6
CENTER
 62
     2
100
AcDbLine
 10
844.2215151896454
 20
1242.500000000108
 30
0.0
 11
876.0215151896426
 21
1242.500000000108
 31
0.0
  0
LINE
  5
66D
330
1F
100
AcDbEntity
  8
LAY-10
  6
CENTER
 62
     2
100
AcDbLine
 10
859.6015151897154
 20
2101.487441116897
 30
0.0
 11
859.6015151897171
 21
2132.447441116899
 31
0.0
  0
LINE
  5
66E
330
1F
100
AcDbEntity
  8
LAY-10
  6
CENTER
 62
     2
100
AcDbLine
 10
844.2215151896542
 20
2116.500000000192
 30
0.0
 11
876.0215151896537
 21
2116.500000000192
 31
0.0
  0
LINE
  5
66F
330
1F
100
AcDbEntity
  8
LAY-10
  6
CENTER
 62
     2
100
AcDbLine
 10
1028.601515189905
 20
2101.487441116895
 30
0.0
 11
1028.601515189903
 21
2132.447441116897
 31
0.0
  0
LINE
  5
670
330
1F
100
AcDbEntity
  8
LAY-10
  6
CENTER
 62
     2
100
AcDbLine
 10
1043.981515189962
 20
2116.50000000019
 30
0.0
 11
1012.181515189967
 21
2116.50000000019
 31
0.0
  0
LINE
  5
671
330
1F
100
AcDbEntity
  8
LAY-10
  6
CENTER
 62
     2
100
AcDbLine
 10
1257.601515189987
 20
2101.487441116897
 30
0.0
 11
1257.601515189989
 21
2132.447441116899
 31
0.0
  0
LINE
  5
672
330
1F
100
AcDbEntity
  8
LAY-10
  6
CENTER
 62
     2
100
AcDbLine
 10
1242.221515189926
 20
2116.500000000192
 30
0.0
 11
1274.021515189926
 21
2116.500000000192
 31
0.0
  0
LINE
  5
673
330
1F
100
AcDbEntity
  8
LAY-10
  6
CENTER
 62
     2
100
AcDbLine
 10
1426.601515190205
 20
2101.487441116895
 30
0.0
 11
1426.601515190203
 21
2132.447441116897
 31
0.0
  0
LINE
  5
674
330
1F
100
AcDbEntity
  8
LAY-10
  6
CENTER
 62
     2
100
AcDbLine
 10
1441.981515190262
 20
2116.50000000019
 30
0.0
 11
1410.181515190267
 21
2116.50000000019
 31
0.0
  0
LINE
  5
675
330
1F
100
AcDbEntity
  8
LAY-10
  6
CENTER
 62
     2
100
AcDbLine
 10
1380.150000000204
 20
2185.500000000229
 30
0.0
 11
1414.950000000203
 21
2185.500000000229
 31
0.0
  0
LINE
  5
676
330
1F
100
AcDbEntity
  8
LAY-10
  6
CENTER
 62
     2
100
AcDbLine
 10
1398.101515190003
 20
2222.049999999999
 30
0.0
 11
1398.101515190003
 21
2160.5000000003
 31
0.0
  0
LINE
  5
677
330
1F
100
AcDbEntity
  8
LAY-10
  6
CENTER
 62
     2
100
AcDbLine
 10
906.0530303798175
 20
2185.50000000023
 30
0.0
 11
871.2530303798184
 21
2185.50000000023
 31
0.0
  0
LINE
  5
678
330
1F
100
AcDbEntity
  8
LAY-10
  6
CENTER
 62
     2
100
AcDbLine
 10
888.1015151900164
 20
2222.05
 30
0.0
 11
888.1015151900164
 21
2160.500000000301
 31
0.0
  0
LINE
  5
679
330
1F
100
AcDbEntity
  8
LAY-10
  6
CENTER
 62
     2
100
AcDbLine
 10
1380.150000000204
 20
1173.49999999992
 30
0.0
 11
1414.950000000203
 21
1173.49999999992
 31
0.0
  0
LINE
  5
67A
330
1F
100
AcDbEntity
  8
LAY-10
  6
CENTER
 62
     2
100
AcDbLine
 10
1398.101515190003
 20
1136.95000000015
 30
0.0
 11
1398.101515190003
 21
1198.499999999849
 31
0.0
  0
LINE
  5
67B
330
1F
100
AcDbEntity
  8
LAY-10
  6
CENTER
 62
     2
100
AcDbLine
 10
906.0530303798175
 20
1173.499999999919
 30
0.0
 11
871.2530303798184
 21
1173.499999999919
 31
0.0
  0
LINE
  5
67C
330
1F
100
AcDbEntity
  8
LAY-10
  6
CENTER
 62
     2
100
AcDbLine
 10
888.1015151900164
 20
1136.950000000149
 30
0.0
 11
888.1015151900164
 21
1198.499999999848
 31
0.0
  0
LINE
  5
67D
330
1F
100
AcDbEntity
  8
LAY-10
  6
CENTER
 62
     2
100
AcDbLine
 10
2019.349999999963
 20
2185.500000000192
 30
0.0
 11
2037.79999999996
 21
2185.500000000192
 31
0.0
  0
LINE
  5
67E
330
1F
100
AcDbEntity
  8
LAY-10
  6
CENTER
 62
     2
100
AcDbLine
 10
2019.349999999963
 20
1173.499999999957
 30
0.0
 11
2037.79999999996
 21
1173.499999999957
 31
0.0
  0
LINE
  5
67F
330
1F
100
AcDbEntity
  8
LAY-10
  6
CENTER
 62
     2
100
AcDbLine
 10
1143.101515189912
 20
800.3777777784003
 30
0.0
 11
1143.101515189912
 21
602.9999999999999
 31
0.0
  0
DIMENSION
  5
680
330
1F
100
AcDbEntity
  8
LAY-20
  6
CONTINUOUS
 62
     4
100
AcDbDimension
  2
*D24
 10
1284.0
 20
782.07929296825
 30
0.0
 11
1259.0
 21
847.0792929682495
 31
0.0
 70
   160
  3
ISO-25
100
AcDbAlignedDimension
 13
1284.0
 23
777.5792929682501
 33
0.0
 14
1284.0
 24
782.07929296825
 34
0.0
 50
90.0
100
AcDbRotatedDimension
1001
ACAD
1000
DSTYLE
1002
{
1070
   270
1070
     2
1070
     6
1000
EX_BNORM
1070
     7
1000
EX_BNORM
1070
    41
1040
25.0
1070
    42
1040
0.0
1070
    44
1040
0.0
1070
    73
1070
     0
1070
    74
1070
     0
1070
    75
1070
     1
1070
    76
1070
     1
1070
    77
1070
     1
1070
    78
1070
     8
1070
   140
1040
31.181104
1070
   147
1040
0.0
1070
   173
1070
     1
1070
   176
1070
     4
1070
   177
1070
     4
1070
   178
1070
     7
1070
   271
1070
     1
1070
   277
1070
     2
1070
   279
1070
     2
1070
   280
1070
     2
1070
   287
1070
     5
1070
   340
1005
ED
1002
}
  0
LINE
  5
68D
330
1F
100
AcDbEntity
  8
LAY-255
  6
CONTINUOUS
 62
     7
100
AcDbLine
 10
3850.0
 20
219.9999999999999
 30
0.0
 11
2850.0
 21
219.9999999999999
 31
0.0
  0
LINE
  5
68E
330
1F
100
AcDbEntity
  8
LAY-255
  6
CONTINUOUS
 62
     7
100
AcDbLine
 10
2888.0
 20
160.0
 30
0.0
 11
2968.0
 21
210.0
 31
0.0
  0
LINE
  5
68F
330
1F
100
AcDbEntity
  8
LAY-255
  6
CONTINUOUS
 62
     7
100
AcDbLine
 10
2968.0
 20
210.0
 30
0.0
 11
3048.0
 21
160.0
 31
0.0
  0
LINE
  5
690
330
1F
100
AcDbEntity
  8
LAY-255
  6
CONTINUOUS
 62
     7
100
AcDbLine
 10
3048.0
 20
160.0
 30
0.0
 11
2968.0
 21
110.0
 31
0.0
  0
LINE
  5
691
330
1F
100
AcDbEntity
  8
LAY-255
  6
CONTINUOUS
 62
     7
100
AcDbLine
 10
2968.0
 20
110.0
 30
0.0
 11
2888.0
 21
160.0
 31
0.0
  0
LINE
  5
692
330
1F
100
AcDbEntity
  8
LAY-255
  6
CONTINUOUS
 62
     7
100
AcDbLine
 10
50.0
 20
100.0
 30
0.0
 11
3850.0
 21
100.0
 31
0.0
  0
LINE
  5
693
330
1F
100
AcDbEntity
  8
LAY-255
  6
CONTINUOUS
 62
     7
100
AcDbLine
 10
50.0
 20
2800.0
 30
0.0
 11
3850.0
 21
2800.0
 31
0.0
  0
LINE
  5
694
330
1F
100
AcDbEntity
  8
LAY-255
  6
CONTINUOUS
 62
     7
100
AcDbLine
 10
50.0
 20
100.0
 30
0.0
 11
50.0
 21
2800.0
 31
0.0
  0
LINE
  5
695
330
1F
100
AcDbEntity
  8
LAY-255
  6
CONTINUOUS
 62
     7
100
AcDbLine
 10
3850.0
 20
100.0
 30
0.0
 11
3850.0
 21
2800.0
 31
0.0
  0
LINE
  5
696
330
1F
100
AcDbEntity
  8
LAY-255
  6
CONTINUOUS
 62
     4
100
AcDbLine
 10
2850.0
 20
279.9999999999999
 30
0.0
 11
3850.0
 21
279.9999999999999
 31
0.0
  0
LINE
  5
697
330
1F
100
AcDbEntity
  8
LAY-255
  6
CONTINUOUS
 62
     7
100
AcDbLine
 10
2850.0
 20
100.0
 30
0.0
 11
2850.0
 21
670.0
 31
0.0
  0
POINT
  5
698
330
1F
100
AcDbEntity
  8
LAY-255
  6
CONTINUOUS
 62
     7
100
AcDbPoint
 10
2890.0
 20
399.9999999999999
 30
0.0
  0
LINE
  5
699
330
1F
100
AcDbEntity
  8
LAY-255
  6
CONTINUOUS
 62
     4
100
AcDbLine
 10
3350.0
 20
279.9999999999999
 30
0.0
 11
3350.0
 21
220.0
 31
0.0
  0
LINE
  5
69A
330
1F
100
AcDbEntity
  8
LAY-255
  6
CONTINUOUS
 62
     7
100
AcDbLine
 10
3850.0
 20
670.0
 30
0.0
 11
2850.0
 21
670.0
 31
0.0
  0
LINE
  5
69B
330
1F
100
AcDbEntity
  8
LAY-255
  6
CONTINUOUS
 62
     4
100
AcDbLine
 10
3830.0
 20
549.9999999999999
 30
0.0
 11
2870.0
 21
549.9999999999999
 31
0.0
  0
LINE
  5
69C
330
1F
100
AcDbEntity
  8
LAY-255
  6
CONTINUOUS
 62
     4
100
AcDbLine
 10
3830.0
 20
610.0
 30
0.0
 11
2870.0
 21
610.0
 31
0.0
  0
POINT
  5
69D
330
1F
100
AcDbEntity
  8
LAY-255
  6
CONTINUOUS
 62
     7
100
AcDbPoint
 10
2890.0
 20
499.9999999999999
 30
0.0
  0
POINT
  5
69E
330
1F
100
AcDbEntity
  8
LAY-255
  6
CONTINUOUS
 62
     7
100
AcDbPoint
 10
3000.0
 20
559.9999999999999
 30
0.0
  0
POINT
  5
69F
330
1F
100
AcDbEntity
  8
LAY-255
  6
CONTINUOUS
 62
     7
100
AcDbPoint
 10
3000.0
 20
620.0
 30
0.0
  0
POINT
  5
6A0
330
1F
100
AcDbEntity
  8
LAY-255
  6
CONTINUOUS
 62
     7
100
AcDbPoint
 10
2890.0
 20
349.9999999999999
 30
0.0
  0
POINT
  5
6A1
330
1F
100
AcDbEntity
  8
LAY-255
  6
CONTINUOUS
 62
     7
100
AcDbPoint
 10
2890.0
 20
449.9999999999999
 30
0.0
  0
POINT
  5
6A2
330
1F
100
AcDbEntity
  8
LAY-255
  6
CONTINUOUS
 62
     7
100
AcDbPoint
 10
2890.0
 20
299.9999999999998
 30
0.0
  0
TEXT
  5
6A3
330
1F
100
AcDbEntity
  8
LAY-255
  6
CONTINUOUS
 62
     7
100
AcDbText
 10
3081.3837890625
 20
155.4375
 30
0.0
 40
51.5625
  1
福西鋳物株式会社
 41
1.342691999659091
  7
EXCADSTD
100
AcDbText
  0
TEXT
  5
6A4
330
1F
100
AcDbEntity
  8
LAY-255
  6
CONTINUOUS
 62
     7
100
AcDbText
 10
3085.09375
 20
119.8125
 30
0.0
 40
17.1875
  1
ＦＵＫＵＮＩＳＨＩ
 41
1.204799226045263
  7
EXCADSTD
100
AcDbText
  0
TEXT
  5
6A5
330
1F
100
AcDbEntity
  8
LAY-255
  6
CONTINUOUS
 62
     7
100
AcDbText
 10
3327.191964285714
 20
119.8125
 30
0.0
 40
17.1875
  1
ＦＯＵＮＤＲＹ
 41
1.243252752978497
  7
EXCADSTD
100
AcDbText
  0
TEXT
  5
6A6
330
1F
100
AcDbEntity
  8
LAY-255
  6
CONTINUOUS
 62
     7
100
AcDbText
 10
3519.945914381009
 20
119.8125
 30
0.0
 40
17.1875
  1
ＣＯ.,ＬＴＤ.
 41
1.243831036226633
  7
EXCADSTD
100
AcDbText
  0
TEXT
  5
6A7
330
1F
100
AcDbEntity
  8
LAY-255
  6
CONTINUOUS
 62
     7
100
AcDbText
 10
2940.34375
 20
137.1875
 30
0.0
 40
51.5625
  1
S
 41
0.7582677563636363
  7
EXCADSTD
100
AcDbText
  0
TEXT
  5
6A8
330
1F
100
AcDbEntity
  8
LAY-255
  6
CONTINUOUS
 62
     7
100
AcDbText
 10
2971.046875
 20
137.4941037736
 30
0.0
 40
51.5625
  1
F
 41
0.7440945272727272
  7
EXCADSTD
100
AcDbText
  0
TEXT
  5
6A9
330
1F
100
AcDbEntity
  8
LAY-255
  6
CONTINUOUS
 62
     7
100
AcDbText
 10
3371.0546875
 20
244.2187499999999
 30
0.0
 40
25.78125
  1
縮尺
 41
1.080708718181818
  7
EXCADSTD
100
AcDbText
  0
TEXT
  5
6AA
330
1F
100
AcDbEntity
  8
LAY-255
  6
CONTINUOUS
 62
     7
100
AcDbText
 10
2872.65625
 20
565.6249999999999
 30
0.0
 40
34.375
  1
型式
 41
1.056348480681818
  7
EXCADSTD
100
AcDbText
  0
TEXT
  5
6AB
330
1F
100
AcDbEntity
  8
LAY-255
  6
CONTINUOUS
 62
     7
100
AcDbText
 10
2874.21875
 20
625.625
 30
0.0
 40
34.375
  1
品名
 41
0.9788386340909091
  7
EXCADSTD
100
AcDbText
  0
TEXT
  5
6AC
330
1F
100
AcDbEntity
  8
LAY-255
  6
CONTINUOUS
 62
     7
100
AcDbText
 10
2871.5234375
 20
244.2187499999999
 30
0.0
 40
25.78125
  1
作成日
 41
1.000629973818182
  7
EXCADSTD
100
AcDbText
  0
TEXT
  5
6AD
330
1F
100
AcDbEntity
  8
LAY-255
  6
CONTINUOUS
 62
     7
100
AcDbText
 10
3001.5625
 20
625.625
 30
0.0
 40
34.375
  1
縞鋼板製マシンハッチ
 41
1.016284949586777
  7
EXCADSTD
100
AcDbText
  0
TEXT
  5
6AE
330
1F
100
AcDbEntity
  8
LAY-255
  6
CONTINUOUS
 62
     7
100
AcDbText
 10
3012.8125
 20
235.6249999999999
 30
0.0
 40
34.375
  1
１７／０７／２５
 41
0.9652981384415584
  7
EXCADSTD
100
AcDbText
  0
TEXT
  5
6AF
330
1F
100
AcDbEntity
  8
LAY-255
  6
CONTINUOUS
 62
     7
100
AcDbText
 10
2891.40625
 20
505.6249999999999
 30
0.0
 40
34.375
  1
材質：スチール（溶融亜鉛めっき）
 41
0.9761562007682457
  7
EXCADSTD
100
AcDbText
  0
TEXT
  5
6B0
330
1F
100
AcDbEntity
  8
LAY-255
  6
CONTINUOUS
 62
     7
100
AcDbText
 10
2893.90625
 20
455.725
 30
0.0
 40
34.375
  1
構造：ボルト固定式
 41
1.021279830379747
  7
EXCADSTD
100
AcDbText
  0
TEXT
  5
6B1
330
1F
100
AcDbEntity
  8
LAY-255
  6
CONTINUOUS
 62
     7
100
AcDbText
 10
3007.5
 20
565.6249999999999
 30
0.0
 40
34.375
  1
ＳＦ－７０ＣＭ－２５Ｒ型
 41
1.00449418439108
  7
EXCADSTD
100
AcDbText
  0
TEXT
  5
6B2
330
1F
100
AcDbEntity
  8
LAY-255
  6
CONTINUOUS
 62
     7
100
AcDbText
 10
2892.03125
 20
405.6249999999999
 30
0.0
 40
34.375
  1
適用荷重：Ｔ－２５
 41
1.00109643452244
  7
EXCADSTD
100
AcDbText
  0
TEXT
  5
6B3
330
1F
100
AcDbEntity
  8
LAY-255
  6
CONTINUOUS
 62
     7
100
AcDbText
 10
3482.8125
 20
235.6249999999999
 30
0.0
 40
34.375
  1
１：１０
 41
0.9243863385026738
  7
EXCADSTD
100
AcDbText
  0
ENDSEC
  0
SECTION
  2
OBJECTS
  0
DICTIONARY
  5
C
330
0
100
AcDbDictionary
  3
ACAD_GROUP
350
D
  3
ACAD_LAYOUT
350
1A
  3
ACAD_MATERIAL
350
43
  3
ACAD_MLEADERSTYLE
350
6B
  3
ACAD_MLINESTYLE
350
17
  3
ACAD_PLOTSETTINGS
350
19
  3
ACAD_SCALELIST
350
47
  3
ACAD_VISUALSTYLE
350
2A
  3
ACDBHEADERROUNDTRIPXREC
350
6B4
  3
ACDBVARIABLEDICTIONARY
350
6D5
  0
DICTIONARY
  5
6E0
330
8
100
AcDbDictionary
280
     1
  3
ACAD_XREC_ROUNDTRIP
360
6E1
  0
DICTIONARY
  5
D
102
{ACAD_REACTORS
330
C
102
}
330
C
100
AcDbDictionary
  0
DICTIONARY
  5
1A
102
{ACAD_REACTORS
330
C
102
}
330
C
100
AcDbDictionary
  0
DICTIONARY
  5
43
102
{ACAD_REACTORS
330
C
102
}
330
C
100
AcDbDictionary
  3
BYBLOCK
350
45
  3
BYLAYER
350
44
  3
GLOBAL
350
46
  0
DICTIONARY
  5
6B
102
{ACAD_REACTORS
330
C
102
}
330
C
100
AcDbDictionary
  3
STANDARD
350
6C
  0
DICTIONARY
  5
17
102
{ACAD_REACTORS
330
C
102
}
330
C
100
AcDbDictionary
  3
STANDARD
350
18
  0
DICTIONARY
  5
19
102
{ACAD_REACTORS
330
C
102
}
330
C
100
AcDbDictionary
  0
DICTIONARY
  5
47
102
{ACAD_REACTORS
330
C
102
}
330
C
100
AcDbDictionary
  3
A0
350
48
  3
A1
350
49
  3
A2
350
4A
  3
A3
350
4B
  3
A4
350
4C
  3
A5
350
4D
  3
A6
350
4E
  3
A7
350
4F
  3
A8
350
50
  3
A9
350
51
  3
B0
350
52
  3
B1
350
53
  3
B2
350
54
  3
B3
350
55
  3
B4
350
56
  3
B5
350
57
  3
B6
350
58
  3
B7
350
59
  3
B8
350
5A
  3
B9
350
5B
  3
C0
350
5C
  3
C1
350
5D
  3
C2
350
5E
  3
C3
350
5F
  3
C4
350
60
  3
C5
350
61
  3
C6
350
62
  3
C7
350
63
  3
C8
350
64
  3
C9
350
65
  3
D0
350
66
  3
D1
350
67
  3
D2
350
68
  0
DICTIONARY
  5
2A
102
{ACAD_REACTORS
330
C
102
}
330
C
100
AcDbDictionary
  3
2DWIREFRAME
350
2F
  3
BASIC
350
32
  3
BRIGHTEN
350
36
  3
COLORCHANGE
350
3A
  3
CONCEPTUAL
350
34
  3
DIM
350
35
  3
EDGECOLOROFF
350
3D
  3
FACEPATTERN
350
39
  3
FLAT
350
2B
  3
FLATWITHEDGES
350
2C
  3
GOURAUD
350
2D
  3
GOURAUDWITHEDGES
350
2E
  3
HIDDEN
350
31
  3
JITTEROFF
350
3B
  3
LINEPATTERN
350
38
  3
OVERHANGOFF
350
3C
  3
REALISTIC
350
33
  3
SHADED
350
42
  3
SHADED_WITH_EDGES
350
41
  3
SHADES_OF_GRAY
350
3E
  3
SKETCHY
350
3F
  3
THICKEN
350
37
  3
WIREFRAME
350
30
  3
X-RAY
350
40
  0
DICTIONARY
  5
6B4
102
{ACAD_REACTORS
330
C
102
}
330
C
100
AcDbDictionary
  3
CEPSNID
350
6BE
  3
CEPSNTYPE
350
6BD
  3
DIMSTYLEDATA
350
6D4
  3
FINGERPRINTGUID
350
6BF
  3
HYPERLINKBASE
350
6B7
  3
INSUNITS
350
6BC
  3
LAYOUTDICT
350
6B9
  3
LWETCUNION
350
6BB
  3
PLOTSETDICT
350
6BA
  3
PSVPSCALE
350
6C1
  3
PUCSBASE
350
6C4
  3
PUCSORGBACK
350
6CA
  3
PUCSORGBOTTOM
350
6C6
  3
PUCSORGFRONT
350
6C9
  3
PUCSORGLEFT
350
6C7
  3
PUCSORGRIGHT
350
6C8
  3
PUCSORGTOP
350
6C5
  3
PUCSORTHOREF
350
6C2
  3
PUCSORTHOVIEW
350
6C3
  3
STYLESHEET
350
6B8
  3
TSTACKALIGN
350
6B5
  3
TSTACKSIZE
350
6B6
  3
UCSBASE
350
6CD
  3
UCSORGBACK
350
6D3
  3
UCSORGBOTTOM
350
6CF
  3
UCSORGFRONT
350
6D2
  3
UCSORGLEFT
350
6D0
  3
UCSORGRIGHT
350
6D1
  3
UCSORGTOP
350
6CE
  3
UCSORTHOREF
350
6CB
  3
UCSORTHOVIEW
350
6CC
  3
VERSIONGUID
350
6C0
  0
DICTIONARY
  5
6D5
102
{ACAD_REACTORS
330
C
102
}
330
C
100
AcDbDictionary
  3
CANNOSCALE
350
6E2
  3
CENTEREXE
350
6DC
  3
CENTERLTYPEFILE
350
6DD
  3
CMLEADERSTYLE
350
6D7
  3
CTABLESTYLE
350
6D6
  3
DIMASSOC
350
6DE
  3
HIDETEXT
350
6DF
  3
MSLTSCALE
350
6E3
  3
PSOLHEIGHT
350
6D9
  3
PSOLWIDTH
350
6D8
  0
XRECORD
  5
6E1
102
{ACAD_REACTORS
330
6E0
102
}
330
6E0
100
AcDbXrecord
102
VTR_0.000_0.000_1.000_1.000_VISUALSTYLE
340
2F
102
VTR_0.000_0.000_1.000_1.000_GRIDDISPLAY
 70
     3
102
VTR_0.000_0.000_1.000_1.000_GRIDMAJOR
 70
     5
102
VTR_0.000_0.000_1.000_1.000_DEFAULTLIGHTING
280
     1
102
VTR_0.000_0.000_1.000_1.000_DEFAULTLIGHTINGTYPE
 70
     1
102
VTR_0.000_0.000_1.000_1.000_BRIGHTNESS
141
0.0
102
VTR_0.000_0.000_1.000_1.000_CONTRAST
142
0.0
  0
MATERIAL
  5
45
102
{ACAD_REACTORS
330
43
102
}
102
{ACAD_XDICTIONARY
360
6E6
102
}
330
43
100
AcDbMaterial
  1
BYBLOCK
  0
MATERIAL
  5
44
102
{ACAD_REACTORS
330
43
102
}
102
{ACAD_XDICTIONARY
360
6E4
102
}
330
43
100
AcDbMaterial
  1
BYLAYER
  0
MATERIAL
  5
46
102
{ACAD_REACTORS
330
43
102
}
102
{ACAD_XDICTIONARY
360
6E8
102
}
330
43
100
AcDbMaterial
  1
GLOBAL
  0
ACAD_PROXY_OBJECT
  5
6C
102
{ACAD_REACTORS
330
6B
102
}
330
6B
100
AcDbProxyObject
 90
      499
 91
      505
 93
      610
310
40901902A4063FBFFFFFE0000000000000020400000000000020404214DD185B99185C990000000000000104090141901A00000000000004100000000000000041025764000000000000039000
340
14
340
0
340
11
340
0
 94
        0
1001
ACAD_MLEADERVER
1070
     2
  0
MLINESTYLE
  5
18
102
{ACAD_REACTORS
330
17
102
}
330
17
100
AcDbMlineStyle
  2
Standard
 70
     0
  3

 62
   256
 51
90.0
 52
90.0
 71
     2
 49
0.5
 62
   256
  6
BYLAYER
 49
-0.5
 62
   256
  6
BYLAYER
  0
ACAD_PROXY_OBJECT
  5
48
102
{ACAD_REACTORS
330
47
102
}
330
47
100
AcDbProxyObject
 90
      499
 91
      503
 93
       41
310
903313A31580
  0
ACAD_PROXY_OBJECT
  5
49
102
{ACAD_REACTORS
330
47
102
}
330
47
100
AcDbProxyObject
 90
      499
 91
      503
 93
      105
310
903313A324000000000000004000
  0
ACAD_PROXY_OBJECT
  5
4A
102
{ACAD_REACTORS
330
47
102
}
330
47
100
AcDbProxyObject
 90
      499
 91
      503
 93
      105
310
903313A344000000000000104000
  0
ACAD_PROXY_OBJECT
  5
4B
102
{ACAD_REACTORS
330
47
102
}
330
47
100
AcDbProxyObject
 90
      499
 91
      503
 93
      105
310
903313A354000000000000144000
  0
ACAD_PROXY_OBJECT
  5
4C
102
{ACAD_REACTORS
330
47
102
}
330
47
100
AcDbProxyObject
 90
      499
 91
      503
 93
      105
310
903313A384000000000000204000
  0
ACAD_PROXY_OBJECT
  5
4D
102
{ACAD_REACTORS
330
47
102
}
330
47
100
AcDbProxyObject
 90
      499
 91
      503
 93
      113
310
904313A31304000000000000244000
  0
ACAD_PROXY_OBJECT
  5
4E
102
{ACAD_REACTORS
330
47
102
}
330
47
100
AcDbProxyObject
 90
      499
 91
      503
 93
      113
310
904313A31364000000000000304000
  0
ACAD_PROXY_OBJECT
  5
4F
102
{ACAD_REACTORS
330
47
102
}
330
47
100
AcDbProxyObject
 90
      499
 91
      503
 93
      113
310
904313A32304000000000000344000
  0
ACAD_PROXY_OBJECT
  5
50
102
{ACAD_REACTORS
330
47
102
}
330
47
100
AcDbProxyObject
 90
      499
 91
      503
 93
      113
310
904313A333040000000000003E4000
  0
ACAD_PROXY_OBJECT
  5
51
102
{ACAD_REACTORS
330
47
102
}
330
47
100
AcDbProxyObject
 90
      499
 91
      503
 93
      113
310
904313A34304000000000000444000
  0
ACAD_PROXY_OBJECT
  5
52
102
{ACAD_REACTORS
330
47
102
}
330
47
100
AcDbProxyObject
 90
      499
 91
      503
 93
      113
310
904313A35304000000000000494000
  0
ACAD_PROXY_OBJECT
  5
53
102
{ACAD_REACTORS
330
47
102
}
330
47
100
AcDbProxyObject
 90
      499
 91
      503
 93
      121
310
905313A3130304000000000000594000
  0
ACAD_PROXY_OBJECT
  5
54
102
{ACAD_REACTORS
330
47
102
}
330
47
100
AcDbProxyObject
 90
      499
 91
      503
 93
      105
310
903323A310000000000000010100
  0
ACAD_PROXY_OBJECT
  5
55
102
{ACAD_REACTORS
330
47
102
}
330
47
100
AcDbProxyObject
 90
      499
 91
      503
 93
      105
310
903343A310000000000000410100
  0
ACAD_PROXY_OBJECT
  5
56
102
{ACAD_REACTORS
330
47
102
}
330
47
100
AcDbProxyObject
 90
      499
 91
      503
 93
      105
310
903383A310000000000000810100
  0
ACAD_PROXY_OBJECT
  5
57
102
{ACAD_REACTORS
330
47
102
}
330
47
100
AcDbProxyObject
 90
      499
 91
      503
 93
      113
310
90431303A310000000000000910100
  0
ACAD_PROXY_OBJECT
  5
58
102
{ACAD_REACTORS
330
47
102
}
330
47
100
AcDbProxyObject
 90
      499
 91
      503
 93
      121
310
9053130303A310000000000001650100
  0
ACAD_PROXY_OBJECT
  5
59
102
{ACAD_REACTORS
330
47
102
}
330
47
100
AcDbProxyObject
 90
      499
 91
      503
 93
      257
310
90E312F31323822203D2031272D3022000000000000200FC000000000000284000
  0
ACAD_PROXY_OBJECT
  5
5A
102
{ACAD_REACTORS
330
47
102
}
330
47
100
AcDbProxyObject
 90
      499
 91
      503
 93
      249
310
90D312F363422203D2031272D3022000000000000240FC000000000000284000
  0
ACAD_PROXY_OBJECT
  5
5B
102
{ACAD_REACTORS
330
47
102
}
330
47
100
AcDbProxyObject
 90
      499
 91
      503
 93
      249
310
90D312F333222203D2031272D3022000000000000280FC000000000000284000
  0
ACAD_PROXY_OBJECT
  5
5C
102
{ACAD_REACTORS
330
47
102
}
330
47
100
AcDbProxyObject
 90
      499
 91
      503
 93
      249
310
90D312F313622203D2031272D30220000000000002C0FC000000000000284000
  0
ACAD_PROXY_OBJECT
  5
5D
102
{ACAD_REACTORS
330
47
102
}
330
47
100
AcDbProxyObject
 90
      499
 91
      503
 93
      249
310
90D332F333222203D2031272D30220000000000002E0FC000000000000284000
  0
ACAD_PROXY_OBJECT
  5
5E
102
{ACAD_REACTORS
330
47
102
}
330
47
100
AcDbProxyObject
 90
      499
 91
      503
 93
      241
310
90C312F3822203D2031272D3022000000000000300FC000000000000284000
  0
ACAD_PROXY_OBJECT
  5
5F
102
{ACAD_REACTORS
330
47
102
}
330
47
100
AcDbProxyObject
 90
      499
 91
      503
 93
      249
310
90D332F313622203D2031272D3022000000000000320FC000000000000284000
  0
ACAD_PROXY_OBJECT
  5
60
102
{ACAD_REACTORS
330
47
102
}
330
47
100
AcDbProxyObject
 90
      499
 91
      503
 93
      241
310
90C312F3422203D2031272D3022000000000000340FC000000000000284000
  0
ACAD_PROXY_OBJECT
  5
61
102
{ACAD_REACTORS
330
47
102
}
330
47
100
AcDbProxyObject
 90
      499
 91
      503
 93
      241
310
90C332F3822203D2031272D3022000000000000360FC000000000000284000
  0
ACAD_PROXY_OBJECT
  5
62
102
{ACAD_REACTORS
330
47
102
}
330
47
100
AcDbProxyObject
 90
      499
 91
      503
 93
      241
310
90C312F3222203D2031272D3022000000000000380FC000000000000284000
  0
ACAD_PROXY_OBJECT
  5
63
102
{ACAD_REACTORS
330
47
102
}
330
47
100
AcDbProxyObject
 90
      499
 91
      503
 93
      241
310
90C332F3422203D2031272D30220000000000003A0FC000000000000284000
  0
ACAD_PROXY_OBJECT
  5
64
102
{ACAD_REACTORS
330
47
102
}
330
47
100
AcDbProxyObject
 90
      499
 91
      503
 93
      161
310
90A3122203D2031272D30224000000000000284000
  0
ACAD_PROXY_OBJECT
  5
65
102
{ACAD_REACTORS
330
47
102
}
330
47
100
AcDbProxyObject
 90
      499
 91
      503
 93
      257
310
90E312D312F3222203D2031272D30220000000000003E0FC000000000000284000
  0
ACAD_PROXY_OBJECT
  5
66
102
{ACAD_REACTORS
330
47
102
}
330
47
100
AcDbProxyObject
 90
      499
 91
      503
 93
      225
310
90A3322203D2031272D302200000000000002100000000000000284000
  0
ACAD_PROXY_OBJECT
  5
67
102
{ACAD_REACTORS
330
47
102
}
330
47
100
AcDbProxyObject
 90
      499
 91
      503
 93
      225
310
90A3622203D2031272D302200000000000006100000000000000284000
  0
ACAD_PROXY_OBJECT
  5
68
102
{ACAD_REACTORS
330
47
102
}
330
47
100
AcDbProxyObject
 90
      499
 91
      503
 93
      249
310
90D31272D3022203D2031272D30220000000000000A100000000000000284000
  0
ACAD_PROXY_OBJECT
  5
2F
102
{ACAD_REACTORS
330
2A
102
}
330
2A
100
AcDbProxyObject
 90
      499
 91
      501
 93
      436
310
42CC9915DA5C99599C985B595049028333333333333E33F0000000000000F90107901411070040501600405405064090741402480A0340
1001
ACAD
1000
AcDbSavedByObjectVersion
1070
     0
  0
ACAD_PROXY_OBJECT
  5
32
102
{ACAD_REACTORS
330
2A
102
}
330
2A
100
AcDbProxyObject
 90
      499
 91
      501
 93
      388
310
4150985CDA58D07406404333333333333E33F0000000000000F90107A41107004050150841D405064090741402480A0350
1001
ACAD
1000
AcDbSavedByObjectVersion
1070
     0
  0
ACAD_PROXY_OBJECT
  5
36
102
{ACAD_REACTORS
330
2A
102
}
330
2A
100
AcDbProxyObject
 90
      499
 91
      501
 93
      428
310
42109C9A59DA1D195B90C409028333333333333E33F0000000000000F9010790141107004050150841D405064090741402480A029950
1001
ACAD
1000
AcDbSavedByObjectVersion
1070
     0
  0
ACAD_PROXY_OBJECT
  5
3A
102
{ACAD_REACTORS
330
2A
102
}
330
2A
100
AcDbProxyObject
 90
      499
 91
      501
 93
      452
310
42D0DBDB1BDC90DA185B99D95104090240C333333333333E33F0000000000000F90108901411070040501508421405064090741402480A0350
1001
ACAD
1000
AcDbSavedByObjectVersion
1070
     0
  0
ACAD_PROXY_OBJECT
  5
34
102
{ACAD_REACTORS
330
2A
102
}
330
2A
100
AcDbProxyObject
 90
      499
 91
      501
 93
      500
310
4290DBDB98D95C1D1D585B10940D028333333333333E33F0000000000000F90107902409070040501000000000018199010841D405064090740C02480A0340
1001
ACAD
1000
AcDbSavedByObjectVersion
1070
     0
  0
ACAD_PROXY_OBJECT
  5
35
102
{ACAD_REACTORS
330
2A
102
}
330
2A
100
AcDbProxyObject
 90
      499
 91
      501
 93
      412
310
40D11A5B50B409028333333333333E33F0000000000000F9010790141107004050150841D405064090741402480A02677FFFFFD0
1001
ACAD
1000
AcDbSavedByObjectVersion
1070
     0
  0
ACAD_PROXY_OBJECT
  5
3D
102
{ACAD_REACTORS
330
2A
102
}
330
2A
100
AcDbProxyObject
 90
      499
 91
      501
 93
      452
310
43115919D950DBDB1BDC93D999916409028333333333333E33F0000000000000F9010790141107004050150841D405064090741402480A0350
1001
ACAD
1000
AcDbSavedByObjectVersion
1070
     0
  0
ACAD_PROXY_OBJECT
  5
39
102
{ACAD_REACTORS
330
2A
102
}
330
2A
100
AcDbProxyObject
 90
      499
 91
      501
 93
      444
310
42D19858D95C185D1D195C9B90F409028333333333333E33F0000000000000F9010790141107004050150841D405064090741402480A0350
1001
ACAD
1000
AcDbSavedByObjectVersion
1070
     0
  0
ACAD_PROXY_OBJECT
  5
2B
102
{ACAD_REACTORS
330
2A
102
}
330
2A
100
AcDbProxyObject
 90
      499
 91
      501
 93
      380
310
41119B185D240901404333333333333E33F0000000000000F9010740A907004050150841D405064090741402480A1B50
1001
ACAD
1000
AcDbSavedByObjectVersion
1070
     0
  0
ACAD_PROXY_OBJECT
  5
2C
102
{ACAD_REACTORS
330
2A
102
}
330
2A
100
AcDbProxyObject
 90
      499
 91
      501
 93
      468
310
43519B185D15DA5D1A115919D95CD0140901404333333333333E33F0000000000000F90107409019070040501600405405064090741402480A1B50
1001
ACAD
1000
AcDbSavedByObjectVersion
1070
     0
  0
ACAD_PROXY_OBJECT
  5
2D
102
{ACAD_REACTORS
330
2A
102
}
330
2A
100
AcDbProxyObject
 90
      499
 91
      501
 93
      404
310
41D1DBDD5C985D5910240902404333333333333E33F0000000000000F9010740A9070040501641D405064090741402480A1B50
1001
ACAD
1000
AcDbSavedByObjectVersion
1070
     0
  0
ACAD_PROXY_OBJECT
  5
2E
102
{ACAD_REACTORS
330
2A
102
}
330
2A
100
AcDbProxyObject
 90
      499
 91
      501
 93
      492
310
4411DBDD5C985D5915DA5D1A115919D95CD0340902404333333333333E33F0000000000000F90107409019070040501600405405064090741402480A1B50
1001
ACAD
1000
AcDbSavedByObjectVersion
1070
     0
  0
ACAD_PROXY_OBJECT
  5
31
102
{ACAD_REACTORS
330
2A
102
}
330
2A
100
AcDbProxyObject
 90
      499
 91
      501
 93
      476
310
41921A5919195B90640502408333333333333E33F0000000000000F901079024090700405020000000000001110200405405064090740C02480A0340
1001
ACAD
1000
AcDbSavedByObjectVersion
1070
     0
  0
ACAD_PROXY_OBJECT
  5
3B
102
{ACAD_REACTORS
330
2A
102
}
330
2A
100
AcDbProxyObject
 90
      499
 91
      501
 93
      428
310
42529A5D1D195C93D999914409028333333333333E33F0000000000000F9010790141107004050150A41D405064090741402480A0350
1001
ACAD
1000
AcDbSavedByObjectVersion
1070
     0
  0
ACAD_PROXY_OBJECT
  5
38
102
{ACAD_REACTORS
330
2A
102
}
330
2A
100
AcDbProxyObject
 90
      499
 91
      501
 93
      444
310
42D31A5B995C185D1D195C9B90E409028333333333333E33F0000000000000F9010790141107004050750841D405064090741402483A0350
1001
ACAD
1000
AcDbSavedByObjectVersion
1070
     0
  0
ACAD_PROXY_OBJECT
  5
3C
102
{ACAD_REACTORS
330
2A
102
}
330
2A
100
AcDbProxyObject
 90
      499
 91
      501
 93
      444
310
42D3DD995C9A185B99D3D999915409028333333333333E33F0000000000000F9010790141107004050150941D405064090741402480A0350
1001
ACAD
1000
AcDbSavedByObjectVersion
1070
     0
  0
ACAD_PROXY_OBJECT
  5
33
102
{ACAD_REACTORS
330
2A
102
}
330
2A
100
AcDbProxyObject
 90
      499
 91
      501
 93
      428
310
425499585B1A5CDD1A58D08409038333333333333E33F0000000000000F9010740A907004050150800405405064090740C02480A1B40
1001
ACAD
1000
AcDbSavedByObjectVersion
1070
     0
  0
ACAD_PROXY_OBJECT
  5
42
102
{ACAD_REACTORS
330
2A
102
}
330
2A
100
AcDbProxyObject
 90
      499
 91
      501
 93
      420
310
4194DA1859195911B40902404333333333333E33F0000000000000F9010740A41107004050150800405405064090840C02480A0B40
1001
ACAD
1000
AcDbSavedByObjectVersion
1070
     0
  0
ACAD_PROXY_OBJECT
  5
41
102
{ACAD_REACTORS
330
2A
102
}
330
2A
100
AcDbProxyObject
 90
      499
 91
      501
 93
      516
310
4454DA18591959081DDA5D1A08195919D95CD1A40902404333333333333E33F0000000000000F901074090142907004050250800405405064090740C02480A0B40
1001
ACAD
1000
AcDbSavedByObjectVersion
1070
     0
  0
ACAD_PROXY_OBJECT
  5
3E
102
{ACAD_REACTORS
330
2A
102
}
330
2A
100
AcDbProxyObject
 90
      499
 91
      501
 93
      532
310
4394DA1859195CC81BD98811DC985E5174090240C333333333333E33F0000000000000F901079024090741D01000000000000111010841D405064090740C02480A0340
1001
ACAD
1000
AcDbSavedByObjectVersion
1070
     0
  0
ACAD_PROXY_OBJECT
  5
3F
102
{ACAD_REACTORS
330
2A
102
}
330
2A
100
AcDbProxyObject
 90
      499
 91
      501
 93
      476
310
41D4DAD95D18DA1E51840502408333333333333E33F0000000000000F901079024090741D01000000000000111010B41D405064090741802480A0340
1001
ACAD
1000
AcDbSavedByObjectVersion
1070
     0
  0
ACAD_PROXY_OBJECT
  5
37
102
{ACAD_REACTORS
330
2A
102
}
330
2A
100
AcDbProxyObject
 90
      499
 91
      501
 93
      412
310
41D51A1A58DAD95B90D409028333333333333E33F0000000000000F9010790141107004050150C41D405064090741402480A0350
1001
ACAD
1000
AcDbSavedByObjectVersion
1070
     0
  0
ACAD_PROXY_OBJECT
  5
30
102
{ACAD_REACTORS
330
2A
102
}
330
2A
100
AcDbProxyObject
 90
      499
 91
      501
 93
      420
310
4255DA5C99599C985B595059028333333333333E33F0000000000000F90107901411070040501600405405064090740C02480A0340
1001
ACAD
1000
AcDbSavedByObjectVersion
1070
     0
  0
ACAD_PROXY_OBJECT
  5
40
102
{ACAD_REACTORS
330
2A
102
}
330
2A
100
AcDbProxyObject
 90
      499
 91
      501
 93
      404
310
41560B54985E51940902404000000000000E03F0000000000000F9010740501907004050150841D405064090740C02480A1B40
1001
ACAD
1000
AcDbSavedByObjectVersion
1070
     0
  0
XRECORD
  5
6BE
102
{ACAD_REACTORS
330
6B4
102
}
330
6B4
100
AcDbXrecord
340
0
  0
XRECORD
  5
6BD
102
{ACAD_REACTORS
330
6B4
102
}
330
6B4
100
AcDbXrecord
 90
        0
  0
XRECORD
  5
6D4
102
{ACAD_REACTORS
330
6B4
102
}
330
6B4
100
AcDbXrecord
1000
DSTYLE
1002
{
1070
   340
340
11
1002
}
  0
XRECORD
  5
6BF
102
{ACAD_REACTORS
330
6B4
102
}
330
6B4
100
AcDbXrecord
  1
{54782294-7927-4e53-b6af-f885e12ef47b}
  0
XRECORD
  5
6B7
102
{ACAD_REACTORS
330
6B4
102
}
330
6B4
100
AcDbXrecord
  1

  0
XRECORD
  5
6BC
102
{ACAD_REACTORS
330
6B4
102
}
330
6B4
100
AcDbXrecord
 90
        4
  0
XRECORD
  5
6B9
102
{ACAD_REACTORS
330
6B4
102
}
330
6B4
100
AcDbXrecord
340
1A
  0
XRECORD
  5
6BB
102
{ACAD_REACTORS
330
6B4
102
}
330
6B4
100
AcDbXrecord
 90
    10781
  0
XRECORD
  5
6BA
102
{ACAD_REACTORS
330
6B4
102
}
330
6B4
100
AcDbXrecord
340
19
  0
XRECORD
  5
6C1
102
{ACAD_REACTORS
330
6B4
102
}
330
6B4
100
AcDbXrecord
 40
0.0
  0
XRECORD
  5
6C4
102
{ACAD_REACTORS
330
6B4
102
}
330
6B4
100
AcDbXrecord
340
0
  0
XRECORD
  5
6CA
102
{ACAD_REACTORS
330
6B4
102
}
330
6B4
100
AcDbXrecord
 10
0.0
 20
0.0
 30
0.0
  0
XRECORD
  5
6C6
102
{ACAD_REACTORS
330
6B4
102
}
330
6B4
100
AcDbXrecord
 10
0.0
 20
0.0
 30
0.0
  0
XRECORD
  5
6C9
102
{ACAD_REACTORS
330
6B4
102
}
330
6B4
100
AcDbXrecord
 10
0.0
 20
0.0
 30
0.0
  0
XRECORD
  5
6C7
102
{ACAD_REACTORS
330
6B4
102
}
330
6B4
100
AcDbXrecord
 10
0.0
 20
0.0
 30
0.0
  0
XRECORD
  5
6C8
102
{ACAD_REACTORS
330
6B4
102
}
330
6B4
100
AcDbXrecord
 10
0.0
 20
0.0
 30
0.0
  0
XRECORD
  5
6C5
102
{ACAD_REACTORS
330
6B4
102
}
330
6B4
100
AcDbXrecord
 10
0.0
 20
0.0
 30
0.0
  0
XRECORD
  5
6C2
102
{ACAD_REACTORS
330
6B4
102
}
330
6B4
100
AcDbXrecord
340
0
  0
XRECORD
  5
6C3
102
{ACAD_REACTORS
330
6B4
102
}
330
6B4
100
AcDbXrecord
 70
     0
  0
XRECORD
  5
6B8
102
{ACAD_REACTORS
330
6B4
102
}
330
6B4
100
AcDbXrecord
  1

  0
XRECORD
  5
6B5
102
{ACAD_REACTORS
330
6B4
102
}
330
6B4
100
AcDbXrecord
 90
        1
  0
XRECORD
  5
6B6
102
{ACAD_REACTORS
330
6B4
102
}
330
6B4
100
AcDbXrecord
 90
       70
  0
XRECORD
  5
6CD
102
{ACAD_REACTORS
330
6B4
102
}
330
6B4
100
AcDbXrecord
340
0
  0
XRECORD
  5
6D3
102
{ACAD_REACTORS
330
6B4
102
}
330
6B4
100
AcDbXrecord
 10
0.0
 20
0.0
 30
0.0
  0
XRECORD
  5
6CF
102
{ACAD_REACTORS
330
6B4
102
}
330
6B4
100
AcDbXrecord
 10
0.0
 20
0.0
 30
0.0
  0
XRECORD
  5
6D2
102
{ACAD_REACTORS
330
6B4
102
}
330
6B4
100
AcDbXrecord
 10
0.0
 20
0.0
 30
0.0
  0
XRECORD
  5
6D0
102
{ACAD_REACTORS
330
6B4
102
}
330
6B4
100
AcDbXrecord
 10
0.0
 20
0.0
 30
0.0
  0
XRECORD
  5
6D1
102
{ACAD_REACTORS
330
6B4
102
}
330
6B4
100
AcDbXrecord
 10
0.0
 20
0.0
 30
0.0
  0
XRECORD
  5
6CE
102
{ACAD_REACTORS
330
6B4
102
}
330
6B4
100
AcDbXrecord
 10
0.0
 20
0.0
 30
0.0
  0
XRECORD
  5
6CB
102
{ACAD_REACTORS
330
6B4
102
}
330
6B4
100
AcDbXrecord
340
0
  0
XRECORD
  5
6CC
102
{ACAD_REACTORS
330
6B4
102
}
330
6B4
100
AcDbXrecord
 70
     0
  0
XRECORD
  5
6C0
102
{ACAD_REACTORS
330
6B4
102
}
330
6B4
100
AcDbXrecord
  1
{FAEB1C32-E019-11D5-929B-00C0DF256EC4}
  0
DICTIONARYVAR
  5
6E2
102
{ACAD_REACTORS
330
6D5
102
}
330
6D5
100
DictionaryVariables
280
     0
  1
1:1
  0
DICTIONARYVAR
  5
6DC
102
{ACAD_REACTORS
330
6D5
102
}
330
6D5
100
DictionaryVariables
280
     0
  1
3.500000
  0
DICTIONARYVAR
  5
6DD
102
{ACAD_REACTORS
330
6D5
102
}
330
6D5
100
DictionaryVariables
280
     0
  1
acadiso.lin
  0
DICTIONARYVAR
  5
6D7
102
{ACAD_REACTORS
330
6D5
102
}
330
6D5
100
DictionaryVariables
280
     0
  1
Standard
  0
DICTIONARYVAR
  5
6D6
102
{ACAD_REACTORS
330
6D5
102
}
330
6D5
100
DictionaryVariables
280
     0
  1
Standard
  0
DICTIONARYVAR
  5
6DE
102
{ACAD_REACTORS
330
6D5
102
}
330
6D5
100
DictionaryVariables
280
     0
  1
2
  0
DICTIONARYVAR
  5
6DF
102
{ACAD_REACTORS
330
6D5
102
}
330
6D5
100
DictionaryVariables
280
     0
  1
1
  0
DICTIONARYVAR
  5
6E3
102
{ACAD_REACTORS
330
6D5
102
}
330
6D5
100
DictionaryVariables
280
     0
  1
1
  0
DICTIONARYVAR
  5
6D9
102
{ACAD_REACTORS
330
6D5
102
}
330
6D5
100
DictionaryVariables
280
     0
  1
80.000000
  0
DICTIONARYVAR
  5
6D8
102
{ACAD_REACTORS
330
6D5
102
}
330
6D5
100
DictionaryVariables
280
     0
  1
5.000000
  0
DICTIONARY
  5
6E6
330
45
100
AcDbDictionary
280
     1
  3
ACAD_XREC_ROUNDTRIP
360
6E7
  0
DICTIONARY
  5
6E4
330
44
100
AcDbDictionary
280
     1
  3
ACAD_XREC_ROUNDTRIP
360
6E5
  0
DICTIONARY
  5
6E8
330
46
100
AcDbDictionary
280
     1
  3
ACAD_XREC_ROUNDTRIP
360
6E9
  0
XRECORD
  5
6E7
102
{ACAD_REACTORS
330
6E6
102
}
330
6E6
100
AcDbXrecord
102
MATERIAL
148
0.0
149
0.0
149
0.0
 93
        0
 94
      127
282
     0
 72
     1
 77
     1
171
     1
175
     1
179
     1
273
     0
  0
XRECORD
  5
6E5
102
{ACAD_REACTORS
330
6E4
102
}
330
6E4
100
AcDbXrecord
102
MATERIAL
148
0.0
149
0.0
149
0.0
 93
        0
 94
      127
282
     0
 72
     1
 77
     1
171
     1
175
     1
179
     1
273
     0
  0
XRECORD
  5
6E9
102
{ACAD_REACTORS
330
6E8
102
}
330
6E8
100
AcDbXrecord
102
MATERIAL
148
0.0
149
0.0
149
0.0
 93
        0
 94
      127
282
     0
 72
     1
 77
     1
171
     1
175
     1
179
     1
273
     0
  0
ENDSEC
  0
EOF
