  0
SECTION
  2
HEADER
  9
$ACADVER
  1
AC1014
  9
$ACADMAINTVER
 70
     9
  9
$DWGCODEPAGE
  3
ANSI_932
  9
$INSBASE
 10
0.0
 20
0.0
 30
0.0
  9
$EXTMIN
 10
50.0
 20
100.0
 30
0.0
  9
$EXTMAX
 10
3850.0
 20
2800.0
 30
0.0
  9
$LIMMIN
 10
0.0
 20
0.0
  9
$LIMMAX
 10
420.0
 20
297.0
  9
$ORTHOMODE
 70
     0
  9
$REGENMODE
 70
     1
  9
$FILLMODE
 70
     1
  9
$QTEXTMODE
 70
     0
  9
$MIRRTEXT
 70
     1
  9
$DRAGMODE
 70
     2
  9
$LTSCALE
 40
0.2
  9
$OSMODE
 70
    37
  9
$ATTMODE
 70
     1
  9
$TEXTSIZE
 40
2.5
  9
$TRACEWID
 40
1.0
  9
$TEXTSTYLE
  7
STANDARD
  9
$CLAYER
  8
LAY-10
  9
$CELTYPE
  6
BYLAYER
  9
$CECOLOR
 62
   256
  9
$CELTSCALE
 40
1.0
  9
$DELOBJ
 70
     1
  9
$DISPSILH
 70
     0
  9
$DIMSCALE
 40
1.0
  9
$DIMASZ
 40
2.5
  9
$DIMEXO
 40
0.625
  9
$DIMDLI
 40
3.75
  9
$DIMRND
 40
0.0
  9
$DIMDLE
 40
0.0
  9
$DIMEXE
 40
1.25
  9
$DIMTP
 40
0.0
  9
$DIMTM
 40
0.0
  9
$DIMTXT
 40
2.5
  9
$DIMCEN
 40
2.5
  9
$DIMTSZ
 40
0.0
  9
$DIMTOL
 70
     0
  9
$DIMLIM
 70
     0
  9
$DIMTIH
 70
     0
  9
$DIMTOH
 70
     0
  9
$DIMSE1
 70
     0
  9
$DIMSE2
 70
     0
  9
$DIMTAD
 70
     1
  9
$DIMZIN
 70
     8
  9
$DIMBLK
  1

  9
$DIMASO
 70
     1
  9
$DIMSHO
 70
     1
  9
$DIMPOST
  1

  9
$DIMAPOST
  1

  9
$DIMALT
 70
     0
  9
$DIMALTD
 70
     3
  9
$DIMALTF
 40
0.03937007874016
  9
$DIMLFAC
 40
1.0
  9
$DIMTOFL
 70
     1
  9
$DIMTVP
 40
0.0
  9
$DIMTIX
 70
     0
  9
$DIMSOXD
 70
     0
  9
$DIMSAH
 70
     0
  9
$DIMBLK1
  1

  9
$DIMBLK2
  1

  9
$DIMSTYLE
  2
ISO-25
  9
$DIMCLRD
 70
     0
  9
$DIMCLRE
 70
     0
  9
$DIMCLRT
 70
     0
  9
$DIMTFAC
 40
1.0
  9
$DIMGAP
 40
0.625
  9
$DIMJUST
 70
     0
  9
$DIMSD1
 70
     0
  9
$DIMSD2
 70
     0
  9
$DIMTOLJ
 70
     0
  9
$DIMTZIN
 70
     8
  9
$DIMALTZ
 70
     0
  9
$DIMALTTZ
 70
     0
  9
$DIMFIT
 70
     3
  9
$DIMUPT
 70
     0
  9
$DIMUNIT
 70
     2
  9
$DIMDEC
 70
     2
  9
$DIMTDEC
 70
     2
  9
$DIMALTU
 70
     2
  9
$DIMALTTD
 70
     3
  9
$DIMTXSTY
  7
STANDARD
  9
$DIMAUNIT
 70
     0
  9
$LUNITS
 70
     2
  9
$LUPREC
 70
     4
  9
$SKETCHINC
 40
1.0
  9
$FILLETRAD
 40
10.0
  9
$AUNITS
 70
     0
  9
$AUPREC
 70
     0
  9
$MENU
  1
.
  9
$ELEVATION
 40
0.0
  9
$PELEVATION
 40
0.0
  9
$THICKNESS
 40
0.0
  9
$LIMCHECK
 70
     0
  9
$CHAMFERA
 40
0.0
  9
$CHAMFERB
 40
0.0
  9
$CHAMFERC
 40
0.0
  9
$CHAMFERD
 40
0.0
  9
$SKPOLY
 70
     0
  9
$TDCREATE
 40
2459229.333587268
  9
$TDUPDATE
 40
2459229.33358809
  9
$TDINDWG
 40
0.0000000116
  9
$TDUSRTIMER
 40
0.0000000116
  9
$USRTIMER
 70
     1
  9
$ANGBASE
 50
0.0
  9
$ANGDIR
 70
     0
  9
$PDMODE
 70
     0
  9
$PDSIZE
 40
0.0
  9
$PLINEWID
 40
0.0
  9
$COORDS
 70
     1
  9
$SPLFRAME
 70
     0
  9
$SPLINETYPE
 70
     6
  9
$SPLINESEGS
 70
     8
  9
$ATTDIA
 70
     0
  9
$ATTREQ
 70
     1
  9
$HANDLING
 70
     1
  9
$HANDSEED
  5
6FD
  9
$SURFTAB1
 70
     6
  9
$SURFTAB2
 70
     6
  9
$SURFTYPE
 70
     6
  9
$SURFU
 70
     6
  9
$SURFV
 70
     6
  9
$UCSNAME
  2

  9
$UCSORG
 10
0.0
 20
0.0
 30
0.0
  9
$UCSXDIR
 10
1.0
 20
0.0
 30
0.0
  9
$UCSYDIR
 10
0.0
 20
1.0
 30
0.0
  9
$PUCSNAME
  2

  9
$PUCSORG
 10
0.0
 20
0.0
 30
0.0
  9
$PUCSXDIR
 10
1.0
 20
0.0
 30
0.0
  9
$PUCSYDIR
 10
0.0
 20
1.0
 30
0.0
  9
$USERI1
 70
     0
  9
$USERI2
 70
     0
  9
$USERI3
 70
     0
  9
$USERI4
 70
     0
  9
$USERI5
 70
     0
  9
$USERR1
 40
0.0
  9
$USERR2
 40
0.0
  9
$USERR3
 40
0.0
  9
$USERR4
 40
0.0
  9
$USERR5
 40
0.0
  9
$WORLDVIEW
 70
     1
  9
$SHADEDGE
 70
     3
  9
$SHADEDIF
 70
    70
  9
$TILEMODE
 70
     1
  9
$MAXACTVP
 70
    64
  9
$PINSBASE
 10
0.0
 20
0.0
 30
0.0
  9
$PLIMCHECK
 70
     0
  9
$PEXTMIN
 10
1.000000000000000E+20
 20
1.000000000000000E+20
 30
1.000000000000000E+20
  9
$PEXTMAX
 10
-1.000000000000000E+20
 20
-1.000000000000000E+20
 30
-1.000000000000000E+20
  9
$PLIMMIN
 10
0.0
 20
0.0
  9
$PLIMMAX
 10
420.0
 20
297.0
  9
$UNITMODE
 70
     0
  9
$VISRETAIN
 70
     1
  9
$PLINEGEN
 70
     0
  9
$PSLTSCALE
 70
     1
  9
$TREEDEPTH
 70
  3020
  9
$PICKSTYLE
 70
     1
  9
$CMLSTYLE
  2
STANDARD
  9
$CMLJUST
 70
     0
  9
$CMLSCALE
 40
20.0
  9
$PROXYGRAPHICS
 70
     1
  9
$MEASUREMENT
 70
     1
  0
ENDSEC
  0
SECTION
  2
CLASSES
  0
CLASS
  1
ACDBDICTIONARYWDFLT
  2
AcDbDictionaryWithDefault
  3
ObjectDBX Classes
 90
        0
280
     0
281
     0
  0
CLASS
  1
VISUALSTYLE
  2
AcDbVisualStyle
  3
ObjectDBX Classes
 90
     4095
280
     0
281
     0
  0
CLASS
  1
MATERIAL
  2
AcDbMaterial
  3
ObjectDBX Classes
 90
     1153
280
     0
281
     0
  0
CLASS
  1
SCALE
  2
AcDbScale
  3
ObjectDBX Classes
 90
     1153
280
     0
281
     0
  0
CLASS
  1
TABLESTYLE
  2
AcDbTableStyle
  3
ObjectDBX Classes
 90
     4095
280
     0
281
     0
  0
CLASS
  1
MLEADERSTYLE
  2
AcDbMLeaderStyle
  3
ACDB_MLEADERSTYLE_CLASS
 90
     4095
280
     0
281
     0
  0
CLASS
  1
SUN
  2
AcDbSun
  3
SCENEOE
 90
     1153
280
     0
281
     0
  0
CLASS
  1
DICTIONARYVAR
  2
AcDbDictionaryVar
  3
ObjectDBX Classes
 90
        0
280
     0
281
     0
  0
CLASS
  1
XRECORD
  2
AcDbXrecord
  3
ObjectDBX Classes
 90
        0
280
     0
281
     0
  0
CLASS
  1
LWPOLYLINE
  2
AcDbPolyline
  3
ObjectDBX Classes
 90
        0
280
     0
281
     1
  0
CLASS
  1
HATCH
  2
AcDbHatch
  3
ObjectDBX Classes
 90
        0
280
     0
281
     1
  0
CLASS
  1
ACDBPLACEHOLDER
  2
AcDbPlaceHolder
  3
ObjectDBX Classes
 90
        0
280
     0
281
     0
  0
CLASS
  1
LAYOUT
  2
AcDbLayout
  3
ObjectDBX Classes
 90
        0
280
     0
281
     0
  0
ENDSEC
  0
SECTION
  2
TABLES
  0
TABLE
  2
VPORT
  5
8
102
{ACAD_XDICTIONARY
360
6F2
102
}
330
0
100
AcDbSymbolTable
 70
     1
  0
VPORT
  5
29
330
8
100
AcDbSymbolTableRecord
100
AcDbViewportTableRecord
  2
*ACTIVE
 70
     0
 10
0.0
 20
0.0
 11
1.0
 21
1.0
 12
1950.0
 22
1450.0
 13
0.0
 23
0.0
 14
10.0
 24
10.0
 15
10.0
 25
10.0
 16
0.0
 26
0.0
 36
1.0
 17
0.0
 27
0.0
 37
0.0
 40
2700.0
 41
1.407407407407408
 42
50.0
 43
0.0
 44
0.0
 50
0.0
 51
0.0
 71
     0
 72
  1000
 73
     1
 74
     3
 75
     0
 76
     0
 77
     0
 78
     0
  0
ENDTAB
  0
TABLE
  2
LTYPE
  5
5
330
0
100
AcDbSymbolTable
 70
     6
  0
LTYPE
  5
14
330
5
100
AcDbSymbolTableRecord
100
AcDbLinetypeTableRecord
  2
BYBLOCK
 70
     0
  3

 72
    65
 73
     0
 40
0.0
  0
LTYPE
  5
15
330
5
100
AcDbSymbolTableRecord
100
AcDbLinetypeTableRecord
  2
BYLAYER
 70
     0
  3

 72
    65
 73
     0
 40
0.0
  0
LTYPE
  5
16
330
5
100
AcDbSymbolTableRecord
100
AcDbLinetypeTableRecord
  2
CONTINUOUS
 70
     0
  3
Solid line
 72
    65
 73
     0
 40
0.0
  0
LTYPE
  5
6E
330
5
100
AcDbSymbolTableRecord
100
AcDbLinetypeTableRecord
  2
HIDDEN
 70
     0
  3
Hidden __ __ __ __ __ __ __ __ __ __ __ __ __ __
 72
    65
 73
     2
 40
9.524999999999999
 49
6.35
 74
     0
 49
-3.175
 74
     0
  0
LTYPE
  5
6F
330
5
100
AcDbSymbolTableRecord
100
AcDbLinetypeTableRecord
  2
CENTER
 70
     0
  3
Center ____ _ ____ _ ____ _ ____ _ ____ _ ____
 72
    65
 73
     4
 40
50.8
 49
31.75
 74
     0
 49
-6.35
 74
     0
 49
6.35
 74
     0
 49
-6.35
 74
     0
  0
LTYPE
  5
70
330
5
100
AcDbSymbolTableRecord
100
AcDbLinetypeTableRecord
  2
PHANTOM
 70
     0
  3
Phantom ______  __  __  ______  __  __  ______ 
 72
    65
 73
     6
 40
63.50000000000001
 49
31.75
 74
     0
 49
-6.35
 74
     0
 49
6.35
 74
     0
 49
-6.35
 74
     0
 49
6.35
 74
     0
 49
-6.35
 74
     0
  0
LTYPE
  5
71
330
5
100
AcDbSymbolTableRecord
100
AcDbLinetypeTableRecord
  2
ACAD_ISO06W100
 70
     0
  3
ISO long-dash triple-dot ____ ... ____ ... ____
 72
    65
 73
     8
 40
36.0
 49
24.0
 74
     0
 49
-3.0
 74
     0
 49
0.0
 74
     0
 49
-3.0
 74
     0
 49
0.0
 74
     0
 49
-3.0
 74
     0
 49
0.0
 74
     0
 49
-3.0
 74
     0
  0
LTYPE
  5
72
330
5
100
AcDbSymbolTableRecord
100
AcDbLinetypeTableRecord
  2
ACAD_ISO15W100
 70
     0
  3
ISO double-dash triple-dot __ __ . . . __ __ . .
 72
    65
 73
    10
 40
39.0
 49
12.0
 74
     0
 49
-3.0
 74
     0
 49
12.0
 74
     0
 49
-3.0
 74
     0
 49
0.0
 74
     0
 49
-3.0
 74
     0
 49
0.0
 74
     0
 49
-3.0
 74
     0
 49
0.0
 74
     0
 49
-3.0
 74
     0
  0
ENDTAB
  0
TABLE
  2
LAYER
  5
2
330
0
100
AcDbSymbolTable
 70
     6
  0
LAYER
  5
10
330
2
100
AcDbSymbolTableRecord
100
AcDbLayerTableRecord
  2
0
 70
     0
 62
     7
  6
CONTINUOUS
  0
LAYER
  5
75
330
2
100
AcDbSymbolTableRecord
100
AcDbLayerTableRecord
  2
LAY-10
 70
     0
 62
     7
  6
CONTINUOUS
  0
LAYER
  5
76
330
2
100
AcDbSymbolTableRecord
100
AcDbLayerTableRecord
  2
LAY-11
 70
     0
 62
     7
  6
CONTINUOUS
  0
LAYER
  5
77
330
2
100
AcDbSymbolTableRecord
100
AcDbLayerTableRecord
  2
LAY-20
 70
     0
 62
     7
  6
CONTINUOUS
  0
LAYER
  5
78
330
2
100
AcDbSymbolTableRecord
100
AcDbLayerTableRecord
  2
LAY-255
 70
     0
 62
     7
  6
CONTINUOUS
  0
LAYER
  5
637
330
2
100
AcDbSymbolTableRecord
100
AcDbLayerTableRecord
  2
DEFPOINTS
 70
     0
 62
     7
  6
CONTINUOUS
  0
ENDTAB
  0
TABLE
  2
STYLE
  5
3
330
0
100
AcDbSymbolTable
 70
     4
  0
STYLE
  5
11
330
3
100
AcDbSymbolTableRecord
100
AcDbTextStyleTableRecord
  2
STANDARD
 70
     0
 40
0.0
 41
1.0
 50
0.0
 71
     0
 42
2.5
  3
simplex
  4
bigfont
  0
STYLE
  5
73
330
3
100
AcDbSymbolTableRecord
100
AcDbTextStyleTableRecord
  2
EXCADSTD
 70
     0
 40
0.0
 41
1.0
 50
0.0
 71
     0
 42
2.5
  3
simplex
  4
bigfont
  0
STYLE
  5
74
330
3
100
AcDbSymbolTableRecord
100
AcDbTextStyleTableRecord
  2
EXCADVERT
 70
     4
 40
0.0
 41
1.0
 50
0.0
 71
     0
 42
2.5
  3
simplex
  4
bigfont
  0
STYLE
  5
635
330
3
100
AcDbSymbolTableRecord
100
AcDbTextStyleTableRecord
  2
EXCADDIM1
 70
     0
 40
0.0
 41
0.84
 50
0.0
 71
     0
 42
2.5
  3
simplex
  4
bigfont
  0
ENDTAB
  0
TABLE
  2
VIEW
  5
6
330
0
100
AcDbSymbolTable
 70
     0
  0
ENDTAB
  0
TABLE
  2
UCS
  5
7
330
0
100
AcDbSymbolTable
 70
     0
  0
ENDTAB
  0
TABLE
  2
APPID
  5
9
330
0
100
AcDbSymbolTable
 70
     2
  0
APPID
  5
12
330
9
100
AcDbSymbolTableRecord
100
AcDbRegAppTableRecord
  2
ACAD
 70
     0
  0
APPID
  5
6FC
330
9
100
AcDbSymbolTableRecord
100
AcDbRegAppTableRecord
  2
ACAD_MLEADERVER
 70
     0
  0
ENDTAB
  0
TABLE
  2
DIMSTYLE
  5
A
330
0
100
AcDbSymbolTable
 70
     1
  0
DIMSTYLE
105
27
102
{ACAD_REACTORS
330
636
330
644
330
651
330
65E
330
66B
330
678
330
685
330
692
102
}
330
A
100
AcDbSymbolTableRecord
100
AcDbDimStyleTableRecord
  2
ISO-25
 70
     0
  3

  4

  5

  6

  7

 40
1.0
 41
2.5
 42
0.625
 43
3.75
 44
1.25
 45
0.0
 46
0.0
 47
0.0
 48
0.0
140
2.5
141
2.5
142
0.0
143
0.03937007874016
144
1.0
145
0.0
146
1.0
147
0.625
 71
     0
 72
     0
 73
     0
 74
     0
 75
     0
 76
     0
 77
     1
 78
     8
170
     0
171
     3
172
     1
173
     0
174
     0
175
     0
176
     0
177
     0
178
     0
270
     2
271
     2
272
     2
273
     2
274
     3
340
11
275
     0
280
     0
281
     0
282
     0
283
     0
284
     8
285
     0
286
     0
287
     5
288
     0
  0
ENDTAB
  0
TABLE
  2
BLOCK_RECORD
  5
1
330
0
100
AcDbSymbolTable
 70
    24
  0
BLOCK_RECORD
  5
1F
330
1
100
AcDbSymbolTableRecord
100
AcDbBlockTableRecord
  2
*MODEL_SPACE
  0
BLOCK_RECORD
  5
1B
330
1
100
AcDbSymbolTableRecord
100
AcDbBlockTableRecord
  2
*PAPER_SPACE
  0
BLOCK_RECORD
  5
79
330
1
100
AcDbSymbolTableRecord
100
AcDbBlockTableRecord
  2
EX_NORM
  0
BLOCK_RECORD
  5
7C
330
1
100
AcDbSymbolTableRecord
100
AcDbBlockTableRecord
  2
EX_BNORM
  0
BLOCK_RECORD
  5
7F
330
1
100
AcDbSymbolTableRecord
100
AcDbBlockTableRecord
  2
EX_BCIR
  0
BLOCK_RECORD
  5
82
330
1
100
AcDbSymbolTableRecord
100
AcDbBlockTableRecord
  2
EX_RCIVIL
  0
BLOCK_RECORD
  5
85
330
1
100
AcDbSymbolTableRecord
100
AcDbBlockTableRecord
  2
EX_SLANT
  0
BLOCK_RECORD
  5
88
330
1
100
AcDbSymbolTableRecord
100
AcDbBlockTableRecord
  2
EX_NONE
  0
BLOCK_RECORD
  5
8B
330
1
100
AcDbSymbolTableRecord
100
AcDbBlockTableRecord
  2
EX_CIVIL
  0
BLOCK_RECORD
  5
8E
330
1
100
AcDbSymbolTableRecord
100
AcDbBlockTableRecord
  2
EX_WCIR
  0
BLOCK_RECORD
  5
91
330
1
100
AcDbSymbolTableRecord
100
AcDbBlockTableRecord
  2
EX_WCIR2
  0
BLOCK_RECORD
  5
94
330
1
100
AcDbSymbolTableRecord
100
AcDbBlockTableRecord
  2
EX_WNORM
  0
BLOCK_RECORD
  5
97
330
1
100
AcDbSymbolTableRecord
100
AcDbBlockTableRecord
  2
EX_NNORM
  0
BLOCK_RECORD
  5
9A
330
1
100
AcDbSymbolTableRecord
100
AcDbBlockTableRecord
  2
EX_BBOX
  0
BLOCK_RECORD
  5
9D
330
1
100
AcDbSymbolTableRecord
100
AcDbBlockTableRecord
  2
EX_WBOX
  0
BLOCK_RECORD
  5
A0
330
1
100
AcDbSymbolTableRecord
100
AcDbBlockTableRecord
  2
EX_INTEGRAL
  0
BLOCK_RECORD
  5
A3
330
1
100
AcDbSymbolTableRecord
100
AcDbBlockTableRecord
  2
SYM-1
  0
BLOCK_RECORD
  5
A6
330
1
100
AcDbSymbolTableRecord
100
AcDbBlockTableRecord
  2
SYM-2
  0
BLOCK_RECORD
  5
638
330
1
100
AcDbSymbolTableRecord
100
AcDbBlockTableRecord
  2
*D17
  0
BLOCK_RECORD
  5
645
330
1
100
AcDbSymbolTableRecord
100
AcDbBlockTableRecord
  2
*D18
  0
BLOCK_RECORD
  5
652
330
1
100
AcDbSymbolTableRecord
100
AcDbBlockTableRecord
  2
*D19
  0
BLOCK_RECORD
  5
65F
330
1
100
AcDbSymbolTableRecord
100
AcDbBlockTableRecord
  2
*D20
  0
BLOCK_RECORD
  5
66C
330
1
100
AcDbSymbolTableRecord
100
AcDbBlockTableRecord
  2
*D21
  0
BLOCK_RECORD
  5
679
330
1
100
AcDbSymbolTableRecord
100
AcDbBlockTableRecord
  2
*D22
  0
BLOCK_RECORD
  5
686
330
1
100
AcDbSymbolTableRecord
100
AcDbBlockTableRecord
  2
*D23
  0
BLOCK_RECORD
  5
693
330
1
100
AcDbSymbolTableRecord
100
AcDbBlockTableRecord
  2
*D24
  0
ENDTAB
  0
ENDSEC
  0
SECTION
  2
BLOCKS
  0
BLOCK
  5
20
330
1F
100
AcDbEntity
  8
0
100
AcDbBlockBegin
  2
*MODEL_SPACE
 70
     0
 10
0.0
 20
0.0
 30
0.0
  3
*MODEL_SPACE
  1

  0
ENDBLK
  5
21
330
1F
100
AcDbEntity
  8
0
100
AcDbBlockEnd
  0
BLOCK
  5
1C
330
1B
100
AcDbEntity
 67
     1
  8
0
100
AcDbBlockBegin
  2
*PAPER_SPACE
 70
     0
 10
0.0
 20
0.0
 30
0.0
  3
*PAPER_SPACE
  1

  0
ENDBLK
  5
1D
330
1B
100
AcDbEntity
 67
     1
  8
0
100
AcDbBlockEnd
  0
BLOCK
  5
7A
330
79
100
AcDbEntity
  8
0
100
AcDbBlockBegin
  2
EX_NORM
 70
     0
 10
0.0
 20
0.0
 30
0.0
  3
EX_NORM
  1

  0
LINE
  5
A9
330
79
100
AcDbEntity
  8
0
  6
CONTINUOUS
 62
     0
100
AcDbLine
 10
0.0
 20
0.0
 30
0.0
 11
-1.0
 21
0.0
 31
0.0
  0
LINE
  5
AA
330
79
100
AcDbEntity
  8
0
  6
CONTINUOUS
 62
     0
100
AcDbLine
 10
0.0
 20
0.0
 30
0.0
 11
-1.0
 21
0.166666667
 31
0.0
  0
LINE
  5
AB
330
79
100
AcDbEntity
  8
0
  6
CONTINUOUS
 62
     0
100
AcDbLine
 10
0.0
 20
0.0
 30
0.0
 11
-1.0
 21
-0.166666667
 31
0.0
  0
ENDBLK
  5
7B
330
79
100
AcDbEntity
  8
0
100
AcDbBlockEnd
  0
BLOCK
  5
7D
330
7C
100
AcDbEntity
  8
0
100
AcDbBlockBegin
  2
EX_BNORM
 70
     0
 10
0.0
 20
0.0
 30
0.0
  3
EX_BNORM
  1

  0
LINE
  5
AC
330
7C
100
AcDbEntity
  8
0
  6
CONTINUOUS
 62
     0
100
AcDbLine
 10
0.0
 20
0.0
 30
0.0
 11
-1.0
 21
0.0
 31
0.0
  0
LINE
  5
AD
330
7C
100
AcDbEntity
  8
0
  6
CONTINUOUS
 62
     0
100
AcDbLine
 10
0.0
 20
0.0
 30
0.0
 11
-1.0
 21
0.166666667
 31
0.0
  0
LINE
  5
AE
330
7C
100
AcDbEntity
  8
0
  6
CONTINUOUS
 62
     0
100
AcDbLine
 10
0.0
 20
0.0
 30
0.0
 11
-1.0
 21
-0.166666667
 31
0.0
  0
LINE
  5
AF
330
7C
100
AcDbEntity
  8
0
  6
CONTINUOUS
 62
     0
100
AcDbLine
 10
0.0
 20
0.0
 30
0.0
 11
-1.0
 21
0.083333333
 31
0.0
  0
LINE
  5
B0
330
7C
100
AcDbEntity
  8
0
  6
CONTINUOUS
 62
     0
100
AcDbLine
 10
0.0
 20
0.0
 30
0.0
 11
-1.0
 21
-0.083333333
 31
0.0
  0
LINE
  5
B1
330
7C
100
AcDbEntity
  8
0
  6
CONTINUOUS
 62
     0
100
AcDbLine
 10
-1.0
 20
0.166666667
 30
0.0
 11
-1.0
 21
-0.166666667
 31
0.0
  0
ENDBLK
  5
7E
330
7C
100
AcDbEntity
  8
0
100
AcDbBlockEnd
  0
BLOCK
  5
80
330
7F
100
AcDbEntity
  8
0
100
AcDbBlockBegin
  2
EX_BCIR
 70
     0
 10
0.0
 20
0.0
 30
0.0
  3
EX_BCIR
  1

  0
LINE
  5
B2
330
7F
100
AcDbEntity
  8
0
  6
CONTINUOUS
 62
     0
100
AcDbLine
 10
0.0
 20
0.0
 30
0.0
 11
-1.0
 21
0.0
 31
0.0
  0
CIRCLE
  5
B3
330
7F
100
AcDbEntity
  8
0
  6
CONTINUOUS
 62
     0
100
AcDbCircle
 10
0.0
 20
0.0
 30
0.0
 40
0.5
  0
CIRCLE
  5
B4
330
7F
100
AcDbEntity
  8
0
  6
CONTINUOUS
 62
     0
100
AcDbCircle
 10
0.0
 20
0.0
 30
0.0
 40
0.25
  0
ENDBLK
  5
81
330
7F
100
AcDbEntity
  8
0
100
AcDbBlockEnd
  0
BLOCK
  5
83
330
82
100
AcDbEntity
  8
0
100
AcDbBlockBegin
  2
EX_RCIVIL
 70
     0
 10
0.0
 20
0.0
 30
0.0
  3
EX_RCIVIL
  1

  0
LINE
  5
B5
330
82
100
AcDbEntity
  8
0
  6
CONTINUOUS
 62
     0
100
AcDbLine
 10
0.0
 20
0.0
 30
0.0
 11
-1.0
 21
0.0
 31
0.0
  0
LINE
  5
B6
330
82
100
AcDbEntity
  8
0
  6
CONTINUOUS
 62
     0
100
AcDbLine
 10
-1.0
 20
-0.25
 30
0.0
 11
0.0
 21
-0.25
 31
0.0
  0
LINE
  5
B7
330
82
100
AcDbEntity
  8
0
  6
CONTINUOUS
 62
     0
100
AcDbLine
 10
-1.0
 20
-0.125
 30
0.0
 11
0.0
 21
-0.125
 31
0.0
  0
ENDBLK
  5
84
330
82
100
AcDbEntity
  8
0
100
AcDbBlockEnd
  0
BLOCK
  5
86
330
85
100
AcDbEntity
  8
0
100
AcDbBlockBegin
  2
EX_SLANT
 70
     0
 10
0.0
 20
0.0
 30
0.0
  3
EX_SLANT
  1

  0
LINE
  5
B8
330
85
100
AcDbEntity
  8
0
  6
CONTINUOUS
 62
     0
100
AcDbLine
 10
0.0
 20
0.0
 30
0.0
 11
-1.0
 21
0.0
 31
0.0
  0
LINE
  5
B9
330
85
100
AcDbEntity
  8
0
  6
CONTINUOUS
 62
     0
100
AcDbLine
 10
0.707106781
 20
0.707106781
 30
0.0
 11
-0.707106781
 21
-0.707106781
 31
0.0
  0
ENDBLK
  5
87
330
85
100
AcDbEntity
  8
0
100
AcDbBlockEnd
  0
BLOCK
  5
89
330
88
100
AcDbEntity
  8
0
100
AcDbBlockBegin
  2
EX_NONE
 70
     0
 10
0.0
 20
0.0
 30
0.0
  3
EX_NONE
  1

  0
LINE
  5
BA
330
88
100
AcDbEntity
  8
0
  6
CONTINUOUS
 62
     0
100
AcDbLine
 10
0.0
 20
0.0
 30
0.0
 11
-1.0
 21
0.0
 31
0.0
  0
ENDBLK
  5
8A
330
88
100
AcDbEntity
  8
0
100
AcDbBlockEnd
  0
BLOCK
  5
8C
330
8B
100
AcDbEntity
  8
0
100
AcDbBlockBegin
  2
EX_CIVIL
 70
     0
 10
0.0
 20
0.0
 30
0.0
  3
EX_CIVIL
  1

  0
LINE
  5
BB
330
8B
100
AcDbEntity
  8
0
  6
CONTINUOUS
 62
     0
100
AcDbLine
 10
0.0
 20
0.0
 30
0.0
 11
-1.0
 21
0.0
 31
0.0
  0
LINE
  5
BC
330
8B
100
AcDbEntity
  8
0
  6
CONTINUOUS
 62
     0
100
AcDbLine
 10
-1.0
 20
0.25
 30
0.0
 11
0.0
 21
0.25
 31
0.0
  0
LINE
  5
BD
330
8B
100
AcDbEntity
  8
0
  6
CONTINUOUS
 62
     0
100
AcDbLine
 10
-1.0
 20
0.125
 30
0.0
 11
0.0
 21
0.125
 31
0.0
  0
ENDBLK
  5
8D
330
8B
100
AcDbEntity
  8
0
100
AcDbBlockEnd
  0
BLOCK
  5
8F
330
8E
100
AcDbEntity
  8
0
100
AcDbBlockBegin
  2
EX_WCIR
 70
     0
 10
0.0
 20
0.0
 30
0.0
  3
EX_WCIR
  1

  0
LINE
  5
BE
330
8E
100
AcDbEntity
  8
0
  6
CONTINUOUS
 62
     0
100
AcDbLine
 10
0.0
 20
0.0
 30
0.0
 11
-1.0
 21
0.0
 31
0.0
  0
CIRCLE
  5
BF
330
8E
100
AcDbEntity
  8
0
  6
CONTINUOUS
 62
     0
100
AcDbCircle
 10
0.0
 20
0.0
 30
0.0
 40
0.5
  0
ENDBLK
  5
90
330
8E
100
AcDbEntity
  8
0
100
AcDbBlockEnd
  0
BLOCK
  5
92
330
91
100
AcDbEntity
  8
0
100
AcDbBlockBegin
  2
EX_WCIR2
 70
     0
 10
0.0
 20
0.0
 30
0.0
  3
EX_WCIR2
  1

  0
LINE
  5
C0
330
91
100
AcDbEntity
  8
0
  6
CONTINUOUS
 62
     0
100
AcDbLine
 10
-0.5
 20
0.0
 30
0.0
 11
-1.0
 21
0.0
 31
0.0
  0
CIRCLE
  5
C1
330
91
100
AcDbEntity
  8
0
  6
CONTINUOUS
 62
     0
100
AcDbCircle
 10
0.0
 20
0.0
 30
0.0
 40
0.5
  0
ENDBLK
  5
93
330
91
100
AcDbEntity
  8
0
100
AcDbBlockEnd
  0
BLOCK
  5
95
330
94
100
AcDbEntity
  8
0
100
AcDbBlockBegin
  2
EX_WNORM
 70
     0
 10
0.0
 20
0.0
 30
0.0
  3
EX_WNORM
  1

  0
LINE
  5
C2
330
94
100
AcDbEntity
  8
0
  6
CONTINUOUS
 62
     0
100
AcDbLine
 10
-1.0
 20
0.0
 30
0.0
 11
-1.0
 21
0.0
 31
0.0
  0
LINE
  5
C3
330
94
100
AcDbEntity
  8
0
  6
CONTINUOUS
 62
     0
100
AcDbLine
 10
0.0
 20
0.0
 30
0.0
 11
-1.0
 21
0.166666667
 31
0.0
  0
LINE
  5
C4
330
94
100
AcDbEntity
  8
0
  6
CONTINUOUS
 62
     0
100
AcDbLine
 10
0.0
 20
0.0
 30
0.0
 11
-1.0
 21
-0.166666667
 31
0.0
  0
LINE
  5
C5
330
94
100
AcDbEntity
  8
0
  6
CONTINUOUS
 62
     0
100
AcDbLine
 10
-1.0
 20
0.166666667
 30
0.0
 11
-1.0
 21
-0.166666667
 31
0.0
  0
ENDBLK
  5
96
330
94
100
AcDbEntity
  8
0
100
AcDbBlockEnd
  0
BLOCK
  5
98
330
97
100
AcDbEntity
  8
0
100
AcDbBlockBegin
  2
EX_NNORM
 70
     0
 10
0.0
 20
0.0
 30
0.0
  3
EX_NNORM
  1

  0
LINE
  5
C6
330
97
100
AcDbEntity
  8
0
  6
CONTINUOUS
 62
     0
100
AcDbLine
 10
0.0
 20
0.0
 30
0.0
 11
-1.0
 21
0.0
 31
0.0
  0
LINE
  5
C7
330
97
100
AcDbEntity
  8
0
  6
CONTINUOUS
 62
     0
100
AcDbLine
 10
0.0
 20
0.0
 30
0.0
 11
-1.0
 21
0.166666667
 31
0.0
  0
LINE
  5
C8
330
97
100
AcDbEntity
  8
0
  6
CONTINUOUS
 62
     0
100
AcDbLine
 10
0.0
 20
0.0
 30
0.0
 11
-1.0
 21
-0.166666667
 31
0.0
  0
LINE
  5
C9
330
97
100
AcDbEntity
  8
0
  6
CONTINUOUS
 62
     0
100
AcDbLine
 10
-1.0
 20
0.166666667
 30
0.0
 11
-1.0
 21
-0.166666667
 31
0.0
  0
ENDBLK
  5
99
330
97
100
AcDbEntity
  8
0
100
AcDbBlockEnd
  0
BLOCK
  5
9B
330
9A
100
AcDbEntity
  8
0
100
AcDbBlockBegin
  2
EX_BBOX
 70
     0
 10
0.0
 20
0.0
 30
0.0
  3
EX_BBOX
  1

  0
LINE
  5
CA
330
9A
100
AcDbEntity
  8
0
  6
CONTINUOUS
 62
     0
100
AcDbLine
 10
0.0
 20
0.0
 30
0.0
 11
-1.0
 21
0.0
 31
0.0
  0
LINE
  5
CB
330
9A
100
AcDbEntity
  8
0
  6
CONTINUOUS
 62
     0
100
AcDbLine
 10
-0.5
 20
0.5
 30
0.0
 11
0.5
 21
0.5
 31
0.0
  0
LINE
  5
CC
330
9A
100
AcDbEntity
  8
0
  6
CONTINUOUS
 62
     0
100
AcDbLine
 10
0.5
 20
0.5
 30
0.0
 11
0.5
 21
-0.5
 31
0.0
  0
LINE
  5
CD
330
9A
100
AcDbEntity
  8
0
  6
CONTINUOUS
 62
     0
100
AcDbLine
 10
0.5
 20
-0.5
 30
0.0
 11
-0.5
 21
-0.5
 31
0.0
  0
LINE
  5
CE
330
9A
100
AcDbEntity
  8
0
  6
CONTINUOUS
 62
     0
100
AcDbLine
 10
-0.5
 20
-0.5
 30
0.0
 11
-0.5
 21
0.5
 31
0.0
  0
LINE
  5
CF
330
9A
100
AcDbEntity
  8
0
  6
CONTINUOUS
 62
     0
100
AcDbLine
 10
-0.25
 20
0.25
 30
0.0
 11
0.25
 21
0.25
 31
0.0
  0
LINE
  5
D0
330
9A
100
AcDbEntity
  8
0
  6
CONTINUOUS
 62
     0
100
AcDbLine
 10
0.25
 20
0.25
 30
0.0
 11
0.25
 21
-0.25
 31
0.0
  0
LINE
  5
D1
330
9A
100
AcDbEntity
  8
0
  6
CONTINUOUS
 62
     0
100
AcDbLine
 10
0.25
 20
-0.25
 30
0.0
 11
-0.25
 21
-0.25
 31
0.0
  0
LINE
  5
D2
330
9A
100
AcDbEntity
  8
0
  6
CONTINUOUS
 62
     0
100
AcDbLine
 10
-0.25
 20
-0.25
 30
0.0
 11
-0.25
 21
0.25
 31
0.0
  0
ENDBLK
  5
9C
330
9A
100
AcDbEntity
  8
0
100
AcDbBlockEnd
  0
BLOCK
  5
9E
330
9D
100
AcDbEntity
  8
0
100
AcDbBlockBegin
  2
EX_WBOX
 70
     0
 10
0.0
 20
0.0
 30
0.0
  3
EX_WBOX
  1

  0
LINE
  5
D3
330
9D
100
AcDbEntity
  8
0
  6
CONTINUOUS
 62
     0
100
AcDbLine
 10
-0.5
 20
0.0
 30
0.0
 11
-1.0
 21
0.0
 31
0.0
  0
LINE
  5
D4
330
9D
100
AcDbEntity
  8
0
  6
CONTINUOUS
 62
     0
100
AcDbLine
 10
-0.5
 20
0.5
 30
0.0
 11
0.5
 21
0.5
 31
0.0
  0
LINE
  5
D5
330
9D
100
AcDbEntity
  8
0
  6
CONTINUOUS
 62
     0
100
AcDbLine
 10
0.5
 20
0.5
 30
0.0
 11
0.5
 21
-0.5
 31
0.0
  0
LINE
  5
D6
330
9D
100
AcDbEntity
  8
0
  6
CONTINUOUS
 62
     0
100
AcDbLine
 10
0.5
 20
-0.5
 30
0.0
 11
-0.5
 21
-0.5
 31
0.0
  0
LINE
  5
D7
330
9D
100
AcDbEntity
  8
0
  6
CONTINUOUS
 62
     0
100
AcDbLine
 10
-0.5
 20
-0.5
 30
0.0
 11
-0.5
 21
0.5
 31
0.0
  0
ENDBLK
  5
9F
330
9D
100
AcDbEntity
  8
0
100
AcDbBlockEnd
  0
BLOCK
  5
A1
330
A0
100
AcDbEntity
  8
0
100
AcDbBlockBegin
  2
EX_INTEGRAL
 70
     0
 10
0.0
 20
0.0
 30
0.0
  3
EX_INTEGRAL
  1

  0
LINE
  5
D8
330
A0
100
AcDbEntity
  8
0
  6
CONTINUOUS
 62
     0
100
AcDbLine
 10
0.0
 20
0.0
 30
0.0
 11
-1.0
 21
0.0
 31
0.0
  0
ARC
  5
D9
330
A0
100
AcDbEntity
  8
0
  6
CONTINUOUS
 62
     0
100
AcDbCircle
 10
0.542115
 20
0.164992
 30
0.0
 40
0.56667
100
AcDbArc
 50
73.07249033629006
 51
196.9275130221199
  0
ARC
  5
DA
330
A0
100
AcDbEntity
  8
0
  6
CONTINUOUS
 62
     0
100
AcDbCircle
 10
-0.542115
 20
-0.164992
 30
0.0
 40
0.56667
100
AcDbArc
 50
253.0724869220464
 51
16.9275130559125
  0
ENDBLK
  5
A2
330
A0
100
AcDbEntity
  8
0
100
AcDbBlockEnd
  0
BLOCK
  5
A4
330
A3
100
AcDbEntity
  8
0
100
AcDbBlockBegin
  2
SYM-1
 70
     0
 10
0.0
 20
0.0
 30
0.0
  3
SYM-1
  1

  0
ARC
  5
DB
330
A3
100
AcDbEntity
  8
0
  6
CONTINUOUS
 62
     7
100
AcDbCircle
 10
2052.856060528285
 20
2223.100000000087
 30
0.0
 40
29.6409090909091
100
AcDbArc
 50
344.3418469798809
 51
15.65815302011909
  0
LINE
  5
DC
330
A3
100
AcDbEntity
  8
0
  6
CONTINUOUS
 62
     7
100
AcDbLine
 10
2081.396969619193
 20
2231.100000000087
 30
0.0
 11
2072.496969619194
 21
2231.100000000087
 31
0.0
  0
LINE
  5
DD
330
A3
100
AcDbEntity
  8
0
  6
CONTINUOUS
 62
     7
100
AcDbLine
 10
2081.396969619193
 20
2215.100000000087
 30
0.0
 11
2072.496969619194
 21
2215.100000000087
 31
0.0
  0
LINE
  5
DE
330
A3
100
AcDbEntity
  8
0
  6
CONTINUOUS
 62
     7
100
AcDbLine
 10
2072.496969619194
 20
2209.250000000088
 30
0.0
 11
2081.396969619193
 21
2209.250000000088
 31
0.0
  0
ARC
  5
DF
330
A3
100
AcDbEntity
  8
0
  6
CONTINUOUS
 62
     7
100
AcDbCircle
 10
2078.058049164648
 20
2212.175000000088
 30
0.0
 40
4.438920454545305
100
AcDbArc
 50
318.7806141249314
 51
41.21938587506865
  0
LINE
  5
E0
330
A3
100
AcDbEntity
  8
0
  6
CONTINUOUS
 62
     7
100
AcDbLine
 10
2072.496969619194
 20
2236.950000000088
 30
0.0
 11
2081.396969619193
 21
2236.950000000088
 31
0.0
  0
ARC
  5
E1
330
A3
100
AcDbEntity
  8
0
  6
CONTINUOUS
 62
     7
100
AcDbCircle
 10
2078.058049164648
 20
2234.025000000087
 30
0.0
 40
4.438920454545305
100
AcDbArc
 50
318.7806141249314
 51
41.21938587506865
  0
LINE
  5
E2
330
A3
100
AcDbEntity
  8
0
  6
CONTINUOUS
 62
     7
100
AcDbLine
 10
2082.496969619192
 20
2234.025000000087
 30
0.0
 11
2082.496969619192
 21
2212.175000000088
 31
0.0
  0
ENDBLK
  5
A5
330
A3
100
AcDbEntity
  8
0
100
AcDbBlockEnd
  0
BLOCK
  5
A7
330
A6
100
AcDbEntity
  8
0
100
AcDbBlockBegin
  2
SYM-2
 70
     0
 10
0.0
 20
0.0
 30
0.0
  3
SYM-2
  1

  0
ARC
  5
E3
330
A6
100
AcDbEntity
  8
0
  6
CONTINUOUS
 62
     7
100
AcDbCircle
 10
2052.856060528286
 20
1149.100000000062
 30
0.0
 40
29.6409090909091
100
AcDbArc
 50
344.341846979881
 51
15.65815302011909
  0
LINE
  5
E4
330
A6
100
AcDbEntity
  8
0
  6
CONTINUOUS
 62
     7
100
AcDbLine
 10
2081.396969619195
 20
1141.100000000062
 30
0.0
 11
2072.496969619197
 21
1141.100000000062
 31
0.0
  0
LINE
  5
E5
330
A6
100
AcDbEntity
  8
0
  6
CONTINUOUS
 62
     7
100
AcDbLine
 10
2081.396969619195
 20
1157.100000000061
 30
0.0
 11
2072.496969619197
 21
1157.100000000061
 31
0.0
  0
LINE
  5
E6
330
A6
100
AcDbEntity
  8
0
  6
CONTINUOUS
 62
     7
100
AcDbLine
 10
2072.496969619197
 20
1162.950000000062
 30
0.0
 11
2081.396969619195
 21
1162.950000000062
 31
0.0
  0
ARC
  5
E7
330
A6
100
AcDbEntity
  8
0
  6
CONTINUOUS
 62
     7
100
AcDbCircle
 10
2078.058049164651
 20
1160.025000000061
 30
0.0
 40
4.438920454545305
100
AcDbArc
 50
318.7806141249314
 51
41.21938587506865
  0
LINE
  5
E8
330
A6
100
AcDbEntity
  8
0
  6
CONTINUOUS
 62
     7
100
AcDbLine
 10
2072.496969619197
 20
1135.250000000061
 30
0.0
 11
2081.396969619195
 21
1135.250000000061
 31
0.0
  0
ARC
  5
E9
330
A6
100
AcDbEntity
  8
0
  6
CONTINUOUS
 62
     7
100
AcDbCircle
 10
2078.058049164651
 20
1138.175000000063
 30
0.0
 40
4.438920454545305
100
AcDbArc
 50
318.7806141249314
 51
41.21938587506865
  0
LINE
  5
EA
330
A6
100
AcDbEntity
  8
0
  6
CONTINUOUS
 62
     7
100
AcDbLine
 10
2082.496969619196
 20
1138.175000000063
 30
0.0
 11
2082.496969619196
 21
1160.025000000061
 31
0.0
  0
ENDBLK
  5
A8
330
A6
100
AcDbEntity
  8
0
100
AcDbBlockEnd
  0
BLOCK
  5
639
330
638
100
AcDbEntity
  8
0
100
AcDbBlockBegin
  2
*D17
 70
     1
 10
0.0
 20
0.0
 30
0.0
  3
*D17
  1

  0
LINE
  5
63B
330
638
100
AcDbEntity
  8
LAY-20
  6
CONTINUOUS
 62
     4
100
AcDbLine
 10
1995.496969619198
 20
2258.100000000199
 30
0.0
 11
1895.496969619199
 21
2258.100000000199
 31
0.0
  0
LINE
  5
63C
330
638
100
AcDbEntity
  8
LAY-20
  6
CONTINUOUS
 62
     4
100
AcDbLine
 10
1995.496969619198
 20
1114.1
 30
0.0
 11
1895.496969619199
 21
1114.1
 31
0.0
  0
LINE
  5
63D
330
638
100
AcDbEntity
  8
LAY-20
  6
CONTINUOUS
 62
     4
100
AcDbLine
 10
1910.4969696192
 20
2233.100000000199
 30
0.0
 11
1910.4969696192
 21
1139.1
 31
0.0
  0
INSERT
  5
63E
330
638
100
AcDbEntity
  8
LAY-20
 62
     4
100
AcDbBlockReference
  2
EX_BNORM
 10
1910.4969696192
 20
2258.100000000199
 30
0.0
 41
25.0
 42
25.0
 43
25.0
 50
90.0
  0
INSERT
  5
63F
330
638
100
AcDbEntity
  8
LAY-20
 62
     4
100
AcDbBlockReference
  2
EX_BNORM
 10
1910.4969696192
 20
1114.1
 30
0.0
 41
25.0
 42
25.0
 43
25.0
 50
270.0
  0
MTEXT
  5
640
330
638
100
AcDbEntity
  8
LAY-20
 62
     7
100
AcDbMText
 10
1885.4969696192
 20
1686.100000000099
 30
0.0
 40
31.181104
 41
0.0
 71
     5
 72
     1
  1
1144
  7
EXCADDIM1
 11
0.0
 21
1.0
 31
0.0
  0
POINT
  5
641
330
638
100
AcDbEntity
  8
DEFPOINTS
 62
     0
100
AcDbPoint
 10
2010.496969619198
 20
2258.100000000199
 30
0.0
  0
POINT
  5
642
330
638
100
AcDbEntity
  8
DEFPOINTS
 62
     0
100
AcDbPoint
 10
2010.496969619198
 20
1114.1
 30
0.0
  0
POINT
  5
643
330
638
100
AcDbEntity
  8
DEFPOINTS
 62
     0
100
AcDbPoint
 10
1910.4969696192
 20
1114.1
 30
0.0
  0
ENDBLK
  5
63A
330
638
100
AcDbEntity
  8
0
100
AcDbBlockEnd
  0
BLOCK
  5
646
330
645
100
AcDbEntity
  8
0
100
AcDbBlockBegin
  2
*D18
 70
     1
 10
0.0
 20
0.0
 30
0.0
  3
*D18
  1

  0
LINE
  5
648
330
645
100
AcDbEntity
  8
LAY-20
  6
CONTINUOUS
 62
     4
100
AcDbLine
 10
1995.496969619201
 20
1105.099999999999
 30
0.0
 11
1825.4969696192
 21
1105.099999999999
 31
0.0
  0
LINE
  5
649
330
645
100
AcDbEntity
  8
LAY-20
  6
CONTINUOUS
 62
     4
100
AcDbLine
 10
1995.496969619201
 20
2267.1000000003
 30
0.0
 11
1825.4969696192
 21
2267.1000000003
 31
0.0
  0
LINE
  5
64A
330
645
100
AcDbEntity
  8
LAY-20
  6
CONTINUOUS
 62
     4
100
AcDbLine
 10
1840.4969696192
 20
1130.099999999999
 30
0.0
 11
1840.4969696192
 21
2242.1000000003
 31
0.0
  0
INSERT
  5
64B
330
645
100
AcDbEntity
  8
LAY-20
 62
     4
100
AcDbBlockReference
  2
EX_BNORM
 10
1840.4969696192
 20
1105.099999999999
 30
0.0
 41
25.0
 42
25.0
 43
25.0
 50
270.0
  0
INSERT
  5
64C
330
645
100
AcDbEntity
  8
LAY-20
 62
     4
100
AcDbBlockReference
  2
EX_BNORM
 10
1840.4969696192
 20
2267.1000000003
 30
0.0
 41
25.0
 42
25.0
 43
25.0
 50
90.0
  0
MTEXT
  5
64D
330
645
100
AcDbEntity
  8
LAY-20
 62
     7
100
AcDbMText
 10
1815.4969696192
 20
1686.10000000015
 30
0.0
 40
31.181104
 41
0.0
 71
     5
 72
     1
  1
1162
  7
EXCADDIM1
 11
0.0
 21
1.0
 31
0.0
  0
POINT
  5
64E
330
645
100
AcDbEntity
  8
DEFPOINTS
 62
     0
100
AcDbPoint
 10
2010.496969619201
 20
1105.099999999999
 30
0.0
  0
POINT
  5
64F
330
645
100
AcDbEntity
  8
DEFPOINTS
 62
     0
100
AcDbPoint
 10
2010.496969619201
 20
2267.1000000003
 30
0.0
  0
POINT
  5
650
330
645
100
AcDbEntity
  8
DEFPOINTS
 62
     0
100
AcDbPoint
 10
1840.4969696192
 20
2267.1000000003
 30
0.0
  0
ENDBLK
  5
647
330
645
100
AcDbEntity
  8
0
100
AcDbBlockEnd
  0
BLOCK
  5
653
330
652
100
AcDbEntity
  8
0
100
AcDbBlockBegin
  2
*D19
 70
     1
 10
0.0
 20
0.0
 30
0.0
  3
*D19
  1

  0
LINE
  5
655
330
652
100
AcDbEntity
  8
LAY-20
  6
CONTINUOUS
 62
     4
100
AcDbLine
 10
2195.496969619199
 20
1236.100000000099
 30
0.0
 11
2295.4969696192
 21
1236.100000000099
 31
0.0
  0
LINE
  5
656
330
652
100
AcDbEntity
  8
LAY-20
  6
CONTINUOUS
 62
     4
100
AcDbLine
 10
2195.496969619199
 20
2136.1000000001
 30
0.0
 11
2295.4969696192
 21
2136.1000000001
 31
0.0
  0
LINE
  5
657
330
652
100
AcDbEntity
  8
LAY-20
  6
CONTINUOUS
 62
     4
100
AcDbLine
 10
2280.4969696192
 20
1261.100000000099
 30
0.0
 11
2280.4969696192
 21
2111.1000000001
 31
0.0
  0
INSERT
  5
658
330
652
100
AcDbEntity
  8
LAY-20
 62
     4
100
AcDbBlockReference
  2
EX_BNORM
 10
2280.4969696192
 20
1236.100000000099
 30
0.0
 41
25.0
 42
25.0
 43
25.0
 50
270.0
  0
INSERT
  5
659
330
652
100
AcDbEntity
  8
LAY-20
 62
     4
100
AcDbBlockReference
  2
EX_BNORM
 10
2280.4969696192
 20
2136.1000000001
 30
0.0
 41
25.0
 42
25.0
 43
25.0
 50
90.0
  0
MTEXT
  5
65A
330
652
100
AcDbEntity
  8
LAY-20
 62
     7
100
AcDbMText
 10
2255.4969696192
 20
1686.100000000099
 30
0.0
 40
31.181104
 41
0.0
 71
     5
 72
     1
  1
900
  7
EXCADDIM1
 11
0.0
 21
1.0
 31
0.0
  0
POINT
  5
65B
330
652
100
AcDbEntity
  8
DEFPOINTS
 62
     0
100
AcDbPoint
 10
2180.496969619199
 20
1236.100000000099
 30
0.0
  0
POINT
  5
65C
330
652
100
AcDbEntity
  8
DEFPOINTS
 62
     0
100
AcDbPoint
 10
2180.496969619199
 20
2136.1000000001
 30
0.0
  0
POINT
  5
65D
330
652
100
AcDbEntity
  8
DEFPOINTS
 62
     0
100
AcDbPoint
 10
2280.4969696192
 20
2136.1000000001
 30
0.0
  0
ENDBLK
  5
654
330
652
100
AcDbEntity
  8
0
100
AcDbBlockEnd
  0
BLOCK
  5
660
330
65F
100
AcDbEntity
  8
0
100
AcDbBlockBegin
  2
*D20
 70
     1
 10
0.0
 20
0.0
 30
0.0
  3
*D20
  1

  0
LINE
  5
662
330
65F
100
AcDbEntity
  8
LAY-20
  6
CONTINUOUS
 62
     4
100
AcDbLine
 10
1589.301515189804
 20
560.6792929683006
 30
0.0
 11
1741.6568542491
 21
560.6792929683006
 31
0.0
  0
LINE
  5
663
330
65F
100
AcDbEntity
  8
LAY-20
  6
CONTINUOUS
 62
     4
100
AcDbLine
 10
1598.301515189799
 20
730.6792929682997
 30
0.0
 11
1741.6568542491
 21
730.6792929682997
 31
0.0
  0
LINE
  5
664
330
65F
100
AcDbEntity
  8
LAY-20
  6
CONTINUOUS
 62
     4
100
AcDbLine
 10
1726.6568542491
 20
585.6792929683006
 30
0.0
 11
1726.6568542491
 21
705.6792929682997
 31
0.0
  0
INSERT
  5
665
330
65F
100
AcDbEntity
  8
LAY-20
 62
     4
100
AcDbBlockReference
  2
EX_BNORM
 10
1726.6568542491
 20
560.6792929683006
 30
0.0
 41
25.0
 42
25.0
 43
25.0
 50
270.0
  0
INSERT
  5
666
330
65F
100
AcDbEntity
  8
LAY-20
 62
     4
100
AcDbBlockReference
  2
EX_BNORM
 10
1726.6568542491
 20
730.6792929682997
 30
0.0
 41
25.0
 42
25.0
 43
25.0
 50
90.0
  0
MTEXT
  5
667
330
65F
100
AcDbEntity
  8
LAY-20
 62
     7
100
AcDbMText
 10
1701.656854249102
 20
645.6792929682993
 30
0.0
 40
31.181104
 41
0.0
 71
     5
 72
     1
  1
170
  7
EXCADDIM1
 11
0.0
 21
1.0
 31
0.0
  0
POINT
  5
668
330
65F
100
AcDbEntity
  8
DEFPOINTS
 62
     0
100
AcDbPoint
 10
1574.301515189804
 20
560.6792929683006
 30
0.0
  0
POINT
  5
669
330
65F
100
AcDbEntity
  8
DEFPOINTS
 62
     0
100
AcDbPoint
 10
1583.301515189799
 20
730.6792929682997
 30
0.0
  0
POINT
  5
66A
330
65F
100
AcDbEntity
  8
DEFPOINTS
 62
     0
100
AcDbPoint
 10
1726.6568542491
 20
730.6792929682997
 30
0.0
  0
ENDBLK
  5
661
330
65F
100
AcDbEntity
  8
0
100
AcDbBlockEnd
  0
BLOCK
  5
66D
330
66C
100
AcDbEntity
  8
0
100
AcDbBlockBegin
  2
*D21
 70
     1
 10
0.0
 20
0.0
 30
0.0
  3
*D21
  1

  0
LINE
  5
66F
330
66C
100
AcDbEntity
  8
LAY-20
  6
CONTINUOUS
 62
     4
100
AcDbLine
 10
628.3015151901188
 20
545.6792929682997
 30
0.0
 11
628.3015151901188
 21
445.67929296828
 31
0.0
  0
LINE
  5
670
330
66C
100
AcDbEntity
  8
LAY-20
  6
CONTINUOUS
 62
     4
100
AcDbLine
 10
1528.3015151897
 20
545.6792929682997
 30
0.0
 11
1528.3015151897
 21
445.67929296828
 31
0.0
  0
LINE
  5
671
330
66C
100
AcDbEntity
  8
LAY-20
  6
CONTINUOUS
 62
     4
100
AcDbLine
 10
653.3015151901188
 20
460.67929296828
 30
0.0
 11
1503.3015151897
 21
460.67929296828
 31
0.0
  0
INSERT
  5
672
330
66C
100
AcDbEntity
  8
LAY-20
 62
     4
100
AcDbBlockReference
  2
EX_BNORM
 10
628.3015151901188
 20
460.67929296828
 30
0.0
 41
25.0
 42
25.0
 43
25.0
 50
180.0
  0
INSERT
  5
673
330
66C
100
AcDbEntity
  8
LAY-20
 62
     4
100
AcDbBlockReference
  2
EX_BNORM
 10
1528.3015151897
 20
460.67929296828
 30
0.0
 41
25.0
 42
25.0
 43
25.0
  0
MTEXT
  5
674
330
66C
100
AcDbEntity
  8
LAY-20
 62
     7
100
AcDbMText
 10
1078.301515189909
 20
485.67929296828
 30
0.0
 40
31.181104
 41
0.0
 71
     5
 72
     1
  1
900
  7
EXCADDIM1
  0
POINT
  5
675
330
66C
100
AcDbEntity
  8
DEFPOINTS
 62
     0
100
AcDbPoint
 10
628.3015151901188
 20
560.6792929682997
 30
0.0
  0
POINT
  5
676
330
66C
100
AcDbEntity
  8
DEFPOINTS
 62
     0
100
AcDbPoint
 10
1528.3015151897
 20
560.6792929682997
 30
0.0
  0
POINT
  5
677
330
66C
100
AcDbEntity
  8
DEFPOINTS
 62
     0
100
AcDbPoint
 10
1528.3015151897
 20
460.67929296828
 30
0.0
  0
ENDBLK
  5
66E
330
66C
100
AcDbEntity
  8
0
100
AcDbBlockEnd
  0
BLOCK
  5
67A
330
679
100
AcDbEntity
  8
0
100
AcDbBlockBegin
  2
*D22
 70
     1
 10
0.0
 20
0.0
 30
0.0
  3
*D22
  1

  0
LINE
  5
67C
330
679
100
AcDbEntity
  8
LAY-20
  6
CONTINUOUS
 62
     4
100
AcDbLine
 10
581.3015151898096
 20
750.6792929682505
 30
0.0
 11
581.3015151898096
 21
845.679292968243
 31
0.0
  0
LINE
  5
67D
330
679
100
AcDbEntity
  8
LAY-20
  6
CONTINUOUS
 62
     4
100
AcDbLine
 10
1077.301515189819
 20
750.6792929682542
 30
0.0
 11
1077.301515189819
 21
845.679292968243
 31
0.0
  0
LINE
  5
67E
330
679
100
AcDbEntity
  8
LAY-20
  6
CONTINUOUS
 62
     4
100
AcDbLine
 10
606.3015151898096
 20
830.6792929683589
 30
0.0
 11
1052.301515189819
 21
830.6792929683589
 31
0.0
  0
INSERT
  5
67F
330
679
100
AcDbEntity
  8
LAY-20
 62
     4
100
AcDbBlockReference
  2
EX_BNORM
 10
581.3015151898096
 20
830.6792929683589
 30
0.0
 41
25.0
 42
25.0
 43
25.0
 50
180.0
  0
INSERT
  5
680
330
679
100
AcDbEntity
  8
LAY-20
 62
     4
100
AcDbBlockReference
  2
EX_BNORM
 10
1077.301515189819
 20
830.6792929683589
 30
0.0
 41
25.0
 42
25.0
 43
25.0
  0
MTEXT
  5
681
330
679
100
AcDbEntity
  8
LAY-20
 62
     7
100
AcDbMText
 10
829.3015151897939
 20
855.6792929683095
 30
0.0
 40
31.181104
 41
0.0
 71
     5
 72
     1
  1
496
  7
EXCADDIM1
  0
POINT
  5
682
330
679
100
AcDbEntity
  8
DEFPOINTS
 62
     0
100
AcDbPoint
 10
581.3015151898096
 20
735.6792929682505
 30
0.0
  0
POINT
  5
683
330
679
100
AcDbEntity
  8
DEFPOINTS
 62
     0
100
AcDbPoint
 10
1077.301515189819
 20
735.6792929682542
 30
0.0
  0
POINT
  5
684
330
679
100
AcDbEntity
  8
DEFPOINTS
 62
     0
100
AcDbPoint
 10
1077.301515189819
 20
830.6792929683589
 30
0.0
  0
ENDBLK
  5
67B
330
679
100
AcDbEntity
  8
0
100
AcDbBlockEnd
  0
BLOCK
  5
687
330
686
100
AcDbEntity
  8
0
100
AcDbBlockBegin
  2
*D23
 70
     1
 10
0.0
 20
0.0
 30
0.0
  3
*D23
  1

  0
LINE
  5
689
330
686
100
AcDbEntity
  8
LAY-20
  6
CONTINUOUS
 62
     4
100
AcDbLine
 10
1583.301515189799
 20
750.6792929682797
 30
0.0
 11
1583.301515189799
 21
915.6792929682518
 31
0.0
  0
LINE
  5
68A
330
686
100
AcDbEntity
  8
LAY-20
  6
CONTINUOUS
 62
     4
100
AcDbLine
 10
573.3015151898078
 20
750.6792929682806
 30
0.0
 11
573.3015151898078
 21
915.6792929682518
 31
0.0
  0
LINE
  5
68B
330
686
100
AcDbEntity
  8
LAY-20
  6
CONTINUOUS
 62
     4
100
AcDbLine
 10
1558.301515189799
 20
900.6792929682514
 30
0.0
 11
598.3015151898078
 21
900.6792929682514
 31
0.0
  0
INSERT
  5
68C
330
686
100
AcDbEntity
  8
LAY-20
 62
     4
100
AcDbBlockReference
  2
EX_BNORM
 10
1583.301515189799
 20
900.6792929682514
 30
0.0
 41
25.0
 42
25.0
 43
25.0
  0
INSERT
  5
68D
330
686
100
AcDbEntity
  8
LAY-20
 62
     4
100
AcDbBlockReference
  2
EX_BNORM
 10
573.3015151898078
 20
900.6792929682514
 30
0.0
 41
25.0
 42
25.0
 43
25.0
 50
180.0
  0
MTEXT
  5
68E
330
686
100
AcDbEntity
  8
LAY-20
 62
     7
100
AcDbMText
 10
1078.301515189804
 20
925.6792929682505
 30
0.0
 40
31.181104
 41
0.0
 71
     5
 72
     1
  1
1010
  7
EXCADDIM1
  0
POINT
  5
68F
330
686
100
AcDbEntity
  8
DEFPOINTS
 62
     0
100
AcDbPoint
 10
1583.301515189799
 20
735.6792929682797
 30
0.0
  0
POINT
  5
690
330
686
100
AcDbEntity
  8
DEFPOINTS
 62
     0
100
AcDbPoint
 10
573.3015151898078
 20
735.6792929682806
 30
0.0
  0
POINT
  5
691
330
686
100
AcDbEntity
  8
DEFPOINTS
 62
     0
100
AcDbPoint
 10
573.3015151898078
 20
900.6792929682514
 30
0.0
  0
ENDBLK
  5
688
330
686
100
AcDbEntity
  8
0
100
AcDbBlockEnd
  0
BLOCK
  5
694
330
693
100
AcDbEntity
  8
0
100
AcDbBlockBegin
  2
*D24
 70
     1
 10
0.0
 20
0.0
 30
0.0
  3
*D24
  1

  0
LINE
  5
696
330
693
100
AcDbEntity
  8
LAY-20
  6
CONTINUOUS
 62
     4
100
AcDbLine
 10
1249.0
 20
726.17929296825
 30
0.0
 11
1249.0
 21
730.6792929682499
 31
0.0
  0
LINE
  5
697
330
693
100
AcDbEntity
  8
LAY-20
  6
CONTINUOUS
 62
     4
100
AcDbLine
 10
1249.0
 20
701.17929296825
 30
0.0
 11
1249.0
 21
676.17929296825
 31
0.0
  0
LINE
  5
698
330
693
100
AcDbEntity
  8
LAY-20
  6
CONTINUOUS
 62
     4
100
AcDbLine
 10
1249.0
 20
755.6792929682499
 30
0.0
 11
1249.0
 21
780.6792929682499
 31
0.0
  0
INSERT
  5
699
330
693
100
AcDbEntity
  8
LAY-20
 62
     4
100
AcDbBlockReference
  2
EX_BNORM
 10
1249.0
 20
726.17929296825
 30
0.0
 41
25.0
 42
25.0
 43
25.0
 50
90.0
  0
INSERT
  5
69A
330
693
100
AcDbEntity
  8
LAY-20
 62
     4
100
AcDbBlockReference
  2
EX_BNORM
 10
1249.0
 20
730.6792929682499
 30
0.0
 41
25.0
 42
25.0
 43
25.0
 50
270.0
  0
MTEXT
  5
69B
330
693
100
AcDbEntity
  8
LAY-20
 62
     7
100
AcDbMText
 10
1224.0
 20
795.6792929682496
 30
0.0
 40
31.181104
 41
0.0
 71
     5
 72
     1
  1
4.5
  7
EXCADDIM1
 11
0.0
 21
1.0
 31
0.0
  0
POINT
  5
69C
330
693
100
AcDbEntity
  8
DEFPOINTS
 62
     0
100
AcDbPoint
 10
1249.0
 20
726.17929296825
 30
0.0
  0
POINT
  5
69D
330
693
100
AcDbEntity
  8
DEFPOINTS
 62
     0
100
AcDbPoint
 10
1249.0
 20
730.6792929682499
 30
0.0
  0
POINT
  5
69E
330
693
100
AcDbEntity
  8
DEFPOINTS
 62
     0
100
AcDbPoint
 10
1249.0
 20
730.6792929682499
 30
0.0
  0
ENDBLK
  5
695
330
693
100
AcDbEntity
  8
0
100
AcDbBlockEnd
  0
ENDSEC
  0
SECTION
  2
ENTITIES
  0
INSERT
  5
EB
330
1F
100
AcDbEntity
  8
LAY-10
  6
CONTINUOUS
 62
     0
100
AcDbBlockReference
  2
SYM-1
 10
0.0
 20
0.0
 30
0.0
  0
INSERT
  5
EC
330
1F
100
AcDbEntity
  8
LAY-10
  6
CONTINUOUS
 62
     0
100
AcDbBlockReference
  2
SYM-2
 10
0.0
 20
0.0
 30
0.0
  0
LINE
  5
ED
330
1F
100
AcDbEntity
  8
LAY-10
  6
CONTINUOUS
 62
     7
100
AcDbLine
 10
2169.924603255339
 20
2183.600000000105
 30
0.0
 11
2169.496969619201
 21
2183.172366363966
 31
0.0
  0
LINE
  5
EE
330
1F
100
AcDbEntity
  8
LAY-10
  6
CONTINUOUS
 62
     7
100
AcDbLine
 10
2171.338816817722
 20
2183.600000000112
 30
0.0
 11
2169.49696961919
 21
2181.758152801584
 31
0.0
  0
LINE
  5
EF
330
1F
100
AcDbEntity
  8
LAY-10
  6
CONTINUOUS
 62
     7
100
AcDbLine
 10
2172.753030380084
 20
2183.600000000103
 30
0.0
 11
2169.496969619203
 21
2180.343939239221
 31
0.0
  0
LINE
  5
F0
330
1F
100
AcDbEntity
  8
LAY-10
  6
CONTINUOUS
 62
     7
100
AcDbLine
 10
2174.167243942466
 20
2183.600000000111
 30
0.0
 11
2169.496969619192
 21
2178.929725676839
 31
0.0
  0
LINE
  5
F1
330
1F
100
AcDbEntity
  8
LAY-10
  6
CONTINUOUS
 62
     7
100
AcDbLine
 10
2174.496969619223
 20
2182.515512114496
 30
0.0
 11
2169.496969619205
 21
2177.515512114477
 31
0.0
  0
LINE
  5
F2
330
1F
100
AcDbEntity
  8
LAY-10
  6
CONTINUOUS
 62
     7
100
AcDbLine
 10
2174.496969619232
 20
2181.101298552134
 30
0.0
 11
2169.496969619194
 21
2176.101298552093
 31
0.0
  0
LINE
  5
F3
330
1F
100
AcDbEntity
  8
LAY-10
  6
CONTINUOUS
 62
     7
100
AcDbLine
 10
2174.496969619223
 20
2179.687084989752
 30
0.0
 11
2169.496969619205
 21
2174.687084989731
 31
0.0
  0
LINE
  5
F4
330
1F
100
AcDbEntity
  8
LAY-10
  6
CONTINUOUS
 62
     7
100
AcDbLine
 10
2174.496969619236
 20
2178.272871427388
 30
0.0
 11
2169.496969619194
 21
2173.272871427348
 31
0.0
  0
LINE
  5
F5
330
1F
100
AcDbEntity
  8
LAY-10
  6
CONTINUOUS
 62
     7
100
AcDbLine
 10
2174.496969619225
 20
2176.858657865006
 30
0.0
 11
2169.496969619207
 21
2171.858657864986
 31
0.0
  0
LINE
  5
F6
330
1F
100
AcDbEntity
  8
LAY-10
  6
CONTINUOUS
 62
     7
100
AcDbLine
 10
2174.496969619237
 20
2175.444444302642
 30
0.0
 11
2169.496969619196
 21
2170.444444302604
 31
0.0
  0
LINE
  5
F7
330
1F
100
AcDbEntity
  8
LAY-10
  6
CONTINUOUS
 62
     7
100
AcDbLine
 10
2174.496969619227
 20
2174.030230740262
 30
0.0
 11
2169.496969619207
 21
2169.03023074024
 31
0.0
  0
LINE
  5
F8
330
1F
100
AcDbEntity
  8
LAY-10
  6
CONTINUOUS
 62
     7
100
AcDbLine
 10
2174.496969619239
 20
2172.616017177899
 30
0.0
 11
2169.496969619199
 21
2167.616017177858
 31
0.0
  0
LINE
  5
F9
330
1F
100
AcDbEntity
  8
LAY-10
  6
CONTINUOUS
 62
     7
100
AcDbLine
 10
2174.496969619228
 20
2171.201803615516
 30
0.0
 11
2169.496969619208
 21
2166.201803615496
 31
0.0
  0
LINE
  5
FA
330
1F
100
AcDbEntity
  8
LAY-10
  6
CONTINUOUS
 62
     7
100
AcDbLine
 10
2174.496969619239
 20
2169.787590053152
 30
0.0
 11
2169.496969619201
 21
2164.787590053114
 31
0.0
  0
LINE
  5
FB
330
1F
100
AcDbEntity
  8
LAY-10
  6
CONTINUOUS
 62
     7
100
AcDbLine
 10
2174.496969619228
 20
2168.373376490772
 30
0.0
 11
2169.496969619208
 21
2163.373376490751
 31
0.0
  0
LINE
  5
FC
330
1F
100
AcDbEntity
  8
LAY-10
  6
CONTINUOUS
 62
     7
100
AcDbLine
 10
2174.496969619221
 20
2166.959162928389
 30
0.0
 11
2169.496969619201
 21
2161.959162928368
 31
0.0
  0
LINE
  5
FD
330
1F
100
AcDbEntity
  8
LAY-10
  6
CONTINUOUS
 62
     7
100
AcDbLine
 10
2174.49696961923
 20
2165.544949366026
 30
0.0
 11
2169.49696961921
 21
2160.544949366005
 31
0.0
  0
LINE
  5
FE
330
1F
100
AcDbEntity
  8
LAY-10
  6
CONTINUOUS
 62
     7
100
AcDbLine
 10
2174.496969619221
 20
2164.130735803643
 30
0.0
 11
2169.496969619203
 21
2159.130735803624
 31
0.0
  0
LINE
  5
FF
330
1F
100
AcDbEntity
  8
LAY-10
  6
CONTINUOUS
 62
     7
100
AcDbLine
 10
2174.496969619232
 20
2162.71652224128
 30
0.0
 11
2169.496969619212
 21
2157.716522241261
 31
0.0
  0
LINE
  5
100
330
1F
100
AcDbEntity
  8
LAY-10
  6
CONTINUOUS
 62
     7
100
AcDbLine
 10
2174.496969619223
 20
2161.302308678899
 30
0.0
 11
2169.496969619205
 21
2156.302308678879
 31
0.0
  0
LINE
  5
101
330
1F
100
AcDbEntity
  8
LAY-10
  6
CONTINUOUS
 62
     7
100
AcDbLine
 10
2174.496969619232
 20
2159.888095116536
 30
0.0
 11
2169.496969619194
 21
2154.888095116498
 31
0.0
  0
LINE
  5
102
330
1F
100
AcDbEntity
  8
LAY-10
  6
CONTINUOUS
 62
     7
100
AcDbLine
 10
2174.496969619225
 20
2158.473881554154
 30
0.0
 11
2169.496969619207
 21
2153.473881554133
 31
0.0
  0
LINE
  5
103
330
1F
100
AcDbEntity
  8
LAY-10
  6
CONTINUOUS
 62
     7
100
AcDbLine
 10
2174.496969619236
 20
2157.05966799179
 30
0.0
 11
2169.496969619194
 21
2152.059667991751
 31
0.0
  0
LINE
  5
104
330
1F
100
AcDbEntity
  8
LAY-10
  6
CONTINUOUS
 62
     7
100
AcDbLine
 10
2174.496969619225
 20
2155.64545442941
 30
0.0
 11
2169.496969619207
 21
2150.645454429388
 31
0.0
  0
LINE
  5
105
330
1F
100
AcDbEntity
  8
LAY-10
  6
CONTINUOUS
 62
     7
100
AcDbLine
 10
2174.496969619216
 20
2154.231240867026
 30
0.0
 11
2169.496969619196
 21
2149.231240867005
 31
0.0
  0
LINE
  5
106
330
1F
100
AcDbEntity
  8
LAY-10
  6
CONTINUOUS
 62
     7
100
AcDbLine
 10
2174.496969619227
 20
2152.817027304665
 30
0.0
 11
2169.496969619207
 21
2147.817027304645
 31
0.0
  0
LINE
  5
107
330
1F
100
AcDbEntity
  8
LAY-10
  6
CONTINUOUS
 62
     7
100
AcDbLine
 10
2174.496969619217
 20
2151.402813742281
 30
0.0
 11
2169.496969619199
 21
2146.402813742262
 31
0.0
  0
LINE
  5
108
330
1F
100
AcDbEntity
  8
LAY-10
  6
CONTINUOUS
 62
     7
100
AcDbLine
 10
2174.496969619228
 20
2149.988600179918
 30
0.0
 11
2169.496969619208
 21
2144.988600179898
 31
0.0
  0
LINE
  5
109
330
1F
100
AcDbEntity
  8
LAY-10
  6
CONTINUOUS
 62
     7
100
AcDbLine
 10
2174.496969619219
 20
2148.574386617537
 30
0.0
 11
2169.522583001782
 21
2143.600000000098
 31
0.0
  0
LINE
  5
10A
330
1F
100
AcDbEntity
  8
LAY-10
  6
CONTINUOUS
 62
     7
100
AcDbLine
 10
2174.49696961923
 20
2147.160173055173
 30
0.0
 11
2170.936796564142
 21
2143.600000000086
 31
0.0
  0
LINE
  5
10B
330
1F
100
AcDbEntity
  8
LAY-10
  6
CONTINUOUS
 62
     7
100
AcDbLine
 10
2174.496969619221
 20
2145.745959492791
 30
0.0
 11
2172.351010126505
 21
2143.600000000077
 31
0.0
  0
LINE
  5
10C
330
1F
100
AcDbEntity
  8
LAY-10
  6
CONTINUOUS
 62
     7
100
AcDbLine
 10
2174.49696961923
 20
2144.33174593043
 30
0.0
 11
2173.765223688887
 21
2143.600000000086
 31
0.0
  0
LINE
  5
10D
330
1F
100
AcDbEntity
  8
LAY-10
  6
CONTINUOUS
 62
     7
100
AcDbLine
 10
2061.496969619181
 20
2243.027922061404
 30
0.0
 11
2061.569047557877
 21
2243.100000000102
 31
0.0
  0
LINE
  5
10E
330
1F
100
AcDbEntity
  8
LAY-10
  6
CONTINUOUS
 62
     7
100
AcDbLine
 10
2061.496969619192
 20
2241.613708499043
 30
0.0
 11
2062.983261120243
 21
2243.100000000091
 31
0.0
  0
LINE
  5
10F
330
1F
100
AcDbEntity
  8
LAY-10
  6
CONTINUOUS
 62
     7
100
AcDbLine
 10
2061.496969619203
 20
2240.199494936678
 30
0.0
 11
2064.397474682623
 21
2243.1000000001
 31
0.0
  0
LINE
  5
110
330
1F
100
AcDbEntity
  8
LAY-10
  6
CONTINUOUS
 62
     7
100
AcDbLine
 10
2061.496969619194
 20
2238.785281374297
 30
0.0
 11
2065.811688244986
 21
2243.100000000089
 31
0.0
  0
LINE
  5
111
330
1F
100
AcDbEntity
  8
LAY-10
  6
CONTINUOUS
 62
     7
100
AcDbLine
 10
2061.496969619203
 20
2237.371067811934
 30
0.0
 11
2066.496969619185
 21
2242.371067811916
 31
0.0
  0
LINE
  5
112
330
1F
100
AcDbEntity
  8
LAY-10
  6
CONTINUOUS
 62
     7
100
AcDbLine
 10
2061.496969619196
 20
2235.95685424955
 30
0.0
 11
2066.496969619194
 21
2240.956854249552
 31
0.0
  0
LINE
  5
113
330
1F
100
AcDbEntity
  8
LAY-10
  6
CONTINUOUS
 62
     7
100
AcDbLine
 10
2062.554328932113
 20
2235.600000000096
 30
0.0
 11
2066.496969619185
 21
2239.54264068717
 31
0.0
  0
LINE
  5
114
330
1F
100
AcDbEntity
  8
LAY-10
  6
CONTINUOUS
 62
     7
100
AcDbLine
 10
2063.968542494494
 20
2235.600000000105
 30
0.0
 11
2066.496969619197
 21
2238.128427124807
 31
0.0
  0
LINE
  5
115
330
1F
100
AcDbEntity
  8
LAY-10
  6
CONTINUOUS
 62
     7
100
AcDbLine
 10
2065.382756056878
 20
2235.600000000113
 30
0.0
 11
2066.496969619187
 21
2236.714213562425
 31
0.0
  0
LINE
  5
116
330
1F
100
AcDbEntity
  8
LAY-10
  6
CONTINUOUS
 62
     7
100
AcDbLine
 10
2061.496969619199
 20
2209.94314575057
 30
0.0
 11
2062.153823868724
 21
2210.600000000096
 31
0.0
  0
LINE
  5
117
330
1F
100
AcDbEntity
  8
LAY-10
  6
CONTINUOUS
 62
     7
100
AcDbLine
 10
2061.49696961919
 20
2208.528932188191
 30
0.0
 11
2063.568037431108
 21
2210.600000000105
 31
0.0
  0
LINE
  5
118
330
1F
100
AcDbEntity
  8
LAY-10
  6
CONTINUOUS
 62
     7
100
AcDbLine
 10
2061.496969619199
 20
2207.114718625827
 30
0.0
 11
2064.982250993468
 21
2210.600000000094
 31
0.0
  0
LINE
  5
119
330
1F
100
AcDbEntity
  8
LAY-10
  6
CONTINUOUS
 62
     7
100
AcDbLine
 10
2061.49696961921
 20
2205.700505063464
 30
0.0
 11
2066.396464555851
 21
2210.600000000105
 31
0.0
  0
LINE
  5
11A
330
1F
100
AcDbEntity
  8
LAY-10
  6
CONTINUOUS
 62
     7
100
AcDbLine
 10
2061.496969619203
 20
2204.286291501082
 30
0.0
 11
2066.496969619183
 21
2209.286291501064
 31
0.0
  0
LINE
  5
11B
330
1F
100
AcDbEntity
  8
LAY-10
  6
CONTINUOUS
 62
     7
100
AcDbLine
 10
2061.724891680596
 20
2203.100000000103
 30
0.0
 11
2066.496969619192
 21
2207.8720779387
 31
0.0
  0
LINE
  5
11C
330
1F
100
AcDbEntity
  8
LAY-10
  6
CONTINUOUS
 62
     7
100
AcDbLine
 10
2063.139105242976
 20
2203.100000000111
 30
0.0
 11
2066.496969619185
 21
2206.45786437632
 31
0.0
  0
LINE
  5
11D
330
1F
100
AcDbEntity
  8
LAY-10
  6
CONTINUOUS
 62
     7
100
AcDbLine
 10
2064.553318805339
 20
2203.100000000103
 30
0.0
 11
2066.496969619194
 21
2205.043650813957
 31
0.0
  0
LINE
  5
11E
330
1F
100
AcDbEntity
  8
LAY-10
  6
CONTINUOUS
 62
     7
100
AcDbLine
 10
2065.967532367701
 20
2203.100000000093
 30
0.0
 11
2066.496969619185
 21
2203.629437251574
 31
0.0
  0
LINE
  5
11F
330
1F
100
AcDbEntity
  8
LAY-10
  6
CONTINUOUS
 62
     7
100
AcDbLine
 10
2169.924603255339
 20
1188.600000000174
 30
0.0
 11
2169.496969619201
 21
1189.027633636312
 31
0.0
  0
LINE
  5
120
330
1F
100
AcDbEntity
  8
LAY-10
  6
CONTINUOUS
 62
     7
100
AcDbLine
 10
2171.338816817722
 20
1188.600000000164
 30
0.0
 11
2169.49696961919
 21
1190.441847198694
 31
0.0
  0
LINE
  5
121
330
1F
100
AcDbEntity
  8
LAY-10
  6
CONTINUOUS
 62
     7
100
AcDbLine
 10
2172.753030380084
 20
1188.600000000175
 30
0.0
 11
2169.496969619203
 21
1191.856060761058
 31
0.0
  0
LINE
  5
122
330
1F
100
AcDbEntity
  8
LAY-10
  6
CONTINUOUS
 62
     7
100
AcDbLine
 10
2174.167243942466
 20
1188.600000000166
 30
0.0
 11
2169.496969619192
 21
1193.270274323438
 31
0.0
  0
LINE
  5
123
330
1F
100
AcDbEntity
  8
LAY-10
  6
CONTINUOUS
 62
     7
100
AcDbLine
 10
2174.496969619223
 20
1189.684487885782
 30
0.0
 11
2169.496969619205
 21
1194.684487885801
 31
0.0
  0
LINE
  5
124
330
1F
100
AcDbEntity
  8
LAY-10
  6
CONTINUOUS
 62
     7
100
AcDbLine
 10
2174.496969619232
 20
1191.098701448145
 30
0.0
 11
2169.496969619194
 21
1196.098701448184
 31
0.0
  0
LINE
  5
125
330
1F
100
AcDbEntity
  8
LAY-10
  6
CONTINUOUS
 62
     7
100
AcDbLine
 10
2174.496969619223
 20
1192.512915010526
 30
0.0
 11
2169.496969619205
 21
1197.512915010547
 31
0.0
  0
LINE
  5
126
330
1F
100
AcDbEntity
  8
LAY-10
  6
CONTINUOUS
 62
     7
100
AcDbLine
 10
2174.496969619236
 20
1193.927128572891
 30
0.0
 11
2169.496969619194
 21
1198.92712857293
 31
0.0
  0
LINE
  5
127
330
1F
100
AcDbEntity
  8
LAY-10
  6
CONTINUOUS
 62
     7
100
AcDbLine
 10
2174.496969619225
 20
1195.341342135272
 30
0.0
 11
2169.496969619207
 21
1200.341342135292
 31
0.0
  0
LINE
  5
128
330
1F
100
AcDbEntity
  8
LAY-10
  6
CONTINUOUS
 62
     7
100
AcDbLine
 10
2174.496969619237
 20
1196.755555697635
 30
0.0
 11
2169.496969619196
 21
1201.755555697674
 31
0.0
  0
LINE
  5
129
330
1F
100
AcDbEntity
  8
LAY-10
  6
CONTINUOUS
 62
     7
100
AcDbLine
 10
2174.496969619227
 20
1198.169769260018
 30
0.0
 11
2169.496969619207
 21
1203.169769260037
 31
0.0
  0
LINE
  5
12A
330
1F
100
AcDbEntity
  8
LAY-10
  6
CONTINUOUS
 62
     7
100
AcDbLine
 10
2174.496969619239
 20
1199.583982822379
 30
0.0
 11
2169.496969619199
 21
1204.58398282242
 31
0.0
  0
LINE
  5
12B
330
1F
100
AcDbEntity
  8
LAY-10
  6
CONTINUOUS
 62
     7
100
AcDbLine
 10
2174.496969619228
 20
1200.998196384762
 30
0.0
 11
2169.496969619208
 21
1205.998196384783
 31
0.0
  0
LINE
  5
12C
330
1F
100
AcDbEntity
  8
LAY-10
  6
CONTINUOUS
 62
     7
100
AcDbLine
 10
2174.496969619239
 20
1202.412409947125
 30
0.0
 11
2169.496969619201
 21
1207.412409947164
 31
0.0
  0
LINE
  5
12D
330
1F
100
AcDbEntity
  8
LAY-10
  6
CONTINUOUS
 62
     7
100
AcDbLine
 10
2174.496969619228
 20
1203.826623509507
 30
0.0
 11
2169.496969619208
 21
1208.826623509528
 31
0.0
  0
LINE
  5
12E
330
1F
100
AcDbEntity
  8
LAY-10
  6
CONTINUOUS
 62
     7
100
AcDbLine
 10
2174.496969619221
 20
1205.240837071889
 30
0.0
 11
2169.496969619201
 21
1210.24083707191
 31
0.0
  0
LINE
  5
12F
330
1F
100
AcDbEntity
  8
LAY-10
  6
CONTINUOUS
 62
     7
100
AcDbLine
 10
2174.49696961923
 20
1206.655050634251
 30
0.0
 11
2169.49696961921
 21
1211.655050634271
 31
0.0
  0
LINE
  5
130
330
1F
100
AcDbEntity
  8
LAY-10
  6
CONTINUOUS
 62
     7
100
AcDbLine
 10
2174.496969619221
 20
1208.069264196634
 30
0.0
 11
2169.496969619203
 21
1213.069264196653
 31
0.0
  0
LINE
  5
131
330
1F
100
AcDbEntity
  8
LAY-10
  6
CONTINUOUS
 62
     7
100
AcDbLine
 10
2174.496969619232
 20
1209.483477758997
 30
0.0
 11
2169.496969619212
 21
1214.483477759017
 31
0.0
  0
LINE
  5
132
330
1F
100
AcDbEntity
  8
LAY-10
  6
CONTINUOUS
 62
     7
100
AcDbLine
 10
2174.496969619223
 20
1210.89769132138
 30
0.0
 11
2169.496969619205
 21
1215.8976913214
 31
0.0
  0
LINE
  5
133
330
1F
100
AcDbEntity
  8
LAY-10
  6
CONTINUOUS
 62
     7
100
AcDbLine
 10
2174.496969619232
 20
1212.311904883742
 30
0.0
 11
2169.496969619194
 21
1217.311904883781
 31
0.0
  0
LINE
  5
134
330
1F
100
AcDbEntity
  8
LAY-10
  6
CONTINUOUS
 62
     7
100
AcDbLine
 10
2174.496969619225
 20
1213.726118446124
 30
0.0
 11
2169.496969619207
 21
1218.726118446144
 31
0.0
  0
LINE
  5
135
330
1F
100
AcDbEntity
  8
LAY-10
  6
CONTINUOUS
 62
     7
100
AcDbLine
 10
2174.496969619236
 20
1215.140332008486
 30
0.0
 11
2169.496969619194
 21
1220.140332008527
 31
0.0
  0
LINE
  5
136
330
1F
100
AcDbEntity
  8
LAY-10
  6
CONTINUOUS
 62
     7
100
AcDbLine
 10
2174.496969619225
 20
1216.554545570868
 30
0.0
 11
2169.496969619207
 21
1221.554545570889
 31
0.0
  0
LINE
  5
137
330
1F
100
AcDbEntity
  8
LAY-10
  6
CONTINUOUS
 62
     7
100
AcDbLine
 10
2174.496969619216
 20
1217.968759133252
 30
0.0
 11
2169.496969619196
 21
1222.968759133272
 31
0.0
  0
LINE
  5
138
330
1F
100
AcDbEntity
  8
LAY-10
  6
CONTINUOUS
 62
     7
100
AcDbLine
 10
2174.496969619227
 20
1219.382972695614
 30
0.0
 11
2169.496969619207
 21
1224.382972695633
 31
0.0
  0
LINE
  5
139
330
1F
100
AcDbEntity
  8
LAY-10
  6
CONTINUOUS
 62
     7
100
AcDbLine
 10
2174.496969619217
 20
1220.797186257996
 30
0.0
 11
2169.496969619199
 21
1225.797186258016
 31
0.0
  0
LINE
  5
13A
330
1F
100
AcDbEntity
  8
LAY-10
  6
CONTINUOUS
 62
     7
100
AcDbLine
 10
2174.496969619228
 20
1222.211399820359
 30
0.0
 11
2169.496969619208
 21
1227.211399820379
 31
0.0
  0
LINE
  5
13B
330
1F
100
AcDbEntity
  8
LAY-10
  6
CONTINUOUS
 62
     7
100
AcDbLine
 10
2174.496969619219
 20
1223.625613382741
 30
0.0
 11
2169.522583001782
 21
1228.60000000018
 31
0.0
  0
LINE
  5
13C
330
1F
100
AcDbEntity
  8
LAY-10
  6
CONTINUOUS
 62
     7
100
AcDbLine
 10
2174.49696961923
 20
1225.039826945104
 30
0.0
 11
2170.936796564142
 21
1228.600000000192
 31
0.0
  0
LINE
  5
13D
330
1F
100
AcDbEntity
  8
LAY-10
  6
CONTINUOUS
 62
     7
100
AcDbLine
 10
2174.496969619221
 20
1226.454040507486
 30
0.0
 11
2172.351010126505
 21
1228.600000000201
 31
0.0
  0
LINE
  5
13E
330
1F
100
AcDbEntity
  8
LAY-10
  6
CONTINUOUS
 62
     7
100
AcDbLine
 10
2174.49696961923
 20
1227.868254069848
 30
0.0
 11
2173.765223688887
 21
1228.600000000192
 31
0.0
  0
LINE
  5
13F
330
1F
100
AcDbEntity
  8
LAY-10
  6
CONTINUOUS
 62
     7
100
AcDbLine
 10
2061.496969619183
 20
1129.172077938745
 30
0.0
 11
2061.569047557879
 21
1129.100000000046
 31
0.0
  0
LINE
  5
140
330
1F
100
AcDbEntity
  8
LAY-10
  6
CONTINUOUS
 62
     7
100
AcDbLine
 10
2061.496969619194
 20
1130.586291501108
 30
0.0
 11
2062.983261120245
 21
1129.100000000058
 31
0.0
  0
LINE
  5
141
330
1F
100
AcDbEntity
  8
LAY-10
  6
CONTINUOUS
 62
     7
100
AcDbLine
 10
2061.496969619205
 20
1132.000505063471
 30
0.0
 11
2064.397474682627
 21
1129.100000000049
 31
0.0
  0
LINE
  5
142
330
1F
100
AcDbEntity
  8
LAY-10
  6
CONTINUOUS
 62
     7
100
AcDbLine
 10
2061.496969619196
 20
1133.414718625851
 30
0.0
 11
2065.811688244988
 21
1129.100000000059
 31
0.0
  0
LINE
  5
143
330
1F
100
AcDbEntity
  8
LAY-10
  6
CONTINUOUS
 62
     7
100
AcDbLine
 10
2061.496969619205
 20
1134.828932188216
 30
0.0
 11
2066.496969619187
 21
1129.828932188234
 31
0.0
  0
LINE
  5
144
330
1F
100
AcDbEntity
  8
LAY-10
  6
CONTINUOUS
 62
     7
100
AcDbLine
 10
2061.496969619196
 20
1136.243145750599
 30
0.0
 11
2066.496969619197
 21
1131.243145750597
 31
0.0
  0
LINE
  5
145
330
1F
100
AcDbEntity
  8
LAY-10
  6
CONTINUOUS
 62
     7
100
AcDbLine
 10
2062.554328932113
 20
1136.600000000053
 30
0.0
 11
2066.496969619187
 21
1132.657359312979
 31
0.0
  0
LINE
  5
146
330
1F
100
AcDbEntity
  8
LAY-10
  6
CONTINUOUS
 62
     7
100
AcDbLine
 10
2063.968542494497
 20
1136.600000000044
 30
0.0
 11
2066.496969619201
 21
1134.071572875341
 31
0.0
  0
LINE
  5
147
330
1F
100
AcDbEntity
  8
LAY-10
  6
CONTINUOUS
 62
     7
100
AcDbLine
 10
2065.38275605688
 20
1136.600000000036
 30
0.0
 11
2066.496969619188
 21
1135.485786437723
 31
0.0
  0
LINE
  5
148
330
1F
100
AcDbEntity
  8
LAY-10
  6
CONTINUOUS
 62
     7
100
AcDbLine
 10
2061.496969619201
 20
1162.256854249578
 30
0.0
 11
2062.153823868725
 21
1161.600000000052
 31
0.0
  0
LINE
  5
149
330
1F
100
AcDbEntity
  8
LAY-10
  6
CONTINUOUS
 62
     7
100
AcDbLine
 10
2061.496969619194
 20
1163.671067811959
 30
0.0
 11
2063.568037431108
 21
1161.600000000044
 31
0.0
  0
LINE
  5
14A
330
1F
100
AcDbEntity
  8
LAY-10
  6
CONTINUOUS
 62
     7
100
AcDbLine
 10
2061.496969619203
 20
1165.085281374321
 30
0.0
 11
2064.982250993472
 21
1161.600000000054
 31
0.0
  0
LINE
  5
14B
330
1F
100
AcDbEntity
  8
LAY-10
  6
CONTINUOUS
 62
     7
100
AcDbLine
 10
2061.496969619212
 20
1166.499494936686
 30
0.0
 11
2066.396464555853
 21
1161.600000000045
 31
0.0
  0
LINE
  5
14C
330
1F
100
AcDbEntity
  8
LAY-10
  6
CONTINUOUS
 62
     7
100
AcDbLine
 10
2061.496969619205
 20
1167.913708499068
 30
0.0
 11
2066.496969619185
 21
1162.913708499086
 31
0.0
  0
LINE
  5
14D
330
1F
100
AcDbEntity
  8
LAY-10
  6
CONTINUOUS
 62
     7
100
AcDbLine
 10
2061.724891680597
 20
1169.100000000047
 30
0.0
 11
2066.496969619197
 21
1164.327922061449
 31
0.0
  0
LINE
  5
14E
330
1F
100
AcDbEntity
  8
LAY-10
  6
CONTINUOUS
 62
     7
100
AcDbLine
 10
2063.139105242978
 20
1169.100000000037
 30
0.0
 11
2066.496969619187
 21
1165.74213562383
 31
0.0
  0
LINE
  5
14F
330
1F
100
AcDbEntity
  8
LAY-10
  6
CONTINUOUS
 62
     7
100
AcDbLine
 10
2064.55331880534
 20
1169.100000000048
 30
0.0
 11
2066.496969619197
 21
1167.156349186192
 31
0.0
  0
LINE
  5
150
330
1F
100
AcDbEntity
  8
LAY-10
  6
CONTINUOUS
 62
     7
100
AcDbLine
 10
2065.967532367705
 20
1169.100000000057
 30
0.0
 11
2066.496969619187
 21
1168.570562748575
 31
0.0
  0
LINE
  5
151
330
1F
100
AcDbEntity
  8
LAY-10
  6
CONTINUOUS
 62
     7
100
AcDbLine
 10
573.3015151898078
 20
2267.1000000003
 30
0.0
 11
579.3015151898114
 21
2261.1000000003
 31
0.0
  0
LINE
  5
152
330
1F
100
AcDbEntity
  8
LAY-10
  6
CONTINUOUS
 62
     7
100
AcDbLine
 10
664.801515189766
 20
2248.100000000162
 30
0.0
 11
664.8015151897587
 21
2198.100000000168
 31
0.0
  0
LINE
  5
153
330
1F
100
AcDbEntity
  8
LAY-10
  6
CONTINUOUS
 62
     7
100
AcDbLine
 10
664.801515189766
 20
2248.100000000162
 30
0.0
 11
614.801515189766
 21
2248.100000000169
 31
0.0
  0
LINE
  5
154
330
1F
100
AcDbEntity
  8
LAY-10
  6
CONTINUOUS
 62
     7
100
AcDbLine
 10
614.801515189766
 20
2248.100000000169
 30
0.0
 11
614.8015151897587
 21
2198.100000000175
 31
0.0
  0
LINE
  5
155
330
1F
100
AcDbEntity
  8
LAY-10
  6
CONTINUOUS
 62
     7
100
AcDbLine
 10
616.3015151897696
 20
2246.600000000175
 30
0.0
 11
616.3015151897696
 21
2242.600000000173
 31
0.0
  0
LINE
  5
156
330
1F
100
AcDbEntity
  8
LAY-10
  6
CONTINUOUS
 62
     7
100
AcDbLine
 10
616.3015151897623
 20
2199.600000000174
 30
0.0
 11
663.3015151897623
 21
2199.600000000168
 31
0.0
  0
LINE
  5
157
330
1F
100
AcDbEntity
  8
LAY-10
  6
CONTINUOUS
 62
     7
100
AcDbLine
 10
616.301515189766
 20
2220.600000000174
 30
0.0
 11
663.3015151897658
 21
2220.600000000167
 31
0.0
  0
LINE
  5
158
330
1F
100
AcDbEntity
  8
LAY-10
  6
CONTINUOUS
 62
     7
100
AcDbLine
 10
616.301515189766
 20
2225.600000000174
 30
0.0
 11
663.3015151897658
 21
2225.600000000166
 31
0.0
  0
LINE
  5
159
330
1F
100
AcDbEntity
  8
LAY-10
  6
CONTINUOUS
 62
     7
100
AcDbLine
 10
663.3015151897605
 20
2214.600000000168
 30
0.0
 11
616.3015151897587
 21
2214.600000000174
 31
0.0
  0
LINE
  5
15A
330
1F
100
AcDbEntity
  8
LAY-10
  6
CONTINUOUS
 62
     7
100
AcDbLine
 10
663.3015151897623
 20
2209.600000000168
 30
0.0
 11
616.3015151897587
 21
2209.600000000174
 31
0.0
  0
LINE
  5
15B
330
1F
100
AcDbEntity
  8
LAY-10
  6
CONTINUOUS
 62
     7
100
AcDbLine
 10
663.3015151897567
 20
2203.600000000169
 30
0.0
 11
616.3015151897587
 21
2203.600000000175
 31
0.0
  0
LINE
  5
15C
330
1F
100
AcDbEntity
  8
LAY-10
  6
CONTINUOUS
 62
     7
100
AcDbLine
 10
663.3015151897623
 20
2231.600000000166
 30
0.0
 11
616.3015151897623
 21
2231.600000000172
 31
0.0
  0
LINE
  5
15D
330
1F
100
AcDbEntity
  8
LAY-10
  6
CONTINUOUS
 62
     7
100
AcDbLine
 10
663.3015151897696
 20
2236.600000000165
 30
0.0
 11
616.301515189766
 21
2236.600000000172
 31
0.0
  0
LINE
  5
15E
330
1F
100
AcDbEntity
  8
LAY-10
  6
CONTINUOUS
 62
     7
100
AcDbLine
 10
663.3015151897623
 20
2242.600000000166
 30
0.0
 11
616.301515189766
 21
2242.600000000173
 31
0.0
  0
LINE
  5
15F
330
1F
100
AcDbEntity
  8
LAY-10
  6
CONTINUOUS
 62
     7
100
AcDbLine
 10
616.3015151897587
 20
2203.600000000174
 30
0.0
 11
615.3015151897587
 21
2203.850000000174
 31
0.0
  0
LINE
  5
160
330
1F
100
AcDbEntity
  8
LAY-10
  6
CONTINUOUS
 62
     7
100
AcDbLine
 10
615.3015151897587
 20
2209.350000000174
 30
0.0
 11
616.3015151897587
 21
2209.600000000174
 31
0.0
  0
LINE
  5
161
330
1F
100
AcDbEntity
  8
LAY-10
  6
CONTINUOUS
 62
     7
100
AcDbLine
 10
615.3015151897587
 20
2209.350000000174
 30
0.0
 11
615.3015151897587
 21
2203.850000000174
 31
0.0
  0
LINE
  5
162
330
1F
100
AcDbEntity
  8
LAY-10
  6
CONTINUOUS
 62
     7
100
AcDbLine
 10
616.3015151897623
 20
2203.600000000175
 30
0.0
 11
616.3015151897623
 21
2199.600000000174
 31
0.0
  0
LINE
  5
163
330
1F
100
AcDbEntity
  8
LAY-10
  6
CONTINUOUS
 62
     7
100
AcDbLine
 10
616.3015151897587
 20
2214.600000000174
 30
0.0
 11
615.3015151897623
 21
2214.850000000174
 31
0.0
  0
LINE
  5
164
330
1F
100
AcDbEntity
  8
LAY-10
  6
CONTINUOUS
 62
     7
100
AcDbLine
 10
615.3015151897623
 20
2220.350000000173
 30
0.0
 11
616.3015151897623
 21
2220.600000000174
 31
0.0
  0
LINE
  5
165
330
1F
100
AcDbEntity
  8
LAY-10
  6
CONTINUOUS
 62
     7
100
AcDbLine
 10
615.3015151897623
 20
2220.350000000173
 30
0.0
 11
615.3015151897623
 21
2214.850000000174
 31
0.0
  0
LINE
  5
166
330
1F
100
AcDbEntity
  8
LAY-10
  6
CONTINUOUS
 62
     7
100
AcDbLine
 10
616.3015151897623
 20
2225.600000000174
 30
0.0
 11
615.3015151897623
 21
2225.850000000174
 31
0.0
  0
LINE
  5
167
330
1F
100
AcDbEntity
  8
LAY-10
  6
CONTINUOUS
 62
     7
100
AcDbLine
 10
615.3015151897623
 20
2231.350000000175
 30
0.0
 11
616.3015151897623
 21
2231.600000000173
 31
0.0
  0
LINE
  5
168
330
1F
100
AcDbEntity
  8
LAY-10
  6
CONTINUOUS
 62
     7
100
AcDbLine
 10
615.3015151897623
 20
2231.350000000175
 30
0.0
 11
615.3015151897623
 21
2225.850000000174
 31
0.0
  0
LINE
  5
169
330
1F
100
AcDbEntity
  8
LAY-10
  6
CONTINUOUS
 62
     7
100
AcDbLine
 10
616.301515189766
 20
2236.600000000173
 30
0.0
 11
615.3015151897641
 21
2236.850000000174
 31
0.0
  0
LINE
  5
16A
330
1F
100
AcDbEntity
  8
LAY-10
  6
CONTINUOUS
 62
     7
100
AcDbLine
 10
615.3015151897641
 20
2242.350000000174
 30
0.0
 11
616.301515189766
 21
2242.600000000173
 31
0.0
  0
LINE
  5
16B
330
1F
100
AcDbEntity
  8
LAY-10
  6
CONTINUOUS
 62
     7
100
AcDbLine
 10
615.3015151897641
 20
2242.350000000174
 30
0.0
 11
615.3015151897641
 21
2236.850000000174
 31
0.0
  0
LINE
  5
16C
330
1F
100
AcDbEntity
  8
LAY-10
  6
CONTINUOUS
 62
     7
100
AcDbLine
 10
616.3015151897623
 20
2214.600000000174
 30
0.0
 11
616.3015151897623
 21
2209.600000000174
 31
0.0
  0
LINE
  5
16D
330
1F
100
AcDbEntity
  8
LAY-10
  6
CONTINUOUS
 62
     7
100
AcDbLine
 10
616.301515189766
 20
2225.600000000174
 30
0.0
 11
616.301515189766
 21
2220.600000000174
 31
0.0
  0
LINE
  5
16E
330
1F
100
AcDbEntity
  8
LAY-10
  6
CONTINUOUS
 62
     7
100
AcDbLine
 10
616.3015151897696
 20
2236.600000000173
 30
0.0
 11
616.301515189766
 21
2231.600000000172
 31
0.0
  0
LINE
  5
16F
330
1F
100
AcDbEntity
  8
LAY-10
  6
CONTINUOUS
 62
     7
100
AcDbLine
 10
663.3015151897658
 20
2203.600000000167
 30
0.0
 11
664.3015151897641
 21
2203.850000000166
 31
0.0
  0
LINE
  5
170
330
1F
100
AcDbEntity
  8
LAY-10
  6
CONTINUOUS
 62
     7
100
AcDbLine
 10
664.301515189766
 20
2209.350000000165
 30
0.0
 11
663.3015151897658
 21
2209.600000000165
 31
0.0
  0
LINE
  5
171
330
1F
100
AcDbEntity
  8
LAY-10
  6
CONTINUOUS
 62
     7
100
AcDbLine
 10
664.301515189766
 20
2209.350000000165
 30
0.0
 11
664.3015151897641
 21
2203.850000000166
 31
0.0
  0
LINE
  5
172
330
1F
100
AcDbEntity
  8
LAY-10
  6
CONTINUOUS
 62
     7
100
AcDbLine
 10
663.3015151897696
 20
2214.600000000168
 30
0.0
 11
664.3015151897641
 21
2214.850000000167
 31
0.0
  0
LINE
  5
173
330
1F
100
AcDbEntity
  8
LAY-10
  6
CONTINUOUS
 62
     7
100
AcDbLine
 10
664.301515189766
 20
2220.350000000169
 30
0.0
 11
663.3015151897696
 21
2220.600000000167
 31
0.0
  0
LINE
  5
174
330
1F
100
AcDbEntity
  8
LAY-10
  6
CONTINUOUS
 62
     7
100
AcDbLine
 10
664.301515189766
 20
2220.350000000169
 30
0.0
 11
664.3015151897641
 21
2214.850000000167
 31
0.0
  0
LINE
  5
175
330
1F
100
AcDbEntity
  8
LAY-10
  6
CONTINUOUS
 62
     7
100
AcDbLine
 10
663.3015151897696
 20
2225.600000000166
 30
0.0
 11
664.301515189766
 21
2225.850000000168
 31
0.0
  0
LINE
  5
176
330
1F
100
AcDbEntity
  8
LAY-10
  6
CONTINUOUS
 62
     7
100
AcDbLine
 10
664.3015151897678
 20
2231.35000000017
 30
0.0
 11
663.3015151897696
 21
2231.600000000169
 31
0.0
  0
LINE
  5
177
330
1F
100
AcDbEntity
  8
LAY-10
  6
CONTINUOUS
 62
     7
100
AcDbLine
 10
664.3015151897678
 20
2231.35000000017
 30
0.0
 11
664.301515189766
 21
2225.850000000168
 31
0.0
  0
LINE
  5
178
330
1F
100
AcDbEntity
  8
LAY-10
  6
CONTINUOUS
 62
     7
100
AcDbLine
 10
663.3015151897732
 20
2236.600000000165
 30
0.0
 11
664.3015151897695
 21
2236.850000000166
 31
0.0
  0
LINE
  5
179
330
1F
100
AcDbEntity
  8
LAY-10
  6
CONTINUOUS
 62
     7
100
AcDbLine
 10
664.3015151897695
 20
2242.350000000165
 30
0.0
 11
663.3015151897732
 21
2242.600000000167
 31
0.0
  0
LINE
  5
17A
330
1F
100
AcDbEntity
  8
LAY-10
  6
CONTINUOUS
 62
     7
100
AcDbLine
 10
664.3015151897695
 20
2242.350000000165
 30
0.0
 11
664.3015151897695
 21
2236.850000000166
 31
0.0
  0
LINE
  5
17B
330
1F
100
AcDbEntity
  8
LAY-10
  6
CONTINUOUS
 62
     7
100
AcDbLine
 10
663.3015151897623
 20
2199.600000000168
 30
0.0
 11
663.3015151897623
 21
2203.600000000169
 31
0.0
  0
LINE
  5
17C
330
1F
100
AcDbEntity
  8
LAY-10
  6
CONTINUOUS
 62
     7
100
AcDbLine
 10
663.3015151897623
 20
2209.600000000168
 30
0.0
 11
663.3015151897623
 21
2214.600000000168
 31
0.0
  0
LINE
  5
17D
330
1F
100
AcDbEntity
  8
LAY-10
  6
CONTINUOUS
 62
     7
100
AcDbLine
 10
663.3015151897658
 20
2220.600000000167
 30
0.0
 11
663.3015151897658
 21
2225.600000000166
 31
0.0
  0
LINE
  5
17E
330
1F
100
AcDbEntity
  8
LAY-10
  6
CONTINUOUS
 62
     7
100
AcDbLine
 10
663.3015151897658
 20
2231.600000000166
 30
0.0
 11
663.3015151897696
 21
2236.600000000165
 31
0.0
  0
LINE
  5
17F
330
1F
100
AcDbEntity
  8
LAY-10
  6
CONTINUOUS
 62
     7
100
AcDbLine
 10
663.3015151897696
 20
2242.600000000166
 30
0.0
 11
663.3015151897696
 21
2246.600000000168
 31
0.0
  0
LINE
  5
180
330
1F
100
AcDbEntity
  8
LAY-10
  6
CONTINUOUS
 62
     7
100
AcDbLine
 10
635.801515189766
 20
2245.100000000171
 30
0.0
 11
643.8015151897641
 21
2245.100000000171
 31
0.0
  0
LINE
  5
181
330
1F
100
AcDbEntity
  8
LAY-10
  6
CONTINUOUS
 62
     7
100
AcDbLine
 10
635.8015151897696
 20
2248.100000000169
 30
0.0
 11
635.8015151897696
 21
2245.100000000171
 31
0.0
  0
LINE
  5
182
330
1F
100
AcDbEntity
  8
LAY-10
  6
CONTINUOUS
 62
     7
100
AcDbLine
 10
643.8015151897677
 20
2248.100000000169
 30
0.0
 11
643.8015151897677
 21
2245.100000000171
 31
0.0
  0
LINE
  5
183
330
1F
100
AcDbEntity
  8
LAY-10
  6
CONTINUOUS
 62
     7
100
AcDbLine
 10
663.3015151897696
 20
2246.600000000168
 30
0.0
 11
643.8015151897677
 21
2246.600000000171
 31
0.0
  0
LINE
  5
184
330
1F
100
AcDbEntity
  8
LAY-10
  6
CONTINUOUS
 62
     7
100
AcDbLine
 10
635.8015151897696
 20
2246.600000000171
 30
0.0
 11
616.3015151897696
 21
2246.600000000175
 31
0.0
  0
LINE
  5
185
330
1F
100
AcDbEntity
  8
LAY-10
  6
CONTINUOUS
 62
     7
100
AcDbLine
 10
664.8015151897587
 20
2198.100000000168
 30
0.0
 11
614.8015151897587
 21
2198.100000000175
 31
0.0
  0
CIRCLE
  5
186
330
1F
100
AcDbEntity
  8
LAY-10
  6
CONTINUOUS
 62
     7
100
AcDbCircle
 10
694.801515189715
 20
2223.100000000205
 30
0.0
 40
13.00000000000001
  0
CIRCLE
  5
187
330
1F
100
AcDbEntity
  8
LAY-10
  6
CONTINUOUS
 62
     7
100
AcDbCircle
 10
694.8015151896968
 20
2223.100000000192
 30
0.0
 40
12.75000000000001
  0
LINE
  5
188
330
1F
100
AcDbEntity
  8
LAY-10
  6
CONTINUOUS
 62
     7
100
AcDbLine
 10
694.8015151896803
 20
2219.100000000207
 30
0.0
 11
688.3015151896823
 21
2223.100000000205
 31
0.0
  0
LINE
  5
189
330
1F
100
AcDbEntity
  8
LAY-10
  6
CONTINUOUS
 62
     7
100
AcDbLine
 10
701.3015151896841
 20
2223.100000000205
 30
0.0
 11
694.8015151896803
 21
2219.100000000207
 31
0.0
  0
LINE
  5
18A
330
1F
100
AcDbEntity
  8
LAY-10
  6
CONTINUOUS
 62
     7
100
AcDbLine
 10
694.8015151896803
 20
2227.100000000207
 30
0.0
 11
701.3015151896841
 21
2223.100000000205
 31
0.0
  0
LINE
  5
18B
330
1F
100
AcDbEntity
  8
LAY-10
  6
CONTINUOUS
 62
     7
100
AcDbLine
 10
688.3015151896823
 20
2223.100000000205
 30
0.0
 11
694.8015151896803
 21
2227.100000000207
 31
0.0
  0
LINE
  5
18C
330
1F
100
AcDbEntity
  8
LAY-10
  6
CONTINUOUS
 62
     7
100
AcDbLine
 10
698.8015151896858
 20
2233.600000000208
 30
0.0
 11
690.801515189684
 21
2233.600000000208
 31
0.0
  0
LINE
  5
18D
330
1F
100
AcDbEntity
  8
LAY-10
  6
CONTINUOUS
 62
     7
100
AcDbLine
 10
698.8015151896858
 20
2233.600000000208
 30
0.0
 11
698.8015151896858
 21
2235.206300013009
 31
0.0
  0
LINE
  5
18E
330
1F
100
AcDbEntity
  8
LAY-10
  6
CONTINUOUS
 62
     7
100
AcDbLine
 10
690.801515189684
 20
2233.600000000208
 30
0.0
 11
690.801515189684
 21
2235.206300013009
 31
0.0
  0
LINE
  5
18F
330
1F
100
AcDbEntity
  8
LAY-10
  6
CONTINUOUS
 62
     7
100
AcDbLine
 10
664.801515189755
 20
1124.100000000138
 30
0.0
 11
664.8015151897514
 21
1174.100000000132
 31
0.0
  0
LINE
  5
190
330
1F
100
AcDbEntity
  8
LAY-10
  6
CONTINUOUS
 62
     7
100
AcDbLine
 10
664.801515189755
 20
1124.100000000138
 30
0.0
 11
614.8015151897569
 21
1124.100000000131
 31
0.0
  0
LINE
  5
191
330
1F
100
AcDbEntity
  8
LAY-10
  6
CONTINUOUS
 62
     7
100
AcDbLine
 10
614.8015151897569
 20
1124.100000000131
 30
0.0
 11
614.8015151897478
 21
1174.100000000125
 31
0.0
  0
LINE
  5
192
330
1F
100
AcDbEntity
  8
LAY-10
  6
CONTINUOUS
 62
     7
100
AcDbLine
 10
616.3015151897569
 20
1125.600000000125
 30
0.0
 11
616.3015151897569
 21
1129.600000000127
 31
0.0
  0
LINE
  5
193
330
1F
100
AcDbEntity
  8
LAY-10
  6
CONTINUOUS
 62
     7
100
AcDbLine
 10
616.3015151897514
 20
1172.600000000126
 30
0.0
 11
663.3015151897514
 21
1172.600000000133
 31
0.0
  0
LINE
  5
194
330
1F
100
AcDbEntity
  8
LAY-10
  6
CONTINUOUS
 62
     7
100
AcDbLine
 10
616.3015151897532
 20
1151.600000000126
 30
0.0
 11
663.3015151897532
 21
1151.600000000133
 31
0.0
  0
LINE
  5
195
330
1F
100
AcDbEntity
  8
LAY-10
  6
CONTINUOUS
 62
     7
100
AcDbLine
 10
616.3015151897532
 20
1146.600000000127
 30
0.0
 11
663.301515189755
 21
1146.600000000133
 31
0.0
  0
LINE
  5
196
330
1F
100
AcDbEntity
  8
LAY-10
  6
CONTINUOUS
 62
     7
100
AcDbLine
 10
663.3015151897514
 20
1157.600000000133
 30
0.0
 11
616.3015151897514
 21
1157.600000000126
 31
0.0
  0
LINE
  5
197
330
1F
100
AcDbEntity
  8
LAY-10
  6
CONTINUOUS
 62
     7
100
AcDbLine
 10
663.3015151897514
 20
1162.600000000131
 30
0.0
 11
616.3015151897514
 21
1162.600000000127
 31
0.0
  0
LINE
  5
198
330
1F
100
AcDbEntity
  8
LAY-10
  6
CONTINUOUS
 62
     7
100
AcDbLine
 10
663.3015151897476
 20
1168.600000000131
 30
0.0
 11
616.3015151897514
 21
1168.600000000125
 31
0.0
  0
LINE
  5
199
330
1F
100
AcDbEntity
  8
LAY-10
  6
CONTINUOUS
 62
     7
100
AcDbLine
 10
663.3015151897514
 20
1140.600000000135
 30
0.0
 11
616.3015151897532
 21
1140.600000000128
 31
0.0
  0
LINE
  5
19A
330
1F
100
AcDbEntity
  8
LAY-10
  6
CONTINUOUS
 62
     7
100
AcDbLine
 10
663.3015151897567
 20
1135.600000000135
 30
0.0
 11
616.3015151897532
 21
1135.600000000128
 31
0.0
  0
LINE
  5
19B
330
1F
100
AcDbEntity
  8
LAY-10
  6
CONTINUOUS
 62
     7
100
AcDbLine
 10
663.3015151897514
 20
1129.600000000134
 30
0.0
 11
616.3015151897532
 21
1129.600000000127
 31
0.0
  0
LINE
  5
19C
330
1F
100
AcDbEntity
  8
LAY-10
  6
CONTINUOUS
 62
     7
100
AcDbLine
 10
616.3015151897514
 20
1168.600000000125
 30
0.0
 11
615.3015151897496
 21
1168.350000000127
 31
0.0
  0
LINE
  5
19D
330
1F
100
AcDbEntity
  8
LAY-10
  6
CONTINUOUS
 62
     7
100
AcDbLine
 10
615.3015151897496
 20
1162.850000000126
 30
0.0
 11
616.3015151897514
 21
1162.600000000127
 31
0.0
  0
LINE
  5
19E
330
1F
100
AcDbEntity
  8
LAY-10
  6
CONTINUOUS
 62
     7
100
AcDbLine
 10
615.3015151897496
 20
1162.850000000126
 30
0.0
 11
615.3015151897496
 21
1168.350000000127
 31
0.0
  0
LINE
  5
19F
330
1F
100
AcDbEntity
  8
LAY-10
  6
CONTINUOUS
 62
     7
100
AcDbLine
 10
616.3015151897514
 20
1168.600000000125
 30
0.0
 11
616.3015151897514
 21
1172.600000000126
 31
0.0
  0
LINE
  5
1A0
330
1F
100
AcDbEntity
  8
LAY-10
  6
CONTINUOUS
 62
     7
100
AcDbLine
 10
616.3015151897514
 20
1157.600000000126
 30
0.0
 11
615.3015151897514
 21
1157.350000000125
 31
0.0
  0
LINE
  5
1A1
330
1F
100
AcDbEntity
  8
LAY-10
  6
CONTINUOUS
 62
     7
100
AcDbLine
 10
615.3015151897514
 20
1151.850000000126
 30
0.0
 11
616.3015151897514
 21
1151.600000000126
 31
0.0
  0
LINE
  5
1A2
330
1F
100
AcDbEntity
  8
LAY-10
  6
CONTINUOUS
 62
     7
100
AcDbLine
 10
615.3015151897514
 20
1151.850000000126
 30
0.0
 11
615.3015151897514
 21
1157.350000000125
 31
0.0
  0
LINE
  5
1A3
330
1F
100
AcDbEntity
  8
LAY-10
  6
CONTINUOUS
 62
     7
100
AcDbLine
 10
616.3015151897514
 20
1146.600000000127
 30
0.0
 11
615.3015151897514
 21
1146.350000000126
 31
0.0
  0
LINE
  5
1A4
330
1F
100
AcDbEntity
  8
LAY-10
  6
CONTINUOUS
 62
     7
100
AcDbLine
 10
615.3015151897532
 20
1140.850000000125
 30
0.0
 11
616.3015151897532
 21
1140.600000000126
 31
0.0
  0
LINE
  5
1A5
330
1F
100
AcDbEntity
  8
LAY-10
  6
CONTINUOUS
 62
     7
100
AcDbLine
 10
615.3015151897532
 20
1140.850000000125
 30
0.0
 11
615.3015151897514
 21
1146.350000000126
 31
0.0
  0
LINE
  5
1A6
330
1F
100
AcDbEntity
  8
LAY-10
  6
CONTINUOUS
 62
     7
100
AcDbLine
 10
616.3015151897532
 20
1135.600000000127
 30
0.0
 11
615.301515189755
 21
1135.350000000127
 31
0.0
  0
LINE
  5
1A7
330
1F
100
AcDbEntity
  8
LAY-10
  6
CONTINUOUS
 62
     7
100
AcDbLine
 10
615.301515189755
 20
1129.850000000127
 30
0.0
 11
616.3015151897532
 21
1129.600000000127
 31
0.0
  0
LINE
  5
1A8
330
1F
100
AcDbEntity
  8
LAY-10
  6
CONTINUOUS
 62
     7
100
AcDbLine
 10
615.301515189755
 20
1129.850000000127
 30
0.0
 11
615.301515189755
 21
1135.350000000127
 31
0.0
  0
LINE
  5
1A9
330
1F
100
AcDbEntity
  8
LAY-10
  6
CONTINUOUS
 62
     7
100
AcDbLine
 10
616.3015151897532
 20
1157.600000000126
 30
0.0
 11
616.3015151897532
 21
1162.600000000127
 31
0.0
  0
LINE
  5
1AA
330
1F
100
AcDbEntity
  8
LAY-10
  6
CONTINUOUS
 62
     7
100
AcDbLine
 10
616.3015151897532
 20
1146.600000000127
 30
0.0
 11
616.3015151897532
 21
1151.600000000126
 31
0.0
  0
LINE
  5
1AB
330
1F
100
AcDbEntity
  8
LAY-10
  6
CONTINUOUS
 62
     7
100
AcDbLine
 10
616.3015151897569
 20
1135.600000000127
 30
0.0
 11
616.3015151897532
 21
1140.600000000128
 31
0.0
  0
LINE
  5
1AC
330
1F
100
AcDbEntity
  8
LAY-10
  6
CONTINUOUS
 62
     7
100
AcDbLine
 10
663.301515189755
 20
1168.600000000133
 30
0.0
 11
664.301515189755
 21
1168.350000000134
 31
0.0
  0
LINE
  5
1AD
330
1F
100
AcDbEntity
  8
LAY-10
  6
CONTINUOUS
 62
     7
100
AcDbLine
 10
664.3015151897587
 20
1162.850000000135
 30
0.0
 11
663.301515189755
 21
1162.600000000134
 31
0.0
  0
LINE
  5
1AE
330
1F
100
AcDbEntity
  8
LAY-10
  6
CONTINUOUS
 62
     7
100
AcDbLine
 10
664.3015151897587
 20
1162.850000000135
 30
0.0
 11
664.301515189755
 21
1168.350000000134
 31
0.0
  0
LINE
  5
1AF
330
1F
100
AcDbEntity
  8
LAY-10
  6
CONTINUOUS
 62
     7
100
AcDbLine
 10
663.3015151897567
 20
1157.600000000133
 30
0.0
 11
664.301515189755
 21
1157.350000000133
 31
0.0
  0
LINE
  5
1B0
330
1F
100
AcDbEntity
  8
LAY-10
  6
CONTINUOUS
 62
     7
100
AcDbLine
 10
664.3015151897587
 20
1151.850000000131
 30
0.0
 11
663.3015151897567
 21
1151.600000000133
 31
0.0
  0
LINE
  5
1B1
330
1F
100
AcDbEntity
  8
LAY-10
  6
CONTINUOUS
 62
     7
100
AcDbLine
 10
664.3015151897587
 20
1151.850000000131
 30
0.0
 11
664.301515189755
 21
1157.350000000133
 31
0.0
  0
LINE
  5
1B2
330
1F
100
AcDbEntity
  8
LAY-10
  6
CONTINUOUS
 62
     7
100
AcDbLine
 10
663.3015151897605
 20
1146.600000000133
 30
0.0
 11
664.3015151897587
 21
1146.350000000133
 31
0.0
  0
LINE
  5
1B3
330
1F
100
AcDbEntity
  8
LAY-10
  6
CONTINUOUS
 62
     7
100
AcDbLine
 10
664.3015151897587
 20
1140.850000000131
 30
0.0
 11
663.3015151897605
 21
1140.600000000131
 31
0.0
  0
LINE
  5
1B4
330
1F
100
AcDbEntity
  8
LAY-10
  6
CONTINUOUS
 62
     7
100
AcDbLine
 10
664.3015151897587
 20
1140.850000000131
 30
0.0
 11
664.3015151897587
 21
1146.350000000133
 31
0.0
  0
LINE
  5
1B5
330
1F
100
AcDbEntity
  8
LAY-10
  6
CONTINUOUS
 62
     7
100
AcDbLine
 10
663.3015151897623
 20
1135.600000000135
 30
0.0
 11
664.3015151897623
 21
1135.350000000133
 31
0.0
  0
LINE
  5
1B6
330
1F
100
AcDbEntity
  8
LAY-10
  6
CONTINUOUS
 62
     7
100
AcDbLine
 10
664.3015151897623
 20
1129.850000000135
 30
0.0
 11
663.3015151897623
 21
1129.600000000133
 31
0.0
  0
LINE
  5
1B7
330
1F
100
AcDbEntity
  8
LAY-10
  6
CONTINUOUS
 62
     7
100
AcDbLine
 10
664.3015151897623
 20
1129.850000000135
 30
0.0
 11
664.3015151897623
 21
1135.350000000133
 31
0.0
  0
LINE
  5
1B8
330
1F
100
AcDbEntity
  8
LAY-10
  6
CONTINUOUS
 62
     7
100
AcDbLine
 10
663.3015151897514
 20
1172.600000000133
 30
0.0
 11
663.3015151897514
 21
1168.600000000131
 31
0.0
  0
LINE
  5
1B9
330
1F
100
AcDbEntity
  8
LAY-10
  6
CONTINUOUS
 62
     7
100
AcDbLine
 10
663.3015151897514
 20
1162.600000000131
 30
0.0
 11
663.3015151897514
 21
1157.600000000133
 31
0.0
  0
LINE
  5
1BA
330
1F
100
AcDbEntity
  8
LAY-10
  6
CONTINUOUS
 62
     7
100
AcDbLine
 10
663.3015151897532
 20
1151.600000000133
 30
0.0
 11
663.301515189755
 21
1146.600000000133
 31
0.0
  0
LINE
  5
1BB
330
1F
100
AcDbEntity
  8
LAY-10
  6
CONTINUOUS
 62
     7
100
AcDbLine
 10
663.301515189755
 20
1140.600000000135
 30
0.0
 11
663.3015151897567
 21
1135.600000000135
 31
0.0
  0
LINE
  5
1BC
330
1F
100
AcDbEntity
  8
LAY-10
  6
CONTINUOUS
 62
     7
100
AcDbLine
 10
663.3015151897567
 20
1129.600000000134
 30
0.0
 11
663.3015151897605
 21
1125.600000000133
 31
0.0
  0
LINE
  5
1BD
330
1F
100
AcDbEntity
  8
LAY-10
  6
CONTINUOUS
 62
     7
100
AcDbLine
 10
635.801515189755
 20
1127.100000000129
 30
0.0
 11
643.801515189755
 21
1127.100000000129
 31
0.0
  0
LINE
  5
1BE
330
1F
100
AcDbEntity
  8
LAY-10
  6
CONTINUOUS
 62
     7
100
AcDbLine
 10
635.8015151897587
 20
1124.100000000131
 30
0.0
 11
635.8015151897587
 21
1127.100000000129
 31
0.0
  0
LINE
  5
1BF
330
1F
100
AcDbEntity
  8
LAY-10
  6
CONTINUOUS
 62
     7
100
AcDbLine
 10
643.8015151897586
 20
1124.100000000131
 30
0.0
 11
643.8015151897586
 21
1127.100000000129
 31
0.0
  0
LINE
  5
1C0
330
1F
100
AcDbEntity
  8
LAY-10
  6
CONTINUOUS
 62
     7
100
AcDbLine
 10
663.3015151897605
 20
1125.600000000133
 30
0.0
 11
643.8015151897586
 21
1125.600000000129
 31
0.0
  0
LINE
  5
1C1
330
1F
100
AcDbEntity
  8
LAY-10
  6
CONTINUOUS
 62
     7
100
AcDbLine
 10
635.8015151897587
 20
1125.600000000129
 30
0.0
 11
616.3015151897569
 21
1125.600000000125
 31
0.0
  0
LINE
  5
1C2
330
1F
100
AcDbEntity
  8
LAY-10
  6
CONTINUOUS
 62
     7
100
AcDbLine
 10
664.8015151897514
 20
1174.100000000132
 30
0.0
 11
614.8015151897478
 21
1174.100000000125
 31
0.0
  0
CIRCLE
  5
1C3
330
1F
100
AcDbEntity
  8
LAY-10
  6
CONTINUOUS
 62
     7
100
AcDbCircle
 10
694.8015151897041
 20
1149.100000000095
 30
0.0
 40
13.00000000000001
  0
CIRCLE
  5
1C4
330
1F
100
AcDbEntity
  8
LAY-10
  6
CONTINUOUS
 62
     7
100
AcDbCircle
 10
694.8015151897041
 20
1149.100000000108
 30
0.0
 40
12.75000000000001
  0
LINE
  5
1C5
330
1F
100
AcDbEntity
  8
LAY-10
  6
CONTINUOUS
 62
     7
100
AcDbLine
 10
694.8015151897187
 20
1153.100000000092
 30
0.0
 11
701.3015151897168
 21
1149.100000000094
 31
0.0
  0
LINE
  5
1C6
330
1F
100
AcDbEntity
  8
LAY-10
  6
CONTINUOUS
 62
     7
100
AcDbLine
 10
688.301515189715
 20
1149.100000000094
 30
0.0
 11
694.8015151897187
 21
1153.100000000092
 31
0.0
  0
LINE
  5
1C7
330
1F
100
AcDbEntity
  8
LAY-10
  6
CONTINUOUS
 62
     7
100
AcDbLine
 10
694.8015151897187
 20
1145.100000000093
 30
0.0
 11
688.301515189715
 21
1149.100000000094
 31
0.0
  0
LINE
  5
1C8
330
1F
100
AcDbEntity
  8
LAY-10
  6
CONTINUOUS
 62
     7
100
AcDbLine
 10
701.3015151897168
 20
1149.100000000094
 30
0.0
 11
694.8015151897187
 21
1145.100000000093
 31
0.0
  0
LINE
  5
1C9
330
1F
100
AcDbEntity
  8
LAY-10
  6
CONTINUOUS
 62
     7
100
AcDbLine
 10
690.801515189715
 20
1138.600000000092
 30
0.0
 11
698.801515189715
 21
1138.600000000092
 31
0.0
  0
LINE
  5
1CA
330
1F
100
AcDbEntity
  8
LAY-10
  6
CONTINUOUS
 62
     7
100
AcDbLine
 10
690.801515189715
 20
1138.600000000092
 30
0.0
 11
690.801515189715
 21
1136.993699987291
 31
0.0
  0
LINE
  5
1CB
330
1F
100
AcDbEntity
  8
LAY-10
  6
CONTINUOUS
 62
     7
100
AcDbLine
 10
698.801515189715
 20
1138.600000000092
 30
0.0
 11
698.801515189715
 21
1136.993699987291
 31
0.0
  0
LINE
  5
1CC
330
1F
100
AcDbEntity
  8
LAY-10
  6
CONTINUOUS
 62
     7
100
AcDbLine
 10
537.9030303800234
 20
1931.600000000168
 30
0.0
 11
537.9030303800234
 21
1940.600000000169
 31
0.0
  0
LINE
  5
1CD
330
1F
100
AcDbEntity
  8
LAY-10
  6
CONTINUOUS
 62
     7
100
AcDbLine
 10
573.301515189806
 20
1931.600000000169
 30
0.0
 11
537.9030303800234
 21
1931.600000000169
 31
0.0
  0
LINE
  5
1CE
330
1F
100
AcDbEntity
  8
LAY-10
  6
CONTINUOUS
 62
     7
100
AcDbLine
 10
573.301515189806
 20
1940.600000000167
 30
0.0
 11
537.9030303800234
 21
1940.600000000167
 31
0.0
  0
LINE
  5
1CF
330
1F
100
AcDbEntity
  8
LAY-10
  6
CONTINUOUS
 62
     7
100
AcDbLine
 10
537.9030303800234
 20
1440.600000000082
 30
0.0
 11
537.9030303800234
 21
1431.600000000079
 31
0.0
  0
LINE
  5
1D0
330
1F
100
AcDbEntity
  8
LAY-10
  6
CONTINUOUS
 62
     7
100
AcDbLine
 10
573.301515189806
 20
1440.60000000008
 30
0.0
 11
537.9030303800234
 21
1440.60000000008
 31
0.0
  0
LINE
  5
1D1
330
1F
100
AcDbEntity
  8
LAY-10
  6
CONTINUOUS
 62
     7
100
AcDbLine
 10
573.301515189806
 20
1431.600000000081
 30
0.0
 11
537.9030303800234
 21
1431.600000000081
 31
0.0
  0
LINE
  5
1D2
330
1F
100
AcDbEntity
  8
LAY-10
  6
CONTINUOUS
 62
     7
100
AcDbLine
 10
579.3015151898096
 20
1111.099999999951
 30
0.0
 11
579.3015151898114
 21
2261.1000000002
 31
0.0
  0
LINE
  5
1D3
330
1F
100
AcDbEntity
  8
LAY-10
  6
CONTINUOUS
 62
     7
100
AcDbLine
 10
581.3015151898078
 20
1114.10000000005
 30
0.0
 11
581.3015151898096
 21
2258.100000000198
 31
0.0
  0
LINE
  5
1D4
330
1F
100
AcDbEntity
  8
LAY-10
  6
CONTINUOUS
 62
     7
100
AcDbLine
 10
573.301515189806
 20
1105.099999999951
 30
0.0
 11
573.3015151898078
 21
2267.1000000002
 31
0.0
  0
LINE
  5
1D5
330
1F
100
AcDbEntity
  8
LAY-10
  6
CONTINUOUS
 62
     7
100
AcDbLine
 10
1583.301515189797
 20
1105.099999999951
 30
0.0
 11
1583.301515189799
 21
2267.1000000002
 31
0.0
  0
LINE
  5
1D6
330
1F
100
AcDbEntity
  8
LAY-10
  6
CONTINUOUS
 62
     7
100
AcDbLine
 10
1577.301515189797
 20
1111.099999999951
 30
0.0
 11
1577.301515189801
 21
2261.1000000002
 31
0.0
  0
LINE
  5
1D7
330
1F
100
AcDbEntity
  8
LAY-10
  6
CONTINUOUS
 62
     7
100
AcDbLine
 10
1583.301515189801
 20
2267.1000000003
 30
0.0
 11
573.3015151898078
 21
2267.1000000003
 31
0.0
  0
LINE
  5
1D8
330
1F
100
AcDbEntity
  8
LAY-10
  6
CONTINUOUS
 62
     7
100
AcDbLine
 10
1583.301515189797
 20
1105.099999999951
 30
0.0
 11
573.301515189806
 21
1105.099999999951
 31
0.0
  0
LINE
  5
1D9
330
1F
100
AcDbEntity
  8
LAY-10
  6
CONTINUOUS
 62
     7
100
AcDbLine
 10
1577.301515189797
 20
1111.099999999953
 30
0.0
 11
579.3015151898096
 21
1111.099999999953
 31
0.0
  0
LINE
  5
1DA
330
1F
100
AcDbEntity
  8
LAY-10
  6
CONTINUOUS
 62
     7
100
AcDbLine
 10
1077.301515189815
 20
1114.100000000049
 30
0.0
 11
1077.301515189819
 21
2258.100000000196
 31
0.0
  0
LINE
  5
1DB
330
1F
100
AcDbEntity
  8
LAY-10
  6
CONTINUOUS
 62
     7
100
AcDbLine
 10
1077.301515189815
 20
1114.100000000049
 30
0.0
 11
581.3015151898078
 21
1114.100000000051
 31
0.0
  0
LINE
  5
1DC
330
1F
100
AcDbEntity
  8
LAY-10
  6
CONTINUOUS
 62
     7
100
AcDbLine
 10
959.8015151898844
 20
2233.600000000207
 30
0.0
 11
959.8015151898844
 21
2235.206300013007
 31
0.0
  0
LINE
  5
1DD
330
1F
100
AcDbEntity
  8
LAY-10
  6
CONTINUOUS
 62
     7
100
AcDbLine
 10
967.8015151898828
 20
2233.600000000207
 30
0.0
 11
967.8015151898828
 21
2235.206300013007
 31
0.0
  0
LINE
  5
1DE
330
1F
100
AcDbEntity
  8
LAY-10
  6
CONTINUOUS
 62
     7
100
AcDbLine
 10
967.8015151898828
 20
2233.600000000207
 30
0.0
 11
959.8015151898844
 21
2233.600000000207
 31
0.0
  0
LINE
  5
1DF
330
1F
100
AcDbEntity
  8
LAY-10
  6
CONTINUOUS
 62
     7
100
AcDbLine
 10
957.3015151898808
 20
2223.100000000204
 30
0.0
 11
963.8015151898808
 21
2227.100000000206
 31
0.0
  0
LINE
  5
1E0
330
1F
100
AcDbEntity
  8
LAY-10
  6
CONTINUOUS
 62
     7
100
AcDbLine
 10
963.8015151898808
 20
2227.100000000206
 30
0.0
 11
970.3015151898826
 21
2223.100000000204
 31
0.0
  0
LINE
  5
1E1
330
1F
100
AcDbEntity
  8
LAY-10
  6
CONTINUOUS
 62
     7
100
AcDbLine
 10
970.3015151898826
 20
2223.100000000204
 30
0.0
 11
963.8015151898808
 21
2219.100000000205
 31
0.0
  0
LINE
  5
1E2
330
1F
100
AcDbEntity
  8
LAY-10
  6
CONTINUOUS
 62
     7
100
AcDbLine
 10
963.8015151898808
 20
2219.100000000205
 30
0.0
 11
957.3015151898808
 21
2223.100000000204
 31
0.0
  0
CIRCLE
  5
1E3
330
1F
100
AcDbEntity
  8
LAY-10
  6
CONTINUOUS
 62
     7
100
AcDbCircle
 10
963.8015151898952
 20
2223.100000000191
 30
0.0
 40
12.75000000000001
  0
CIRCLE
  5
1E4
330
1F
100
AcDbEntity
  8
LAY-10
  6
CONTINUOUS
 62
     7
100
AcDbCircle
 10
963.8015151899043
 20
2223.100000000204
 30
0.0
 40
13.00000000000001
  0
LINE
  5
1E5
330
1F
100
AcDbEntity
  8
LAY-10
  6
CONTINUOUS
 62
     7
100
AcDbLine
 10
993.8015151898574
 20
2198.100000000166
 30
0.0
 11
1043.801515189861
 21
2198.100000000174
 31
0.0
  0
LINE
  5
1E6
330
1F
100
AcDbEntity
  8
LAY-10
  6
CONTINUOUS
 62
     7
100
AcDbLine
 10
1022.801515189848
 20
2246.600000000169
 30
0.0
 11
1042.30151518985
 21
2246.600000000173
 31
0.0
  0
LINE
  5
1E7
330
1F
100
AcDbEntity
  8
LAY-10
  6
CONTINUOUS
 62
     7
100
AcDbLine
 10
995.3015151898501
 20
2246.600000000166
 30
0.0
 11
1014.80151518985
 21
2246.600000000169
 31
0.0
  0
LINE
  5
1E8
330
1F
100
AcDbEntity
  8
LAY-10
  6
CONTINUOUS
 62
     7
100
AcDbLine
 10
1014.80151518985
 20
2248.100000000167
 30
0.0
 11
1014.80151518985
 21
2245.100000000169
 31
0.0
  0
LINE
  5
1E9
330
1F
100
AcDbEntity
  8
LAY-10
  6
CONTINUOUS
 62
     7
100
AcDbLine
 10
1022.801515189848
 20
2248.100000000167
 30
0.0
 11
1022.801515189848
 21
2245.100000000169
 31
0.0
  0
LINE
  5
1EA
330
1F
100
AcDbEntity
  8
LAY-10
  6
CONTINUOUS
 62
     7
100
AcDbLine
 10
1022.801515189853
 20
2245.100000000169
 30
0.0
 11
1014.801515189851
 21
2245.100000000169
 31
0.0
  0
LINE
  5
1EB
330
1F
100
AcDbEntity
  8
LAY-10
  6
CONTINUOUS
 62
     7
100
AcDbLine
 10
995.3015151898501
 20
2242.600000000165
 30
0.0
 11
995.3015151898501
 21
2246.600000000166
 31
0.0
  0
LINE
  5
1EC
330
1F
100
AcDbEntity
  8
LAY-10
  6
CONTINUOUS
 62
     7
100
AcDbLine
 10
995.3015151898535
 20
2231.600000000165
 30
0.0
 11
995.3015151898501
 21
2236.600000000164
 31
0.0
  0
LINE
  5
1ED
330
1F
100
AcDbEntity
  8
LAY-10
  6
CONTINUOUS
 62
     7
100
AcDbLine
 10
995.3015151898535
 20
2220.600000000165
 30
0.0
 11
995.3015151898535
 21
2225.600000000165
 31
0.0
  0
LINE
  5
1EE
330
1F
100
AcDbEntity
  8
LAY-10
  6
CONTINUOUS
 62
     7
100
AcDbLine
 10
995.3015151898569
 20
2209.600000000166
 30
0.0
 11
995.3015151898569
 21
2214.600000000166
 31
0.0
  0
LINE
  5
1EF
330
1F
100
AcDbEntity
  8
LAY-10
  6
CONTINUOUS
 62
     7
100
AcDbLine
 10
995.3015151898569
 20
2199.600000000166
 30
0.0
 11
995.3015151898569
 21
2203.600000000167
 31
0.0
  0
LINE
  5
1F0
330
1F
100
AcDbEntity
  8
LAY-10
  6
CONTINUOUS
 62
     7
100
AcDbLine
 10
994.3015151898481
 20
2242.350000000164
 30
0.0
 11
994.3015151898481
 21
2236.850000000165
 31
0.0
  0
LINE
  5
1F1
330
1F
100
AcDbEntity
  8
LAY-10
  6
CONTINUOUS
 62
     7
100
AcDbLine
 10
994.3015151898481
 20
2242.350000000164
 30
0.0
 11
995.3015151898462
 21
2242.600000000165
 31
0.0
  0
LINE
  5
1F2
330
1F
100
AcDbEntity
  8
LAY-10
  6
CONTINUOUS
 62
     7
100
AcDbLine
 10
995.3015151898462
 20
2236.600000000164
 30
0.0
 11
994.3015151898481
 21
2236.850000000165
 31
0.0
  0
LINE
  5
1F3
330
1F
100
AcDbEntity
  8
LAY-10
  6
CONTINUOUS
 62
     7
100
AcDbLine
 10
994.3015151898501
 20
2231.350000000168
 30
0.0
 11
994.3015151898501
 21
2225.850000000166
 31
0.0
  0
LINE
  5
1F4
330
1F
100
AcDbEntity
  8
LAY-10
  6
CONTINUOUS
 62
     7
100
AcDbLine
 10
994.3015151898501
 20
2231.350000000168
 30
0.0
 11
995.3015151898501
 21
2231.600000000168
 31
0.0
  0
LINE
  5
1F5
330
1F
100
AcDbEntity
  8
LAY-10
  6
CONTINUOUS
 62
     7
100
AcDbLine
 10
995.3015151898501
 20
2225.600000000165
 30
0.0
 11
994.3015151898501
 21
2225.850000000166
 31
0.0
  0
LINE
  5
1F6
330
1F
100
AcDbEntity
  8
LAY-10
  6
CONTINUOUS
 62
     7
100
AcDbLine
 10
994.3015151898501
 20
2220.350000000168
 30
0.0
 11
994.3015151898519
 21
2214.850000000166
 31
0.0
  0
LINE
  5
1F7
330
1F
100
AcDbEntity
  8
LAY-10
  6
CONTINUOUS
 62
     7
100
AcDbLine
 10
994.3015151898501
 20
2220.350000000168
 30
0.0
 11
995.3015151898501
 21
2220.600000000165
 31
0.0
  0
LINE
  5
1F8
330
1F
100
AcDbEntity
  8
LAY-10
  6
CONTINUOUS
 62
     7
100
AcDbLine
 10
995.3015151898501
 20
2214.600000000166
 30
0.0
 11
994.3015151898519
 21
2214.850000000166
 31
0.0
  0
LINE
  5
1F9
330
1F
100
AcDbEntity
  8
LAY-10
  6
CONTINUOUS
 62
     7
100
AcDbLine
 10
994.3015151898501
 20
2209.350000000165
 30
0.0
 11
994.3015151898519
 21
2203.850000000165
 31
0.0
  0
LINE
  5
1FA
330
1F
100
AcDbEntity
  8
LAY-10
  6
CONTINUOUS
 62
     7
100
AcDbLine
 10
994.3015151898501
 20
2209.350000000165
 30
0.0
 11
995.3015151898535
 21
2209.600000000164
 31
0.0
  0
LINE
  5
1FB
330
1F
100
AcDbEntity
  8
LAY-10
  6
CONTINUOUS
 62
     7
100
AcDbLine
 10
995.3015151898535
 20
2203.600000000166
 30
0.0
 11
994.3015151898519
 21
2203.850000000165
 31
0.0
  0
LINE
  5
1FC
330
1F
100
AcDbEntity
  8
LAY-10
  6
CONTINUOUS
 62
     7
100
AcDbLine
 10
1042.30151518985
 20
2236.600000000171
 30
0.0
 11
1042.301515189854
 21
2231.60000000017
 31
0.0
  0
LINE
  5
1FD
330
1F
100
AcDbEntity
  8
LAY-10
  6
CONTINUOUS
 62
     7
100
AcDbLine
 10
1042.301515189854
 20
2225.600000000172
 30
0.0
 11
1042.301515189854
 21
2220.600000000172
 31
0.0
  0
LINE
  5
1FE
330
1F
100
AcDbEntity
  8
LAY-10
  6
CONTINUOUS
 62
     7
100
AcDbLine
 10
1042.301515189857
 20
2214.600000000172
 30
0.0
 11
1042.301515189857
 21
2209.600000000172
 31
0.0
  0
LINE
  5
1FF
330
1F
100
AcDbEntity
  8
LAY-10
  6
CONTINUOUS
 62
     7
100
AcDbLine
 10
1043.301515189856
 20
2242.350000000172
 30
0.0
 11
1043.301515189856
 21
2236.850000000172
 31
0.0
  0
LINE
  5
200
330
1F
100
AcDbEntity
  8
LAY-10
  6
CONTINUOUS
 62
     7
100
AcDbLine
 10
1043.301515189856
 20
2242.350000000172
 30
0.0
 11
1042.301515189854
 21
2242.600000000172
 31
0.0
  0
LINE
  5
201
330
1F
100
AcDbEntity
  8
LAY-10
  6
CONTINUOUS
 62
     7
100
AcDbLine
 10
1042.301515189854
 20
2236.600000000171
 30
0.0
 11
1043.301515189856
 21
2236.850000000172
 31
0.0
  0
LINE
  5
202
330
1F
100
AcDbEntity
  8
LAY-10
  6
CONTINUOUS
 62
     7
100
AcDbLine
 10
1043.301515189857
 20
2231.350000000174
 30
0.0
 11
1043.301515189857
 21
2225.850000000172
 31
0.0
  0
LINE
  5
203
330
1F
100
AcDbEntity
  8
LAY-10
  6
CONTINUOUS
 62
     7
100
AcDbLine
 10
1043.301515189857
 20
2231.350000000174
 30
0.0
 11
1042.301515189857
 21
2231.600000000171
 31
0.0
  0
LINE
  5
204
330
1F
100
AcDbEntity
  8
LAY-10
  6
CONTINUOUS
 62
     7
100
AcDbLine
 10
1042.301515189857
 20
2225.600000000172
 30
0.0
 11
1043.301515189857
 21
2225.850000000172
 31
0.0
  0
LINE
  5
205
330
1F
100
AcDbEntity
  8
LAY-10
  6
CONTINUOUS
 62
     7
100
AcDbLine
 10
1043.301515189857
 20
2220.350000000171
 30
0.0
 11
1043.301515189857
 21
2214.850000000172
 31
0.0
  0
LINE
  5
206
330
1F
100
AcDbEntity
  8
LAY-10
  6
CONTINUOUS
 62
     7
100
AcDbLine
 10
1043.301515189857
 20
2220.350000000171
 30
0.0
 11
1042.301515189857
 21
2220.600000000172
 31
0.0
  0
LINE
  5
207
330
1F
100
AcDbEntity
  8
LAY-10
  6
CONTINUOUS
 62
     7
100
AcDbLine
 10
1042.301515189859
 20
2214.600000000172
 30
0.0
 11
1043.301515189857
 21
2214.850000000172
 31
0.0
  0
LINE
  5
208
330
1F
100
AcDbEntity
  8
LAY-10
  6
CONTINUOUS
 62
     7
100
AcDbLine
 10
1042.301515189857
 20
2203.600000000174
 30
0.0
 11
1042.301515189857
 21
2199.600000000172
 31
0.0
  0
LINE
  5
209
330
1F
100
AcDbEntity
  8
LAY-10
  6
CONTINUOUS
 62
     7
100
AcDbLine
 10
1043.301515189861
 20
2209.350000000172
 30
0.0
 11
1043.301515189861
 21
2203.850000000172
 31
0.0
  0
LINE
  5
20A
330
1F
100
AcDbEntity
  8
LAY-10
  6
CONTINUOUS
 62
     7
100
AcDbLine
 10
1043.301515189861
 20
2209.350000000172
 30
0.0
 11
1042.301515189859
 21
2209.600000000172
 31
0.0
  0
LINE
  5
20B
330
1F
100
AcDbEntity
  8
LAY-10
  6
CONTINUOUS
 62
     7
100
AcDbLine
 10
1042.301515189859
 20
2203.600000000172
 30
0.0
 11
1043.301515189861
 21
2203.850000000172
 31
0.0
  0
LINE
  5
20C
330
1F
100
AcDbEntity
  8
LAY-10
  6
CONTINUOUS
 62
     7
100
AcDbLine
 10
995.3015151898569
 20
2242.600000000165
 30
0.0
 11
1042.301515189854
 21
2242.600000000172
 31
0.0
  0
LINE
  5
20D
330
1F
100
AcDbEntity
  8
LAY-10
  6
CONTINUOUS
 62
     7
100
AcDbLine
 10
995.3015151898501
 20
2236.600000000164
 30
0.0
 11
1042.301515189854
 21
2236.60000000017
 31
0.0
  0
LINE
  5
20E
330
1F
100
AcDbEntity
  8
LAY-10
  6
CONTINUOUS
 62
     7
100
AcDbLine
 10
995.3015151898569
 20
2231.600000000165
 30
0.0
 11
1042.301515189857
 21
2231.60000000017
 31
0.0
  0
LINE
  5
20F
330
1F
100
AcDbEntity
  8
LAY-10
  6
CONTINUOUS
 62
     7
100
AcDbLine
 10
995.3015151898609
 20
2203.600000000167
 30
0.0
 11
1042.301515189859
 21
2203.600000000174
 31
0.0
  0
LINE
  5
210
330
1F
100
AcDbEntity
  8
LAY-10
  6
CONTINUOUS
 62
     7
100
AcDbLine
 10
995.3015151898569
 20
2209.600000000166
 30
0.0
 11
1042.301515189859
 21
2209.600000000172
 31
0.0
  0
LINE
  5
211
330
1F
100
AcDbEntity
  8
LAY-10
  6
CONTINUOUS
 62
     7
100
AcDbLine
 10
995.301515189859
 20
2214.600000000166
 30
0.0
 11
1042.301515189859
 21
2214.600000000172
 31
0.0
  0
LINE
  5
212
330
1F
100
AcDbEntity
  8
LAY-10
  6
CONTINUOUS
 62
     7
100
AcDbLine
 10
1042.301515189854
 20
2225.600000000172
 30
0.0
 11
995.3015151898535
 21
2225.600000000165
 31
0.0
  0
LINE
  5
213
330
1F
100
AcDbEntity
  8
LAY-10
  6
CONTINUOUS
 62
     7
100
AcDbLine
 10
1042.301515189854
 20
2220.600000000172
 30
0.0
 11
995.3015151898535
 21
2220.600000000165
 31
0.0
  0
LINE
  5
214
330
1F
100
AcDbEntity
  8
LAY-10
  6
CONTINUOUS
 62
     7
100
AcDbLine
 10
1042.301515189857
 20
2199.600000000172
 30
0.0
 11
995.3015151898569
 21
2199.600000000166
 31
0.0
  0
LINE
  5
215
330
1F
100
AcDbEntity
  8
LAY-10
  6
CONTINUOUS
 62
     7
100
AcDbLine
 10
1042.30151518985
 20
2246.600000000173
 30
0.0
 11
1042.30151518985
 21
2242.600000000172
 31
0.0
  0
LINE
  5
216
330
1F
100
AcDbEntity
  8
LAY-10
  6
CONTINUOUS
 62
     7
100
AcDbLine
 10
1043.801515189853
 20
2248.100000000167
 30
0.0
 11
1043.801515189861
 21
2198.100000000174
 31
0.0
  0
LINE
  5
217
330
1F
100
AcDbEntity
  8
LAY-10
  6
CONTINUOUS
 62
     7
100
AcDbLine
 10
993.8015151898535
 20
2248.10000000016
 30
0.0
 11
1043.801515189853
 21
2248.100000000167
 31
0.0
  0
LINE
  5
218
330
1F
100
AcDbEntity
  8
LAY-10
  6
CONTINUOUS
 62
     7
100
AcDbLine
 10
993.8015151898535
 20
2248.10000000016
 30
0.0
 11
993.8015151898574
 21
2198.100000000166
 31
0.0
  0
LINE
  5
219
330
1F
100
AcDbEntity
  8
LAY-10
  6
CONTINUOUS
 62
     7
100
AcDbLine
 10
1077.301515189819
 20
2258.100000000196
 30
0.0
 11
581.3015151898096
 21
2258.100000000196
 31
0.0
  0
LINE
  5
21A
330
1F
100
AcDbEntity
  8
LAY-10
  6
CONTINUOUS
 62
     7
100
AcDbLine
 10
1577.301515189801
 20
2261.100000000298
 30
0.0
 11
579.3015151898114
 21
2261.100000000298
 31
0.0
  0
LINE
  5
21B
330
1F
100
AcDbEntity
  8
LAY-10
  6
CONTINUOUS
 62
     7
100
AcDbLine
 10
993.8015151898335
 20
1124.100000000038
 30
0.0
 11
993.8015151898408
 21
1174.100000000032
 31
0.0
  0
LINE
  5
21C
330
1F
100
AcDbEntity
  8
LAY-10
  6
CONTINUOUS
 62
     7
100
AcDbLine
 10
993.8015151898335
 20
1124.100000000038
 30
0.0
 11
1043.801515189833
 21
1124.100000000031
 31
0.0
  0
LINE
  5
21D
330
1F
100
AcDbEntity
  8
LAY-10
  6
CONTINUOUS
 62
     7
100
AcDbLine
 10
1043.801515189833
 20
1124.100000000031
 30
0.0
 11
1043.801515189841
 21
1174.100000000024
 31
0.0
  0
LINE
  5
21E
330
1F
100
AcDbEntity
  8
LAY-10
  6
CONTINUOUS
 62
     7
100
AcDbLine
 10
1042.30151518983
 20
1125.600000000025
 30
0.0
 11
1042.30151518983
 21
1129.600000000027
 31
0.0
  0
LINE
  5
21F
330
1F
100
AcDbEntity
  8
LAY-10
  6
CONTINUOUS
 62
     7
100
AcDbLine
 10
1042.301515189837
 20
1172.600000000026
 30
0.0
 11
995.3015151898371
 21
1172.600000000032
 31
0.0
  0
LINE
  5
220
330
1F
100
AcDbEntity
  8
LAY-10
  6
CONTINUOUS
 62
     7
100
AcDbLine
 10
1042.301515189834
 20
1151.600000000026
 30
0.0
 11
995.3015151898336
 21
1151.600000000033
 31
0.0
  0
LINE
  5
221
330
1F
100
AcDbEntity
  8
LAY-10
  6
CONTINUOUS
 62
     7
100
AcDbLine
 10
1042.301515189834
 20
1146.600000000026
 30
0.0
 11
995.3015151898336
 21
1146.600000000034
 31
0.0
  0
LINE
  5
222
330
1F
100
AcDbEntity
  8
LAY-10
  6
CONTINUOUS
 62
     7
100
AcDbLine
 10
995.3015151898389
 20
1157.600000000032
 30
0.0
 11
1042.301515189841
 21
1157.600000000026
 31
0.0
  0
LINE
  5
223
330
1F
100
AcDbEntity
  8
LAY-10
  6
CONTINUOUS
 62
     7
100
AcDbLine
 10
995.3015151898371
 20
1162.600000000032
 30
0.0
 11
1042.301515189841
 21
1162.600000000026
 31
0.0
  0
LINE
  5
224
330
1F
100
AcDbEntity
  8
LAY-10
  6
CONTINUOUS
 62
     7
100
AcDbLine
 10
995.3015151898427
 20
1168.600000000031
 30
0.0
 11
1042.301515189841
 21
1168.600000000024
 31
0.0
  0
LINE
  5
225
330
1F
100
AcDbEntity
  8
LAY-10
  6
CONTINUOUS
 62
     7
100
AcDbLine
 10
995.3015151898371
 20
1140.600000000034
 30
0.0
 11
1042.301515189837
 21
1140.600000000028
 31
0.0
  0
LINE
  5
226
330
1F
100
AcDbEntity
  8
LAY-10
  6
CONTINUOUS
 62
     7
100
AcDbLine
 10
995.3015151898298
 20
1135.600000000034
 30
0.0
 11
1042.301515189833
 21
1135.600000000028
 31
0.0
  0
LINE
  5
227
330
1F
100
AcDbEntity
  8
LAY-10
  6
CONTINUOUS
 62
     7
100
AcDbLine
 10
995.3015151898371
 20
1129.600000000034
 30
0.0
 11
1042.301515189833
 21
1129.600000000027
 31
0.0
  0
LINE
  5
228
330
1F
100
AcDbEntity
  8
LAY-10
  6
CONTINUOUS
 62
     7
100
AcDbLine
 10
1042.301515189841
 20
1168.600000000026
 30
0.0
 11
1043.301515189841
 21
1168.350000000026
 31
0.0
  0
LINE
  5
229
330
1F
100
AcDbEntity
  8
LAY-10
  6
CONTINUOUS
 62
     7
100
AcDbLine
 10
1043.301515189841
 20
1162.850000000026
 30
0.0
 11
1042.301515189841
 21
1162.600000000026
 31
0.0
  0
LINE
  5
22A
330
1F
100
AcDbEntity
  8
LAY-10
  6
CONTINUOUS
 62
     7
100
AcDbLine
 10
1043.301515189841
 20
1162.850000000026
 30
0.0
 11
1043.301515189841
 21
1168.350000000026
 31
0.0
  0
LINE
  5
22B
330
1F
100
AcDbEntity
  8
LAY-10
  6
CONTINUOUS
 62
     7
100
AcDbLine
 10
1042.301515189837
 20
1168.600000000024
 30
0.0
 11
1042.301515189837
 21
1172.600000000026
 31
0.0
  0
LINE
  5
22C
330
1F
100
AcDbEntity
  8
LAY-10
  6
CONTINUOUS
 62
     7
100
AcDbLine
 10
1042.301515189841
 20
1157.600000000026
 30
0.0
 11
1043.301515189837
 21
1157.350000000026
 31
0.0
  0
LINE
  5
22D
330
1F
100
AcDbEntity
  8
LAY-10
  6
CONTINUOUS
 62
     7
100
AcDbLine
 10
1043.301515189837
 20
1151.850000000027
 30
0.0
 11
1042.301515189837
 21
1151.600000000026
 31
0.0
  0
LINE
  5
22E
330
1F
100
AcDbEntity
  8
LAY-10
  6
CONTINUOUS
 62
     7
100
AcDbLine
 10
1043.301515189837
 20
1151.850000000027
 30
0.0
 11
1043.301515189837
 21
1157.350000000026
 31
0.0
  0
LINE
  5
22F
330
1F
100
AcDbEntity
  8
LAY-10
  6
CONTINUOUS
 62
     7
100
AcDbLine
 10
1042.301515189837
 20
1146.600000000026
 30
0.0
 11
1043.301515189837
 21
1146.350000000026
 31
0.0
  0
LINE
  5
230
330
1F
100
AcDbEntity
  8
LAY-10
  6
CONTINUOUS
 62
     7
100
AcDbLine
 10
1043.301515189837
 20
1140.850000000024
 30
0.0
 11
1042.301515189837
 21
1140.600000000027
 31
0.0
  0
LINE
  5
231
330
1F
100
AcDbEntity
  8
LAY-10
  6
CONTINUOUS
 62
     7
100
AcDbLine
 10
1043.301515189837
 20
1140.850000000024
 30
0.0
 11
1043.301515189837
 21
1146.350000000026
 31
0.0
  0
LINE
  5
232
330
1F
100
AcDbEntity
  8
LAY-10
  6
CONTINUOUS
 62
     7
100
AcDbLine
 10
1042.301515189833
 20
1135.600000000027
 30
0.0
 11
1043.301515189835
 21
1135.350000000026
 31
0.0
  0
LINE
  5
233
330
1F
100
AcDbEntity
  8
LAY-10
  6
CONTINUOUS
 62
     7
100
AcDbLine
 10
1043.301515189835
 20
1129.850000000026
 30
0.0
 11
1042.301515189833
 21
1129.600000000027
 31
0.0
  0
LINE
  5
234
330
1F
100
AcDbEntity
  8
LAY-10
  6
CONTINUOUS
 62
     7
100
AcDbLine
 10
1043.301515189835
 20
1129.850000000026
 30
0.0
 11
1043.301515189835
 21
1135.350000000026
 31
0.0
  0
LINE
  5
235
330
1F
100
AcDbEntity
  8
LAY-10
  6
CONTINUOUS
 62
     7
100
AcDbLine
 10
1042.301515189837
 20
1157.600000000026
 30
0.0
 11
1042.301515189837
 21
1162.600000000026
 31
0.0
  0
LINE
  5
236
330
1F
100
AcDbEntity
  8
LAY-10
  6
CONTINUOUS
 62
     7
100
AcDbLine
 10
1042.301515189834
 20
1146.600000000026
 30
0.0
 11
1042.301515189834
 21
1151.600000000026
 31
0.0
  0
LINE
  5
237
330
1F
100
AcDbEntity
  8
LAY-10
  6
CONTINUOUS
 62
     7
100
AcDbLine
 10
1042.30151518983
 20
1135.600000000027
 30
0.0
 11
1042.301515189833
 21
1140.600000000028
 31
0.0
  0
LINE
  5
238
330
1F
100
AcDbEntity
  8
LAY-10
  6
CONTINUOUS
 62
     7
100
AcDbLine
 10
995.3015151898336
 20
1168.600000000033
 30
0.0
 11
994.3015151898353
 21
1168.350000000034
 31
0.0
  0
LINE
  5
239
330
1F
100
AcDbEntity
  8
LAY-10
  6
CONTINUOUS
 62
     7
100
AcDbLine
 10
994.3015151898335
 20
1162.850000000034
 30
0.0
 11
995.3015151898336
 21
1162.600000000034
 31
0.0
  0
LINE
  5
23A
330
1F
100
AcDbEntity
  8
LAY-10
  6
CONTINUOUS
 62
     7
100
AcDbLine
 10
994.3015151898335
 20
1162.850000000034
 30
0.0
 11
994.3015151898353
 21
1168.350000000034
 31
0.0
  0
LINE
  5
23B
330
1F
100
AcDbEntity
  8
LAY-10
  6
CONTINUOUS
 62
     7
100
AcDbLine
 10
995.3015151898298
 20
1157.600000000032
 30
0.0
 11
994.3015151898353
 21
1157.350000000033
 31
0.0
  0
LINE
  5
23C
330
1F
100
AcDbEntity
  8
LAY-10
  6
CONTINUOUS
 62
     7
100
AcDbLine
 10
994.3015151898335
 20
1151.850000000031
 30
0.0
 11
995.3015151898298
 21
1151.600000000033
 31
0.0
  0
LINE
  5
23D
330
1F
100
AcDbEntity
  8
LAY-10
  6
CONTINUOUS
 62
     7
100
AcDbLine
 10
994.3015151898335
 20
1151.850000000031
 30
0.0
 11
994.3015151898353
 21
1157.350000000033
 31
0.0
  0
LINE
  5
23E
330
1F
100
AcDbEntity
  8
LAY-10
  6
CONTINUOUS
 62
     7
100
AcDbLine
 10
995.3015151898298
 20
1146.600000000034
 30
0.0
 11
994.3015151898335
 21
1146.350000000032
 31
0.0
  0
LINE
  5
23F
330
1F
100
AcDbEntity
  8
LAY-10
  6
CONTINUOUS
 62
     7
100
AcDbLine
 10
994.3015151898317
 20
1140.85000000003
 30
0.0
 11
995.3015151898298
 21
1140.600000000031
 31
0.0
  0
LINE
  5
240
330
1F
100
AcDbEntity
  8
LAY-10
  6
CONTINUOUS
 62
     7
100
AcDbLine
 10
994.3015151898317
 20
1140.85000000003
 30
0.0
 11
994.3015151898335
 21
1146.350000000032
 31
0.0
  0
LINE
  5
241
330
1F
100
AcDbEntity
  8
LAY-10
  6
CONTINUOUS
 62
     7
100
AcDbLine
 10
995.3015151898262
 20
1135.600000000034
 30
0.0
 11
994.30151518983
 21
1135.350000000034
 31
0.0
  0
LINE
  5
242
330
1F
100
AcDbEntity
  8
LAY-10
  6
CONTINUOUS
 62
     7
100
AcDbLine
 10
994.30151518983
 20
1129.850000000034
 30
0.0
 11
995.3015151898262
 21
1129.600000000033
 31
0.0
  0
LINE
  5
243
330
1F
100
AcDbEntity
  8
LAY-10
  6
CONTINUOUS
 62
     7
100
AcDbLine
 10
994.30151518983
 20
1129.850000000034
 30
0.0
 11
994.30151518983
 21
1135.350000000034
 31
0.0
  0
LINE
  5
244
330
1F
100
AcDbEntity
  8
LAY-10
  6
CONTINUOUS
 62
     7
100
AcDbLine
 10
995.3015151898371
 20
1172.600000000032
 30
0.0
 11
995.3015151898371
 21
1168.600000000031
 31
0.0
  0
LINE
  5
245
330
1F
100
AcDbEntity
  8
LAY-10
  6
CONTINUOUS
 62
     7
100
AcDbLine
 10
995.3015151898371
 20
1162.600000000032
 30
0.0
 11
995.3015151898371
 21
1157.600000000032
 31
0.0
  0
LINE
  5
246
330
1F
100
AcDbEntity
  8
LAY-10
  6
CONTINUOUS
 62
     7
100
AcDbLine
 10
995.3015151898336
 20
1151.600000000033
 30
0.0
 11
995.3015151898336
 21
1146.600000000034
 31
0.0
  0
LINE
  5
247
330
1F
100
AcDbEntity
  8
LAY-10
  6
CONTINUOUS
 62
     7
100
AcDbLine
 10
995.3015151898336
 20
1140.600000000034
 30
0.0
 11
995.3015151898298
 21
1135.600000000034
 31
0.0
  0
LINE
  5
248
330
1F
100
AcDbEntity
  8
LAY-10
  6
CONTINUOUS
 62
     7
100
AcDbLine
 10
995.3015151898298
 20
1129.600000000034
 30
0.0
 11
995.3015151898298
 21
1125.600000000032
 31
0.0
  0
LINE
  5
249
330
1F
100
AcDbEntity
  8
LAY-10
  6
CONTINUOUS
 62
     7
100
AcDbLine
 10
1022.801515189834
 20
1127.100000000029
 30
0.0
 11
1014.801515189835
 21
1127.100000000029
 31
0.0
  0
LINE
  5
24A
330
1F
100
AcDbEntity
  8
LAY-10
  6
CONTINUOUS
 62
     7
100
AcDbLine
 10
1022.80151518983
 20
1124.100000000031
 30
0.0
 11
1022.80151518983
 21
1127.100000000029
 31
0.0
  0
LINE
  5
24B
330
1F
100
AcDbEntity
  8
LAY-10
  6
CONTINUOUS
 62
     7
100
AcDbLine
 10
1014.801515189832
 20
1124.100000000031
 30
0.0
 11
1014.801515189832
 21
1127.100000000029
 31
0.0
  0
LINE
  5
24C
330
1F
100
AcDbEntity
  8
LAY-10
  6
CONTINUOUS
 62
     7
100
AcDbLine
 10
995.3015151898298
 20
1125.600000000032
 30
0.0
 11
1014.801515189832
 21
1125.600000000029
 31
0.0
  0
LINE
  5
24D
330
1F
100
AcDbEntity
  8
LAY-10
  6
CONTINUOUS
 62
     7
100
AcDbLine
 10
1022.80151518983
 20
1125.600000000029
 30
0.0
 11
1042.30151518983
 21
1125.600000000025
 31
0.0
  0
LINE
  5
24E
330
1F
100
AcDbEntity
  8
LAY-10
  6
CONTINUOUS
 62
     7
100
AcDbLine
 10
993.8015151898408
 20
1174.100000000032
 30
0.0
 11
1043.801515189841
 21
1174.100000000024
 31
0.0
  0
CIRCLE
  5
24F
330
1F
100
AcDbEntity
  8
LAY-10
  6
CONTINUOUS
 62
     7
100
AcDbCircle
 10
963.8015151898844
 20
1149.099999999995
 30
0.0
 40
13.00000000000001
  0
CIRCLE
  5
250
330
1F
100
AcDbEntity
  8
LAY-10
  6
CONTINUOUS
 62
     7
100
AcDbCircle
 10
963.8015151899026
 20
1149.100000000008
 30
0.0
 40
12.75000000000001
  0
LINE
  5
251
330
1F
100
AcDbEntity
  8
LAY-10
  6
CONTINUOUS
 62
     7
100
AcDbLine
 10
963.8015151899191
 20
1153.099999999993
 30
0.0
 11
970.3015151899172
 21
1149.099999999994
 31
0.0
  0
LINE
  5
252
330
1F
100
AcDbEntity
  8
LAY-10
  6
CONTINUOUS
 62
     7
100
AcDbLine
 10
957.3015151899153
 20
1149.099999999994
 30
0.0
 11
963.8015151899191
 21
1153.099999999993
 31
0.0
  0
LINE
  5
253
330
1F
100
AcDbEntity
  8
LAY-10
  6
CONTINUOUS
 62
     7
100
AcDbLine
 10
963.8015151899191
 20
1145.099999999993
 30
0.0
 11
957.3015151899153
 21
1149.099999999994
 31
0.0
  0
LINE
  5
254
330
1F
100
AcDbEntity
  8
LAY-10
  6
CONTINUOUS
 62
     7
100
AcDbLine
 10
970.3015151899172
 20
1149.099999999994
 30
0.0
 11
963.8015151899191
 21
1145.099999999993
 31
0.0
  0
LINE
  5
255
330
1F
100
AcDbEntity
  8
LAY-10
  6
CONTINUOUS
 62
     7
100
AcDbLine
 10
959.8015151899136
 20
1138.599999999992
 30
0.0
 11
967.8015151899154
 21
1138.599999999992
 31
0.0
  0
LINE
  5
256
330
1F
100
AcDbEntity
  8
LAY-10
  6
CONTINUOUS
 62
     7
100
AcDbLine
 10
959.8015151899136
 20
1138.599999999992
 30
0.0
 11
959.8015151899136
 21
1136.993699987191
 31
0.0
  0
LINE
  5
257
330
1F
100
AcDbEntity
  8
LAY-10
  6
CONTINUOUS
 62
     7
100
AcDbLine
 10
967.8015151899154
 20
1138.599999999992
 30
0.0
 11
967.8015151899154
 21
1136.993699987191
 31
0.0
  0
LINE
  5
258
330
1F
100
AcDbEntity
  8
LAY-10
  6
CONTINUOUS
 62
     7
100
AcDbLine
 10
1162.801515190066
 20
2248.100000000162
 30
0.0
 11
1162.801515190059
 21
2198.100000000168
 31
0.0
  0
LINE
  5
259
330
1F
100
AcDbEntity
  8
LAY-10
  6
CONTINUOUS
 62
     7
100
AcDbLine
 10
1162.801515190066
 20
2248.100000000162
 30
0.0
 11
1112.801515190066
 21
2248.100000000169
 31
0.0
  0
LINE
  5
25A
330
1F
100
AcDbEntity
  8
LAY-10
  6
CONTINUOUS
 62
     7
100
AcDbLine
 10
1112.801515190066
 20
2248.100000000169
 30
0.0
 11
1112.801515190059
 21
2198.100000000175
 31
0.0
  0
LINE
  5
25B
330
1F
100
AcDbEntity
  8
LAY-10
  6
CONTINUOUS
 62
     7
100
AcDbLine
 10
1114.30151519007
 20
2246.600000000175
 30
0.0
 11
1114.30151519007
 21
2242.600000000173
 31
0.0
  0
LINE
  5
25C
330
1F
100
AcDbEntity
  8
LAY-10
  6
CONTINUOUS
 62
     7
100
AcDbLine
 10
1114.301515190062
 20
2199.600000000174
 30
0.0
 11
1161.301515190062
 21
2199.600000000168
 31
0.0
  0
LINE
  5
25D
330
1F
100
AcDbEntity
  8
LAY-10
  6
CONTINUOUS
 62
     7
100
AcDbLine
 10
1114.301515190066
 20
2220.600000000174
 30
0.0
 11
1161.301515190066
 21
2220.600000000167
 31
0.0
  0
LINE
  5
25E
330
1F
100
AcDbEntity
  8
LAY-10
  6
CONTINUOUS
 62
     7
100
AcDbLine
 10
1114.301515190066
 20
2225.600000000174
 30
0.0
 11
1161.301515190066
 21
2225.600000000166
 31
0.0
  0
LINE
  5
25F
330
1F
100
AcDbEntity
  8
LAY-10
  6
CONTINUOUS
 62
     7
100
AcDbLine
 10
1161.301515190061
 20
2214.600000000168
 30
0.0
 11
1114.301515190059
 21
2214.600000000174
 31
0.0
  0
LINE
  5
260
330
1F
100
AcDbEntity
  8
LAY-10
  6
CONTINUOUS
 62
     7
100
AcDbLine
 10
1161.301515190062
 20
2209.600000000168
 30
0.0
 11
1114.301515190059
 21
2209.600000000174
 31
0.0
  0
LINE
  5
261
330
1F
100
AcDbEntity
  8
LAY-10
  6
CONTINUOUS
 62
     7
100
AcDbLine
 10
1161.301515190057
 20
2203.600000000169
 30
0.0
 11
1114.301515190059
 21
2203.600000000175
 31
0.0
  0
LINE
  5
262
330
1F
100
AcDbEntity
  8
LAY-10
  6
CONTINUOUS
 62
     7
100
AcDbLine
 10
1161.301515190062
 20
2231.600000000166
 30
0.0
 11
1114.301515190062
 21
2231.600000000172
 31
0.0
  0
LINE
  5
263
330
1F
100
AcDbEntity
  8
LAY-10
  6
CONTINUOUS
 62
     7
100
AcDbLine
 10
1161.30151519007
 20
2236.600000000165
 30
0.0
 11
1114.301515190066
 21
2236.600000000172
 31
0.0
  0
LINE
  5
264
330
1F
100
AcDbEntity
  8
LAY-10
  6
CONTINUOUS
 62
     7
100
AcDbLine
 10
1161.301515190062
 20
2242.600000000166
 30
0.0
 11
1114.301515190066
 21
2242.600000000173
 31
0.0
  0
LINE
  5
265
330
1F
100
AcDbEntity
  8
LAY-10
  6
CONTINUOUS
 62
     7
100
AcDbLine
 10
1114.301515190059
 20
2203.600000000174
 30
0.0
 11
1113.301515190059
 21
2203.850000000174
 31
0.0
  0
LINE
  5
266
330
1F
100
AcDbEntity
  8
LAY-10
  6
CONTINUOUS
 62
     7
100
AcDbLine
 10
1113.301515190059
 20
2209.350000000174
 30
0.0
 11
1114.301515190059
 21
2209.600000000174
 31
0.0
  0
LINE
  5
267
330
1F
100
AcDbEntity
  8
LAY-10
  6
CONTINUOUS
 62
     7
100
AcDbLine
 10
1113.301515190059
 20
2209.350000000174
 30
0.0
 11
1113.301515190059
 21
2203.850000000174
 31
0.0
  0
LINE
  5
268
330
1F
100
AcDbEntity
  8
LAY-10
  6
CONTINUOUS
 62
     7
100
AcDbLine
 10
1114.301515190062
 20
2203.600000000175
 30
0.0
 11
1114.301515190062
 21
2199.600000000174
 31
0.0
  0
LINE
  5
269
330
1F
100
AcDbEntity
  8
LAY-10
  6
CONTINUOUS
 62
     7
100
AcDbLine
 10
1114.301515190059
 20
2214.600000000174
 30
0.0
 11
1113.301515190062
 21
2214.850000000174
 31
0.0
  0
LINE
  5
26A
330
1F
100
AcDbEntity
  8
LAY-10
  6
CONTINUOUS
 62
     7
100
AcDbLine
 10
1113.301515190062
 20
2220.350000000173
 30
0.0
 11
1114.301515190062
 21
2220.600000000174
 31
0.0
  0
LINE
  5
26B
330
1F
100
AcDbEntity
  8
LAY-10
  6
CONTINUOUS
 62
     7
100
AcDbLine
 10
1113.301515190062
 20
2220.350000000173
 30
0.0
 11
1113.301515190062
 21
2214.850000000174
 31
0.0
  0
LINE
  5
26C
330
1F
100
AcDbEntity
  8
LAY-10
  6
CONTINUOUS
 62
     7
100
AcDbLine
 10
1114.301515190062
 20
2225.600000000174
 30
0.0
 11
1113.301515190062
 21
2225.850000000174
 31
0.0
  0
LINE
  5
26D
330
1F
100
AcDbEntity
  8
LAY-10
  6
CONTINUOUS
 62
     7
100
AcDbLine
 10
1113.301515190062
 20
2231.350000000175
 30
0.0
 11
1114.301515190062
 21
2231.600000000173
 31
0.0
  0
LINE
  5
26E
330
1F
100
AcDbEntity
  8
LAY-10
  6
CONTINUOUS
 62
     7
100
AcDbLine
 10
1113.301515190062
 20
2231.350000000175
 30
0.0
 11
1113.301515190062
 21
2225.850000000174
 31
0.0
  0
LINE
  5
26F
330
1F
100
AcDbEntity
  8
LAY-10
  6
CONTINUOUS
 62
     7
100
AcDbLine
 10
1114.301515190066
 20
2236.600000000173
 30
0.0
 11
1113.301515190064
 21
2236.850000000174
 31
0.0
  0
LINE
  5
270
330
1F
100
AcDbEntity
  8
LAY-10
  6
CONTINUOUS
 62
     7
100
AcDbLine
 10
1113.301515190064
 20
2242.350000000174
 30
0.0
 11
1114.301515190066
 21
2242.600000000173
 31
0.0
  0
LINE
  5
271
330
1F
100
AcDbEntity
  8
LAY-10
  6
CONTINUOUS
 62
     7
100
AcDbLine
 10
1113.301515190064
 20
2242.350000000174
 30
0.0
 11
1113.301515190064
 21
2236.850000000174
 31
0.0
  0
LINE
  5
272
330
1F
100
AcDbEntity
  8
LAY-10
  6
CONTINUOUS
 62
     7
100
AcDbLine
 10
1114.301515190062
 20
2214.600000000174
 30
0.0
 11
1114.301515190062
 21
2209.600000000174
 31
0.0
  0
LINE
  5
273
330
1F
100
AcDbEntity
  8
LAY-10
  6
CONTINUOUS
 62
     7
100
AcDbLine
 10
1114.301515190066
 20
2225.600000000174
 30
0.0
 11
1114.301515190066
 21
2220.600000000174
 31
0.0
  0
LINE
  5
274
330
1F
100
AcDbEntity
  8
LAY-10
  6
CONTINUOUS
 62
     7
100
AcDbLine
 10
1114.30151519007
 20
2236.600000000173
 30
0.0
 11
1114.301515190066
 21
2231.600000000172
 31
0.0
  0
LINE
  5
275
330
1F
100
AcDbEntity
  8
LAY-10
  6
CONTINUOUS
 62
     7
100
AcDbLine
 10
1161.301515190066
 20
2203.600000000167
 30
0.0
 11
1162.301515190064
 21
2203.850000000166
 31
0.0
  0
LINE
  5
276
330
1F
100
AcDbEntity
  8
LAY-10
  6
CONTINUOUS
 62
     7
100
AcDbLine
 10
1162.301515190066
 20
2209.350000000165
 30
0.0
 11
1161.301515190066
 21
2209.600000000165
 31
0.0
  0
LINE
  5
277
330
1F
100
AcDbEntity
  8
LAY-10
  6
CONTINUOUS
 62
     7
100
AcDbLine
 10
1162.301515190066
 20
2209.350000000165
 30
0.0
 11
1162.301515190064
 21
2203.850000000166
 31
0.0
  0
LINE
  5
278
330
1F
100
AcDbEntity
  8
LAY-10
  6
CONTINUOUS
 62
     7
100
AcDbLine
 10
1161.30151519007
 20
2214.600000000168
 30
0.0
 11
1162.301515190064
 21
2214.850000000167
 31
0.0
  0
LINE
  5
279
330
1F
100
AcDbEntity
  8
LAY-10
  6
CONTINUOUS
 62
     7
100
AcDbLine
 10
1162.301515190066
 20
2220.350000000169
 30
0.0
 11
1161.30151519007
 21
2220.600000000167
 31
0.0
  0
LINE
  5
27A
330
1F
100
AcDbEntity
  8
LAY-10
  6
CONTINUOUS
 62
     7
100
AcDbLine
 10
1162.301515190066
 20
2220.350000000169
 30
0.0
 11
1162.301515190064
 21
2214.850000000167
 31
0.0
  0
LINE
  5
27B
330
1F
100
AcDbEntity
  8
LAY-10
  6
CONTINUOUS
 62
     7
100
AcDbLine
 10
1161.30151519007
 20
2225.600000000166
 30
0.0
 11
1162.301515190066
 21
2225.850000000168
 31
0.0
  0
LINE
  5
27C
330
1F
100
AcDbEntity
  8
LAY-10
  6
CONTINUOUS
 62
     7
100
AcDbLine
 10
1162.301515190068
 20
2231.35000000017
 30
0.0
 11
1161.30151519007
 21
2231.600000000169
 31
0.0
  0
LINE
  5
27D
330
1F
100
AcDbEntity
  8
LAY-10
  6
CONTINUOUS
 62
     7
100
AcDbLine
 10
1162.301515190068
 20
2231.35000000017
 30
0.0
 11
1162.301515190066
 21
2225.850000000168
 31
0.0
  0
LINE
  5
27E
330
1F
100
AcDbEntity
  8
LAY-10
  6
CONTINUOUS
 62
     7
100
AcDbLine
 10
1161.301515190073
 20
2236.600000000165
 30
0.0
 11
1162.30151519007
 21
2236.850000000166
 31
0.0
  0
LINE
  5
27F
330
1F
100
AcDbEntity
  8
LAY-10
  6
CONTINUOUS
 62
     7
100
AcDbLine
 10
1162.30151519007
 20
2242.350000000165
 30
0.0
 11
1161.301515190073
 21
2242.600000000167
 31
0.0
  0
LINE
  5
280
330
1F
100
AcDbEntity
  8
LAY-10
  6
CONTINUOUS
 62
     7
100
AcDbLine
 10
1162.30151519007
 20
2242.350000000165
 30
0.0
 11
1162.30151519007
 21
2236.850000000166
 31
0.0
  0
LINE
  5
281
330
1F
100
AcDbEntity
  8
LAY-10
  6
CONTINUOUS
 62
     7
100
AcDbLine
 10
1161.301515190062
 20
2199.600000000168
 30
0.0
 11
1161.301515190062
 21
2203.600000000169
 31
0.0
  0
LINE
  5
282
330
1F
100
AcDbEntity
  8
LAY-10
  6
CONTINUOUS
 62
     7
100
AcDbLine
 10
1161.301515190062
 20
2209.600000000168
 30
0.0
 11
1161.301515190062
 21
2214.600000000168
 31
0.0
  0
LINE
  5
283
330
1F
100
AcDbEntity
  8
LAY-10
  6
CONTINUOUS
 62
     7
100
AcDbLine
 10
1161.301515190066
 20
2220.600000000167
 30
0.0
 11
1161.301515190066
 21
2225.600000000166
 31
0.0
  0
LINE
  5
284
330
1F
100
AcDbEntity
  8
LAY-10
  6
CONTINUOUS
 62
     7
100
AcDbLine
 10
1161.301515190066
 20
2231.600000000166
 30
0.0
 11
1161.30151519007
 21
2236.600000000165
 31
0.0
  0
LINE
  5
285
330
1F
100
AcDbEntity
  8
LAY-10
  6
CONTINUOUS
 62
     7
100
AcDbLine
 10
1161.30151519007
 20
2242.600000000166
 30
0.0
 11
1161.30151519007
 21
2246.600000000168
 31
0.0
  0
LINE
  5
286
330
1F
100
AcDbEntity
  8
LAY-10
  6
CONTINUOUS
 62
     7
100
AcDbLine
 10
1133.801515190066
 20
2245.100000000171
 30
0.0
 11
1141.801515190064
 21
2245.100000000171
 31
0.0
  0
LINE
  5
287
330
1F
100
AcDbEntity
  8
LAY-10
  6
CONTINUOUS
 62
     7
100
AcDbLine
 10
1133.80151519007
 20
2248.100000000169
 30
0.0
 11
1133.80151519007
 21
2245.100000000171
 31
0.0
  0
LINE
  5
288
330
1F
100
AcDbEntity
  8
LAY-10
  6
CONTINUOUS
 62
     7
100
AcDbLine
 10
1141.801515190068
 20
2248.100000000169
 30
0.0
 11
1141.801515190068
 21
2245.100000000171
 31
0.0
  0
LINE
  5
289
330
1F
100
AcDbEntity
  8
LAY-10
  6
CONTINUOUS
 62
     7
100
AcDbLine
 10
1161.30151519007
 20
2246.600000000168
 30
0.0
 11
1141.801515190068
 21
2246.600000000171
 31
0.0
  0
LINE
  5
28A
330
1F
100
AcDbEntity
  8
LAY-10
  6
CONTINUOUS
 62
     7
100
AcDbLine
 10
1133.80151519007
 20
2246.600000000171
 30
0.0
 11
1114.30151519007
 21
2246.600000000175
 31
0.0
  0
LINE
  5
28B
330
1F
100
AcDbEntity
  8
LAY-10
  6
CONTINUOUS
 62
     7
100
AcDbLine
 10
1162.801515190059
 20
2198.100000000168
 30
0.0
 11
1112.801515190059
 21
2198.100000000175
 31
0.0
  0
CIRCLE
  5
28C
330
1F
100
AcDbEntity
  8
LAY-10
  6
CONTINUOUS
 62
     7
100
AcDbCircle
 10
1192.801515190015
 20
2223.100000000205
 30
0.0
 40
13.00000000000001
  0
CIRCLE
  5
28D
330
1F
100
AcDbEntity
  8
LAY-10
  6
CONTINUOUS
 62
     7
100
AcDbCircle
 10
1192.801515189997
 20
2223.100000000192
 30
0.0
 40
12.75000000000001
  0
LINE
  5
28E
330
1F
100
AcDbEntity
  8
LAY-10
  6
CONTINUOUS
 62
     7
100
AcDbLine
 10
1192.801515189981
 20
2219.100000000207
 30
0.0
 11
1186.301515189982
 21
2223.100000000205
 31
0.0
  0
LINE
  5
28F
330
1F
100
AcDbEntity
  8
LAY-10
  6
CONTINUOUS
 62
     7
100
AcDbLine
 10
1199.301515189984
 20
2223.100000000205
 30
0.0
 11
1192.801515189981
 21
2219.100000000207
 31
0.0
  0
LINE
  5
290
330
1F
100
AcDbEntity
  8
LAY-10
  6
CONTINUOUS
 62
     7
100
AcDbLine
 10
1192.801515189981
 20
2227.100000000207
 30
0.0
 11
1199.301515189984
 21
2223.100000000205
 31
0.0
  0
LINE
  5
291
330
1F
100
AcDbEntity
  8
LAY-10
  6
CONTINUOUS
 62
     7
100
AcDbLine
 10
1186.301515189982
 20
2223.100000000205
 30
0.0
 11
1192.801515189981
 21
2227.100000000207
 31
0.0
  0
LINE
  5
292
330
1F
100
AcDbEntity
  8
LAY-10
  6
CONTINUOUS
 62
     7
100
AcDbLine
 10
1196.801515189986
 20
2233.600000000208
 30
0.0
 11
1188.801515189984
 21
2233.600000000208
 31
0.0
  0
LINE
  5
293
330
1F
100
AcDbEntity
  8
LAY-10
  6
CONTINUOUS
 62
     7
100
AcDbLine
 10
1196.801515189986
 20
2233.600000000208
 30
0.0
 11
1196.801515189986
 21
2235.206300013009
 31
0.0
  0
LINE
  5
294
330
1F
100
AcDbEntity
  8
LAY-10
  6
CONTINUOUS
 62
     7
100
AcDbLine
 10
1188.801515189984
 20
2233.600000000208
 30
0.0
 11
1188.801515189984
 21
2235.206300013009
 31
0.0
  0
LINE
  5
295
330
1F
100
AcDbEntity
  8
LAY-10
  6
CONTINUOUS
 62
     7
100
AcDbLine
 10
1162.801515190055
 20
1124.100000000138
 30
0.0
 11
1162.801515190052
 21
1174.100000000132
 31
0.0
  0
LINE
  5
296
330
1F
100
AcDbEntity
  8
LAY-10
  6
CONTINUOUS
 62
     7
100
AcDbLine
 10
1162.801515190055
 20
1124.100000000138
 30
0.0
 11
1112.801515190057
 21
1124.100000000131
 31
0.0
  0
LINE
  5
297
330
1F
100
AcDbEntity
  8
LAY-10
  6
CONTINUOUS
 62
     7
100
AcDbLine
 10
1112.801515190057
 20
1124.100000000131
 30
0.0
 11
1112.801515190048
 21
1174.100000000125
 31
0.0
  0
LINE
  5
298
330
1F
100
AcDbEntity
  8
LAY-10
  6
CONTINUOUS
 62
     7
100
AcDbLine
 10
1114.301515190057
 20
1125.600000000125
 30
0.0
 11
1114.301515190057
 21
1129.600000000127
 31
0.0
  0
LINE
  5
299
330
1F
100
AcDbEntity
  8
LAY-10
  6
CONTINUOUS
 62
     7
100
AcDbLine
 10
1114.301515190052
 20
1172.600000000126
 30
0.0
 11
1161.301515190052
 21
1172.600000000133
 31
0.0
  0
LINE
  5
29A
330
1F
100
AcDbEntity
  8
LAY-10
  6
CONTINUOUS
 62
     7
100
AcDbLine
 10
1114.301515190053
 20
1151.600000000126
 30
0.0
 11
1161.301515190053
 21
1151.600000000133
 31
0.0
  0
LINE
  5
29B
330
1F
100
AcDbEntity
  8
LAY-10
  6
CONTINUOUS
 62
     7
100
AcDbLine
 10
1114.301515190053
 20
1146.600000000127
 30
0.0
 11
1161.301515190055
 21
1146.600000000133
 31
0.0
  0
LINE
  5
29C
330
1F
100
AcDbEntity
  8
LAY-10
  6
CONTINUOUS
 62
     7
100
AcDbLine
 10
1161.301515190052
 20
1157.600000000133
 30
0.0
 11
1114.301515190052
 21
1157.600000000126
 31
0.0
  0
LINE
  5
29D
330
1F
100
AcDbEntity
  8
LAY-10
  6
CONTINUOUS
 62
     7
100
AcDbLine
 10
1161.301515190052
 20
1162.600000000131
 30
0.0
 11
1114.301515190052
 21
1162.600000000127
 31
0.0
  0
LINE
  5
29E
330
1F
100
AcDbEntity
  8
LAY-10
  6
CONTINUOUS
 62
     7
100
AcDbLine
 10
1161.301515190048
 20
1168.600000000131
 30
0.0
 11
1114.301515190052
 21
1168.600000000125
 31
0.0
  0
LINE
  5
29F
330
1F
100
AcDbEntity
  8
LAY-10
  6
CONTINUOUS
 62
     7
100
AcDbLine
 10
1161.301515190052
 20
1140.600000000135
 30
0.0
 11
1114.301515190053
 21
1140.600000000128
 31
0.0
  0
LINE
  5
2A0
330
1F
100
AcDbEntity
  8
LAY-10
  6
CONTINUOUS
 62
     7
100
AcDbLine
 10
1161.301515190057
 20
1135.600000000135
 30
0.0
 11
1114.301515190053
 21
1135.600000000128
 31
0.0
  0
LINE
  5
2A1
330
1F
100
AcDbEntity
  8
LAY-10
  6
CONTINUOUS
 62
     7
100
AcDbLine
 10
1161.301515190052
 20
1129.600000000134
 30
0.0
 11
1114.301515190053
 21
1129.600000000127
 31
0.0
  0
LINE
  5
2A2
330
1F
100
AcDbEntity
  8
LAY-10
  6
CONTINUOUS
 62
     7
100
AcDbLine
 10
1114.301515190052
 20
1168.600000000125
 30
0.0
 11
1113.30151519005
 21
1168.350000000127
 31
0.0
  0
LINE
  5
2A3
330
1F
100
AcDbEntity
  8
LAY-10
  6
CONTINUOUS
 62
     7
100
AcDbLine
 10
1113.30151519005
 20
1162.850000000126
 30
0.0
 11
1114.301515190052
 21
1162.600000000127
 31
0.0
  0
LINE
  5
2A4
330
1F
100
AcDbEntity
  8
LAY-10
  6
CONTINUOUS
 62
     7
100
AcDbLine
 10
1113.30151519005
 20
1162.850000000126
 30
0.0
 11
1113.30151519005
 21
1168.350000000127
 31
0.0
  0
LINE
  5
2A5
330
1F
100
AcDbEntity
  8
LAY-10
  6
CONTINUOUS
 62
     7
100
AcDbLine
 10
1114.301515190052
 20
1168.600000000125
 30
0.0
 11
1114.301515190052
 21
1172.600000000126
 31
0.0
  0
LINE
  5
2A6
330
1F
100
AcDbEntity
  8
LAY-10
  6
CONTINUOUS
 62
     7
100
AcDbLine
 10
1114.301515190052
 20
1157.600000000126
 30
0.0
 11
1113.301515190052
 21
1157.350000000125
 31
0.0
  0
LINE
  5
2A7
330
1F
100
AcDbEntity
  8
LAY-10
  6
CONTINUOUS
 62
     7
100
AcDbLine
 10
1113.301515190052
 20
1151.850000000126
 30
0.0
 11
1114.301515190052
 21
1151.600000000126
 31
0.0
  0
LINE
  5
2A8
330
1F
100
AcDbEntity
  8
LAY-10
  6
CONTINUOUS
 62
     7
100
AcDbLine
 10
1113.301515190052
 20
1151.850000000126
 30
0.0
 11
1113.301515190052
 21
1157.350000000125
 31
0.0
  0
LINE
  5
2A9
330
1F
100
AcDbEntity
  8
LAY-10
  6
CONTINUOUS
 62
     7
100
AcDbLine
 10
1114.301515190052
 20
1146.600000000127
 30
0.0
 11
1113.301515190052
 21
1146.350000000126
 31
0.0
  0
LINE
  5
2AA
330
1F
100
AcDbEntity
  8
LAY-10
  6
CONTINUOUS
 62
     7
100
AcDbLine
 10
1113.301515190053
 20
1140.850000000125
 30
0.0
 11
1114.301515190053
 21
1140.600000000126
 31
0.0
  0
LINE
  5
2AB
330
1F
100
AcDbEntity
  8
LAY-10
  6
CONTINUOUS
 62
     7
100
AcDbLine
 10
1113.301515190053
 20
1140.850000000125
 30
0.0
 11
1113.301515190052
 21
1146.350000000126
 31
0.0
  0
LINE
  5
2AC
330
1F
100
AcDbEntity
  8
LAY-10
  6
CONTINUOUS
 62
     7
100
AcDbLine
 10
1114.301515190053
 20
1135.600000000127
 30
0.0
 11
1113.301515190055
 21
1135.350000000127
 31
0.0
  0
LINE
  5
2AD
330
1F
100
AcDbEntity
  8
LAY-10
  6
CONTINUOUS
 62
     7
100
AcDbLine
 10
1113.301515190055
 20
1129.850000000127
 30
0.0
 11
1114.301515190053
 21
1129.600000000127
 31
0.0
  0
LINE
  5
2AE
330
1F
100
AcDbEntity
  8
LAY-10
  6
CONTINUOUS
 62
     7
100
AcDbLine
 10
1113.301515190055
 20
1129.850000000127
 30
0.0
 11
1113.301515190055
 21
1135.350000000127
 31
0.0
  0
LINE
  5
2AF
330
1F
100
AcDbEntity
  8
LAY-10
  6
CONTINUOUS
 62
     7
100
AcDbLine
 10
1114.301515190053
 20
1157.600000000126
 30
0.0
 11
1114.301515190053
 21
1162.600000000127
 31
0.0
  0
LINE
  5
2B0
330
1F
100
AcDbEntity
  8
LAY-10
  6
CONTINUOUS
 62
     7
100
AcDbLine
 10
1114.301515190053
 20
1146.600000000127
 30
0.0
 11
1114.301515190053
 21
1151.600000000126
 31
0.0
  0
LINE
  5
2B1
330
1F
100
AcDbEntity
  8
LAY-10
  6
CONTINUOUS
 62
     7
100
AcDbLine
 10
1114.301515190057
 20
1135.600000000127
 30
0.0
 11
1114.301515190053
 21
1140.600000000128
 31
0.0
  0
LINE
  5
2B2
330
1F
100
AcDbEntity
  8
LAY-10
  6
CONTINUOUS
 62
     7
100
AcDbLine
 10
1161.301515190055
 20
1168.600000000133
 30
0.0
 11
1162.301515190055
 21
1168.350000000134
 31
0.0
  0
LINE
  5
2B3
330
1F
100
AcDbEntity
  8
LAY-10
  6
CONTINUOUS
 62
     7
100
AcDbLine
 10
1162.301515190059
 20
1162.850000000135
 30
0.0
 11
1161.301515190055
 21
1162.600000000134
 31
0.0
  0
LINE
  5
2B4
330
1F
100
AcDbEntity
  8
LAY-10
  6
CONTINUOUS
 62
     7
100
AcDbLine
 10
1162.301515190059
 20
1162.850000000135
 30
0.0
 11
1162.301515190055
 21
1168.350000000134
 31
0.0
  0
LINE
  5
2B5
330
1F
100
AcDbEntity
  8
LAY-10
  6
CONTINUOUS
 62
     7
100
AcDbLine
 10
1161.301515190057
 20
1157.600000000133
 30
0.0
 11
1162.301515190055
 21
1157.350000000133
 31
0.0
  0
LINE
  5
2B6
330
1F
100
AcDbEntity
  8
LAY-10
  6
CONTINUOUS
 62
     7
100
AcDbLine
 10
1162.301515190059
 20
1151.850000000131
 30
0.0
 11
1161.301515190057
 21
1151.600000000133
 31
0.0
  0
LINE
  5
2B7
330
1F
100
AcDbEntity
  8
LAY-10
  6
CONTINUOUS
 62
     7
100
AcDbLine
 10
1162.301515190059
 20
1151.850000000131
 30
0.0
 11
1162.301515190055
 21
1157.350000000133
 31
0.0
  0
LINE
  5
2B8
330
1F
100
AcDbEntity
  8
LAY-10
  6
CONTINUOUS
 62
     7
100
AcDbLine
 10
1161.301515190061
 20
1146.600000000133
 30
0.0
 11
1162.301515190059
 21
1146.350000000133
 31
0.0
  0
LINE
  5
2B9
330
1F
100
AcDbEntity
  8
LAY-10
  6
CONTINUOUS
 62
     7
100
AcDbLine
 10
1162.301515190059
 20
1140.850000000131
 30
0.0
 11
1161.301515190061
 21
1140.600000000131
 31
0.0
  0
LINE
  5
2BA
330
1F
100
AcDbEntity
  8
LAY-10
  6
CONTINUOUS
 62
     7
100
AcDbLine
 10
1162.301515190059
 20
1140.850000000131
 30
0.0
 11
1162.301515190059
 21
1146.350000000133
 31
0.0
  0
LINE
  5
2BB
330
1F
100
AcDbEntity
  8
LAY-10
  6
CONTINUOUS
 62
     7
100
AcDbLine
 10
1161.301515190062
 20
1135.600000000135
 30
0.0
 11
1162.301515190062
 21
1135.350000000133
 31
0.0
  0
LINE
  5
2BC
330
1F
100
AcDbEntity
  8
LAY-10
  6
CONTINUOUS
 62
     7
100
AcDbLine
 10
1162.301515190062
 20
1129.850000000135
 30
0.0
 11
1161.301515190062
 21
1129.600000000133
 31
0.0
  0
LINE
  5
2BD
330
1F
100
AcDbEntity
  8
LAY-10
  6
CONTINUOUS
 62
     7
100
AcDbLine
 10
1162.301515190062
 20
1129.850000000135
 30
0.0
 11
1162.301515190062
 21
1135.350000000133
 31
0.0
  0
LINE
  5
2BE
330
1F
100
AcDbEntity
  8
LAY-10
  6
CONTINUOUS
 62
     7
100
AcDbLine
 10
1161.301515190052
 20
1172.600000000133
 30
0.0
 11
1161.301515190052
 21
1168.600000000131
 31
0.0
  0
LINE
  5
2BF
330
1F
100
AcDbEntity
  8
LAY-10
  6
CONTINUOUS
 62
     7
100
AcDbLine
 10
1161.301515190052
 20
1162.600000000131
 30
0.0
 11
1161.301515190052
 21
1157.600000000133
 31
0.0
  0
LINE
  5
2C0
330
1F
100
AcDbEntity
  8
LAY-10
  6
CONTINUOUS
 62
     7
100
AcDbLine
 10
1161.301515190053
 20
1151.600000000133
 30
0.0
 11
1161.301515190055
 21
1146.600000000133
 31
0.0
  0
LINE
  5
2C1
330
1F
100
AcDbEntity
  8
LAY-10
  6
CONTINUOUS
 62
     7
100
AcDbLine
 10
1161.301515190055
 20
1140.600000000135
 30
0.0
 11
1161.301515190057
 21
1135.600000000135
 31
0.0
  0
LINE
  5
2C2
330
1F
100
AcDbEntity
  8
LAY-10
  6
CONTINUOUS
 62
     7
100
AcDbLine
 10
1161.301515190057
 20
1129.600000000134
 30
0.0
 11
1161.301515190061
 21
1125.600000000133
 31
0.0
  0
LINE
  5
2C3
330
1F
100
AcDbEntity
  8
LAY-10
  6
CONTINUOUS
 62
     7
100
AcDbLine
 10
1133.801515190055
 20
1127.100000000129
 30
0.0
 11
1141.801515190055
 21
1127.100000000129
 31
0.0
  0
LINE
  5
2C4
330
1F
100
AcDbEntity
  8
LAY-10
  6
CONTINUOUS
 62
     7
100
AcDbLine
 10
1133.801515190059
 20
1124.100000000131
 30
0.0
 11
1133.801515190059
 21
1127.100000000129
 31
0.0
  0
LINE
  5
2C5
330
1F
100
AcDbEntity
  8
LAY-10
  6
CONTINUOUS
 62
     7
100
AcDbLine
 10
1141.801515190059
 20
1124.100000000131
 30
0.0
 11
1141.801515190059
 21
1127.100000000129
 31
0.0
  0
LINE
  5
2C6
330
1F
100
AcDbEntity
  8
LAY-10
  6
CONTINUOUS
 62
     7
100
AcDbLine
 10
1161.301515190061
 20
1125.600000000133
 30
0.0
 11
1141.801515190059
 21
1125.600000000129
 31
0.0
  0
LINE
  5
2C7
330
1F
100
AcDbEntity
  8
LAY-10
  6
CONTINUOUS
 62
     7
100
AcDbLine
 10
1133.801515190059
 20
1125.600000000129
 30
0.0
 11
1114.301515190057
 21
1125.600000000125
 31
0.0
  0
LINE
  5
2C8
330
1F
100
AcDbEntity
  8
LAY-10
  6
CONTINUOUS
 62
     7
100
AcDbLine
 10
1162.801515190052
 20
1174.100000000132
 30
0.0
 11
1112.801515190048
 21
1174.100000000125
 31
0.0
  0
CIRCLE
  5
2C9
330
1F
100
AcDbEntity
  8
LAY-10
  6
CONTINUOUS
 62
     7
100
AcDbCircle
 10
1192.801515190004
 20
1149.100000000095
 30
0.0
 40
13.00000000000001
  0
CIRCLE
  5
2CA
330
1F
100
AcDbEntity
  8
LAY-10
  6
CONTINUOUS
 62
     7
100
AcDbCircle
 10
1192.801515190004
 20
1149.100000000108
 30
0.0
 40
12.75000000000001
  0
LINE
  5
2CB
330
1F
100
AcDbEntity
  8
LAY-10
  6
CONTINUOUS
 62
     7
100
AcDbLine
 10
1192.801515190019
 20
1153.100000000092
 30
0.0
 11
1199.301515190017
 21
1149.100000000094
 31
0.0
  0
LINE
  5
2CC
330
1F
100
AcDbEntity
  8
LAY-10
  6
CONTINUOUS
 62
     7
100
AcDbLine
 10
1186.301515190015
 20
1149.100000000094
 30
0.0
 11
1192.801515190019
 21
1153.100000000092
 31
0.0
  0
LINE
  5
2CD
330
1F
100
AcDbEntity
  8
LAY-10
  6
CONTINUOUS
 62
     7
100
AcDbLine
 10
1192.801515190019
 20
1145.100000000093
 30
0.0
 11
1186.301515190015
 21
1149.100000000094
 31
0.0
  0
LINE
  5
2CE
330
1F
100
AcDbEntity
  8
LAY-10
  6
CONTINUOUS
 62
     7
100
AcDbLine
 10
1199.301515190017
 20
1149.100000000094
 30
0.0
 11
1192.801515190019
 21
1145.100000000093
 31
0.0
  0
LINE
  5
2CF
330
1F
100
AcDbEntity
  8
LAY-10
  6
CONTINUOUS
 62
     7
100
AcDbLine
 10
1188.801515190015
 20
1138.600000000092
 30
0.0
 11
1196.801515190015
 21
1138.600000000092
 31
0.0
  0
LINE
  5
2D0
330
1F
100
AcDbEntity
  8
LAY-10
  6
CONTINUOUS
 62
     7
100
AcDbLine
 10
1188.801515190015
 20
1138.600000000092
 30
0.0
 11
1188.801515190015
 21
1136.993699987291
 31
0.0
  0
LINE
  5
2D1
330
1F
100
AcDbEntity
  8
LAY-10
  6
CONTINUOUS
 62
     7
100
AcDbLine
 10
1196.801515190015
 20
1138.600000000092
 30
0.0
 11
1196.801515190015
 21
1136.993699987291
 31
0.0
  0
LINE
  5
2D2
330
1F
100
AcDbEntity
  8
LAY-10
  6
CONTINUOUS
 62
     7
100
AcDbLine
 10
1079.301515190108
 20
1114.10000000005
 30
0.0
 11
1079.30151519011
 21
2258.100000000198
 31
0.0
  0
LINE
  5
2D3
330
1F
100
AcDbEntity
  8
LAY-10
  6
CONTINUOUS
 62
     7
100
AcDbLine
 10
1575.301515190115
 20
1114.100000000049
 30
0.0
 11
1575.301515190119
 21
2258.100000000196
 31
0.0
  0
LINE
  5
2D4
330
1F
100
AcDbEntity
  8
LAY-10
  6
CONTINUOUS
 62
     7
100
AcDbLine
 10
1575.301515190115
 20
1114.100000000049
 30
0.0
 11
1079.301515190108
 21
1114.100000000051
 31
0.0
  0
LINE
  5
2D5
330
1F
100
AcDbEntity
  8
LAY-10
  6
CONTINUOUS
 62
     7
100
AcDbLine
 10
1457.801515190184
 20
2233.600000000207
 30
0.0
 11
1457.801515190184
 21
2235.206300013007
 31
0.0
  0
LINE
  5
2D6
330
1F
100
AcDbEntity
  8
LAY-10
  6
CONTINUOUS
 62
     7
100
AcDbLine
 10
1465.801515190182
 20
2233.600000000207
 30
0.0
 11
1465.801515190182
 21
2235.206300013007
 31
0.0
  0
LINE
  5
2D7
330
1F
100
AcDbEntity
  8
LAY-10
  6
CONTINUOUS
 62
     7
100
AcDbLine
 10
1465.801515190182
 20
2233.600000000207
 30
0.0
 11
1457.801515190184
 21
2233.600000000207
 31
0.0
  0
LINE
  5
2D8
330
1F
100
AcDbEntity
  8
LAY-10
  6
CONTINUOUS
 62
     7
100
AcDbLine
 10
1455.30151519018
 20
2223.100000000204
 30
0.0
 11
1461.801515190181
 21
2227.100000000206
 31
0.0
  0
LINE
  5
2D9
330
1F
100
AcDbEntity
  8
LAY-10
  6
CONTINUOUS
 62
     7
100
AcDbLine
 10
1461.801515190181
 20
2227.100000000206
 30
0.0
 11
1468.301515190182
 21
2223.100000000204
 31
0.0
  0
LINE
  5
2DA
330
1F
100
AcDbEntity
  8
LAY-10
  6
CONTINUOUS
 62
     7
100
AcDbLine
 10
1468.301515190182
 20
2223.100000000204
 30
0.0
 11
1461.801515190181
 21
2219.100000000205
 31
0.0
  0
LINE
  5
2DB
330
1F
100
AcDbEntity
  8
LAY-10
  6
CONTINUOUS
 62
     7
100
AcDbLine
 10
1461.801515190181
 20
2219.100000000205
 30
0.0
 11
1455.30151519018
 21
2223.100000000204
 31
0.0
  0
CIRCLE
  5
2DC
330
1F
100
AcDbEntity
  8
LAY-10
  6
CONTINUOUS
 62
     7
100
AcDbCircle
 10
1461.801515190195
 20
2223.100000000191
 30
0.0
 40
12.75000000000001
  0
CIRCLE
  5
2DD
330
1F
100
AcDbEntity
  8
LAY-10
  6
CONTINUOUS
 62
     7
100
AcDbCircle
 10
1461.801515190204
 20
2223.100000000204
 30
0.0
 40
13.00000000000001
  0
LINE
  5
2DE
330
1F
100
AcDbEntity
  8
LAY-10
  6
CONTINUOUS
 62
     7
100
AcDbLine
 10
1491.801515190157
 20
2198.100000000166
 30
0.0
 11
1541.801515190161
 21
2198.100000000174
 31
0.0
  0
LINE
  5
2DF
330
1F
100
AcDbEntity
  8
LAY-10
  6
CONTINUOUS
 62
     7
100
AcDbLine
 10
1520.801515190148
 20
2246.600000000169
 30
0.0
 11
1540.30151519015
 21
2246.600000000173
 31
0.0
  0
LINE
  5
2E0
330
1F
100
AcDbEntity
  8
LAY-10
  6
CONTINUOUS
 62
     7
100
AcDbLine
 10
1493.30151519015
 20
2246.600000000166
 30
0.0
 11
1512.80151519015
 21
2246.600000000169
 31
0.0
  0
LINE
  5
2E1
330
1F
100
AcDbEntity
  8
LAY-10
  6
CONTINUOUS
 62
     7
100
AcDbLine
 10
1512.80151519015
 20
2248.100000000167
 30
0.0
 11
1512.80151519015
 21
2245.100000000169
 31
0.0
  0
LINE
  5
2E2
330
1F
100
AcDbEntity
  8
LAY-10
  6
CONTINUOUS
 62
     7
100
AcDbLine
 10
1520.801515190148
 20
2248.100000000167
 30
0.0
 11
1520.801515190148
 21
2245.100000000169
 31
0.0
  0
LINE
  5
2E3
330
1F
100
AcDbEntity
  8
LAY-10
  6
CONTINUOUS
 62
     7
100
AcDbLine
 10
1520.801515190153
 20
2245.100000000169
 30
0.0
 11
1512.801515190152
 21
2245.100000000169
 31
0.0
  0
LINE
  5
2E4
330
1F
100
AcDbEntity
  8
LAY-10
  6
CONTINUOUS
 62
     7
100
AcDbLine
 10
1493.30151519015
 20
2242.600000000165
 30
0.0
 11
1493.30151519015
 21
2246.600000000166
 31
0.0
  0
LINE
  5
2E5
330
1F
100
AcDbEntity
  8
LAY-10
  6
CONTINUOUS
 62
     7
100
AcDbLine
 10
1493.301515190153
 20
2231.600000000165
 30
0.0
 11
1493.30151519015
 21
2236.600000000164
 31
0.0
  0
LINE
  5
2E6
330
1F
100
AcDbEntity
  8
LAY-10
  6
CONTINUOUS
 62
     7
100
AcDbLine
 10
1493.301515190153
 20
2220.600000000165
 30
0.0
 11
1493.301515190153
 21
2225.600000000165
 31
0.0
  0
LINE
  5
2E7
330
1F
100
AcDbEntity
  8
LAY-10
  6
CONTINUOUS
 62
     7
100
AcDbLine
 10
1493.301515190157
 20
2209.600000000166
 30
0.0
 11
1493.301515190157
 21
2214.600000000166
 31
0.0
  0
LINE
  5
2E8
330
1F
100
AcDbEntity
  8
LAY-10
  6
CONTINUOUS
 62
     7
100
AcDbLine
 10
1493.301515190157
 20
2199.600000000166
 30
0.0
 11
1493.301515190157
 21
2203.600000000167
 31
0.0
  0
LINE
  5
2E9
330
1F
100
AcDbEntity
  8
LAY-10
  6
CONTINUOUS
 62
     7
100
AcDbLine
 10
1492.301515190148
 20
2242.350000000164
 30
0.0
 11
1492.301515190148
 21
2236.850000000165
 31
0.0
  0
LINE
  5
2EA
330
1F
100
AcDbEntity
  8
LAY-10
  6
CONTINUOUS
 62
     7
100
AcDbLine
 10
1492.301515190148
 20
2242.350000000164
 30
0.0
 11
1493.301515190146
 21
2242.600000000165
 31
0.0
  0
LINE
  5
2EB
330
1F
100
AcDbEntity
  8
LAY-10
  6
CONTINUOUS
 62
     7
100
AcDbLine
 10
1493.301515190146
 20
2236.600000000164
 30
0.0
 11
1492.301515190148
 21
2236.850000000165
 31
0.0
  0
LINE
  5
2EC
330
1F
100
AcDbEntity
  8
LAY-10
  6
CONTINUOUS
 62
     7
100
AcDbLine
 10
1492.30151519015
 20
2231.350000000168
 30
0.0
 11
1492.30151519015
 21
2225.850000000166
 31
0.0
  0
LINE
  5
2ED
330
1F
100
AcDbEntity
  8
LAY-10
  6
CONTINUOUS
 62
     7
100
AcDbLine
 10
1492.30151519015
 20
2231.350000000168
 30
0.0
 11
1493.30151519015
 21
2231.600000000168
 31
0.0
  0
LINE
  5
2EE
330
1F
100
AcDbEntity
  8
LAY-10
  6
CONTINUOUS
 62
     7
100
AcDbLine
 10
1493.30151519015
 20
2225.600000000165
 30
0.0
 11
1492.30151519015
 21
2225.850000000166
 31
0.0
  0
LINE
  5
2EF
330
1F
100
AcDbEntity
  8
LAY-10
  6
CONTINUOUS
 62
     7
100
AcDbLine
 10
1492.30151519015
 20
2220.350000000168
 30
0.0
 11
1492.301515190151
 21
2214.850000000166
 31
0.0
  0
LINE
  5
2F0
330
1F
100
AcDbEntity
  8
LAY-10
  6
CONTINUOUS
 62
     7
100
AcDbLine
 10
1492.30151519015
 20
2220.350000000168
 30
0.0
 11
1493.30151519015
 21
2220.600000000165
 31
0.0
  0
LINE
  5
2F1
330
1F
100
AcDbEntity
  8
LAY-10
  6
CONTINUOUS
 62
     7
100
AcDbLine
 10
1493.30151519015
 20
2214.600000000166
 30
0.0
 11
1492.301515190151
 21
2214.850000000166
 31
0.0
  0
LINE
  5
2F2
330
1F
100
AcDbEntity
  8
LAY-10
  6
CONTINUOUS
 62
     7
100
AcDbLine
 10
1492.30151519015
 20
2209.350000000165
 30
0.0
 11
1492.301515190151
 21
2203.850000000165
 31
0.0
  0
LINE
  5
2F3
330
1F
100
AcDbEntity
  8
LAY-10
  6
CONTINUOUS
 62
     7
100
AcDbLine
 10
1492.30151519015
 20
2209.350000000165
 30
0.0
 11
1493.301515190153
 21
2209.600000000164
 31
0.0
  0
LINE
  5
2F4
330
1F
100
AcDbEntity
  8
LAY-10
  6
CONTINUOUS
 62
     7
100
AcDbLine
 10
1493.301515190153
 20
2203.600000000166
 30
0.0
 11
1492.301515190151
 21
2203.850000000165
 31
0.0
  0
LINE
  5
2F5
330
1F
100
AcDbEntity
  8
LAY-10
  6
CONTINUOUS
 62
     7
100
AcDbLine
 10
1540.30151519015
 20
2236.600000000171
 30
0.0
 11
1540.301515190154
 21
2231.60000000017
 31
0.0
  0
LINE
  5
2F6
330
1F
100
AcDbEntity
  8
LAY-10
  6
CONTINUOUS
 62
     7
100
AcDbLine
 10
1540.301515190154
 20
2225.600000000172
 30
0.0
 11
1540.301515190154
 21
2220.600000000172
 31
0.0
  0
LINE
  5
2F7
330
1F
100
AcDbEntity
  8
LAY-10
  6
CONTINUOUS
 62
     7
100
AcDbLine
 10
1540.301515190157
 20
2214.600000000172
 30
0.0
 11
1540.301515190157
 21
2209.600000000172
 31
0.0
  0
LINE
  5
2F8
330
1F
100
AcDbEntity
  8
LAY-10
  6
CONTINUOUS
 62
     7
100
AcDbLine
 10
1541.301515190155
 20
2242.350000000172
 30
0.0
 11
1541.301515190155
 21
2236.850000000172
 31
0.0
  0
LINE
  5
2F9
330
1F
100
AcDbEntity
  8
LAY-10
  6
CONTINUOUS
 62
     7
100
AcDbLine
 10
1541.301515190155
 20
2242.350000000172
 30
0.0
 11
1540.301515190154
 21
2242.600000000172
 31
0.0
  0
LINE
  5
2FA
330
1F
100
AcDbEntity
  8
LAY-10
  6
CONTINUOUS
 62
     7
100
AcDbLine
 10
1540.301515190154
 20
2236.600000000171
 30
0.0
 11
1541.301515190155
 21
2236.850000000172
 31
0.0
  0
LINE
  5
2FB
330
1F
100
AcDbEntity
  8
LAY-10
  6
CONTINUOUS
 62
     7
100
AcDbLine
 10
1541.301515190157
 20
2231.350000000174
 30
0.0
 11
1541.301515190157
 21
2225.850000000172
 31
0.0
  0
LINE
  5
2FC
330
1F
100
AcDbEntity
  8
LAY-10
  6
CONTINUOUS
 62
     7
100
AcDbLine
 10
1541.301515190157
 20
2231.350000000174
 30
0.0
 11
1540.301515190157
 21
2231.600000000171
 31
0.0
  0
LINE
  5
2FD
330
1F
100
AcDbEntity
  8
LAY-10
  6
CONTINUOUS
 62
     7
100
AcDbLine
 10
1540.301515190157
 20
2225.600000000172
 30
0.0
 11
1541.301515190157
 21
2225.850000000172
 31
0.0
  0
LINE
  5
2FE
330
1F
100
AcDbEntity
  8
LAY-10
  6
CONTINUOUS
 62
     7
100
AcDbLine
 10
1541.301515190157
 20
2220.350000000171
 30
0.0
 11
1541.301515190157
 21
2214.850000000172
 31
0.0
  0
LINE
  5
2FF
330
1F
100
AcDbEntity
  8
LAY-10
  6
CONTINUOUS
 62
     7
100
AcDbLine
 10
1541.301515190157
 20
2220.350000000171
 30
0.0
 11
1540.301515190157
 21
2220.600000000172
 31
0.0
  0
LINE
  5
300
330
1F
100
AcDbEntity
  8
LAY-10
  6
CONTINUOUS
 62
     7
100
AcDbLine
 10
1540.301515190159
 20
2214.600000000172
 30
0.0
 11
1541.301515190157
 21
2214.850000000172
 31
0.0
  0
LINE
  5
301
330
1F
100
AcDbEntity
  8
LAY-10
  6
CONTINUOUS
 62
     7
100
AcDbLine
 10
1540.301515190157
 20
2203.600000000174
 30
0.0
 11
1540.301515190157
 21
2199.600000000172
 31
0.0
  0
LINE
  5
302
330
1F
100
AcDbEntity
  8
LAY-10
  6
CONTINUOUS
 62
     7
100
AcDbLine
 10
1541.301515190161
 20
2209.350000000172
 30
0.0
 11
1541.301515190161
 21
2203.850000000172
 31
0.0
  0
LINE
  5
303
330
1F
100
AcDbEntity
  8
LAY-10
  6
CONTINUOUS
 62
     7
100
AcDbLine
 10
1541.301515190161
 20
2209.350000000172
 30
0.0
 11
1540.301515190159
 21
2209.600000000172
 31
0.0
  0
LINE
  5
304
330
1F
100
AcDbEntity
  8
LAY-10
  6
CONTINUOUS
 62
     7
100
AcDbLine
 10
1540.301515190159
 20
2203.600000000172
 30
0.0
 11
1541.301515190161
 21
2203.850000000172
 31
0.0
  0
LINE
  5
305
330
1F
100
AcDbEntity
  8
LAY-10
  6
CONTINUOUS
 62
     7
100
AcDbLine
 10
1493.301515190157
 20
2242.600000000165
 30
0.0
 11
1540.301515190154
 21
2242.600000000172
 31
0.0
  0
LINE
  5
306
330
1F
100
AcDbEntity
  8
LAY-10
  6
CONTINUOUS
 62
     7
100
AcDbLine
 10
1493.30151519015
 20
2236.600000000164
 30
0.0
 11
1540.301515190154
 21
2236.60000000017
 31
0.0
  0
LINE
  5
307
330
1F
100
AcDbEntity
  8
LAY-10
  6
CONTINUOUS
 62
     7
100
AcDbLine
 10
1493.301515190157
 20
2231.600000000165
 30
0.0
 11
1540.301515190157
 21
2231.60000000017
 31
0.0
  0
LINE
  5
308
330
1F
100
AcDbEntity
  8
LAY-10
  6
CONTINUOUS
 62
     7
100
AcDbLine
 10
1493.301515190161
 20
2203.600000000167
 30
0.0
 11
1540.301515190159
 21
2203.600000000174
 31
0.0
  0
LINE
  5
309
330
1F
100
AcDbEntity
  8
LAY-10
  6
CONTINUOUS
 62
     7
100
AcDbLine
 10
1493.301515190157
 20
2209.600000000166
 30
0.0
 11
1540.301515190159
 21
2209.600000000172
 31
0.0
  0
LINE
  5
30A
330
1F
100
AcDbEntity
  8
LAY-10
  6
CONTINUOUS
 62
     7
100
AcDbLine
 10
1493.301515190159
 20
2214.600000000166
 30
0.0
 11
1540.301515190159
 21
2214.600000000172
 31
0.0
  0
LINE
  5
30B
330
1F
100
AcDbEntity
  8
LAY-10
  6
CONTINUOUS
 62
     7
100
AcDbLine
 10
1540.301515190154
 20
2225.600000000172
 30
0.0
 11
1493.301515190153
 21
2225.600000000165
 31
0.0
  0
LINE
  5
30C
330
1F
100
AcDbEntity
  8
LAY-10
  6
CONTINUOUS
 62
     7
100
AcDbLine
 10
1540.301515190154
 20
2220.600000000172
 30
0.0
 11
1493.301515190153
 21
2220.600000000165
 31
0.0
  0
LINE
  5
30D
330
1F
100
AcDbEntity
  8
LAY-10
  6
CONTINUOUS
 62
     7
100
AcDbLine
 10
1540.301515190157
 20
2199.600000000172
 30
0.0
 11
1493.301515190157
 21
2199.600000000166
 31
0.0
  0
LINE
  5
30E
330
1F
100
AcDbEntity
  8
LAY-10
  6
CONTINUOUS
 62
     7
100
AcDbLine
 10
1540.30151519015
 20
2246.600000000173
 30
0.0
 11
1540.30151519015
 21
2242.600000000172
 31
0.0
  0
LINE
  5
30F
330
1F
100
AcDbEntity
  8
LAY-10
  6
CONTINUOUS
 62
     7
100
AcDbLine
 10
1541.801515190153
 20
2248.100000000167
 30
0.0
 11
1541.801515190161
 21
2198.100000000174
 31
0.0
  0
LINE
  5
310
330
1F
100
AcDbEntity
  8
LAY-10
  6
CONTINUOUS
 62
     7
100
AcDbLine
 10
1491.801515190153
 20
2248.10000000016
 30
0.0
 11
1541.801515190153
 21
2248.100000000167
 31
0.0
  0
LINE
  5
311
330
1F
100
AcDbEntity
  8
LAY-10
  6
CONTINUOUS
 62
     7
100
AcDbLine
 10
1491.801515190153
 20
2248.10000000016
 30
0.0
 11
1491.801515190157
 21
2198.100000000166
 31
0.0
  0
LINE
  5
312
330
1F
100
AcDbEntity
  8
LAY-10
  6
CONTINUOUS
 62
     7
100
AcDbLine
 10
1575.301515190119
 20
2258.100000000196
 30
0.0
 11
1079.30151519011
 21
2258.100000000196
 31
0.0
  0
LINE
  5
313
330
1F
100
AcDbEntity
  8
LAY-10
  6
CONTINUOUS
 62
     7
100
AcDbLine
 10
1491.801515190133
 20
1124.100000000038
 30
0.0
 11
1491.80151519014
 21
1174.100000000032
 31
0.0
  0
LINE
  5
314
330
1F
100
AcDbEntity
  8
LAY-10
  6
CONTINUOUS
 62
     7
100
AcDbLine
 10
1491.801515190133
 20
1124.100000000038
 30
0.0
 11
1541.801515190133
 21
1124.100000000031
 31
0.0
  0
LINE
  5
315
330
1F
100
AcDbEntity
  8
LAY-10
  6
CONTINUOUS
 62
     7
100
AcDbLine
 10
1541.801515190133
 20
1124.100000000031
 30
0.0
 11
1541.801515190141
 21
1174.100000000024
 31
0.0
  0
LINE
  5
316
330
1F
100
AcDbEntity
  8
LAY-10
  6
CONTINUOUS
 62
     7
100
AcDbLine
 10
1540.30151519013
 20
1125.600000000025
 30
0.0
 11
1540.30151519013
 21
1129.600000000027
 31
0.0
  0
LINE
  5
317
330
1F
100
AcDbEntity
  8
LAY-10
  6
CONTINUOUS
 62
     7
100
AcDbLine
 10
1540.301515190137
 20
1172.600000000026
 30
0.0
 11
1493.301515190137
 21
1172.600000000032
 31
0.0
  0
LINE
  5
318
330
1F
100
AcDbEntity
  8
LAY-10
  6
CONTINUOUS
 62
     7
100
AcDbLine
 10
1540.301515190133
 20
1151.600000000026
 30
0.0
 11
1493.301515190133
 21
1151.600000000033
 31
0.0
  0
LINE
  5
319
330
1F
100
AcDbEntity
  8
LAY-10
  6
CONTINUOUS
 62
     7
100
AcDbLine
 10
1540.301515190133
 20
1146.600000000026
 30
0.0
 11
1493.301515190133
 21
1146.600000000034
 31
0.0
  0
LINE
  5
31A
330
1F
100
AcDbEntity
  8
LAY-10
  6
CONTINUOUS
 62
     7
100
AcDbLine
 10
1493.301515190139
 20
1157.600000000032
 30
0.0
 11
1540.301515190141
 21
1157.600000000026
 31
0.0
  0
LINE
  5
31B
330
1F
100
AcDbEntity
  8
LAY-10
  6
CONTINUOUS
 62
     7
100
AcDbLine
 10
1493.301515190137
 20
1162.600000000032
 30
0.0
 11
1540.301515190141
 21
1162.600000000026
 31
0.0
  0
LINE
  5
31C
330
1F
100
AcDbEntity
  8
LAY-10
  6
CONTINUOUS
 62
     7
100
AcDbLine
 10
1493.301515190142
 20
1168.600000000031
 30
0.0
 11
1540.301515190141
 21
1168.600000000024
 31
0.0
  0
LINE
  5
31D
330
1F
100
AcDbEntity
  8
LAY-10
  6
CONTINUOUS
 62
     7
100
AcDbLine
 10
1493.301515190137
 20
1140.600000000034
 30
0.0
 11
1540.301515190137
 21
1140.600000000028
 31
0.0
  0
LINE
  5
31E
330
1F
100
AcDbEntity
  8
LAY-10
  6
CONTINUOUS
 62
     7
100
AcDbLine
 10
1493.30151519013
 20
1135.600000000034
 30
0.0
 11
1540.301515190133
 21
1135.600000000028
 31
0.0
  0
LINE
  5
31F
330
1F
100
AcDbEntity
  8
LAY-10
  6
CONTINUOUS
 62
     7
100
AcDbLine
 10
1493.301515190137
 20
1129.600000000034
 30
0.0
 11
1540.301515190133
 21
1129.600000000027
 31
0.0
  0
LINE
  5
320
330
1F
100
AcDbEntity
  8
LAY-10
  6
CONTINUOUS
 62
     7
100
AcDbLine
 10
1540.301515190141
 20
1168.600000000026
 30
0.0
 11
1541.301515190141
 21
1168.350000000026
 31
0.0
  0
LINE
  5
321
330
1F
100
AcDbEntity
  8
LAY-10
  6
CONTINUOUS
 62
     7
100
AcDbLine
 10
1541.301515190141
 20
1162.850000000026
 30
0.0
 11
1540.301515190141
 21
1162.600000000026
 31
0.0
  0
LINE
  5
322
330
1F
100
AcDbEntity
  8
LAY-10
  6
CONTINUOUS
 62
     7
100
AcDbLine
 10
1541.301515190141
 20
1162.850000000026
 30
0.0
 11
1541.301515190141
 21
1168.350000000026
 31
0.0
  0
LINE
  5
323
330
1F
100
AcDbEntity
  8
LAY-10
  6
CONTINUOUS
 62
     7
100
AcDbLine
 10
1540.301515190137
 20
1168.600000000024
 30
0.0
 11
1540.301515190137
 21
1172.600000000026
 31
0.0
  0
LINE
  5
324
330
1F
100
AcDbEntity
  8
LAY-10
  6
CONTINUOUS
 62
     7
100
AcDbLine
 10
1540.301515190141
 20
1157.600000000026
 30
0.0
 11
1541.301515190137
 21
1157.350000000026
 31
0.0
  0
LINE
  5
325
330
1F
100
AcDbEntity
  8
LAY-10
  6
CONTINUOUS
 62
     7
100
AcDbLine
 10
1541.301515190137
 20
1151.850000000027
 30
0.0
 11
1540.301515190137
 21
1151.600000000026
 31
0.0
  0
LINE
  5
326
330
1F
100
AcDbEntity
  8
LAY-10
  6
CONTINUOUS
 62
     7
100
AcDbLine
 10
1541.301515190137
 20
1151.850000000027
 30
0.0
 11
1541.301515190137
 21
1157.350000000026
 31
0.0
  0
LINE
  5
327
330
1F
100
AcDbEntity
  8
LAY-10
  6
CONTINUOUS
 62
     7
100
AcDbLine
 10
1540.301515190137
 20
1146.600000000026
 30
0.0
 11
1541.301515190137
 21
1146.350000000026
 31
0.0
  0
LINE
  5
328
330
1F
100
AcDbEntity
  8
LAY-10
  6
CONTINUOUS
 62
     7
100
AcDbLine
 10
1541.301515190137
 20
1140.850000000024
 30
0.0
 11
1540.301515190137
 21
1140.600000000027
 31
0.0
  0
LINE
  5
329
330
1F
100
AcDbEntity
  8
LAY-10
  6
CONTINUOUS
 62
     7
100
AcDbLine
 10
1541.301515190137
 20
1140.850000000024
 30
0.0
 11
1541.301515190137
 21
1146.350000000026
 31
0.0
  0
LINE
  5
32A
330
1F
100
AcDbEntity
  8
LAY-10
  6
CONTINUOUS
 62
     7
100
AcDbLine
 10
1540.301515190133
 20
1135.600000000027
 30
0.0
 11
1541.301515190135
 21
1135.350000000026
 31
0.0
  0
LINE
  5
32B
330
1F
100
AcDbEntity
  8
LAY-10
  6
CONTINUOUS
 62
     7
100
AcDbLine
 10
1541.301515190135
 20
1129.850000000026
 30
0.0
 11
1540.301515190133
 21
1129.600000000027
 31
0.0
  0
LINE
  5
32C
330
1F
100
AcDbEntity
  8
LAY-10
  6
CONTINUOUS
 62
     7
100
AcDbLine
 10
1541.301515190135
 20
1129.850000000026
 30
0.0
 11
1541.301515190135
 21
1135.350000000026
 31
0.0
  0
LINE
  5
32D
330
1F
100
AcDbEntity
  8
LAY-10
  6
CONTINUOUS
 62
     7
100
AcDbLine
 10
1540.301515190137
 20
1157.600000000026
 30
0.0
 11
1540.301515190137
 21
1162.600000000026
 31
0.0
  0
LINE
  5
32E
330
1F
100
AcDbEntity
  8
LAY-10
  6
CONTINUOUS
 62
     7
100
AcDbLine
 10
1540.301515190133
 20
1146.600000000026
 30
0.0
 11
1540.301515190133
 21
1151.600000000026
 31
0.0
  0
LINE
  5
32F
330
1F
100
AcDbEntity
  8
LAY-10
  6
CONTINUOUS
 62
     7
100
AcDbLine
 10
1540.30151519013
 20
1135.600000000027
 30
0.0
 11
1540.301515190133
 21
1140.600000000028
 31
0.0
  0
LINE
  5
330
330
1F
100
AcDbEntity
  8
LAY-10
  6
CONTINUOUS
 62
     7
100
AcDbLine
 10
1493.301515190133
 20
1168.600000000033
 30
0.0
 11
1492.301515190135
 21
1168.350000000034
 31
0.0
  0
LINE
  5
331
330
1F
100
AcDbEntity
  8
LAY-10
  6
CONTINUOUS
 62
     7
100
AcDbLine
 10
1492.301515190133
 20
1162.850000000034
 30
0.0
 11
1493.301515190133
 21
1162.600000000034
 31
0.0
  0
LINE
  5
332
330
1F
100
AcDbEntity
  8
LAY-10
  6
CONTINUOUS
 62
     7
100
AcDbLine
 10
1492.301515190133
 20
1162.850000000034
 30
0.0
 11
1492.301515190135
 21
1168.350000000034
 31
0.0
  0
LINE
  5
333
330
1F
100
AcDbEntity
  8
LAY-10
  6
CONTINUOUS
 62
     7
100
AcDbLine
 10
1493.30151519013
 20
1157.600000000032
 30
0.0
 11
1492.301515190135
 21
1157.350000000033
 31
0.0
  0
LINE
  5
334
330
1F
100
AcDbEntity
  8
LAY-10
  6
CONTINUOUS
 62
     7
100
AcDbLine
 10
1492.301515190133
 20
1151.850000000031
 30
0.0
 11
1493.30151519013
 21
1151.600000000033
 31
0.0
  0
LINE
  5
335
330
1F
100
AcDbEntity
  8
LAY-10
  6
CONTINUOUS
 62
     7
100
AcDbLine
 10
1492.301515190133
 20
1151.850000000031
 30
0.0
 11
1492.301515190135
 21
1157.350000000033
 31
0.0
  0
LINE
  5
336
330
1F
100
AcDbEntity
  8
LAY-10
  6
CONTINUOUS
 62
     7
100
AcDbLine
 10
1493.30151519013
 20
1146.600000000034
 30
0.0
 11
1492.301515190133
 21
1146.350000000032
 31
0.0
  0
LINE
  5
337
330
1F
100
AcDbEntity
  8
LAY-10
  6
CONTINUOUS
 62
     7
100
AcDbLine
 10
1492.301515190132
 20
1140.85000000003
 30
0.0
 11
1493.30151519013
 21
1140.600000000031
 31
0.0
  0
LINE
  5
338
330
1F
100
AcDbEntity
  8
LAY-10
  6
CONTINUOUS
 62
     7
100
AcDbLine
 10
1492.301515190132
 20
1140.85000000003
 30
0.0
 11
1492.301515190133
 21
1146.350000000032
 31
0.0
  0
LINE
  5
339
330
1F
100
AcDbEntity
  8
LAY-10
  6
CONTINUOUS
 62
     7
100
AcDbLine
 10
1493.301515190126
 20
1135.600000000034
 30
0.0
 11
1492.30151519013
 21
1135.350000000034
 31
0.0
  0
LINE
  5
33A
330
1F
100
AcDbEntity
  8
LAY-10
  6
CONTINUOUS
 62
     7
100
AcDbLine
 10
1492.30151519013
 20
1129.850000000034
 30
0.0
 11
1493.301515190126
 21
1129.600000000033
 31
0.0
  0
LINE
  5
33B
330
1F
100
AcDbEntity
  8
LAY-10
  6
CONTINUOUS
 62
     7
100
AcDbLine
 10
1492.30151519013
 20
1129.850000000034
 30
0.0
 11
1492.30151519013
 21
1135.350000000034
 31
0.0
  0
LINE
  5
33C
330
1F
100
AcDbEntity
  8
LAY-10
  6
CONTINUOUS
 62
     7
100
AcDbLine
 10
1493.301515190137
 20
1172.600000000032
 30
0.0
 11
1493.301515190137
 21
1168.600000000031
 31
0.0
  0
LINE
  5
33D
330
1F
100
AcDbEntity
  8
LAY-10
  6
CONTINUOUS
 62
     7
100
AcDbLine
 10
1493.301515190137
 20
1162.600000000032
 30
0.0
 11
1493.301515190137
 21
1157.600000000032
 31
0.0
  0
LINE
  5
33E
330
1F
100
AcDbEntity
  8
LAY-10
  6
CONTINUOUS
 62
     7
100
AcDbLine
 10
1493.301515190133
 20
1151.600000000033
 30
0.0
 11
1493.301515190133
 21
1146.600000000034
 31
0.0
  0
LINE
  5
33F
330
1F
100
AcDbEntity
  8
LAY-10
  6
CONTINUOUS
 62
     7
100
AcDbLine
 10
1493.301515190133
 20
1140.600000000034
 30
0.0
 11
1493.30151519013
 21
1135.600000000034
 31
0.0
  0
LINE
  5
340
330
1F
100
AcDbEntity
  8
LAY-10
  6
CONTINUOUS
 62
     7
100
AcDbLine
 10
1493.30151519013
 20
1129.600000000034
 30
0.0
 11
1493.30151519013
 21
1125.600000000032
 31
0.0
  0
LINE
  5
341
330
1F
100
AcDbEntity
  8
LAY-10
  6
CONTINUOUS
 62
     7
100
AcDbLine
 10
1520.801515190133
 20
1127.100000000029
 30
0.0
 11
1512.801515190135
 21
1127.100000000029
 31
0.0
  0
LINE
  5
342
330
1F
100
AcDbEntity
  8
LAY-10
  6
CONTINUOUS
 62
     7
100
AcDbLine
 10
1520.80151519013
 20
1124.100000000031
 30
0.0
 11
1520.80151519013
 21
1127.100000000029
 31
0.0
  0
LINE
  5
343
330
1F
100
AcDbEntity
  8
LAY-10
  6
CONTINUOUS
 62
     7
100
AcDbLine
 10
1512.801515190132
 20
1124.100000000031
 30
0.0
 11
1512.801515190132
 21
1127.100000000029
 31
0.0
  0
LINE
  5
344
330
1F
100
AcDbEntity
  8
LAY-10
  6
CONTINUOUS
 62
     7
100
AcDbLine
 10
1493.30151519013
 20
1125.600000000032
 30
0.0
 11
1512.801515190132
 21
1125.600000000029
 31
0.0
  0
LINE
  5
345
330
1F
100
AcDbEntity
  8
LAY-10
  6
CONTINUOUS
 62
     7
100
AcDbLine
 10
1520.80151519013
 20
1125.600000000029
 30
0.0
 11
1540.30151519013
 21
1125.600000000025
 31
0.0
  0
LINE
  5
346
330
1F
100
AcDbEntity
  8
LAY-10
  6
CONTINUOUS
 62
     7
100
AcDbLine
 10
1491.80151519014
 20
1174.100000000032
 30
0.0
 11
1541.801515190141
 21
1174.100000000024
 31
0.0
  0
CIRCLE
  5
347
330
1F
100
AcDbEntity
  8
LAY-10
  6
CONTINUOUS
 62
     7
100
AcDbCircle
 10
1461.801515190184
 20
1149.099999999995
 30
0.0
 40
13.00000000000001
  0
CIRCLE
  5
348
330
1F
100
AcDbEntity
  8
LAY-10
  6
CONTINUOUS
 62
     7
100
AcDbCircle
 10
1461.801515190203
 20
1149.100000000008
 30
0.0
 40
12.75000000000001
  0
LINE
  5
349
330
1F
100
AcDbEntity
  8
LAY-10
  6
CONTINUOUS
 62
     7
100
AcDbLine
 10
1461.801515190219
 20
1153.099999999993
 30
0.0
 11
1468.301515190217
 21
1149.099999999994
 31
0.0
  0
LINE
  5
34A
330
1F
100
AcDbEntity
  8
LAY-10
  6
CONTINUOUS
 62
     7
100
AcDbLine
 10
1455.301515190215
 20
1149.099999999994
 30
0.0
 11
1461.801515190219
 21
1153.099999999993
 31
0.0
  0
LINE
  5
34B
330
1F
100
AcDbEntity
  8
LAY-10
  6
CONTINUOUS
 62
     7
100
AcDbLine
 10
1461.801515190219
 20
1145.099999999993
 30
0.0
 11
1455.301515190215
 21
1149.099999999994
 31
0.0
  0
LINE
  5
34C
330
1F
100
AcDbEntity
  8
LAY-10
  6
CONTINUOUS
 62
     7
100
AcDbLine
 10
1468.301515190217
 20
1149.099999999994
 30
0.0
 11
1461.801515190219
 21
1145.099999999993
 31
0.0
  0
LINE
  5
34D
330
1F
100
AcDbEntity
  8
LAY-10
  6
CONTINUOUS
 62
     7
100
AcDbLine
 10
1457.801515190213
 20
1138.599999999992
 30
0.0
 11
1465.801515190215
 21
1138.599999999992
 31
0.0
  0
LINE
  5
34E
330
1F
100
AcDbEntity
  8
LAY-10
  6
CONTINUOUS
 62
     7
100
AcDbLine
 10
1457.801515190213
 20
1138.599999999992
 30
0.0
 11
1457.801515190213
 21
1136.993699987191
 31
0.0
  0
LINE
  5
34F
330
1F
100
AcDbEntity
  8
LAY-10
  6
CONTINUOUS
 62
     7
100
AcDbLine
 10
1465.801515190215
 20
1138.599999999992
 30
0.0
 11
1465.801515190215
 21
1136.993699987191
 31
0.0
  0
LINE
  5
350
330
1F
100
AcDbEntity
  8
LAY-10
  6
CONTINUOUS
 62
     7
100
AcDbLine
 10
1618.699999999988
 20
1931.600000000166
 30
0.0
 11
1618.699999999988
 21
1940.600000000167
 31
0.0
  0
LINE
  5
351
330
1F
100
AcDbEntity
  8
LAY-10
  6
CONTINUOUS
 62
     7
100
AcDbLine
 10
1583.301515190205
 20
1931.600000000167
 30
0.0
 11
1618.699999999988
 21
1931.600000000167
 31
0.0
  0
LINE
  5
352
330
1F
100
AcDbEntity
  8
LAY-10
  6
CONTINUOUS
 62
     7
100
AcDbLine
 10
1583.301515190205
 20
1940.600000000165
 30
0.0
 11
1618.699999999988
 21
1940.600000000165
 31
0.0
  0
LINE
  5
353
330
1F
100
AcDbEntity
  8
LAY-10
  6
CONTINUOUS
 62
     7
100
AcDbLine
 10
1618.699999999985
 20
1440.60000000008
 30
0.0
 11
1618.699999999985
 21
1431.600000000077
 31
0.0
  0
LINE
  5
354
330
1F
100
AcDbEntity
  8
LAY-10
  6
CONTINUOUS
 62
     7
100
AcDbLine
 10
1583.301515190203
 20
1440.600000000078
 30
0.0
 11
1618.699999999985
 21
1440.600000000078
 31
0.0
  0
LINE
  5
355
330
1F
100
AcDbEntity
  8
LAY-10
  6
CONTINUOUS
 62
     7
100
AcDbLine
 10
1583.301515190203
 20
1431.600000000079
 30
0.0
 11
1618.699999999985
 21
1431.600000000079
 31
0.0
  0
LINE
  5
356
330
1F
100
AcDbEntity
  8
LAY-10
  6
CONTINUOUS
 62
     7
100
AcDbLine
 10
642.8015151875959
 20
2251.455339058999
 30
0.0
 11
649.4461761289083
 21
2258.1000000002
 31
0.0
  0
LINE
  5
357
330
1F
100
AcDbEntity
  8
LAY-10
  6
CONTINUOUS
 62
     7
100
AcDbLine
 10
589.7685066017973
 20
2216.099999999198
 30
0.0
 11
607.4461761310984
 21
2198.422330469898
 31
0.0
  0
LINE
  5
358
330
1F
100
AcDbEntity
  8
LAY-10
  6
CONTINUOUS
 62
     7
100
AcDbLine
 10
607.4461761304981
 20
2233.777669529297
 30
0.0
 11
589.768506601197
 21
2251.455339058597
 31
0.0
  0
LINE
  5
359
330
1F
100
AcDbEntity
  8
LAY-10
  6
CONTINUOUS
 62
     7
100
AcDbLine
 10
678.1568542490974
 20
2145.389321882199
 30
0.0
 11
695.8345237787987
 21
2163.066991412199
 31
0.0
  0
LINE
  5
35A
330
1F
100
AcDbEntity
  8
LAY-10
  6
CONTINUOUS
 62
     7
100
AcDbLine
 10
695.8345237787987
 20
2198.422330471199
 30
0.0
 11
678.1568542490974
 21
2180.7446609412
 31
0.0
  0
LINE
  5
35B
330
1F
100
AcDbEntity
  8
LAY-10
  6
CONTINUOUS
 62
     7
100
AcDbLine
 10
784.2228714272977
 20
2233.7776695302
 30
0.0
 11
766.5452018975982
 21
2251.455339060199
 31
0.0
  0
LINE
  5
35C
330
1F
100
AcDbEntity
  8
LAY-10
  6
CONTINUOUS
 62
     7
100
AcDbLine
 10
790.8675323686318
 20
2258.1000000002
 30
0.0
 11
784.222871428369
 21
2251.455339060199
 31
0.0
  0
LINE
  5
35D
330
1F
100
AcDbEntity
  8
LAY-10
  6
CONTINUOUS
 62
     7
100
AcDbLine
 10
755.512193308962
 20
2258.1000000002
 30
0.0
 11
748.8675323686991
 21
2251.455339060199
 31
0.0
  0
LINE
  5
35E
330
1F
100
AcDbEntity
  8
LAY-10
  6
CONTINUOUS
 62
     7
100
AcDbLine
 10
720.1568542492848
 20
2258.1000000002
 30
0.0
 11
713.5121933083981
 21
2251.455339059199
 31
0.0
  0
LINE
  5
35F
330
1F
100
AcDbEntity
  8
LAY-10
  6
CONTINUOUS
 62
     7
100
AcDbLine
 10
581.3015151897987
 20
2048.533982824254
 30
0.0
 11
589.7685066005986
 21
2057.000974235198
 31
0.0
  0
LINE
  5
360
330
1F
100
AcDbEntity
  8
LAY-10
  6
CONTINUOUS
 62
     7
100
AcDbLine
 10
589.7685066005986
 20
2074.678643764198
 30
0.0
 11
607.446176130298
 21
2057.000974235198
 31
0.0
  0
LINE
  5
361
330
1F
100
AcDbEntity
  8
LAY-10
  6
CONTINUOUS
 62
     7
100
AcDbLine
 10
607.446176130298
 20
2074.678643764198
 30
0.0
 11
625.1238456599992
 21
2092.356313294199
 31
0.0
  0
LINE
  5
362
330
1F
100
AcDbEntity
  8
LAY-10
  6
CONTINUOUS
 62
     7
100
AcDbLine
 10
625.1238456600993
 20
2145.389321882199
 30
0.0
 11
642.8015151896986
 21
2127.711652353199
 31
0.0
  0
LINE
  5
363
330
1F
100
AcDbEntity
  8
LAY-10
  6
CONTINUOUS
 62
     7
100
AcDbLine
 10
660.4791847193981
 20
2163.066991412199
 30
0.0
 11
642.8015151896986
 21
2145.389321882199
 31
0.0
  0
LINE
  5
364
330
1F
100
AcDbEntity
  8
LAY-10
  6
CONTINUOUS
 62
     7
100
AcDbLine
 10
625.1238456600993
 20
2163.066991412199
 30
0.0
 11
607.446176130398
 21
2145.389321882199
 31
0.0
  0
LINE
  5
365
330
1F
100
AcDbEntity
  8
LAY-10
  6
CONTINUOUS
 62
     7
100
AcDbLine
 10
660.4791847193981
 20
2145.389321882199
 30
0.0
 11
678.1568542490974
 21
2127.711652353199
 31
0.0
  0
LINE
  5
366
330
1F
100
AcDbEntity
  8
LAY-10
  6
CONTINUOUS
 62
     7
100
AcDbLine
 10
642.8015151896986
 20
2110.033982823199
 30
0.0
 11
660.4791847193981
 21
2127.711652353199
 31
0.0
  0
LINE
  5
367
330
1F
100
AcDbEntity
  8
LAY-10
  6
CONTINUOUS
 62
     7
100
AcDbLine
 10
625.1238456599992
 20
2110.033982823199
 30
0.0
 11
642.8015151896986
 21
2092.356313294199
 31
0.0
  0
LINE
  5
368
330
1F
100
AcDbEntity
  8
LAY-10
  6
CONTINUOUS
 62
     7
100
AcDbLine
 10
607.446176130298
 20
2127.711652353198
 30
0.0
 11
589.7685066006986
 21
2145.389321882199
 31
0.0
  0
LINE
  5
369
330
1F
100
AcDbEntity
  8
LAY-10
  6
CONTINUOUS
 62
     7
100
AcDbLine
 10
589.7685066006986
 20
2163.066991412199
 30
0.0
 11
581.3015151897987
 21
2154.600000001155
 31
0.0
  0
LINE
  5
36A
330
1F
100
AcDbEntity
  8
LAY-10
  6
CONTINUOUS
 62
     7
100
AcDbLine
 10
589.7685066006986
 20
2127.711652353198
 30
0.0
 11
581.3015151897987
 21
2119.244660942154
 31
0.0
  0
LINE
  5
36B
330
1F
100
AcDbEntity
  8
LAY-10
  6
CONTINUOUS
 62
     7
100
AcDbLine
 10
589.7685066006986
 20
2110.033982823199
 30
0.0
 11
607.446176130298
 21
2092.356313294199
 31
0.0
  0
LINE
  5
36C
330
1F
100
AcDbEntity
  8
LAY-10
  6
CONTINUOUS
 62
     7
100
AcDbLine
 10
625.1238456599992
 20
2127.711652353198
 30
0.0
 11
607.446176130298
 21
2110.033982823199
 31
0.0
  0
LINE
  5
36D
330
1F
100
AcDbEntity
  8
LAY-10
  6
CONTINUOUS
 62
     7
100
AcDbLine
 10
589.7685066005986
 20
2092.356313294198
 30
0.0
 11
581.3015151897987
 21
2083.889321883254
 31
0.0
  0
LINE
  5
36E
330
1F
100
AcDbEntity
  8
LAY-10
  6
CONTINUOUS
 62
     7
100
AcDbLine
 10
713.5121933084981
 20
2233.7776695302
 30
0.0
 11
695.8345237787987
 21
2251.455339060199
 31
0.0
  0
LINE
  5
36F
330
1F
100
AcDbEntity
  8
LAY-10
  6
CONTINUOUS
 62
     7
100
AcDbLine
 10
660.4791847194981
 20
2180.7446609412
 30
0.0
 11
678.1568542490974
 21
2163.066991412199
 31
0.0
  0
LINE
  5
370
330
1F
100
AcDbEntity
  8
LAY-10
  6
CONTINUOUS
 62
     7
100
AcDbLine
 10
695.8345237787987
 20
2180.7446609412
 30
0.0
 11
713.5121933084981
 21
2163.066991412199
 31
0.0
  0
LINE
  5
371
330
1F
100
AcDbEntity
  8
LAY-10
  6
CONTINUOUS
 62
     7
100
AcDbLine
 10
713.5121933084981
 20
2216.1000000002
 30
0.0
 11
731.1898628380974
 21
2233.7776695302
 31
0.0
  0
LINE
  5
372
330
1F
100
AcDbEntity
  8
LAY-10
  6
CONTINUOUS
 62
     7
100
AcDbLine
 10
713.5121933084981
 20
2180.7446609412
 30
0.0
 11
731.1898628380974
 21
2198.422330471199
 31
0.0
  0
LINE
  5
373
330
1F
100
AcDbEntity
  8
LAY-10
  6
CONTINUOUS
 62
     7
100
AcDbLine
 10
731.1898628380974
 20
2216.1000000002
 30
0.0
 11
748.8675323677987
 21
2198.422330471199
 31
0.0
  0
LINE
  5
374
330
1F
100
AcDbEntity
  8
LAY-10
  6
CONTINUOUS
 62
     7
100
AcDbLine
 10
642.8015151896986
 20
2163.066991412199
 30
0.0
 11
625.1238456600993
 21
2180.7446609412
 31
0.0
  0
LINE
  5
375
330
1F
100
AcDbEntity
  8
LAY-10
  6
CONTINUOUS
 62
     7
100
AcDbLine
 10
607.446176130398
 20
2163.066991412199
 30
0.0
 11
589.7685066006986
 21
2180.7446609412
 31
0.0
  0
LINE
  5
376
330
1F
100
AcDbEntity
  8
LAY-10
  6
CONTINUOUS
 62
     7
100
AcDbLine
 10
589.7685066007987
 20
2198.422330472198
 30
0.0
 11
581.3015151897987
 21
2189.955339061054
 31
0.0
  0
LINE
  5
377
330
1F
100
AcDbEntity
  8
LAY-10
  6
CONTINUOUS
 62
     7
100
AcDbLine
 10
684.8015151905026
 20
2258.1000000002
 30
0.0
 11
678.1568542482953
 21
2251.455339058404
 31
0.0
  0
LINE
  5
378
330
1F
100
AcDbEntity
  8
LAY-10
  6
CONTINUOUS
 62
     7
100
AcDbLine
 10
589.7685066020993
 20
2233.777669528596
 30
0.0
 11
581.3015151897732
 21
2225.310678116125
 31
0.0
  0
LINE
  5
379
330
1F
100
AcDbEntity
  8
LAY-10
  6
CONTINUOUS
 62
     7
100
AcDbLine
 10
607.446176130298
 20
2251.455339057396
 30
0.0
 11
614.09083707276
 21
2258.100000000197
 31
0.0
  0
LINE
  5
37A
330
1F
100
AcDbEntity
  8
LAY-10
  6
CONTINUOUS
 62
     7
100
AcDbLine
 10
748.3742031659538
 20
2234.270998732152
 30
0.0
 11
731.1898628381994
 21
2251.455339060199
 31
0.0
  0
LINE
  5
37B
330
1F
100
AcDbEntity
  8
LAY-10
  6
CONTINUOUS
 62
     7
100
AcDbLine
 10
748.8675323674986
 20
2216.1000000002
 30
0.0
 11
766.545201897098
 21
2233.7776695302
 31
0.0
  0
LINE
  5
37C
330
1F
100
AcDbEntity
  8
LAY-10
  6
CONTINUOUS
 62
     7
100
AcDbLine
 10
625.1238456605959
 20
2251.455339057998
 30
0.0
 11
628.4791847184267
 21
2248.100000000167
 31
0.0
  0
LINE
  5
37D
330
1F
100
AcDbEntity
  8
LAY-10
  6
CONTINUOUS
 62
     7
100
AcDbLine
 10
614.8015151897623
 20
2223.455339058688
 30
0.0
 11
607.4461761307982
 21
2216.099999999598
 31
0.0
  0
LINE
  5
37E
330
1F
100
AcDbEntity
  8
LAY-10
  6
CONTINUOUS
 62
     7
100
AcDbLine
 10
624.8015151890802
 20
2198.100000000174
 30
0.0
 11
607.446176130398
 21
2180.7446609412
 31
0.0
  0
LINE
  5
37F
330
1F
100
AcDbEntity
  8
LAY-10
  6
CONTINUOUS
 62
     7
100
AcDbLine
 10
678.1568542476004
 20
2198.422330470102
 30
0.0
 11
664.8015151897622
 21
2211.777669528391
 31
0.0
  0
LINE
  5
380
330
1F
100
AcDbEntity
  8
LAY-10
  6
CONTINUOUS
 62
     7
100
AcDbLine
 10
660.1568542484736
 20
2198.100000000169
 30
0.0
 11
642.8015151897987
 21
2180.7446609412
 31
0.0
  0
LINE
  5
381
330
1F
100
AcDbEntity
  8
LAY-10
  6
CONTINUOUS
 62
     7
100
AcDbLine
 10
678.1568542475967
 20
2233.777669529403
 30
0.0
 11
664.801515189766
 21
2247.133008587758
 31
0.0
  0
LINE
  5
382
330
1F
100
AcDbEntity
  8
LAY-10
  6
CONTINUOUS
 62
     7
100
AcDbLine
 10
663.8345237773999
 20
2248.100000000162
 30
0.0
 11
660.479184718594
 21
2251.4553390591
 31
0.0
  0
LINE
  5
383
330
1F
100
AcDbEntity
  8
LAY-10
  6
CONTINUOUS
 62
     7
100
AcDbLine
 10
682.1532580116407
 20
2220.09640376281
 30
0.0
 11
678.7791847194064
 21
2216.722330470518
 31
0.0
  0
LINE
  5
384
330
1F
100
AcDbEntity
  8
LAY-10
  6
CONTINUOUS
 62
     7
100
AcDbLine
 10
700.5127738440922
 20
2211.421749935092
 30
0.0
 11
713.5121933084981
 21
2198.422330471199
 31
0.0
  0
LINE
  5
385
330
1F
100
AcDbEntity
  8
LAY-10
  6
CONTINUOUS
 62
     7
100
AcDbLine
 10
1015.801515192004
 20
1120.7446609412
 30
0.0
 11
1009.156854250691
 21
1114.1
 31
0.0
  0
LINE
  5
386
330
1F
100
AcDbEntity
  8
LAY-10
  6
CONTINUOUS
 62
     7
100
AcDbLine
 10
1068.834523777802
 20
1156.100000001002
 30
0.0
 11
1051.156854248501
 21
1173.777669530301
 31
0.0
  0
LINE
  5
387
330
1F
100
AcDbEntity
  8
LAY-10
  6
CONTINUOUS
 62
     7
100
AcDbLine
 10
1051.156854249102
 20
1138.422330470903
 30
0.0
 11
1068.834523778402
 21
1120.744660941603
 31
0.0
  0
LINE
  5
388
330
1F
100
AcDbEntity
  8
LAY-10
  6
CONTINUOUS
 62
     7
100
AcDbLine
 10
980.4461761305021
 20
1226.810678118001
 30
0.0
 11
962.7685066008007
 21
1209.133008588001
 31
0.0
  0
LINE
  5
389
330
1F
100
AcDbEntity
  8
LAY-10
  6
CONTINUOUS
 62
     7
100
AcDbLine
 10
962.7685066008007
 20
1173.777669529001
 30
0.0
 11
980.4461761305021
 21
1191.455339059
 31
0.0
  0
LINE
  5
38A
330
1F
100
AcDbEntity
  8
LAY-10
  6
CONTINUOUS
 62
     7
100
AcDbLine
 10
874.3801589523019
 20
1138.42233047
 30
0.0
 11
892.0578284820012
 21
1120.744660940001
 31
0.0
  0
LINE
  5
38B
330
1F
100
AcDbEntity
  8
LAY-10
  6
CONTINUOUS
 62
     7
100
AcDbLine
 10
867.7354980109676
 20
1114.1
 30
0.0
 11
874.3801589512304
 21
1120.744660940001
 31
0.0
  0
LINE
  5
38C
330
1F
100
AcDbEntity
  8
LAY-10
  6
CONTINUOUS
 62
     7
100
AcDbLine
 10
903.0908370706375
 20
1114.1
 30
0.0
 11
909.7354980109003
 21
1120.744660940001
 31
0.0
  0
LINE
  5
38D
330
1F
100
AcDbEntity
  8
LAY-10
  6
CONTINUOUS
 62
     7
100
AcDbLine
 10
938.4461761303146
 20
1114.1
 30
0.0
 11
945.0908370712013
 21
1120.744660941001
 31
0.0
  0
LINE
  5
38E
330
1F
100
AcDbEntity
  8
LAY-10
  6
CONTINUOUS
 62
     7
100
AcDbLine
 10
1077.301515189801
 20
1323.666017175946
 30
0.0
 11
1068.834523779001
 21
1315.199025765002
 31
0.0
  0
LINE
  5
38F
330
1F
100
AcDbEntity
  8
LAY-10
  6
CONTINUOUS
 62
     7
100
AcDbLine
 10
1068.834523779001
 20
1297.521356236002
 30
0.0
 11
1051.156854249302
 21
1315.199025765002
 31
0.0
  0
LINE
  5
390
330
1F
100
AcDbEntity
  8
LAY-10
  6
CONTINUOUS
 62
     7
100
AcDbLine
 10
1051.156854249302
 20
1297.521356236002
 30
0.0
 11
1033.4791847196
 21
1279.843686706001
 31
0.0
  0
LINE
  5
391
330
1F
100
AcDbEntity
  8
LAY-10
  6
CONTINUOUS
 62
     7
100
AcDbLine
 10
1033.4791847195
 20
1226.810678118001
 30
0.0
 11
1015.801515189901
 21
1244.488347647001
 31
0.0
  0
LINE
  5
392
330
1F
100
AcDbEntity
  8
LAY-10
  6
CONTINUOUS
 62
     7
100
AcDbLine
 10
998.1238456602014
 20
1209.133008588001
 30
0.0
 11
1015.801515189901
 21
1226.810678118001
 31
0.0
  0
LINE
  5
393
330
1F
100
AcDbEntity
  8
LAY-10
  6
CONTINUOUS
 62
     7
100
AcDbLine
 10
1033.4791847195
 20
1209.133008588001
 30
0.0
 11
1051.156854249202
 21
1226.810678118001
 31
0.0
  0
LINE
  5
394
330
1F
100
AcDbEntity
  8
LAY-10
  6
CONTINUOUS
 62
     7
100
AcDbLine
 10
998.1238456602014
 20
1226.810678118001
 30
0.0
 11
980.4461761305021
 21
1244.488347647001
 31
0.0
  0
LINE
  5
395
330
1F
100
AcDbEntity
  8
LAY-10
  6
CONTINUOUS
 62
     7
100
AcDbLine
 10
1015.801515189901
 20
1262.166017177001
 30
0.0
 11
998.1238456602014
 21
1244.488347647001
 31
0.0
  0
LINE
  5
396
330
1F
100
AcDbEntity
  8
LAY-10
  6
CONTINUOUS
 62
     7
100
AcDbLine
 10
1033.4791847196
 20
1262.166017177001
 30
0.0
 11
1015.801515189901
 21
1279.843686706001
 31
0.0
  0
LINE
  5
397
330
1F
100
AcDbEntity
  8
LAY-10
  6
CONTINUOUS
 62
     7
100
AcDbLine
 10
1051.156854249302
 20
1244.488347647002
 30
0.0
 11
1068.834523778901
 21
1226.810678118001
 31
0.0
  0
LINE
  5
398
330
1F
100
AcDbEntity
  8
LAY-10
  6
CONTINUOUS
 62
     7
100
AcDbLine
 10
1068.834523778901
 20
1209.133008588001
 30
0.0
 11
1077.301515189801
 21
1217.599999999045
 31
0.0
  0
LINE
  5
399
330
1F
100
AcDbEntity
  8
LAY-10
  6
CONTINUOUS
 62
     7
100
AcDbLine
 10
1068.834523778901
 20
1244.488347647002
 30
0.0
 11
1077.301515189801
 21
1252.955339058045
 31
0.0
  0
LINE
  5
39A
330
1F
100
AcDbEntity
  8
LAY-10
  6
CONTINUOUS
 62
     7
100
AcDbLine
 10
1068.834523778901
 20
1262.166017177001
 30
0.0
 11
1051.156854249302
 21
1279.843686706001
 31
0.0
  0
LINE
  5
39B
330
1F
100
AcDbEntity
  8
LAY-10
  6
CONTINUOUS
 62
     7
100
AcDbLine
 10
1033.4791847196
 20
1244.488347647002
 30
0.0
 11
1051.156854249302
 21
1262.166017177001
 31
0.0
  0
LINE
  5
39C
330
1F
100
AcDbEntity
  8
LAY-10
  6
CONTINUOUS
 62
     7
100
AcDbLine
 10
1068.834523779001
 20
1279.843686706002
 30
0.0
 11
1077.301515189801
 21
1288.310678116946
 31
0.0
  0
LINE
  5
39D
330
1F
100
AcDbEntity
  8
LAY-10
  6
CONTINUOUS
 62
     7
100
AcDbLine
 10
945.0908370711013
 20
1138.42233047
 30
0.0
 11
962.7685066008007
 21
1120.744660940001
 31
0.0
  0
LINE
  5
39E
330
1F
100
AcDbEntity
  8
LAY-10
  6
CONTINUOUS
 62
     7
100
AcDbLine
 10
998.1238456601013
 20
1191.455339059
 30
0.0
 11
980.4461761305021
 21
1209.133008588001
 31
0.0
  0
LINE
  5
39F
330
1F
100
AcDbEntity
  8
LAY-10
  6
CONTINUOUS
 62
     7
100
AcDbLine
 10
962.7685066008007
 20
1191.455339059
 30
0.0
 11
945.0908370711013
 21
1209.133008588001
 31
0.0
  0
LINE
  5
3A0
330
1F
100
AcDbEntity
  8
LAY-10
  6
CONTINUOUS
 62
     7
100
AcDbLine
 10
945.0908370711013
 20
1156.1
 30
0.0
 11
927.413167541502
 21
1138.42233047
 31
0.0
  0
LINE
  5
3A1
330
1F
100
AcDbEntity
  8
LAY-10
  6
CONTINUOUS
 62
     7
100
AcDbLine
 10
945.0908370711013
 20
1191.455339059
 30
0.0
 11
927.413167541502
 21
1173.777669529001
 31
0.0
  0
LINE
  5
3A2
330
1F
100
AcDbEntity
  8
LAY-10
  6
CONTINUOUS
 62
     7
100
AcDbLine
 10
927.413167541502
 20
1156.1
 30
0.0
 11
909.7354980118007
 21
1173.777669529001
 31
0.0
  0
LINE
  5
3A3
330
1F
100
AcDbEntity
  8
LAY-10
  6
CONTINUOUS
 62
     7
100
AcDbLine
 10
1015.801515189901
 20
1209.133008588001
 30
0.0
 11
1033.4791847195
 21
1191.455339059
 31
0.0
  0
LINE
  5
3A4
330
1F
100
AcDbEntity
  8
LAY-10
  6
CONTINUOUS
 62
     7
100
AcDbLine
 10
1051.156854249202
 20
1209.133008588001
 30
0.0
 11
1068.834523778901
 21
1191.455339059
 31
0.0
  0
LINE
  5
3A5
330
1F
100
AcDbEntity
  8
LAY-10
  6
CONTINUOUS
 62
     7
100
AcDbLine
 10
1068.834523778801
 20
1173.777669528002
 30
0.0
 11
1077.301515189801
 21
1182.244660939146
 31
0.0
  0
LINE
  5
3A6
330
1F
100
AcDbEntity
  8
LAY-10
  6
CONTINUOUS
 62
     7
100
AcDbLine
 10
973.8015151890968
 20
1114.1
 30
0.0
 11
980.4461761313041
 21
1120.744660941796
 31
0.0
  0
LINE
  5
3A7
330
1F
100
AcDbEntity
  8
LAY-10
  6
CONTINUOUS
 62
     7
100
AcDbLine
 10
1068.8345237775
 20
1138.422330471604
 30
0.0
 11
1077.301515189826
 21
1146.889321884074
 31
0.0
  0
LINE
  5
3A8
330
1F
100
AcDbEntity
  8
LAY-10
  6
CONTINUOUS
 62
     7
100
AcDbLine
 10
1051.156854249301
 20
1120.744660942804
 30
0.0
 11
1044.512193306839
 21
1114.100000000003
 31
0.0
  0
LINE
  5
3A9
330
1F
100
AcDbEntity
  8
LAY-10
  6
CONTINUOUS
 62
     7
100
AcDbLine
 10
910.2288272136457
 20
1137.929001268048
 30
0.0
 11
927.4131675414001
 21
1120.744660940001
 31
0.0
  0
LINE
  5
3AA
330
1F
100
AcDbEntity
  8
LAY-10
  6
CONTINUOUS
 62
     7
100
AcDbLine
 10
909.7354980121008
 20
1156.1
 30
0.0
 11
892.0578284825015
 21
1138.42233047
 31
0.0
  0
LINE
  5
3AB
330
1F
100
AcDbEntity
  8
LAY-10
  6
CONTINUOUS
 62
     7
100
AcDbLine
 10
1033.479184719003
 20
1120.744660942202
 30
0.0
 11
1030.123845661172
 21
1124.100000000033
 31
0.0
  0
LINE
  5
3AC
330
1F
100
AcDbEntity
  8
LAY-10
  6
CONTINUOUS
 62
     7
100
AcDbLine
 10
1043.801515189837
 20
1148.744660941512
 30
0.0
 11
1051.156854248801
 21
1156.100000000602
 31
0.0
  0
LINE
  5
3AD
330
1F
100
AcDbEntity
  8
LAY-10
  6
CONTINUOUS
 62
     7
100
AcDbLine
 10
1033.801515190519
 20
1174.100000000026
 30
0.0
 11
1051.156854249202
 21
1191.455339059
 31
0.0
  0
LINE
  5
3AE
330
1F
100
AcDbEntity
  8
LAY-10
  6
CONTINUOUS
 62
     7
100
AcDbLine
 10
980.446176131999
 20
1173.777669530098
 30
0.0
 11
993.8015151898372
 21
1160.422330471809
 31
0.0
  0
LINE
  5
3AF
330
1F
100
AcDbEntity
  8
LAY-10
  6
CONTINUOUS
 62
     7
100
AcDbLine
 10
998.4461761311259
 20
1174.100000000031
 30
0.0
 11
1015.801515189801
 21
1191.455339059
 31
0.0
  0
LINE
  5
3B0
330
1F
100
AcDbEntity
  8
LAY-10
  6
CONTINUOUS
 62
     7
100
AcDbLine
 10
980.4461761320027
 20
1138.422330470797
 30
0.0
 11
993.8015151898335
 21
1125.066991412441
 31
0.0
  0
LINE
  5
3B1
330
1F
100
AcDbEntity
  8
LAY-10
  6
CONTINUOUS
 62
     7
100
AcDbLine
 10
994.7685066021995
 20
1124.100000000038
 30
0.0
 11
998.1238456610055
 21
1120.744660941099
 31
0.0
  0
LINE
  5
3B2
330
1F
100
AcDbEntity
  8
LAY-10
  6
CONTINUOUS
 62
     7
100
AcDbLine
 10
976.4497723679588
 20
1152.10359623739
 30
0.0
 11
979.823845660193
 21
1155.477669529682
 31
0.0
  0
LINE
  5
3B3
330
1F
100
AcDbEntity
  8
LAY-10
  6
CONTINUOUS
 62
     7
100
AcDbLine
 10
958.0902565355073
 20
1160.778250065108
 30
0.0
 11
945.0908370711013
 21
1173.777669529001
 31
0.0
  0
LINE
  5
3B4
330
1F
100
AcDbEntity
  8
LAY-10
  6
CONTINUOUS
 62
     7
100
AcDbLine
 10
1140.801515187896
 20
2251.455339058999
 30
0.0
 11
1147.446176129208
 21
2258.1000000002
 31
0.0
  0
LINE
  5
3B5
330
1F
100
AcDbEntity
  8
LAY-10
  6
CONTINUOUS
 62
     7
100
AcDbLine
 10
1087.768506602097
 20
2216.099999999198
 30
0.0
 11
1105.446176131398
 21
2198.422330469898
 31
0.0
  0
LINE
  5
3B6
330
1F
100
AcDbEntity
  8
LAY-10
  6
CONTINUOUS
 62
     7
100
AcDbLine
 10
1105.446176130798
 20
2233.777669529297
 30
0.0
 11
1087.768506601497
 21
2251.455339058597
 31
0.0
  0
LINE
  5
3B7
330
1F
100
AcDbEntity
  8
LAY-10
  6
CONTINUOUS
 62
     7
100
AcDbLine
 10
1176.156854249398
 20
2145.389321882199
 30
0.0
 11
1193.834523779099
 21
2163.066991412199
 31
0.0
  0
LINE
  5
3B8
330
1F
100
AcDbEntity
  8
LAY-10
  6
CONTINUOUS
 62
     7
100
AcDbLine
 10
1193.834523779099
 20
2198.422330471199
 30
0.0
 11
1176.156854249398
 21
2180.7446609412
 31
0.0
  0
LINE
  5
3B9
330
1F
100
AcDbEntity
  8
LAY-10
  6
CONTINUOUS
 62
     7
100
AcDbLine
 10
1282.222871427598
 20
2233.7776695302
 30
0.0
 11
1264.545201897898
 21
2251.455339060199
 31
0.0
  0
LINE
  5
3BA
330
1F
100
AcDbEntity
  8
LAY-10
  6
CONTINUOUS
 62
     7
100
AcDbLine
 10
1288.867532368932
 20
2258.1000000002
 30
0.0
 11
1282.222871428669
 21
2251.455339060199
 31
0.0
  0
LINE
  5
3BB
330
1F
100
AcDbEntity
  8
LAY-10
  6
CONTINUOUS
 62
     7
100
AcDbLine
 10
1253.512193309262
 20
2258.1000000002
 30
0.0
 11
1246.867532368999
 21
2251.455339060199
 31
0.0
  0
LINE
  5
3BC
330
1F
100
AcDbEntity
  8
LAY-10
  6
CONTINUOUS
 62
     7
100
AcDbLine
 10
1218.156854249585
 20
2258.1000000002
 30
0.0
 11
1211.512193308698
 21
2251.455339059199
 31
0.0
  0
LINE
  5
3BD
330
1F
100
AcDbEntity
  8
LAY-10
  6
CONTINUOUS
 62
     7
100
AcDbLine
 10
1079.301515190099
 20
2048.533982824254
 30
0.0
 11
1087.768506600899
 21
2057.000974235198
 31
0.0
  0
LINE
  5
3BE
330
1F
100
AcDbEntity
  8
LAY-10
  6
CONTINUOUS
 62
     7
100
AcDbLine
 10
1087.768506600899
 20
2074.678643764198
 30
0.0
 11
1105.446176130598
 21
2057.000974235198
 31
0.0
  0
LINE
  5
3BF
330
1F
100
AcDbEntity
  8
LAY-10
  6
CONTINUOUS
 62
     7
100
AcDbLine
 10
1105.446176130598
 20
2074.678643764198
 30
0.0
 11
1123.123845660299
 21
2092.356313294199
 31
0.0
  0
LINE
  5
3C0
330
1F
100
AcDbEntity
  8
LAY-10
  6
CONTINUOUS
 62
     7
100
AcDbLine
 10
1123.123845660399
 20
2145.389321882199
 30
0.0
 11
1140.801515189999
 21
2127.711652353199
 31
0.0
  0
LINE
  5
3C1
330
1F
100
AcDbEntity
  8
LAY-10
  6
CONTINUOUS
 62
     7
100
AcDbLine
 10
1158.479184719698
 20
2163.066991412199
 30
0.0
 11
1140.801515189999
 21
2145.389321882199
 31
0.0
  0
LINE
  5
3C2
330
1F
100
AcDbEntity
  8
LAY-10
  6
CONTINUOUS
 62
     7
100
AcDbLine
 10
1123.123845660399
 20
2163.066991412199
 30
0.0
 11
1105.446176130698
 21
2145.389321882199
 31
0.0
  0
LINE
  5
3C3
330
1F
100
AcDbEntity
  8
LAY-10
  6
CONTINUOUS
 62
     7
100
AcDbLine
 10
1158.479184719698
 20
2145.389321882199
 30
0.0
 11
1176.156854249398
 21
2127.711652353199
 31
0.0
  0
LINE
  5
3C4
330
1F
100
AcDbEntity
  8
LAY-10
  6
CONTINUOUS
 62
     7
100
AcDbLine
 10
1140.801515189999
 20
2110.033982823199
 30
0.0
 11
1158.479184719698
 21
2127.711652353199
 31
0.0
  0
LINE
  5
3C5
330
1F
100
AcDbEntity
  8
LAY-10
  6
CONTINUOUS
 62
     7
100
AcDbLine
 10
1123.123845660299
 20
2110.033982823199
 30
0.0
 11
1140.801515189999
 21
2092.356313294199
 31
0.0
  0
LINE
  5
3C6
330
1F
100
AcDbEntity
  8
LAY-10
  6
CONTINUOUS
 62
     7
100
AcDbLine
 10
1105.446176130598
 20
2127.711652353198
 30
0.0
 11
1087.768506600999
 21
2145.389321882199
 31
0.0
  0
LINE
  5
3C7
330
1F
100
AcDbEntity
  8
LAY-10
  6
CONTINUOUS
 62
     7
100
AcDbLine
 10
1087.768506600999
 20
2163.066991412199
 30
0.0
 11
1079.301515190099
 21
2154.600000001155
 31
0.0
  0
LINE
  5
3C8
330
1F
100
AcDbEntity
  8
LAY-10
  6
CONTINUOUS
 62
     7
100
AcDbLine
 10
1087.768506600999
 20
2127.711652353198
 30
0.0
 11
1079.301515190099
 21
2119.244660942154
 31
0.0
  0
LINE
  5
3C9
330
1F
100
AcDbEntity
  8
LAY-10
  6
CONTINUOUS
 62
     7
100
AcDbLine
 10
1087.768506600999
 20
2110.033982823199
 30
0.0
 11
1105.446176130598
 21
2092.356313294199
 31
0.0
  0
LINE
  5
3CA
330
1F
100
AcDbEntity
  8
LAY-10
  6
CONTINUOUS
 62
     7
100
AcDbLine
 10
1123.123845660299
 20
2127.711652353198
 30
0.0
 11
1105.446176130598
 21
2110.033982823199
 31
0.0
  0
LINE
  5
3CB
330
1F
100
AcDbEntity
  8
LAY-10
  6
CONTINUOUS
 62
     7
100
AcDbLine
 10
1087.768506600899
 20
2092.356313294198
 30
0.0
 11
1079.301515190099
 21
2083.889321883254
 31
0.0
  0
LINE
  5
3CC
330
1F
100
AcDbEntity
  8
LAY-10
  6
CONTINUOUS
 62
     7
100
AcDbLine
 10
1211.512193308798
 20
2233.7776695302
 30
0.0
 11
1193.834523779099
 21
2251.455339060199
 31
0.0
  0
LINE
  5
3CD
330
1F
100
AcDbEntity
  8
LAY-10
  6
CONTINUOUS
 62
     7
100
AcDbLine
 10
1158.479184719798
 20
2180.7446609412
 30
0.0
 11
1176.156854249398
 21
2163.066991412199
 31
0.0
  0
LINE
  5
3CE
330
1F
100
AcDbEntity
  8
LAY-10
  6
CONTINUOUS
 62
     7
100
AcDbLine
 10
1193.834523779099
 20
2180.7446609412
 30
0.0
 11
1211.512193308798
 21
2163.066991412199
 31
0.0
  0
LINE
  5
3CF
330
1F
100
AcDbEntity
  8
LAY-10
  6
CONTINUOUS
 62
     7
100
AcDbLine
 10
1211.512193308798
 20
2216.1000000002
 30
0.0
 11
1229.189862838398
 21
2233.7776695302
 31
0.0
  0
LINE
  5
3D0
330
1F
100
AcDbEntity
  8
LAY-10
  6
CONTINUOUS
 62
     7
100
AcDbLine
 10
1211.512193308798
 20
2180.7446609412
 30
0.0
 11
1229.189862838398
 21
2198.422330471199
 31
0.0
  0
LINE
  5
3D1
330
1F
100
AcDbEntity
  8
LAY-10
  6
CONTINUOUS
 62
     7
100
AcDbLine
 10
1229.189862838398
 20
2216.1000000002
 30
0.0
 11
1246.867532368099
 21
2198.422330471199
 31
0.0
  0
LINE
  5
3D2
330
1F
100
AcDbEntity
  8
LAY-10
  6
CONTINUOUS
 62
     7
100
AcDbLine
 10
1140.801515189999
 20
2163.066991412199
 30
0.0
 11
1123.123845660399
 21
2180.7446609412
 31
0.0
  0
LINE
  5
3D3
330
1F
100
AcDbEntity
  8
LAY-10
  6
CONTINUOUS
 62
     7
100
AcDbLine
 10
1105.446176130698
 20
2163.066991412199
 30
0.0
 11
1087.768506600999
 21
2180.7446609412
 31
0.0
  0
LINE
  5
3D4
330
1F
100
AcDbEntity
  8
LAY-10
  6
CONTINUOUS
 62
     7
100
AcDbLine
 10
1087.768506601099
 20
2198.422330472198
 30
0.0
 11
1079.301515190099
 21
2189.955339061054
 31
0.0
  0
LINE
  5
3D5
330
1F
100
AcDbEntity
  8
LAY-10
  6
CONTINUOUS
 62
     7
100
AcDbLine
 10
1182.801515190803
 20
2258.1000000002
 30
0.0
 11
1176.156854248595
 21
2251.455339058404
 31
0.0
  0
LINE
  5
3D6
330
1F
100
AcDbEntity
  8
LAY-10
  6
CONTINUOUS
 62
     7
100
AcDbLine
 10
1087.768506602399
 20
2233.777669528596
 30
0.0
 11
1079.301515190073
 21
2225.310678116125
 31
0.0
  0
LINE
  5
3D7
330
1F
100
AcDbEntity
  8
LAY-10
  6
CONTINUOUS
 62
     7
100
AcDbLine
 10
1105.446176130598
 20
2251.455339057396
 30
0.0
 11
1112.09083707306
 21
2258.100000000197
 31
0.0
  0
LINE
  5
3D8
330
1F
100
AcDbEntity
  8
LAY-10
  6
CONTINUOUS
 62
     7
100
AcDbLine
 10
1246.374203166254
 20
2234.270998732152
 30
0.0
 11
1229.189862838499
 21
2251.455339060199
 31
0.0
  0
LINE
  5
3D9
330
1F
100
AcDbEntity
  8
LAY-10
  6
CONTINUOUS
 62
     7
100
AcDbLine
 10
1246.867532367799
 20
2216.1000000002
 30
0.0
 11
1264.545201897398
 21
2233.7776695302
 31
0.0
  0
LINE
  5
3DA
330
1F
100
AcDbEntity
  8
LAY-10
  6
CONTINUOUS
 62
     7
100
AcDbLine
 10
1123.123845660896
 20
2251.455339057998
 30
0.0
 11
1126.479184718727
 21
2248.100000000167
 31
0.0
  0
LINE
  5
3DB
330
1F
100
AcDbEntity
  8
LAY-10
  6
CONTINUOUS
 62
     7
100
AcDbLine
 10
1112.801515190062
 20
2223.455339058688
 30
0.0
 11
1105.446176131098
 21
2216.099999999598
 31
0.0
  0
LINE
  5
3DC
330
1F
100
AcDbEntity
  8
LAY-10
  6
CONTINUOUS
 62
     7
100
AcDbLine
 10
1122.80151518938
 20
2198.100000000174
 30
0.0
 11
1105.446176130698
 21
2180.7446609412
 31
0.0
  0
LINE
  5
3DD
330
1F
100
AcDbEntity
  8
LAY-10
  6
CONTINUOUS
 62
     7
100
AcDbLine
 10
1176.156854247901
 20
2198.422330470102
 30
0.0
 11
1162.801515190062
 21
2211.777669528391
 31
0.0
  0
LINE
  5
3DE
330
1F
100
AcDbEntity
  8
LAY-10
  6
CONTINUOUS
 62
     7
100
AcDbLine
 10
1158.156854248774
 20
2198.100000000169
 30
0.0
 11
1140.801515190099
 21
2180.7446609412
 31
0.0
  0
LINE
  5
3DF
330
1F
100
AcDbEntity
  8
LAY-10
  6
CONTINUOUS
 62
     7
100
AcDbLine
 10
1176.156854247897
 20
2233.777669529403
 30
0.0
 11
1162.801515190066
 21
2247.133008587758
 31
0.0
  0
LINE
  5
3E0
330
1F
100
AcDbEntity
  8
LAY-10
  6
CONTINUOUS
 62
     7
100
AcDbLine
 10
1161.8345237777
 20
2248.100000000162
 30
0.0
 11
1158.479184718894
 21
2251.4553390591
 31
0.0
  0
LINE
  5
3E1
330
1F
100
AcDbEntity
  8
LAY-10
  6
CONTINUOUS
 62
     7
100
AcDbLine
 10
1180.153258011941
 20
2220.09640376281
 30
0.0
 11
1176.779184719707
 21
2216.722330470518
 31
0.0
  0
LINE
  5
3E2
330
1F
100
AcDbEntity
  8
LAY-10
  6
CONTINUOUS
 62
     7
100
AcDbLine
 10
1198.512773844392
 20
2211.421749935092
 30
0.0
 11
1211.512193308798
 21
2198.422330471199
 31
0.0
  0
LINE
  5
3E3
330
1F
100
AcDbEntity
  8
LAY-10
  6
CONTINUOUS
 62
     7
100
AcDbLine
 10
1513.801515192303
 20
1120.7446609412
 30
0.0
 11
1507.156854250991
 21
1114.1
 31
0.0
  0
LINE
  5
3E4
330
1F
100
AcDbEntity
  8
LAY-10
  6
CONTINUOUS
 62
     7
100
AcDbLine
 10
1566.834523778102
 20
1156.100000001002
 30
0.0
 11
1549.156854248801
 21
1173.777669530301
 31
0.0
  0
LINE
  5
3E5
330
1F
100
AcDbEntity
  8
LAY-10
  6
CONTINUOUS
 62
     7
100
AcDbLine
 10
1549.156854249401
 20
1138.422330470903
 30
0.0
 11
1566.834523778703
 21
1120.744660941603
 31
0.0
  0
LINE
  5
3E6
330
1F
100
AcDbEntity
  8
LAY-10
  6
CONTINUOUS
 62
     7
100
AcDbLine
 10
1478.446176130802
 20
1226.810678118001
 30
0.0
 11
1460.768506601101
 21
1209.133008588001
 31
0.0
  0
LINE
  5
3E7
330
1F
100
AcDbEntity
  8
LAY-10
  6
CONTINUOUS
 62
     7
100
AcDbLine
 10
1460.768506601101
 20
1173.777669529001
 30
0.0
 11
1478.446176130802
 21
1191.455339059
 31
0.0
  0
LINE
  5
3E8
330
1F
100
AcDbEntity
  8
LAY-10
  6
CONTINUOUS
 62
     7
100
AcDbLine
 10
1372.380158952602
 20
1138.42233047
 30
0.0
 11
1390.057828482301
 21
1120.744660940001
 31
0.0
  0
LINE
  5
3E9
330
1F
100
AcDbEntity
  8
LAY-10
  6
CONTINUOUS
 62
     7
100
AcDbLine
 10
1365.735498011267
 20
1114.1
 30
0.0
 11
1372.38015895153
 21
1120.744660940001
 31
0.0
  0
LINE
  5
3EA
330
1F
100
AcDbEntity
  8
LAY-10
  6
CONTINUOUS
 62
     7
100
AcDbLine
 10
1401.090837070937
 20
1114.1
 30
0.0
 11
1407.7354980112
 21
1120.744660940001
 31
0.0
  0
LINE
  5
3EB
330
1F
100
AcDbEntity
  8
LAY-10
  6
CONTINUOUS
 62
     7
100
AcDbLine
 10
1436.446176130615
 20
1114.1
 30
0.0
 11
1443.090837071501
 21
1120.744660941001
 31
0.0
  0
LINE
  5
3EC
330
1F
100
AcDbEntity
  8
LAY-10
  6
CONTINUOUS
 62
     7
100
AcDbLine
 10
1575.301515190101
 20
1323.666017175946
 30
0.0
 11
1566.834523779301
 21
1315.199025765002
 31
0.0
  0
LINE
  5
3ED
330
1F
100
AcDbEntity
  8
LAY-10
  6
CONTINUOUS
 62
     7
100
AcDbLine
 10
1566.834523779301
 20
1297.521356236002
 30
0.0
 11
1549.156854249601
 21
1315.199025765002
 31
0.0
  0
LINE
  5
3EE
330
1F
100
AcDbEntity
  8
LAY-10
  6
CONTINUOUS
 62
     7
100
AcDbLine
 10
1549.156854249601
 20
1297.521356236002
 30
0.0
 11
1531.4791847199
 21
1279.843686706001
 31
0.0
  0
LINE
  5
3EF
330
1F
100
AcDbEntity
  8
LAY-10
  6
CONTINUOUS
 62
     7
100
AcDbLine
 10
1531.4791847198
 20
1226.810678118001
 30
0.0
 11
1513.801515190201
 21
1244.488347647001
 31
0.0
  0
LINE
  5
3F0
330
1F
100
AcDbEntity
  8
LAY-10
  6
CONTINUOUS
 62
     7
100
AcDbLine
 10
1496.123845660501
 20
1209.133008588001
 30
0.0
 11
1513.801515190201
 21
1226.810678118001
 31
0.0
  0
LINE
  5
3F1
330
1F
100
AcDbEntity
  8
LAY-10
  6
CONTINUOUS
 62
     7
100
AcDbLine
 10
1531.4791847198
 20
1209.133008588001
 30
0.0
 11
1549.156854249501
 21
1226.810678118001
 31
0.0
  0
LINE
  5
3F2
330
1F
100
AcDbEntity
  8
LAY-10
  6
CONTINUOUS
 62
     7
100
AcDbLine
 10
1496.123845660501
 20
1226.810678118001
 30
0.0
 11
1478.446176130802
 21
1244.488347647001
 31
0.0
  0
LINE
  5
3F3
330
1F
100
AcDbEntity
  8
LAY-10
  6
CONTINUOUS
 62
     7
100
AcDbLine
 10
1513.801515190201
 20
1262.166017177001
 30
0.0
 11
1496.123845660501
 21
1244.488347647001
 31
0.0
  0
LINE
  5
3F4
330
1F
100
AcDbEntity
  8
LAY-10
  6
CONTINUOUS
 62
     7
100
AcDbLine
 10
1531.4791847199
 20
1262.166017177001
 30
0.0
 11
1513.801515190201
 21
1279.843686706001
 31
0.0
  0
LINE
  5
3F5
330
1F
100
AcDbEntity
  8
LAY-10
  6
CONTINUOUS
 62
     7
100
AcDbLine
 10
1549.156854249601
 20
1244.488347647002
 30
0.0
 11
1566.834523779201
 21
1226.810678118001
 31
0.0
  0
LINE
  5
3F6
330
1F
100
AcDbEntity
  8
LAY-10
  6
CONTINUOUS
 62
     7
100
AcDbLine
 10
1566.834523779201
 20
1209.133008588001
 30
0.0
 11
1575.301515190101
 21
1217.599999999045
 31
0.0
  0
LINE
  5
3F7
330
1F
100
AcDbEntity
  8
LAY-10
  6
CONTINUOUS
 62
     7
100
AcDbLine
 10
1566.834523779201
 20
1244.488347647002
 30
0.0
 11
1575.301515190101
 21
1252.955339058045
 31
0.0
  0
LINE
  5
3F8
330
1F
100
AcDbEntity
  8
LAY-10
  6
CONTINUOUS
 62
     7
100
AcDbLine
 10
1566.834523779201
 20
1262.166017177001
 30
0.0
 11
1549.156854249601
 21
1279.843686706001
 31
0.0
  0
LINE
  5
3F9
330
1F
100
AcDbEntity
  8
LAY-10
  6
CONTINUOUS
 62
     7
100
AcDbLine
 10
1531.4791847199
 20
1244.488347647002
 30
0.0
 11
1549.156854249601
 21
1262.166017177001
 31
0.0
  0
LINE
  5
3FA
330
1F
100
AcDbEntity
  8
LAY-10
  6
CONTINUOUS
 62
     7
100
AcDbLine
 10
1566.834523779301
 20
1279.843686706002
 30
0.0
 11
1575.301515190101
 21
1288.310678116946
 31
0.0
  0
LINE
  5
3FB
330
1F
100
AcDbEntity
  8
LAY-10
  6
CONTINUOUS
 62
     7
100
AcDbLine
 10
1443.090837071401
 20
1138.42233047
 30
0.0
 11
1460.768506601101
 21
1120.744660940001
 31
0.0
  0
LINE
  5
3FC
330
1F
100
AcDbEntity
  8
LAY-10
  6
CONTINUOUS
 62
     7
100
AcDbLine
 10
1496.123845660401
 20
1191.455339059
 30
0.0
 11
1478.446176130802
 21
1209.133008588001
 31
0.0
  0
LINE
  5
3FD
330
1F
100
AcDbEntity
  8
LAY-10
  6
CONTINUOUS
 62
     7
100
AcDbLine
 10
1460.768506601101
 20
1191.455339059
 30
0.0
 11
1443.090837071401
 21
1209.133008588001
 31
0.0
  0
LINE
  5
3FE
330
1F
100
AcDbEntity
  8
LAY-10
  6
CONTINUOUS
 62
     7
100
AcDbLine
 10
1443.090837071401
 20
1156.1
 30
0.0
 11
1425.413167541802
 21
1138.42233047
 31
0.0
  0
LINE
  5
3FF
330
1F
100
AcDbEntity
  8
LAY-10
  6
CONTINUOUS
 62
     7
100
AcDbLine
 10
1443.090837071401
 20
1191.455339059
 30
0.0
 11
1425.413167541802
 21
1173.777669529001
 31
0.0
  0
LINE
  5
400
330
1F
100
AcDbEntity
  8
LAY-10
  6
CONTINUOUS
 62
     7
100
AcDbLine
 10
1425.413167541802
 20
1156.1
 30
0.0
 11
1407.735498012101
 21
1173.777669529001
 31
0.0
  0
LINE
  5
401
330
1F
100
AcDbEntity
  8
LAY-10
  6
CONTINUOUS
 62
     7
100
AcDbLine
 10
1513.801515190201
 20
1209.133008588001
 30
0.0
 11
1531.4791847198
 21
1191.455339059
 31
0.0
  0
LINE
  5
402
330
1F
100
AcDbEntity
  8
LAY-10
  6
CONTINUOUS
 62
     7
100
AcDbLine
 10
1549.156854249501
 20
1209.133008588001
 30
0.0
 11
1566.834523779201
 21
1191.455339059
 31
0.0
  0
LINE
  5
403
330
1F
100
AcDbEntity
  8
LAY-10
  6
CONTINUOUS
 62
     7
100
AcDbLine
 10
1566.834523779101
 20
1173.777669528002
 30
0.0
 11
1575.301515190101
 21
1182.244660939146
 31
0.0
  0
LINE
  5
404
330
1F
100
AcDbEntity
  8
LAY-10
  6
CONTINUOUS
 62
     7
100
AcDbLine
 10
1471.801515189397
 20
1114.1
 30
0.0
 11
1478.446176131604
 21
1120.744660941796
 31
0.0
  0
LINE
  5
405
330
1F
100
AcDbEntity
  8
LAY-10
  6
CONTINUOUS
 62
     7
100
AcDbLine
 10
1566.8345237778
 20
1138.422330471604
 30
0.0
 11
1575.301515190126
 21
1146.889321884074
 31
0.0
  0
LINE
  5
406
330
1F
100
AcDbEntity
  8
LAY-10
  6
CONTINUOUS
 62
     7
100
AcDbLine
 10
1549.156854249601
 20
1120.744660942804
 30
0.0
 11
1542.512193307139
 21
1114.100000000003
 31
0.0
  0
LINE
  5
407
330
1F
100
AcDbEntity
  8
LAY-10
  6
CONTINUOUS
 62
     7
100
AcDbLine
 10
1408.228827213946
 20
1137.929001268048
 30
0.0
 11
1425.4131675417
 21
1120.744660940001
 31
0.0
  0
LINE
  5
408
330
1F
100
AcDbEntity
  8
LAY-10
  6
CONTINUOUS
 62
     7
100
AcDbLine
 10
1407.735498012401
 20
1156.1
 30
0.0
 11
1390.057828482801
 21
1138.42233047
 31
0.0
  0
LINE
  5
409
330
1F
100
AcDbEntity
  8
LAY-10
  6
CONTINUOUS
 62
     7
100
AcDbLine
 10
1531.479184719303
 20
1120.744660942202
 30
0.0
 11
1528.123845661473
 21
1124.100000000033
 31
0.0
  0
LINE
  5
40A
330
1F
100
AcDbEntity
  8
LAY-10
  6
CONTINUOUS
 62
     7
100
AcDbLine
 10
1541.801515190137
 20
1148.744660941512
 30
0.0
 11
1549.156854249101
 21
1156.100000000602
 31
0.0
  0
LINE
  5
40B
330
1F
100
AcDbEntity
  8
LAY-10
  6
CONTINUOUS
 62
     7
100
AcDbLine
 10
1531.801515190819
 20
1174.100000000026
 30
0.0
 11
1549.156854249501
 21
1191.455339059
 31
0.0
  0
LINE
  5
40C
330
1F
100
AcDbEntity
  8
LAY-10
  6
CONTINUOUS
 62
     7
100
AcDbLine
 10
1478.446176132299
 20
1173.777669530098
 30
0.0
 11
1491.801515190137
 21
1160.422330471809
 31
0.0
  0
LINE
  5
40D
330
1F
100
AcDbEntity
  8
LAY-10
  6
CONTINUOUS
 62
     7
100
AcDbLine
 10
1496.446176131426
 20
1174.100000000031
 30
0.0
 11
1513.801515190101
 21
1191.455339059
 31
0.0
  0
LINE
  5
40E
330
1F
100
AcDbEntity
  8
LAY-10
  6
CONTINUOUS
 62
     7
100
AcDbLine
 10
1478.446176132303
 20
1138.422330470797
 30
0.0
 11
1491.801515190133
 21
1125.066991412441
 31
0.0
  0
LINE
  5
40F
330
1F
100
AcDbEntity
  8
LAY-10
  6
CONTINUOUS
 62
     7
100
AcDbLine
 10
1492.768506602499
 20
1124.100000000038
 30
0.0
 11
1496.123845661305
 21
1120.744660941099
 31
0.0
  0
LINE
  5
410
330
1F
100
AcDbEntity
  8
LAY-10
  6
CONTINUOUS
 62
     7
100
AcDbLine
 10
1474.449772368259
 20
1152.10359623739
 30
0.0
 11
1477.823845660493
 21
1155.477669529682
 31
0.0
  0
LINE
  5
411
330
1F
100
AcDbEntity
  8
LAY-10
  6
CONTINUOUS
 62
     7
100
AcDbLine
 10
1456.090256535807
 20
1160.778250065108
 30
0.0
 11
1443.090837071401
 21
1173.777669529001
 31
0.0
  0
LINE
  5
412
330
1F
100
AcDbEntity
  8
LAY-10
  6
CONTINUOUS
 62
     7
100
AcDbLine
 10
698.3015151900023
 20
2317.100000000301
 30
0.0
 11
748.301515190004
 21
2317.100000000301
 31
0.0
  0
LINE
  5
413
330
1F
100
AcDbEntity
  8
LAY-10
  6
CONTINUOUS
 62
     7
100
AcDbLine
 10
698.3015151900023
 20
2267.100000000401
 30
0.0
 11
698.3015151900023
 21
2317.100000000301
 31
0.0
  0
CIRCLE
  5
414
330
1F
100
AcDbEntity
  8
LAY-10
  6
CONTINUOUS
 62
     7
100
AcDbCircle
 10
723.3015151900167
 20
2292.100000000301
 30
0.0
 40
7.5
  0
LINE
  5
415
330
1F
100
AcDbEntity
  8
LAY-10
  6
CONTINUOUS
 62
     7
100
AcDbLine
 10
748.301515190004
 20
2267.100000000401
 30
0.0
 11
748.301515190004
 21
2317.100000000301
 31
0.0
  0
LINE
  5
416
330
1F
100
AcDbEntity
  8
LAY-10
  6
CONTINUOUS
 62
     7
100
AcDbLine
 10
1073.801515189971
 20
2302.498484810177
 30
0.0
 11
1082.801515189973
 21
2302.498484810177
 31
0.0
  0
LINE
  5
417
330
1F
100
AcDbEntity
  8
LAY-10
  6
CONTINUOUS
 62
     7
100
AcDbLine
 10
1073.801515189973
 20
2267.100000000394
 30
0.0
 11
1073.801515189973
 21
2302.498484810177
 31
0.0
  0
LINE
  5
418
330
1F
100
AcDbEntity
  8
LAY-10
  6
CONTINUOUS
 62
     7
100
AcDbLine
 10
1082.801515189971
 20
2267.100000000394
 30
0.0
 11
1082.801515189971
 21
2302.498484810177
 31
0.0
  0
LINE
  5
419
330
1F
100
AcDbEntity
  8
LAY-10
  6
CONTINUOUS
 62
     7
100
AcDbLine
 10
1458.301515190016
 20
2317.1000000003
 30
0.0
 11
1408.301515190016
 21
2317.1000000003
 31
0.0
  0
LINE
  5
41A
330
1F
100
AcDbEntity
  8
LAY-10
  6
CONTINUOUS
 62
     7
100
AcDbLine
 10
1408.301515190016
 20
2267.100000000401
 30
0.0
 11
1408.301515190016
 21
2317.1000000003
 31
0.0
  0
CIRCLE
  5
41B
330
1F
100
AcDbEntity
  8
LAY-10
  6
CONTINUOUS
 62
     7
100
AcDbCircle
 10
1433.301515190002
 20
2292.1000000003
 30
0.0
 40
7.5
  0
LINE
  5
41C
330
1F
100
AcDbEntity
  8
LAY-10
  6
CONTINUOUS
 62
     7
100
AcDbLine
 10
1458.301515190016
 20
2267.100000000401
 30
0.0
 11
1458.301515190016
 21
2317.1000000003
 31
0.0
  0
LINE
  5
41D
330
1F
100
AcDbEntity
  8
LAY-10
  6
CONTINUOUS
 62
     7
100
AcDbLine
 10
698.3015151900025
 20
1055.099999999847
 30
0.0
 11
748.301515190004
 21
1055.099999999847
 31
0.0
  0
LINE
  5
41E
330
1F
100
AcDbEntity
  8
LAY-10
  6
CONTINUOUS
 62
     7
100
AcDbLine
 10
698.3015151900025
 20
1105.099999999747
 30
0.0
 11
698.3015151900025
 21
1055.099999999847
 31
0.0
  0
CIRCLE
  5
41F
330
1F
100
AcDbEntity
  8
LAY-10
  6
CONTINUOUS
 62
     7
100
AcDbCircle
 10
723.3015151900169
 20
1080.099999999847
 30
0.0
 40
7.5
  0
LINE
  5
420
330
1F
100
AcDbEntity
  8
LAY-10
  6
CONTINUOUS
 62
     7
100
AcDbLine
 10
748.301515190004
 20
1105.099999999747
 30
0.0
 11
748.301515190004
 21
1055.099999999847
 31
0.0
  0
LINE
  5
421
330
1F
100
AcDbEntity
  8
LAY-10
  6
CONTINUOUS
 62
     7
100
AcDbLine
 10
1073.801515189971
 20
1069.701515189973
 30
0.0
 11
1082.801515189973
 21
1069.701515189973
 31
0.0
  0
LINE
  5
422
330
1F
100
AcDbEntity
  8
LAY-10
  6
CONTINUOUS
 62
     7
100
AcDbLine
 10
1073.801515189973
 20
1105.099999999755
 30
0.0
 11
1073.801515189973
 21
1069.701515189973
 31
0.0
  0
LINE
  5
423
330
1F
100
AcDbEntity
  8
LAY-10
  6
CONTINUOUS
 62
     7
100
AcDbLine
 10
1082.801515189971
 20
1105.099999999755
 30
0.0
 11
1082.801515189971
 21
1069.701515189973
 31
0.0
  0
LINE
  5
424
330
1F
100
AcDbEntity
  8
LAY-10
  6
CONTINUOUS
 62
     7
100
AcDbLine
 10
1458.301515190017
 20
1055.099999999849
 30
0.0
 11
1408.301515190017
 21
1055.099999999849
 31
0.0
  0
LINE
  5
425
330
1F
100
AcDbEntity
  8
LAY-10
  6
CONTINUOUS
 62
     7
100
AcDbLine
 10
1408.301515190017
 20
1105.099999999749
 30
0.0
 11
1408.301515190017
 21
1055.099999999849
 31
0.0
  0
CIRCLE
  5
426
330
1F
100
AcDbEntity
  8
LAY-10
  6
CONTINUOUS
 62
     7
100
AcDbCircle
 10
1433.301515190002
 20
1080.099999999849
 30
0.0
 40
7.5
  0
LINE
  5
427
330
1F
100
AcDbEntity
  8
LAY-10
  6
CONTINUOUS
 62
     7
100
AcDbLine
 10
1458.301515190017
 20
1105.099999999749
 30
0.0
 11
1458.301515190017
 21
1055.099999999849
 31
0.0
  0
LINE
  5
428
330
1F
100
AcDbEntity
  8
LAY-10
  6
CONTINUOUS
 62
     7
100
AcDbLine
 10
581.3015151897987
 20
726.1792929682498
 30
0.0
 11
581.3015151897987
 21
730.6792929682498
 31
0.0
  0
LINE
  5
429
330
1F
100
AcDbEntity
  8
LAY-10
  6
CONTINUOUS
 62
     7
100
AcDbLine
 10
586.3015151898242
 20
726.1792989683028
 30
0.0
 11
586.3015151898242
 21
661.1792989683037
 31
0.0
  0
LINE
  5
42A
330
1F
100
AcDbEntity
  8
LAY-10
  6
CONTINUOUS
 62
     7
100
AcDbLine
 10
592.3015151898242
 20
726.1792989683028
 30
0.0
 11
592.3015151898242
 21
661.1792989683037
 31
0.0
  0
LINE
  5
42B
330
1F
100
AcDbEntity
  8
LAY-10
  6
CONTINUOUS
 62
     7
100
AcDbLine
 10
573.3015151900206
 20
730.6792929682525
 30
0.0
 11
579.3015151900643
 21
730.6792929682525
 31
0.0
  0
LINE
  5
42C
330
1F
100
AcDbEntity
  8
LAY-10
  6
CONTINUOUS
 62
     7
100
AcDbLine
 10
579.3015151900643
 20
730.6792929682806
 30
0.0
 11
579.3015151900624
 21
569.6792929682816
 31
0.0
  0
LINE
  5
42D
330
1F
100
AcDbEntity
  8
LAY-10
  6
CONTINUOUS
 62
     7
100
AcDbLine
 10
573.3015151900643
 20
730.6792929682806
 30
0.0
 11
573.3015151900643
 21
569.6792929682816
 31
0.0
  0
LINE
  5
42E
330
1F
100
AcDbEntity
  8
LAY-10
  6
CONTINUOUS
 62
     7
100
AcDbLine
 10
628.3015151901188
 20
560.6792929682825
 30
0.0
 11
582.3015151900206
 21
560.6792929682825
 31
0.0
  0
LINE
  5
42F
330
1F
100
AcDbEntity
  8
LAY-10
  6
CONTINUOUS
 62
     7
100
AcDbLine
 10
529.9461761307382
 20
633.3239539089865
 30
0.0
 11
565.3015151900606
 21
668.6792929683126
 31
0.0
  0
LINE
  5
430
330
1F
100
AcDbEntity
  8
LAY-10
  6
CONTINUOUS
 62
     7
100
AcDbLine
 10
535.6030303802261
 20
627.667099659495
 30
0.0
 11
529.9461761307382
 21
633.3239539089865
 31
0.0
  0
LINE
  5
431
330
1F
100
AcDbEntity
  8
LAY-10
  6
CONTINUOUS
 62
     7
100
AcDbLine
 10
535.6030303802261
 20
627.667099659495
 30
0.0
 11
570.9583694395576
 21
663.0224387188227
 31
0.0
  0
ARC
  5
432
330
1F
100
AcDbEntity
  8
LAY-10
  6
CONTINUOUS
 62
     7
100
AcDbCircle
 10
565.3015151900606
 20
668.6792929683126
 30
0.0
 40
8.0
100
AcDbArc
 50
315.0000000000093
 51
0.0
  0
LINE
  5
433
330
1F
100
AcDbEntity
  8
LAY-10
  6
CONTINUOUS
 62
     7
100
AcDbLine
 10
565.3015151900606
 20
668.6792929683126
 30
0.0
 11
565.3015151900606
 21
699.8655844693277
 31
0.0
  0
LINE
  5
434
330
1F
100
AcDbEntity
  8
LAY-10
  6
CONTINUOUS
 62
     7
100
AcDbLine
 10
565.3015151900606
 20
699.8655844693277
 30
0.0
 11
573.3015151900643
 21
699.8655844693277
 31
0.0
  0
LINE
  5
435
330
1F
100
AcDbEntity
  8
LAY-10
  6
CONTINUOUS
 62
     7
100
AcDbLine
 10
1077.301515189799
 20
726.1792929682534
 30
0.0
 11
1077.301515189799
 21
730.6792929682543
 31
0.0
  0
LINE
  5
436
330
1F
100
AcDbEntity
  8
LAY-10
  6
CONTINUOUS
 62
     7
100
AcDbLine
 10
581.3015151898096
 20
730.6792929682507
 30
0.0
 11
1077.301515189819
 21
730.6792929682543
 31
0.0
  0
LINE
  5
437
330
1F
100
AcDbEntity
  8
LAY-10
  6
CONTINUOUS
 62
     7
100
AcDbLine
 10
1072.301515189817
 20
726.1792989683064
 30
0.0
 11
1072.301515189817
 21
661.1792989683064
 31
0.0
  0
LINE
  5
438
330
1F
100
AcDbEntity
  8
LAY-10
  6
CONTINUOUS
 62
     7
100
AcDbLine
 10
1066.301515189816
 20
726.1792989683064
 30
0.0
 11
1066.301515189816
 21
661.1792989683064
 31
0.0
  0
LINE
  5
439
330
1F
100
AcDbEntity
  8
LAY-10
  6
CONTINUOUS
 62
     7
100
AcDbLine
 10
581.3015151898096
 20
726.1792929682506
 30
0.0
 11
1077.301515189819
 21
726.1792929682534
 31
0.0
  0
LINE
  5
43A
330
1F
100
AcDbEntity
  8
LAY-10
  6
CONTINUOUS
 62
     7
100
AcDbLine
 10
791.8015151897663
 20
583.1792929682528
 30
0.0
 11
816.8015151897663
 21
583.1792929682528
 31
0.0
  0
LINE
  5
43B
330
1F
100
AcDbEntity
  8
LAY-10
  6
CONTINUOUS
 62
     7
100
AcDbLine
 10
791.8015151897663
 20
719.1792929682528
 30
0.0
 11
816.8015151897663
 21
719.1792929682528
 31
0.0
  0
LINE
  5
43C
330
1F
100
AcDbEntity
  8
LAY-10
  6
CONTINUOUS
 62
     7
100
AcDbLine
 10
791.8015151897663
 20
583.1792929682528
 30
0.0
 11
791.8015151897663
 21
576.1792929682528
 31
0.0
  0
LINE
  5
43D
330
1F
100
AcDbEntity
  8
LAY-10
  6
CONTINUOUS
 62
     7
100
AcDbLine
 10
791.8015151897663
 20
719.1792929682528
 30
0.0
 11
791.8015151897663
 21
726.1792929682528
 31
0.0
  0
LINE
  5
43E
330
1F
100
AcDbEntity
  8
LAY-10
  6
CONTINUOUS
 62
     7
100
AcDbLine
 10
831.8015151897663
 20
709.1792929682528
 30
0.0
 11
831.8015151897663
 21
593.1792929682546
 31
0.0
  0
LINE
  5
43F
330
1F
100
AcDbEntity
  8
LAY-10
  6
CONTINUOUS
 62
     7
100
AcDbLine
 10
826.8015151897644
 20
709.1792929682528
 30
0.0
 11
826.8015151897644
 21
593.1792929682546
 31
0.0
  0
LINE
  5
440
330
1F
100
AcDbEntity
  8
LAY-10
  6
CONTINUOUS
 62
     7
100
AcDbLine
 10
841.8015151897644
 20
583.1792929682528
 30
0.0
 11
866.8015151897663
 21
583.1792929682528
 31
0.0
  0
ARC
  5
441
330
1F
100
AcDbEntity
  8
LAY-10
  6
CONTINUOUS
 62
     7
100
AcDbCircle
 10
841.8015151897644
 20
593.1792929682546
 30
0.0
 40
10.0
100
AcDbArc
 50
180.0
 51
270.0
  0
ARC
  5
442
330
1F
100
AcDbEntity
  8
LAY-10
  6
CONTINUOUS
 62
     7
100
AcDbCircle
 10
816.8015151897663
 20
593.1792929682546
 30
0.0
 40
10.0
100
AcDbArc
 50
270.0
 51
0.0
  0
LINE
  5
443
330
1F
100
AcDbEntity
  8
LAY-10
  6
CONTINUOUS
 62
     7
100
AcDbLine
 10
866.8015151897663
 20
576.1792929682528
 30
0.0
 11
866.8015151897663
 21
583.1792929682528
 31
0.0
  0
LINE
  5
444
330
1F
100
AcDbEntity
  8
LAY-10
  6
CONTINUOUS
 62
     7
100
AcDbLine
 10
841.8015151897644
 20
719.1792929682528
 30
0.0
 11
866.8015151897663
 21
719.1792929682528
 31
0.0
  0
ARC
  5
445
330
1F
100
AcDbEntity
  8
LAY-10
  6
CONTINUOUS
 62
     7
100
AcDbCircle
 10
841.8015151897644
 20
709.1792929682528
 30
0.0
 40
10.0
100
AcDbArc
 50
90.00000000000001
 51
180.0
  0
ARC
  5
446
330
1F
100
AcDbEntity
  8
LAY-10
  6
CONTINUOUS
 62
     7
100
AcDbCircle
 10
816.8015151897663
 20
709.1792929682528
 30
0.0
 40
10.0
100
AcDbArc
 50
0.0
 51
90.00000000000001
  0
LINE
  5
447
330
1F
100
AcDbEntity
  8
LAY-10
  6
CONTINUOUS
 62
     7
100
AcDbLine
 10
866.8015151897663
 20
719.1792929682528
 30
0.0
 11
866.8015151897663
 21
726.1792929682528
 31
0.0
  0
LINE
  5
448
330
1F
100
AcDbEntity
  8
LAY-10
  6
CONTINUOUS
 62
     7
100
AcDbLine
 10
641.8015151897625
 20
719.1792929683528
 30
0.0
 11
666.8015151897644
 21
719.1792929683528
 31
0.0
  0
LINE
  5
449
330
1F
100
AcDbEntity
  8
LAY-10
  6
CONTINUOUS
 62
     7
100
AcDbLine
 10
641.8015151897625
 20
583.1792929683528
 30
0.0
 11
666.8015151897607
 21
583.1792929683528
 31
0.0
  0
LINE
  5
44A
330
1F
100
AcDbEntity
  8
LAY-10
  6
CONTINUOUS
 62
     7
100
AcDbLine
 10
641.8015151897625
 20
719.1792929683528
 30
0.0
 11
641.8015151897625
 21
726.1792929683528
 31
0.0
  0
LINE
  5
44B
330
1F
100
AcDbEntity
  8
LAY-10
  6
CONTINUOUS
 62
     7
100
AcDbLine
 10
716.8015151897625
 20
719.1792929683528
 30
0.0
 11
716.8015151897625
 21
726.1792929683528
 31
0.0
  0
LINE
  5
44C
330
1F
100
AcDbEntity
  8
LAY-10
  6
CONTINUOUS
 62
     7
100
AcDbLine
 10
716.8015151897625
 20
576.1792929683528
 30
0.0
 11
716.8015151897625
 21
583.1792929683528
 31
0.0
  0
LINE
  5
44D
330
1F
100
AcDbEntity
  8
LAY-10
  6
CONTINUOUS
 62
     7
100
AcDbLine
 10
676.8015151897644
 20
709.1792929683528
 30
0.0
 11
676.8015151897644
 21
593.1792929683528
 31
0.0
  0
LINE
  5
44E
330
1F
100
AcDbEntity
  8
LAY-10
  6
CONTINUOUS
 62
     7
100
AcDbLine
 10
681.8015151897644
 20
709.1792929683528
 30
0.0
 11
681.8015151897644
 21
593.1792929683528
 31
0.0
  0
LINE
  5
44F
330
1F
100
AcDbEntity
  8
LAY-10
  6
CONTINUOUS
 62
     7
100
AcDbLine
 10
691.8015151897644
 20
719.1792929683528
 30
0.0
 11
716.8015151897625
 21
719.1792929683528
 31
0.0
  0
LINE
  5
450
330
1F
100
AcDbEntity
  8
LAY-10
  6
CONTINUOUS
 62
     7
100
AcDbLine
 10
691.8015151897644
 20
583.1792929683528
 30
0.0
 11
716.8015151897625
 21
583.1792929683528
 31
0.0
  0
ARC
  5
451
330
1F
100
AcDbEntity
  8
LAY-10
  6
CONTINUOUS
 62
     7
100
AcDbCircle
 10
666.8015151897607
 20
593.1792929683528
 30
0.0
 40
10.0
100
AcDbArc
 50
270.0
 51
0.0
  0
ARC
  5
452
330
1F
100
AcDbEntity
  8
LAY-10
  6
CONTINUOUS
 62
     7
100
AcDbCircle
 10
691.8015151897644
 20
593.1792929683528
 30
0.0
 40
10.0
100
AcDbArc
 50
180.0
 51
270.0
  0
ARC
  5
453
330
1F
100
AcDbEntity
  8
LAY-10
  6
CONTINUOUS
 62
     7
100
AcDbCircle
 10
666.8015151897644
 20
709.1792929683528
 30
0.0
 40
10.0
100
AcDbArc
 50
0.0
 51
90.00000000000001
  0
ARC
  5
454
330
1F
100
AcDbEntity
  8
LAY-10
  6
CONTINUOUS
 62
     7
100
AcDbCircle
 10
691.8015151897644
 20
709.1792929683528
 30
0.0
 40
10.0
100
AcDbArc
 50
90.00000000000001
 51
180.0
  0
LINE
  5
455
330
1F
100
AcDbEntity
  8
LAY-10
  6
CONTINUOUS
 62
     7
100
AcDbLine
 10
641.8015151897625
 20
583.1792929683528
 30
0.0
 11
641.8015151897625
 21
571.6792929683273
 31
0.0
  0
LINE
  5
456
330
1F
100
AcDbEntity
  8
LAY-10
  6
CONTINUOUS
 62
     7
100
AcDbLine
 10
826.8015151897644
 20
661.179298968253
 30
0.0
 11
681.8015151897644
 21
661.179298968353
 31
0.0
  0
LINE
  5
457
330
1F
100
AcDbEntity
  8
LAY-10
  6
CONTINUOUS
 62
     7
100
AcDbLine
 10
941.8015151897644
 20
583.1792929683528
 30
0.0
 11
966.8015151897625
 21
583.1792929683528
 31
0.0
  0
LINE
  5
458
330
1F
100
AcDbEntity
  8
LAY-10
  6
CONTINUOUS
 62
     7
100
AcDbLine
 10
941.8015151897644
 20
719.1792929683528
 30
0.0
 11
966.8015151897644
 21
719.1792929683528
 31
0.0
  0
LINE
  5
459
330
1F
100
AcDbEntity
  8
LAY-10
  6
CONTINUOUS
 62
     7
100
AcDbLine
 10
941.8015151897644
 20
583.1792929683528
 30
0.0
 11
941.8015151897644
 21
576.1792929683528
 31
0.0
  0
LINE
  5
45A
330
1F
100
AcDbEntity
  8
LAY-10
  6
CONTINUOUS
 62
     7
100
AcDbLine
 10
941.8015151897644
 20
719.1792929683528
 30
0.0
 11
941.8015151897644
 21
726.1792929683528
 31
0.0
  0
LINE
  5
45B
330
1F
100
AcDbEntity
  8
LAY-10
  6
CONTINUOUS
 62
     7
100
AcDbLine
 10
981.8015151897644
 20
709.1792929683528
 30
0.0
 11
981.8015151897644
 21
593.1792929683528
 31
0.0
  0
LINE
  5
45C
330
1F
100
AcDbEntity
  8
LAY-10
  6
CONTINUOUS
 62
     7
100
AcDbLine
 10
976.8015151897646
 20
709.1792929683528
 30
0.0
 11
976.8015151897629
 21
593.1792929683528
 31
0.0
  0
LINE
  5
45D
330
1F
100
AcDbEntity
  8
LAY-10
  6
CONTINUOUS
 62
     7
100
AcDbLine
 10
991.8015151897629
 20
583.1792929683528
 30
0.0
 11
1016.801515189764
 21
583.1792929683528
 31
0.0
  0
ARC
  5
45E
330
1F
100
AcDbEntity
  8
LAY-10
  6
CONTINUOUS
 62
     7
100
AcDbCircle
 10
991.8015151897629
 20
593.1792929683528
 30
0.0
 40
10.0
100
AcDbArc
 50
180.0
 51
270.0
  0
ARC
  5
45F
330
1F
100
AcDbEntity
  8
LAY-10
  6
CONTINUOUS
 62
     7
100
AcDbCircle
 10
966.8015151897625
 20
593.1792929683528
 30
0.0
 40
10.0
100
AcDbArc
 50
270.0
 51
0.0
  0
LINE
  5
460
330
1F
100
AcDbEntity
  8
LAY-10
  6
CONTINUOUS
 62
     7
100
AcDbLine
 10
991.8015151897629
 20
719.1792929683528
 30
0.0
 11
1016.801515189764
 21
719.1792929683528
 31
0.0
  0
ARC
  5
461
330
1F
100
AcDbEntity
  8
LAY-10
  6
CONTINUOUS
 62
     7
100
AcDbCircle
 10
991.8015151897629
 20
709.1792929683528
 30
0.0
 40
10.0
100
AcDbArc
 50
90.00000000000001
 51
180.0
  0
ARC
  5
462
330
1F
100
AcDbEntity
  8
LAY-10
  6
CONTINUOUS
 62
     7
100
AcDbCircle
 10
966.8015151897644
 20
709.1792929683528
 30
0.0
 40
10.0
100
AcDbArc
 50
0.0
 51
90.00000000000001
  0
LINE
  5
463
330
1F
100
AcDbEntity
  8
LAY-10
  6
CONTINUOUS
 62
     7
100
AcDbLine
 10
1016.801515189764
 20
719.1792929683528
 30
0.0
 11
1016.801515189764
 21
726.1792929683528
 31
0.0
  0
LINE
  5
464
330
1F
100
AcDbEntity
  8
LAY-10
  6
CONTINUOUS
 62
     7
100
AcDbLine
 10
1016.801515189764
 20
571.6792929683255
 30
0.0
 11
1016.801515189764
 21
583.1792929683528
 31
0.0
  0
LINE
  5
465
330
1F
100
AcDbEntity
  8
LAY-10
  6
CONTINUOUS
 62
     7
100
AcDbLine
 10
976.8015151897629
 20
661.179298968353
 30
0.0
 11
831.8015151897663
 21
661.179298968253
 31
0.0
  0
LINE
  5
466
330
1F
100
AcDbEntity
  8
LAY-10
  6
CONTINUOUS
 62
     7
100
AcDbLine
 10
676.8015151897644
 20
661.1792989683019
 30
0.0
 11
586.3015151898242
 21
661.1792989683028
 31
0.0
  0
LINE
  5
467
330
1F
100
AcDbEntity
  8
LAY-10
  6
CONTINUOUS
 62
     7
100
AcDbLine
 10
1072.301515189817
 20
661.1792989683064
 30
0.0
 11
981.8015151897644
 21
661.1792989683064
 31
0.0
  0
LINE
  5
468
330
1F
100
AcDbEntity
  8
LAY-10
  6
CONTINUOUS
 62
     7
100
AcDbLine
 10
1583.301515189799
 20
730.6792929682525
 30
0.0
 11
1577.301515189755
 21
730.6792929682525
 31
0.0
  0
LINE
  5
469
330
1F
100
AcDbEntity
  8
LAY-10
  6
CONTINUOUS
 62
     7
100
AcDbLine
 10
1577.301515189755
 20
730.6792929682798
 30
0.0
 11
1577.301515189761
 21
569.6792929682816
 31
0.0
  0
LINE
  5
46A
330
1F
100
AcDbEntity
  8
LAY-10
  6
CONTINUOUS
 62
     7
100
AcDbLine
 10
1583.301515189757
 20
730.6792929682798
 30
0.0
 11
1583.301515189761
 21
569.6792929682816
 31
0.0
  0
LINE
  5
46B
330
1F
100
AcDbEntity
  8
LAY-10
  6
CONTINUOUS
 62
     7
100
AcDbLine
 10
1528.30151518973
 20
560.6792929682816
 30
0.0
 11
1528.30151518973
 21
566.6792929682998
 31
0.0
  0
LINE
  5
46C
330
1F
100
AcDbEntity
  8
LAY-10
  6
CONTINUOUS
 62
     7
100
AcDbLine
 10
1626.656854249087
 20
633.3239539089856
 30
0.0
 11
1591.301515189759
 21
668.6792929683126
 31
0.0
  0
LINE
  5
46D
330
1F
100
AcDbEntity
  8
LAY-10
  6
CONTINUOUS
 62
     7
100
AcDbLine
 10
1620.999999999597
 20
627.667099659495
 30
0.0
 11
1626.656854249087
 21
633.3239539089856
 31
0.0
  0
LINE
  5
46E
330
1F
100
AcDbEntity
  8
LAY-10
  6
CONTINUOUS
 62
     7
100
AcDbLine
 10
1620.999999999597
 20
627.667099659495
 30
0.0
 11
1585.644660940267
 21
663.022438718822
 31
0.0
  0
ARC
  5
46F
330
1F
100
AcDbEntity
  8
LAY-10
  6
CONTINUOUS
 62
     7
100
AcDbCircle
 10
1591.301515189759
 20
668.6792929683126
 30
0.0
 40
8.0
100
AcDbArc
 50
180.0
 51
224.9999999999908
  0
LINE
  5
470
330
1F
100
AcDbEntity
  8
LAY-10
  6
CONTINUOUS
 62
     7
100
AcDbLine
 10
1591.301515189759
 20
668.6792929683126
 30
0.0
 11
1591.301515189759
 21
699.8655844693277
 31
0.0
  0
LINE
  5
471
330
1F
100
AcDbEntity
  8
LAY-10
  6
CONTINUOUS
 62
     7
100
AcDbLine
 10
1591.301515189759
 20
699.8655844693277
 30
0.0
 11
1583.301515189761
 21
699.8655844693277
 31
0.0
  0
LINE
  5
472
330
1F
100
AcDbEntity
  8
LAY-10
  6
CONTINUOUS
 62
     7
100
AcDbLine
 10
1528.30151518973
 20
560.6792929682816
 30
0.0
 11
1574.301515189804
 21
560.6792929682816
 31
0.0
  0
LINE
  5
473
330
1F
100
AcDbEntity
  8
LAY-10
  6
CONTINUOUS
 62
     7
100
AcDbLine
 10
1575.301515190024
 20
726.1792929682495
 30
0.0
 11
1575.301515190024
 21
730.6792929682496
 31
0.0
  0
LINE
  5
474
330
1F
100
AcDbEntity
  8
LAY-10
  6
CONTINUOUS
 62
     7
100
AcDbLine
 10
1570.301515189999
 20
726.1792989683025
 30
0.0
 11
1570.301515189999
 21
661.1792989683037
 31
0.0
  0
LINE
  5
475
330
1F
100
AcDbEntity
  8
LAY-10
  6
CONTINUOUS
 62
     7
100
AcDbLine
 10
1564.301515189999
 20
726.1792989683025
 30
0.0
 11
1564.301515189999
 21
661.1792989683037
 31
0.0
  0
LINE
  5
476
330
1F
100
AcDbEntity
  8
LAY-10
  6
CONTINUOUS
 62
     7
100
AcDbLine
 10
1079.301515190024
 20
726.1792929682534
 30
0.0
 11
1079.301515190024
 21
730.6792929682543
 31
0.0
  0
LINE
  5
477
330
1F
100
AcDbEntity
  8
LAY-10
  6
CONTINUOUS
 62
     7
100
AcDbLine
 10
1575.301515190013
 20
730.6792929682505
 30
0.0
 11
1079.301515190004
 21
730.6792929682543
 31
0.0
  0
LINE
  5
478
330
1F
100
AcDbEntity
  8
LAY-10
  6
CONTINUOUS
 62
     7
100
AcDbLine
 10
1084.301515190006
 20
726.1792989683064
 30
0.0
 11
1084.301515190006
 21
661.1792989683064
 31
0.0
  0
LINE
  5
479
330
1F
100
AcDbEntity
  8
LAY-10
  6
CONTINUOUS
 62
     7
100
AcDbLine
 10
1090.301515190007
 20
726.1792989683064
 30
0.0
 11
1090.301515190007
 21
661.1792989683064
 31
0.0
  0
LINE
  5
47A
330
1F
100
AcDbEntity
  8
LAY-10
  6
CONTINUOUS
 62
     7
100
AcDbLine
 10
1575.301515190013
 20
726.1792929682505
 30
0.0
 11
1079.301515190004
 21
726.1792929682534
 31
0.0
  0
LINE
  5
47B
330
1F
100
AcDbEntity
  8
LAY-10
  6
CONTINUOUS
 62
     7
100
AcDbLine
 10
1364.801515190057
 20
583.1792929682528
 30
0.0
 11
1339.801515190057
 21
583.1792929682528
 31
0.0
  0
LINE
  5
47C
330
1F
100
AcDbEntity
  8
LAY-10
  6
CONTINUOUS
 62
     7
100
AcDbLine
 10
1364.801515190057
 20
719.1792929682528
 30
0.0
 11
1339.801515190057
 21
719.1792929682528
 31
0.0
  0
LINE
  5
47D
330
1F
100
AcDbEntity
  8
LAY-10
  6
CONTINUOUS
 62
     7
100
AcDbLine
 10
1364.801515190057
 20
583.1792929682528
 30
0.0
 11
1364.801515190057
 21
576.1792929682528
 31
0.0
  0
LINE
  5
47E
330
1F
100
AcDbEntity
  8
LAY-10
  6
CONTINUOUS
 62
     7
100
AcDbLine
 10
1364.801515190057
 20
719.1792929682528
 30
0.0
 11
1364.801515190057
 21
726.1792929682528
 31
0.0
  0
LINE
  5
47F
330
1F
100
AcDbEntity
  8
LAY-10
  6
CONTINUOUS
 62
     7
100
AcDbLine
 10
1324.801515190057
 20
709.1792929682528
 30
0.0
 11
1324.801515190057
 21
593.1792929682546
 31
0.0
  0
LINE
  5
480
330
1F
100
AcDbEntity
  8
LAY-10
  6
CONTINUOUS
 62
     7
100
AcDbLine
 10
1329.801515190059
 20
709.1792929682528
 30
0.0
 11
1329.801515190058
 21
593.1792929682546
 31
0.0
  0
LINE
  5
481
330
1F
100
AcDbEntity
  8
LAY-10
  6
CONTINUOUS
 62
     7
100
AcDbLine
 10
1314.801515190058
 20
583.1792929682528
 30
0.0
 11
1289.801515190057
 21
583.1792929682528
 31
0.0
  0
ARC
  5
482
330
1F
100
AcDbEntity
  8
LAY-10
  6
CONTINUOUS
 62
     7
100
AcDbCircle
 10
1314.801515190058
 20
593.1792929682546
 30
0.0
 40
10.0
100
AcDbArc
 50
270.0
 51
0.0
  0
ARC
  5
483
330
1F
100
AcDbEntity
  8
LAY-10
  6
CONTINUOUS
 62
     7
100
AcDbCircle
 10
1339.801515190057
 20
593.1792929682546
 30
0.0
 40
10.0
100
AcDbArc
 50
180.0
 51
270.0
  0
LINE
  5
484
330
1F
100
AcDbEntity
  8
LAY-10
  6
CONTINUOUS
 62
     7
100
AcDbLine
 10
1289.801515190057
 20
576.1792929682528
 30
0.0
 11
1289.801515190057
 21
583.1792929682528
 31
0.0
  0
LINE
  5
485
330
1F
100
AcDbEntity
  8
LAY-10
  6
CONTINUOUS
 62
     7
100
AcDbLine
 10
1314.801515190059
 20
719.1792929682528
 30
0.0
 11
1289.801515190057
 21
719.1792929682528
 31
0.0
  0
ARC
  5
486
330
1F
100
AcDbEntity
  8
LAY-10
  6
CONTINUOUS
 62
     7
100
AcDbCircle
 10
1314.801515190059
 20
709.1792929682528
 30
0.0
 40
10.0
100
AcDbArc
 50
0.0
 51
90.00000000000001
  0
ARC
  5
487
330
1F
100
AcDbEntity
  8
LAY-10
  6
CONTINUOUS
 62
     7
100
AcDbCircle
 10
1339.801515190057
 20
709.1792929682528
 30
0.0
 40
10.0
100
AcDbArc
 50
90.00000000000001
 51
180.0
  0
LINE
  5
488
330
1F
100
AcDbEntity
  8
LAY-10
  6
CONTINUOUS
 62
     7
100
AcDbLine
 10
1289.801515190057
 20
719.1792929682528
 30
0.0
 11
1289.801515190057
 21
726.1792929682528
 31
0.0
  0
LINE
  5
489
330
1F
100
AcDbEntity
  8
LAY-10
  6
CONTINUOUS
 62
     7
100
AcDbLine
 10
1514.80151519006
 20
719.1792929683528
 30
0.0
 11
1489.801515190059
 21
719.1792929683528
 31
0.0
  0
LINE
  5
48A
330
1F
100
AcDbEntity
  8
LAY-10
  6
CONTINUOUS
 62
     7
100
AcDbLine
 10
1514.80151519006
 20
583.1792929683526
 30
0.0
 11
1489.801515190062
 21
583.1792929683526
 31
0.0
  0
LINE
  5
48B
330
1F
100
AcDbEntity
  8
LAY-10
  6
CONTINUOUS
 62
     7
100
AcDbLine
 10
1514.80151519006
 20
719.1792929683528
 30
0.0
 11
1514.80151519006
 21
726.1792929683528
 31
0.0
  0
LINE
  5
48C
330
1F
100
AcDbEntity
  8
LAY-10
  6
CONTINUOUS
 62
     7
100
AcDbLine
 10
1439.80151519006
 20
719.1792929683528
 30
0.0
 11
1439.80151519006
 21
726.1792929683528
 31
0.0
  0
LINE
  5
48D
330
1F
100
AcDbEntity
  8
LAY-10
  6
CONTINUOUS
 62
     7
100
AcDbLine
 10
1439.80151519006
 20
576.1792929683528
 30
0.0
 11
1439.80151519006
 21
583.1792929683528
 31
0.0
  0
LINE
  5
48E
330
1F
100
AcDbEntity
  8
LAY-10
  6
CONTINUOUS
 62
     7
100
AcDbLine
 10
1479.801515190059
 20
709.1792929683528
 30
0.0
 11
1479.801515190058
 21
593.1792929683528
 31
0.0
  0
LINE
  5
48F
330
1F
100
AcDbEntity
  8
LAY-10
  6
CONTINUOUS
 62
     7
100
AcDbLine
 10
1474.801515190059
 20
709.1792929683528
 30
0.0
 11
1474.801515190058
 21
593.1792929683528
 31
0.0
  0
LINE
  5
490
330
1F
100
AcDbEntity
  8
LAY-10
  6
CONTINUOUS
 62
     7
100
AcDbLine
 10
1464.801515190059
 20
719.1792929683528
 30
0.0
 11
1439.80151519006
 21
719.1792929683528
 31
0.0
  0
LINE
  5
491
330
1F
100
AcDbEntity
  8
LAY-10
  6
CONTINUOUS
 62
     7
100
AcDbLine
 10
1464.801515190058
 20
583.1792929683528
 30
0.0
 11
1439.80151519006
 21
583.1792929683528
 31
0.0
  0
ARC
  5
492
330
1F
100
AcDbEntity
  8
LAY-10
  6
CONTINUOUS
 62
     7
100
AcDbCircle
 10
1489.801515190062
 20
593.1792929683526
 30
0.0
 40
10.0
100
AcDbArc
 50
179.9999999999987
 51
270.0
  0
ARC
  5
493
330
1F
100
AcDbEntity
  8
LAY-10
  6
CONTINUOUS
 62
     7
100
AcDbCircle
 10
1464.801515190058
 20
593.1792929683528
 30
0.0
 40
10.0
100
AcDbArc
 50
270.0
 51
0.0
  0
ARC
  5
494
330
1F
100
AcDbEntity
  8
LAY-10
  6
CONTINUOUS
 62
     7
100
AcDbCircle
 10
1489.801515190059
 20
709.1792929683528
 30
0.0
 40
10.0
100
AcDbArc
 50
90.00000000000001
 51
180.0
  0
ARC
  5
495
330
1F
100
AcDbEntity
  8
LAY-10
  6
CONTINUOUS
 62
     7
100
AcDbCircle
 10
1464.801515190059
 20
709.1792929683528
 30
0.0
 40
10.0
100
AcDbArc
 50
0.0
 51
90.00000000000001
  0
LINE
  5
496
330
1F
100
AcDbEntity
  8
LAY-10
  6
CONTINUOUS
 62
     7
100
AcDbLine
 10
1514.80151519006
 20
583.1792929683526
 30
0.0
 11
1514.80151519006
 21
571.6792929683271
 31
0.0
  0
LINE
  5
497
330
1F
100
AcDbEntity
  8
LAY-10
  6
CONTINUOUS
 62
     7
100
AcDbLine
 10
1329.801515190058
 20
661.179298968253
 30
0.0
 11
1474.801515190059
 21
661.179298968353
 31
0.0
  0
LINE
  5
498
330
1F
100
AcDbEntity
  8
LAY-10
  6
CONTINUOUS
 62
     7
100
AcDbLine
 10
1214.801515190058
 20
583.1792929683528
 30
0.0
 11
1189.80151519006
 21
583.1792929683528
 31
0.0
  0
LINE
  5
499
330
1F
100
AcDbEntity
  8
LAY-10
  6
CONTINUOUS
 62
     7
100
AcDbLine
 10
1214.801515190059
 20
719.1792929683528
 30
0.0
 11
1189.801515190058
 21
719.1792929683528
 31
0.0
  0
LINE
  5
49A
330
1F
100
AcDbEntity
  8
LAY-10
  6
CONTINUOUS
 62
     7
100
AcDbLine
 10
1214.801515190058
 20
583.1792929683528
 30
0.0
 11
1214.801515190058
 21
576.1792929683528
 31
0.0
  0
LINE
  5
49B
330
1F
100
AcDbEntity
  8
LAY-10
  6
CONTINUOUS
 62
     7
100
AcDbLine
 10
1214.801515190059
 20
719.1792929683528
 30
0.0
 11
1214.801515190059
 21
726.1792929683528
 31
0.0
  0
LINE
  5
49C
330
1F
100
AcDbEntity
  8
LAY-10
  6
CONTINUOUS
 62
     7
100
AcDbLine
 10
1174.801515190058
 20
709.1792929683528
 30
0.0
 11
1174.801515190058
 21
593.1792929683528
 31
0.0
  0
LINE
  5
49D
330
1F
100
AcDbEntity
  8
LAY-10
  6
CONTINUOUS
 62
     7
100
AcDbLine
 10
1179.801515190058
 20
709.1792929683528
 30
0.0
 11
1179.80151519006
 21
593.1792929683528
 31
0.0
  0
LINE
  5
49E
330
1F
100
AcDbEntity
  8
LAY-10
  6
CONTINUOUS
 62
     7
100
AcDbLine
 10
1164.80151519006
 20
583.1792929683528
 30
0.0
 11
1139.801515190058
 21
583.1792929683528
 31
0.0
  0
ARC
  5
49F
330
1F
100
AcDbEntity
  8
LAY-10
  6
CONTINUOUS
 62
     7
100
AcDbCircle
 10
1164.80151519006
 20
593.1792929683528
 30
0.0
 40
10.0
100
AcDbArc
 50
270.0
 51
0.0
  0
ARC
  5
4A0
330
1F
100
AcDbEntity
  8
LAY-10
  6
CONTINUOUS
 62
     7
100
AcDbCircle
 10
1189.80151519006
 20
593.1792929683528
 30
0.0
 40
10.0
100
AcDbArc
 50
180.0
 51
270.0
  0
LINE
  5
4A1
330
1F
100
AcDbEntity
  8
LAY-10
  6
CONTINUOUS
 62
     7
100
AcDbLine
 10
1164.80151519006
 20
719.1792929683528
 30
0.0
 11
1139.801515190058
 21
719.1792929683528
 31
0.0
  0
ARC
  5
4A2
330
1F
100
AcDbEntity
  8
LAY-10
  6
CONTINUOUS
 62
     7
100
AcDbCircle
 10
1164.80151519006
 20
709.1792929683528
 30
0.0
 40
10.0
100
AcDbArc
 50
0.0
 51
90.00000000000001
  0
ARC
  5
4A3
330
1F
100
AcDbEntity
  8
LAY-10
  6
CONTINUOUS
 62
     7
100
AcDbCircle
 10
1189.801515190058
 20
709.1792929683528
 30
0.0
 40
10.0
100
AcDbArc
 50
90.00000000000001
 51
180.0
  0
LINE
  5
4A4
330
1F
100
AcDbEntity
  8
LAY-10
  6
CONTINUOUS
 62
     7
100
AcDbLine
 10
1139.801515190058
 20
719.1792929683528
 30
0.0
 11
1139.801515190058
 21
726.1792929683528
 31
0.0
  0
LINE
  5
4A5
330
1F
100
AcDbEntity
  8
LAY-10
  6
CONTINUOUS
 62
     7
100
AcDbLine
 10
1139.801515190058
 20
571.6792929683255
 30
0.0
 11
1139.801515190058
 21
583.1792929683528
 31
0.0
  0
LINE
  5
4A6
330
1F
100
AcDbEntity
  8
LAY-10
  6
CONTINUOUS
 62
     7
100
AcDbLine
 10
1179.80151519006
 20
661.179298968353
 30
0.0
 11
1324.801515190057
 21
661.179298968253
 31
0.0
  0
LINE
  5
4A7
330
1F
100
AcDbEntity
  8
LAY-10
  6
CONTINUOUS
 62
     7
100
AcDbLine
 10
1479.801515190059
 20
661.1792989683019
 30
0.0
 11
1570.301515189999
 21
661.1792989683028
 31
0.0
  0
LINE
  5
4A8
330
1F
100
AcDbEntity
  8
LAY-10
  6
CONTINUOUS
 62
     7
100
AcDbLine
 10
1084.301515190006
 20
661.1792989683064
 30
0.0
 11
1174.801515190058
 21
661.1792989683064
 31
0.0
  0
LINE
  5
4A9
330
1F
100
AcDbEntity
  8
LAY-10
  6
CONTINUOUS
 62
     7
100
AcDbLine
 10
1072.3015151898
 20
670.179292968253
 30
0.0
 11
1084.30151519
 21
670.179292968253
 31
0.0
  0
LINE
  5
4AA
330
1F
100
AcDbEntity
  8
LAY-10
  6
CONTINUOUS
 62
     7
100
AcDbLine
 10
1084.30151519
 20
675.179292968253
 30
0.0
 11
1072.3015151898
 21
675.179292968253
 31
0.0
  0
LINE
  5
4AB
330
1F
100
AcDbEntity
  8
LAY-10
  6
CONTINUOUS
 62
     7
100
AcDbLine
 10
1577.301515189757
 20
675.179292968253
 30
0.0
 11
1570.301515189999
 21
675.179292968253
 31
0.0
  0
LINE
  5
4AC
330
1F
100
AcDbEntity
  8
LAY-10
  6
CONTINUOUS
 62
     7
100
AcDbLine
 10
1570.301515189999
 20
670.179292968253
 30
0.0
 11
1577.301515189757
 21
670.1792929682532
 31
0.0
  0
LINE
  5
4AD
330
1F
100
AcDbEntity
  8
LAY-10
  6
CONTINUOUS
 62
     7
100
AcDbLine
 10
586.3015151898242
 20
675.179292968253
 30
0.0
 11
579.3015151900993
 21
675.179292968253
 31
0.0
  0
LINE
  5
4AE
330
1F
100
AcDbEntity
  8
LAY-10
  6
CONTINUOUS
 62
     7
100
AcDbLine
 10
579.3015151900993
 20
670.179292968253
 30
0.0
 11
586.3015151898242
 21
670.179292968253
 31
0.0
  0
LINE
  5
4AF
330
1F
100
AcDbEntity
  8
LAY-10
  6
CONTINUOUS
 62
     7
100
AcDbLine
 10
628.3015151900995
 20
560.6792929683
 30
0.0
 11
628.3015151900995
 21
566.6792929682739
 31
0.0
  0
LINE
  5
4B0
330
1F
100
AcDbEntity
  8
LAY-10
  6
CONTINUOUS
 62
     7
100
AcDbLine
 10
1574.301515189751
 20
571.6792929682707
 30
0.0
 11
582.3015151900879
 21
571.679292968278
 31
0.0
  0
ARC
  5
4B1
330
1F
100
AcDbEntity
  8
LAY-10
  6
CONTINUOUS
 62
     7
100
AcDbCircle
 10
582.3015151900606
 20
569.6792929682816
 30
0.0
 40
3.000000000000001
100
AcDbArc
 50
180.0
 51
270.0
  0
ARC
  5
4B2
330
1F
100
AcDbEntity
  8
LAY-10
  6
CONTINUOUS
 62
     7
100
AcDbCircle
 10
582.3015151900606
 20
569.6792929682816
 30
0.0
 40
9.0
100
AcDbArc
 50
180.0
 51
270.0
  0
LINE
  5
4B3
330
1F
100
AcDbEntity
  8
LAY-10
  6
CONTINUOUS
 62
     7
100
AcDbLine
 10
582.3015151900988
 20
566.6792929682998
 30
0.0
 11
582.3015151900988
 21
571.679292968278
 31
0.0
  0
ARC
  5
4B4
330
1F
100
AcDbEntity
  8
LAY-10
  6
CONTINUOUS
 62
     7
100
AcDbCircle
 10
1574.301515189759
 20
569.6792929682816
 30
0.0
 40
3.000000000000001
100
AcDbArc
 50
270.0
 51
0.0
  0
ARC
  5
4B5
330
1F
100
AcDbEntity
  8
LAY-10
  6
CONTINUOUS
 62
     7
100
AcDbCircle
 10
1574.301515189759
 20
569.6792929682816
 30
0.0
 40
9.0
100
AcDbArc
 50
270.0
 51
0.0
  0
LINE
  5
4B6
330
1F
100
AcDbEntity
  8
LAY-10
  6
CONTINUOUS
 62
     7
100
AcDbLine
 10
1574.301515190001
 20
571.6792929682998
 30
0.0
 11
1574.301515190001
 21
566.6792929682998
 31
0.0
  0
LINE
  5
4B7
330
1F
100
AcDbEntity
  8
LAY-10
  6
CONTINUOUS
 62
     7
100
AcDbLine
 10
582.3015151900206
 20
566.6792929682816
 30
0.0
 11
1574.30151519
 21
566.6792929682606
 31
0.0
  0
LINE
  5
4B8
330
1F
100
AcDbEntity
  8
LAY-10
  6
CONTINUOUS
 62
     7
100
AcDbLine
 10
1514.80151519008
 20
576.1792929683528
 30
0.0
 11
1139.801515190058
 21
576.1792929683528
 31
0.0
  0
LINE
  5
4B9
330
1F
100
AcDbEntity
  8
LAY-10
  6
CONTINUOUS
 62
     7
100
AcDbLine
 10
641.8015151897625
 20
576.1792929683528
 30
0.0
 11
1016.80151518976
 21
576.1792929683529
 31
0.0
  0
LINE
  5
4BA
330
1F
100
AcDbEntity
  8
LAY-10
  6
CONTINUOUS
 62
     7
100
AcDbLine
 10
2079.996969619207
 20
2039.100000000105
 30
0.0
 11
2014.996969619207
 21
2039.100000000107
 31
0.0
  0
LINE
  5
4BB
330
1F
100
AcDbEntity
  8
LAY-10
  6
CONTINUOUS
 62
     7
100
AcDbLine
 10
2079.996969619207
 20
2033.100000000105
 30
0.0
 11
2014.996969619207
 21
2033.100000000107
 31
0.0
  0
LINE
  5
4BC
330
1F
100
AcDbEntity
  8
LAY-10
  6
CONTINUOUS
 62
     7
100
AcDbLine
 10
2079.996969619207
 20
2033.100000000105
 30
0.0
 11
2079.996969619207
 21
2058.100000000105
 31
0.0
  0
LINE
  5
4BD
330
1F
100
AcDbEntity
  8
LAY-10
  6
CONTINUOUS
 62
     7
100
AcDbLine
 10
2039.996969619209
 20
2039.100000000107
 30
0.0
 11
2039.996969619209
 21
2074.078762000106
 31
0.0
  0
LINE
  5
4BE
330
1F
100
AcDbEntity
  8
LAY-10
  6
CONTINUOUS
 62
     7
100
AcDbLine
 10
2047.646963619208
 20
2078.318754000105
 30
0.0
 11
2079.996969619207
 21
2058.100000000105
 31
0.0
  0
ARC
  5
4BF
330
1F
100
AcDbEntity
  8
LAY-10
  6
CONTINUOUS
 62
     7
100
AcDbCircle
 10
2044.996969619207
 20
2074.078762000106
 30
0.0
 40
5.0
100
AcDbArc
 50
57.99461699998903
 51
180.0
  0
LINE
  5
4C0
330
1F
100
AcDbEntity
  8
LAY-10
  6
CONTINUOUS
 62
     7
100
AcDbLine
 10
2021.996969619198
 20
2133.100000000106
 30
0.0
 11
2021.996969619198
 21
2039.100000000107
 31
0.0
  0
LINE
  5
4C1
330
1F
100
AcDbEntity
  8
LAY-10
  6
CONTINUOUS
 62
     7
100
AcDbLine
 10
2079.996969619207
 20
2139.100000000106
 30
0.0
 11
2014.996969619207
 21
2139.100000000106
 31
0.0
  0
LINE
  5
4C2
330
1F
100
AcDbEntity
  8
LAY-10
  6
CONTINUOUS
 62
     7
100
AcDbLine
 10
2079.996969619207
 20
2133.100000000105
 30
0.0
 11
2014.996969619207
 21
2133.100000000105
 31
0.0
  0
LINE
  5
4C3
330
1F
100
AcDbEntity
  8
LAY-10
  6
CONTINUOUS
 62
     7
100
AcDbLine
 10
2079.996969619207
 20
2133.100000000105
 30
0.0
 11
2079.996969619207
 21
2158.100000000105
 31
0.0
  0
LINE
  5
4C4
330
1F
100
AcDbEntity
  8
LAY-10
  6
CONTINUOUS
 62
     7
100
AcDbLine
 10
2039.996969619209
 20
2139.100000000106
 30
0.0
 11
2039.996969619209
 21
2174.078762000107
 31
0.0
  0
LINE
  5
4C5
330
1F
100
AcDbEntity
  8
LAY-10
  6
CONTINUOUS
 62
     7
100
AcDbLine
 10
2047.646963619208
 20
2178.318754000105
 30
0.0
 11
2079.996969619207
 21
2158.100000000105
 31
0.0
  0
ARC
  5
4C6
330
1F
100
AcDbEntity
  8
LAY-10
  6
CONTINUOUS
 62
     7
100
AcDbCircle
 10
2044.996969619207
 20
2174.078762000107
 30
0.0
 40
5.0
100
AcDbArc
 50
57.99461699998903
 51
180.0
  0
LINE
  5
4C7
330
1F
100
AcDbEntity
  8
LAY-10
  6
CONTINUOUS
 62
     7
100
AcDbLine
 10
2079.996969619199
 20
2183.600000000101
 30
0.0
 11
2079.996969619199
 21
2189.6000000001
 31
0.0
  0
LINE
  5
4C8
330
1F
100
AcDbEntity
  8
LAY-10
  6
CONTINUOUS
 62
     7
100
AcDbLine
 10
2014.996969619199
 20
2183.600000000096
 30
0.0
 11
2169.496969619201
 21
2183.600000000096
 31
0.0
  0
LINE
  5
4C9
330
1F
100
AcDbEntity
  8
LAY-10
  6
CONTINUOUS
 62
     7
100
AcDbLine
 10
2014.996969619199
 20
2189.6000000001
 30
0.0
 11
2079.996969619199
 21
2189.6000000001
 31
0.0
  0
LINE
  5
4CA
330
1F
100
AcDbEntity
  8
LAY-10
  6
CONTINUOUS
 62
     7
100
AcDbLine
 10
2021.996969619198
 20
2183.600000000096
 30
0.0
 11
2021.996969619198
 21
2139.100000000107
 31
0.0
  0
LINE
  5
4CB
330
1F
100
AcDbEntity
  8
LAY-10
  6
CONTINUOUS
 62
     7
100
AcDbLine
 10
2180.496969619199
 20
2192.600000000285
 30
0.0
 11
2180.496969619199
 21
2136.100000000125
 31
0.0
  0
LINE
  5
4CC
330
1F
100
AcDbEntity
  8
LAY-10
  6
CONTINUOUS
 62
     7
100
AcDbLine
 10
2061.496969619199
 20
2189.6000000001
 30
0.0
 11
2061.496969619199
 21
2216.100000000185
 31
0.0
  0
ARC
  5
4CD
330
1F
100
AcDbEntity
  8
LAY-10
  6
CONTINUOUS
 62
     7
100
AcDbCircle
 10
2171.496969619201
 20
2192.100000000045
 30
0.0
 40
9.0
100
AcDbArc
 50
0.0
 51
90.0000000000029
  0
ARC
  5
4CE
330
1F
100
AcDbEntity
  8
LAY-10
  6
CONTINUOUS
 62
     7
100
AcDbCircle
 10
2171.496969619232
 20
2192.100000000045
 30
0.0
 40
3.000000000000001
100
AcDbArc
 50
0.0
 51
90.00000000000001
  0
ARC
  5
4CF
330
1F
100
AcDbEntity
  8
LAY-10
  6
CONTINUOUS
 62
     7
100
AcDbCircle
 10
2075.496969619203
 20
2204.100000000044
 30
0.0
 40
9.0
100
AcDbArc
 50
180.0
 51
270.0
  0
ARC
  5
4D0
330
1F
100
AcDbEntity
  8
LAY-10
  6
CONTINUOUS
 62
     7
100
AcDbCircle
 10
2063.496969619201
 20
2258.100000000185
 30
0.0
 40
3.000000000000001
100
AcDbArc
 50
0.0
 51
90.00000000000001
  0
ARC
  5
4D1
330
1F
100
AcDbEntity
  8
LAY-10
  6
CONTINUOUS
 62
     7
100
AcDbCircle
 10
2063.496969619201
 20
2258.100000000185
 30
0.0
 40
9.0
100
AcDbArc
 50
0.0
 51
90.00000000000001
  0
LINE
  5
4D2
330
1F
100
AcDbEntity
  8
LAY-10
  6
CONTINUOUS
 62
     7
100
AcDbLine
 10
2010.496969619199
 20
2261.100000000185
 30
0.0
 11
2010.496969619199
 21
2267.100000000185
 31
0.0
  0
LINE
  5
4D3
330
1F
100
AcDbEntity
  8
LAY-10
  6
CONTINUOUS
 62
     7
100
AcDbLine
 10
2010.496969619199
 20
2261.100000000185
 30
0.0
 11
2063.496969619201
 21
2261.100000000186
 31
0.0
  0
LINE
  5
4D4
330
1F
100
AcDbEntity
  8
LAY-10
  6
CONTINUOUS
 62
     7
100
AcDbLine
 10
2010.496969619199
 20
2267.100000000185
 30
0.0
 11
2063.496969619201
 21
2267.100000000185
 31
0.0
  0
LINE
  5
4D5
330
1F
100
AcDbEntity
  8
LAY-10
  6
CONTINUOUS
 62
     7
100
AcDbLine
 10
2115.852308678554
 20
2293.455339059469
 30
0.0
 11
2080.496969619228
 21
2258.10000000014
 31
0.0
  0
LINE
  5
4D6
330
1F
100
AcDbEntity
  8
LAY-10
  6
CONTINUOUS
 62
     7
100
AcDbLine
 10
2110.195454429065
 20
2299.112193308959
 30
0.0
 11
2115.852308678554
 21
2293.455339059469
 31
0.0
  0
LINE
  5
4D7
330
1F
100
AcDbEntity
  8
LAY-10
  6
CONTINUOUS
 62
     7
100
AcDbLine
 10
2171.496969619199
 20
2201.100000000044
 30
0.0
 11
2075.496969619197
 21
2201.100000000044
 31
0.0
  0
LINE
  5
4D8
330
1F
100
AcDbEntity
  8
LAY-10
  6
CONTINUOUS
 62
     7
100
AcDbLine
 10
2171.496969619232
 20
2195.100000000044
 30
0.0
 11
2075.496969619197
 21
2195.100000000044
 31
0.0
  0
LINE
  5
4D9
330
1F
100
AcDbEntity
  8
LAY-10
  6
CONTINUOUS
 62
     7
100
AcDbLine
 10
2010.496969619199
 20
2248.100000000123
 30
0.0
 11
2014.996969619196
 21
2248.100000000122
 31
0.0
  0
LINE
  5
4DA
330
1F
100
AcDbEntity
  8
LAY-10
  6
CONTINUOUS
 62
     7
100
AcDbLine
 10
2010.496969619199
 20
2258.100000000132
 30
0.0
 11
2014.996969619198
 21
2258.100000000132
 31
0.0
  0
ARC
  5
4DB
330
1F
100
AcDbEntity
  8
LAY-10
  6
CONTINUOUS
 62
     7
100
AcDbCircle
 10
2072.496969619194
 20
2209.250000000088
 30
0.0
 40
3.000000000000003
100
AcDbArc
 50
270.0
 51
0.0
  0
ARC
  5
4DC
330
1F
100
AcDbEntity
  8
LAY-10
  6
CONTINUOUS
 62
     7
100
AcDbCircle
 10
2072.496969619194
 20
2209.250000000088
 30
0.0
 40
2.0
100
AcDbArc
 50
270.0
 51
0.0
  0
ARC
  5
4DD
330
1F
100
AcDbEntity
  8
LAY-10
  6
CONTINUOUS
 62
     7
100
AcDbCircle
 10
2072.496969619194
 20
2209.250000000088
 30
0.0
 40
1.0
100
AcDbArc
 50
270.0
 51
0.0
  0
ARC
  5
4DE
330
1F
100
AcDbEntity
  8
LAY-10
  6
CONTINUOUS
 62
     7
100
AcDbCircle
 10
2072.496969619194
 20
2236.950000000088
 30
0.0
 40
3.000000000000003
100
AcDbArc
 50
0.0
 51
90.00000000000001
  0
ARC
  5
4DF
330
1F
100
AcDbEntity
  8
LAY-10
  6
CONTINUOUS
 62
     7
100
AcDbCircle
 10
2072.496969619194
 20
2236.950000000088
 30
0.0
 40
2.0
100
AcDbArc
 50
0.0
 51
90.00000000000001
  0
ARC
  5
4E0
330
1F
100
AcDbEntity
  8
LAY-10
  6
CONTINUOUS
 62
     7
100
AcDbCircle
 10
2072.496969619194
 20
2236.950000000088
 30
0.0
 40
1.0
100
AcDbArc
 50
0.0
 51
90.00000000000001
  0
LINE
  5
4E1
330
1F
100
AcDbEntity
  8
LAY-10
  6
CONTINUOUS
 62
     7
100
AcDbLine
 10
2052.296969619191
 20
2238.100000000086
 30
0.0
 11
2055.496969619194
 21
2238.100000000086
 31
0.0
  0
LINE
  5
4E2
330
1F
100
AcDbEntity
  8
LAY-10
  6
CONTINUOUS
 62
     7
100
AcDbLine
 10
2052.296969619191
 20
2208.100000000086
 30
0.0
 11
2055.496969619194
 21
2208.100000000086
 31
0.0
  0
LINE
  5
4E3
330
1F
100
AcDbEntity
  8
LAY-10
  6
CONTINUOUS
 62
     7
100
AcDbLine
 10
2052.296969619191
 20
2238.100000000086
 30
0.0
 11
2052.296969619191
 21
2208.100000000086
 31
0.0
  0
LINE
  5
4E4
330
1F
100
AcDbEntity
  8
LAY-10
  6
CONTINUOUS
 62
     7
100
AcDbLine
 10
2052.2969696192
 20
2215.100000000085
 30
0.0
 11
2040.924969619199
 21
2215.100000000085
 31
0.0
  0
LINE
  5
4E5
330
1F
100
AcDbEntity
  8
LAY-10
  6
CONTINUOUS
 62
     7
100
AcDbLine
 10
2052.2969696192
 20
2231.100000000085
 30
0.0
 11
2040.924969619199
 21
2231.100000000085
 31
0.0
  0
LINE
  5
4E6
330
1F
100
AcDbEntity
  8
LAY-10
  6
CONTINUOUS
 62
     7
100
AcDbLine
 10
2052.2969696192
 20
2236.950000000085
 30
0.0
 11
2040.924969619199
 21
2236.950000000085
 31
0.0
  0
LINE
  5
4E7
330
1F
100
AcDbEntity
  8
LAY-10
  6
CONTINUOUS
 62
     7
100
AcDbLine
 10
2052.2969696192
 20
2209.250000000085
 30
0.0
 11
2040.924969619199
 21
2209.250000000085
 31
0.0
  0
LINE
  5
4E8
330
1F
100
AcDbEntity
  8
LAY-10
  6
CONTINUOUS
 62
     7
100
AcDbLine
 10
2072.496969619194
 20
2215.100000000087
 30
0.0
 11
2055.496969619197
 21
2215.100000000087
 31
0.0
  0
LINE
  5
4E9
330
1F
100
AcDbEntity
  8
LAY-10
  6
CONTINUOUS
 62
     7
100
AcDbLine
 10
2072.496969619194
 20
2231.100000000087
 30
0.0
 11
2055.496969619197
 21
2231.100000000087
 31
0.0
  0
LINE
  5
4EA
330
1F
100
AcDbEntity
  8
LAY-10
  6
CONTINUOUS
 62
     7
100
AcDbLine
 10
2061.496969619197
 20
2235.600000000085
 30
0.0
 11
2055.496969619194
 21
2235.600000000085
 31
0.0
  0
LINE
  5
4EB
330
1F
100
AcDbEntity
  8
LAY-10
  6
CONTINUOUS
 62
     7
100
AcDbLine
 10
2061.496969619197
 20
2210.600000000085
 30
0.0
 11
2055.496969619197
 21
2210.600000000085
 31
0.0
  0
LINE
  5
4EC
330
1F
100
AcDbEntity
  8
LAY-10
  6
CONTINUOUS
 62
     7
100
AcDbLine
 10
2066.496969619201
 20
2203.100000000044
 30
0.0
 11
2066.496969619201
 21
2215.100000000087
 31
0.0
  0
ARC
  5
4ED
330
1F
100
AcDbEntity
  8
LAY-10
  6
CONTINUOUS
 62
     7
100
AcDbCircle
 10
2059.766989275221
 20
2223.100000000086
 30
0.0
 40
20.47001965601966
100
AcDbArc
 50
156.9947512290631
 51
203.0052487709369
  0
ARC
  5
4EE
330
1F
100
AcDbEntity
  8
LAY-10
  6
CONTINUOUS
 62
     7
100
AcDbCircle
 10
2042.738618574974
 20
2234.025000000085
 30
0.0
 40
3.441648955773841
100
AcDbArc
 50
121.8010203972052
 51
238.1989796027948
  0
ARC
  5
4EF
330
1F
100
AcDbEntity
  8
LAY-10
  6
CONTINUOUS
 62
     7
100
AcDbCircle
 10
2042.738618574974
 20
2212.175000000085
 30
0.0
 40
3.441648955773841
100
AcDbArc
 50
121.8010203972052
 51
238.1989796027948
  0
LINE
  5
4F0
330
1F
100
AcDbEntity
  8
LAY-10
  6
CONTINUOUS
 62
     7
100
AcDbLine
 10
2039.296969619202
 20
2212.175000000085
 30
0.0
 11
2039.296969619202
 21
2234.025000000085
 31
0.0
  0
ARC
  5
4F1
330
1F
100
AcDbEntity
  8
LAY-10
  6
CONTINUOUS
 62
     7
100
AcDbCircle
 10
2039.296969619188
 20
2234.100000000084
 30
0.0
 40
1.0
100
AcDbArc
 50
80.35284919912797
 51
180.0
  0
ARC
  5
4F2
330
1F
100
AcDbEntity
  8
LAY-10
  6
CONTINUOUS
 62
     7
100
AcDbCircle
 10
2039.296969619188
 20
2212.100000000084
 30
0.0
 40
1.0
100
AcDbArc
 50
180.0
 51
279.6471508008721
  0
LINE
  5
4F3
330
1F
100
AcDbEntity
  8
LAY-10
  6
CONTINUOUS
 62
     7
100
AcDbLine
 10
2010.996969619162
 20
2245.100000000084
 30
0.0
 11
2018.996969619159
 21
2245.100000000084
 31
0.0
  0
LINE
  5
4F4
330
1F
100
AcDbEntity
  8
LAY-10
  6
CONTINUOUS
 62
     7
100
AcDbLine
 10
2010.996969619162
 20
2242.600000000085
 30
0.0
 11
2010.996969619162
 21
2246.600000000084
 31
0.0
  0
LINE
  5
4F5
330
1F
100
AcDbEntity
  8
LAY-10
  6
CONTINUOUS
 62
     7
100
AcDbLine
 10
2010.996969619162
 20
2231.600000000086
 30
0.0
 11
2010.996969619162
 21
2236.600000000084
 31
0.0
  0
LINE
  5
4F6
330
1F
100
AcDbEntity
  8
LAY-10
  6
CONTINUOUS
 62
     7
100
AcDbLine
 10
2011.996969619159
 20
2236.850000000084
 30
0.0
 11
2011.996969619159
 21
2242.350000000084
 31
0.0
  0
LINE
  5
4F7
330
1F
100
AcDbEntity
  8
LAY-10
  6
CONTINUOUS
 62
     7
100
AcDbLine
 10
2011.996969619159
 20
2225.850000000084
 30
0.0
 11
2011.996969619159
 21
2231.350000000085
 31
0.0
  0
LINE
  5
4F8
330
1F
100
AcDbEntity
  8
LAY-10
  6
CONTINUOUS
 62
     7
100
AcDbLine
 10
2010.996969619162
 20
2220.600000000085
 30
0.0
 11
2010.996969619162
 21
2225.600000000084
 31
0.0
  0
LINE
  5
4F9
330
1F
100
AcDbEntity
  8
LAY-10
  6
CONTINUOUS
 62
     7
100
AcDbLine
 10
2010.996969619162
 20
2209.600000000085
 30
0.0
 11
2010.996969619162
 21
2214.600000000084
 31
0.0
  0
LINE
  5
4FA
330
1F
100
AcDbEntity
  8
LAY-10
  6
CONTINUOUS
 62
     7
100
AcDbLine
 10
2010.996969619162
 20
2199.600000000084
 30
0.0
 11
2010.996969619162
 21
2203.600000000084
 31
0.0
  0
LINE
  5
4FB
330
1F
100
AcDbEntity
  8
LAY-10
  6
CONTINUOUS
 62
     7
100
AcDbLine
 10
2011.996969619159
 20
2214.850000000084
 30
0.0
 11
2011.996969619159
 21
2220.350000000086
 31
0.0
  0
LINE
  5
4FC
330
1F
100
AcDbEntity
  8
LAY-10
  6
CONTINUOUS
 62
     7
100
AcDbLine
 10
2011.996969619159
 20
2203.850000000084
 30
0.0
 11
2011.996969619159
 21
2209.350000000085
 31
0.0
  0
LINE
  5
4FD
330
1F
100
AcDbEntity
  8
LAY-10
  6
CONTINUOUS
 62
     7
100
AcDbLine
 10
2011.996969619163
 20
2242.350000000084
 30
0.0
 11
2010.996969619165
 21
2242.600000000084
 31
0.0
  0
LINE
  5
4FE
330
1F
100
AcDbEntity
  8
LAY-10
  6
CONTINUOUS
 62
     7
100
AcDbLine
 10
2010.996969619165
 20
2236.600000000084
 30
0.0
 11
2011.996969619163
 21
2236.850000000084
 31
0.0
  0
LINE
  5
4FF
330
1F
100
AcDbEntity
  8
LAY-10
  6
CONTINUOUS
 62
     7
100
AcDbLine
 10
2011.996969619163
 20
2231.350000000084
 30
0.0
 11
2010.996969619165
 21
2231.600000000084
 31
0.0
  0
LINE
  5
500
330
1F
100
AcDbEntity
  8
LAY-10
  6
CONTINUOUS
 62
     7
100
AcDbLine
 10
2010.996969619165
 20
2225.600000000084
 30
0.0
 11
2011.996969619163
 21
2225.850000000084
 31
0.0
  0
LINE
  5
501
330
1F
100
AcDbEntity
  8
LAY-10
  6
CONTINUOUS
 62
     7
100
AcDbLine
 10
2011.996969619163
 20
2203.850000000084
 30
0.0
 11
2010.996969619165
 21
2203.600000000084
 31
0.0
  0
LINE
  5
502
330
1F
100
AcDbEntity
  8
LAY-10
  6
CONTINUOUS
 62
     7
100
AcDbLine
 10
2010.996969619165
 20
2209.600000000084
 30
0.0
 11
2011.996969619163
 21
2209.350000000084
 31
0.0
  0
LINE
  5
503
330
1F
100
AcDbEntity
  8
LAY-10
  6
CONTINUOUS
 62
     7
100
AcDbLine
 10
2011.996969619163
 20
2214.850000000084
 30
0.0
 11
2010.996969619165
 21
2214.600000000084
 31
0.0
  0
LINE
  5
504
330
1F
100
AcDbEntity
  8
LAY-10
  6
CONTINUOUS
 62
     7
100
AcDbLine
 10
2010.996969619165
 20
2220.600000000084
 30
0.0
 11
2011.996969619163
 21
2220.350000000084
 31
0.0
  0
LINE
  5
505
330
1F
100
AcDbEntity
  8
LAY-10
  6
CONTINUOUS
 62
     7
100
AcDbLine
 10
2030.996969619159
 20
2246.100000000084
 30
0.0
 11
2037.482040869235
 21
2244.478732187566
 31
0.0
  0
LINE
  5
506
330
1F
100
AcDbEntity
  8
LAY-10
  6
CONTINUOUS
 62
     7
100
AcDbLine
 10
2023.499451024055
 20
2238.550248140572
 30
0.0
 11
2038.096473338182
 21
2240.009950371986
 31
0.0
  0
LINE
  5
507
330
1F
100
AcDbEntity
  8
LAY-10
  6
CONTINUOUS
 62
     7
100
AcDbLine
 10
2018.996969619159
 20
2212.624937810644
 30
0.0
 11
2018.996969619159
 21
2233.575062189524
 31
0.0
  0
LINE
  5
508
330
1F
100
AcDbEntity
  8
LAY-10
  6
CONTINUOUS
 62
     7
100
AcDbLine
 10
2023.499451024055
 20
2207.649751859596
 30
0.0
 11
2038.096473338182
 21
2206.190049628183
 31
0.0
  0
LINE
  5
509
330
1F
100
AcDbEntity
  8
LAY-10
  6
CONTINUOUS
 62
     7
100
AcDbLine
 10
2030.996969619159
 20
2200.100000000084
 30
0.0
 11
2037.482040869235
 21
2201.721267812603
 31
0.0
  0
LINE
  5
50A
330
1F
100
AcDbEntity
  8
LAY-10
  6
CONTINUOUS
 62
     7
100
AcDbLine
 10
2010.996969619162
 20
2246.600000000084
 30
0.0
 11
2012.496969619159
 21
2248.100000000084
 31
0.0
  0
LINE
  5
50B
330
1F
100
AcDbEntity
  8
LAY-10
  6
CONTINUOUS
 62
     7
100
AcDbLine
 10
2010.996969619162
 20
2199.600000000084
 30
0.0
 11
2012.496969619159
 21
2198.100000000084
 31
0.0
  0
ARC
  5
50C
330
1F
100
AcDbEntity
  8
LAY-10
  6
CONTINUOUS
 62
     7
100
AcDbCircle
 10
2023.996969619161
 20
2233.575062189524
 30
0.0
 40
5.0
100
AcDbArc
 50
95.71059313749761
 51
180.0
  0
ARC
  5
50D
330
1F
100
AcDbEntity
  8
LAY-10
  6
CONTINUOUS
 62
     7
100
AcDbCircle
 10
2037.99696961916
 20
2241.004987562197
 30
0.0
 40
1.0
100
AcDbArc
 50
275.710593137497
 51
0.0
  0
ARC
  5
50E
330
1F
100
AcDbEntity
  8
LAY-10
  6
CONTINUOUS
 62
     7
100
AcDbCircle
 10
2036.996969619159
 20
2242.538447187275
 30
0.0
 40
2.0
100
AcDbArc
 50
0.0
 51
75.96375653207986
  0
LINE
  5
50F
330
1F
100
AcDbEntity
  8
LAY-10
  6
CONTINUOUS
 62
     7
100
AcDbLine
 10
2030.996969619159
 20
2246.100000000084
 30
0.0
 11
2030.996969619159
 21
2244.100000000084
 31
0.0
  0
LINE
  5
510
330
1F
100
AcDbEntity
  8
LAY-10
  6
CONTINUOUS
 62
     7
100
AcDbLine
 10
2022.99696961916
 20
2246.100000000084
 30
0.0
 11
2022.99696961916
 21
2244.100000000084
 31
0.0
  0
LINE
  5
511
330
1F
100
AcDbEntity
  8
LAY-10
  6
CONTINUOUS
 62
     7
100
AcDbLine
 10
2018.996969619159
 20
2245.100000000084
 30
0.0
 11
2022.99696961916
 21
2244.100000000084
 31
0.0
  0
LINE
  5
512
330
1F
100
AcDbEntity
  8
LAY-10
  6
CONTINUOUS
 62
     7
100
AcDbLine
 10
2022.99696961916
 20
2246.100000000084
 30
0.0
 11
2030.996969619159
 21
2244.100000000084
 31
0.0
  0
ARC
  5
513
330
1F
100
AcDbEntity
  8
LAY-10
  6
CONTINUOUS
 62
     7
100
AcDbCircle
 10
2023.996969619161
 20
2212.624937810644
 30
0.0
 40
5.0
100
AcDbArc
 50
180.0
 51
264.2894068625025
  0
ARC
  5
514
330
1F
100
AcDbEntity
  8
LAY-10
  6
CONTINUOUS
 62
     7
100
AcDbCircle
 10
2037.99696961916
 20
2205.195012437972
 30
0.0
 40
1.0
100
AcDbArc
 50
0.0
 51
84.28940686250297
  0
ARC
  5
515
330
1F
100
AcDbEntity
  8
LAY-10
  6
CONTINUOUS
 62
     7
100
AcDbCircle
 10
2036.996969619159
 20
2203.661552812893
 30
0.0
 40
2.0
100
AcDbArc
 50
284.0362434679201
 51
0.0
  0
LINE
  5
516
330
1F
100
AcDbEntity
  8
LAY-10
  6
CONTINUOUS
 62
     7
100
AcDbLine
 10
2030.996969619159
 20
2200.100000000084
 30
0.0
 11
2030.996969619159
 21
2202.100000000084
 31
0.0
  0
LINE
  5
517
330
1F
100
AcDbEntity
  8
LAY-10
  6
CONTINUOUS
 62
     7
100
AcDbLine
 10
2022.99696961916
 20
2200.100000000084
 30
0.0
 11
2022.99696961916
 21
2202.100000000084
 31
0.0
  0
LINE
  5
518
330
1F
100
AcDbEntity
  8
LAY-10
  6
CONTINUOUS
 62
     7
100
AcDbLine
 10
2014.996969619161
 20
2201.100000000084
 30
0.0
 11
2018.996969619159
 21
2201.100000000084
 31
0.0
  0
LINE
  5
519
330
1F
100
AcDbEntity
  8
LAY-10
  6
CONTINUOUS
 62
     7
100
AcDbLine
 10
2018.996969619159
 20
2201.100000000084
 30
0.0
 11
2022.99696961916
 21
2202.100000000084
 31
0.0
  0
LINE
  5
51A
330
1F
100
AcDbEntity
  8
LAY-10
  6
CONTINUOUS
 62
     7
100
AcDbLine
 10
2022.99696961916
 20
2200.100000000084
 30
0.0
 11
2030.996969619159
 21
2202.100000000084
 31
0.0
  0
LINE
  5
51B
330
1F
100
AcDbEntity
  8
LAY-10
  6
CONTINUOUS
 62
     7
100
AcDbLine
 10
2038.29696961919
 20
2212.100000000084
 30
0.0
 11
2038.29696961919
 21
2234.100000000084
 31
0.0
  0
LINE
  5
51C
330
1F
100
AcDbEntity
  8
LAY-10
  6
CONTINUOUS
 62
     7
100
AcDbLine
 10
2033.496969619194
 20
2231.100000000087
 30
0.0
 11
2032.496969619192
 21
2230.100000000087
 31
0.0
  0
LINE
  5
51D
330
1F
100
AcDbEntity
  8
LAY-10
  6
CONTINUOUS
 62
     7
100
AcDbLine
 10
2032.496969619192
 20
2216.100000000087
 30
0.0
 11
2033.496969619194
 21
2215.100000000087
 31
0.0
  0
LINE
  5
51E
330
1F
100
AcDbEntity
  8
LAY-10
  6
CONTINUOUS
 62
     7
100
AcDbLine
 10
2032.496969619192
 20
2230.100000000087
 30
0.0
 11
2032.496969619192
 21
2216.100000000087
 31
0.0
  0
LINE
  5
51F
330
1F
100
AcDbEntity
  8
LAY-10
  6
CONTINUOUS
 62
     7
100
AcDbLine
 10
2038.296969619195
 20
2231.100000000087
 30
0.0
 11
2033.496969619194
 21
2231.100000000087
 31
0.0
  0
LINE
  5
520
330
1F
100
AcDbEntity
  8
LAY-10
  6
CONTINUOUS
 62
     7
100
AcDbLine
 10
2038.296969619195
 20
2215.100000000087
 30
0.0
 11
2033.496969619194
 21
2215.100000000087
 31
0.0
  0
LINE
  5
521
330
1F
100
AcDbEntity
  8
LAY-10
  6
CONTINUOUS
 62
     7
100
AcDbLine
 10
2038.996969619161
 20
2235.053939201504
 30
0.0
 11
2038.996969619161
 21
2242.538447187275
 31
0.0
  0
LINE
  5
522
330
1F
100
AcDbEntity
  8
LAY-10
  6
CONTINUOUS
 62
     7
100
AcDbLine
 10
2038.996969619161
 20
2203.661552812887
 30
0.0
 11
2038.996969619161
 21
2211.146060798677
 31
0.0
  0
LINE
  5
523
330
1F
100
AcDbEntity
  8
LAY-10
  6
CONTINUOUS
 62
     7
100
AcDbLine
 10
2055.496969619197
 20
2200.400000000117
 30
0.0
 11
2014.996969619161
 21
2200.400000000117
 31
0.0
  0
LINE
  5
524
330
1F
100
AcDbEntity
  8
LAY-10
  6
CONTINUOUS
 62
     7
100
AcDbLine
 10
2055.496969619197
 20
2198.100000000116
 30
0.0
 11
2012.496969619129
 21
2198.100000000115
 31
0.0
  0
LINE
  5
525
330
1F
100
AcDbEntity
  8
LAY-10
  6
CONTINUOUS
 62
     7
100
AcDbLine
 10
2014.996969619161
 20
2245.800000000123
 30
0.0
 11
2055.496969619197
 21
2245.800000000125
 31
0.0
  0
LINE
  5
526
330
1F
100
AcDbEntity
  8
LAY-10
  6
CONTINUOUS
 62
     7
100
AcDbLine
 10
2012.496969619199
 20
2248.100000000125
 30
0.0
 11
2053.496969619197
 21
2248.100000000125
 31
0.0
  0
ARC
  5
527
330
1F
100
AcDbEntity
  8
LAY-10
  6
CONTINUOUS
 62
     7
100
AcDbCircle
 10
2053.496969619197
 20
2246.100000000125
 30
0.0
 40
2.0
100
AcDbArc
 50
0.0
 51
90.00000000000001
  0
LINE
  5
528
330
1F
100
AcDbEntity
  8
LAY-10
  6
CONTINUOUS
 62
     7
100
AcDbLine
 10
2010.496969619196
 20
2198.100000000123
 30
0.0
 11
2014.996969619198
 21
2198.100000000123
 31
0.0
  0
ARC
  5
529
330
1F
100
AcDbEntity
  8
LAY-10
  6
CONTINUOUS
 62
     7
100
AcDbCircle
 10
2075.496969619203
 20
2204.100000000044
 30
0.0
 40
3.000000000000001
100
AcDbArc
 50
180.0
 51
270.0
  0
LINE
  5
52A
330
1F
100
AcDbEntity
  8
LAY-10
  6
CONTINUOUS
 62
     7
100
AcDbLine
 10
2055.496969619199
 20
2189.6000000001
 30
0.0
 11
2055.496969619199
 21
2246.1000000001
 31
0.0
  0
LINE
  5
52B
330
1F
100
AcDbEntity
  8
LAY-10
  6
CONTINUOUS
 62
     7
100
AcDbLine
 10
2066.496969619201
 20
2231.100000000087
 30
0.0
 11
2066.496969619201
 21
2258.100000000102
 31
0.0
  0
LINE
  5
52C
330
1F
100
AcDbEntity
  8
LAY-10
  6
CONTINUOUS
 62
     7
100
AcDbLine
 10
2080.496969619228
 20
2258.10000000015
 30
0.0
 11
2080.496969619228
 21
2236.950000000088
 31
0.0
  0
LINE
  5
52D
330
1F
100
AcDbEntity
  8
LAY-10
  6
CONTINUOUS
 62
     7
100
AcDbLine
 10
2014.996969619198
 20
2254.100000000125
 30
0.0
 11
2054.496969619196
 21
2254.100000000126
 31
0.0
  0
LINE
  5
52E
330
1F
100
AcDbEntity
  8
LAY-10
  6
CONTINUOUS
 62
     7
100
AcDbLine
 10
2061.496969619196
 20
2247.100000000125
 30
0.0
 11
2061.496969619196
 21
2231.100000000087
 31
0.0
  0
ARC
  5
52F
330
1F
100
AcDbEntity
  8
LAY-10
  6
CONTINUOUS
 62
     7
100
AcDbCircle
 10
2054.496969619196
 20
2247.100000000125
 30
0.0
 40
7.0
100
AcDbArc
 50
0.0
 51
90.00000000000001
  0
LINE
  5
530
330
1F
100
AcDbEntity
  8
LAY-10
  6
CONTINUOUS
 62
     7
100
AcDbLine
 10
2174.49696961923
 20
2136.100000000125
 30
0.0
 11
2174.49696961923
 21
2192.1000000001
 31
0.0
  0
LINE
  5
531
330
1F
100
AcDbEntity
  8
LAY-10
  6
CONTINUOUS
 62
     7
100
AcDbLine
 10
2014.996969619198
 20
2245.100000000084
 30
0.0
 11
2014.996969619198
 21
2258.100000000101
 31
0.0
  0
LINE
  5
532
330
1F
100
AcDbEntity
  8
LAY-10
  6
CONTINUOUS
 62
     7
100
AcDbLine
 10
2174.49696961923
 20
1236.100000000124
 30
0.0
 11
2180.496969619199
 21
1236.100000000124
 31
0.0
  0
ARC
  5
533
330
1F
100
AcDbEntity
  8
LAY-10
  6
CONTINUOUS
 62
     7
100
AcDbCircle
 10
2171.496969619201
 20
1180.100000000105
 30
0.0
 40
9.0
100
AcDbArc
 50
270.0
 51
0.0
  0
ARC
  5
534
330
1F
100
AcDbEntity
  8
LAY-10
  6
CONTINUOUS
 62
     7
100
AcDbCircle
 10
2171.496969619232
 20
1180.100000000105
 30
0.0
 40
3.000000000000001
100
AcDbArc
 50
270.0
 51
0.0
  0
LINE
  5
535
330
1F
100
AcDbEntity
  8
LAY-10
  6
CONTINUOUS
 62
     7
100
AcDbLine
 10
2180.496969619199
 20
1180.1000000001
 30
0.0
 11
2180.496969619199
 21
1236.100000000124
 31
0.0
  0
LINE
  5
536
330
1F
100
AcDbEntity
  8
LAY-10
  6
CONTINUOUS
 62
     7
100
AcDbLine
 10
2014.996969619199
 20
1188.600000000167
 30
0.0
 11
2169.496969619201
 21
1188.600000000167
 31
0.0
  0
LINE
  5
537
330
1F
100
AcDbEntity
  8
LAY-10
  6
CONTINUOUS
 62
     7
100
AcDbLine
 10
2079.996969619207
 20
1239.100000000105
 30
0.0
 11
2014.996969619207
 21
1239.100000000106
 31
0.0
  0
LINE
  5
538
330
1F
100
AcDbEntity
  8
LAY-10
  6
CONTINUOUS
 62
     7
100
AcDbLine
 10
2079.996969619207
 20
1233.100000000105
 30
0.0
 11
2014.996969619207
 21
1233.100000000106
 31
0.0
  0
ARC
  5
539
330
1F
100
AcDbEntity
  8
LAY-10
  6
CONTINUOUS
 62
     7
100
AcDbCircle
 10
2044.996969619207
 20
1274.078762000106
 30
0.0
 40
5.0
100
AcDbArc
 50
57.99461699998903
 51
180.0
  0
LINE
  5
53A
330
1F
100
AcDbEntity
  8
LAY-10
  6
CONTINUOUS
 62
     7
100
AcDbLine
 10
2047.646963619208
 20
1278.318754000105
 30
0.0
 11
2079.996969619207
 21
1258.100000000105
 31
0.0
  0
LINE
  5
53B
330
1F
100
AcDbEntity
  8
LAY-10
  6
CONTINUOUS
 62
     7
100
AcDbLine
 10
2039.996969619209
 20
1239.100000000106
 30
0.0
 11
2039.996969619209
 21
1274.078762000106
 31
0.0
  0
LINE
  5
53C
330
1F
100
AcDbEntity
  8
LAY-10
  6
CONTINUOUS
 62
     7
100
AcDbLine
 10
2079.996969619207
 20
1233.100000000105
 30
0.0
 11
2079.996969619207
 21
1258.100000000105
 31
0.0
  0
LINE
  5
53D
330
1F
100
AcDbEntity
  8
LAY-10
  6
CONTINUOUS
 62
     7
100
AcDbLine
 10
2021.996969619194
 20
1233.100000000105
 30
0.0
 11
2021.996969619194
 21
1188.600000000167
 31
0.0
  0
LINE
  5
53E
330
1F
100
AcDbEntity
  8
LAY-10
  6
CONTINUOUS
 62
     7
100
AcDbLine
 10
2079.996969619199
 20
1188.600000000147
 30
0.0
 11
2079.996969619199
 21
1182.600000000147
 31
0.0
  0
LINE
  5
53F
330
1F
100
AcDbEntity
  8
LAY-10
  6
CONTINUOUS
 62
     7
100
AcDbLine
 10
2014.996969619199
 20
1182.600000000147
 30
0.0
 11
2079.996969619199
 21
1182.600000000147
 31
0.0
  0
ARC
  5
540
330
1F
100
AcDbEntity
  8
LAY-10
  6
CONTINUOUS
 62
     7
100
AcDbCircle
 10
2063.496969619203
 20
1114.099999999964
 30
0.0
 40
3.000000000000001
100
AcDbArc
 50
270.0
 51
0.0
  0
ARC
  5
541
330
1F
100
AcDbEntity
  8
LAY-10
  6
CONTINUOUS
 62
     7
100
AcDbCircle
 10
2063.496969619203
 20
1114.099999999964
 30
0.0
 40
9.0
100
AcDbArc
 50
270.0
 51
0.0
  0
LINE
  5
542
330
1F
100
AcDbEntity
  8
LAY-10
  6
CONTINUOUS
 62
     7
100
AcDbLine
 10
2010.496969619201
 20
1111.099999999964
 30
0.0
 11
2010.496969619201
 21
1105.099999999964
 31
0.0
  0
LINE
  5
543
330
1F
100
AcDbEntity
  8
LAY-10
  6
CONTINUOUS
 62
     7
100
AcDbLine
 10
2010.496969619201
 20
1111.099999999964
 30
0.0
 11
2063.496969619203
 21
1111.099999999964
 31
0.0
  0
LINE
  5
544
330
1F
100
AcDbEntity
  8
LAY-10
  6
CONTINUOUS
 62
     7
100
AcDbLine
 10
2010.496969619201
 20
1105.099999999964
 30
0.0
 11
2063.496969619203
 21
1105.099999999964
 31
0.0
  0
LINE
  5
545
330
1F
100
AcDbEntity
  8
LAY-10
  6
CONTINUOUS
 62
     7
100
AcDbLine
 10
2115.852308678556
 20
1078.744660940682
 30
0.0
 11
2080.49696961923
 21
1114.100000000009
 31
0.0
  0
LINE
  5
546
330
1F
100
AcDbEntity
  8
LAY-10
  6
CONTINUOUS
 62
     7
100
AcDbLine
 10
2110.195454429067
 20
1073.08780669119
 30
0.0
 11
2115.852308678556
 21
1078.744660940682
 31
0.0
  0
LINE
  5
547
330
1F
100
AcDbEntity
  8
LAY-10
  6
CONTINUOUS
 62
     7
100
AcDbLine
 10
2171.496969619201
 20
1171.100000000105
 30
0.0
 11
2075.496969619199
 21
1171.100000000105
 31
0.0
  0
LINE
  5
548
330
1F
100
AcDbEntity
  8
LAY-10
  6
CONTINUOUS
 62
     7
100
AcDbLine
 10
2171.496969619232
 20
1177.100000000105
 30
0.0
 11
2075.496969619199
 21
1177.100000000105
 31
0.0
  0
LINE
  5
549
330
1F
100
AcDbEntity
  8
LAY-10
  6
CONTINUOUS
 62
     7
100
AcDbLine
 10
2010.496969619201
 20
1124.100000000026
 30
0.0
 11
2014.996969619199
 21
1124.100000000027
 31
0.0
  0
LINE
  5
54A
330
1F
100
AcDbEntity
  8
LAY-10
  6
CONTINUOUS
 62
     7
100
AcDbLine
 10
2010.496969619201
 20
1114.100000000017
 30
0.0
 11
2014.996969619199
 21
1114.100000000017
 31
0.0
  0
ARC
  5
54B
330
1F
100
AcDbEntity
  8
LAY-10
  6
CONTINUOUS
 62
     7
100
AcDbCircle
 10
2072.496969619197
 20
1162.950000000062
 30
0.0
 40
3.000000000000003
100
AcDbArc
 50
0.0
 51
90.00000000000001
  0
ARC
  5
54C
330
1F
100
AcDbEntity
  8
LAY-10
  6
CONTINUOUS
 62
     7
100
AcDbCircle
 10
2072.496969619197
 20
1162.950000000062
 30
0.0
 40
2.0
100
AcDbArc
 50
0.0
 51
90.00000000000001
  0
ARC
  5
54D
330
1F
100
AcDbEntity
  8
LAY-10
  6
CONTINUOUS
 62
     7
100
AcDbCircle
 10
2072.496969619197
 20
1162.950000000062
 30
0.0
 40
1.0
100
AcDbArc
 50
0.0
 51
90.00000000000001
  0
ARC
  5
54E
330
1F
100
AcDbEntity
  8
LAY-10
  6
CONTINUOUS
 62
     7
100
AcDbCircle
 10
2072.496969619197
 20
1135.250000000061
 30
0.0
 40
3.000000000000003
100
AcDbArc
 50
270.0
 51
0.0
  0
ARC
  5
54F
330
1F
100
AcDbEntity
  8
LAY-10
  6
CONTINUOUS
 62
     7
100
AcDbCircle
 10
2072.496969619197
 20
1135.250000000061
 30
0.0
 40
2.0
100
AcDbArc
 50
270.0
 51
0.0
  0
ARC
  5
550
330
1F
100
AcDbEntity
  8
LAY-10
  6
CONTINUOUS
 62
     7
100
AcDbCircle
 10
2072.496969619197
 20
1135.250000000061
 30
0.0
 40
1.0
100
AcDbArc
 50
270.0
 51
0.0
  0
LINE
  5
551
330
1F
100
AcDbEntity
  8
LAY-10
  6
CONTINUOUS
 62
     7
100
AcDbLine
 10
2052.296969619197
 20
1134.100000000064
 30
0.0
 11
2055.496969619197
 21
1134.100000000064
 31
0.0
  0
LINE
  5
552
330
1F
100
AcDbEntity
  8
LAY-10
  6
CONTINUOUS
 62
     7
100
AcDbLine
 10
2052.296969619197
 20
1164.100000000064
 30
0.0
 11
2055.496969619197
 21
1164.100000000064
 31
0.0
  0
LINE
  5
553
330
1F
100
AcDbEntity
  8
LAY-10
  6
CONTINUOUS
 62
     7
100
AcDbLine
 10
2052.296969619197
 20
1134.100000000064
 30
0.0
 11
2052.296969619197
 21
1164.100000000064
 31
0.0
  0
LINE
  5
554
330
1F
100
AcDbEntity
  8
LAY-10
  6
CONTINUOUS
 62
     7
100
AcDbLine
 10
2052.296969619204
 20
1157.100000000063
 30
0.0
 11
2040.924969619205
 21
1157.100000000063
 31
0.0
  0
LINE
  5
555
330
1F
100
AcDbEntity
  8
LAY-10
  6
CONTINUOUS
 62
     7
100
AcDbLine
 10
2052.296969619204
 20
1141.100000000063
 30
0.0
 11
2040.924969619205
 21
1141.100000000063
 31
0.0
  0
LINE
  5
556
330
1F
100
AcDbEntity
  8
LAY-10
  6
CONTINUOUS
 62
     7
100
AcDbLine
 10
2052.296969619204
 20
1135.250000000065
 30
0.0
 11
2040.924969619205
 21
1135.250000000065
 31
0.0
  0
LINE
  5
557
330
1F
100
AcDbEntity
  8
LAY-10
  6
CONTINUOUS
 62
     7
100
AcDbLine
 10
2052.296969619204
 20
1162.950000000064
 30
0.0
 11
2040.924969619205
 21
1162.950000000064
 31
0.0
  0
LINE
  5
558
330
1F
100
AcDbEntity
  8
LAY-10
  6
CONTINUOUS
 62
     7
100
AcDbLine
 10
2072.496969619197
 20
1157.100000000061
 30
0.0
 11
2055.496969619199
 21
1157.100000000061
 31
0.0
  0
LINE
  5
559
330
1F
100
AcDbEntity
  8
LAY-10
  6
CONTINUOUS
 62
     7
100
AcDbLine
 10
2072.496969619197
 20
1141.100000000062
 30
0.0
 11
2055.496969619199
 21
1141.100000000062
 31
0.0
  0
LINE
  5
55A
330
1F
100
AcDbEntity
  8
LAY-10
  6
CONTINUOUS
 62
     7
100
AcDbLine
 10
2061.496969619199
 20
1136.600000000064
 30
0.0
 11
2055.496969619197
 21
1136.600000000064
 31
0.0
  0
LINE
  5
55B
330
1F
100
AcDbEntity
  8
LAY-10
  6
CONTINUOUS
 62
     7
100
AcDbLine
 10
2061.496969619199
 20
1161.600000000064
 30
0.0
 11
2055.496969619199
 21
1161.600000000064
 31
0.0
  0
ARC
  5
55C
330
1F
100
AcDbEntity
  8
LAY-10
  6
CONTINUOUS
 62
     7
100
AcDbCircle
 10
2059.766989275223
 20
1149.100000000064
 30
0.0
 40
20.47001965601966
100
AcDbArc
 50
156.9947512290631
 51
203.005248770937
  0
ARC
  5
55D
330
1F
100
AcDbEntity
  8
LAY-10
  6
CONTINUOUS
 62
     7
100
AcDbCircle
 10
2042.738618574976
 20
1138.175000000064
 30
0.0
 40
3.441648955773841
100
AcDbArc
 50
121.8010203972052
 51
238.1989796027948
  0
ARC
  5
55E
330
1F
100
AcDbEntity
  8
LAY-10
  6
CONTINUOUS
 62
     7
100
AcDbCircle
 10
2042.738618574976
 20
1160.025000000065
 30
0.0
 40
3.441648955773841
100
AcDbArc
 50
121.8010203972052
 51
238.1989796027948
  0
LINE
  5
55F
330
1F
100
AcDbEntity
  8
LAY-10
  6
CONTINUOUS
 62
     7
100
AcDbLine
 10
2039.296969619202
 20
1160.025000000065
 30
0.0
 11
2039.296969619202
 21
1138.175000000064
 31
0.0
  0
ARC
  5
560
330
1F
100
AcDbEntity
  8
LAY-10
  6
CONTINUOUS
 62
     7
100
AcDbCircle
 10
2039.29696961919
 20
1138.100000000064
 30
0.0
 40
1.0
100
AcDbArc
 50
180.0
 51
279.6471508008721
  0
ARC
  5
561
330
1F
100
AcDbEntity
  8
LAY-10
  6
CONTINUOUS
 62
     7
100
AcDbCircle
 10
2039.29696961919
 20
1160.100000000065
 30
0.0
 40
1.0
100
AcDbArc
 50
80.35284919912797
 51
180.0
  0
LINE
  5
562
330
1F
100
AcDbEntity
  8
LAY-10
  6
CONTINUOUS
 62
     7
100
AcDbLine
 10
2010.996969619165
 20
1127.100000000065
 30
0.0
 11
2018.996969619163
 21
1127.100000000065
 31
0.0
  0
LINE
  5
563
330
1F
100
AcDbEntity
  8
LAY-10
  6
CONTINUOUS
 62
     7
100
AcDbLine
 10
2010.996969619165
 20
1129.600000000064
 30
0.0
 11
2010.996969619165
 21
1125.600000000066
 31
0.0
  0
LINE
  5
564
330
1F
100
AcDbEntity
  8
LAY-10
  6
CONTINUOUS
 62
     7
100
AcDbLine
 10
2010.996969619165
 20
1140.600000000064
 30
0.0
 11
2010.996969619165
 21
1135.600000000065
 31
0.0
  0
LINE
  5
565
330
1F
100
AcDbEntity
  8
LAY-10
  6
CONTINUOUS
 62
     7
100
AcDbLine
 10
2011.996969619161
 20
1135.350000000064
 30
0.0
 11
2011.996969619161
 21
1129.850000000065
 31
0.0
  0
LINE
  5
566
330
1F
100
AcDbEntity
  8
LAY-10
  6
CONTINUOUS
 62
     7
100
AcDbLine
 10
2011.996969619161
 20
1146.350000000065
 30
0.0
 11
2011.996969619161
 21
1140.850000000064
 31
0.0
  0
LINE
  5
567
330
1F
100
AcDbEntity
  8
LAY-10
  6
CONTINUOUS
 62
     7
100
AcDbLine
 10
2010.996969619165
 20
1151.600000000064
 30
0.0
 11
2010.996969619165
 21
1146.600000000064
 31
0.0
  0
LINE
  5
568
330
1F
100
AcDbEntity
  8
LAY-10
  6
CONTINUOUS
 62
     7
100
AcDbLine
 10
2010.996969619165
 20
1162.600000000063
 30
0.0
 11
2010.996969619165
 21
1157.600000000065
 31
0.0
  0
LINE
  5
569
330
1F
100
AcDbEntity
  8
LAY-10
  6
CONTINUOUS
 62
     7
100
AcDbLine
 10
2010.996969619165
 20
1172.600000000065
 30
0.0
 11
2010.996969619165
 21
1168.600000000064
 31
0.0
  0
LINE
  5
56A
330
1F
100
AcDbEntity
  8
LAY-10
  6
CONTINUOUS
 62
     7
100
AcDbLine
 10
2011.996969619161
 20
1157.350000000065
 30
0.0
 11
2011.996969619161
 21
1151.850000000064
 31
0.0
  0
LINE
  5
56B
330
1F
100
AcDbEntity
  8
LAY-10
  6
CONTINUOUS
 62
     7
100
AcDbLine
 10
2011.996969619163
 20
1168.350000000065
 30
0.0
 11
2011.996969619161
 21
1162.850000000064
 31
0.0
  0
LINE
  5
56C
330
1F
100
AcDbEntity
  8
LAY-10
  6
CONTINUOUS
 62
     7
100
AcDbLine
 10
2011.996969619165
 20
1129.850000000065
 30
0.0
 11
2010.996969619167
 21
1129.600000000065
 31
0.0
  0
LINE
  5
56D
330
1F
100
AcDbEntity
  8
LAY-10
  6
CONTINUOUS
 62
     7
100
AcDbLine
 10
2010.996969619167
 20
1135.600000000065
 30
0.0
 11
2011.996969619165
 21
1135.350000000064
 31
0.0
  0
LINE
  5
56E
330
1F
100
AcDbEntity
  8
LAY-10
  6
CONTINUOUS
 62
     7
100
AcDbLine
 10
2011.996969619165
 20
1140.850000000065
 30
0.0
 11
2010.996969619167
 21
1140.600000000065
 31
0.0
  0
LINE
  5
56F
330
1F
100
AcDbEntity
  8
LAY-10
  6
CONTINUOUS
 62
     7
100
AcDbLine
 10
2010.996969619167
 20
1146.600000000064
 30
0.0
 11
2011.996969619165
 21
1146.350000000065
 31
0.0
  0
LINE
  5
570
330
1F
100
AcDbEntity
  8
LAY-10
  6
CONTINUOUS
 62
     7
100
AcDbLine
 10
2011.996969619167
 20
1168.350000000065
 30
0.0
 11
2010.996969619167
 21
1168.600000000064
 31
0.0
  0
LINE
  5
571
330
1F
100
AcDbEntity
  8
LAY-10
  6
CONTINUOUS
 62
     7
100
AcDbLine
 10
2010.996969619167
 20
1162.600000000064
 30
0.0
 11
2011.996969619165
 21
1162.850000000065
 31
0.0
  0
LINE
  5
572
330
1F
100
AcDbEntity
  8
LAY-10
  6
CONTINUOUS
 62
     7
100
AcDbLine
 10
2011.996969619165
 20
1157.350000000065
 30
0.0
 11
2010.996969619167
 21
1157.600000000065
 31
0.0
  0
LINE
  5
573
330
1F
100
AcDbEntity
  8
LAY-10
  6
CONTINUOUS
 62
     7
100
AcDbLine
 10
2010.996969619167
 20
1151.600000000065
 30
0.0
 11
2011.996969619165
 21
1151.850000000065
 31
0.0
  0
LINE
  5
574
330
1F
100
AcDbEntity
  8
LAY-10
  6
CONTINUOUS
 62
     7
100
AcDbLine
 10
2030.996969619163
 20
1126.100000000065
 30
0.0
 11
2037.482040869237
 21
1127.721267812583
 31
0.0
  0
LINE
  5
575
330
1F
100
AcDbEntity
  8
LAY-10
  6
CONTINUOUS
 62
     7
100
AcDbLine
 10
2023.499451024059
 20
1133.649751859577
 30
0.0
 11
2038.096473338184
 21
1132.190049628163
 31
0.0
  0
LINE
  5
576
330
1F
100
AcDbEntity
  8
LAY-10
  6
CONTINUOUS
 62
     7
100
AcDbLine
 10
2018.996969619163
 20
1159.575062189505
 30
0.0
 11
2018.996969619163
 21
1138.624937810624
 31
0.0
  0
LINE
  5
577
330
1F
100
AcDbEntity
  8
LAY-10
  6
CONTINUOUS
 62
     7
100
AcDbLine
 10
2023.499451024059
 20
1164.550248140552
 30
0.0
 11
2038.096473338184
 21
1166.009950371966
 31
0.0
  0
LINE
  5
578
330
1F
100
AcDbEntity
  8
LAY-10
  6
CONTINUOUS
 62
     7
100
AcDbLine
 10
2030.996969619163
 20
1172.100000000065
 30
0.0
 11
2037.482040869239
 21
1170.478732187545
 31
0.0
  0
LINE
  5
579
330
1F
100
AcDbEntity
  8
LAY-10
  6
CONTINUOUS
 62
     7
100
AcDbLine
 10
2010.996969619165
 20
1125.600000000066
 30
0.0
 11
2012.496969619161
 21
1124.100000000064
 31
0.0
  0
LINE
  5
57A
330
1F
100
AcDbEntity
  8
LAY-10
  6
CONTINUOUS
 62
     7
100
AcDbLine
 10
2010.996969619165
 20
1172.600000000065
 30
0.0
 11
2012.496969619165
 21
1174.100000000065
 31
0.0
  0
ARC
  5
57B
330
1F
100
AcDbEntity
  8
LAY-10
  6
CONTINUOUS
 62
     7
100
AcDbCircle
 10
2023.996969619165
 20
1138.624937810624
 30
0.0
 40
5.0
100
AcDbArc
 50
180.0
 51
264.2894068625025
  0
ARC
  5
57C
330
1F
100
AcDbEntity
  8
LAY-10
  6
CONTINUOUS
 62
     7
100
AcDbCircle
 10
2037.996969619163
 20
1131.195012437952
 30
0.0
 40
1.0
100
AcDbArc
 50
0.0
 51
84.28940686250037
  0
ARC
  5
57D
330
1F
100
AcDbEntity
  8
LAY-10
  6
CONTINUOUS
 62
     7
100
AcDbCircle
 10
2036.996969619163
 20
1129.661552812875
 30
0.0
 40
2.0
100
AcDbArc
 50
284.0362434679201
 51
0.0
  0
LINE
  5
57E
330
1F
100
AcDbEntity
  8
LAY-10
  6
CONTINUOUS
 62
     7
100
AcDbLine
 10
2030.996969619163
 20
1126.100000000065
 30
0.0
 11
2030.996969619163
 21
1128.100000000065
 31
0.0
  0
LINE
  5
57F
330
1F
100
AcDbEntity
  8
LAY-10
  6
CONTINUOUS
 62
     7
100
AcDbLine
 10
2022.996969619163
 20
1126.100000000065
 30
0.0
 11
2022.996969619163
 21
1128.100000000065
 31
0.0
  0
LINE
  5
580
330
1F
100
AcDbEntity
  8
LAY-10
  6
CONTINUOUS
 62
     7
100
AcDbLine
 10
2018.996969619163
 20
1127.100000000065
 30
0.0
 11
2022.996969619163
 21
1128.100000000065
 31
0.0
  0
LINE
  5
581
330
1F
100
AcDbEntity
  8
LAY-10
  6
CONTINUOUS
 62
     7
100
AcDbLine
 10
2022.996969619163
 20
1126.100000000065
 30
0.0
 11
2030.996969619163
 21
1128.100000000065
 31
0.0
  0
ARC
  5
582
330
1F
100
AcDbEntity
  8
LAY-10
  6
CONTINUOUS
 62
     7
100
AcDbCircle
 10
2023.996969619165
 20
1159.575062189505
 30
0.0
 40
5.0
100
AcDbArc
 50
95.71059313749761
 51
180.0
  0
ARC
  5
583
330
1F
100
AcDbEntity
  8
LAY-10
  6
CONTINUOUS
 62
     7
100
AcDbCircle
 10
2037.996969619163
 20
1167.004987562177
 30
0.0
 40
1.0
100
AcDbArc
 50
275.7105931374997
 51
0.0
  0
ARC
  5
584
330
1F
100
AcDbEntity
  8
LAY-10
  6
CONTINUOUS
 62
     7
100
AcDbCircle
 10
2036.996969619163
 20
1168.538447187256
 30
0.0
 40
2.0
100
AcDbArc
 50
0.0
 51
75.96375653207986
  0
LINE
  5
585
330
1F
100
AcDbEntity
  8
LAY-10
  6
CONTINUOUS
 62
     7
100
AcDbLine
 10
2030.996969619163
 20
1172.100000000065
 30
0.0
 11
2030.996969619163
 21
1170.100000000064
 31
0.0
  0
LINE
  5
586
330
1F
100
AcDbEntity
  8
LAY-10
  6
CONTINUOUS
 62
     7
100
AcDbLine
 10
2022.996969619163
 20
1172.100000000065
 30
0.0
 11
2022.996969619163
 21
1170.100000000064
 31
0.0
  0
LINE
  5
587
330
1F
100
AcDbEntity
  8
LAY-10
  6
CONTINUOUS
 62
     7
100
AcDbLine
 10
2014.996969619163
 20
1171.100000000064
 30
0.0
 11
2018.996969619163
 21
1171.100000000064
 31
0.0
  0
LINE
  5
588
330
1F
100
AcDbEntity
  8
LAY-10
  6
CONTINUOUS
 62
     7
100
AcDbLine
 10
2018.996969619163
 20
1171.100000000064
 30
0.0
 11
2022.996969619163
 21
1170.100000000064
 31
0.0
  0
LINE
  5
589
330
1F
100
AcDbEntity
  8
LAY-10
  6
CONTINUOUS
 62
     7
100
AcDbLine
 10
2022.996969619163
 20
1172.100000000065
 30
0.0
 11
2030.996969619163
 21
1170.100000000064
 31
0.0
  0
LINE
  5
58A
330
1F
100
AcDbEntity
  8
LAY-10
  6
CONTINUOUS
 62
     7
100
AcDbLine
 10
2038.29696961919
 20
1160.100000000065
 30
0.0
 11
2038.29696961919
 21
1138.100000000064
 31
0.0
  0
LINE
  5
58B
330
1F
100
AcDbEntity
  8
LAY-10
  6
CONTINUOUS
 62
     7
100
AcDbLine
 10
2033.496969619196
 20
1141.100000000062
 30
0.0
 11
2032.496969619196
 21
1142.100000000061
 31
0.0
  0
LINE
  5
58C
330
1F
100
AcDbEntity
  8
LAY-10
  6
CONTINUOUS
 62
     7
100
AcDbLine
 10
2032.496969619196
 20
1156.100000000062
 30
0.0
 11
2033.496969619196
 21
1157.100000000061
 31
0.0
  0
LINE
  5
58D
330
1F
100
AcDbEntity
  8
LAY-10
  6
CONTINUOUS
 62
     7
100
AcDbLine
 10
2032.496969619196
 20
1142.100000000061
 30
0.0
 11
2032.496969619196
 21
1156.100000000062
 31
0.0
  0
LINE
  5
58E
330
1F
100
AcDbEntity
  8
LAY-10
  6
CONTINUOUS
 62
     7
100
AcDbLine
 10
2038.296969619197
 20
1141.100000000062
 30
0.0
 11
2033.496969619196
 21
1141.100000000062
 31
0.0
  0
LINE
  5
58F
330
1F
100
AcDbEntity
  8
LAY-10
  6
CONTINUOUS
 62
     7
100
AcDbLine
 10
2038.296969619197
 20
1157.100000000061
 30
0.0
 11
2033.496969619196
 21
1157.100000000061
 31
0.0
  0
LINE
  5
590
330
1F
100
AcDbEntity
  8
LAY-10
  6
CONTINUOUS
 62
     7
100
AcDbLine
 10
2038.996969619165
 20
1137.146060798646
 30
0.0
 11
2038.996969619165
 21
1129.661552812875
 31
0.0
  0
LINE
  5
591
330
1F
100
AcDbEntity
  8
LAY-10
  6
CONTINUOUS
 62
     7
100
AcDbLine
 10
2038.996969619165
 20
1168.538447187263
 30
0.0
 11
2038.996969619165
 21
1161.053939201472
 31
0.0
  0
LINE
  5
592
330
1F
100
AcDbEntity
  8
LAY-10
  6
CONTINUOUS
 62
     7
100
AcDbLine
 10
2055.496969619199
 20
1171.800000000032
 30
0.0
 11
2014.996969619163
 21
1171.800000000032
 31
0.0
  0
LINE
  5
593
330
1F
100
AcDbEntity
  8
LAY-10
  6
CONTINUOUS
 62
     7
100
AcDbLine
 10
2055.496969619199
 20
1174.100000000033
 30
0.0
 11
2012.496969619131
 21
1174.100000000033
 31
0.0
  0
LINE
  5
594
330
1F
100
AcDbEntity
  8
LAY-10
  6
CONTINUOUS
 62
     7
100
AcDbLine
 10
2014.996969619163
 20
1126.400000000026
 30
0.0
 11
2055.496969619199
 21
1126.400000000026
 31
0.0
  0
LINE
  5
595
330
1F
100
AcDbEntity
  8
LAY-10
  6
CONTINUOUS
 62
     7
100
AcDbLine
 10
2012.496969619203
 20
1124.100000000024
 30
0.0
 11
2053.496969619199
 21
1124.100000000024
 31
0.0
  0
ARC
  5
596
330
1F
100
AcDbEntity
  8
LAY-10
  6
CONTINUOUS
 62
     7
100
AcDbCircle
 10
2053.496969619199
 20
1126.100000000024
 30
0.0
 40
2.0
100
AcDbArc
 50
270.0
 51
0.0
  0
LINE
  5
597
330
1F
100
AcDbEntity
  8
LAY-10
  6
CONTINUOUS
 62
     7
100
AcDbLine
 10
2010.496969619198
 20
1174.100000000027
 30
0.0
 11
2014.996969619199
 21
1174.100000000027
 31
0.0
  0
ARC
  5
598
330
1F
100
AcDbEntity
  8
LAY-10
  6
CONTINUOUS
 62
     7
100
AcDbCircle
 10
2075.496969619205
 20
1168.100000000105
 30
0.0
 40
3.000000000000001
100
AcDbArc
 50
90.00000000000001
 51
180.0
  0
LINE
  5
599
330
1F
100
AcDbEntity
  8
LAY-10
  6
CONTINUOUS
 62
     7
100
AcDbLine
 10
2061.496969619199
 20
1182.600000000147
 30
0.0
 11
2061.496969619199
 21
1157.100000000061
 31
0.0
  0
LINE
  5
59A
330
1F
100
AcDbEntity
  8
LAY-10
  6
CONTINUOUS
 62
     7
100
AcDbLine
 10
2080.49696961923
 20
1114.1
 30
0.0
 11
2080.49696961923
 21
1135.250000000061
 31
0.0
  0
LINE
  5
59B
330
1F
100
AcDbEntity
  8
LAY-10
  6
CONTINUOUS
 62
     7
100
AcDbLine
 10
2055.496969619199
 20
1182.600000000147
 30
0.0
 11
2055.496969619199
 21
1126.1
 31
0.0
  0
LINE
  5
59C
330
1F
100
AcDbEntity
  8
LAY-10
  6
CONTINUOUS
 62
     7
100
AcDbLine
 10
2066.496969619205
 20
1141.100000000062
 30
0.0
 11
2066.496969619205
 21
1114.100000000046
 31
0.0
  0
LINE
  5
59D
330
1F
100
AcDbEntity
  8
LAY-10
  6
CONTINUOUS
 62
     7
100
AcDbLine
 10
2014.996969619199
 20
1118.100000000009
 30
0.0
 11
2054.496969619199
 21
1118.100000000009
 31
0.0
  0
ARC
  5
59E
330
1F
100
AcDbEntity
  8
LAY-10
  6
CONTINUOUS
 62
     7
100
AcDbCircle
 10
2054.496969619199
 20
1125.100000000008
 30
0.0
 40
7.0
100
AcDbArc
 50
270.0
 51
0.0
  0
LINE
  5
59F
330
1F
100
AcDbEntity
  8
LAY-10
  6
CONTINUOUS
 62
     7
100
AcDbLine
 10
2174.496969619232
 20
1180.1000000001
 30
0.0
 11
2174.496969619232
 21
1236.100000000124
 31
0.0
  0
LINE
  5
5A0
330
1F
100
AcDbEntity
  8
LAY-10
  6
CONTINUOUS
 62
     7
100
AcDbLine
 10
2014.996969619199
 20
1127.100000000065
 30
0.0
 11
2014.996969619199
 21
1114.100000000049
 31
0.0
  0
LINE
  5
5A1
330
1F
100
AcDbEntity
  8
LAY-10
  6
CONTINUOUS
 62
     7
100
AcDbLine
 10
2164.996969619199
 20
1188.600000000167
 30
0.0
 11
2164.996969619199
 21
2183.600000000096
 31
0.0
  0
LINE
  5
5A2
330
1F
100
AcDbEntity
  8
LAY-10
  6
CONTINUOUS
 62
     7
100
AcDbLine
 10
2157.996969619199
 20
1188.600000000167
 30
0.0
 11
2157.996969619199
 21
2183.600000000096
 31
0.0
  0
LINE
  5
5A3
330
1F
100
AcDbEntity
  8
LAY-10
  6
CONTINUOUS
 62
     7
100
AcDbLine
 10
2079.996969619207
 20
1939.100000000105
 30
0.0
 11
2014.996969619207
 21
1939.100000000107
 31
0.0
  0
LINE
  5
5A4
330
1F
100
AcDbEntity
  8
LAY-10
  6
CONTINUOUS
 62
     7
100
AcDbLine
 10
2079.996969619207
 20
1933.100000000105
 30
0.0
 11
2014.996969619207
 21
1933.100000000106
 31
0.0
  0
LINE
  5
5A5
330
1F
100
AcDbEntity
  8
LAY-10
  6
CONTINUOUS
 62
     7
100
AcDbLine
 10
2079.996969619207
 20
1933.100000000105
 30
0.0
 11
2079.996969619207
 21
1958.100000000105
 31
0.0
  0
LINE
  5
5A6
330
1F
100
AcDbEntity
  8
LAY-10
  6
CONTINUOUS
 62
     7
100
AcDbLine
 10
2039.996969619209
 20
1939.100000000107
 30
0.0
 11
2039.996969619209
 21
1974.078762000106
 31
0.0
  0
LINE
  5
5A7
330
1F
100
AcDbEntity
  8
LAY-10
  6
CONTINUOUS
 62
     7
100
AcDbLine
 10
2047.646963619208
 20
1978.318754000106
 30
0.0
 11
2079.996969619207
 21
1958.100000000105
 31
0.0
  0
ARC
  5
5A8
330
1F
100
AcDbEntity
  8
LAY-10
  6
CONTINUOUS
 62
     7
100
AcDbCircle
 10
2044.996969619207
 20
1974.078762000106
 30
0.0
 40
5.0
100
AcDbArc
 50
57.99461699998903
 51
180.0
  0
LINE
  5
5A9
330
1F
100
AcDbEntity
  8
LAY-10
  6
CONTINUOUS
 62
     7
100
AcDbLine
 10
2079.996969619207
 20
1839.100000000107
 30
0.0
 11
2014.996969619207
 21
1839.100000000107
 31
0.0
  0
LINE
  5
5AA
330
1F
100
AcDbEntity
  8
LAY-10
  6
CONTINUOUS
 62
     7
100
AcDbLine
 10
2079.996969619207
 20
1833.100000000105
 30
0.0
 11
2014.996969619207
 21
1833.100000000105
 31
0.0
  0
LINE
  5
5AB
330
1F
100
AcDbEntity
  8
LAY-10
  6
CONTINUOUS
 62
     7
100
AcDbLine
 10
2079.996969619207
 20
1833.100000000105
 30
0.0
 11
2079.996969619207
 21
1858.100000000105
 31
0.0
  0
LINE
  5
5AC
330
1F
100
AcDbEntity
  8
LAY-10
  6
CONTINUOUS
 62
     7
100
AcDbLine
 10
2039.996969619209
 20
1839.100000000107
 30
0.0
 11
2039.996969619209
 21
1874.078762000107
 31
0.0
  0
LINE
  5
5AD
330
1F
100
AcDbEntity
  8
LAY-10
  6
CONTINUOUS
 62
     7
100
AcDbLine
 10
2047.646963619208
 20
1878.318754000107
 30
0.0
 11
2079.996969619207
 21
1858.100000000105
 31
0.0
  0
ARC
  5
5AE
330
1F
100
AcDbEntity
  8
LAY-10
  6
CONTINUOUS
 62
     7
100
AcDbCircle
 10
2044.996969619207
 20
1874.078762000107
 30
0.0
 40
5.0
100
AcDbArc
 50
57.99461699998903
 51
180.0
  0
ARC
  5
5AF
330
1F
100
AcDbEntity
  8
LAY-10
  6
CONTINUOUS
 62
     7
100
AcDbCircle
 10
2044.996969619207
 20
1774.078762000106
 30
0.0
 40
5.0
100
AcDbArc
 50
57.99461699998903
 51
180.0
  0
LINE
  5
5B0
330
1F
100
AcDbEntity
  8
LAY-10
  6
CONTINUOUS
 62
     7
100
AcDbLine
 10
2079.996969619207
 20
1733.100000000105
 30
0.0
 11
2014.996969619207
 21
1733.100000000105
 31
0.0
  0
LINE
  5
5B1
330
1F
100
AcDbEntity
  8
LAY-10
  6
CONTINUOUS
 62
     7
100
AcDbLine
 10
2079.996969619207
 20
1739.100000000107
 30
0.0
 11
2014.996969619207
 21
1739.100000000107
 31
0.0
  0
LINE
  5
5B2
330
1F
100
AcDbEntity
  8
LAY-10
  6
CONTINUOUS
 62
     7
100
AcDbLine
 10
2039.996969619209
 20
1739.100000000107
 30
0.0
 11
2039.996969619209
 21
1774.078762000106
 31
0.0
  0
LINE
  5
5B3
330
1F
100
AcDbEntity
  8
LAY-10
  6
CONTINUOUS
 62
     7
100
AcDbLine
 10
2079.996969619207
 20
1733.100000000105
 30
0.0
 11
2079.996969619207
 21
1758.100000000105
 31
0.0
  0
LINE
  5
5B4
330
1F
100
AcDbEntity
  8
LAY-10
  6
CONTINUOUS
 62
     7
100
AcDbLine
 10
2047.646963619208
 20
1778.318754000107
 30
0.0
 11
2079.996969619207
 21
1758.100000000105
 31
0.0
  0
ARC
  5
5B5
330
1F
100
AcDbEntity
  8
LAY-10
  6
CONTINUOUS
 62
     7
100
AcDbCircle
 10
2044.996969619207
 20
1674.078762000106
 30
0.0
 40
5.0
100
AcDbArc
 50
57.99461699998903
 51
180.0
  0
LINE
  5
5B6
330
1F
100
AcDbEntity
  8
LAY-10
  6
CONTINUOUS
 62
     7
100
AcDbLine
 10
2079.996969619207
 20
1633.100000000105
 30
0.0
 11
2014.996969619207
 21
1633.100000000105
 31
0.0
  0
LINE
  5
5B7
330
1F
100
AcDbEntity
  8
LAY-10
  6
CONTINUOUS
 62
     7
100
AcDbLine
 10
2079.996969619207
 20
1639.100000000105
 30
0.0
 11
2014.996969619207
 21
1639.100000000105
 31
0.0
  0
LINE
  5
5B8
330
1F
100
AcDbEntity
  8
LAY-10
  6
CONTINUOUS
 62
     7
100
AcDbLine
 10
2039.996969619209
 20
1639.100000000105
 30
0.0
 11
2039.996969619209
 21
1674.078762000106
 31
0.0
  0
LINE
  5
5B9
330
1F
100
AcDbEntity
  8
LAY-10
  6
CONTINUOUS
 62
     7
100
AcDbLine
 10
2079.996969619207
 20
1633.100000000105
 30
0.0
 11
2079.996969619207
 21
1658.100000000105
 31
0.0
  0
LINE
  5
5BA
330
1F
100
AcDbEntity
  8
LAY-10
  6
CONTINUOUS
 62
     7
100
AcDbLine
 10
2047.646963619208
 20
1678.318754000106
 30
0.0
 11
2079.996969619207
 21
1658.100000000105
 31
0.0
  0
ARC
  5
5BB
330
1F
100
AcDbEntity
  8
LAY-10
  6
CONTINUOUS
 62
     7
100
AcDbCircle
 10
2044.996969619207
 20
1574.078762000107
 30
0.0
 40
5.0
100
AcDbArc
 50
57.99461699998903
 51
180.0
  0
LINE
  5
5BC
330
1F
100
AcDbEntity
  8
LAY-10
  6
CONTINUOUS
 62
     7
100
AcDbLine
 10
2079.996969619207
 20
1533.100000000105
 30
0.0
 11
2014.996969619207
 21
1533.100000000105
 31
0.0
  0
LINE
  5
5BD
330
1F
100
AcDbEntity
  8
LAY-10
  6
CONTINUOUS
 62
     7
100
AcDbLine
 10
2079.996969619207
 20
1539.100000000107
 30
0.0
 11
2014.996969619207
 21
1539.100000000107
 31
0.0
  0
LINE
  5
5BE
330
1F
100
AcDbEntity
  8
LAY-10
  6
CONTINUOUS
 62
     7
100
AcDbLine
 10
2039.996969619209
 20
1539.100000000107
 30
0.0
 11
2039.996969619209
 21
1574.078762000107
 31
0.0
  0
LINE
  5
5BF
330
1F
100
AcDbEntity
  8
LAY-10
  6
CONTINUOUS
 62
     7
100
AcDbLine
 10
2079.996969619207
 20
1533.100000000105
 30
0.0
 11
2079.996969619207
 21
1558.100000000105
 31
0.0
  0
LINE
  5
5C0
330
1F
100
AcDbEntity
  8
LAY-10
  6
CONTINUOUS
 62
     7
100
AcDbLine
 10
2047.646963619208
 20
1578.318754000107
 30
0.0
 11
2079.996969619207
 21
1558.100000000105
 31
0.0
  0
LINE
  5
5C1
330
1F
100
AcDbEntity
  8
LAY-10
  6
CONTINUOUS
 62
     7
100
AcDbLine
 10
2079.996969619207
 20
1439.100000000105
 30
0.0
 11
2014.996969619207
 21
1439.100000000105
 31
0.0
  0
LINE
  5
5C2
330
1F
100
AcDbEntity
  8
LAY-10
  6
CONTINUOUS
 62
     7
100
AcDbLine
 10
2079.996969619207
 20
1433.100000000105
 30
0.0
 11
2014.996969619207
 21
1433.100000000105
 31
0.0
  0
LINE
  5
5C3
330
1F
100
AcDbEntity
  8
LAY-10
  6
CONTINUOUS
 62
     7
100
AcDbLine
 10
2079.996969619207
 20
1433.100000000105
 30
0.0
 11
2079.996969619207
 21
1458.100000000105
 31
0.0
  0
LINE
  5
5C4
330
1F
100
AcDbEntity
  8
LAY-10
  6
CONTINUOUS
 62
     7
100
AcDbLine
 10
2039.996969619209
 20
1439.100000000105
 30
0.0
 11
2039.996969619209
 21
1474.078762000106
 31
0.0
  0
ARC
  5
5C5
330
1F
100
AcDbEntity
  8
LAY-10
  6
CONTINUOUS
 62
     7
100
AcDbCircle
 10
2044.996969619207
 20
1474.078762000106
 30
0.0
 40
5.0
100
AcDbArc
 50
57.99461699998903
 51
180.0
  0
LINE
  5
5C6
330
1F
100
AcDbEntity
  8
LAY-10
  6
CONTINUOUS
 62
     7
100
AcDbLine
 10
2047.646963619208
 20
1478.318754000105
 30
0.0
 11
2079.996969619207
 21
1458.100000000105
 31
0.0
  0
LINE
  5
5C7
330
1F
100
AcDbEntity
  8
LAY-10
  6
CONTINUOUS
 62
     7
100
AcDbLine
 10
2047.646963619208
 20
1378.318754000106
 30
0.0
 11
2079.996969619207
 21
1358.100000000105
 31
0.0
  0
LINE
  5
5C8
330
1F
100
AcDbEntity
  8
LAY-10
  6
CONTINUOUS
 62
     7
100
AcDbLine
 10
2039.996969619209
 20
1339.100000000105
 30
0.0
 11
2039.996969619209
 21
1374.078762000106
 31
0.0
  0
LINE
  5
5C9
330
1F
100
AcDbEntity
  8
LAY-10
  6
CONTINUOUS
 62
     7
100
AcDbLine
 10
2079.996969619207
 20
1333.100000000105
 30
0.0
 11
2014.996969619207
 21
1333.100000000105
 31
0.0
  0
LINE
  5
5CA
330
1F
100
AcDbEntity
  8
LAY-10
  6
CONTINUOUS
 62
     7
100
AcDbLine
 10
2079.996969619207
 20
1339.100000000105
 30
0.0
 11
2014.996969619207
 21
1339.100000000105
 31
0.0
  0
LINE
  5
5CB
330
1F
100
AcDbEntity
  8
LAY-10
  6
CONTINUOUS
 62
     7
100
AcDbLine
 10
2079.996969619207
 20
1333.100000000105
 30
0.0
 11
2079.996969619207
 21
1358.100000000105
 31
0.0
  0
ARC
  5
5CC
330
1F
100
AcDbEntity
  8
LAY-10
  6
CONTINUOUS
 62
     7
100
AcDbCircle
 10
2044.996969619207
 20
1374.078762000106
 30
0.0
 40
5.0
100
AcDbArc
 50
57.99461699998903
 51
180.0
  0
LINE
  5
5CD
330
1F
100
AcDbEntity
  8
LAY-10
  6
CONTINUOUS
 62
     7
100
AcDbLine
 10
2021.996969619194
 20
1433.100000000105
 30
0.0
 11
2021.996969619194
 21
1339.100000000105
 31
0.0
  0
LINE
  5
5CE
330
1F
100
AcDbEntity
  8
LAY-10
  6
CONTINUOUS
 62
     7
100
AcDbLine
 10
2021.996969619194
 20
1533.100000000105
 30
0.0
 11
2021.996969619194
 21
1439.100000000105
 31
0.0
  0
LINE
  5
5CF
330
1F
100
AcDbEntity
  8
LAY-10
  6
CONTINUOUS
 62
     7
100
AcDbLine
 10
2021.996969619194
 20
1633.100000000105
 30
0.0
 11
2021.996969619194
 21
1539.100000000107
 31
0.0
  0
LINE
  5
5D0
330
1F
100
AcDbEntity
  8
LAY-10
  6
CONTINUOUS
 62
     7
100
AcDbLine
 10
2021.996969619196
 20
1733.100000000105
 30
0.0
 11
2021.996969619194
 21
1639.100000000105
 31
0.0
  0
LINE
  5
5D1
330
1F
100
AcDbEntity
  8
LAY-10
  6
CONTINUOUS
 62
     7
100
AcDbLine
 10
2021.996969619196
 20
1833.100000000105
 30
0.0
 11
2021.996969619196
 21
1739.100000000107
 31
0.0
  0
LINE
  5
5D2
330
1F
100
AcDbEntity
  8
LAY-10
  6
CONTINUOUS
 62
     7
100
AcDbLine
 10
2021.996969619198
 20
1933.100000000106
 30
0.0
 11
2021.996969619198
 21
1839.100000000107
 31
0.0
  0
LINE
  5
5D3
330
1F
100
AcDbEntity
  8
LAY-10
  6
CONTINUOUS
 62
     7
100
AcDbLine
 10
2021.996969619198
 20
2033.100000000107
 30
0.0
 11
2021.996969619198
 21
1939.100000000107
 31
0.0
  0
LINE
  5
5D4
330
1F
100
AcDbEntity
  8
LAY-10
  6
CONTINUOUS
 62
     7
100
AcDbLine
 10
2010.496969619198
 20
2258.100000000199
 30
0.0
 11
2010.496969619198
 21
1114.1
 31
0.0
  0
LINE
  5
5D5
330
1F
100
AcDbEntity
  8
LAY-10
  6
CONTINUOUS
 62
     7
100
AcDbLine
 10
2014.996969619199
 20
1171.1000000001
 30
0.0
 11
2014.996969619199
 21
2201.1000000001
 31
0.0
  0
LINE
  5
5D6
330
1F
100
AcDbEntity
  8
LAY-10
  6
CONTINUOUS
 62
     7
100
AcDbLine
 10
2021.996969619194
 20
1333.1000000001
 30
0.0
 11
2021.996969619194
 21
1239.100000000106
 31
0.0
  0
LINE
  5
5D7
330
1F
100
AcDbEntity
  8
LAY-10
  6
CONTINUOUS
 62
     7
100
AcDbLine
 10
2072.496969619194
 20
2230.100000000087
 30
0.0
 11
2055.496969619197
 21
2230.100000000087
 31
0.0
  0
LINE
  5
5D8
330
1F
100
AcDbEntity
  8
LAY-10
  6
CONTINUOUS
 62
     7
100
AcDbLine
 10
2072.496969619194
 20
2216.100000000089
 30
0.0
 11
2055.496969619197
 21
2216.100000000089
 31
0.0
  0
LINE
  5
5D9
330
1F
100
AcDbEntity
  8
LAY-10
  6
CONTINUOUS
 62
     7
100
AcDbLine
 10
2033.496969619194
 20
2231.100000000087
 30
0.0
 11
2033.496969619194
 21
2215.100000000087
 31
0.0
  0
LINE
  5
5DA
330
1F
100
AcDbEntity
  8
LAY-10
  6
CONTINUOUS
 62
     7
100
AcDbLine
 10
2038.29696961919
 20
2230.100000000087
 30
0.0
 11
2032.496969619192
 21
2230.100000000087
 31
0.0
  0
LINE
  5
5DB
330
1F
100
AcDbEntity
  8
LAY-10
  6
CONTINUOUS
 62
     7
100
AcDbLine
 10
2038.29696961919
 20
2216.100000000089
 30
0.0
 11
2032.496969619192
 21
2216.100000000087
 31
0.0
  0
LINE
  5
5DC
330
1F
100
AcDbEntity
  8
LAY-10
  6
CONTINUOUS
 62
     7
100
AcDbLine
 10
2038.29696961919
 20
1156.10000000006
 30
0.0
 11
2032.496969619196
 21
1156.100000000062
 31
0.0
  0
LINE
  5
5DD
330
1F
100
AcDbEntity
  8
LAY-10
  6
CONTINUOUS
 62
     7
100
AcDbLine
 10
2033.496969619196
 20
1141.100000000062
 30
0.0
 11
2033.496969619196
 21
1157.100000000061
 31
0.0
  0
LINE
  5
5DE
330
1F
100
AcDbEntity
  8
LAY-10
  6
CONTINUOUS
 62
     7
100
AcDbLine
 10
2038.29696961919
 20
1142.100000000061
 30
0.0
 11
2032.496969619196
 21
1142.100000000061
 31
0.0
  0
LINE
  5
5DF
330
1F
100
AcDbEntity
  8
LAY-10
  6
CONTINUOUS
 62
     7
100
AcDbLine
 10
2072.496969619197
 20
1142.100000000061
 30
0.0
 11
2055.496969619199
 21
1142.100000000061
 31
0.0
  0
LINE
  5
5E0
330
1F
100
AcDbEntity
  8
LAY-10
  6
CONTINUOUS
 62
     7
100
AcDbLine
 10
2072.496969619197
 20
1156.10000000006
 30
0.0
 11
2055.496969619199
 21
1156.10000000006
 31
0.0
  0
LINE
  5
5E1
330
1F
100
AcDbEntity
  8
LAY-10
  6
CONTINUOUS
 62
     7
100
AcDbLine
 10
2072.496969619201
 20
2204.099999999944
 30
0.0
 11
2072.496969619201
 21
2317.1000000003
 31
0.0
  0
LINE
  5
5E2
330
1F
100
AcDbEntity
  8
LAY-10
  6
CONTINUOUS
 62
     7
100
AcDbLine
 10
2078.4969696192
 20
2317.1000000003
 30
0.0
 11
2072.4969696192
 21
2317.1000000003
 31
0.0
  0
LINE
  5
5E3
330
1F
100
AcDbEntity
  8
LAY-10
  6
CONTINUOUS
 62
     7
100
AcDbLine
 10
2072.496969619159
 20
2299.600000000217
 30
0.0
 11
2078.496969619159
 21
2299.600000000217
 31
0.0
  0
LINE
  5
5E4
330
1F
100
AcDbEntity
  8
LAY-10
  6
CONTINUOUS
 62
     7
100
AcDbLine
 10
2072.496969619159
 20
2284.600000000166
 30
0.0
 11
2078.496969619159
 21
2284.600000000166
 31
0.0
  0
LINE
  5
5E5
330
1F
100
AcDbEntity
  8
LAY-10
  6
CONTINUOUS
 62
     7
100
AcDbLine
 10
2078.496969619183
 20
2236.9500000001
 30
0.0
 11
2078.496969619183
 21
2317.1000000003
 31
0.0
  0
LINE
  5
5E6
330
1F
100
AcDbEntity
  8
LAY-10
  6
CONTINUOUS
 62
     7
100
AcDbLine
 10
2110.195454429065
 20
2299.112193308959
 30
0.0
 11
2078.496969619183
 21
2267.413708499078
 31
0.0
  0
LINE
  5
5E7
330
1F
100
AcDbEntity
  8
LAY-10
  6
CONTINUOUS
 62
     7
100
AcDbLine
 10
2078.4969696192
 20
1055.099999999849
 30
0.0
 11
2072.4969696192
 21
1055.099999999849
 31
0.0
  0
LINE
  5
5E8
330
1F
100
AcDbEntity
  8
LAY-10
  6
CONTINUOUS
 62
     7
100
AcDbLine
 10
2072.496969619159
 20
1072.599999999932
 30
0.0
 11
2078.496969619159
 21
1072.599999999932
 31
0.0
  0
LINE
  5
5E9
330
1F
100
AcDbEntity
  8
LAY-10
  6
CONTINUOUS
 62
     7
100
AcDbLine
 10
2072.496969619159
 20
1087.599999999983
 30
0.0
 11
2078.496969619159
 21
1087.599999999983
 31
0.0
  0
LINE
  5
5EA
330
1F
100
AcDbEntity
  8
LAY-10
  6
CONTINUOUS
 62
     7
100
AcDbLine
 10
2078.496969619183
 20
1135.250000000049
 30
0.0
 11
2078.496969619183
 21
1055.099999999849
 31
0.0
  0
LINE
  5
5EB
330
1F
100
AcDbEntity
  8
LAY-10
  6
CONTINUOUS
 62
     7
100
AcDbLine
 10
2072.496969619203
 20
1168.100000000206
 30
0.0
 11
2072.496969619203
 21
1055.09999999985
 31
0.0
  0
LINE
  5
5EC
330
1F
100
AcDbEntity
  8
LAY-10
  6
CONTINUOUS
 62
     7
100
AcDbLine
 10
2110.195454429067
 20
1073.08780669119
 30
0.0
 11
2078.496969619183
 21
1104.786291501072
 31
0.0
  0
ARC
  5
5ED
330
1F
100
AcDbEntity
  8
LAY-10
  6
CONTINUOUS
 62
     7
100
AcDbCircle
 10
2075.496969619205
 20
1168.100000000105
 30
0.0
 40
9.0
100
AcDbArc
 50
90.00000000000001
 51
180.0
  0
LINE
  5
5EE
330
1F
100
AcDbEntity
  8
LAY-10
  6
CONTINUOUS
 62
     7
100
AcDbLine
 10
2066.496969619205
 20
1169.100000000105
 30
0.0
 11
2066.496969619205
 21
1157.100000000061
 31
0.0
  0
LINE
  5
5EF
330
1F
100
AcDbEntity
  8
LAY-10
  6
CONTINUOUS
 62
     7
100
AcDbLine
 10
2061.496969619199
 20
1125.100000000008
 30
0.0
 11
2061.496969619199
 21
1141.100000000062
 31
0.0
  0
LINE
  5
5F0
330
1F
100
AcDbEntity
  8
LAY-10
  6
CONTINUOUS
 62
     7
100
AcDbLine
 10
2061.496969619199
 20
1129.100000000046
 30
0.0
 11
2066.496969619197
 21
1129.100000000046
 31
0.0
  0
LINE
  5
5F1
330
1F
100
AcDbEntity
  8
LAY-10
  6
CONTINUOUS
 62
     7
100
AcDbLine
 10
2066.496969619201
 20
1169.100000000047
 30
0.0
 11
2061.496969619199
 21
1169.100000000047
 31
0.0
  0
LINE
  5
5F2
330
1F
100
AcDbEntity
  8
LAY-10
  6
CONTINUOUS
 62
     7
100
AcDbLine
 10
2061.496969619199
 20
1136.600000000046
 30
0.0
 11
2066.496969619197
 21
1136.600000000046
 31
0.0
  0
LINE
  5
5F3
330
1F
100
AcDbEntity
  8
LAY-10
  6
CONTINUOUS
 62
     7
100
AcDbLine
 10
2061.496969619199
 20
1161.600000000047
 30
0.0
 11
2066.496969619197
 21
1161.600000000047
 31
0.0
  0
LINE
  5
5F4
330
1F
100
AcDbEntity
  8
LAY-10
  6
CONTINUOUS
 62
     7
100
AcDbLine
 10
2164.996969619199
 20
1232.600000000169
 30
0.0
 11
2169.496969619179
 21
1232.600000000169
 31
0.0
  0
LINE
  5
5F5
330
1F
100
AcDbEntity
  8
LAY-10
  6
CONTINUOUS
 62
     7
100
AcDbLine
 10
2169.496969619179
 20
1188.600000000167
 30
0.0
 11
2169.496969619179
 21
1232.600000000169
 31
0.0
  0
LINE
  5
5F6
330
1F
100
AcDbEntity
  8
LAY-10
  6
CONTINUOUS
 62
     7
100
AcDbLine
 10
2174.496969619199
 20
1228.600000000194
 30
0.0
 11
2169.496969619201
 21
1228.600000000194
 31
0.0
  0
LINE
  5
5F7
330
1F
100
AcDbEntity
  8
LAY-10
  6
CONTINUOUS
 62
     7
100
AcDbLine
 10
2169.496969619201
 20
1188.600000000168
 30
0.0
 11
2174.49696961923
 21
1188.600000000168
 31
0.0
  0
LINE
  5
5F8
330
1F
100
AcDbEntity
  8
LAY-10
  6
CONTINUOUS
 62
     7
100
AcDbLine
 10
2061.496969619197
 20
2243.100000000102
 30
0.0
 11
2066.496969619192
 21
2243.100000000102
 31
0.0
  0
LINE
  5
5F9
330
1F
100
AcDbEntity
  8
LAY-10
  6
CONTINUOUS
 62
     7
100
AcDbLine
 10
2061.496969619197
 20
2235.600000000102
 30
0.0
 11
2066.496969619192
 21
2235.600000000102
 31
0.0
  0
LINE
  5
5FA
330
1F
100
AcDbEntity
  8
LAY-10
  6
CONTINUOUS
 62
     7
100
AcDbLine
 10
2061.496969619196
 20
2210.600000000103
 30
0.0
 11
2066.496969619192
 21
2210.600000000103
 31
0.0
  0
LINE
  5
5FB
330
1F
100
AcDbEntity
  8
LAY-10
  6
CONTINUOUS
 62
     7
100
AcDbLine
 10
2066.496969619199
 20
2203.100000000103
 30
0.0
 11
2061.496969619196
 21
2203.100000000103
 31
0.0
  0
LINE
  5
5FC
330
1F
100
AcDbEntity
  8
LAY-10
  6
CONTINUOUS
 62
     7
100
AcDbLine
 10
2174.49696961923
 20
2136.100000000125
 30
0.0
 11
2180.496969619199
 21
2136.100000000125
 31
0.0
  0
LINE
  5
5FD
330
1F
100
AcDbEntity
  8
LAY-10
  6
CONTINUOUS
 62
     7
100
AcDbLine
 10
2164.996969619199
 20
2139.600000000096
 30
0.0
 11
2169.496969619179
 21
2139.600000000096
 31
0.0
  0
LINE
  5
5FE
330
1F
100
AcDbEntity
  8
LAY-10
  6
CONTINUOUS
 62
     7
100
AcDbLine
 10
2169.496969619201
 20
2183.600000000096
 30
0.0
 11
2169.496969619201
 21
2139.6000000002
 31
0.0
  0
LINE
  5
5FF
330
1F
100
AcDbEntity
  8
LAY-10
  6
CONTINUOUS
 62
     7
100
AcDbLine
 10
2174.496969619199
 20
2143.600000000084
 30
0.0
 11
2169.496969619201
 21
2143.600000000084
 31
0.0
  0
LINE
  5
600
330
1F
100
AcDbEntity
  8
LAY-10
  6
CONTINUOUS
 62
     7
100
AcDbLine
 10
2169.496969619201
 20
2183.600000000109
 30
0.0
 11
2174.49696961923
 21
2183.600000000109
 31
0.0
  0
LINE
  5
601
330
1F
100
AcDbEntity
  8
LAY-10
  6
CENTER
 62
     2
100
AcDbLine
 10
1078.301515190006
 20
2319.900000000174
 30
0.0
 11
1078.301515190004
 21
1051.6000000001
 31
0.0
  0
LINE
  5
602
330
1F
100
AcDbEntity
  8
LAY-10
  6
CENTER
 62
     2
100
AcDbLine
 10
670.3015151895877
 20
2223.100000000165
 30
0.0
 11
608.2515151898067
 21
2223.100000000174
 31
0.0
  0
LINE
  5
603
330
1F
100
AcDbEntity
  8
LAY-10
  6
CENTER
 62
     2
100
AcDbLine
 10
639.8015151898023
 20
2193.700000000299
 30
0.0
 11
639.8015151898132
 21
2255.100000000169
 31
0.0
  0
LINE
  5
604
330
1F
100
AcDbEntity
  8
LAY-10
  6
CENTER
 62
     2
100
AcDbLine
 10
670.3015151895786
 20
1149.100000000135
 30
0.0
 11
608.2515151897994
 21
1149.100000000125
 31
0.0
  0
LINE
  5
605
330
1F
100
AcDbEntity
  8
LAY-10
  6
CENTER
 62
     2
100
AcDbLine
 10
639.8015151897932
 20
1178.5
 30
0.0
 11
639.8015151898023
 21
1117.100000000131
 31
0.0
  0
LINE
  5
606
330
1F
100
AcDbEntity
  8
LAY-10
  6
CENTER
 62
     2
100
AcDbLine
 10
525.4015151898973
 20
1936.100000000162
 30
0.0
 11
573.301515189806
 21
1936.100000000162
 31
0.0
  0
LINE
  5
607
330
1F
100
AcDbEntity
  8
LAY-10
  6
CENTER
 62
     2
100
AcDbLine
 10
525.4015151898973
 20
1436.100000000086
 30
0.0
 11
573.301515189806
 21
1436.100000000086
 31
0.0
  0
LINE
  5
608
330
1F
100
AcDbEntity
  8
LAY-10
  6
CENTER
 62
     2
100
AcDbLine
 10
1018.801515189817
 20
2193.700000000298
 30
0.0
 11
1018.801515189806
 21
2255.100000000167
 31
0.0
  0
LINE
  5
609
330
1F
100
AcDbEntity
  8
LAY-10
  6
CENTER
 62
     2
100
AcDbLine
 10
988.3015151900315
 20
2223.100000000163
 30
0.0
 11
1050.351515189809
 21
2223.100000000172
 31
0.0
  0
LINE
  5
60A
330
1F
100
AcDbEntity
  8
LAY-10
  6
CENTER
 62
     2
100
AcDbLine
 10
510.8015151898642
 20
1686.100000000074
 30
0.0
 11
1656.200000000001
 21
1686.100000000074
 31
0.0
  0
LINE
  5
60B
330
1F
100
AcDbEntity
  8
LAY-10
  6
CENTER
 62
     2
100
AcDbLine
 10
988.3015151900117
 20
1149.100000000035
 30
0.0
 11
1050.351515189793
 21
1149.100000000026
 31
0.0
  0
LINE
  5
60C
330
1F
100
AcDbEntity
  8
LAY-10
  6
CENTER
 62
     2
100
AcDbLine
 10
1018.801515189797
 20
1178.4999999999
 30
0.0
 11
1018.801515189786
 21
1117.100000000031
 31
0.0
  0
LINE
  5
60D
330
1F
100
AcDbEntity
  8
LAY-10
  6
CENTER
 62
     2
100
AcDbLine
 10
1168.301515189888
 20
2223.100000000165
 30
0.0
 11
1106.251515190107
 21
2223.100000000174
 31
0.0
  0
LINE
  5
60E
330
1F
100
AcDbEntity
  8
LAY-10
  6
CENTER
 62
     2
100
AcDbLine
 10
1137.801515190102
 20
2193.700000000299
 30
0.0
 11
1137.801515190113
 21
2255.100000000169
 31
0.0
  0
LINE
  5
60F
330
1F
100
AcDbEntity
  8
LAY-10
  6
CENTER
 62
     2
100
AcDbLine
 10
1168.301515189879
 20
1149.100000000135
 30
0.0
 11
1106.2515151901
 21
1149.100000000125
 31
0.0
  0
LINE
  5
610
330
1F
100
AcDbEntity
  8
LAY-10
  6
CENTER
 62
     2
100
AcDbLine
 10
1137.801515190093
 20
1178.5
 30
0.0
 11
1137.801515190102
 21
1117.100000000131
 31
0.0
  0
LINE
  5
611
330
1F
100
AcDbEntity
  8
LAY-10
  6
CENTER
 62
     2
100
AcDbLine
 10
1516.801515190117
 20
2193.700000000298
 30
0.0
 11
1516.801515190106
 21
2255.100000000167
 31
0.0
  0
LINE
  5
612
330
1F
100
AcDbEntity
  8
LAY-10
  6
CENTER
 62
     2
100
AcDbLine
 10
1486.301515190332
 20
2223.100000000163
 30
0.0
 11
1548.351515190109
 21
2223.100000000172
 31
0.0
  0
LINE
  5
613
330
1F
100
AcDbEntity
  8
LAY-10
  6
CENTER
 62
     2
100
AcDbLine
 10
1486.301515190311
 20
1149.100000000035
 30
0.0
 11
1548.351515190093
 21
1149.100000000026
 31
0.0
  0
LINE
  5
614
330
1F
100
AcDbEntity
  8
LAY-10
  6
CENTER
 62
     2
100
AcDbLine
 10
1516.801515190097
 20
1178.4999999999
 30
0.0
 11
1516.801515190086
 21
1117.100000000031
 31
0.0
  0
LINE
  5
615
330
1F
100
AcDbEntity
  8
LAY-10
  6
CENTER
 62
     2
100
AcDbLine
 10
1631.201515190113
 20
1936.10000000016
 30
0.0
 11
1583.301515190205
 21
1936.10000000016
 31
0.0
  0
LINE
  5
616
330
1F
100
AcDbEntity
  8
LAY-10
  6
CENTER
 62
     2
100
AcDbLine
 10
1631.201515190111
 20
1436.100000000084
 30
0.0
 11
1583.301515190203
 21
1436.100000000084
 31
0.0
  0
LINE
  5
617
330
1F
100
AcDbEntity
  8
LAY-10
  6
CENTER
 62
     2
100
AcDbLine
 10
1461.801515190204
 20
2208.087441116895
 30
0.0
 11
1461.801515190203
 21
2239.047441116897
 31
0.0
  0
LINE
  5
618
330
1F
100
AcDbEntity
  8
LAY-10
  6
CENTER
 62
     2
100
AcDbLine
 10
1477.181515190262
 20
2223.10000000019
 30
0.0
 11
1445.381515190266
 21
2223.10000000019
 31
0.0
  0
LINE
  5
619
330
1F
100
AcDbEntity
  8
LAY-10
  6
CENTER
 62
     2
100
AcDbLine
 10
1177.421515189954
 20
2223.100000000192
 30
0.0
 11
1209.221515189953
 21
2223.100000000192
 31
0.0
  0
LINE
  5
61A
330
1F
100
AcDbEntity
  8
LAY-10
  6
CENTER
 62
     2
100
AcDbLine
 10
1192.801515190015
 20
2208.087441116897
 30
0.0
 11
1192.801515190017
 21
2239.047441116898
 31
0.0
  0
LINE
  5
61B
330
1F
100
AcDbEntity
  8
LAY-10
  6
CENTER
 62
     2
100
AcDbLine
 10
963.8015151899043
 20
2208.087441116895
 30
0.0
 11
963.8015151899026
 21
2239.047441116897
 31
0.0
  0
LINE
  5
61C
330
1F
100
AcDbEntity
  8
LAY-10
  6
CENTER
 62
     2
100
AcDbLine
 10
979.181515189962
 20
2223.10000000019
 30
0.0
 11
947.3815151899663
 21
2223.10000000019
 31
0.0
  0
LINE
  5
61D
330
1F
100
AcDbEntity
  8
LAY-10
  6
CENTER
 62
     2
100
AcDbLine
 10
694.801515189715
 20
2208.087441116897
 30
0.0
 11
694.8015151897167
 21
2239.047441116898
 31
0.0
  0
LINE
  5
61E
330
1F
100
AcDbEntity
  8
LAY-10
  6
CENTER
 62
     2
100
AcDbLine
 10
679.421515189654
 20
2223.100000000192
 30
0.0
 11
711.2215151896532
 21
2223.100000000192
 31
0.0
  0
LINE
  5
61F
330
1F
100
AcDbEntity
  8
LAY-10
  6
CENTER
 62
     2
100
AcDbLine
 10
694.8015151897023
 20
1164.112558883403
 30
0.0
 11
694.8015151897059
 21
1133.152558883401
 31
0.0
  0
LINE
  5
620
330
1F
100
AcDbEntity
  8
LAY-10
  6
CENTER
 62
     2
100
AcDbLine
 10
679.4215151896449
 20
1149.100000000108
 30
0.0
 11
711.2215151896422
 21
1149.100000000108
 31
0.0
  0
LINE
  5
621
330
1F
100
AcDbEntity
  8
LAY-10
  6
CENTER
 62
     2
100
AcDbLine
 10
963.8015151898844
 20
1164.112558883303
 30
0.0
 11
963.8015151898827
 21
1133.152558883301
 31
0.0
  0
LINE
  5
622
330
1F
100
AcDbEntity
  8
LAY-10
  6
CENTER
 62
     2
100
AcDbLine
 10
979.1815151899455
 20
1149.100000000008
 30
0.0
 11
947.3815151899462
 21
1149.100000000008
 31
0.0
  0
LINE
  5
623
330
1F
100
AcDbEntity
  8
LAY-10
  6
CENTER
 62
     2
100
AcDbLine
 10
1177.421515189945
 20
1149.100000000108
 30
0.0
 11
1209.221515189942
 21
1149.100000000108
 31
0.0
  0
LINE
  5
624
330
1F
100
AcDbEntity
  8
LAY-10
  6
CENTER
 62
     2
100
AcDbLine
 10
1192.801515190002
 20
1164.112558883403
 30
0.0
 11
1192.801515190006
 21
1133.152558883401
 31
0.0
  0
LINE
  5
625
330
1F
100
AcDbEntity
  8
LAY-10
  6
CENTER
 62
     2
100
AcDbLine
 10
1461.801515190184
 20
1164.112558883303
 30
0.0
 11
1461.801515190182
 21
1133.152558883301
 31
0.0
  0
LINE
  5
626
330
1F
100
AcDbEntity
  8
LAY-10
  6
CENTER
 62
     2
100
AcDbLine
 10
1477.181515190245
 20
1149.100000000008
 30
0.0
 11
1445.381515190246
 21
1149.100000000008
 31
0.0
  0
LINE
  5
627
330
1F
100
AcDbEntity
  8
LAY-10
  6
CENTER
 62
     2
100
AcDbLine
 10
1415.350000000202
 20
2292.10000000033
 30
0.0
 11
1450.150000000202
 21
2292.10000000033
 31
0.0
  0
LINE
  5
628
330
1F
100
AcDbEntity
  8
LAY-10
  6
CENTER
 62
     2
100
AcDbLine
 10
1433.301515190004
 20
2328.6500000001
 30
0.0
 11
1433.301515190004
 21
2267.100000000401
 31
0.0
  0
LINE
  5
629
330
1F
100
AcDbEntity
  8
LAY-10
  6
CENTER
 62
     2
100
AcDbLine
 10
741.2530303798162
 20
2292.100000000331
 30
0.0
 11
706.4530303798172
 21
2292.100000000331
 31
0.0
  0
LINE
  5
62A
330
1F
100
AcDbEntity
  8
LAY-10
  6
CENTER
 62
     2
100
AcDbLine
 10
723.3015151900148
 20
2328.650000000101
 30
0.0
 11
723.3015151900148
 21
2267.100000000401
 31
0.0
  0
LINE
  5
62B
330
1F
100
AcDbEntity
  8
LAY-10
  6
CENTER
 62
     2
100
AcDbLine
 10
1415.350000000203
 20
1080.09999999982
 30
0.0
 11
1450.150000000202
 21
1080.09999999982
 31
0.0
  0
LINE
  5
62C
330
1F
100
AcDbEntity
  8
LAY-10
  6
CENTER
 62
     2
100
AcDbLine
 10
1433.301515190004
 20
1043.550000000049
 30
0.0
 11
1433.301515190004
 21
1105.099999999749
 31
0.0
  0
LINE
  5
62D
330
1F
100
AcDbEntity
  8
LAY-10
  6
CENTER
 62
     2
100
AcDbLine
 10
741.2530303798163
 20
1080.099999999818
 30
0.0
 11
706.4530303798173
 21
1080.099999999818
 31
0.0
  0
LINE
  5
62E
330
1F
100
AcDbEntity
  8
LAY-10
  6
CENTER
 62
     2
100
AcDbLine
 10
723.301515190015
 20
1043.550000000048
 30
0.0
 11
723.301515190015
 21
1105.099999999747
 31
0.0
  0
LINE
  5
62F
330
1F
100
AcDbEntity
  8
LAY-10
  6
CENTER
 62
     2
100
AcDbLine
 10
1078.301515189911
 20
748.9777777784003
 30
0.0
 11
1078.301515189911
 21
550.6
 31
0.0
  0
LINE
  5
630
330
1F
100
AcDbEntity
  8
LAY-10
  6
CENTER
 62
     2
100
AcDbLine
 10
2006.601515189997
 20
2223.100000000116
 30
0.0
 11
2087.001515189998
 21
2223.100000000116
 31
0.0
  0
LINE
  5
631
330
1F
100
AcDbEntity
  8
LAY-10
  6
CENTER
 62
     2
100
AcDbLine
 10
2006.601515190002
 20
1149.100000000033
 30
0.0
 11
2087.00151519
 21
1149.100000000033
 31
0.0
  0
LINE
  5
632
330
1F
100
AcDbEntity
  8
LAY-10
  6
CENTER
 62
     2
100
AcDbLine
 10
1952.100000000002
 20
1686.100000000074
 30
0.0
 11
2223.600000000001
 21
1686.100000000074
 31
0.0
  0
LINE
  5
633
330
1F
100
AcDbEntity
  8
LAY-10
  6
CENTER
 62
     2
100
AcDbLine
 10
2067.149999999962
 20
2292.100000000192
 30
0.0
 11
2085.599999999959
 21
2292.100000000192
 31
0.0
  0
LINE
  5
634
330
1F
100
AcDbEntity
  8
LAY-10
  6
CENTER
 62
     2
100
AcDbLine
 10
2067.149999999962
 20
1080.099999999957
 30
0.0
 11
2085.599999999959
 21
1080.099999999957
 31
0.0
  0
DIMENSION
  5
636
330
1F
100
AcDbEntity
  8
LAY-20
  6
CONTINUOUS
 62
     4
100
AcDbDimension
  2
*D17
 10
1910.4969696192
 20
1114.1
 30
0.0
 11
1885.4969696192
 21
1686.100000000099
 31
0.0
 70
   160
  3
ISO-25
100
AcDbAlignedDimension
 13
2010.496969619198
 23
2258.100000000199
 33
0.0
 14
2010.496969619198
 24
1114.1
 34
0.0
 50
90.0
100
AcDbRotatedDimension
1001
ACAD
1000
DSTYLE
1002
{
1070
   270
1070
     2
1070
     6
1000
EX_BNORM
1070
     7
1000
EX_BNORM
1070
    41
1040
25.0
1070
    42
1040
15.0
1070
    44
1040
15.00000000000023
1070
    73
1070
     0
1070
    74
1070
     0
1070
    75
1070
     0
1070
    76
1070
     0
1070
    77
1070
     1
1070
    78
1070
     8
1070
   140
1040
31.181104
1070
   147
1040
0.0
1070
   173
1070
     1
1070
   176
1070
     4
1070
   177
1070
     4
1070
   178
1070
     7
1070
   271
1070
     1
1070
   277
1070
     2
1070
   279
1070
     2
1070
   280
1070
     0
1070
   287
1070
     5
1070
   340
1005
635
1002
}
  0
DIMENSION
  5
644
330
1F
100
AcDbEntity
  8
LAY-20
  6
CONTINUOUS
 62
     4
100
AcDbDimension
  2
*D18
 10
1840.4969696192
 20
2267.1000000003
 30
0.0
 11
1815.4969696192
 21
1686.10000000015
 31
0.0
 70
   160
  3
ISO-25
100
AcDbAlignedDimension
 13
2010.496969619201
 23
1105.099999999999
 33
0.0
 14
2010.496969619201
 24
2267.1000000003
 34
0.0
 50
90.0
100
AcDbRotatedDimension
1001
ACAD
1000
DSTYLE
1002
{
1070
   270
1070
     2
1070
     6
1000
EX_BNORM
1070
     7
1000
EX_BNORM
1070
    41
1040
25.0
1070
    42
1040
15.0
1070
    44
1040
15.00000000000023
1070
    73
1070
     0
1070
    74
1070
     0
1070
    75
1070
     0
1070
    76
1070
     0
1070
    77
1070
     1
1070
    78
1070
     8
1070
   140
1040
31.181104
1070
   147
1040
0.0
1070
   173
1070
     1
1070
   176
1070
     4
1070
   177
1070
     4
1070
   178
1070
     7
1070
   271
1070
     1
1070
   277
1070
     2
1070
   279
1070
     2
1070
   280
1070
     0
1070
   287
1070
     5
1070
   340
1005
635
1002
}
  0
DIMENSION
  5
651
330
1F
100
AcDbEntity
  8
LAY-20
  6
CONTINUOUS
 62
     4
100
AcDbDimension
  2
*D19
 10
2280.4969696192
 20
2136.1000000001
 30
0.0
 11
2255.4969696192
 21
1686.100000000099
 31
0.0
 70
   160
  3
ISO-25
100
AcDbAlignedDimension
 13
2180.496969619199
 23
1236.100000000099
 33
0.0
 14
2180.496969619199
 24
2136.1000000001
 34
0.0
 50
90.0
100
AcDbRotatedDimension
1001
ACAD
1000
DSTYLE
1002
{
1070
   270
1070
     2
1070
     6
1000
EX_BNORM
1070
     7
1000
EX_BNORM
1070
    41
1040
25.0
1070
    42
1040
15.0
1070
    44
1040
15.00000000000045
1070
    73
1070
     0
1070
    74
1070
     0
1070
    75
1070
     0
1070
    76
1070
     0
1070
    77
1070
     1
1070
    78
1070
     8
1070
   140
1040
31.181104
1070
   147
1040
0.0
1070
   173
1070
     1
1070
   176
1070
     4
1070
   177
1070
     4
1070
   178
1070
     7
1070
   271
1070
     1
1070
   277
1070
     2
1070
   279
1070
     2
1070
   280
1070
     0
1070
   287
1070
     5
1070
   340
1005
635
1002
}
  0
DIMENSION
  5
65E
330
1F
100
AcDbEntity
  8
LAY-20
  6
CONTINUOUS
 62
     4
100
AcDbDimension
  2
*D20
 10
1726.6568542491
 20
730.6792929682997
 30
0.0
 11
1701.656854249102
 21
645.6792929682993
 31
0.0
 70
   160
  3
ISO-25
100
AcDbAlignedDimension
 13
1574.301515189804
 23
560.6792929683006
 33
0.0
 14
1583.301515189799
 24
730.6792929682997
 34
0.0
 50
90.0
100
AcDbRotatedDimension
1001
ACAD
1000
DSTYLE
1002
{
1070
   270
1070
     2
1070
     6
1000
EX_BNORM
1070
     7
1000
EX_BNORM
1070
    41
1040
25.0
1070
    42
1040
15.0
1070
    44
1040
15.0
1070
    73
1070
     0
1070
    74
1070
     0
1070
    75
1070
     0
1070
    76
1070
     0
1070
    77
1070
     1
1070
    78
1070
     8
1070
   140
1040
31.181104
1070
   147
1040
0.0
1070
   173
1070
     1
1070
   176
1070
     4
1070
   177
1070
     4
1070
   178
1070
     7
1070
   271
1070
     1
1070
   277
1070
     2
1070
   279
1070
     2
1070
   280
1070
     0
1070
   287
1070
     5
1070
   340
1005
635
1002
}
  0
DIMENSION
  5
66B
330
1F
100
AcDbEntity
  8
LAY-20
  6
CONTINUOUS
 62
     4
100
AcDbDimension
  2
*D21
 10
1528.3015151897
 20
460.67929296828
 30
0.0
 11
1078.301515189909
 21
485.67929296828
 31
0.0
 70
   160
  3
ISO-25
100
AcDbAlignedDimension
 13
628.3015151901188
 23
560.6792929682997
 33
0.0
 14
1528.3015151897
 24
560.6792929682997
 34
0.0
100
AcDbRotatedDimension
1001
ACAD
1000
DSTYLE
1002
{
1070
   270
1070
     2
1070
     6
1000
EX_BNORM
1070
     7
1000
EX_BNORM
1070
    41
1040
25.0
1070
    42
1040
15.0
1070
    44
1040
15.0
1070
    73
1070
     0
1070
    74
1070
     0
1070
    75
1070
     0
1070
    76
1070
     0
1070
    77
1070
     1
1070
    78
1070
     8
1070
   140
1040
31.181104
1070
   147
1040
0.0
1070
   173
1070
     1
1070
   176
1070
     4
1070
   177
1070
     4
1070
   178
1070
     7
1070
   271
1070
     1
1070
   277
1070
     2
1070
   279
1070
     2
1070
   280
1070
     0
1070
   287
1070
     5
1070
   340
1005
635
1002
}
  0
DIMENSION
  5
678
330
1F
100
AcDbEntity
  8
LAY-20
  6
CONTINUOUS
 62
     4
100
AcDbDimension
  2
*D22
 10
1077.301515189819
 20
830.6792929683589
 30
0.0
 11
829.3015151897939
 21
855.6792929683095
 31
0.0
 70
   160
  3
ISO-25
100
AcDbAlignedDimension
 13
581.3015151898096
 23
735.6792929682505
 33
0.0
 14
1077.301515189819
 24
735.6792929682542
 34
0.0
100
AcDbRotatedDimension
1001
ACAD
1000
DSTYLE
1002
{
1070
   270
1070
     2
1070
     6
1000
EX_BNORM
1070
     7
1000
EX_BNORM
1070
    41
1040
25.0
1070
    42
1040
15.0
1070
    44
1040
14.99999999988404
1070
    73
1070
     0
1070
    74
1070
     0
1070
    75
1070
     0
1070
    76
1070
     0
1070
    77
1070
     1
1070
    78
1070
     8
1070
   140
1040
31.181104
1070
   147
1040
0.0
1070
   173
1070
     1
1070
   176
1070
     4
1070
   177
1070
     4
1070
   178
1070
     7
1070
   271
1070
     1
1070
   277
1070
     2
1070
   279
1070
     2
1070
   280
1070
     0
1070
   287
1070
     5
1070
   340
1005
635
1002
}
  0
DIMENSION
  5
685
330
1F
100
AcDbEntity
  8
LAY-20
  6
CONTINUOUS
 62
     4
100
AcDbDimension
  2
*D23
 10
573.3015151898078
 20
900.6792929682514
 30
0.0
 11
1078.301515189804
 21
925.6792929682505
 31
0.0
 70
   160
  3
ISO-25
100
AcDbAlignedDimension
 13
1583.301515189799
 23
735.6792929682797
 33
0.0
 14
573.3015151898078
 24
735.6792929682806
 34
0.0
100
AcDbRotatedDimension
1001
ACAD
1000
DSTYLE
1002
{
1070
   270
1070
     2
1070
     6
1000
EX_BNORM
1070
     7
1000
EX_BNORM
1070
    41
1040
25.0
1070
    42
1040
15.0
1070
    44
1040
15.00000000000045
1070
    73
1070
     0
1070
    74
1070
     0
1070
    75
1070
     0
1070
    76
1070
     0
1070
    77
1070
     1
1070
    78
1070
     8
1070
   140
1040
31.181104
1070
   147
1040
0.0
1070
   173
1070
     1
1070
   176
1070
     4
1070
   177
1070
     4
1070
   178
1070
     7
1070
   271
1070
     1
1070
   277
1070
     2
1070
   279
1070
     2
1070
   280
1070
     0
1070
   287
1070
     5
1070
   340
1005
635
1002
}
  0
DIMENSION
  5
692
330
1F
100
AcDbEntity
  8
LAY-20
  6
CONTINUOUS
 62
     4
100
AcDbDimension
  2
*D24
 10
1249.0
 20
730.6792929682499
 30
0.0
 11
1224.0
 21
795.6792929682496
 31
0.0
 70
   160
  3
ISO-25
100
AcDbAlignedDimension
 13
1249.0
 23
726.17929296825
 33
0.0
 14
1249.0
 24
730.6792929682499
 34
0.0
 50
90.0
100
AcDbRotatedDimension
1001
ACAD
1000
DSTYLE
1002
{
1070
   270
1070
     2
1070
     6
1000
EX_BNORM
1070
     7
1000
EX_BNORM
1070
    41
1040
25.0
1070
    42
1040
0.0
1070
    44
1040
0.0
1070
    73
1070
     0
1070
    74
1070
     0
1070
    75
1070
     1
1070
    76
1070
     1
1070
    77
1070
     1
1070
    78
1070
     8
1070
   140
1040
31.181104
1070
   147
1040
0.0
1070
   173
1070
     1
1070
   176
1070
     4
1070
   177
1070
     4
1070
   178
1070
     7
1070
   271
1070
     1
1070
   277
1070
     2
1070
   279
1070
     2
1070
   280
1070
     2
1070
   287
1070
     5
1070
   340
1005
635
1002
}
  0
LINE
  5
69F
330
1F
100
AcDbEntity
  8
LAY-255
  6
CONTINUOUS
 62
     7
100
AcDbLine
 10
50.0
 20
100.0
 30
0.0
 11
3850.0
 21
100.0
 31
0.0
  0
LINE
  5
6A0
330
1F
100
AcDbEntity
  8
LAY-255
  6
CONTINUOUS
 62
     7
100
AcDbLine
 10
3850.0
 20
100.0
 30
0.0
 11
3850.0
 21
2800.0
 31
0.0
  0
LINE
  5
6A1
330
1F
100
AcDbEntity
  8
LAY-255
  6
CONTINUOUS
 62
     7
100
AcDbLine
 10
50.0
 20
2800.0
 30
0.0
 11
3850.0
 21
2800.0
 31
0.0
  0
LINE
  5
6A2
330
1F
100
AcDbEntity
  8
LAY-255
  6
CONTINUOUS
 62
     7
100
AcDbLine
 10
50.0
 20
100.0
 30
0.0
 11
50.0
 21
2800.0
 31
0.0
  0
LINE
  5
6A3
330
1F
100
AcDbEntity
  8
LAY-255
  6
CONTINUOUS
 62
     7
100
AcDbLine
 10
3850.0
 20
219.9999999999999
 30
0.0
 11
2850.0
 21
219.9999999999999
 31
0.0
  0
LINE
  5
6A4
330
1F
100
AcDbEntity
  8
LAY-255
  6
CONTINUOUS
 62
     7
100
AcDbLine
 10
2888.0
 20
160.0
 30
0.0
 11
2968.0
 21
210.0
 31
0.0
  0
LINE
  5
6A5
330
1F
100
AcDbEntity
  8
LAY-255
  6
CONTINUOUS
 62
     7
100
AcDbLine
 10
2968.0
 20
210.0
 30
0.0
 11
3048.0
 21
160.0
 31
0.0
  0
LINE
  5
6A6
330
1F
100
AcDbEntity
  8
LAY-255
  6
CONTINUOUS
 62
     7
100
AcDbLine
 10
3048.0
 20
160.0
 30
0.0
 11
2968.0
 21
110.0
 31
0.0
  0
LINE
  5
6A7
330
1F
100
AcDbEntity
  8
LAY-255
  6
CONTINUOUS
 62
     7
100
AcDbLine
 10
2968.0
 20
110.0
 30
0.0
 11
2888.0
 21
160.0
 31
0.0
  0
LINE
  5
6A8
330
1F
100
AcDbEntity
  8
LAY-255
  6
CONTINUOUS
 62
     4
100
AcDbLine
 10
2850.0
 20
279.9999999999999
 30
0.0
 11
3850.0
 21
279.9999999999999
 31
0.0
  0
LINE
  5
6A9
330
1F
100
AcDbEntity
  8
LAY-255
  6
CONTINUOUS
 62
     7
100
AcDbLine
 10
2850.0
 20
100.0
 30
0.0
 11
2850.0
 21
670.0
 31
0.0
  0
POINT
  5
6AA
330
1F
100
AcDbEntity
  8
LAY-255
  6
CONTINUOUS
 62
     7
100
AcDbPoint
 10
2890.0
 20
399.9999999999999
 30
0.0
  0
LINE
  5
6AB
330
1F
100
AcDbEntity
  8
LAY-255
  6
CONTINUOUS
 62
     4
100
AcDbLine
 10
3350.0
 20
279.9999999999999
 30
0.0
 11
3350.0
 21
220.0
 31
0.0
  0
LINE
  5
6AC
330
1F
100
AcDbEntity
  8
LAY-255
  6
CONTINUOUS
 62
     7
100
AcDbLine
 10
3850.0
 20
670.0
 30
0.0
 11
2850.0
 21
670.0
 31
0.0
  0
LINE
  5
6AD
330
1F
100
AcDbEntity
  8
LAY-255
  6
CONTINUOUS
 62
     4
100
AcDbLine
 10
3830.0
 20
549.9999999999999
 30
0.0
 11
2870.0
 21
549.9999999999999
 31
0.0
  0
LINE
  5
6AE
330
1F
100
AcDbEntity
  8
LAY-255
  6
CONTINUOUS
 62
     4
100
AcDbLine
 10
3830.0
 20
610.0
 30
0.0
 11
2870.0
 21
610.0
 31
0.0
  0
POINT
  5
6AF
330
1F
100
AcDbEntity
  8
LAY-255
  6
CONTINUOUS
 62
     7
100
AcDbPoint
 10
2890.0
 20
499.9999999999999
 30
0.0
  0
POINT
  5
6B0
330
1F
100
AcDbEntity
  8
LAY-255
  6
CONTINUOUS
 62
     7
100
AcDbPoint
 10
3000.0
 20
559.9999999999999
 30
0.0
  0
POINT
  5
6B1
330
1F
100
AcDbEntity
  8
LAY-255
  6
CONTINUOUS
 62
     7
100
AcDbPoint
 10
3000.0
 20
620.0
 30
0.0
  0
POINT
  5
6B2
330
1F
100
AcDbEntity
  8
LAY-255
  6
CONTINUOUS
 62
     7
100
AcDbPoint
 10
2890.0
 20
349.9999999999999
 30
0.0
  0
POINT
  5
6B3
330
1F
100
AcDbEntity
  8
LAY-255
  6
CONTINUOUS
 62
     7
100
AcDbPoint
 10
2890.0
 20
449.9999999999999
 30
0.0
  0
POINT
  5
6B4
330
1F
100
AcDbEntity
  8
LAY-255
  6
CONTINUOUS
 62
     7
100
AcDbPoint
 10
2890.0
 20
299.9999999999998
 30
0.0
  0
TEXT
  5
6B5
330
1F
100
AcDbEntity
  8
LAY-255
  6
CONTINUOUS
 62
     7
100
AcDbText
 10
3081.3837890625
 20
155.4375
 30
0.0
 40
51.5625
  1
福西鋳物株式会社
 41
1.342691999659091
  7
EXCADSTD
100
AcDbText
  0
TEXT
  5
6B6
330
1F
100
AcDbEntity
  8
LAY-255
  6
CONTINUOUS
 62
     7
100
AcDbText
 10
3085.09375
 20
119.8125
 30
0.0
 40
17.1875
  1
ＦＵＫＵＮＩＳＨＩ
 41
1.204799226045263
  7
EXCADSTD
100
AcDbText
  0
TEXT
  5
6B7
330
1F
100
AcDbEntity
  8
LAY-255
  6
CONTINUOUS
 62
     7
100
AcDbText
 10
3327.191964285714
 20
119.8125
 30
0.0
 40
17.1875
  1
ＦＯＵＮＤＲＹ
 41
1.243252752978497
  7
EXCADSTD
100
AcDbText
  0
TEXT
  5
6B8
330
1F
100
AcDbEntity
  8
LAY-255
  6
CONTINUOUS
 62
     7
100
AcDbText
 10
3519.945914381009
 20
119.8125
 30
0.0
 40
17.1875
  1
ＣＯ.,ＬＴＤ.
 41
1.243831036226633
  7
EXCADSTD
100
AcDbText
  0
TEXT
  5
6B9
330
1F
100
AcDbEntity
  8
LAY-255
  6
CONTINUOUS
 62
     7
100
AcDbText
 10
2940.34375
 20
137.1875
 30
0.0
 40
51.5625
  1
S
 41
0.7582677563636363
  7
EXCADSTD
100
AcDbText
  0
TEXT
  5
6BA
330
1F
100
AcDbEntity
  8
LAY-255
  6
CONTINUOUS
 62
     7
100
AcDbText
 10
2971.046875
 20
137.4941037736
 30
0.0
 40
51.5625
  1
F
 41
0.7440945272727272
  7
EXCADSTD
100
AcDbText
  0
TEXT
  5
6BB
330
1F
100
AcDbEntity
  8
LAY-255
  6
CONTINUOUS
 62
     7
100
AcDbText
 10
3371.0546875
 20
244.2187499999999
 30
0.0
 40
25.78125
  1
縮尺
 41
1.080708718181818
  7
EXCADSTD
100
AcDbText
  0
TEXT
  5
6BC
330
1F
100
AcDbEntity
  8
LAY-255
  6
CONTINUOUS
 62
     7
100
AcDbText
 10
2872.65625
 20
565.6249999999999
 30
0.0
 40
34.375
  1
型式
 41
1.056348480681818
  7
EXCADSTD
100
AcDbText
  0
TEXT
  5
6BD
330
1F
100
AcDbEntity
  8
LAY-255
  6
CONTINUOUS
 62
     7
100
AcDbText
 10
2874.21875
 20
625.625
 30
0.0
 40
34.375
  1
品名
 41
0.9788386340909091
  7
EXCADSTD
100
AcDbText
  0
TEXT
  5
6BE
330
1F
100
AcDbEntity
  8
LAY-255
  6
CONTINUOUS
 62
     7
100
AcDbText
 10
2871.5234375
 20
244.2187499999999
 30
0.0
 40
25.78125
  1
作成日
 41
1.000629973818182
  7
EXCADSTD
100
AcDbText
  0
TEXT
  5
6BF
330
1F
100
AcDbEntity
  8
LAY-255
  6
CONTINUOUS
 62
     7
100
AcDbText
 10
3001.5625
 20
625.625
 30
0.0
 40
34.375
  1
縞鋼板製マシンハッチ
 41
1.016284949586777
  7
EXCADSTD
100
AcDbText
  0
TEXT
  5
6C0
330
1F
100
AcDbEntity
  8
LAY-255
  6
CONTINUOUS
 62
     7
100
AcDbText
 10
3012.8125
 20
235.6249999999999
 30
0.0
 40
34.375
  1
１７／０７／２５
 41
0.9652981384415584
  7
EXCADSTD
100
AcDbText
  0
TEXT
  5
6C1
330
1F
100
AcDbEntity
  8
LAY-255
  6
CONTINUOUS
 62
     7
100
AcDbText
 10
2891.40625
 20
505.6249999999999
 30
0.0
 40
34.375
  1
材質：スチール（溶融亜鉛めっき）
 41
0.9761562007682457
  7
EXCADSTD
100
AcDbText
  0
TEXT
  5
6C2
330
1F
100
AcDbEntity
  8
LAY-255
  6
CONTINUOUS
 62
     7
100
AcDbText
 10
2893.90625
 20
455.725
 30
0.0
 40
34.375
  1
構造：ボルト固定式
 41
1.021279830379747
  7
EXCADSTD
100
AcDbText
  0
TEXT
  5
6C3
330
1F
100
AcDbEntity
  8
LAY-255
  6
CONTINUOUS
 62
     7
100
AcDbText
 10
3007.5
 20
565.6249999999999
 30
0.0
 40
34.375
  1
ＳＦ－９０ＣＭ－２５Ｒ型
 41
1.00449418439108
  7
EXCADSTD
100
AcDbText
  0
TEXT
  5
6C4
330
1F
100
AcDbEntity
  8
LAY-255
  6
CONTINUOUS
 62
     7
100
AcDbText
 10
2892.03125
 20
405.6249999999999
 30
0.0
 40
34.375
  1
適用荷重：Ｔ－２５
 41
1.00109643452244
  7
EXCADSTD
100
AcDbText
  0
TEXT
  5
6C5
330
1F
100
AcDbEntity
  8
LAY-255
  6
CONTINUOUS
 62
     7
100
AcDbText
 10
3482.8125
 20
235.6249999999999
 30
0.0
 40
34.375
  1
１：１０
 41
0.9243863385026738
  7
EXCADSTD
100
AcDbText
  0
ENDSEC
  0
SECTION
  2
OBJECTS
  0
DICTIONARY
  5
C
330
0
100
AcDbDictionary
  3
ACAD_GROUP
350
D
  3
ACAD_LAYOUT
350
1A
  3
ACAD_MATERIAL
350
43
  3
ACAD_MLEADERSTYLE
350
6B
  3
ACAD_MLINESTYLE
350
17
  3
ACAD_PLOTSETTINGS
350
19
  3
ACAD_SCALELIST
350
47
  3
ACAD_VISUALSTYLE
350
2A
  3
ACDBHEADERROUNDTRIPXREC
350
6C6
  3
ACDBVARIABLEDICTIONARY
350
6E7
  0
DICTIONARY
  5
6F2
330
8
100
AcDbDictionary
280
     1
  3
ACAD_XREC_ROUNDTRIP
360
6F3
  0
DICTIONARY
  5
D
102
{ACAD_REACTORS
330
C
102
}
330
C
100
AcDbDictionary
  0
DICTIONARY
  5
1A
102
{ACAD_REACTORS
330
C
102
}
330
C
100
AcDbDictionary
  0
DICTIONARY
  5
43
102
{ACAD_REACTORS
330
C
102
}
330
C
100
AcDbDictionary
  3
BYBLOCK
350
45
  3
BYLAYER
350
44
  3
GLOBAL
350
46
  0
DICTIONARY
  5
6B
102
{ACAD_REACTORS
330
C
102
}
330
C
100
AcDbDictionary
  3
STANDARD
350
6C
  0
DICTIONARY
  5
17
102
{ACAD_REACTORS
330
C
102
}
330
C
100
AcDbDictionary
  3
STANDARD
350
18
  0
DICTIONARY
  5
19
102
{ACAD_REACTORS
330
C
102
}
330
C
100
AcDbDictionary
  0
DICTIONARY
  5
47
102
{ACAD_REACTORS
330
C
102
}
330
C
100
AcDbDictionary
  3
A0
350
48
  3
A1
350
49
  3
A2
350
4A
  3
A3
350
4B
  3
A4
350
4C
  3
A5
350
4D
  3
A6
350
4E
  3
A7
350
4F
  3
A8
350
50
  3
A9
350
51
  3
B0
350
52
  3
B1
350
53
  3
B2
350
54
  3
B3
350
55
  3
B4
350
56
  3
B5
350
57
  3
B6
350
58
  3
B7
350
59
  3
B8
350
5A
  3
B9
350
5B
  3
C0
350
5C
  3
C1
350
5D
  3
C2
350
5E
  3
C3
350
5F
  3
C4
350
60
  3
C5
350
61
  3
C6
350
62
  3
C7
350
63
  3
C8
350
64
  3
C9
350
65
  3
D0
350
66
  3
D1
350
67
  3
D2
350
68
  0
DICTIONARY
  5
2A
102
{ACAD_REACTORS
330
C
102
}
330
C
100
AcDbDictionary
  3
2DWIREFRAME
350
2F
  3
BASIC
350
32
  3
BRIGHTEN
350
36
  3
COLORCHANGE
350
3A
  3
CONCEPTUAL
350
34
  3
DIM
350
35
  3
EDGECOLOROFF
350
3D
  3
FACEPATTERN
350
39
  3
FLAT
350
2B
  3
FLATWITHEDGES
350
2C
  3
GOURAUD
350
2D
  3
GOURAUDWITHEDGES
350
2E
  3
HIDDEN
350
31
  3
JITTEROFF
350
3B
  3
LINEPATTERN
350
38
  3
OVERHANGOFF
350
3C
  3
REALISTIC
350
33
  3
SHADED
350
42
  3
SHADED_WITH_EDGES
350
41
  3
SHADES_OF_GRAY
350
3E
  3
SKETCHY
350
3F
  3
THICKEN
350
37
  3
WIREFRAME
350
30
  3
X-RAY
350
40
  0
DICTIONARY
  5
6C6
102
{ACAD_REACTORS
330
C
102
}
330
C
100
AcDbDictionary
  3
CEPSNID
350
6D0
  3
CEPSNTYPE
350
6CF
  3
DIMSTYLEDATA
350
6E6
  3
FINGERPRINTGUID
350
6D1
  3
HYPERLINKBASE
350
6C9
  3
INSUNITS
350
6CE
  3
LAYOUTDICT
350
6CB
  3
LWETCUNION
350
6CD
  3
PLOTSETDICT
350
6CC
  3
PSVPSCALE
350
6D3
  3
PUCSBASE
350
6D6
  3
PUCSORGBACK
350
6DC
  3
PUCSORGBOTTOM
350
6D8
  3
PUCSORGFRONT
350
6DB
  3
PUCSORGLEFT
350
6D9
  3
PUCSORGRIGHT
350
6DA
  3
PUCSORGTOP
350
6D7
  3
PUCSORTHOREF
350
6D4
  3
PUCSORTHOVIEW
350
6D5
  3
STYLESHEET
350
6CA
  3
TSTACKALIGN
350
6C7
  3
TSTACKSIZE
350
6C8
  3
UCSBASE
350
6DF
  3
UCSORGBACK
350
6E5
  3
UCSORGBOTTOM
350
6E1
  3
UCSORGFRONT
350
6E4
  3
UCSORGLEFT
350
6E2
  3
UCSORGRIGHT
350
6E3
  3
UCSORGTOP
350
6E0
  3
UCSORTHOREF
350
6DD
  3
UCSORTHOVIEW
350
6DE
  3
VERSIONGUID
350
6D2
  0
DICTIONARY
  5
6E7
102
{ACAD_REACTORS
330
C
102
}
330
C
100
AcDbDictionary
  3
CANNOSCALE
350
6F4
  3
CENTEREXE
350
6EE
  3
CENTERLTYPEFILE
350
6EF
  3
CMLEADERSTYLE
350
6E9
  3
CTABLESTYLE
350
6E8
  3
DIMASSOC
350
6F0
  3
HIDETEXT
350
6F1
  3
MSLTSCALE
350
6F5
  3
PSOLHEIGHT
350
6EB
  3
PSOLWIDTH
350
6EA
  0
XRECORD
  5
6F3
102
{ACAD_REACTORS
330
6F2
102
}
330
6F2
100
AcDbXrecord
102
VTR_0.000_0.000_1.000_1.000_VISUALSTYLE
340
2F
102
VTR_0.000_0.000_1.000_1.000_GRIDDISPLAY
 70
     3
102
VTR_0.000_0.000_1.000_1.000_GRIDMAJOR
 70
     5
102
VTR_0.000_0.000_1.000_1.000_DEFAULTLIGHTING
280
     1
102
VTR_0.000_0.000_1.000_1.000_DEFAULTLIGHTINGTYPE
 70
     1
102
VTR_0.000_0.000_1.000_1.000_BRIGHTNESS
141
0.0
102
VTR_0.000_0.000_1.000_1.000_CONTRAST
142
0.0
  0
MATERIAL
  5
45
102
{ACAD_REACTORS
330
43
102
}
102
{ACAD_XDICTIONARY
360
6F8
102
}
330
43
100
AcDbMaterial
  1
BYBLOCK
  0
MATERIAL
  5
44
102
{ACAD_REACTORS
330
43
102
}
102
{ACAD_XDICTIONARY
360
6F6
102
}
330
43
100
AcDbMaterial
  1
BYLAYER
  0
MATERIAL
  5
46
102
{ACAD_REACTORS
330
43
102
}
102
{ACAD_XDICTIONARY
360
6FA
102
}
330
43
100
AcDbMaterial
  1
GLOBAL
  0
ACAD_PROXY_OBJECT
  5
6C
102
{ACAD_REACTORS
330
6B
102
}
330
6B
100
AcDbProxyObject
 90
      499
 91
      505
 93
      610
310
40901902A4063FBFFFFFE0000000000000020400000000000020404214DD185B99185C990000000000000104090141901A00000000000004100000000000000041025764000000000000039000
340
14
340
0
340
11
340
0
 94
        0
1001
ACAD_MLEADERVER
1070
     2
  0
MLINESTYLE
  5
18
102
{ACAD_REACTORS
330
17
102
}
330
17
100
AcDbMlineStyle
  2
Standard
 70
     0
  3

 62
   256
 51
90.0
 52
90.0
 71
     2
 49
0.5
 62
   256
  6
BYLAYER
 49
-0.5
 62
   256
  6
BYLAYER
  0
ACAD_PROXY_OBJECT
  5
48
102
{ACAD_REACTORS
330
47
102
}
330
47
100
AcDbProxyObject
 90
      499
 91
      503
 93
       41
310
903313A31580
  0
ACAD_PROXY_OBJECT
  5
49
102
{ACAD_REACTORS
330
47
102
}
330
47
100
AcDbProxyObject
 90
      499
 91
      503
 93
      105
310
903313A324000000000000004000
  0
ACAD_PROXY_OBJECT
  5
4A
102
{ACAD_REACTORS
330
47
102
}
330
47
100
AcDbProxyObject
 90
      499
 91
      503
 93
      105
310
903313A344000000000000104000
  0
ACAD_PROXY_OBJECT
  5
4B
102
{ACAD_REACTORS
330
47
102
}
330
47
100
AcDbProxyObject
 90
      499
 91
      503
 93
      105
310
903313A354000000000000144000
  0
ACAD_PROXY_OBJECT
  5
4C
102
{ACAD_REACTORS
330
47
102
}
330
47
100
AcDbProxyObject
 90
      499
 91
      503
 93
      105
310
903313A384000000000000204000
  0
ACAD_PROXY_OBJECT
  5
4D
102
{ACAD_REACTORS
330
47
102
}
330
47
100
AcDbProxyObject
 90
      499
 91
      503
 93
      113
310
904313A31304000000000000244000
  0
ACAD_PROXY_OBJECT
  5
4E
102
{ACAD_REACTORS
330
47
102
}
330
47
100
AcDbProxyObject
 90
      499
 91
      503
 93
      113
310
904313A31364000000000000304000
  0
ACAD_PROXY_OBJECT
  5
4F
102
{ACAD_REACTORS
330
47
102
}
330
47
100
AcDbProxyObject
 90
      499
 91
      503
 93
      113
310
904313A32304000000000000344000
  0
ACAD_PROXY_OBJECT
  5
50
102
{ACAD_REACTORS
330
47
102
}
330
47
100
AcDbProxyObject
 90
      499
 91
      503
 93
      113
310
904313A333040000000000003E4000
  0
ACAD_PROXY_OBJECT
  5
51
102
{ACAD_REACTORS
330
47
102
}
330
47
100
AcDbProxyObject
 90
      499
 91
      503
 93
      113
310
904313A34304000000000000444000
  0
ACAD_PROXY_OBJECT
  5
52
102
{ACAD_REACTORS
330
47
102
}
330
47
100
AcDbProxyObject
 90
      499
 91
      503
 93
      113
310
904313A35304000000000000494000
  0
ACAD_PROXY_OBJECT
  5
53
102
{ACAD_REACTORS
330
47
102
}
330
47
100
AcDbProxyObject
 90
      499
 91
      503
 93
      121
310
905313A3130304000000000000594000
  0
ACAD_PROXY_OBJECT
  5
54
102
{ACAD_REACTORS
330
47
102
}
330
47
100
AcDbProxyObject
 90
      499
 91
      503
 93
      105
310
903323A310000000000000010100
  0
ACAD_PROXY_OBJECT
  5
55
102
{ACAD_REACTORS
330
47
102
}
330
47
100
AcDbProxyObject
 90
      499
 91
      503
 93
      105
310
903343A310000000000000410100
  0
ACAD_PROXY_OBJECT
  5
56
102
{ACAD_REACTORS
330
47
102
}
330
47
100
AcDbProxyObject
 90
      499
 91
      503
 93
      105
310
903383A310000000000000810100
  0
ACAD_PROXY_OBJECT
  5
57
102
{ACAD_REACTORS
330
47
102
}
330
47
100
AcDbProxyObject
 90
      499
 91
      503
 93
      113
310
90431303A310000000000000910100
  0
ACAD_PROXY_OBJECT
  5
58
102
{ACAD_REACTORS
330
47
102
}
330
47
100
AcDbProxyObject
 90
      499
 91
      503
 93
      121
310
9053130303A310000000000001650100
  0
ACAD_PROXY_OBJECT
  5
59
102
{ACAD_REACTORS
330
47
102
}
330
47
100
AcDbProxyObject
 90
      499
 91
      503
 93
      257
310
90E312F31323822203D2031272D3022000000000000200FC000000000000284000
  0
ACAD_PROXY_OBJECT
  5
5A
102
{ACAD_REACTORS
330
47
102
}
330
47
100
AcDbProxyObject
 90
      499
 91
      503
 93
      249
310
90D312F363422203D2031272D3022000000000000240FC000000000000284000
  0
ACAD_PROXY_OBJECT
  5
5B
102
{ACAD_REACTORS
330
47
102
}
330
47
100
AcDbProxyObject
 90
      499
 91
      503
 93
      249
310
90D312F333222203D2031272D3022000000000000280FC000000000000284000
  0
ACAD_PROXY_OBJECT
  5
5C
102
{ACAD_REACTORS
330
47
102
}
330
47
100
AcDbProxyObject
 90
      499
 91
      503
 93
      249
310
90D312F313622203D2031272D30220000000000002C0FC000000000000284000
  0
ACAD_PROXY_OBJECT
  5
5D
102
{ACAD_REACTORS
330
47
102
}
330
47
100
AcDbProxyObject
 90
      499
 91
      503
 93
      249
310
90D332F333222203D2031272D30220000000000002E0FC000000000000284000
  0
ACAD_PROXY_OBJECT
  5
5E
102
{ACAD_REACTORS
330
47
102
}
330
47
100
AcDbProxyObject
 90
      499
 91
      503
 93
      241
310
90C312F3822203D2031272D3022000000000000300FC000000000000284000
  0
ACAD_PROXY_OBJECT
  5
5F
102
{ACAD_REACTORS
330
47
102
}
330
47
100
AcDbProxyObject
 90
      499
 91
      503
 93
      249
310
90D332F313622203D2031272D3022000000000000320FC000000000000284000
  0
ACAD_PROXY_OBJECT
  5
60
102
{ACAD_REACTORS
330
47
102
}
330
47
100
AcDbProxyObject
 90
      499
 91
      503
 93
      241
310
90C312F3422203D2031272D3022000000000000340FC000000000000284000
  0
ACAD_PROXY_OBJECT
  5
61
102
{ACAD_REACTORS
330
47
102
}
330
47
100
AcDbProxyObject
 90
      499
 91
      503
 93
      241
310
90C332F3822203D2031272D3022000000000000360FC000000000000284000
  0
ACAD_PROXY_OBJECT
  5
62
102
{ACAD_REACTORS
330
47
102
}
330
47
100
AcDbProxyObject
 90
      499
 91
      503
 93
      241
310
90C312F3222203D2031272D3022000000000000380FC000000000000284000
  0
ACAD_PROXY_OBJECT
  5
63
102
{ACAD_REACTORS
330
47
102
}
330
47
100
AcDbProxyObject
 90
      499
 91
      503
 93
      241
310
90C332F3422203D2031272D30220000000000003A0FC000000000000284000
  0
ACAD_PROXY_OBJECT
  5
64
102
{ACAD_REACTORS
330
47
102
}
330
47
100
AcDbProxyObject
 90
      499
 91
      503
 93
      161
310
90A3122203D2031272D30224000000000000284000
  0
ACAD_PROXY_OBJECT
  5
65
102
{ACAD_REACTORS
330
47
102
}
330
47
100
AcDbProxyObject
 90
      499
 91
      503
 93
      257
310
90E312D312F3222203D2031272D30220000000000003E0FC000000000000284000
  0
ACAD_PROXY_OBJECT
  5
66
102
{ACAD_REACTORS
330
47
102
}
330
47
100
AcDbProxyObject
 90
      499
 91
      503
 93
      225
310
90A3322203D2031272D302200000000000002100000000000000284000
  0
ACAD_PROXY_OBJECT
  5
67
102
{ACAD_REACTORS
330
47
102
}
330
47
100
AcDbProxyObject
 90
      499
 91
      503
 93
      225
310
90A3622203D2031272D302200000000000006100000000000000284000
  0
ACAD_PROXY_OBJECT
  5
68
102
{ACAD_REACTORS
330
47
102
}
330
47
100
AcDbProxyObject
 90
      499
 91
      503
 93
      249
310
90D31272D3022203D2031272D30220000000000000A100000000000000284000
  0
ACAD_PROXY_OBJECT
  5
2F
102
{ACAD_REACTORS
330
2A
102
}
330
2A
100
AcDbProxyObject
 90
      499
 91
      501
 93
      436
310
42CC9915DA5C99599C985B595049028333333333333E33F0000000000000F90107901411070040501600405405064090741402480A0340
1001
ACAD
1000
AcDbSavedByObjectVersion
1070
     0
  0
ACAD_PROXY_OBJECT
  5
32
102
{ACAD_REACTORS
330
2A
102
}
330
2A
100
AcDbProxyObject
 90
      499
 91
      501
 93
      388
310
4150985CDA58D07406404333333333333E33F0000000000000F90107A41107004050150841D405064090741402480A0350
1001
ACAD
1000
AcDbSavedByObjectVersion
1070
     0
  0
ACAD_PROXY_OBJECT
  5
36
102
{ACAD_REACTORS
330
2A
102
}
330
2A
100
AcDbProxyObject
 90
      499
 91
      501
 93
      428
310
42109C9A59DA1D195B90C409028333333333333E33F0000000000000F9010790141107004050150841D405064090741402480A029950
1001
ACAD
1000
AcDbSavedByObjectVersion
1070
     0
  0
ACAD_PROXY_OBJECT
  5
3A
102
{ACAD_REACTORS
330
2A
102
}
330
2A
100
AcDbProxyObject
 90
      499
 91
      501
 93
      452
310
42D0DBDB1BDC90DA185B99D95104090240C333333333333E33F0000000000000F90108901411070040501508421405064090741402480A0350
1001
ACAD
1000
AcDbSavedByObjectVersion
1070
     0
  0
ACAD_PROXY_OBJECT
  5
34
102
{ACAD_REACTORS
330
2A
102
}
330
2A
100
AcDbProxyObject
 90
      499
 91
      501
 93
      500
310
4290DBDB98D95C1D1D585B10940D028333333333333E33F0000000000000F90107902409070040501000000000018199010841D405064090740C02480A0340
1001
ACAD
1000
AcDbSavedByObjectVersion
1070
     0
  0
ACAD_PROXY_OBJECT
  5
35
102
{ACAD_REACTORS
330
2A
102
}
330
2A
100
AcDbProxyObject
 90
      499
 91
      501
 93
      412
310
40D11A5B50B409028333333333333E33F0000000000000F9010790141107004050150841D405064090741402480A02677FFFFFD0
1001
ACAD
1000
AcDbSavedByObjectVersion
1070
     0
  0
ACAD_PROXY_OBJECT
  5
3D
102
{ACAD_REACTORS
330
2A
102
}
330
2A
100
AcDbProxyObject
 90
      499
 91
      501
 93
      452
310
43115919D950DBDB1BDC93D999916409028333333333333E33F0000000000000F9010790141107004050150841D405064090741402480A0350
1001
ACAD
1000
AcDbSavedByObjectVersion
1070
     0
  0
ACAD_PROXY_OBJECT
  5
39
102
{ACAD_REACTORS
330
2A
102
}
330
2A
100
AcDbProxyObject
 90
      499
 91
      501
 93
      444
310
42D19858D95C185D1D195C9B90F409028333333333333E33F0000000000000F9010790141107004050150841D405064090741402480A0350
1001
ACAD
1000
AcDbSavedByObjectVersion
1070
     0
  0
ACAD_PROXY_OBJECT
  5
2B
102
{ACAD_REACTORS
330
2A
102
}
330
2A
100
AcDbProxyObject
 90
      499
 91
      501
 93
      380
310
41119B185D240901404333333333333E33F0000000000000F9010740A907004050150841D405064090741402480A1B50
1001
ACAD
1000
AcDbSavedByObjectVersion
1070
     0
  0
ACAD_PROXY_OBJECT
  5
2C
102
{ACAD_REACTORS
330
2A
102
}
330
2A
100
AcDbProxyObject
 90
      499
 91
      501
 93
      468
310
43519B185D15DA5D1A115919D95CD0140901404333333333333E33F0000000000000F90107409019070040501600405405064090741402480A1B50
1001
ACAD
1000
AcDbSavedByObjectVersion
1070
     0
  0
ACAD_PROXY_OBJECT
  5
2D
102
{ACAD_REACTORS
330
2A
102
}
330
2A
100
AcDbProxyObject
 90
      499
 91
      501
 93
      404
310
41D1DBDD5C985D5910240902404333333333333E33F0000000000000F9010740A9070040501641D405064090741402480A1B50
1001
ACAD
1000
AcDbSavedByObjectVersion
1070
     0
  0
ACAD_PROXY_OBJECT
  5
2E
102
{ACAD_REACTORS
330
2A
102
}
330
2A
100
AcDbProxyObject
 90
      499
 91
      501
 93
      492
310
4411DBDD5C985D5915DA5D1A115919D95CD0340902404333333333333E33F0000000000000F90107409019070040501600405405064090741402480A1B50
1001
ACAD
1000
AcDbSavedByObjectVersion
1070
     0
  0
ACAD_PROXY_OBJECT
  5
31
102
{ACAD_REACTORS
330
2A
102
}
330
2A
100
AcDbProxyObject
 90
      499
 91
      501
 93
      476
310
41921A5919195B90640502408333333333333E33F0000000000000F901079024090700405020000000000001110200405405064090740C02480A0340
1001
ACAD
1000
AcDbSavedByObjectVersion
1070
     0
  0
ACAD_PROXY_OBJECT
  5
3B
102
{ACAD_REACTORS
330
2A
102
}
330
2A
100
AcDbProxyObject
 90
      499
 91
      501
 93
      428
310
42529A5D1D195C93D999914409028333333333333E33F0000000000000F9010790141107004050150A41D405064090741402480A0350
1001
ACAD
1000
AcDbSavedByObjectVersion
1070
     0
  0
ACAD_PROXY_OBJECT
  5
38
102
{ACAD_REACTORS
330
2A
102
}
330
2A
100
AcDbProxyObject
 90
      499
 91
      501
 93
      444
310
42D31A5B995C185D1D195C9B90E409028333333333333E33F0000000000000F9010790141107004050750841D405064090741402483A0350
1001
ACAD
1000
AcDbSavedByObjectVersion
1070
     0
  0
ACAD_PROXY_OBJECT
  5
3C
102
{ACAD_REACTORS
330
2A
102
}
330
2A
100
AcDbProxyObject
 90
      499
 91
      501
 93
      444
310
42D3DD995C9A185B99D3D999915409028333333333333E33F0000000000000F9010790141107004050150941D405064090741402480A0350
1001
ACAD
1000
AcDbSavedByObjectVersion
1070
     0
  0
ACAD_PROXY_OBJECT
  5
33
102
{ACAD_REACTORS
330
2A
102
}
330
2A
100
AcDbProxyObject
 90
      499
 91
      501
 93
      428
310
425499585B1A5CDD1A58D08409038333333333333E33F0000000000000F9010740A907004050150800405405064090740C02480A1B40
1001
ACAD
1000
AcDbSavedByObjectVersion
1070
     0
  0
ACAD_PROXY_OBJECT
  5
42
102
{ACAD_REACTORS
330
2A
102
}
330
2A
100
AcDbProxyObject
 90
      499
 91
      501
 93
      420
310
4194DA1859195911B40902404333333333333E33F0000000000000F9010740A41107004050150800405405064090840C02480A0B40
1001
ACAD
1000
AcDbSavedByObjectVersion
1070
     0
  0
ACAD_PROXY_OBJECT
  5
41
102
{ACAD_REACTORS
330
2A
102
}
330
2A
100
AcDbProxyObject
 90
      499
 91
      501
 93
      516
310
4454DA18591959081DDA5D1A08195919D95CD1A40902404333333333333E33F0000000000000F901074090142907004050250800405405064090740C02480A0B40
1001
ACAD
1000
AcDbSavedByObjectVersion
1070
     0
  0
ACAD_PROXY_OBJECT
  5
3E
102
{ACAD_REACTORS
330
2A
102
}
330
2A
100
AcDbProxyObject
 90
      499
 91
      501
 93
      532
310
4394DA1859195CC81BD98811DC985E5174090240C333333333333E33F0000000000000F901079024090741D01000000000000111010841D405064090740C02480A0340
1001
ACAD
1000
AcDbSavedByObjectVersion
1070
     0
  0
ACAD_PROXY_OBJECT
  5
3F
102
{ACAD_REACTORS
330
2A
102
}
330
2A
100
AcDbProxyObject
 90
      499
 91
      501
 93
      476
310
41D4DAD95D18DA1E51840502408333333333333E33F0000000000000F901079024090741D01000000000000111010B41D405064090741802480A0340
1001
ACAD
1000
AcDbSavedByObjectVersion
1070
     0
  0
ACAD_PROXY_OBJECT
  5
37
102
{ACAD_REACTORS
330
2A
102
}
330
2A
100
AcDbProxyObject
 90
      499
 91
      501
 93
      412
310
41D51A1A58DAD95B90D409028333333333333E33F0000000000000F9010790141107004050150C41D405064090741402480A0350
1001
ACAD
1000
AcDbSavedByObjectVersion
1070
     0
  0
ACAD_PROXY_OBJECT
  5
30
102
{ACAD_REACTORS
330
2A
102
}
330
2A
100
AcDbProxyObject
 90
      499
 91
      501
 93
      420
310
4255DA5C99599C985B595059028333333333333E33F0000000000000F90107901411070040501600405405064090740C02480A0340
1001
ACAD
1000
AcDbSavedByObjectVersion
1070
     0
  0
ACAD_PROXY_OBJECT
  5
40
102
{ACAD_REACTORS
330
2A
102
}
330
2A
100
AcDbProxyObject
 90
      499
 91
      501
 93
      404
310
41560B54985E51940902404000000000000E03F0000000000000F9010740501907004050150841D405064090740C02480A1B40
1001
ACAD
1000
AcDbSavedByObjectVersion
1070
     0
  0
XRECORD
  5
6D0
102
{ACAD_REACTORS
330
6C6
102
}
330
6C6
100
AcDbXrecord
340
0
  0
XRECORD
  5
6CF
102
{ACAD_REACTORS
330
6C6
102
}
330
6C6
100
AcDbXrecord
 90
        0
  0
XRECORD
  5
6E6
102
{ACAD_REACTORS
330
6C6
102
}
330
6C6
100
AcDbXrecord
1000
DSTYLE
1002
{
1070
   340
340
11
1002
}
  0
XRECORD
  5
6D1
102
{ACAD_REACTORS
330
6C6
102
}
330
6C6
100
AcDbXrecord
  1
{36c5888a-331a-4149-9d7c-6475884dfa48}
  0
XRECORD
  5
6C9
102
{ACAD_REACTORS
330
6C6
102
}
330
6C6
100
AcDbXrecord
  1

  0
XRECORD
  5
6CE
102
{ACAD_REACTORS
330
6C6
102
}
330
6C6
100
AcDbXrecord
 90
        4
  0
XRECORD
  5
6CB
102
{ACAD_REACTORS
330
6C6
102
}
330
6C6
100
AcDbXrecord
340
1A
  0
XRECORD
  5
6CD
102
{ACAD_REACTORS
330
6C6
102
}
330
6C6
100
AcDbXrecord
 90
    10781
  0
XRECORD
  5
6CC
102
{ACAD_REACTORS
330
6C6
102
}
330
6C6
100
AcDbXrecord
340
19
  0
XRECORD
  5
6D3
102
{ACAD_REACTORS
330
6C6
102
}
330
6C6
100
AcDbXrecord
 40
0.0
  0
XRECORD
  5
6D6
102
{ACAD_REACTORS
330
6C6
102
}
330
6C6
100
AcDbXrecord
340
0
  0
XRECORD
  5
6DC
102
{ACAD_REACTORS
330
6C6
102
}
330
6C6
100
AcDbXrecord
 10
0.0
 20
0.0
 30
0.0
  0
XRECORD
  5
6D8
102
{ACAD_REACTORS
330
6C6
102
}
330
6C6
100
AcDbXrecord
 10
0.0
 20
0.0
 30
0.0
  0
XRECORD
  5
6DB
102
{ACAD_REACTORS
330
6C6
102
}
330
6C6
100
AcDbXrecord
 10
0.0
 20
0.0
 30
0.0
  0
XRECORD
  5
6D9
102
{ACAD_REACTORS
330
6C6
102
}
330
6C6
100
AcDbXrecord
 10
0.0
 20
0.0
 30
0.0
  0
XRECORD
  5
6DA
102
{ACAD_REACTORS
330
6C6
102
}
330
6C6
100
AcDbXrecord
 10
0.0
 20
0.0
 30
0.0
  0
XRECORD
  5
6D7
102
{ACAD_REACTORS
330
6C6
102
}
330
6C6
100
AcDbXrecord
 10
0.0
 20
0.0
 30
0.0
  0
XRECORD
  5
6D4
102
{ACAD_REACTORS
330
6C6
102
}
330
6C6
100
AcDbXrecord
340
0
  0
XRECORD
  5
6D5
102
{ACAD_REACTORS
330
6C6
102
}
330
6C6
100
AcDbXrecord
 70
     0
  0
XRECORD
  5
6CA
102
{ACAD_REACTORS
330
6C6
102
}
330
6C6
100
AcDbXrecord
  1

  0
XRECORD
  5
6C7
102
{ACAD_REACTORS
330
6C6
102
}
330
6C6
100
AcDbXrecord
 90
        1
  0
XRECORD
  5
6C8
102
{ACAD_REACTORS
330
6C6
102
}
330
6C6
100
AcDbXrecord
 90
       70
  0
XRECORD
  5
6DF
102
{ACAD_REACTORS
330
6C6
102
}
330
6C6
100
AcDbXrecord
340
0
  0
XRECORD
  5
6E5
102
{ACAD_REACTORS
330
6C6
102
}
330
6C6
100
AcDbXrecord
 10
0.0
 20
0.0
 30
0.0
  0
XRECORD
  5
6E1
102
{ACAD_REACTORS
330
6C6
102
}
330
6C6
100
AcDbXrecord
 10
0.0
 20
0.0
 30
0.0
  0
XRECORD
  5
6E4
102
{ACAD_REACTORS
330
6C6
102
}
330
6C6
100
AcDbXrecord
 10
0.0
 20
0.0
 30
0.0
  0
XRECORD
  5
6E2
102
{ACAD_REACTORS
330
6C6
102
}
330
6C6
100
AcDbXrecord
 10
0.0
 20
0.0
 30
0.0
  0
XRECORD
  5
6E3
102
{ACAD_REACTORS
330
6C6
102
}
330
6C6
100
AcDbXrecord
 10
0.0
 20
0.0
 30
0.0
  0
XRECORD
  5
6E0
102
{ACAD_REACTORS
330
6C6
102
}
330
6C6
100
AcDbXrecord
 10
0.0
 20
0.0
 30
0.0
  0
XRECORD
  5
6DD
102
{ACAD_REACTORS
330
6C6
102
}
330
6C6
100
AcDbXrecord
340
0
  0
XRECORD
  5
6DE
102
{ACAD_REACTORS
330
6C6
102
}
330
6C6
100
AcDbXrecord
 70
     0
  0
XRECORD
  5
6D2
102
{ACAD_REACTORS
330
6C6
102
}
330
6C6
100
AcDbXrecord
  1
{FAEB1C32-E019-11D5-929B-00C0DF256EC4}
  0
DICTIONARYVAR
  5
6F4
102
{ACAD_REACTORS
330
6E7
102
}
330
6E7
100
DictionaryVariables
280
     0
  1
1:1
  0
DICTIONARYVAR
  5
6EE
102
{ACAD_REACTORS
330
6E7
102
}
330
6E7
100
DictionaryVariables
280
     0
  1
3.500000
  0
DICTIONARYVAR
  5
6EF
102
{ACAD_REACTORS
330
6E7
102
}
330
6E7
100
DictionaryVariables
280
     0
  1
acadiso.lin
  0
DICTIONARYVAR
  5
6E9
102
{ACAD_REACTORS
330
6E7
102
}
330
6E7
100
DictionaryVariables
280
     0
  1
Standard
  0
DICTIONARYVAR
  5
6E8
102
{ACAD_REACTORS
330
6E7
102
}
330
6E7
100
DictionaryVariables
280
     0
  1
Standard
  0
DICTIONARYVAR
  5
6F0
102
{ACAD_REACTORS
330
6E7
102
}
330
6E7
100
DictionaryVariables
280
     0
  1
2
  0
DICTIONARYVAR
  5
6F1
102
{ACAD_REACTORS
330
6E7
102
}
330
6E7
100
DictionaryVariables
280
     0
  1
1
  0
DICTIONARYVAR
  5
6F5
102
{ACAD_REACTORS
330
6E7
102
}
330
6E7
100
DictionaryVariables
280
     0
  1
1
  0
DICTIONARYVAR
  5
6EB
102
{ACAD_REACTORS
330
6E7
102
}
330
6E7
100
DictionaryVariables
280
     0
  1
80.000000
  0
DICTIONARYVAR
  5
6EA
102
{ACAD_REACTORS
330
6E7
102
}
330
6E7
100
DictionaryVariables
280
     0
  1
5.000000
  0
DICTIONARY
  5
6F8
330
45
100
AcDbDictionary
280
     1
  3
ACAD_XREC_ROUNDTRIP
360
6F9
  0
DICTIONARY
  5
6F6
330
44
100
AcDbDictionary
280
     1
  3
ACAD_XREC_ROUNDTRIP
360
6F7
  0
DICTIONARY
  5
6FA
330
46
100
AcDbDictionary
280
     1
  3
ACAD_XREC_ROUNDTRIP
360
6FB
  0
XRECORD
  5
6F9
102
{ACAD_REACTORS
330
6F8
102
}
330
6F8
100
AcDbXrecord
102
MATERIAL
148
0.0
149
0.0
149
0.0
 93
        0
 94
      127
282
     0
 72
     1
 77
     1
171
     1
175
     1
179
     1
273
     0
  0
XRECORD
  5
6F7
102
{ACAD_REACTORS
330
6F6
102
}
330
6F6
100
AcDbXrecord
102
MATERIAL
148
0.0
149
0.0
149
0.0
 93
        0
 94
      127
282
     0
 72
     1
 77
     1
171
     1
175
     1
179
     1
273
     0
  0
XRECORD
  5
6FB
102
{ACAD_REACTORS
330
6FA
102
}
330
6FA
100
AcDbXrecord
102
MATERIAL
148
0.0
149
0.0
149
0.0
 93
        0
 94
      127
282
     0
 72
     1
 77
     1
171
     1
175
     1
179
     1
273
     0
  0
ENDSEC
  0
EOF
