  0
SECTION
  2
HEADER
  9
$ACADVER
  1
AC1014
  9
$ACADMAINTVER
 70
     9
  9
$DWGCODEPAGE
  3
ANSI_932
  9
$INSBASE
 10
0.0
 20
0.0
 30
0.0
  9
$EXTMIN
 10
50.0
 20
100.0
 30
0.0
  9
$EXTMAX
 10
3850.0
 20
2800.0
 30
0.0
  9
$LIMMIN
 10
0.0
 20
0.0
  9
$LIMMAX
 10
420.0
 20
297.0
  9
$ORTHOMODE
 70
     0
  9
$REGENMODE
 70
     1
  9
$FILLMODE
 70
     1
  9
$QTEXTMODE
 70
     0
  9
$MIRRTEXT
 70
     1
  9
$DRAGMODE
 70
     2
  9
$LTSCALE
 40
0.2
  9
$OSMODE
 70
    37
  9
$ATTMODE
 70
     1
  9
$TEXTSIZE
 40
2.5
  9
$TRACEWID
 40
1.0
  9
$TEXTSTYLE
  7
STANDARD
  9
$CLAYER
  8
LAY-10
  9
$CELTYPE
  6
BYLAYER
  9
$CECOLOR
 62
   256
  9
$CELTSCALE
 40
1.0
  9
$DELOBJ
 70
     1
  9
$DISPSILH
 70
     0
  9
$DIMSCALE
 40
1.0
  9
$DIMASZ
 40
2.5
  9
$DIMEXO
 40
0.625
  9
$DIMDLI
 40
3.75
  9
$DIMRND
 40
0.0
  9
$DIMDLE
 40
0.0
  9
$DIMEXE
 40
1.25
  9
$DIMTP
 40
0.0
  9
$DIMTM
 40
0.0
  9
$DIMTXT
 40
2.5
  9
$DIMCEN
 40
2.5
  9
$DIMTSZ
 40
0.0
  9
$DIMTOL
 70
     0
  9
$DIMLIM
 70
     0
  9
$DIMTIH
 70
     0
  9
$DIMTOH
 70
     0
  9
$DIMSE1
 70
     0
  9
$DIMSE2
 70
     0
  9
$DIMTAD
 70
     1
  9
$DIMZIN
 70
     8
  9
$DIMBLK
  1

  9
$DIMASO
 70
     1
  9
$DIMSHO
 70
     1
  9
$DIMPOST
  1

  9
$DIMAPOST
  1

  9
$DIMALT
 70
     0
  9
$DIMALTD
 70
     3
  9
$DIMALTF
 40
0.03937007874016
  9
$DIMLFAC
 40
1.0
  9
$DIMTOFL
 70
     1
  9
$DIMTVP
 40
0.0
  9
$DIMTIX
 70
     0
  9
$DIMSOXD
 70
     0
  9
$DIMSAH
 70
     0
  9
$DIMBLK1
  1

  9
$DIMBLK2
  1

  9
$DIMSTYLE
  2
ISO-25
  9
$DIMCLRD
 70
     0
  9
$DIMCLRE
 70
     0
  9
$DIMCLRT
 70
     0
  9
$DIMTFAC
 40
1.0
  9
$DIMGAP
 40
0.625
  9
$DIMJUST
 70
     0
  9
$DIMSD1
 70
     0
  9
$DIMSD2
 70
     0
  9
$DIMTOLJ
 70
     0
  9
$DIMTZIN
 70
     8
  9
$DIMALTZ
 70
     0
  9
$DIMALTTZ
 70
     0
  9
$DIMFIT
 70
     3
  9
$DIMUPT
 70
     0
  9
$DIMUNIT
 70
     2
  9
$DIMDEC
 70
     2
  9
$DIMTDEC
 70
     2
  9
$DIMALTU
 70
     2
  9
$DIMALTTD
 70
     3
  9
$DIMTXSTY
  7
STANDARD
  9
$DIMAUNIT
 70
     0
  9
$LUNITS
 70
     2
  9
$LUPREC
 70
     4
  9
$SKETCHINC
 40
1.0
  9
$FILLETRAD
 40
10.0
  9
$AUNITS
 70
     0
  9
$AUPREC
 70
     0
  9
$MENU
  1
.
  9
$ELEVATION
 40
0.0
  9
$PELEVATION
 40
0.0
  9
$THICKNESS
 40
0.0
  9
$LIMCHECK
 70
     0
  9
$CHAMFERA
 40
0.0
  9
$CHAMFERB
 40
0.0
  9
$CHAMFERC
 40
0.0
  9
$CHAMFERD
 40
0.0
  9
$SKPOLY
 70
     0
  9
$TDCREATE
 40
2459229.333597535
  9
$TDUPDATE
 40
2459229.333598669
  9
$TDINDWG
 40
0.0000000116
  9
$TDUSRTIMER
 40
0.0000000116
  9
$USRTIMER
 70
     1
  9
$ANGBASE
 50
0.0
  9
$ANGDIR
 70
     0
  9
$PDMODE
 70
     0
  9
$PDSIZE
 40
0.0
  9
$PLINEWID
 40
0.0
  9
$COORDS
 70
     1
  9
$SPLFRAME
 70
     0
  9
$SPLINETYPE
 70
     6
  9
$SPLINESEGS
 70
     8
  9
$ATTDIA
 70
     0
  9
$ATTREQ
 70
     1
  9
$HANDLING
 70
     1
  9
$HANDSEED
  5
61E
  9
$SURFTAB1
 70
     6
  9
$SURFTAB2
 70
     6
  9
$SURFTYPE
 70
     6
  9
$SURFU
 70
     6
  9
$SURFV
 70
     6
  9
$UCSNAME
  2

  9
$UCSORG
 10
0.0
 20
0.0
 30
0.0
  9
$UCSXDIR
 10
1.0
 20
0.0
 30
0.0
  9
$UCSYDIR
 10
0.0
 20
1.0
 30
0.0
  9
$PUCSNAME
  2

  9
$PUCSORG
 10
0.0
 20
0.0
 30
0.0
  9
$PUCSXDIR
 10
1.0
 20
0.0
 30
0.0
  9
$PUCSYDIR
 10
0.0
 20
1.0
 30
0.0
  9
$USERI1
 70
     0
  9
$USERI2
 70
     0
  9
$USERI3
 70
     0
  9
$USERI4
 70
     0
  9
$USERI5
 70
     0
  9
$USERR1
 40
0.0
  9
$USERR2
 40
0.0
  9
$USERR3
 40
0.0
  9
$USERR4
 40
0.0
  9
$USERR5
 40
0.0
  9
$WORLDVIEW
 70
     1
  9
$SHADEDGE
 70
     3
  9
$SHADEDIF
 70
    70
  9
$TILEMODE
 70
     1
  9
$MAXACTVP
 70
    64
  9
$PINSBASE
 10
0.0
 20
0.0
 30
0.0
  9
$PLIMCHECK
 70
     0
  9
$PEXTMIN
 10
1.000000000000000E+20
 20
1.000000000000000E+20
 30
1.000000000000000E+20
  9
$PEXTMAX
 10
-1.000000000000000E+20
 20
-1.000000000000000E+20
 30
-1.000000000000000E+20
  9
$PLIMMIN
 10
0.0
 20
0.0
  9
$PLIMMAX
 10
420.0
 20
297.0
  9
$UNITMODE
 70
     0
  9
$VISRETAIN
 70
     1
  9
$PLINEGEN
 70
     0
  9
$PSLTSCALE
 70
     1
  9
$TREEDEPTH
 70
  3020
  9
$PICKSTYLE
 70
     1
  9
$CMLSTYLE
  2
STANDARD
  9
$CMLJUST
 70
     0
  9
$CMLSCALE
 40
20.0
  9
$PROXYGRAPHICS
 70
     1
  9
$MEASUREMENT
 70
     1
  0
ENDSEC
  0
SECTION
  2
CLASSES
  0
CLASS
  1
ACDBDICTIONARYWDFLT
  2
AcDbDictionaryWithDefault
  3
ObjectDBX Classes
 90
        0
280
     0
281
     0
  0
CLASS
  1
VISUALSTYLE
  2
AcDbVisualStyle
  3
ObjectDBX Classes
 90
     4095
280
     0
281
     0
  0
CLASS
  1
MATERIAL
  2
AcDbMaterial
  3
ObjectDBX Classes
 90
     1153
280
     0
281
     0
  0
CLASS
  1
SCALE
  2
AcDbScale
  3
ObjectDBX Classes
 90
     1153
280
     0
281
     0
  0
CLASS
  1
TABLESTYLE
  2
AcDbTableStyle
  3
ObjectDBX Classes
 90
     4095
280
     0
281
     0
  0
CLASS
  1
MLEADERSTYLE
  2
AcDbMLeaderStyle
  3
ACDB_MLEADERSTYLE_CLASS
 90
     4095
280
     0
281
     0
  0
CLASS
  1
SUN
  2
AcDbSun
  3
SCENEOE
 90
     1153
280
     0
281
     0
  0
CLASS
  1
DICTIONARYVAR
  2
AcDbDictionaryVar
  3
ObjectDBX Classes
 90
        0
280
     0
281
     0
  0
CLASS
  1
XRECORD
  2
AcDbXrecord
  3
ObjectDBX Classes
 90
        0
280
     0
281
     0
  0
CLASS
  1
LWPOLYLINE
  2
AcDbPolyline
  3
ObjectDBX Classes
 90
        0
280
     0
281
     1
  0
CLASS
  1
HATCH
  2
AcDbHatch
  3
ObjectDBX Classes
 90
        0
280
     0
281
     1
  0
CLASS
  1
ACDBPLACEHOLDER
  2
AcDbPlaceHolder
  3
ObjectDBX Classes
 90
        0
280
     0
281
     0
  0
CLASS
  1
LAYOUT
  2
AcDbLayout
  3
ObjectDBX Classes
 90
        0
280
     0
281
     0
  0
ENDSEC
  0
SECTION
  2
TABLES
  0
TABLE
  2
VPORT
  5
8
102
{ACAD_XDICTIONARY
360
613
102
}
330
0
100
AcDbSymbolTable
 70
     1
  0
VPORT
  5
29
330
8
100
AcDbSymbolTableRecord
100
AcDbViewportTableRecord
  2
*ACTIVE
 70
     0
 10
0.0
 20
0.0
 11
1.0
 21
1.0
 12
1950.0
 22
1450.0
 13
0.0
 23
0.0
 14
10.0
 24
10.0
 15
10.0
 25
10.0
 16
0.0
 26
0.0
 36
1.0
 17
0.0
 27
0.0
 37
0.0
 40
2700.0
 41
1.407407407407408
 42
50.0
 43
0.0
 44
0.0
 50
0.0
 51
0.0
 71
     0
 72
  1000
 73
     1
 74
     3
 75
     0
 76
     0
 77
     0
 78
     0
  0
ENDTAB
  0
TABLE
  2
LTYPE
  5
5
330
0
100
AcDbSymbolTable
 70
     6
  0
LTYPE
  5
14
330
5
100
AcDbSymbolTableRecord
100
AcDbLinetypeTableRecord
  2
BYBLOCK
 70
     0
  3

 72
    65
 73
     0
 40
0.0
  0
LTYPE
  5
15
330
5
100
AcDbSymbolTableRecord
100
AcDbLinetypeTableRecord
  2
BYLAYER
 70
     0
  3

 72
    65
 73
     0
 40
0.0
  0
LTYPE
  5
16
330
5
100
AcDbSymbolTableRecord
100
AcDbLinetypeTableRecord
  2
CONTINUOUS
 70
     0
  3
Solid line
 72
    65
 73
     0
 40
0.0
  0
LTYPE
  5
6E
330
5
100
AcDbSymbolTableRecord
100
AcDbLinetypeTableRecord
  2
HIDDEN
 70
     0
  3
Hidden __ __ __ __ __ __ __ __ __ __ __ __ __ __
 72
    65
 73
     2
 40
9.524999999999999
 49
6.35
 74
     0
 49
-3.175
 74
     0
  0
LTYPE
  5
6F
330
5
100
AcDbSymbolTableRecord
100
AcDbLinetypeTableRecord
  2
CENTER
 70
     0
  3
Center ____ _ ____ _ ____ _ ____ _ ____ _ ____
 72
    65
 73
     4
 40
50.8
 49
31.75
 74
     0
 49
-6.35
 74
     0
 49
6.35
 74
     0
 49
-6.35
 74
     0
  0
LTYPE
  5
70
330
5
100
AcDbSymbolTableRecord
100
AcDbLinetypeTableRecord
  2
PHANTOM
 70
     0
  3
Phantom ______  __  __  ______  __  __  ______ 
 72
    65
 73
     6
 40
63.50000000000001
 49
31.75
 74
     0
 49
-6.35
 74
     0
 49
6.35
 74
     0
 49
-6.35
 74
     0
 49
6.35
 74
     0
 49
-6.35
 74
     0
  0
LTYPE
  5
71
330
5
100
AcDbSymbolTableRecord
100
AcDbLinetypeTableRecord
  2
ACAD_ISO06W100
 70
     0
  3
ISO long-dash triple-dot ____ ... ____ ... ____
 72
    65
 73
     8
 40
36.0
 49
24.0
 74
     0
 49
-3.0
 74
     0
 49
0.0
 74
     0
 49
-3.0
 74
     0
 49
0.0
 74
     0
 49
-3.0
 74
     0
 49
0.0
 74
     0
 49
-3.0
 74
     0
  0
LTYPE
  5
72
330
5
100
AcDbSymbolTableRecord
100
AcDbLinetypeTableRecord
  2
ACAD_ISO15W100
 70
     0
  3
ISO double-dash triple-dot __ __ . . . __ __ . .
 72
    65
 73
    10
 40
39.0
 49
12.0
 74
     0
 49
-3.0
 74
     0
 49
12.0
 74
     0
 49
-3.0
 74
     0
 49
0.0
 74
     0
 49
-3.0
 74
     0
 49
0.0
 74
     0
 49
-3.0
 74
     0
 49
0.0
 74
     0
 49
-3.0
 74
     0
  0
ENDTAB
  0
TABLE
  2
LAYER
  5
2
330
0
100
AcDbSymbolTable
 70
     6
  0
LAYER
  5
10
330
2
100
AcDbSymbolTableRecord
100
AcDbLayerTableRecord
  2
0
 70
     0
 62
     7
  6
CONTINUOUS
  0
LAYER
  5
75
330
2
100
AcDbSymbolTableRecord
100
AcDbLayerTableRecord
  2
LAY-10
 70
     0
 62
     7
  6
CONTINUOUS
  0
LAYER
  5
76
330
2
100
AcDbSymbolTableRecord
100
AcDbLayerTableRecord
  2
LAY-11
 70
     0
 62
     7
  6
CONTINUOUS
  0
LAYER
  5
77
330
2
100
AcDbSymbolTableRecord
100
AcDbLayerTableRecord
  2
LAY-20
 70
     0
 62
     7
  6
CONTINUOUS
  0
LAYER
  5
78
330
2
100
AcDbSymbolTableRecord
100
AcDbLayerTableRecord
  2
LAY-255
 70
     0
 62
     7
  6
CONTINUOUS
  0
LAYER
  5
53D
330
2
100
AcDbSymbolTableRecord
100
AcDbLayerTableRecord
  2
DEFPOINTS
 70
     0
 62
     7
  6
CONTINUOUS
  0
ENDTAB
  0
TABLE
  2
STYLE
  5
3
330
0
100
AcDbSymbolTable
 70
     4
  0
STYLE
  5
11
330
3
100
AcDbSymbolTableRecord
100
AcDbTextStyleTableRecord
  2
STANDARD
 70
     0
 40
0.0
 41
1.0
 50
0.0
 71
     0
 42
2.5
  3
simplex
  4
bigfont
  0
STYLE
  5
73
330
3
100
AcDbSymbolTableRecord
100
AcDbTextStyleTableRecord
  2
EXCADSTD
 70
     0
 40
0.0
 41
1.0
 50
0.0
 71
     0
 42
2.5
  3
simplex
  4
bigfont
  0
STYLE
  5
74
330
3
100
AcDbSymbolTableRecord
100
AcDbTextStyleTableRecord
  2
EXCADVERT
 70
     4
 40
0.0
 41
1.0
 50
0.0
 71
     0
 42
2.5
  3
simplex
  4
bigfont
  0
STYLE
  5
53B
330
3
100
AcDbSymbolTableRecord
100
AcDbTextStyleTableRecord
  2
EXCADDIM1
 70
     0
 40
0.0
 41
0.84
 50
0.0
 71
     0
 42
2.5
  3
simplex
  4
bigfont
  0
ENDTAB
  0
TABLE
  2
VIEW
  5
6
330
0
100
AcDbSymbolTable
 70
     0
  0
ENDTAB
  0
TABLE
  2
UCS
  5
7
330
0
100
AcDbSymbolTable
 70
     0
  0
ENDTAB
  0
TABLE
  2
APPID
  5
9
330
0
100
AcDbSymbolTable
 70
     2
  0
APPID
  5
12
330
9
100
AcDbSymbolTableRecord
100
AcDbRegAppTableRecord
  2
ACAD
 70
     0
  0
APPID
  5
61D
330
9
100
AcDbSymbolTableRecord
100
AcDbRegAppTableRecord
  2
ACAD_MLEADERVER
 70
     0
  0
ENDTAB
  0
TABLE
  2
DIMSTYLE
  5
A
330
0
100
AcDbSymbolTable
 70
     1
  0
DIMSTYLE
105
27
102
{ACAD_REACTORS
330
53C
330
54A
330
557
330
564
330
571
330
57E
330
58B
330
598
330
5A5
330
5B2
102
}
330
A
100
AcDbSymbolTableRecord
100
AcDbDimStyleTableRecord
  2
ISO-25
 70
     0
  3

  4

  5

  6

  7

 40
1.0
 41
2.5
 42
0.625
 43
3.75
 44
1.25
 45
0.0
 46
0.0
 47
0.0
 48
0.0
140
2.5
141
2.5
142
0.0
143
0.03937007874016
144
1.0
145
0.0
146
1.0
147
0.625
 71
     0
 72
     0
 73
     0
 74
     0
 75
     0
 76
     0
 77
     1
 78
     8
170
     0
171
     3
172
     1
173
     0
174
     0
175
     0
176
     0
177
     0
178
     0
270
     2
271
     2
272
     2
273
     2
274
     3
340
11
275
     0
280
     0
281
     0
282
     0
283
     0
284
     8
285
     0
286
     0
287
     5
288
     0
  0
ENDTAB
  0
TABLE
  2
BLOCK_RECORD
  5
1
330
0
100
AcDbSymbolTable
 70
    24
  0
BLOCK_RECORD
  5
1F
330
1
100
AcDbSymbolTableRecord
100
AcDbBlockTableRecord
  2
*MODEL_SPACE
  0
BLOCK_RECORD
  5
1B
330
1
100
AcDbSymbolTableRecord
100
AcDbBlockTableRecord
  2
*PAPER_SPACE
  0
BLOCK_RECORD
  5
79
330
1
100
AcDbSymbolTableRecord
100
AcDbBlockTableRecord
  2
EX_NORM
  0
BLOCK_RECORD
  5
7C
330
1
100
AcDbSymbolTableRecord
100
AcDbBlockTableRecord
  2
EX_BNORM
  0
BLOCK_RECORD
  5
7F
330
1
100
AcDbSymbolTableRecord
100
AcDbBlockTableRecord
  2
EX_BCIR
  0
BLOCK_RECORD
  5
82
330
1
100
AcDbSymbolTableRecord
100
AcDbBlockTableRecord
  2
EX_RCIVIL
  0
BLOCK_RECORD
  5
85
330
1
100
AcDbSymbolTableRecord
100
AcDbBlockTableRecord
  2
EX_SLANT
  0
BLOCK_RECORD
  5
88
330
1
100
AcDbSymbolTableRecord
100
AcDbBlockTableRecord
  2
EX_NONE
  0
BLOCK_RECORD
  5
8B
330
1
100
AcDbSymbolTableRecord
100
AcDbBlockTableRecord
  2
EX_CIVIL
  0
BLOCK_RECORD
  5
8E
330
1
100
AcDbSymbolTableRecord
100
AcDbBlockTableRecord
  2
EX_WCIR
  0
BLOCK_RECORD
  5
91
330
1
100
AcDbSymbolTableRecord
100
AcDbBlockTableRecord
  2
EX_WCIR2
  0
BLOCK_RECORD
  5
94
330
1
100
AcDbSymbolTableRecord
100
AcDbBlockTableRecord
  2
EX_WNORM
  0
BLOCK_RECORD
  5
97
330
1
100
AcDbSymbolTableRecord
100
AcDbBlockTableRecord
  2
EX_NNORM
  0
BLOCK_RECORD
  5
9A
330
1
100
AcDbSymbolTableRecord
100
AcDbBlockTableRecord
  2
EX_BBOX
  0
BLOCK_RECORD
  5
9D
330
1
100
AcDbSymbolTableRecord
100
AcDbBlockTableRecord
  2
EX_WBOX
  0
BLOCK_RECORD
  5
A0
330
1
100
AcDbSymbolTableRecord
100
AcDbBlockTableRecord
  2
EX_INTEGRAL
  0
BLOCK_RECORD
  5
53E
330
1
100
AcDbSymbolTableRecord
100
AcDbBlockTableRecord
  2
*D15
  0
BLOCK_RECORD
  5
54B
330
1
100
AcDbSymbolTableRecord
100
AcDbBlockTableRecord
  2
*D16
  0
BLOCK_RECORD
  5
558
330
1
100
AcDbSymbolTableRecord
100
AcDbBlockTableRecord
  2
*D17
  0
BLOCK_RECORD
  5
565
330
1
100
AcDbSymbolTableRecord
100
AcDbBlockTableRecord
  2
*D18
  0
BLOCK_RECORD
  5
572
330
1
100
AcDbSymbolTableRecord
100
AcDbBlockTableRecord
  2
*D19
  0
BLOCK_RECORD
  5
57F
330
1
100
AcDbSymbolTableRecord
100
AcDbBlockTableRecord
  2
*D20
  0
BLOCK_RECORD
  5
58C
330
1
100
AcDbSymbolTableRecord
100
AcDbBlockTableRecord
  2
*D21
  0
BLOCK_RECORD
  5
599
330
1
100
AcDbSymbolTableRecord
100
AcDbBlockTableRecord
  2
*D22
  0
BLOCK_RECORD
  5
5A6
330
1
100
AcDbSymbolTableRecord
100
AcDbBlockTableRecord
  2
*D23
  0
BLOCK_RECORD
  5
5B3
330
1
100
AcDbSymbolTableRecord
100
AcDbBlockTableRecord
  2
*D24
  0
ENDTAB
  0
ENDSEC
  0
SECTION
  2
BLOCKS
  0
BLOCK
  5
20
330
1F
100
AcDbEntity
  8
0
100
AcDbBlockBegin
  2
*MODEL_SPACE
 70
     0
 10
0.0
 20
0.0
 30
0.0
  3
*MODEL_SPACE
  1

  0
ENDBLK
  5
21
330
1F
100
AcDbEntity
  8
0
100
AcDbBlockEnd
  0
BLOCK
  5
1C
330
1B
100
AcDbEntity
 67
     1
  8
0
100
AcDbBlockBegin
  2
*PAPER_SPACE
 70
     0
 10
0.0
 20
0.0
 30
0.0
  3
*PAPER_SPACE
  1

  0
ENDBLK
  5
1D
330
1B
100
AcDbEntity
 67
     1
  8
0
100
AcDbBlockEnd
  0
BLOCK
  5
7A
330
79
100
AcDbEntity
  8
0
100
AcDbBlockBegin
  2
EX_NORM
 70
     0
 10
0.0
 20
0.0
 30
0.0
  3
EX_NORM
  1

  0
LINE
  5
A3
330
79
100
AcDbEntity
  8
0
  6
CONTINUOUS
 62
     0
100
AcDbLine
 10
0.0
 20
0.0
 30
0.0
 11
-1.0
 21
0.0
 31
0.0
  0
LINE
  5
A4
330
79
100
AcDbEntity
  8
0
  6
CONTINUOUS
 62
     0
100
AcDbLine
 10
0.0
 20
0.0
 30
0.0
 11
-1.0
 21
0.166666667
 31
0.0
  0
LINE
  5
A5
330
79
100
AcDbEntity
  8
0
  6
CONTINUOUS
 62
     0
100
AcDbLine
 10
0.0
 20
0.0
 30
0.0
 11
-1.0
 21
-0.166666667
 31
0.0
  0
ENDBLK
  5
7B
330
79
100
AcDbEntity
  8
0
100
AcDbBlockEnd
  0
BLOCK
  5
7D
330
7C
100
AcDbEntity
  8
0
100
AcDbBlockBegin
  2
EX_BNORM
 70
     0
 10
0.0
 20
0.0
 30
0.0
  3
EX_BNORM
  1

  0
LINE
  5
A6
330
7C
100
AcDbEntity
  8
0
  6
CONTINUOUS
 62
     0
100
AcDbLine
 10
0.0
 20
0.0
 30
0.0
 11
-1.0
 21
0.0
 31
0.0
  0
LINE
  5
A7
330
7C
100
AcDbEntity
  8
0
  6
CONTINUOUS
 62
     0
100
AcDbLine
 10
0.0
 20
0.0
 30
0.0
 11
-1.0
 21
0.166666667
 31
0.0
  0
LINE
  5
A8
330
7C
100
AcDbEntity
  8
0
  6
CONTINUOUS
 62
     0
100
AcDbLine
 10
0.0
 20
0.0
 30
0.0
 11
-1.0
 21
-0.166666667
 31
0.0
  0
LINE
  5
A9
330
7C
100
AcDbEntity
  8
0
  6
CONTINUOUS
 62
     0
100
AcDbLine
 10
0.0
 20
0.0
 30
0.0
 11
-1.0
 21
0.083333333
 31
0.0
  0
LINE
  5
AA
330
7C
100
AcDbEntity
  8
0
  6
CONTINUOUS
 62
     0
100
AcDbLine
 10
0.0
 20
0.0
 30
0.0
 11
-1.0
 21
-0.083333333
 31
0.0
  0
LINE
  5
AB
330
7C
100
AcDbEntity
  8
0
  6
CONTINUOUS
 62
     0
100
AcDbLine
 10
-1.0
 20
0.166666667
 30
0.0
 11
-1.0
 21
-0.166666667
 31
0.0
  0
ENDBLK
  5
7E
330
7C
100
AcDbEntity
  8
0
100
AcDbBlockEnd
  0
BLOCK
  5
80
330
7F
100
AcDbEntity
  8
0
100
AcDbBlockBegin
  2
EX_BCIR
 70
     0
 10
0.0
 20
0.0
 30
0.0
  3
EX_BCIR
  1

  0
LINE
  5
AC
330
7F
100
AcDbEntity
  8
0
  6
CONTINUOUS
 62
     0
100
AcDbLine
 10
0.0
 20
0.0
 30
0.0
 11
-1.0
 21
0.0
 31
0.0
  0
CIRCLE
  5
AD
330
7F
100
AcDbEntity
  8
0
  6
CONTINUOUS
 62
     0
100
AcDbCircle
 10
0.0
 20
0.0
 30
0.0
 40
0.5
  0
CIRCLE
  5
AE
330
7F
100
AcDbEntity
  8
0
  6
CONTINUOUS
 62
     0
100
AcDbCircle
 10
0.0
 20
0.0
 30
0.0
 40
0.25
  0
ENDBLK
  5
81
330
7F
100
AcDbEntity
  8
0
100
AcDbBlockEnd
  0
BLOCK
  5
83
330
82
100
AcDbEntity
  8
0
100
AcDbBlockBegin
  2
EX_RCIVIL
 70
     0
 10
0.0
 20
0.0
 30
0.0
  3
EX_RCIVIL
  1

  0
LINE
  5
AF
330
82
100
AcDbEntity
  8
0
  6
CONTINUOUS
 62
     0
100
AcDbLine
 10
0.0
 20
0.0
 30
0.0
 11
-1.0
 21
0.0
 31
0.0
  0
LINE
  5
B0
330
82
100
AcDbEntity
  8
0
  6
CONTINUOUS
 62
     0
100
AcDbLine
 10
-1.0
 20
-0.25
 30
0.0
 11
0.0
 21
-0.25
 31
0.0
  0
LINE
  5
B1
330
82
100
AcDbEntity
  8
0
  6
CONTINUOUS
 62
     0
100
AcDbLine
 10
-1.0
 20
-0.125
 30
0.0
 11
0.0
 21
-0.125
 31
0.0
  0
ENDBLK
  5
84
330
82
100
AcDbEntity
  8
0
100
AcDbBlockEnd
  0
BLOCK
  5
86
330
85
100
AcDbEntity
  8
0
100
AcDbBlockBegin
  2
EX_SLANT
 70
     0
 10
0.0
 20
0.0
 30
0.0
  3
EX_SLANT
  1

  0
LINE
  5
B2
330
85
100
AcDbEntity
  8
0
  6
CONTINUOUS
 62
     0
100
AcDbLine
 10
0.0
 20
0.0
 30
0.0
 11
-1.0
 21
0.0
 31
0.0
  0
LINE
  5
B3
330
85
100
AcDbEntity
  8
0
  6
CONTINUOUS
 62
     0
100
AcDbLine
 10
0.707106781
 20
0.707106781
 30
0.0
 11
-0.707106781
 21
-0.707106781
 31
0.0
  0
ENDBLK
  5
87
330
85
100
AcDbEntity
  8
0
100
AcDbBlockEnd
  0
BLOCK
  5
89
330
88
100
AcDbEntity
  8
0
100
AcDbBlockBegin
  2
EX_NONE
 70
     0
 10
0.0
 20
0.0
 30
0.0
  3
EX_NONE
  1

  0
LINE
  5
B4
330
88
100
AcDbEntity
  8
0
  6
CONTINUOUS
 62
     0
100
AcDbLine
 10
0.0
 20
0.0
 30
0.0
 11
-1.0
 21
0.0
 31
0.0
  0
ENDBLK
  5
8A
330
88
100
AcDbEntity
  8
0
100
AcDbBlockEnd
  0
BLOCK
  5
8C
330
8B
100
AcDbEntity
  8
0
100
AcDbBlockBegin
  2
EX_CIVIL
 70
     0
 10
0.0
 20
0.0
 30
0.0
  3
EX_CIVIL
  1

  0
LINE
  5
B5
330
8B
100
AcDbEntity
  8
0
  6
CONTINUOUS
 62
     0
100
AcDbLine
 10
0.0
 20
0.0
 30
0.0
 11
-1.0
 21
0.0
 31
0.0
  0
LINE
  5
B6
330
8B
100
AcDbEntity
  8
0
  6
CONTINUOUS
 62
     0
100
AcDbLine
 10
-1.0
 20
0.25
 30
0.0
 11
0.0
 21
0.25
 31
0.0
  0
LINE
  5
B7
330
8B
100
AcDbEntity
  8
0
  6
CONTINUOUS
 62
     0
100
AcDbLine
 10
-1.0
 20
0.125
 30
0.0
 11
0.0
 21
0.125
 31
0.0
  0
ENDBLK
  5
8D
330
8B
100
AcDbEntity
  8
0
100
AcDbBlockEnd
  0
BLOCK
  5
8F
330
8E
100
AcDbEntity
  8
0
100
AcDbBlockBegin
  2
EX_WCIR
 70
     0
 10
0.0
 20
0.0
 30
0.0
  3
EX_WCIR
  1

  0
LINE
  5
B8
330
8E
100
AcDbEntity
  8
0
  6
CONTINUOUS
 62
     0
100
AcDbLine
 10
0.0
 20
0.0
 30
0.0
 11
-1.0
 21
0.0
 31
0.0
  0
CIRCLE
  5
B9
330
8E
100
AcDbEntity
  8
0
  6
CONTINUOUS
 62
     0
100
AcDbCircle
 10
0.0
 20
0.0
 30
0.0
 40
0.5
  0
ENDBLK
  5
90
330
8E
100
AcDbEntity
  8
0
100
AcDbBlockEnd
  0
BLOCK
  5
92
330
91
100
AcDbEntity
  8
0
100
AcDbBlockBegin
  2
EX_WCIR2
 70
     0
 10
0.0
 20
0.0
 30
0.0
  3
EX_WCIR2
  1

  0
LINE
  5
BA
330
91
100
AcDbEntity
  8
0
  6
CONTINUOUS
 62
     0
100
AcDbLine
 10
-0.5
 20
0.0
 30
0.0
 11
-1.0
 21
0.0
 31
0.0
  0
CIRCLE
  5
BB
330
91
100
AcDbEntity
  8
0
  6
CONTINUOUS
 62
     0
100
AcDbCircle
 10
0.0
 20
0.0
 30
0.0
 40
0.5
  0
ENDBLK
  5
93
330
91
100
AcDbEntity
  8
0
100
AcDbBlockEnd
  0
BLOCK
  5
95
330
94
100
AcDbEntity
  8
0
100
AcDbBlockBegin
  2
EX_WNORM
 70
     0
 10
0.0
 20
0.0
 30
0.0
  3
EX_WNORM
  1

  0
LINE
  5
BC
330
94
100
AcDbEntity
  8
0
  6
CONTINUOUS
 62
     0
100
AcDbLine
 10
-1.0
 20
0.0
 30
0.0
 11
-1.0
 21
0.0
 31
0.0
  0
LINE
  5
BD
330
94
100
AcDbEntity
  8
0
  6
CONTINUOUS
 62
     0
100
AcDbLine
 10
0.0
 20
0.0
 30
0.0
 11
-1.0
 21
0.166666667
 31
0.0
  0
LINE
  5
BE
330
94
100
AcDbEntity
  8
0
  6
CONTINUOUS
 62
     0
100
AcDbLine
 10
0.0
 20
0.0
 30
0.0
 11
-1.0
 21
-0.166666667
 31
0.0
  0
LINE
  5
BF
330
94
100
AcDbEntity
  8
0
  6
CONTINUOUS
 62
     0
100
AcDbLine
 10
-1.0
 20
0.166666667
 30
0.0
 11
-1.0
 21
-0.166666667
 31
0.0
  0
ENDBLK
  5
96
330
94
100
AcDbEntity
  8
0
100
AcDbBlockEnd
  0
BLOCK
  5
98
330
97
100
AcDbEntity
  8
0
100
AcDbBlockBegin
  2
EX_NNORM
 70
     0
 10
0.0
 20
0.0
 30
0.0
  3
EX_NNORM
  1

  0
LINE
  5
C0
330
97
100
AcDbEntity
  8
0
  6
CONTINUOUS
 62
     0
100
AcDbLine
 10
0.0
 20
0.0
 30
0.0
 11
-1.0
 21
0.0
 31
0.0
  0
LINE
  5
C1
330
97
100
AcDbEntity
  8
0
  6
CONTINUOUS
 62
     0
100
AcDbLine
 10
0.0
 20
0.0
 30
0.0
 11
-1.0
 21
0.166666667
 31
0.0
  0
LINE
  5
C2
330
97
100
AcDbEntity
  8
0
  6
CONTINUOUS
 62
     0
100
AcDbLine
 10
0.0
 20
0.0
 30
0.0
 11
-1.0
 21
-0.166666667
 31
0.0
  0
LINE
  5
C3
330
97
100
AcDbEntity
  8
0
  6
CONTINUOUS
 62
     0
100
AcDbLine
 10
-1.0
 20
0.166666667
 30
0.0
 11
-1.0
 21
-0.166666667
 31
0.0
  0
ENDBLK
  5
99
330
97
100
AcDbEntity
  8
0
100
AcDbBlockEnd
  0
BLOCK
  5
9B
330
9A
100
AcDbEntity
  8
0
100
AcDbBlockBegin
  2
EX_BBOX
 70
     0
 10
0.0
 20
0.0
 30
0.0
  3
EX_BBOX
  1

  0
LINE
  5
C4
330
9A
100
AcDbEntity
  8
0
  6
CONTINUOUS
 62
     0
100
AcDbLine
 10
0.0
 20
0.0
 30
0.0
 11
-1.0
 21
0.0
 31
0.0
  0
LINE
  5
C5
330
9A
100
AcDbEntity
  8
0
  6
CONTINUOUS
 62
     0
100
AcDbLine
 10
-0.5
 20
0.5
 30
0.0
 11
0.5
 21
0.5
 31
0.0
  0
LINE
  5
C6
330
9A
100
AcDbEntity
  8
0
  6
CONTINUOUS
 62
     0
100
AcDbLine
 10
0.5
 20
0.5
 30
0.0
 11
0.5
 21
-0.5
 31
0.0
  0
LINE
  5
C7
330
9A
100
AcDbEntity
  8
0
  6
CONTINUOUS
 62
     0
100
AcDbLine
 10
0.5
 20
-0.5
 30
0.0
 11
-0.5
 21
-0.5
 31
0.0
  0
LINE
  5
C8
330
9A
100
AcDbEntity
  8
0
  6
CONTINUOUS
 62
     0
100
AcDbLine
 10
-0.5
 20
-0.5
 30
0.0
 11
-0.5
 21
0.5
 31
0.0
  0
LINE
  5
C9
330
9A
100
AcDbEntity
  8
0
  6
CONTINUOUS
 62
     0
100
AcDbLine
 10
-0.25
 20
0.25
 30
0.0
 11
0.25
 21
0.25
 31
0.0
  0
LINE
  5
CA
330
9A
100
AcDbEntity
  8
0
  6
CONTINUOUS
 62
     0
100
AcDbLine
 10
0.25
 20
0.25
 30
0.0
 11
0.25
 21
-0.25
 31
0.0
  0
LINE
  5
CB
330
9A
100
AcDbEntity
  8
0
  6
CONTINUOUS
 62
     0
100
AcDbLine
 10
0.25
 20
-0.25
 30
0.0
 11
-0.25
 21
-0.25
 31
0.0
  0
LINE
  5
CC
330
9A
100
AcDbEntity
  8
0
  6
CONTINUOUS
 62
     0
100
AcDbLine
 10
-0.25
 20
-0.25
 30
0.0
 11
-0.25
 21
0.25
 31
0.0
  0
ENDBLK
  5
9C
330
9A
100
AcDbEntity
  8
0
100
AcDbBlockEnd
  0
BLOCK
  5
9E
330
9D
100
AcDbEntity
  8
0
100
AcDbBlockBegin
  2
EX_WBOX
 70
     0
 10
0.0
 20
0.0
 30
0.0
  3
EX_WBOX
  1

  0
LINE
  5
CD
330
9D
100
AcDbEntity
  8
0
  6
CONTINUOUS
 62
     0
100
AcDbLine
 10
-0.5
 20
0.0
 30
0.0
 11
-1.0
 21
0.0
 31
0.0
  0
LINE
  5
CE
330
9D
100
AcDbEntity
  8
0
  6
CONTINUOUS
 62
     0
100
AcDbLine
 10
-0.5
 20
0.5
 30
0.0
 11
0.5
 21
0.5
 31
0.0
  0
LINE
  5
CF
330
9D
100
AcDbEntity
  8
0
  6
CONTINUOUS
 62
     0
100
AcDbLine
 10
0.5
 20
0.5
 30
0.0
 11
0.5
 21
-0.5
 31
0.0
  0
LINE
  5
D0
330
9D
100
AcDbEntity
  8
0
  6
CONTINUOUS
 62
     0
100
AcDbLine
 10
0.5
 20
-0.5
 30
0.0
 11
-0.5
 21
-0.5
 31
0.0
  0
LINE
  5
D1
330
9D
100
AcDbEntity
  8
0
  6
CONTINUOUS
 62
     0
100
AcDbLine
 10
-0.5
 20
-0.5
 30
0.0
 11
-0.5
 21
0.5
 31
0.0
  0
ENDBLK
  5
9F
330
9D
100
AcDbEntity
  8
0
100
AcDbBlockEnd
  0
BLOCK
  5
A1
330
A0
100
AcDbEntity
  8
0
100
AcDbBlockBegin
  2
EX_INTEGRAL
 70
     0
 10
0.0
 20
0.0
 30
0.0
  3
EX_INTEGRAL
  1

  0
LINE
  5
D2
330
A0
100
AcDbEntity
  8
0
  6
CONTINUOUS
 62
     0
100
AcDbLine
 10
0.0
 20
0.0
 30
0.0
 11
-1.0
 21
0.0
 31
0.0
  0
ARC
  5
D3
330
A0
100
AcDbEntity
  8
0
  6
CONTINUOUS
 62
     0
100
AcDbCircle
 10
0.542115
 20
0.164992
 30
0.0
 40
0.56667
100
AcDbArc
 50
73.07249033629006
 51
196.9275130221199
  0
ARC
  5
D4
330
A0
100
AcDbEntity
  8
0
  6
CONTINUOUS
 62
     0
100
AcDbCircle
 10
-0.542115
 20
-0.164992
 30
0.0
 40
0.56667
100
AcDbArc
 50
253.0724869220464
 51
16.9275130559125
  0
ENDBLK
  5
A2
330
A0
100
AcDbEntity
  8
0
100
AcDbBlockEnd
  0
BLOCK
  5
53F
330
53E
100
AcDbEntity
  8
0
100
AcDbBlockBegin
  2
*D15
 70
     1
 10
0.0
 20
0.0
 30
0.0
  3
*D15
  1

  0
LINE
  5
541
330
53E
100
AcDbEntity
  8
LAY-20
  6
CONTINUOUS
 62
     4
100
AcDbLine
 10
2343.715827115359
 20
1309.71864158148
 30
0.0
 11
2173.71582711535
 21
1309.718641581481
 31
0.0
  0
LINE
  5
542
330
53E
100
AcDbEntity
  8
LAY-20
  6
CONTINUOUS
 62
     4
100
AcDbLine
 10
2343.715827115359
 20
2111.718641581559
 30
0.0
 11
2173.71582711535
 21
2111.718641581559
 31
0.0
  0
LINE
  5
543
330
53E
100
AcDbEntity
  8
LAY-20
  6
CONTINUOUS
 62
     4
100
AcDbLine
 10
2188.71582711535
 20
1334.718641581481
 30
0.0
 11
2188.71582711535
 21
2086.718641581559
 31
0.0
  0
INSERT
  5
544
330
53E
100
AcDbEntity
  8
LAY-20
 62
     4
100
AcDbBlockReference
  2
EX_BNORM
 10
2188.71582711535
 20
1309.718641581481
 30
0.0
 41
25.0
 42
25.0
 43
25.0
 50
270.0
  0
INSERT
  5
545
330
53E
100
AcDbEntity
  8
LAY-20
 62
     4
100
AcDbBlockReference
  2
EX_BNORM
 10
2188.71582711535
 20
2111.718641581559
 30
0.0
 41
25.0
 42
25.0
 43
25.0
 50
90.0
  0
MTEXT
  5
546
330
53E
100
AcDbEntity
  8
LAY-20
 62
     7
100
AcDbMText
 10
2163.71582711535
 20
1710.71864158152
 30
0.0
 40
31.181104
 41
0.0
 71
     5
 72
     1
  1
802
  7
EXCADDIM1
 11
0.0
 21
1.0
 31
0.0
  0
POINT
  5
547
330
53E
100
AcDbEntity
  8
DEFPOINTS
 62
     0
100
AcDbPoint
 10
2358.715827115359
 20
1309.71864158148
 30
0.0
  0
POINT
  5
548
330
53E
100
AcDbEntity
  8
DEFPOINTS
 62
     0
100
AcDbPoint
 10
2358.715827115359
 20
2111.718641581559
 30
0.0
  0
POINT
  5
549
330
53E
100
AcDbEntity
  8
DEFPOINTS
 62
     0
100
AcDbPoint
 10
2188.71582711535
 20
2111.718641581559
 30
0.0
  0
ENDBLK
  5
540
330
53E
100
AcDbEntity
  8
0
100
AcDbBlockEnd
  0
BLOCK
  5
54C
330
54B
100
AcDbEntity
  8
0
100
AcDbBlockBegin
  2
*D16
 70
     1
 10
0.0
 20
0.0
 30
0.0
  3
*D16
  1

  0
LINE
  5
54E
330
54B
100
AcDbEntity
  8
LAY-20
  6
CONTINUOUS
 62
     4
100
AcDbLine
 10
2343.715827115356
 20
1325.718641581602
 30
0.0
 11
2243.71582711535
 21
1325.718641581602
 31
0.0
  0
LINE
  5
54F
330
54B
100
AcDbEntity
  8
LAY-20
  6
CONTINUOUS
 62
     4
100
AcDbLine
 10
2343.715827115354
 20
2095.718641581575
 30
0.0
 11
2243.71582711535
 21
2095.718641581575
 31
0.0
  0
LINE
  5
550
330
54B
100
AcDbEntity
  8
LAY-20
  6
CONTINUOUS
 62
     4
100
AcDbLine
 10
2258.71582711535
 20
1350.718641581602
 30
0.0
 11
2258.71582711535
 21
2070.718641581575
 31
0.0
  0
INSERT
  5
551
330
54B
100
AcDbEntity
  8
LAY-20
 62
     4
100
AcDbBlockReference
  2
EX_BNORM
 10
2258.71582711535
 20
1325.718641581602
 30
0.0
 41
25.0
 42
25.0
 43
25.0
 50
270.0
  0
INSERT
  5
552
330
54B
100
AcDbEntity
  8
LAY-20
 62
     4
100
AcDbBlockReference
  2
EX_BNORM
 10
2258.71582711535
 20
2095.718641581575
 30
0.0
 41
25.0
 42
25.0
 43
25.0
 50
90.0
  0
MTEXT
  5
553
330
54B
100
AcDbEntity
  8
LAY-20
 62
     7
100
AcDbMText
 10
2233.71582711535
 20
1710.718641581589
 30
0.0
 40
31.181104
 41
0.0
 71
     5
 72
     1
  1
770
  7
EXCADDIM1
 11
0.0
 21
1.0
 31
0.0
  0
POINT
  5
554
330
54B
100
AcDbEntity
  8
DEFPOINTS
 62
     0
100
AcDbPoint
 10
2358.715827115356
 20
1325.718641581602
 30
0.0
  0
POINT
  5
555
330
54B
100
AcDbEntity
  8
DEFPOINTS
 62
     0
100
AcDbPoint
 10
2358.715827115354
 20
2095.718641581575
 30
0.0
  0
POINT
  5
556
330
54B
100
AcDbEntity
  8
DEFPOINTS
 62
     0
100
AcDbPoint
 10
2258.71582711535
 20
2095.718641581575
 30
0.0
  0
ENDBLK
  5
54D
330
54B
100
AcDbEntity
  8
0
100
AcDbBlockEnd
  0
BLOCK
  5
559
330
558
100
AcDbEntity
  8
0
100
AcDbBlockBegin
  2
*D17
 70
     1
 10
0.0
 20
0.0
 30
0.0
  3
*D17
  1

  0
LINE
  5
55B
330
558
100
AcDbEntity
  8
LAY-20
  6
CONTINUOUS
 62
     4
100
AcDbLine
 10
2508.71582711536
 20
2010.718641581559
 30
0.0
 11
2608.71582711536
 21
2010.718641581559
 31
0.0
  0
LINE
  5
55C
330
558
100
AcDbEntity
  8
LAY-20
  6
CONTINUOUS
 62
     4
100
AcDbLine
 10
2508.71582711536
 20
1410.718641581479
 30
0.0
 11
2608.71582711536
 21
1410.718641581479
 31
0.0
  0
LINE
  5
55D
330
558
100
AcDbEntity
  8
LAY-20
  6
CONTINUOUS
 62
     4
100
AcDbLine
 10
2593.71582711536
 20
1985.718641581559
 30
0.0
 11
2593.71582711536
 21
1435.718641581479
 31
0.0
  0
INSERT
  5
55E
330
558
100
AcDbEntity
  8
LAY-20
 62
     4
100
AcDbBlockReference
  2
EX_BNORM
 10
2593.71582711536
 20
2010.718641581559
 30
0.0
 41
25.0
 42
25.0
 43
25.0
 50
90.0
  0
INSERT
  5
55F
330
558
100
AcDbEntity
  8
LAY-20
 62
     4
100
AcDbBlockReference
  2
EX_BNORM
 10
2593.71582711536
 20
1410.718641581479
 30
0.0
 41
25.0
 42
25.0
 43
25.0
 50
270.0
  0
MTEXT
  5
560
330
558
100
AcDbEntity
  8
LAY-20
 62
     7
100
AcDbMText
 10
2568.71582711536
 20
1710.718641581519
 30
0.0
 40
31.181104
 41
0.0
 71
     5
 72
     1
  1
600
  7
EXCADDIM1
 11
0.0
 21
1.0
 31
0.0
  0
POINT
  5
561
330
558
100
AcDbEntity
  8
DEFPOINTS
 62
     0
100
AcDbPoint
 10
2493.71582711536
 20
2010.718641581559
 30
0.0
  0
POINT
  5
562
330
558
100
AcDbEntity
  8
DEFPOINTS
 62
     0
100
AcDbPoint
 10
2493.71582711536
 20
1410.718641581479
 30
0.0
  0
POINT
  5
563
330
558
100
AcDbEntity
  8
DEFPOINTS
 62
     0
100
AcDbPoint
 10
2593.71582711536
 20
1410.718641581479
 30
0.0
  0
ENDBLK
  5
55A
330
558
100
AcDbEntity
  8
0
100
AcDbBlockEnd
  0
BLOCK
  5
566
330
565
100
AcDbEntity
  8
0
100
AcDbBlockBegin
  2
*D18
 70
     1
 10
0.0
 20
0.0
 30
0.0
  3
*D18
  1

  0
LINE
  5
568
330
565
100
AcDbEntity
  8
LAY-20
  6
CONTINUOUS
 62
     4
100
AcDbLine
 10
2427.41582711535
 20
2102.918641581559
 30
0.0
 11
2678.71582711536
 21
2102.918641581559
 31
0.0
  0
LINE
  5
569
330
565
100
AcDbEntity
  8
LAY-20
  6
CONTINUOUS
 62
     4
100
AcDbLine
 10
2427.41582711535
 20
1318.5186415815
 30
0.0
 11
2678.71582711536
 21
1318.5186415815
 31
0.0
  0
LINE
  5
56A
330
565
100
AcDbEntity
  8
LAY-20
  6
CONTINUOUS
 62
     4
100
AcDbLine
 10
2663.71582711536
 20
2077.918641581559
 30
0.0
 11
2663.71582711536
 21
1343.5186415815
 31
0.0
  0
INSERT
  5
56B
330
565
100
AcDbEntity
  8
LAY-20
 62
     4
100
AcDbBlockReference
  2
EX_BNORM
 10
2663.71582711536
 20
2102.918641581559
 30
0.0
 41
25.0
 42
25.0
 43
25.0
 50
90.0
  0
INSERT
  5
56C
330
565
100
AcDbEntity
  8
LAY-20
 62
     4
100
AcDbBlockReference
  2
EX_BNORM
 10
2663.71582711536
 20
1318.5186415815
 30
0.0
 41
25.0
 42
25.0
 43
25.0
 50
270.0
  0
MTEXT
  5
56D
330
565
100
AcDbEntity
  8
LAY-20
 62
     7
100
AcDbMText
 10
2638.71582711536
 20
1710.718641581529
 30
0.0
 40
31.181104
 41
0.0
 71
     5
 72
     1
  1
784
  7
EXCADDIM1
 11
0.0
 21
1.0
 31
0.0
  0
POINT
  5
56E
330
565
100
AcDbEntity
  8
DEFPOINTS
 62
     0
100
AcDbPoint
 10
2412.41582711535
 20
2102.918641581559
 30
0.0
  0
POINT
  5
56F
330
565
100
AcDbEntity
  8
DEFPOINTS
 62
     0
100
AcDbPoint
 10
2412.41582711535
 20
1318.5186415815
 30
0.0
  0
POINT
  5
570
330
565
100
AcDbEntity
  8
DEFPOINTS
 62
     0
100
AcDbPoint
 10
2663.71582711536
 20
1318.5186415815
 30
0.0
  0
ENDBLK
  5
567
330
565
100
AcDbEntity
  8
0
100
AcDbBlockEnd
  0
BLOCK
  5
573
330
572
100
AcDbEntity
  8
0
100
AcDbBlockBegin
  2
*D19
 70
     1
 10
0.0
 20
0.0
 30
0.0
  3
*D19
  1

  0
LINE
  5
575
330
572
100
AcDbEntity
  8
LAY-20
  6
CONTINUOUS
 62
     4
100
AcDbLine
 10
538.9999999999706
 20
918.9999999999507
 30
0.0
 11
538.9999999999707
 21
1088.99999999996
 31
0.0
  0
LINE
  5
576
330
572
100
AcDbEntity
  8
LAY-20
  6
CONTINUOUS
 62
     4
100
AcDbLine
 10
1941.00000000005
 20
918.9999999999507
 30
0.0
 11
1941.00000000005
 21
1088.99999999996
 31
0.0
  0
LINE
  5
577
330
572
100
AcDbEntity
  8
LAY-20
  6
CONTINUOUS
 62
     4
100
AcDbLine
 10
563.9999999999707
 20
1073.99999999996
 30
0.0
 11
1916.00000000005
 21
1073.99999999996
 31
0.0
  0
INSERT
  5
578
330
572
100
AcDbEntity
  8
LAY-20
 62
     4
100
AcDbBlockReference
  2
EX_BNORM
 10
538.9999999999707
 20
1073.99999999996
 30
0.0
 41
25.0
 42
25.0
 43
25.0
 50
180.0
  0
INSERT
  5
579
330
572
100
AcDbEntity
  8
LAY-20
 62
     4
100
AcDbBlockReference
  2
EX_BNORM
 10
1941.00000000005
 20
1073.99999999996
 30
0.0
 41
25.0
 42
25.0
 43
25.0
  0
MTEXT
  5
57A
330
572
100
AcDbEntity
  8
LAY-20
 62
     7
100
AcDbMText
 10
1240.00000000001
 20
1098.99999999996
 30
0.0
 40
31.181104
 41
0.0
 71
     5
 72
     1
  1
1402
  7
EXCADDIM1
  0
POINT
  5
57B
330
572
100
AcDbEntity
  8
DEFPOINTS
 62
     0
100
AcDbPoint
 10
538.9999999999706
 20
903.9999999999507
 30
0.0
  0
POINT
  5
57C
330
572
100
AcDbEntity
  8
DEFPOINTS
 62
     0
100
AcDbPoint
 10
1941.00000000005
 20
903.9999999999507
 30
0.0
  0
POINT
  5
57D
330
572
100
AcDbEntity
  8
DEFPOINTS
 62
     0
100
AcDbPoint
 10
1941.00000000005
 20
1073.99999999996
 30
0.0
  0
ENDBLK
  5
574
330
572
100
AcDbEntity
  8
0
100
AcDbBlockEnd
  0
BLOCK
  5
580
330
57F
100
AcDbEntity
  8
0
100
AcDbBlockBegin
  2
*D20
 70
     1
 10
0.0
 20
0.0
 30
0.0
  3
*D20
  1

  0
LINE
  5
582
330
57F
100
AcDbEntity
  8
LAY-20
  6
CONTINUOUS
 62
     4
100
AcDbLine
 10
555.0000000000924
 20
918.9999999999537
 30
0.0
 11
555.0000000000924
 21
1018.999999999961
 31
0.0
  0
LINE
  5
583
330
57F
100
AcDbEntity
  8
LAY-20
  6
CONTINUOUS
 62
     4
100
AcDbLine
 10
1010.000000000095
 20
918.999999999956
 30
0.0
 11
1010.000000000095
 21
1018.999999999961
 31
0.0
  0
LINE
  5
584
330
57F
100
AcDbEntity
  8
LAY-20
  6
CONTINUOUS
 62
     4
100
AcDbLine
 10
580.0000000000924
 20
1003.999999999961
 30
0.0
 11
985.0000000000952
 21
1003.999999999961
 31
0.0
  0
INSERT
  5
585
330
57F
100
AcDbEntity
  8
LAY-20
 62
     4
100
AcDbBlockReference
  2
EX_BNORM
 10
555.0000000000924
 20
1003.999999999961
 30
0.0
 41
25.0
 42
25.0
 43
25.0
 50
180.0
  0
INSERT
  5
586
330
57F
100
AcDbEntity
  8
LAY-20
 62
     4
100
AcDbBlockReference
  2
EX_BNORM
 10
1010.000000000095
 20
1003.999999999961
 30
0.0
 41
25.0
 42
25.0
 43
25.0
  0
MTEXT
  5
587
330
57F
100
AcDbEntity
  8
LAY-20
 62
     7
100
AcDbMText
 10
782.5000000000938
 20
1028.99999999996
 30
0.0
 40
31.181104
 41
0.0
 71
     5
 72
     1
  1
455
  7
EXCADDIM1
  0
POINT
  5
588
330
57F
100
AcDbEntity
  8
DEFPOINTS
 62
     0
100
AcDbPoint
 10
555.0000000000924
 20
903.9999999999537
 30
0.0
  0
POINT
  5
589
330
57F
100
AcDbEntity
  8
DEFPOINTS
 62
     0
100
AcDbPoint
 10
1010.000000000095
 20
903.999999999956
 30
0.0
  0
POINT
  5
58A
330
57F
100
AcDbEntity
  8
DEFPOINTS
 62
     0
100
AcDbPoint
 10
1010.000000000095
 20
1003.999999999961
 30
0.0
  0
ENDBLK
  5
581
330
57F
100
AcDbEntity
  8
0
100
AcDbBlockEnd
  0
BLOCK
  5
58D
330
58C
100
AcDbEntity
  8
0
100
AcDbBlockBegin
  2
*D21
 70
     1
 10
0.0
 20
0.0
 30
0.0
  3
*D21
  1

  0
LINE
  5
58F
330
58C
100
AcDbEntity
  8
LAY-20
  6
CONTINUOUS
 62
     4
100
AcDbLine
 10
1840.00000000005
 20
753.9999999999504
 30
0.0
 11
1840.00000000005
 21
653.9999999999503
 31
0.0
  0
LINE
  5
590
330
58C
100
AcDbEntity
  8
LAY-20
  6
CONTINUOUS
 62
     4
100
AcDbLine
 10
639.9999999999702
 20
753.9999999999504
 30
0.0
 11
639.9999999999702
 21
653.9999999999503
 31
0.0
  0
LINE
  5
591
330
58C
100
AcDbEntity
  8
LAY-20
  6
CONTINUOUS
 62
     4
100
AcDbLine
 10
1815.00000000005
 20
668.9999999999503
 30
0.0
 11
664.9999999999702
 21
668.9999999999503
 31
0.0
  0
INSERT
  5
592
330
58C
100
AcDbEntity
  8
LAY-20
 62
     4
100
AcDbBlockReference
  2
EX_BNORM
 10
1840.00000000005
 20
668.9999999999503
 30
0.0
 41
25.0
 42
25.0
 43
25.0
  0
INSERT
  5
593
330
58C
100
AcDbEntity
  8
LAY-20
 62
     4
100
AcDbBlockReference
  2
EX_BNORM
 10
639.9999999999702
 20
668.9999999999503
 30
0.0
 41
25.0
 42
25.0
 43
25.0
 50
180.0
  0
MTEXT
  5
594
330
58C
100
AcDbEntity
  8
LAY-20
 62
     7
100
AcDbMText
 10
1240.00000000001
 20
693.9999999999503
 30
0.0
 40
31.181104
 41
0.0
 71
     5
 72
     1
  1
1200
  7
EXCADDIM1
  0
POINT
  5
595
330
58C
100
AcDbEntity
  8
DEFPOINTS
 62
     0
100
AcDbPoint
 10
1840.00000000005
 20
768.9999999999504
 30
0.0
  0
POINT
  5
596
330
58C
100
AcDbEntity
  8
DEFPOINTS
 62
     0
100
AcDbPoint
 10
639.9999999999702
 20
768.9999999999504
 30
0.0
  0
POINT
  5
597
330
58C
100
AcDbEntity
  8
DEFPOINTS
 62
     0
100
AcDbPoint
 10
639.9999999999702
 20
668.9999999999503
 30
0.0
  0
ENDBLK
  5
58E
330
58C
100
AcDbEntity
  8
0
100
AcDbBlockEnd
  0
BLOCK
  5
59A
330
599
100
AcDbEntity
  8
0
100
AcDbBlockBegin
  2
*D22
 70
     1
 10
0.0
 20
0.0
 30
0.0
  3
*D22
  1

  0
LINE
  5
59C
330
599
100
AcDbEntity
  8
LAY-20
  6
CONTINUOUS
 62
     4
100
AcDbLine
 10
1901.20000000005
 20
768.9999999999504
 30
0.0
 11
2084.89848480985
 21
768.9999999999504
 31
0.0
  0
LINE
  5
59D
330
599
100
AcDbEntity
  8
LAY-20
  6
CONTINUOUS
 62
     4
100
AcDbLine
 10
1956.00000000005
 20
903.9999999999507
 30
0.0
 11
2084.89848480985
 21
903.9999999999507
 31
0.0
  0
LINE
  5
59E
330
599
100
AcDbEntity
  8
LAY-20
  6
CONTINUOUS
 62
     4
100
AcDbLine
 10
2069.89848480985
 20
793.9999999999504
 30
0.0
 11
2069.89848480985
 21
878.9999999999507
 31
0.0
  0
INSERT
  5
59F
330
599
100
AcDbEntity
  8
LAY-20
 62
     4
100
AcDbBlockReference
  2
EX_BNORM
 10
2069.89848480985
 20
768.9999999999504
 30
0.0
 41
25.0
 42
25.0
 43
25.0
 50
270.0
  0
INSERT
  5
5A0
330
599
100
AcDbEntity
  8
LAY-20
 62
     4
100
AcDbBlockReference
  2
EX_BNORM
 10
2069.89848480985
 20
903.9999999999507
 30
0.0
 41
25.0
 42
25.0
 43
25.0
 50
90.0
  0
MTEXT
  5
5A1
330
599
100
AcDbEntity
  8
LAY-20
 62
     7
100
AcDbMText
 10
2044.89848480985
 20
836.4999999999502
 30
0.0
 40
31.181104
 41
0.0
 71
     5
 72
     1
  1
135
  7
EXCADDIM1
 11
0.0
 21
1.0
 31
0.0
  0
POINT
  5
5A2
330
599
100
AcDbEntity
  8
DEFPOINTS
 62
     0
100
AcDbPoint
 10
1886.20000000005
 20
768.9999999999504
 30
0.0
  0
POINT
  5
5A3
330
599
100
AcDbEntity
  8
DEFPOINTS
 62
     0
100
AcDbPoint
 10
1941.00000000005
 20
903.9999999999507
 30
0.0
  0
POINT
  5
5A4
330
599
100
AcDbEntity
  8
DEFPOINTS
 62
     0
100
AcDbPoint
 10
2069.89848480985
 20
903.9999999999507
 30
0.0
  0
ENDBLK
  5
59B
330
599
100
AcDbEntity
  8
0
100
AcDbBlockEnd
  0
BLOCK
  5
5A7
330
5A6
100
AcDbEntity
  8
0
100
AcDbBlockBegin
  2
*D23
 70
     1
 10
0.0
 20
0.0
 30
0.0
  3
*D23
  1

  0
LINE
  5
5A9
330
5A6
100
AcDbEntity
  8
LAY-20
  6
CONTINUOUS
 62
     4
100
AcDbLine
 10
1932.20000000005
 20
835.2999999999603
 30
0.0
 11
1932.20000000005
 21
583.9999999999503
 31
0.0
  0
LINE
  5
5AA
330
5A6
100
AcDbEntity
  8
LAY-20
  6
CONTINUOUS
 62
     4
100
AcDbLine
 10
547.7999999999904
 20
835.2999999999603
 30
0.0
 11
547.7999999999904
 21
583.9999999999503
 31
0.0
  0
LINE
  5
5AB
330
5A6
100
AcDbEntity
  8
LAY-20
  6
CONTINUOUS
 62
     4
100
AcDbLine
 10
1907.20000000005
 20
598.9999999999503
 30
0.0
 11
572.7999999999904
 21
598.9999999999503
 31
0.0
  0
INSERT
  5
5AC
330
5A6
100
AcDbEntity
  8
LAY-20
 62
     4
100
AcDbBlockReference
  2
EX_BNORM
 10
1932.20000000005
 20
598.9999999999503
 30
0.0
 41
25.0
 42
25.0
 43
25.0
  0
INSERT
  5
5AD
330
5A6
100
AcDbEntity
  8
LAY-20
 62
     4
100
AcDbBlockReference
  2
EX_BNORM
 10
547.7999999999904
 20
598.9999999999503
 30
0.0
 41
25.0
 42
25.0
 43
25.0
 50
180.0
  0
MTEXT
  5
5AE
330
5A6
100
AcDbEntity
  8
LAY-20
 62
     7
100
AcDbMText
 10
1240.00000000002
 20
623.9999999999503
 30
0.0
 40
31.181104
 41
0.0
 71
     5
 72
     1
  1
1384
  7
EXCADDIM1
  0
POINT
  5
5AF
330
5A6
100
AcDbEntity
  8
DEFPOINTS
 62
     0
100
AcDbPoint
 10
1932.20000000005
 20
850.2999999999603
 30
0.0
  0
POINT
  5
5B0
330
5A6
100
AcDbEntity
  8
DEFPOINTS
 62
     0
100
AcDbPoint
 10
547.7999999999904
 20
850.2999999999603
 30
0.0
  0
POINT
  5
5B1
330
5A6
100
AcDbEntity
  8
DEFPOINTS
 62
     0
100
AcDbPoint
 10
547.7999999999904
 20
598.9999999999503
 30
0.0
  0
ENDBLK
  5
5A8
330
5A6
100
AcDbEntity
  8
0
100
AcDbBlockEnd
  0
BLOCK
  5
5B4
330
5B3
100
AcDbEntity
  8
0
100
AcDbBlockBegin
  2
*D24
 70
     1
 10
0.0
 20
0.0
 30
0.0
  3
*D24
  1

  0
LINE
  5
5B6
330
5B3
100
AcDbEntity
  8
LAY-20
  6
CONTINUOUS
 62
     4
100
AcDbLine
 10
1364.19231584385
 20
899.4999999999402
 30
0.0
 11
1364.19231584385
 21
903.9999999999407
 31
0.0
  0
LINE
  5
5B7
330
5B3
100
AcDbEntity
  8
LAY-20
  6
CONTINUOUS
 62
     4
100
AcDbLine
 10
1364.19231584385
 20
874.4999999999402
 30
0.0
 11
1364.19231584385
 21
849.4999999999402
 31
0.0
  0
LINE
  5
5B8
330
5B3
100
AcDbEntity
  8
LAY-20
  6
CONTINUOUS
 62
     4
100
AcDbLine
 10
1364.19231584385
 20
928.9999999999407
 30
0.0
 11
1364.19231584385
 21
953.9999999999407
 31
0.0
  0
INSERT
  5
5B9
330
5B3
100
AcDbEntity
  8
LAY-20
 62
     4
100
AcDbBlockReference
  2
EX_BNORM
 10
1364.19231584385
 20
899.4999999999402
 30
0.0
 41
25.0
 42
25.0
 43
25.0
 50
90.0
  0
INSERT
  5
5BA
330
5B3
100
AcDbEntity
  8
LAY-20
 62
     4
100
AcDbBlockReference
  2
EX_BNORM
 10
1364.19231584385
 20
903.9999999999407
 30
0.0
 41
25.0
 42
25.0
 43
25.0
 50
270.0
  0
MTEXT
  5
5BB
330
5B3
100
AcDbEntity
  8
LAY-20
 62
     7
100
AcDbMText
 10
1339.19231584385
 20
968.9999999999402
 30
0.0
 40
31.181104
 41
0.0
 71
     5
 72
     1
  1
4.5
  7
EXCADDIM1
 11
0.0
 21
1.0
 31
0.0
  0
POINT
  5
5BC
330
5B3
100
AcDbEntity
  8
DEFPOINTS
 62
     0
100
AcDbPoint
 10
1364.19231584385
 20
899.4999999999402
 30
0.0
  0
POINT
  5
5BD
330
5B3
100
AcDbEntity
  8
DEFPOINTS
 62
     0
100
AcDbPoint
 10
1364.19231584385
 20
903.9999999999407
 30
0.0
  0
POINT
  5
5BE
330
5B3
100
AcDbEntity
  8
DEFPOINTS
 62
     0
100
AcDbPoint
 10
1364.19231584385
 20
903.9999999999407
 30
0.0
  0
ENDBLK
  5
5B5
330
5B3
100
AcDbEntity
  8
0
100
AcDbBlockEnd
  0
ENDSEC
  0
SECTION
  2
ENTITIES
  0
LINE
  5
D5
330
1F
100
AcDbEntity
  8
LAY-10
  6
CONTINUOUS
 62
     7
100
AcDbLine
 10
599.6000000000103
 20
808.4578643762092
 30
0.0
 11
613.7421356237412
 21
822.5999999999402
 31
0.0
  0
LINE
  5
D6
330
1F
100
AcDbEntity
  8
LAY-10
  6
CONTINUOUS
 62
     7
100
AcDbLine
 10
599.6000000000103
 20
794.3157287524781
 30
0.0
 11
627.884271247472
 21
822.5999999999402
 31
0.0
  0
LINE
  5
D7
330
1F
100
AcDbEntity
  8
LAY-10
  6
CONTINUOUS
 62
     7
100
AcDbLine
 10
599.6000000000103
 20
780.1735931287476
 30
0.0
 11
642.026406871203
 21
822.5999999999402
 31
0.0
  0
LINE
  5
D8
330
1F
100
AcDbEntity
  8
LAY-10
  6
CONTINUOUS
 62
     7
100
AcDbLine
 10
609.3685424949341
 20
775.7999999999405
 30
0.0
 11
656.1685424949341
 21
822.5999999999402
 31
0.0
  0
LINE
  5
D9
330
1F
100
AcDbEntity
  8
LAY-10
  6
CONTINUOUS
 62
     7
100
AcDbLine
 10
623.510678118665
 20
775.7999999999405
 30
0.0
 11
670.310678118665
 21
822.5999999999402
 31
0.0
  0
LINE
  5
DA
330
1F
100
AcDbEntity
  8
LAY-10
  6
CONTINUOUS
 62
     7
100
AcDbLine
 10
637.6528137423961
 20
775.7999999999402
 30
0.0
 11
684.452813742396
 21
822.5999999999402
 31
0.0
  0
LINE
  5
DB
330
1F
100
AcDbEntity
  8
LAY-10
  6
CONTINUOUS
 62
     7
100
AcDbLine
 10
651.7949493661271
 20
775.7999999999402
 30
0.0
 11
698.594949366127
 21
822.5999999999402
 31
0.0
  0
LINE
  5
DC
330
1F
100
AcDbEntity
  8
LAY-10
  6
CONTINUOUS
 62
     7
100
AcDbLine
 10
665.937084989858
 20
775.7999999999405
 30
0.0
 11
712.7370849898577
 21
822.5999999999402
 31
0.0
  0
LINE
  5
DD
330
1F
100
AcDbEntity
  8
LAY-10
  6
CONTINUOUS
 62
     7
100
AcDbLine
 10
680.079220613589
 20
775.7999999999402
 30
0.0
 11
726.8792206135888
 21
822.5999999999402
 31
0.0
  0
LINE
  5
DE
330
1F
100
AcDbEntity
  8
LAY-10
  6
CONTINUOUS
 62
     7
100
AcDbLine
 10
694.2213562373198
 20
775.7999999999402
 30
0.0
 11
741.0213562373197
 21
822.5999999999402
 31
0.0
  0
LINE
  5
DF
330
1F
100
AcDbEntity
  8
LAY-10
  6
CONTINUOUS
 62
     7
100
AcDbLine
 10
708.3634918610509
 20
775.7999999999402
 30
0.0
 11
755.1634918610506
 21
822.5999999999402
 31
0.0
  0
LINE
  5
E0
330
1F
100
AcDbEntity
  8
LAY-10
  6
CONTINUOUS
 62
     7
100
AcDbLine
 10
722.5056274847818
 20
775.7999999999402
 30
0.0
 11
769.3056274847817
 21
822.5999999999402
 31
0.0
  0
LINE
  5
E1
330
1F
100
AcDbEntity
  8
LAY-10
  6
CONTINUOUS
 62
     7
100
AcDbLine
 10
736.6477631085127
 20
775.7999999999405
 30
0.0
 11
783.4477631085125
 21
822.5999999999402
 31
0.0
  0
LINE
  5
E2
330
1F
100
AcDbEntity
  8
LAY-10
  6
CONTINUOUS
 62
     7
100
AcDbLine
 10
750.7898987322437
 20
775.7999999999402
 30
0.0
 11
797.5898987322436
 21
822.5999999999402
 31
0.0
  0
LINE
  5
E3
330
1F
100
AcDbEntity
  8
LAY-10
  6
CONTINUOUS
 62
     7
100
AcDbLine
 10
764.9320343559746
 20
775.7999999999402
 30
0.0
 11
811.7320343559746
 21
822.5999999999402
 31
0.0
  0
LINE
  5
E4
330
1F
100
AcDbEntity
  8
LAY-10
  6
CONTINUOUS
 62
     7
100
AcDbLine
 10
779.0741699797056
 20
775.7999999999402
 30
0.0
 11
825.8741699797055
 21
822.5999999999402
 31
0.0
  0
LINE
  5
E5
330
1F
100
AcDbEntity
  8
LAY-10
  6
CONTINUOUS
 62
     7
100
AcDbLine
 10
793.2163056034365
 20
775.7999999999402
 30
0.0
 11
840.0163056034364
 21
822.5999999999402
 31
0.0
  0
LINE
  5
E6
330
1F
100
AcDbEntity
  8
LAY-10
  6
CONTINUOUS
 62
     7
100
AcDbLine
 10
807.3584412271674
 20
775.7999999999405
 30
0.0
 11
854.1584412271673
 21
822.5999999999402
 31
0.0
  0
LINE
  5
E7
330
1F
100
AcDbEntity
  8
LAY-10
  6
CONTINUOUS
 62
     7
100
AcDbLine
 10
821.5005768508985
 20
775.7999999999402
 30
0.0
 11
868.3005768508983
 21
822.5999999999402
 31
0.0
  0
LINE
  5
E8
330
1F
100
AcDbEntity
  8
LAY-10
  6
CONTINUOUS
 62
     7
100
AcDbLine
 10
835.6427124746295
 20
775.7999999999402
 30
0.0
 11
882.4427124746294
 21
822.5999999999402
 31
0.0
  0
LINE
  5
E9
330
1F
100
AcDbEntity
  8
LAY-10
  6
CONTINUOUS
 62
     7
100
AcDbLine
 10
849.7848480983603
 20
775.7999999999402
 30
0.0
 11
896.5848480983602
 21
822.5999999999402
 31
0.0
  0
LINE
  5
EA
330
1F
100
AcDbEntity
  8
LAY-10
  6
CONTINUOUS
 62
     7
100
AcDbLine
 10
863.9269837220912
 20
775.7999999999405
 30
0.0
 11
910.7269837220912
 21
822.5999999999402
 31
0.0
  0
LINE
  5
EB
330
1F
100
AcDbEntity
  8
LAY-10
  6
CONTINUOUS
 62
     7
100
AcDbLine
 10
878.0691193458223
 20
775.7999999999402
 30
0.0
 11
924.8691193458222
 21
822.5999999999402
 31
0.0
  0
LINE
  5
EC
330
1F
100
AcDbEntity
  8
LAY-10
  6
CONTINUOUS
 62
     7
100
AcDbLine
 10
892.2112549695532
 20
775.7999999999405
 30
0.0
 11
939.0112549695531
 21
822.5999999999402
 31
0.0
  0
LINE
  5
ED
330
1F
100
AcDbEntity
  8
LAY-10
  6
CONTINUOUS
 62
     7
100
AcDbLine
 10
906.3533905932843
 20
775.7999999999402
 30
0.0
 11
953.1533905932841
 21
822.5999999999402
 31
0.0
  0
LINE
  5
EE
330
1F
100
AcDbEntity
  8
LAY-10
  6
CONTINUOUS
 62
     7
100
AcDbLine
 10
920.4955262170154
 20
775.7999999999405
 30
0.0
 11
967.295526217015
 21
822.5999999999402
 31
0.0
  0
LINE
  5
EF
330
1F
100
AcDbEntity
  8
LAY-10
  6
CONTINUOUS
 62
     7
100
AcDbLine
 10
934.637661840746
 20
775.7999999999405
 30
0.0
 11
981.4376618407463
 21
822.5999999999402
 31
0.0
  0
LINE
  5
F0
330
1F
100
AcDbEntity
  8
LAY-10
  6
CONTINUOUS
 62
     7
100
AcDbLine
 10
948.779797464477
 20
775.7999999999402
 30
0.0
 11
995.579797464477
 21
822.5999999999402
 31
0.0
  0
LINE
  5
F1
330
1F
100
AcDbEntity
  8
LAY-10
  6
CONTINUOUS
 62
     7
100
AcDbLine
 10
962.921933088208
 20
775.7999999999405
 30
0.0
 11
1009.721933088208
 21
822.5999999999402
 31
0.0
  0
LINE
  5
F2
330
1F
100
AcDbEntity
  8
LAY-10
  6
CONTINUOUS
 62
     7
100
AcDbLine
 10
977.0640687119391
 20
775.7999999999402
 30
0.0
 11
1023.864068711939
 21
822.5999999999402
 31
0.0
  0
LINE
  5
F3
330
1F
100
AcDbEntity
  8
LAY-10
  6
CONTINUOUS
 62
     7
100
AcDbLine
 10
991.2062043356701
 20
775.7999999999405
 30
0.0
 11
1038.00620433567
 21
822.5999999999402
 31
0.0
  0
LINE
  5
F4
330
1F
100
AcDbEntity
  8
LAY-10
  6
CONTINUOUS
 62
     7
100
AcDbLine
 10
1005.348339959401
 20
775.7999999999405
 30
0.0
 11
1052.148339959401
 21
822.5999999999402
 31
0.0
  0
LINE
  5
F5
330
1F
100
AcDbEntity
  8
LAY-10
  6
CONTINUOUS
 62
     7
100
AcDbLine
 10
1019.490475583132
 20
775.7999999999402
 30
0.0
 11
1066.290475583132
 21
822.5999999999402
 31
0.0
  0
LINE
  5
F6
330
1F
100
AcDbEntity
  8
LAY-10
  6
CONTINUOUS
 62
     7
100
AcDbLine
 10
1033.632611206863
 20
775.7999999999405
 30
0.0
 11
1080.432611206863
 21
822.5999999999402
 31
0.0
  0
LINE
  5
F7
330
1F
100
AcDbEntity
  8
LAY-10
  6
CONTINUOUS
 62
     7
100
AcDbLine
 10
1047.774746830594
 20
775.7999999999402
 30
0.0
 11
1094.574746830594
 21
822.5999999999402
 31
0.0
  0
LINE
  5
F8
330
1F
100
AcDbEntity
  8
LAY-10
  6
CONTINUOUS
 62
     7
100
AcDbLine
 10
1061.916882454325
 20
775.7999999999405
 30
0.0
 11
1108.716882454325
 21
822.5999999999402
 31
0.0
  0
LINE
  5
F9
330
1F
100
AcDbEntity
  8
LAY-10
  6
CONTINUOUS
 62
     7
100
AcDbLine
 10
1076.059018078056
 20
775.7999999999405
 30
0.0
 11
1122.859018078056
 21
822.5999999999408
 31
0.0
  0
LINE
  5
FA
330
1F
100
AcDbEntity
  8
LAY-10
  6
CONTINUOUS
 62
     7
100
AcDbLine
 10
1090.201153701787
 20
775.7999999999402
 30
0.0
 11
1137.001153701787
 21
822.5999999999402
 31
0.0
  0
LINE
  5
FB
330
1F
100
AcDbEntity
  8
LAY-10
  6
CONTINUOUS
 62
     7
100
AcDbLine
 10
1104.343289325518
 20
775.7999999999405
 30
0.0
 11
1151.143289325517
 21
822.5999999999402
 31
0.0
  0
LINE
  5
FC
330
1F
100
AcDbEntity
  8
LAY-10
  6
CONTINUOUS
 62
     7
100
AcDbLine
 10
1118.485424949248
 20
775.7999999999402
 30
0.0
 11
1165.285424949248
 21
822.5999999999402
 31
0.0
  0
LINE
  5
FD
330
1F
100
AcDbEntity
  8
LAY-10
  6
CONTINUOUS
 62
     7
100
AcDbLine
 10
1132.62756057298
 20
775.7999999999402
 30
0.0
 11
1179.427560572979
 21
822.5999999999402
 31
0.0
  0
LINE
  5
FE
330
1F
100
AcDbEntity
  8
LAY-10
  6
CONTINUOUS
 62
     7
100
AcDbLine
 10
1146.76969619671
 20
775.7999999999405
 30
0.0
 11
1193.56969619671
 21
822.5999999999402
 31
0.0
  0
LINE
  5
FF
330
1F
100
AcDbEntity
  8
LAY-10
  6
CONTINUOUS
 62
     7
100
AcDbLine
 10
1160.911831820441
 20
775.7999999999402
 30
0.0
 11
1207.711831820441
 21
822.5999999999402
 31
0.0
  0
LINE
  5
100
330
1F
100
AcDbEntity
  8
LAY-10
  6
CONTINUOUS
 62
     7
100
AcDbLine
 10
1175.053967444172
 20
775.7999999999405
 30
0.0
 11
1221.853967444172
 21
822.5999999999402
 31
0.0
  0
LINE
  5
101
330
1F
100
AcDbEntity
  8
LAY-10
  6
CONTINUOUS
 62
     7
100
AcDbLine
 10
1189.196103067903
 20
775.7999999999402
 30
0.0
 11
1235.996103067903
 21
822.5999999999402
 31
0.0
  0
LINE
  5
102
330
1F
100
AcDbEntity
  8
LAY-10
  6
CONTINUOUS
 62
     7
100
AcDbLine
 10
1203.338238691634
 20
775.7999999999402
 30
0.0
 11
1250.138238691634
 21
822.5999999999402
 31
0.0
  0
LINE
  5
103
330
1F
100
AcDbEntity
  8
LAY-10
  6
CONTINUOUS
 62
     7
100
AcDbLine
 10
1217.480374315365
 20
775.7999999999405
 30
0.0
 11
1264.280374315365
 21
822.5999999999402
 31
0.0
  0
LINE
  5
104
330
1F
100
AcDbEntity
  8
LAY-10
  6
CONTINUOUS
 62
     7
100
AcDbLine
 10
1231.622509939096
 20
775.7999999999402
 30
0.0
 11
1278.422509939096
 21
822.5999999999402
 31
0.0
  0
LINE
  5
105
330
1F
100
AcDbEntity
  8
LAY-10
  6
CONTINUOUS
 62
     7
100
AcDbLine
 10
1245.764645562827
 20
775.7999999999405
 30
0.0
 11
1292.564645562827
 21
822.5999999999402
 31
0.0
  0
LINE
  5
106
330
1F
100
AcDbEntity
  8
LAY-10
  6
CONTINUOUS
 62
     7
100
AcDbLine
 10
1259.906781186558
 20
775.7999999999402
 30
0.0
 11
1306.706781186558
 21
822.5999999999402
 31
0.0
  0
LINE
  5
107
330
1F
100
AcDbEntity
  8
LAY-10
  6
CONTINUOUS
 62
     7
100
AcDbLine
 10
1274.048916810289
 20
775.7999999999405
 30
0.0
 11
1320.848916810289
 21
822.5999999999402
 31
0.0
  0
LINE
  5
108
330
1F
100
AcDbEntity
  8
LAY-10
  6
CONTINUOUS
 62
     7
100
AcDbLine
 10
1288.19105243402
 20
775.7999999999402
 30
0.0
 11
1334.99105243402
 21
822.5999999999402
 31
0.0
  0
LINE
  5
109
330
1F
100
AcDbEntity
  8
LAY-10
  6
CONTINUOUS
 62
     7
100
AcDbLine
 10
1302.333188057751
 20
775.7999999999402
 30
0.0
 11
1349.133188057751
 21
822.5999999999402
 31
0.0
  0
LINE
  5
10A
330
1F
100
AcDbEntity
  8
LAY-10
  6
CONTINUOUS
 62
     7
100
AcDbLine
 10
1316.475323681482
 20
775.7999999999405
 30
0.0
 11
1363.275323681482
 21
822.5999999999402
 31
0.0
  0
LINE
  5
10B
330
1F
100
AcDbEntity
  8
LAY-10
  6
CONTINUOUS
 62
     7
100
AcDbLine
 10
1330.617459305212
 20
775.7999999999402
 30
0.0
 11
1377.417459305213
 21
822.5999999999402
 31
0.0
  0
LINE
  5
10C
330
1F
100
AcDbEntity
  8
LAY-10
  6
CONTINUOUS
 62
     7
100
AcDbLine
 10
1344.759594928943
 20
775.7999999999405
 30
0.0
 11
1391.559594928944
 21
822.5999999999402
 31
0.0
  0
LINE
  5
10D
330
1F
100
AcDbEntity
  8
LAY-10
  6
CONTINUOUS
 62
     7
100
AcDbLine
 10
1358.901730552675
 20
775.7999999999402
 30
0.0
 11
1405.701730552675
 21
822.5999999999408
 31
0.0
  0
LINE
  5
10E
330
1F
100
AcDbEntity
  8
LAY-10
  6
CONTINUOUS
 62
     7
100
AcDbLine
 10
1373.043866176405
 20
775.7999999999402
 30
0.0
 11
1419.843866176406
 21
822.5999999999402
 31
0.0
  0
LINE
  5
10F
330
1F
100
AcDbEntity
  8
LAY-10
  6
CONTINUOUS
 62
     7
100
AcDbLine
 10
1387.186001800136
 20
775.7999999999405
 30
0.0
 11
1433.986001800137
 21
822.5999999999408
 31
0.0
  0
LINE
  5
110
330
1F
100
AcDbEntity
  8
LAY-10
  6
CONTINUOUS
 62
     7
100
AcDbLine
 10
1401.328137423867
 20
775.7999999999402
 30
0.0
 11
1448.128137423868
 21
822.5999999999402
 31
0.0
  0
LINE
  5
111
330
1F
100
AcDbEntity
  8
LAY-10
  6
CONTINUOUS
 62
     7
100
AcDbLine
 10
1415.470273047598
 20
775.7999999999405
 30
0.0
 11
1462.270273047598
 21
822.5999999999402
 31
0.0
  0
LINE
  5
112
330
1F
100
AcDbEntity
  8
LAY-10
  6
CONTINUOUS
 62
     7
100
AcDbLine
 10
1429.612408671329
 20
775.7999999999402
 30
0.0
 11
1476.412408671329
 21
822.5999999999408
 31
0.0
  0
LINE
  5
113
330
1F
100
AcDbEntity
  8
LAY-10
  6
CONTINUOUS
 62
     7
100
AcDbLine
 10
1443.75454429506
 20
775.7999999999405
 30
0.0
 11
1490.55454429506
 21
822.5999999999402
 31
0.0
  0
LINE
  5
114
330
1F
100
AcDbEntity
  8
LAY-10
  6
CONTINUOUS
 62
     7
100
AcDbLine
 10
1457.896679918791
 20
775.7999999999405
 30
0.0
 11
1504.696679918791
 21
822.5999999999408
 31
0.0
  0
LINE
  5
115
330
1F
100
AcDbEntity
  8
LAY-10
  6
CONTINUOUS
 62
     7
100
AcDbLine
 10
1472.038815542522
 20
775.7999999999402
 30
0.0
 11
1518.838815542522
 21
822.5999999999402
 31
0.0
  0
LINE
  5
116
330
1F
100
AcDbEntity
  8
LAY-10
  6
CONTINUOUS
 62
     7
100
AcDbLine
 10
1486.180951166253
 20
775.7999999999405
 30
0.0
 11
1532.980951166253
 21
822.5999999999402
 31
0.0
  0
LINE
  5
117
330
1F
100
AcDbEntity
  8
LAY-10
  6
CONTINUOUS
 62
     7
100
AcDbLine
 10
1500.323086789984
 20
775.7999999999402
 30
0.0
 11
1547.123086789984
 21
822.5999999999408
 31
0.0
  0
LINE
  5
118
330
1F
100
AcDbEntity
  8
LAY-10
  6
CONTINUOUS
 62
     7
100
AcDbLine
 10
1514.465222413715
 20
775.7999999999405
 30
0.0
 11
1561.265222413715
 21
822.5999999999402
 31
0.0
  0
LINE
  5
119
330
1F
100
AcDbEntity
  8
LAY-10
  6
CONTINUOUS
 62
     7
100
AcDbLine
 10
1528.607358037446
 20
775.7999999999405
 30
0.0
 11
1575.407358037446
 21
822.5999999999408
 31
0.0
  0
LINE
  5
11A
330
1F
100
AcDbEntity
  8
LAY-10
  6
CONTINUOUS
 62
     7
100
AcDbLine
 10
1542.749493661177
 20
775.7999999999402
 30
0.0
 11
1589.549493661177
 21
822.5999999999402
 31
0.0
  0
LINE
  5
11B
330
1F
100
AcDbEntity
  8
LAY-10
  6
CONTINUOUS
 62
     7
100
AcDbLine
 10
1556.891629284908
 20
775.7999999999402
 30
0.0
 11
1603.691629284908
 21
822.5999999999402
 31
0.0
  0
LINE
  5
11C
330
1F
100
AcDbEntity
  8
LAY-10
  6
CONTINUOUS
 62
     7
100
AcDbLine
 10
1571.033764908639
 20
775.7999999999402
 30
0.0
 11
1617.833764908639
 21
822.5999999999402
 31
0.0
  0
LINE
  5
11D
330
1F
100
AcDbEntity
  8
LAY-10
  6
CONTINUOUS
 62
     7
100
AcDbLine
 10
1585.17590053237
 20
775.7999999999405
 30
0.0
 11
1631.97590053237
 21
822.5999999999402
 31
0.0
  0
LINE
  5
11E
330
1F
100
AcDbEntity
  8
LAY-10
  6
CONTINUOUS
 62
     7
100
AcDbLine
 10
1599.318036156101
 20
775.7999999999405
 30
0.0
 11
1646.118036156101
 21
822.5999999999402
 31
0.0
  0
LINE
  5
11F
330
1F
100
AcDbEntity
  8
LAY-10
  6
CONTINUOUS
 62
     7
100
AcDbLine
 10
1613.460171779832
 20
775.7999999999402
 30
0.0
 11
1660.260171779832
 21
822.5999999999402
 31
0.0
  0
LINE
  5
120
330
1F
100
AcDbEntity
  8
LAY-10
  6
CONTINUOUS
 62
     7
100
AcDbLine
 10
1627.602307403563
 20
775.7999999999402
 30
0.0
 11
1674.402307403563
 21
822.5999999999402
 31
0.0
  0
LINE
  5
121
330
1F
100
AcDbEntity
  8
LAY-10
  6
CONTINUOUS
 62
     7
100
AcDbLine
 10
1641.744443027294
 20
775.7999999999405
 30
0.0
 11
1688.544443027294
 21
822.5999999999402
 31
0.0
  0
LINE
  5
122
330
1F
100
AcDbEntity
  8
LAY-10
  6
CONTINUOUS
 62
     7
100
AcDbLine
 10
1655.886578651024
 20
775.7999999999405
 30
0.0
 11
1702.686578651025
 21
822.5999999999402
 31
0.0
  0
LINE
  5
123
330
1F
100
AcDbEntity
  8
LAY-10
  6
CONTINUOUS
 62
     7
100
AcDbLine
 10
1670.028714274755
 20
775.7999999999405
 30
0.0
 11
1716.828714274756
 21
822.5999999999402
 31
0.0
  0
LINE
  5
124
330
1F
100
AcDbEntity
  8
LAY-10
  6
CONTINUOUS
 62
     7
100
AcDbLine
 10
1684.170849898486
 20
775.7999999999402
 30
0.0
 11
1730.970849898487
 21
822.5999999999402
 31
0.0
  0
LINE
  5
125
330
1F
100
AcDbEntity
  8
LAY-10
  6
CONTINUOUS
 62
     7
100
AcDbLine
 10
1698.312985522217
 20
775.7999999999402
 30
0.0
 11
1745.112985522218
 21
822.5999999999402
 31
0.0
  0
LINE
  5
126
330
1F
100
AcDbEntity
  8
LAY-10
  6
CONTINUOUS
 62
     7
100
AcDbLine
 10
1712.455121145948
 20
775.7999999999405
 30
0.0
 11
1759.255121145949
 21
822.5999999999402
 31
0.0
  0
LINE
  5
127
330
1F
100
AcDbEntity
  8
LAY-10
  6
CONTINUOUS
 62
     7
100
AcDbLine
 10
1726.597256769679
 20
775.7999999999405
 30
0.0
 11
1773.39725676968
 21
822.5999999999402
 31
0.0
  0
LINE
  5
128
330
1F
100
AcDbEntity
  8
LAY-10
  6
CONTINUOUS
 62
     7
100
AcDbLine
 10
1740.73939239341
 20
775.7999999999402
 30
0.0
 11
1787.53939239341
 21
822.5999999999402
 31
0.0
  0
LINE
  5
129
330
1F
100
AcDbEntity
  8
LAY-10
  6
CONTINUOUS
 62
     7
100
AcDbLine
 10
1754.881528017141
 20
775.7999999999402
 30
0.0
 11
1801.681528017141
 21
822.5999999999402
 31
0.0
  0
LINE
  5
12A
330
1F
100
AcDbEntity
  8
LAY-10
  6
CONTINUOUS
 62
     7
100
AcDbLine
 10
1769.023663640872
 20
775.7999999999405
 30
0.0
 11
1815.823663640872
 21
822.5999999999402
 31
0.0
  0
LINE
  5
12B
330
1F
100
AcDbEntity
  8
LAY-10
  6
CONTINUOUS
 62
     7
100
AcDbLine
 10
1783.165799264603
 20
775.7999999999405
 30
0.0
 11
1829.965799264603
 21
822.5999999999402
 31
0.0
  0
LINE
  5
12C
330
1F
100
AcDbEntity
  8
LAY-10
  6
CONTINUOUS
 62
     7
100
AcDbLine
 10
1797.307934888334
 20
775.7999999999405
 30
0.0
 11
1844.107934888334
 21
822.5999999999402
 31
0.0
  0
LINE
  5
12D
330
1F
100
AcDbEntity
  8
LAY-10
  6
CONTINUOUS
 62
     7
100
AcDbLine
 10
1811.450070512065
 20
775.7999999999402
 30
0.0
 11
1858.250070512065
 21
822.5999999999402
 31
0.0
  0
LINE
  5
12E
330
1F
100
AcDbEntity
  8
LAY-10
  6
CONTINUOUS
 62
     7
100
AcDbLine
 10
1825.592206135796
 20
775.7999999999405
 30
0.0
 11
1872.392206135796
 21
822.5999999999408
 31
0.0
  0
LINE
  5
12F
330
1F
100
AcDbEntity
  8
LAY-10
  6
CONTINUOUS
 62
     7
100
AcDbLine
 10
1839.734341759527
 20
775.7999999999405
 30
0.0
 11
1880.399999999901
 21
816.4656582403139
 31
0.0
  0
LINE
  5
130
330
1F
100
AcDbEntity
  8
LAY-10
  6
CONTINUOUS
 62
     7
100
AcDbLine
 10
1853.876477383258
 20
775.7999999999405
 30
0.0
 11
1880.399999999901
 21
802.3235226165829
 31
0.0
  0
LINE
  5
131
330
1F
100
AcDbEntity
  8
LAY-10
  6
CONTINUOUS
 62
     7
100
AcDbLine
 10
1868.018613006989
 20
775.7999999999405
 30
0.0
 11
1880.399999999901
 21
788.1813869928518
 31
0.0
  0
LINE
  5
132
330
1F
100
AcDbEntity
  8
LAY-10
  6
CONTINUOUS
 62
     7
100
AcDbLine
 10
603.9735931288174
 20
775.7999999999402
 30
0.0
 11
599.6000000000101
 21
780.1735931287476
 31
0.0
  0
LINE
  5
133
330
1F
100
AcDbEntity
  8
LAY-10
  6
CONTINUOUS
 62
     7
100
AcDbLine
 10
618.1157287525483
 20
775.7999999999402
 30
0.0
 11
599.6000000000103
 21
794.3157287524781
 31
0.0
  0
LINE
  5
134
330
1F
100
AcDbEntity
  8
LAY-10
  6
CONTINUOUS
 62
     7
100
AcDbLine
 10
632.2578643762794
 20
775.7999999999402
 30
0.0
 11
599.6000000000103
 21
808.4578643762092
 31
0.0
  0
LINE
  5
135
330
1F
100
AcDbEntity
  8
LAY-10
  6
CONTINUOUS
 62
     7
100
AcDbLine
 10
646.4000000000102
 20
775.7999999999402
 30
0.0
 11
599.6000000000101
 21
822.5999999999402
 31
0.0
  0
LINE
  5
136
330
1F
100
AcDbEntity
  8
LAY-10
  6
CONTINUOUS
 62
     7
100
AcDbLine
 10
660.5421356237413
 20
775.7999999999402
 30
0.0
 11
613.7421356237412
 21
822.5999999999402
 31
0.0
  0
LINE
  5
137
330
1F
100
AcDbEntity
  8
LAY-10
  6
CONTINUOUS
 62
     7
100
AcDbLine
 10
674.6842712474722
 20
775.7999999999402
 30
0.0
 11
627.8842712474723
 21
822.5999999999402
 31
0.0
  0
LINE
  5
138
330
1F
100
AcDbEntity
  8
LAY-10
  6
CONTINUOUS
 62
     7
100
AcDbLine
 10
688.8264068712031
 20
775.7999999999402
 30
0.0
 11
642.026406871203
 21
822.5999999999402
 31
0.0
  0
LINE
  5
139
330
1F
100
AcDbEntity
  8
LAY-10
  6
CONTINUOUS
 62
     7
100
AcDbLine
 10
702.9685424949341
 20
775.7999999999402
 30
0.0
 11
656.1685424949341
 21
822.5999999999402
 31
0.0
  0
LINE
  5
13A
330
1F
100
AcDbEntity
  8
LAY-10
  6
CONTINUOUS
 62
     7
100
AcDbLine
 10
717.110678118665
 20
775.7999999999402
 30
0.0
 11
670.3106781186649
 21
822.5999999999402
 31
0.0
  0
LINE
  5
13B
330
1F
100
AcDbEntity
  8
LAY-10
  6
CONTINUOUS
 62
     7
100
AcDbLine
 10
731.252813742396
 20
775.7999999999402
 30
0.0
 11
684.452813742396
 21
822.5999999999402
 31
0.0
  0
LINE
  5
13C
330
1F
100
AcDbEntity
  8
LAY-10
  6
CONTINUOUS
 62
     7
100
AcDbLine
 10
745.394949366127
 20
775.7999999999402
 30
0.0
 11
698.594949366127
 21
822.5999999999402
 31
0.0
  0
LINE
  5
13D
330
1F
100
AcDbEntity
  8
LAY-10
  6
CONTINUOUS
 62
     7
100
AcDbLine
 10
759.5370849898578
 20
775.7999999999402
 30
0.0
 11
712.7370849898577
 21
822.5999999999402
 31
0.0
  0
LINE
  5
13E
330
1F
100
AcDbEntity
  8
LAY-10
  6
CONTINUOUS
 62
     7
100
AcDbLine
 10
773.6792206135888
 20
775.7999999999402
 30
0.0
 11
726.8792206135888
 21
822.5999999999402
 31
0.0
  0
LINE
  5
13F
330
1F
100
AcDbEntity
  8
LAY-10
  6
CONTINUOUS
 62
     7
100
AcDbLine
 10
787.8213562373196
 20
775.7999999999402
 30
0.0
 11
741.0213562373197
 21
822.5999999999402
 31
0.0
  0
LINE
  5
140
330
1F
100
AcDbEntity
  8
LAY-10
  6
CONTINUOUS
 62
     7
100
AcDbLine
 10
801.9634918610507
 20
775.7999999999402
 30
0.0
 11
755.1634918610506
 21
822.5999999999402
 31
0.0
  0
LINE
  5
141
330
1F
100
AcDbEntity
  8
LAY-10
  6
CONTINUOUS
 62
     7
100
AcDbLine
 10
816.1056274847817
 20
775.7999999999402
 30
0.0
 11
769.3056274847817
 21
822.5999999999402
 31
0.0
  0
LINE
  5
142
330
1F
100
AcDbEntity
  8
LAY-10
  6
CONTINUOUS
 62
     7
100
AcDbLine
 10
830.2477631085126
 20
775.7999999999402
 30
0.0
 11
783.4477631085125
 21
822.5999999999402
 31
0.0
  0
LINE
  5
143
330
1F
100
AcDbEntity
  8
LAY-10
  6
CONTINUOUS
 62
     7
100
AcDbLine
 10
844.3898987322435
 20
775.7999999999402
 30
0.0
 11
797.5898987322436
 21
822.5999999999402
 31
0.0
  0
LINE
  5
144
330
1F
100
AcDbEntity
  8
LAY-10
  6
CONTINUOUS
 62
     7
100
AcDbLine
 10
858.5320343559744
 20
775.7999999999402
 30
0.0
 11
811.7320343559744
 21
822.5999999999402
 31
0.0
  0
LINE
  5
145
330
1F
100
AcDbEntity
  8
LAY-10
  6
CONTINUOUS
 62
     7
100
AcDbLine
 10
872.6741699797054
 20
775.7999999999402
 30
0.0
 11
825.8741699797054
 21
822.5999999999402
 31
0.0
  0
LINE
  5
146
330
1F
100
AcDbEntity
  8
LAY-10
  6
CONTINUOUS
 62
     7
100
AcDbLine
 10
886.8163056034365
 20
775.7999999999402
 30
0.0
 11
840.0163056034364
 21
822.5999999999402
 31
0.0
  0
LINE
  5
147
330
1F
100
AcDbEntity
  8
LAY-10
  6
CONTINUOUS
 62
     7
100
AcDbLine
 10
900.9584412271673
 20
775.7999999999402
 30
0.0
 11
854.1584412271673
 21
822.5999999999402
 31
0.0
  0
LINE
  5
148
330
1F
100
AcDbEntity
  8
LAY-10
  6
CONTINUOUS
 62
     7
100
AcDbLine
 10
915.1005768508982
 20
775.7999999999402
 30
0.0
 11
868.3005768508983
 21
822.5999999999402
 31
0.0
  0
LINE
  5
149
330
1F
100
AcDbEntity
  8
LAY-10
  6
CONTINUOUS
 62
     7
100
AcDbLine
 10
929.2427124746291
 20
775.7999999999402
 30
0.0
 11
882.442712474629
 21
822.5999999999402
 31
0.0
  0
LINE
  5
14A
330
1F
100
AcDbEntity
  8
LAY-10
  6
CONTINUOUS
 62
     7
100
AcDbLine
 10
943.3848480983602
 20
775.7999999999402
 30
0.0
 11
896.5848480983601
 21
822.5999999999402
 31
0.0
  0
LINE
  5
14B
330
1F
100
AcDbEntity
  8
LAY-10
  6
CONTINUOUS
 62
     7
100
AcDbLine
 10
957.5269837220912
 20
775.7999999999402
 30
0.0
 11
910.7269837220912
 21
822.5999999999402
 31
0.0
  0
LINE
  5
14C
330
1F
100
AcDbEntity
  8
LAY-10
  6
CONTINUOUS
 62
     7
100
AcDbLine
 10
971.6691193458221
 20
775.7999999999402
 30
0.0
 11
924.869119345822
 21
822.5999999999402
 31
0.0
  0
LINE
  5
14D
330
1F
100
AcDbEntity
  8
LAY-10
  6
CONTINUOUS
 62
     7
100
AcDbLine
 10
985.8112549695529
 20
775.7999999999402
 30
0.0
 11
939.0112549695531
 21
822.5999999999402
 31
0.0
  0
LINE
  5
14E
330
1F
100
AcDbEntity
  8
LAY-10
  6
CONTINUOUS
 62
     7
100
AcDbLine
 10
999.9533905932839
 20
775.7999999999402
 30
0.0
 11
953.1533905932838
 21
822.5999999999402
 31
0.0
  0
LINE
  5
14F
330
1F
100
AcDbEntity
  8
LAY-10
  6
CONTINUOUS
 62
     7
100
AcDbLine
 10
1014.095526217015
 20
775.7999999999402
 30
0.0
 11
967.2955262170149
 21
822.5999999999402
 31
0.0
  0
LINE
  5
150
330
1F
100
AcDbEntity
  8
LAY-10
  6
CONTINUOUS
 62
     7
100
AcDbLine
 10
1028.237661840746
 20
775.7999999999402
 30
0.0
 11
981.4376618407459
 21
822.5999999999402
 31
0.0
  0
LINE
  5
151
330
1F
100
AcDbEntity
  8
LAY-10
  6
CONTINUOUS
 62
     7
100
AcDbLine
 10
1042.379797464477
 20
775.7999999999402
 30
0.0
 11
995.5797974644768
 21
822.5999999999402
 31
0.0
  0
LINE
  5
152
330
1F
100
AcDbEntity
  8
LAY-10
  6
CONTINUOUS
 62
     7
100
AcDbLine
 10
1056.521933088208
 20
775.7999999999402
 30
0.0
 11
1009.721933088208
 21
822.5999999999402
 31
0.0
  0
LINE
  5
153
330
1F
100
AcDbEntity
  8
LAY-10
  6
CONTINUOUS
 62
     7
100
AcDbLine
 10
1070.664068711939
 20
775.7999999999402
 30
0.0
 11
1023.864068711939
 21
822.5999999999402
 31
0.0
  0
LINE
  5
154
330
1F
100
AcDbEntity
  8
LAY-10
  6
CONTINUOUS
 62
     7
100
AcDbLine
 10
1084.80620433567
 20
775.7999999999402
 30
0.0
 11
1038.00620433567
 21
822.5999999999402
 31
0.0
  0
LINE
  5
155
330
1F
100
AcDbEntity
  8
LAY-10
  6
CONTINUOUS
 62
     7
100
AcDbLine
 10
1098.948339959401
 20
775.7999999999402
 30
0.0
 11
1052.148339959401
 21
822.5999999999402
 31
0.0
  0
LINE
  5
156
330
1F
100
AcDbEntity
  8
LAY-10
  6
CONTINUOUS
 62
     7
100
AcDbLine
 10
1113.090475583132
 20
775.7999999999402
 30
0.0
 11
1066.290475583131
 21
822.5999999999402
 31
0.0
  0
LINE
  5
157
330
1F
100
AcDbEntity
  8
LAY-10
  6
CONTINUOUS
 62
     7
100
AcDbLine
 10
1127.232611206862
 20
775.7999999999402
 30
0.0
 11
1080.432611206862
 21
822.5999999999402
 31
0.0
  0
LINE
  5
158
330
1F
100
AcDbEntity
  8
LAY-10
  6
CONTINUOUS
 62
     7
100
AcDbLine
 10
1141.374746830593
 20
775.7999999999402
 30
0.0
 11
1094.574746830594
 21
822.5999999999402
 31
0.0
  0
LINE
  5
159
330
1F
100
AcDbEntity
  8
LAY-10
  6
CONTINUOUS
 62
     7
100
AcDbLine
 10
1155.516882454325
 20
775.7999999999402
 30
0.0
 11
1108.716882454325
 21
822.5999999999402
 31
0.0
  0
LINE
  5
15A
330
1F
100
AcDbEntity
  8
LAY-10
  6
CONTINUOUS
 62
     7
100
AcDbLine
 10
1169.659018078055
 20
775.7999999999402
 30
0.0
 11
1122.859018078055
 21
822.5999999999402
 31
0.0
  0
LINE
  5
15B
330
1F
100
AcDbEntity
  8
LAY-10
  6
CONTINUOUS
 62
     7
100
AcDbLine
 10
1183.801153701786
 20
775.7999999999402
 30
0.0
 11
1137.001153701787
 21
822.5999999999402
 31
0.0
  0
LINE
  5
15C
330
1F
100
AcDbEntity
  8
LAY-10
  6
CONTINUOUS
 62
     7
100
AcDbLine
 10
1197.943289325518
 20
775.7999999999402
 30
0.0
 11
1151.143289325518
 21
822.5999999999402
 31
0.0
  0
LINE
  5
15D
330
1F
100
AcDbEntity
  8
LAY-10
  6
CONTINUOUS
 62
     7
100
AcDbLine
 10
1212.085424949248
 20
775.7999999999402
 30
0.0
 11
1165.285424949248
 21
822.5999999999402
 31
0.0
  0
LINE
  5
15E
330
1F
100
AcDbEntity
  8
LAY-10
  6
CONTINUOUS
 62
     7
100
AcDbLine
 10
1226.227560572979
 20
775.7999999999402
 30
0.0
 11
1179.427560572979
 21
822.5999999999402
 31
0.0
  0
LINE
  5
15F
330
1F
100
AcDbEntity
  8
LAY-10
  6
CONTINUOUS
 62
     7
100
AcDbLine
 10
1240.36969619671
 20
775.7999999999402
 30
0.0
 11
1193.56969619671
 21
822.5999999999402
 31
0.0
  0
LINE
  5
160
330
1F
100
AcDbEntity
  8
LAY-10
  6
CONTINUOUS
 62
     7
100
AcDbLine
 10
1254.511831820441
 20
775.7999999999402
 30
0.0
 11
1207.711831820441
 21
822.5999999999402
 31
0.0
  0
LINE
  5
161
330
1F
100
AcDbEntity
  8
LAY-10
  6
CONTINUOUS
 62
     7
100
AcDbLine
 10
1268.653967444172
 20
775.7999999999402
 30
0.0
 11
1221.853967444172
 21
822.5999999999402
 31
0.0
  0
LINE
  5
162
330
1F
100
AcDbEntity
  8
LAY-10
  6
CONTINUOUS
 62
     7
100
AcDbLine
 10
1282.796103067903
 20
775.7999999999402
 30
0.0
 11
1235.996103067903
 21
822.5999999999402
 31
0.0
  0
LINE
  5
163
330
1F
100
AcDbEntity
  8
LAY-10
  6
CONTINUOUS
 62
     7
100
AcDbLine
 10
1296.938238691634
 20
775.7999999999402
 30
0.0
 11
1250.138238691634
 21
822.5999999999402
 31
0.0
  0
LINE
  5
164
330
1F
100
AcDbEntity
  8
LAY-10
  6
CONTINUOUS
 62
     7
100
AcDbLine
 10
1311.080374315365
 20
775.7999999999402
 30
0.0
 11
1264.280374315365
 21
822.5999999999402
 31
0.0
  0
LINE
  5
165
330
1F
100
AcDbEntity
  8
LAY-10
  6
CONTINUOUS
 62
     7
100
AcDbLine
 10
1325.222509939096
 20
775.7999999999402
 30
0.0
 11
1278.422509939096
 21
822.5999999999402
 31
0.0
  0
LINE
  5
166
330
1F
100
AcDbEntity
  8
LAY-10
  6
CONTINUOUS
 62
     7
100
AcDbLine
 10
1339.364645562827
 20
775.7999999999402
 30
0.0
 11
1292.564645562827
 21
822.5999999999402
 31
0.0
  0
LINE
  5
167
330
1F
100
AcDbEntity
  8
LAY-10
  6
CONTINUOUS
 62
     7
100
AcDbLine
 10
1353.506781186558
 20
775.7999999999402
 30
0.0
 11
1306.706781186558
 21
822.5999999999402
 31
0.0
  0
LINE
  5
168
330
1F
100
AcDbEntity
  8
LAY-10
  6
CONTINUOUS
 62
     7
100
AcDbLine
 10
1367.648916810289
 20
775.7999999999402
 30
0.0
 11
1320.848916810289
 21
822.5999999999402
 31
0.0
  0
LINE
  5
169
330
1F
100
AcDbEntity
  8
LAY-10
  6
CONTINUOUS
 62
     7
100
AcDbLine
 10
1381.79105243402
 20
775.7999999999402
 30
0.0
 11
1334.99105243402
 21
822.5999999999402
 31
0.0
  0
LINE
  5
16A
330
1F
100
AcDbEntity
  8
LAY-10
  6
CONTINUOUS
 62
     7
100
AcDbLine
 10
1395.933188057751
 20
775.7999999999402
 30
0.0
 11
1349.133188057751
 21
822.5999999999402
 31
0.0
  0
LINE
  5
16B
330
1F
100
AcDbEntity
  8
LAY-10
  6
CONTINUOUS
 62
     7
100
AcDbLine
 10
1410.075323681481
 20
775.7999999999402
 30
0.0
 11
1363.275323681482
 21
822.5999999999402
 31
0.0
  0
LINE
  5
16C
330
1F
100
AcDbEntity
  8
LAY-10
  6
CONTINUOUS
 62
     7
100
AcDbLine
 10
1424.217459305213
 20
775.7999999999402
 30
0.0
 11
1377.417459305213
 21
822.5999999999402
 31
0.0
  0
LINE
  5
16D
330
1F
100
AcDbEntity
  8
LAY-10
  6
CONTINUOUS
 62
     7
100
AcDbLine
 10
1438.359594928944
 20
775.7999999999402
 30
0.0
 11
1391.559594928944
 21
822.5999999999402
 31
0.0
  0
LINE
  5
16E
330
1F
100
AcDbEntity
  8
LAY-10
  6
CONTINUOUS
 62
     7
100
AcDbLine
 10
1452.501730552674
 20
775.7999999999402
 30
0.0
 11
1405.701730552675
 21
822.5999999999402
 31
0.0
  0
LINE
  5
16F
330
1F
100
AcDbEntity
  8
LAY-10
  6
CONTINUOUS
 62
     7
100
AcDbLine
 10
1466.643866176405
 20
775.7999999999402
 30
0.0
 11
1419.843866176406
 21
822.5999999999402
 31
0.0
  0
LINE
  5
170
330
1F
100
AcDbEntity
  8
LAY-10
  6
CONTINUOUS
 62
     7
100
AcDbLine
 10
1480.786001800137
 20
775.7999999999402
 30
0.0
 11
1433.986001800137
 21
822.5999999999402
 31
0.0
  0
LINE
  5
171
330
1F
100
AcDbEntity
  8
LAY-10
  6
CONTINUOUS
 62
     7
100
AcDbLine
 10
1494.928137423867
 20
775.7999999999402
 30
0.0
 11
1448.128137423867
 21
822.5999999999402
 31
0.0
  0
LINE
  5
172
330
1F
100
AcDbEntity
  8
LAY-10
  6
CONTINUOUS
 62
     7
100
AcDbLine
 10
1509.070273047598
 20
775.7999999999402
 30
0.0
 11
1462.270273047598
 21
822.5999999999402
 31
0.0
  0
LINE
  5
173
330
1F
100
AcDbEntity
  8
LAY-10
  6
CONTINUOUS
 62
     7
100
AcDbLine
 10
1523.212408671329
 20
775.7999999999402
 30
0.0
 11
1476.412408671329
 21
822.5999999999402
 31
0.0
  0
LINE
  5
174
330
1F
100
AcDbEntity
  8
LAY-10
  6
CONTINUOUS
 62
     7
100
AcDbLine
 10
1537.35454429506
 20
775.7999999999402
 30
0.0
 11
1490.55454429506
 21
822.5999999999402
 31
0.0
  0
LINE
  5
175
330
1F
100
AcDbEntity
  8
LAY-10
  6
CONTINUOUS
 62
     7
100
AcDbLine
 10
1551.496679918791
 20
775.7999999999402
 30
0.0
 11
1504.696679918791
 21
822.5999999999402
 31
0.0
  0
LINE
  5
176
330
1F
100
AcDbEntity
  8
LAY-10
  6
CONTINUOUS
 62
     7
100
AcDbLine
 10
1565.638815542522
 20
775.7999999999402
 30
0.0
 11
1518.838815542522
 21
822.5999999999402
 31
0.0
  0
LINE
  5
177
330
1F
100
AcDbEntity
  8
LAY-10
  6
CONTINUOUS
 62
     7
100
AcDbLine
 10
1579.780951166254
 20
775.7999999999402
 30
0.0
 11
1532.980951166253
 21
822.5999999999402
 31
0.0
  0
LINE
  5
178
330
1F
100
AcDbEntity
  8
LAY-10
  6
CONTINUOUS
 62
     7
100
AcDbLine
 10
1593.923086789984
 20
775.7999999999402
 30
0.0
 11
1547.123086789984
 21
822.5999999999402
 31
0.0
  0
LINE
  5
179
330
1F
100
AcDbEntity
  8
LAY-10
  6
CONTINUOUS
 62
     7
100
AcDbLine
 10
1608.065222413715
 20
775.7999999999402
 30
0.0
 11
1561.265222413715
 21
822.5999999999402
 31
0.0
  0
LINE
  5
17A
330
1F
100
AcDbEntity
  8
LAY-10
  6
CONTINUOUS
 62
     7
100
AcDbLine
 10
1622.207358037446
 20
775.7999999999402
 30
0.0
 11
1575.407358037446
 21
822.5999999999402
 31
0.0
  0
LINE
  5
17B
330
1F
100
AcDbEntity
  8
LAY-10
  6
CONTINUOUS
 62
     7
100
AcDbLine
 10
1636.349493661177
 20
775.7999999999402
 30
0.0
 11
1589.549493661177
 21
822.5999999999402
 31
0.0
  0
LINE
  5
17C
330
1F
100
AcDbEntity
  8
LAY-10
  6
CONTINUOUS
 62
     7
100
AcDbLine
 10
1650.491629284908
 20
775.7999999999402
 30
0.0
 11
1603.691629284908
 21
822.5999999999402
 31
0.0
  0
LINE
  5
17D
330
1F
100
AcDbEntity
  8
LAY-10
  6
CONTINUOUS
 62
     7
100
AcDbLine
 10
1664.633764908639
 20
775.7999999999402
 30
0.0
 11
1617.833764908639
 21
822.5999999999402
 31
0.0
  0
LINE
  5
17E
330
1F
100
AcDbEntity
  8
LAY-10
  6
CONTINUOUS
 62
     7
100
AcDbLine
 10
1678.77590053237
 20
775.7999999999402
 30
0.0
 11
1631.97590053237
 21
822.5999999999402
 31
0.0
  0
LINE
  5
17F
330
1F
100
AcDbEntity
  8
LAY-10
  6
CONTINUOUS
 62
     7
100
AcDbLine
 10
1692.918036156101
 20
775.7999999999402
 30
0.0
 11
1646.118036156101
 21
822.5999999999402
 31
0.0
  0
LINE
  5
180
330
1F
100
AcDbEntity
  8
LAY-10
  6
CONTINUOUS
 62
     7
100
AcDbLine
 10
1707.060171779831
 20
775.7999999999402
 30
0.0
 11
1660.260171779832
 21
822.5999999999402
 31
0.0
  0
LINE
  5
181
330
1F
100
AcDbEntity
  8
LAY-10
  6
CONTINUOUS
 62
     7
100
AcDbLine
 10
1721.202307403563
 20
775.7999999999402
 30
0.0
 11
1674.402307403563
 21
822.5999999999402
 31
0.0
  0
LINE
  5
182
330
1F
100
AcDbEntity
  8
LAY-10
  6
CONTINUOUS
 62
     7
100
AcDbLine
 10
1735.344443027293
 20
775.7999999999402
 30
0.0
 11
1688.544443027293
 21
822.5999999999402
 31
0.0
  0
LINE
  5
183
330
1F
100
AcDbEntity
  8
LAY-10
  6
CONTINUOUS
 62
     7
100
AcDbLine
 10
1749.486578651024
 20
775.7999999999402
 30
0.0
 11
1702.686578651025
 21
822.5999999999402
 31
0.0
  0
LINE
  5
184
330
1F
100
AcDbEntity
  8
LAY-10
  6
CONTINUOUS
 62
     7
100
AcDbLine
 10
1763.628714274755
 20
775.7999999999402
 30
0.0
 11
1716.828714274756
 21
822.5999999999402
 31
0.0
  0
LINE
  5
185
330
1F
100
AcDbEntity
  8
LAY-10
  6
CONTINUOUS
 62
     7
100
AcDbLine
 10
1777.770849898486
 20
775.7999999999402
 30
0.0
 11
1730.970849898487
 21
822.5999999999402
 31
0.0
  0
LINE
  5
186
330
1F
100
AcDbEntity
  8
LAY-10
  6
CONTINUOUS
 62
     7
100
AcDbLine
 10
1791.912985522217
 20
775.7999999999402
 30
0.0
 11
1745.112985522218
 21
822.5999999999402
 31
0.0
  0
LINE
  5
187
330
1F
100
AcDbEntity
  8
LAY-10
  6
CONTINUOUS
 62
     7
100
AcDbLine
 10
1806.055121145948
 20
775.7999999999402
 30
0.0
 11
1759.255121145948
 21
822.5999999999402
 31
0.0
  0
LINE
  5
188
330
1F
100
AcDbEntity
  8
LAY-10
  6
CONTINUOUS
 62
     7
100
AcDbLine
 10
1820.197256769679
 20
775.7999999999402
 30
0.0
 11
1773.397256769679
 21
822.5999999999402
 31
0.0
  0
LINE
  5
189
330
1F
100
AcDbEntity
  8
LAY-10
  6
CONTINUOUS
 62
     7
100
AcDbLine
 10
1834.33939239341
 20
775.7999999999402
 30
0.0
 11
1787.53939239341
 21
822.5999999999402
 31
0.0
  0
LINE
  5
18A
330
1F
100
AcDbEntity
  8
LAY-10
  6
CONTINUOUS
 62
     7
100
AcDbLine
 10
1848.481528017141
 20
775.7999999999402
 30
0.0
 11
1801.681528017141
 21
822.5999999999402
 31
0.0
  0
LINE
  5
18B
330
1F
100
AcDbEntity
  8
LAY-10
  6
CONTINUOUS
 62
     7
100
AcDbLine
 10
1862.623663640872
 20
775.7999999999402
 30
0.0
 11
1815.823663640872
 21
822.5999999999402
 31
0.0
  0
LINE
  5
18C
330
1F
100
AcDbEntity
  8
LAY-10
  6
CONTINUOUS
 62
     7
100
AcDbLine
 10
1876.765799264603
 20
775.7999999999402
 30
0.0
 11
1829.965799264603
 21
822.5999999999402
 31
0.0
  0
LINE
  5
18D
330
1F
100
AcDbEntity
  8
LAY-10
  6
CONTINUOUS
 62
     7
100
AcDbLine
 10
1880.3999999999
 20
786.3079348883738
 30
0.0
 11
1844.107934888334
 21
822.5999999999402
 31
0.0
  0
LINE
  5
18E
330
1F
100
AcDbEntity
  8
LAY-10
  6
CONTINUOUS
 62
     7
100
AcDbLine
 10
1880.3999999999
 20
800.4500705121048
 30
0.0
 11
1858.250070512065
 21
822.5999999999402
 31
0.0
  0
LINE
  5
18F
330
1F
100
AcDbEntity
  8
LAY-10
  6
CONTINUOUS
 62
     7
100
AcDbLine
 10
1880.3999999999
 20
814.5922061358359
 30
0.0
 11
1872.392206135796
 21
822.5999999999402
 31
0.0
  0
LINE
  5
190
330
1F
100
AcDbEntity
  8
LAY-10
  6
CONTINUOUS
 62
     7
100
AcDbLine
 10
2440.115827115447
 20
2047.118449069888
 30
0.0
 11
2444.116019626992
 21
2051.118641581433
 31
0.0
  0
LINE
  5
191
330
1F
100
AcDbEntity
  8
LAY-10
  6
CONTINUOUS
 62
     7
100
AcDbLine
 10
2440.115827115447
 20
2032.976313446157
 30
0.0
 11
2458.258155250723
 21
2051.118641581433
 31
0.0
  0
LINE
  5
192
330
1F
100
AcDbEntity
  8
LAY-10
  6
CONTINUOUS
 62
     7
100
AcDbLine
 10
2440.115827115447
 20
2018.834177822426
 30
0.0
 11
2472.400290874454
 21
2051.118641581433
 31
0.0
  0
LINE
  5
193
330
1F
100
AcDbEntity
  8
LAY-10
  6
CONTINUOUS
 62
     7
100
AcDbLine
 10
2440.115827115447
 20
2004.692042198694
 30
0.0
 11
2486.542426498184
 21
2051.118641581433
 31
0.0
  0
LINE
  5
194
330
1F
100
AcDbEntity
  8
LAY-10
  6
CONTINUOUS
 62
     7
100
AcDbLine
 10
2440.115827115447
 20
1990.549906574964
 30
0.0
 11
2486.915827115445
 21
2037.349906574962
 31
0.0
  0
LINE
  5
195
330
1F
100
AcDbEntity
  8
LAY-10
  6
CONTINUOUS
 62
     7
100
AcDbLine
 10
2440.115827115447
 20
1976.407770951233
 30
0.0
 11
2486.915827115446
 21
2023.207770951232
 31
0.0
  0
LINE
  5
196
330
1F
100
AcDbEntity
  8
LAY-10
  6
CONTINUOUS
 62
     7
100
AcDbLine
 10
2440.115827115447
 20
1962.265635327502
 30
0.0
 11
2486.915827115446
 21
2009.0656353275
 31
0.0
  0
LINE
  5
197
330
1F
100
AcDbEntity
  8
LAY-10
  6
CONTINUOUS
 62
     7
100
AcDbLine
 10
2440.115827115447
 20
1948.123499703771
 30
0.0
 11
2486.915827115445
 21
1994.92349970377
 31
0.0
  0
LINE
  5
198
330
1F
100
AcDbEntity
  8
LAY-10
  6
CONTINUOUS
 62
     7
100
AcDbLine
 10
2440.115827115447
 20
1933.98136408004
 30
0.0
 11
2486.915827115445
 21
1980.781364080039
 31
0.0
  0
LINE
  5
199
330
1F
100
AcDbEntity
  8
LAY-10
  6
CONTINUOUS
 62
     7
100
AcDbLine
 10
2440.115827115447
 20
1919.839228456309
 30
0.0
 11
2486.915827115446
 21
1966.639228456308
 31
0.0
  0
LINE
  5
19A
330
1F
100
AcDbEntity
  8
LAY-10
  6
CONTINUOUS
 62
     7
100
AcDbLine
 10
2440.115827115447
 20
1905.697092832578
 30
0.0
 11
2486.915827115446
 21
1952.497092832577
 31
0.0
  0
LINE
  5
19B
330
1F
100
AcDbEntity
  8
LAY-10
  6
CONTINUOUS
 62
     7
100
AcDbLine
 10
2440.115827115447
 20
1891.554957208847
 30
0.0
 11
2486.915827115445
 21
1938.354957208846
 31
0.0
  0
LINE
  5
19C
330
1F
100
AcDbEntity
  8
LAY-10
  6
CONTINUOUS
 62
     7
100
AcDbLine
 10
2440.115827115447
 20
1877.412821585116
 30
0.0
 11
2486.915827115445
 21
1924.212821585115
 31
0.0
  0
LINE
  5
19D
330
1F
100
AcDbEntity
  8
LAY-10
  6
CONTINUOUS
 62
     7
100
AcDbLine
 10
2440.115827115447
 20
1863.270685961385
 30
0.0
 11
2486.915827115446
 21
1910.070685961384
 31
0.0
  0
LINE
  5
19E
330
1F
100
AcDbEntity
  8
LAY-10
  6
CONTINUOUS
 62
     7
100
AcDbLine
 10
2440.115827115447
 20
1849.128550337654
 30
0.0
 11
2486.915827115446
 21
1895.928550337653
 31
0.0
  0
LINE
  5
19F
330
1F
100
AcDbEntity
  8
LAY-10
  6
CONTINUOUS
 62
     7
100
AcDbLine
 10
2440.115827115447
 20
1834.986414713923
 30
0.0
 11
2486.915827115445
 21
1881.786414713922
 31
0.0
  0
LINE
  5
1A0
330
1F
100
AcDbEntity
  8
LAY-10
  6
CONTINUOUS
 62
     7
100
AcDbLine
 10
2440.115827115447
 20
1820.844279090193
 30
0.0
 11
2486.915827115445
 21
1867.644279090191
 31
0.0
  0
LINE
  5
1A1
330
1F
100
AcDbEntity
  8
LAY-10
  6
CONTINUOUS
 62
     7
100
AcDbLine
 10
2440.115827115447
 20
1806.702143466462
 30
0.0
 11
2486.915827115446
 21
1853.50214346646
 31
0.0
  0
LINE
  5
1A2
330
1F
100
AcDbEntity
  8
LAY-10
  6
CONTINUOUS
 62
     7
100
AcDbLine
 10
2440.115827115447
 20
1792.560007842731
 30
0.0
 11
2486.915827115446
 21
1839.360007842729
 31
0.0
  0
LINE
  5
1A3
330
1F
100
AcDbEntity
  8
LAY-10
  6
CONTINUOUS
 62
     7
100
AcDbLine
 10
2440.115827115447
 20
1778.417872218999
 30
0.0
 11
2486.915827115445
 21
1825.217872218998
 31
0.0
  0
LINE
  5
1A4
330
1F
100
AcDbEntity
  8
LAY-10
  6
CONTINUOUS
 62
     7
100
AcDbLine
 10
2440.115827115447
 20
1764.275736595269
 30
0.0
 11
2486.915827115445
 21
1811.075736595267
 31
0.0
  0
LINE
  5
1A5
330
1F
100
AcDbEntity
  8
LAY-10
  6
CONTINUOUS
 62
     7
100
AcDbLine
 10
2440.115827115447
 20
1750.133600971538
 30
0.0
 11
2486.915827115446
 21
1796.933600971536
 31
0.0
  0
LINE
  5
1A6
330
1F
100
AcDbEntity
  8
LAY-10
  6
CONTINUOUS
 62
     7
100
AcDbLine
 10
2440.115827115447
 20
1735.991465347807
 30
0.0
 11
2486.915827115446
 21
1782.791465347805
 31
0.0
  0
LINE
  5
1A7
330
1F
100
AcDbEntity
  8
LAY-10
  6
CONTINUOUS
 62
     7
100
AcDbLine
 10
2440.115827115447
 20
1721.849329724076
 30
0.0
 11
2486.915827115445
 21
1768.649329724075
 31
0.0
  0
LINE
  5
1A8
330
1F
100
AcDbEntity
  8
LAY-10
  6
CONTINUOUS
 62
     7
100
AcDbLine
 10
2440.115827115447
 20
1707.707194100345
 30
0.0
 11
2486.915827115445
 21
1754.507194100344
 31
0.0
  0
LINE
  5
1A9
330
1F
100
AcDbEntity
  8
LAY-10
  6
CONTINUOUS
 62
     7
100
AcDbLine
 10
2440.115827115447
 20
1693.565058476614
 30
0.0
 11
2486.915827115446
 21
1740.365058476613
 31
0.0
  0
LINE
  5
1AA
330
1F
100
AcDbEntity
  8
LAY-10
  6
CONTINUOUS
 62
     7
100
AcDbLine
 10
2440.115827115447
 20
1679.422922852883
 30
0.0
 11
2486.915827115446
 21
1726.222922852882
 31
0.0
  0
LINE
  5
1AB
330
1F
100
AcDbEntity
  8
LAY-10
  6
CONTINUOUS
 62
     7
100
AcDbLine
 10
2440.115827115447
 20
1665.280787229152
 30
0.0
 11
2486.915827115445
 21
1712.080787229151
 31
0.0
  0
LINE
  5
1AC
330
1F
100
AcDbEntity
  8
LAY-10
  6
CONTINUOUS
 62
     7
100
AcDbLine
 10
2440.115827115447
 20
1651.138651605421
 30
0.0
 11
2486.915827115445
 21
1697.93865160542
 31
0.0
  0
LINE
  5
1AD
330
1F
100
AcDbEntity
  8
LAY-10
  6
CONTINUOUS
 62
     7
100
AcDbLine
 10
2440.115827115447
 20
1636.99651598169
 30
0.0
 11
2486.915827115446
 21
1683.796515981689
 31
0.0
  0
LINE
  5
1AE
330
1F
100
AcDbEntity
  8
LAY-10
  6
CONTINUOUS
 62
     7
100
AcDbLine
 10
2440.115827115447
 20
1622.854380357959
 30
0.0
 11
2486.915827115446
 21
1669.654380357958
 31
0.0
  0
LINE
  5
1AF
330
1F
100
AcDbEntity
  8
LAY-10
  6
CONTINUOUS
 62
     7
100
AcDbLine
 10
2440.115827115447
 20
1608.712244734228
 30
0.0
 11
2486.915827115445
 21
1655.512244734227
 31
0.0
  0
LINE
  5
1B0
330
1F
100
AcDbEntity
  8
LAY-10
  6
CONTINUOUS
 62
     7
100
AcDbLine
 10
2440.115827115447
 20
1594.570109110497
 30
0.0
 11
2486.915827115445
 21
1641.370109110496
 31
0.0
  0
LINE
  5
1B1
330
1F
100
AcDbEntity
  8
LAY-10
  6
CONTINUOUS
 62
     7
100
AcDbLine
 10
2440.115827115447
 20
1580.427973486766
 30
0.0
 11
2486.915827115446
 21
1627.227973486765
 31
0.0
  0
LINE
  5
1B2
330
1F
100
AcDbEntity
  8
LAY-10
  6
CONTINUOUS
 62
     7
100
AcDbLine
 10
2440.115827115447
 20
1566.285837863035
 30
0.0
 11
2486.915827115446
 21
1613.085837863034
 31
0.0
  0
LINE
  5
1B3
330
1F
100
AcDbEntity
  8
LAY-10
  6
CONTINUOUS
 62
     7
100
AcDbLine
 10
2440.115827115447
 20
1552.143702239305
 30
0.0
 11
2486.915827115445
 21
1598.943702239303
 31
0.0
  0
LINE
  5
1B4
330
1F
100
AcDbEntity
  8
LAY-10
  6
CONTINUOUS
 62
     7
100
AcDbLine
 10
2440.115827115437
 20
1538.001566615563
 30
0.0
 11
2486.915827115445
 21
1584.801566615572
 31
0.0
  0
LINE
  5
1B5
330
1F
100
AcDbEntity
  8
LAY-10
  6
CONTINUOUS
 62
     7
100
AcDbLine
 10
2440.115827115437
 20
1523.859430991832
 30
0.0
 11
2486.915827115446
 21
1570.659430991841
 31
0.0
  0
LINE
  5
1B6
330
1F
100
AcDbEntity
  8
LAY-10
  6
CONTINUOUS
 62
     7
100
AcDbLine
 10
2440.115827115436
 20
1509.717295368101
 30
0.0
 11
2486.915827115446
 21
1556.51729536811
 31
0.0
  0
LINE
  5
1B7
330
1F
100
AcDbEntity
  8
LAY-10
  6
CONTINUOUS
 62
     7
100
AcDbLine
 10
2440.115827115436
 20
1495.57515974437
 30
0.0
 11
2486.915827115445
 21
1542.375159744379
 31
0.0
  0
LINE
  5
1B8
330
1F
100
AcDbEntity
  8
LAY-10
  6
CONTINUOUS
 62
     7
100
AcDbLine
 10
2440.115827115437
 20
1481.433024120639
 30
0.0
 11
2486.915827115445
 21
1528.233024120648
 31
0.0
  0
LINE
  5
1B9
330
1F
100
AcDbEntity
  8
LAY-10
  6
CONTINUOUS
 62
     7
100
AcDbLine
 10
2440.115827115437
 20
1467.290888496909
 30
0.0
 11
2486.915827115446
 21
1514.090888496917
 31
0.0
  0
LINE
  5
1BA
330
1F
100
AcDbEntity
  8
LAY-10
  6
CONTINUOUS
 62
     7
100
AcDbLine
 10
2440.115827115436
 20
1453.148752873178
 30
0.0
 11
2486.915827115446
 21
1499.948752873186
 31
0.0
  0
LINE
  5
1BB
330
1F
100
AcDbEntity
  8
LAY-10
  6
CONTINUOUS
 62
     7
100
AcDbLine
 10
2440.115827115436
 20
1439.006617249446
 30
0.0
 11
2486.915827115445
 21
1485.806617249456
 31
0.0
  0
LINE
  5
1BC
330
1F
100
AcDbEntity
  8
LAY-10
  6
CONTINUOUS
 62
     7
100
AcDbLine
 10
2440.115827115437
 20
1424.864481625716
 30
0.0
 11
2486.915827115445
 21
1471.664481625724
 31
0.0
  0
LINE
  5
1BD
330
1F
100
AcDbEntity
  8
LAY-10
  6
CONTINUOUS
 62
     7
100
AcDbLine
 10
2440.115827115437
 20
1410.722346001985
 30
0.0
 11
2486.915827115445
 21
1457.522346001994
 31
0.0
  0
LINE
  5
1BE
330
1F
100
AcDbEntity
  8
LAY-10
  6
CONTINUOUS
 62
     7
100
AcDbLine
 10
2440.115827115436
 20
1396.580210378253
 30
0.0
 11
2486.915827115446
 21
1443.380210378263
 31
0.0
  0
LINE
  5
1BF
330
1F
100
AcDbEntity
  8
LAY-10
  6
CONTINUOUS
 62
     7
100
AcDbLine
 10
2440.115827115436
 20
1382.438074754522
 30
0.0
 11
2486.915827115445
 21
1429.238074754532
 31
0.0
  0
LINE
  5
1C0
330
1F
100
AcDbEntity
  8
LAY-10
  6
CONTINUOUS
 62
     7
100
AcDbLine
 10
2442.13852956608
 20
1370.318641581435
 30
0.0
 11
2486.915827115445
 21
1415.095939130801
 31
0.0
  0
LINE
  5
1C1
330
1F
100
AcDbEntity
  8
LAY-10
  6
CONTINUOUS
 62
     7
100
AcDbLine
 10
2456.28066518981
 20
1370.318641581435
 30
0.0
 11
2486.915827115435
 21
1400.95380350706
 31
0.0
  0
LINE
  5
1C2
330
1F
100
AcDbEntity
  8
LAY-10
  6
CONTINUOUS
 62
     7
100
AcDbLine
 10
2470.422800813541
 20
1370.318641581435
 30
0.0
 11
2486.915827115435
 21
1386.811667883328
 31
0.0
  0
LINE
  5
1C3
330
1F
100
AcDbEntity
  8
LAY-10
  6
CONTINUOUS
 62
     7
100
AcDbLine
 10
2484.564936437283
 20
1370.318641581445
 30
0.0
 11
2486.915827115435
 21
1372.669532259598
 31
0.0
  0
LINE
  5
1C4
330
1F
100
AcDbEntity
  8
LAY-10
  6
CONTINUOUS
 62
     7
100
AcDbLine
 10
2449.220296683989
 20
1370.318641581442
 30
0.0
 11
2440.115827115445
 21
1379.423111149986
 31
0.0
  0
LINE
  5
1C5
330
1F
100
AcDbEntity
  8
LAY-10
  6
CONTINUOUS
 62
     7
100
AcDbLine
 10
2463.362432307721
 20
1370.318641581442
 30
0.0
 11
2440.115827115445
 21
1393.565246773717
 31
0.0
  0
LINE
  5
1C6
330
1F
100
AcDbEntity
  8
LAY-10
  6
CONTINUOUS
 62
     7
100
AcDbLine
 10
2477.504567931451
 20
1370.318641581442
 30
0.0
 11
2440.115827115445
 21
1407.707382397448
 31
0.0
  0
LINE
  5
1C7
330
1F
100
AcDbEntity
  8
LAY-10
  6
CONTINUOUS
 62
     7
100
AcDbLine
 10
2486.915827115443
 20
1375.049518021181
 30
0.0
 11
2440.115827115445
 21
1421.849518021179
 31
0.0
  0
LINE
  5
1C8
330
1F
100
AcDbEntity
  8
LAY-10
  6
CONTINUOUS
 62
     7
100
AcDbLine
 10
2486.915827115443
 20
1389.191653644912
 30
0.0
 11
2440.115827115445
 21
1435.99165364491
 31
0.0
  0
LINE
  5
1C9
330
1F
100
AcDbEntity
  8
LAY-10
  6
CONTINUOUS
 62
     7
100
AcDbLine
 10
2486.915827115443
 20
1403.333789268642
 30
0.0
 11
2440.115827115445
 21
1450.133789268641
 31
0.0
  0
LINE
  5
1CA
330
1F
100
AcDbEntity
  8
LAY-10
  6
CONTINUOUS
 62
     7
100
AcDbLine
 10
2486.915827115443
 20
1417.475924892373
 30
0.0
 11
2440.115827115445
 21
1464.275924892372
 31
0.0
  0
LINE
  5
1CB
330
1F
100
AcDbEntity
  8
LAY-10
  6
CONTINUOUS
 62
     7
100
AcDbLine
 10
2486.915827115443
 20
1431.618060516104
 30
0.0
 11
2440.115827115445
 21
1478.418060516103
 31
0.0
  0
LINE
  5
1CC
330
1F
100
AcDbEntity
  8
LAY-10
  6
CONTINUOUS
 62
     7
100
AcDbLine
 10
2486.915827115443
 20
1445.760196139835
 30
0.0
 11
2440.115827115445
 21
1492.560196139834
 31
0.0
  0
LINE
  5
1CD
330
1F
100
AcDbEntity
  8
LAY-10
  6
CONTINUOUS
 62
     7
100
AcDbLine
 10
2486.915827115443
 20
1459.902331763566
 30
0.0
 11
2440.115827115445
 21
1506.702331763565
 31
0.0
  0
LINE
  5
1CE
330
1F
100
AcDbEntity
  8
LAY-10
  6
CONTINUOUS
 62
     7
100
AcDbLine
 10
2486.915827115443
 20
1474.044467387297
 30
0.0
 11
2440.115827115445
 21
1520.844467387296
 31
0.0
  0
LINE
  5
1CF
330
1F
100
AcDbEntity
  8
LAY-10
  6
CONTINUOUS
 62
     7
100
AcDbLine
 10
2486.915827115443
 20
1488.186603011028
 30
0.0
 11
2440.115827115445
 21
1534.986603011027
 31
0.0
  0
LINE
  5
1D0
330
1F
100
AcDbEntity
  8
LAY-10
  6
CONTINUOUS
 62
     7
100
AcDbLine
 10
2486.915827115443
 20
1502.328738634759
 30
0.0
 11
2440.115827115445
 21
1549.128738634758
 31
0.0
  0
LINE
  5
1D1
330
1F
100
AcDbEntity
  8
LAY-10
  6
CONTINUOUS
 62
     7
100
AcDbLine
 10
2486.915827115443
 20
1516.47087425849
 30
0.0
 11
2440.115827115445
 21
1563.270874258489
 31
0.0
  0
LINE
  5
1D2
330
1F
100
AcDbEntity
  8
LAY-10
  6
CONTINUOUS
 62
     7
100
AcDbLine
 10
2486.915827115443
 20
1530.613009882221
 30
0.0
 11
2440.115827115445
 21
1577.41300988222
 31
0.0
  0
LINE
  5
1D3
330
1F
100
AcDbEntity
  8
LAY-10
  6
CONTINUOUS
 62
     7
100
AcDbLine
 10
2486.915827115443
 20
1544.755145505952
 30
0.0
 11
2440.115827115445
 21
1591.555145505951
 31
0.0
  0
LINE
  5
1D4
330
1F
100
AcDbEntity
  8
LAY-10
  6
CONTINUOUS
 62
     7
100
AcDbLine
 10
2486.915827115443
 20
1558.897281129683
 30
0.0
 11
2440.115827115445
 21
1605.697281129682
 31
0.0
  0
LINE
  5
1D5
330
1F
100
AcDbEntity
  8
LAY-10
  6
CONTINUOUS
 62
     7
100
AcDbLine
 10
2486.915827115443
 20
1573.039416753414
 30
0.0
 11
2440.115827115445
 21
1619.839416753413
 31
0.0
  0
LINE
  5
1D6
330
1F
100
AcDbEntity
  8
LAY-10
  6
CONTINUOUS
 62
     7
100
AcDbLine
 10
2486.915827115443
 20
1587.181552377145
 30
0.0
 11
2440.115827115445
 21
1633.981552377144
 31
0.0
  0
LINE
  5
1D7
330
1F
100
AcDbEntity
  8
LAY-10
  6
CONTINUOUS
 62
     7
100
AcDbLine
 10
2486.915827115443
 20
1601.323688000876
 30
0.0
 11
2440.115827115445
 21
1648.123688000874
 31
0.0
  0
LINE
  5
1D8
330
1F
100
AcDbEntity
  8
LAY-10
  6
CONTINUOUS
 62
     7
100
AcDbLine
 10
2486.915827115443
 20
1615.465823624607
 30
0.0
 11
2440.115827115445
 21
1662.265823624605
 31
0.0
  0
LINE
  5
1D9
330
1F
100
AcDbEntity
  8
LAY-10
  6
CONTINUOUS
 62
     7
100
AcDbLine
 10
2486.915827115443
 20
1629.607959248338
 30
0.0
 11
2440.115827115445
 21
1676.407959248336
 31
0.0
  0
LINE
  5
1DA
330
1F
100
AcDbEntity
  8
LAY-10
  6
CONTINUOUS
 62
     7
100
AcDbLine
 10
2486.915827115443
 20
1643.750094872069
 30
0.0
 11
2440.115827115445
 21
1690.550094872067
 31
0.0
  0
LINE
  5
1DB
330
1F
100
AcDbEntity
  8
LAY-10
  6
CONTINUOUS
 62
     7
100
AcDbLine
 10
2486.915827115443
 20
1657.8922304958
 30
0.0
 11
2440.115827115445
 21
1704.692230495798
 31
0.0
  0
LINE
  5
1DC
330
1F
100
AcDbEntity
  8
LAY-10
  6
CONTINUOUS
 62
     7
100
AcDbLine
 10
2486.915827115443
 20
1672.034366119531
 30
0.0
 11
2440.115827115445
 21
1718.834366119529
 31
0.0
  0
LINE
  5
1DD
330
1F
100
AcDbEntity
  8
LAY-10
  6
CONTINUOUS
 62
     7
100
AcDbLine
 10
2486.915827115443
 20
1686.176501743262
 30
0.0
 11
2440.115827115445
 21
1732.97650174326
 31
0.0
  0
LINE
  5
1DE
330
1F
100
AcDbEntity
  8
LAY-10
  6
CONTINUOUS
 62
     7
100
AcDbLine
 10
2486.915827115443
 20
1700.318637366993
 30
0.0
 11
2440.115827115445
 21
1747.118637366991
 31
0.0
  0
LINE
  5
1DF
330
1F
100
AcDbEntity
  8
LAY-10
  6
CONTINUOUS
 62
     7
100
AcDbLine
 10
2486.915827115443
 20
1714.460772990723
 30
0.0
 11
2440.115827115445
 21
1761.260772990722
 31
0.0
  0
LINE
  5
1E0
330
1F
100
AcDbEntity
  8
LAY-10
  6
CONTINUOUS
 62
     7
100
AcDbLine
 10
2486.915827115443
 20
1728.602908614454
 30
0.0
 11
2440.115827115445
 21
1775.402908614453
 31
0.0
  0
LINE
  5
1E1
330
1F
100
AcDbEntity
  8
LAY-10
  6
CONTINUOUS
 62
     7
100
AcDbLine
 10
2486.915827115443
 20
1742.745044238185
 30
0.0
 11
2440.115827115445
 21
1789.545044238184
 31
0.0
  0
LINE
  5
1E2
330
1F
100
AcDbEntity
  8
LAY-10
  6
CONTINUOUS
 62
     7
100
AcDbLine
 10
2486.915827115443
 20
1756.887179861916
 30
0.0
 11
2440.115827115445
 21
1803.687179861915
 31
0.0
  0
LINE
  5
1E3
330
1F
100
AcDbEntity
  8
LAY-10
  6
CONTINUOUS
 62
     7
100
AcDbLine
 10
2486.915827115443
 20
1771.029315485647
 30
0.0
 11
2440.115827115445
 21
1817.829315485646
 31
0.0
  0
LINE
  5
1E4
330
1F
100
AcDbEntity
  8
LAY-10
  6
CONTINUOUS
 62
     7
100
AcDbLine
 10
2486.915827115443
 20
1785.171451109378
 30
0.0
 11
2440.115827115445
 21
1831.971451109377
 31
0.0
  0
LINE
  5
1E5
330
1F
100
AcDbEntity
  8
LAY-10
  6
CONTINUOUS
 62
     7
100
AcDbLine
 10
2486.915827115443
 20
1799.313586733109
 30
0.0
 11
2440.115827115445
 21
1846.113586733108
 31
0.0
  0
LINE
  5
1E6
330
1F
100
AcDbEntity
  8
LAY-10
  6
CONTINUOUS
 62
     7
100
AcDbLine
 10
2486.915827115443
 20
1813.45572235684
 30
0.0
 11
2440.115827115445
 21
1860.255722356839
 31
0.0
  0
LINE
  5
1E7
330
1F
100
AcDbEntity
  8
LAY-10
  6
CONTINUOUS
 62
     7
100
AcDbLine
 10
2486.915827115443
 20
1827.597857980571
 30
0.0
 11
2440.115827115445
 21
1874.39785798057
 31
0.0
  0
LINE
  5
1E8
330
1F
100
AcDbEntity
  8
LAY-10
  6
CONTINUOUS
 62
     7
100
AcDbLine
 10
2486.915827115443
 20
1841.739993604302
 30
0.0
 11
2440.115827115445
 21
1888.539993604301
 31
0.0
  0
LINE
  5
1E9
330
1F
100
AcDbEntity
  8
LAY-10
  6
CONTINUOUS
 62
     7
100
AcDbLine
 10
2486.915827115443
 20
1855.882129228033
 30
0.0
 11
2440.115827115445
 21
1902.682129228032
 31
0.0
  0
LINE
  5
1EA
330
1F
100
AcDbEntity
  8
LAY-10
  6
CONTINUOUS
 62
     7
100
AcDbLine
 10
2486.915827115443
 20
1870.024264851764
 30
0.0
 11
2440.115827115445
 21
1916.824264851763
 31
0.0
  0
LINE
  5
1EB
330
1F
100
AcDbEntity
  8
LAY-10
  6
CONTINUOUS
 62
     7
100
AcDbLine
 10
2486.915827115443
 20
1884.166400475495
 30
0.0
 11
2440.115827115445
 21
1930.966400475493
 31
0.0
  0
LINE
  5
1EC
330
1F
100
AcDbEntity
  8
LAY-10
  6
CONTINUOUS
 62
     7
100
AcDbLine
 10
2486.915827115443
 20
1898.308536099226
 30
0.0
 11
2440.115827115445
 21
1945.108536099224
 31
0.0
  0
LINE
  5
1ED
330
1F
100
AcDbEntity
  8
LAY-10
  6
CONTINUOUS
 62
     7
100
AcDbLine
 10
2486.915827115443
 20
1912.450671722957
 30
0.0
 11
2440.115827115445
 21
1959.250671722955
 31
0.0
  0
LINE
  5
1EE
330
1F
100
AcDbEntity
  8
LAY-10
  6
CONTINUOUS
 62
     7
100
AcDbLine
 10
2486.915827115443
 20
1926.592807346688
 30
0.0
 11
2440.115827115445
 21
1973.392807346686
 31
0.0
  0
LINE
  5
1EF
330
1F
100
AcDbEntity
  8
LAY-10
  6
CONTINUOUS
 62
     7
100
AcDbLine
 10
2486.915827115443
 20
1940.734942970419
 30
0.0
 11
2440.115827115445
 21
1987.534942970417
 31
0.0
  0
LINE
  5
1F0
330
1F
100
AcDbEntity
  8
LAY-10
  6
CONTINUOUS
 62
     7
100
AcDbLine
 10
2486.915827115443
 20
1954.87707859415
 30
0.0
 11
2440.115827115445
 21
2001.677078594148
 31
0.0
  0
LINE
  5
1F1
330
1F
100
AcDbEntity
  8
LAY-10
  6
CONTINUOUS
 62
     7
100
AcDbLine
 10
2486.915827115443
 20
1969.019214217881
 30
0.0
 11
2440.115827115445
 21
2015.819214217879
 31
0.0
  0
LINE
  5
1F2
330
1F
100
AcDbEntity
  8
LAY-10
  6
CONTINUOUS
 62
     7
100
AcDbLine
 10
2486.915827115443
 20
1983.161349841612
 30
0.0
 11
2440.115827115445
 21
2029.96134984161
 31
0.0
  0
LINE
  5
1F3
330
1F
100
AcDbEntity
  8
LAY-10
  6
CONTINUOUS
 62
     7
100
AcDbLine
 10
2486.915827115443
 20
1997.303485465342
 30
0.0
 11
2440.115827115445
 21
2044.103485465341
 31
0.0
  0
LINE
  5
1F4
330
1F
100
AcDbEntity
  8
LAY-10
  6
CONTINUOUS
 62
     7
100
AcDbLine
 10
2486.915827115443
 20
2011.445621089073
 30
0.0
 11
2447.242806623077
 21
2051.118641581439
 31
0.0
  0
LINE
  5
1F5
330
1F
100
AcDbEntity
  8
LAY-10
  6
CONTINUOUS
 62
     7
100
AcDbLine
 10
2486.915827115443
 20
2025.587756712804
 30
0.0
 11
2461.384942246808
 21
2051.118641581439
 31
0.0
  0
LINE
  5
1F6
330
1F
100
AcDbEntity
  8
LAY-10
  6
CONTINUOUS
 62
     7
100
AcDbLine
 10
2486.915827115443
 20
2039.729892336535
 30
0.0
 11
2475.527077870539
 21
2051.118641581439
 31
0.0
  0
LINE
  5
1F7
330
1F
100
AcDbEntity
  8
LAY-10
  6
CONTINUOUS
 62
     7
100
AcDbLine
 10
1969.898484809549
 20
1956.218641581462
 30
0.0
 11
1969.898484809549
 21
1965.218641581463
 31
0.0
  0
LINE
  5
1F8
330
1F
100
AcDbEntity
  8
LAY-10
  6
CONTINUOUS
 62
     7
100
AcDbLine
 10
1940.999999999711
 20
1965.218641581463
 30
0.0
 11
1969.898484809549
 21
1965.218641581463
 31
0.0
  0
LINE
  5
1F9
330
1F
100
AcDbEntity
  8
LAY-10
  6
CONTINUOUS
 62
     7
100
AcDbLine
 10
1940.999999999711
 20
1956.218641581462
 30
0.0
 11
1969.898484809549
 21
1956.218641581462
 31
0.0
  0
LINE
  5
1FA
330
1F
100
AcDbEntity
  8
LAY-10
  6
CONTINUOUS
 62
     7
100
AcDbLine
 10
1969.898484809546
 20
1465.218641581502
 30
0.0
 11
1969.898484809546
 21
1456.218641581501
 31
0.0
  0
LINE
  5
1FB
330
1F
100
AcDbEntity
  8
LAY-10
  6
CONTINUOUS
 62
     7
100
AcDbLine
 10
1940.999999999709
 20
1456.2186415815
 30
0.0
 11
1969.898484809546
 21
1456.218641581501
 31
0.0
  0
LINE
  5
1FC
330
1F
100
AcDbEntity
  8
LAY-10
  6
CONTINUOUS
 62
     7
100
AcDbLine
 10
1940.999999999709
 20
1465.218641581501
 30
0.0
 11
1969.898484809546
 21
1465.218641581502
 31
0.0
  0
LINE
  5
1FD
330
1F
100
AcDbEntity
  8
LAY-10
  6
CONTINUOUS
 62
     7
100
AcDbLine
 10
1925.999999999822
 20
2096.718641581442
 30
0.0
 11
1940.999999999822
 21
2111.718641581442
 31
0.0
  0
LINE
  5
1FE
330
1F
100
AcDbEntity
  8
LAY-10
  6
CONTINUOUS
 62
     7
100
AcDbLine
 10
1925.999999999821
 20
1324.718641581444
 30
0.0
 11
1940.999999999821
 21
1309.718641581446
 31
0.0
  0
LINE
  5
1FF
330
1F
100
AcDbEntity
  8
LAY-10
  6
CONTINUOUS
 62
     7
100
AcDbLine
 10
1925.999999999822
 20
2096.718641581442
 30
0.0
 11
1925.999999999821
 21
1324.718641581443
 31
0.0
  0
LINE
  5
200
330
1F
100
AcDbEntity
  8
LAY-10
  6
CONTINUOUS
 62
     7
100
AcDbLine
 10
1940.999999999821
 20
1309.718641581444
 30
0.0
 11
1940.999999999822
 21
2111.718641581442
 31
0.0
  0
LINE
  5
201
330
1F
100
AcDbEntity
  8
LAY-10
  6
CONTINUOUS
 62
     7
100
AcDbLine
 10
510.0958862580009
 20
1956.218641581466
 30
0.0
 11
510.0958862580009
 21
1965.218641581466
 31
0.0
  0
LINE
  5
202
330
1F
100
AcDbEntity
  8
LAY-10
  6
CONTINUOUS
 62
     7
100
AcDbLine
 10
538.994371067838
 20
1965.218641581466
 30
0.0
 11
510.0958862580009
 21
1965.218641581466
 31
0.0
  0
LINE
  5
203
330
1F
100
AcDbEntity
  8
LAY-10
  6
CONTINUOUS
 62
     7
100
AcDbLine
 10
538.994371067838
 20
1956.218641581466
 30
0.0
 11
510.0958862580009
 21
1956.218641581466
 31
0.0
  0
LINE
  5
204
330
1F
100
AcDbEntity
  8
LAY-10
  6
CONTINUOUS
 62
     7
100
AcDbLine
 10
510.0958862580009
 20
1465.218641581505
 30
0.0
 11
510.0958862580009
 21
1456.218641581504
 31
0.0
  0
LINE
  5
205
330
1F
100
AcDbEntity
  8
LAY-10
  6
CONTINUOUS
 62
     7
100
AcDbLine
 10
538.994371067838
 20
1456.218641581504
 30
0.0
 11
510.0958862580009
 21
1456.218641581504
 31
0.0
  0
LINE
  5
206
330
1F
100
AcDbEntity
  8
LAY-10
  6
CONTINUOUS
 62
     7
100
AcDbLine
 10
538.994371067838
 20
1465.218641581504
 30
0.0
 11
510.0958862580009
 21
1465.218641581505
 31
0.0
  0
LINE
  5
207
330
1F
100
AcDbEntity
  8
LAY-10
  6
CONTINUOUS
 62
     7
100
AcDbLine
 10
538.9999999999209
 20
2111.718641581442
 30
0.0
 11
553.9999999999209
 21
2096.718641581442
 31
0.0
  0
LINE
  5
208
330
1F
100
AcDbEntity
  8
LAY-10
  6
CONTINUOUS
 62
     7
100
AcDbLine
 10
553.9999999999171
 20
1324.718641581444
 30
0.0
 11
538.9999999999171
 21
1309.718641581444
 31
0.0
  0
LINE
  5
209
330
1F
100
AcDbEntity
  8
LAY-10
  6
CONTINUOUS
 62
     7
100
AcDbLine
 10
553.9999999999171
 20
1324.718641581444
 30
0.0
 11
553.9999999999209
 21
2096.718641581442
 31
0.0
  0
LINE
  5
20A
330
1F
100
AcDbEntity
  8
LAY-10
  6
CONTINUOUS
 62
     7
100
AcDbLine
 10
538.9999999999171
 20
1309.718641581444
 30
0.0
 11
538.9999999999209
 21
2111.718641581442
 31
0.0
  0
LINE
  5
20B
330
1F
100
AcDbEntity
  8
LAY-10
  6
CONTINUOUS
 62
     7
100
AcDbLine
 10
538.9999999999209
 20
2111.718641581442
 30
0.0
 11
1940.999999999822
 21
2111.718641581442
 31
0.0
  0
LINE
  5
20C
330
1F
100
AcDbEntity
  8
LAY-10
  6
CONTINUOUS
 62
     7
100
AcDbLine
 10
1925.999999999822
 20
2096.718641581442
 30
0.0
 11
553.9999999999209
 21
2096.718641581442
 31
0.0
  0
LINE
  5
20D
330
1F
100
AcDbEntity
  8
LAY-10
  6
CONTINUOUS
 62
     7
100
AcDbLine
 10
538.9999999999171
 20
1309.718641581444
 30
0.0
 11
1940.999999999821
 21
1309.718641581443
 31
0.0
  0
LINE
  5
20E
330
1F
100
AcDbEntity
  8
LAY-10
  6
CONTINUOUS
 62
     7
100
AcDbLine
 10
1925.999999999821
 20
1324.718641581443
 30
0.0
 11
553.9999999999171
 21
1324.718641581444
 31
0.0
  0
LINE
  5
20F
330
1F
100
AcDbEntity
  8
LAY-10
  6
CONTINUOUS
 62
     7
100
AcDbLine
 10
1744.499999999983
 20
2111.715827115208
 30
0.0
 11
1744.499999999983
 21
2140.614311925045
 31
0.0
  0
LINE
  5
210
330
1F
100
AcDbEntity
  8
LAY-10
  6
CONTINUOUS
 62
     7
100
AcDbLine
 10
1735.499999999982
 20
2111.715827115208
 30
0.0
 11
1735.499999999982
 21
2140.614311925045
 31
0.0
  0
LINE
  5
211
330
1F
100
AcDbEntity
  8
LAY-10
  6
CONTINUOUS
 62
     7
100
AcDbLine
 10
1744.499999999983
 20
2140.614311925045
 30
0.0
 11
1735.499999999982
 21
2140.614311925045
 31
0.0
  0
LINE
  5
212
330
1F
100
AcDbEntity
  8
LAY-10
  6
CONTINUOUS
 62
     7
100
AcDbLine
 10
1244.499999999983
 20
2111.715827115208
 30
0.0
 11
1244.499999999983
 21
2140.614311925045
 31
0.0
  0
LINE
  5
213
330
1F
100
AcDbEntity
  8
LAY-10
  6
CONTINUOUS
 62
     7
100
AcDbLine
 10
1235.499999999982
 20
2111.715827115208
 30
0.0
 11
1235.499999999982
 21
2140.614311925045
 31
0.0
  0
LINE
  5
214
330
1F
100
AcDbEntity
  8
LAY-10
  6
CONTINUOUS
 62
     7
100
AcDbLine
 10
1244.499999999983
 20
2140.614311925045
 30
0.0
 11
1235.499999999982
 21
2140.614311925045
 31
0.0
  0
LINE
  5
215
330
1F
100
AcDbEntity
  8
LAY-10
  6
CONTINUOUS
 62
     7
100
AcDbLine
 10
744.4999999999328
 20
2111.715827115208
 30
0.0
 11
744.4999999999328
 21
2140.614311925045
 31
0.0
  0
LINE
  5
216
330
1F
100
AcDbEntity
  8
LAY-10
  6
CONTINUOUS
 62
     7
100
AcDbLine
 10
735.4999999999319
 20
2111.715827115208
 30
0.0
 11
735.4999999999319
 21
2140.614311925045
 31
0.0
  0
LINE
  5
217
330
1F
100
AcDbEntity
  8
LAY-10
  6
CONTINUOUS
 62
     7
100
AcDbLine
 10
744.4999999999328
 20
2140.614311925045
 30
0.0
 11
735.4999999999319
 21
2140.614311925045
 31
0.0
  0
LINE
  5
218
330
1F
100
AcDbEntity
  8
LAY-10
  6
CONTINUOUS
 62
     7
100
AcDbLine
 10
1744.499999999983
 20
1309.721456047879
 30
0.0
 11
1744.499999999983
 21
1280.822971238041
 31
0.0
  0
LINE
  5
219
330
1F
100
AcDbEntity
  8
LAY-10
  6
CONTINUOUS
 62
     7
100
AcDbLine
 10
1735.499999999982
 20
1309.721456047879
 30
0.0
 11
1735.499999999982
 21
1280.822971238041
 31
0.0
  0
LINE
  5
21A
330
1F
100
AcDbEntity
  8
LAY-10
  6
CONTINUOUS
 62
     7
100
AcDbLine
 10
1744.499999999983
 20
1280.822971238041
 30
0.0
 11
1735.499999999982
 21
1280.822971238041
 31
0.0
  0
LINE
  5
21B
330
1F
100
AcDbEntity
  8
LAY-10
  6
CONTINUOUS
 62
     7
100
AcDbLine
 10
1244.499999999983
 20
1309.721456047878
 30
0.0
 11
1244.499999999983
 21
1280.822971238041
 31
0.0
  0
LINE
  5
21C
330
1F
100
AcDbEntity
  8
LAY-10
  6
CONTINUOUS
 62
     7
100
AcDbLine
 10
1235.499999999982
 20
1309.721456047878
 30
0.0
 11
1235.499999999982
 21
1280.822971238041
 31
0.0
  0
LINE
  5
21D
330
1F
100
AcDbEntity
  8
LAY-10
  6
CONTINUOUS
 62
     7
100
AcDbLine
 10
1244.499999999983
 20
1280.822971238041
 30
0.0
 11
1235.499999999982
 21
1280.822971238041
 31
0.0
  0
LINE
  5
21E
330
1F
100
AcDbEntity
  8
LAY-10
  6
CONTINUOUS
 62
     7
100
AcDbLine
 10
744.4999999999332
 20
1309.721456047877
 30
0.0
 11
744.4999999999332
 21
1280.82297123804
 31
0.0
  0
LINE
  5
21F
330
1F
100
AcDbEntity
  8
LAY-10
  6
CONTINUOUS
 62
     7
100
AcDbLine
 10
735.4999999999322
 20
1309.721456047877
 30
0.0
 11
735.4999999999322
 21
1280.82297123804
 31
0.0
  0
LINE
  5
220
330
1F
100
AcDbEntity
  8
LAY-10
  6
CONTINUOUS
 62
     7
100
AcDbLine
 10
744.4999999999332
 20
1280.82297123804
 30
0.0
 11
735.4999999999322
 21
1280.82297123804
 31
0.0
  0
CIRCLE
  5
221
330
1F
100
AcDbEntity
  8
LAY-10
  6
CONTINUOUS
 62
     7
100
AcDbCircle
 10
782.4999999999205
 20
2070.71864158144
 30
0.0
 40
13.00000000000001
  0
LINE
  5
222
330
1F
100
AcDbEntity
  8
LAY-10
  6
CONTINUOUS
 62
     7
100
AcDbLine
 10
778.4999999999206
 20
2070.718641581446
 30
0.0
 11
782.4999999999205
 21
2064.218641581446
 31
0.0
  0
LINE
  5
223
330
1F
100
AcDbEntity
  8
LAY-10
  6
CONTINUOUS
 62
     7
100
AcDbLine
 10
782.4999999999205
 20
2077.218641581446
 30
0.0
 11
778.4999999999206
 21
2070.718641581446
 31
0.0
  0
LINE
  5
224
330
1F
100
AcDbEntity
  8
LAY-10
  6
CONTINUOUS
 62
     7
100
AcDbLine
 10
786.4999999999205
 20
2070.718641581446
 30
0.0
 11
782.4999999999205
 21
2077.218641581446
 31
0.0
  0
LINE
  5
225
330
1F
100
AcDbEntity
  8
LAY-10
  6
CONTINUOUS
 62
     7
100
AcDbLine
 10
782.4999999999205
 20
2064.218641581446
 30
0.0
 11
786.4999999999205
 21
2070.718641581446
 31
0.0
  0
ARC
  5
226
330
1F
100
AcDbEntity
  8
LAY-10
  6
CONTINUOUS
 62
     7
100
AcDbCircle
 10
782.4999999999205
 20
2070.718641581446
 30
0.0
 40
12.75000000000001
100
AcDbArc
 50
18.2838899404031
 51
341.7161100595971
  0
LINE
  5
227
330
1F
100
AcDbEntity
  8
LAY-10
  6
CONTINUOUS
 62
     7
100
AcDbLine
 10
792.9999999999205
 20
2074.718641581445
 30
0.0
 11
792.9999999999205
 21
2066.718641581447
 31
0.0
  0
LINE
  5
228
330
1F
100
AcDbEntity
  8
LAY-10
  6
CONTINUOUS
 62
     7
100
AcDbLine
 10
792.9999999999205
 20
2074.718641581445
 30
0.0
 11
794.6063000127239
 21
2074.718641581445
 31
0.0
  0
LINE
  5
229
330
1F
100
AcDbEntity
  8
LAY-10
  6
CONTINUOUS
 62
     7
100
AcDbLine
 10
792.9999999999205
 20
2066.718641581447
 30
0.0
 11
794.6063000127239
 21
2066.718641581447
 31
0.0
  0
CIRCLE
  5
22A
330
1F
100
AcDbEntity
  8
LAY-10
  6
CONTINUOUS
 62
     7
100
AcDbCircle
 10
782.499999999921
 20
1350.718641581645
 30
0.0
 40
13.00000000000001
  0
LINE
  5
22B
330
1F
100
AcDbEntity
  8
LAY-10
  6
CONTINUOUS
 62
     7
100
AcDbLine
 10
778.499999999921
 20
1350.71864158164
 30
0.0
 11
782.499999999921
 21
1357.21864158164
 31
0.0
  0
LINE
  5
22C
330
1F
100
AcDbEntity
  8
LAY-10
  6
CONTINUOUS
 62
     7
100
AcDbLine
 10
782.499999999921
 20
1344.21864158164
 30
0.0
 11
778.499999999921
 21
1350.71864158164
 31
0.0
  0
LINE
  5
22D
330
1F
100
AcDbEntity
  8
LAY-10
  6
CONTINUOUS
 62
     7
100
AcDbLine
 10
786.499999999921
 20
1350.71864158164
 30
0.0
 11
782.499999999921
 21
1344.21864158164
 31
0.0
  0
LINE
  5
22E
330
1F
100
AcDbEntity
  8
LAY-10
  6
CONTINUOUS
 62
     7
100
AcDbLine
 10
782.499999999921
 20
1357.21864158164
 30
0.0
 11
786.499999999921
 21
1350.71864158164
 31
0.0
  0
ARC
  5
22F
330
1F
100
AcDbEntity
  8
LAY-10
  6
CONTINUOUS
 62
     7
100
AcDbCircle
 10
782.499999999921
 20
1350.71864158164
 30
0.0
 40
12.75000000000001
100
AcDbArc
 50
18.2838899404031
 51
341.716110059597
  0
LINE
  5
230
330
1F
100
AcDbEntity
  8
LAY-10
  6
CONTINUOUS
 62
     7
100
AcDbLine
 10
792.9999999999211
 20
1346.71864158164
 30
0.0
 11
792.9999999999211
 21
1354.718641581639
 31
0.0
  0
LINE
  5
231
330
1F
100
AcDbEntity
  8
LAY-10
  6
CONTINUOUS
 62
     7
100
AcDbLine
 10
792.9999999999211
 20
1346.71864158164
 30
0.0
 11
794.6063000127243
 21
1346.71864158164
 31
0.0
  0
LINE
  5
232
330
1F
100
AcDbEntity
  8
LAY-10
  6
CONTINUOUS
 62
     7
100
AcDbLine
 10
792.9999999999211
 20
1354.718641581639
 30
0.0
 11
794.6063000127243
 21
1354.718641581639
 31
0.0
  0
LINE
  5
233
330
1F
100
AcDbEntity
  8
LAY-10
  6
CONTINUOUS
 62
     7
100
AcDbLine
 10
842.9273120237249
 20
1349.547642849408
 30
0.0
 11
860.1116523514806
 21
1332.363302521361
 31
0.0
  0
LINE
  5
234
330
1F
100
AcDbEntity
  8
LAY-10
  6
CONTINUOUS
 62
     7
100
AcDbLine
 10
983.8553390593819
 20
1332.363302524164
 30
0.0
 11
977.2106781169188
 21
1325.718641581363
 31
0.0
  0
LINE
  5
235
330
1F
100
AcDbEntity
  8
LAY-10
  6
CONTINUOUS
 62
     7
100
AcDbLine
 10
1001.533008587581
 20
1350.040972052964
 30
0.0
 11
1009.999999999906
 21
1358.507963465435
 31
0.0
  0
LINE
  5
236
330
1F
100
AcDbEntity
  8
LAY-10
  6
CONTINUOUS
 62
     7
100
AcDbLine
 10
906.4999999991769
 20
1325.718641581361
 30
0.0
 11
913.1446609413845
 21
1332.363302523157
 31
0.0
  0
LINE
  5
237
330
1F
100
AcDbEntity
  8
LAY-10
  6
CONTINUOUS
 62
     7
100
AcDbLine
 10
1001.533008588881
 20
1385.396311109362
 30
0.0
 11
1009.999999999881
 21
1393.863302520506
 31
0.0
  0
LINE
  5
238
330
1F
100
AcDbEntity
  8
LAY-10
  6
CONTINUOUS
 62
     7
100
AcDbLine
 10
966.1776695295811
 20
1385.396311110362
 30
0.0
 11
983.8553390592813
 21
1403.07398064036
 31
0.0
  0
LINE
  5
239
330
1F
100
AcDbEntity
  8
LAY-10
  6
CONTINUOUS
 62
     7
100
AcDbLine
 10
983.8553390592813
 20
1420.751650169361
 30
0.0
 11
1001.533008588981
 21
1403.07398064036
 31
0.0
  0
LINE
  5
23A
330
1F
100
AcDbEntity
  8
LAY-10
  6
CONTINUOUS
 62
     7
100
AcDbLine
 10
948.4999999999811
 20
1420.751650169362
 30
0.0
 11
966.1776695295811
 21
1403.07398064036
 31
0.0
  0
LINE
  5
23B
330
1F
100
AcDbEntity
  8
LAY-10
  6
CONTINUOUS
 62
     7
100
AcDbLine
 10
860.1116523515813
 20
1367.718641581361
 30
0.0
 11
842.433982821881
 21
1385.396311110362
 31
0.0
  0
LINE
  5
23C
330
1F
100
AcDbEntity
  8
LAY-10
  6
CONTINUOUS
 62
     7
100
AcDbLine
 10
877.7893218811812
 20
1403.073980640361
 30
0.0
 11
860.1116523515813
 21
1385.396311110362
 31
0.0
  0
LINE
  5
23D
330
1F
100
AcDbEntity
  8
LAY-10
  6
CONTINUOUS
 62
     7
100
AcDbLine
 10
877.7893218811812
 20
1367.718641581361
 30
0.0
 11
860.1116523515813
 21
1350.040972051361
 31
0.0
  0
LINE
  5
23E
330
1F
100
AcDbEntity
  8
LAY-10
  6
CONTINUOUS
 62
     7
100
AcDbLine
 10
895.4669914108811
 20
1403.073980640361
 30
0.0
 11
877.7893218811812
 21
1420.751650169361
 31
0.0
  0
LINE
  5
23F
330
1F
100
AcDbEntity
  8
LAY-10
  6
CONTINUOUS
 62
     7
100
AcDbLine
 10
930.8223304701812
 20
1385.396311110362
 30
0.0
 11
948.4999999998811
 21
1403.073980640361
 31
0.0
  0
LINE
  5
240
330
1F
100
AcDbEntity
  8
LAY-10
  6
CONTINUOUS
 62
     7
100
AcDbLine
 10
930.8223304701812
 20
1403.073980640361
 30
0.0
 11
913.1446609405813
 21
1420.751650169361
 31
0.0
  0
LINE
  5
241
330
1F
100
AcDbEntity
  8
LAY-10
  6
CONTINUOUS
 62
     7
100
AcDbLine
 10
895.4669914108811
 20
1367.718641581361
 30
0.0
 11
877.7893218811812
 21
1385.396311110362
 31
0.0
  0
LINE
  5
242
330
1F
100
AcDbEntity
  8
LAY-10
  6
CONTINUOUS
 62
     7
100
AcDbLine
 10
877.7893218811812
 20
1350.040972051361
 30
0.0
 11
895.4669914108811
 21
1332.363302521362
 31
0.0
  0
LINE
  5
243
330
1F
100
AcDbEntity
  8
LAY-10
  6
CONTINUOUS
 62
     7
100
AcDbLine
 10
1001.533008589081
 20
1491.462328287362
 30
0.0
 11
1009.999999999881
 21
1499.929319698306
 31
0.0
  0
LINE
  5
244
330
1F
100
AcDbEntity
  8
LAY-10
  6
CONTINUOUS
 62
     7
100
AcDbLine
 10
966.1776695296811
 20
1456.106989228362
 30
0.0
 11
983.8553390593804
 21
1473.784658758362
 31
0.0
  0
LINE
  5
245
330
1F
100
AcDbEntity
  8
LAY-10
  6
CONTINUOUS
 62
     7
100
AcDbLine
 10
1001.533008588981
 20
1473.784658758362
 30
0.0
 11
983.8553390593804
 21
1491.462328287361
 31
0.0
  0
LINE
  5
246
330
1F
100
AcDbEntity
  8
LAY-10
  6
CONTINUOUS
 62
     7
100
AcDbLine
 10
1001.533008588981
 20
1456.106989228362
 30
0.0
 11
1009.999999999881
 21
1464.573980639406
 31
0.0
  0
LINE
  5
247
330
1F
100
AcDbEntity
  8
LAY-10
  6
CONTINUOUS
 62
     7
100
AcDbLine
 10
1001.533008588981
 20
1420.751650169361
 30
0.0
 11
1009.999999999881
 21
1429.218641580405
 31
0.0
  0
LINE
  5
248
330
1F
100
AcDbEntity
  8
LAY-10
  6
CONTINUOUS
 62
     7
100
AcDbLine
 10
983.8553390593804
 20
1456.106989228362
 30
0.0
 11
1001.533008588981
 21
1438.429319699361
 31
0.0
  0
LINE
  5
249
330
1F
100
AcDbEntity
  8
LAY-10
  6
CONTINUOUS
 62
     7
100
AcDbLine
 10
966.1776695296811
 20
1473.784658758362
 30
0.0
 11
948.4999999999811
 21
1491.462328287361
 31
0.0
  0
LINE
  5
24A
330
1F
100
AcDbEntity
  8
LAY-10
  6
CONTINUOUS
 62
     7
100
AcDbLine
 10
948.4999999999811
 20
1473.784658758362
 30
0.0
 11
930.8223304702813
 21
1456.106989228361
 31
0.0
  0
LINE
  5
24B
330
1F
100
AcDbEntity
  8
LAY-10
  6
CONTINUOUS
 62
     7
100
AcDbLine
 10
930.8223304702813
 20
1438.429319699362
 30
0.0
 11
913.1446609405813
 21
1456.106989228361
 31
0.0
  0
LINE
  5
24C
330
1F
100
AcDbEntity
  8
LAY-10
  6
CONTINUOUS
 62
     7
100
AcDbLine
 10
966.1776695295811
 20
1420.751650169361
 30
0.0
 11
983.8553390592813
 21
1438.429319699361
 31
0.0
  0
LINE
  5
24D
330
1F
100
AcDbEntity
  8
LAY-10
  6
CONTINUOUS
 62
     7
100
AcDbLine
 10
930.8223304702813
 20
1420.751650169362
 30
0.0
 11
948.4999999999811
 21
1438.429319699362
 31
0.0
  0
LINE
  5
24E
330
1F
100
AcDbEntity
  8
LAY-10
  6
CONTINUOUS
 62
     7
100
AcDbLine
 10
966.1776695295811
 20
1438.429319699361
 30
0.0
 11
948.4999999999811
 21
1456.106989228361
 31
0.0
  0
LINE
  5
24F
330
1F
100
AcDbEntity
  8
LAY-10
  6
CONTINUOUS
 62
     7
100
AcDbLine
 10
983.8553390593804
 20
1509.139997817362
 30
0.0
 11
966.1776695296811
 21
1491.462328287361
 31
0.0
  0
LINE
  5
250
330
1F
100
AcDbEntity
  8
LAY-10
  6
CONTINUOUS
 62
     7
100
AcDbLine
 10
1001.533008589081
 20
1509.139997817362
 30
0.0
 11
983.8553390593804
 21
1526.817667346362
 31
0.0
  0
LINE
  5
251
330
1F
100
AcDbEntity
  8
LAY-10
  6
CONTINUOUS
 62
     7
100
AcDbLine
 10
1009.999999999881
 20
1535.284658757306
 30
0.0
 11
1001.533008589081
 21
1526.817667346362
 31
0.0
  0
LINE
  5
252
330
1F
100
AcDbEntity
  8
LAY-10
  6
CONTINUOUS
 62
     7
100
AcDbLine
 10
871.1446609403938
 20
1325.718641581361
 30
0.0
 11
877.7893218812812
 21
1332.363302522361
 31
0.0
  0
LINE
  5
253
330
1F
100
AcDbEntity
  8
LAY-10
  6
CONTINUOUS
 62
     7
100
AcDbLine
 10
835.7893218807171
 20
1325.718641581361
 30
0.0
 11
842.4339828209806
 21
1332.363302521362
 31
0.0
  0
LINE
  5
254
330
1F
100
AcDbEntity
  8
LAY-10
  6
CONTINUOUS
 62
     7
100
AcDbLine
 10
800.4339828210473
 20
1325.718641581361
 30
0.0
 11
807.0786437613108
 21
1332.363302521362
 31
0.0
  0
LINE
  5
255
330
1F
100
AcDbEntity
  8
LAY-10
  6
CONTINUOUS
 62
     7
100
AcDbLine
 10
895.4669914108811
 20
1385.396311110362
 30
0.0
 11
913.1446609405813
 21
1403.073980640361
 31
0.0
  0
LINE
  5
256
330
1F
100
AcDbEntity
  8
LAY-10
  6
CONTINUOUS
 62
     7
100
AcDbLine
 10
913.1446609405813
 20
1438.429319699362
 30
0.0
 11
895.4669914108811
 21
1420.751650169361
 31
0.0
  0
LINE
  5
257
330
1F
100
AcDbEntity
  8
LAY-10
  6
CONTINUOUS
 62
     7
100
AcDbLine
 10
966.1776695291817
 20
1350.040972051963
 30
0.0
 11
983.8553390588802
 21
1367.718641581962
 31
0.0
  0
LINE
  5
258
330
1F
100
AcDbEntity
  8
LAY-10
  6
CONTINUOUS
 62
     7
100
AcDbLine
 10
983.8553390591812
 20
1350.040972052264
 30
0.0
 11
1001.533008588482
 21
1332.363302522964
 31
0.0
  0
LINE
  5
259
330
1F
100
AcDbEntity
  8
LAY-10
  6
CONTINUOUS
 62
     7
100
AcDbLine
 10
1001.533008587882
 20
1367.718641582362
 30
0.0
 11
983.8553390585801
 21
1385.396311111662
 31
0.0
  0
LINE
  5
25A
330
1F
100
AcDbEntity
  8
LAY-10
  6
CONTINUOUS
 62
     7
100
AcDbLine
 10
895.4669914108811
 20
1350.040972051361
 30
0.0
 11
908.9999999998806
 21
1363.57398064059
 31
0.0
  0
LINE
  5
25B
330
1F
100
AcDbEntity
  8
LAY-10
  6
CONTINUOUS
 62
     7
100
AcDbLine
 10
966.1776695290831
 20
1332.363302523562
 30
0.0
 11
948.4999999997825
 21
1350.040972052861
 31
0.0
  0
LINE
  5
25C
330
1F
100
AcDbEntity
  8
LAY-10
  6
CONTINUOUS
 62
     7
100
AcDbLine
 10
948.5000000010816
 20
1367.718641581861
 30
0.0
 11
930.822330471083
 21
1350.040972052159
 31
0.0
  0
LINE
  5
25D
330
1F
100
AcDbEntity
  8
LAY-10
  6
CONTINUOUS
 62
     7
100
AcDbLine
 10
913.1446609420825
 20
1350.040972052158
 30
0.0
 11
930.8223304710847
 21
1332.36330252246
 31
0.0
  0
LINE
  5
25E
330
1F
100
AcDbEntity
  8
LAY-10
  6
CONTINUOUS
 62
     7
100
AcDbLine
 10
913.1446609420797
 20
1385.396311111458
 30
0.0
 11
930.8223304710822
 21
1367.71864158186
 31
0.0
  0
LINE
  5
25F
330
1F
100
AcDbEntity
  8
LAY-10
  6
CONTINUOUS
 62
     7
100
AcDbLine
 10
948.500000002083
 20
1332.363302522561
 30
0.0
 11
941.8553390607709
 21
1325.718641581361
 31
0.0
  0
LINE
  5
260
330
1F
100
AcDbEntity
  8
LAY-10
  6
CONTINUOUS
 62
     7
100
AcDbLine
 10
948.5000000001806
 20
1385.396311110661
 30
0.0
 11
966.1776695294805
 21
1367.718641581361
 31
0.0
  0
LINE
  5
261
330
1F
100
AcDbEntity
  8
LAY-10
  6
CONTINUOUS
 62
     7
100
AcDbLine
 10
824.7563132932802
 20
1350.040972050362
 30
0.0
 11
842.4339828225802
 21
1367.718641580662
 31
0.0
  0
LINE
  5
262
330
1F
100
AcDbEntity
  8
LAY-10
  6
CONTINUOUS
 62
     7
100
AcDbLine
 10
824.7563132939788
 20
1332.363302520662
 30
0.0
 11
807.0786437642803
 21
1350.040972049663
 31
0.0
  0
LINE
  5
263
330
1F
100
AcDbEntity
  8
LAY-10
  6
CONTINUOUS
 62
     7
100
AcDbLine
 10
1009.999999999921
 20
1325.718641581443
 30
0.0
 11
1009.999999999919
 21
2095.718641581443
 31
0.0
  0
LINE
  5
264
330
1F
100
AcDbEntity
  8
LAY-10
  6
CONTINUOUS
 62
     7
100
AcDbLine
 10
722.072687976096
 20
2071.889640313392
 30
0.0
 11
704.8883476483402
 21
2089.073980641439
 31
0.0
  0
LINE
  5
265
330
1F
100
AcDbEntity
  8
LAY-10
  6
CONTINUOUS
 62
     7
100
AcDbLine
 10
581.1446609404393
 20
2089.073980638636
 30
0.0
 11
587.7893218829021
 21
2095.718641581438
 31
0.0
  0
LINE
  5
266
330
1F
100
AcDbEntity
  8
LAY-10
  6
CONTINUOUS
 62
     7
100
AcDbLine
 10
563.4669914122398
 20
2071.396311109836
 30
0.0
 11
554.999999999915
 21
2062.929319697366
 31
0.0
  0
LINE
  5
267
330
1F
100
AcDbEntity
  8
LAY-10
  6
CONTINUOUS
 62
     7
100
AcDbLine
 10
658.5000000006439
 20
2095.718641581439
 30
0.0
 11
651.8553390584361
 21
2089.073980639643
 31
0.0
  0
LINE
  5
268
330
1F
100
AcDbEntity
  8
LAY-10
  6
CONTINUOUS
 62
     7
100
AcDbLine
 10
563.4669914109397
 20
2036.040972053438
 30
0.0
 11
554.99999999994
 21
2027.573980642294
 31
0.0
  0
LINE
  5
269
330
1F
100
AcDbEntity
  8
LAY-10
  6
CONTINUOUS
 62
     7
100
AcDbLine
 10
598.82233047024
 20
2036.040972052438
 30
0.0
 11
581.1446609405398
 21
2018.36330252244
 31
0.0
  0
LINE
  5
26A
330
1F
100
AcDbEntity
  8
LAY-10
  6
CONTINUOUS
 62
     7
100
AcDbLine
 10
581.1446609405398
 20
2000.685632993439
 30
0.0
 11
563.4669914108397
 21
2018.36330252244
 31
0.0
  0
LINE
  5
26B
330
1F
100
AcDbEntity
  8
LAY-10
  6
CONTINUOUS
 62
     7
100
AcDbLine
 10
616.4999999998397
 20
2000.685632993438
 30
0.0
 11
598.82233047024
 21
2018.36330252244
 31
0.0
  0
LINE
  5
26C
330
1F
100
AcDbEntity
  8
LAY-10
  6
CONTINUOUS
 62
     7
100
AcDbLine
 10
704.8883476482396
 20
2053.718641581439
 30
0.0
 11
722.5660171779399
 21
2036.040972052438
 31
0.0
  0
LINE
  5
26D
330
1F
100
AcDbEntity
  8
LAY-10
  6
CONTINUOUS
 62
     7
100
AcDbLine
 10
687.2106781186399
 20
2018.363302522439
 30
0.0
 11
704.8883476482396
 21
2036.040972052438
 31
0.0
  0
LINE
  5
26E
330
1F
100
AcDbEntity
  8
LAY-10
  6
CONTINUOUS
 62
     7
100
AcDbLine
 10
687.2106781186399
 20
2053.718641581439
 30
0.0
 11
704.8883476482396
 21
2071.396311111439
 31
0.0
  0
LINE
  5
26F
330
1F
100
AcDbEntity
  8
LAY-10
  6
CONTINUOUS
 62
     7
100
AcDbLine
 10
669.5330085889399
 20
2018.363302522439
 30
0.0
 11
687.2106781186399
 21
2000.685632993439
 31
0.0
  0
LINE
  5
270
330
1F
100
AcDbEntity
  8
LAY-10
  6
CONTINUOUS
 62
     7
100
AcDbLine
 10
634.1776695296398
 20
2036.040972052438
 30
0.0
 11
616.4999999999397
 21
2018.363302522439
 31
0.0
  0
LINE
  5
271
330
1F
100
AcDbEntity
  8
LAY-10
  6
CONTINUOUS
 62
     7
100
AcDbLine
 10
634.1776695296398
 20
2018.363302522439
 30
0.0
 11
651.8553390592396
 21
2000.685632993439
 31
0.0
  0
LINE
  5
272
330
1F
100
AcDbEntity
  8
LAY-10
  6
CONTINUOUS
 62
     7
100
AcDbLine
 10
669.5330085889399
 20
2053.718641581439
 30
0.0
 11
687.2106781186399
 21
2036.040972052438
 31
0.0
  0
LINE
  5
273
330
1F
100
AcDbEntity
  8
LAY-10
  6
CONTINUOUS
 62
     7
100
AcDbLine
 10
687.2106781186399
 20
2071.396311111439
 30
0.0
 11
669.5330085889399
 21
2089.073980641439
 31
0.0
  0
LINE
  5
274
330
1F
100
AcDbEntity
  8
LAY-10
  6
CONTINUOUS
 62
     7
100
AcDbLine
 10
563.4669914107396
 20
1929.974954875438
 30
0.0
 11
554.99999999994
 21
1921.507963464494
 31
0.0
  0
LINE
  5
275
330
1F
100
AcDbEntity
  8
LAY-10
  6
CONTINUOUS
 62
     7
100
AcDbLine
 10
598.82233047014
 20
1965.330293934438
 30
0.0
 11
581.14466094044
 21
1947.652624404439
 31
0.0
  0
LINE
  5
276
330
1F
100
AcDbEntity
  8
LAY-10
  6
CONTINUOUS
 62
     7
100
AcDbLine
 10
563.4669914108397
 20
1947.652624404439
 30
0.0
 11
581.14466094044
 21
1929.974954875439
 31
0.0
  0
LINE
  5
277
330
1F
100
AcDbEntity
  8
LAY-10
  6
CONTINUOUS
 62
     7
100
AcDbLine
 10
563.4669914108397
 20
1965.330293934438
 30
0.0
 11
554.99999999994
 21
1956.863302523395
 31
0.0
  0
LINE
  5
278
330
1F
100
AcDbEntity
  8
LAY-10
  6
CONTINUOUS
 62
     7
100
AcDbLine
 10
563.4669914108397
 20
2000.685632993439
 30
0.0
 11
554.99999999994
 21
1992.218641582395
 31
0.0
  0
LINE
  5
279
330
1F
100
AcDbEntity
  8
LAY-10
  6
CONTINUOUS
 62
     7
100
AcDbLine
 10
581.14466094044
 20
1965.330293934438
 30
0.0
 11
563.4669914108397
 21
1983.007963463439
 31
0.0
  0
LINE
  5
27A
330
1F
100
AcDbEntity
  8
LAY-10
  6
CONTINUOUS
 62
     7
100
AcDbLine
 10
598.82233047014
 20
1947.652624404439
 30
0.0
 11
616.4999999998397
 21
1929.974954875439
 31
0.0
  0
LINE
  5
27B
330
1F
100
AcDbEntity
  8
LAY-10
  6
CONTINUOUS
 62
     7
100
AcDbLine
 10
616.4999999998397
 20
1947.652624404439
 30
0.0
 11
634.1776695295398
 21
1965.330293934439
 31
0.0
  0
LINE
  5
27C
330
1F
100
AcDbEntity
  8
LAY-10
  6
CONTINUOUS
 62
     7
100
AcDbLine
 10
634.1776695295398
 20
1983.007963463438
 30
0.0
 11
651.8553390592396
 21
1965.330293934439
 31
0.0
  0
LINE
  5
27D
330
1F
100
AcDbEntity
  8
LAY-10
  6
CONTINUOUS
 62
     7
100
AcDbLine
 10
598.82233047024
 20
2000.685632993439
 30
0.0
 11
581.1446609405398
 21
1983.007963463439
 31
0.0
  0
LINE
  5
27E
330
1F
100
AcDbEntity
  8
LAY-10
  6
CONTINUOUS
 62
     7
100
AcDbLine
 10
634.1776695295398
 20
2000.685632993438
 30
0.0
 11
616.4999999998397
 21
1983.007963463438
 31
0.0
  0
LINE
  5
27F
330
1F
100
AcDbEntity
  8
LAY-10
  6
CONTINUOUS
 62
     7
100
AcDbLine
 10
598.82233047024
 20
1983.007963463439
 30
0.0
 11
616.4999999998397
 21
1965.330293934439
 31
0.0
  0
LINE
  5
280
330
1F
100
AcDbEntity
  8
LAY-10
  6
CONTINUOUS
 62
     7
100
AcDbLine
 10
581.14466094044
 20
1912.297285345438
 30
0.0
 11
598.82233047014
 21
1929.974954875439
 31
0.0
  0
LINE
  5
281
330
1F
100
AcDbEntity
  8
LAY-10
  6
CONTINUOUS
 62
     7
100
AcDbLine
 10
563.4669914107396
 20
1912.297285345438
 30
0.0
 11
581.14466094044
 21
1894.619615816438
 31
0.0
  0
LINE
  5
282
330
1F
100
AcDbEntity
  8
LAY-10
  6
CONTINUOUS
 62
     7
100
AcDbLine
 10
554.99999999994
 20
1886.152624405494
 30
0.0
 11
563.4669914107396
 21
1894.619615816438
 31
0.0
  0
LINE
  5
283
330
1F
100
AcDbEntity
  8
LAY-10
  6
CONTINUOUS
 62
     7
100
AcDbLine
 10
693.855339059427
 20
2095.718641581439
 30
0.0
 11
687.2106781185398
 21
2089.073980640439
 31
0.0
  0
LINE
  5
284
330
1F
100
AcDbEntity
  8
LAY-10
  6
CONTINUOUS
 62
     7
100
AcDbLine
 10
729.2106781191037
 20
2095.718641581439
 30
0.0
 11
722.56601717884
 21
2089.073980641439
 31
0.0
  0
LINE
  5
285
330
1F
100
AcDbEntity
  8
LAY-10
  6
CONTINUOUS
 62
     7
100
AcDbLine
 10
764.5660171787736
 20
2095.718641581439
 30
0.0
 11
757.9213562385098
 21
2089.073980641439
 31
0.0
  0
LINE
  5
286
330
1F
100
AcDbEntity
  8
LAY-10
  6
CONTINUOUS
 62
     7
100
AcDbLine
 10
669.5330085889399
 20
2036.040972052438
 30
0.0
 11
651.8553390592396
 21
2018.363302522439
 31
0.0
  0
LINE
  5
287
330
1F
100
AcDbEntity
  8
LAY-10
  6
CONTINUOUS
 62
     7
100
AcDbLine
 10
651.8553390592396
 20
1983.007963463438
 30
0.0
 11
669.5330085889399
 21
2000.685632993439
 31
0.0
  0
LINE
  5
288
330
1F
100
AcDbEntity
  8
LAY-10
  6
CONTINUOUS
 62
     7
100
AcDbLine
 10
598.8223304706391
 20
2071.396311110838
 30
0.0
 11
581.1446609409402
 21
2053.718641580838
 31
0.0
  0
LINE
  5
289
330
1F
100
AcDbEntity
  8
LAY-10
  6
CONTINUOUS
 62
     7
100
AcDbLine
 10
581.1446609406398
 20
2071.396311110537
 30
0.0
 11
563.4669914113392
 21
2089.073980639836
 31
0.0
  0
LINE
  5
28A
330
1F
100
AcDbEntity
  8
LAY-10
  6
CONTINUOUS
 62
     7
100
AcDbLine
 10
563.4669914119395
 20
2053.718641580438
 30
0.0
 11
581.1446609412403
 21
2036.040972051139
 31
0.0
  0
LINE
  5
28B
330
1F
100
AcDbEntity
  8
LAY-10
  6
CONTINUOUS
 62
     7
100
AcDbLine
 10
669.5330085889399
 20
2071.396311111439
 30
0.0
 11
655.9999999999403
 21
2057.86330252221
 31
0.0
  0
LINE
  5
28C
330
1F
100
AcDbEntity
  8
LAY-10
  6
CONTINUOUS
 62
     7
100
AcDbLine
 10
598.8223304707379
 20
2089.073980639238
 30
0.0
 11
616.5000000000385
 21
2071.396311109939
 31
0.0
  0
LINE
  5
28D
330
1F
100
AcDbEntity
  8
LAY-10
  6
CONTINUOUS
 62
     7
100
AcDbLine
 10
616.4999999987392
 20
2053.718641580939
 30
0.0
 11
634.1776695287376
 21
2071.396311110641
 31
0.0
  0
LINE
  5
28E
330
1F
100
AcDbEntity
  8
LAY-10
  6
CONTINUOUS
 62
     7
100
AcDbLine
 10
651.8553390577384
 20
2071.396311110642
 30
0.0
 11
634.1776695287361
 21
2089.073980640341
 31
0.0
  0
LINE
  5
28F
330
1F
100
AcDbEntity
  8
LAY-10
  6
CONTINUOUS
 62
     7
100
AcDbLine
 10
651.8553390577412
 20
2036.040972051342
 30
0.0
 11
634.177669528739
 21
2053.718641580941
 31
0.0
  0
LINE
  5
290
330
1F
100
AcDbEntity
  8
LAY-10
  6
CONTINUOUS
 62
     7
100
AcDbLine
 10
616.499999997738
 20
2089.07398064024
 30
0.0
 11
623.1446609390499
 21
2095.718641581439
 31
0.0
  0
LINE
  5
291
330
1F
100
AcDbEntity
  8
LAY-10
  6
CONTINUOUS
 62
     7
100
AcDbLine
 10
616.4999999996402
 20
2036.040972052139
 30
0.0
 11
598.8223304703405
 21
2053.718641581439
 31
0.0
  0
LINE
  5
292
330
1F
100
AcDbEntity
  8
LAY-10
  6
CONTINUOUS
 62
     7
100
AcDbLine
 10
740.2436867065406
 20
2071.396311112439
 30
0.0
 11
722.5660171772406
 21
2053.718641582139
 31
0.0
  0
LINE
  5
293
330
1F
100
AcDbEntity
  8
LAY-10
  6
CONTINUOUS
 62
     7
100
AcDbLine
 10
740.2436867058418
 20
2089.073980642138
 30
0.0
 11
757.9213562355407
 21
2071.396311113138
 31
0.0
  0
LINE
  5
294
330
1F
100
AcDbEntity
  8
LAY-10
  6
CONTINUOUS
 62
     7
100
AcDbLine
 10
554.999999999919
 20
2095.718641581441
 30
0.0
 11
554.999999999919
 21
1325.718641581441
 31
0.0
  0
LINE
  5
295
330
1F
100
AcDbEntity
  8
LAY-10
  6
CONTINUOUS
 62
     7
100
AcDbLine
 10
554.999999999919
 20
2095.718641581441
 30
0.0
 11
1009.999999999919
 21
2095.718641581443
 31
0.0
  0
LINE
  5
296
330
1F
100
AcDbEntity
  8
LAY-10
  6
CONTINUOUS
 62
     7
100
AcDbLine
 10
554.999999999919
 20
1325.718641581441
 30
0.0
 11
1009.999999999921
 21
1325.718641581443
 31
0.0
  0
CIRCLE
  5
297
330
1F
100
AcDbEntity
  8
LAY-10
  6
CONTINUOUS
 62
     7
100
AcDbCircle
 10
1239.999999999971
 20
2070.71864158144
 30
0.0
 40
13.00000000000001
  0
LINE
  5
298
330
1F
100
AcDbEntity
  8
LAY-10
  6
CONTINUOUS
 62
     7
100
AcDbLine
 10
1235.999999999971
 20
2070.718641581446
 30
0.0
 11
1239.999999999971
 21
2064.218641581446
 31
0.0
  0
LINE
  5
299
330
1F
100
AcDbEntity
  8
LAY-10
  6
CONTINUOUS
 62
     7
100
AcDbLine
 10
1239.999999999971
 20
2077.218641581446
 30
0.0
 11
1235.999999999971
 21
2070.718641581446
 31
0.0
  0
LINE
  5
29A
330
1F
100
AcDbEntity
  8
LAY-10
  6
CONTINUOUS
 62
     7
100
AcDbLine
 10
1243.999999999971
 20
2070.718641581446
 30
0.0
 11
1239.999999999971
 21
2077.218641581446
 31
0.0
  0
LINE
  5
29B
330
1F
100
AcDbEntity
  8
LAY-10
  6
CONTINUOUS
 62
     7
100
AcDbLine
 10
1239.999999999971
 20
2064.218641581446
 30
0.0
 11
1243.999999999971
 21
2070.718641581446
 31
0.0
  0
ARC
  5
29C
330
1F
100
AcDbEntity
  8
LAY-10
  6
CONTINUOUS
 62
     7
100
AcDbCircle
 10
1239.999999999971
 20
2070.718641581446
 30
0.0
 40
12.75000000000001
100
AcDbArc
 50
18.2838899404031
 51
341.7161100595971
  0
LINE
  5
29D
330
1F
100
AcDbEntity
  8
LAY-10
  6
CONTINUOUS
 62
     7
100
AcDbLine
 10
1250.499999999971
 20
2074.718641581445
 30
0.0
 11
1250.499999999971
 21
2066.718641581447
 31
0.0
  0
LINE
  5
29E
330
1F
100
AcDbEntity
  8
LAY-10
  6
CONTINUOUS
 62
     7
100
AcDbLine
 10
1250.499999999971
 20
2074.718641581445
 30
0.0
 11
1252.106300012774
 21
2074.718641581445
 31
0.0
  0
LINE
  5
29F
330
1F
100
AcDbEntity
  8
LAY-10
  6
CONTINUOUS
 62
     7
100
AcDbLine
 10
1250.499999999971
 20
2066.718641581447
 30
0.0
 11
1252.106300012774
 21
2066.718641581447
 31
0.0
  0
CIRCLE
  5
2A0
330
1F
100
AcDbEntity
  8
LAY-10
  6
CONTINUOUS
 62
     7
100
AcDbCircle
 10
1239.999999999971
 20
1350.718641581645
 30
0.0
 40
13.00000000000001
  0
LINE
  5
2A1
330
1F
100
AcDbEntity
  8
LAY-10
  6
CONTINUOUS
 62
     7
100
AcDbLine
 10
1235.999999999971
 20
1350.71864158164
 30
0.0
 11
1239.999999999971
 21
1357.21864158164
 31
0.0
  0
LINE
  5
2A2
330
1F
100
AcDbEntity
  8
LAY-10
  6
CONTINUOUS
 62
     7
100
AcDbLine
 10
1239.999999999971
 20
1344.21864158164
 30
0.0
 11
1235.999999999971
 21
1350.71864158164
 31
0.0
  0
LINE
  5
2A3
330
1F
100
AcDbEntity
  8
LAY-10
  6
CONTINUOUS
 62
     7
100
AcDbLine
 10
1243.999999999971
 20
1350.71864158164
 30
0.0
 11
1239.999999999971
 21
1344.21864158164
 31
0.0
  0
LINE
  5
2A4
330
1F
100
AcDbEntity
  8
LAY-10
  6
CONTINUOUS
 62
     7
100
AcDbLine
 10
1239.999999999971
 20
1357.21864158164
 30
0.0
 11
1243.999999999971
 21
1350.71864158164
 31
0.0
  0
ARC
  5
2A5
330
1F
100
AcDbEntity
  8
LAY-10
  6
CONTINUOUS
 62
     7
100
AcDbCircle
 10
1239.999999999971
 20
1350.71864158164
 30
0.0
 40
12.75000000000001
100
AcDbArc
 50
18.2838899404031
 51
341.716110059597
  0
LINE
  5
2A6
330
1F
100
AcDbEntity
  8
LAY-10
  6
CONTINUOUS
 62
     7
100
AcDbLine
 10
1250.499999999971
 20
1346.71864158164
 30
0.0
 11
1250.499999999971
 21
1354.718641581639
 31
0.0
  0
LINE
  5
2A7
330
1F
100
AcDbEntity
  8
LAY-10
  6
CONTINUOUS
 62
     7
100
AcDbLine
 10
1250.499999999971
 20
1346.71864158164
 30
0.0
 11
1252.106300012774
 21
1346.71864158164
 31
0.0
  0
LINE
  5
2A8
330
1F
100
AcDbEntity
  8
LAY-10
  6
CONTINUOUS
 62
     7
100
AcDbLine
 10
1250.499999999971
 20
1354.718641581639
 30
0.0
 11
1252.106300012774
 21
1354.718641581639
 31
0.0
  0
LINE
  5
2A9
330
1F
100
AcDbEntity
  8
LAY-10
  6
CONTINUOUS
 62
     7
100
AcDbLine
 10
1300.427312023775
 20
1349.547642849408
 30
0.0
 11
1317.611652351531
 21
1332.363302521361
 31
0.0
  0
LINE
  5
2AA
330
1F
100
AcDbEntity
  8
LAY-10
  6
CONTINUOUS
 62
     7
100
AcDbLine
 10
1441.355339059432
 20
1332.363302524164
 30
0.0
 11
1434.710678116969
 21
1325.718641581363
 31
0.0
  0
LINE
  5
2AB
330
1F
100
AcDbEntity
  8
LAY-10
  6
CONTINUOUS
 62
     7
100
AcDbLine
 10
1459.033008587631
 20
1350.040972052964
 30
0.0
 11
1467.499999999956
 21
1358.507963465435
 31
0.0
  0
LINE
  5
2AC
330
1F
100
AcDbEntity
  8
LAY-10
  6
CONTINUOUS
 62
     7
100
AcDbLine
 10
1363.999999999227
 20
1325.718641581361
 30
0.0
 11
1370.644660941434
 21
1332.363302523157
 31
0.0
  0
LINE
  5
2AD
330
1F
100
AcDbEntity
  8
LAY-10
  6
CONTINUOUS
 62
     7
100
AcDbLine
 10
1459.033008588931
 20
1385.396311109362
 30
0.0
 11
1467.499999999931
 21
1393.863302520506
 31
0.0
  0
LINE
  5
2AE
330
1F
100
AcDbEntity
  8
LAY-10
  6
CONTINUOUS
 62
     7
100
AcDbLine
 10
1423.677669529631
 20
1385.396311110362
 30
0.0
 11
1441.355339059331
 21
1403.07398064036
 31
0.0
  0
LINE
  5
2AF
330
1F
100
AcDbEntity
  8
LAY-10
  6
CONTINUOUS
 62
     7
100
AcDbLine
 10
1441.355339059331
 20
1420.751650169361
 30
0.0
 11
1459.033008589031
 21
1403.07398064036
 31
0.0
  0
LINE
  5
2B0
330
1F
100
AcDbEntity
  8
LAY-10
  6
CONTINUOUS
 62
     7
100
AcDbLine
 10
1406.000000000031
 20
1420.751650169362
 30
0.0
 11
1423.677669529631
 21
1403.07398064036
 31
0.0
  0
LINE
  5
2B1
330
1F
100
AcDbEntity
  8
LAY-10
  6
CONTINUOUS
 62
     7
100
AcDbLine
 10
1317.611652351631
 20
1367.718641581361
 30
0.0
 11
1299.933982821931
 21
1385.396311110362
 31
0.0
  0
LINE
  5
2B2
330
1F
100
AcDbEntity
  8
LAY-10
  6
CONTINUOUS
 62
     7
100
AcDbLine
 10
1335.289321881231
 20
1403.073980640361
 30
0.0
 11
1317.611652351631
 21
1385.396311110362
 31
0.0
  0
LINE
  5
2B3
330
1F
100
AcDbEntity
  8
LAY-10
  6
CONTINUOUS
 62
     7
100
AcDbLine
 10
1335.289321881231
 20
1367.718641581361
 30
0.0
 11
1317.611652351631
 21
1350.040972051361
 31
0.0
  0
LINE
  5
2B4
330
1F
100
AcDbEntity
  8
LAY-10
  6
CONTINUOUS
 62
     7
100
AcDbLine
 10
1352.966991410931
 20
1403.073980640361
 30
0.0
 11
1335.289321881231
 21
1420.751650169361
 31
0.0
  0
LINE
  5
2B5
330
1F
100
AcDbEntity
  8
LAY-10
  6
CONTINUOUS
 62
     7
100
AcDbLine
 10
1388.322330470231
 20
1385.396311110362
 30
0.0
 11
1405.999999999931
 21
1403.073980640361
 31
0.0
  0
LINE
  5
2B6
330
1F
100
AcDbEntity
  8
LAY-10
  6
CONTINUOUS
 62
     7
100
AcDbLine
 10
1388.322330470231
 20
1403.073980640361
 30
0.0
 11
1370.644660940631
 21
1420.751650169361
 31
0.0
  0
LINE
  5
2B7
330
1F
100
AcDbEntity
  8
LAY-10
  6
CONTINUOUS
 62
     7
100
AcDbLine
 10
1352.966991410931
 20
1367.718641581361
 30
0.0
 11
1335.289321881231
 21
1385.396311110362
 31
0.0
  0
LINE
  5
2B8
330
1F
100
AcDbEntity
  8
LAY-10
  6
CONTINUOUS
 62
     7
100
AcDbLine
 10
1335.289321881231
 20
1350.040972051361
 30
0.0
 11
1352.966991410931
 21
1332.363302521362
 31
0.0
  0
LINE
  5
2B9
330
1F
100
AcDbEntity
  8
LAY-10
  6
CONTINUOUS
 62
     7
100
AcDbLine
 10
1459.033008589131
 20
1491.462328287362
 30
0.0
 11
1467.499999999931
 21
1499.929319698306
 31
0.0
  0
LINE
  5
2BA
330
1F
100
AcDbEntity
  8
LAY-10
  6
CONTINUOUS
 62
     7
100
AcDbLine
 10
1423.677669529731
 20
1456.106989228362
 30
0.0
 11
1441.35533905943
 21
1473.784658758362
 31
0.0
  0
LINE
  5
2BB
330
1F
100
AcDbEntity
  8
LAY-10
  6
CONTINUOUS
 62
     7
100
AcDbLine
 10
1459.033008589031
 20
1473.784658758362
 30
0.0
 11
1441.35533905943
 21
1491.462328287361
 31
0.0
  0
LINE
  5
2BC
330
1F
100
AcDbEntity
  8
LAY-10
  6
CONTINUOUS
 62
     7
100
AcDbLine
 10
1459.033008589031
 20
1456.106989228362
 30
0.0
 11
1467.499999999931
 21
1464.573980639406
 31
0.0
  0
LINE
  5
2BD
330
1F
100
AcDbEntity
  8
LAY-10
  6
CONTINUOUS
 62
     7
100
AcDbLine
 10
1459.033008589031
 20
1420.751650169361
 30
0.0
 11
1467.499999999931
 21
1429.218641580405
 31
0.0
  0
LINE
  5
2BE
330
1F
100
AcDbEntity
  8
LAY-10
  6
CONTINUOUS
 62
     7
100
AcDbLine
 10
1441.35533905943
 20
1456.106989228362
 30
0.0
 11
1459.033008589031
 21
1438.429319699361
 31
0.0
  0
LINE
  5
2BF
330
1F
100
AcDbEntity
  8
LAY-10
  6
CONTINUOUS
 62
     7
100
AcDbLine
 10
1423.677669529731
 20
1473.784658758362
 30
0.0
 11
1406.000000000031
 21
1491.462328287361
 31
0.0
  0
LINE
  5
2C0
330
1F
100
AcDbEntity
  8
LAY-10
  6
CONTINUOUS
 62
     7
100
AcDbLine
 10
1406.000000000031
 20
1473.784658758362
 30
0.0
 11
1388.322330470331
 21
1456.106989228361
 31
0.0
  0
LINE
  5
2C1
330
1F
100
AcDbEntity
  8
LAY-10
  6
CONTINUOUS
 62
     7
100
AcDbLine
 10
1388.322330470331
 20
1438.429319699362
 30
0.0
 11
1370.644660940631
 21
1456.106989228361
 31
0.0
  0
LINE
  5
2C2
330
1F
100
AcDbEntity
  8
LAY-10
  6
CONTINUOUS
 62
     7
100
AcDbLine
 10
1423.677669529631
 20
1420.751650169361
 30
0.0
 11
1441.355339059331
 21
1438.429319699361
 31
0.0
  0
LINE
  5
2C3
330
1F
100
AcDbEntity
  8
LAY-10
  6
CONTINUOUS
 62
     7
100
AcDbLine
 10
1388.322330470331
 20
1420.751650169362
 30
0.0
 11
1406.000000000031
 21
1438.429319699362
 31
0.0
  0
LINE
  5
2C4
330
1F
100
AcDbEntity
  8
LAY-10
  6
CONTINUOUS
 62
     7
100
AcDbLine
 10
1423.677669529631
 20
1438.429319699361
 30
0.0
 11
1406.000000000031
 21
1456.106989228361
 31
0.0
  0
LINE
  5
2C5
330
1F
100
AcDbEntity
  8
LAY-10
  6
CONTINUOUS
 62
     7
100
AcDbLine
 10
1441.35533905943
 20
1509.139997817362
 30
0.0
 11
1423.677669529731
 21
1491.462328287361
 31
0.0
  0
LINE
  5
2C6
330
1F
100
AcDbEntity
  8
LAY-10
  6
CONTINUOUS
 62
     7
100
AcDbLine
 10
1459.033008589131
 20
1509.139997817362
 30
0.0
 11
1441.35533905943
 21
1526.817667346362
 31
0.0
  0
LINE
  5
2C7
330
1F
100
AcDbEntity
  8
LAY-10
  6
CONTINUOUS
 62
     7
100
AcDbLine
 10
1467.499999999931
 20
1535.284658757306
 30
0.0
 11
1459.033008589131
 21
1526.817667346362
 31
0.0
  0
LINE
  5
2C8
330
1F
100
AcDbEntity
  8
LAY-10
  6
CONTINUOUS
 62
     7
100
AcDbLine
 10
1328.644660940444
 20
1325.718641581361
 30
0.0
 11
1335.289321881331
 21
1332.363302522361
 31
0.0
  0
LINE
  5
2C9
330
1F
100
AcDbEntity
  8
LAY-10
  6
CONTINUOUS
 62
     7
100
AcDbLine
 10
1293.289321880767
 20
1325.718641581361
 30
0.0
 11
1299.933982821031
 21
1332.363302521362
 31
0.0
  0
LINE
  5
2CA
330
1F
100
AcDbEntity
  8
LAY-10
  6
CONTINUOUS
 62
     7
100
AcDbLine
 10
1257.933982821098
 20
1325.718641581361
 30
0.0
 11
1264.578643761361
 21
1332.363302521362
 31
0.0
  0
LINE
  5
2CB
330
1F
100
AcDbEntity
  8
LAY-10
  6
CONTINUOUS
 62
     7
100
AcDbLine
 10
1352.966991410931
 20
1385.396311110362
 30
0.0
 11
1370.644660940631
 21
1403.073980640361
 31
0.0
  0
LINE
  5
2CC
330
1F
100
AcDbEntity
  8
LAY-10
  6
CONTINUOUS
 62
     7
100
AcDbLine
 10
1370.644660940631
 20
1438.429319699362
 30
0.0
 11
1352.966991410931
 21
1420.751650169361
 31
0.0
  0
LINE
  5
2CD
330
1F
100
AcDbEntity
  8
LAY-10
  6
CONTINUOUS
 62
     7
100
AcDbLine
 10
1423.677669529232
 20
1350.040972051963
 30
0.0
 11
1441.35533905893
 21
1367.718641581962
 31
0.0
  0
LINE
  5
2CE
330
1F
100
AcDbEntity
  8
LAY-10
  6
CONTINUOUS
 62
     7
100
AcDbLine
 10
1441.355339059231
 20
1350.040972052264
 30
0.0
 11
1459.033008588532
 21
1332.363302522964
 31
0.0
  0
LINE
  5
2CF
330
1F
100
AcDbEntity
  8
LAY-10
  6
CONTINUOUS
 62
     7
100
AcDbLine
 10
1459.033008587932
 20
1367.718641582362
 30
0.0
 11
1441.35533905863
 21
1385.396311111662
 31
0.0
  0
LINE
  5
2D0
330
1F
100
AcDbEntity
  8
LAY-10
  6
CONTINUOUS
 62
     7
100
AcDbLine
 10
1352.966991410931
 20
1350.040972051361
 30
0.0
 11
1366.499999999931
 21
1363.57398064059
 31
0.0
  0
LINE
  5
2D1
330
1F
100
AcDbEntity
  8
LAY-10
  6
CONTINUOUS
 62
     7
100
AcDbLine
 10
1423.677669529133
 20
1332.363302523562
 30
0.0
 11
1405.999999999832
 21
1350.040972052861
 31
0.0
  0
LINE
  5
2D2
330
1F
100
AcDbEntity
  8
LAY-10
  6
CONTINUOUS
 62
     7
100
AcDbLine
 10
1406.000000001132
 20
1367.718641581861
 30
0.0
 11
1388.322330471133
 21
1350.040972052159
 31
0.0
  0
LINE
  5
2D3
330
1F
100
AcDbEntity
  8
LAY-10
  6
CONTINUOUS
 62
     7
100
AcDbLine
 10
1370.644660942133
 20
1350.040972052158
 30
0.0
 11
1388.322330471135
 21
1332.36330252246
 31
0.0
  0
LINE
  5
2D4
330
1F
100
AcDbEntity
  8
LAY-10
  6
CONTINUOUS
 62
     7
100
AcDbLine
 10
1370.64466094213
 20
1385.396311111458
 30
0.0
 11
1388.322330471132
 21
1367.71864158186
 31
0.0
  0
LINE
  5
2D5
330
1F
100
AcDbEntity
  8
LAY-10
  6
CONTINUOUS
 62
     7
100
AcDbLine
 10
1406.000000002133
 20
1332.363302522561
 30
0.0
 11
1399.355339060821
 21
1325.718641581361
 31
0.0
  0
LINE
  5
2D6
330
1F
100
AcDbEntity
  8
LAY-10
  6
CONTINUOUS
 62
     7
100
AcDbLine
 10
1406.000000000231
 20
1385.396311110661
 30
0.0
 11
1423.67766952953
 21
1367.718641581361
 31
0.0
  0
LINE
  5
2D7
330
1F
100
AcDbEntity
  8
LAY-10
  6
CONTINUOUS
 62
     7
100
AcDbLine
 10
1282.25631329333
 20
1350.040972050362
 30
0.0
 11
1299.93398282263
 21
1367.718641580662
 31
0.0
  0
LINE
  5
2D8
330
1F
100
AcDbEntity
  8
LAY-10
  6
CONTINUOUS
 62
     7
100
AcDbLine
 10
1282.256313294029
 20
1332.363302520662
 30
0.0
 11
1264.57864376433
 21
1350.040972049663
 31
0.0
  0
LINE
  5
2D9
330
1F
100
AcDbEntity
  8
LAY-10
  6
CONTINUOUS
 62
     7
100
AcDbLine
 10
1467.499999999971
 20
1325.718641581443
 30
0.0
 11
1467.499999999969
 21
2095.718641581443
 31
0.0
  0
LINE
  5
2DA
330
1F
100
AcDbEntity
  8
LAY-10
  6
CONTINUOUS
 62
     7
100
AcDbLine
 10
1179.572687976146
 20
2071.889640313392
 30
0.0
 11
1162.38834764839
 21
2089.073980641439
 31
0.0
  0
LINE
  5
2DB
330
1F
100
AcDbEntity
  8
LAY-10
  6
CONTINUOUS
 62
     7
100
AcDbLine
 10
1038.644660940489
 20
2089.073980638636
 30
0.0
 11
1045.289321882952
 21
2095.718641581438
 31
0.0
  0
LINE
  5
2DC
330
1F
100
AcDbEntity
  8
LAY-10
  6
CONTINUOUS
 62
     7
100
AcDbLine
 10
1020.96699141229
 20
2071.396311109836
 30
0.0
 11
1012.499999999965
 21
2062.929319697366
 31
0.0
  0
LINE
  5
2DD
330
1F
100
AcDbEntity
  8
LAY-10
  6
CONTINUOUS
 62
     7
100
AcDbLine
 10
1116.000000000694
 20
2095.718641581439
 30
0.0
 11
1109.355339058486
 21
2089.073980639643
 31
0.0
  0
LINE
  5
2DE
330
1F
100
AcDbEntity
  8
LAY-10
  6
CONTINUOUS
 62
     7
100
AcDbLine
 10
1020.96699141099
 20
2036.040972053438
 30
0.0
 11
1012.49999999999
 21
2027.573980642294
 31
0.0
  0
LINE
  5
2DF
330
1F
100
AcDbEntity
  8
LAY-10
  6
CONTINUOUS
 62
     7
100
AcDbLine
 10
1056.32233047029
 20
2036.040972052438
 30
0.0
 11
1038.64466094059
 21
2018.36330252244
 31
0.0
  0
LINE
  5
2E0
330
1F
100
AcDbEntity
  8
LAY-10
  6
CONTINUOUS
 62
     7
100
AcDbLine
 10
1038.64466094059
 20
2000.685632993439
 30
0.0
 11
1020.96699141089
 21
2018.36330252244
 31
0.0
  0
LINE
  5
2E1
330
1F
100
AcDbEntity
  8
LAY-10
  6
CONTINUOUS
 62
     7
100
AcDbLine
 10
1073.99999999989
 20
2000.685632993438
 30
0.0
 11
1056.32233047029
 21
2018.36330252244
 31
0.0
  0
LINE
  5
2E2
330
1F
100
AcDbEntity
  8
LAY-10
  6
CONTINUOUS
 62
     7
100
AcDbLine
 10
1162.38834764829
 20
2053.718641581439
 30
0.0
 11
1180.06601717799
 21
2036.040972052438
 31
0.0
  0
LINE
  5
2E3
330
1F
100
AcDbEntity
  8
LAY-10
  6
CONTINUOUS
 62
     7
100
AcDbLine
 10
1144.71067811869
 20
2018.363302522439
 30
0.0
 11
1162.38834764829
 21
2036.040972052438
 31
0.0
  0
LINE
  5
2E4
330
1F
100
AcDbEntity
  8
LAY-10
  6
CONTINUOUS
 62
     7
100
AcDbLine
 10
1144.71067811869
 20
2053.718641581439
 30
0.0
 11
1162.38834764829
 21
2071.396311111439
 31
0.0
  0
LINE
  5
2E5
330
1F
100
AcDbEntity
  8
LAY-10
  6
CONTINUOUS
 62
     7
100
AcDbLine
 10
1127.03300858899
 20
2018.363302522439
 30
0.0
 11
1144.71067811869
 21
2000.685632993439
 31
0.0
  0
LINE
  5
2E6
330
1F
100
AcDbEntity
  8
LAY-10
  6
CONTINUOUS
 62
     7
100
AcDbLine
 10
1091.67766952969
 20
2036.040972052438
 30
0.0
 11
1073.99999999999
 21
2018.363302522439
 31
0.0
  0
LINE
  5
2E7
330
1F
100
AcDbEntity
  8
LAY-10
  6
CONTINUOUS
 62
     7
100
AcDbLine
 10
1091.67766952969
 20
2018.363302522439
 30
0.0
 11
1109.35533905929
 21
2000.685632993439
 31
0.0
  0
LINE
  5
2E8
330
1F
100
AcDbEntity
  8
LAY-10
  6
CONTINUOUS
 62
     7
100
AcDbLine
 10
1127.03300858899
 20
2053.718641581439
 30
0.0
 11
1144.71067811869
 21
2036.040972052438
 31
0.0
  0
LINE
  5
2E9
330
1F
100
AcDbEntity
  8
LAY-10
  6
CONTINUOUS
 62
     7
100
AcDbLine
 10
1144.71067811869
 20
2071.396311111439
 30
0.0
 11
1127.03300858899
 21
2089.073980641439
 31
0.0
  0
LINE
  5
2EA
330
1F
100
AcDbEntity
  8
LAY-10
  6
CONTINUOUS
 62
     7
100
AcDbLine
 10
1020.96699141079
 20
1929.974954875438
 30
0.0
 11
1012.49999999999
 21
1921.507963464494
 31
0.0
  0
LINE
  5
2EB
330
1F
100
AcDbEntity
  8
LAY-10
  6
CONTINUOUS
 62
     7
100
AcDbLine
 10
1056.32233047019
 20
1965.330293934438
 30
0.0
 11
1038.64466094049
 21
1947.652624404439
 31
0.0
  0
LINE
  5
2EC
330
1F
100
AcDbEntity
  8
LAY-10
  6
CONTINUOUS
 62
     7
100
AcDbLine
 10
1020.96699141089
 20
1947.652624404439
 30
0.0
 11
1038.64466094049
 21
1929.974954875439
 31
0.0
  0
LINE
  5
2ED
330
1F
100
AcDbEntity
  8
LAY-10
  6
CONTINUOUS
 62
     7
100
AcDbLine
 10
1020.96699141089
 20
1965.330293934438
 30
0.0
 11
1012.49999999999
 21
1956.863302523395
 31
0.0
  0
LINE
  5
2EE
330
1F
100
AcDbEntity
  8
LAY-10
  6
CONTINUOUS
 62
     7
100
AcDbLine
 10
1020.96699141089
 20
2000.685632993439
 30
0.0
 11
1012.49999999999
 21
1992.218641582395
 31
0.0
  0
LINE
  5
2EF
330
1F
100
AcDbEntity
  8
LAY-10
  6
CONTINUOUS
 62
     7
100
AcDbLine
 10
1038.64466094049
 20
1965.330293934438
 30
0.0
 11
1020.96699141089
 21
1983.007963463439
 31
0.0
  0
LINE
  5
2F0
330
1F
100
AcDbEntity
  8
LAY-10
  6
CONTINUOUS
 62
     7
100
AcDbLine
 10
1056.32233047019
 20
1947.652624404439
 30
0.0
 11
1073.99999999989
 21
1929.974954875439
 31
0.0
  0
LINE
  5
2F1
330
1F
100
AcDbEntity
  8
LAY-10
  6
CONTINUOUS
 62
     7
100
AcDbLine
 10
1073.99999999989
 20
1947.652624404439
 30
0.0
 11
1091.67766952959
 21
1965.330293934439
 31
0.0
  0
LINE
  5
2F2
330
1F
100
AcDbEntity
  8
LAY-10
  6
CONTINUOUS
 62
     7
100
AcDbLine
 10
1091.67766952959
 20
1983.007963463438
 30
0.0
 11
1109.35533905929
 21
1965.330293934439
 31
0.0
  0
LINE
  5
2F3
330
1F
100
AcDbEntity
  8
LAY-10
  6
CONTINUOUS
 62
     7
100
AcDbLine
 10
1056.32233047029
 20
2000.685632993439
 30
0.0
 11
1038.64466094059
 21
1983.007963463439
 31
0.0
  0
LINE
  5
2F4
330
1F
100
AcDbEntity
  8
LAY-10
  6
CONTINUOUS
 62
     7
100
AcDbLine
 10
1091.67766952959
 20
2000.685632993438
 30
0.0
 11
1073.99999999989
 21
1983.007963463438
 31
0.0
  0
LINE
  5
2F5
330
1F
100
AcDbEntity
  8
LAY-10
  6
CONTINUOUS
 62
     7
100
AcDbLine
 10
1056.32233047029
 20
1983.007963463439
 30
0.0
 11
1073.99999999989
 21
1965.330293934439
 31
0.0
  0
LINE
  5
2F6
330
1F
100
AcDbEntity
  8
LAY-10
  6
CONTINUOUS
 62
     7
100
AcDbLine
 10
1038.64466094049
 20
1912.297285345438
 30
0.0
 11
1056.32233047019
 21
1929.974954875439
 31
0.0
  0
LINE
  5
2F7
330
1F
100
AcDbEntity
  8
LAY-10
  6
CONTINUOUS
 62
     7
100
AcDbLine
 10
1020.96699141079
 20
1912.297285345438
 30
0.0
 11
1038.64466094049
 21
1894.619615816438
 31
0.0
  0
LINE
  5
2F8
330
1F
100
AcDbEntity
  8
LAY-10
  6
CONTINUOUS
 62
     7
100
AcDbLine
 10
1012.49999999999
 20
1886.152624405494
 30
0.0
 11
1020.96699141079
 21
1894.619615816438
 31
0.0
  0
LINE
  5
2F9
330
1F
100
AcDbEntity
  8
LAY-10
  6
CONTINUOUS
 62
     7
100
AcDbLine
 10
1151.355339059477
 20
2095.718641581439
 30
0.0
 11
1144.71067811859
 21
2089.073980640439
 31
0.0
  0
LINE
  5
2FA
330
1F
100
AcDbEntity
  8
LAY-10
  6
CONTINUOUS
 62
     7
100
AcDbLine
 10
1186.710678119154
 20
2095.718641581439
 30
0.0
 11
1180.06601717889
 21
2089.073980641439
 31
0.0
  0
LINE
  5
2FB
330
1F
100
AcDbEntity
  8
LAY-10
  6
CONTINUOUS
 62
     7
100
AcDbLine
 10
1222.066017178824
 20
2095.718641581439
 30
0.0
 11
1215.42135623856
 21
2089.073980641439
 31
0.0
  0
LINE
  5
2FC
330
1F
100
AcDbEntity
  8
LAY-10
  6
CONTINUOUS
 62
     7
100
AcDbLine
 10
1127.03300858899
 20
2036.040972052438
 30
0.0
 11
1109.35533905929
 21
2018.363302522439
 31
0.0
  0
LINE
  5
2FD
330
1F
100
AcDbEntity
  8
LAY-10
  6
CONTINUOUS
 62
     7
100
AcDbLine
 10
1109.35533905929
 20
1983.007963463438
 30
0.0
 11
1127.03300858899
 21
2000.685632993439
 31
0.0
  0
LINE
  5
2FE
330
1F
100
AcDbEntity
  8
LAY-10
  6
CONTINUOUS
 62
     7
100
AcDbLine
 10
1056.322330470689
 20
2071.396311110838
 30
0.0
 11
1038.64466094099
 21
2053.718641580838
 31
0.0
  0
LINE
  5
2FF
330
1F
100
AcDbEntity
  8
LAY-10
  6
CONTINUOUS
 62
     7
100
AcDbLine
 10
1038.64466094069
 20
2071.396311110537
 30
0.0
 11
1020.966991411389
 21
2089.073980639836
 31
0.0
  0
LINE
  5
300
330
1F
100
AcDbEntity
  8
LAY-10
  6
CONTINUOUS
 62
     7
100
AcDbLine
 10
1020.96699141199
 20
2053.718641580438
 30
0.0
 11
1038.644660941291
 21
2036.040972051139
 31
0.0
  0
LINE
  5
301
330
1F
100
AcDbEntity
  8
LAY-10
  6
CONTINUOUS
 62
     7
100
AcDbLine
 10
1127.03300858899
 20
2071.396311111439
 30
0.0
 11
1113.49999999999
 21
2057.86330252221
 31
0.0
  0
LINE
  5
302
330
1F
100
AcDbEntity
  8
LAY-10
  6
CONTINUOUS
 62
     7
100
AcDbLine
 10
1056.322330470788
 20
2089.073980639238
 30
0.0
 11
1074.000000000089
 21
2071.396311109939
 31
0.0
  0
LINE
  5
303
330
1F
100
AcDbEntity
  8
LAY-10
  6
CONTINUOUS
 62
     7
100
AcDbLine
 10
1073.999999998789
 20
2053.718641580939
 30
0.0
 11
1091.677669528788
 21
2071.396311110641
 31
0.0
  0
LINE
  5
304
330
1F
100
AcDbEntity
  8
LAY-10
  6
CONTINUOUS
 62
     7
100
AcDbLine
 10
1109.355339057789
 20
2071.396311110642
 30
0.0
 11
1091.677669528786
 21
2089.073980640341
 31
0.0
  0
LINE
  5
305
330
1F
100
AcDbEntity
  8
LAY-10
  6
CONTINUOUS
 62
     7
100
AcDbLine
 10
1109.355339057791
 20
2036.040972051342
 30
0.0
 11
1091.677669528789
 21
2053.718641580941
 31
0.0
  0
LINE
  5
306
330
1F
100
AcDbEntity
  8
LAY-10
  6
CONTINUOUS
 62
     7
100
AcDbLine
 10
1073.999999997788
 20
2089.07398064024
 30
0.0
 11
1080.6446609391
 21
2095.718641581439
 31
0.0
  0
LINE
  5
307
330
1F
100
AcDbEntity
  8
LAY-10
  6
CONTINUOUS
 62
     7
100
AcDbLine
 10
1073.99999999969
 20
2036.040972052139
 30
0.0
 11
1056.322330470391
 21
2053.718641581439
 31
0.0
  0
LINE
  5
308
330
1F
100
AcDbEntity
  8
LAY-10
  6
CONTINUOUS
 62
     7
100
AcDbLine
 10
1197.743686706591
 20
2071.396311112439
 30
0.0
 11
1180.066017177291
 21
2053.718641582139
 31
0.0
  0
LINE
  5
309
330
1F
100
AcDbEntity
  8
LAY-10
  6
CONTINUOUS
 62
     7
100
AcDbLine
 10
1197.743686705892
 20
2089.073980642138
 30
0.0
 11
1215.421356235591
 21
2071.396311113138
 31
0.0
  0
LINE
  5
30A
330
1F
100
AcDbEntity
  8
LAY-10
  6
CONTINUOUS
 62
     7
100
AcDbLine
 10
1012.499999999969
 20
2095.718641581441
 30
0.0
 11
1012.499999999969
 21
1325.718641581441
 31
0.0
  0
LINE
  5
30B
330
1F
100
AcDbEntity
  8
LAY-10
  6
CONTINUOUS
 62
     7
100
AcDbLine
 10
1012.499999999969
 20
2095.718641581441
 30
0.0
 11
1467.499999999969
 21
2095.718641581443
 31
0.0
  0
LINE
  5
30C
330
1F
100
AcDbEntity
  8
LAY-10
  6
CONTINUOUS
 62
     7
100
AcDbLine
 10
1012.499999999969
 20
1325.718641581441
 30
0.0
 11
1467.499999999971
 21
1325.718641581443
 31
0.0
  0
CIRCLE
  5
30D
330
1F
100
AcDbEntity
  8
LAY-10
  6
CONTINUOUS
 62
     7
100
AcDbCircle
 10
1697.500000000001
 20
2070.71864158144
 30
0.0
 40
13.00000000000001
  0
LINE
  5
30E
330
1F
100
AcDbEntity
  8
LAY-10
  6
CONTINUOUS
 62
     7
100
AcDbLine
 10
1693.500000000001
 20
2070.718641581446
 30
0.0
 11
1697.500000000001
 21
2064.218641581446
 31
0.0
  0
LINE
  5
30F
330
1F
100
AcDbEntity
  8
LAY-10
  6
CONTINUOUS
 62
     7
100
AcDbLine
 10
1697.500000000001
 20
2077.218641581446
 30
0.0
 11
1693.500000000001
 21
2070.718641581446
 31
0.0
  0
LINE
  5
310
330
1F
100
AcDbEntity
  8
LAY-10
  6
CONTINUOUS
 62
     7
100
AcDbLine
 10
1701.500000000001
 20
2070.718641581446
 30
0.0
 11
1697.500000000001
 21
2077.218641581446
 31
0.0
  0
LINE
  5
311
330
1F
100
AcDbEntity
  8
LAY-10
  6
CONTINUOUS
 62
     7
100
AcDbLine
 10
1697.500000000001
 20
2064.218641581446
 30
0.0
 11
1701.500000000001
 21
2070.718641581446
 31
0.0
  0
ARC
  5
312
330
1F
100
AcDbEntity
  8
LAY-10
  6
CONTINUOUS
 62
     7
100
AcDbCircle
 10
1697.500000000001
 20
2070.718641581446
 30
0.0
 40
12.75000000000001
100
AcDbArc
 50
18.2838899404031
 51
341.7161100595971
  0
LINE
  5
313
330
1F
100
AcDbEntity
  8
LAY-10
  6
CONTINUOUS
 62
     7
100
AcDbLine
 10
1708.000000000001
 20
2074.718641581445
 30
0.0
 11
1708.000000000001
 21
2066.718641581447
 31
0.0
  0
LINE
  5
314
330
1F
100
AcDbEntity
  8
LAY-10
  6
CONTINUOUS
 62
     7
100
AcDbLine
 10
1708.000000000001
 20
2074.718641581445
 30
0.0
 11
1709.606300012804
 21
2074.718641581445
 31
0.0
  0
LINE
  5
315
330
1F
100
AcDbEntity
  8
LAY-10
  6
CONTINUOUS
 62
     7
100
AcDbLine
 10
1708.000000000001
 20
2066.718641581447
 30
0.0
 11
1709.606300012804
 21
2066.718641581447
 31
0.0
  0
CIRCLE
  5
316
330
1F
100
AcDbEntity
  8
LAY-10
  6
CONTINUOUS
 62
     7
100
AcDbCircle
 10
1697.500000000001
 20
1350.718641581645
 30
0.0
 40
13.00000000000001
  0
LINE
  5
317
330
1F
100
AcDbEntity
  8
LAY-10
  6
CONTINUOUS
 62
     7
100
AcDbLine
 10
1693.500000000001
 20
1350.71864158164
 30
0.0
 11
1697.500000000001
 21
1357.21864158164
 31
0.0
  0
LINE
  5
318
330
1F
100
AcDbEntity
  8
LAY-10
  6
CONTINUOUS
 62
     7
100
AcDbLine
 10
1697.500000000001
 20
1344.21864158164
 30
0.0
 11
1693.500000000001
 21
1350.71864158164
 31
0.0
  0
LINE
  5
319
330
1F
100
AcDbEntity
  8
LAY-10
  6
CONTINUOUS
 62
     7
100
AcDbLine
 10
1701.500000000001
 20
1350.71864158164
 30
0.0
 11
1697.500000000001
 21
1344.21864158164
 31
0.0
  0
LINE
  5
31A
330
1F
100
AcDbEntity
  8
LAY-10
  6
CONTINUOUS
 62
     7
100
AcDbLine
 10
1697.500000000001
 20
1357.21864158164
 30
0.0
 11
1701.500000000001
 21
1350.71864158164
 31
0.0
  0
ARC
  5
31B
330
1F
100
AcDbEntity
  8
LAY-10
  6
CONTINUOUS
 62
     7
100
AcDbCircle
 10
1697.500000000001
 20
1350.71864158164
 30
0.0
 40
12.75000000000001
100
AcDbArc
 50
18.2838899404031
 51
341.716110059597
  0
LINE
  5
31C
330
1F
100
AcDbEntity
  8
LAY-10
  6
CONTINUOUS
 62
     7
100
AcDbLine
 10
1708.000000000001
 20
1346.71864158164
 30
0.0
 11
1708.000000000001
 21
1354.718641581639
 31
0.0
  0
LINE
  5
31D
330
1F
100
AcDbEntity
  8
LAY-10
  6
CONTINUOUS
 62
     7
100
AcDbLine
 10
1708.000000000001
 20
1346.71864158164
 30
0.0
 11
1709.606300012804
 21
1346.71864158164
 31
0.0
  0
LINE
  5
31E
330
1F
100
AcDbEntity
  8
LAY-10
  6
CONTINUOUS
 62
     7
100
AcDbLine
 10
1708.000000000001
 20
1354.718641581639
 30
0.0
 11
1709.606300012804
 21
1354.718641581639
 31
0.0
  0
LINE
  5
31F
330
1F
100
AcDbEntity
  8
LAY-10
  6
CONTINUOUS
 62
     7
100
AcDbLine
 10
1757.927312023805
 20
1349.547642849408
 30
0.0
 11
1775.111652351561
 21
1332.363302521361
 31
0.0
  0
LINE
  5
320
330
1F
100
AcDbEntity
  8
LAY-10
  6
CONTINUOUS
 62
     7
100
AcDbLine
 10
1898.855339059462
 20
1332.363302524164
 30
0.0
 11
1892.210678116999
 21
1325.718641581363
 31
0.0
  0
LINE
  5
321
330
1F
100
AcDbEntity
  8
LAY-10
  6
CONTINUOUS
 62
     7
100
AcDbLine
 10
1916.533008587661
 20
1350.040972052964
 30
0.0
 11
1924.999999999986
 21
1358.507963465435
 31
0.0
  0
LINE
  5
322
330
1F
100
AcDbEntity
  8
LAY-10
  6
CONTINUOUS
 62
     7
100
AcDbLine
 10
1821.499999999257
 20
1325.718641581361
 30
0.0
 11
1828.144660941465
 21
1332.363302523157
 31
0.0
  0
LINE
  5
323
330
1F
100
AcDbEntity
  8
LAY-10
  6
CONTINUOUS
 62
     7
100
AcDbLine
 10
1916.533008588961
 20
1385.396311109362
 30
0.0
 11
1924.999999999961
 21
1393.863302520506
 31
0.0
  0
LINE
  5
324
330
1F
100
AcDbEntity
  8
LAY-10
  6
CONTINUOUS
 62
     7
100
AcDbLine
 10
1881.177669529661
 20
1385.396311110362
 30
0.0
 11
1898.855339059361
 21
1403.07398064036
 31
0.0
  0
LINE
  5
325
330
1F
100
AcDbEntity
  8
LAY-10
  6
CONTINUOUS
 62
     7
100
AcDbLine
 10
1898.855339059361
 20
1420.751650169361
 30
0.0
 11
1916.533008589061
 21
1403.07398064036
 31
0.0
  0
LINE
  5
326
330
1F
100
AcDbEntity
  8
LAY-10
  6
CONTINUOUS
 62
     7
100
AcDbLine
 10
1863.500000000061
 20
1420.751650169362
 30
0.0
 11
1881.177669529661
 21
1403.07398064036
 31
0.0
  0
LINE
  5
327
330
1F
100
AcDbEntity
  8
LAY-10
  6
CONTINUOUS
 62
     7
100
AcDbLine
 10
1775.111652351661
 20
1367.718641581361
 30
0.0
 11
1757.433982821961
 21
1385.396311110362
 31
0.0
  0
LINE
  5
328
330
1F
100
AcDbEntity
  8
LAY-10
  6
CONTINUOUS
 62
     7
100
AcDbLine
 10
1792.789321881261
 20
1403.073980640361
 30
0.0
 11
1775.111652351661
 21
1385.396311110362
 31
0.0
  0
LINE
  5
329
330
1F
100
AcDbEntity
  8
LAY-10
  6
CONTINUOUS
 62
     7
100
AcDbLine
 10
1792.789321881261
 20
1367.718641581361
 30
0.0
 11
1775.111652351661
 21
1350.040972051361
 31
0.0
  0
LINE
  5
32A
330
1F
100
AcDbEntity
  8
LAY-10
  6
CONTINUOUS
 62
     7
100
AcDbLine
 10
1810.466991410961
 20
1403.073980640361
 30
0.0
 11
1792.789321881261
 21
1420.751650169361
 31
0.0
  0
LINE
  5
32B
330
1F
100
AcDbEntity
  8
LAY-10
  6
CONTINUOUS
 62
     7
100
AcDbLine
 10
1845.822330470261
 20
1385.396311110362
 30
0.0
 11
1863.499999999961
 21
1403.073980640361
 31
0.0
  0
LINE
  5
32C
330
1F
100
AcDbEntity
  8
LAY-10
  6
CONTINUOUS
 62
     7
100
AcDbLine
 10
1845.822330470261
 20
1403.073980640361
 30
0.0
 11
1828.144660940661
 21
1420.751650169361
 31
0.0
  0
LINE
  5
32D
330
1F
100
AcDbEntity
  8
LAY-10
  6
CONTINUOUS
 62
     7
100
AcDbLine
 10
1810.466991410961
 20
1367.718641581361
 30
0.0
 11
1792.789321881261
 21
1385.396311110362
 31
0.0
  0
LINE
  5
32E
330
1F
100
AcDbEntity
  8
LAY-10
  6
CONTINUOUS
 62
     7
100
AcDbLine
 10
1792.789321881261
 20
1350.040972051361
 30
0.0
 11
1810.466991410961
 21
1332.363302521362
 31
0.0
  0
LINE
  5
32F
330
1F
100
AcDbEntity
  8
LAY-10
  6
CONTINUOUS
 62
     7
100
AcDbLine
 10
1916.533008589161
 20
1491.462328287362
 30
0.0
 11
1924.999999999961
 21
1499.929319698306
 31
0.0
  0
LINE
  5
330
330
1F
100
AcDbEntity
  8
LAY-10
  6
CONTINUOUS
 62
     7
100
AcDbLine
 10
1881.177669529761
 20
1456.106989228362
 30
0.0
 11
1898.85533905946
 21
1473.784658758362
 31
0.0
  0
LINE
  5
331
330
1F
100
AcDbEntity
  8
LAY-10
  6
CONTINUOUS
 62
     7
100
AcDbLine
 10
1916.533008589061
 20
1473.784658758362
 30
0.0
 11
1898.85533905946
 21
1491.462328287361
 31
0.0
  0
LINE
  5
332
330
1F
100
AcDbEntity
  8
LAY-10
  6
CONTINUOUS
 62
     7
100
AcDbLine
 10
1916.533008589061
 20
1456.106989228362
 30
0.0
 11
1924.999999999961
 21
1464.573980639406
 31
0.0
  0
LINE
  5
333
330
1F
100
AcDbEntity
  8
LAY-10
  6
CONTINUOUS
 62
     7
100
AcDbLine
 10
1916.533008589061
 20
1420.751650169361
 30
0.0
 11
1924.999999999961
 21
1429.218641580405
 31
0.0
  0
LINE
  5
334
330
1F
100
AcDbEntity
  8
LAY-10
  6
CONTINUOUS
 62
     7
100
AcDbLine
 10
1898.85533905946
 20
1456.106989228362
 30
0.0
 11
1916.533008589061
 21
1438.429319699361
 31
0.0
  0
LINE
  5
335
330
1F
100
AcDbEntity
  8
LAY-10
  6
CONTINUOUS
 62
     7
100
AcDbLine
 10
1881.177669529761
 20
1473.784658758362
 30
0.0
 11
1863.500000000061
 21
1491.462328287361
 31
0.0
  0
LINE
  5
336
330
1F
100
AcDbEntity
  8
LAY-10
  6
CONTINUOUS
 62
     7
100
AcDbLine
 10
1863.500000000061
 20
1473.784658758362
 30
0.0
 11
1845.822330470361
 21
1456.106989228361
 31
0.0
  0
LINE
  5
337
330
1F
100
AcDbEntity
  8
LAY-10
  6
CONTINUOUS
 62
     7
100
AcDbLine
 10
1845.822330470361
 20
1438.429319699362
 30
0.0
 11
1828.144660940661
 21
1456.106989228361
 31
0.0
  0
LINE
  5
338
330
1F
100
AcDbEntity
  8
LAY-10
  6
CONTINUOUS
 62
     7
100
AcDbLine
 10
1881.177669529661
 20
1420.751650169361
 30
0.0
 11
1898.855339059361
 21
1438.429319699361
 31
0.0
  0
LINE
  5
339
330
1F
100
AcDbEntity
  8
LAY-10
  6
CONTINUOUS
 62
     7
100
AcDbLine
 10
1845.822330470361
 20
1420.751650169362
 30
0.0
 11
1863.500000000061
 21
1438.429319699362
 31
0.0
  0
LINE
  5
33A
330
1F
100
AcDbEntity
  8
LAY-10
  6
CONTINUOUS
 62
     7
100
AcDbLine
 10
1881.177669529661
 20
1438.429319699361
 30
0.0
 11
1863.500000000061
 21
1456.106989228361
 31
0.0
  0
LINE
  5
33B
330
1F
100
AcDbEntity
  8
LAY-10
  6
CONTINUOUS
 62
     7
100
AcDbLine
 10
1898.85533905946
 20
1509.139997817362
 30
0.0
 11
1881.177669529761
 21
1491.462328287361
 31
0.0
  0
LINE
  5
33C
330
1F
100
AcDbEntity
  8
LAY-10
  6
CONTINUOUS
 62
     7
100
AcDbLine
 10
1916.533008589161
 20
1509.139997817362
 30
0.0
 11
1898.85533905946
 21
1526.817667346362
 31
0.0
  0
LINE
  5
33D
330
1F
100
AcDbEntity
  8
LAY-10
  6
CONTINUOUS
 62
     7
100
AcDbLine
 10
1924.999999999961
 20
1535.284658757306
 30
0.0
 11
1916.533008589161
 21
1526.817667346362
 31
0.0
  0
LINE
  5
33E
330
1F
100
AcDbEntity
  8
LAY-10
  6
CONTINUOUS
 62
     7
100
AcDbLine
 10
1786.144660940474
 20
1325.718641581361
 30
0.0
 11
1792.789321881361
 21
1332.363302522361
 31
0.0
  0
LINE
  5
33F
330
1F
100
AcDbEntity
  8
LAY-10
  6
CONTINUOUS
 62
     7
100
AcDbLine
 10
1750.789321880797
 20
1325.718641581361
 30
0.0
 11
1757.433982821061
 21
1332.363302521362
 31
0.0
  0
LINE
  5
340
330
1F
100
AcDbEntity
  8
LAY-10
  6
CONTINUOUS
 62
     7
100
AcDbLine
 10
1715.433982821127
 20
1325.718641581361
 30
0.0
 11
1722.078643761391
 21
1332.363302521362
 31
0.0
  0
LINE
  5
341
330
1F
100
AcDbEntity
  8
LAY-10
  6
CONTINUOUS
 62
     7
100
AcDbLine
 10
1810.466991410961
 20
1385.396311110362
 30
0.0
 11
1828.144660940661
 21
1403.073980640361
 31
0.0
  0
LINE
  5
342
330
1F
100
AcDbEntity
  8
LAY-10
  6
CONTINUOUS
 62
     7
100
AcDbLine
 10
1828.144660940661
 20
1438.429319699362
 30
0.0
 11
1810.466991410961
 21
1420.751650169361
 31
0.0
  0
LINE
  5
343
330
1F
100
AcDbEntity
  8
LAY-10
  6
CONTINUOUS
 62
     7
100
AcDbLine
 10
1881.177669529262
 20
1350.040972051963
 30
0.0
 11
1898.85533905896
 21
1367.718641581962
 31
0.0
  0
LINE
  5
344
330
1F
100
AcDbEntity
  8
LAY-10
  6
CONTINUOUS
 62
     7
100
AcDbLine
 10
1898.855339059261
 20
1350.040972052264
 30
0.0
 11
1916.533008588562
 21
1332.363302522964
 31
0.0
  0
LINE
  5
345
330
1F
100
AcDbEntity
  8
LAY-10
  6
CONTINUOUS
 62
     7
100
AcDbLine
 10
1916.533008587962
 20
1367.718641582362
 30
0.0
 11
1898.85533905866
 21
1385.396311111662
 31
0.0
  0
LINE
  5
346
330
1F
100
AcDbEntity
  8
LAY-10
  6
CONTINUOUS
 62
     7
100
AcDbLine
 10
1810.466991410961
 20
1350.040972051361
 30
0.0
 11
1823.999999999961
 21
1363.57398064059
 31
0.0
  0
LINE
  5
347
330
1F
100
AcDbEntity
  8
LAY-10
  6
CONTINUOUS
 62
     7
100
AcDbLine
 10
1881.177669529163
 20
1332.363302523562
 30
0.0
 11
1863.499999999863
 21
1350.040972052861
 31
0.0
  0
LINE
  5
348
330
1F
100
AcDbEntity
  8
LAY-10
  6
CONTINUOUS
 62
     7
100
AcDbLine
 10
1863.500000001162
 20
1367.718641581861
 30
0.0
 11
1845.822330471163
 21
1350.040972052159
 31
0.0
  0
LINE
  5
349
330
1F
100
AcDbEntity
  8
LAY-10
  6
CONTINUOUS
 62
     7
100
AcDbLine
 10
1828.144660942163
 20
1350.040972052158
 30
0.0
 11
1845.822330471165
 21
1332.36330252246
 31
0.0
  0
LINE
  5
34A
330
1F
100
AcDbEntity
  8
LAY-10
  6
CONTINUOUS
 62
     7
100
AcDbLine
 10
1828.14466094216
 20
1385.396311111458
 30
0.0
 11
1845.822330471162
 21
1367.71864158186
 31
0.0
  0
LINE
  5
34B
330
1F
100
AcDbEntity
  8
LAY-10
  6
CONTINUOUS
 62
     7
100
AcDbLine
 10
1863.500000002163
 20
1332.363302522561
 30
0.0
 11
1856.855339060851
 21
1325.718641581361
 31
0.0
  0
LINE
  5
34C
330
1F
100
AcDbEntity
  8
LAY-10
  6
CONTINUOUS
 62
     7
100
AcDbLine
 10
1863.500000000261
 20
1385.396311110661
 30
0.0
 11
1881.17766952956
 21
1367.718641581361
 31
0.0
  0
LINE
  5
34D
330
1F
100
AcDbEntity
  8
LAY-10
  6
CONTINUOUS
 62
     7
100
AcDbLine
 10
1739.75631329336
 20
1350.040972050362
 30
0.0
 11
1757.43398282266
 21
1367.718641580662
 31
0.0
  0
LINE
  5
34E
330
1F
100
AcDbEntity
  8
LAY-10
  6
CONTINUOUS
 62
     7
100
AcDbLine
 10
1739.756313294059
 20
1332.363302520662
 30
0.0
 11
1722.07864376436
 21
1350.040972049663
 31
0.0
  0
LINE
  5
34F
330
1F
100
AcDbEntity
  8
LAY-10
  6
CONTINUOUS
 62
     7
100
AcDbLine
 10
1925.000000000001
 20
1325.718641581443
 30
0.0
 11
1924.999999999999
 21
2095.718641581443
 31
0.0
  0
LINE
  5
350
330
1F
100
AcDbEntity
  8
LAY-10
  6
CONTINUOUS
 62
     7
100
AcDbLine
 10
1637.072687976176
 20
2071.889640313392
 30
0.0
 11
1619.88834764842
 21
2089.073980641439
 31
0.0
  0
LINE
  5
351
330
1F
100
AcDbEntity
  8
LAY-10
  6
CONTINUOUS
 62
     7
100
AcDbLine
 10
1496.144660940519
 20
2089.073980638636
 30
0.0
 11
1502.789321882982
 21
2095.718641581438
 31
0.0
  0
LINE
  5
352
330
1F
100
AcDbEntity
  8
LAY-10
  6
CONTINUOUS
 62
     7
100
AcDbLine
 10
1478.46699141232
 20
2071.396311109836
 30
0.0
 11
1469.999999999995
 21
2062.929319697366
 31
0.0
  0
LINE
  5
353
330
1F
100
AcDbEntity
  8
LAY-10
  6
CONTINUOUS
 62
     7
100
AcDbLine
 10
1573.500000000724
 20
2095.718641581439
 30
0.0
 11
1566.855339058516
 21
2089.073980639643
 31
0.0
  0
LINE
  5
354
330
1F
100
AcDbEntity
  8
LAY-10
  6
CONTINUOUS
 62
     7
100
AcDbLine
 10
1478.46699141102
 20
2036.040972053438
 30
0.0
 11
1470.00000000002
 21
2027.573980642294
 31
0.0
  0
LINE
  5
355
330
1F
100
AcDbEntity
  8
LAY-10
  6
CONTINUOUS
 62
     7
100
AcDbLine
 10
1513.82233047032
 20
2036.040972052438
 30
0.0
 11
1496.14466094062
 21
2018.36330252244
 31
0.0
  0
LINE
  5
356
330
1F
100
AcDbEntity
  8
LAY-10
  6
CONTINUOUS
 62
     7
100
AcDbLine
 10
1496.14466094062
 20
2000.685632993439
 30
0.0
 11
1478.46699141092
 21
2018.36330252244
 31
0.0
  0
LINE
  5
357
330
1F
100
AcDbEntity
  8
LAY-10
  6
CONTINUOUS
 62
     7
100
AcDbLine
 10
1531.49999999992
 20
2000.685632993438
 30
0.0
 11
1513.82233047032
 21
2018.36330252244
 31
0.0
  0
LINE
  5
358
330
1F
100
AcDbEntity
  8
LAY-10
  6
CONTINUOUS
 62
     7
100
AcDbLine
 10
1619.888347648319
 20
2053.718641581439
 30
0.0
 11
1637.56601717802
 21
2036.040972052438
 31
0.0
  0
LINE
  5
359
330
1F
100
AcDbEntity
  8
LAY-10
  6
CONTINUOUS
 62
     7
100
AcDbLine
 10
1602.21067811872
 20
2018.363302522439
 30
0.0
 11
1619.888347648319
 21
2036.040972052438
 31
0.0
  0
LINE
  5
35A
330
1F
100
AcDbEntity
  8
LAY-10
  6
CONTINUOUS
 62
     7
100
AcDbLine
 10
1602.21067811872
 20
2053.718641581439
 30
0.0
 11
1619.888347648319
 21
2071.396311111439
 31
0.0
  0
LINE
  5
35B
330
1F
100
AcDbEntity
  8
LAY-10
  6
CONTINUOUS
 62
     7
100
AcDbLine
 10
1584.53300858902
 20
2018.363302522439
 30
0.0
 11
1602.21067811872
 21
2000.685632993439
 31
0.0
  0
LINE
  5
35C
330
1F
100
AcDbEntity
  8
LAY-10
  6
CONTINUOUS
 62
     7
100
AcDbLine
 10
1549.17766952972
 20
2036.040972052438
 30
0.0
 11
1531.50000000002
 21
2018.363302522439
 31
0.0
  0
LINE
  5
35D
330
1F
100
AcDbEntity
  8
LAY-10
  6
CONTINUOUS
 62
     7
100
AcDbLine
 10
1549.17766952972
 20
2018.363302522439
 30
0.0
 11
1566.855339059319
 21
2000.685632993439
 31
0.0
  0
LINE
  5
35E
330
1F
100
AcDbEntity
  8
LAY-10
  6
CONTINUOUS
 62
     7
100
AcDbLine
 10
1584.53300858902
 20
2053.718641581439
 30
0.0
 11
1602.21067811872
 21
2036.040972052438
 31
0.0
  0
LINE
  5
35F
330
1F
100
AcDbEntity
  8
LAY-10
  6
CONTINUOUS
 62
     7
100
AcDbLine
 10
1602.21067811872
 20
2071.396311111439
 30
0.0
 11
1584.53300858902
 21
2089.073980641439
 31
0.0
  0
LINE
  5
360
330
1F
100
AcDbEntity
  8
LAY-10
  6
CONTINUOUS
 62
     7
100
AcDbLine
 10
1478.46699141082
 20
1929.974954875438
 30
0.0
 11
1470.00000000002
 21
1921.507963464494
 31
0.0
  0
LINE
  5
361
330
1F
100
AcDbEntity
  8
LAY-10
  6
CONTINUOUS
 62
     7
100
AcDbLine
 10
1513.82233047022
 20
1965.330293934438
 30
0.0
 11
1496.14466094052
 21
1947.652624404439
 31
0.0
  0
LINE
  5
362
330
1F
100
AcDbEntity
  8
LAY-10
  6
CONTINUOUS
 62
     7
100
AcDbLine
 10
1478.46699141092
 20
1947.652624404439
 30
0.0
 11
1496.14466094052
 21
1929.974954875439
 31
0.0
  0
LINE
  5
363
330
1F
100
AcDbEntity
  8
LAY-10
  6
CONTINUOUS
 62
     7
100
AcDbLine
 10
1478.46699141092
 20
1965.330293934438
 30
0.0
 11
1470.00000000002
 21
1956.863302523395
 31
0.0
  0
LINE
  5
364
330
1F
100
AcDbEntity
  8
LAY-10
  6
CONTINUOUS
 62
     7
100
AcDbLine
 10
1478.46699141092
 20
2000.685632993439
 30
0.0
 11
1470.00000000002
 21
1992.218641582395
 31
0.0
  0
LINE
  5
365
330
1F
100
AcDbEntity
  8
LAY-10
  6
CONTINUOUS
 62
     7
100
AcDbLine
 10
1496.14466094052
 20
1965.330293934438
 30
0.0
 11
1478.46699141092
 21
1983.007963463439
 31
0.0
  0
LINE
  5
366
330
1F
100
AcDbEntity
  8
LAY-10
  6
CONTINUOUS
 62
     7
100
AcDbLine
 10
1513.82233047022
 20
1947.652624404439
 30
0.0
 11
1531.49999999992
 21
1929.974954875439
 31
0.0
  0
LINE
  5
367
330
1F
100
AcDbEntity
  8
LAY-10
  6
CONTINUOUS
 62
     7
100
AcDbLine
 10
1531.49999999992
 20
1947.652624404439
 30
0.0
 11
1549.17766952962
 21
1965.330293934439
 31
0.0
  0
LINE
  5
368
330
1F
100
AcDbEntity
  8
LAY-10
  6
CONTINUOUS
 62
     7
100
AcDbLine
 10
1549.17766952962
 20
1983.007963463438
 30
0.0
 11
1566.855339059319
 21
1965.330293934439
 31
0.0
  0
LINE
  5
369
330
1F
100
AcDbEntity
  8
LAY-10
  6
CONTINUOUS
 62
     7
100
AcDbLine
 10
1513.82233047032
 20
2000.685632993439
 30
0.0
 11
1496.14466094062
 21
1983.007963463439
 31
0.0
  0
LINE
  5
36A
330
1F
100
AcDbEntity
  8
LAY-10
  6
CONTINUOUS
 62
     7
100
AcDbLine
 10
1549.17766952962
 20
2000.685632993438
 30
0.0
 11
1531.49999999992
 21
1983.007963463438
 31
0.0
  0
LINE
  5
36B
330
1F
100
AcDbEntity
  8
LAY-10
  6
CONTINUOUS
 62
     7
100
AcDbLine
 10
1513.82233047032
 20
1983.007963463439
 30
0.0
 11
1531.49999999992
 21
1965.330293934439
 31
0.0
  0
LINE
  5
36C
330
1F
100
AcDbEntity
  8
LAY-10
  6
CONTINUOUS
 62
     7
100
AcDbLine
 10
1496.14466094052
 20
1912.297285345438
 30
0.0
 11
1513.82233047022
 21
1929.974954875439
 31
0.0
  0
LINE
  5
36D
330
1F
100
AcDbEntity
  8
LAY-10
  6
CONTINUOUS
 62
     7
100
AcDbLine
 10
1478.46699141082
 20
1912.297285345438
 30
0.0
 11
1496.14466094052
 21
1894.619615816438
 31
0.0
  0
LINE
  5
36E
330
1F
100
AcDbEntity
  8
LAY-10
  6
CONTINUOUS
 62
     7
100
AcDbLine
 10
1470.00000000002
 20
1886.152624405494
 30
0.0
 11
1478.46699141082
 21
1894.619615816438
 31
0.0
  0
LINE
  5
36F
330
1F
100
AcDbEntity
  8
LAY-10
  6
CONTINUOUS
 62
     7
100
AcDbLine
 10
1608.855339059507
 20
2095.718641581439
 30
0.0
 11
1602.21067811862
 21
2089.073980640439
 31
0.0
  0
LINE
  5
370
330
1F
100
AcDbEntity
  8
LAY-10
  6
CONTINUOUS
 62
     7
100
AcDbLine
 10
1644.210678119184
 20
2095.718641581439
 30
0.0
 11
1637.56601717892
 21
2089.073980641439
 31
0.0
  0
LINE
  5
371
330
1F
100
AcDbEntity
  8
LAY-10
  6
CONTINUOUS
 62
     7
100
AcDbLine
 10
1679.566017178854
 20
2095.718641581439
 30
0.0
 11
1672.92135623859
 21
2089.073980641439
 31
0.0
  0
LINE
  5
372
330
1F
100
AcDbEntity
  8
LAY-10
  6
CONTINUOUS
 62
     7
100
AcDbLine
 10
1584.53300858902
 20
2036.040972052438
 30
0.0
 11
1566.855339059319
 21
2018.363302522439
 31
0.0
  0
LINE
  5
373
330
1F
100
AcDbEntity
  8
LAY-10
  6
CONTINUOUS
 62
     7
100
AcDbLine
 10
1566.855339059319
 20
1983.007963463438
 30
0.0
 11
1584.53300858902
 21
2000.685632993439
 31
0.0
  0
LINE
  5
374
330
1F
100
AcDbEntity
  8
LAY-10
  6
CONTINUOUS
 62
     7
100
AcDbLine
 10
1513.822330470719
 20
2071.396311110838
 30
0.0
 11
1496.14466094102
 21
2053.718641580838
 31
0.0
  0
LINE
  5
375
330
1F
100
AcDbEntity
  8
LAY-10
  6
CONTINUOUS
 62
     7
100
AcDbLine
 10
1496.14466094072
 20
2071.396311110537
 30
0.0
 11
1478.466991411419
 21
2089.073980639836
 31
0.0
  0
LINE
  5
376
330
1F
100
AcDbEntity
  8
LAY-10
  6
CONTINUOUS
 62
     7
100
AcDbLine
 10
1478.46699141202
 20
2053.718641580438
 30
0.0
 11
1496.14466094132
 21
2036.040972051139
 31
0.0
  0
LINE
  5
377
330
1F
100
AcDbEntity
  8
LAY-10
  6
CONTINUOUS
 62
     7
100
AcDbLine
 10
1584.53300858902
 20
2071.396311111439
 30
0.0
 11
1571.000000000021
 21
2057.86330252221
 31
0.0
  0
LINE
  5
378
330
1F
100
AcDbEntity
  8
LAY-10
  6
CONTINUOUS
 62
     7
100
AcDbLine
 10
1513.822330470818
 20
2089.073980639238
 30
0.0
 11
1531.500000000118
 21
2071.396311109939
 31
0.0
  0
LINE
  5
379
330
1F
100
AcDbEntity
  8
LAY-10
  6
CONTINUOUS
 62
     7
100
AcDbLine
 10
1531.499999998819
 20
2053.718641580939
 30
0.0
 11
1549.177669528818
 21
2071.396311110641
 31
0.0
  0
LINE
  5
37A
330
1F
100
AcDbEntity
  8
LAY-10
  6
CONTINUOUS
 62
     7
100
AcDbLine
 10
1566.855339057819
 20
2071.396311110642
 30
0.0
 11
1549.177669528816
 21
2089.073980640341
 31
0.0
  0
LINE
  5
37B
330
1F
100
AcDbEntity
  8
LAY-10
  6
CONTINUOUS
 62
     7
100
AcDbLine
 10
1566.855339057821
 20
2036.040972051342
 30
0.0
 11
1549.177669528819
 21
2053.718641580941
 31
0.0
  0
LINE
  5
37C
330
1F
100
AcDbEntity
  8
LAY-10
  6
CONTINUOUS
 62
     7
100
AcDbLine
 10
1531.499999997818
 20
2089.07398064024
 30
0.0
 11
1538.14466093913
 21
2095.718641581439
 31
0.0
  0
LINE
  5
37D
330
1F
100
AcDbEntity
  8
LAY-10
  6
CONTINUOUS
 62
     7
100
AcDbLine
 10
1531.49999999972
 20
2036.040972052139
 30
0.0
 11
1513.82233047042
 21
2053.718641581439
 31
0.0
  0
LINE
  5
37E
330
1F
100
AcDbEntity
  8
LAY-10
  6
CONTINUOUS
 62
     7
100
AcDbLine
 10
1655.243686706621
 20
2071.396311112439
 30
0.0
 11
1637.566017177321
 21
2053.718641582139
 31
0.0
  0
LINE
  5
37F
330
1F
100
AcDbEntity
  8
LAY-10
  6
CONTINUOUS
 62
     7
100
AcDbLine
 10
1655.243686705922
 20
2089.073980642138
 30
0.0
 11
1672.921356235621
 21
2071.396311113138
 31
0.0
  0
LINE
  5
380
330
1F
100
AcDbEntity
  8
LAY-10
  6
CONTINUOUS
 62
     7
100
AcDbLine
 10
1469.999999999999
 20
2095.718641581441
 30
0.0
 11
1469.999999999999
 21
1325.718641581441
 31
0.0
  0
LINE
  5
381
330
1F
100
AcDbEntity
  8
LAY-10
  6
CONTINUOUS
 62
     7
100
AcDbLine
 10
1469.999999999999
 20
2095.718641581441
 30
0.0
 11
1924.999999999999
 21
2095.718641581443
 31
0.0
  0
LINE
  5
382
330
1F
100
AcDbEntity
  8
LAY-10
  6
CONTINUOUS
 62
     7
100
AcDbLine
 10
1469.999999999999
 20
1325.718641581441
 30
0.0
 11
1925.000000000001
 21
1325.718641581443
 31
0.0
  0
LINE
  5
383
330
1F
100
AcDbEntity
  8
LAY-10
  6
CONTINUOUS
 62
     7
100
AcDbLine
 10
1926.000000000047
 20
903.9999999999526
 30
0.0
 11
1941.000000000047
 21
903.9999999999526
 31
0.0
  0
LINE
  5
384
330
1F
100
AcDbEntity
  8
LAY-10
  6
CONTINUOUS
 62
     7
100
AcDbLine
 10
1926.000000000047
 20
903.9999999999526
 30
0.0
 11
1926.000000000047
 21
888.9999999999526
 31
0.0
  0
LINE
  5
385
330
1F
100
AcDbEntity
  8
LAY-10
  6
CONTINUOUS
 62
     7
100
AcDbLine
 10
1929.000000000044
 20
900.9999999999528
 30
0.0
 11
1941.000000000047
 21
900.9999999999528
 31
0.0
  0
LINE
  5
386
330
1F
100
AcDbEntity
  8
LAY-10
  6
CONTINUOUS
 62
     7
100
AcDbLine
 10
1926.000000000047
 20
888.9999999999526
 30
0.0
 11
1929.000000000044
 21
888.9999999999526
 31
0.0
  0
LINE
  5
387
330
1F
100
AcDbEntity
  8
LAY-10
  6
CONTINUOUS
 62
     7
100
AcDbLine
 10
1941.000000000047
 20
903.9999999999526
 30
0.0
 11
1941.000000000047
 21
900.9999999999528
 31
0.0
  0
LINE
  5
388
330
1F
100
AcDbEntity
  8
LAY-10
  6
CONTINUOUS
 62
     7
100
AcDbLine
 10
1886.00000000005
 20
772.1999999999514
 30
0.0
 11
1840.000000000046
 21
772.199999999952
 31
0.0
  0
LINE
  5
389
330
1F
100
AcDbEntity
  8
LAY-10
  6
CONTINUOUS
 62
     7
100
AcDbLine
 10
1881.999999999979
 20
824.1999999999039
 30
0.0
 11
1881.999999999979
 21
772.199999999902
 31
0.0
  0
LINE
  5
38A
330
1F
100
AcDbEntity
  8
LAY-10
  6
CONTINUOUS
 62
     7
100
AcDbLine
 10
1880.399999999979
 20
775.7999999999021
 30
0.0
 11
1880.399999999979
 21
822.5999999999027
 31
0.0
  0
LINE
  5
38B
330
1F
100
AcDbEntity
  8
LAY-10
  6
CONTINUOUS
 62
     7
100
AcDbLine
 10
1806.69999999998
 20
825.1999999999032
 30
0.0
 11
1806.69999999998
 21
824.1999999999039
 31
0.0
  0
CIRCLE
  5
38C
330
1F
100
AcDbEntity
  8
LAY-10
  6
CONTINUOUS
 62
     7
100
AcDbCircle
 10
1749.999999999974
 20
827.1999999999032
 30
0.0
 40
3.000000000000003
  0
ARC
  5
38D
330
1F
100
AcDbEntity
  8
LAY-10
  6
CONTINUOUS
 62
     7
100
AcDbCircle
 10
1793.700891000947
 20
827.1991089989348
 30
0.0
 40
2.999108999030569
100
AcDbArc
 50
270.0
 51
90.00000000000001
  0
ARC
  5
38E
330
1F
100
AcDbEntity
  8
LAY-10
  6
CONTINUOUS
 62
     7
100
AcDbCircle
 10
1797.699999999979
 20
825.1999999999032
 30
0.0
 40
1.0
100
AcDbArc
 50
180.0
 51
270.0
  0
LINE
  5
38F
330
1F
100
AcDbEntity
  8
LAY-10
  6
CONTINUOUS
 62
     7
100
AcDbLine
 10
1797.699999999979
 20
827.1999999999034
 30
0.0
 11
1797.699999999979
 21
825.1999999999032
 31
0.0
  0
LINE
  5
390
330
1F
100
AcDbEntity
  8
LAY-10
  6
CONTINUOUS
 62
     7
100
AcDbLine
 10
1797.699999999979
 20
825.1999999999032
 30
0.0
 11
1806.69999999998
 21
825.1999999999032
 31
0.0
  0
LINE
  5
391
330
1F
100
AcDbEntity
  8
LAY-10
  6
CONTINUOUS
 62
     7
100
AcDbLine
 10
1749.909132620058
 20
830.1986235373403
 30
0.0
 11
1793.700891000947
 21
830.1986235373403
 31
0.0
  0
ARC
  5
392
330
1F
100
AcDbEntity
  8
LAY-10
  6
CONTINUOUS
 62
     7
100
AcDbCircle
 10
1793.699999999978
 20
827.1999999999034
 30
0.0
 40
4.0
100
AcDbArc
 50
0.0
 51
131.4394216791276
  0
LINE
  5
393
330
1F
100
AcDbEntity
  8
LAY-10
  6
CONTINUOUS
 62
     7
100
AcDbLine
 10
1796.699999999976
 20
825.1999999999032
 30
0.0
 11
1796.699999999976
 21
827.1999999999034
 31
0.0
  0
LINE
  5
394
330
1F
100
AcDbEntity
  8
LAY-10
  6
CONTINUOUS
 62
     7
100
AcDbLine
 10
1856.999999999981
 20
772.199999999902
 30
0.0
 11
1856.999999999981
 21
774.1999999999035
 31
0.0
  0
LINE
  5
395
330
1F
100
AcDbEntity
  8
LAY-10
  6
CONTINUOUS
 62
     7
100
AcDbLine
 10
1886.200000000052
 20
768.9999999999507
 30
0.0
 11
1840.000000000046
 21
768.9999999999507
 31
0.0
  0
LINE
  5
396
330
1F
100
AcDbEntity
  8
LAY-10
  6
CONTINUOUS
 62
     7
100
AcDbLine
 10
1840.000000000046
 20
772.1999999999472
 30
0.0
 11
1840.000000000046
 21
768.9999999999507
 31
0.0
  0
ARC
  5
397
330
1F
100
AcDbEntity
  8
LAY-10
  6
CONTINUOUS
 62
     7
100
AcDbCircle
 10
1886.200000000052
 20
771.9999999999511
 30
0.0
 40
3.000000000000003
100
AcDbArc
 50
270.0
 51
0.0
  0
LINE
  5
398
330
1F
100
AcDbEntity
  8
LAY-10
  6
CONTINUOUS
 62
     7
100
AcDbLine
 10
1889.200000000053
 20
841.2999999999641
 30
0.0
 11
1889.200000000053
 21
771.9999999999511
 31
0.0
  0
LINE
  5
399
330
1F
100
AcDbEntity
  8
LAY-10
  6
CONTINUOUS
 62
     7
100
AcDbLine
 10
1886.00000000005
 20
841.499999999964
 30
0.0
 11
1886.00000000005
 21
772.1999999999472
 31
0.0
  0
ARC
  5
39A
330
1F
100
AcDbEntity
  8
LAY-10
  6
CONTINUOUS
 62
     7
100
AcDbCircle
 10
1926.000000000013
 20
850.499999999962
 30
0.0
 40
3.000000000000003
100
AcDbArc
 50
270.0
 51
0.0
  0
ARC
  5
39B
330
1F
100
AcDbEntity
  8
LAY-10
  6
CONTINUOUS
 62
     7
100
AcDbCircle
 10
1926.200000000013
 20
850.2999999999633
 30
0.0
 40
6.000000000000006
100
AcDbArc
 50
270.0
 51
0.0
  0
ARC
  5
39C
330
1F
100
AcDbEntity
  8
LAY-10
  6
CONTINUOUS
 62
     7
100
AcDbCircle
 10
1892.200000000053
 20
841.2999999999641
 30
0.0
 40
3.000000000000003
100
AcDbArc
 50
90.00000000000001
 51
180.0
  0
ARC
  5
39D
330
1F
100
AcDbEntity
  8
LAY-10
  6
CONTINUOUS
 62
     7
100
AcDbCircle
 10
1892.000000000052
 20
841.499999999964
 30
0.0
 40
6.000000000000006
100
AcDbArc
 50
90.00000000000001
 51
180.0
  0
LINE
  5
39E
330
1F
100
AcDbEntity
  8
LAY-10
  6
CONTINUOUS
 62
     7
100
AcDbLine
 10
1898.886291501058
 20
836.2999999998622
 30
0.0
 11
1898.886291501058
 21
844.2999999998631
 31
0.0
  0
LINE
  5
39F
330
1F
100
AcDbEntity
  8
LAY-10
  6
CONTINUOUS
 62
     7
100
AcDbLine
 10
1928.88629150106
 20
836.2999999998622
 30
0.0
 11
1898.886291501058
 21
836.2999999998622
 31
0.0
  0
ARC
  5
3A0
330
1F
100
AcDbEntity
  8
LAY-10
  6
CONTINUOUS
 62
     7
100
AcDbCircle
 10
1928.88629150106
 20
836.2999999998622
 30
0.0
 40
8.0
100
AcDbArc
 50
45.00000000000463
 51
90.00000000000001
  0
LINE
  5
3A1
330
1F
100
AcDbEntity
  8
LAY-10
  6
CONTINUOUS
 62
     7
100
AcDbLine
 10
1969.89848480988
 20
806.6015151900285
 30
0.0
 11
1934.543145750552
 21
841.9568542493556
 31
0.0
  0
LINE
  5
3A2
330
1F
100
AcDbEntity
  8
LAY-10
  6
CONTINUOUS
 62
     7
100
AcDbLine
 10
1964.241630560389
 20
800.9446609405376
 30
0.0
 11
1928.88629150106
 21
836.2999999998622
 31
0.0
  0
LINE
  5
3A3
330
1F
100
AcDbEntity
  8
LAY-10
  6
CONTINUOUS
 62
     7
100
AcDbLine
 10
1969.89848480988
 20
806.6015151900285
 30
0.0
 11
1964.241630560389
 21
800.9446609405353
 31
0.0
  0
LINE
  5
3A4
330
1F
100
AcDbEntity
  8
LAY-10
  6
CONTINUOUS
 62
     7
100
AcDbLine
 10
1892.200000000053
 20
844.2999999999629
 30
0.0
 11
1928.88629150106
 21
844.2999999999629
 31
0.0
  0
LINE
  5
3A5
330
1F
100
AcDbEntity
  8
LAY-10
  6
CONTINUOUS
 62
     7
100
AcDbLine
 10
1929.000000000044
 20
900.9999999999528
 30
0.0
 11
1929.000000000044
 21
850.499999999962
 31
0.0
  0
LINE
  5
3A6
330
1F
100
AcDbEntity
  8
LAY-10
  6
CONTINUOUS
 62
     7
100
AcDbLine
 10
1932.200000000043
 20
850.2999999999633
 30
0.0
 11
1932.200000000043
 21
900.9999999999528
 31
0.0
  0
LINE
  5
3A7
330
1F
100
AcDbEntity
  8
LAY-10
  6
CONTINUOUS
 62
     7
100
AcDbLine
 10
1924.490446440032
 20
849.4999999999391
 30
0.0
 11
1922.685149781827
 21
847.4999999999363
 31
0.0
  0
LINE
  5
3A8
330
1F
100
AcDbEntity
  8
LAY-10
  6
CONTINUOUS
 62
     7
100
AcDbLine
 10
1923.783339658843
 20
849.4999999999374
 30
0.0
 11
1921.978043000641
 21
847.4999999999363
 31
0.0
  0
LINE
  5
3A9
330
1F
100
AcDbEntity
  8
LAY-10
  6
CONTINUOUS
 62
     7
100
AcDbLine
 10
1923.076232877658
 20
849.4999999999391
 30
0.0
 11
1921.270936219452
 21
847.4999999999363
 31
0.0
  0
LINE
  5
3AA
330
1F
100
AcDbEntity
  8
LAY-10
  6
CONTINUOUS
 62
     7
100
AcDbLine
 10
1922.36912609647
 20
849.4999999999374
 30
0.0
 11
1920.563829438269
 21
847.4999999999363
 31
0.0
  0
LINE
  5
3AB
330
1F
100
AcDbEntity
  8
LAY-10
  6
CONTINUOUS
 62
     7
100
AcDbLine
 10
1921.662019315286
 20
849.4999999999391
 30
0.0
 11
1919.85672265708
 21
847.4999999999363
 31
0.0
  0
LINE
  5
3AC
330
1F
100
AcDbEntity
  8
LAY-10
  6
CONTINUOUS
 62
     7
100
AcDbLine
 10
1920.954912534098
 20
849.4999999999374
 30
0.0
 11
1919.152962425222
 21
847.49804989106
 31
0.0
  0
LINE
  5
3AD
330
1F
100
AcDbEntity
  8
LAY-10
  6
CONTINUOUS
 62
     7
100
AcDbLine
 10
1920.247805752912
 20
849.4999999999391
 30
0.0
 11
1918.446259014594
 21
847.4999999999363
 31
0.0
  0
LINE
  5
3AE
330
1F
100
AcDbEntity
  8
LAY-10
  6
CONTINUOUS
 62
     7
100
AcDbLine
 10
1919.540698971725
 20
849.4999999999374
 30
0.0
 11
1917.740698971726
 21
847.4999999999392
 31
0.0
  0
LINE
  5
3AF
330
1F
100
AcDbEntity
  8
LAY-10
  6
CONTINUOUS
 62
     7
100
AcDbLine
 10
1918.83359219054
 20
849.4999999999391
 30
0.0
 11
1917.03359219054
 21
847.4999999999355
 31
0.0
  0
LINE
  5
3B0
330
1F
100
AcDbEntity
  8
LAY-10
  6
CONTINUOUS
 62
     7
100
AcDbLine
 10
1918.126485409353
 20
849.4999999999374
 30
0.0
 11
1916.326485409354
 21
847.4999999999392
 31
0.0
  0
LINE
  5
3B1
330
1F
100
AcDbEntity
  8
LAY-10
  6
CONTINUOUS
 62
     7
100
AcDbLine
 10
1917.419378628167
 20
849.4999999999391
 30
0.0
 11
1915.619378628166
 21
847.4999999999355
 31
0.0
  0
LINE
  5
3B2
330
1F
100
AcDbEntity
  8
LAY-10
  6
CONTINUOUS
 62
     7
100
AcDbLine
 10
1916.712271846978
 20
849.4999999999374
 30
0.0
 11
1914.91227184698
 21
847.4999999999392
 31
0.0
  0
LINE
  5
3B3
330
1F
100
AcDbEntity
  8
LAY-10
  6
CONTINUOUS
 62
     7
100
AcDbLine
 10
1916.005165065794
 20
849.4999999999391
 30
0.0
 11
1914.205165065793
 21
847.4999999999355
 31
0.0
  0
LINE
  5
3B4
330
1F
100
AcDbEntity
  8
LAY-10
  6
CONTINUOUS
 62
     7
100
AcDbLine
 10
1915.298058284606
 20
849.4999999999374
 30
0.0
 11
1913.498058284608
 21
847.4999999999392
 31
0.0
  0
LINE
  5
3B5
330
1F
100
AcDbEntity
  8
LAY-10
  6
CONTINUOUS
 62
     7
100
AcDbLine
 10
1914.590951503421
 20
849.4999999999391
 30
0.0
 11
1912.790951503417
 21
847.4999999999355
 31
0.0
  0
LINE
  5
3B6
330
1F
100
AcDbEntity
  8
LAY-10
  6
CONTINUOUS
 62
     7
100
AcDbLine
 10
1913.883844722234
 20
849.4999999999374
 30
0.0
 11
1912.083844722234
 21
847.4999999999392
 31
0.0
  0
LINE
  5
3B7
330
1F
100
AcDbEntity
  8
LAY-10
  6
CONTINUOUS
 62
     7
100
AcDbLine
 10
1913.176737941049
 20
849.4999999999391
 30
0.0
 11
1911.376737941046
 21
847.4999999999355
 31
0.0
  0
LINE
  5
3B8
330
1F
100
AcDbEntity
  8
LAY-10
  6
CONTINUOUS
 62
     7
100
AcDbLine
 10
1912.46963115986
 20
849.4999999999374
 30
0.0
 11
1910.669631159862
 21
847.4999999999392
 31
0.0
  0
LINE
  5
3B9
330
1F
100
AcDbEntity
  8
LAY-10
  6
CONTINUOUS
 62
     7
100
AcDbLine
 10
1911.762524378674
 20
849.4999999999391
 30
0.0
 11
1909.962524378673
 21
847.4999999999355
 31
0.0
  0
LINE
  5
3BA
330
1F
100
AcDbEntity
  8
LAY-10
  6
CONTINUOUS
 62
     7
100
AcDbLine
 10
1911.055417597486
 20
849.4999999999374
 30
0.0
 11
1909.255417597489
 21
847.4999999999401
 31
0.0
  0
LINE
  5
3BB
330
1F
100
AcDbEntity
  8
LAY-10
  6
CONTINUOUS
 62
     7
100
AcDbLine
 10
1910.348310816302
 20
849.4999999999391
 30
0.0
 11
1908.548310816299
 21
847.4999999999355
 31
0.0
  0
LINE
  5
3BC
330
1F
100
AcDbEntity
  8
LAY-10
  6
CONTINUOUS
 62
     7
100
AcDbLine
 10
1909.641204035112
 20
849.4999999999374
 30
0.0
 11
1907.841204035117
 21
847.4999999999401
 31
0.0
  0
LINE
  5
3BD
330
1F
100
AcDbEntity
  8
LAY-10
  6
CONTINUOUS
 62
     7
100
AcDbLine
 10
1908.934097253929
 20
849.4999999999391
 30
0.0
 11
1907.134097253926
 21
847.4999999999355
 31
0.0
  0
LINE
  5
3BE
330
1F
100
AcDbEntity
  8
LAY-10
  6
CONTINUOUS
 62
     7
100
AcDbLine
 10
1908.22699047274
 20
849.4999999999374
 30
0.0
 11
1906.426990472744
 21
847.4999999999401
 31
0.0
  0
LINE
  5
3BF
330
1F
100
AcDbEntity
  8
LAY-10
  6
CONTINUOUS
 62
     7
100
AcDbLine
 10
1907.519883691556
 20
849.4999999999391
 30
0.0
 11
1905.719883691554
 21
847.4999999999355
 31
0.0
  0
LINE
  5
3C0
330
1F
100
AcDbEntity
  8
LAY-10
  6
CONTINUOUS
 62
     7
100
AcDbLine
 10
1906.812776910367
 20
849.4999999999374
 30
0.0
 11
1905.01277691037
 21
847.4999999999401
 31
0.0
  0
LINE
  5
3C1
330
1F
100
AcDbEntity
  8
LAY-10
  6
CONTINUOUS
 62
     7
100
AcDbLine
 10
1906.105670129183
 20
849.4999999999391
 30
0.0
 11
1904.30567012918
 21
847.4999999999372
 31
0.0
  0
LINE
  5
3C2
330
1F
100
AcDbEntity
  8
LAY-10
  6
CONTINUOUS
 62
     7
100
AcDbLine
 10
1905.398563347994
 20
849.4999999999374
 30
0.0
 11
1903.598563347998
 21
847.4999999999401
 31
0.0
  0
LINE
  5
3C3
330
1F
100
AcDbEntity
  8
LAY-10
  6
CONTINUOUS
 62
     7
100
AcDbLine
 10
1904.691456566811
 20
849.4999999999391
 30
0.0
 11
1902.891456566808
 21
847.4999999999372
 31
0.0
  0
LINE
  5
3C4
330
1F
100
AcDbEntity
  8
LAY-10
  6
CONTINUOUS
 62
     7
100
AcDbLine
 10
1903.984349785621
 20
849.4999999999374
 30
0.0
 11
1902.184349785625
 21
847.4999999999401
 31
0.0
  0
LINE
  5
3C5
330
1F
100
AcDbEntity
  8
LAY-10
  6
CONTINUOUS
 62
     7
100
AcDbLine
 10
1903.277243004438
 20
849.4999999999391
 30
0.0
 11
1901.477243004434
 21
847.4999999999372
 31
0.0
  0
LINE
  5
3C6
330
1F
100
AcDbEntity
  8
LAY-10
  6
CONTINUOUS
 62
     7
100
AcDbLine
 10
1902.570136223249
 20
849.4999999999374
 30
0.0
 11
1900.770136223252
 21
847.4999999999401
 31
0.0
  0
LINE
  5
3C7
330
1F
100
AcDbEntity
  8
LAY-10
  6
CONTINUOUS
 62
     7
100
AcDbLine
 10
1901.863029442065
 20
849.49999999994
 30
0.0
 11
1900.063029442063
 21
847.4999999999372
 31
0.0
  0
LINE
  5
3C8
330
1F
100
AcDbEntity
  8
LAY-10
  6
CONTINUOUS
 62
     7
100
AcDbLine
 10
1901.155922660874
 20
849.4999999999374
 30
0.0
 11
1899.35592266088
 21
847.4999999999401
 31
0.0
  0
LINE
  5
3C9
330
1F
100
AcDbEntity
  8
LAY-10
  6
CONTINUOUS
 62
     7
100
AcDbLine
 10
1900.448815879693
 20
849.49999999994
 30
0.0
 11
1898.648815879689
 21
847.4999999999372
 31
0.0
  0
LINE
  5
3CA
330
1F
100
AcDbEntity
  8
LAY-10
  6
CONTINUOUS
 62
     7
100
AcDbLine
 10
1899.741709098502
 20
849.4999999999374
 30
0.0
 11
1897.941709098505
 21
847.4999999999401
 31
0.0
  0
LINE
  5
3CB
330
1F
100
AcDbEntity
  8
LAY-10
  6
CONTINUOUS
 62
     7
100
AcDbLine
 10
1899.034602317319
 20
849.49999999994
 30
0.0
 11
1897.234602317317
 21
847.4999999999372
 31
0.0
  0
LINE
  5
3CC
330
1F
100
AcDbEntity
  8
LAY-10
  6
CONTINUOUS
 62
     7
100
AcDbLine
 10
1898.327495536129
 20
849.4999999999374
 30
0.0
 11
1896.527495536133
 21
847.4999999999401
 31
0.0
  0
LINE
  5
3CD
330
1F
100
AcDbEntity
  8
LAY-10
  6
CONTINUOUS
 62
     7
100
AcDbLine
 10
1897.620388754946
 20
849.49999999994
 30
0.0
 11
1895.820388754944
 21
847.4999999999372
 31
0.0
  0
LINE
  5
3CE
330
1F
100
AcDbEntity
  8
LAY-10
  6
CONTINUOUS
 62
     7
100
AcDbLine
 10
1896.913281973757
 20
849.4999999999383
 30
0.0
 11
1895.11328197376
 21
847.4999999999401
 31
0.0
  0
LINE
  5
3CF
330
1F
100
AcDbEntity
  8
LAY-10
  6
CONTINUOUS
 62
     7
100
AcDbLine
 10
1896.206175192574
 20
849.49999999994
 30
0.0
 11
1894.999999999791
 21
848.0938248071578
 31
0.0
  0
LINE
  5
3D0
330
1F
100
AcDbEntity
  8
LAY-10
  6
CONTINUOUS
 62
     7
100
AcDbLine
 10
1895.499068411383
 20
849.4999999999383
 30
0.0
 11
1894.999999999789
 21
849.0009315883407
 31
0.0
  0
LINE
  5
3D1
330
1F
100
AcDbEntity
  8
LAY-10
  6
CONTINUOUS
 62
     7
100
AcDbLine
 10
1924.999999999872
 20
849.2811404341737
 30
0.0
 11
1923.392256563013
 21
847.4999999999363
 31
0.0
  0
LINE
  5
3D2
330
1F
100
AcDbEntity
  8
LAY-10
  6
CONTINUOUS
 62
     7
100
AcDbLine
 10
1924.999999999872
 20
848.4977713651915
 30
0.0
 11
1924.099363344199
 21
847.4999999999363
 31
0.0
  0
LINE
  5
3D3
330
1F
100
AcDbEntity
  8
LAY-10
  6
CONTINUOUS
 62
     7
100
AcDbLine
 10
1924.999999999872
 20
847.7144022962074
 30
0.0
 11
1924.806470125387
 21
847.4999999999363
 31
0.0
  0
LINE
  5
3D4
330
1F
100
AcDbEntity
  8
LAY-10
  6
CONTINUOUS
 62
     7
100
AcDbLine
 10
1894.999999999939
 20
849.4999999999351
 30
0.0
 11
1894.999999999939
 21
847.4999999999352
 31
0.0
  0
LINE
  5
3D5
330
1F
100
AcDbEntity
  8
LAY-10
  6
CONTINUOUS
 62
     7
100
AcDbLine
 10
553.999999999988
 20
903.9999999999526
 30
0.0
 11
538.999999999988
 21
903.9999999999526
 31
0.0
  0
LINE
  5
3D6
330
1F
100
AcDbEntity
  8
LAY-10
  6
CONTINUOUS
 62
     7
100
AcDbLine
 10
553.999999999988
 20
903.9999999999526
 30
0.0
 11
553.999999999988
 21
888.9999999999526
 31
0.0
  0
LINE
  5
3D7
330
1F
100
AcDbEntity
  8
LAY-10
  6
CONTINUOUS
 62
     7
100
AcDbLine
 10
550.9999999999907
 20
900.9999999999528
 30
0.0
 11
538.999999999988
 21
900.9999999999528
 31
0.0
  0
LINE
  5
3D8
330
1F
100
AcDbEntity
  8
LAY-10
  6
CONTINUOUS
 62
     7
100
AcDbLine
 10
553.999999999988
 20
888.9999999999526
 30
0.0
 11
550.9999999999907
 21
888.9999999999526
 31
0.0
  0
LINE
  5
3D9
330
1F
100
AcDbEntity
  8
LAY-10
  6
CONTINUOUS
 62
     7
100
AcDbLine
 10
538.999999999988
 20
903.9999999999526
 30
0.0
 11
538.999999999988
 21
900.9999999999528
 31
0.0
  0
LINE
  5
3DA
330
1F
100
AcDbEntity
  8
LAY-10
  6
CONTINUOUS
 62
     7
100
AcDbLine
 10
593.9999999999852
 20
772.1999999999514
 30
0.0
 11
639.9999999999893
 21
772.199999999952
 31
0.0
  0
LINE
  5
3DB
330
1F
100
AcDbEntity
  8
LAY-10
  6
CONTINUOUS
 62
     7
100
AcDbLine
 10
598.0000000000562
 20
824.1999999999039
 30
0.0
 11
598.0000000000562
 21
772.199999999902
 31
0.0
  0
LINE
  5
3DC
330
1F
100
AcDbEntity
  8
LAY-10
  6
CONTINUOUS
 62
     7
100
AcDbLine
 10
599.6000000000556
 20
775.7999999999021
 30
0.0
 11
599.6000000000556
 21
822.5999999999027
 31
0.0
  0
LINE
  5
3DD
330
1F
100
AcDbEntity
  8
LAY-10
  6
CONTINUOUS
 62
     7
100
AcDbLine
 10
673.3000000000559
 20
825.1999999999032
 30
0.0
 11
673.3000000000559
 21
824.1999999999039
 31
0.0
  0
CIRCLE
  5
3DE
330
1F
100
AcDbEntity
  8
LAY-10
  6
CONTINUOUS
 62
     7
100
AcDbCircle
 10
730.0000000000606
 20
827.1999999999032
 30
0.0
 40
3.000000000000003
  0
ARC
  5
3DF
330
1F
100
AcDbEntity
  8
LAY-10
  6
CONTINUOUS
 62
     7
100
AcDbCircle
 10
686.299108999088
 20
827.1991089989348
 30
0.0
 40
2.999108999030569
100
AcDbArc
 50
90.00000000000001
 51
270.0000000000002
  0
ARC
  5
3E0
330
1F
100
AcDbEntity
  8
LAY-10
  6
CONTINUOUS
 62
     7
100
AcDbCircle
 10
682.3000000000565
 20
825.1999999999032
 30
0.0
 40
1.0
100
AcDbArc
 50
270.0000000000002
 51
0.0
  0
LINE
  5
3E1
330
1F
100
AcDbEntity
  8
LAY-10
  6
CONTINUOUS
 62
     7
100
AcDbLine
 10
682.3000000000565
 20
827.1999999999034
 30
0.0
 11
682.3000000000565
 21
825.1999999999032
 31
0.0
  0
LINE
  5
3E2
330
1F
100
AcDbEntity
  8
LAY-10
  6
CONTINUOUS
 62
     7
100
AcDbLine
 10
682.3000000000565
 20
825.1999999999032
 30
0.0
 11
673.3000000000559
 21
825.1999999999032
 31
0.0
  0
LINE
  5
3E3
330
1F
100
AcDbEntity
  8
LAY-10
  6
CONTINUOUS
 62
     7
100
AcDbLine
 10
730.0908673799779
 20
830.1986235373403
 30
0.0
 11
686.299108999088
 21
830.1986235373403
 31
0.0
  0
ARC
  5
3E4
330
1F
100
AcDbEntity
  8
LAY-10
  6
CONTINUOUS
 62
     7
100
AcDbCircle
 10
686.3000000000577
 20
827.1999999999034
 30
0.0
 40
4.0
100
AcDbArc
 50
48.56057832087367
 51
180.0
  0
LINE
  5
3E5
330
1F
100
AcDbEntity
  8
LAY-10
  6
CONTINUOUS
 62
     7
100
AcDbLine
 10
683.3000000000591
 20
825.1999999999032
 30
0.0
 11
683.3000000000591
 21
827.1999999999034
 31
0.0
  0
LINE
  5
3E6
330
1F
100
AcDbEntity
  8
LAY-10
  6
CONTINUOUS
 62
     7
100
AcDbLine
 10
623.0000000000543
 20
772.199999999902
 30
0.0
 11
623.0000000000543
 21
774.1999999999035
 31
0.0
  0
LINE
  5
3E7
330
1F
100
AcDbEntity
  8
LAY-10
  6
CONTINUOUS
 62
     7
100
AcDbLine
 10
593.7999999999827
 20
768.9999999999507
 30
0.0
 11
639.9999999999893
 21
768.9999999999507
 31
0.0
  0
LINE
  5
3E8
330
1F
100
AcDbEntity
  8
LAY-10
  6
CONTINUOUS
 62
     7
100
AcDbLine
 10
639.9999999999893
 20
772.1999999999472
 30
0.0
 11
639.9999999999893
 21
768.9999999999507
 31
0.0
  0
ARC
  5
3E9
330
1F
100
AcDbEntity
  8
LAY-10
  6
CONTINUOUS
 62
     7
100
AcDbCircle
 10
593.7999999999827
 20
771.9999999999511
 30
0.0
 40
3.000000000000003
100
AcDbArc
 50
180.0
 51
270.0000000000002
  0
LINE
  5
3EA
330
1F
100
AcDbEntity
  8
LAY-10
  6
CONTINUOUS
 62
     7
100
AcDbLine
 10
590.7999999999818
 20
841.2999999999641
 30
0.0
 11
590.7999999999818
 21
771.9999999999511
 31
0.0
  0
LINE
  5
3EB
330
1F
100
AcDbEntity
  8
LAY-10
  6
CONTINUOUS
 62
     7
100
AcDbLine
 10
593.9999999999852
 20
841.499999999964
 30
0.0
 11
593.9999999999852
 21
772.1999999999472
 31
0.0
  0
ARC
  5
3EC
330
1F
100
AcDbEntity
  8
LAY-10
  6
CONTINUOUS
 62
     7
100
AcDbCircle
 10
554.0000000000216
 20
850.499999999962
 30
0.0
 40
3.000000000000003
100
AcDbArc
 50
180.0
 51
270.0000000000002
  0
ARC
  5
3ED
330
1F
100
AcDbEntity
  8
LAY-10
  6
CONTINUOUS
 62
     7
100
AcDbCircle
 10
553.8000000000227
 20
850.2999999999633
 30
0.0
 40
6.000000000000006
100
AcDbArc
 50
180.0
 51
270.0000000000002
  0
ARC
  5
3EE
330
1F
100
AcDbEntity
  8
LAY-10
  6
CONTINUOUS
 62
     7
100
AcDbCircle
 10
587.7999999999827
 20
841.2999999999641
 30
0.0
 40
3.000000000000003
100
AcDbArc
 50
0.0
 51
90.00000000000001
  0
ARC
  5
3EF
330
1F
100
AcDbEntity
  8
LAY-10
  6
CONTINUOUS
 62
     7
100
AcDbCircle
 10
587.9999999999834
 20
841.499999999964
 30
0.0
 40
6.000000000000006
100
AcDbArc
 50
0.0
 51
90.00000000000001
  0
LINE
  5
3F0
330
1F
100
AcDbEntity
  8
LAY-10
  6
CONTINUOUS
 62
     7
100
AcDbLine
 10
581.1137084989766
 20
836.2999999998622
 30
0.0
 11
581.1137084989766
 21
844.2999999998631
 31
0.0
  0
LINE
  5
3F1
330
1F
100
AcDbEntity
  8
LAY-10
  6
CONTINUOUS
 62
     7
100
AcDbLine
 10
551.1137084989748
 20
836.2999999998622
 30
0.0
 11
581.1137084989766
 21
836.2999999998622
 31
0.0
  0
ARC
  5
3F2
330
1F
100
AcDbEntity
  8
LAY-10
  6
CONTINUOUS
 62
     7
100
AcDbCircle
 10
551.1137084989748
 20
836.2999999998622
 30
0.0
 40
8.0
100
AcDbArc
 50
90.00000000000001
 51
134.9999999999946
  0
LINE
  5
3F3
330
1F
100
AcDbEntity
  8
LAY-10
  6
CONTINUOUS
 62
     7
100
AcDbLine
 10
510.1015151901559
 20
806.6015151900285
 30
0.0
 11
545.4568542494833
 21
841.9568542493556
 31
0.0
  0
LINE
  5
3F4
330
1F
100
AcDbEntity
  8
LAY-10
  6
CONTINUOUS
 62
     7
100
AcDbLine
 10
515.758369439646
 20
800.9446609405376
 30
0.0
 11
551.1137084989748
 21
836.2999999998622
 31
0.0
  0
LINE
  5
3F5
330
1F
100
AcDbEntity
  8
LAY-10
  6
CONTINUOUS
 62
     7
100
AcDbLine
 10
510.1015151901559
 20
806.6015151900285
 30
0.0
 11
515.758369439646
 21
800.9446609405353
 31
0.0
  0
LINE
  5
3F6
330
1F
100
AcDbEntity
  8
LAY-10
  6
CONTINUOUS
 62
     7
100
AcDbLine
 10
587.7999999999827
 20
844.2999999999629
 30
0.0
 11
551.1137084989748
 21
844.2999999999629
 31
0.0
  0
LINE
  5
3F7
330
1F
100
AcDbEntity
  8
LAY-10
  6
CONTINUOUS
 62
     7
100
AcDbLine
 10
550.9999999999907
 20
900.9999999999528
 30
0.0
 11
550.9999999999907
 21
850.499999999962
 31
0.0
  0
LINE
  5
3F8
330
1F
100
AcDbEntity
  8
LAY-10
  6
CONTINUOUS
 62
     7
100
AcDbLine
 10
547.7999999999918
 20
850.2999999999633
 30
0.0
 11
547.7999999999918
 21
900.9999999999528
 31
0.0
  0
LINE
  5
3F9
330
1F
100
AcDbEntity
  8
LAY-10
  6
CONTINUOUS
 62
     7
100
AcDbLine
 10
584.4904464401717
 20
849.499999999959
 30
0.0
 11
582.6851497819664
 21
847.4999999999562
 31
0.0
  0
LINE
  5
3FA
330
1F
100
AcDbEntity
  8
LAY-10
  6
CONTINUOUS
 62
     7
100
AcDbLine
 10
583.7833396589833
 20
849.4999999999573
 30
0.0
 11
581.9780430007816
 21
847.4999999999562
 31
0.0
  0
LINE
  5
3FB
330
1F
100
AcDbEntity
  8
LAY-10
  6
CONTINUOUS
 62
     7
100
AcDbLine
 10
583.0762328777985
 20
849.499999999959
 30
0.0
 11
581.2709362195922
 21
847.4999999999562
 31
0.0
  0
LINE
  5
3FC
330
1F
100
AcDbEntity
  8
LAY-10
  6
CONTINUOUS
 62
     7
100
AcDbLine
 10
582.36912609661
 20
849.4999999999573
 30
0.0
 11
580.5638294384082
 21
847.4999999999562
 31
0.0
  0
LINE
  5
3FD
330
1F
100
AcDbEntity
  8
LAY-10
  6
CONTINUOUS
 62
     7
100
AcDbLine
 10
581.6620193154259
 20
849.499999999959
 30
0.0
 11
579.8567226572201
 21
847.4999999999562
 31
0.0
  0
LINE
  5
3FE
330
1F
100
AcDbEntity
  8
LAY-10
  6
CONTINUOUS
 62
     7
100
AcDbLine
 10
580.9549125342384
 20
849.4999999999573
 30
0.0
 11
579.1529624253619
 21
847.4980498910799
 31
0.0
  0
LINE
  5
3FF
330
1F
100
AcDbEntity
  8
LAY-10
  6
CONTINUOUS
 62
     7
100
AcDbLine
 10
580.2478057530518
 20
849.499999999959
 30
0.0
 11
578.4462590147334
 21
847.4999999999562
 31
0.0
  0
LINE
  5
400
330
1F
100
AcDbEntity
  8
LAY-10
  6
CONTINUOUS
 62
     7
100
AcDbLine
 10
579.5406989718651
 20
849.4999999999573
 30
0.0
 11
577.7406989718668
 21
847.4999999999591
 31
0.0
  0
LINE
  5
401
330
1F
100
AcDbEntity
  8
LAY-10
  6
CONTINUOUS
 62
     7
100
AcDbLine
 10
578.8335921906802
 20
849.499999999959
 30
0.0
 11
577.0335921906792
 21
847.4999999999554
 31
0.0
  0
LINE
  5
402
330
1F
100
AcDbEntity
  8
LAY-10
  6
CONTINUOUS
 62
     7
100
AcDbLine
 10
578.1264854094926
 20
849.4999999999573
 30
0.0
 11
576.3264854094942
 21
847.4999999999591
 31
0.0
  0
LINE
  5
403
330
1F
100
AcDbEntity
  8
LAY-10
  6
CONTINUOUS
 62
     7
100
AcDbLine
 10
577.419378628307
 20
849.499999999959
 30
0.0
 11
575.6193786283059
 21
847.4999999999554
 31
0.0
  0
LINE
  5
404
330
1F
100
AcDbEntity
  8
LAY-10
  6
CONTINUOUS
 62
     7
100
AcDbLine
 10
576.7122718471185
 20
849.4999999999573
 30
0.0
 11
574.9122718471201
 21
847.4999999999591
 31
0.0
  0
LINE
  5
405
330
1F
100
AcDbEntity
  8
LAY-10
  6
CONTINUOUS
 62
     7
100
AcDbLine
 10
576.0051650659336
 20
849.499999999959
 30
0.0
 11
574.2051650659334
 21
847.4999999999554
 31
0.0
  0
LINE
  5
406
330
1F
100
AcDbEntity
  8
LAY-10
  6
CONTINUOUS
 62
     7
100
AcDbLine
 10
575.298058284746
 20
849.4999999999573
 30
0.0
 11
573.4980582847477
 21
847.4999999999591
 31
0.0
  0
LINE
  5
407
330
1F
100
AcDbEntity
  8
LAY-10
  6
CONTINUOUS
 62
     7
100
AcDbLine
 10
574.5909515035612
 20
849.499999999959
 30
0.0
 11
572.7909515035574
 21
847.4999999999554
 31
0.0
  0
LINE
  5
408
330
1F
100
AcDbEntity
  8
LAY-10
  6
CONTINUOUS
 62
     7
100
AcDbLine
 10
573.8838447223736
 20
849.4999999999573
 30
0.0
 11
572.0838447223744
 21
847.4999999999591
 31
0.0
  0
LINE
  5
409
330
1F
100
AcDbEntity
  8
LAY-10
  6
CONTINUOUS
 62
     7
100
AcDbLine
 10
573.1767379411887
 20
849.499999999959
 30
0.0
 11
571.3767379411858
 21
847.4999999999554
 31
0.0
  0
LINE
  5
40A
330
1F
100
AcDbEntity
  8
LAY-10
  6
CONTINUOUS
 62
     7
100
AcDbLine
 10
572.4696311600003
 20
849.4999999999573
 30
0.0
 11
570.6696311600019
 21
847.4999999999591
 31
0.0
  0
LINE
  5
40B
330
1F
100
AcDbEntity
  8
LAY-10
  6
CONTINUOUS
 62
     7
100
AcDbLine
 10
571.7625243788145
 20
849.499999999959
 30
0.0
 11
569.9625243788125
 21
847.4999999999554
 31
0.0
  0
LINE
  5
40C
330
1F
100
AcDbEntity
  8
LAY-10
  6
CONTINUOUS
 62
     7
100
AcDbLine
 10
571.0554175976259
 20
849.4999999999573
 30
0.0
 11
569.2554175976295
 21
847.49999999996
 31
0.0
  0
LINE
  5
40D
330
1F
100
AcDbEntity
  8
LAY-10
  6
CONTINUOUS
 62
     7
100
AcDbLine
 10
570.3483108164421
 20
849.499999999959
 30
0.0
 11
568.5483108164392
 21
847.4999999999554
 31
0.0
  0
LINE
  5
40E
330
1F
100
AcDbEntity
  8
LAY-10
  6
CONTINUOUS
 62
     7
100
AcDbLine
 10
569.6412040352518
 20
849.4999999999573
 30
0.0
 11
567.841204035257
 21
847.49999999996
 31
0.0
  0
LINE
  5
40F
330
1F
100
AcDbEntity
  8
LAY-10
  6
CONTINUOUS
 62
     7
100
AcDbLine
 10
568.9340972540688
 20
849.499999999959
 30
0.0
 11
567.1340972540668
 21
847.4999999999554
 31
0.0
  0
LINE
  5
410
330
1F
100
AcDbEntity
  8
LAY-10
  6
CONTINUOUS
 62
     7
100
AcDbLine
 10
568.2269904728802
 20
849.4999999999573
 30
0.0
 11
566.4269904728837
 21
847.49999999996
 31
0.0
  0
LINE
  5
411
330
1F
100
AcDbEntity
  8
LAY-10
  6
CONTINUOUS
 62
     7
100
AcDbLine
 10
567.5198836916964
 20
849.499999999959
 30
0.0
 11
565.7198836916942
 21
847.4999999999554
 31
0.0
  0
LINE
  5
412
330
1F
100
AcDbEntity
  8
LAY-10
  6
CONTINUOUS
 62
     7
100
AcDbLine
 10
566.812776910507
 20
849.4999999999573
 30
0.0
 11
565.0127769105104
 21
847.49999999996
 31
0.0
  0
LINE
  5
413
330
1F
100
AcDbEntity
  8
LAY-10
  6
CONTINUOUS
 62
     7
100
AcDbLine
 10
566.1056701293239
 20
849.499999999959
 30
0.0
 11
564.3056701293201
 21
847.4999999999571
 31
0.0
  0
LINE
  5
414
330
1F
100
AcDbEntity
  8
LAY-10
  6
CONTINUOUS
 62
     7
100
AcDbLine
 10
565.3985633481336
 20
849.4999999999573
 30
0.0
 11
563.598563348138
 21
847.49999999996
 31
0.0
  0
LINE
  5
415
330
1F
100
AcDbEntity
  8
LAY-10
  6
CONTINUOUS
 62
     7
100
AcDbLine
 10
564.6914565669514
 20
849.499999999959
 30
0.0
 11
562.8914565669477
 21
847.4999999999571
 31
0.0
  0
LINE
  5
416
330
1F
100
AcDbEntity
  8
LAY-10
  6
CONTINUOUS
 62
     7
100
AcDbLine
 10
563.9843497857612
 20
849.4999999999573
 30
0.0
 11
562.1843497857647
 21
847.49999999996
 31
0.0
  0
LINE
  5
417
330
1F
100
AcDbEntity
  8
LAY-10
  6
CONTINUOUS
 62
     7
100
AcDbLine
 10
563.2772430045782
 20
849.499999999959
 30
0.0
 11
561.4772430045743
 21
847.4999999999571
 31
0.0
  0
LINE
  5
418
330
1F
100
AcDbEntity
  8
LAY-10
  6
CONTINUOUS
 62
     7
100
AcDbLine
 10
562.5701362233887
 20
849.4999999999573
 30
0.0
 11
560.7701362233922
 21
847.49999999996
 31
0.0
  0
LINE
  5
419
330
1F
100
AcDbEntity
  8
LAY-10
  6
CONTINUOUS
 62
     7
100
AcDbLine
 10
561.8630294422048
 20
849.4999999999599
 30
0.0
 11
560.0630294422024
 21
847.4999999999571
 31
0.0
  0
LINE
  5
41A
330
1F
100
AcDbEntity
  8
LAY-10
  6
CONTINUOUS
 62
     7
100
AcDbLine
 10
561.1559226610145
 20
849.4999999999573
 30
0.0
 11
559.3559226610197
 21
847.49999999996
 31
0.0
  0
LINE
  5
41B
330
1F
100
AcDbEntity
  8
LAY-10
  6
CONTINUOUS
 62
     7
100
AcDbLine
 10
560.4488158798324
 20
849.4999999999599
 30
0.0
 11
558.6488158798295
 21
847.4999999999571
 31
0.0
  0
LINE
  5
41C
330
1F
100
AcDbEntity
  8
LAY-10
  6
CONTINUOUS
 62
     7
100
AcDbLine
 10
559.7417090986421
 20
849.4999999999573
 30
0.0
 11
557.9417090986456
 21
847.49999999996
 31
0.0
  0
LINE
  5
41D
330
1F
100
AcDbEntity
  8
LAY-10
  6
CONTINUOUS
 62
     7
100
AcDbLine
 10
559.0346023174591
 20
849.4999999999599
 30
0.0
 11
557.234602317457
 21
847.4999999999571
 31
0.0
  0
LINE
  5
41E
330
1F
100
AcDbEntity
  8
LAY-10
  6
CONTINUOUS
 62
     7
100
AcDbLine
 10
558.3274955362688
 20
849.4999999999573
 30
0.0
 11
556.5274955362731
 21
847.49999999996
 31
0.0
  0
LINE
  5
41F
330
1F
100
AcDbEntity
  8
LAY-10
  6
CONTINUOUS
 62
     7
100
AcDbLine
 10
557.6203887550867
 20
849.4999999999599
 30
0.0
 11
555.8203887550837
 21
847.4999999999571
 31
0.0
  0
LINE
  5
420
330
1F
100
AcDbEntity
  8
LAY-10
  6
CONTINUOUS
 62
     7
100
AcDbLine
 10
556.9132819738968
 20
849.4999999999582
 30
0.0
 11
555.1132819738998
 21
847.49999999996
 31
0.0
  0
LINE
  5
421
330
1F
100
AcDbEntity
  8
LAY-10
  6
CONTINUOUS
 62
     7
100
AcDbLine
 10
556.2061751927141
 20
849.4999999999599
 30
0.0
 11
554.999999999931
 21
848.0938248071777
 31
0.0
  0
LINE
  5
422
330
1F
100
AcDbEntity
  8
LAY-10
  6
CONTINUOUS
 62
     7
100
AcDbLine
 10
555.4990684115239
 20
849.4999999999582
 30
0.0
 11
554.9999999999284
 21
849.0009315883606
 31
0.0
  0
LINE
  5
423
330
1F
100
AcDbEntity
  8
LAY-10
  6
CONTINUOUS
 62
     7
100
AcDbLine
 10
585.0000000000111
 20
849.2811404341936
 30
0.0
 11
583.3922565631531
 21
847.4999999999562
 31
0.0
  0
LINE
  5
424
330
1F
100
AcDbEntity
  8
LAY-10
  6
CONTINUOUS
 62
     7
100
AcDbLine
 10
585.0000000000111
 20
848.4977713652114
 30
0.0
 11
584.0993633443387
 21
847.4999999999562
 31
0.0
  0
LINE
  5
425
330
1F
100
AcDbEntity
  8
LAY-10
  6
CONTINUOUS
 62
     7
100
AcDbLine
 10
585.0000000000111
 20
847.7144022962273
 30
0.0
 11
584.8064701255273
 21
847.4999999999562
 31
0.0
  0
LINE
  5
426
330
1F
100
AcDbEntity
  8
LAY-10
  6
CONTINUOUS
 62
     7
100
AcDbLine
 10
585.0000000000947
 20
849.4999999999354
 30
0.0
 11
585.0000000000947
 21
847.4999999999352
 31
0.0
  0
LINE
  5
427
330
1F
100
AcDbEntity
  8
LAY-10
  6
CONTINUOUS
 62
     7
100
AcDbLine
 10
1882.000000000051
 20
824.1999999999013
 30
0.0
 11
598.0000000000562
 21
824.1999999999039
 31
0.0
  0
LINE
  5
428
330
1F
100
AcDbEntity
  8
LAY-10
  6
CONTINUOUS
 62
     7
100
AcDbLine
 10
598.0000000000562
 20
774.1999999999035
 30
0.0
 11
1882.000000000051
 21
774.1999999999035
 31
0.0
  0
LINE
  5
429
330
1F
100
AcDbEntity
  8
LAY-10
  6
CONTINUOUS
 62
     7
100
AcDbLine
 10
1880.400000000049
 20
822.5999999999013
 30
0.0
 11
599.6000000000556
 21
822.5999999999027
 31
0.0
  0
LINE
  5
42A
330
1F
100
AcDbEntity
  8
LAY-10
  6
CONTINUOUS
 62
     7
100
AcDbLine
 10
599.6000000000556
 20
775.7999999999021
 30
0.0
 11
1880.400000000049
 21
775.7999999999021
 31
0.0
  0
ARC
  5
42B
330
1F
100
AcDbEntity
  8
LAY-10
  6
CONTINUOUS
 62
     7
100
AcDbCircle
 10
1420.499999999996
 20
850.4999999999296
 30
0.0
 40
3.000000000000003
100
AcDbArc
 50
90.00000000000001
 51
180.0
  0
ARC
  5
42C
330
1F
100
AcDbEntity
  8
LAY-10
  6
CONTINUOUS
 62
     7
100
AcDbCircle
 10
1456.999999999996
 20
859.9999999999278
 30
0.0
 40
6.500000000000004
100
AcDbArc
 50
270.0000000000002
 51
0.0
  0
ARC
  5
42D
330
1F
100
AcDbEntity
  8
LAY-10
  6
CONTINUOUS
 62
     7
100
AcDbCircle
 10
1466.499999999997
 20
896.4999999999278
 30
0.0
 40
3.000000000000003
100
AcDbArc
 50
90.00000000000001
 51
180.0
  0
LINE
  5
42E
330
1F
100
AcDbEntity
  8
LAY-10
  6
CONTINUOUS
 62
     7
100
AcDbLine
 10
1467.499999999993
 20
849.4999999999311
 30
0.0
 11
1467.499999999993
 21
903.9999999999338
 31
0.0
  0
LINE
  5
42F
330
1F
100
AcDbEntity
  8
LAY-10
  6
CONTINUOUS
 62
     7
100
AcDbLine
 10
1417.499999999996
 20
849.4999999999322
 30
0.0
 11
1417.499999999996
 21
850.4999999999296
 31
0.0
  0
LINE
  5
430
330
1F
100
AcDbEntity
  8
LAY-10
  6
CONTINUOUS
 62
     7
100
AcDbLine
 10
1463.499999999996
 20
859.9999999999278
 30
0.0
 11
1463.499999999996
 21
899.4999999999342
 31
0.0
  0
ARC
  5
431
330
1F
100
AcDbEntity
  8
LAY-10
  6
CONTINUOUS
 62
     7
100
AcDbCircle
 10
1059.499999999987
 20
850.4999999999296
 30
0.0
 40
3.000000000000003
100
AcDbArc
 50
0.0
 51
90.00000000000001
  0
ARC
  5
432
330
1F
100
AcDbEntity
  8
LAY-10
  6
CONTINUOUS
 62
     7
100
AcDbCircle
 10
1022.999999999986
 20
859.9999999999278
 30
0.0
 40
6.500000000000004
100
AcDbArc
 50
180.0
 51
270.0000000000002
  0
ARC
  5
433
330
1F
100
AcDbEntity
  8
LAY-10
  6
CONTINUOUS
 62
     7
100
AcDbCircle
 10
1013.499999999986
 20
896.4999999999278
 30
0.0
 40
3.000000000000003
100
AcDbArc
 50
0.0
 51
90.00000000000001
  0
LINE
  5
434
330
1F
100
AcDbEntity
  8
LAY-10
  6
CONTINUOUS
 62
     7
100
AcDbLine
 10
1062.499999999986
 20
849.4999999999322
 30
0.0
 11
1062.499999999986
 21
850.4999999999296
 31
0.0
  0
LINE
  5
435
330
1F
100
AcDbEntity
  8
LAY-10
  6
CONTINUOUS
 62
     7
100
AcDbLine
 10
1016.499999999987
 20
859.9999999999278
 30
0.0
 11
1016.499999999987
 21
899.4999999999342
 31
0.0
  0
LINE
  5
436
330
1F
100
AcDbEntity
  8
LAY-10
  6
CONTINUOUS
 62
     7
100
AcDbLine
 10
1012.5
 20
903.99999999993
 30
0.0
 11
1012.5
 21
849.4999999999601
 31
0.0
  0
LINE
  5
437
330
1F
100
AcDbEntity
  8
LAY-10
  6
CONTINUOUS
 62
     7
100
AcDbLine
 10
1342.25000000009
 20
899.4999999999342
 30
0.0
 11
1342.25000000009
 21
855.4999999999342
 31
0.0
  0
LINE
  5
438
330
1F
100
AcDbEntity
  8
LAY-10
  6
CONTINUOUS
 62
     7
100
AcDbLine
 10
1337.75000000009
 20
899.4999999999342
 30
0.0
 11
1337.75000000009
 21
855.4999999999342
 31
0.0
  0
LINE
  5
439
330
1F
100
AcDbEntity
  8
LAY-10
  6
CONTINUOUS
 62
     7
100
AcDbLine
 10
1142.250000000091
 20
899.4999999999342
 30
0.0
 11
1142.250000000091
 21
855.4999999999342
 31
0.0
  0
LINE
  5
43A
330
1F
100
AcDbEntity
  8
LAY-10
  6
CONTINUOUS
 62
     7
100
AcDbLine
 10
1137.75000000009
 20
899.4999999999342
 30
0.0
 11
1137.75000000009
 21
855.4999999999342
 31
0.0
  0
LINE
  5
43B
330
1F
100
AcDbEntity
  8
LAY-10
  6
CONTINUOUS
 62
     7
100
AcDbLine
 10
1012.499999999993
 20
899.4999999999342
 30
0.0
 11
1467.499999999993
 21
899.4999999999342
 31
0.0
  0
LINE
  5
43C
330
1F
100
AcDbEntity
  8
LAY-10
  6
CONTINUOUS
 62
     7
100
AcDbLine
 10
1012.499999999993
 20
903.9999999999338
 30
0.0
 11
1467.499999999993
 21
903.9999999999338
 31
0.0
  0
LINE
  5
43D
330
1F
100
AcDbEntity
  8
LAY-10
  6
CONTINUOUS
 62
     7
100
AcDbLine
 10
1022.999999999986
 20
853.4999999999278
 30
0.0
 11
1457.0
 21
853.4999999999278
 31
0.0
  0
LINE
  5
43E
330
1F
100
AcDbEntity
  8
LAY-10
  6
CONTINUOUS
 62
     7
100
AcDbLine
 10
1018.30958424016
 20
855.4999999999302
 30
0.0
 11
1461.690415759821
 21
855.4999999999302
 31
0.0
  0
LINE
  5
43F
330
1F
100
AcDbEntity
  8
LAY-10
  6
CONTINUOUS
 62
     7
100
AcDbLine
 10
554.000000000038
 20
847.49999999996
 30
0.0
 11
1926.00000000005
 21
847.4999999999602
 31
0.0
  0
LINE
  5
440
330
1F
100
AcDbEntity
  8
LAY-10
  6
CONTINUOUS
 62
     7
100
AcDbLine
 10
555.0000000000902
 20
849.4999999999601
 30
0.0
 11
1925.00000000005
 21
849.4999999999601
 31
0.0
  0
ARC
  5
441
330
1F
100
AcDbEntity
  8
LAY-10
  6
CONTINUOUS
 62
     7
100
AcDbCircle
 10
963.000000000086
 20
850.4999999999296
 30
0.0
 40
3.000000000000003
100
AcDbArc
 50
90.00000000000001
 51
180.0
  0
ARC
  5
442
330
1F
100
AcDbEntity
  8
LAY-10
  6
CONTINUOUS
 62
     7
100
AcDbCircle
 10
999.5000000000861
 20
859.9999999999278
 30
0.0
 40
6.500000000000004
100
AcDbArc
 50
270.0000000000002
 51
0.0
  0
ARC
  5
443
330
1F
100
AcDbEntity
  8
LAY-10
  6
CONTINUOUS
 62
     7
100
AcDbCircle
 10
1009.000000000087
 20
896.4999999999278
 30
0.0
 40
3.000000000000003
100
AcDbArc
 50
90.00000000000001
 51
180.0
  0
LINE
  5
444
330
1F
100
AcDbEntity
  8
LAY-10
  6
CONTINUOUS
 62
     7
100
AcDbLine
 10
1010.000000000083
 20
849.4999999999311
 30
0.0
 11
1010.000000000083
 21
903.9999999999338
 31
0.0
  0
LINE
  5
445
330
1F
100
AcDbEntity
  8
LAY-10
  6
CONTINUOUS
 62
     7
100
AcDbLine
 10
960.0000000000858
 20
849.4999999999322
 30
0.0
 11
960.0000000000858
 21
850.4999999999296
 31
0.0
  0
LINE
  5
446
330
1F
100
AcDbEntity
  8
LAY-10
  6
CONTINUOUS
 62
     7
100
AcDbLine
 10
1006.000000000086
 20
859.9999999999278
 30
0.0
 11
1006.000000000086
 21
899.4999999999342
 31
0.0
  0
ARC
  5
447
330
1F
100
AcDbEntity
  8
LAY-10
  6
CONTINUOUS
 62
     7
100
AcDbCircle
 10
602.000000000077
 20
850.4999999999296
 30
0.0
 40
3.000000000000003
100
AcDbArc
 50
0.0
 51
90.00000000000001
  0
ARC
  5
448
330
1F
100
AcDbEntity
  8
LAY-10
  6
CONTINUOUS
 62
     7
100
AcDbCircle
 10
565.500000000076
 20
859.9999999999278
 30
0.0
 40
6.500000000000004
100
AcDbArc
 50
180.0
 51
270.0000000000002
  0
ARC
  5
449
330
1F
100
AcDbEntity
  8
LAY-10
  6
CONTINUOUS
 62
     7
100
AcDbCircle
 10
556.0000000000759
 20
896.4999999999278
 30
0.0
 40
3.000000000000003
100
AcDbArc
 50
0.0
 51
90.00000000000001
  0
LINE
  5
44A
330
1F
100
AcDbEntity
  8
LAY-10
  6
CONTINUOUS
 62
     7
100
AcDbLine
 10
605.0000000000758
 20
849.4999999999322
 30
0.0
 11
605.0000000000758
 21
850.4999999999296
 31
0.0
  0
LINE
  5
44B
330
1F
100
AcDbEntity
  8
LAY-10
  6
CONTINUOUS
 62
     7
100
AcDbLine
 10
559.0000000000769
 20
859.9999999999278
 30
0.0
 11
559.0000000000769
 21
899.4999999999342
 31
0.0
  0
LINE
  5
44C
330
1F
100
AcDbEntity
  8
LAY-10
  6
CONTINUOUS
 62
     7
100
AcDbLine
 10
884.7500000001806
 20
899.4999999999342
 30
0.0
 11
884.7500000001806
 21
855.4999999999342
 31
0.0
  0
LINE
  5
44D
330
1F
100
AcDbEntity
  8
LAY-10
  6
CONTINUOUS
 62
     7
100
AcDbLine
 10
880.2500000001797
 20
899.4999999999342
 30
0.0
 11
880.2500000001797
 21
855.4999999999342
 31
0.0
  0
LINE
  5
44E
330
1F
100
AcDbEntity
  8
LAY-10
  6
CONTINUOUS
 62
     7
100
AcDbLine
 10
684.7500000001811
 20
899.4999999999342
 30
0.0
 11
684.7500000001811
 21
855.4999999999342
 31
0.0
  0
LINE
  5
44F
330
1F
100
AcDbEntity
  8
LAY-10
  6
CONTINUOUS
 62
     7
100
AcDbLine
 10
680.2500000001806
 20
899.4999999999342
 30
0.0
 11
680.2500000001806
 21
855.4999999999342
 31
0.0
  0
LINE
  5
450
330
1F
100
AcDbEntity
  8
LAY-10
  6
CONTINUOUS
 62
     7
100
AcDbLine
 10
555.0000000000833
 20
899.4999999999342
 30
0.0
 11
1010.000000000083
 21
899.4999999999342
 31
0.0
  0
LINE
  5
451
330
1F
100
AcDbEntity
  8
LAY-10
  6
CONTINUOUS
 62
     7
100
AcDbLine
 10
555.0000000000833
 20
903.9999999999338
 30
0.0
 11
1010.000000000083
 21
903.9999999999338
 31
0.0
  0
LINE
  5
452
330
1F
100
AcDbEntity
  8
LAY-10
  6
CONTINUOUS
 62
     7
100
AcDbLine
 10
565.500000000076
 20
853.4999999999278
 30
0.0
 11
999.5000000000906
 21
853.4999999999278
 31
0.0
  0
LINE
  5
453
330
1F
100
AcDbEntity
  8
LAY-10
  6
CONTINUOUS
 62
     7
100
AcDbLine
 10
560.80958424025
 20
855.4999999999302
 30
0.0
 11
1004.190415759911
 21
855.4999999999302
 31
0.0
  0
ARC
  5
454
330
1F
100
AcDbEntity
  8
LAY-10
  6
CONTINUOUS
 62
     7
100
AcDbCircle
 10
1878.000000000096
 20
850.4999999999296
 30
0.0
 40
3.000000000000003
100
AcDbArc
 50
90.00000000000001
 51
180.0
  0
ARC
  5
455
330
1F
100
AcDbEntity
  8
LAY-10
  6
CONTINUOUS
 62
     7
100
AcDbCircle
 10
1914.500000000096
 20
859.9999999999278
 30
0.0
 40
6.500000000000004
100
AcDbArc
 50
270.0000000000002
 51
0.0
  0
ARC
  5
456
330
1F
100
AcDbEntity
  8
LAY-10
  6
CONTINUOUS
 62
     7
100
AcDbCircle
 10
1924.000000000097
 20
896.4999999999278
 30
0.0
 40
3.000000000000003
100
AcDbArc
 50
90.00000000000001
 51
180.0
  0
LINE
  5
457
330
1F
100
AcDbEntity
  8
LAY-10
  6
CONTINUOUS
 62
     7
100
AcDbLine
 10
1875.000000000096
 20
849.4999999999322
 30
0.0
 11
1875.000000000096
 21
850.4999999999296
 31
0.0
  0
LINE
  5
458
330
1F
100
AcDbEntity
  8
LAY-10
  6
CONTINUOUS
 62
     7
100
AcDbLine
 10
1921.000000000096
 20
859.9999999999278
 30
0.0
 11
1921.000000000096
 21
899.4999999999342
 31
0.0
  0
ARC
  5
459
330
1F
100
AcDbEntity
  8
LAY-10
  6
CONTINUOUS
 62
     7
100
AcDbCircle
 10
1517.000000000087
 20
850.4999999999296
 30
0.0
 40
3.000000000000003
100
AcDbArc
 50
0.0
 51
90.00000000000001
  0
ARC
  5
45A
330
1F
100
AcDbEntity
  8
LAY-10
  6
CONTINUOUS
 62
     7
100
AcDbCircle
 10
1480.500000000086
 20
859.9999999999278
 30
0.0
 40
6.500000000000004
100
AcDbArc
 50
180.0
 51
270.0000000000002
  0
ARC
  5
45B
330
1F
100
AcDbEntity
  8
LAY-10
  6
CONTINUOUS
 62
     7
100
AcDbCircle
 10
1471.000000000086
 20
896.4999999999278
 30
0.0
 40
3.000000000000003
100
AcDbArc
 50
0.0
 51
90.00000000000001
  0
LINE
  5
45C
330
1F
100
AcDbEntity
  8
LAY-10
  6
CONTINUOUS
 62
     7
100
AcDbLine
 10
1520.000000000086
 20
849.4999999999322
 30
0.0
 11
1520.000000000086
 21
850.4999999999296
 31
0.0
  0
LINE
  5
45D
330
1F
100
AcDbEntity
  8
LAY-10
  6
CONTINUOUS
 62
     7
100
AcDbLine
 10
1474.000000000087
 20
859.9999999999278
 30
0.0
 11
1474.000000000087
 21
899.4999999999342
 31
0.0
  0
LINE
  5
45E
330
1F
100
AcDbEntity
  8
LAY-10
  6
CONTINUOUS
 62
     7
100
AcDbLine
 10
1470.0000000001
 20
903.99999999993
 30
0.0
 11
1470.0000000001
 21
849.4999999999601
 31
0.0
  0
LINE
  5
45F
330
1F
100
AcDbEntity
  8
LAY-10
  6
CONTINUOUS
 62
     7
100
AcDbLine
 10
1799.750000000191
 20
899.4999999999342
 30
0.0
 11
1799.750000000191
 21
855.4999999999342
 31
0.0
  0
LINE
  5
460
330
1F
100
AcDbEntity
  8
LAY-10
  6
CONTINUOUS
 62
     7
100
AcDbLine
 10
1795.25000000019
 20
899.4999999999342
 30
0.0
 11
1795.25000000019
 21
855.4999999999342
 31
0.0
  0
LINE
  5
461
330
1F
100
AcDbEntity
  8
LAY-10
  6
CONTINUOUS
 62
     7
100
AcDbLine
 10
1599.750000000191
 20
899.4999999999342
 30
0.0
 11
1599.750000000191
 21
855.4999999999342
 31
0.0
  0
LINE
  5
462
330
1F
100
AcDbEntity
  8
LAY-10
  6
CONTINUOUS
 62
     7
100
AcDbLine
 10
1595.250000000191
 20
899.4999999999342
 30
0.0
 11
1595.250000000191
 21
855.4999999999342
 31
0.0
  0
LINE
  5
463
330
1F
100
AcDbEntity
  8
LAY-10
  6
CONTINUOUS
 62
     7
100
AcDbLine
 10
1470.000000000093
 20
899.4999999999342
 30
0.0
 11
1925.000000000093
 21
899.4999999999342
 31
0.0
  0
LINE
  5
464
330
1F
100
AcDbEntity
  8
LAY-10
  6
CONTINUOUS
 62
     7
100
AcDbLine
 10
1470.000000000093
 20
903.9999999999338
 30
0.0
 11
1925.000000000093
 21
903.9999999999338
 31
0.0
  0
LINE
  5
465
330
1F
100
AcDbEntity
  8
LAY-10
  6
CONTINUOUS
 62
     7
100
AcDbLine
 10
1480.500000000086
 20
853.4999999999278
 30
0.0
 11
1914.5000000001
 21
853.4999999999278
 31
0.0
  0
LINE
  5
466
330
1F
100
AcDbEntity
  8
LAY-10
  6
CONTINUOUS
 62
     7
100
AcDbLine
 10
1475.80958424026
 20
855.4999999999302
 30
0.0
 11
1919.190415759921
 21
855.4999999999302
 31
0.0
  0
LINE
  5
467
330
1F
100
AcDbEntity
  8
LAY-10
  6
CONTINUOUS
 62
     7
100
AcDbLine
 10
2415.215827115359
 20
1594.218641581657
 30
0.0
 11
2415.215827115359
 21
1827.21864158138
 31
0.0
  0
LINE
  5
468
330
1F
100
AcDbEntity
  8
LAY-10
  6
CONTINUOUS
 62
     7
100
AcDbLine
 10
2363.215827115348
 20
1712.968641581561
 30
0.0
 11
2407.215827115349
 21
1712.968641581561
 31
0.0
  0
LINE
  5
469
330
1F
100
AcDbEntity
  8
LAY-10
  6
CONTINUOUS
 62
     7
100
AcDbLine
 10
2363.215827115348
 20
1708.46864158156
 30
0.0
 11
2407.215827115349
 21
1708.46864158156
 31
0.0
  0
LINE
  5
46A
330
1F
100
AcDbEntity
  8
LAY-10
  6
CONTINUOUS
 62
     7
100
AcDbLine
 10
2358.715827115357
 20
2096.718641581557
 30
0.0
 11
2358.715827115357
 21
2111.718641581557
 31
0.0
  0
LINE
  5
46B
330
1F
100
AcDbEntity
  8
LAY-10
  6
CONTINUOUS
 62
     7
100
AcDbLine
 10
2358.715827115357
 20
2096.718641581557
 30
0.0
 11
2373.715827115357
 21
2096.718641581557
 31
0.0
  0
LINE
  5
46C
330
1F
100
AcDbEntity
  8
LAY-10
  6
CONTINUOUS
 62
     7
100
AcDbLine
 10
2361.715827115357
 20
2099.718641581554
 30
0.0
 11
2361.715827115357
 21
2111.718641581557
 31
0.0
  0
LINE
  5
46D
330
1F
100
AcDbEntity
  8
LAY-10
  6
CONTINUOUS
 62
     7
100
AcDbLine
 10
2373.715827115357
 20
2096.718641581557
 30
0.0
 11
2373.715827115357
 21
2099.718641581554
 31
0.0
  0
LINE
  5
46E
330
1F
100
AcDbEntity
  8
LAY-10
  6
CONTINUOUS
 62
     7
100
AcDbLine
 10
2358.715827115357
 20
2111.718641581557
 30
0.0
 11
2361.715827115357
 21
2111.718641581557
 31
0.0
  0
LINE
  5
46F
330
1F
100
AcDbEntity
  8
LAY-10
  6
CONTINUOUS
 62
     7
100
AcDbLine
 10
2490.515827115358
 20
2056.718641581559
 30
0.0
 11
2490.515827115358
 21
2010.718641581556
 31
0.0
  0
LINE
  5
470
330
1F
100
AcDbEntity
  8
LAY-10
  6
CONTINUOUS
 62
     7
100
AcDbLine
 10
2438.515827115406
 20
2052.718641581489
 30
0.0
 11
2490.515827115408
 21
2052.718641581489
 31
0.0
  0
LINE
  5
471
330
1F
100
AcDbEntity
  8
LAY-10
  6
CONTINUOUS
 62
     7
100
AcDbLine
 10
2486.915827115408
 20
2051.118641581489
 30
0.0
 11
2440.115827115407
 21
2051.118641581489
 31
0.0
  0
LINE
  5
472
330
1F
100
AcDbEntity
  8
LAY-10
  6
CONTINUOUS
 62
     7
100
AcDbLine
 10
2490.515827115408
 20
2027.71864158149
 30
0.0
 11
2488.515827115406
 21
2027.71864158149
 31
0.0
  0
LINE
  5
473
330
1F
100
AcDbEntity
  8
LAY-10
  6
CONTINUOUS
 62
     7
100
AcDbLine
 10
2493.715827115359
 20
2056.918641581562
 30
0.0
 11
2493.715827115359
 21
2010.718641581556
 31
0.0
  0
LINE
  5
474
330
1F
100
AcDbEntity
  8
LAY-10
  6
CONTINUOUS
 62
     7
100
AcDbLine
 10
2490.515827115363
 20
2010.718641581556
 30
0.0
 11
2493.715827115359
 21
2010.718641581556
 31
0.0
  0
ARC
  5
475
330
1F
100
AcDbEntity
  8
LAY-10
  6
CONTINUOUS
 62
     7
100
AcDbCircle
 10
2490.715827115359
 20
2056.918641581562
 30
0.0
 40
3.000000000000003
100
AcDbArc
 50
0.0
 51
90.00000000000001
  0
LINE
  5
476
330
1F
100
AcDbEntity
  8
LAY-10
  6
CONTINUOUS
 62
     7
100
AcDbLine
 10
2421.415827115346
 20
2059.918641581563
 30
0.0
 11
2490.715827115359
 21
2059.918641581563
 31
0.0
  0
LINE
  5
477
330
1F
100
AcDbEntity
  8
LAY-10
  6
CONTINUOUS
 62
     7
100
AcDbLine
 10
2421.215827115346
 20
2056.718641581559
 30
0.0
 11
2490.515827115363
 21
2056.718641581559
 31
0.0
  0
ARC
  5
478
330
1F
100
AcDbEntity
  8
LAY-10
  6
CONTINUOUS
 62
     7
100
AcDbCircle
 10
2412.215827115348
 20
2096.718641581523
 30
0.0
 40
3.000000000000003
100
AcDbArc
 50
0.0
 51
90.00000000000001
  0
ARC
  5
479
330
1F
100
AcDbEntity
  8
LAY-10
  6
CONTINUOUS
 62
     7
100
AcDbCircle
 10
2412.415827115346
 20
2096.918641581522
 30
0.0
 40
6.000000000000006
100
AcDbArc
 50
0.0
 51
90.00000000000001
  0
ARC
  5
47A
330
1F
100
AcDbEntity
  8
LAY-10
  6
CONTINUOUS
 62
     7
100
AcDbCircle
 10
2421.415827115346
 20
2062.918641581562
 30
0.0
 40
3.000000000000003
100
AcDbArc
 50
180.0
 51
270.0
  0
ARC
  5
47B
330
1F
100
AcDbEntity
  8
LAY-10
  6
CONTINUOUS
 62
     7
100
AcDbCircle
 10
2421.215827115346
 20
2062.718641581561
 30
0.0
 40
6.000000000000006
100
AcDbArc
 50
180.0
 51
270.0
  0
LINE
  5
47C
330
1F
100
AcDbEntity
  8
LAY-10
  6
CONTINUOUS
 62
     7
100
AcDbLine
 10
2426.415827115447
 20
2069.604933082568
 30
0.0
 11
2418.415827115446
 21
2069.604933082568
 31
0.0
  0
LINE
  5
47D
330
1F
100
AcDbEntity
  8
LAY-10
  6
CONTINUOUS
 62
     7
100
AcDbLine
 10
2426.415827115447
 20
2099.60493308257
 30
0.0
 11
2426.415827115447
 21
2069.604933082568
 31
0.0
  0
ARC
  5
47E
330
1F
100
AcDbEntity
  8
LAY-10
  6
CONTINUOUS
 62
     7
100
AcDbCircle
 10
2426.415827115447
 20
2099.60493308257
 30
0.0
 40
8.0
100
AcDbArc
 50
135.0000000000047
 51
180.0
  0
LINE
  5
47F
330
1F
100
AcDbEntity
  8
LAY-10
  6
CONTINUOUS
 62
     7
100
AcDbLine
 10
2456.114311925282
 20
2140.617126391389
 30
0.0
 11
2420.758972865955
 21
2105.261787332061
 31
0.0
  0
LINE
  5
480
330
1F
100
AcDbEntity
  8
LAY-10
  6
CONTINUOUS
 62
     7
100
AcDbLine
 10
2461.771166174772
 20
2134.960272141899
 30
0.0
 11
2426.415827115447
 21
2099.60493308257
 31
0.0
  0
LINE
  5
481
330
1F
100
AcDbEntity
  8
LAY-10
  6
CONTINUOUS
 62
     7
100
AcDbLine
 10
2456.114311925282
 20
2140.617126391389
 30
0.0
 11
2461.771166174775
 21
2134.960272141899
 31
0.0
  0
LINE
  5
482
330
1F
100
AcDbEntity
  8
LAY-10
  6
CONTINUOUS
 62
     7
100
AcDbLine
 10
2418.415827115347
 20
2062.918641581562
 30
0.0
 11
2418.415827115347
 21
2099.60493308257
 31
0.0
  0
LINE
  5
483
330
1F
100
AcDbEntity
  8
LAY-10
  6
CONTINUOUS
 62
     7
100
AcDbLine
 10
2361.715827115357
 20
2099.718641581554
 30
0.0
 11
2412.215827115348
 21
2099.718641581554
 31
0.0
  0
LINE
  5
484
330
1F
100
AcDbEntity
  8
LAY-10
  6
CONTINUOUS
 62
     7
100
AcDbLine
 10
2412.415827115346
 20
2102.918641581553
 30
0.0
 11
2361.715827115357
 21
2102.918641581553
 31
0.0
  0
LINE
  5
485
330
1F
100
AcDbEntity
  8
LAY-10
  6
CONTINUOUS
 62
     7
100
AcDbLine
 10
2415.21582711535
 20
2095.718641581559
 30
0.0
 11
2358.715827115364
 21
2095.718641581559
 31
0.0
  0
LINE
  5
486
330
1F
100
AcDbEntity
  8
LAY-10
  6
CONTINUOUS
 62
     7
100
AcDbLine
 10
2413.215827115371
 20
2095.209088021541
 30
0.0
 11
2415.215827115373
 21
2093.403791363336
 31
0.0
  0
LINE
  5
487
330
1F
100
AcDbEntity
  8
LAY-10
  6
CONTINUOUS
 62
     7
100
AcDbLine
 10
2413.215827115373
 20
2094.501981240353
 30
0.0
 11
2415.215827115373
 21
2092.696684582151
 31
0.0
  0
LINE
  5
488
330
1F
100
AcDbEntity
  8
LAY-10
  6
CONTINUOUS
 62
     7
100
AcDbLine
 10
2413.215827115371
 20
2093.794874459168
 30
0.0
 11
2415.215827115373
 21
2091.989577800962
 31
0.0
  0
LINE
  5
489
330
1F
100
AcDbEntity
  8
LAY-10
  6
CONTINUOUS
 62
     7
100
AcDbLine
 10
2413.215827115373
 20
2093.087767677979
 30
0.0
 11
2415.215827115373
 21
2091.282471019778
 31
0.0
  0
LINE
  5
48A
330
1F
100
AcDbEntity
  8
LAY-10
  6
CONTINUOUS
 62
     7
100
AcDbLine
 10
2413.215827115371
 20
2092.380660896795
 30
0.0
 11
2415.215827115373
 21
2090.57536423859
 31
0.0
  0
LINE
  5
48B
330
1F
100
AcDbEntity
  8
LAY-10
  6
CONTINUOUS
 62
     7
100
AcDbLine
 10
2413.215827115373
 20
2091.673554115608
 30
0.0
 11
2415.21777722425
 21
2089.871604006732
 31
0.0
  0
LINE
  5
48C
330
1F
100
AcDbEntity
  8
LAY-10
  6
CONTINUOUS
 62
     7
100
AcDbLine
 10
2413.215827115371
 20
2090.966447334421
 30
0.0
 11
2415.215827115373
 21
2089.164900596104
 31
0.0
  0
LINE
  5
48D
330
1F
100
AcDbEntity
  8
LAY-10
  6
CONTINUOUS
 62
     7
100
AcDbLine
 10
2413.215827115373
 20
2090.259340553234
 30
0.0
 11
2415.215827115371
 21
2088.459340553236
 31
0.0
  0
LINE
  5
48E
330
1F
100
AcDbEntity
  8
LAY-10
  6
CONTINUOUS
 62
     7
100
AcDbLine
 10
2413.215827115371
 20
2089.552233772049
 30
0.0
 11
2415.215827115374
 21
2087.752233772049
 31
0.0
  0
LINE
  5
48F
330
1F
100
AcDbEntity
  8
LAY-10
  6
CONTINUOUS
 62
     7
100
AcDbLine
 10
2413.215827115373
 20
2088.845126990862
 30
0.0
 11
2415.215827115371
 21
2087.045126990864
 31
0.0
  0
LINE
  5
490
330
1F
100
AcDbEntity
  8
LAY-10
  6
CONTINUOUS
 62
     7
100
AcDbLine
 10
2413.215827115371
 20
2088.138020209677
 30
0.0
 11
2415.215827115374
 21
2086.338020209676
 31
0.0
  0
LINE
  5
491
330
1F
100
AcDbEntity
  8
LAY-10
  6
CONTINUOUS
 62
     7
100
AcDbLine
 10
2413.215827115373
 20
2087.430913428488
 30
0.0
 11
2415.215827115371
 21
2085.630913428489
 31
0.0
  0
LINE
  5
492
330
1F
100
AcDbEntity
  8
LAY-10
  6
CONTINUOUS
 62
     7
100
AcDbLine
 10
2413.215827115371
 20
2086.723806647304
 30
0.0
 11
2415.215827115374
 21
2084.923806647303
 31
0.0
  0
LINE
  5
493
330
1F
100
AcDbEntity
  8
LAY-10
  6
CONTINUOUS
 62
     7
100
AcDbLine
 10
2413.215827115373
 20
2086.016699866116
 30
0.0
 11
2415.215827115371
 21
2084.216699866118
 31
0.0
  0
LINE
  5
494
330
1F
100
AcDbEntity
  8
LAY-10
  6
CONTINUOUS
 62
     7
100
AcDbLine
 10
2413.215827115371
 20
2085.30959308493
 30
0.0
 11
2415.215827115374
 21
2083.509593084927
 31
0.0
  0
LINE
  5
495
330
1F
100
AcDbEntity
  8
LAY-10
  6
CONTINUOUS
 62
     7
100
AcDbLine
 10
2413.215827115373
 20
2084.602486303743
 30
0.0
 11
2415.215827115371
 21
2082.802486303744
 31
0.0
  0
LINE
  5
496
330
1F
100
AcDbEntity
  8
LAY-10
  6
CONTINUOUS
 62
     7
100
AcDbLine
 10
2413.215827115371
 20
2083.895379522558
 30
0.0
 11
2415.215827115374
 21
2082.095379522555
 31
0.0
  0
LINE
  5
497
330
1F
100
AcDbEntity
  8
LAY-10
  6
CONTINUOUS
 62
     7
100
AcDbLine
 10
2413.215827115373
 20
2083.18827274137
 30
0.0
 11
2415.215827115371
 21
2081.388272741372
 31
0.0
  0
LINE
  5
498
330
1F
100
AcDbEntity
  8
LAY-10
  6
CONTINUOUS
 62
     7
100
AcDbLine
 10
2413.215827115371
 20
2082.481165960184
 30
0.0
 11
2415.215827115374
 21
2080.681165960182
 31
0.0
  0
LINE
  5
499
330
1F
100
AcDbEntity
  8
LAY-10
  6
CONTINUOUS
 62
     7
100
AcDbLine
 10
2413.215827115373
 20
2081.774059178995
 30
0.0
 11
2415.21582711537
 21
2079.974059178999
 31
0.0
  0
LINE
  5
49A
330
1F
100
AcDbEntity
  8
LAY-10
  6
CONTINUOUS
 62
     7
100
AcDbLine
 10
2413.215827115371
 20
2081.066952397812
 30
0.0
 11
2415.215827115374
 21
2079.266952397809
 31
0.0
  0
LINE
  5
49B
330
1F
100
AcDbEntity
  8
LAY-10
  6
CONTINUOUS
 62
     7
100
AcDbLine
 10
2413.215827115373
 20
2080.359845616621
 30
0.0
 11
2415.21582711537
 21
2078.559845616626
 31
0.0
  0
LINE
  5
49C
330
1F
100
AcDbEntity
  8
LAY-10
  6
CONTINUOUS
 62
     7
100
AcDbLine
 10
2413.215827115371
 20
2079.652738835438
 30
0.0
 11
2415.215827115374
 21
2077.852738835436
 31
0.0
  0
LINE
  5
49D
330
1F
100
AcDbEntity
  8
LAY-10
  6
CONTINUOUS
 62
     7
100
AcDbLine
 10
2413.215827115373
 20
2078.945632054249
 30
0.0
 11
2415.21582711537
 21
2077.145632054253
 31
0.0
  0
LINE
  5
49E
330
1F
100
AcDbEntity
  8
LAY-10
  6
CONTINUOUS
 62
     7
100
AcDbLine
 10
2413.215827115371
 20
2078.238525273066
 30
0.0
 11
2415.215827115374
 21
2076.438525273064
 31
0.0
  0
LINE
  5
49F
330
1F
100
AcDbEntity
  8
LAY-10
  6
CONTINUOUS
 62
     7
100
AcDbLine
 10
2413.215827115373
 20
2077.531418491876
 30
0.0
 11
2415.21582711537
 21
2075.731418491881
 31
0.0
  0
LINE
  5
4A0
330
1F
100
AcDbEntity
  8
LAY-10
  6
CONTINUOUS
 62
     7
100
AcDbLine
 10
2413.215827115371
 20
2076.824311710693
 30
0.0
 11
2415.215827115373
 21
2075.024311710689
 31
0.0
  0
LINE
  5
4A1
330
1F
100
AcDbEntity
  8
LAY-10
  6
CONTINUOUS
 62
     7
100
AcDbLine
 10
2413.215827115373
 20
2076.117204929504
 30
0.0
 11
2415.21582711537
 21
2074.317204929507
 31
0.0
  0
LINE
  5
4A2
330
1F
100
AcDbEntity
  8
LAY-10
  6
CONTINUOUS
 62
     7
100
AcDbLine
 10
2413.215827115371
 20
2075.410098148321
 30
0.0
 11
2415.215827115373
 21
2073.610098148318
 31
0.0
  0
LINE
  5
4A3
330
1F
100
AcDbEntity
  8
LAY-10
  6
CONTINUOUS
 62
     7
100
AcDbLine
 10
2413.215827115373
 20
2074.70299136713
 30
0.0
 11
2415.21582711537
 21
2072.902991367135
 31
0.0
  0
LINE
  5
4A4
330
1F
100
AcDbEntity
  8
LAY-10
  6
CONTINUOUS
 62
     7
100
AcDbLine
 10
2413.215827115371
 20
2073.995884585947
 30
0.0
 11
2415.215827115373
 21
2072.195884585944
 31
0.0
  0
LINE
  5
4A5
330
1F
100
AcDbEntity
  8
LAY-10
  6
CONTINUOUS
 62
     7
100
AcDbLine
 10
2413.215827115373
 20
2073.288777804758
 30
0.0
 11
2415.21582711537
 21
2071.488777804761
 31
0.0
  0
LINE
  5
4A6
330
1F
100
AcDbEntity
  8
LAY-10
  6
CONTINUOUS
 62
     7
100
AcDbLine
 10
2413.21582711537
 20
2072.581671023575
 30
0.0
 11
2415.215827115373
 21
2070.781671023572
 31
0.0
  0
LINE
  5
4A7
330
1F
100
AcDbEntity
  8
LAY-10
  6
CONTINUOUS
 62
     7
100
AcDbLine
 10
2413.215827115373
 20
2071.874564242384
 30
0.0
 11
2415.21582711537
 21
2070.074564242389
 31
0.0
  0
LINE
  5
4A8
330
1F
100
AcDbEntity
  8
LAY-10
  6
CONTINUOUS
 62
     7
100
AcDbLine
 10
2413.21582711537
 20
2071.167457461202
 30
0.0
 11
2415.215827115373
 21
2069.367457461199
 31
0.0
  0
LINE
  5
4A9
330
1F
100
AcDbEntity
  8
LAY-10
  6
CONTINUOUS
 62
     7
100
AcDbLine
 10
2413.215827115373
 20
2070.460350680012
 30
0.0
 11
2415.21582711537
 21
2068.660350680015
 31
0.0
  0
LINE
  5
4AA
330
1F
100
AcDbEntity
  8
LAY-10
  6
CONTINUOUS
 62
     7
100
AcDbLine
 10
2413.21582711537
 20
2069.753243898829
 30
0.0
 11
2415.215827115373
 21
2067.953243898826
 31
0.0
  0
LINE
  5
4AB
330
1F
100
AcDbEntity
  8
LAY-10
  6
CONTINUOUS
 62
     7
100
AcDbLine
 10
2413.215827115373
 20
2069.046137117638
 30
0.0
 11
2415.21582711537
 21
2067.246137117643
 31
0.0
  0
LINE
  5
4AC
330
1F
100
AcDbEntity
  8
LAY-10
  6
CONTINUOUS
 62
     7
100
AcDbLine
 10
2413.21582711537
 20
2068.339030336456
 30
0.0
 11
2415.215827115373
 21
2066.539030336453
 31
0.0
  0
LINE
  5
4AD
330
1F
100
AcDbEntity
  8
LAY-10
  6
CONTINUOUS
 62
     7
100
AcDbLine
 10
2413.215827115372
 20
2067.631923555266
 30
0.0
 11
2415.21582711537
 21
2065.831923555269
 31
0.0
  0
LINE
  5
4AE
330
1F
100
AcDbEntity
  8
LAY-10
  6
CONTINUOUS
 62
     7
100
AcDbLine
 10
2413.21582711537
 20
2066.924816774083
 30
0.0
 11
2414.622002308152
 21
2065.7186415813
 31
0.0
  0
LINE
  5
4AF
330
1F
100
AcDbEntity
  8
LAY-10
  6
CONTINUOUS
 62
     7
100
AcDbLine
 10
2413.215827115372
 20
2066.217709992893
 30
0.0
 11
2413.714895526969
 21
2065.718641581298
 31
0.0
  0
LINE
  5
4B0
330
1F
100
AcDbEntity
  8
LAY-10
  6
CONTINUOUS
 62
     7
100
AcDbLine
 10
2413.434686681136
 20
2095.718641581381
 30
0.0
 11
2415.215827115373
 21
2094.110898144523
 31
0.0
  0
LINE
  5
4B1
330
1F
100
AcDbEntity
  8
LAY-10
  6
CONTINUOUS
 62
     7
100
AcDbLine
 10
2414.218055750118
 20
2095.718641581381
 30
0.0
 11
2415.215827115373
 21
2094.818004925708
 31
0.0
  0
LINE
  5
4B2
330
1F
100
AcDbEntity
  8
LAY-10
  6
CONTINUOUS
 62
     7
100
AcDbLine
 10
2415.001424819102
 20
2095.718641581381
 30
0.0
 11
2415.215827115373
 21
2095.525111706896
 31
0.0
  0
LINE
  5
4B3
330
1F
100
AcDbEntity
  8
LAY-10
  6
CONTINUOUS
 62
     7
100
AcDbLine
 10
2413.215827115374
 20
2065.718641581449
 30
0.0
 11
2415.215827115374
 21
2065.718641581449
 31
0.0
  0
ARC
  5
4B4
330
1F
100
AcDbEntity
  8
LAY-10
  6
CONTINUOUS
 62
     7
100
AcDbCircle
 10
2412.21582711535
 20
2048.718641581565
 30
0.0
 40
3.000000000000003
100
AcDbArc
 50
180.0
 51
270.0000000000002
  0
ARC
  5
4B5
330
1F
100
AcDbEntity
  8
LAY-10
  6
CONTINUOUS
 62
     7
100
AcDbCircle
 10
2402.715827115353
 20
2085.218641581566
 30
0.0
 40
6.500000000000004
100
AcDbArc
 50
0.0
 51
90.00000000000001
  0
LINE
  5
4B6
330
1F
100
AcDbEntity
  8
LAY-10
  6
CONTINUOUS
 62
     7
100
AcDbLine
 10
2402.715827115353
 20
2091.718641581566
 30
0.0
 11
2363.215827115346
 21
2091.718641581566
 31
0.0
  0
ARC
  5
4B7
330
1F
100
AcDbEntity
  8
LAY-10
  6
CONTINUOUS
 62
     7
100
AcDbCircle
 10
2366.215827115352
 20
2094.718641581566
 30
0.0
 40
3.000000000000003
100
AcDbArc
 50
180.0
 51
270.0000000000002
  0
LINE
  5
4B8
330
1F
100
AcDbEntity
  8
LAY-10
  6
CONTINUOUS
 62
     7
100
AcDbLine
 10
2413.215827115347
 20
2045.718641581566
 30
0.0
 11
2412.21582711535
 21
2045.718641581566
 31
0.0
  0
LINE
  5
4B9
330
1F
100
AcDbEntity
  8
LAY-10
  6
CONTINUOUS
 62
     7
100
AcDbLine
 10
2358.715827115357
 20
1324.718641581497
 30
0.0
 11
2358.715827115357
 21
1309.718641581497
 31
0.0
  0
LINE
  5
4BA
330
1F
100
AcDbEntity
  8
LAY-10
  6
CONTINUOUS
 62
     7
100
AcDbLine
 10
2358.715827115357
 20
1324.718641581497
 30
0.0
 11
2373.715827115357
 21
1324.718641581497
 31
0.0
  0
LINE
  5
4BB
330
1F
100
AcDbEntity
  8
LAY-10
  6
CONTINUOUS
 62
     7
100
AcDbLine
 10
2361.715827115357
 20
1321.7186415815
 30
0.0
 11
2361.715827115357
 21
1309.718641581497
 31
0.0
  0
LINE
  5
4BC
330
1F
100
AcDbEntity
  8
LAY-10
  6
CONTINUOUS
 62
     7
100
AcDbLine
 10
2373.715827115357
 20
1324.718641581497
 30
0.0
 11
2373.715827115357
 21
1321.7186415815
 31
0.0
  0
LINE
  5
4BD
330
1F
100
AcDbEntity
  8
LAY-10
  6
CONTINUOUS
 62
     7
100
AcDbLine
 10
2358.715827115357
 20
1309.718641581497
 30
0.0
 11
2361.715827115357
 21
1309.718641581497
 31
0.0
  0
LINE
  5
4BE
330
1F
100
AcDbEntity
  8
LAY-10
  6
CONTINUOUS
 62
     7
100
AcDbLine
 10
2490.515827115358
 20
1364.718641581494
 30
0.0
 11
2490.515827115358
 21
1410.718641581499
 31
0.0
  0
LINE
  5
4BF
330
1F
100
AcDbEntity
  8
LAY-10
  6
CONTINUOUS
 62
     7
100
AcDbLine
 10
2438.515827115406
 20
1368.718641581565
 30
0.0
 11
2490.515827115408
 21
1368.718641581565
 31
0.0
  0
LINE
  5
4C0
330
1F
100
AcDbEntity
  8
LAY-10
  6
CONTINUOUS
 62
     7
100
AcDbLine
 10
2486.915827115408
 20
1370.318641581565
 30
0.0
 11
2440.115827115407
 21
1370.318641581565
 31
0.0
  0
LINE
  5
4C1
330
1F
100
AcDbEntity
  8
LAY-10
  6
CONTINUOUS
 62
     7
100
AcDbLine
 10
2490.515827115408
 20
1393.718641581564
 30
0.0
 11
2488.515827115406
 21
1393.718641581564
 31
0.0
  0
LINE
  5
4C2
330
1F
100
AcDbEntity
  8
LAY-10
  6
CONTINUOUS
 62
     7
100
AcDbLine
 10
2493.715827115359
 20
1364.518641581492
 30
0.0
 11
2493.715827115359
 21
1410.718641581499
 31
0.0
  0
LINE
  5
4C3
330
1F
100
AcDbEntity
  8
LAY-10
  6
CONTINUOUS
 62
     7
100
AcDbLine
 10
2490.515827115363
 20
1410.718641581499
 30
0.0
 11
2493.715827115359
 21
1410.718641581499
 31
0.0
  0
ARC
  5
4C4
330
1F
100
AcDbEntity
  8
LAY-10
  6
CONTINUOUS
 62
     7
100
AcDbCircle
 10
2490.715827115359
 20
1364.518641581492
 30
0.0
 40
3.000000000000003
100
AcDbArc
 50
270.0
 51
0.0000000000001719
  0
LINE
  5
4C5
330
1F
100
AcDbEntity
  8
LAY-10
  6
CONTINUOUS
 62
     7
100
AcDbLine
 10
2421.415827115346
 20
1361.518641581491
 30
0.0
 11
2490.715827115359
 21
1361.518641581491
 31
0.0
  0
LINE
  5
4C6
330
1F
100
AcDbEntity
  8
LAY-10
  6
CONTINUOUS
 62
     7
100
AcDbLine
 10
2421.215827115346
 20
1364.718641581494
 30
0.0
 11
2490.515827115363
 21
1364.718641581494
 31
0.0
  0
ARC
  5
4C7
330
1F
100
AcDbEntity
  8
LAY-10
  6
CONTINUOUS
 62
     7
100
AcDbCircle
 10
2412.215827115348
 20
1324.718641581531
 30
0.0
 40
3.000000000000003
100
AcDbArc
 50
270.0
 51
0.0000000000001719
  0
ARC
  5
4C8
330
1F
100
AcDbEntity
  8
LAY-10
  6
CONTINUOUS
 62
     7
100
AcDbCircle
 10
2412.415827115346
 20
1324.518641581532
 30
0.0
 40
6.000000000000006
100
AcDbArc
 50
270.0
 51
0.0000000000001719
  0
ARC
  5
4C9
330
1F
100
AcDbEntity
  8
LAY-10
  6
CONTINUOUS
 62
     7
100
AcDbCircle
 10
2421.415827115346
 20
1358.518641581492
 30
0.0
 40
3.000000000000003
100
AcDbArc
 50
90.00000000000001
 51
180.0
  0
ARC
  5
4CA
330
1F
100
AcDbEntity
  8
LAY-10
  6
CONTINUOUS
 62
     7
100
AcDbCircle
 10
2421.215827115346
 20
1358.718641581493
 30
0.0
 40
6.000000000000006
100
AcDbArc
 50
90.00000000000001
 51
180.0
  0
LINE
  5
4CB
330
1F
100
AcDbEntity
  8
LAY-10
  6
CONTINUOUS
 62
     7
100
AcDbLine
 10
2426.415827115447
 20
1351.832350080486
 30
0.0
 11
2418.415827115446
 21
1351.832350080486
 31
0.0
  0
LINE
  5
4CC
330
1F
100
AcDbEntity
  8
LAY-10
  6
CONTINUOUS
 62
     7
100
AcDbLine
 10
2426.415827115447
 20
1321.832350080484
 30
0.0
 11
2426.415827115447
 21
1351.832350080486
 31
0.0
  0
ARC
  5
4CD
330
1F
100
AcDbEntity
  8
LAY-10
  6
CONTINUOUS
 62
     7
100
AcDbCircle
 10
2426.415827115447
 20
1321.832350080484
 30
0.0
 40
8.0
100
AcDbArc
 50
180.0
 51
224.9999999999946
  0
LINE
  5
4CE
330
1F
100
AcDbEntity
  8
LAY-10
  6
CONTINUOUS
 62
     7
100
AcDbLine
 10
2456.114311925282
 20
1280.820156771665
 30
0.0
 11
2420.758972865955
 21
1316.175495830993
 31
0.0
  0
LINE
  5
4CF
330
1F
100
AcDbEntity
  8
LAY-10
  6
CONTINUOUS
 62
     7
100
AcDbLine
 10
2461.771166174772
 20
1286.477011021155
 30
0.0
 11
2426.415827115447
 21
1321.832350080484
 31
0.0
  0
LINE
  5
4D0
330
1F
100
AcDbEntity
  8
LAY-10
  6
CONTINUOUS
 62
     7
100
AcDbLine
 10
2456.114311925282
 20
1280.820156771665
 30
0.0
 11
2461.771166174775
 21
1286.477011021155
 31
0.0
  0
LINE
  5
4D1
330
1F
100
AcDbEntity
  8
LAY-10
  6
CONTINUOUS
 62
     7
100
AcDbLine
 10
2418.415827115347
 20
1358.518641581492
 30
0.0
 11
2418.415827115347
 21
1321.832350080484
 31
0.0
  0
LINE
  5
4D2
330
1F
100
AcDbEntity
  8
LAY-10
  6
CONTINUOUS
 62
     7
100
AcDbLine
 10
2361.715827115357
 20
1321.7186415815
 30
0.0
 11
2412.215827115348
 21
1321.7186415815
 31
0.0
  0
LINE
  5
4D3
330
1F
100
AcDbEntity
  8
LAY-10
  6
CONTINUOUS
 62
     7
100
AcDbLine
 10
2412.415827115346
 20
1318.518641581501
 30
0.0
 11
2361.715827115357
 21
1318.518641581501
 31
0.0
  0
LINE
  5
4D4
330
1F
100
AcDbEntity
  8
LAY-10
  6
CONTINUOUS
 62
     7
100
AcDbLine
 10
2358.715827115379
 20
1325.7186415816
 30
0.0
 11
2415.21582711535
 21
1325.7186415816
 31
0.0
  0
LINE
  5
4D5
330
1F
100
AcDbEntity
  8
LAY-10
  6
CONTINUOUS
 62
     7
100
AcDbLine
 10
2413.215827115351
 20
1355.209088021681
 30
0.0
 11
2415.215827115353
 21
1353.403791363476
 31
0.0
  0
LINE
  5
4D6
330
1F
100
AcDbEntity
  8
LAY-10
  6
CONTINUOUS
 62
     7
100
AcDbLine
 10
2413.215827115353
 20
1354.501981240493
 30
0.0
 11
2415.215827115353
 21
1352.696684582291
 31
0.0
  0
LINE
  5
4D7
330
1F
100
AcDbEntity
  8
LAY-10
  6
CONTINUOUS
 62
     7
100
AcDbLine
 10
2413.215827115351
 20
1353.794874459308
 30
0.0
 11
2415.215827115353
 21
1351.989577801102
 31
0.0
  0
LINE
  5
4D8
330
1F
100
AcDbEntity
  8
LAY-10
  6
CONTINUOUS
 62
     7
100
AcDbLine
 10
2413.215827115353
 20
1353.087767678119
 30
0.0
 11
2415.215827115353
 21
1351.282471019918
 31
0.0
  0
LINE
  5
4D9
330
1F
100
AcDbEntity
  8
LAY-10
  6
CONTINUOUS
 62
     7
100
AcDbLine
 10
2413.215827115351
 20
1352.380660896936
 30
0.0
 11
2415.215827115353
 21
1350.57536423873
 31
0.0
  0
LINE
  5
4DA
330
1F
100
AcDbEntity
  8
LAY-10
  6
CONTINUOUS
 62
     7
100
AcDbLine
 10
2413.215827115353
 20
1351.673554115747
 30
0.0
 11
2415.21777722423
 21
1349.871604006872
 31
0.0
  0
LINE
  5
4DB
330
1F
100
AcDbEntity
  8
LAY-10
  6
CONTINUOUS
 62
     7
100
AcDbLine
 10
2413.215827115351
 20
1350.966447334561
 30
0.0
 11
2415.215827115353
 21
1349.164900596243
 31
0.0
  0
LINE
  5
4DC
330
1F
100
AcDbEntity
  8
LAY-10
  6
CONTINUOUS
 62
     7
100
AcDbLine
 10
2413.215827115353
 20
1350.259340553375
 30
0.0
 11
2415.215827115351
 21
1348.459340553376
 31
0.0
  0
LINE
  5
4DD
330
1F
100
AcDbEntity
  8
LAY-10
  6
CONTINUOUS
 62
     7
100
AcDbLine
 10
2413.215827115351
 20
1349.55223377219
 30
0.0
 11
2415.215827115354
 21
1347.752233772189
 31
0.0
  0
LINE
  5
4DE
330
1F
100
AcDbEntity
  8
LAY-10
  6
CONTINUOUS
 62
     7
100
AcDbLine
 10
2413.215827115353
 20
1348.845126991002
 30
0.0
 11
2415.215827115351
 21
1347.045126991004
 31
0.0
  0
LINE
  5
4DF
330
1F
100
AcDbEntity
  8
LAY-10
  6
CONTINUOUS
 62
     7
100
AcDbLine
 10
2413.215827115351
 20
1348.138020209816
 30
0.0
 11
2415.215827115354
 21
1346.338020209816
 31
0.0
  0
LINE
  5
4E0
330
1F
100
AcDbEntity
  8
LAY-10
  6
CONTINUOUS
 62
     7
100
AcDbLine
 10
2413.215827115353
 20
1347.430913428628
 30
0.0
 11
2415.215827115351
 21
1345.630913428629
 31
0.0
  0
LINE
  5
4E1
330
1F
100
AcDbEntity
  8
LAY-10
  6
CONTINUOUS
 62
     7
100
AcDbLine
 10
2413.215827115351
 20
1346.723806647444
 30
0.0
 11
2415.215827115354
 21
1344.923806647443
 31
0.0
  0
LINE
  5
4E2
330
1F
100
AcDbEntity
  8
LAY-10
  6
CONTINUOUS
 62
     7
100
AcDbLine
 10
2413.215827115353
 20
1346.016699866256
 30
0.0
 11
2415.215827115351
 21
1344.216699866258
 31
0.0
  0
LINE
  5
4E3
330
1F
100
AcDbEntity
  8
LAY-10
  6
CONTINUOUS
 62
     7
100
AcDbLine
 10
2413.215827115351
 20
1345.309593085071
 30
0.0
 11
2415.215827115354
 21
1343.509593085067
 31
0.0
  0
LINE
  5
4E4
330
1F
100
AcDbEntity
  8
LAY-10
  6
CONTINUOUS
 62
     7
100
AcDbLine
 10
2413.215827115353
 20
1344.602486303883
 30
0.0
 11
2415.215827115351
 21
1342.802486303884
 31
0.0
  0
LINE
  5
4E5
330
1F
100
AcDbEntity
  8
LAY-10
  6
CONTINUOUS
 62
     7
100
AcDbLine
 10
2413.215827115351
 20
1343.895379522698
 30
0.0
 11
2415.215827115354
 21
1342.095379522696
 31
0.0
  0
LINE
  5
4E6
330
1F
100
AcDbEntity
  8
LAY-10
  6
CONTINUOUS
 62
     7
100
AcDbLine
 10
2413.215827115353
 20
1343.18827274151
 30
0.0
 11
2415.215827115351
 21
1341.388272741512
 31
0.0
  0
LINE
  5
4E7
330
1F
100
AcDbEntity
  8
LAY-10
  6
CONTINUOUS
 62
     7
100
AcDbLine
 10
2413.215827115351
 20
1342.481165960324
 30
0.0
 11
2415.215827115354
 21
1340.681165960322
 31
0.0
  0
LINE
  5
4E8
330
1F
100
AcDbEntity
  8
LAY-10
  6
CONTINUOUS
 62
     7
100
AcDbLine
 10
2413.215827115353
 20
1341.774059179136
 30
0.0
 11
2415.21582711535
 21
1339.974059179139
 31
0.0
  0
LINE
  5
4E9
330
1F
100
AcDbEntity
  8
LAY-10
  6
CONTINUOUS
 62
     7
100
AcDbLine
 10
2413.215827115351
 20
1341.066952397952
 30
0.0
 11
2415.215827115354
 21
1339.266952397949
 31
0.0
  0
LINE
  5
4EA
330
1F
100
AcDbEntity
  8
LAY-10
  6
CONTINUOUS
 62
     7
100
AcDbLine
 10
2413.215827115353
 20
1340.359845616761
 30
0.0
 11
2415.21582711535
 21
1338.559845616767
 31
0.0
  0
LINE
  5
4EB
330
1F
100
AcDbEntity
  8
LAY-10
  6
CONTINUOUS
 62
     7
100
AcDbLine
 10
2413.215827115351
 20
1339.652738835578
 30
0.0
 11
2415.215827115354
 21
1337.852738835576
 31
0.0
  0
LINE
  5
4EC
330
1F
100
AcDbEntity
  8
LAY-10
  6
CONTINUOUS
 62
     7
100
AcDbLine
 10
2413.215827115353
 20
1338.94563205439
 30
0.0
 11
2415.21582711535
 21
1337.145632054393
 31
0.0
  0
LINE
  5
4ED
330
1F
100
AcDbEntity
  8
LAY-10
  6
CONTINUOUS
 62
     7
100
AcDbLine
 10
2413.215827115351
 20
1338.238525273206
 30
0.0
 11
2415.215827115354
 21
1336.438525273204
 31
0.0
  0
LINE
  5
4EE
330
1F
100
AcDbEntity
  8
LAY-10
  6
CONTINUOUS
 62
     7
100
AcDbLine
 10
2413.215827115353
 20
1337.531418492016
 30
0.0
 11
2415.21582711535
 21
1335.73141849202
 31
0.0
  0
LINE
  5
4EF
330
1F
100
AcDbEntity
  8
LAY-10
  6
CONTINUOUS
 62
     7
100
AcDbLine
 10
2413.215827115351
 20
1336.824311710833
 30
0.0
 11
2415.215827115353
 21
1335.024311710829
 31
0.0
  0
LINE
  5
4F0
330
1F
100
AcDbEntity
  8
LAY-10
  6
CONTINUOUS
 62
     7
100
AcDbLine
 10
2413.215827115353
 20
1336.117204929644
 30
0.0
 11
2415.21582711535
 21
1334.317204929647
 31
0.0
  0
LINE
  5
4F1
330
1F
100
AcDbEntity
  8
LAY-10
  6
CONTINUOUS
 62
     7
100
AcDbLine
 10
2413.215827115351
 20
1335.410098148461
 30
0.0
 11
2415.215827115353
 21
1333.610098148458
 31
0.0
  0
LINE
  5
4F2
330
1F
100
AcDbEntity
  8
LAY-10
  6
CONTINUOUS
 62
     7
100
AcDbLine
 10
2413.215827115353
 20
1334.702991367271
 30
0.0
 11
2415.21582711535
 21
1332.902991367275
 31
0.0
  0
LINE
  5
4F3
330
1F
100
AcDbEntity
  8
LAY-10
  6
CONTINUOUS
 62
     7
100
AcDbLine
 10
2413.215827115351
 20
1333.995884586088
 30
0.0
 11
2415.215827115353
 21
1332.195884586084
 31
0.0
  0
LINE
  5
4F4
330
1F
100
AcDbEntity
  8
LAY-10
  6
CONTINUOUS
 62
     7
100
AcDbLine
 10
2413.215827115353
 20
1333.288777804898
 30
0.0
 11
2415.21582711535
 21
1331.488777804902
 31
0.0
  0
LINE
  5
4F5
330
1F
100
AcDbEntity
  8
LAY-10
  6
CONTINUOUS
 62
     7
100
AcDbLine
 10
2413.21582711535
 20
1332.581671023715
 30
0.0
 11
2415.215827115353
 21
1330.781671023712
 31
0.0
  0
LINE
  5
4F6
330
1F
100
AcDbEntity
  8
LAY-10
  6
CONTINUOUS
 62
     7
100
AcDbLine
 10
2413.215827115353
 20
1331.874564242524
 30
0.0
 11
2415.21582711535
 21
1330.07456424253
 31
0.0
  0
LINE
  5
4F7
330
1F
100
AcDbEntity
  8
LAY-10
  6
CONTINUOUS
 62
     7
100
AcDbLine
 10
2413.21582711535
 20
1331.167457461342
 30
0.0
 11
2415.215827115353
 21
1329.367457461339
 31
0.0
  0
LINE
  5
4F8
330
1F
100
AcDbEntity
  8
LAY-10
  6
CONTINUOUS
 62
     7
100
AcDbLine
 10
2413.215827115353
 20
1330.460350680152
 30
0.0
 11
2415.21582711535
 21
1328.660350680155
 31
0.0
  0
LINE
  5
4F9
330
1F
100
AcDbEntity
  8
LAY-10
  6
CONTINUOUS
 62
     7
100
AcDbLine
 10
2413.21582711535
 20
1329.753243898969
 30
0.0
 11
2415.215827115353
 21
1327.953243898967
 31
0.0
  0
LINE
  5
4FA
330
1F
100
AcDbEntity
  8
LAY-10
  6
CONTINUOUS
 62
     7
100
AcDbLine
 10
2413.215827115353
 20
1329.046137117778
 30
0.0
 11
2415.21582711535
 21
1327.246137117783
 31
0.0
  0
LINE
  5
4FB
330
1F
100
AcDbEntity
  8
LAY-10
  6
CONTINUOUS
 62
     7
100
AcDbLine
 10
2413.21582711535
 20
1328.339030336596
 30
0.0
 11
2415.215827115353
 21
1326.539030336593
 31
0.0
  0
LINE
  5
4FC
330
1F
100
AcDbEntity
  8
LAY-10
  6
CONTINUOUS
 62
     7
100
AcDbLine
 10
2413.215827115352
 20
1327.631923555406
 30
0.0
 11
2415.21582711535
 21
1325.831923555409
 31
0.0
  0
LINE
  5
4FD
330
1F
100
AcDbEntity
  8
LAY-10
  6
CONTINUOUS
 62
     7
100
AcDbLine
 10
2413.21582711535
 20
1326.924816774224
 30
0.0
 11
2414.622002308132
 21
1325.718641581441
 31
0.0
  0
LINE
  5
4FE
330
1F
100
AcDbEntity
  8
LAY-10
  6
CONTINUOUS
 62
     7
100
AcDbLine
 10
2413.215827115352
 20
1326.217709993033
 30
0.0
 11
2413.714895526949
 21
1325.718641581438
 31
0.0
  0
LINE
  5
4FF
330
1F
100
AcDbEntity
  8
LAY-10
  6
CONTINUOUS
 62
     7
100
AcDbLine
 10
2413.434686681116
 20
1355.718641581521
 30
0.0
 11
2415.215827115353
 21
1354.110898144663
 31
0.0
  0
LINE
  5
500
330
1F
100
AcDbEntity
  8
LAY-10
  6
CONTINUOUS
 62
     7
100
AcDbLine
 10
2414.218055750098
 20
1355.718641581521
 30
0.0
 11
2415.215827115353
 21
1354.818004925849
 31
0.0
  0
LINE
  5
501
330
1F
100
AcDbEntity
  8
LAY-10
  6
CONTINUOUS
 62
     7
100
AcDbLine
 10
2415.001424819082
 20
1355.718641581521
 30
0.0
 11
2415.215827115353
 21
1355.525111707037
 31
0.0
  0
LINE
  5
502
330
1F
100
AcDbEntity
  8
LAY-10
  6
CONTINUOUS
 62
     7
100
AcDbLine
 10
2413.215827115374
 20
1355.718641581605
 30
0.0
 11
2415.215827115374
 21
1355.718641581605
 31
0.0
  0
ARC
  5
503
330
1F
100
AcDbEntity
  8
LAY-10
  6
CONTINUOUS
 62
     7
100
AcDbCircle
 10
2412.21582711535
 20
1372.718641581861
 30
0.0
 40
3.000000000000003
100
AcDbArc
 50
90.00000000000001
 51
180.0
  0
ARC
  5
504
330
1F
100
AcDbEntity
  8
LAY-10
  6
CONTINUOUS
 62
     7
100
AcDbCircle
 10
2402.715827115353
 20
1336.218641581861
 30
0.0
 40
6.500000000000004
100
AcDbArc
 50
270.0000000000002
 51
0.0
  0
LINE
  5
505
330
1F
100
AcDbEntity
  8
LAY-10
  6
CONTINUOUS
 62
     7
100
AcDbLine
 10
2402.715827115353
 20
1329.71864158186
 30
0.0
 11
2363.215827115346
 21
1329.71864158186
 31
0.0
  0
ARC
  5
506
330
1F
100
AcDbEntity
  8
LAY-10
  6
CONTINUOUS
 62
     7
100
AcDbCircle
 10
2366.215827115352
 20
1326.718641581861
 30
0.0
 40
3.000000000000003
100
AcDbArc
 50
90.00000000000001
 51
180.0
  0
LINE
  5
507
330
1F
100
AcDbEntity
  8
LAY-10
  6
CONTINUOUS
 62
     7
100
AcDbLine
 10
2413.215827115347
 20
1375.718641581861
 30
0.0
 11
2412.21582711535
 21
1375.718641581861
 31
0.0
  0
LINE
  5
508
330
1F
100
AcDbEntity
  8
LAY-10
  6
CONTINUOUS
 62
     7
100
AcDbLine
 10
2438.515827115408
 20
2052.71864158156
 30
0.0
 11
2438.515827115406
 21
1368.718641581565
 31
0.0
  0
LINE
  5
509
330
1F
100
AcDbEntity
  8
LAY-10
  6
CONTINUOUS
 62
     7
100
AcDbLine
 10
2488.515827115406
 20
1368.718641581565
 30
0.0
 11
2488.515827115406
 21
2052.71864158156
 31
0.0
  0
LINE
  5
50A
330
1F
100
AcDbEntity
  8
LAY-10
  6
CONTINUOUS
 62
     7
100
AcDbLine
 10
2440.115827115409
 20
2051.118641581558
 30
0.0
 11
2440.115827115407
 21
1370.318641581565
 31
0.0
  0
LINE
  5
50B
330
1F
100
AcDbEntity
  8
LAY-10
  6
CONTINUOUS
 62
     7
100
AcDbLine
 10
2486.915827115408
 20
1370.318641581565
 30
0.0
 11
2486.915827115408
 21
2051.118641581558
 31
0.0
  0
LINE
  5
50C
330
1F
100
AcDbEntity
  8
LAY-10
  6
CONTINUOUS
 62
     7
100
AcDbLine
 10
2415.21582711535
 20
1324.718641581547
 30
0.0
 11
2415.21582711535
 21
2096.718641581559
 31
0.0
  0
LINE
  5
50D
330
1F
100
AcDbEntity
  8
LAY-10
  6
CONTINUOUS
 62
     7
100
AcDbLine
 10
2358.715827115347
 20
1325.718641581861
 30
0.0
 11
2358.715827115347
 21
2095.718641581566
 31
0.0
  0
LINE
  5
50E
330
1F
100
AcDbEntity
  8
LAY-10
  6
CONTINUOUS
 62
     7
100
AcDbLine
 10
2363.215827115346
 20
1325.718641581861
 30
0.0
 11
2363.215827115346
 21
2095.718641581566
 31
0.0
  0
LINE
  5
50F
330
1F
100
AcDbEntity
  8
LAY-10
  6
CONTINUOUS
 62
     7
100
AcDbLine
 10
2413.215827115347
 20
1325.718641581861
 30
0.0
 11
2413.215827115347
 21
2095.718641581566
 31
0.0
  0
LINE
  5
510
330
1F
100
AcDbEntity
  8
LAY-10
  6
CONTINUOUS
 62
     7
100
AcDbLine
 10
2409.215827115353
 20
2085.218641581566
 30
0.0
 11
2409.215827115353
 21
1336.21864158186
 31
0.0
  0
LINE
  5
511
330
1F
100
AcDbEntity
  8
LAY-10
  6
CONTINUOUS
 62
     7
100
AcDbLine
 10
2407.21582711535
 20
1331.528225822034
 30
0.0
 11
2407.21582711535
 21
2089.909057341391
 31
0.0
  0
LINE
  5
512
330
1F
100
AcDbEntity
  8
LAY-10
  6
CONTINUOUS
 62
     7
100
AcDbLine
 10
2432.515827115439
 20
1796.018641581487
 30
0.0
 11
2438.515827115446
 21
1796.018641581487
 31
0.0
  0
LINE
  5
513
330
1F
100
AcDbEntity
  8
LAY-10
  6
CONTINUOUS
 62
     7
100
AcDbLine
 10
2432.515827115439
 20
1785.718641581488
 30
0.0
 11
2432.515827115439
 21
1796.018641581487
 31
0.0
  0
LINE
  5
514
330
1F
100
AcDbEntity
  8
LAY-10
  6
CONTINUOUS
 62
     7
100
AcDbLine
 10
2430.515827115438
 20
1785.718641581488
 30
0.0
 11
2438.515827115446
 21
1785.718641581488
 31
0.0
  0
LINE
  5
515
330
1F
100
AcDbEntity
  8
LAY-10
  6
CONTINUOUS
 62
     7
100
AcDbLine
 10
2432.515827115439
 20
1625.718641581488
 30
0.0
 11
2438.515827115446
 21
1625.718641581488
 31
0.0
  0
LINE
  5
516
330
1F
100
AcDbEntity
  8
LAY-10
  6
CONTINUOUS
 62
     7
100
AcDbLine
 10
2430.515827115438
 20
1655.718641581489
 30
0.0
 11
2438.515827115446
 21
1655.718641581489
 31
0.0
  0
LINE
  5
517
330
1F
100
AcDbEntity
  8
LAY-10
  6
CONTINUOUS
 62
     7
100
AcDbLine
 10
2430.515827115438
 20
1635.718641581488
 30
0.0
 11
2430.515827115438
 21
1655.718641581489
 31
0.0
  0
LINE
  5
518
330
1F
100
AcDbEntity
  8
LAY-10
  6
CONTINUOUS
 62
     7
100
AcDbLine
 10
2432.515827115439
 20
1625.718641581488
 30
0.0
 11
2432.515827115439
 21
1635.718641581488
 31
0.0
  0
LINE
  5
519
330
1F
100
AcDbEntity
  8
LAY-10
  6
CONTINUOUS
 62
     7
100
AcDbLine
 10
2432.515827115439
 20
1655.718641581489
 30
0.0
 11
2432.515827115439
 21
1765.718641581488
 31
0.0
  0
LINE
  5
51A
330
1F
100
AcDbEntity
  8
LAY-10
  6
CONTINUOUS
 62
     7
100
AcDbLine
 10
2430.515827115438
 20
1765.718641581488
 30
0.0
 11
2438.515827115446
 21
1765.718641581488
 31
0.0
  0
LINE
  5
51B
330
1F
100
AcDbEntity
  8
LAY-10
  6
CONTINUOUS
 62
     7
100
AcDbLine
 10
2430.515827115438
 20
1635.718641581488
 30
0.0
 11
2438.515827115446
 21
1635.718641581488
 31
0.0
  0
ARC
  5
51C
330
1F
100
AcDbEntity
  8
LAY-10
  6
CONTINUOUS
 62
     7
100
AcDbCircle
 10
2435.515827115446
 20
1663.718641581487
 30
0.0
 40
3.000000000000003
100
AcDbArc
 50
90.00000000000001
 51
180.0
  0
ARC
  5
51D
330
1F
100
AcDbEntity
  8
LAY-10
  6
CONTINUOUS
 62
     7
100
AcDbCircle
 10
2435.515827115446
 20
1663.718641581487
 30
0.0
 40
3.000000000000003
100
AcDbArc
 50
0.0
 51
90.00000000000001
  0
ARC
  5
51E
330
1F
100
AcDbEntity
  8
LAY-10
  6
CONTINUOUS
 62
     7
100
AcDbCircle
 10
2435.515827115446
 20
1757.718641581487
 30
0.0
 40
3.000000000000003
100
AcDbArc
 50
180.0
 51
270.0
  0
ARC
  5
51F
330
1F
100
AcDbEntity
  8
LAY-10
  6
CONTINUOUS
 62
     7
100
AcDbCircle
 10
2435.515827115446
 20
1757.718641581487
 30
0.0
 40
3.000000000000003
100
AcDbArc
 50
270.0
 51
0.0
  0
LINE
  5
520
330
1F
100
AcDbEntity
  8
LAY-10
  6
CONTINUOUS
 62
     7
100
AcDbLine
 10
2437.515827115439
 20
1655.718641581489
 30
0.0
 11
2437.515827115439
 21
1635.718641581488
 31
0.0
  0
LINE
  5
521
330
1F
100
AcDbEntity
  8
LAY-10
  6
CONTINUOUS
 62
     7
100
AcDbLine
 10
2430.515827115438
 20
1765.718641581488
 30
0.0
 11
2430.515827115438
 21
1785.718641581488
 31
0.0
  0
LINE
  5
522
330
1F
100
AcDbEntity
  8
LAY-10
  6
CONTINUOUS
 62
     7
100
AcDbLine
 10
2437.515827115439
 20
1785.718641581488
 30
0.0
 11
2437.515827115439
 21
1765.718641581488
 31
0.0
  0
LINE
  5
523
330
1F
100
AcDbEntity
  8
LAY-10
  6
CONTINUOUS
 62
     7
100
AcDbLine
 10
1925.000000000093
 20
847.49999999996
 30
0.0
 11
1925.000000000093
 21
903.9999999999338
 31
0.0
  0
LINE
  5
524
330
1F
100
AcDbEntity
  8
LAY-10
  6
CONTINUOUS
 62
     7
100
AcDbLine
 10
555.0000000000902
 20
903.99999999993
 30
0.0
 11
555.0000000000902
 21
847.49999999996
 31
0.0
  0
LINE
  5
525
330
1F
100
AcDbEntity
  8
LAY-10
  6
CENTER
 62
     2
100
AcDbLine
 10
1239.999999999975
 20
2148.21864158139
 30
0.0
 11
1239.999999999974
 21
1267.918641581489
 31
0.0
  0
LINE
  5
526
330
1F
100
AcDbEntity
  8
LAY-10
  6
CENTER
 62
     2
100
AcDbLine
 10
1940.999999999711
 20
1960.718641581461
 30
0.0
 11
1982.799999999711
 21
1960.718641581462
 31
0.0
  0
LINE
  5
527
330
1F
100
AcDbEntity
  8
LAY-10
  6
CENTER
 62
     2
100
AcDbLine
 10
1940.999999999709
 20
1460.718641581501
 30
0.0
 11
1977.499999999663
 21
1460.718641581501
 31
0.0
  0
LINE
  5
528
330
1F
100
AcDbEntity
  8
LAY-10
  6
CENTER
 62
     2
100
AcDbLine
 10
538.994371067838
 20
1460.718641581504
 30
0.0
 11
502.4943710678845
 21
1460.718641581506
 31
0.0
  0
LINE
  5
529
330
1F
100
AcDbEntity
  8
LAY-10
  6
CENTER
 62
     2
100
AcDbLine
 10
538.994371067838
 20
1960.718641581465
 30
0.0
 11
497.1943710678387
 21
1960.718641581466
 31
0.0
  0
LINE
  5
52A
330
1F
100
AcDbEntity
  8
LAY-10
  6
CENTER
 62
     2
100
AcDbLine
 10
497.6999999995668
 20
1710.718641581542
 30
0.0
 11
1982.79999999967
 21
1710.718641581543
 31
0.0
  0
LINE
  5
52B
330
1F
100
AcDbEntity
  8
LAY-10
  6
CENTER
 62
     2
100
AcDbLine
 10
1739.999999999982
 20
2111.715827115208
 30
0.0
 11
1739.999999999982
 21
2153.515827115206
 31
0.0
  0
LINE
  5
52C
330
1F
100
AcDbEntity
  8
LAY-10
  6
CENTER
 62
     2
100
AcDbLine
 10
739.9999999999319
 20
2111.715827115208
 30
0.0
 11
739.9999999999319
 21
2153.515827115206
 31
0.0
  0
LINE
  5
52D
330
1F
100
AcDbEntity
  8
LAY-10
  6
CENTER
 62
     2
100
AcDbLine
 10
1739.999999999982
 20
1309.721456047879
 30
0.0
 11
1739.999999999982
 21
1267.921456047881
 31
0.0
  0
LINE
  5
52E
330
1F
100
AcDbEntity
  8
LAY-10
  6
CENTER
 62
     2
100
AcDbLine
 10
739.9999999999321
 20
1309.721456047877
 30
0.0
 11
739.9999999999324
 21
1267.921456047879
 31
0.0
  0
LINE
  5
52F
330
1F
100
AcDbEntity
  8
LAY-10
  6
CENTER
 62
     2
100
AcDbLine
 10
782.4999999999205
 20
2089.318641581491
 30
0.0
 11
782.4999999999205
 21
2050.418641581491
 31
0.0
  0
LINE
  5
530
330
1F
100
AcDbEntity
  8
LAY-10
  6
CENTER
 62
     2
100
AcDbLine
 10
763.9749999999209
 20
2070.718641581489
 30
0.0
 11
801.47499999992
 21
2070.718641581489
 31
0.0
  0
LINE
  5
531
330
1F
100
AcDbEntity
  8
LAY-10
  6
CENTER
 62
     2
100
AcDbLine
 10
782.499999999921
 20
1332.118641581595
 30
0.0
 11
782.499999999921
 21
1371.018641581594
 31
0.0
  0
LINE
  5
532
330
1F
100
AcDbEntity
  8
LAY-10
  6
CENTER
 62
     2
100
AcDbLine
 10
763.9749999999214
 20
1350.718641581596
 30
0.0
 11
801.4749999999204
 21
1350.718641581596
 31
0.0
  0
LINE
  5
533
330
1F
100
AcDbEntity
  8
LAY-10
  6
CENTER
 62
     2
100
AcDbLine
 10
1221.474999999971
 20
2070.718641581489
 30
0.0
 11
1258.97499999997
 21
2070.718641581489
 31
0.0
  0
LINE
  5
534
330
1F
100
AcDbEntity
  8
LAY-10
  6
CENTER
 62
     2
100
AcDbLine
 10
1221.474999999971
 20
1350.718641581596
 30
0.0
 11
1258.974999999971
 21
1350.718641581596
 31
0.0
  0
LINE
  5
535
330
1F
100
AcDbEntity
  8
LAY-10
  6
CENTER
 62
     2
100
AcDbLine
 10
1697.500000000001
 20
2089.318641581491
 30
0.0
 11
1697.500000000001
 21
2050.418641581491
 31
0.0
  0
LINE
  5
536
330
1F
100
AcDbEntity
  8
LAY-10
  6
CENTER
 62
     2
100
AcDbLine
 10
1678.975000000001
 20
2070.718641581489
 30
0.0
 11
1716.475
 21
2070.718641581489
 31
0.0
  0
LINE
  5
537
330
1F
100
AcDbEntity
  8
LAY-10
  6
CENTER
 62
     2
100
AcDbLine
 10
1697.500000000001
 20
1332.118641581595
 30
0.0
 11
1697.500000000001
 21
1371.018641581594
 31
0.0
  0
LINE
  5
538
330
1F
100
AcDbEntity
  8
LAY-10
  6
CENTER
 62
     2
100
AcDbLine
 10
1678.975000000002
 20
1350.718641581596
 30
0.0
 11
1716.475000000001
 21
1350.718641581596
 31
0.0
  0
LINE
  5
539
330
1F
100
AcDbEntity
  8
LAY-10
  6
CENTER
 62
     2
100
AcDbLine
 10
1240.000000000017
 20
917.5810074611508
 30
0.0
 11
1240.000000000017
 21
761.7479502443604
 31
0.0
  0
LINE
  5
53A
330
1F
100
AcDbEntity
  8
LAY-10
  6
CENTER
 62
     2
100
AcDbLine
 10
2345.134819654159
 20
1710.718641581527
 30
0.0
 11
2500.96787687095
 21
1710.718641581527
 31
0.0
  0
DIMENSION
  5
53C
330
1F
100
AcDbEntity
  8
LAY-20
  6
CONTINUOUS
 62
     4
100
AcDbDimension
  2
*D15
 10
2188.71582711535
 20
2111.718641581559
 30
0.0
 11
2163.71582711535
 21
1710.71864158152
 31
0.0
 70
   160
  3
ISO-25
100
AcDbAlignedDimension
 13
2358.715827115359
 23
1309.71864158148
 33
0.0
 14
2358.715827115359
 24
2111.718641581559
 34
0.0
 50
90.0
100
AcDbRotatedDimension
1001
ACAD
1000
DSTYLE
1002
{
1070
   270
1070
     2
1070
     6
1000
EX_BNORM
1070
     7
1000
EX_BNORM
1070
    41
1040
25.0
1070
    42
1040
15.0
1070
    44
1040
15.0
1070
    73
1070
     0
1070
    74
1070
     0
1070
    75
1070
     0
1070
    76
1070
     0
1070
    77
1070
     1
1070
    78
1070
     8
1070
   140
1040
31.181104
1070
   147
1040
0.0
1070
   173
1070
     1
1070
   176
1070
     4
1070
   177
1070
     4
1070
   178
1070
     7
1070
   271
1070
     1
1070
   277
1070
     2
1070
   279
1070
     2
1070
   280
1070
     0
1070
   287
1070
     5
1070
   340
1005
53B
1002
}
  0
DIMENSION
  5
54A
330
1F
100
AcDbEntity
  8
LAY-20
  6
CONTINUOUS
 62
     4
100
AcDbDimension
  2
*D16
 10
2258.71582711535
 20
2095.718641581575
 30
0.0
 11
2233.71582711535
 21
1710.718641581589
 31
0.0
 70
   160
  3
ISO-25
100
AcDbAlignedDimension
 13
2358.715827115356
 23
1325.718641581602
 33
0.0
 14
2358.715827115354
 24
2095.718641581575
 34
0.0
 50
90.0
100
AcDbRotatedDimension
1001
ACAD
1000
DSTYLE
1002
{
1070
   270
1070
     2
1070
     6
1000
EX_BNORM
1070
     7
1000
EX_BNORM
1070
    41
1040
25.0
1070
    42
1040
15.0
1070
    44
1040
15.0
1070
    73
1070
     0
1070
    74
1070
     0
1070
    75
1070
     0
1070
    76
1070
     0
1070
    77
1070
     1
1070
    78
1070
     8
1070
   140
1040
31.181104
1070
   147
1040
0.0
1070
   173
1070
     1
1070
   176
1070
     4
1070
   177
1070
     4
1070
   178
1070
     7
1070
   271
1070
     1
1070
   277
1070
     2
1070
   279
1070
     2
1070
   280
1070
     0
1070
   287
1070
     5
1070
   340
1005
53B
1002
}
  0
DIMENSION
  5
557
330
1F
100
AcDbEntity
  8
LAY-20
  6
CONTINUOUS
 62
     4
100
AcDbDimension
  2
*D17
 10
2593.71582711536
 20
1410.718641581479
 30
0.0
 11
2568.71582711536
 21
1710.718641581519
 31
0.0
 70
   160
  3
ISO-25
100
AcDbAlignedDimension
 13
2493.71582711536
 23
2010.718641581559
 33
0.0
 14
2493.71582711536
 24
1410.718641581479
 34
0.0
 50
90.0
100
AcDbRotatedDimension
1001
ACAD
1000
DSTYLE
1002
{
1070
   270
1070
     2
1070
     6
1000
EX_BNORM
1070
     7
1000
EX_BNORM
1070
    41
1040
25.0
1070
    42
1040
15.0
1070
    44
1040
15.0
1070
    73
1070
     0
1070
    74
1070
     0
1070
    75
1070
     0
1070
    76
1070
     0
1070
    77
1070
     1
1070
    78
1070
     8
1070
   140
1040
31.181104
1070
   147
1040
0.0
1070
   173
1070
     1
1070
   176
1070
     4
1070
   177
1070
     4
1070
   178
1070
     7
1070
   271
1070
     1
1070
   277
1070
     2
1070
   279
1070
     2
1070
   280
1070
     0
1070
   287
1070
     5
1070
   340
1005
53B
1002
}
  0
DIMENSION
  5
564
330
1F
100
AcDbEntity
  8
LAY-20
  6
CONTINUOUS
 62
     4
100
AcDbDimension
  2
*D18
 10
2663.71582711536
 20
1318.5186415815
 30
0.0
 11
2638.71582711536
 21
1710.718641581529
 31
0.0
 70
   160
  3
ISO-25
100
AcDbAlignedDimension
 13
2412.41582711535
 23
2102.918641581559
 33
0.0
 14
2412.41582711535
 24
1318.5186415815
 34
0.0
 50
90.0
100
AcDbRotatedDimension
1001
ACAD
1000
DSTYLE
1002
{
1070
   270
1070
     2
1070
     6
1000
EX_BNORM
1070
     7
1000
EX_BNORM
1070
    41
1040
25.0
1070
    42
1040
15.0
1070
    44
1040
15.0
1070
    73
1070
     0
1070
    74
1070
     0
1070
    75
1070
     0
1070
    76
1070
     0
1070
    77
1070
     1
1070
    78
1070
     0
1070
   140
1040
31.181104
1070
   147
1040
0.0
1070
   173
1070
     1
1070
   176
1070
     4
1070
   177
1070
     4
1070
   178
1070
     7
1070
   271
1070
     0
1070
   277
1070
     2
1070
   279
1070
     2
1070
   280
1070
     0
1070
   287
1070
     5
1070
   340
1005
53B
1002
}
  0
DIMENSION
  5
571
330
1F
100
AcDbEntity
  8
LAY-20
  6
CONTINUOUS
 62
     4
100
AcDbDimension
  2
*D19
 10
1941.00000000005
 20
1073.99999999996
 30
0.0
 11
1240.00000000001
 21
1098.99999999996
 31
0.0
 70
   160
  3
ISO-25
100
AcDbAlignedDimension
 13
538.9999999999706
 23
903.9999999999507
 33
0.0
 14
1941.00000000005
 24
903.9999999999507
 34
0.0
100
AcDbRotatedDimension
1001
ACAD
1000
DSTYLE
1002
{
1070
   270
1070
     2
1070
     6
1000
EX_BNORM
1070
     7
1000
EX_BNORM
1070
    41
1040
25.0
1070
    42
1040
15.0
1070
    44
1040
15.0
1070
    73
1070
     0
1070
    74
1070
     0
1070
    75
1070
     0
1070
    76
1070
     0
1070
    77
1070
     1
1070
    78
1070
     8
1070
   140
1040
31.181104
1070
   147
1040
0.0
1070
   173
1070
     1
1070
   176
1070
     4
1070
   177
1070
     4
1070
   178
1070
     7
1070
   271
1070
     1
1070
   277
1070
     2
1070
   279
1070
     2
1070
   280
1070
     0
1070
   287
1070
     5
1070
   340
1005
53B
1002
}
  0
DIMENSION
  5
57E
330
1F
100
AcDbEntity
  8
LAY-20
  6
CONTINUOUS
 62
     4
100
AcDbDimension
  2
*D20
 10
1010.000000000095
 20
1003.999999999961
 30
0.0
 11
782.5000000000938
 21
1028.99999999996
 31
0.0
 70
   160
  3
ISO-25
100
AcDbAlignedDimension
 13
555.0000000000924
 23
903.9999999999537
 33
0.0
 14
1010.000000000095
 24
903.999999999956
 34
0.0
100
AcDbRotatedDimension
1001
ACAD
1000
DSTYLE
1002
{
1070
   270
1070
     2
1070
     6
1000
EX_BNORM
1070
     7
1000
EX_BNORM
1070
    41
1040
25.0
1070
    42
1040
15.0
1070
    44
1040
15.0
1070
    73
1070
     0
1070
    74
1070
     0
1070
    75
1070
     0
1070
    76
1070
     0
1070
    77
1070
     1
1070
    78
1070
     8
1070
   140
1040
31.181104
1070
   147
1040
0.0
1070
   173
1070
     1
1070
   176
1070
     4
1070
   177
1070
     4
1070
   178
1070
     7
1070
   271
1070
     1
1070
   277
1070
     2
1070
   279
1070
     2
1070
   280
1070
     0
1070
   287
1070
     5
1070
   340
1005
53B
1002
}
  0
DIMENSION
  5
58B
330
1F
100
AcDbEntity
  8
LAY-20
  6
CONTINUOUS
 62
     4
100
AcDbDimension
  2
*D21
 10
639.9999999999702
 20
668.9999999999503
 30
0.0
 11
1240.00000000001
 21
693.9999999999503
 31
0.0
 70
   160
  3
ISO-25
100
AcDbAlignedDimension
 13
1840.00000000005
 23
768.9999999999504
 33
0.0
 14
639.9999999999702
 24
768.9999999999504
 34
0.0
100
AcDbRotatedDimension
1001
ACAD
1000
DSTYLE
1002
{
1070
   270
1070
     2
1070
     6
1000
EX_BNORM
1070
     7
1000
EX_BNORM
1070
    41
1040
25.0
1070
    42
1040
15.0
1070
    44
1040
15.0
1070
    73
1070
     0
1070
    74
1070
     0
1070
    75
1070
     0
1070
    76
1070
     0
1070
    77
1070
     1
1070
    78
1070
     8
1070
   140
1040
31.181104
1070
   147
1040
0.0
1070
   173
1070
     1
1070
   176
1070
     4
1070
   177
1070
     4
1070
   178
1070
     7
1070
   271
1070
     1
1070
   277
1070
     2
1070
   279
1070
     2
1070
   280
1070
     0
1070
   287
1070
     5
1070
   340
1005
53B
1002
}
  0
DIMENSION
  5
598
330
1F
100
AcDbEntity
  8
LAY-20
  6
CONTINUOUS
 62
     4
100
AcDbDimension
  2
*D22
 10
2069.89848480985
 20
903.9999999999507
 30
0.0
 11
2044.89848480985
 21
836.4999999999502
 31
0.0
 70
   160
  3
ISO-25
100
AcDbAlignedDimension
 13
1886.20000000005
 23
768.9999999999504
 33
0.0
 14
1941.00000000005
 24
903.9999999999507
 34
0.0
 50
90.0
100
AcDbRotatedDimension
1001
ACAD
1000
DSTYLE
1002
{
1070
   270
1070
     2
1070
     6
1000
EX_BNORM
1070
     7
1000
EX_BNORM
1070
    41
1040
25.0
1070
    42
1040
15.0
1070
    44
1040
15.0
1070
    73
1070
     0
1070
    74
1070
     0
1070
    75
1070
     0
1070
    76
1070
     0
1070
    77
1070
     1
1070
    78
1070
     8
1070
   140
1040
31.181104
1070
   147
1040
0.0
1070
   173
1070
     1
1070
   176
1070
     4
1070
   177
1070
     4
1070
   178
1070
     7
1070
   271
1070
     1
1070
   277
1070
     2
1070
   279
1070
     2
1070
   280
1070
     0
1070
   287
1070
     5
1070
   340
1005
53B
1002
}
  0
DIMENSION
  5
5A5
330
1F
100
AcDbEntity
  8
LAY-20
  6
CONTINUOUS
 62
     4
100
AcDbDimension
  2
*D23
 10
547.7999999999904
 20
598.9999999999503
 30
0.0
 11
1240.00000000002
 21
623.9999999999503
 31
0.0
 70
   160
  3
ISO-25
100
AcDbAlignedDimension
 13
1932.20000000005
 23
850.2999999999603
 33
0.0
 14
547.7999999999904
 24
850.2999999999603
 34
0.0
100
AcDbRotatedDimension
1001
ACAD
1000
DSTYLE
1002
{
1070
   270
1070
     2
1070
     6
1000
EX_BNORM
1070
     7
1000
EX_BNORM
1070
    41
1040
25.0
1070
    42
1040
15.0
1070
    44
1040
15.0
1070
    73
1070
     0
1070
    74
1070
     0
1070
    75
1070
     0
1070
    76
1070
     0
1070
    77
1070
     1
1070
    78
1070
     0
1070
   140
1040
31.181104
1070
   147
1040
0.0
1070
   173
1070
     1
1070
   176
1070
     4
1070
   177
1070
     4
1070
   178
1070
     7
1070
   271
1070
     0
1070
   277
1070
     2
1070
   279
1070
     2
1070
   280
1070
     0
1070
   287
1070
     5
1070
   340
1005
53B
1002
}
  0
DIMENSION
  5
5B2
330
1F
100
AcDbEntity
  8
LAY-20
  6
CONTINUOUS
 62
     4
100
AcDbDimension
  2
*D24
 10
1364.19231584385
 20
903.9999999999407
 30
0.0
 11
1339.19231584385
 21
968.9999999999402
 31
0.0
 70
   160
  3
ISO-25
100
AcDbAlignedDimension
 13
1364.19231584385
 23
899.4999999999402
 33
0.0
 14
1364.19231584385
 24
903.9999999999407
 34
0.0
 50
90.0
100
AcDbRotatedDimension
1001
ACAD
1000
DSTYLE
1002
{
1070
   270
1070
     2
1070
     6
1000
EX_BNORM
1070
     7
1000
EX_BNORM
1070
    41
1040
25.0
1070
    42
1040
0.0
1070
    44
1040
0.0
1070
    73
1070
     0
1070
    74
1070
     0
1070
    75
1070
     1
1070
    76
1070
     1
1070
    77
1070
     1
1070
    78
1070
     8
1070
   140
1040
31.181104
1070
   147
1040
0.0
1070
   173
1070
     1
1070
   176
1070
     4
1070
   177
1070
     4
1070
   178
1070
     7
1070
   271
1070
     1
1070
   277
1070
     2
1070
   279
1070
     2
1070
   280
1070
     2
1070
   287
1070
     5
1070
   340
1005
53B
1002
}
  0
LINE
  5
5BF
330
1F
100
AcDbEntity
  8
LAY-255
  6
CONTINUOUS
 62
     7
100
AcDbLine
 10
3850.0
 20
219.9999999999999
 30
0.0
 11
2850.0
 21
219.9999999999999
 31
0.0
  0
LINE
  5
5C0
330
1F
100
AcDbEntity
  8
LAY-255
  6
CONTINUOUS
 62
     7
100
AcDbLine
 10
2888.0
 20
160.0
 30
0.0
 11
2968.0
 21
210.0
 31
0.0
  0
LINE
  5
5C1
330
1F
100
AcDbEntity
  8
LAY-255
  6
CONTINUOUS
 62
     7
100
AcDbLine
 10
2968.0
 20
210.0
 30
0.0
 11
3048.0
 21
160.0
 31
0.0
  0
LINE
  5
5C2
330
1F
100
AcDbEntity
  8
LAY-255
  6
CONTINUOUS
 62
     7
100
AcDbLine
 10
3048.0
 20
160.0
 30
0.0
 11
2968.0
 21
110.0
 31
0.0
  0
LINE
  5
5C3
330
1F
100
AcDbEntity
  8
LAY-255
  6
CONTINUOUS
 62
     7
100
AcDbLine
 10
2968.0
 20
110.0
 30
0.0
 11
2888.0
 21
160.0
 31
0.0
  0
LINE
  5
5C4
330
1F
100
AcDbEntity
  8
LAY-255
  6
CONTINUOUS
 62
     7
100
AcDbLine
 10
50.0
 20
100.0
 30
0.0
 11
3850.0
 21
100.0
 31
0.0
  0
LINE
  5
5C5
330
1F
100
AcDbEntity
  8
LAY-255
  6
CONTINUOUS
 62
     7
100
AcDbLine
 10
50.0
 20
2800.0
 30
0.0
 11
3850.0
 21
2800.0
 31
0.0
  0
LINE
  5
5C6
330
1F
100
AcDbEntity
  8
LAY-255
  6
CONTINUOUS
 62
     7
100
AcDbLine
 10
50.0
 20
100.0
 30
0.0
 11
50.0
 21
2800.0
 31
0.0
  0
LINE
  5
5C7
330
1F
100
AcDbEntity
  8
LAY-255
  6
CONTINUOUS
 62
     7
100
AcDbLine
 10
3850.0
 20
100.0
 30
0.0
 11
3850.0
 21
2800.0
 31
0.0
  0
LINE
  5
5C8
330
1F
100
AcDbEntity
  8
LAY-255
  6
CONTINUOUS
 62
     4
100
AcDbLine
 10
2850.0
 20
279.9999999999999
 30
0.0
 11
3850.0
 21
279.9999999999999
 31
0.0
  0
LINE
  5
5C9
330
1F
100
AcDbEntity
  8
LAY-255
  6
CONTINUOUS
 62
     7
100
AcDbLine
 10
2850.0
 20
100.0
 30
0.0
 11
2850.0
 21
670.0
 31
0.0
  0
POINT
  5
5CA
330
1F
100
AcDbEntity
  8
LAY-255
  6
CONTINUOUS
 62
     7
100
AcDbPoint
 10
2890.0
 20
399.9999999999999
 30
0.0
  0
LINE
  5
5CB
330
1F
100
AcDbEntity
  8
LAY-255
  6
CONTINUOUS
 62
     4
100
AcDbLine
 10
3350.0
 20
279.9999999999999
 30
0.0
 11
3350.0
 21
220.0
 31
0.0
  0
LINE
  5
5CC
330
1F
100
AcDbEntity
  8
LAY-255
  6
CONTINUOUS
 62
     7
100
AcDbLine
 10
3850.0
 20
670.0
 30
0.0
 11
2850.0
 21
670.0
 31
0.0
  0
LINE
  5
5CD
330
1F
100
AcDbEntity
  8
LAY-255
  6
CONTINUOUS
 62
     4
100
AcDbLine
 10
3830.0
 20
549.9999999999999
 30
0.0
 11
2870.0
 21
549.9999999999999
 31
0.0
  0
LINE
  5
5CE
330
1F
100
AcDbEntity
  8
LAY-255
  6
CONTINUOUS
 62
     4
100
AcDbLine
 10
3830.0
 20
610.0
 30
0.0
 11
2870.0
 21
610.0
 31
0.0
  0
POINT
  5
5CF
330
1F
100
AcDbEntity
  8
LAY-255
  6
CONTINUOUS
 62
     7
100
AcDbPoint
 10
2890.0
 20
499.9999999999999
 30
0.0
  0
POINT
  5
5D0
330
1F
100
AcDbEntity
  8
LAY-255
  6
CONTINUOUS
 62
     7
100
AcDbPoint
 10
3000.0
 20
559.9999999999999
 30
0.0
  0
POINT
  5
5D1
330
1F
100
AcDbEntity
  8
LAY-255
  6
CONTINUOUS
 62
     7
100
AcDbPoint
 10
3000.0
 20
620.0
 30
0.0
  0
POINT
  5
5D2
330
1F
100
AcDbEntity
  8
LAY-255
  6
CONTINUOUS
 62
     7
100
AcDbPoint
 10
2890.0
 20
349.9999999999999
 30
0.0
  0
POINT
  5
5D3
330
1F
100
AcDbEntity
  8
LAY-255
  6
CONTINUOUS
 62
     7
100
AcDbPoint
 10
2890.0
 20
449.9999999999999
 30
0.0
  0
POINT
  5
5D4
330
1F
100
AcDbEntity
  8
LAY-255
  6
CONTINUOUS
 62
     7
100
AcDbPoint
 10
2890.0
 20
299.9999999999998
 30
0.0
  0
TEXT
  5
5D5
330
1F
100
AcDbEntity
  8
LAY-255
  6
CONTINUOUS
 62
     7
100
AcDbText
 10
3081.3837890625
 20
155.4375
 30
0.0
 40
51.5625
  1
福西鋳物株式会社
 41
1.342691999659091
  7
EXCADSTD
100
AcDbText
  0
TEXT
  5
5D6
330
1F
100
AcDbEntity
  8
LAY-255
  6
CONTINUOUS
 62
     7
100
AcDbText
 10
3085.09375
 20
119.8125
 30
0.0
 40
17.1875
  1
ＦＵＫＵＮＩＳＨＩ
 41
1.204799226045263
  7
EXCADSTD
100
AcDbText
  0
TEXT
  5
5D7
330
1F
100
AcDbEntity
  8
LAY-255
  6
CONTINUOUS
 62
     7
100
AcDbText
 10
3327.191964285714
 20
119.8125
 30
0.0
 40
17.1875
  1
ＦＯＵＮＤＲＹ
 41
1.243252752978497
  7
EXCADSTD
100
AcDbText
  0
TEXT
  5
5D8
330
1F
100
AcDbEntity
  8
LAY-255
  6
CONTINUOUS
 62
     7
100
AcDbText
 10
3519.945914381009
 20
119.8125
 30
0.0
 40
17.1875
  1
ＣＯ.,ＬＴＤ.
 41
1.243831036226633
  7
EXCADSTD
100
AcDbText
  0
TEXT
  5
5D9
330
1F
100
AcDbEntity
  8
LAY-255
  6
CONTINUOUS
 62
     7
100
AcDbText
 10
2940.34375
 20
137.1875
 30
0.0
 40
51.5625
  1
S
 41
0.7582677563636363
  7
EXCADSTD
100
AcDbText
  0
TEXT
  5
5DA
330
1F
100
AcDbEntity
  8
LAY-255
  6
CONTINUOUS
 62
     7
100
AcDbText
 10
2971.046875
 20
137.4941037736
 30
0.0
 40
51.5625
  1
F
 41
0.7440945272727272
  7
EXCADSTD
100
AcDbText
  0
TEXT
  5
5DB
330
1F
100
AcDbEntity
  8
LAY-255
  6
CONTINUOUS
 62
     7
100
AcDbText
 10
3371.0546875
 20
244.2187499999999
 30
0.0
 40
25.78125
  1
縮尺
 41
1.080708718181818
  7
EXCADSTD
100
AcDbText
  0
TEXT
  5
5DC
330
1F
100
AcDbEntity
  8
LAY-255
  6
CONTINUOUS
 62
     7
100
AcDbText
 10
2872.65625
 20
565.6249999999999
 30
0.0
 40
34.375
  1
型式
 41
1.056348480681818
  7
EXCADSTD
100
AcDbText
  0
TEXT
  5
5DD
330
1F
100
AcDbEntity
  8
LAY-255
  6
CONTINUOUS
 62
     7
100
AcDbText
 10
2874.21875
 20
625.625
 30
0.0
 40
34.375
  1
品名
 41
0.9788386340909091
  7
EXCADSTD
100
AcDbText
  0
TEXT
  5
5DE
330
1F
100
AcDbEntity
  8
LAY-255
  6
CONTINUOUS
 62
     7
100
AcDbText
 10
2871.5234375
 20
244.2187499999999
 30
0.0
 40
25.78125
  1
作成日
 41
1.000629973818182
  7
EXCADSTD
100
AcDbText
  0
TEXT
  5
5DF
330
1F
100
AcDbEntity
  8
LAY-255
  6
CONTINUOUS
 62
     7
100
AcDbText
 10
2891.40625
 20
505.6249999999999
 30
0.0
 40
34.375
  1
材質：スチール
 41
1.029301719225037
  7
EXCADSTD
100
AcDbText
  0
TEXT
  5
5E0
330
1F
100
AcDbEntity
  8
LAY-255
  6
CONTINUOUS
 62
     7
100
AcDbText
 10
3482.8125
 20
235.6249999999999
 30
0.0
 40
34.375
  1
１：１０
 41
0.9243863385026738
  7
EXCADSTD
100
AcDbText
  0
TEXT
  5
5E1
330
1F
100
AcDbEntity
  8
LAY-255
  6
CONTINUOUS
 62
     7
100
AcDbText
 10
3009.84375
 20
235.6249999999999
 30
0.0
 40
34.375
  1
２０／０８／０３
 41
0.9733971264935065
  7
EXCADSTD
100
AcDbText
  0
TEXT
  5
5E2
330
1F
100
AcDbEntity
  8
LAY-255
  6
CONTINUOUS
 62
     7
100
AcDbText
 10
3001.5625
 20
625.625
 30
0.0
 40
34.375
  1
縞鋼板製マシンハッチ
 41
1.016284949586777
  7
EXCADSTD
100
AcDbText
  0
TEXT
  5
5E3
330
1F
100
AcDbEntity
  8
LAY-255
  6
CONTINUOUS
 62
     7
100
AcDbText
 10
2893.75
 20
455.6249999999999
 30
0.0
 40
34.375
  1
受枠目地：ステンレス鋼
 41
1.012216953889409
  7
EXCADSTD
100
AcDbText
  0
TEXT
  5
5E4
330
1F
100
AcDbEntity
  8
LAY-255
  6
CONTINUOUS
 62
     7
100
AcDbText
 10
2892.65625
 20
355.6249999999999
 30
0.0
 40
34.375
  1
耐火材中蓋付き
 41
1.014779968107303
  7
EXCADSTD
100
AcDbText
  0
TEXT
  5
5E5
330
1F
100
AcDbEntity
  8
LAY-255
  6
CONTINUOUS
 62
     7
100
AcDbText
 10
2892.03125
 20
405.6249999999999
 30
0.0
 40
34.375
  1
適用荷重：Ｔ－２
 41
1.000225024415584
  7
EXCADSTD
100
AcDbText
  0
TEXT
  5
5E6
330
1F
100
AcDbEntity
  8
LAY-255
  6
CONTINUOUS
 62
     7
100
AcDbText
 10
3007.5
 20
565.6249999999999
 30
0.0
 40
34.375
  1
ＳＦ－６０×１２０ＣＭ－２Ｆ型
 41
1.005180326315789
  7
EXCADSTD
100
AcDbText
  0
ENDSEC
  0
SECTION
  2
OBJECTS
  0
DICTIONARY
  5
C
330
0
100
AcDbDictionary
  3
ACAD_GROUP
350
D
  3
ACAD_LAYOUT
350
1A
  3
ACAD_MATERIAL
350
43
  3
ACAD_MLEADERSTYLE
350
6B
  3
ACAD_MLINESTYLE
350
17
  3
ACAD_PLOTSETTINGS
350
19
  3
ACAD_SCALELIST
350
47
  3
ACAD_VISUALSTYLE
350
2A
  3
ACDBHEADERROUNDTRIPXREC
350
5E7
  3
ACDBVARIABLEDICTIONARY
350
608
  0
DICTIONARY
  5
613
330
8
100
AcDbDictionary
280
     1
  3
ACAD_XREC_ROUNDTRIP
360
614
  0
DICTIONARY
  5
D
102
{ACAD_REACTORS
330
C
102
}
330
C
100
AcDbDictionary
  0
DICTIONARY
  5
1A
102
{ACAD_REACTORS
330
C
102
}
330
C
100
AcDbDictionary
  0
DICTIONARY
  5
43
102
{ACAD_REACTORS
330
C
102
}
330
C
100
AcDbDictionary
  3
BYBLOCK
350
45
  3
BYLAYER
350
44
  3
GLOBAL
350
46
  0
DICTIONARY
  5
6B
102
{ACAD_REACTORS
330
C
102
}
330
C
100
AcDbDictionary
  3
STANDARD
350
6C
  0
DICTIONARY
  5
17
102
{ACAD_REACTORS
330
C
102
}
330
C
100
AcDbDictionary
  3
STANDARD
350
18
  0
DICTIONARY
  5
19
102
{ACAD_REACTORS
330
C
102
}
330
C
100
AcDbDictionary
  0
DICTIONARY
  5
47
102
{ACAD_REACTORS
330
C
102
}
330
C
100
AcDbDictionary
  3
A0
350
48
  3
A1
350
49
  3
A2
350
4A
  3
A3
350
4B
  3
A4
350
4C
  3
A5
350
4D
  3
A6
350
4E
  3
A7
350
4F
  3
A8
350
50
  3
A9
350
51
  3
B0
350
52
  3
B1
350
53
  3
B2
350
54
  3
B3
350
55
  3
B4
350
56
  3
B5
350
57
  3
B6
350
58
  3
B7
350
59
  3
B8
350
5A
  3
B9
350
5B
  3
C0
350
5C
  3
C1
350
5D
  3
C2
350
5E
  3
C3
350
5F
  3
C4
350
60
  3
C5
350
61
  3
C6
350
62
  3
C7
350
63
  3
C8
350
64
  3
C9
350
65
  3
D0
350
66
  3
D1
350
67
  3
D2
350
68
  0
DICTIONARY
  5
2A
102
{ACAD_REACTORS
330
C
102
}
330
C
100
AcDbDictionary
  3
2DWIREFRAME
350
2F
  3
BASIC
350
32
  3
BRIGHTEN
350
36
  3
COLORCHANGE
350
3A
  3
CONCEPTUAL
350
34
  3
DIM
350
35
  3
EDGECOLOROFF
350
3D
  3
FACEPATTERN
350
39
  3
FLAT
350
2B
  3
FLATWITHEDGES
350
2C
  3
GOURAUD
350
2D
  3
GOURAUDWITHEDGES
350
2E
  3
HIDDEN
350
31
  3
JITTEROFF
350
3B
  3
LINEPATTERN
350
38
  3
OVERHANGOFF
350
3C
  3
REALISTIC
350
33
  3
SHADED
350
42
  3
SHADED_WITH_EDGES
350
41
  3
SHADES_OF_GRAY
350
3E
  3
SKETCHY
350
3F
  3
THICKEN
350
37
  3
WIREFRAME
350
30
  3
X-RAY
350
40
  0
DICTIONARY
  5
5E7
102
{ACAD_REACTORS
330
C
102
}
330
C
100
AcDbDictionary
  3
CEPSNID
350
5F1
  3
CEPSNTYPE
350
5F0
  3
DIMSTYLEDATA
350
607
  3
FINGERPRINTGUID
350
5F2
  3
HYPERLINKBASE
350
5EA
  3
INSUNITS
350
5EF
  3
LAYOUTDICT
350
5EC
  3
LWETCUNION
350
5EE
  3
PLOTSETDICT
350
5ED
  3
PSVPSCALE
350
5F4
  3
PUCSBASE
350
5F7
  3
PUCSORGBACK
350
5FD
  3
PUCSORGBOTTOM
350
5F9
  3
PUCSORGFRONT
350
5FC
  3
PUCSORGLEFT
350
5FA
  3
PUCSORGRIGHT
350
5FB
  3
PUCSORGTOP
350
5F8
  3
PUCSORTHOREF
350
5F5
  3
PUCSORTHOVIEW
350
5F6
  3
STYLESHEET
350
5EB
  3
TSTACKALIGN
350
5E8
  3
TSTACKSIZE
350
5E9
  3
UCSBASE
350
600
  3
UCSORGBACK
350
606
  3
UCSORGBOTTOM
350
602
  3
UCSORGFRONT
350
605
  3
UCSORGLEFT
350
603
  3
UCSORGRIGHT
350
604
  3
UCSORGTOP
350
601
  3
UCSORTHOREF
350
5FE
  3
UCSORTHOVIEW
350
5FF
  3
VERSIONGUID
350
5F3
  0
DICTIONARY
  5
608
102
{ACAD_REACTORS
330
C
102
}
330
C
100
AcDbDictionary
  3
CANNOSCALE
350
615
  3
CENTEREXE
350
60F
  3
CENTERLTYPEFILE
350
610
  3
CMLEADERSTYLE
350
60A
  3
CTABLESTYLE
350
609
  3
DIMASSOC
350
611
  3
HIDETEXT
350
612
  3
MSLTSCALE
350
616
  3
PSOLHEIGHT
350
60C
  3
PSOLWIDTH
350
60B
  0
XRECORD
  5
614
102
{ACAD_REACTORS
330
613
102
}
330
613
100
AcDbXrecord
102
VTR_0.000_0.000_1.000_1.000_VISUALSTYLE
340
2F
102
VTR_0.000_0.000_1.000_1.000_GRIDDISPLAY
 70
     3
102
VTR_0.000_0.000_1.000_1.000_GRIDMAJOR
 70
     5
102
VTR_0.000_0.000_1.000_1.000_DEFAULTLIGHTING
280
     1
102
VTR_0.000_0.000_1.000_1.000_DEFAULTLIGHTINGTYPE
 70
     1
102
VTR_0.000_0.000_1.000_1.000_BRIGHTNESS
141
0.0
102
VTR_0.000_0.000_1.000_1.000_CONTRAST
142
0.0
  0
MATERIAL
  5
45
102
{ACAD_REACTORS
330
43
102
}
102
{ACAD_XDICTIONARY
360
619
102
}
330
43
100
AcDbMaterial
  1
BYBLOCK
  0
MATERIAL
  5
44
102
{ACAD_REACTORS
330
43
102
}
102
{ACAD_XDICTIONARY
360
617
102
}
330
43
100
AcDbMaterial
  1
BYLAYER
  0
MATERIAL
  5
46
102
{ACAD_REACTORS
330
43
102
}
102
{ACAD_XDICTIONARY
360
61B
102
}
330
43
100
AcDbMaterial
  1
GLOBAL
  0
ACAD_PROXY_OBJECT
  5
6C
102
{ACAD_REACTORS
330
6B
102
}
330
6B
100
AcDbProxyObject
 90
      499
 91
      505
 93
      610
310
40901902A4063FBFFFFFE0000000000000020400000000000020404214DD185B99185C990000000000000104090141901A00000000000004100000000000000041025764000000000000039000
340
14
340
0
340
11
340
0
 94
        0
1001
ACAD_MLEADERVER
1070
     2
  0
MLINESTYLE
  5
18
102
{ACAD_REACTORS
330
17
102
}
330
17
100
AcDbMlineStyle
  2
Standard
 70
     0
  3

 62
   256
 51
90.0
 52
90.0
 71
     2
 49
0.5
 62
   256
  6
BYLAYER
 49
-0.5
 62
   256
  6
BYLAYER
  0
ACAD_PROXY_OBJECT
  5
48
102
{ACAD_REACTORS
330
47
102
}
330
47
100
AcDbProxyObject
 90
      499
 91
      503
 93
       41
310
903313A31580
  0
ACAD_PROXY_OBJECT
  5
49
102
{ACAD_REACTORS
330
47
102
}
330
47
100
AcDbProxyObject
 90
      499
 91
      503
 93
      105
310
903313A324000000000000004000
  0
ACAD_PROXY_OBJECT
  5
4A
102
{ACAD_REACTORS
330
47
102
}
330
47
100
AcDbProxyObject
 90
      499
 91
      503
 93
      105
310
903313A344000000000000104000
  0
ACAD_PROXY_OBJECT
  5
4B
102
{ACAD_REACTORS
330
47
102
}
330
47
100
AcDbProxyObject
 90
      499
 91
      503
 93
      105
310
903313A354000000000000144000
  0
ACAD_PROXY_OBJECT
  5
4C
102
{ACAD_REACTORS
330
47
102
}
330
47
100
AcDbProxyObject
 90
      499
 91
      503
 93
      105
310
903313A384000000000000204000
  0
ACAD_PROXY_OBJECT
  5
4D
102
{ACAD_REACTORS
330
47
102
}
330
47
100
AcDbProxyObject
 90
      499
 91
      503
 93
      113
310
904313A31304000000000000244000
  0
ACAD_PROXY_OBJECT
  5
4E
102
{ACAD_REACTORS
330
47
102
}
330
47
100
AcDbProxyObject
 90
      499
 91
      503
 93
      113
310
904313A31364000000000000304000
  0
ACAD_PROXY_OBJECT
  5
4F
102
{ACAD_REACTORS
330
47
102
}
330
47
100
AcDbProxyObject
 90
      499
 91
      503
 93
      113
310
904313A32304000000000000344000
  0
ACAD_PROXY_OBJECT
  5
50
102
{ACAD_REACTORS
330
47
102
}
330
47
100
AcDbProxyObject
 90
      499
 91
      503
 93
      113
310
904313A333040000000000003E4000
  0
ACAD_PROXY_OBJECT
  5
51
102
{ACAD_REACTORS
330
47
102
}
330
47
100
AcDbProxyObject
 90
      499
 91
      503
 93
      113
310
904313A34304000000000000444000
  0
ACAD_PROXY_OBJECT
  5
52
102
{ACAD_REACTORS
330
47
102
}
330
47
100
AcDbProxyObject
 90
      499
 91
      503
 93
      113
310
904313A35304000000000000494000
  0
ACAD_PROXY_OBJECT
  5
53
102
{ACAD_REACTORS
330
47
102
}
330
47
100
AcDbProxyObject
 90
      499
 91
      503
 93
      121
310
905313A3130304000000000000594000
  0
ACAD_PROXY_OBJECT
  5
54
102
{ACAD_REACTORS
330
47
102
}
330
47
100
AcDbProxyObject
 90
      499
 91
      503
 93
      105
310
903323A310000000000000010100
  0
ACAD_PROXY_OBJECT
  5
55
102
{ACAD_REACTORS
330
47
102
}
330
47
100
AcDbProxyObject
 90
      499
 91
      503
 93
      105
310
903343A310000000000000410100
  0
ACAD_PROXY_OBJECT
  5
56
102
{ACAD_REACTORS
330
47
102
}
330
47
100
AcDbProxyObject
 90
      499
 91
      503
 93
      105
310
903383A310000000000000810100
  0
ACAD_PROXY_OBJECT
  5
57
102
{ACAD_REACTORS
330
47
102
}
330
47
100
AcDbProxyObject
 90
      499
 91
      503
 93
      113
310
90431303A310000000000000910100
  0
ACAD_PROXY_OBJECT
  5
58
102
{ACAD_REACTORS
330
47
102
}
330
47
100
AcDbProxyObject
 90
      499
 91
      503
 93
      121
310
9053130303A310000000000001650100
  0
ACAD_PROXY_OBJECT
  5
59
102
{ACAD_REACTORS
330
47
102
}
330
47
100
AcDbProxyObject
 90
      499
 91
      503
 93
      257
310
90E312F31323822203D2031272D3022000000000000200FC000000000000284000
  0
ACAD_PROXY_OBJECT
  5
5A
102
{ACAD_REACTORS
330
47
102
}
330
47
100
AcDbProxyObject
 90
      499
 91
      503
 93
      249
310
90D312F363422203D2031272D3022000000000000240FC000000000000284000
  0
ACAD_PROXY_OBJECT
  5
5B
102
{ACAD_REACTORS
330
47
102
}
330
47
100
AcDbProxyObject
 90
      499
 91
      503
 93
      249
310
90D312F333222203D2031272D3022000000000000280FC000000000000284000
  0
ACAD_PROXY_OBJECT
  5
5C
102
{ACAD_REACTORS
330
47
102
}
330
47
100
AcDbProxyObject
 90
      499
 91
      503
 93
      249
310
90D312F313622203D2031272D30220000000000002C0FC000000000000284000
  0
ACAD_PROXY_OBJECT
  5
5D
102
{ACAD_REACTORS
330
47
102
}
330
47
100
AcDbProxyObject
 90
      499
 91
      503
 93
      249
310
90D332F333222203D2031272D30220000000000002E0FC000000000000284000
  0
ACAD_PROXY_OBJECT
  5
5E
102
{ACAD_REACTORS
330
47
102
}
330
47
100
AcDbProxyObject
 90
      499
 91
      503
 93
      241
310
90C312F3822203D2031272D3022000000000000300FC000000000000284000
  0
ACAD_PROXY_OBJECT
  5
5F
102
{ACAD_REACTORS
330
47
102
}
330
47
100
AcDbProxyObject
 90
      499
 91
      503
 93
      249
310
90D332F313622203D2031272D3022000000000000320FC000000000000284000
  0
ACAD_PROXY_OBJECT
  5
60
102
{ACAD_REACTORS
330
47
102
}
330
47
100
AcDbProxyObject
 90
      499
 91
      503
 93
      241
310
90C312F3422203D2031272D3022000000000000340FC000000000000284000
  0
ACAD_PROXY_OBJECT
  5
61
102
{ACAD_REACTORS
330
47
102
}
330
47
100
AcDbProxyObject
 90
      499
 91
      503
 93
      241
310
90C332F3822203D2031272D3022000000000000360FC000000000000284000
  0
ACAD_PROXY_OBJECT
  5
62
102
{ACAD_REACTORS
330
47
102
}
330
47
100
AcDbProxyObject
 90
      499
 91
      503
 93
      241
310
90C312F3222203D2031272D3022000000000000380FC000000000000284000
  0
ACAD_PROXY_OBJECT
  5
63
102
{ACAD_REACTORS
330
47
102
}
330
47
100
AcDbProxyObject
 90
      499
 91
      503
 93
      241
310
90C332F3422203D2031272D30220000000000003A0FC000000000000284000
  0
ACAD_PROXY_OBJECT
  5
64
102
{ACAD_REACTORS
330
47
102
}
330
47
100
AcDbProxyObject
 90
      499
 91
      503
 93
      161
310
90A3122203D2031272D30224000000000000284000
  0
ACAD_PROXY_OBJECT
  5
65
102
{ACAD_REACTORS
330
47
102
}
330
47
100
AcDbProxyObject
 90
      499
 91
      503
 93
      257
310
90E312D312F3222203D2031272D30220000000000003E0FC000000000000284000
  0
ACAD_PROXY_OBJECT
  5
66
102
{ACAD_REACTORS
330
47
102
}
330
47
100
AcDbProxyObject
 90
      499
 91
      503
 93
      225
310
90A3322203D2031272D302200000000000002100000000000000284000
  0
ACAD_PROXY_OBJECT
  5
67
102
{ACAD_REACTORS
330
47
102
}
330
47
100
AcDbProxyObject
 90
      499
 91
      503
 93
      225
310
90A3622203D2031272D302200000000000006100000000000000284000
  0
ACAD_PROXY_OBJECT
  5
68
102
{ACAD_REACTORS
330
47
102
}
330
47
100
AcDbProxyObject
 90
      499
 91
      503
 93
      249
310
90D31272D3022203D2031272D30220000000000000A100000000000000284000
  0
ACAD_PROXY_OBJECT
  5
2F
102
{ACAD_REACTORS
330
2A
102
}
330
2A
100
AcDbProxyObject
 90
      499
 91
      501
 93
      436
310
42CC9915DA5C99599C985B595049028333333333333E33F0000000000000F90107901411070040501600405405064090741402480A0340
1001
ACAD
1000
AcDbSavedByObjectVersion
1070
     0
  0
ACAD_PROXY_OBJECT
  5
32
102
{ACAD_REACTORS
330
2A
102
}
330
2A
100
AcDbProxyObject
 90
      499
 91
      501
 93
      388
310
4150985CDA58D07406404333333333333E33F0000000000000F90107A41107004050150841D405064090741402480A0350
1001
ACAD
1000
AcDbSavedByObjectVersion
1070
     0
  0
ACAD_PROXY_OBJECT
  5
36
102
{ACAD_REACTORS
330
2A
102
}
330
2A
100
AcDbProxyObject
 90
      499
 91
      501
 93
      428
310
42109C9A59DA1D195B90C409028333333333333E33F0000000000000F9010790141107004050150841D405064090741402480A029950
1001
ACAD
1000
AcDbSavedByObjectVersion
1070
     0
  0
ACAD_PROXY_OBJECT
  5
3A
102
{ACAD_REACTORS
330
2A
102
}
330
2A
100
AcDbProxyObject
 90
      499
 91
      501
 93
      452
310
42D0DBDB1BDC90DA185B99D95104090240C333333333333E33F0000000000000F90108901411070040501508421405064090741402480A0350
1001
ACAD
1000
AcDbSavedByObjectVersion
1070
     0
  0
ACAD_PROXY_OBJECT
  5
34
102
{ACAD_REACTORS
330
2A
102
}
330
2A
100
AcDbProxyObject
 90
      499
 91
      501
 93
      500
310
4290DBDB98D95C1D1D585B10940D028333333333333E33F0000000000000F90107902409070040501000000000018199010841D405064090740C02480A0340
1001
ACAD
1000
AcDbSavedByObjectVersion
1070
     0
  0
ACAD_PROXY_OBJECT
  5
35
102
{ACAD_REACTORS
330
2A
102
}
330
2A
100
AcDbProxyObject
 90
      499
 91
      501
 93
      412
310
40D11A5B50B409028333333333333E33F0000000000000F9010790141107004050150841D405064090741402480A02677FFFFFD0
1001
ACAD
1000
AcDbSavedByObjectVersion
1070
     0
  0
ACAD_PROXY_OBJECT
  5
3D
102
{ACAD_REACTORS
330
2A
102
}
330
2A
100
AcDbProxyObject
 90
      499
 91
      501
 93
      452
310
43115919D950DBDB1BDC93D999916409028333333333333E33F0000000000000F9010790141107004050150841D405064090741402480A0350
1001
ACAD
1000
AcDbSavedByObjectVersion
1070
     0
  0
ACAD_PROXY_OBJECT
  5
39
102
{ACAD_REACTORS
330
2A
102
}
330
2A
100
AcDbProxyObject
 90
      499
 91
      501
 93
      444
310
42D19858D95C185D1D195C9B90F409028333333333333E33F0000000000000F9010790141107004050150841D405064090741402480A0350
1001
ACAD
1000
AcDbSavedByObjectVersion
1070
     0
  0
ACAD_PROXY_OBJECT
  5
2B
102
{ACAD_REACTORS
330
2A
102
}
330
2A
100
AcDbProxyObject
 90
      499
 91
      501
 93
      380
310
41119B185D240901404333333333333E33F0000000000000F9010740A907004050150841D405064090741402480A1B50
1001
ACAD
1000
AcDbSavedByObjectVersion
1070
     0
  0
ACAD_PROXY_OBJECT
  5
2C
102
{ACAD_REACTORS
330
2A
102
}
330
2A
100
AcDbProxyObject
 90
      499
 91
      501
 93
      468
310
43519B185D15DA5D1A115919D95CD0140901404333333333333E33F0000000000000F90107409019070040501600405405064090741402480A1B50
1001
ACAD
1000
AcDbSavedByObjectVersion
1070
     0
  0
ACAD_PROXY_OBJECT
  5
2D
102
{ACAD_REACTORS
330
2A
102
}
330
2A
100
AcDbProxyObject
 90
      499
 91
      501
 93
      404
310
41D1DBDD5C985D5910240902404333333333333E33F0000000000000F9010740A9070040501641D405064090741402480A1B50
1001
ACAD
1000
AcDbSavedByObjectVersion
1070
     0
  0
ACAD_PROXY_OBJECT
  5
2E
102
{ACAD_REACTORS
330
2A
102
}
330
2A
100
AcDbProxyObject
 90
      499
 91
      501
 93
      492
310
4411DBDD5C985D5915DA5D1A115919D95CD0340902404333333333333E33F0000000000000F90107409019070040501600405405064090741402480A1B50
1001
ACAD
1000
AcDbSavedByObjectVersion
1070
     0
  0
ACAD_PROXY_OBJECT
  5
31
102
{ACAD_REACTORS
330
2A
102
}
330
2A
100
AcDbProxyObject
 90
      499
 91
      501
 93
      476
310
41921A5919195B90640502408333333333333E33F0000000000000F901079024090700405020000000000001110200405405064090740C02480A0340
1001
ACAD
1000
AcDbSavedByObjectVersion
1070
     0
  0
ACAD_PROXY_OBJECT
  5
3B
102
{ACAD_REACTORS
330
2A
102
}
330
2A
100
AcDbProxyObject
 90
      499
 91
      501
 93
      428
310
42529A5D1D195C93D999914409028333333333333E33F0000000000000F9010790141107004050150A41D405064090741402480A0350
1001
ACAD
1000
AcDbSavedByObjectVersion
1070
     0
  0
ACAD_PROXY_OBJECT
  5
38
102
{ACAD_REACTORS
330
2A
102
}
330
2A
100
AcDbProxyObject
 90
      499
 91
      501
 93
      444
310
42D31A5B995C185D1D195C9B90E409028333333333333E33F0000000000000F9010790141107004050750841D405064090741402483A0350
1001
ACAD
1000
AcDbSavedByObjectVersion
1070
     0
  0
ACAD_PROXY_OBJECT
  5
3C
102
{ACAD_REACTORS
330
2A
102
}
330
2A
100
AcDbProxyObject
 90
      499
 91
      501
 93
      444
310
42D3DD995C9A185B99D3D999915409028333333333333E33F0000000000000F9010790141107004050150941D405064090741402480A0350
1001
ACAD
1000
AcDbSavedByObjectVersion
1070
     0
  0
ACAD_PROXY_OBJECT
  5
33
102
{ACAD_REACTORS
330
2A
102
}
330
2A
100
AcDbProxyObject
 90
      499
 91
      501
 93
      428
310
425499585B1A5CDD1A58D08409038333333333333E33F0000000000000F9010740A907004050150800405405064090740C02480A1B40
1001
ACAD
1000
AcDbSavedByObjectVersion
1070
     0
  0
ACAD_PROXY_OBJECT
  5
42
102
{ACAD_REACTORS
330
2A
102
}
330
2A
100
AcDbProxyObject
 90
      499
 91
      501
 93
      420
310
4194DA1859195911B40902404333333333333E33F0000000000000F9010740A41107004050150800405405064090840C02480A0B40
1001
ACAD
1000
AcDbSavedByObjectVersion
1070
     0
  0
ACAD_PROXY_OBJECT
  5
41
102
{ACAD_REACTORS
330
2A
102
}
330
2A
100
AcDbProxyObject
 90
      499
 91
      501
 93
      516
310
4454DA18591959081DDA5D1A08195919D95CD1A40902404333333333333E33F0000000000000F901074090142907004050250800405405064090740C02480A0B40
1001
ACAD
1000
AcDbSavedByObjectVersion
1070
     0
  0
ACAD_PROXY_OBJECT
  5
3E
102
{ACAD_REACTORS
330
2A
102
}
330
2A
100
AcDbProxyObject
 90
      499
 91
      501
 93
      532
310
4394DA1859195CC81BD98811DC985E5174090240C333333333333E33F0000000000000F901079024090741D01000000000000111010841D405064090740C02480A0340
1001
ACAD
1000
AcDbSavedByObjectVersion
1070
     0
  0
ACAD_PROXY_OBJECT
  5
3F
102
{ACAD_REACTORS
330
2A
102
}
330
2A
100
AcDbProxyObject
 90
      499
 91
      501
 93
      476
310
41D4DAD95D18DA1E51840502408333333333333E33F0000000000000F901079024090741D01000000000000111010B41D405064090741802480A0340
1001
ACAD
1000
AcDbSavedByObjectVersion
1070
     0
  0
ACAD_PROXY_OBJECT
  5
37
102
{ACAD_REACTORS
330
2A
102
}
330
2A
100
AcDbProxyObject
 90
      499
 91
      501
 93
      412
310
41D51A1A58DAD95B90D409028333333333333E33F0000000000000F9010790141107004050150C41D405064090741402480A0350
1001
ACAD
1000
AcDbSavedByObjectVersion
1070
     0
  0
ACAD_PROXY_OBJECT
  5
30
102
{ACAD_REACTORS
330
2A
102
}
330
2A
100
AcDbProxyObject
 90
      499
 91
      501
 93
      420
310
4255DA5C99599C985B595059028333333333333E33F0000000000000F90107901411070040501600405405064090740C02480A0340
1001
ACAD
1000
AcDbSavedByObjectVersion
1070
     0
  0
ACAD_PROXY_OBJECT
  5
40
102
{ACAD_REACTORS
330
2A
102
}
330
2A
100
AcDbProxyObject
 90
      499
 91
      501
 93
      404
310
41560B54985E51940902404000000000000E03F0000000000000F9010740501907004050150841D405064090740C02480A1B40
1001
ACAD
1000
AcDbSavedByObjectVersion
1070
     0
  0
XRECORD
  5
5F1
102
{ACAD_REACTORS
330
5E7
102
}
330
5E7
100
AcDbXrecord
340
0
  0
XRECORD
  5
5F0
102
{ACAD_REACTORS
330
5E7
102
}
330
5E7
100
AcDbXrecord
 90
        0
  0
XRECORD
  5
607
102
{ACAD_REACTORS
330
5E7
102
}
330
5E7
100
AcDbXrecord
1000
DSTYLE
1002
{
1070
   340
340
11
1002
}
  0
XRECORD
  5
5F2
102
{ACAD_REACTORS
330
5E7
102
}
330
5E7
100
AcDbXrecord
  1
{68a418e9-5a8b-4ccf-a31b-11acef8d131f}
  0
XRECORD
  5
5EA
102
{ACAD_REACTORS
330
5E7
102
}
330
5E7
100
AcDbXrecord
  1

  0
XRECORD
  5
5EF
102
{ACAD_REACTORS
330
5E7
102
}
330
5E7
100
AcDbXrecord
 90
        4
  0
XRECORD
  5
5EC
102
{ACAD_REACTORS
330
5E7
102
}
330
5E7
100
AcDbXrecord
340
1A
  0
XRECORD
  5
5EE
102
{ACAD_REACTORS
330
5E7
102
}
330
5E7
100
AcDbXrecord
 90
    10781
  0
XRECORD
  5
5ED
102
{ACAD_REACTORS
330
5E7
102
}
330
5E7
100
AcDbXrecord
340
19
  0
XRECORD
  5
5F4
102
{ACAD_REACTORS
330
5E7
102
}
330
5E7
100
AcDbXrecord
 40
0.0
  0
XRECORD
  5
5F7
102
{ACAD_REACTORS
330
5E7
102
}
330
5E7
100
AcDbXrecord
340
0
  0
XRECORD
  5
5FD
102
{ACAD_REACTORS
330
5E7
102
}
330
5E7
100
AcDbXrecord
 10
0.0
 20
0.0
 30
0.0
  0
XRECORD
  5
5F9
102
{ACAD_REACTORS
330
5E7
102
}
330
5E7
100
AcDbXrecord
 10
0.0
 20
0.0
 30
0.0
  0
XRECORD
  5
5FC
102
{ACAD_REACTORS
330
5E7
102
}
330
5E7
100
AcDbXrecord
 10
0.0
 20
0.0
 30
0.0
  0
XRECORD
  5
5FA
102
{ACAD_REACTORS
330
5E7
102
}
330
5E7
100
AcDbXrecord
 10
0.0
 20
0.0
 30
0.0
  0
XRECORD
  5
5FB
102
{ACAD_REACTORS
330
5E7
102
}
330
5E7
100
AcDbXrecord
 10
0.0
 20
0.0
 30
0.0
  0
XRECORD
  5
5F8
102
{ACAD_REACTORS
330
5E7
102
}
330
5E7
100
AcDbXrecord
 10
0.0
 20
0.0
 30
0.0
  0
XRECORD
  5
5F5
102
{ACAD_REACTORS
330
5E7
102
}
330
5E7
100
AcDbXrecord
340
0
  0
XRECORD
  5
5F6
102
{ACAD_REACTORS
330
5E7
102
}
330
5E7
100
AcDbXrecord
 70
     0
  0
XRECORD
  5
5EB
102
{ACAD_REACTORS
330
5E7
102
}
330
5E7
100
AcDbXrecord
  1

  0
XRECORD
  5
5E8
102
{ACAD_REACTORS
330
5E7
102
}
330
5E7
100
AcDbXrecord
 90
        1
  0
XRECORD
  5
5E9
102
{ACAD_REACTORS
330
5E7
102
}
330
5E7
100
AcDbXrecord
 90
       70
  0
XRECORD
  5
600
102
{ACAD_REACTORS
330
5E7
102
}
330
5E7
100
AcDbXrecord
340
0
  0
XRECORD
  5
606
102
{ACAD_REACTORS
330
5E7
102
}
330
5E7
100
AcDbXrecord
 10
0.0
 20
0.0
 30
0.0
  0
XRECORD
  5
602
102
{ACAD_REACTORS
330
5E7
102
}
330
5E7
100
AcDbXrecord
 10
0.0
 20
0.0
 30
0.0
  0
XRECORD
  5
605
102
{ACAD_REACTORS
330
5E7
102
}
330
5E7
100
AcDbXrecord
 10
0.0
 20
0.0
 30
0.0
  0
XRECORD
  5
603
102
{ACAD_REACTORS
330
5E7
102
}
330
5E7
100
AcDbXrecord
 10
0.0
 20
0.0
 30
0.0
  0
XRECORD
  5
604
102
{ACAD_REACTORS
330
5E7
102
}
330
5E7
100
AcDbXrecord
 10
0.0
 20
0.0
 30
0.0
  0
XRECORD
  5
601
102
{ACAD_REACTORS
330
5E7
102
}
330
5E7
100
AcDbXrecord
 10
0.0
 20
0.0
 30
0.0
  0
XRECORD
  5
5FE
102
{ACAD_REACTORS
330
5E7
102
}
330
5E7
100
AcDbXrecord
340
0
  0
XRECORD
  5
5FF
102
{ACAD_REACTORS
330
5E7
102
}
330
5E7
100
AcDbXrecord
 70
     0
  0
XRECORD
  5
5F3
102
{ACAD_REACTORS
330
5E7
102
}
330
5E7
100
AcDbXrecord
  1
{FAEB1C32-E019-11D5-929B-00C0DF256EC4}
  0
DICTIONARYVAR
  5
615
102
{ACAD_REACTORS
330
608
102
}
330
608
100
DictionaryVariables
280
     0
  1
1:1
  0
DICTIONARYVAR
  5
60F
102
{ACAD_REACTORS
330
608
102
}
330
608
100
DictionaryVariables
280
     0
  1
3.500000
  0
DICTIONARYVAR
  5
610
102
{ACAD_REACTORS
330
608
102
}
330
608
100
DictionaryVariables
280
     0
  1
acadiso.lin
  0
DICTIONARYVAR
  5
60A
102
{ACAD_REACTORS
330
608
102
}
330
608
100
DictionaryVariables
280
     0
  1
Standard
  0
DICTIONARYVAR
  5
609
102
{ACAD_REACTORS
330
608
102
}
330
608
100
DictionaryVariables
280
     0
  1
Standard
  0
DICTIONARYVAR
  5
611
102
{ACAD_REACTORS
330
608
102
}
330
608
100
DictionaryVariables
280
     0
  1
2
  0
DICTIONARYVAR
  5
612
102
{ACAD_REACTORS
330
608
102
}
330
608
100
DictionaryVariables
280
     0
  1
1
  0
DICTIONARYVAR
  5
616
102
{ACAD_REACTORS
330
608
102
}
330
608
100
DictionaryVariables
280
     0
  1
1
  0
DICTIONARYVAR
  5
60C
102
{ACAD_REACTORS
330
608
102
}
330
608
100
DictionaryVariables
280
     0
  1
80.000000
  0
DICTIONARYVAR
  5
60B
102
{ACAD_REACTORS
330
608
102
}
330
608
100
DictionaryVariables
280
     0
  1
5.000000
  0
DICTIONARY
  5
619
330
45
100
AcDbDictionary
280
     1
  3
ACAD_XREC_ROUNDTRIP
360
61A
  0
DICTIONARY
  5
617
330
44
100
AcDbDictionary
280
     1
  3
ACAD_XREC_ROUNDTRIP
360
618
  0
DICTIONARY
  5
61B
330
46
100
AcDbDictionary
280
     1
  3
ACAD_XREC_ROUNDTRIP
360
61C
  0
XRECORD
  5
61A
102
{ACAD_REACTORS
330
619
102
}
330
619
100
AcDbXrecord
102
MATERIAL
148
0.0
149
0.0
149
0.0
 93
        0
 94
      127
282
     0
 72
     1
 77
     1
171
     1
175
     1
179
     1
273
     0
  0
XRECORD
  5
618
102
{ACAD_REACTORS
330
617
102
}
330
617
100
AcDbXrecord
102
MATERIAL
148
0.0
149
0.0
149
0.0
 93
        0
 94
      127
282
     0
 72
     1
 77
     1
171
     1
175
     1
179
     1
273
     0
  0
XRECORD
  5
61C
102
{ACAD_REACTORS
330
61B
102
}
330
61B
100
AcDbXrecord
102
MATERIAL
148
0.0
149
0.0
149
0.0
 93
        0
 94
      127
282
     0
 72
     1
 77
     1
171
     1
175
     1
179
     1
273
     0
  0
ENDSEC
  0
EOF
