  0
SECTION
  2
HEADER
  9
$ACADVER
  1
AC1014
  9
$ACADMAINTVER
 70
     9
  9
$DWGCODEPAGE
  3
ANSI_932
  9
$INSBASE
 10
0.0
 20
0.0
 30
0.0
  9
$EXTMIN
 10
49.99999999999999
 20
100.0
 30
0.0
  9
$EXTMAX
 10
3850.0
 20
2800.0
 30
0.0
  9
$LIMMIN
 10
0.0
 20
0.0
  9
$LIMMAX
 10
420.0
 20
297.0
  9
$ORTHOMODE
 70
     0
  9
$REGENMODE
 70
     1
  9
$FILLMODE
 70
     1
  9
$QTEXTMODE
 70
     0
  9
$MIRRTEXT
 70
     1
  9
$DRAGMODE
 70
     2
  9
$LTSCALE
 40
0.2
  9
$OSMODE
 70
    37
  9
$ATTMODE
 70
     1
  9
$TEXTSIZE
 40
2.5
  9
$TRACEWID
 40
1.0
  9
$TEXTSTYLE
  7
STANDARD
  9
$CLAYER
  8
LAY-10
  9
$CELTYPE
  6
BYLAYER
  9
$CECOLOR
 62
   256
  9
$CELTSCALE
 40
1.0
  9
$DELOBJ
 70
     1
  9
$DISPSILH
 70
     0
  9
$DIMSCALE
 40
1.0
  9
$DIMASZ
 40
2.5
  9
$DIMEXO
 40
0.625
  9
$DIMDLI
 40
3.75
  9
$DIMRND
 40
0.0
  9
$DIMDLE
 40
0.0
  9
$DIMEXE
 40
1.25
  9
$DIMTP
 40
0.0
  9
$DIMTM
 40
0.0
  9
$DIMTXT
 40
2.5
  9
$DIMCEN
 40
2.5
  9
$DIMTSZ
 40
0.0
  9
$DIMTOL
 70
     0
  9
$DIMLIM
 70
     0
  9
$DIMTIH
 70
     0
  9
$DIMTOH
 70
     0
  9
$DIMSE1
 70
     0
  9
$DIMSE2
 70
     0
  9
$DIMTAD
 70
     1
  9
$DIMZIN
 70
     8
  9
$DIMBLK
  1

  9
$DIMASO
 70
     1
  9
$DIMSHO
 70
     1
  9
$DIMPOST
  1

  9
$DIMAPOST
  1

  9
$DIMALT
 70
     0
  9
$DIMALTD
 70
     3
  9
$DIMALTF
 40
0.03937007874016
  9
$DIMLFAC
 40
1.0
  9
$DIMTOFL
 70
     1
  9
$DIMTVP
 40
0.0
  9
$DIMTIX
 70
     0
  9
$DIMSOXD
 70
     0
  9
$DIMSAH
 70
     0
  9
$DIMBLK1
  1

  9
$DIMBLK2
  1

  9
$DIMSTYLE
  2
ISO-25
  9
$DIMCLRD
 70
     0
  9
$DIMCLRE
 70
     0
  9
$DIMCLRT
 70
     0
  9
$DIMTFAC
 40
1.0
  9
$DIMGAP
 40
0.625
  9
$DIMJUST
 70
     0
  9
$DIMSD1
 70
     0
  9
$DIMSD2
 70
     0
  9
$DIMTOLJ
 70
     0
  9
$DIMTZIN
 70
     8
  9
$DIMALTZ
 70
     0
  9
$DIMALTTZ
 70
     0
  9
$DIMFIT
 70
     3
  9
$DIMUPT
 70
     0
  9
$DIMUNIT
 70
     2
  9
$DIMDEC
 70
     2
  9
$DIMTDEC
 70
     2
  9
$DIMALTU
 70
     2
  9
$DIMALTTD
 70
     3
  9
$DIMTXSTY
  7
STANDARD
  9
$DIMAUNIT
 70
     0
  9
$LUNITS
 70
     2
  9
$LUPREC
 70
     4
  9
$SKETCHINC
 40
1.0
  9
$FILLETRAD
 40
10.0
  9
$AUNITS
 70
     0
  9
$AUPREC
 70
     0
  9
$MENU
  1
.
  9
$ELEVATION
 40
0.0
  9
$PELEVATION
 40
0.0
  9
$THICKNESS
 40
0.0
  9
$LIMCHECK
 70
     0
  9
$CHAMFERA
 40
0.0
  9
$CHAMFERB
 40
0.0
  9
$CHAMFERC
 40
0.0
  9
$CHAMFERD
 40
0.0
  9
$SKPOLY
 70
     0
  9
$TDCREATE
 40
2459229.333605798
  9
$TDUPDATE
 40
2459229.333606771
  9
$TDINDWG
 40
0.0000000116
  9
$TDUSRTIMER
 40
0.0000000116
  9
$USRTIMER
 70
     1
  9
$ANGBASE
 50
0.0
  9
$ANGDIR
 70
     0
  9
$PDMODE
 70
     0
  9
$PDSIZE
 40
0.0
  9
$PLINEWID
 40
0.0
  9
$COORDS
 70
     1
  9
$SPLFRAME
 70
     0
  9
$SPLINETYPE
 70
     6
  9
$SPLINESEGS
 70
     8
  9
$ATTDIA
 70
     0
  9
$ATTREQ
 70
     1
  9
$HANDLING
 70
     1
  9
$HANDSEED
  5
719
  9
$SURFTAB1
 70
     6
  9
$SURFTAB2
 70
     6
  9
$SURFTYPE
 70
     6
  9
$SURFU
 70
     6
  9
$SURFV
 70
     6
  9
$UCSNAME
  2

  9
$UCSORG
 10
0.0
 20
0.0
 30
0.0
  9
$UCSXDIR
 10
1.0
 20
0.0
 30
0.0
  9
$UCSYDIR
 10
0.0
 20
1.0
 30
0.0
  9
$PUCSNAME
  2

  9
$PUCSORG
 10
0.0
 20
0.0
 30
0.0
  9
$PUCSXDIR
 10
1.0
 20
0.0
 30
0.0
  9
$PUCSYDIR
 10
0.0
 20
1.0
 30
0.0
  9
$USERI1
 70
     0
  9
$USERI2
 70
     0
  9
$USERI3
 70
     0
  9
$USERI4
 70
     0
  9
$USERI5
 70
     0
  9
$USERR1
 40
0.0
  9
$USERR2
 40
0.0
  9
$USERR3
 40
0.0
  9
$USERR4
 40
0.0
  9
$USERR5
 40
0.0
  9
$WORLDVIEW
 70
     1
  9
$SHADEDGE
 70
     3
  9
$SHADEDIF
 70
    70
  9
$TILEMODE
 70
     1
  9
$MAXACTVP
 70
    64
  9
$PINSBASE
 10
0.0
 20
0.0
 30
0.0
  9
$PLIMCHECK
 70
     0
  9
$PEXTMIN
 10
1.000000000000000E+20
 20
1.000000000000000E+20
 30
1.000000000000000E+20
  9
$PEXTMAX
 10
-1.000000000000000E+20
 20
-1.000000000000000E+20
 30
-1.000000000000000E+20
  9
$PLIMMIN
 10
0.0
 20
0.0
  9
$PLIMMAX
 10
420.0
 20
297.0
  9
$UNITMODE
 70
     0
  9
$VISRETAIN
 70
     1
  9
$PLINEGEN
 70
     0
  9
$PSLTSCALE
 70
     1
  9
$TREEDEPTH
 70
  3020
  9
$PICKSTYLE
 70
     1
  9
$CMLSTYLE
  2
STANDARD
  9
$CMLJUST
 70
     0
  9
$CMLSCALE
 40
20.0
  9
$PROXYGRAPHICS
 70
     1
  9
$MEASUREMENT
 70
     1
  0
ENDSEC
  0
SECTION
  2
CLASSES
  0
CLASS
  1
ACDBDICTIONARYWDFLT
  2
AcDbDictionaryWithDefault
  3
ObjectDBX Classes
 90
        0
280
     0
281
     0
  0
CLASS
  1
VISUALSTYLE
  2
AcDbVisualStyle
  3
ObjectDBX Classes
 90
     4095
280
     0
281
     0
  0
CLASS
  1
MATERIAL
  2
AcDbMaterial
  3
ObjectDBX Classes
 90
     1153
280
     0
281
     0
  0
CLASS
  1
SCALE
  2
AcDbScale
  3
ObjectDBX Classes
 90
     1153
280
     0
281
     0
  0
CLASS
  1
TABLESTYLE
  2
AcDbTableStyle
  3
ObjectDBX Classes
 90
     4095
280
     0
281
     0
  0
CLASS
  1
MLEADERSTYLE
  2
AcDbMLeaderStyle
  3
ACDB_MLEADERSTYLE_CLASS
 90
     4095
280
     0
281
     0
  0
CLASS
  1
SUN
  2
AcDbSun
  3
SCENEOE
 90
     1153
280
     0
281
     0
  0
CLASS
  1
DICTIONARYVAR
  2
AcDbDictionaryVar
  3
ObjectDBX Classes
 90
        0
280
     0
281
     0
  0
CLASS
  1
XRECORD
  2
AcDbXrecord
  3
ObjectDBX Classes
 90
        0
280
     0
281
     0
  0
CLASS
  1
LWPOLYLINE
  2
AcDbPolyline
  3
ObjectDBX Classes
 90
        0
280
     0
281
     1
  0
CLASS
  1
HATCH
  2
AcDbHatch
  3
ObjectDBX Classes
 90
        0
280
     0
281
     1
  0
CLASS
  1
ACDBPLACEHOLDER
  2
AcDbPlaceHolder
  3
ObjectDBX Classes
 90
        0
280
     0
281
     0
  0
CLASS
  1
LAYOUT
  2
AcDbLayout
  3
ObjectDBX Classes
 90
        0
280
     0
281
     0
  0
ENDSEC
  0
SECTION
  2
TABLES
  0
TABLE
  2
VPORT
  5
8
102
{ACAD_XDICTIONARY
360
70E
102
}
330
0
100
AcDbSymbolTable
 70
     1
  0
VPORT
  5
29
330
8
100
AcDbSymbolTableRecord
100
AcDbViewportTableRecord
  2
*ACTIVE
 70
     0
 10
0.0
 20
0.0
 11
1.0
 21
1.0
 12
1950.0
 22
1450.0
 13
0.0
 23
0.0
 14
10.0
 24
10.0
 15
10.0
 25
10.0
 16
0.0
 26
0.0
 36
1.0
 17
0.0
 27
0.0
 37
0.0
 40
2700.0
 41
1.407407407407408
 42
50.0
 43
0.0
 44
0.0
 50
0.0
 51
0.0
 71
     0
 72
  1000
 73
     1
 74
     3
 75
     0
 76
     0
 77
     0
 78
     0
  0
ENDTAB
  0
TABLE
  2
LTYPE
  5
5
330
0
100
AcDbSymbolTable
 70
     6
  0
LTYPE
  5
14
330
5
100
AcDbSymbolTableRecord
100
AcDbLinetypeTableRecord
  2
BYBLOCK
 70
     0
  3

 72
    65
 73
     0
 40
0.0
  0
LTYPE
  5
15
330
5
100
AcDbSymbolTableRecord
100
AcDbLinetypeTableRecord
  2
BYLAYER
 70
     0
  3

 72
    65
 73
     0
 40
0.0
  0
LTYPE
  5
16
330
5
100
AcDbSymbolTableRecord
100
AcDbLinetypeTableRecord
  2
CONTINUOUS
 70
     0
  3
Solid line
 72
    65
 73
     0
 40
0.0
  0
LTYPE
  5
6E
330
5
100
AcDbSymbolTableRecord
100
AcDbLinetypeTableRecord
  2
HIDDEN
 70
     0
  3
Hidden __ __ __ __ __ __ __ __ __ __ __ __ __ __
 72
    65
 73
     2
 40
9.524999999999999
 49
6.35
 74
     0
 49
-3.175
 74
     0
  0
LTYPE
  5
6F
330
5
100
AcDbSymbolTableRecord
100
AcDbLinetypeTableRecord
  2
CENTER
 70
     0
  3
Center ____ _ ____ _ ____ _ ____ _ ____ _ ____
 72
    65
 73
     4
 40
50.8
 49
31.75
 74
     0
 49
-6.35
 74
     0
 49
6.35
 74
     0
 49
-6.35
 74
     0
  0
LTYPE
  5
70
330
5
100
AcDbSymbolTableRecord
100
AcDbLinetypeTableRecord
  2
PHANTOM
 70
     0
  3
Phantom ______  __  __  ______  __  __  ______ 
 72
    65
 73
     6
 40
63.50000000000001
 49
31.75
 74
     0
 49
-6.35
 74
     0
 49
6.35
 74
     0
 49
-6.35
 74
     0
 49
6.35
 74
     0
 49
-6.35
 74
     0
  0
LTYPE
  5
71
330
5
100
AcDbSymbolTableRecord
100
AcDbLinetypeTableRecord
  2
ACAD_ISO06W100
 70
     0
  3
ISO long-dash triple-dot ____ ... ____ ... ____
 72
    65
 73
     8
 40
36.0
 49
24.0
 74
     0
 49
-3.0
 74
     0
 49
0.0
 74
     0
 49
-3.0
 74
     0
 49
0.0
 74
     0
 49
-3.0
 74
     0
 49
0.0
 74
     0
 49
-3.0
 74
     0
  0
LTYPE
  5
72
330
5
100
AcDbSymbolTableRecord
100
AcDbLinetypeTableRecord
  2
ACAD_ISO15W100
 70
     0
  3
ISO double-dash triple-dot __ __ . . . __ __ . .
 72
    65
 73
    10
 40
39.0
 49
12.0
 74
     0
 49
-3.0
 74
     0
 49
12.0
 74
     0
 49
-3.0
 74
     0
 49
0.0
 74
     0
 49
-3.0
 74
     0
 49
0.0
 74
     0
 49
-3.0
 74
     0
 49
0.0
 74
     0
 49
-3.0
 74
     0
  0
ENDTAB
  0
TABLE
  2
LAYER
  5
2
330
0
100
AcDbSymbolTable
 70
     6
  0
LAYER
  5
10
330
2
100
AcDbSymbolTableRecord
100
AcDbLayerTableRecord
  2
0
 70
     0
 62
     7
  6
CONTINUOUS
  0
LAYER
  5
75
330
2
100
AcDbSymbolTableRecord
100
AcDbLayerTableRecord
  2
LAY-10
 70
     0
 62
     7
  6
CONTINUOUS
  0
LAYER
  5
76
330
2
100
AcDbSymbolTableRecord
100
AcDbLayerTableRecord
  2
LAY-11
 70
     0
 62
     7
  6
CONTINUOUS
  0
LAYER
  5
77
330
2
100
AcDbSymbolTableRecord
100
AcDbLayerTableRecord
  2
LAY-20
 70
     0
 62
     7
  6
CONTINUOUS
  0
LAYER
  5
78
330
2
100
AcDbSymbolTableRecord
100
AcDbLayerTableRecord
  2
LAY-255
 70
     0
 62
     7
  6
CONTINUOUS
  0
LAYER
  5
638
330
2
100
AcDbSymbolTableRecord
100
AcDbLayerTableRecord
  2
DEFPOINTS
 70
     0
 62
     7
  6
CONTINUOUS
  0
ENDTAB
  0
TABLE
  2
STYLE
  5
3
330
0
100
AcDbSymbolTable
 70
     4
  0
STYLE
  5
11
330
3
100
AcDbSymbolTableRecord
100
AcDbTextStyleTableRecord
  2
STANDARD
 70
     0
 40
0.0
 41
1.0
 50
0.0
 71
     0
 42
2.5
  3
simplex
  4
bigfont
  0
STYLE
  5
73
330
3
100
AcDbSymbolTableRecord
100
AcDbTextStyleTableRecord
  2
EXCADSTD
 70
     0
 40
0.0
 41
1.0
 50
0.0
 71
     0
 42
2.5
  3
simplex
  4
bigfont
  0
STYLE
  5
74
330
3
100
AcDbSymbolTableRecord
100
AcDbTextStyleTableRecord
  2
EXCADVERT
 70
     4
 40
0.0
 41
1.0
 50
0.0
 71
     0
 42
2.5
  3
simplex
  4
bigfont
  0
STYLE
  5
636
330
3
100
AcDbSymbolTableRecord
100
AcDbTextStyleTableRecord
  2
EXCADDIM1
 70
     0
 40
0.0
 41
0.84
 50
0.0
 71
     0
 42
2.5
  3
simplex
  4
bigfont
  0
ENDTAB
  0
TABLE
  2
VIEW
  5
6
330
0
100
AcDbSymbolTable
 70
     0
  0
ENDTAB
  0
TABLE
  2
UCS
  5
7
330
0
100
AcDbSymbolTable
 70
     0
  0
ENDTAB
  0
TABLE
  2
APPID
  5
9
330
0
100
AcDbSymbolTable
 70
     2
  0
APPID
  5
12
330
9
100
AcDbSymbolTableRecord
100
AcDbRegAppTableRecord
  2
ACAD
 70
     0
  0
APPID
  5
718
330
9
100
AcDbSymbolTableRecord
100
AcDbRegAppTableRecord
  2
ACAD_MLEADERVER
 70
     0
  0
ENDTAB
  0
TABLE
  2
DIMSTYLE
  5
A
330
0
100
AcDbSymbolTable
 70
     1
  0
DIMSTYLE
105
27
102
{ACAD_REACTORS
330
637
330
645
330
652
330
65F
330
66C
330
679
330
686
330
693
330
6A0
330
6AD
102
}
330
A
100
AcDbSymbolTableRecord
100
AcDbDimStyleTableRecord
  2
ISO-25
 70
     0
  3

  4

  5

  6

  7

 40
1.0
 41
2.5
 42
0.625
 43
3.75
 44
1.25
 45
0.0
 46
0.0
 47
0.0
 48
0.0
140
2.5
141
2.5
142
0.0
143
0.03937007874016
144
1.0
145
0.0
146
1.0
147
0.625
 71
     0
 72
     0
 73
     0
 74
     0
 75
     0
 76
     0
 77
     1
 78
     8
170
     0
171
     3
172
     1
173
     0
174
     0
175
     0
176
     0
177
     0
178
     0
270
     2
271
     2
272
     2
273
     2
274
     3
340
11
275
     0
280
     0
281
     0
282
     0
283
     0
284
     8
285
     0
286
     0
287
     5
288
     0
  0
ENDTAB
  0
TABLE
  2
BLOCK_RECORD
  5
1
330
0
100
AcDbSymbolTable
 70
    24
  0
BLOCK_RECORD
  5
1F
330
1
100
AcDbSymbolTableRecord
100
AcDbBlockTableRecord
  2
*MODEL_SPACE
  0
BLOCK_RECORD
  5
1B
330
1
100
AcDbSymbolTableRecord
100
AcDbBlockTableRecord
  2
*PAPER_SPACE
  0
BLOCK_RECORD
  5
79
330
1
100
AcDbSymbolTableRecord
100
AcDbBlockTableRecord
  2
EX_NORM
  0
BLOCK_RECORD
  5
7C
330
1
100
AcDbSymbolTableRecord
100
AcDbBlockTableRecord
  2
EX_BNORM
  0
BLOCK_RECORD
  5
7F
330
1
100
AcDbSymbolTableRecord
100
AcDbBlockTableRecord
  2
EX_BCIR
  0
BLOCK_RECORD
  5
82
330
1
100
AcDbSymbolTableRecord
100
AcDbBlockTableRecord
  2
EX_RCIVIL
  0
BLOCK_RECORD
  5
85
330
1
100
AcDbSymbolTableRecord
100
AcDbBlockTableRecord
  2
EX_SLANT
  0
BLOCK_RECORD
  5
88
330
1
100
AcDbSymbolTableRecord
100
AcDbBlockTableRecord
  2
EX_NONE
  0
BLOCK_RECORD
  5
8B
330
1
100
AcDbSymbolTableRecord
100
AcDbBlockTableRecord
  2
EX_CIVIL
  0
BLOCK_RECORD
  5
8E
330
1
100
AcDbSymbolTableRecord
100
AcDbBlockTableRecord
  2
EX_WCIR
  0
BLOCK_RECORD
  5
91
330
1
100
AcDbSymbolTableRecord
100
AcDbBlockTableRecord
  2
EX_WCIR2
  0
BLOCK_RECORD
  5
94
330
1
100
AcDbSymbolTableRecord
100
AcDbBlockTableRecord
  2
EX_WNORM
  0
BLOCK_RECORD
  5
97
330
1
100
AcDbSymbolTableRecord
100
AcDbBlockTableRecord
  2
EX_NNORM
  0
BLOCK_RECORD
  5
9A
330
1
100
AcDbSymbolTableRecord
100
AcDbBlockTableRecord
  2
EX_BBOX
  0
BLOCK_RECORD
  5
9D
330
1
100
AcDbSymbolTableRecord
100
AcDbBlockTableRecord
  2
EX_WBOX
  0
BLOCK_RECORD
  5
A0
330
1
100
AcDbSymbolTableRecord
100
AcDbBlockTableRecord
  2
EX_INTEGRAL
  0
BLOCK_RECORD
  5
639
330
1
100
AcDbSymbolTableRecord
100
AcDbBlockTableRecord
  2
*D15
  0
BLOCK_RECORD
  5
646
330
1
100
AcDbSymbolTableRecord
100
AcDbBlockTableRecord
  2
*D16
  0
BLOCK_RECORD
  5
653
330
1
100
AcDbSymbolTableRecord
100
AcDbBlockTableRecord
  2
*D17
  0
BLOCK_RECORD
  5
660
330
1
100
AcDbSymbolTableRecord
100
AcDbBlockTableRecord
  2
*D18
  0
BLOCK_RECORD
  5
66D
330
1
100
AcDbSymbolTableRecord
100
AcDbBlockTableRecord
  2
*D19
  0
BLOCK_RECORD
  5
67A
330
1
100
AcDbSymbolTableRecord
100
AcDbBlockTableRecord
  2
*D20
  0
BLOCK_RECORD
  5
687
330
1
100
AcDbSymbolTableRecord
100
AcDbBlockTableRecord
  2
*D21
  0
BLOCK_RECORD
  5
694
330
1
100
AcDbSymbolTableRecord
100
AcDbBlockTableRecord
  2
*D22
  0
BLOCK_RECORD
  5
6A1
330
1
100
AcDbSymbolTableRecord
100
AcDbBlockTableRecord
  2
*D23
  0
BLOCK_RECORD
  5
6AE
330
1
100
AcDbSymbolTableRecord
100
AcDbBlockTableRecord
  2
*D24
  0
ENDTAB
  0
ENDSEC
  0
SECTION
  2
BLOCKS
  0
BLOCK
  5
20
330
1F
100
AcDbEntity
  8
0
100
AcDbBlockBegin
  2
*MODEL_SPACE
 70
     0
 10
0.0
 20
0.0
 30
0.0
  3
*MODEL_SPACE
  1

  0
ENDBLK
  5
21
330
1F
100
AcDbEntity
  8
0
100
AcDbBlockEnd
  0
BLOCK
  5
1C
330
1B
100
AcDbEntity
 67
     1
  8
0
100
AcDbBlockBegin
  2
*PAPER_SPACE
 70
     0
 10
0.0
 20
0.0
 30
0.0
  3
*PAPER_SPACE
  1

  0
ENDBLK
  5
1D
330
1B
100
AcDbEntity
 67
     1
  8
0
100
AcDbBlockEnd
  0
BLOCK
  5
7A
330
79
100
AcDbEntity
  8
0
100
AcDbBlockBegin
  2
EX_NORM
 70
     0
 10
0.0
 20
0.0
 30
0.0
  3
EX_NORM
  1

  0
LINE
  5
A3
330
79
100
AcDbEntity
  8
0
  6
CONTINUOUS
 62
     0
100
AcDbLine
 10
0.0
 20
0.0
 30
0.0
 11
-1.0
 21
0.0
 31
0.0
  0
LINE
  5
A4
330
79
100
AcDbEntity
  8
0
  6
CONTINUOUS
 62
     0
100
AcDbLine
 10
0.0
 20
0.0
 30
0.0
 11
-1.0
 21
0.166666667
 31
0.0
  0
LINE
  5
A5
330
79
100
AcDbEntity
  8
0
  6
CONTINUOUS
 62
     0
100
AcDbLine
 10
0.0
 20
0.0
 30
0.0
 11
-1.0
 21
-0.166666667
 31
0.0
  0
ENDBLK
  5
7B
330
79
100
AcDbEntity
  8
0
100
AcDbBlockEnd
  0
BLOCK
  5
7D
330
7C
100
AcDbEntity
  8
0
100
AcDbBlockBegin
  2
EX_BNORM
 70
     0
 10
0.0
 20
0.0
 30
0.0
  3
EX_BNORM
  1

  0
LINE
  5
A6
330
7C
100
AcDbEntity
  8
0
  6
CONTINUOUS
 62
     0
100
AcDbLine
 10
0.0
 20
0.0
 30
0.0
 11
-1.0
 21
0.0
 31
0.0
  0
LINE
  5
A7
330
7C
100
AcDbEntity
  8
0
  6
CONTINUOUS
 62
     0
100
AcDbLine
 10
0.0
 20
0.0
 30
0.0
 11
-1.0
 21
0.166666667
 31
0.0
  0
LINE
  5
A8
330
7C
100
AcDbEntity
  8
0
  6
CONTINUOUS
 62
     0
100
AcDbLine
 10
0.0
 20
0.0
 30
0.0
 11
-1.0
 21
-0.166666667
 31
0.0
  0
LINE
  5
A9
330
7C
100
AcDbEntity
  8
0
  6
CONTINUOUS
 62
     0
100
AcDbLine
 10
0.0
 20
0.0
 30
0.0
 11
-1.0
 21
0.083333333
 31
0.0
  0
LINE
  5
AA
330
7C
100
AcDbEntity
  8
0
  6
CONTINUOUS
 62
     0
100
AcDbLine
 10
0.0
 20
0.0
 30
0.0
 11
-1.0
 21
-0.083333333
 31
0.0
  0
LINE
  5
AB
330
7C
100
AcDbEntity
  8
0
  6
CONTINUOUS
 62
     0
100
AcDbLine
 10
-1.0
 20
0.166666667
 30
0.0
 11
-1.0
 21
-0.166666667
 31
0.0
  0
ENDBLK
  5
7E
330
7C
100
AcDbEntity
  8
0
100
AcDbBlockEnd
  0
BLOCK
  5
80
330
7F
100
AcDbEntity
  8
0
100
AcDbBlockBegin
  2
EX_BCIR
 70
     0
 10
0.0
 20
0.0
 30
0.0
  3
EX_BCIR
  1

  0
LINE
  5
AC
330
7F
100
AcDbEntity
  8
0
  6
CONTINUOUS
 62
     0
100
AcDbLine
 10
0.0
 20
0.0
 30
0.0
 11
-1.0
 21
0.0
 31
0.0
  0
CIRCLE
  5
AD
330
7F
100
AcDbEntity
  8
0
  6
CONTINUOUS
 62
     0
100
AcDbCircle
 10
0.0
 20
0.0
 30
0.0
 40
0.5
  0
CIRCLE
  5
AE
330
7F
100
AcDbEntity
  8
0
  6
CONTINUOUS
 62
     0
100
AcDbCircle
 10
0.0
 20
0.0
 30
0.0
 40
0.25
  0
ENDBLK
  5
81
330
7F
100
AcDbEntity
  8
0
100
AcDbBlockEnd
  0
BLOCK
  5
83
330
82
100
AcDbEntity
  8
0
100
AcDbBlockBegin
  2
EX_RCIVIL
 70
     0
 10
0.0
 20
0.0
 30
0.0
  3
EX_RCIVIL
  1

  0
LINE
  5
AF
330
82
100
AcDbEntity
  8
0
  6
CONTINUOUS
 62
     0
100
AcDbLine
 10
0.0
 20
0.0
 30
0.0
 11
-1.0
 21
0.0
 31
0.0
  0
LINE
  5
B0
330
82
100
AcDbEntity
  8
0
  6
CONTINUOUS
 62
     0
100
AcDbLine
 10
-1.0
 20
-0.25
 30
0.0
 11
0.0
 21
-0.25
 31
0.0
  0
LINE
  5
B1
330
82
100
AcDbEntity
  8
0
  6
CONTINUOUS
 62
     0
100
AcDbLine
 10
-1.0
 20
-0.125
 30
0.0
 11
0.0
 21
-0.125
 31
0.0
  0
ENDBLK
  5
84
330
82
100
AcDbEntity
  8
0
100
AcDbBlockEnd
  0
BLOCK
  5
86
330
85
100
AcDbEntity
  8
0
100
AcDbBlockBegin
  2
EX_SLANT
 70
     0
 10
0.0
 20
0.0
 30
0.0
  3
EX_SLANT
  1

  0
LINE
  5
B2
330
85
100
AcDbEntity
  8
0
  6
CONTINUOUS
 62
     0
100
AcDbLine
 10
0.0
 20
0.0
 30
0.0
 11
-1.0
 21
0.0
 31
0.0
  0
LINE
  5
B3
330
85
100
AcDbEntity
  8
0
  6
CONTINUOUS
 62
     0
100
AcDbLine
 10
0.707106781
 20
0.707106781
 30
0.0
 11
-0.707106781
 21
-0.707106781
 31
0.0
  0
ENDBLK
  5
87
330
85
100
AcDbEntity
  8
0
100
AcDbBlockEnd
  0
BLOCK
  5
89
330
88
100
AcDbEntity
  8
0
100
AcDbBlockBegin
  2
EX_NONE
 70
     0
 10
0.0
 20
0.0
 30
0.0
  3
EX_NONE
  1

  0
LINE
  5
B4
330
88
100
AcDbEntity
  8
0
  6
CONTINUOUS
 62
     0
100
AcDbLine
 10
0.0
 20
0.0
 30
0.0
 11
-1.0
 21
0.0
 31
0.0
  0
ENDBLK
  5
8A
330
88
100
AcDbEntity
  8
0
100
AcDbBlockEnd
  0
BLOCK
  5
8C
330
8B
100
AcDbEntity
  8
0
100
AcDbBlockBegin
  2
EX_CIVIL
 70
     0
 10
0.0
 20
0.0
 30
0.0
  3
EX_CIVIL
  1

  0
LINE
  5
B5
330
8B
100
AcDbEntity
  8
0
  6
CONTINUOUS
 62
     0
100
AcDbLine
 10
0.0
 20
0.0
 30
0.0
 11
-1.0
 21
0.0
 31
0.0
  0
LINE
  5
B6
330
8B
100
AcDbEntity
  8
0
  6
CONTINUOUS
 62
     0
100
AcDbLine
 10
-1.0
 20
0.25
 30
0.0
 11
0.0
 21
0.25
 31
0.0
  0
LINE
  5
B7
330
8B
100
AcDbEntity
  8
0
  6
CONTINUOUS
 62
     0
100
AcDbLine
 10
-1.0
 20
0.125
 30
0.0
 11
0.0
 21
0.125
 31
0.0
  0
ENDBLK
  5
8D
330
8B
100
AcDbEntity
  8
0
100
AcDbBlockEnd
  0
BLOCK
  5
8F
330
8E
100
AcDbEntity
  8
0
100
AcDbBlockBegin
  2
EX_WCIR
 70
     0
 10
0.0
 20
0.0
 30
0.0
  3
EX_WCIR
  1

  0
LINE
  5
B8
330
8E
100
AcDbEntity
  8
0
  6
CONTINUOUS
 62
     0
100
AcDbLine
 10
0.0
 20
0.0
 30
0.0
 11
-1.0
 21
0.0
 31
0.0
  0
CIRCLE
  5
B9
330
8E
100
AcDbEntity
  8
0
  6
CONTINUOUS
 62
     0
100
AcDbCircle
 10
0.0
 20
0.0
 30
0.0
 40
0.5
  0
ENDBLK
  5
90
330
8E
100
AcDbEntity
  8
0
100
AcDbBlockEnd
  0
BLOCK
  5
92
330
91
100
AcDbEntity
  8
0
100
AcDbBlockBegin
  2
EX_WCIR2
 70
     0
 10
0.0
 20
0.0
 30
0.0
  3
EX_WCIR2
  1

  0
LINE
  5
BA
330
91
100
AcDbEntity
  8
0
  6
CONTINUOUS
 62
     0
100
AcDbLine
 10
-0.5
 20
0.0
 30
0.0
 11
-1.0
 21
0.0
 31
0.0
  0
CIRCLE
  5
BB
330
91
100
AcDbEntity
  8
0
  6
CONTINUOUS
 62
     0
100
AcDbCircle
 10
0.0
 20
0.0
 30
0.0
 40
0.5
  0
ENDBLK
  5
93
330
91
100
AcDbEntity
  8
0
100
AcDbBlockEnd
  0
BLOCK
  5
95
330
94
100
AcDbEntity
  8
0
100
AcDbBlockBegin
  2
EX_WNORM
 70
     0
 10
0.0
 20
0.0
 30
0.0
  3
EX_WNORM
  1

  0
LINE
  5
BC
330
94
100
AcDbEntity
  8
0
  6
CONTINUOUS
 62
     0
100
AcDbLine
 10
-1.0
 20
0.0
 30
0.0
 11
-1.0
 21
0.0
 31
0.0
  0
LINE
  5
BD
330
94
100
AcDbEntity
  8
0
  6
CONTINUOUS
 62
     0
100
AcDbLine
 10
0.0
 20
0.0
 30
0.0
 11
-1.0
 21
0.166666667
 31
0.0
  0
LINE
  5
BE
330
94
100
AcDbEntity
  8
0
  6
CONTINUOUS
 62
     0
100
AcDbLine
 10
0.0
 20
0.0
 30
0.0
 11
-1.0
 21
-0.166666667
 31
0.0
  0
LINE
  5
BF
330
94
100
AcDbEntity
  8
0
  6
CONTINUOUS
 62
     0
100
AcDbLine
 10
-1.0
 20
0.166666667
 30
0.0
 11
-1.0
 21
-0.166666667
 31
0.0
  0
ENDBLK
  5
96
330
94
100
AcDbEntity
  8
0
100
AcDbBlockEnd
  0
BLOCK
  5
98
330
97
100
AcDbEntity
  8
0
100
AcDbBlockBegin
  2
EX_NNORM
 70
     0
 10
0.0
 20
0.0
 30
0.0
  3
EX_NNORM
  1

  0
LINE
  5
C0
330
97
100
AcDbEntity
  8
0
  6
CONTINUOUS
 62
     0
100
AcDbLine
 10
0.0
 20
0.0
 30
0.0
 11
-1.0
 21
0.0
 31
0.0
  0
LINE
  5
C1
330
97
100
AcDbEntity
  8
0
  6
CONTINUOUS
 62
     0
100
AcDbLine
 10
0.0
 20
0.0
 30
0.0
 11
-1.0
 21
0.166666667
 31
0.0
  0
LINE
  5
C2
330
97
100
AcDbEntity
  8
0
  6
CONTINUOUS
 62
     0
100
AcDbLine
 10
0.0
 20
0.0
 30
0.0
 11
-1.0
 21
-0.166666667
 31
0.0
  0
LINE
  5
C3
330
97
100
AcDbEntity
  8
0
  6
CONTINUOUS
 62
     0
100
AcDbLine
 10
-1.0
 20
0.166666667
 30
0.0
 11
-1.0
 21
-0.166666667
 31
0.0
  0
ENDBLK
  5
99
330
97
100
AcDbEntity
  8
0
100
AcDbBlockEnd
  0
BLOCK
  5
9B
330
9A
100
AcDbEntity
  8
0
100
AcDbBlockBegin
  2
EX_BBOX
 70
     0
 10
0.0
 20
0.0
 30
0.0
  3
EX_BBOX
  1

  0
LINE
  5
C4
330
9A
100
AcDbEntity
  8
0
  6
CONTINUOUS
 62
     0
100
AcDbLine
 10
0.0
 20
0.0
 30
0.0
 11
-1.0
 21
0.0
 31
0.0
  0
LINE
  5
C5
330
9A
100
AcDbEntity
  8
0
  6
CONTINUOUS
 62
     0
100
AcDbLine
 10
-0.5
 20
0.5
 30
0.0
 11
0.5
 21
0.5
 31
0.0
  0
LINE
  5
C6
330
9A
100
AcDbEntity
  8
0
  6
CONTINUOUS
 62
     0
100
AcDbLine
 10
0.5
 20
0.5
 30
0.0
 11
0.5
 21
-0.5
 31
0.0
  0
LINE
  5
C7
330
9A
100
AcDbEntity
  8
0
  6
CONTINUOUS
 62
     0
100
AcDbLine
 10
0.5
 20
-0.5
 30
0.0
 11
-0.5
 21
-0.5
 31
0.0
  0
LINE
  5
C8
330
9A
100
AcDbEntity
  8
0
  6
CONTINUOUS
 62
     0
100
AcDbLine
 10
-0.5
 20
-0.5
 30
0.0
 11
-0.5
 21
0.5
 31
0.0
  0
LINE
  5
C9
330
9A
100
AcDbEntity
  8
0
  6
CONTINUOUS
 62
     0
100
AcDbLine
 10
-0.25
 20
0.25
 30
0.0
 11
0.25
 21
0.25
 31
0.0
  0
LINE
  5
CA
330
9A
100
AcDbEntity
  8
0
  6
CONTINUOUS
 62
     0
100
AcDbLine
 10
0.25
 20
0.25
 30
0.0
 11
0.25
 21
-0.25
 31
0.0
  0
LINE
  5
CB
330
9A
100
AcDbEntity
  8
0
  6
CONTINUOUS
 62
     0
100
AcDbLine
 10
0.25
 20
-0.25
 30
0.0
 11
-0.25
 21
-0.25
 31
0.0
  0
LINE
  5
CC
330
9A
100
AcDbEntity
  8
0
  6
CONTINUOUS
 62
     0
100
AcDbLine
 10
-0.25
 20
-0.25
 30
0.0
 11
-0.25
 21
0.25
 31
0.0
  0
ENDBLK
  5
9C
330
9A
100
AcDbEntity
  8
0
100
AcDbBlockEnd
  0
BLOCK
  5
9E
330
9D
100
AcDbEntity
  8
0
100
AcDbBlockBegin
  2
EX_WBOX
 70
     0
 10
0.0
 20
0.0
 30
0.0
  3
EX_WBOX
  1

  0
LINE
  5
CD
330
9D
100
AcDbEntity
  8
0
  6
CONTINUOUS
 62
     0
100
AcDbLine
 10
-0.5
 20
0.0
 30
0.0
 11
-1.0
 21
0.0
 31
0.0
  0
LINE
  5
CE
330
9D
100
AcDbEntity
  8
0
  6
CONTINUOUS
 62
     0
100
AcDbLine
 10
-0.5
 20
0.5
 30
0.0
 11
0.5
 21
0.5
 31
0.0
  0
LINE
  5
CF
330
9D
100
AcDbEntity
  8
0
  6
CONTINUOUS
 62
     0
100
AcDbLine
 10
0.5
 20
0.5
 30
0.0
 11
0.5
 21
-0.5
 31
0.0
  0
LINE
  5
D0
330
9D
100
AcDbEntity
  8
0
  6
CONTINUOUS
 62
     0
100
AcDbLine
 10
0.5
 20
-0.5
 30
0.0
 11
-0.5
 21
-0.5
 31
0.0
  0
LINE
  5
D1
330
9D
100
AcDbEntity
  8
0
  6
CONTINUOUS
 62
     0
100
AcDbLine
 10
-0.5
 20
-0.5
 30
0.0
 11
-0.5
 21
0.5
 31
0.0
  0
ENDBLK
  5
9F
330
9D
100
AcDbEntity
  8
0
100
AcDbBlockEnd
  0
BLOCK
  5
A1
330
A0
100
AcDbEntity
  8
0
100
AcDbBlockBegin
  2
EX_INTEGRAL
 70
     0
 10
0.0
 20
0.0
 30
0.0
  3
EX_INTEGRAL
  1

  0
LINE
  5
D2
330
A0
100
AcDbEntity
  8
0
  6
CONTINUOUS
 62
     0
100
AcDbLine
 10
0.0
 20
0.0
 30
0.0
 11
-1.0
 21
0.0
 31
0.0
  0
ARC
  5
D3
330
A0
100
AcDbEntity
  8
0
  6
CONTINUOUS
 62
     0
100
AcDbCircle
 10
0.542115
 20
0.164992
 30
0.0
 40
0.56667
100
AcDbArc
 50
73.07249033629006
 51
196.9275130221199
  0
ARC
  5
D4
330
A0
100
AcDbEntity
  8
0
  6
CONTINUOUS
 62
     0
100
AcDbCircle
 10
-0.542115
 20
-0.164992
 30
0.0
 40
0.56667
100
AcDbArc
 50
253.0724869220464
 51
16.9275130559125
  0
ENDBLK
  5
A2
330
A0
100
AcDbEntity
  8
0
100
AcDbBlockEnd
  0
BLOCK
  5
63A
330
639
100
AcDbEntity
  8
0
100
AcDbBlockBegin
  2
*D15
 70
     1
 10
0.0
 20
0.0
 30
0.0
  3
*D15
  1

  0
LINE
  5
63C
330
639
100
AcDbEntity
  8
LAY-20
  6
CONTINUOUS
 62
     4
100
AcDbLine
 10
2357.523511271509
 20
1213.47069133715
 30
0.0
 11
2187.5235112715
 21
1213.47069133715
 31
0.0
  0
LINE
  5
63D
330
639
100
AcDbEntity
  8
LAY-20
  6
CONTINUOUS
 62
     4
100
AcDbLine
 10
2357.523511271509
 20
2315.47069133723
 30
0.0
 11
2187.5235112715
 21
2315.47069133723
 31
0.0
  0
LINE
  5
63E
330
639
100
AcDbEntity
  8
LAY-20
  6
CONTINUOUS
 62
     4
100
AcDbLine
 10
2202.5235112715
 20
1238.47069133715
 30
0.0
 11
2202.5235112715
 21
2290.47069133723
 31
0.0
  0
INSERT
  5
63F
330
639
100
AcDbEntity
  8
LAY-20
 62
     4
100
AcDbBlockReference
  2
EX_BNORM
 10
2202.5235112715
 20
1213.47069133715
 30
0.0
 41
25.0
 42
25.0
 43
25.0
 50
270.0
  0
INSERT
  5
640
330
639
100
AcDbEntity
  8
LAY-20
 62
     4
100
AcDbBlockReference
  2
EX_BNORM
 10
2202.5235112715
 20
2315.47069133723
 30
0.0
 41
25.0
 42
25.0
 43
25.0
 50
90.0
  0
MTEXT
  5
641
330
639
100
AcDbEntity
  8
LAY-20
 62
     7
100
AcDbMText
 10
2177.5235112715
 20
1764.47069133719
 30
0.0
 40
31.181104
 41
0.0
 71
     5
 72
     1
  1
1102
  7
EXCADDIM1
 11
0.0
 21
1.0
 31
0.0
  0
POINT
  5
642
330
639
100
AcDbEntity
  8
DEFPOINTS
 62
     0
100
AcDbPoint
 10
2372.523511271509
 20
1213.47069133715
 30
0.0
  0
POINT
  5
643
330
639
100
AcDbEntity
  8
DEFPOINTS
 62
     0
100
AcDbPoint
 10
2372.523511271509
 20
2315.47069133723
 30
0.0
  0
POINT
  5
644
330
639
100
AcDbEntity
  8
DEFPOINTS
 62
     0
100
AcDbPoint
 10
2202.5235112715
 20
2315.47069133723
 30
0.0
  0
ENDBLK
  5
63B
330
639
100
AcDbEntity
  8
0
100
AcDbBlockEnd
  0
BLOCK
  5
647
330
646
100
AcDbEntity
  8
0
100
AcDbBlockBegin
  2
*D16
 70
     1
 10
0.0
 20
0.0
 30
0.0
  3
*D16
  1

  0
LINE
  5
649
330
646
100
AcDbEntity
  8
LAY-20
  6
CONTINUOUS
 62
     4
100
AcDbLine
 10
2357.523511271507
 20
1229.470691337272
 30
0.0
 11
2257.5235112715
 21
1229.470691337272
 31
0.0
  0
LINE
  5
64A
330
646
100
AcDbEntity
  8
LAY-20
  6
CONTINUOUS
 62
     4
100
AcDbLine
 10
2357.523511271505
 20
2299.470691337245
 30
0.0
 11
2257.5235112715
 21
2299.470691337245
 31
0.0
  0
LINE
  5
64B
330
646
100
AcDbEntity
  8
LAY-20
  6
CONTINUOUS
 62
     4
100
AcDbLine
 10
2272.5235112715
 20
1254.470691337272
 30
0.0
 11
2272.5235112715
 21
2274.470691337245
 31
0.0
  0
INSERT
  5
64C
330
646
100
AcDbEntity
  8
LAY-20
 62
     4
100
AcDbBlockReference
  2
EX_BNORM
 10
2272.5235112715
 20
1229.470691337272
 30
0.0
 41
25.0
 42
25.0
 43
25.0
 50
270.0
  0
INSERT
  5
64D
330
646
100
AcDbEntity
  8
LAY-20
 62
     4
100
AcDbBlockReference
  2
EX_BNORM
 10
2272.5235112715
 20
2299.470691337245
 30
0.0
 41
25.0
 42
25.0
 43
25.0
 50
90.0
  0
MTEXT
  5
64E
330
646
100
AcDbEntity
  8
LAY-20
 62
     7
100
AcDbMText
 10
2247.5235112715
 20
1764.470691337258
 30
0.0
 40
31.181104
 41
0.0
 71
     5
 72
     1
  1
1070
  7
EXCADDIM1
 11
0.0
 21
1.0
 31
0.0
  0
POINT
  5
64F
330
646
100
AcDbEntity
  8
DEFPOINTS
 62
     0
100
AcDbPoint
 10
2372.523511271507
 20
1229.470691337272
 30
0.0
  0
POINT
  5
650
330
646
100
AcDbEntity
  8
DEFPOINTS
 62
     0
100
AcDbPoint
 10
2372.523511271505
 20
2299.470691337245
 30
0.0
  0
POINT
  5
651
330
646
100
AcDbEntity
  8
DEFPOINTS
 62
     0
100
AcDbPoint
 10
2272.5235112715
 20
2299.470691337245
 30
0.0
  0
ENDBLK
  5
648
330
646
100
AcDbEntity
  8
0
100
AcDbBlockEnd
  0
BLOCK
  5
654
330
653
100
AcDbEntity
  8
0
100
AcDbBlockBegin
  2
*D17
 70
     1
 10
0.0
 20
0.0
 30
0.0
  3
*D17
  1

  0
LINE
  5
656
330
653
100
AcDbEntity
  8
LAY-20
  6
CONTINUOUS
 62
     4
100
AcDbLine
 10
2522.52351127151
 20
2214.47069133723
 30
0.0
 11
2622.52351127151
 21
2214.47069133723
 31
0.0
  0
LINE
  5
657
330
653
100
AcDbEntity
  8
LAY-20
  6
CONTINUOUS
 62
     4
100
AcDbLine
 10
2522.52351127151
 20
1314.470691337149
 30
0.0
 11
2622.52351127151
 21
1314.470691337149
 31
0.0
  0
LINE
  5
658
330
653
100
AcDbEntity
  8
LAY-20
  6
CONTINUOUS
 62
     4
100
AcDbLine
 10
2607.52351127151
 20
2189.47069133723
 30
0.0
 11
2607.52351127151
 21
1339.470691337149
 31
0.0
  0
INSERT
  5
659
330
653
100
AcDbEntity
  8
LAY-20
 62
     4
100
AcDbBlockReference
  2
EX_BNORM
 10
2607.52351127151
 20
2214.47069133723
 30
0.0
 41
25.0
 42
25.0
 43
25.0
 50
90.0
  0
INSERT
  5
65A
330
653
100
AcDbEntity
  8
LAY-20
 62
     4
100
AcDbBlockReference
  2
EX_BNORM
 10
2607.52351127151
 20
1314.470691337149
 30
0.0
 41
25.0
 42
25.0
 43
25.0
 50
270.0
  0
MTEXT
  5
65B
330
653
100
AcDbEntity
  8
LAY-20
 62
     7
100
AcDbMText
 10
2582.52351127151
 20
1764.47069133719
 30
0.0
 40
31.181104
 41
0.0
 71
     5
 72
     1
  1
900
  7
EXCADDIM1
 11
0.0
 21
1.0
 31
0.0
  0
POINT
  5
65C
330
653
100
AcDbEntity
  8
DEFPOINTS
 62
     0
100
AcDbPoint
 10
2507.52351127151
 20
2214.47069133723
 30
0.0
  0
POINT
  5
65D
330
653
100
AcDbEntity
  8
DEFPOINTS
 62
     0
100
AcDbPoint
 10
2507.52351127151
 20
1314.470691337149
 30
0.0
  0
POINT
  5
65E
330
653
100
AcDbEntity
  8
DEFPOINTS
 62
     0
100
AcDbPoint
 10
2607.52351127151
 20
1314.470691337149
 30
0.0
  0
ENDBLK
  5
655
330
653
100
AcDbEntity
  8
0
100
AcDbBlockEnd
  0
BLOCK
  5
661
330
660
100
AcDbEntity
  8
0
100
AcDbBlockBegin
  2
*D18
 70
     1
 10
0.0
 20
0.0
 30
0.0
  3
*D18
  1

  0
LINE
  5
663
330
660
100
AcDbEntity
  8
LAY-20
  6
CONTINUOUS
 62
     4
100
AcDbLine
 10
2441.2235112715
 20
2306.670691337229
 30
0.0
 11
2692.52351127151
 21
2306.670691337229
 31
0.0
  0
LINE
  5
664
330
660
100
AcDbEntity
  8
LAY-20
  6
CONTINUOUS
 62
     4
100
AcDbLine
 10
2441.2235112715
 20
1222.270691337169
 30
0.0
 11
2692.52351127151
 21
1222.270691337169
 31
0.0
  0
LINE
  5
665
330
660
100
AcDbEntity
  8
LAY-20
  6
CONTINUOUS
 62
     4
100
AcDbLine
 10
2677.52351127151
 20
2281.670691337229
 30
0.0
 11
2677.52351127151
 21
1247.270691337169
 31
0.0
  0
INSERT
  5
666
330
660
100
AcDbEntity
  8
LAY-20
 62
     4
100
AcDbBlockReference
  2
EX_BNORM
 10
2677.52351127151
 20
2306.670691337229
 30
0.0
 41
25.0
 42
25.0
 43
25.0
 50
90.0
  0
INSERT
  5
667
330
660
100
AcDbEntity
  8
LAY-20
 62
     4
100
AcDbBlockReference
  2
EX_BNORM
 10
2677.52351127151
 20
1222.270691337169
 30
0.0
 41
25.0
 42
25.0
 43
25.0
 50
270.0
  0
MTEXT
  5
668
330
660
100
AcDbEntity
  8
LAY-20
 62
     7
100
AcDbMText
 10
2652.52351127151
 20
1764.470691337199
 30
0.0
 40
31.181104
 41
0.0
 71
     5
 72
     1
  1
1084
  7
EXCADDIM1
 11
0.0
 21
1.0
 31
0.0
  0
POINT
  5
669
330
660
100
AcDbEntity
  8
DEFPOINTS
 62
     0
100
AcDbPoint
 10
2426.2235112715
 20
2306.670691337229
 30
0.0
  0
POINT
  5
66A
330
660
100
AcDbEntity
  8
DEFPOINTS
 62
     0
100
AcDbPoint
 10
2426.2235112715
 20
1222.270691337169
 30
0.0
  0
POINT
  5
66B
330
660
100
AcDbEntity
  8
DEFPOINTS
 62
     0
100
AcDbPoint
 10
2677.52351127151
 20
1222.270691337169
 30
0.0
  0
ENDBLK
  5
662
330
660
100
AcDbEntity
  8
0
100
AcDbBlockEnd
  0
BLOCK
  5
66E
330
66D
100
AcDbEntity
  8
0
100
AcDbBlockBegin
  2
*D19
 70
     1
 10
0.0
 20
0.0
 30
0.0
  3
*D19
  1

  0
LINE
  5
670
330
66D
100
AcDbEntity
  8
LAY-20
  6
CONTINUOUS
 62
     4
100
AcDbLine
 10
315.8076841561203
 20
873.7520497555903
 30
0.0
 11
315.8076841561203
 21
1043.7520497556
 31
0.0
  0
LINE
  5
671
330
66D
100
AcDbEntity
  8
LAY-20
  6
CONTINUOUS
 62
     4
100
AcDbLine
 10
2017.807684156201
 20
873.7520497555903
 30
0.0
 11
2017.807684156201
 21
1043.7520497556
 31
0.0
  0
LINE
  5
672
330
66D
100
AcDbEntity
  8
LAY-20
  6
CONTINUOUS
 62
     4
100
AcDbLine
 10
340.8076841561203
 20
1028.7520497556
 30
0.0
 11
1992.807684156201
 21
1028.7520497556
 31
0.0
  0
INSERT
  5
673
330
66D
100
AcDbEntity
  8
LAY-20
 62
     4
100
AcDbBlockReference
  2
EX_BNORM
 10
315.8076841561203
 20
1028.7520497556
 30
0.0
 41
25.0
 42
25.0
 43
25.0
 50
180.0
  0
INSERT
  5
674
330
66D
100
AcDbEntity
  8
LAY-20
 62
     4
100
AcDbBlockReference
  2
EX_BNORM
 10
2017.807684156201
 20
1028.7520497556
 30
0.0
 41
25.0
 42
25.0
 43
25.0
  0
MTEXT
  5
675
330
66D
100
AcDbEntity
  8
LAY-20
 62
     7
100
AcDbMText
 10
1166.80768415616
 20
1053.7520497556
 30
0.0
 40
31.181104
 41
0.0
 71
     5
 72
     1
  1
1702
  7
EXCADDIM1
  0
POINT
  5
676
330
66D
100
AcDbEntity
  8
DEFPOINTS
 62
     0
100
AcDbPoint
 10
315.8076841561203
 20
858.7520497555903
 30
0.0
  0
POINT
  5
677
330
66D
100
AcDbEntity
  8
DEFPOINTS
 62
     0
100
AcDbPoint
 10
2017.807684156201
 20
858.7520497555903
 30
0.0
  0
POINT
  5
678
330
66D
100
AcDbEntity
  8
DEFPOINTS
 62
     0
100
AcDbPoint
 10
2017.807684156201
 20
1028.7520497556
 30
0.0
  0
ENDBLK
  5
66F
330
66D
100
AcDbEntity
  8
0
100
AcDbBlockEnd
  0
BLOCK
  5
67B
330
67A
100
AcDbEntity
  8
0
100
AcDbBlockBegin
  2
*D20
 70
     1
 10
0.0
 20
0.0
 30
0.0
  3
*D20
  1

  0
LINE
  5
67D
330
67A
100
AcDbEntity
  8
LAY-20
  6
CONTINUOUS
 62
     4
100
AcDbLine
 10
331.8076841562424
 20
873.7520497555934
 30
0.0
 11
331.8076841562424
 21
973.7520497555997
 31
0.0
  0
LINE
  5
67E
330
67A
100
AcDbEntity
  8
LAY-20
  6
CONTINUOUS
 62
     4
100
AcDbLine
 10
747.8076841561349
 20
873.7520497555956
 30
0.0
 11
747.8076841561349
 21
973.7520497555997
 31
0.0
  0
LINE
  5
67F
330
67A
100
AcDbEntity
  8
LAY-20
  6
CONTINUOUS
 62
     4
100
AcDbLine
 10
356.8076841562424
 20
958.7520497555997
 30
0.0
 11
722.8076841561349
 21
958.7520497555997
 31
0.0
  0
INSERT
  5
680
330
67A
100
AcDbEntity
  8
LAY-20
 62
     4
100
AcDbBlockReference
  2
EX_BNORM
 10
331.8076841562424
 20
958.7520497555997
 30
0.0
 41
25.0
 42
25.0
 43
25.0
 50
180.0
  0
INSERT
  5
681
330
67A
100
AcDbEntity
  8
LAY-20
 62
     4
100
AcDbBlockReference
  2
EX_BNORM
 10
747.8076841561349
 20
958.7520497555997
 30
0.0
 41
25.0
 42
25.0
 43
25.0
  0
MTEXT
  5
682
330
67A
100
AcDbEntity
  8
LAY-20
 62
     7
100
AcDbMText
 10
539.8076841561888
 20
983.7520497555997
 30
0.0
 40
31.181104
 41
0.0
 71
     5
 72
     1
  1
416
  7
EXCADDIM1
  0
POINT
  5
683
330
67A
100
AcDbEntity
  8
DEFPOINTS
 62
     0
100
AcDbPoint
 10
331.8076841562424
 20
858.7520497555934
 30
0.0
  0
POINT
  5
684
330
67A
100
AcDbEntity
  8
DEFPOINTS
 62
     0
100
AcDbPoint
 10
747.8076841561349
 20
858.7520497555956
 30
0.0
  0
POINT
  5
685
330
67A
100
AcDbEntity
  8
DEFPOINTS
 62
     0
100
AcDbPoint
 10
747.8076841561349
 20
958.7520497555997
 30
0.0
  0
ENDBLK
  5
67C
330
67A
100
AcDbEntity
  8
0
100
AcDbBlockEnd
  0
BLOCK
  5
688
330
687
100
AcDbEntity
  8
0
100
AcDbBlockBegin
  2
*D21
 70
     1
 10
0.0
 20
0.0
 30
0.0
  3
*D21
  1

  0
LINE
  5
68A
330
687
100
AcDbEntity
  8
LAY-20
  6
CONTINUOUS
 62
     4
100
AcDbLine
 10
1916.8076841562
 20
708.7520497555901
 30
0.0
 11
1916.8076841562
 21
608.7520497555897
 31
0.0
  0
LINE
  5
68B
330
687
100
AcDbEntity
  8
LAY-20
  6
CONTINUOUS
 62
     4
100
AcDbLine
 10
416.8076841561201
 20
708.7520497555897
 30
0.0
 11
416.8076841561201
 21
608.7520497555897
 31
0.0
  0
LINE
  5
68C
330
687
100
AcDbEntity
  8
LAY-20
  6
CONTINUOUS
 62
     4
100
AcDbLine
 10
1891.8076841562
 20
623.7520497555897
 30
0.0
 11
441.8076841561201
 21
623.7520497555897
 31
0.0
  0
INSERT
  5
68D
330
687
100
AcDbEntity
  8
LAY-20
 62
     4
100
AcDbBlockReference
  2
EX_BNORM
 10
1916.8076841562
 20
623.7520497555897
 30
0.0
 41
25.0
 42
25.0
 43
25.0
  0
INSERT
  5
68E
330
687
100
AcDbEntity
  8
LAY-20
 62
     4
100
AcDbBlockReference
  2
EX_BNORM
 10
416.8076841561201
 20
623.7520497555897
 30
0.0
 41
25.0
 42
25.0
 43
25.0
 50
180.0
  0
MTEXT
  5
68F
330
687
100
AcDbEntity
  8
LAY-20
 62
     7
100
AcDbMText
 10
1166.80768415616
 20
648.7520497555897
 30
0.0
 40
31.181104
 41
0.0
 71
     5
 72
     1
  1
1500
  7
EXCADDIM1
  0
POINT
  5
690
330
687
100
AcDbEntity
  8
DEFPOINTS
 62
     0
100
AcDbPoint
 10
1916.8076841562
 20
723.7520497555901
 30
0.0
  0
POINT
  5
691
330
687
100
AcDbEntity
  8
DEFPOINTS
 62
     0
100
AcDbPoint
 10
416.8076841561201
 20
723.7520497555897
 30
0.0
  0
POINT
  5
692
330
687
100
AcDbEntity
  8
DEFPOINTS
 62
     0
100
AcDbPoint
 10
416.8076841561201
 20
623.7520497555897
 30
0.0
  0
ENDBLK
  5
689
330
687
100
AcDbEntity
  8
0
100
AcDbBlockEnd
  0
BLOCK
  5
695
330
694
100
AcDbEntity
  8
0
100
AcDbBlockBegin
  2
*D22
 70
     1
 10
0.0
 20
0.0
 30
0.0
  3
*D22
  1

  0
LINE
  5
697
330
694
100
AcDbEntity
  8
LAY-20
  6
CONTINUOUS
 62
     4
100
AcDbLine
 10
1978.0076841562
 20
723.7520497555901
 30
0.0
 11
2161.706168966
 21
723.7520497555901
 31
0.0
  0
LINE
  5
698
330
694
100
AcDbEntity
  8
LAY-20
  6
CONTINUOUS
 62
     4
100
AcDbLine
 10
2032.807684156201
 20
858.7520497555903
 30
0.0
 11
2161.706168966
 21
858.7520497555903
 31
0.0
  0
LINE
  5
699
330
694
100
AcDbEntity
  8
LAY-20
  6
CONTINUOUS
 62
     4
100
AcDbLine
 10
2146.706168966
 20
748.7520497555901
 30
0.0
 11
2146.706168966
 21
833.7520497555903
 31
0.0
  0
INSERT
  5
69A
330
694
100
AcDbEntity
  8
LAY-20
 62
     4
100
AcDbBlockReference
  2
EX_BNORM
 10
2146.706168966
 20
723.7520497555901
 30
0.0
 41
25.0
 42
25.0
 43
25.0
 50
270.0
  0
INSERT
  5
69B
330
694
100
AcDbEntity
  8
LAY-20
 62
     4
100
AcDbBlockReference
  2
EX_BNORM
 10
2146.706168966
 20
858.7520497555903
 30
0.0
 41
25.0
 42
25.0
 43
25.0
 50
90.0
  0
MTEXT
  5
69C
330
694
100
AcDbEntity
  8
LAY-20
 62
     7
100
AcDbMText
 10
2121.706168965999
 20
791.25204975559
 30
0.0
 40
31.181104
 41
0.0
 71
     5
 72
     1
  1
135
  7
EXCADDIM1
 11
0.0
 21
1.0
 31
0.0
  0
POINT
  5
69D
330
694
100
AcDbEntity
  8
DEFPOINTS
 62
     0
100
AcDbPoint
 10
1963.0076841562
 20
723.7520497555901
 30
0.0
  0
POINT
  5
69E
330
694
100
AcDbEntity
  8
DEFPOINTS
 62
     0
100
AcDbPoint
 10
2017.807684156201
 20
858.7520497555903
 30
0.0
  0
POINT
  5
69F
330
694
100
AcDbEntity
  8
DEFPOINTS
 62
     0
100
AcDbPoint
 10
2146.706168966
 20
858.7520497555903
 30
0.0
  0
ENDBLK
  5
696
330
694
100
AcDbEntity
  8
0
100
AcDbBlockEnd
  0
BLOCK
  5
6A2
330
6A1
100
AcDbEntity
  8
0
100
AcDbBlockBegin
  2
*D23
 70
     1
 10
0.0
 20
0.0
 30
0.0
  3
*D23
  1

  0
LINE
  5
6A4
330
6A1
100
AcDbEntity
  8
LAY-20
  6
CONTINUOUS
 62
     4
100
AcDbLine
 10
2009.0076841562
 20
790.0520497555999
 30
0.0
 11
2009.0076841562
 21
538.7520497555897
 31
0.0
  0
LINE
  5
6A5
330
6A1
100
AcDbEntity
  8
LAY-20
  6
CONTINUOUS
 62
     4
100
AcDbLine
 10
324.6076841561401
 20
790.0520497555999
 30
0.0
 11
324.6076841561401
 21
538.7520497555897
 31
0.0
  0
LINE
  5
6A6
330
6A1
100
AcDbEntity
  8
LAY-20
  6
CONTINUOUS
 62
     4
100
AcDbLine
 10
1984.0076841562
 20
553.7520497555897
 30
0.0
 11
349.6076841561401
 21
553.7520497555897
 31
0.0
  0
INSERT
  5
6A7
330
6A1
100
AcDbEntity
  8
LAY-20
 62
     4
100
AcDbBlockReference
  2
EX_BNORM
 10
2009.0076841562
 20
553.7520497555897
 30
0.0
 41
25.0
 42
25.0
 43
25.0
  0
INSERT
  5
6A8
330
6A1
100
AcDbEntity
  8
LAY-20
 62
     4
100
AcDbBlockReference
  2
EX_BNORM
 10
324.6076841561401
 20
553.7520497555897
 30
0.0
 41
25.0
 42
25.0
 43
25.0
 50
180.0
  0
MTEXT
  5
6A9
330
6A1
100
AcDbEntity
  8
LAY-20
 62
     7
100
AcDbMText
 10
1166.80768415617
 20
578.7520497555897
 30
0.0
 40
31.181104
 41
0.0
 71
     5
 72
     1
  1
1684
  7
EXCADDIM1
  0
POINT
  5
6AA
330
6A1
100
AcDbEntity
  8
DEFPOINTS
 62
     0
100
AcDbPoint
 10
2009.0076841562
 20
805.0520497555999
 30
0.0
  0
POINT
  5
6AB
330
6A1
100
AcDbEntity
  8
DEFPOINTS
 62
     0
100
AcDbPoint
 10
324.6076841561401
 20
805.0520497555999
 30
0.0
  0
POINT
  5
6AC
330
6A1
100
AcDbEntity
  8
DEFPOINTS
 62
     0
100
AcDbPoint
 10
324.6076841561401
 20
553.7520497555897
 30
0.0
  0
ENDBLK
  5
6A3
330
6A1
100
AcDbEntity
  8
0
100
AcDbBlockEnd
  0
BLOCK
  5
6AF
330
6AE
100
AcDbEntity
  8
0
100
AcDbBlockBegin
  2
*D24
 70
     1
 10
0.0
 20
0.0
 30
0.0
  3
*D24
  1

  0
LINE
  5
6B1
330
6AE
100
AcDbEntity
  8
LAY-20
  6
CONTINUOUS
 62
     4
100
AcDbLine
 10
1337.0
 20
854.2520497555797
 30
0.0
 11
1337.0
 21
858.7520497555802
 31
0.0
  0
LINE
  5
6B2
330
6AE
100
AcDbEntity
  8
LAY-20
  6
CONTINUOUS
 62
     4
100
AcDbLine
 10
1337.0
 20
829.2520497555797
 30
0.0
 11
1337.0
 21
804.2520497555797
 31
0.0
  0
LINE
  5
6B3
330
6AE
100
AcDbEntity
  8
LAY-20
  6
CONTINUOUS
 62
     4
100
AcDbLine
 10
1337.0
 20
883.7520497555802
 30
0.0
 11
1337.0
 21
908.7520497555802
 31
0.0
  0
INSERT
  5
6B4
330
6AE
100
AcDbEntity
  8
LAY-20
 62
     4
100
AcDbBlockReference
  2
EX_BNORM
 10
1337.0
 20
854.2520497555797
 30
0.0
 41
25.0
 42
25.0
 43
25.0
 50
90.0
  0
INSERT
  5
6B5
330
6AE
100
AcDbEntity
  8
LAY-20
 62
     4
100
AcDbBlockReference
  2
EX_BNORM
 10
1337.0
 20
858.7520497555802
 30
0.0
 41
25.0
 42
25.0
 43
25.0
 50
270.0
  0
MTEXT
  5
6B6
330
6AE
100
AcDbEntity
  8
LAY-20
 62
     7
100
AcDbMText
 10
1312.0
 20
923.7520497555797
 30
0.0
 40
31.181104
 41
0.0
 71
     5
 72
     1
  1
4.5
  7
EXCADDIM1
 11
0.0
 21
1.0
 31
0.0
  0
POINT
  5
6B7
330
6AE
100
AcDbEntity
  8
DEFPOINTS
 62
     0
100
AcDbPoint
 10
1337.0
 20
854.2520497555797
 30
0.0
  0
POINT
  5
6B8
330
6AE
100
AcDbEntity
  8
DEFPOINTS
 62
     0
100
AcDbPoint
 10
1337.0
 20
858.7520497555802
 30
0.0
  0
POINT
  5
6B9
330
6AE
100
AcDbEntity
  8
DEFPOINTS
 62
     0
100
AcDbPoint
 10
1337.0
 20
858.7520497555802
 30
0.0
  0
ENDBLK
  5
6B0
330
6AE
100
AcDbEntity
  8
0
100
AcDbBlockEnd
  0
ENDSEC
  0
SECTION
  2
ENTITIES
  0
LINE
  5
D5
330
1F
100
AcDbEntity
  8
LAY-10
  6
CONTINUOUS
 62
     7
100
AcDbLine
 10
2453.923511271654
 20
2253.202674191712
 30
0.0
 11
2455.591528417177
 21
2254.870691337234
 31
0.0
  0
LINE
  5
D6
330
1F
100
AcDbEntity
  8
LAY-10
  6
CONTINUOUS
 62
     7
100
AcDbLine
 10
2453.923511271654
 20
2239.06053856798
 30
0.0
 11
2469.733664040908
 21
2254.870691337234
 31
0.0
  0
LINE
  5
D7
330
1F
100
AcDbEntity
  8
LAY-10
  6
CONTINUOUS
 62
     7
100
AcDbLine
 10
2453.923511271654
 20
2224.918402944249
 30
0.0
 11
2483.875799664639
 21
2254.870691337234
 31
0.0
  0
LINE
  5
D8
330
1F
100
AcDbEntity
  8
LAY-10
  6
CONTINUOUS
 62
     7
100
AcDbLine
 10
2453.923511271654
 20
2210.776267320519
 30
0.0
 11
2498.01793528837
 21
2254.870691337234
 31
0.0
  0
LINE
  5
D9
330
1F
100
AcDbEntity
  8
LAY-10
  6
CONTINUOUS
 62
     7
100
AcDbLine
 10
2453.923511271654
 20
2196.634131696787
 30
0.0
 11
2500.723511271638
 21
2243.434131696771
 31
0.0
  0
LINE
  5
DA
330
1F
100
AcDbEntity
  8
LAY-10
  6
CONTINUOUS
 62
     7
100
AcDbLine
 10
2453.923511271654
 20
2182.491996073057
 30
0.0
 11
2500.723511271638
 21
2229.29199607304
 31
0.0
  0
LINE
  5
DB
330
1F
100
AcDbEntity
  8
LAY-10
  6
CONTINUOUS
 62
     7
100
AcDbLine
 10
2453.923511271654
 20
2168.349860449325
 30
0.0
 11
2500.723511271638
 21
2215.149860449309
 31
0.0
  0
LINE
  5
DC
330
1F
100
AcDbEntity
  8
LAY-10
  6
CONTINUOUS
 62
     7
100
AcDbLine
 10
2453.923511271654
 20
2154.207724825595
 30
0.0
 11
2500.723511271638
 21
2201.007724825578
 31
0.0
  0
LINE
  5
DD
330
1F
100
AcDbEntity
  8
LAY-10
  6
CONTINUOUS
 62
     7
100
AcDbLine
 10
2453.923511271654
 20
2140.065589201864
 30
0.0
 11
2500.723511271638
 21
2186.865589201847
 31
0.0
  0
LINE
  5
DE
330
1F
100
AcDbEntity
  8
LAY-10
  6
CONTINUOUS
 62
     7
100
AcDbLine
 10
2453.923511271654
 20
2125.923453578133
 30
0.0
 11
2500.723511271638
 21
2172.723453578116
 31
0.0
  0
LINE
  5
DF
330
1F
100
AcDbEntity
  8
LAY-10
  6
CONTINUOUS
 62
     7
100
AcDbLine
 10
2453.923511271654
 20
2111.781317954402
 30
0.0
 11
2500.723511271638
 21
2158.581317954386
 31
0.0
  0
LINE
  5
E0
330
1F
100
AcDbEntity
  8
LAY-10
  6
CONTINUOUS
 62
     7
100
AcDbLine
 10
2453.923511271654
 20
2097.639182330671
 30
0.0
 11
2500.723511271638
 21
2144.439182330654
 31
0.0
  0
LINE
  5
E1
330
1F
100
AcDbEntity
  8
LAY-10
  6
CONTINUOUS
 62
     7
100
AcDbLine
 10
2453.923511271654
 20
2083.49704670694
 30
0.0
 11
2500.723511271638
 21
2130.297046706924
 31
0.0
  0
LINE
  5
E2
330
1F
100
AcDbEntity
  8
LAY-10
  6
CONTINUOUS
 62
     7
100
AcDbLine
 10
2453.923511271641
 20
2069.354911083196
 30
0.0
 11
2500.723511271638
 21
2116.154911083192
 31
0.0
  0
LINE
  5
E3
330
1F
100
AcDbEntity
  8
LAY-10
  6
CONTINUOUS
 62
     7
100
AcDbLine
 10
2453.923511271641
 20
2055.212775459466
 30
0.0
 11
2500.723511271638
 21
2102.012775459461
 31
0.0
  0
LINE
  5
E4
330
1F
100
AcDbEntity
  8
LAY-10
  6
CONTINUOUS
 62
     7
100
AcDbLine
 10
2453.923511271641
 20
2041.070639835734
 30
0.0
 11
2500.723511271638
 21
2087.870639835731
 31
0.0
  0
LINE
  5
E5
330
1F
100
AcDbEntity
  8
LAY-10
  6
CONTINUOUS
 62
     7
100
AcDbLine
 10
2453.923511271641
 20
2026.928504212003
 30
0.0
 11
2500.723511271638
 21
2073.728504212
 31
0.0
  0
LINE
  5
E6
330
1F
100
AcDbEntity
  8
LAY-10
  6
CONTINUOUS
 62
     7
100
AcDbLine
 10
2453.923511271642
 20
2012.786368588273
 30
0.0
 11
2500.723511271638
 21
2059.586368588269
 31
0.0
  0
LINE
  5
E7
330
1F
100
AcDbEntity
  8
LAY-10
  6
CONTINUOUS
 62
     7
100
AcDbLine
 10
2453.923511271641
 20
1998.644232964541
 30
0.0
 11
2500.723511271638
 21
2045.444232964537
 31
0.0
  0
LINE
  5
E8
330
1F
100
AcDbEntity
  8
LAY-10
  6
CONTINUOUS
 62
     7
100
AcDbLine
 10
2453.923511271641
 20
1984.50209734081
 30
0.0
 11
2500.723511271638
 21
2031.302097340806
 31
0.0
  0
LINE
  5
E9
330
1F
100
AcDbEntity
  8
LAY-10
  6
CONTINUOUS
 62
     7
100
AcDbLine
 10
2453.923511271641
 20
1970.35996171708
 30
0.0
 11
2500.723511271638
 21
2017.159961717076
 31
0.0
  0
LINE
  5
EA
330
1F
100
AcDbEntity
  8
LAY-10
  6
CONTINUOUS
 62
     7
100
AcDbLine
 10
2453.923511271641
 20
1956.217826093349
 30
0.0
 11
2500.723511271638
 21
2003.017826093344
 31
0.0
  0
LINE
  5
EB
330
1F
100
AcDbEntity
  8
LAY-10
  6
CONTINUOUS
 62
     7
100
AcDbLine
 10
2453.923511271642
 20
1942.075690469618
 30
0.0
 11
2500.723511271638
 21
1988.875690469614
 31
0.0
  0
LINE
  5
EC
330
1F
100
AcDbEntity
  8
LAY-10
  6
CONTINUOUS
 62
     7
100
AcDbLine
 10
2453.923511271641
 20
1927.933554845886
 30
0.0
 11
2500.723511271638
 21
1974.733554845883
 31
0.0
  0
LINE
  5
ED
330
1F
100
AcDbEntity
  8
LAY-10
  6
CONTINUOUS
 62
     7
100
AcDbLine
 10
2453.923511271641
 20
1913.791419222156
 30
0.0
 11
2500.723511271638
 21
1960.591419222151
 31
0.0
  0
LINE
  5
EE
330
1F
100
AcDbEntity
  8
LAY-10
  6
CONTINUOUS
 62
     7
100
AcDbLine
 10
2453.923511271641
 20
1899.649283598424
 30
0.0
 11
2500.723511271638
 21
1946.449283598421
 31
0.0
  0
LINE
  5
EF
330
1F
100
AcDbEntity
  8
LAY-10
  6
CONTINUOUS
 62
     7
100
AcDbLine
 10
2453.923511271641
 20
1885.507147974694
 30
0.0
 11
2500.723511271638
 21
1932.307147974689
 31
0.0
  0
LINE
  5
F0
330
1F
100
AcDbEntity
  8
LAY-10
  6
CONTINUOUS
 62
     7
100
AcDbLine
 10
2453.923511271642
 20
1871.365012350963
 30
0.0
 11
2500.723511271638
 21
1918.165012350959
 31
0.0
  0
LINE
  5
F1
330
1F
100
AcDbEntity
  8
LAY-10
  6
CONTINUOUS
 62
     7
100
AcDbLine
 10
2453.923511271641
 20
1857.222876727232
 30
0.0
 11
2500.723511271638
 21
1904.022876727228
 31
0.0
  0
LINE
  5
F2
330
1F
100
AcDbEntity
  8
LAY-10
  6
CONTINUOUS
 62
     7
100
AcDbLine
 10
2453.923511271641
 20
1843.080741103501
 30
0.0
 11
2500.723511271638
 21
1889.880741103497
 31
0.0
  0
LINE
  5
F3
330
1F
100
AcDbEntity
  8
LAY-10
  6
CONTINUOUS
 62
     7
100
AcDbLine
 10
2453.923511271641
 20
1828.938605479771
 30
0.0
 11
2500.723511271638
 21
1875.738605479766
 31
0.0
  0
LINE
  5
F4
330
1F
100
AcDbEntity
  8
LAY-10
  6
CONTINUOUS
 62
     7
100
AcDbLine
 10
2453.923511271641
 20
1814.796469856039
 30
0.0
 11
2500.723511271638
 21
1861.596469856036
 31
0.0
  0
LINE
  5
F5
330
1F
100
AcDbEntity
  8
LAY-10
  6
CONTINUOUS
 62
     7
100
AcDbLine
 10
2453.923511271642
 20
1800.654334232308
 30
0.0
 11
2500.723511271638
 21
1847.454334232305
 31
0.0
  0
LINE
  5
F6
330
1F
100
AcDbEntity
  8
LAY-10
  6
CONTINUOUS
 62
     7
100
AcDbLine
 10
2453.923511271641
 20
1786.512198608578
 30
0.0
 11
2500.723511271638
 21
1833.312198608573
 31
0.0
  0
LINE
  5
F7
330
1F
100
AcDbEntity
  8
LAY-10
  6
CONTINUOUS
 62
     7
100
AcDbLine
 10
2453.923511271641
 20
1772.370062984846
 30
0.0
 11
2500.723511271638
 21
1819.170062984843
 31
0.0
  0
LINE
  5
F8
330
1F
100
AcDbEntity
  8
LAY-10
  6
CONTINUOUS
 62
     7
100
AcDbLine
 10
2453.923511271641
 20
1758.227927361115
 30
0.0
 11
2500.723511271638
 21
1805.027927361111
 31
0.0
  0
LINE
  5
F9
330
1F
100
AcDbEntity
  8
LAY-10
  6
CONTINUOUS
 62
     7
100
AcDbLine
 10
2453.923511271641
 20
1744.085791737384
 30
0.0
 11
2500.723511271638
 21
1790.88579173738
 31
0.0
  0
LINE
  5
FA
330
1F
100
AcDbEntity
  8
LAY-10
  6
CONTINUOUS
 62
     7
100
AcDbLine
 10
2453.923511271642
 20
1729.943656113653
 30
0.0
 11
2500.723511271638
 21
1776.74365611365
 31
0.0
  0
LINE
  5
FB
330
1F
100
AcDbEntity
  8
LAY-10
  6
CONTINUOUS
 62
     7
100
AcDbLine
 10
2453.923511271641
 20
1715.801520489923
 30
0.0
 11
2500.723511271638
 21
1762.601520489918
 31
0.0
  0
LINE
  5
FC
330
1F
100
AcDbEntity
  8
LAY-10
  6
CONTINUOUS
 62
     7
100
AcDbLine
 10
2453.923511271641
 20
1701.659384866191
 30
0.0
 11
2500.723511271638
 21
1748.459384866188
 31
0.0
  0
LINE
  5
FD
330
1F
100
AcDbEntity
  8
LAY-10
  6
CONTINUOUS
 62
     7
100
AcDbLine
 10
2453.923511271641
 20
1687.517249242461
 30
0.0
 11
2500.723511271638
 21
1734.317249242456
 31
0.0
  0
LINE
  5
FE
330
1F
100
AcDbEntity
  8
LAY-10
  6
CONTINUOUS
 62
     7
100
AcDbLine
 10
2453.923511271641
 20
1673.375113618729
 30
0.0
 11
2500.723511271638
 21
1720.175113618726
 31
0.0
  0
LINE
  5
FF
330
1F
100
AcDbEntity
  8
LAY-10
  6
CONTINUOUS
 62
     7
100
AcDbLine
 10
2453.923511271642
 20
1659.232977994998
 30
0.0
 11
2500.723511271638
 21
1706.032977994995
 31
0.0
  0
LINE
  5
100
330
1F
100
AcDbEntity
  8
LAY-10
  6
CONTINUOUS
 62
     7
100
AcDbLine
 10
2453.923511271641
 20
1645.090842371268
 30
0.0
 11
2500.723511271638
 21
1691.890842371263
 31
0.0
  0
LINE
  5
101
330
1F
100
AcDbEntity
  8
LAY-10
  6
CONTINUOUS
 62
     7
100
AcDbLine
 10
2453.923511271641
 20
1630.948706747537
 30
0.0
 11
2500.723511271638
 21
1677.748706747533
 31
0.0
  0
LINE
  5
102
330
1F
100
AcDbEntity
  8
LAY-10
  6
CONTINUOUS
 62
     7
100
AcDbLine
 10
2453.923511271641
 20
1616.806571123806
 30
0.0
 11
2500.723511271638
 21
1663.606571123802
 31
0.0
  0
LINE
  5
103
330
1F
100
AcDbEntity
  8
LAY-10
  6
CONTINUOUS
 62
     7
100
AcDbLine
 10
2453.923511271641
 20
1602.664435500075
 30
0.0
 11
2500.723511271638
 21
1649.464435500071
 31
0.0
  0
LINE
  5
104
330
1F
100
AcDbEntity
  8
LAY-10
  6
CONTINUOUS
 62
     7
100
AcDbLine
 10
2453.923511271642
 20
1588.522299876344
 30
0.0
 11
2500.723511271638
 21
1635.32229987634
 31
0.0
  0
LINE
  5
105
330
1F
100
AcDbEntity
  8
LAY-10
  6
CONTINUOUS
 62
     7
100
AcDbLine
 10
2453.923511271641
 20
1574.380164252613
 30
0.0
 11
2500.723511271638
 21
1621.180164252609
 31
0.0
  0
LINE
  5
106
330
1F
100
AcDbEntity
  8
LAY-10
  6
CONTINUOUS
 62
     7
100
AcDbLine
 10
2453.923511271641
 20
1560.238028628883
 30
0.0
 11
2500.723511271638
 21
1607.038028628878
 31
0.0
  0
LINE
  5
107
330
1F
100
AcDbEntity
  8
LAY-10
  6
CONTINUOUS
 62
     7
100
AcDbLine
 10
2453.923511271641
 20
1546.095893005151
 30
0.0
 11
2500.723511271638
 21
1592.895893005148
 31
0.0
  0
LINE
  5
108
330
1F
100
AcDbEntity
  8
LAY-10
  6
CONTINUOUS
 62
     7
100
AcDbLine
 10
2453.923511271641
 20
1531.95375738142
 30
0.0
 11
2500.723511271638
 21
1578.753757381416
 31
0.0
  0
LINE
  5
109
330
1F
100
AcDbEntity
  8
LAY-10
  6
CONTINUOUS
 62
     7
100
AcDbLine
 10
2453.923511271641
 20
1517.811621757689
 30
0.0
 11
2500.723511271638
 21
1564.611621757685
 31
0.0
  0
LINE
  5
10A
330
1F
100
AcDbEntity
  8
LAY-10
  6
CONTINUOUS
 62
     7
100
AcDbLine
 10
2453.923511271641
 20
1503.669486133958
 30
0.0
 11
2500.723511271638
 21
1550.469486133955
 31
0.0
  0
LINE
  5
10B
330
1F
100
AcDbEntity
  8
LAY-10
  6
CONTINUOUS
 62
     7
100
AcDbLine
 10
2453.923511271641
 20
1489.527350510228
 30
0.0
 11
2500.723511271638
 21
1536.327350510223
 31
0.0
  0
LINE
  5
10C
330
1F
100
AcDbEntity
  8
LAY-10
  6
CONTINUOUS
 62
     7
100
AcDbLine
 10
2453.923511271641
 20
1475.385214886496
 30
0.0
 11
2500.723511271638
 21
1522.185214886493
 31
0.0
  0
LINE
  5
10D
330
1F
100
AcDbEntity
  8
LAY-10
  6
CONTINUOUS
 62
     7
100
AcDbLine
 10
2453.923511271641
 20
1461.243079262765
 30
0.0
 11
2500.723511271638
 21
1508.043079262761
 31
0.0
  0
LINE
  5
10E
330
1F
100
AcDbEntity
  8
LAY-10
  6
CONTINUOUS
 62
     7
100
AcDbLine
 10
2453.923511271641
 20
1447.100943639034
 30
0.0
 11
2500.723511271638
 21
1493.90094363903
 31
0.0
  0
LINE
  5
10F
330
1F
100
AcDbEntity
  8
LAY-10
  6
CONTINUOUS
 62
     7
100
AcDbLine
 10
2453.923511271641
 20
1432.958808015303
 30
0.0
 11
2500.723511271638
 21
1479.7588080153
 31
0.0
  0
LINE
  5
110
330
1F
100
AcDbEntity
  8
LAY-10
  6
CONTINUOUS
 62
     7
100
AcDbLine
 10
2453.923511271641
 20
1418.816672391573
 30
0.0
 11
2500.723511271638
 21
1465.616672391568
 31
0.0
  0
LINE
  5
111
330
1F
100
AcDbEntity
  8
LAY-10
  6
CONTINUOUS
 62
     7
100
AcDbLine
 10
2453.923511271641
 20
1404.674536767841
 30
0.0
 11
2500.723511271638
 21
1451.474536767838
 31
0.0
  0
LINE
  5
112
330
1F
100
AcDbEntity
  8
LAY-10
  6
CONTINUOUS
 62
     7
100
AcDbLine
 10
2453.923511271641
 20
1390.532401144111
 30
0.0
 11
2500.723511271638
 21
1437.332401144106
 31
0.0
  0
LINE
  5
113
330
1F
100
AcDbEntity
  8
LAY-10
  6
CONTINUOUS
 62
     7
100
AcDbLine
 10
2453.923511271641
 20
1376.390265520379
 30
0.0
 11
2500.723511271638
 21
1423.190265520376
 31
0.0
  0
LINE
  5
114
330
1F
100
AcDbEntity
  8
LAY-10
  6
CONTINUOUS
 62
     7
100
AcDbLine
 10
2453.923511271641
 20
1362.248129896648
 30
0.0
 11
2500.723511271638
 21
1409.048129896645
 31
0.0
  0
LINE
  5
115
330
1F
100
AcDbEntity
  8
LAY-10
  6
CONTINUOUS
 62
     7
100
AcDbLine
 10
2453.923511271641
 20
1348.105994272918
 30
0.0
 11
2500.723511271638
 21
1394.905994272913
 31
0.0
  0
LINE
  5
116
330
1F
100
AcDbEntity
  8
LAY-10
  6
CONTINUOUS
 62
     7
100
AcDbLine
 10
2453.923511271641
 20
1333.963858649187
 30
0.0
 11
2500.723511271638
 21
1380.763858649183
 31
0.0
  0
LINE
  5
117
330
1F
100
AcDbEntity
  8
LAY-10
  6
CONTINUOUS
 62
     7
100
AcDbLine
 10
2453.923511271641
 20
1319.821723025456
 30
0.0
 11
2500.723511271638
 21
1366.621723025452
 31
0.0
  0
LINE
  5
118
330
1F
100
AcDbEntity
  8
LAY-10
  6
CONTINUOUS
 62
     7
100
AcDbLine
 10
2453.923511271641
 20
1305.679587401725
 30
0.0
 11
2500.723511271638
 21
1352.479587401721
 31
0.0
  0
LINE
  5
119
330
1F
100
AcDbEntity
  8
LAY-10
  6
CONTINUOUS
 62
     7
100
AcDbLine
 10
2453.923511271641
 20
1291.537451777994
 30
0.0
 11
2500.723511271638
 21
1338.33745177799
 31
0.0
  0
LINE
  5
11A
330
1F
100
AcDbEntity
  8
LAY-10
  6
CONTINUOUS
 62
     7
100
AcDbLine
 10
2453.923511271641
 20
1277.395316154263
 30
0.0
 11
2500.723511271638
 21
1324.195316154259
 31
0.0
  0
LINE
  5
11B
330
1F
100
AcDbEntity
  8
LAY-10
  6
CONTINUOUS
 62
     7
100
AcDbLine
 10
2464.741022078339
 20
1274.070691337229
 30
0.0
 11
2500.723511271638
 21
1310.053180530528
 31
0.0
  0
LINE
  5
11C
330
1F
100
AcDbEntity
  8
LAY-10
  6
CONTINUOUS
 62
     7
100
AcDbLine
 10
2478.88315770207
 20
1274.070691337229
 30
0.0
 11
2500.723511271638
 21
1295.911044906797
 31
0.0
  0
LINE
  5
11D
330
1F
100
AcDbEntity
  8
LAY-10
  6
CONTINUOUS
 62
     7
100
AcDbLine
 10
2493.025293325814
 20
1274.070691337242
 30
0.0
 11
2500.723511271638
 21
1281.768909283066
 31
0.0
  0
LINE
  5
11E
330
1F
100
AcDbEntity
  8
LAY-10
  6
CONTINUOUS
 62
     7
100
AcDbLine
 10
2463.57346805885
 20
1274.070691337247
 30
0.0
 11
2453.923511271641
 21
1283.720648124455
 31
0.0
  0
LINE
  5
11F
330
1F
100
AcDbEntity
  8
LAY-10
  6
CONTINUOUS
 62
     7
100
AcDbLine
 10
2477.715603682581
 20
1274.070691337247
 30
0.0
 11
2453.923511271641
 21
1297.862783748186
 31
0.0
  0
LINE
  5
120
330
1F
100
AcDbEntity
  8
LAY-10
  6
CONTINUOUS
 62
     7
100
AcDbLine
 10
2491.857739306325
 20
1274.070691337234
 30
0.0
 11
2453.923511271641
 21
1312.004919371917
 31
0.0
  0
LINE
  5
121
330
1F
100
AcDbEntity
  8
LAY-10
  6
CONTINUOUS
 62
     7
100
AcDbLine
 10
2500.723511271638
 20
1279.347054995652
 30
0.0
 11
2453.923511271641
 21
1326.147054995648
 31
0.0
  0
LINE
  5
122
330
1F
100
AcDbEntity
  8
LAY-10
  6
CONTINUOUS
 62
     7
100
AcDbLine
 10
2500.723511271638
 20
1293.489190619382
 30
0.0
 11
2453.923511271641
 21
1340.289190619379
 31
0.0
  0
LINE
  5
123
330
1F
100
AcDbEntity
  8
LAY-10
  6
CONTINUOUS
 62
     7
100
AcDbLine
 10
2500.723511271638
 20
1307.631326243114
 30
0.0
 11
2453.923511271641
 21
1354.431326243109
 31
0.0
  0
LINE
  5
124
330
1F
100
AcDbEntity
  8
LAY-10
  6
CONTINUOUS
 62
     7
100
AcDbLine
 10
2500.723511271638
 20
1321.773461866844
 30
0.0
 11
2453.923511271641
 21
1368.573461866841
 31
0.0
  0
LINE
  5
125
330
1F
100
AcDbEntity
  8
LAY-10
  6
CONTINUOUS
 62
     7
100
AcDbLine
 10
2500.723511271638
 20
1335.915597490576
 30
0.0
 11
2453.923511271641
 21
1382.715597490572
 31
0.0
  0
LINE
  5
126
330
1F
100
AcDbEntity
  8
LAY-10
  6
CONTINUOUS
 62
     7
100
AcDbLine
 10
2500.723511271638
 20
1350.057733114307
 30
0.0
 11
2453.923511271641
 21
1396.857733114303
 31
0.0
  0
LINE
  5
127
330
1F
100
AcDbEntity
  8
LAY-10
  6
CONTINUOUS
 62
     7
100
AcDbLine
 10
2500.723511271638
 20
1364.199868738037
 30
0.0
 11
2453.923511271641
 21
1410.999868738034
 31
0.0
  0
LINE
  5
128
330
1F
100
AcDbEntity
  8
LAY-10
  6
CONTINUOUS
 62
     7
100
AcDbLine
 10
2500.723511271638
 20
1378.342004361769
 30
0.0
 11
2453.923511271641
 21
1425.142004361764
 31
0.0
  0
LINE
  5
129
330
1F
100
AcDbEntity
  8
LAY-10
  6
CONTINUOUS
 62
     7
100
AcDbLine
 10
2500.723511271638
 20
1392.484139985499
 30
0.0
 11
2453.923511271641
 21
1439.284139985496
 31
0.0
  0
LINE
  5
12A
330
1F
100
AcDbEntity
  8
LAY-10
  6
CONTINUOUS
 62
     7
100
AcDbLine
 10
2500.723511271638
 20
1406.626275609231
 30
0.0
 11
2453.923511271641
 21
1453.426275609226
 31
0.0
  0
LINE
  5
12B
330
1F
100
AcDbEntity
  8
LAY-10
  6
CONTINUOUS
 62
     7
100
AcDbLine
 10
2500.723511271638
 20
1420.768411232961
 30
0.0
 11
2453.923511271641
 21
1467.568411232958
 31
0.0
  0
LINE
  5
12C
330
1F
100
AcDbEntity
  8
LAY-10
  6
CONTINUOUS
 62
     7
100
AcDbLine
 10
2500.723511271638
 20
1434.910546856692
 30
0.0
 11
2453.923511271641
 21
1481.710546856688
 31
0.0
  0
LINE
  5
12D
330
1F
100
AcDbEntity
  8
LAY-10
  6
CONTINUOUS
 62
     7
100
AcDbLine
 10
2500.723511271638
 20
1449.052682480423
 30
0.0
 11
2453.923511271641
 21
1495.852682480419
 31
0.0
  0
LINE
  5
12E
330
1F
100
AcDbEntity
  8
LAY-10
  6
CONTINUOUS
 62
     7
100
AcDbLine
 10
2500.723511271638
 20
1463.194818104154
 30
0.0
 11
2453.923511271641
 21
1509.99481810415
 31
0.0
  0
LINE
  5
12F
330
1F
100
AcDbEntity
  8
LAY-10
  6
CONTINUOUS
 62
     7
100
AcDbLine
 10
2500.723511271638
 20
1477.336953727885
 30
0.0
 11
2453.923511271641
 21
1524.136953727881
 31
0.0
  0
LINE
  5
130
330
1F
100
AcDbEntity
  8
LAY-10
  6
CONTINUOUS
 62
     7
100
AcDbLine
 10
2500.723511271638
 20
1491.479089351616
 30
0.0
 11
2453.923511271641
 21
1538.279089351612
 31
0.0
  0
LINE
  5
131
330
1F
100
AcDbEntity
  8
LAY-10
  6
CONTINUOUS
 62
     7
100
AcDbLine
 10
2500.723511271638
 20
1505.621224975347
 30
0.0
 11
2453.923511271641
 21
1552.421224975343
 31
0.0
  0
LINE
  5
132
330
1F
100
AcDbEntity
  8
LAY-10
  6
CONTINUOUS
 62
     7
100
AcDbLine
 10
2500.723511271638
 20
1519.763360599078
 30
0.0
 11
2453.923511271641
 21
1566.563360599074
 31
0.0
  0
LINE
  5
133
330
1F
100
AcDbEntity
  8
LAY-10
  6
CONTINUOUS
 62
     7
100
AcDbLine
 10
2500.723511271638
 20
1533.905496222809
 30
0.0
 11
2453.923511271641
 21
1580.705496222806
 31
0.0
  0
LINE
  5
134
330
1F
100
AcDbEntity
  8
LAY-10
  6
CONTINUOUS
 62
     7
100
AcDbLine
 10
2500.723511271638
 20
1548.047631846541
 30
0.0
 11
2453.923511271641
 21
1594.847631846536
 31
0.0
  0
LINE
  5
135
330
1F
100
AcDbEntity
  8
LAY-10
  6
CONTINUOUS
 62
     7
100
AcDbLine
 10
2500.723511271638
 20
1562.189767470271
 30
0.0
 11
2453.923511271641
 21
1608.989767470267
 31
0.0
  0
LINE
  5
136
330
1F
100
AcDbEntity
  8
LAY-10
  6
CONTINUOUS
 62
     7
100
AcDbLine
 10
2500.723511271638
 20
1576.331903094002
 30
0.0
 11
2453.923511271641
 21
1623.131903093997
 31
0.0
  0
LINE
  5
137
330
1F
100
AcDbEntity
  8
LAY-10
  6
CONTINUOUS
 62
     7
100
AcDbLine
 10
2500.723511271638
 20
1590.474038717732
 30
0.0
 11
2453.923511271641
 21
1637.274038717729
 31
0.0
  0
LINE
  5
138
330
1F
100
AcDbEntity
  8
LAY-10
  6
CONTINUOUS
 62
     7
100
AcDbLine
 10
2500.723511271638
 20
1604.616174341464
 30
0.0
 11
2453.923511271641
 21
1651.41617434146
 31
0.0
  0
LINE
  5
139
330
1F
100
AcDbEntity
  8
LAY-10
  6
CONTINUOUS
 62
     7
100
AcDbLine
 10
2500.723511271638
 20
1618.758309965194
 30
0.0
 11
2453.923511271641
 21
1665.558309965191
 31
0.0
  0
LINE
  5
13A
330
1F
100
AcDbEntity
  8
LAY-10
  6
CONTINUOUS
 62
     7
100
AcDbLine
 10
2500.723511271638
 20
1632.900445588926
 30
0.0
 11
2453.923511271641
 21
1679.700445588922
 31
0.0
  0
LINE
  5
13B
330
1F
100
AcDbEntity
  8
LAY-10
  6
CONTINUOUS
 62
     7
100
AcDbLine
 10
2500.723511271638
 20
1647.042581212657
 30
0.0
 11
2453.923511271641
 21
1693.842581212652
 31
0.0
  0
LINE
  5
13C
330
1F
100
AcDbEntity
  8
LAY-10
  6
CONTINUOUS
 62
     7
100
AcDbLine
 10
2500.723511271638
 20
1661.184716836387
 30
0.0
 11
2453.923511271641
 21
1707.984716836384
 31
0.0
  0
LINE
  5
13D
330
1F
100
AcDbEntity
  8
LAY-10
  6
CONTINUOUS
 62
     7
100
AcDbLine
 10
2500.723511271638
 20
1675.326852460119
 30
0.0
 11
2453.923511271641
 21
1722.126852460115
 31
0.0
  0
LINE
  5
13E
330
1F
100
AcDbEntity
  8
LAY-10
  6
CONTINUOUS
 62
     7
100
AcDbLine
 10
2500.723511271638
 20
1689.46898808385
 30
0.0
 11
2453.923511271641
 21
1736.268988083846
 31
0.0
  0
LINE
  5
13F
330
1F
100
AcDbEntity
  8
LAY-10
  6
CONTINUOUS
 62
     7
100
AcDbLine
 10
2500.723511271638
 20
1703.611123707581
 30
0.0
 11
2453.923511271641
 21
1750.411123707577
 31
0.0
  0
LINE
  5
140
330
1F
100
AcDbEntity
  8
LAY-10
  6
CONTINUOUS
 62
     7
100
AcDbLine
 10
2500.723511271638
 20
1717.753259331312
 30
0.0
 11
2453.923511271641
 21
1764.553259331307
 31
0.0
  0
LINE
  5
141
330
1F
100
AcDbEntity
  8
LAY-10
  6
CONTINUOUS
 62
     7
100
AcDbLine
 10
2500.723511271638
 20
1731.895394955042
 30
0.0
 11
2453.923511271641
 21
1778.695394955039
 31
0.0
  0
LINE
  5
142
330
1F
100
AcDbEntity
  8
LAY-10
  6
CONTINUOUS
 62
     7
100
AcDbLine
 10
2500.723511271638
 20
1746.037530578774
 30
0.0
 11
2453.923511271641
 21
1792.837530578769
 31
0.0
  0
LINE
  5
143
330
1F
100
AcDbEntity
  8
LAY-10
  6
CONTINUOUS
 62
     7
100
AcDbLine
 10
2500.723511271638
 20
1760.179666202504
 30
0.0
 11
2453.923511271641
 21
1806.979666202501
 31
0.0
  0
LINE
  5
144
330
1F
100
AcDbEntity
  8
LAY-10
  6
CONTINUOUS
 62
     7
100
AcDbLine
 10
2500.723511271638
 20
1774.321801826235
 30
0.0
 11
2453.923511271641
 21
1821.121801826231
 31
0.0
  0
LINE
  5
145
330
1F
100
AcDbEntity
  8
LAY-10
  6
CONTINUOUS
 62
     7
100
AcDbLine
 10
2500.723511271638
 20
1788.463937449966
 30
0.0
 11
2453.923511271641
 21
1835.263937449962
 31
0.0
  0
LINE
  5
146
330
1F
100
AcDbEntity
  8
LAY-10
  6
CONTINUOUS
 62
     7
100
AcDbLine
 10
2500.723511271638
 20
1802.606073073697
 30
0.0
 11
2453.923511271641
 21
1849.406073073694
 31
0.0
  0
LINE
  5
147
330
1F
100
AcDbEntity
  8
LAY-10
  6
CONTINUOUS
 62
     7
100
AcDbLine
 10
2500.723511271638
 20
1816.748208697428
 30
0.0
 11
2453.923511271641
 21
1863.548208697424
 31
0.0
  0
LINE
  5
148
330
1F
100
AcDbEntity
  8
LAY-10
  6
CONTINUOUS
 62
     7
100
AcDbLine
 10
2500.723511271638
 20
1830.890344321159
 30
0.0
 11
2453.923511271641
 21
1877.690344321156
 31
0.0
  0
LINE
  5
149
330
1F
100
AcDbEntity
  8
LAY-10
  6
CONTINUOUS
 62
     7
100
AcDbLine
 10
2500.723511271638
 20
1845.03247994489
 30
0.0
 11
2453.923511271641
 21
1891.832479944886
 31
0.0
  0
LINE
  5
14A
330
1F
100
AcDbEntity
  8
LAY-10
  6
CONTINUOUS
 62
     7
100
AcDbLine
 10
2500.723511271638
 20
1859.17461556862
 30
0.0
 11
2453.923511271641
 21
1905.974615568617
 31
0.0
  0
LINE
  5
14B
330
1F
100
AcDbEntity
  8
LAY-10
  6
CONTINUOUS
 62
     7
100
AcDbLine
 10
2500.723511271638
 20
1873.316751192352
 30
0.0
 11
2453.923511271641
 21
1920.116751192347
 31
0.0
  0
LINE
  5
14C
330
1F
100
AcDbEntity
  8
LAY-10
  6
CONTINUOUS
 62
     7
100
AcDbLine
 10
2500.723511271638
 20
1887.458886816082
 30
0.0
 11
2453.923511271641
 21
1934.258886816079
 31
0.0
  0
LINE
  5
14D
330
1F
100
AcDbEntity
  8
LAY-10
  6
CONTINUOUS
 62
     7
100
AcDbLine
 10
2500.723511271638
 20
1901.601022439814
 30
0.0
 11
2453.923511271641
 21
1948.40102243981
 31
0.0
  0
LINE
  5
14E
330
1F
100
AcDbEntity
  8
LAY-10
  6
CONTINUOUS
 62
     7
100
AcDbLine
 10
2500.723511271638
 20
1915.743158063545
 30
0.0
 11
2453.923511271641
 21
1962.543158063541
 31
0.0
  0
LINE
  5
14F
330
1F
100
AcDbEntity
  8
LAY-10
  6
CONTINUOUS
 62
     7
100
AcDbLine
 10
2500.723511271638
 20
1929.885293687275
 30
0.0
 11
2453.923511271641
 21
1976.685293687272
 31
0.0
  0
LINE
  5
150
330
1F
100
AcDbEntity
  8
LAY-10
  6
CONTINUOUS
 62
     7
100
AcDbLine
 10
2500.723511271638
 20
1944.027429311007
 30
0.0
 11
2453.923511271641
 21
1990.827429311003
 31
0.0
  0
LINE
  5
151
330
1F
100
AcDbEntity
  8
LAY-10
  6
CONTINUOUS
 62
     7
100
AcDbLine
 10
2500.723511271638
 20
1958.169564934738
 30
0.0
 11
2453.923511271641
 21
2004.969564934734
 31
0.0
  0
LINE
  5
152
330
1F
100
AcDbEntity
  8
LAY-10
  6
CONTINUOUS
 62
     7
100
AcDbLine
 10
2500.723511271638
 20
1972.311700558469
 30
0.0
 11
2453.923511271641
 21
2019.111700558465
 31
0.0
  0
LINE
  5
153
330
1F
100
AcDbEntity
  8
LAY-10
  6
CONTINUOUS
 62
     7
100
AcDbLine
 10
2500.723511271638
 20
1986.4538361822
 30
0.0
 11
2453.923511271641
 21
2033.253836182196
 31
0.0
  0
LINE
  5
154
330
1F
100
AcDbEntity
  8
LAY-10
  6
CONTINUOUS
 62
     7
100
AcDbLine
 10
2500.723511271638
 20
2000.595971805931
 30
0.0
 11
2453.923511271641
 21
2047.395971805927
 31
0.0
  0
LINE
  5
155
330
1F
100
AcDbEntity
  8
LAY-10
  6
CONTINUOUS
 62
     7
100
AcDbLine
 10
2500.723511271638
 20
2014.738107429662
 30
0.0
 11
2453.923511271641
 21
2061.538107429658
 31
0.0
  0
LINE
  5
156
330
1F
100
AcDbEntity
  8
LAY-10
  6
CONTINUOUS
 62
     7
100
AcDbLine
 10
2500.723511271638
 20
2028.880243053393
 30
0.0
 11
2453.923511271641
 21
2075.680243053389
 31
0.0
  0
LINE
  5
157
330
1F
100
AcDbEntity
  8
LAY-10
  6
CONTINUOUS
 62
     7
100
AcDbLine
 10
2500.723511271638
 20
2043.022378677124
 30
0.0
 11
2453.923511271641
 21
2089.82237867712
 31
0.0
  0
LINE
  5
158
330
1F
100
AcDbEntity
  8
LAY-10
  6
CONTINUOUS
 62
     7
100
AcDbLine
 10
2500.723511271638
 20
2057.164514300855
 30
0.0
 11
2453.923511271641
 21
2103.96451430085
 31
0.0
  0
LINE
  5
159
330
1F
100
AcDbEntity
  8
LAY-10
  6
CONTINUOUS
 62
     7
100
AcDbLine
 10
2500.723511271638
 20
2071.306649924585
 30
0.0
 11
2453.923511271641
 21
2118.106649924581
 31
0.0
  0
LINE
  5
15A
330
1F
100
AcDbEntity
  8
LAY-10
  6
CONTINUOUS
 62
     7
100
AcDbLine
 10
2500.723511271638
 20
2085.448785548316
 30
0.0
 11
2453.923511271641
 21
2132.248785548312
 31
0.0
  0
LINE
  5
15B
330
1F
100
AcDbEntity
  8
LAY-10
  6
CONTINUOUS
 62
     7
100
AcDbLine
 10
2500.723511271638
 20
2099.590921172047
 30
0.0
 11
2453.923511271641
 21
2146.390921172043
 31
0.0
  0
LINE
  5
15C
330
1F
100
AcDbEntity
  8
LAY-10
  6
CONTINUOUS
 62
     7
100
AcDbLine
 10
2500.723511271638
 20
2113.733056795778
 30
0.0
 11
2453.923511271641
 21
2160.533056795774
 31
0.0
  0
LINE
  5
15D
330
1F
100
AcDbEntity
  8
LAY-10
  6
CONTINUOUS
 62
     7
100
AcDbLine
 10
2500.723511271638
 20
2127.875192419509
 30
0.0
 11
2453.923511271641
 21
2174.675192419505
 31
0.0
  0
LINE
  5
15E
330
1F
100
AcDbEntity
  8
LAY-10
  6
CONTINUOUS
 62
     7
100
AcDbLine
 10
2500.723511271638
 20
2142.01732804324
 30
0.0
 11
2453.923511271641
 21
2188.817328043236
 31
0.0
  0
LINE
  5
15F
330
1F
100
AcDbEntity
  8
LAY-10
  6
CONTINUOUS
 62
     7
100
AcDbLine
 10
2500.723511271638
 20
2156.159463666971
 30
0.0
 11
2453.923511271641
 21
2202.959463666967
 31
0.0
  0
LINE
  5
160
330
1F
100
AcDbEntity
  8
LAY-10
  6
CONTINUOUS
 62
     7
100
AcDbLine
 10
2500.723511271638
 20
2170.301599290702
 30
0.0
 11
2453.923511271641
 21
2217.101599290698
 31
0.0
  0
LINE
  5
161
330
1F
100
AcDbEntity
  8
LAY-10
  6
CONTINUOUS
 62
     7
100
AcDbLine
 10
2500.723511271638
 20
2184.443734914433
 30
0.0
 11
2453.923511271641
 21
2231.243734914429
 31
0.0
  0
LINE
  5
162
330
1F
100
AcDbEntity
  8
LAY-10
  6
CONTINUOUS
 62
     7
100
AcDbLine
 10
2500.723511271638
 20
2198.585870538163
 30
0.0
 11
2453.923511271641
 21
2245.38587053816
 31
0.0
  0
LINE
  5
163
330
1F
100
AcDbEntity
  8
LAY-10
  6
CONTINUOUS
 62
     7
100
AcDbLine
 10
2500.723511271638
 20
2212.728006161895
 30
0.0
 11
2458.580826096294
 21
2254.870691337238
 31
0.0
  0
LINE
  5
164
330
1F
100
AcDbEntity
  8
LAY-10
  6
CONTINUOUS
 62
     7
100
AcDbLine
 10
2500.723511271638
 20
2226.870141785625
 30
0.0
 11
2472.722961720025
 21
2254.870691337238
 31
0.0
  0
LINE
  5
165
330
1F
100
AcDbEntity
  8
LAY-10
  6
CONTINUOUS
 62
     7
100
AcDbLine
 10
2500.723511271638
 20
2241.012277409357
 30
0.0
 11
2486.865097343756
 21
2254.870691337238
 31
0.0
  0
LINE
  5
166
330
1F
100
AcDbEntity
  8
LAY-10
  6
CONTINUOUS
 62
     7
100
AcDbLine
 10
376.4076841562807
 20
767.1521682779945
 30
0.0
 11
386.6075656337842
 21
777.3520497554983
 31
0.0
  0
LINE
  5
167
330
1F
100
AcDbEntity
  8
LAY-10
  6
CONTINUOUS
 62
     7
100
AcDbLine
 10
376.4076841562807
 20
753.0100326542638
 30
0.0
 11
400.7497012575151
 21
777.3520497554983
 31
0.0
  0
LINE
  5
168
330
1F
100
AcDbEntity
  8
LAY-10
  6
CONTINUOUS
 62
     7
100
AcDbLine
 10
376.4076841562807
 20
738.8678970305327
 30
0.0
 11
414.8918368812461
 21
777.3520497554983
 31
0.0
  0
LINE
  5
169
330
1F
100
AcDbEntity
  8
LAY-10
  6
CONTINUOUS
 62
     7
100
AcDbLine
 10
382.2339725049682
 20
730.5520497554894
 30
0.0
 11
429.033972504977
 21
777.3520497554983
 31
0.0
  0
LINE
  5
16A
330
1F
100
AcDbEntity
  8
LAY-10
  6
CONTINUOUS
 62
     7
100
AcDbLine
 10
396.376108128699
 20
730.5520497554894
 30
0.0
 11
443.1761081287081
 21
777.3520497554983
 31
0.0
  0
LINE
  5
16B
330
1F
100
AcDbEntity
  8
LAY-10
  6
CONTINUOUS
 62
     7
100
AcDbLine
 10
410.5182437524301
 20
730.5520497554894
 30
0.0
 11
457.3182437524389
 21
777.3520497554983
 31
0.0
  0
LINE
  5
16C
330
1F
100
AcDbEntity
  8
LAY-10
  6
CONTINUOUS
 62
     7
100
AcDbLine
 10
424.6603793761611
 20
730.5520497554894
 30
0.0
 11
471.46037937617
 21
777.3520497554983
 31
0.0
  0
LINE
  5
16D
330
1F
100
AcDbEntity
  8
LAY-10
  6
CONTINUOUS
 62
     7
100
AcDbLine
 10
438.802514999892
 20
730.5520497554894
 30
0.0
 11
485.6025149999008
 21
777.3520497554983
 31
0.0
  0
LINE
  5
16E
330
1F
100
AcDbEntity
  8
LAY-10
  6
CONTINUOUS
 62
     7
100
AcDbLine
 10
452.9446506236228
 20
730.5520497554894
 30
0.0
 11
499.7446506236319
 21
777.3520497554983
 31
0.0
  0
LINE
  5
16F
330
1F
100
AcDbEntity
  8
LAY-10
  6
CONTINUOUS
 62
     7
100
AcDbLine
 10
467.0867862473539
 20
730.5520497554894
 30
0.0
 11
513.8867862473627
 21
777.3520497554983
 31
0.0
  0
LINE
  5
170
330
1F
100
AcDbEntity
  8
LAY-10
  6
CONTINUOUS
 62
     7
100
AcDbLine
 10
481.2289218710848
 20
730.5520497554894
 30
0.0
 11
528.0289218710938
 21
777.3520497554983
 31
0.0
  0
LINE
  5
171
330
1F
100
AcDbEntity
  8
LAY-10
  6
CONTINUOUS
 62
     7
100
AcDbLine
 10
495.3710574948155
 20
730.5520497554894
 30
0.0
 11
542.1710574948246
 21
777.3520497554983
 31
0.0
  0
LINE
  5
172
330
1F
100
AcDbEntity
  8
LAY-10
  6
CONTINUOUS
 62
     7
100
AcDbLine
 10
509.5131931185466
 20
730.5520497554894
 30
0.0
 11
556.3131931185557
 21
777.3520497554983
 31
0.0
  0
LINE
  5
173
330
1F
100
AcDbEntity
  8
LAY-10
  6
CONTINUOUS
 62
     7
100
AcDbLine
 10
523.6553287422777
 20
730.5520497554894
 30
0.0
 11
570.4553287422864
 21
777.3520497554983
 31
0.0
  0
LINE
  5
174
330
1F
100
AcDbEntity
  8
LAY-10
  6
CONTINUOUS
 62
     7
100
AcDbLine
 10
537.7974643660085
 20
730.5520497554894
 30
0.0
 11
584.5974643660174
 21
777.3520497554978
 31
0.0
  0
LINE
  5
175
330
1F
100
AcDbEntity
  8
LAY-10
  6
CONTINUOUS
 62
     7
100
AcDbLine
 10
551.9395999897393
 20
730.5520497554894
 30
0.0
 11
598.7395999897485
 21
777.3520497554983
 31
0.0
  0
LINE
  5
176
330
1F
100
AcDbEntity
  8
LAY-10
  6
CONTINUOUS
 62
     7
100
AcDbLine
 10
566.0817356134703
 20
730.5520497554894
 30
0.0
 11
612.8817356134791
 21
777.3520497554983
 31
0.0
  0
LINE
  5
177
330
1F
100
AcDbEntity
  8
LAY-10
  6
CONTINUOUS
 62
     7
100
AcDbLine
 10
580.2238712372014
 20
730.5520497554894
 30
0.0
 11
627.0238712372102
 21
777.3520497554978
 31
0.0
  0
LINE
  5
178
330
1F
100
AcDbEntity
  8
LAY-10
  6
CONTINUOUS
 62
     7
100
AcDbLine
 10
594.3660068609322
 20
730.5520497554894
 30
0.0
 11
641.1660068609413
 21
777.3520497554983
 31
0.0
  0
LINE
  5
179
330
1F
100
AcDbEntity
  8
LAY-10
  6
CONTINUOUS
 62
     7
100
AcDbLine
 10
608.5081424846633
 20
730.5520497554894
 30
0.0
 11
655.3081424846723
 21
777.3520497554978
 31
0.0
  0
LINE
  5
17A
330
1F
100
AcDbEntity
  8
LAY-10
  6
CONTINUOUS
 62
     7
100
AcDbLine
 10
622.6502781083941
 20
730.5520497554894
 30
0.0
 11
669.4502781084032
 21
777.3520497554983
 31
0.0
  0
LINE
  5
17B
330
1F
100
AcDbEntity
  8
LAY-10
  6
CONTINUOUS
 62
     7
100
AcDbLine
 10
636.7924137321252
 20
730.5520497554894
 30
0.0
 11
683.592413732134
 21
777.3520497554983
 31
0.0
  0
LINE
  5
17C
330
1F
100
AcDbEntity
  8
LAY-10
  6
CONTINUOUS
 62
     7
100
AcDbLine
 10
650.9345493558559
 20
730.5520497554894
 30
0.0
 11
697.734549355865
 21
777.3520497554978
 31
0.0
  0
LINE
  5
17D
330
1F
100
AcDbEntity
  8
LAY-10
  6
CONTINUOUS
 62
     7
100
AcDbLine
 10
665.0766849795868
 20
730.5520497554894
 30
0.0
 11
711.8766849795959
 21
777.3520497554983
 31
0.0
  0
LINE
  5
17E
330
1F
100
AcDbEntity
  8
LAY-10
  6
CONTINUOUS
 62
     7
100
AcDbLine
 10
679.2188206033179
 20
730.5520497554894
 30
0.0
 11
726.018820603327
 21
777.3520497554978
 31
0.0
  0
LINE
  5
17F
330
1F
100
AcDbEntity
  8
LAY-10
  6
CONTINUOUS
 62
     7
100
AcDbLine
 10
693.360956227049
 20
730.5520497554894
 30
0.0
 11
740.1609562270577
 21
777.3520497554983
 31
0.0
  0
LINE
  5
180
330
1F
100
AcDbEntity
  8
LAY-10
  6
CONTINUOUS
 62
     7
100
AcDbLine
 10
707.50309185078
 20
730.5520497554894
 30
0.0
 11
754.3030918507887
 21
777.3520497554983
 31
0.0
  0
LINE
  5
181
330
1F
100
AcDbEntity
  8
LAY-10
  6
CONTINUOUS
 62
     7
100
AcDbLine
 10
721.6452274745106
 20
730.5520497554894
 30
0.0
 11
768.44522747452
 21
777.3520497554978
 31
0.0
  0
LINE
  5
182
330
1F
100
AcDbEntity
  8
LAY-10
  6
CONTINUOUS
 62
     7
100
AcDbLine
 10
735.7873630982417
 20
730.5520497554894
 30
0.0
 11
782.5873630982505
 21
777.3520497554983
 31
0.0
  0
LINE
  5
183
330
1F
100
AcDbEntity
  8
LAY-10
  6
CONTINUOUS
 62
     7
100
AcDbLine
 10
749.9294987219728
 20
730.5520497554894
 30
0.0
 11
796.7294987219816
 21
777.3520497554978
 31
0.0
  0
LINE
  5
184
330
1F
100
AcDbEntity
  8
LAY-10
  6
CONTINUOUS
 62
     7
100
AcDbLine
 10
764.0716343457036
 20
730.5520497554894
 30
0.0
 11
810.8716343457127
 21
777.3520497554983
 31
0.0
  0
LINE
  5
185
330
1F
100
AcDbEntity
  8
LAY-10
  6
CONTINUOUS
 62
     7
100
AcDbLine
 10
778.2137699694347
 20
730.5520497554894
 30
0.0
 11
825.0137699694435
 21
777.3520497554983
 31
0.0
  0
LINE
  5
186
330
1F
100
AcDbEntity
  8
LAY-10
  6
CONTINUOUS
 62
     7
100
AcDbLine
 10
792.3559055931656
 20
730.5520497554894
 30
0.0
 11
839.1559055931746
 21
777.3520497554978
 31
0.0
  0
LINE
  5
187
330
1F
100
AcDbEntity
  8
LAY-10
  6
CONTINUOUS
 62
     7
100
AcDbLine
 10
806.4980412168967
 20
730.5520497554894
 30
0.0
 11
853.2980412169054
 21
777.3520497554983
 31
0.0
  0
LINE
  5
188
330
1F
100
AcDbEntity
  8
LAY-10
  6
CONTINUOUS
 62
     7
100
AcDbLine
 10
820.6401768406278
 20
730.5520497554894
 30
0.0
 11
867.4401768406365
 21
777.3520497554978
 31
0.0
  0
LINE
  5
189
330
1F
100
AcDbEntity
  8
LAY-10
  6
CONTINUOUS
 62
     7
100
AcDbLine
 10
834.7823124643583
 20
730.5520497554894
 30
0.0
 11
881.5823124643674
 21
777.3520497554983
 31
0.0
  0
LINE
  5
18A
330
1F
100
AcDbEntity
  8
LAY-10
  6
CONTINUOUS
 62
     7
100
AcDbLine
 10
848.9244480880893
 20
730.5520497554894
 30
0.0
 11
895.7244480880981
 21
777.3520497554983
 31
0.0
  0
LINE
  5
18B
330
1F
100
AcDbEntity
  8
LAY-10
  6
CONTINUOUS
 62
     7
100
AcDbLine
 10
863.0665837118204
 20
730.5520497554894
 30
0.0
 11
909.8665837118292
 21
777.3520497554978
 31
0.0
  0
LINE
  5
18C
330
1F
100
AcDbEntity
  8
LAY-10
  6
CONTINUOUS
 62
     7
100
AcDbLine
 10
877.2087193355512
 20
730.5520497554894
 30
0.0
 11
924.0087193355603
 21
777.3520497554983
 31
0.0
  0
LINE
  5
18D
330
1F
100
AcDbEntity
  8
LAY-10
  6
CONTINUOUS
 62
     7
100
AcDbLine
 10
891.3508549592823
 20
730.5520497554894
 30
0.0
 11
938.1508549592913
 21
777.3520497554978
 31
0.0
  0
LINE
  5
18E
330
1F
100
AcDbEntity
  8
LAY-10
  6
CONTINUOUS
 62
     7
100
AcDbLine
 10
905.4929905830131
 20
730.5520497554894
 30
0.0
 11
952.292990583022
 21
777.3520497554978
 31
0.0
  0
LINE
  5
18F
330
1F
100
AcDbEntity
  8
LAY-10
  6
CONTINUOUS
 62
     7
100
AcDbLine
 10
919.6351262067442
 20
730.5520497554894
 30
0.0
 11
966.435126206753
 21
777.3520497554978
 31
0.0
  0
LINE
  5
190
330
1F
100
AcDbEntity
  8
LAY-10
  6
CONTINUOUS
 62
     7
100
AcDbLine
 10
933.7772618304753
 20
730.5520497554894
 30
0.0
 11
980.5772618304843
 21
777.3520497554978
 31
0.0
  0
LINE
  5
191
330
1F
100
AcDbEntity
  8
LAY-10
  6
CONTINUOUS
 62
     7
100
AcDbLine
 10
947.9193974542059
 20
730.5520497554894
 30
0.0
 11
994.7193974542154
 21
777.3520497554983
 31
0.0
  0
LINE
  5
192
330
1F
100
AcDbEntity
  8
LAY-10
  6
CONTINUOUS
 62
     7
100
AcDbLine
 10
962.0615330779369
 20
730.5520497554894
 30
0.0
 11
1008.861533077946
 21
777.3520497554978
 31
0.0
  0
LINE
  5
193
330
1F
100
AcDbEntity
  8
LAY-10
  6
CONTINUOUS
 62
     7
100
AcDbLine
 10
976.2036687016681
 20
730.5520497554894
 30
0.0
 11
1023.003668701677
 21
777.3520497554978
 31
0.0
  0
LINE
  5
194
330
1F
100
AcDbEntity
  8
LAY-10
  6
CONTINUOUS
 62
     7
100
AcDbLine
 10
990.3458043253992
 20
730.5520497554894
 30
0.0
 11
1037.145804325408
 21
777.3520497554978
 31
0.0
  0
LINE
  5
195
330
1F
100
AcDbEntity
  8
LAY-10
  6
CONTINUOUS
 62
     7
100
AcDbLine
 10
1004.48793994913
 20
730.5520497554894
 30
0.0
 11
1051.287939949139
 21
777.3520497554978
 31
0.0
  0
LINE
  5
196
330
1F
100
AcDbEntity
  8
LAY-10
  6
CONTINUOUS
 62
     7
100
AcDbLine
 10
1018.630075572861
 20
730.5520497554894
 30
0.0
 11
1065.43007557287
 21
777.3520497554983
 31
0.0
  0
LINE
  5
197
330
1F
100
AcDbEntity
  8
LAY-10
  6
CONTINUOUS
 62
     7
100
AcDbLine
 10
1032.772211196592
 20
730.5520497554894
 30
0.0
 11
1079.572211196601
 21
777.3520497554978
 31
0.0
  0
LINE
  5
198
330
1F
100
AcDbEntity
  8
LAY-10
  6
CONTINUOUS
 62
     7
100
AcDbLine
 10
1046.914346820323
 20
730.552049755489
 30
0.0
 11
1093.714346820332
 21
777.3520497554978
 31
0.0
  0
LINE
  5
199
330
1F
100
AcDbEntity
  8
LAY-10
  6
CONTINUOUS
 62
     7
100
AcDbLine
 10
1061.056482444054
 20
730.5520497554894
 30
0.0
 11
1107.856482444063
 21
777.3520497554978
 31
0.0
  0
LINE
  5
19A
330
1F
100
AcDbEntity
  8
LAY-10
  6
CONTINUOUS
 62
     7
100
AcDbLine
 10
1075.198618067785
 20
730.5520497554894
 30
0.0
 11
1121.998618067794
 21
777.3520497554978
 31
0.0
  0
LINE
  5
19B
330
1F
100
AcDbEntity
  8
LAY-10
  6
CONTINUOUS
 62
     7
100
AcDbLine
 10
1089.340753691516
 20
730.5520497554894
 30
0.0
 11
1136.140753691524
 21
777.3520497554983
 31
0.0
  0
LINE
  5
19C
330
1F
100
AcDbEntity
  8
LAY-10
  6
CONTINUOUS
 62
     7
100
AcDbLine
 10
1103.482889315247
 20
730.5520497554894
 30
0.0
 11
1150.282889315255
 21
777.3520497554978
 31
0.0
  0
LINE
  5
19D
330
1F
100
AcDbEntity
  8
LAY-10
  6
CONTINUOUS
 62
     7
100
AcDbLine
 10
1117.625024938977
 20
730.552049755489
 30
0.0
 11
1164.425024938987
 21
777.3520497554978
 31
0.0
  0
LINE
  5
19E
330
1F
100
AcDbEntity
  8
LAY-10
  6
CONTINUOUS
 62
     7
100
AcDbLine
 10
1131.767160562708
 20
730.5520497554894
 30
0.0
 11
1178.567160562718
 21
777.3520497554978
 31
0.0
  0
LINE
  5
19F
330
1F
100
AcDbEntity
  8
LAY-10
  6
CONTINUOUS
 62
     7
100
AcDbLine
 10
1145.909296186439
 20
730.5520497554894
 30
0.0
 11
1192.709296186448
 21
777.3520497554978
 31
0.0
  0
LINE
  5
1A0
330
1F
100
AcDbEntity
  8
LAY-10
  6
CONTINUOUS
 62
     7
100
AcDbLine
 10
1160.05143181017
 20
730.5520497554894
 30
0.0
 11
1206.851431810179
 21
777.3520497554978
 31
0.0
  0
LINE
  5
1A1
330
1F
100
AcDbEntity
  8
LAY-10
  6
CONTINUOUS
 62
     7
100
AcDbLine
 10
1174.193567433902
 20
730.5520497554894
 30
0.0
 11
1220.99356743391
 21
777.3520497554978
 31
0.0
  0
LINE
  5
1A2
330
1F
100
AcDbEntity
  8
LAY-10
  6
CONTINUOUS
 62
     7
100
AcDbLine
 10
1188.335703057632
 20
730.552049755489
 30
0.0
 11
1235.135703057641
 21
777.3520497554978
 31
0.0
  0
LINE
  5
1A3
330
1F
100
AcDbEntity
  8
LAY-10
  6
CONTINUOUS
 62
     7
100
AcDbLine
 10
1202.477838681363
 20
730.5520497554894
 30
0.0
 11
1249.277838681372
 21
777.3520497554978
 31
0.0
  0
LINE
  5
1A4
330
1F
100
AcDbEntity
  8
LAY-10
  6
CONTINUOUS
 62
     7
100
AcDbLine
 10
1216.619974305094
 20
730.5520497554894
 30
0.0
 11
1263.419974305103
 21
777.3520497554978
 31
0.0
  0
LINE
  5
1A5
330
1F
100
AcDbEntity
  8
LAY-10
  6
CONTINUOUS
 62
     7
100
AcDbLine
 10
1230.762109928825
 20
730.5520497554894
 30
0.0
 11
1277.562109928834
 21
777.3520497554978
 31
0.0
  0
LINE
  5
1A6
330
1F
100
AcDbEntity
  8
LAY-10
  6
CONTINUOUS
 62
     7
100
AcDbLine
 10
1244.904245552556
 20
730.5520497554894
 30
0.0
 11
1291.704245552565
 21
777.3520497554978
 31
0.0
  0
LINE
  5
1A7
330
1F
100
AcDbEntity
  8
LAY-10
  6
CONTINUOUS
 62
     7
100
AcDbLine
 10
1259.046381176287
 20
730.552049755489
 30
0.0
 11
1305.846381176296
 21
777.3520497554978
 31
0.0
  0
LINE
  5
1A8
330
1F
100
AcDbEntity
  8
LAY-10
  6
CONTINUOUS
 62
     7
100
AcDbLine
 10
1273.188516800018
 20
730.5520497554894
 30
0.0
 11
1319.988516800027
 21
777.3520497554978
 31
0.0
  0
LINE
  5
1A9
330
1F
100
AcDbEntity
  8
LAY-10
  6
CONTINUOUS
 62
     7
100
AcDbLine
 10
1287.330652423749
 20
730.5520497554894
 30
0.0
 11
1334.130652423758
 21
777.3520497554978
 31
0.0
  0
LINE
  5
1AA
330
1F
100
AcDbEntity
  8
LAY-10
  6
CONTINUOUS
 62
     7
100
AcDbLine
 10
1301.47278804748
 20
730.5520497554894
 30
0.0
 11
1348.272788047489
 21
777.3520497554978
 31
0.0
  0
LINE
  5
1AB
330
1F
100
AcDbEntity
  8
LAY-10
  6
CONTINUOUS
 62
     7
100
AcDbLine
 10
1315.614923671211
 20
730.5520497554894
 30
0.0
 11
1362.41492367122
 21
777.3520497554978
 31
0.0
  0
LINE
  5
1AC
330
1F
100
AcDbEntity
  8
LAY-10
  6
CONTINUOUS
 62
     7
100
AcDbLine
 10
1329.757059294942
 20
730.552049755489
 30
0.0
 11
1376.557059294951
 21
777.3520497554978
 31
0.0
  0
LINE
  5
1AD
330
1F
100
AcDbEntity
  8
LAY-10
  6
CONTINUOUS
 62
     7
100
AcDbLine
 10
1343.899194918673
 20
730.5520497554894
 30
0.0
 11
1390.699194918682
 21
777.3520497554978
 31
0.0
  0
LINE
  5
1AE
330
1F
100
AcDbEntity
  8
LAY-10
  6
CONTINUOUS
 62
     7
100
AcDbLine
 10
1358.041330542404
 20
730.5520497554894
 30
0.0
 11
1404.841330542413
 21
777.3520497554978
 31
0.0
  0
LINE
  5
1AF
330
1F
100
AcDbEntity
  8
LAY-10
  6
CONTINUOUS
 62
     7
100
AcDbLine
 10
1372.183466166135
 20
730.5520497554894
 30
0.0
 11
1418.983466166143
 21
777.3520497554978
 31
0.0
  0
LINE
  5
1B0
330
1F
100
AcDbEntity
  8
LAY-10
  6
CONTINUOUS
 62
     7
100
AcDbLine
 10
1386.325601789866
 20
730.5520497554894
 30
0.0
 11
1433.125601789875
 21
777.3520497554978
 31
0.0
  0
LINE
  5
1B1
330
1F
100
AcDbEntity
  8
LAY-10
  6
CONTINUOUS
 62
     7
100
AcDbLine
 10
1400.467737413597
 20
730.552049755489
 30
0.0
 11
1447.267737413606
 21
777.3520497554978
 31
0.0
  0
LINE
  5
1B2
330
1F
100
AcDbEntity
  8
LAY-10
  6
CONTINUOUS
 62
     7
100
AcDbLine
 10
1414.609873037327
 20
730.5520497554894
 30
0.0
 11
1461.409873037336
 21
777.3520497554978
 31
0.0
  0
LINE
  5
1B3
330
1F
100
AcDbEntity
  8
LAY-10
  6
CONTINUOUS
 62
     7
100
AcDbLine
 10
1428.752008661058
 20
730.5520497554894
 30
0.0
 11
1475.552008661067
 21
777.3520497554978
 31
0.0
  0
LINE
  5
1B4
330
1F
100
AcDbEntity
  8
LAY-10
  6
CONTINUOUS
 62
     7
100
AcDbLine
 10
1442.894144284789
 20
730.5520497554894
 30
0.0
 11
1489.694144284786
 21
777.352049755485
 31
0.0
  0
LINE
  5
1B5
330
1F
100
AcDbEntity
  8
LAY-10
  6
CONTINUOUS
 62
     7
100
AcDbLine
 10
1457.036279908521
 20
730.5520497554894
 30
0.0
 11
1503.836279908517
 21
777.352049755485
 31
0.0
  0
LINE
  5
1B6
330
1F
100
AcDbEntity
  8
LAY-10
  6
CONTINUOUS
 62
     7
100
AcDbLine
 10
1471.178415532251
 20
730.552049755489
 30
0.0
 11
1517.978415532247
 21
777.352049755485
 31
0.0
  0
LINE
  5
1B7
330
1F
100
AcDbEntity
  8
LAY-10
  6
CONTINUOUS
 62
     7
100
AcDbLine
 10
1485.320551155982
 20
730.5520497554894
 30
0.0
 11
1532.120551155978
 21
777.352049755485
 31
0.0
  0
LINE
  5
1B8
330
1F
100
AcDbEntity
  8
LAY-10
  6
CONTINUOUS
 62
     7
100
AcDbLine
 10
1499.462686779713
 20
730.552049755489
 30
0.0
 11
1546.262686779709
 21
777.352049755485
 31
0.0
  0
LINE
  5
1B9
330
1F
100
AcDbEntity
  8
LAY-10
  6
CONTINUOUS
 62
     7
100
AcDbLine
 10
1513.604822403444
 20
730.5520497554894
 30
0.0
 11
1560.40482240344
 21
777.352049755485
 31
0.0
  0
LINE
  5
1BA
330
1F
100
AcDbEntity
  8
LAY-10
  6
CONTINUOUS
 62
     7
100
AcDbLine
 10
1527.746958027175
 20
730.5520497554894
 30
0.0
 11
1574.546958027171
 21
777.352049755485
 31
0.0
  0
LINE
  5
1BB
330
1F
100
AcDbEntity
  8
LAY-10
  6
CONTINUOUS
 62
     7
100
AcDbLine
 10
1541.889093650906
 20
730.552049755489
 30
0.0
 11
1588.689093650902
 21
777.352049755485
 31
0.0
  0
LINE
  5
1BC
330
1F
100
AcDbEntity
  8
LAY-10
  6
CONTINUOUS
 62
     7
100
AcDbLine
 10
1556.031229274637
 20
730.5520497554894
 30
0.0
 11
1602.831229274633
 21
777.352049755485
 31
0.0
  0
LINE
  5
1BD
330
1F
100
AcDbEntity
  8
LAY-10
  6
CONTINUOUS
 62
     7
100
AcDbLine
 10
1570.173364898368
 20
730.552049755489
 30
0.0
 11
1616.973364898364
 21
777.352049755485
 31
0.0
  0
LINE
  5
1BE
330
1F
100
AcDbEntity
  8
LAY-10
  6
CONTINUOUS
 62
     7
100
AcDbLine
 10
1584.315500522099
 20
730.5520497554894
 30
0.0
 11
1631.115500522095
 21
777.352049755485
 31
0.0
  0
LINE
  5
1BF
330
1F
100
AcDbEntity
  8
LAY-10
  6
CONTINUOUS
 62
     7
100
AcDbLine
 10
1598.45763614583
 20
730.5520497554894
 30
0.0
 11
1645.257636145826
 21
777.352049755485
 31
0.0
  0
LINE
  5
1C0
330
1F
100
AcDbEntity
  8
LAY-10
  6
CONTINUOUS
 62
     7
100
AcDbLine
 10
1612.599771769561
 20
730.552049755489
 30
0.0
 11
1659.399771769557
 21
777.352049755485
 31
0.0
  0
LINE
  5
1C1
330
1F
100
AcDbEntity
  8
LAY-10
  6
CONTINUOUS
 62
     7
100
AcDbLine
 10
1626.741907393292
 20
730.5520497554894
 30
0.0
 11
1673.541907393288
 21
777.352049755485
 31
0.0
  0
LINE
  5
1C2
330
1F
100
AcDbEntity
  8
LAY-10
  6
CONTINUOUS
 62
     7
100
AcDbLine
 10
1640.884043017023
 20
730.552049755489
 30
0.0
 11
1687.684043017019
 21
777.352049755485
 31
0.0
  0
LINE
  5
1C3
330
1F
100
AcDbEntity
  8
LAY-10
  6
CONTINUOUS
 62
     7
100
AcDbLine
 10
1655.026178640754
 20
730.552049755489
 30
0.0
 11
1701.82617864075
 21
777.352049755485
 31
0.0
  0
LINE
  5
1C4
330
1F
100
AcDbEntity
  8
LAY-10
  6
CONTINUOUS
 62
     7
100
AcDbLine
 10
1669.168314264485
 20
730.5520497554894
 30
0.0
 11
1715.968314264481
 21
777.352049755485
 31
0.0
  0
LINE
  5
1C5
330
1F
100
AcDbEntity
  8
LAY-10
  6
CONTINUOUS
 62
     7
100
AcDbLine
 10
1683.310449888215
 20
730.552049755489
 30
0.0
 11
1730.110449888211
 21
777.352049755485
 31
0.0
  0
LINE
  5
1C6
330
1F
100
AcDbEntity
  8
LAY-10
  6
CONTINUOUS
 62
     7
100
AcDbLine
 10
1697.452585511946
 20
730.5520497554894
 30
0.0
 11
1744.252585511942
 21
777.352049755485
 31
0.0
  0
LINE
  5
1C7
330
1F
100
AcDbEntity
  8
LAY-10
  6
CONTINUOUS
 62
     7
100
AcDbLine
 10
1711.594721135677
 20
730.552049755489
 30
0.0
 11
1758.394721135674
 21
777.352049755485
 31
0.0
  0
LINE
  5
1C8
330
1F
100
AcDbEntity
  8
LAY-10
  6
CONTINUOUS
 62
     7
100
AcDbLine
 10
1725.736856759409
 20
730.5520497554894
 30
0.0
 11
1772.536856759405
 21
777.352049755485
 31
0.0
  0
LINE
  5
1C9
330
1F
100
AcDbEntity
  8
LAY-10
  6
CONTINUOUS
 62
     7
100
AcDbLine
 10
1739.878992383139
 20
730.5520497554894
 30
0.0
 11
1786.678992383135
 21
777.352049755485
 31
0.0
  0
LINE
  5
1CA
330
1F
100
AcDbEntity
  8
LAY-10
  6
CONTINUOUS
 62
     7
100
AcDbLine
 10
1754.02112800687
 20
730.5520497554894
 30
0.0
 11
1800.821128006866
 21
777.352049755485
 31
0.0
  0
LINE
  5
1CB
330
1F
100
AcDbEntity
  8
LAY-10
  6
CONTINUOUS
 62
     7
100
AcDbLine
 10
1768.163263630601
 20
730.5520497554894
 30
0.0
 11
1814.963263630597
 21
777.352049755485
 31
0.0
  0
LINE
  5
1CC
330
1F
100
AcDbEntity
  8
LAY-10
  6
CONTINUOUS
 62
     7
100
AcDbLine
 10
1782.305399254332
 20
730.552049755489
 30
0.0
 11
1829.105399254328
 21
777.352049755485
 31
0.0
  0
LINE
  5
1CD
330
1F
100
AcDbEntity
  8
LAY-10
  6
CONTINUOUS
 62
     7
100
AcDbLine
 10
1796.447534878063
 20
730.5520497554894
 30
0.0
 11
1843.247534878059
 21
777.352049755485
 31
0.0
  0
LINE
  5
1CE
330
1F
100
AcDbEntity
  8
LAY-10
  6
CONTINUOUS
 62
     7
100
AcDbLine
 10
1810.589670501794
 20
730.5520497554894
 30
0.0
 11
1857.38967050179
 21
777.352049755485
 31
0.0
  0
LINE
  5
1CF
330
1F
100
AcDbEntity
  8
LAY-10
  6
CONTINUOUS
 62
     7
100
AcDbLine
 10
1824.731806125525
 20
730.552049755489
 30
0.0
 11
1871.531806125521
 21
777.352049755485
 31
0.0
  0
LINE
  5
1D0
330
1F
100
AcDbEntity
  8
LAY-10
  6
CONTINUOUS
 62
     7
100
AcDbLine
 10
1838.873941749256
 20
730.5520497554894
 30
0.0
 11
1885.673941749252
 21
777.352049755485
 31
0.0
  0
LINE
  5
1D1
330
1F
100
AcDbEntity
  8
LAY-10
  6
CONTINUOUS
 62
     7
100
AcDbLine
 10
1853.016077372987
 20
730.552049755489
 30
0.0
 11
1899.816077372983
 21
777.352049755485
 31
0.0
  0
LINE
  5
1D2
330
1F
100
AcDbEntity
  8
LAY-10
  6
CONTINUOUS
 62
     7
100
AcDbLine
 10
1867.158212996718
 20
730.5520497554894
 30
0.0
 11
1913.958212996714
 21
777.352049755485
 31
0.0
  0
LINE
  5
1D3
330
1F
100
AcDbEntity
  8
LAY-10
  6
CONTINUOUS
 62
     7
100
AcDbLine
 10
1881.300348620449
 20
730.5520497554894
 30
0.0
 11
1928.100348620445
 21
777.352049755485
 31
0.0
  0
LINE
  5
1D4
330
1F
100
AcDbEntity
  8
LAY-10
  6
CONTINUOUS
 62
     7
100
AcDbLine
 10
1895.44248424418
 20
730.5520497554894
 30
0.0
 11
1942.242484244176
 21
777.352049755485
 31
0.0
  0
LINE
  5
1D5
330
1F
100
AcDbEntity
  8
LAY-10
  6
CONTINUOUS
 62
     7
100
AcDbLine
 10
1909.584619867911
 20
730.552049755489
 30
0.0
 11
1956.384619867907
 21
777.352049755485
 31
0.0
  0
LINE
  5
1D6
330
1F
100
AcDbEntity
  8
LAY-10
  6
CONTINUOUS
 62
     7
100
AcDbLine
 10
1923.726755491642
 20
730.552049755489
 30
0.0
 11
1957.207684156284
 21
764.0329784201308
 31
0.0
  0
LINE
  5
1D7
330
1F
100
AcDbEntity
  8
LAY-10
  6
CONTINUOUS
 62
     7
100
AcDbLine
 10
1937.868891115373
 20
730.5520497554894
 30
0.0
 11
1957.207684156284
 21
749.8908427964002
 31
0.0
  0
LINE
  5
1D8
330
1F
100
AcDbEntity
  8
LAY-10
  6
CONTINUOUS
 62
     7
100
AcDbLine
 10
1952.011026739103
 20
730.5520497554894
 30
0.0
 11
1957.207684156284
 21
735.7487071726687
 31
0.0
  0
LINE
  5
1D9
330
1F
100
AcDbEntity
  8
LAY-10
  6
CONTINUOUS
 62
     7
100
AcDbLine
 10
385.5380419609307
 20
730.5520497555049
 30
0.0
 11
376.4076841562893
 21
739.6824075601457
 31
0.0
  0
LINE
  5
1DA
330
1F
100
AcDbEntity
  8
LAY-10
  6
CONTINUOUS
 62
     7
100
AcDbLine
 10
399.6801775846615
 20
730.5520497555049
 30
0.0
 11
376.4076841562893
 21
753.8245431838768
 31
0.0
  0
LINE
  5
1DB
330
1F
100
AcDbEntity
  8
LAY-10
  6
CONTINUOUS
 62
     7
100
AcDbLine
 10
413.8223132083925
 20
730.5520497555049
 30
0.0
 11
376.4076841562893
 21
767.9666788076079
 31
0.0
  0
LINE
  5
1DC
330
1F
100
AcDbEntity
  8
LAY-10
  6
CONTINUOUS
 62
     7
100
AcDbLine
 10
427.9644488321234
 20
730.5520497555049
 30
0.0
 11
381.1644488321402
 21
777.3520497554878
 31
0.0
  0
LINE
  5
1DD
330
1F
100
AcDbEntity
  8
LAY-10
  6
CONTINUOUS
 62
     7
100
AcDbLine
 10
442.1065844558544
 20
730.5520497555043
 30
0.0
 11
395.3065844558711
 21
777.3520497554878
 31
0.0
  0
LINE
  5
1DE
330
1F
100
AcDbEntity
  8
LAY-10
  6
CONTINUOUS
 62
     7
100
AcDbLine
 10
456.2487200795855
 20
730.5520497555049
 30
0.0
 11
409.4487200796021
 21
777.3520497554878
 31
0.0
  0
LINE
  5
1DF
330
1F
100
AcDbEntity
  8
LAY-10
  6
CONTINUOUS
 62
     7
100
AcDbLine
 10
470.3908557033163
 20
730.5520497555049
 30
0.0
 11
423.5908557033332
 21
777.3520497554878
 31
0.0
  0
LINE
  5
1E0
330
1F
100
AcDbEntity
  8
LAY-10
  6
CONTINUOUS
 62
     7
100
AcDbLine
 10
484.5329913270472
 20
730.5520497555049
 30
0.0
 11
437.732991327064
 21
777.3520497554878
 31
0.0
  0
LINE
  5
1E1
330
1F
100
AcDbEntity
  8
LAY-10
  6
CONTINUOUS
 62
     7
100
AcDbLine
 10
498.6751269507782
 20
730.5520497555043
 30
0.0
 11
451.8751269507949
 21
777.3520497554878
 31
0.0
  0
LINE
  5
1E2
330
1F
100
AcDbEntity
  8
LAY-10
  6
CONTINUOUS
 62
     7
100
AcDbLine
 10
512.8172625745093
 20
730.5520497555043
 30
0.0
 11
466.0172625745259
 21
777.3520497554878
 31
0.0
  0
LINE
  5
1E3
330
1F
100
AcDbEntity
  8
LAY-10
  6
CONTINUOUS
 62
     7
100
AcDbLine
 10
526.9593981982401
 20
730.5520497555043
 30
0.0
 11
480.159398198257
 21
777.3520497554878
 31
0.0
  0
LINE
  5
1E4
330
1F
100
AcDbEntity
  8
LAY-10
  6
CONTINUOUS
 62
     7
100
AcDbLine
 10
541.101533821971
 20
730.5520497555049
 30
0.0
 11
494.3015338219878
 21
777.3520497554878
 31
0.0
  0
LINE
  5
1E5
330
1F
100
AcDbEntity
  8
LAY-10
  6
CONTINUOUS
 62
     7
100
AcDbLine
 10
555.243669445702
 20
730.5520497555049
 30
0.0
 11
508.4436694457187
 21
777.3520497554878
 31
0.0
  0
LINE
  5
1E6
330
1F
100
AcDbEntity
  8
LAY-10
  6
CONTINUOUS
 62
     7
100
AcDbLine
 10
569.3858050694328
 20
730.5520497555043
 30
0.0
 11
522.5858050694497
 21
777.3520497554878
 31
0.0
  0
LINE
  5
1E7
330
1F
100
AcDbEntity
  8
LAY-10
  6
CONTINUOUS
 62
     7
100
AcDbLine
 10
583.5279406931636
 20
730.5520497555049
 30
0.0
 11
536.7279406931806
 21
777.3520497554878
 31
0.0
  0
LINE
  5
1E8
330
1F
100
AcDbEntity
  8
LAY-10
  6
CONTINUOUS
 62
     7
100
AcDbLine
 10
597.6700763168947
 20
730.5520497555043
 30
0.0
 11
550.8700763169116
 21
777.3520497554878
 31
0.0
  0
LINE
  5
1E9
330
1F
100
AcDbEntity
  8
LAY-10
  6
CONTINUOUS
 62
     7
100
AcDbLine
 10
611.8122119406257
 20
730.5520497555049
 30
0.0
 11
565.0122119406424
 21
777.3520497554878
 31
0.0
  0
LINE
  5
1EA
330
1F
100
AcDbEntity
  8
LAY-10
  6
CONTINUOUS
 62
     7
100
AcDbLine
 10
625.9543475643566
 20
730.5520497555043
 30
0.0
 11
579.1543475643734
 21
777.3520497554878
 31
0.0
  0
LINE
  5
1EB
330
1F
100
AcDbEntity
  8
LAY-10
  6
CONTINUOUS
 62
     7
100
AcDbLine
 10
640.0964831880876
 20
730.5520497555043
 30
0.0
 11
593.2964831881045
 21
777.3520497554878
 31
0.0
  0
LINE
  5
1EC
330
1F
100
AcDbEntity
  8
LAY-10
  6
CONTINUOUS
 62
     7
100
AcDbLine
 10
654.2386188118185
 20
730.5520497555049
 30
0.0
 11
607.4386188118351
 21
777.3520497554878
 31
0.0
  0
LINE
  5
1ED
330
1F
100
AcDbEntity
  8
LAY-10
  6
CONTINUOUS
 62
     7
100
AcDbLine
 10
668.3807544355495
 20
730.5520497555043
 30
0.0
 11
621.5807544355662
 21
777.3520497554878
 31
0.0
  0
LINE
  5
1EE
330
1F
100
AcDbEntity
  8
LAY-10
  6
CONTINUOUS
 62
     7
100
AcDbLine
 10
682.5228900592803
 20
730.5520497555049
 30
0.0
 11
635.7228900592972
 21
777.3520497554878
 31
0.0
  0
LINE
  5
1EF
330
1F
100
AcDbEntity
  8
LAY-10
  6
CONTINUOUS
 62
     7
100
AcDbLine
 10
696.6650256830112
 20
730.5520497555043
 30
0.0
 11
649.8650256830283
 21
777.3520497554878
 31
0.0
  0
LINE
  5
1F0
330
1F
100
AcDbEntity
  8
LAY-10
  6
CONTINUOUS
 62
     7
100
AcDbLine
 10
710.8071613067423
 20
730.5520497555043
 30
0.0
 11
664.0071613067591
 21
777.3520497554878
 31
0.0
  0
LINE
  5
1F1
330
1F
100
AcDbEntity
  8
LAY-10
  6
CONTINUOUS
 62
     7
100
AcDbLine
 10
724.9492969304733
 20
730.5520497555049
 30
0.0
 11
678.1492969304899
 21
777.3520497554878
 31
0.0
  0
LINE
  5
1F2
330
1F
100
AcDbEntity
  8
LAY-10
  6
CONTINUOUS
 62
     7
100
AcDbLine
 10
739.0914325542044
 20
730.5520497555043
 30
0.0
 11
692.2914325542209
 21
777.3520497554878
 31
0.0
  0
LINE
  5
1F3
330
1F
100
AcDbEntity
  8
LAY-10
  6
CONTINUOUS
 62
     7
100
AcDbLine
 10
753.233568177935
 20
730.5520497555049
 30
0.0
 11
706.433568177952
 21
777.3520497554878
 31
0.0
  0
LINE
  5
1F4
330
1F
100
AcDbEntity
  8
LAY-10
  6
CONTINUOUS
 62
     7
100
AcDbLine
 10
767.3757038016661
 20
730.5520497555043
 30
0.0
 11
720.575703801683
 21
777.3520497554878
 31
0.0
  0
LINE
  5
1F5
330
1F
100
AcDbEntity
  8
LAY-10
  6
CONTINUOUS
 62
     7
100
AcDbLine
 10
781.5178394253971
 20
730.5520497555043
 30
0.0
 11
734.7178394254138
 21
777.3520497554878
 31
0.0
  0
LINE
  5
1F6
330
1F
100
AcDbEntity
  8
LAY-10
  6
CONTINUOUS
 62
     7
100
AcDbLine
 10
795.659975049128
 20
730.5520497555049
 30
0.0
 11
748.8599750491449
 21
777.3520497554878
 31
0.0
  0
LINE
  5
1F7
330
1F
100
AcDbEntity
  8
LAY-10
  6
CONTINUOUS
 62
     7
100
AcDbLine
 10
809.802110672859
 20
730.5520497555043
 30
0.0
 11
763.0021106728757
 21
777.3520497554878
 31
0.0
  0
LINE
  5
1F8
330
1F
100
AcDbEntity
  8
LAY-10
  6
CONTINUOUS
 62
     7
100
AcDbLine
 10
823.94424629659
 20
730.5520497555049
 30
0.0
 11
777.1442462966068
 21
777.3520497554878
 31
0.0
  0
LINE
  5
1F9
330
1F
100
AcDbEntity
  8
LAY-10
  6
CONTINUOUS
 62
     7
100
AcDbLine
 10
838.0863819203211
 20
730.5520497555043
 30
0.0
 11
791.2863819203376
 21
777.3520497554878
 31
0.0
  0
LINE
  5
1FA
330
1F
100
AcDbEntity
  8
LAY-10
  6
CONTINUOUS
 62
     7
100
AcDbLine
 10
852.2285175440521
 20
730.5520497555043
 30
0.0
 11
805.4285175440687
 21
777.3520497554878
 31
0.0
  0
LINE
  5
1FB
330
1F
100
AcDbEntity
  8
LAY-10
  6
CONTINUOUS
 62
     7
100
AcDbLine
 10
866.3706531677826
 20
730.5520497555043
 30
0.0
 11
819.5706531677996
 21
777.3520497554878
 31
0.0
  0
LINE
  5
1FC
330
1F
100
AcDbEntity
  8
LAY-10
  6
CONTINUOUS
 62
     7
100
AcDbLine
 10
880.5127887915137
 20
730.5520497555043
 30
0.0
 11
833.7127887915303
 21
777.3520497554878
 31
0.0
  0
LINE
  5
1FD
330
1F
100
AcDbEntity
  8
LAY-10
  6
CONTINUOUS
 62
     7
100
AcDbLine
 10
894.6549244152447
 20
730.5520497555049
 30
0.0
 11
847.8549244152614
 21
777.3520497554878
 31
0.0
  0
LINE
  5
1FE
330
1F
100
AcDbEntity
  8
LAY-10
  6
CONTINUOUS
 62
     7
100
AcDbLine
 10
908.7970600389756
 20
730.5520497555043
 30
0.0
 11
861.9970600389925
 21
777.3520497554878
 31
0.0
  0
LINE
  5
1FF
330
1F
100
AcDbEntity
  8
LAY-10
  6
CONTINUOUS
 62
     7
100
AcDbLine
 10
922.9391956627067
 20
730.5520497555043
 30
0.0
 11
876.1391956627235
 21
777.3520497554878
 31
0.0
  0
LINE
  5
200
330
1F
100
AcDbEntity
  8
LAY-10
  6
CONTINUOUS
 62
     7
100
AcDbLine
 10
937.0813312864375
 20
730.5520497555043
 30
0.0
 11
890.2813312864541
 21
777.3520497554878
 31
0.0
  0
LINE
  5
201
330
1F
100
AcDbEntity
  8
LAY-10
  6
CONTINUOUS
 62
     7
100
AcDbLine
 10
951.2234669101686
 20
730.5520497555043
 30
0.0
 11
904.4234669101852
 21
777.3520497554878
 31
0.0
  0
LINE
  5
202
330
1F
100
AcDbEntity
  8
LAY-10
  6
CONTINUOUS
 62
     7
100
AcDbLine
 10
965.3656025338995
 20
730.5520497555049
 30
0.0
 11
918.5656025339163
 21
777.3520497554878
 31
0.0
  0
LINE
  5
203
330
1F
100
AcDbEntity
  8
LAY-10
  6
CONTINUOUS
 62
     7
100
AcDbLine
 10
979.5077381576303
 20
730.5520497555043
 30
0.0
 11
932.7077381576473
 21
777.3520497554878
 31
0.0
  0
LINE
  5
204
330
1F
100
AcDbEntity
  8
LAY-10
  6
CONTINUOUS
 62
     7
100
AcDbLine
 10
993.6498737813614
 20
730.5520497555043
 30
0.0
 11
946.8498737813782
 21
777.3520497554878
 31
0.0
  0
LINE
  5
205
330
1F
100
AcDbEntity
  8
LAY-10
  6
CONTINUOUS
 62
     7
100
AcDbLine
 10
1007.792009405092
 20
730.5520497555043
 30
0.0
 11
960.9920094051091
 21
777.3520497554878
 31
0.0
  0
LINE
  5
206
330
1F
100
AcDbEntity
  8
LAY-10
  6
CONTINUOUS
 62
     7
100
AcDbLine
 10
1021.934145028824
 20
730.5520497555043
 30
0.0
 11
975.1341450288402
 21
777.3520497554878
 31
0.0
  0
LINE
  5
207
330
1F
100
AcDbEntity
  8
LAY-10
  6
CONTINUOUS
 62
     7
100
AcDbLine
 10
1036.076280652554
 20
730.5520497555049
 30
0.0
 11
989.2762806525712
 21
777.3520497554878
 31
0.0
  0
LINE
  5
208
330
1F
100
AcDbEntity
  8
LAY-10
  6
CONTINUOUS
 62
     7
100
AcDbLine
 10
1050.218416276285
 20
730.5520497555043
 30
0.0
 11
1003.418416276302
 21
777.3520497554878
 31
0.0
  0
LINE
  5
209
330
1F
100
AcDbEntity
  8
LAY-10
  6
CONTINUOUS
 62
     7
100
AcDbLine
 10
1064.360551900016
 20
730.5520497555043
 30
0.0
 11
1017.560551900033
 21
777.3520497554878
 31
0.0
  0
LINE
  5
20A
330
1F
100
AcDbEntity
  8
LAY-10
  6
CONTINUOUS
 62
     7
100
AcDbLine
 10
1078.502687523747
 20
730.5520497555043
 30
0.0
 11
1031.702687523764
 21
777.3520497554878
 31
0.0
  0
LINE
  5
20B
330
1F
100
AcDbEntity
  8
LAY-10
  6
CONTINUOUS
 62
     7
100
AcDbLine
 10
1092.644823147478
 20
730.5520497555043
 30
0.0
 11
1045.844823147495
 21
777.3520497554878
 31
0.0
  0
LINE
  5
20C
330
1F
100
AcDbEntity
  8
LAY-10
  6
CONTINUOUS
 62
     7
100
AcDbLine
 10
1106.786958771209
 20
730.5520497555049
 30
0.0
 11
1059.986958771226
 21
777.3520497554878
 31
0.0
  0
LINE
  5
20D
330
1F
100
AcDbEntity
  8
LAY-10
  6
CONTINUOUS
 62
     7
100
AcDbLine
 10
1120.92909439494
 20
730.5520497555049
 30
0.0
 11
1074.129094394957
 21
777.3520497554878
 31
0.0
  0
LINE
  5
20E
330
1F
100
AcDbEntity
  8
LAY-10
  6
CONTINUOUS
 62
     7
100
AcDbLine
 10
1135.071230018671
 20
730.5520497555043
 30
0.0
 11
1088.271230018688
 21
777.3520497554878
 31
0.0
  0
LINE
  5
20F
330
1F
100
AcDbEntity
  8
LAY-10
  6
CONTINUOUS
 62
     7
100
AcDbLine
 10
1149.213365642402
 20
730.5520497555049
 30
0.0
 11
1102.413365642419
 21
777.3520497554878
 31
0.0
  0
LINE
  5
210
330
1F
100
AcDbEntity
  8
LAY-10
  6
CONTINUOUS
 62
     7
100
AcDbLine
 10
1163.355501266133
 20
730.5520497555049
 30
0.0
 11
1116.55550126615
 21
777.3520497554878
 31
0.0
  0
LINE
  5
211
330
1F
100
AcDbEntity
  8
LAY-10
  6
CONTINUOUS
 62
     7
100
AcDbLine
 10
1177.497636889864
 20
730.5520497555049
 30
0.0
 11
1130.69763688988
 21
777.3520497554878
 31
0.0
  0
LINE
  5
212
330
1F
100
AcDbEntity
  8
LAY-10
  6
CONTINUOUS
 62
     7
100
AcDbLine
 10
1191.639772513595
 20
730.5520497555049
 30
0.0
 11
1144.839772513611
 21
777.3520497554878
 31
0.0
  0
LINE
  5
213
330
1F
100
AcDbEntity
  8
LAY-10
  6
CONTINUOUS
 62
     7
100
AcDbLine
 10
1205.781908137326
 20
730.5520497555043
 30
0.0
 11
1158.981908137343
 21
777.3520497554878
 31
0.0
  0
LINE
  5
214
330
1F
100
AcDbEntity
  8
LAY-10
  6
CONTINUOUS
 62
     7
100
AcDbLine
 10
1219.924043761057
 20
730.5520497555049
 30
0.0
 11
1173.124043761074
 21
777.3520497554878
 31
0.0
  0
LINE
  5
215
330
1F
100
AcDbEntity
  8
LAY-10
  6
CONTINUOUS
 62
     7
100
AcDbLine
 10
1234.066179384788
 20
730.5520497555049
 30
0.0
 11
1187.266179384805
 21
777.3520497554878
 31
0.0
  0
LINE
  5
216
330
1F
100
AcDbEntity
  8
LAY-10
  6
CONTINUOUS
 62
     7
100
AcDbLine
 10
1248.208315008519
 20
730.5520497555049
 30
0.0
 11
1201.408315008535
 21
777.3520497554878
 31
0.0
  0
LINE
  5
217
330
1F
100
AcDbEntity
  8
LAY-10
  6
CONTINUOUS
 62
     7
100
AcDbLine
 10
1262.35045063225
 20
730.5520497555049
 30
0.0
 11
1215.550450632266
 21
777.3520497554878
 31
0.0
  0
LINE
  5
218
330
1F
100
AcDbEntity
  8
LAY-10
  6
CONTINUOUS
 62
     7
100
AcDbLine
 10
1276.49258625598
 20
730.5520497555043
 30
0.0
 11
1229.692586255997
 21
777.3520497554878
 31
0.0
  0
LINE
  5
219
330
1F
100
AcDbEntity
  8
LAY-10
  6
CONTINUOUS
 62
     7
100
AcDbLine
 10
1290.634721879711
 20
730.5520497555049
 30
0.0
 11
1243.834721879728
 21
777.3520497554878
 31
0.0
  0
LINE
  5
21A
330
1F
100
AcDbEntity
  8
LAY-10
  6
CONTINUOUS
 62
     7
100
AcDbLine
 10
1304.776857503442
 20
730.5520497555049
 30
0.0
 11
1257.976857503459
 21
777.3520497554878
 31
0.0
  0
LINE
  5
21B
330
1F
100
AcDbEntity
  8
LAY-10
  6
CONTINUOUS
 62
     7
100
AcDbLine
 10
1318.918993127174
 20
730.5520497555049
 30
0.0
 11
1272.11899312719
 21
777.3520497554878
 31
0.0
  0
LINE
  5
21C
330
1F
100
AcDbEntity
  8
LAY-10
  6
CONTINUOUS
 62
     7
100
AcDbLine
 10
1333.061128750904
 20
730.5520497555049
 30
0.0
 11
1286.261128750921
 21
777.3520497554878
 31
0.0
  0
LINE
  5
21D
330
1F
100
AcDbEntity
  8
LAY-10
  6
CONTINUOUS
 62
     7
100
AcDbLine
 10
1347.203264374635
 20
730.5520497555043
 30
0.0
 11
1300.403264374652
 21
777.3520497554878
 31
0.0
  0
LINE
  5
21E
330
1F
100
AcDbEntity
  8
LAY-10
  6
CONTINUOUS
 62
     7
100
AcDbLine
 10
1361.345399998366
 20
730.5520497555049
 30
0.0
 11
1314.545399998383
 21
777.3520497554878
 31
0.0
  0
LINE
  5
21F
330
1F
100
AcDbEntity
  8
LAY-10
  6
CONTINUOUS
 62
     7
100
AcDbLine
 10
1375.487535622097
 20
730.5520497555049
 30
0.0
 11
1328.687535622114
 21
777.3520497554878
 31
0.0
  0
LINE
  5
220
330
1F
100
AcDbEntity
  8
LAY-10
  6
CONTINUOUS
 62
     7
100
AcDbLine
 10
1389.629671245828
 20
730.5520497555049
 30
0.0
 11
1342.829671245845
 21
777.3520497554878
 31
0.0
  0
LINE
  5
221
330
1F
100
AcDbEntity
  8
LAY-10
  6
CONTINUOUS
 62
     7
100
AcDbLine
 10
1403.771806869559
 20
730.5520497555049
 30
0.0
 11
1356.971806869576
 21
777.3520497554878
 31
0.0
  0
LINE
  5
222
330
1F
100
AcDbEntity
  8
LAY-10
  6
CONTINUOUS
 62
     7
100
AcDbLine
 10
1417.91394249329
 20
730.5520497555043
 30
0.0
 11
1371.113942493307
 21
777.3520497554878
 31
0.0
  0
LINE
  5
223
330
1F
100
AcDbEntity
  8
LAY-10
  6
CONTINUOUS
 62
     7
100
AcDbLine
 10
1432.056078117021
 20
730.5520497555049
 30
0.0
 11
1385.256078117038
 21
777.3520497554878
 31
0.0
  0
LINE
  5
224
330
1F
100
AcDbEntity
  8
LAY-10
  6
CONTINUOUS
 62
     7
100
AcDbLine
 10
1446.198213740752
 20
730.5520497555049
 30
0.0
 11
1399.398213740769
 21
777.3520497554878
 31
0.0
  0
LINE
  5
225
330
1F
100
AcDbEntity
  8
LAY-10
  6
CONTINUOUS
 62
     7
100
AcDbLine
 10
1460.340349364483
 20
730.5520497555049
 30
0.0
 11
1413.540349364499
 21
777.3520497554878
 31
0.0
  0
LINE
  5
226
330
1F
100
AcDbEntity
  8
LAY-10
  6
CONTINUOUS
 62
     7
100
AcDbLine
 10
1474.482484988214
 20
730.5520497555049
 30
0.0
 11
1427.68248498823
 21
777.3520497554878
 31
0.0
  0
LINE
  5
227
330
1F
100
AcDbEntity
  8
LAY-10
  6
CONTINUOUS
 62
     7
100
AcDbLine
 10
1488.624620611945
 20
730.5520497555049
 30
0.0
 11
1441.824620611962
 21
777.3520497554878
 31
0.0
  0
LINE
  5
228
330
1F
100
AcDbEntity
  8
LAY-10
  6
CONTINUOUS
 62
     7
100
AcDbLine
 10
1502.766756235676
 20
730.5520497555049
 30
0.0
 11
1455.966756235693
 21
777.3520497554878
 31
0.0
  0
LINE
  5
229
330
1F
100
AcDbEntity
  8
LAY-10
  6
CONTINUOUS
 62
     7
100
AcDbLine
 10
1516.908891859407
 20
730.5520497555043
 30
0.0
 11
1470.108891859424
 21
777.3520497554878
 31
0.0
  0
LINE
  5
22A
330
1F
100
AcDbEntity
  8
LAY-10
  6
CONTINUOUS
 62
     7
100
AcDbLine
 10
1531.051027483138
 20
730.5520497555049
 30
0.0
 11
1484.251027483154
 21
777.3520497554878
 31
0.0
  0
LINE
  5
22B
330
1F
100
AcDbEntity
  8
LAY-10
  6
CONTINUOUS
 62
     7
100
AcDbLine
 10
1545.193163106868
 20
730.5520497555049
 30
0.0
 11
1498.393163106885
 21
777.3520497554878
 31
0.0
  0
LINE
  5
22C
330
1F
100
AcDbEntity
  8
LAY-10
  6
CONTINUOUS
 62
     7
100
AcDbLine
 10
1559.335298730599
 20
730.5520497555049
 30
0.0
 11
1512.535298730616
 21
777.3520497554878
 31
0.0
  0
LINE
  5
22D
330
1F
100
AcDbEntity
  8
LAY-10
  6
CONTINUOUS
 62
     7
100
AcDbLine
 10
1573.47743435433
 20
730.5520497555049
 30
0.0
 11
1526.677434354347
 21
777.3520497554878
 31
0.0
  0
LINE
  5
22E
330
1F
100
AcDbEntity
  8
LAY-10
  6
CONTINUOUS
 62
     7
100
AcDbLine
 10
1587.619569978061
 20
730.5520497555043
 30
0.0
 11
1540.819569978079
 21
777.3520497554878
 31
0.0
  0
LINE
  5
22F
330
1F
100
AcDbEntity
  8
LAY-10
  6
CONTINUOUS
 62
     7
100
AcDbLine
 10
1601.761705601793
 20
730.5520497555049
 30
0.0
 11
1554.961705601809
 21
777.3520497554878
 31
0.0
  0
LINE
  5
230
330
1F
100
AcDbEntity
  8
LAY-10
  6
CONTINUOUS
 62
     7
100
AcDbLine
 10
1615.903841225523
 20
730.5520497555049
 30
0.0
 11
1569.10384122554
 21
777.3520497554878
 31
0.0
  0
LINE
  5
231
330
1F
100
AcDbEntity
  8
LAY-10
  6
CONTINUOUS
 62
     7
100
AcDbLine
 10
1630.045976849254
 20
730.5520497555049
 30
0.0
 11
1583.245976849271
 21
777.3520497554878
 31
0.0
  0
LINE
  5
232
330
1F
100
AcDbEntity
  8
LAY-10
  6
CONTINUOUS
 62
     7
100
AcDbLine
 10
1644.188112472985
 20
730.5520497555049
 30
0.0
 11
1597.388112473002
 21
777.3520497554878
 31
0.0
  0
LINE
  5
233
330
1F
100
AcDbEntity
  8
LAY-10
  6
CONTINUOUS
 62
     7
100
AcDbLine
 10
1658.330248096717
 20
730.5520497555043
 30
0.0
 11
1611.530248096733
 21
777.3520497554878
 31
0.0
  0
LINE
  5
234
330
1F
100
AcDbEntity
  8
LAY-10
  6
CONTINUOUS
 62
     7
100
AcDbLine
 10
1672.472383720448
 20
730.5520497555049
 30
0.0
 11
1625.672383720464
 21
777.3520497554878
 31
0.0
  0
LINE
  5
235
330
1F
100
AcDbEntity
  8
LAY-10
  6
CONTINUOUS
 62
     7
100
AcDbLine
 10
1686.614519344178
 20
730.5520497555049
 30
0.0
 11
1639.814519344195
 21
777.3520497554878
 31
0.0
  0
LINE
  5
236
330
1F
100
AcDbEntity
  8
LAY-10
  6
CONTINUOUS
 62
     7
100
AcDbLine
 10
1700.756654967909
 20
730.5520497555049
 30
0.0
 11
1653.956654967926
 21
777.3520497554878
 31
0.0
  0
LINE
  5
237
330
1F
100
AcDbEntity
  8
LAY-10
  6
CONTINUOUS
 62
     7
100
AcDbLine
 10
1714.89879059164
 20
730.5520497555049
 30
0.0
 11
1668.098790591657
 21
777.3520497554878
 31
0.0
  0
LINE
  5
238
330
1F
100
AcDbEntity
  8
LAY-10
  6
CONTINUOUS
 62
     7
100
AcDbLine
 10
1729.040926215371
 20
730.5520497555043
 30
0.0
 11
1682.240926215388
 21
777.3520497554878
 31
0.0
  0
LINE
  5
239
330
1F
100
AcDbEntity
  8
LAY-10
  6
CONTINUOUS
 62
     7
100
AcDbLine
 10
1743.183061839102
 20
730.5520497555049
 30
0.0
 11
1696.383061839118
 21
777.3520497554878
 31
0.0
  0
LINE
  5
23A
330
1F
100
AcDbEntity
  8
LAY-10
  6
CONTINUOUS
 62
     7
100
AcDbLine
 10
1757.325197462833
 20
730.5520497555049
 30
0.0
 11
1710.52519746285
 21
777.3520497554878
 31
0.0
  0
LINE
  5
23B
330
1F
100
AcDbEntity
  8
LAY-10
  6
CONTINUOUS
 62
     7
100
AcDbLine
 10
1771.467333086564
 20
730.5520497555049
 30
0.0
 11
1724.667333086581
 21
777.3520497554878
 31
0.0
  0
LINE
  5
23C
330
1F
100
AcDbEntity
  8
LAY-10
  6
CONTINUOUS
 62
     7
100
AcDbLine
 10
1785.609468710295
 20
730.5520497555049
 30
0.0
 11
1738.809468710312
 21
777.3520497554878
 31
0.0
  0
LINE
  5
23D
330
1F
100
AcDbEntity
  8
LAY-10
  6
CONTINUOUS
 62
     7
100
AcDbLine
 10
1799.751604334026
 20
730.5520497555043
 30
0.0
 11
1752.951604334043
 21
777.3520497554878
 31
0.0
  0
LINE
  5
23E
330
1F
100
AcDbEntity
  8
LAY-10
  6
CONTINUOUS
 62
     7
100
AcDbLine
 10
1813.893739957757
 20
730.5520497555049
 30
0.0
 11
1767.093739957774
 21
777.3520497554878
 31
0.0
  0
LINE
  5
23F
330
1F
100
AcDbEntity
  8
LAY-10
  6
CONTINUOUS
 62
     7
100
AcDbLine
 10
1828.035875581487
 20
730.5520497555049
 30
0.0
 11
1781.235875581505
 21
777.3520497554878
 31
0.0
  0
LINE
  5
240
330
1F
100
AcDbEntity
  8
LAY-10
  6
CONTINUOUS
 62
     7
100
AcDbLine
 10
1842.178011205218
 20
730.5520497555049
 30
0.0
 11
1795.378011205236
 21
777.3520497554878
 31
0.0
  0
LINE
  5
241
330
1F
100
AcDbEntity
  8
LAY-10
  6
CONTINUOUS
 62
     7
100
AcDbLine
 10
1856.320146828949
 20
730.5520497555049
 30
0.0
 11
1809.520146828967
 21
777.3520497554878
 31
0.0
  0
LINE
  5
242
330
1F
100
AcDbEntity
  8
LAY-10
  6
CONTINUOUS
 62
     7
100
AcDbLine
 10
1870.46228245268
 20
730.5520497555049
 30
0.0
 11
1823.662282452697
 21
777.3520497554878
 31
0.0
  0
LINE
  5
243
330
1F
100
AcDbEntity
  8
LAY-10
  6
CONTINUOUS
 62
     7
100
AcDbLine
 10
1884.604418076412
 20
730.552049755504
 30
0.0
 11
1837.804418076428
 21
777.3520497554878
 31
0.0
  0
LINE
  5
244
330
1F
100
AcDbEntity
  8
LAY-10
  6
CONTINUOUS
 62
     7
100
AcDbLine
 10
1898.746553700142
 20
730.5520497555043
 30
0.0
 11
1851.946553700159
 21
777.3520497554878
 31
0.0
  0
LINE
  5
245
330
1F
100
AcDbEntity
  8
LAY-10
  6
CONTINUOUS
 62
     7
100
AcDbLine
 10
1912.888689323873
 20
730.5520497555049
 30
0.0
 11
1866.08868932389
 21
777.3520497554878
 31
0.0
  0
LINE
  5
246
330
1F
100
AcDbEntity
  8
LAY-10
  6
CONTINUOUS
 62
     7
100
AcDbLine
 10
1927.030824947605
 20
730.5520497555049
 30
0.0
 11
1880.230824947621
 21
777.3520497554878
 31
0.0
  0
LINE
  5
247
330
1F
100
AcDbEntity
  8
LAY-10
  6
CONTINUOUS
 62
     7
100
AcDbLine
 10
1941.172960571336
 20
730.5520497555049
 30
0.0
 11
1894.372960571352
 21
777.3520497554878
 31
0.0
  0
LINE
  5
248
330
1F
100
AcDbEntity
  8
LAY-10
  6
CONTINUOUS
 62
     7
100
AcDbLine
 10
1955.315096195067
 20
730.552049755504
 30
0.0
 11
1908.515096195083
 21
777.3520497554878
 31
0.0
  0
LINE
  5
249
330
1F
100
AcDbEntity
  8
LAY-10
  6
CONTINUOUS
 62
     7
100
AcDbLine
 10
1957.20768415628
 20
742.8015974180221
 30
0.0
 11
1922.657231818814
 21
777.3520497554878
 31
0.0
  0
LINE
  5
24A
330
1F
100
AcDbEntity
  8
LAY-10
  6
CONTINUOUS
 62
     7
100
AcDbLine
 10
1957.20768415628
 20
756.9437330417531
 30
0.0
 11
1936.799367442545
 21
777.3520497554878
 31
0.0
  0
LINE
  5
24B
330
1F
100
AcDbEntity
  8
LAY-10
  6
CONTINUOUS
 62
     7
100
AcDbLine
 10
1957.20768415628
 20
771.0858686654842
 30
0.0
 11
1950.941503066276
 21
777.3520497554878
 31
0.0
  0
LINE
  5
24C
330
1F
100
AcDbEntity
  8
LAY-10
  6
CONTINUOUS
 62
     7
100
AcDbLine
 10
2002.807684156197
 20
858.7520497555926
 30
0.0
 11
2017.807684156197
 21
858.7520497555926
 31
0.0
  0
LINE
  5
24D
330
1F
100
AcDbEntity
  8
LAY-10
  6
CONTINUOUS
 62
     7
100
AcDbLine
 10
2002.807684156197
 20
858.7520497555926
 30
0.0
 11
2002.807684156197
 21
843.7520497555926
 31
0.0
  0
LINE
  5
24E
330
1F
100
AcDbEntity
  8
LAY-10
  6
CONTINUOUS
 62
     7
100
AcDbLine
 10
2005.807684156194
 20
855.7520497555925
 30
0.0
 11
2017.807684156197
 21
855.7520497555925
 31
0.0
  0
LINE
  5
24F
330
1F
100
AcDbEntity
  8
LAY-10
  6
CONTINUOUS
 62
     7
100
AcDbLine
 10
2002.807684156197
 20
843.7520497555926
 30
0.0
 11
2005.807684156194
 21
843.7520497555926
 31
0.0
  0
LINE
  5
250
330
1F
100
AcDbEntity
  8
LAY-10
  6
CONTINUOUS
 62
     7
100
AcDbLine
 10
2017.807684156197
 20
858.7520497555926
 30
0.0
 11
2017.807684156197
 21
855.7520497555925
 31
0.0
  0
LINE
  5
251
330
1F
100
AcDbEntity
  8
LAY-10
  6
CONTINUOUS
 62
     7
100
AcDbLine
 10
330.8076841561376
 20
858.7520497555926
 30
0.0
 11
315.8076841561376
 21
858.7520497555926
 31
0.0
  0
LINE
  5
252
330
1F
100
AcDbEntity
  8
LAY-10
  6
CONTINUOUS
 62
     7
100
AcDbLine
 10
330.8076841561376
 20
858.7520497555926
 30
0.0
 11
330.8076841561376
 21
843.7520497555926
 31
0.0
  0
LINE
  5
253
330
1F
100
AcDbEntity
  8
LAY-10
  6
CONTINUOUS
 62
     7
100
AcDbLine
 10
327.8076841561403
 20
855.7520497555925
 30
0.0
 11
315.8076841561376
 21
855.7520497555925
 31
0.0
  0
LINE
  5
254
330
1F
100
AcDbEntity
  8
LAY-10
  6
CONTINUOUS
 62
     7
100
AcDbLine
 10
330.8076841561376
 20
843.7520497555926
 30
0.0
 11
327.8076841561403
 21
843.7520497555926
 31
0.0
  0
LINE
  5
255
330
1F
100
AcDbEntity
  8
LAY-10
  6
CONTINUOUS
 62
     7
100
AcDbLine
 10
315.8076841561376
 20
858.7520497555926
 30
0.0
 11
315.8076841561376
 21
855.7520497555925
 31
0.0
  0
LINE
  5
256
330
1F
100
AcDbEntity
  8
LAY-10
  6
CONTINUOUS
 62
     7
100
AcDbLine
 10
2429.02351127151
 20
1647.970691337326
 30
0.0
 11
2429.02351127151
 21
1880.97069133705
 31
0.0
  0
LINE
  5
257
330
1F
100
AcDbEntity
  8
LAY-10
  6
CONTINUOUS
 62
     7
100
AcDbLine
 10
2377.023511271499
 20
1766.720691337231
 30
0.0
 11
2421.023511271499
 21
1766.720691337231
 31
0.0
  0
LINE
  5
258
330
1F
100
AcDbEntity
  8
LAY-10
  6
CONTINUOUS
 62
     7
100
AcDbLine
 10
2377.023511271499
 20
1762.22069133723
 30
0.0
 11
2421.023511271499
 21
1762.22069133723
 31
0.0
  0
LINE
  5
259
330
1F
100
AcDbEntity
  8
LAY-10
  6
CONTINUOUS
 62
     7
100
AcDbLine
 10
2372.523511271507
 20
1228.470691337167
 30
0.0
 11
2372.523511271507
 21
1213.470691337167
 31
0.0
  0
LINE
  5
25A
330
1F
100
AcDbEntity
  8
LAY-10
  6
CONTINUOUS
 62
     7
100
AcDbLine
 10
2372.523511271507
 20
1228.470691337167
 30
0.0
 11
2387.523511271507
 21
1228.470691337167
 31
0.0
  0
LINE
  5
25B
330
1F
100
AcDbEntity
  8
LAY-10
  6
CONTINUOUS
 62
     7
100
AcDbLine
 10
2375.523511271507
 20
1225.47069133717
 30
0.0
 11
2375.523511271507
 21
1213.470691337167
 31
0.0
  0
LINE
  5
25C
330
1F
100
AcDbEntity
  8
LAY-10
  6
CONTINUOUS
 62
     7
100
AcDbLine
 10
2387.523511271507
 20
1228.470691337167
 30
0.0
 11
2387.523511271507
 21
1225.47069133717
 31
0.0
  0
LINE
  5
25D
330
1F
100
AcDbEntity
  8
LAY-10
  6
CONTINUOUS
 62
     7
100
AcDbLine
 10
2372.523511271507
 20
1213.470691337167
 30
0.0
 11
2375.523511271507
 21
1213.470691337167
 31
0.0
  0
LINE
  5
25E
330
1F
100
AcDbEntity
  8
LAY-10
  6
CONTINUOUS
 62
     7
100
AcDbLine
 10
2504.323511271508
 20
1268.470691337164
 30
0.0
 11
2504.323511271508
 21
1314.470691337168
 31
0.0
  0
LINE
  5
25F
330
1F
100
AcDbEntity
  8
LAY-10
  6
CONTINUOUS
 62
     7
100
AcDbLine
 10
2452.323511271557
 20
1272.470691337235
 30
0.0
 11
2504.323511271558
 21
1272.470691337235
 31
0.0
  0
LINE
  5
260
330
1F
100
AcDbEntity
  8
LAY-10
  6
CONTINUOUS
 62
     7
100
AcDbLine
 10
2500.723511271558
 20
1274.070691337235
 30
0.0
 11
2453.923511271557
 21
1274.070691337235
 31
0.0
  0
LINE
  5
261
330
1F
100
AcDbEntity
  8
LAY-10
  6
CONTINUOUS
 62
     7
100
AcDbLine
 10
2504.323511271558
 20
1297.470691337234
 30
0.0
 11
2502.323511271557
 21
1297.470691337234
 31
0.0
  0
LINE
  5
262
330
1F
100
AcDbEntity
  8
LAY-10
  6
CONTINUOUS
 62
     7
100
AcDbLine
 10
2507.523511271509
 20
1268.270691337162
 30
0.0
 11
2507.523511271509
 21
1314.470691337168
 31
0.0
  0
LINE
  5
263
330
1F
100
AcDbEntity
  8
LAY-10
  6
CONTINUOUS
 62
     7
100
AcDbLine
 10
2504.323511271513
 20
1314.470691337168
 30
0.0
 11
2507.523511271509
 21
1314.470691337168
 31
0.0
  0
ARC
  5
264
330
1F
100
AcDbEntity
  8
LAY-10
  6
CONTINUOUS
 62
     7
100
AcDbCircle
 10
2504.523511271509
 20
1268.270691337162
 30
0.0
 40
3.000000000000003
100
AcDbArc
 50
270.0
 51
0.0000000000001719
  0
LINE
  5
265
330
1F
100
AcDbEntity
  8
LAY-10
  6
CONTINUOUS
 62
     7
100
AcDbLine
 10
2435.223511271496
 20
1265.270691337161
 30
0.0
 11
2504.523511271509
 21
1265.270691337161
 31
0.0
  0
LINE
  5
266
330
1F
100
AcDbEntity
  8
LAY-10
  6
CONTINUOUS
 62
     7
100
AcDbLine
 10
2435.023511271496
 20
1268.470691337164
 30
0.0
 11
2504.323511271513
 21
1268.470691337164
 31
0.0
  0
ARC
  5
267
330
1F
100
AcDbEntity
  8
LAY-10
  6
CONTINUOUS
 62
     7
100
AcDbCircle
 10
2426.023511271498
 20
1228.470691337201
 30
0.0
 40
3.000000000000003
100
AcDbArc
 50
270.0
 51
0.0000000000001719
  0
ARC
  5
268
330
1F
100
AcDbEntity
  8
LAY-10
  6
CONTINUOUS
 62
     7
100
AcDbCircle
 10
2426.223511271497
 20
1228.270691337202
 30
0.0
 40
6.000000000000006
100
AcDbArc
 50
270.0
 51
0.0000000000001719
  0
ARC
  5
269
330
1F
100
AcDbEntity
  8
LAY-10
  6
CONTINUOUS
 62
     7
100
AcDbCircle
 10
2435.223511271496
 20
1262.270691337162
 30
0.0
 40
3.000000000000003
100
AcDbArc
 50
90.00000000000001
 51
180.0
  0
ARC
  5
26A
330
1F
100
AcDbEntity
  8
LAY-10
  6
CONTINUOUS
 62
     7
100
AcDbCircle
 10
2435.023511271496
 20
1262.470691337163
 30
0.0
 40
6.000000000000006
100
AcDbArc
 50
90.00000000000001
 51
180.0
  0
LINE
  5
26B
330
1F
100
AcDbEntity
  8
LAY-10
  6
CONTINUOUS
 62
     7
100
AcDbLine
 10
2440.223511271598
 20
1255.584399836156
 30
0.0
 11
2432.223511271597
 21
1255.584399836156
 31
0.0
  0
LINE
  5
26C
330
1F
100
AcDbEntity
  8
LAY-10
  6
CONTINUOUS
 62
     7
100
AcDbLine
 10
2440.223511271598
 20
1225.584399836154
 30
0.0
 11
2440.223511271598
 21
1255.584399836156
 31
0.0
  0
ARC
  5
26D
330
1F
100
AcDbEntity
  8
LAY-10
  6
CONTINUOUS
 62
     7
100
AcDbCircle
 10
2440.223511271598
 20
1225.584399836154
 30
0.0
 40
8.0
100
AcDbArc
 50
180.0
 51
224.9999999999946
  0
LINE
  5
26E
330
1F
100
AcDbEntity
  8
LAY-10
  6
CONTINUOUS
 62
     7
100
AcDbLine
 10
2469.921996081432
 20
1184.572206527335
 30
0.0
 11
2434.566657022105
 21
1219.927545586663
 31
0.0
  0
LINE
  5
26F
330
1F
100
AcDbEntity
  8
LAY-10
  6
CONTINUOUS
 62
     7
100
AcDbLine
 10
2475.578850330923
 20
1190.229060776825
 30
0.0
 11
2440.223511271598
 21
1225.584399836154
 31
0.0
  0
LINE
  5
270
330
1F
100
AcDbEntity
  8
LAY-10
  6
CONTINUOUS
 62
     7
100
AcDbLine
 10
2469.921996081432
 20
1184.572206527335
 30
0.0
 11
2475.578850330925
 21
1190.229060776825
 31
0.0
  0
LINE
  5
271
330
1F
100
AcDbEntity
  8
LAY-10
  6
CONTINUOUS
 62
     7
100
AcDbLine
 10
2432.223511271497
 20
1262.270691337162
 30
0.0
 11
2432.223511271497
 21
1225.584399836154
 31
0.0
  0
LINE
  5
272
330
1F
100
AcDbEntity
  8
LAY-10
  6
CONTINUOUS
 62
     7
100
AcDbLine
 10
2375.523511271507
 20
1225.47069133717
 30
0.0
 11
2426.023511271498
 21
1225.47069133717
 31
0.0
  0
LINE
  5
273
330
1F
100
AcDbEntity
  8
LAY-10
  6
CONTINUOUS
 62
     7
100
AcDbLine
 10
2426.223511271497
 20
1222.270691337171
 30
0.0
 11
2375.523511271507
 21
1222.270691337171
 31
0.0
  0
LINE
  5
274
330
1F
100
AcDbEntity
  8
LAY-10
  6
CONTINUOUS
 62
     7
100
AcDbLine
 10
2372.52351127153
 20
1229.47069133727
 30
0.0
 11
2429.0235112715
 21
1229.47069133727
 31
0.0
  0
LINE
  5
275
330
1F
100
AcDbEntity
  8
LAY-10
  6
CONTINUOUS
 62
     7
100
AcDbLine
 10
2427.023511271502
 20
1258.961137777351
 30
0.0
 11
2429.023511271505
 21
1257.155841119146
 31
0.0
  0
LINE
  5
276
330
1F
100
AcDbEntity
  8
LAY-10
  6
CONTINUOUS
 62
     7
100
AcDbLine
 10
2427.023511271503
 20
1258.254030996163
 30
0.0
 11
2429.023511271505
 21
1256.44873433796
 31
0.0
  0
LINE
  5
277
330
1F
100
AcDbEntity
  8
LAY-10
  6
CONTINUOUS
 62
     7
100
AcDbLine
 10
2427.023511271502
 20
1257.546924214977
 30
0.0
 11
2429.023511271505
 21
1255.741627556772
 31
0.0
  0
LINE
  5
278
330
1F
100
AcDbEntity
  8
LAY-10
  6
CONTINUOUS
 62
     7
100
AcDbLine
 10
2427.023511271503
 20
1256.839817433789
 30
0.0
 11
2429.023511271505
 21
1255.034520775588
 31
0.0
  0
LINE
  5
279
330
1F
100
AcDbEntity
  8
LAY-10
  6
CONTINUOUS
 62
     7
100
AcDbLine
 10
2427.023511271502
 20
1256.132710652606
 30
0.0
 11
2429.023511271505
 21
1254.327413994399
 31
0.0
  0
LINE
  5
27A
330
1F
100
AcDbEntity
  8
LAY-10
  6
CONTINUOUS
 62
     7
100
AcDbLine
 10
2427.023511271503
 20
1255.425603871417
 30
0.0
 11
2429.025461380381
 21
1253.623653762542
 31
0.0
  0
LINE
  5
27B
330
1F
100
AcDbEntity
  8
LAY-10
  6
CONTINUOUS
 62
     7
100
AcDbLine
 10
2427.023511271502
 20
1254.718497090231
 30
0.0
 11
2429.023511271505
 21
1252.916950351913
 31
0.0
  0
LINE
  5
27C
330
1F
100
AcDbEntity
  8
LAY-10
  6
CONTINUOUS
 62
     7
100
AcDbLine
 10
2427.023511271503
 20
1254.011390309044
 30
0.0
 11
2429.023511271501
 21
1252.211390309046
 31
0.0
  0
LINE
  5
27D
330
1F
100
AcDbEntity
  8
LAY-10
  6
CONTINUOUS
 62
     7
100
AcDbLine
 10
2427.023511271502
 20
1253.304283527859
 30
0.0
 11
2429.023511271505
 21
1251.504283527858
 31
0.0
  0
LINE
  5
27E
330
1F
100
AcDbEntity
  8
LAY-10
  6
CONTINUOUS
 62
     7
100
AcDbLine
 10
2427.023511271503
 20
1252.597176746672
 30
0.0
 11
2429.023511271501
 21
1250.797176746673
 31
0.0
  0
LINE
  5
27F
330
1F
100
AcDbEntity
  8
LAY-10
  6
CONTINUOUS
 62
     7
100
AcDbLine
 10
2427.023511271502
 20
1251.890069965486
 30
0.0
 11
2429.023511271505
 21
1250.090069965486
 31
0.0
  0
LINE
  5
280
330
1F
100
AcDbEntity
  8
LAY-10
  6
CONTINUOUS
 62
     7
100
AcDbLine
 10
2427.023511271503
 20
1251.182963184297
 30
0.0
 11
2429.023511271501
 21
1249.3829631843
 31
0.0
  0
LINE
  5
281
330
1F
100
AcDbEntity
  8
LAY-10
  6
CONTINUOUS
 62
     7
100
AcDbLine
 10
2427.023511271502
 20
1250.475856403113
 30
0.0
 11
2429.023511271505
 21
1248.675856403113
 31
0.0
  0
LINE
  5
282
330
1F
100
AcDbEntity
  8
LAY-10
  6
CONTINUOUS
 62
     7
100
AcDbLine
 10
2427.023511271503
 20
1249.768749621926
 30
0.0
 11
2429.023511271501
 21
1247.968749621927
 31
0.0
  0
LINE
  5
283
330
1F
100
AcDbEntity
  8
LAY-10
  6
CONTINUOUS
 62
     7
100
AcDbLine
 10
2427.023511271502
 20
1249.061642840741
 30
0.0
 11
2429.023511271505
 21
1247.261642840736
 31
0.0
  0
LINE
  5
284
330
1F
100
AcDbEntity
  8
LAY-10
  6
CONTINUOUS
 62
     7
100
AcDbLine
 10
2427.023511271503
 20
1248.354536059552
 30
0.0
 11
2429.023511271501
 21
1246.554536059553
 31
0.0
  0
LINE
  5
285
330
1F
100
AcDbEntity
  8
LAY-10
  6
CONTINUOUS
 62
     7
100
AcDbLine
 10
2427.023511271502
 20
1247.647429278368
 30
0.0
 11
2429.023511271505
 21
1245.847429278365
 31
0.0
  0
LINE
  5
286
330
1F
100
AcDbEntity
  8
LAY-10
  6
CONTINUOUS
 62
     7
100
AcDbLine
 10
2427.023511271503
 20
1246.94032249718
 30
0.0
 11
2429.023511271501
 21
1245.140322497182
 31
0.0
  0
LINE
  5
287
330
1F
100
AcDbEntity
  8
LAY-10
  6
CONTINUOUS
 62
     7
100
AcDbLine
 10
2427.023511271502
 20
1246.233215715994
 30
0.0
 11
2429.023511271505
 21
1244.433215715991
 31
0.0
  0
LINE
  5
288
330
1F
100
AcDbEntity
  8
LAY-10
  6
CONTINUOUS
 62
     7
100
AcDbLine
 10
2427.023511271503
 20
1245.526108934806
 30
0.0
 11
2429.0235112715
 21
1243.726108934808
 31
0.0
  0
LINE
  5
289
330
1F
100
AcDbEntity
  8
LAY-10
  6
CONTINUOUS
 62
     7
100
AcDbLine
 10
2427.023511271502
 20
1244.819002153622
 30
0.0
 11
2429.023511271505
 21
1243.019002153619
 31
0.0
  0
LINE
  5
28A
330
1F
100
AcDbEntity
  8
LAY-10
  6
CONTINUOUS
 62
     7
100
AcDbLine
 10
2427.023511271503
 20
1244.111895372431
 30
0.0
 11
2429.0235112715
 21
1242.311895372437
 31
0.0
  0
LINE
  5
28B
330
1F
100
AcDbEntity
  8
LAY-10
  6
CONTINUOUS
 62
     7
100
AcDbLine
 10
2427.023511271502
 20
1243.404788591248
 30
0.0
 11
2429.023511271505
 21
1241.604788591246
 31
0.0
  0
LINE
  5
28C
330
1F
100
AcDbEntity
  8
LAY-10
  6
CONTINUOUS
 62
     7
100
AcDbLine
 10
2427.023511271503
 20
1242.697681810059
 30
0.0
 11
2429.0235112715
 21
1240.897681810063
 31
0.0
  0
LINE
  5
28D
330
1F
100
AcDbEntity
  8
LAY-10
  6
CONTINUOUS
 62
     7
100
AcDbLine
 10
2427.023511271502
 20
1241.990575028876
 30
0.0
 11
2429.023511271505
 21
1240.190575028873
 31
0.0
  0
LINE
  5
28E
330
1F
100
AcDbEntity
  8
LAY-10
  6
CONTINUOUS
 62
     7
100
AcDbLine
 10
2427.023511271503
 20
1241.283468247686
 30
0.0
 11
2429.0235112715
 21
1239.48346824769
 31
0.0
  0
LINE
  5
28F
330
1F
100
AcDbEntity
  8
LAY-10
  6
CONTINUOUS
 62
     7
100
AcDbLine
 10
2427.023511271502
 20
1240.576361466503
 30
0.0
 11
2429.023511271503
 21
1238.7763614665
 31
0.0
  0
LINE
  5
290
330
1F
100
AcDbEntity
  8
LAY-10
  6
CONTINUOUS
 62
     7
100
AcDbLine
 10
2427.023511271503
 20
1239.869254685313
 30
0.0
 11
2429.0235112715
 21
1238.069254685317
 31
0.0
  0
LINE
  5
291
330
1F
100
AcDbEntity
  8
LAY-10
  6
CONTINUOUS
 62
     7
100
AcDbLine
 10
2427.023511271502
 20
1239.162147904131
 30
0.0
 11
2429.023511271503
 21
1237.362147904127
 31
0.0
  0
LINE
  5
292
330
1F
100
AcDbEntity
  8
LAY-10
  6
CONTINUOUS
 62
     7
100
AcDbLine
 10
2427.023511271503
 20
1238.455041122941
 30
0.0
 11
2429.0235112715
 21
1236.655041122944
 31
0.0
  0
LINE
  5
293
330
1F
100
AcDbEntity
  8
LAY-10
  6
CONTINUOUS
 62
     7
100
AcDbLine
 10
2427.023511271502
 20
1237.747934341758
 30
0.0
 11
2429.023511271503
 21
1235.947934341753
 31
0.0
  0
LINE
  5
294
330
1F
100
AcDbEntity
  8
LAY-10
  6
CONTINUOUS
 62
     7
100
AcDbLine
 10
2427.023511271503
 20
1237.040827560568
 30
0.0
 11
2429.0235112715
 21
1235.240827560572
 31
0.0
  0
LINE
  5
295
330
1F
100
AcDbEntity
  8
LAY-10
  6
CONTINUOUS
 62
     7
100
AcDbLine
 10
2427.0235112715
 20
1236.333720779385
 30
0.0
 11
2429.023511271503
 21
1234.533720779382
 31
0.0
  0
LINE
  5
296
330
1F
100
AcDbEntity
  8
LAY-10
  6
CONTINUOUS
 62
     7
100
AcDbLine
 10
2427.023511271503
 20
1235.626613998194
 30
0.0
 11
2429.0235112715
 21
1233.826613998199
 31
0.0
  0
LINE
  5
297
330
1F
100
AcDbEntity
  8
LAY-10
  6
CONTINUOUS
 62
     7
100
AcDbLine
 10
2427.0235112715
 20
1234.919507217011
 30
0.0
 11
2429.023511271503
 21
1233.119507217008
 31
0.0
  0
LINE
  5
298
330
1F
100
AcDbEntity
  8
LAY-10
  6
CONTINUOUS
 62
     7
100
AcDbLine
 10
2427.023511271503
 20
1234.212400435822
 30
0.0
 11
2429.0235112715
 21
1232.412400435825
 31
0.0
  0
LINE
  5
299
330
1F
100
AcDbEntity
  8
LAY-10
  6
CONTINUOUS
 62
     7
100
AcDbLine
 10
2427.0235112715
 20
1233.505293654639
 30
0.0
 11
2429.023511271503
 21
1231.705293654637
 31
0.0
  0
LINE
  5
29A
330
1F
100
AcDbEntity
  8
LAY-10
  6
CONTINUOUS
 62
     7
100
AcDbLine
 10
2427.023511271503
 20
1232.798186873448
 30
0.0
 11
2429.0235112715
 21
1230.998186873453
 31
0.0
  0
LINE
  5
29B
330
1F
100
AcDbEntity
  8
LAY-10
  6
CONTINUOUS
 62
     7
100
AcDbLine
 10
2427.0235112715
 20
1232.091080092266
 30
0.0
 11
2429.023511271503
 21
1230.291080092263
 31
0.0
  0
LINE
  5
29C
330
1F
100
AcDbEntity
  8
LAY-10
  6
CONTINUOUS
 62
     7
100
AcDbLine
 10
2427.023511271502
 20
1231.383973311076
 30
0.0
 11
2429.0235112715
 21
1229.583973311079
 31
0.0
  0
LINE
  5
29D
330
1F
100
AcDbEntity
  8
LAY-10
  6
CONTINUOUS
 62
     7
100
AcDbLine
 10
2427.0235112715
 20
1230.676866529893
 30
0.0
 11
2428.429686464282
 21
1229.47069133711
 31
0.0
  0
LINE
  5
29E
330
1F
100
AcDbEntity
  8
LAY-10
  6
CONTINUOUS
 62
     7
100
AcDbLine
 10
2427.023511271502
 20
1229.969759748703
 30
0.0
 11
2427.522579683099
 21
1229.470691337108
 31
0.0
  0
LINE
  5
29F
330
1F
100
AcDbEntity
  8
LAY-10
  6
CONTINUOUS
 62
     7
100
AcDbLine
 10
2427.242370837267
 20
1259.470691337191
 30
0.0
 11
2429.023511271505
 21
1257.862947900332
 31
0.0
  0
LINE
  5
2A0
330
1F
100
AcDbEntity
  8
LAY-10
  6
CONTINUOUS
 62
     7
100
AcDbLine
 10
2428.025739906249
 20
1259.470691337191
 30
0.0
 11
2429.023511271505
 21
1258.570054681519
 31
0.0
  0
LINE
  5
2A1
330
1F
100
AcDbEntity
  8
LAY-10
  6
CONTINUOUS
 62
     7
100
AcDbLine
 10
2428.809108975232
 20
1259.470691337191
 30
0.0
 11
2429.023511271505
 21
1259.277161462707
 31
0.0
  0
LINE
  5
2A2
330
1F
100
AcDbEntity
  8
LAY-10
  6
CONTINUOUS
 62
     7
100
AcDbLine
 10
2427.023511271525
 20
1259.470691337274
 30
0.0
 11
2429.023511271525
 21
1259.470691337274
 31
0.0
  0
ARC
  5
2A3
330
1F
100
AcDbEntity
  8
LAY-10
  6
CONTINUOUS
 62
     7
100
AcDbCircle
 10
2426.0235112715
 20
1276.470691337531
 30
0.0
 40
3.000000000000003
100
AcDbArc
 50
90.00000000000001
 51
180.0
  0
ARC
  5
2A4
330
1F
100
AcDbEntity
  8
LAY-10
  6
CONTINUOUS
 62
     7
100
AcDbCircle
 10
2416.523511271503
 20
1239.97069133753
 30
0.0
 40
6.500000000000004
100
AcDbArc
 50
270.0000000000002
 51
0.0
  0
LINE
  5
2A5
330
1F
100
AcDbEntity
  8
LAY-10
  6
CONTINUOUS
 62
     7
100
AcDbLine
 10
2416.523511271503
 20
1233.47069133753
 30
0.0
 11
2377.023511271497
 21
1233.47069133753
 31
0.0
  0
ARC
  5
2A6
330
1F
100
AcDbEntity
  8
LAY-10
  6
CONTINUOUS
 62
     7
100
AcDbCircle
 10
2380.023511271503
 20
1230.47069133753
 30
0.0
 40
3.000000000000003
100
AcDbArc
 50
90.00000000000001
 51
180.0
  0
LINE
  5
2A7
330
1F
100
AcDbEntity
  8
LAY-10
  6
CONTINUOUS
 62
     7
100
AcDbLine
 10
2427.023511271497
 20
1279.47069133753
 30
0.0
 11
2426.0235112715
 21
1279.47069133753
 31
0.0
  0
LINE
  5
2A8
330
1F
100
AcDbEntity
  8
LAY-10
  6
CONTINUOUS
 62
     7
100
AcDbLine
 10
2372.523511271507
 20
2300.470691337227
 30
0.0
 11
2372.523511271507
 21
2315.470691337227
 31
0.0
  0
LINE
  5
2A9
330
1F
100
AcDbEntity
  8
LAY-10
  6
CONTINUOUS
 62
     7
100
AcDbLine
 10
2372.523511271507
 20
2300.470691337227
 30
0.0
 11
2387.523511271507
 21
2300.470691337227
 31
0.0
  0
LINE
  5
2AA
330
1F
100
AcDbEntity
  8
LAY-10
  6
CONTINUOUS
 62
     7
100
AcDbLine
 10
2375.523511271507
 20
2303.470691337225
 30
0.0
 11
2375.523511271507
 21
2315.470691337227
 31
0.0
  0
LINE
  5
2AB
330
1F
100
AcDbEntity
  8
LAY-10
  6
CONTINUOUS
 62
     7
100
AcDbLine
 10
2387.523511271507
 20
2300.470691337227
 30
0.0
 11
2387.523511271507
 21
2303.470691337225
 31
0.0
  0
LINE
  5
2AC
330
1F
100
AcDbEntity
  8
LAY-10
  6
CONTINUOUS
 62
     7
100
AcDbLine
 10
2372.523511271507
 20
2315.470691337227
 30
0.0
 11
2375.523511271507
 21
2315.470691337227
 31
0.0
  0
LINE
  5
2AD
330
1F
100
AcDbEntity
  8
LAY-10
  6
CONTINUOUS
 62
     7
100
AcDbLine
 10
2504.323511271508
 20
2260.47069133723
 30
0.0
 11
2504.323511271508
 21
2214.470691337226
 31
0.0
  0
LINE
  5
2AE
330
1F
100
AcDbEntity
  8
LAY-10
  6
CONTINUOUS
 62
     7
100
AcDbLine
 10
2452.323511271557
 20
2256.470691337159
 30
0.0
 11
2504.323511271558
 21
2256.470691337159
 31
0.0
  0
LINE
  5
2AF
330
1F
100
AcDbEntity
  8
LAY-10
  6
CONTINUOUS
 62
     7
100
AcDbLine
 10
2500.723511271558
 20
2254.870691337159
 30
0.0
 11
2453.923511271557
 21
2254.870691337159
 31
0.0
  0
LINE
  5
2B0
330
1F
100
AcDbEntity
  8
LAY-10
  6
CONTINUOUS
 62
     7
100
AcDbLine
 10
2504.323511271558
 20
2231.470691337161
 30
0.0
 11
2502.323511271557
 21
2231.470691337161
 31
0.0
  0
LINE
  5
2B1
330
1F
100
AcDbEntity
  8
LAY-10
  6
CONTINUOUS
 62
     7
100
AcDbLine
 10
2507.523511271509
 20
2260.670691337232
 30
0.0
 11
2507.523511271509
 21
2214.470691337226
 31
0.0
  0
LINE
  5
2B2
330
1F
100
AcDbEntity
  8
LAY-10
  6
CONTINUOUS
 62
     7
100
AcDbLine
 10
2504.323511271513
 20
2214.470691337226
 30
0.0
 11
2507.523511271509
 21
2214.470691337226
 31
0.0
  0
ARC
  5
2B3
330
1F
100
AcDbEntity
  8
LAY-10
  6
CONTINUOUS
 62
     7
100
AcDbCircle
 10
2504.523511271509
 20
2260.670691337232
 30
0.0
 40
3.000000000000003
100
AcDbArc
 50
0.0
 51
90.00000000000001
  0
LINE
  5
2B4
330
1F
100
AcDbEntity
  8
LAY-10
  6
CONTINUOUS
 62
     7
100
AcDbLine
 10
2435.223511271496
 20
2263.670691337233
 30
0.0
 11
2504.523511271509
 21
2263.670691337233
 31
0.0
  0
LINE
  5
2B5
330
1F
100
AcDbEntity
  8
LAY-10
  6
CONTINUOUS
 62
     7
100
AcDbLine
 10
2435.023511271496
 20
2260.47069133723
 30
0.0
 11
2504.323511271513
 21
2260.47069133723
 31
0.0
  0
ARC
  5
2B6
330
1F
100
AcDbEntity
  8
LAY-10
  6
CONTINUOUS
 62
     7
100
AcDbCircle
 10
2426.023511271498
 20
2300.470691337193
 30
0.0
 40
3.000000000000003
100
AcDbArc
 50
0.0
 51
90.00000000000001
  0
ARC
  5
2B7
330
1F
100
AcDbEntity
  8
LAY-10
  6
CONTINUOUS
 62
     7
100
AcDbCircle
 10
2426.223511271497
 20
2300.670691337193
 30
0.0
 40
6.000000000000006
100
AcDbArc
 50
0.0
 51
90.00000000000001
  0
ARC
  5
2B8
330
1F
100
AcDbEntity
  8
LAY-10
  6
CONTINUOUS
 62
     7
100
AcDbCircle
 10
2435.223511271496
 20
2266.670691337232
 30
0.0
 40
3.000000000000003
100
AcDbArc
 50
180.0
 51
270.0
  0
ARC
  5
2B9
330
1F
100
AcDbEntity
  8
LAY-10
  6
CONTINUOUS
 62
     7
100
AcDbCircle
 10
2435.023511271496
 20
2266.470691337232
 30
0.0
 40
6.000000000000006
100
AcDbArc
 50
180.0
 51
270.0
  0
LINE
  5
2BA
330
1F
100
AcDbEntity
  8
LAY-10
  6
CONTINUOUS
 62
     7
100
AcDbLine
 10
2440.223511271598
 20
2273.356982838238
 30
0.0
 11
2432.223511271597
 21
2273.356982838238
 31
0.0
  0
LINE
  5
2BB
330
1F
100
AcDbEntity
  8
LAY-10
  6
CONTINUOUS
 62
     7
100
AcDbLine
 10
2440.223511271598
 20
2303.35698283824
 30
0.0
 11
2440.223511271598
 21
2273.356982838238
 31
0.0
  0
ARC
  5
2BC
330
1F
100
AcDbEntity
  8
LAY-10
  6
CONTINUOUS
 62
     7
100
AcDbCircle
 10
2440.223511271598
 20
2303.35698283824
 30
0.0
 40
8.0
100
AcDbArc
 50
135.0000000000047
 51
180.0
  0
LINE
  5
2BD
330
1F
100
AcDbEntity
  8
LAY-10
  6
CONTINUOUS
 62
     7
100
AcDbLine
 10
2469.921996081432
 20
2344.369176147059
 30
0.0
 11
2434.566657022105
 21
2309.013837087732
 31
0.0
  0
LINE
  5
2BE
330
1F
100
AcDbEntity
  8
LAY-10
  6
CONTINUOUS
 62
     7
100
AcDbLine
 10
2475.578850330923
 20
2338.712321897568
 30
0.0
 11
2440.223511271598
 21
2303.35698283824
 31
0.0
  0
LINE
  5
2BF
330
1F
100
AcDbEntity
  8
LAY-10
  6
CONTINUOUS
 62
     7
100
AcDbLine
 10
2469.921996081432
 20
2344.369176147059
 30
0.0
 11
2475.578850330925
 21
2338.712321897568
 31
0.0
  0
LINE
  5
2C0
330
1F
100
AcDbEntity
  8
LAY-10
  6
CONTINUOUS
 62
     7
100
AcDbLine
 10
2432.223511271497
 20
2266.670691337232
 30
0.0
 11
2432.223511271497
 21
2303.35698283824
 31
0.0
  0
LINE
  5
2C1
330
1F
100
AcDbEntity
  8
LAY-10
  6
CONTINUOUS
 62
     7
100
AcDbLine
 10
2375.523511271507
 20
2303.470691337225
 30
0.0
 11
2426.023511271498
 21
2303.470691337225
 31
0.0
  0
LINE
  5
2C2
330
1F
100
AcDbEntity
  8
LAY-10
  6
CONTINUOUS
 62
     7
100
AcDbLine
 10
2426.223511271497
 20
2306.670691337223
 30
0.0
 11
2375.523511271507
 21
2306.670691337223
 31
0.0
  0
LINE
  5
2C3
330
1F
100
AcDbEntity
  8
LAY-10
  6
CONTINUOUS
 62
     7
100
AcDbLine
 10
2429.0235112715
 20
2299.470691337229
 30
0.0
 11
2372.523511271515
 21
2299.470691337229
 31
0.0
  0
LINE
  5
2C4
330
1F
100
AcDbEntity
  8
LAY-10
  6
CONTINUOUS
 62
     7
100
AcDbLine
 10
2427.023511271521
 20
2298.961137777211
 30
0.0
 11
2429.023511271524
 21
2297.155841119006
 31
0.0
  0
LINE
  5
2C5
330
1F
100
AcDbEntity
  8
LAY-10
  6
CONTINUOUS
 62
     7
100
AcDbLine
 10
2427.023511271523
 20
2298.254030996023
 30
0.0
 11
2429.023511271524
 21
2296.44873433782
 31
0.0
  0
LINE
  5
2C6
330
1F
100
AcDbEntity
  8
LAY-10
  6
CONTINUOUS
 62
     7
100
AcDbLine
 10
2427.023511271521
 20
2297.546924214837
 30
0.0
 11
2429.023511271524
 21
2295.741627556632
 31
0.0
  0
LINE
  5
2C7
330
1F
100
AcDbEntity
  8
LAY-10
  6
CONTINUOUS
 62
     7
100
AcDbLine
 10
2427.023511271523
 20
2296.839817433649
 30
0.0
 11
2429.023511271524
 21
2295.034520775448
 31
0.0
  0
LINE
  5
2C8
330
1F
100
AcDbEntity
  8
LAY-10
  6
CONTINUOUS
 62
     7
100
AcDbLine
 10
2427.023511271521
 20
2296.132710652466
 30
0.0
 11
2429.023511271524
 21
2294.32741399426
 31
0.0
  0
LINE
  5
2C9
330
1F
100
AcDbEntity
  8
LAY-10
  6
CONTINUOUS
 62
     7
100
AcDbLine
 10
2427.023511271523
 20
2295.425603871277
 30
0.0
 11
2429.0254613804
 21
2293.623653762402
 31
0.0
  0
LINE
  5
2CA
330
1F
100
AcDbEntity
  8
LAY-10
  6
CONTINUOUS
 62
     7
100
AcDbLine
 10
2427.023511271521
 20
2294.718497090091
 30
0.0
 11
2429.023511271524
 21
2292.916950351773
 31
0.0
  0
LINE
  5
2CB
330
1F
100
AcDbEntity
  8
LAY-10
  6
CONTINUOUS
 62
     7
100
AcDbLine
 10
2427.023511271523
 20
2294.011390308904
 30
0.0
 11
2429.023511271521
 21
2292.211390308907
 31
0.0
  0
LINE
  5
2CC
330
1F
100
AcDbEntity
  8
LAY-10
  6
CONTINUOUS
 62
     7
100
AcDbLine
 10
2427.023511271521
 20
2293.304283527719
 30
0.0
 11
2429.023511271525
 21
2291.504283527719
 31
0.0
  0
LINE
  5
2CD
330
1F
100
AcDbEntity
  8
LAY-10
  6
CONTINUOUS
 62
     7
100
AcDbLine
 10
2427.023511271523
 20
2292.597176746533
 30
0.0
 11
2429.023511271521
 21
2290.797176746533
 31
0.0
  0
LINE
  5
2CE
330
1F
100
AcDbEntity
  8
LAY-10
  6
CONTINUOUS
 62
     7
100
AcDbLine
 10
2427.023511271521
 20
2291.890069965347
 30
0.0
 11
2429.023511271525
 21
2290.090069965346
 31
0.0
  0
LINE
  5
2CF
330
1F
100
AcDbEntity
  8
LAY-10
  6
CONTINUOUS
 62
     7
100
AcDbLine
 10
2427.023511271523
 20
2291.182963184157
 30
0.0
 11
2429.023511271521
 21
2289.38296318416
 31
0.0
  0
LINE
  5
2D0
330
1F
100
AcDbEntity
  8
LAY-10
  6
CONTINUOUS
 62
     7
100
AcDbLine
 10
2427.023511271521
 20
2290.475856402973
 30
0.0
 11
2429.023511271525
 21
2288.675856402973
 31
0.0
  0
LINE
  5
2D1
330
1F
100
AcDbEntity
  8
LAY-10
  6
CONTINUOUS
 62
     7
100
AcDbLine
 10
2427.023511271523
 20
2289.768749621786
 30
0.0
 11
2429.023511271521
 21
2287.968749621788
 31
0.0
  0
LINE
  5
2D2
330
1F
100
AcDbEntity
  8
LAY-10
  6
CONTINUOUS
 62
     7
100
AcDbLine
 10
2427.023511271521
 20
2289.061642840601
 30
0.0
 11
2429.023511271525
 21
2287.261642840596
 31
0.0
  0
LINE
  5
2D3
330
1F
100
AcDbEntity
  8
LAY-10
  6
CONTINUOUS
 62
     7
100
AcDbLine
 10
2427.023511271523
 20
2288.354536059413
 30
0.0
 11
2429.023511271521
 21
2286.554536059413
 31
0.0
  0
LINE
  5
2D4
330
1F
100
AcDbEntity
  8
LAY-10
  6
CONTINUOUS
 62
     7
100
AcDbLine
 10
2427.023511271521
 20
2287.647429278228
 30
0.0
 11
2429.023511271525
 21
2285.847429278225
 31
0.0
  0
LINE
  5
2D5
330
1F
100
AcDbEntity
  8
LAY-10
  6
CONTINUOUS
 62
     7
100
AcDbLine
 10
2427.023511271523
 20
2286.94032249704
 30
0.0
 11
2429.023511271521
 21
2285.140322497042
 31
0.0
  0
LINE
  5
2D6
330
1F
100
AcDbEntity
  8
LAY-10
  6
CONTINUOUS
 62
     7
100
AcDbLine
 10
2427.023511271521
 20
2286.233215715854
 30
0.0
 11
2429.023511271525
 21
2284.433215715851
 31
0.0
  0
LINE
  5
2D7
330
1F
100
AcDbEntity
  8
LAY-10
  6
CONTINUOUS
 62
     7
100
AcDbLine
 10
2427.023511271523
 20
2285.526108934666
 30
0.0
 11
2429.02351127152
 21
2283.726108934668
 31
0.0
  0
LINE
  5
2D8
330
1F
100
AcDbEntity
  8
LAY-10
  6
CONTINUOUS
 62
     7
100
AcDbLine
 10
2427.023511271521
 20
2284.819002153482
 30
0.0
 11
2429.023511271525
 21
2283.019002153479
 31
0.0
  0
LINE
  5
2D9
330
1F
100
AcDbEntity
  8
LAY-10
  6
CONTINUOUS
 62
     7
100
AcDbLine
 10
2427.023511271523
 20
2284.111895372291
 30
0.0
 11
2429.02351127152
 21
2282.311895372297
 31
0.0
  0
LINE
  5
2DA
330
1F
100
AcDbEntity
  8
LAY-10
  6
CONTINUOUS
 62
     7
100
AcDbLine
 10
2427.023511271521
 20
2283.404788591108
 30
0.0
 11
2429.023511271525
 21
2281.604788591107
 31
0.0
  0
LINE
  5
2DB
330
1F
100
AcDbEntity
  8
LAY-10
  6
CONTINUOUS
 62
     7
100
AcDbLine
 10
2427.023511271523
 20
2282.697681809919
 30
0.0
 11
2429.02351127152
 21
2280.897681809924
 31
0.0
  0
LINE
  5
2DC
330
1F
100
AcDbEntity
  8
LAY-10
  6
CONTINUOUS
 62
     7
100
AcDbLine
 10
2427.023511271521
 20
2281.990575028736
 30
0.0
 11
2429.023511271525
 21
2280.190575028733
 31
0.0
  0
LINE
  5
2DD
330
1F
100
AcDbEntity
  8
LAY-10
  6
CONTINUOUS
 62
     7
100
AcDbLine
 10
2427.023511271523
 20
2281.283468247546
 30
0.0
 11
2429.02351127152
 21
2279.48346824755
 31
0.0
  0
LINE
  5
2DE
330
1F
100
AcDbEntity
  8
LAY-10
  6
CONTINUOUS
 62
     7
100
AcDbLine
 10
2427.023511271521
 20
2280.576361466363
 30
0.0
 11
2429.023511271523
 21
2278.77636146636
 31
0.0
  0
LINE
  5
2DF
330
1F
100
AcDbEntity
  8
LAY-10
  6
CONTINUOUS
 62
     7
100
AcDbLine
 10
2427.023511271523
 20
2279.869254685173
 30
0.0
 11
2429.02351127152
 21
2278.069254685177
 31
0.0
  0
LINE
  5
2E0
330
1F
100
AcDbEntity
  8
LAY-10
  6
CONTINUOUS
 62
     7
100
AcDbLine
 10
2427.023511271521
 20
2279.162147903991
 30
0.0
 11
2429.023511271523
 21
2277.362147903988
 31
0.0
  0
LINE
  5
2E1
330
1F
100
AcDbEntity
  8
LAY-10
  6
CONTINUOUS
 62
     7
100
AcDbLine
 10
2427.023511271523
 20
2278.455041122801
 30
0.0
 11
2429.02351127152
 21
2276.655041122805
 31
0.0
  0
LINE
  5
2E2
330
1F
100
AcDbEntity
  8
LAY-10
  6
CONTINUOUS
 62
     7
100
AcDbLine
 10
2427.023511271521
 20
2277.747934341618
 30
0.0
 11
2429.023511271523
 21
2275.947934341613
 31
0.0
  0
LINE
  5
2E3
330
1F
100
AcDbEntity
  8
LAY-10
  6
CONTINUOUS
 62
     7
100
AcDbLine
 10
2427.023511271523
 20
2277.040827560428
 30
0.0
 11
2429.02351127152
 21
2275.240827560432
 31
0.0
  0
LINE
  5
2E4
330
1F
100
AcDbEntity
  8
LAY-10
  6
CONTINUOUS
 62
     7
100
AcDbLine
 10
2427.02351127152
 20
2276.333720779245
 30
0.0
 11
2429.023511271523
 21
2274.533720779242
 31
0.0
  0
LINE
  5
2E5
330
1F
100
AcDbEntity
  8
LAY-10
  6
CONTINUOUS
 62
     7
100
AcDbLine
 10
2427.023511271523
 20
2275.626613998054
 30
0.0
 11
2429.02351127152
 21
2273.826613998059
 31
0.0
  0
LINE
  5
2E6
330
1F
100
AcDbEntity
  8
LAY-10
  6
CONTINUOUS
 62
     7
100
AcDbLine
 10
2427.02351127152
 20
2274.919507216871
 30
0.0
 11
2429.023511271523
 21
2273.119507216868
 31
0.0
  0
LINE
  5
2E7
330
1F
100
AcDbEntity
  8
LAY-10
  6
CONTINUOUS
 62
     7
100
AcDbLine
 10
2427.023511271523
 20
2274.212400435682
 30
0.0
 11
2429.02351127152
 21
2272.412400435685
 31
0.0
  0
LINE
  5
2E8
330
1F
100
AcDbEntity
  8
LAY-10
  6
CONTINUOUS
 62
     7
100
AcDbLine
 10
2427.02351127152
 20
2273.505293654499
 30
0.0
 11
2429.023511271523
 21
2271.705293654497
 31
0.0
  0
LINE
  5
2E9
330
1F
100
AcDbEntity
  8
LAY-10
  6
CONTINUOUS
 62
     7
100
AcDbLine
 10
2427.023511271523
 20
2272.798186873308
 30
0.0
 11
2429.02351127152
 21
2270.998186873313
 31
0.0
  0
LINE
  5
2EA
330
1F
100
AcDbEntity
  8
LAY-10
  6
CONTINUOUS
 62
     7
100
AcDbLine
 10
2427.02351127152
 20
2272.091080092127
 30
0.0
 11
2429.023511271523
 21
2270.291080092124
 31
0.0
  0
LINE
  5
2EB
330
1F
100
AcDbEntity
  8
LAY-10
  6
CONTINUOUS
 62
     7
100
AcDbLine
 10
2427.023511271522
 20
2271.383973310936
 30
0.0
 11
2429.02351127152
 21
2269.583973310939
 31
0.0
  0
LINE
  5
2EC
330
1F
100
AcDbEntity
  8
LAY-10
  6
CONTINUOUS
 62
     7
100
AcDbLine
 10
2427.02351127152
 20
2270.676866529753
 30
0.0
 11
2428.429686464303
 21
2269.47069133697
 31
0.0
  0
LINE
  5
2ED
330
1F
100
AcDbEntity
  8
LAY-10
  6
CONTINUOUS
 62
     7
100
AcDbLine
 10
2427.023511271522
 20
2269.969759748563
 30
0.0
 11
2427.52257968312
 21
2269.470691336968
 31
0.0
  0
LINE
  5
2EE
330
1F
100
AcDbEntity
  8
LAY-10
  6
CONTINUOUS
 62
     7
100
AcDbLine
 10
2427.242370837286
 20
2299.470691337051
 30
0.0
 11
2429.023511271524
 21
2297.862947900193
 31
0.0
  0
LINE
  5
2EF
330
1F
100
AcDbEntity
  8
LAY-10
  6
CONTINUOUS
 62
     7
100
AcDbLine
 10
2428.025739906268
 20
2299.470691337051
 30
0.0
 11
2429.023511271524
 21
2298.570054681379
 31
0.0
  0
LINE
  5
2F0
330
1F
100
AcDbEntity
  8
LAY-10
  6
CONTINUOUS
 62
     7
100
AcDbLine
 10
2428.809108975253
 20
2299.470691337051
 30
0.0
 11
2429.023511271524
 21
2299.277161462567
 31
0.0
  0
LINE
  5
2F1
330
1F
100
AcDbEntity
  8
LAY-10
  6
CONTINUOUS
 62
     7
100
AcDbLine
 10
2427.023511271525
 20
2269.470691337119
 30
0.0
 11
2429.023511271525
 21
2269.470691337119
 31
0.0
  0
ARC
  5
2F2
330
1F
100
AcDbEntity
  8
LAY-10
  6
CONTINUOUS
 62
     7
100
AcDbCircle
 10
2426.0235112715
 20
2252.470691337236
 30
0.0
 40
3.000000000000003
100
AcDbArc
 50
180.0
 51
270.0000000000002
  0
ARC
  5
2F3
330
1F
100
AcDbEntity
  8
LAY-10
  6
CONTINUOUS
 62
     7
100
AcDbCircle
 10
2416.523511271503
 20
2288.970691337236
 30
0.0
 40
6.500000000000004
100
AcDbArc
 50
0.0
 51
90.00000000000001
  0
LINE
  5
2F4
330
1F
100
AcDbEntity
  8
LAY-10
  6
CONTINUOUS
 62
     7
100
AcDbLine
 10
2416.523511271503
 20
2295.470691337236
 30
0.0
 11
2377.023511271497
 21
2295.470691337236
 31
0.0
  0
ARC
  5
2F5
330
1F
100
AcDbEntity
  8
LAY-10
  6
CONTINUOUS
 62
     7
100
AcDbCircle
 10
2380.023511271503
 20
2298.470691337236
 30
0.0
 40
3.000000000000003
100
AcDbArc
 50
180.0
 51
270.0000000000002
  0
LINE
  5
2F6
330
1F
100
AcDbEntity
  8
LAY-10
  6
CONTINUOUS
 62
     7
100
AcDbLine
 10
2427.023511271497
 20
2249.470691337236
 30
0.0
 11
2426.0235112715
 21
2249.470691337236
 31
0.0
  0
LINE
  5
2F7
330
1F
100
AcDbEntity
  8
LAY-10
  6
CONTINUOUS
 62
     7
100
AcDbLine
 10
2452.323511271558
 20
2256.47069133723
 30
0.0
 11
2452.323511271557
 21
1272.470691337235
 31
0.0
  0
LINE
  5
2F8
330
1F
100
AcDbEntity
  8
LAY-10
  6
CONTINUOUS
 62
     7
100
AcDbLine
 10
2502.323511271557
 20
1272.470691337235
 30
0.0
 11
2502.323511271557
 21
2256.47069133723
 31
0.0
  0
LINE
  5
2F9
330
1F
100
AcDbEntity
  8
LAY-10
  6
CONTINUOUS
 62
     7
100
AcDbLine
 10
2453.923511271559
 20
2254.870691337228
 30
0.0
 11
2453.923511271557
 21
1274.070691337235
 31
0.0
  0
LINE
  5
2FA
330
1F
100
AcDbEntity
  8
LAY-10
  6
CONTINUOUS
 62
     7
100
AcDbLine
 10
2500.723511271558
 20
1274.070691337235
 30
0.0
 11
2500.723511271558
 21
2254.870691337228
 31
0.0
  0
LINE
  5
2FB
330
1F
100
AcDbEntity
  8
LAY-10
  6
CONTINUOUS
 62
     7
100
AcDbLine
 10
2429.0235112715
 20
1228.470691337217
 30
0.0
 11
2429.0235112715
 21
2300.47069133723
 31
0.0
  0
LINE
  5
2FC
330
1F
100
AcDbEntity
  8
LAY-10
  6
CONTINUOUS
 62
     7
100
AcDbLine
 10
2372.523511271498
 20
1229.47069133753
 30
0.0
 11
2372.523511271498
 21
2299.470691337236
 31
0.0
  0
LINE
  5
2FD
330
1F
100
AcDbEntity
  8
LAY-10
  6
CONTINUOUS
 62
     7
100
AcDbLine
 10
2377.023511271497
 20
1229.47069133753
 30
0.0
 11
2377.023511271497
 21
2299.470691337236
 31
0.0
  0
LINE
  5
2FE
330
1F
100
AcDbEntity
  8
LAY-10
  6
CONTINUOUS
 62
     7
100
AcDbLine
 10
2427.023511271497
 20
1229.47069133753
 30
0.0
 11
2427.023511271497
 21
2299.470691337236
 31
0.0
  0
LINE
  5
2FF
330
1F
100
AcDbEntity
  8
LAY-10
  6
CONTINUOUS
 62
     7
100
AcDbLine
 10
2423.023511271503
 20
2288.970691337236
 30
0.0
 11
2423.023511271503
 21
1239.97069133753
 31
0.0
  0
LINE
  5
300
330
1F
100
AcDbEntity
  8
LAY-10
  6
CONTINUOUS
 62
     7
100
AcDbLine
 10
2421.0235112715
 20
1235.280275577705
 30
0.0
 11
2421.0235112715
 21
2293.661107097061
 31
0.0
  0
LINE
  5
301
330
1F
100
AcDbEntity
  8
LAY-10
  6
CONTINUOUS
 62
     7
100
AcDbLine
 10
2446.32351127164
 20
1578.620691337217
 30
0.0
 11
2452.323511271647
 21
1578.620691337217
 31
0.0
  0
LINE
  5
302
330
1F
100
AcDbEntity
  8
LAY-10
  6
CONTINUOUS
 62
     7
100
AcDbLine
 10
2446.32351127164
 20
1408.320691337216
 30
0.0
 11
2452.323511271647
 21
1408.320691337216
 31
0.0
  0
LINE
  5
303
330
1F
100
AcDbEntity
  8
LAY-10
  6
CONTINUOUS
 62
     7
100
AcDbLine
 10
2444.32351127164
 20
1548.620691337216
 30
0.0
 11
2452.323511271647
 21
1548.620691337216
 31
0.0
  0
LINE
  5
304
330
1F
100
AcDbEntity
  8
LAY-10
  6
CONTINUOUS
 62
     7
100
AcDbLine
 10
2444.32351127164
 20
1568.620691337217
 30
0.0
 11
2444.32351127164
 21
1548.620691337216
 31
0.0
  0
LINE
  5
305
330
1F
100
AcDbEntity
  8
LAY-10
  6
CONTINUOUS
 62
     7
100
AcDbLine
 10
2444.32351127164
 20
1438.620691337217
 30
0.0
 11
2444.32351127164
 21
1418.620691337217
 31
0.0
  0
LINE
  5
306
330
1F
100
AcDbEntity
  8
LAY-10
  6
CONTINUOUS
 62
     7
100
AcDbLine
 10
2446.32351127164
 20
1578.620691337217
 30
0.0
 11
2446.32351127164
 21
1568.620691337217
 31
0.0
  0
LINE
  5
307
330
1F
100
AcDbEntity
  8
LAY-10
  6
CONTINUOUS
 62
     7
100
AcDbLine
 10
2446.32351127164
 20
1548.620691337216
 30
0.0
 11
2446.32351127164
 21
1438.620691337217
 31
0.0
  0
LINE
  5
308
330
1F
100
AcDbEntity
  8
LAY-10
  6
CONTINUOUS
 62
     7
100
AcDbLine
 10
2446.32351127164
 20
1418.620691337217
 30
0.0
 11
2446.32351127164
 21
1408.320691337216
 31
0.0
  0
LINE
  5
309
330
1F
100
AcDbEntity
  8
LAY-10
  6
CONTINUOUS
 62
     7
100
AcDbLine
 10
2444.32351127164
 20
1438.620691337217
 30
0.0
 11
2452.323511271647
 21
1438.620691337217
 31
0.0
  0
LINE
  5
30A
330
1F
100
AcDbEntity
  8
LAY-10
  6
CONTINUOUS
 62
     7
100
AcDbLine
 10
2444.32351127164
 20
1418.620691337217
 30
0.0
 11
2452.323511271647
 21
1418.620691337217
 31
0.0
  0
LINE
  5
30B
330
1F
100
AcDbEntity
  8
LAY-10
  6
CONTINUOUS
 62
     7
100
AcDbLine
 10
2444.32351127164
 20
1568.620691337217
 30
0.0
 11
2452.323511271647
 21
1568.620691337217
 31
0.0
  0
ARC
  5
30C
330
1F
100
AcDbEntity
  8
LAY-10
  6
CONTINUOUS
 62
     7
100
AcDbCircle
 10
2449.323511271647
 20
1540.620691337219
 30
0.0
 40
3.000000000000003
100
AcDbArc
 50
180.0
 51
270.0000000000002
  0
ARC
  5
30D
330
1F
100
AcDbEntity
  8
LAY-10
  6
CONTINUOUS
 62
     7
100
AcDbCircle
 10
2449.323511271647
 20
1540.620691337219
 30
0.0
 40
3.000000000000003
100
AcDbArc
 50
270.0000000000002
 51
0.0
  0
ARC
  5
30E
330
1F
100
AcDbEntity
  8
LAY-10
  6
CONTINUOUS
 62
     7
100
AcDbCircle
 10
2449.323511271647
 20
1446.620691337217
 30
0.0
 40
3.000000000000003
100
AcDbArc
 50
90.00000000000001
 51
180.0
  0
ARC
  5
30F
330
1F
100
AcDbEntity
  8
LAY-10
  6
CONTINUOUS
 62
     7
100
AcDbCircle
 10
2449.323511271647
 20
1446.620691337217
 30
0.0
 40
3.000000000000003
100
AcDbArc
 50
0.0
 51
90.00000000000001
  0
LINE
  5
310
330
1F
100
AcDbEntity
  8
LAY-10
  6
CONTINUOUS
 62
     7
100
AcDbLine
 10
2451.32351127164
 20
1548.620691337216
 30
0.0
 11
2451.32351127164
 21
1568.620691337217
 31
0.0
  0
LINE
  5
311
330
1F
100
AcDbEntity
  8
LAY-10
  6
CONTINUOUS
 62
     7
100
AcDbLine
 10
2451.32351127164
 20
1418.620691337217
 30
0.0
 11
2451.32351127164
 21
1438.620691337217
 31
0.0
  0
LINE
  5
312
330
1F
100
AcDbEntity
  8
LAY-10
  6
CONTINUOUS
 62
     7
100
AcDbLine
 10
2446.32351127164
 20
1950.32069133742
 30
0.0
 11
2452.323511271647
 21
1950.32069133742
 31
0.0
  0
LINE
  5
313
330
1F
100
AcDbEntity
  8
LAY-10
  6
CONTINUOUS
 62
     7
100
AcDbLine
 10
2446.32351127164
 20
2120.620691337418
 30
0.0
 11
2452.323511271647
 21
2120.620691337418
 31
0.0
  0
LINE
  5
314
330
1F
100
AcDbEntity
  8
LAY-10
  6
CONTINUOUS
 62
     7
100
AcDbLine
 10
2444.32351127164
 20
1980.32069133742
 30
0.0
 11
2452.323511271647
 21
1980.32069133742
 31
0.0
  0
LINE
  5
315
330
1F
100
AcDbEntity
  8
LAY-10
  6
CONTINUOUS
 62
     7
100
AcDbLine
 10
2444.32351127164
 20
1960.32069133742
 30
0.0
 11
2444.32351127164
 21
1980.32069133742
 31
0.0
  0
LINE
  5
316
330
1F
100
AcDbEntity
  8
LAY-10
  6
CONTINUOUS
 62
     7
100
AcDbLine
 10
2444.32351127164
 20
2090.320691337418
 30
0.0
 11
2444.32351127164
 21
2110.320691337419
 31
0.0
  0
LINE
  5
317
330
1F
100
AcDbEntity
  8
LAY-10
  6
CONTINUOUS
 62
     7
100
AcDbLine
 10
2446.32351127164
 20
1950.32069133742
 30
0.0
 11
2446.32351127164
 21
1960.32069133742
 31
0.0
  0
LINE
  5
318
330
1F
100
AcDbEntity
  8
LAY-10
  6
CONTINUOUS
 62
     7
100
AcDbLine
 10
2446.32351127164
 20
1980.32069133742
 30
0.0
 11
2446.32351127164
 21
2090.320691337418
 31
0.0
  0
LINE
  5
319
330
1F
100
AcDbEntity
  8
LAY-10
  6
CONTINUOUS
 62
     7
100
AcDbLine
 10
2446.32351127164
 20
2110.320691337419
 30
0.0
 11
2446.32351127164
 21
2120.620691337418
 31
0.0
  0
LINE
  5
31A
330
1F
100
AcDbEntity
  8
LAY-10
  6
CONTINUOUS
 62
     7
100
AcDbLine
 10
2444.32351127164
 20
2090.320691337418
 30
0.0
 11
2452.323511271647
 21
2090.320691337418
 31
0.0
  0
LINE
  5
31B
330
1F
100
AcDbEntity
  8
LAY-10
  6
CONTINUOUS
 62
     7
100
AcDbLine
 10
2444.32351127164
 20
2110.320691337419
 30
0.0
 11
2452.323511271647
 21
2110.320691337419
 31
0.0
  0
LINE
  5
31C
330
1F
100
AcDbEntity
  8
LAY-10
  6
CONTINUOUS
 62
     7
100
AcDbLine
 10
2444.32351127164
 20
1960.32069133742
 30
0.0
 11
2452.323511271647
 21
1960.32069133742
 31
0.0
  0
ARC
  5
31D
330
1F
100
AcDbEntity
  8
LAY-10
  6
CONTINUOUS
 62
     7
100
AcDbCircle
 10
2449.323511271647
 20
1988.320691337417
 30
0.0
 40
3.000000000000003
100
AcDbArc
 50
90.00000000000001
 51
180.0
  0
ARC
  5
31E
330
1F
100
AcDbEntity
  8
LAY-10
  6
CONTINUOUS
 62
     7
100
AcDbCircle
 10
2449.323511271647
 20
1988.320691337417
 30
0.0
 40
3.000000000000003
100
AcDbArc
 50
0.0
 51
90.00000000000001
  0
ARC
  5
31F
330
1F
100
AcDbEntity
  8
LAY-10
  6
CONTINUOUS
 62
     7
100
AcDbCircle
 10
2449.323511271647
 20
2082.320691337418
 30
0.0
 40
3.000000000000003
100
AcDbArc
 50
180.0
 51
270.0
  0
ARC
  5
320
330
1F
100
AcDbEntity
  8
LAY-10
  6
CONTINUOUS
 62
     7
100
AcDbCircle
 10
2449.323511271647
 20
2082.320691337418
 30
0.0
 40
3.000000000000003
100
AcDbArc
 50
270.0
 51
0.0
  0
LINE
  5
321
330
1F
100
AcDbEntity
  8
LAY-10
  6
CONTINUOUS
 62
     7
100
AcDbLine
 10
2451.32351127164
 20
1980.32069133742
 30
0.0
 11
2451.32351127164
 21
1960.32069133742
 31
0.0
  0
LINE
  5
322
330
1F
100
AcDbEntity
  8
LAY-10
  6
CONTINUOUS
 62
     7
100
AcDbLine
 10
2451.32351127164
 20
2110.320691337419
 30
0.0
 11
2451.32351127164
 21
2090.320691337418
 31
0.0
  0
LINE
  5
323
330
1F
100
AcDbEntity
  8
LAY-10
  6
CONTINUOUS
 62
     7
100
AcDbLine
 10
1050.307684156297
 20
802.2520497555897
 30
0.0
 11
1283.30768415602
 21
802.2520497555897
 31
0.0
  0
LINE
  5
324
330
1F
100
AcDbEntity
  8
LAY-10
  6
CONTINUOUS
 62
     7
100
AcDbLine
 10
1962.8076841562
 20
726.9520497555909
 30
0.0
 11
1916.807684156196
 21
726.9520497555914
 31
0.0
  0
LINE
  5
325
330
1F
100
AcDbEntity
  8
LAY-10
  6
CONTINUOUS
 62
     7
100
AcDbLine
 10
1958.807684156129
 20
778.9520497555436
 30
0.0
 11
1958.807684156129
 21
726.9520497555417
 31
0.0
  0
LINE
  5
326
330
1F
100
AcDbEntity
  8
LAY-10
  6
CONTINUOUS
 62
     7
100
AcDbLine
 10
1957.20768415613
 20
730.5520497555417
 30
0.0
 11
1957.20768415613
 21
777.3520497555423
 31
0.0
  0
LINE
  5
327
330
1F
100
AcDbEntity
  8
LAY-10
  6
CONTINUOUS
 62
     7
100
AcDbLine
 10
1883.507684156129
 20
779.9520497555427
 30
0.0
 11
1883.507684156129
 21
778.9520497555436
 31
0.0
  0
CIRCLE
  5
328
330
1F
100
AcDbEntity
  8
LAY-10
  6
CONTINUOUS
 62
     7
100
AcDbCircle
 10
1826.807684156124
 20
781.9520497555427
 30
0.0
 40
3.000000000000003
  0
ARC
  5
329
330
1F
100
AcDbEntity
  8
LAY-10
  6
CONTINUOUS
 62
     7
100
AcDbCircle
 10
1870.508575157097
 20
781.9511587545744
 30
0.0
 40
2.999108999030569
100
AcDbArc
 50
270.0
 51
90.00000000000001
  0
ARC
  5
32A
330
1F
100
AcDbEntity
  8
LAY-10
  6
CONTINUOUS
 62
     7
100
AcDbCircle
 10
1874.507684156129
 20
779.9520497555427
 30
0.0
 40
1.0
100
AcDbArc
 50
180.0
 51
270.0
  0
LINE
  5
32B
330
1F
100
AcDbEntity
  8
LAY-10
  6
CONTINUOUS
 62
     7
100
AcDbLine
 10
1874.507684156129
 20
781.9520497555432
 30
0.0
 11
1874.507684156129
 21
779.9520497555427
 31
0.0
  0
LINE
  5
32C
330
1F
100
AcDbEntity
  8
LAY-10
  6
CONTINUOUS
 62
     7
100
AcDbLine
 10
1874.507684156129
 20
779.9520497555427
 30
0.0
 11
1883.507684156129
 21
779.9520497555427
 31
0.0
  0
LINE
  5
32D
330
1F
100
AcDbEntity
  8
LAY-10
  6
CONTINUOUS
 62
     7
100
AcDbLine
 10
1826.716816776208
 20
784.9506732929799
 30
0.0
 11
1870.508575157097
 21
784.9506732929799
 31
0.0
  0
ARC
  5
32E
330
1F
100
AcDbEntity
  8
LAY-10
  6
CONTINUOUS
 62
     7
100
AcDbCircle
 10
1870.507684156128
 20
781.9520497555432
 30
0.0
 40
4.0
100
AcDbArc
 50
0.0
 51
131.4394216791276
  0
LINE
  5
32F
330
1F
100
AcDbEntity
  8
LAY-10
  6
CONTINUOUS
 62
     7
100
AcDbLine
 10
1873.507684156126
 20
779.9520497555427
 30
0.0
 11
1873.507684156126
 21
781.9520497555432
 31
0.0
  0
LINE
  5
330
330
1F
100
AcDbEntity
  8
LAY-10
  6
CONTINUOUS
 62
     7
100
AcDbLine
 10
1933.807684156131
 20
726.9520497555417
 30
0.0
 11
1933.807684156131
 21
728.9520497555432
 31
0.0
  0
LINE
  5
331
330
1F
100
AcDbEntity
  8
LAY-10
  6
CONTINUOUS
 62
     7
100
AcDbLine
 10
1963.007684156202
 20
723.7520497555901
 30
0.0
 11
1916.807684156196
 21
723.7520497555901
 31
0.0
  0
LINE
  5
332
330
1F
100
AcDbEntity
  8
LAY-10
  6
CONTINUOUS
 62
     7
100
AcDbLine
 10
1916.807684156196
 20
726.9520497555868
 30
0.0
 11
1916.807684156196
 21
723.7520497555901
 31
0.0
  0
ARC
  5
333
330
1F
100
AcDbEntity
  8
LAY-10
  6
CONTINUOUS
 62
     7
100
AcDbCircle
 10
1963.007684156202
 20
726.7520497555906
 30
0.0
 40
3.000000000000003
100
AcDbArc
 50
270.0
 51
0.0
  0
LINE
  5
334
330
1F
100
AcDbEntity
  8
LAY-10
  6
CONTINUOUS
 62
     7
100
AcDbLine
 10
1966.007684156203
 20
796.0520497556035
 30
0.0
 11
1966.007684156203
 21
726.7520497555906
 31
0.0
  0
LINE
  5
335
330
1F
100
AcDbEntity
  8
LAY-10
  6
CONTINUOUS
 62
     7
100
AcDbLine
 10
1962.8076841562
 20
796.2520497556034
 30
0.0
 11
1962.8076841562
 21
726.9520497555868
 31
0.0
  0
ARC
  5
336
330
1F
100
AcDbEntity
  8
LAY-10
  6
CONTINUOUS
 62
     7
100
AcDbCircle
 10
2002.807684156163
 20
805.2520497556015
 30
0.0
 40
3.000000000000003
100
AcDbArc
 50
270.0
 51
0.0
  0
ARC
  5
337
330
1F
100
AcDbEntity
  8
LAY-10
  6
CONTINUOUS
 62
     7
100
AcDbCircle
 10
2003.007684156163
 20
805.0520497556028
 30
0.0
 40
6.000000000000006
100
AcDbArc
 50
270.0
 51
0.0
  0
ARC
  5
338
330
1F
100
AcDbEntity
  8
LAY-10
  6
CONTINUOUS
 62
     7
100
AcDbCircle
 10
1969.007684156202
 20
796.0520497556035
 30
0.0
 40
3.000000000000003
100
AcDbArc
 50
90.00000000000001
 51
180.0
  0
ARC
  5
339
330
1F
100
AcDbEntity
  8
LAY-10
  6
CONTINUOUS
 62
     7
100
AcDbCircle
 10
1968.807684156202
 20
796.2520497556034
 30
0.0
 40
6.000000000000006
100
AcDbArc
 50
90.00000000000001
 51
180.0
  0
LINE
  5
33A
330
1F
100
AcDbEntity
  8
LAY-10
  6
CONTINUOUS
 62
     7
100
AcDbLine
 10
1975.693975657208
 20
791.0520497555018
 30
0.0
 11
1975.693975657208
 21
799.0520497555026
 31
0.0
  0
LINE
  5
33B
330
1F
100
AcDbEntity
  8
LAY-10
  6
CONTINUOUS
 62
     7
100
AcDbLine
 10
2005.69397565721
 20
791.0520497555018
 30
0.0
 11
1975.693975657208
 21
791.0520497555018
 31
0.0
  0
ARC
  5
33C
330
1F
100
AcDbEntity
  8
LAY-10
  6
CONTINUOUS
 62
     7
100
AcDbCircle
 10
2005.69397565721
 20
791.0520497555018
 30
0.0
 40
8.0
100
AcDbArc
 50
45.00000000000463
 51
90.00000000000001
  0
LINE
  5
33D
330
1F
100
AcDbEntity
  8
LAY-10
  6
CONTINUOUS
 62
     7
100
AcDbLine
 10
2046.70616896603
 20
761.353564945668
 30
0.0
 11
2011.350829906702
 21
796.708904004995
 31
0.0
  0
LINE
  5
33E
330
1F
100
AcDbEntity
  8
LAY-10
  6
CONTINUOUS
 62
     7
100
AcDbLine
 10
2041.049314716539
 20
755.6967106961773
 30
0.0
 11
2005.69397565721
 21
791.0520497555018
 31
0.0
  0
LINE
  5
33F
330
1F
100
AcDbEntity
  8
LAY-10
  6
CONTINUOUS
 62
     7
100
AcDbLine
 10
2046.70616896603
 20
761.353564945668
 30
0.0
 11
2041.049314716539
 21
755.6967106961747
 31
0.0
  0
LINE
  5
340
330
1F
100
AcDbEntity
  8
LAY-10
  6
CONTINUOUS
 62
     7
100
AcDbLine
 10
1969.007684156202
 20
799.0520497556026
 30
0.0
 11
2005.69397565721
 21
799.0520497556026
 31
0.0
  0
LINE
  5
341
330
1F
100
AcDbEntity
  8
LAY-10
  6
CONTINUOUS
 62
     7
100
AcDbLine
 10
2005.807684156194
 20
855.7520497555925
 30
0.0
 11
2005.807684156194
 21
805.2520497556015
 31
0.0
  0
LINE
  5
342
330
1F
100
AcDbEntity
  8
LAY-10
  6
CONTINUOUS
 62
     7
100
AcDbLine
 10
2009.007684156193
 20
805.0520497556028
 30
0.0
 11
2009.007684156193
 21
855.7520497555925
 31
0.0
  0
LINE
  5
343
330
1F
100
AcDbEntity
  8
LAY-10
  6
CONTINUOUS
 62
     7
100
AcDbLine
 10
2001.298130596181
 20
804.2520497555788
 30
0.0
 11
1999.492833937976
 21
802.2520497555761
 31
0.0
  0
LINE
  5
344
330
1F
100
AcDbEntity
  8
LAY-10
  6
CONTINUOUS
 62
     7
100
AcDbLine
 10
2000.591023814993
 20
804.252049755577
 30
0.0
 11
1998.785727156792
 21
802.2520497555761
 31
0.0
  0
LINE
  5
345
330
1F
100
AcDbEntity
  8
LAY-10
  6
CONTINUOUS
 62
     7
100
AcDbLine
 10
1999.883917033808
 20
804.2520497555788
 30
0.0
 11
1998.078620375602
 21
802.2520497555761
 31
0.0
  0
LINE
  5
346
330
1F
100
AcDbEntity
  8
LAY-10
  6
CONTINUOUS
 62
     7
100
AcDbLine
 10
1999.17681025262
 20
804.252049755577
 30
0.0
 11
1997.371513594418
 21
802.2520497555761
 31
0.0
  0
LINE
  5
347
330
1F
100
AcDbEntity
  8
LAY-10
  6
CONTINUOUS
 62
     7
100
AcDbLine
 10
1998.469703471436
 20
804.2520497555788
 30
0.0
 11
1996.66440681323
 21
802.2520497555761
 31
0.0
  0
LINE
  5
348
330
1F
100
AcDbEntity
  8
LAY-10
  6
CONTINUOUS
 62
     7
100
AcDbLine
 10
1997.762596690248
 20
804.252049755577
 30
0.0
 11
1995.960646581372
 21
802.2500996466997
 31
0.0
  0
LINE
  5
349
330
1F
100
AcDbEntity
  8
LAY-10
  6
CONTINUOUS
 62
     7
100
AcDbLine
 10
1997.055489909061
 20
804.2520497555788
 30
0.0
 11
1995.253943170743
 21
802.2520497555761
 31
0.0
  0
LINE
  5
34A
330
1F
100
AcDbEntity
  8
LAY-10
  6
CONTINUOUS
 62
     7
100
AcDbLine
 10
1996.348383127875
 20
804.252049755577
 30
0.0
 11
1994.548383127876
 21
802.2520497555788
 31
0.0
  0
LINE
  5
34B
330
1F
100
AcDbEntity
  8
LAY-10
  6
CONTINUOUS
 62
     7
100
AcDbLine
 10
1995.64127634669
 20
804.2520497555788
 30
0.0
 11
1993.841276346689
 21
802.2520497555752
 31
0.0
  0
LINE
  5
34C
330
1F
100
AcDbEntity
  8
LAY-10
  6
CONTINUOUS
 62
     7
100
AcDbLine
 10
1994.934169565503
 20
804.252049755577
 30
0.0
 11
1993.134169565504
 21
802.2520497555788
 31
0.0
  0
LINE
  5
34D
330
1F
100
AcDbEntity
  8
LAY-10
  6
CONTINUOUS
 62
     7
100
AcDbLine
 10
1994.227062784317
 20
804.2520497555788
 30
0.0
 11
1992.427062784316
 21
802.2520497555752
 31
0.0
  0
LINE
  5
34E
330
1F
100
AcDbEntity
  8
LAY-10
  6
CONTINUOUS
 62
     7
100
AcDbLine
 10
1993.519956003128
 20
804.252049755577
 30
0.0
 11
1991.71995600313
 21
802.2520497555788
 31
0.0
  0
LINE
  5
34F
330
1F
100
AcDbEntity
  8
LAY-10
  6
CONTINUOUS
 62
     7
100
AcDbLine
 10
1992.812849221943
 20
804.2520497555788
 30
0.0
 11
1991.012849221943
 21
802.2520497555752
 31
0.0
  0
LINE
  5
350
330
1F
100
AcDbEntity
  8
LAY-10
  6
CONTINUOUS
 62
     7
100
AcDbLine
 10
1992.105742440756
 20
804.252049755577
 30
0.0
 11
1990.305742440758
 21
802.2520497555788
 31
0.0
  0
LINE
  5
351
330
1F
100
AcDbEntity
  8
LAY-10
  6
CONTINUOUS
 62
     7
100
AcDbLine
 10
1991.398635659571
 20
804.2520497555788
 30
0.0
 11
1989.598635659567
 21
802.2520497555752
 31
0.0
  0
LINE
  5
352
330
1F
100
AcDbEntity
  8
LAY-10
  6
CONTINUOUS
 62
     7
100
AcDbLine
 10
1990.691528878383
 20
804.252049755577
 30
0.0
 11
1988.891528878384
 21
802.2520497555788
 31
0.0
  0
LINE
  5
353
330
1F
100
AcDbEntity
  8
LAY-10
  6
CONTINUOUS
 62
     7
100
AcDbLine
 10
1989.984422097199
 20
804.2520497555788
 30
0.0
 11
1988.184422097196
 21
802.2520497555752
 31
0.0
  0
LINE
  5
354
330
1F
100
AcDbEntity
  8
LAY-10
  6
CONTINUOUS
 62
     7
100
AcDbLine
 10
1989.27731531601
 20
804.252049755577
 30
0.0
 11
1987.477315316012
 21
802.2520497555788
 31
0.0
  0
LINE
  5
355
330
1F
100
AcDbEntity
  8
LAY-10
  6
CONTINUOUS
 62
     7
100
AcDbLine
 10
1988.570208534824
 20
804.2520497555788
 30
0.0
 11
1986.770208534822
 21
802.2520497555752
 31
0.0
  0
LINE
  5
356
330
1F
100
AcDbEntity
  8
LAY-10
  6
CONTINUOUS
 62
     7
100
AcDbLine
 10
1987.863101753636
 20
804.252049755577
 30
0.0
 11
1986.063101753639
 21
802.2520497555797
 31
0.0
  0
LINE
  5
357
330
1F
100
AcDbEntity
  8
LAY-10
  6
CONTINUOUS
 62
     7
100
AcDbLine
 10
1987.155994972452
 20
804.2520497555788
 30
0.0
 11
1985.355994972449
 21
802.2520497555752
 31
0.0
  0
LINE
  5
358
330
1F
100
AcDbEntity
  8
LAY-10
  6
CONTINUOUS
 62
     7
100
AcDbLine
 10
1986.448888191261
 20
804.252049755577
 30
0.0
 11
1984.648888191267
 21
802.2520497555797
 31
0.0
  0
LINE
  5
359
330
1F
100
AcDbEntity
  8
LAY-10
  6
CONTINUOUS
 62
     7
100
AcDbLine
 10
1985.741781410079
 20
804.2520497555788
 30
0.0
 11
1983.941781410076
 21
802.2520497555752
 31
0.0
  0
LINE
  5
35A
330
1F
100
AcDbEntity
  8
LAY-10
  6
CONTINUOUS
 62
     7
100
AcDbLine
 10
1985.03467462889
 20
804.252049755577
 30
0.0
 11
1983.234674628894
 21
802.2520497555797
 31
0.0
  0
LINE
  5
35B
330
1F
100
AcDbEntity
  8
LAY-10
  6
CONTINUOUS
 62
     7
100
AcDbLine
 10
1984.327567847706
 20
804.2520497555788
 30
0.0
 11
1982.527567847704
 21
802.2520497555752
 31
0.0
  0
LINE
  5
35C
330
1F
100
AcDbEntity
  8
LAY-10
  6
CONTINUOUS
 62
     7
100
AcDbLine
 10
1983.620461066517
 20
804.252049755577
 30
0.0
 11
1981.82046106652
 21
802.2520497555797
 31
0.0
  0
LINE
  5
35D
330
1F
100
AcDbEntity
  8
LAY-10
  6
CONTINUOUS
 62
     7
100
AcDbLine
 10
1982.913354285333
 20
804.2520497555788
 30
0.0
 11
1981.11335428533
 21
802.252049755577
 31
0.0
  0
LINE
  5
35E
330
1F
100
AcDbEntity
  8
LAY-10
  6
CONTINUOUS
 62
     7
100
AcDbLine
 10
1982.206247504143
 20
804.252049755577
 30
0.0
 11
1980.406247504148
 21
802.2520497555797
 31
0.0
  0
LINE
  5
35F
330
1F
100
AcDbEntity
  8
LAY-10
  6
CONTINUOUS
 62
     7
100
AcDbLine
 10
1981.499140722962
 20
804.2520497555788
 30
0.0
 11
1979.699140722958
 21
802.252049755577
 31
0.0
  0
LINE
  5
360
330
1F
100
AcDbEntity
  8
LAY-10
  6
CONTINUOUS
 62
     7
100
AcDbLine
 10
1980.792033941771
 20
804.252049755577
 30
0.0
 11
1978.992033941774
 21
802.2520497555797
 31
0.0
  0
LINE
  5
361
330
1F
100
AcDbEntity
  8
LAY-10
  6
CONTINUOUS
 62
     7
100
AcDbLine
 10
1980.084927160588
 20
804.2520497555788
 30
0.0
 11
1978.284927160584
 21
802.252049755577
 31
0.0
  0
LINE
  5
362
330
1F
100
AcDbEntity
  8
LAY-10
  6
CONTINUOUS
 62
     7
100
AcDbLine
 10
1979.377820379399
 20
804.252049755577
 30
0.0
 11
1977.577820379402
 21
802.2520497555797
 31
0.0
  0
LINE
  5
363
330
1F
100
AcDbEntity
  8
LAY-10
  6
CONTINUOUS
 62
     7
100
AcDbLine
 10
1978.670713598215
 20
804.2520497555797
 30
0.0
 11
1976.870713598212
 21
802.252049755577
 31
0.0
  0
LINE
  5
364
330
1F
100
AcDbEntity
  8
LAY-10
  6
CONTINUOUS
 62
     7
100
AcDbLine
 10
1977.963606817024
 20
804.252049755577
 30
0.0
 11
1976.16360681703
 21
802.2520497555797
 31
0.0
  0
LINE
  5
365
330
1F
100
AcDbEntity
  8
LAY-10
  6
CONTINUOUS
 62
     7
100
AcDbLine
 10
1977.256500035842
 20
804.2520497555797
 30
0.0
 11
1975.456500035839
 21
802.252049755577
 31
0.0
  0
LINE
  5
366
330
1F
100
AcDbEntity
  8
LAY-10
  6
CONTINUOUS
 62
     7
100
AcDbLine
 10
1976.549393254652
 20
804.252049755577
 30
0.0
 11
1974.749393254655
 21
802.2520497555797
 31
0.0
  0
LINE
  5
367
330
1F
100
AcDbEntity
  8
LAY-10
  6
CONTINUOUS
 62
     7
100
AcDbLine
 10
1975.842286473469
 20
804.2520497555797
 30
0.0
 11
1974.042286473467
 21
802.252049755577
 31
0.0
  0
LINE
  5
368
330
1F
100
AcDbEntity
  8
LAY-10
  6
CONTINUOUS
 62
     7
100
AcDbLine
 10
1975.135179692279
 20
804.252049755577
 30
0.0
 11
1973.335179692283
 21
802.2520497555797
 31
0.0
  0
LINE
  5
369
330
1F
100
AcDbEntity
  8
LAY-10
  6
CONTINUOUS
 62
     7
100
AcDbLine
 10
1974.428072911096
 20
804.2520497555797
 30
0.0
 11
1972.628072911094
 21
802.252049755577
 31
0.0
  0
LINE
  5
36A
330
1F
100
AcDbEntity
  8
LAY-10
  6
CONTINUOUS
 62
     7
100
AcDbLine
 10
1973.720966129907
 20
804.2520497555779
 30
0.0
 11
1971.92096612991
 21
802.2520497555797
 31
0.0
  0
LINE
  5
36B
330
1F
100
AcDbEntity
  8
LAY-10
  6
CONTINUOUS
 62
     7
100
AcDbLine
 10
1973.013859348724
 20
804.2520497555797
 30
0.0
 11
1971.807684155941
 21
802.8458745627978
 31
0.0
  0
LINE
  5
36C
330
1F
100
AcDbEntity
  8
LAY-10
  6
CONTINUOUS
 62
     7
100
AcDbLine
 10
1972.306752567533
 20
804.2520497555779
 30
0.0
 11
1971.807684155938
 21
803.7529813439807
 31
0.0
  0
LINE
  5
36D
330
1F
100
AcDbEntity
  8
LAY-10
  6
CONTINUOUS
 62
     7
100
AcDbLine
 10
2001.807684156021
 20
804.0331901898135
 30
0.0
 11
2000.199940719163
 21
802.2520497555761
 31
0.0
  0
LINE
  5
36E
330
1F
100
AcDbEntity
  8
LAY-10
  6
CONTINUOUS
 62
     7
100
AcDbLine
 10
2001.807684156021
 20
803.2498211208313
 30
0.0
 11
2000.907047500349
 21
802.2520497555761
 31
0.0
  0
LINE
  5
36F
330
1F
100
AcDbEntity
  8
LAY-10
  6
CONTINUOUS
 62
     7
100
AcDbLine
 10
2001.807684156021
 20
802.4664520518473
 30
0.0
 11
2001.614154281537
 21
802.2520497555761
 31
0.0
  0
LINE
  5
370
330
1F
100
AcDbEntity
  8
LAY-10
  6
CONTINUOUS
 62
     7
100
AcDbLine
 10
1971.807684156089
 20
804.2520497555747
 30
0.0
 11
1971.807684156089
 21
802.2520497555747
 31
0.0
  0
LINE
  5
371
330
1F
100
AcDbEntity
  8
LAY-10
  6
CONTINUOUS
 62
     7
100
AcDbLine
 10
370.8076841561351
 20
726.9520497555909
 30
0.0
 11
416.807684156139
 21
726.9520497555914
 31
0.0
  0
LINE
  5
372
330
1F
100
AcDbEntity
  8
LAY-10
  6
CONTINUOUS
 62
     7
100
AcDbLine
 10
374.8076841562058
 20
778.9520497555436
 30
0.0
 11
374.8076841562058
 21
726.9520497555413
 31
0.0
  0
LINE
  5
373
330
1F
100
AcDbEntity
  8
LAY-10
  6
CONTINUOUS
 62
     7
100
AcDbLine
 10
376.4076841562053
 20
730.5520497555417
 30
0.0
 11
376.4076841562053
 21
777.3520497555423
 31
0.0
  0
LINE
  5
374
330
1F
100
AcDbEntity
  8
LAY-10
  6
CONTINUOUS
 62
     7
100
AcDbLine
 10
450.1076841562056
 20
779.9520497555427
 30
0.0
 11
450.1076841562056
 21
778.9520497555436
 31
0.0
  0
CIRCLE
  5
375
330
1F
100
AcDbEntity
  8
LAY-10
  6
CONTINUOUS
 62
     7
100
AcDbCircle
 10
506.8076841562106
 20
781.9520497555427
 30
0.0
 40
3.000000000000003
  0
ARC
  5
376
330
1F
100
AcDbEntity
  8
LAY-10
  6
CONTINUOUS
 62
     7
100
AcDbCircle
 10
463.106793155238
 20
781.951158754574
 30
0.0
 40
2.999108999030569
100
AcDbArc
 50
90.00000000000001
 51
270.0000000000002
  0
ARC
  5
377
330
1F
100
AcDbEntity
  8
LAY-10
  6
CONTINUOUS
 62
     7
100
AcDbCircle
 10
459.1076841562062
 20
779.9520497555427
 30
0.0
 40
1.0
100
AcDbArc
 50
270.0000000000002
 51
0.0
  0
LINE
  5
378
330
1F
100
AcDbEntity
  8
LAY-10
  6
CONTINUOUS
 62
     7
100
AcDbLine
 10
459.1076841562062
 20
781.9520497555432
 30
0.0
 11
459.1076841562062
 21
779.9520497555427
 31
0.0
  0
LINE
  5
379
330
1F
100
AcDbEntity
  8
LAY-10
  6
CONTINUOUS
 62
     7
100
AcDbLine
 10
459.1076841562062
 20
779.9520497555427
 30
0.0
 11
450.1076841562056
 21
779.9520497555427
 31
0.0
  0
LINE
  5
37A
330
1F
100
AcDbEntity
  8
LAY-10
  6
CONTINUOUS
 62
     7
100
AcDbLine
 10
506.8985515361276
 20
784.9506732929794
 30
0.0
 11
463.106793155238
 21
784.9506732929794
 31
0.0
  0
ARC
  5
37B
330
1F
100
AcDbEntity
  8
LAY-10
  6
CONTINUOUS
 62
     7
100
AcDbCircle
 10
463.1076841562074
 20
781.9520497555432
 30
0.0
 40
4.0
100
AcDbArc
 50
48.56057832087367
 51
180.0
  0
LINE
  5
37C
330
1F
100
AcDbEntity
  8
LAY-10
  6
CONTINUOUS
 62
     7
100
AcDbLine
 10
460.107684156209
 20
779.9520497555427
 30
0.0
 11
460.107684156209
 21
781.9520497555432
 31
0.0
  0
LINE
  5
37D
330
1F
100
AcDbEntity
  8
LAY-10
  6
CONTINUOUS
 62
     7
100
AcDbLine
 10
399.807684156204
 20
726.9520497555413
 30
0.0
 11
399.807684156204
 21
728.9520497555432
 31
0.0
  0
LINE
  5
37E
330
1F
100
AcDbEntity
  8
LAY-10
  6
CONTINUOUS
 62
     7
100
AcDbLine
 10
370.6076841561326
 20
723.7520497555901
 30
0.0
 11
416.807684156139
 21
723.7520497555901
 31
0.0
  0
LINE
  5
37F
330
1F
100
AcDbEntity
  8
LAY-10
  6
CONTINUOUS
 62
     7
100
AcDbLine
 10
416.807684156139
 20
726.9520497555868
 30
0.0
 11
416.807684156139
 21
723.7520497555901
 31
0.0
  0
ARC
  5
380
330
1F
100
AcDbEntity
  8
LAY-10
  6
CONTINUOUS
 62
     7
100
AcDbCircle
 10
370.6076841561326
 20
726.7520497555906
 30
0.0
 40
3.000000000000003
100
AcDbArc
 50
180.0
 51
270.0000000000002
  0
LINE
  5
381
330
1F
100
AcDbEntity
  8
LAY-10
  6
CONTINUOUS
 62
     7
100
AcDbLine
 10
367.6076841561314
 20
796.0520497556035
 30
0.0
 11
367.6076841561314
 21
726.7520497555906
 31
0.0
  0
LINE
  5
382
330
1F
100
AcDbEntity
  8
LAY-10
  6
CONTINUOUS
 62
     7
100
AcDbLine
 10
370.8076841561351
 20
796.2520497556034
 30
0.0
 11
370.8076841561351
 21
726.9520497555868
 31
0.0
  0
ARC
  5
383
330
1F
100
AcDbEntity
  8
LAY-10
  6
CONTINUOUS
 62
     7
100
AcDbCircle
 10
330.8076841561715
 20
805.2520497556015
 30
0.0
 40
3.000000000000003
100
AcDbArc
 50
180.0
 51
270.0000000000002
  0
ARC
  5
384
330
1F
100
AcDbEntity
  8
LAY-10
  6
CONTINUOUS
 62
     7
100
AcDbCircle
 10
330.6076841561724
 20
805.0520497556028
 30
0.0
 40
6.000000000000006
100
AcDbArc
 50
180.0
 51
270.0000000000002
  0
ARC
  5
385
330
1F
100
AcDbEntity
  8
LAY-10
  6
CONTINUOUS
 62
     7
100
AcDbCircle
 10
364.6076841561326
 20
796.0520497556035
 30
0.0
 40
3.000000000000003
100
AcDbArc
 50
0.0
 51
90.00000000000001
  0
ARC
  5
386
330
1F
100
AcDbEntity
  8
LAY-10
  6
CONTINUOUS
 62
     7
100
AcDbCircle
 10
364.807684156133
 20
796.2520497556034
 30
0.0
 40
6.000000000000006
100
AcDbArc
 50
0.0
 51
90.00000000000001
  0
LINE
  5
387
330
1F
100
AcDbEntity
  8
LAY-10
  6
CONTINUOUS
 62
     7
100
AcDbLine
 10
357.9213926551265
 20
791.0520497555018
 30
0.0
 11
357.9213926551265
 21
799.0520497555026
 31
0.0
  0
LINE
  5
388
330
1F
100
AcDbEntity
  8
LAY-10
  6
CONTINUOUS
 62
     7
100
AcDbLine
 10
327.9213926551246
 20
791.0520497555018
 30
0.0
 11
357.9213926551265
 21
791.0520497555018
 31
0.0
  0
ARC
  5
389
330
1F
100
AcDbEntity
  8
LAY-10
  6
CONTINUOUS
 62
     7
100
AcDbCircle
 10
327.9213926551246
 20
791.0520497555018
 30
0.0
 40
8.0
100
AcDbArc
 50
90.00000000000001
 51
134.9999999999946
  0
LINE
  5
38A
330
1F
100
AcDbEntity
  8
LAY-10
  6
CONTINUOUS
 62
     7
100
AcDbLine
 10
286.9091993463055
 20
761.353564945668
 30
0.0
 11
322.2645384056329
 21
796.708904004995
 31
0.0
  0
LINE
  5
38B
330
1F
100
AcDbEntity
  8
LAY-10
  6
CONTINUOUS
 62
     7
100
AcDbLine
 10
292.5660535957959
 20
755.6967106961773
 30
0.0
 11
327.9213926551246
 21
791.0520497555018
 31
0.0
  0
LINE
  5
38C
330
1F
100
AcDbEntity
  8
LAY-10
  6
CONTINUOUS
 62
     7
100
AcDbLine
 10
286.9091993463055
 20
761.353564945668
 30
0.0
 11
292.5660535957959
 21
755.6967106961747
 31
0.0
  0
LINE
  5
38D
330
1F
100
AcDbEntity
  8
LAY-10
  6
CONTINUOUS
 62
     7
100
AcDbLine
 10
364.6076841561326
 20
799.0520497556026
 30
0.0
 11
327.9213926551246
 21
799.0520497556026
 31
0.0
  0
LINE
  5
38E
330
1F
100
AcDbEntity
  8
LAY-10
  6
CONTINUOUS
 62
     7
100
AcDbLine
 10
327.8076841561403
 20
855.7520497555925
 30
0.0
 11
327.8076841561403
 21
805.2520497556015
 31
0.0
  0
LINE
  5
38F
330
1F
100
AcDbEntity
  8
LAY-10
  6
CONTINUOUS
 62
     7
100
AcDbLine
 10
324.6076841561417
 20
805.0520497556028
 30
0.0
 11
324.6076841561417
 21
855.7520497555925
 31
0.0
  0
LINE
  5
390
330
1F
100
AcDbEntity
  8
LAY-10
  6
CONTINUOUS
 62
     7
100
AcDbLine
 10
361.2981305963215
 20
804.2520497555989
 30
0.0
 11
359.4928339381165
 21
802.2520497555962
 31
0.0
  0
LINE
  5
391
330
1F
100
AcDbEntity
  8
LAY-10
  6
CONTINUOUS
 62
     7
100
AcDbLine
 10
360.5910238151334
 20
804.2520497555967
 30
0.0
 11
358.7857271569314
 21
802.2520497555962
 31
0.0
  0
LINE
  5
392
330
1F
100
AcDbEntity
  8
LAY-10
  6
CONTINUOUS
 62
     7
100
AcDbLine
 10
359.8839170339481
 20
804.2520497555989
 30
0.0
 11
358.0786203757423
 21
802.2520497555962
 31
0.0
  0
LINE
  5
393
330
1F
100
AcDbEntity
  8
LAY-10
  6
CONTINUOUS
 62
     7
100
AcDbLine
 10
359.1768102527599
 20
804.2520497555967
 30
0.0
 11
357.3715135945583
 21
802.2520497555962
 31
0.0
  0
LINE
  5
394
330
1F
100
AcDbEntity
  8
LAY-10
  6
CONTINUOUS
 62
     7
100
AcDbLine
 10
358.4697034715759
 20
804.2520497555989
 30
0.0
 11
356.6644068133701
 21
802.2520497555962
 31
0.0
  0
LINE
  5
395
330
1F
100
AcDbEntity
  8
LAY-10
  6
CONTINUOUS
 62
     7
100
AcDbLine
 10
357.7625966903881
 20
804.2520497555967
 30
0.0
 11
355.960646581512
 21
802.2500996467198
 31
0.0
  0
LINE
  5
396
330
1F
100
AcDbEntity
  8
LAY-10
  6
CONTINUOUS
 62
     7
100
AcDbLine
 10
357.0554899092015
 20
804.2520497555989
 30
0.0
 11
355.2539431708835
 21
802.2520497555962
 31
0.0
  0
LINE
  5
397
330
1F
100
AcDbEntity
  8
LAY-10
  6
CONTINUOUS
 62
     7
100
AcDbLine
 10
356.3483831280148
 20
804.2520497555967
 30
0.0
 11
354.5483831280164
 21
802.2520497555985
 31
0.0
  0
LINE
  5
398
330
1F
100
AcDbEntity
  8
LAY-10
  6
CONTINUOUS
 62
     7
100
AcDbLine
 10
355.6412763468302
 20
804.2520497555989
 30
0.0
 11
353.8412763468293
 21
802.2520497555952
 31
0.0
  0
LINE
  5
399
330
1F
100
AcDbEntity
  8
LAY-10
  6
CONTINUOUS
 62
     7
100
AcDbLine
 10
354.9341695656426
 20
804.2520497555967
 30
0.0
 11
353.1341695656442
 21
802.2520497555985
 31
0.0
  0
LINE
  5
39A
330
1F
100
AcDbEntity
  8
LAY-10
  6
CONTINUOUS
 62
     7
100
AcDbLine
 10
354.2270627844571
 20
804.2520497555989
 30
0.0
 11
352.427062784456
 21
802.2520497555952
 31
0.0
  0
LINE
  5
39B
330
1F
100
AcDbEntity
  8
LAY-10
  6
CONTINUOUS
 62
     7
100
AcDbLine
 10
353.5199560032681
 20
804.2520497555967
 30
0.0
 11
351.7199560032698
 21
802.2520497555985
 31
0.0
  0
LINE
  5
39C
330
1F
100
AcDbEntity
  8
LAY-10
  6
CONTINUOUS
 62
     7
100
AcDbLine
 10
352.8128492220837
 20
804.2520497555989
 30
0.0
 11
351.0128492220831
 21
802.2520497555952
 31
0.0
  0
LINE
  5
39D
330
1F
100
AcDbEntity
  8
LAY-10
  6
CONTINUOUS
 62
     7
100
AcDbLine
 10
352.1057424408962
 20
804.2520497555967
 30
0.0
 11
350.3057424408978
 21
802.2520497555985
 31
0.0
  0
LINE
  5
39E
330
1F
100
AcDbEntity
  8
LAY-10
  6
CONTINUOUS
 62
     7
100
AcDbLine
 10
351.3986356597109
 20
804.2520497555989
 30
0.0
 11
349.598635659707
 21
802.2520497555952
 31
0.0
  0
LINE
  5
39F
330
1F
100
AcDbEntity
  8
LAY-10
  6
CONTINUOUS
 62
     7
100
AcDbLine
 10
350.6915288785235
 20
804.2520497555967
 30
0.0
 11
348.8915288785242
 21
802.2520497555985
 31
0.0
  0
LINE
  5
3A0
330
1F
100
AcDbEntity
  8
LAY-10
  6
CONTINUOUS
 62
     7
100
AcDbLine
 10
349.9844220973387
 20
804.2520497555989
 30
0.0
 11
348.1844220973358
 21
802.2520497555952
 31
0.0
  0
LINE
  5
3A1
330
1F
100
AcDbEntity
  8
LAY-10
  6
CONTINUOUS
 62
     7
100
AcDbLine
 10
349.2773153161504
 20
804.2520497555967
 30
0.0
 11
347.477315316152
 21
802.2520497555985
 31
0.0
  0
LINE
  5
3A2
330
1F
100
AcDbEntity
  8
LAY-10
  6
CONTINUOUS
 62
     7
100
AcDbLine
 10
348.5702085349642
 20
804.2520497555989
 30
0.0
 11
346.7702085349624
 21
802.2520497555952
 31
0.0
  0
LINE
  5
3A3
330
1F
100
AcDbEntity
  8
LAY-10
  6
CONTINUOUS
 62
     7
100
AcDbLine
 10
347.8631017537759
 20
804.2520497555967
 30
0.0
 11
346.0631017537792
 21
802.2520497555997
 31
0.0
  0
LINE
  5
3A4
330
1F
100
AcDbEntity
  8
LAY-10
  6
CONTINUOUS
 62
     7
100
AcDbLine
 10
347.1559949725922
 20
804.2520497555989
 30
0.0
 11
345.3559949725893
 21
802.2520497555952
 31
0.0
  0
LINE
  5
3A5
330
1F
100
AcDbEntity
  8
LAY-10
  6
CONTINUOUS
 62
     7
100
AcDbLine
 10
346.4488881914015
 20
804.2520497555967
 30
0.0
 11
344.648888191407
 21
802.2520497555997
 31
0.0
  0
LINE
  5
3A6
330
1F
100
AcDbEntity
  8
LAY-10
  6
CONTINUOUS
 62
     7
100
AcDbLine
 10
345.7417814102187
 20
804.2520497555989
 30
0.0
 11
343.9417814102164
 21
802.2520497555952
 31
0.0
  0
LINE
  5
3A7
330
1F
100
AcDbEntity
  8
LAY-10
  6
CONTINUOUS
 62
     7
100
AcDbLine
 10
345.0346746290302
 20
804.2520497555967
 30
0.0
 11
343.2346746290336
 21
802.2520497555997
 31
0.0
  0
LINE
  5
3A8
330
1F
100
AcDbEntity
  8
LAY-10
  6
CONTINUOUS
 62
     7
100
AcDbLine
 10
344.3275678478465
 20
804.2520497555989
 30
0.0
 11
342.5275678478442
 21
802.2520497555952
 31
0.0
  0
LINE
  5
3A9
330
1F
100
AcDbEntity
  8
LAY-10
  6
CONTINUOUS
 62
     7
100
AcDbLine
 10
343.6204610666568
 20
804.2520497555967
 30
0.0
 11
341.8204610666605
 21
802.2520497555997
 31
0.0
  0
LINE
  5
3AA
330
1F
100
AcDbEntity
  8
LAY-10
  6
CONTINUOUS
 62
     7
100
AcDbLine
 10
342.9133542854736
 20
804.2520497555989
 30
0.0
 11
341.1133542854698
 21
802.252049755597
 31
0.0
  0
LINE
  5
3AB
330
1F
100
AcDbEntity
  8
LAY-10
  6
CONTINUOUS
 62
     7
100
AcDbLine
 10
342.2062475042837
 20
804.2520497555967
 30
0.0
 11
340.4062475042879
 21
802.2520497555997
 31
0.0
  0
LINE
  5
3AC
330
1F
100
AcDbEntity
  8
LAY-10
  6
CONTINUOUS
 62
     7
100
AcDbLine
 10
341.4991407231014
 20
804.2520497555989
 30
0.0
 11
339.6991407230978
 21
802.252049755597
 31
0.0
  0
LINE
  5
3AD
330
1F
100
AcDbEntity
  8
LAY-10
  6
CONTINUOUS
 62
     7
100
AcDbLine
 10
340.7920339419109
 20
804.2520497555967
 30
0.0
 11
338.9920339419148
 21
802.2520497555997
 31
0.0
  0
LINE
  5
3AE
330
1F
100
AcDbEntity
  8
LAY-10
  6
CONTINUOUS
 62
     7
100
AcDbLine
 10
340.0849271607281
 20
804.2520497555989
 30
0.0
 11
338.2849271607242
 21
802.252049755597
 31
0.0
  0
LINE
  5
3AF
330
1F
100
AcDbEntity
  8
LAY-10
  6
CONTINUOUS
 62
     7
100
AcDbLine
 10
339.3778203795387
 20
804.2520497555967
 30
0.0
 11
337.5778203795419
 21
802.2520497555997
 31
0.0
  0
LINE
  5
3B0
330
1F
100
AcDbEntity
  8
LAY-10
  6
CONTINUOUS
 62
     7
100
AcDbLine
 10
338.670713598355
 20
804.2520497555997
 30
0.0
 11
336.8707135983523
 21
802.252049755597
 31
0.0
  0
LINE
  5
3B1
330
1F
100
AcDbEntity
  8
LAY-10
  6
CONTINUOUS
 62
     7
100
AcDbLine
 10
337.9636068171642
 20
804.2520497555967
 30
0.0
 11
336.1636068171697
 21
802.2520497555997
 31
0.0
  0
LINE
  5
3B2
330
1F
100
AcDbEntity
  8
LAY-10
  6
CONTINUOUS
 62
     7
100
AcDbLine
 10
337.2565000359823
 20
804.2520497555997
 30
0.0
 11
335.4565000359792
 21
802.252049755597
 31
0.0
  0
LINE
  5
3B3
330
1F
100
AcDbEntity
  8
LAY-10
  6
CONTINUOUS
 62
     7
100
AcDbLine
 10
336.5493932547922
 20
804.2520497555967
 30
0.0
 11
334.7493932547952
 21
802.2520497555997
 31
0.0
  0
LINE
  5
3B4
330
1F
100
AcDbEntity
  8
LAY-10
  6
CONTINUOUS
 62
     7
100
AcDbLine
 10
335.8422864736092
 20
804.2520497555997
 30
0.0
 11
334.042286473607
 21
802.252049755597
 31
0.0
  0
LINE
  5
3B5
330
1F
100
AcDbEntity
  8
LAY-10
  6
CONTINUOUS
 62
     7
100
AcDbLine
 10
335.1351796924187
 20
804.2520497555967
 30
0.0
 11
333.3351796924233
 21
802.2520497555997
 31
0.0
  0
LINE
  5
3B6
330
1F
100
AcDbEntity
  8
LAY-10
  6
CONTINUOUS
 62
     7
100
AcDbLine
 10
334.4280729112363
 20
804.2520497555997
 30
0.0
 11
332.6280729112336
 21
802.252049755597
 31
0.0
  0
LINE
  5
3B7
330
1F
100
AcDbEntity
  8
LAY-10
  6
CONTINUOUS
 62
     7
100
AcDbLine
 10
333.7209661300467
 20
804.2520497555979
 30
0.0
 11
331.9209661300497
 21
802.2520497555997
 31
0.0
  0
LINE
  5
3B8
330
1F
100
AcDbEntity
  8
LAY-10
  6
CONTINUOUS
 62
     7
100
AcDbLine
 10
333.0138593488641
 20
804.2520497555997
 30
0.0
 11
331.807684156081
 21
802.8458745628172
 31
0.0
  0
LINE
  5
3B9
330
1F
100
AcDbEntity
  8
LAY-10
  6
CONTINUOUS
 62
     7
100
AcDbLine
 10
332.3067525676736
 20
804.2520497555979
 30
0.0
 11
331.8076841560783
 21
803.7529813440001
 31
0.0
  0
LINE
  5
3BA
330
1F
100
AcDbEntity
  8
LAY-10
  6
CONTINUOUS
 62
     7
100
AcDbLine
 10
361.8076841561613
 20
804.0331901898335
 30
0.0
 11
360.1999407193032
 21
802.2520497555962
 31
0.0
  0
LINE
  5
3BB
330
1F
100
AcDbEntity
  8
LAY-10
  6
CONTINUOUS
 62
     7
100
AcDbLine
 10
361.8076841561613
 20
803.2498211208514
 30
0.0
 11
360.9070475004887
 21
802.2520497555962
 31
0.0
  0
LINE
  5
3BC
330
1F
100
AcDbEntity
  8
LAY-10
  6
CONTINUOUS
 62
     7
100
AcDbLine
 10
361.8076841561613
 20
802.4664520518668
 30
0.0
 11
361.614154281677
 21
802.2520497555962
 31
0.0
  0
LINE
  5
3BD
330
1F
100
AcDbEntity
  8
LAY-10
  6
CONTINUOUS
 62
     7
100
AcDbLine
 10
361.8076841562447
 20
804.2520497555752
 30
0.0
 11
361.8076841562447
 21
802.2520497555747
 31
0.0
  0
LINE
  5
3BE
330
1F
100
AcDbEntity
  8
LAY-10
  6
CONTINUOUS
 62
     7
100
AcDbLine
 10
1958.807684156201
 20
778.9520497555409
 30
0.0
 11
374.8076841562058
 21
778.9520497555436
 31
0.0
  0
LINE
  5
3BF
330
1F
100
AcDbEntity
  8
LAY-10
  6
CONTINUOUS
 62
     7
100
AcDbLine
 10
374.8076841562058
 20
728.9520497555432
 30
0.0
 11
1958.807684156201
 21
728.9520497555432
 31
0.0
  0
LINE
  5
3C0
330
1F
100
AcDbEntity
  8
LAY-10
  6
CONTINUOUS
 62
     7
100
AcDbLine
 10
1957.207684156198
 20
777.352049755541
 30
0.0
 11
376.4076841562053
 21
777.3520497555423
 31
0.0
  0
LINE
  5
3C1
330
1F
100
AcDbEntity
  8
LAY-10
  6
CONTINUOUS
 62
     7
100
AcDbLine
 10
376.4076841562053
 20
730.5520497555417
 30
0.0
 11
1957.207684156198
 21
730.5520497555417
 31
0.0
  0
LINE
  5
3C2
330
1F
100
AcDbEntity
  8
LAY-10
  6
CONTINUOUS
 62
     7
100
AcDbLine
 10
330.8076841561878
 20
802.2520497555997
 30
0.0
 11
2002.8076841562
 21
802.2520497555997
 31
0.0
  0
LINE
  5
3C3
330
1F
100
AcDbEntity
  8
LAY-10
  6
CONTINUOUS
 62
     7
100
AcDbLine
 10
331.8076841562399
 20
804.2520497555906
 30
0.0
 11
2001.8076841562
 21
804.2520497555911
 31
0.0
  0
LINE
  5
3C4
330
1F
100
AcDbEntity
  8
LAY-10
  6
CONTINUOUS
 62
     7
100
AcDbLine
 10
642.05768415624
 20
854.2520497555743
 30
0.0
 11
642.05768415624
 21
810.2520497555743
 31
0.0
  0
LINE
  5
3C5
330
1F
100
AcDbEntity
  8
LAY-10
  6
CONTINUOUS
 62
     7
100
AcDbLine
 10
637.5576841562391
 20
854.2520497555743
 30
0.0
 11
637.5576841562391
 21
810.2520497555743
 31
0.0
  0
LINE
  5
3C6
330
1F
100
AcDbEntity
  8
LAY-10
  6
CONTINUOUS
 62
     7
100
AcDbLine
 10
442.0576841562405
 20
854.2520497555743
 30
0.0
 11
442.0576841562405
 21
810.2520497555743
 31
0.0
  0
LINE
  5
3C7
330
1F
100
AcDbEntity
  8
LAY-10
  6
CONTINUOUS
 62
     7
100
AcDbLine
 10
437.55768415624
 20
854.2520497555743
 30
0.0
 11
437.55768415624
 21
810.2520497555743
 31
0.0
  0
ARC
  5
3C8
330
1F
100
AcDbEntity
  8
LAY-10
  6
CONTINUOUS
 62
     7
100
AcDbCircle
 10
700.8076841562454
 20
805.2520497555697
 30
0.0
 40
3.000000000000003
100
AcDbArc
 50
90.00000000000001
 51
180.0
  0
ARC
  5
3C9
330
1F
100
AcDbEntity
  8
LAY-10
  6
CONTINUOUS
 62
     7
100
AcDbCircle
 10
737.3076841562455
 20
814.7520497555679
 30
0.0
 40
6.500000000000004
100
AcDbArc
 50
270.0000000000002
 51
0.0
  0
ARC
  5
3CA
330
1F
100
AcDbEntity
  8
LAY-10
  6
CONTINUOUS
 62
     7
100
AcDbCircle
 10
746.8076841562462
 20
851.2520497555679
 30
0.0
 40
3.000000000000003
100
AcDbArc
 50
90.00000000000001
 51
180.0
  0
LINE
  5
3CB
330
1F
100
AcDbEntity
  8
LAY-10
  6
CONTINUOUS
 62
     7
100
AcDbLine
 10
747.8076841562428
 20
804.2520497555711
 30
0.0
 11
747.8076841562428
 21
858.7520497555734
 31
0.0
  0
LINE
  5
3CC
330
1F
100
AcDbEntity
  8
LAY-10
  6
CONTINUOUS
 62
     7
100
AcDbLine
 10
697.8076841562453
 20
804.2520497555724
 30
0.0
 11
697.8076841562453
 21
805.2520497555697
 31
0.0
  0
LINE
  5
3CD
330
1F
100
AcDbEntity
  8
LAY-10
  6
CONTINUOUS
 62
     7
100
AcDbLine
 10
743.8076841562455
 20
814.7520497555679
 30
0.0
 11
743.8076841562455
 21
854.2520497555743
 31
0.0
  0
ARC
  5
3CE
330
1F
100
AcDbEntity
  8
LAY-10
  6
CONTINUOUS
 62
     7
100
AcDbCircle
 10
378.8076841562365
 20
805.2520497555697
 30
0.0
 40
3.000000000000003
100
AcDbArc
 50
0.0
 51
90.00000000000001
  0
ARC
  5
3CF
330
1F
100
AcDbEntity
  8
LAY-10
  6
CONTINUOUS
 62
     7
100
AcDbCircle
 10
342.3076841562356
 20
814.7520497555679
 30
0.0
 40
6.500000000000004
100
AcDbArc
 50
180.0
 51
270.0000000000002
  0
ARC
  5
3D0
330
1F
100
AcDbEntity
  8
LAY-10
  6
CONTINUOUS
 62
     7
100
AcDbCircle
 10
332.8076841562356
 20
851.2520497555679
 30
0.0
 40
3.000000000000003
100
AcDbArc
 50
0.0
 51
90.00000000000001
  0
LINE
  5
3D1
330
1F
100
AcDbEntity
  8
LAY-10
  6
CONTINUOUS
 62
     7
100
AcDbLine
 10
381.8076841562355
 20
804.2520497555724
 30
0.0
 11
381.8076841562355
 21
805.2520497555697
 31
0.0
  0
LINE
  5
3D2
330
1F
100
AcDbEntity
  8
LAY-10
  6
CONTINUOUS
 62
     7
100
AcDbLine
 10
335.8076841562365
 20
814.7520497555679
 30
0.0
 11
335.8076841562365
 21
854.2520497555743
 31
0.0
  0
LINE
  5
3D3
330
1F
100
AcDbEntity
  8
LAY-10
  6
CONTINUOUS
 62
     7
100
AcDbLine
 10
331.8076841562429
 20
854.2520497555743
 30
0.0
 11
747.8076841562428
 21
854.2520497555743
 31
0.0
  0
LINE
  5
3D4
330
1F
100
AcDbEntity
  8
LAY-10
  6
CONTINUOUS
 62
     7
100
AcDbLine
 10
331.8076841562429
 20
858.7520497555734
 30
0.0
 11
747.8076841562428
 21
858.7520497555734
 31
0.0
  0
LINE
  5
3D5
330
1F
100
AcDbEntity
  8
LAY-10
  6
CONTINUOUS
 62
     7
100
AcDbLine
 10
342.3076841562356
 20
808.252049755568
 30
0.0
 11
737.30768415625
 21
808.252049755568
 31
0.0
  0
LINE
  5
3D6
330
1F
100
AcDbEntity
  8
LAY-10
  6
CONTINUOUS
 62
     7
100
AcDbLine
 10
337.6172683964096
 20
810.2520497555702
 30
0.0
 11
741.9980999160712
 21
810.2520497555702
 31
0.0
  0
LINE
  5
3D7
330
1F
100
AcDbEntity
  8
LAY-10
  6
CONTINUOUS
 62
     7
100
AcDbLine
 10
1060.05768415609
 20
854.2520497555444
 30
0.0
 11
1060.05768415609
 21
810.2520497555442
 31
0.0
  0
LINE
  5
3D8
330
1F
100
AcDbEntity
  8
LAY-10
  6
CONTINUOUS
 62
     7
100
AcDbLine
 10
1055.557684156089
 20
854.2520497555444
 30
0.0
 11
1055.557684156089
 21
810.2520497555442
 31
0.0
  0
LINE
  5
3D9
330
1F
100
AcDbEntity
  8
LAY-10
  6
CONTINUOUS
 62
     7
100
AcDbLine
 10
860.0576841560905
 20
854.2520497555444
 30
0.0
 11
860.0576841560905
 21
810.2520497555442
 31
0.0
  0
LINE
  5
3DA
330
1F
100
AcDbEntity
  8
LAY-10
  6
CONTINUOUS
 62
     7
100
AcDbLine
 10
855.5576841560901
 20
854.2520497555444
 30
0.0
 11
855.5576841560901
 21
810.2520497555442
 31
0.0
  0
ARC
  5
3DB
330
1F
100
AcDbEntity
  8
LAY-10
  6
CONTINUOUS
 62
     7
100
AcDbCircle
 10
1118.807684156095
 20
805.2520497555397
 30
0.0
 40
3.000000000000003
100
AcDbArc
 50
90.00000000000001
 51
180.0
  0
ARC
  5
3DC
330
1F
100
AcDbEntity
  8
LAY-10
  6
CONTINUOUS
 62
     7
100
AcDbCircle
 10
1155.307684156096
 20
814.7520497555379
 30
0.0
 40
6.500000000000004
100
AcDbArc
 50
270.0000000000002
 51
0.0
  0
ARC
  5
3DD
330
1F
100
AcDbEntity
  8
LAY-10
  6
CONTINUOUS
 62
     7
100
AcDbCircle
 10
1164.807684156096
 20
851.252049755538
 30
0.0
 40
3.000000000000003
100
AcDbArc
 50
90.00000000000001
 51
180.0
  0
LINE
  5
3DE
330
1F
100
AcDbEntity
  8
LAY-10
  6
CONTINUOUS
 62
     7
100
AcDbLine
 10
1165.807684156093
 20
804.2520497555411
 30
0.0
 11
1165.807684156093
 21
858.7520497555433
 31
0.0
  0
LINE
  5
3DF
330
1F
100
AcDbEntity
  8
LAY-10
  6
CONTINUOUS
 62
     7
100
AcDbLine
 10
1115.807684156095
 20
804.2520497555424
 30
0.0
 11
1115.807684156095
 21
805.2520497555397
 31
0.0
  0
LINE
  5
3E0
330
1F
100
AcDbEntity
  8
LAY-10
  6
CONTINUOUS
 62
     7
100
AcDbLine
 10
1161.807684156096
 20
814.7520497555379
 30
0.0
 11
1161.807684156096
 21
854.2520497555444
 31
0.0
  0
ARC
  5
3E1
330
1F
100
AcDbEntity
  8
LAY-10
  6
CONTINUOUS
 62
     7
100
AcDbCircle
 10
796.8076841560865
 20
805.2520497555397
 30
0.0
 40
3.000000000000003
100
AcDbArc
 50
0.0
 51
90.00000000000001
  0
ARC
  5
3E2
330
1F
100
AcDbEntity
  8
LAY-10
  6
CONTINUOUS
 62
     7
100
AcDbCircle
 10
760.3076841560855
 20
814.7520497555379
 30
0.0
 40
6.500000000000004
100
AcDbArc
 50
180.0
 51
270.0000000000002
  0
ARC
  5
3E3
330
1F
100
AcDbEntity
  8
LAY-10
  6
CONTINUOUS
 62
     7
100
AcDbCircle
 10
750.8076841560855
 20
851.252049755538
 30
0.0
 40
3.000000000000003
100
AcDbArc
 50
0.0
 51
90.00000000000001
  0
LINE
  5
3E4
330
1F
100
AcDbEntity
  8
LAY-10
  6
CONTINUOUS
 62
     7
100
AcDbLine
 10
799.8076841560857
 20
804.2520497555424
 30
0.0
 11
799.8076841560857
 21
805.2520497555397
 31
0.0
  0
LINE
  5
3E5
330
1F
100
AcDbEntity
  8
LAY-10
  6
CONTINUOUS
 62
     7
100
AcDbLine
 10
753.8076841560863
 20
814.7520497555379
 30
0.0
 11
753.8076841560863
 21
854.2520497555444
 31
0.0
  0
LINE
  5
3E6
330
1F
100
AcDbEntity
  8
LAY-10
  6
CONTINUOUS
 62
     7
100
AcDbLine
 10
749.8076841560871
 20
804.2520497555411
 30
0.0
 11
749.8076841560871
 21
858.7520497555433
 31
0.0
  0
LINE
  5
3E7
330
1F
100
AcDbEntity
  8
LAY-10
  6
CONTINUOUS
 62
     7
100
AcDbLine
 10
749.8076841560928
 20
854.2520497555444
 30
0.0
 11
1165.807684156093
 21
854.2520497555444
 31
0.0
  0
LINE
  5
3E8
330
1F
100
AcDbEntity
  8
LAY-10
  6
CONTINUOUS
 62
     7
100
AcDbLine
 10
749.8076841560928
 20
858.7520497555433
 30
0.0
 11
1165.807684156093
 21
858.7520497555433
 31
0.0
  0
LINE
  5
3E9
330
1F
100
AcDbEntity
  8
LAY-10
  6
CONTINUOUS
 62
     7
100
AcDbLine
 10
760.3076841560855
 20
808.2520497555379
 30
0.0
 11
1155.3076841561
 21
808.2520497555379
 31
0.0
  0
LINE
  5
3EA
330
1F
100
AcDbEntity
  8
LAY-10
  6
CONTINUOUS
 62
     7
100
AcDbLine
 10
755.6172683962595
 20
810.2520497555402
 30
0.0
 11
1159.998099915921
 21
810.2520497555402
 31
0.0
  0
LINE
  5
3EB
330
1F
100
AcDbEntity
  8
LAY-10
  6
CONTINUOUS
 62
     7
100
AcDbLine
 10
1478.0576841562
 20
854.2520497555444
 30
0.0
 11
1478.0576841562
 21
810.2520497555442
 31
0.0
  0
LINE
  5
3EC
330
1F
100
AcDbEntity
  8
LAY-10
  6
CONTINUOUS
 62
     7
100
AcDbLine
 10
1473.557684156199
 20
854.2520497555444
 30
0.0
 11
1473.557684156199
 21
810.2520497555442
 31
0.0
  0
LINE
  5
3ED
330
1F
100
AcDbEntity
  8
LAY-10
  6
CONTINUOUS
 62
     7
100
AcDbLine
 10
1278.0576841562
 20
854.2520497555444
 30
0.0
 11
1278.0576841562
 21
810.2520497555442
 31
0.0
  0
LINE
  5
3EE
330
1F
100
AcDbEntity
  8
LAY-10
  6
CONTINUOUS
 62
     7
100
AcDbLine
 10
1273.5576841562
 20
854.2520497555444
 30
0.0
 11
1273.5576841562
 21
810.2520497555442
 31
0.0
  0
ARC
  5
3EF
330
1F
100
AcDbEntity
  8
LAY-10
  6
CONTINUOUS
 62
     7
100
AcDbCircle
 10
1536.807684156205
 20
805.2520497555397
 30
0.0
 40
3.000000000000003
100
AcDbArc
 50
90.00000000000001
 51
180.0
  0
ARC
  5
3F0
330
1F
100
AcDbEntity
  8
LAY-10
  6
CONTINUOUS
 62
     7
100
AcDbCircle
 10
1573.307684156205
 20
814.7520497555379
 30
0.0
 40
6.500000000000004
100
AcDbArc
 50
270.0000000000002
 51
0.0
  0
ARC
  5
3F1
330
1F
100
AcDbEntity
  8
LAY-10
  6
CONTINUOUS
 62
     7
100
AcDbCircle
 10
1582.807684156206
 20
851.252049755538
 30
0.0
 40
3.000000000000003
100
AcDbArc
 50
90.00000000000001
 51
180.0
  0
LINE
  5
3F2
330
1F
100
AcDbEntity
  8
LAY-10
  6
CONTINUOUS
 62
     7
100
AcDbLine
 10
1583.807684156203
 20
804.2520497555411
 30
0.0
 11
1583.807684156203
 21
858.7520497555433
 31
0.0
  0
LINE
  5
3F3
330
1F
100
AcDbEntity
  8
LAY-10
  6
CONTINUOUS
 62
     7
100
AcDbLine
 10
1533.807684156205
 20
804.2520497555424
 30
0.0
 11
1533.807684156205
 21
805.2520497555397
 31
0.0
  0
LINE
  5
3F4
330
1F
100
AcDbEntity
  8
LAY-10
  6
CONTINUOUS
 62
     7
100
AcDbLine
 10
1579.807684156206
 20
814.7520497555379
 30
0.0
 11
1579.807684156206
 21
854.2520497555444
 31
0.0
  0
ARC
  5
3F5
330
1F
100
AcDbEntity
  8
LAY-10
  6
CONTINUOUS
 62
     7
100
AcDbCircle
 10
1214.807684156197
 20
805.2520497555397
 30
0.0
 40
3.000000000000003
100
AcDbArc
 50
0.0
 51
90.00000000000001
  0
ARC
  5
3F6
330
1F
100
AcDbEntity
  8
LAY-10
  6
CONTINUOUS
 62
     7
100
AcDbCircle
 10
1178.307684156196
 20
814.7520497555379
 30
0.0
 40
6.500000000000004
100
AcDbArc
 50
180.0
 51
270.0000000000002
  0
ARC
  5
3F7
330
1F
100
AcDbEntity
  8
LAY-10
  6
CONTINUOUS
 62
     7
100
AcDbCircle
 10
1168.807684156195
 20
851.252049755538
 30
0.0
 40
3.000000000000003
100
AcDbArc
 50
0.0
 51
90.00000000000001
  0
LINE
  5
3F8
330
1F
100
AcDbEntity
  8
LAY-10
  6
CONTINUOUS
 62
     7
100
AcDbLine
 10
1217.807684156195
 20
804.2520497555424
 30
0.0
 11
1217.807684156195
 21
805.2520497555397
 31
0.0
  0
LINE
  5
3F9
330
1F
100
AcDbEntity
  8
LAY-10
  6
CONTINUOUS
 62
     7
100
AcDbLine
 10
1171.807684156197
 20
814.7520497555379
 30
0.0
 11
1171.807684156197
 21
854.2520497555444
 31
0.0
  0
LINE
  5
3FA
330
1F
100
AcDbEntity
  8
LAY-10
  6
CONTINUOUS
 62
     7
100
AcDbLine
 10
1167.807684156197
 20
804.2520497555411
 30
0.0
 11
1167.807684156197
 21
858.7520497555433
 31
0.0
  0
LINE
  5
3FB
330
1F
100
AcDbEntity
  8
LAY-10
  6
CONTINUOUS
 62
     7
100
AcDbLine
 10
1167.807684156203
 20
854.2520497555444
 30
0.0
 11
1583.807684156203
 21
854.2520497555444
 31
0.0
  0
LINE
  5
3FC
330
1F
100
AcDbEntity
  8
LAY-10
  6
CONTINUOUS
 62
     7
100
AcDbLine
 10
1167.807684156203
 20
858.7520497555433
 30
0.0
 11
1583.807684156203
 21
858.7520497555433
 31
0.0
  0
LINE
  5
3FD
330
1F
100
AcDbEntity
  8
LAY-10
  6
CONTINUOUS
 62
     7
100
AcDbLine
 10
1178.307684156196
 20
808.2520497555379
 30
0.0
 11
1573.30768415621
 21
808.2520497555379
 31
0.0
  0
LINE
  5
3FE
330
1F
100
AcDbEntity
  8
LAY-10
  6
CONTINUOUS
 62
     7
100
AcDbLine
 10
1173.61726839637
 20
810.2520497555402
 30
0.0
 11
1577.998099916031
 21
810.2520497555402
 31
0.0
  0
LINE
  5
3FF
330
1F
100
AcDbEntity
  8
LAY-10
  6
CONTINUOUS
 62
     7
100
AcDbLine
 10
1896.0576841562
 20
854.2520497555543
 30
0.0
 11
1896.0576841562
 21
810.2520497555543
 31
0.0
  0
LINE
  5
400
330
1F
100
AcDbEntity
  8
LAY-10
  6
CONTINUOUS
 62
     7
100
AcDbLine
 10
1891.557684156199
 20
854.2520497555543
 30
0.0
 11
1891.557684156199
 21
810.2520497555543
 31
0.0
  0
LINE
  5
401
330
1F
100
AcDbEntity
  8
LAY-10
  6
CONTINUOUS
 62
     7
100
AcDbLine
 10
1696.057684156201
 20
854.2520497555543
 30
0.0
 11
1696.057684156201
 21
810.2520497555543
 31
0.0
  0
LINE
  5
402
330
1F
100
AcDbEntity
  8
LAY-10
  6
CONTINUOUS
 62
     7
100
AcDbLine
 10
1691.5576841562
 20
854.2520497555543
 30
0.0
 11
1691.5576841562
 21
810.2520497555543
 31
0.0
  0
ARC
  5
403
330
1F
100
AcDbEntity
  8
LAY-10
  6
CONTINUOUS
 62
     7
100
AcDbCircle
 10
1954.807684156206
 20
805.2520497555497
 30
0.0
 40
3.000000000000003
100
AcDbArc
 50
90.00000000000001
 51
180.0
  0
ARC
  5
404
330
1F
100
AcDbEntity
  8
LAY-10
  6
CONTINUOUS
 62
     7
100
AcDbCircle
 10
1991.307684156206
 20
814.7520497555479
 30
0.0
 40
6.500000000000004
100
AcDbArc
 50
270.0000000000002
 51
0.0
  0
ARC
  5
405
330
1F
100
AcDbEntity
  8
LAY-10
  6
CONTINUOUS
 62
     7
100
AcDbCircle
 10
2000.807684156207
 20
851.2520497555479
 30
0.0
 40
3.000000000000003
100
AcDbArc
 50
90.00000000000001
 51
180.0
  0
LINE
  5
406
330
1F
100
AcDbEntity
  8
LAY-10
  6
CONTINUOUS
 62
     7
100
AcDbLine
 10
1951.807684156206
 20
804.2520497555524
 30
0.0
 11
1951.807684156206
 21
805.2520497555497
 31
0.0
  0
LINE
  5
407
330
1F
100
AcDbEntity
  8
LAY-10
  6
CONTINUOUS
 62
     7
100
AcDbLine
 10
1997.807684156206
 20
814.7520497555479
 30
0.0
 11
1997.807684156206
 21
854.2520497555543
 31
0.0
  0
ARC
  5
408
330
1F
100
AcDbEntity
  8
LAY-10
  6
CONTINUOUS
 62
     7
100
AcDbCircle
 10
1632.807684156197
 20
805.2520497555497
 30
0.0
 40
3.000000000000003
100
AcDbArc
 50
0.0
 51
90.00000000000001
  0
ARC
  5
409
330
1F
100
AcDbEntity
  8
LAY-10
  6
CONTINUOUS
 62
     7
100
AcDbCircle
 10
1596.307684156196
 20
814.7520497555479
 30
0.0
 40
6.500000000000004
100
AcDbArc
 50
180.0
 51
270.0000000000002
  0
ARC
  5
40A
330
1F
100
AcDbEntity
  8
LAY-10
  6
CONTINUOUS
 62
     7
100
AcDbCircle
 10
1586.807684156196
 20
851.2520497555479
 30
0.0
 40
3.000000000000003
100
AcDbArc
 50
0.0
 51
90.00000000000001
  0
LINE
  5
40B
330
1F
100
AcDbEntity
  8
LAY-10
  6
CONTINUOUS
 62
     7
100
AcDbLine
 10
1635.807684156196
 20
804.2520497555524
 30
0.0
 11
1635.807684156196
 21
805.2520497555497
 31
0.0
  0
LINE
  5
40C
330
1F
100
AcDbEntity
  8
LAY-10
  6
CONTINUOUS
 62
     7
100
AcDbLine
 10
1589.807684156197
 20
814.7520497555479
 30
0.0
 11
1589.807684156197
 21
854.2520497555543
 31
0.0
  0
LINE
  5
40D
330
1F
100
AcDbEntity
  8
LAY-10
  6
CONTINUOUS
 62
     7
100
AcDbLine
 10
1585.807684156197
 20
804.2520497555512
 30
0.0
 11
1585.807684156197
 21
858.7520497555533
 31
0.0
  0
LINE
  5
40E
330
1F
100
AcDbEntity
  8
LAY-10
  6
CONTINUOUS
 62
     7
100
AcDbLine
 10
1585.807684156203
 20
854.2520497555543
 30
0.0
 11
2001.807684156203
 21
854.2520497555543
 31
0.0
  0
LINE
  5
40F
330
1F
100
AcDbEntity
  8
LAY-10
  6
CONTINUOUS
 62
     7
100
AcDbLine
 10
1585.807684156203
 20
858.7520497555533
 30
0.0
 11
2001.807684156203
 21
858.7520497555533
 31
0.0
  0
LINE
  5
410
330
1F
100
AcDbEntity
  8
LAY-10
  6
CONTINUOUS
 62
     7
100
AcDbLine
 10
1596.307684156196
 20
808.2520497555479
 30
0.0
 11
1991.30768415621
 21
808.2520497555479
 31
0.0
  0
LINE
  5
411
330
1F
100
AcDbEntity
  8
LAY-10
  6
CONTINUOUS
 62
     7
100
AcDbLine
 10
1591.61726839637
 20
810.2520497555503
 30
0.0
 11
1995.998099916031
 21
810.2520497555503
 31
0.0
  0
LINE
  5
412
330
1F
100
AcDbEntity
  8
LAY-10
  6
CONTINUOUS
 62
     7
100
AcDbLine
 10
2001.807684156203
 20
802.2520497555997
 30
0.0
 11
2001.807684156203
 21
858.7520497555533
 31
0.0
  0
LINE
  5
413
330
1F
100
AcDbEntity
  8
LAY-10
  6
CONTINUOUS
 62
     7
100
AcDbLine
 10
331.8076841562372
 20
802.2520497555997
 30
0.0
 11
331.8076841562372
 21
858.7520497555734
 31
0.0
  0
LINE
  5
414
330
1F
100
AcDbEntity
  8
LAY-10
  6
CONTINUOUS
 62
     7
100
AcDbLine
 10
2377.023511271499
 20
2034.220691337331
 30
0.0
 11
2421.023511271499
 21
2034.220691337331
 31
0.0
  0
LINE
  5
415
330
1F
100
AcDbEntity
  8
LAY-10
  6
CONTINUOUS
 62
     7
100
AcDbLine
 10
2377.023511271499
 20
2029.72069133733
 30
0.0
 11
2421.023511271499
 21
2029.72069133733
 31
0.0
  0
LINE
  5
416
330
1F
100
AcDbEntity
  8
LAY-10
  6
CONTINUOUS
 62
     7
100
AcDbLine
 10
2377.0235112715
 20
1494.720691337556
 30
0.0
 11
2421.0235112715
 21
1494.720691337556
 31
0.0
  0
LINE
  5
417
330
1F
100
AcDbEntity
  8
LAY-10
  6
CONTINUOUS
 62
     7
100
AcDbLine
 10
2377.0235112715
 20
1499.220691337557
 30
0.0
 11
2421.0235112715
 21
1499.220691337557
 31
0.0
  0
LINE
  5
418
330
1F
100
AcDbEntity
  8
LAY-10
  6
CONTINUOUS
 62
     7
100
AcDbLine
 10
2046.706168965749
 20
2009.970691337362
 30
0.0
 11
2046.706168965749
 21
2018.970691337363
 31
0.0
  0
LINE
  5
419
330
1F
100
AcDbEntity
  8
LAY-10
  6
CONTINUOUS
 62
     7
100
AcDbLine
 10
2017.807684155911
 20
2018.970691337363
 30
0.0
 11
2046.706168965749
 21
2018.970691337363
 31
0.0
  0
LINE
  5
41A
330
1F
100
AcDbEntity
  8
LAY-10
  6
CONTINUOUS
 62
     7
100
AcDbLine
 10
2017.807684155911
 20
2009.970691337362
 30
0.0
 11
2046.706168965749
 21
2009.970691337362
 31
0.0
  0
LINE
  5
41B
330
1F
100
AcDbEntity
  8
LAY-10
  6
CONTINUOUS
 62
     7
100
AcDbLine
 10
2046.706168965746
 20
1518.970691337402
 30
0.0
 11
2046.706168965746
 21
1509.970691337401
 31
0.0
  0
LINE
  5
41C
330
1F
100
AcDbEntity
  8
LAY-10
  6
CONTINUOUS
 62
     7
100
AcDbLine
 10
2017.807684155909
 20
1509.9706913374
 30
0.0
 11
2046.706168965746
 21
1509.970691337401
 31
0.0
  0
LINE
  5
41D
330
1F
100
AcDbEntity
  8
LAY-10
  6
CONTINUOUS
 62
     7
100
AcDbLine
 10
2017.807684155909
 20
1518.970691337401
 30
0.0
 11
2046.706168965746
 21
1518.970691337402
 31
0.0
  0
LINE
  5
41E
330
1F
100
AcDbEntity
  8
LAY-10
  6
CONTINUOUS
 62
     7
100
AcDbLine
 10
2002.807684156022
 20
2300.470691337342
 30
0.0
 11
2017.807684156022
 21
2315.470691337342
 31
0.0
  0
LINE
  5
41F
330
1F
100
AcDbEntity
  8
LAY-10
  6
CONTINUOUS
 62
     7
100
AcDbLine
 10
2002.807684156021
 20
1228.470691337344
 30
0.0
 11
2017.807684156021
 21
1213.470691337346
 31
0.0
  0
LINE
  5
420
330
1F
100
AcDbEntity
  8
LAY-10
  6
CONTINUOUS
 62
     7
100
AcDbLine
 10
2002.807684156022
 20
2300.470691337342
 30
0.0
 11
2002.807684156021
 21
1228.470691337343
 31
0.0
  0
LINE
  5
421
330
1F
100
AcDbEntity
  8
LAY-10
  6
CONTINUOUS
 62
     7
100
AcDbLine
 10
2017.807684156021
 20
1213.470691337344
 30
0.0
 11
2017.807684156022
 21
2315.470691337342
 31
0.0
  0
LINE
  5
422
330
1F
100
AcDbEntity
  8
LAY-10
  6
CONTINUOUS
 62
     7
100
AcDbLine
 10
286.9035704142009
 20
2009.970691337366
 30
0.0
 11
286.9035704142009
 21
2018.970691337366
 31
0.0
  0
LINE
  5
423
330
1F
100
AcDbEntity
  8
LAY-10
  6
CONTINUOUS
 62
     7
100
AcDbLine
 10
315.802055224038
 20
2018.970691337366
 30
0.0
 11
286.9035704142009
 21
2018.970691337366
 31
0.0
  0
LINE
  5
424
330
1F
100
AcDbEntity
  8
LAY-10
  6
CONTINUOUS
 62
     7
100
AcDbLine
 10
315.802055224038
 20
2009.970691337366
 30
0.0
 11
286.9035704142009
 21
2009.970691337366
 31
0.0
  0
LINE
  5
425
330
1F
100
AcDbEntity
  8
LAY-10
  6
CONTINUOUS
 62
     7
100
AcDbLine
 10
286.9035704142009
 20
1518.970691337405
 30
0.0
 11
286.9035704142009
 21
1509.970691337404
 31
0.0
  0
LINE
  5
426
330
1F
100
AcDbEntity
  8
LAY-10
  6
CONTINUOUS
 62
     7
100
AcDbLine
 10
315.802055224038
 20
1509.970691337404
 30
0.0
 11
286.9035704142009
 21
1509.970691337404
 31
0.0
  0
LINE
  5
427
330
1F
100
AcDbEntity
  8
LAY-10
  6
CONTINUOUS
 62
     7
100
AcDbLine
 10
315.802055224038
 20
1518.970691337404
 30
0.0
 11
286.9035704142009
 21
1518.970691337405
 31
0.0
  0
LINE
  5
428
330
1F
100
AcDbEntity
  8
LAY-10
  6
CONTINUOUS
 62
     7
100
AcDbLine
 10
315.8076841561208
 20
2315.470691337342
 30
0.0
 11
330.8076841561207
 21
2300.470691337342
 31
0.0
  0
LINE
  5
429
330
1F
100
AcDbEntity
  8
LAY-10
  6
CONTINUOUS
 62
     7
100
AcDbLine
 10
330.8076841561171
 20
1228.470691337344
 30
0.0
 11
315.8076841561171
 21
1213.470691337344
 31
0.0
  0
LINE
  5
42A
330
1F
100
AcDbEntity
  8
LAY-10
  6
CONTINUOUS
 62
     7
100
AcDbLine
 10
330.8076841561171
 20
1228.470691337344
 30
0.0
 11
330.8076841561207
 21
2300.470691337342
 31
0.0
  0
LINE
  5
42B
330
1F
100
AcDbEntity
  8
LAY-10
  6
CONTINUOUS
 62
     7
100
AcDbLine
 10
315.8076841561171
 20
1213.470691337344
 30
0.0
 11
315.8076841561208
 21
2315.470691337342
 31
0.0
  0
LINE
  5
42C
330
1F
100
AcDbEntity
  8
LAY-10
  6
CONTINUOUS
 62
     7
100
AcDbLine
 10
315.8076841561208
 20
2315.470691337342
 30
0.0
 11
2017.807684156022
 21
2315.470691337342
 31
0.0
  0
LINE
  5
42D
330
1F
100
AcDbEntity
  8
LAY-10
  6
CONTINUOUS
 62
     7
100
AcDbLine
 10
2002.807684156022
 20
2300.470691337342
 30
0.0
 11
330.8076841561207
 21
2300.470691337342
 31
0.0
  0
LINE
  5
42E
330
1F
100
AcDbEntity
  8
LAY-10
  6
CONTINUOUS
 62
     7
100
AcDbLine
 10
315.8076841561171
 20
1213.470691337344
 30
0.0
 11
2017.807684156021
 21
1213.470691337343
 31
0.0
  0
LINE
  5
42F
330
1F
100
AcDbEntity
  8
LAY-10
  6
CONTINUOUS
 62
     7
100
AcDbLine
 10
2002.807684156021
 20
1228.470691337343
 30
0.0
 11
330.8076841561171
 21
1228.470691337344
 31
0.0
  0
CIRCLE
  5
430
330
1F
100
AcDbEntity
  8
LAY-10
  6
CONTINUOUS
 62
     7
100
AcDbCircle
 10
539.8076841562099
 20
2274.4706913373
 30
0.0
 40
13.00000000000001
  0
LINE
  5
431
330
1F
100
AcDbEntity
  8
LAY-10
  6
CONTINUOUS
 62
     7
100
AcDbLine
 10
535.80768415621
 20
2274.470691337306
 30
0.0
 11
539.8076841562099
 21
2267.970691337306
 31
0.0
  0
LINE
  5
432
330
1F
100
AcDbEntity
  8
LAY-10
  6
CONTINUOUS
 62
     7
100
AcDbLine
 10
539.8076841562099
 20
2280.970691337306
 30
0.0
 11
535.80768415621
 21
2274.470691337306
 31
0.0
  0
LINE
  5
433
330
1F
100
AcDbEntity
  8
LAY-10
  6
CONTINUOUS
 62
     7
100
AcDbLine
 10
543.8076841562099
 20
2274.470691337306
 30
0.0
 11
539.8076841562099
 21
2280.970691337306
 31
0.0
  0
LINE
  5
434
330
1F
100
AcDbEntity
  8
LAY-10
  6
CONTINUOUS
 62
     7
100
AcDbLine
 10
539.8076841562099
 20
2267.970691337306
 30
0.0
 11
543.8076841562099
 21
2274.470691337306
 31
0.0
  0
ARC
  5
435
330
1F
100
AcDbEntity
  8
LAY-10
  6
CONTINUOUS
 62
     7
100
AcDbCircle
 10
539.8076841562099
 20
2274.470691337306
 30
0.0
 40
12.75000000000001
100
AcDbArc
 50
18.2838899404031
 51
341.7161100595971
  0
LINE
  5
436
330
1F
100
AcDbEntity
  8
LAY-10
  6
CONTINUOUS
 62
     7
100
AcDbLine
 10
550.3076841562099
 20
2278.470691337305
 30
0.0
 11
550.3076841562099
 21
2270.470691337307
 31
0.0
  0
LINE
  5
437
330
1F
100
AcDbEntity
  8
LAY-10
  6
CONTINUOUS
 62
     7
100
AcDbLine
 10
550.3076841562099
 20
2278.470691337305
 30
0.0
 11
551.9139841690132
 21
2278.470691337305
 31
0.0
  0
LINE
  5
438
330
1F
100
AcDbEntity
  8
LAY-10
  6
CONTINUOUS
 62
     7
100
AcDbLine
 10
550.3076841562099
 20
2270.470691337307
 30
0.0
 11
551.9139841690132
 21
2270.470691337307
 31
0.0
  0
CIRCLE
  5
439
330
1F
100
AcDbEntity
  8
LAY-10
  6
CONTINUOUS
 62
     7
100
AcDbCircle
 10
539.8076841562104
 20
1254.470691337505
 30
0.0
 40
13.00000000000001
  0
LINE
  5
43A
330
1F
100
AcDbEntity
  8
LAY-10
  6
CONTINUOUS
 62
     7
100
AcDbLine
 10
535.8076841562105
 20
1254.4706913375
 30
0.0
 11
539.8076841562104
 21
1260.9706913375
 31
0.0
  0
LINE
  5
43B
330
1F
100
AcDbEntity
  8
LAY-10
  6
CONTINUOUS
 62
     7
100
AcDbLine
 10
539.8076841562104
 20
1247.9706913375
 30
0.0
 11
535.8076841562105
 21
1254.4706913375
 31
0.0
  0
LINE
  5
43C
330
1F
100
AcDbEntity
  8
LAY-10
  6
CONTINUOUS
 62
     7
100
AcDbLine
 10
543.8076841562104
 20
1254.4706913375
 30
0.0
 11
539.8076841562104
 21
1247.9706913375
 31
0.0
  0
LINE
  5
43D
330
1F
100
AcDbEntity
  8
LAY-10
  6
CONTINUOUS
 62
     7
100
AcDbLine
 10
539.8076841562104
 20
1260.9706913375
 30
0.0
 11
543.8076841562104
 21
1254.4706913375
 31
0.0
  0
ARC
  5
43E
330
1F
100
AcDbEntity
  8
LAY-10
  6
CONTINUOUS
 62
     7
100
AcDbCircle
 10
539.8076841562104
 20
1254.4706913375
 30
0.0
 40
12.75000000000001
100
AcDbArc
 50
18.2838899404031
 51
341.716110059597
  0
LINE
  5
43F
330
1F
100
AcDbEntity
  8
LAY-10
  6
CONTINUOUS
 62
     7
100
AcDbLine
 10
550.3076841562104
 20
1250.470691337501
 30
0.0
 11
550.3076841562104
 21
1258.470691337499
 31
0.0
  0
LINE
  5
440
330
1F
100
AcDbEntity
  8
LAY-10
  6
CONTINUOUS
 62
     7
100
AcDbLine
 10
550.3076841562104
 20
1250.470691337501
 30
0.0
 11
551.9139841690137
 21
1250.470691337501
 31
0.0
  0
LINE
  5
441
330
1F
100
AcDbEntity
  8
LAY-10
  6
CONTINUOUS
 62
     7
100
AcDbLine
 10
550.3076841562104
 20
1258.470691337499
 30
0.0
 11
551.9139841690137
 21
1258.470691337499
 31
0.0
  0
LINE
  5
442
330
1F
100
AcDbEntity
  8
LAY-10
  6
CONTINUOUS
 62
     7
100
AcDbLine
 10
747.8076841562099
 20
1229.470691337303
 30
0.0
 11
747.8076841562083
 21
2299.470691337303
 31
0.0
  0
LINE
  5
443
330
1F
100
AcDbEntity
  8
LAY-10
  6
CONTINUOUS
 62
     7
100
AcDbLine
 10
580.7349961800138
 20
1253.299692605268
 30
0.0
 11
597.9193365077696
 21
1236.115352277221
 31
0.0
  0
LINE
  5
444
330
1F
100
AcDbEntity
  8
LAY-10
  6
CONTINUOUS
 62
     7
100
AcDbLine
 10
721.6630232156704
 20
1236.115352280024
 30
0.0
 11
715.0183622732076
 21
1229.470691337223
 31
0.0
  0
LINE
  5
445
330
1F
100
AcDbEntity
  8
LAY-10
  6
CONTINUOUS
 62
     7
100
AcDbLine
 10
739.3406927438698
 20
1253.793021808824
 30
0.0
 11
747.8076841561947
 21
1262.260013221295
 31
0.0
  0
LINE
  5
446
330
1F
100
AcDbEntity
  8
LAY-10
  6
CONTINUOUS
 62
     7
100
AcDbLine
 10
644.3076841554657
 20
1229.470691337221
 30
0.0
 11
650.9523450976737
 21
1236.115352279017
 31
0.0
  0
LINE
  5
447
330
1F
100
AcDbEntity
  8
LAY-10
  6
CONTINUOUS
 62
     7
100
AcDbLine
 10
739.3406927451699
 20
1289.148360865222
 30
0.0
 11
747.8076841561697
 21
1297.615352276366
 31
0.0
  0
LINE
  5
448
330
1F
100
AcDbEntity
  8
LAY-10
  6
CONTINUOUS
 62
     7
100
AcDbLine
 10
703.9853536858695
 20
1289.148360866222
 30
0.0
 11
721.66302321557
 21
1306.826030396221
 31
0.0
  0
LINE
  5
449
330
1F
100
AcDbEntity
  8
LAY-10
  6
CONTINUOUS
 62
     7
100
AcDbLine
 10
721.66302321557
 20
1324.503699925222
 30
0.0
 11
739.34069274527
 21
1306.826030396221
 31
0.0
  0
LINE
  5
44A
330
1F
100
AcDbEntity
  8
LAY-10
  6
CONTINUOUS
 62
     7
100
AcDbLine
 10
686.3076841562699
 20
1324.503699925222
 30
0.0
 11
703.9853536858695
 21
1306.826030396221
 31
0.0
  0
LINE
  5
44B
330
1F
100
AcDbEntity
  8
LAY-10
  6
CONTINUOUS
 62
     7
100
AcDbLine
 10
597.9193365078701
 20
1271.470691337221
 30
0.0
 11
580.2416669781699
 21
1289.148360866222
 31
0.0
  0
LINE
  5
44C
330
1F
100
AcDbEntity
  8
LAY-10
  6
CONTINUOUS
 62
     7
100
AcDbLine
 10
615.5970060374699
 20
1306.826030396222
 30
0.0
 11
597.9193365078701
 21
1289.148360866222
 31
0.0
  0
LINE
  5
44D
330
1F
100
AcDbEntity
  8
LAY-10
  6
CONTINUOUS
 62
     7
100
AcDbLine
 10
615.5970060374699
 20
1271.470691337221
 30
0.0
 11
597.9193365078701
 21
1253.793021807222
 31
0.0
  0
LINE
  5
44E
330
1F
100
AcDbEntity
  8
LAY-10
  6
CONTINUOUS
 62
     7
100
AcDbLine
 10
633.2746755671699
 20
1306.826030396222
 30
0.0
 11
615.5970060374699
 21
1324.503699925222
 31
0.0
  0
LINE
  5
44F
330
1F
100
AcDbEntity
  8
LAY-10
  6
CONTINUOUS
 62
     7
100
AcDbLine
 10
668.6300146264699
 20
1289.148360866222
 30
0.0
 11
686.3076841561699
 21
1306.826030396222
 31
0.0
  0
LINE
  5
450
330
1F
100
AcDbEntity
  8
LAY-10
  6
CONTINUOUS
 62
     7
100
AcDbLine
 10
668.6300146264699
 20
1306.826030396222
 30
0.0
 11
650.9523450968701
 21
1324.503699925222
 31
0.0
  0
LINE
  5
451
330
1F
100
AcDbEntity
  8
LAY-10
  6
CONTINUOUS
 62
     7
100
AcDbLine
 10
633.2746755671699
 20
1271.470691337221
 30
0.0
 11
615.5970060374699
 21
1289.148360866222
 31
0.0
  0
LINE
  5
452
330
1F
100
AcDbEntity
  8
LAY-10
  6
CONTINUOUS
 62
     7
100
AcDbLine
 10
615.5970060374699
 20
1253.793021807222
 30
0.0
 11
633.2746755671699
 21
1236.115352277222
 31
0.0
  0
LINE
  5
453
330
1F
100
AcDbEntity
  8
LAY-10
  6
CONTINUOUS
 62
     7
100
AcDbLine
 10
739.34069274537
 20
1395.214378043222
 30
0.0
 11
747.8076841561697
 21
1403.681369454166
 31
0.0
  0
LINE
  5
454
330
1F
100
AcDbEntity
  8
LAY-10
  6
CONTINUOUS
 62
     7
100
AcDbLine
 10
703.9853536859696
 20
1359.859038984222
 30
0.0
 11
721.6630232156697
 21
1377.536708514222
 31
0.0
  0
LINE
  5
455
330
1F
100
AcDbEntity
  8
LAY-10
  6
CONTINUOUS
 62
     7
100
AcDbLine
 10
739.34069274527
 20
1377.536708514222
 30
0.0
 11
721.6630232156697
 21
1395.214378043222
 31
0.0
  0
LINE
  5
456
330
1F
100
AcDbEntity
  8
LAY-10
  6
CONTINUOUS
 62
     7
100
AcDbLine
 10
739.34069274527
 20
1359.859038984222
 30
0.0
 11
747.8076841561697
 21
1368.326030395265
 31
0.0
  0
LINE
  5
457
330
1F
100
AcDbEntity
  8
LAY-10
  6
CONTINUOUS
 62
     7
100
AcDbLine
 10
739.34069274527
 20
1324.503699925222
 30
0.0
 11
747.8076841561697
 21
1332.970691336265
 31
0.0
  0
LINE
  5
458
330
1F
100
AcDbEntity
  8
LAY-10
  6
CONTINUOUS
 62
     7
100
AcDbLine
 10
721.6630232156697
 20
1359.859038984222
 30
0.0
 11
739.34069274527
 21
1342.181369455221
 31
0.0
  0
LINE
  5
459
330
1F
100
AcDbEntity
  8
LAY-10
  6
CONTINUOUS
 62
     7
100
AcDbLine
 10
703.9853536859696
 20
1377.536708514222
 30
0.0
 11
686.3076841562699
 21
1395.214378043222
 31
0.0
  0
LINE
  5
45A
330
1F
100
AcDbEntity
  8
LAY-10
  6
CONTINUOUS
 62
     7
100
AcDbLine
 10
686.3076841562699
 20
1377.536708514222
 30
0.0
 11
668.63001462657
 21
1359.859038984221
 31
0.0
  0
LINE
  5
45B
330
1F
100
AcDbEntity
  8
LAY-10
  6
CONTINUOUS
 62
     7
100
AcDbLine
 10
668.63001462657
 20
1342.181369455222
 30
0.0
 11
650.9523450968701
 21
1359.859038984221
 31
0.0
  0
LINE
  5
45C
330
1F
100
AcDbEntity
  8
LAY-10
  6
CONTINUOUS
 62
     7
100
AcDbLine
 10
703.9853536858695
 20
1324.503699925222
 30
0.0
 11
721.66302321557
 21
1342.181369455221
 31
0.0
  0
LINE
  5
45D
330
1F
100
AcDbEntity
  8
LAY-10
  6
CONTINUOUS
 62
     7
100
AcDbLine
 10
668.63001462657
 20
1324.503699925222
 30
0.0
 11
686.3076841562699
 21
1342.181369455222
 31
0.0
  0
LINE
  5
45E
330
1F
100
AcDbEntity
  8
LAY-10
  6
CONTINUOUS
 62
     7
100
AcDbLine
 10
703.9853536858695
 20
1342.181369455221
 30
0.0
 11
686.3076841562699
 21
1359.859038984221
 31
0.0
  0
LINE
  5
45F
330
1F
100
AcDbEntity
  8
LAY-10
  6
CONTINUOUS
 62
     7
100
AcDbLine
 10
721.6630232156697
 20
1412.892047573222
 30
0.0
 11
703.9853536859696
 21
1395.214378043222
 31
0.0
  0
LINE
  5
460
330
1F
100
AcDbEntity
  8
LAY-10
  6
CONTINUOUS
 62
     7
100
AcDbLine
 10
739.34069274537
 20
1412.892047573222
 30
0.0
 11
721.6630232156697
 21
1430.569717102222
 31
0.0
  0
LINE
  5
461
330
1F
100
AcDbEntity
  8
LAY-10
  6
CONTINUOUS
 62
     7
100
AcDbLine
 10
747.8076841561697
 20
1439.036708513167
 30
0.0
 11
739.34069274537
 21
1430.569717102222
 31
0.0
  0
LINE
  5
462
330
1F
100
AcDbEntity
  8
LAY-10
  6
CONTINUOUS
 62
     7
100
AcDbLine
 10
608.9523450966827
 20
1229.470691337221
 30
0.0
 11
615.5970060375699
 21
1236.115352278222
 31
0.0
  0
LINE
  5
463
330
1F
100
AcDbEntity
  8
LAY-10
  6
CONTINUOUS
 62
     7
100
AcDbLine
 10
573.597006037006
 20
1229.470691337221
 30
0.0
 11
580.2416669772699
 21
1236.115352277222
 31
0.0
  0
LINE
  5
464
330
1F
100
AcDbEntity
  8
LAY-10
  6
CONTINUOUS
 62
     7
100
AcDbLine
 10
538.2416669773362
 20
1229.470691337221
 30
0.0
 11
544.8863279176
 21
1236.115352277222
 31
0.0
  0
LINE
  5
465
330
1F
100
AcDbEntity
  8
LAY-10
  6
CONTINUOUS
 62
     7
100
AcDbLine
 10
633.2746755671699
 20
1289.148360866222
 30
0.0
 11
650.9523450968701
 21
1306.826030396222
 31
0.0
  0
LINE
  5
466
330
1F
100
AcDbEntity
  8
LAY-10
  6
CONTINUOUS
 62
     7
100
AcDbLine
 10
650.9523450968701
 20
1342.181369455222
 30
0.0
 11
633.2746755671699
 21
1324.503699925222
 31
0.0
  0
LINE
  5
467
330
1F
100
AcDbEntity
  8
LAY-10
  6
CONTINUOUS
 62
     7
100
AcDbLine
 10
703.9853536854705
 20
1253.793021807823
 30
0.0
 11
721.6630232151695
 21
1271.470691337822
 31
0.0
  0
LINE
  5
468
330
1F
100
AcDbEntity
  8
LAY-10
  6
CONTINUOUS
 62
     7
100
AcDbLine
 10
721.6630232154699
 20
1253.793021808124
 30
0.0
 11
739.3406927447705
 21
1236.115352278825
 31
0.0
  0
LINE
  5
469
330
1F
100
AcDbEntity
  8
LAY-10
  6
CONTINUOUS
 62
     7
100
AcDbLine
 10
739.3406927441703
 20
1271.470691338222
 30
0.0
 11
721.6630232148693
 21
1289.148360867521
 31
0.0
  0
LINE
  5
46A
330
1F
100
AcDbEntity
  8
LAY-10
  6
CONTINUOUS
 62
     7
100
AcDbLine
 10
633.2746755671699
 20
1253.793021807222
 30
0.0
 11
646.8076841561694
 21
1267.326030396451
 31
0.0
  0
LINE
  5
46B
330
1F
100
AcDbEntity
  8
LAY-10
  6
CONTINUOUS
 62
     7
100
AcDbLine
 10
703.9853536853716
 20
1236.115352279422
 30
0.0
 11
686.307684156071
 21
1253.793021808721
 31
0.0
  0
LINE
  5
46C
330
1F
100
AcDbEntity
  8
LAY-10
  6
CONTINUOUS
 62
     7
100
AcDbLine
 10
686.3076841573704
 20
1271.470691337721
 30
0.0
 11
668.6300146273722
 21
1253.793021808019
 31
0.0
  0
LINE
  5
46D
330
1F
100
AcDbEntity
  8
LAY-10
  6
CONTINUOUS
 62
     7
100
AcDbLine
 10
650.9523450983713
 20
1253.793021808018
 30
0.0
 11
668.6300146273735
 21
1236.11535227832
 31
0.0
  0
LINE
  5
46E
330
1F
100
AcDbEntity
  8
LAY-10
  6
CONTINUOUS
 62
     7
100
AcDbLine
 10
650.9523450983685
 20
1289.148360867318
 30
0.0
 11
668.6300146273707
 21
1271.470691337719
 31
0.0
  0
LINE
  5
46F
330
1F
100
AcDbEntity
  8
LAY-10
  6
CONTINUOUS
 62
     7
100
AcDbLine
 10
686.3076841583717
 20
1236.115352278421
 30
0.0
 11
679.6630232170597
 21
1229.470691337221
 31
0.0
  0
LINE
  5
470
330
1F
100
AcDbEntity
  8
LAY-10
  6
CONTINUOUS
 62
     7
100
AcDbLine
 10
686.3076841564695
 20
1289.148360866521
 30
0.0
 11
703.9853536857692
 21
1271.470691337221
 31
0.0
  0
LINE
  5
471
330
1F
100
AcDbEntity
  8
LAY-10
  6
CONTINUOUS
 62
     7
100
AcDbLine
 10
562.563997449569
 20
1253.793021806222
 30
0.0
 11
580.2416669788691
 21
1271.470691336522
 31
0.0
  0
LINE
  5
472
330
1F
100
AcDbEntity
  8
LAY-10
  6
CONTINUOUS
 62
     7
100
AcDbLine
 10
331.8076841562084
 20
2299.470691337301
 30
0.0
 11
331.8076841562084
 21
1229.470691337302
 31
0.0
  0
LINE
  5
473
330
1F
100
AcDbEntity
  8
LAY-10
  6
CONTINUOUS
 62
     7
100
AcDbLine
 10
498.8803721323851
 20
2275.641690069252
 30
0.0
 11
481.6960318046293
 21
2292.826030397299
 31
0.0
  0
LINE
  5
474
330
1F
100
AcDbEntity
  8
LAY-10
  6
CONTINUOUS
 62
     7
100
AcDbLine
 10
357.9523450967284
 20
2292.826030394496
 30
0.0
 11
364.5970060391913
 21
2299.470691337297
 31
0.0
  0
LINE
  5
475
330
1F
100
AcDbEntity
  8
LAY-10
  6
CONTINUOUS
 62
     7
100
AcDbLine
 10
340.2746755685292
 20
2275.148360865696
 30
0.0
 11
331.8076841562041
 21
2266.681369453226
 31
0.0
  0
LINE
  5
476
330
1F
100
AcDbEntity
  8
LAY-10
  6
CONTINUOUS
 62
     7
100
AcDbLine
 10
435.3076841569331
 20
2299.470691337299
 30
0.0
 11
428.6630232147253
 21
2292.826030395503
 31
0.0
  0
LINE
  5
477
330
1F
100
AcDbEntity
  8
LAY-10
  6
CONTINUOUS
 62
     7
100
AcDbLine
 10
340.2746755672291
 20
2239.793021809298
 30
0.0
 11
331.8076841562291
 21
2231.326030398154
 31
0.0
  0
LINE
  5
478
330
1F
100
AcDbEntity
  8
LAY-10
  6
CONTINUOUS
 62
     7
100
AcDbLine
 10
375.6300146265293
 20
2239.793021808298
 30
0.0
 11
357.9523450968292
 21
2222.1153522783
 31
0.0
  0
LINE
  5
479
330
1F
100
AcDbEntity
  8
LAY-10
  6
CONTINUOUS
 62
     7
100
AcDbLine
 10
357.9523450968292
 20
2204.437682749299
 30
0.0
 11
340.2746755671291
 21
2222.1153522783
 31
0.0
  0
LINE
  5
47A
330
1F
100
AcDbEntity
  8
LAY-10
  6
CONTINUOUS
 62
     7
100
AcDbLine
 10
393.3076841561291
 20
2204.437682749298
 30
0.0
 11
375.6300146265293
 21
2222.1153522783
 31
0.0
  0
LINE
  5
47B
330
1F
100
AcDbEntity
  8
LAY-10
  6
CONTINUOUS
 62
     7
100
AcDbLine
 10
481.6960318045288
 20
2257.470691337299
 30
0.0
 11
499.3737013342292
 21
2239.793021808298
 31
0.0
  0
LINE
  5
47C
330
1F
100
AcDbEntity
  8
LAY-10
  6
CONTINUOUS
 62
     7
100
AcDbLine
 10
464.0183622749292
 20
2222.115352278299
 30
0.0
 11
481.6960318045288
 21
2239.793021808298
 31
0.0
  0
LINE
  5
47D
330
1F
100
AcDbEntity
  8
LAY-10
  6
CONTINUOUS
 62
     7
100
AcDbLine
 10
464.0183622749292
 20
2257.470691337299
 30
0.0
 11
481.6960318045288
 21
2275.148360867299
 31
0.0
  0
LINE
  5
47E
330
1F
100
AcDbEntity
  8
LAY-10
  6
CONTINUOUS
 62
     7
100
AcDbLine
 10
446.3406927452291
 20
2222.115352278299
 30
0.0
 11
464.0183622749292
 21
2204.437682749299
 31
0.0
  0
LINE
  5
47F
330
1F
100
AcDbEntity
  8
LAY-10
  6
CONTINUOUS
 62
     7
100
AcDbLine
 10
410.9853536859292
 20
2239.793021808298
 30
0.0
 11
393.3076841562291
 21
2222.115352278299
 31
0.0
  0
LINE
  5
480
330
1F
100
AcDbEntity
  8
LAY-10
  6
CONTINUOUS
 62
     7
100
AcDbLine
 10
410.9853536859292
 20
2222.115352278299
 30
0.0
 11
428.6630232155288
 21
2204.437682749299
 31
0.0
  0
LINE
  5
481
330
1F
100
AcDbEntity
  8
LAY-10
  6
CONTINUOUS
 62
     7
100
AcDbLine
 10
446.3406927452291
 20
2257.470691337299
 30
0.0
 11
464.0183622749292
 21
2239.793021808298
 31
0.0
  0
LINE
  5
482
330
1F
100
AcDbEntity
  8
LAY-10
  6
CONTINUOUS
 62
     7
100
AcDbLine
 10
464.0183622749292
 20
2275.148360867299
 30
0.0
 11
446.3406927452291
 21
2292.826030397298
 31
0.0
  0
LINE
  5
483
330
1F
100
AcDbEntity
  8
LAY-10
  6
CONTINUOUS
 62
     7
100
AcDbLine
 10
340.274675567029
 20
2133.727004631298
 30
0.0
 11
331.8076841562291
 21
2125.260013220354
 31
0.0
  0
LINE
  5
484
330
1F
100
AcDbEntity
  8
LAY-10
  6
CONTINUOUS
 62
     7
100
AcDbLine
 10
375.6300146264292
 20
2169.082343690298
 30
0.0
 11
357.9523450967293
 21
2151.404674160299
 31
0.0
  0
LINE
  5
485
330
1F
100
AcDbEntity
  8
LAY-10
  6
CONTINUOUS
 62
     7
100
AcDbLine
 10
340.2746755671291
 20
2151.404674160299
 30
0.0
 11
357.9523450967293
 21
2133.727004631299
 31
0.0
  0
LINE
  5
486
330
1F
100
AcDbEntity
  8
LAY-10
  6
CONTINUOUS
 62
     7
100
AcDbLine
 10
340.2746755671291
 20
2169.082343690298
 30
0.0
 11
331.8076841562291
 21
2160.615352279255
 31
0.0
  0
LINE
  5
487
330
1F
100
AcDbEntity
  8
LAY-10
  6
CONTINUOUS
 62
     7
100
AcDbLine
 10
340.2746755671291
 20
2204.437682749299
 30
0.0
 11
331.8076841562291
 21
2195.970691338255
 31
0.0
  0
LINE
  5
488
330
1F
100
AcDbEntity
  8
LAY-10
  6
CONTINUOUS
 62
     7
100
AcDbLine
 10
357.9523450967293
 20
2169.082343690298
 30
0.0
 11
340.2746755671291
 21
2186.760013219299
 31
0.0
  0
LINE
  5
489
330
1F
100
AcDbEntity
  8
LAY-10
  6
CONTINUOUS
 62
     7
100
AcDbLine
 10
375.6300146264292
 20
2151.404674160299
 30
0.0
 11
393.3076841561291
 21
2133.727004631299
 31
0.0
  0
LINE
  5
48A
330
1F
100
AcDbEntity
  8
LAY-10
  6
CONTINUOUS
 62
     7
100
AcDbLine
 10
393.3076841561291
 20
2151.404674160299
 30
0.0
 11
410.9853536858292
 21
2169.082343690299
 31
0.0
  0
LINE
  5
48B
330
1F
100
AcDbEntity
  8
LAY-10
  6
CONTINUOUS
 62
     7
100
AcDbLine
 10
410.9853536858292
 20
2186.760013219298
 30
0.0
 11
428.6630232155288
 21
2169.082343690299
 31
0.0
  0
LINE
  5
48C
330
1F
100
AcDbEntity
  8
LAY-10
  6
CONTINUOUS
 62
     7
100
AcDbLine
 10
375.6300146265293
 20
2204.437682749299
 30
0.0
 11
357.9523450968292
 21
2186.760013219299
 31
0.0
  0
LINE
  5
48D
330
1F
100
AcDbEntity
  8
LAY-10
  6
CONTINUOUS
 62
     7
100
AcDbLine
 10
410.9853536858292
 20
2204.437682749298
 30
0.0
 11
393.3076841561291
 21
2186.760013219298
 31
0.0
  0
LINE
  5
48E
330
1F
100
AcDbEntity
  8
LAY-10
  6
CONTINUOUS
 62
     7
100
AcDbLine
 10
375.6300146265293
 20
2186.760013219299
 30
0.0
 11
393.3076841561291
 21
2169.082343690299
 31
0.0
  0
LINE
  5
48F
330
1F
100
AcDbEntity
  8
LAY-10
  6
CONTINUOUS
 62
     7
100
AcDbLine
 10
357.9523450967293
 20
2116.049335101298
 30
0.0
 11
375.6300146264292
 21
2133.727004631299
 31
0.0
  0
LINE
  5
490
330
1F
100
AcDbEntity
  8
LAY-10
  6
CONTINUOUS
 62
     7
100
AcDbLine
 10
340.274675567029
 20
2116.049335101298
 30
0.0
 11
357.9523450967293
 21
2098.371665572298
 31
0.0
  0
LINE
  5
491
330
1F
100
AcDbEntity
  8
LAY-10
  6
CONTINUOUS
 62
     7
100
AcDbLine
 10
331.8076841562291
 20
2089.904674161354
 30
0.0
 11
340.274675567029
 21
2098.371665572298
 31
0.0
  0
LINE
  5
492
330
1F
100
AcDbEntity
  8
LAY-10
  6
CONTINUOUS
 62
     7
100
AcDbLine
 10
470.6630232157162
 20
2299.470691337299
 30
0.0
 11
464.0183622748292
 21
2292.826030396299
 31
0.0
  0
LINE
  5
493
330
1F
100
AcDbEntity
  8
LAY-10
  6
CONTINUOUS
 62
     7
100
AcDbLine
 10
506.0183622753929
 20
2299.470691337299
 30
0.0
 11
499.3737013351291
 21
2292.826030397298
 31
0.0
  0
LINE
  5
494
330
1F
100
AcDbEntity
  8
LAY-10
  6
CONTINUOUS
 62
     7
100
AcDbLine
 10
541.3737013350627
 20
2299.470691337299
 30
0.0
 11
534.729040394799
 21
2292.826030397298
 31
0.0
  0
LINE
  5
495
330
1F
100
AcDbEntity
  8
LAY-10
  6
CONTINUOUS
 62
     7
100
AcDbLine
 10
446.3406927452291
 20
2239.793021808298
 30
0.0
 11
428.6630232155288
 21
2222.115352278299
 31
0.0
  0
LINE
  5
496
330
1F
100
AcDbEntity
  8
LAY-10
  6
CONTINUOUS
 62
     7
100
AcDbLine
 10
428.6630232155288
 20
2186.760013219298
 30
0.0
 11
446.3406927452291
 21
2204.437682749299
 31
0.0
  0
LINE
  5
497
330
1F
100
AcDbEntity
  8
LAY-10
  6
CONTINUOUS
 62
     7
100
AcDbLine
 10
375.6300146269285
 20
2275.148360866698
 30
0.0
 11
357.9523450972296
 21
2257.470691336698
 31
0.0
  0
LINE
  5
498
330
1F
100
AcDbEntity
  8
LAY-10
  6
CONTINUOUS
 62
     7
100
AcDbLine
 10
357.9523450969292
 20
2275.148360866397
 30
0.0
 11
340.2746755676286
 21
2292.826030395696
 31
0.0
  0
LINE
  5
499
330
1F
100
AcDbEntity
  8
LAY-10
  6
CONTINUOUS
 62
     7
100
AcDbLine
 10
340.2746755682289
 20
2257.470691336298
 30
0.0
 11
357.9523450975297
 21
2239.793021806999
 31
0.0
  0
LINE
  5
49A
330
1F
100
AcDbEntity
  8
LAY-10
  6
CONTINUOUS
 62
     7
100
AcDbLine
 10
446.3406927452291
 20
2275.148360867299
 30
0.0
 11
432.8076841562296
 21
2261.61535227807
 31
0.0
  0
LINE
  5
49B
330
1F
100
AcDbEntity
  8
LAY-10
  6
CONTINUOUS
 62
     7
100
AcDbLine
 10
375.6300146270272
 20
2292.826030395098
 30
0.0
 11
393.3076841563278
 21
2275.148360865799
 31
0.0
  0
LINE
  5
49C
330
1F
100
AcDbEntity
  8
LAY-10
  6
CONTINUOUS
 62
     7
100
AcDbLine
 10
393.3076841550286
 20
2257.470691336799
 30
0.0
 11
410.9853536850268
 21
2275.148360866501
 31
0.0
  0
LINE
  5
49D
330
1F
100
AcDbEntity
  8
LAY-10
  6
CONTINUOUS
 62
     7
100
AcDbLine
 10
428.6630232140277
 20
2275.148360866502
 30
0.0
 11
410.9853536850254
 21
2292.826030396201
 31
0.0
  0
LINE
  5
49E
330
1F
100
AcDbEntity
  8
LAY-10
  6
CONTINUOUS
 62
     7
100
AcDbLine
 10
428.6630232140304
 20
2239.793021807202
 30
0.0
 11
410.9853536850281
 21
2257.470691336801
 31
0.0
  0
LINE
  5
49F
330
1F
100
AcDbEntity
  8
LAY-10
  6
CONTINUOUS
 62
     7
100
AcDbLine
 10
393.3076841540275
 20
2292.8260303961
 30
0.0
 11
399.9523450953392
 21
2299.470691337299
 31
0.0
  0
LINE
  5
4A0
330
1F
100
AcDbEntity
  8
LAY-10
  6
CONTINUOUS
 62
     7
100
AcDbLine
 10
393.3076841559295
 20
2239.793021807999
 30
0.0
 11
375.63001462663
 21
2257.470691337299
 31
0.0
  0
LINE
  5
4A1
330
1F
100
AcDbEntity
  8
LAY-10
  6
CONTINUOUS
 62
     7
100
AcDbLine
 10
517.0513708628299
 20
2275.148360868298
 30
0.0
 11
499.3737013335298
 21
2257.470691337999
 31
0.0
  0
LINE
  5
4A2
330
1F
100
AcDbEntity
  8
LAY-10
  6
CONTINUOUS
 62
     7
100
AcDbLine
 10
331.8076841562084
 20
2299.470691337301
 30
0.0
 11
747.8076841562083
 21
2299.470691337303
 31
0.0
  0
LINE
  5
4A3
330
1F
100
AcDbEntity
  8
LAY-10
  6
CONTINUOUS
 62
     7
100
AcDbLine
 10
331.8076841562084
 20
1229.470691337302
 30
0.0
 11
747.8076841562099
 21
1229.470691337303
 31
0.0
  0
LINE
  5
4A4
330
1F
100
AcDbEntity
  8
LAY-10
  6
CONTINUOUS
 62
     7
100
AcDbLine
 10
517.051370862131
 20
2292.826030397998
 30
0.0
 11
528.6820720294039
 21
2281.195329231185
 31
0.0
  0
LINE
  5
4A5
330
1F
100
AcDbEntity
  8
LAY-10
  6
CONTINUOUS
 62
     7
100
AcDbLine
 10
562.5639974502681
 20
1236.115352276523
 30
0.0
 11
550.9332962829009
 21
1247.74605344343
 31
0.0
  0
CIRCLE
  5
4A6
330
1F
100
AcDbEntity
  8
LAY-10
  6
CONTINUOUS
 62
     7
100
AcDbCircle
 10
957.8076841560899
 20
2274.4706913373
 30
0.0
 40
13.00000000000001
  0
LINE
  5
4A7
330
1F
100
AcDbEntity
  8
LAY-10
  6
CONTINUOUS
 62
     7
100
AcDbLine
 10
953.8076841560901
 20
2274.470691337306
 30
0.0
 11
957.8076841560899
 21
2267.970691337306
 31
0.0
  0
LINE
  5
4A8
330
1F
100
AcDbEntity
  8
LAY-10
  6
CONTINUOUS
 62
     7
100
AcDbLine
 10
957.8076841560899
 20
2280.970691337306
 30
0.0
 11
953.8076841560901
 21
2274.470691337306
 31
0.0
  0
LINE
  5
4A9
330
1F
100
AcDbEntity
  8
LAY-10
  6
CONTINUOUS
 62
     7
100
AcDbLine
 10
961.8076841560899
 20
2274.470691337306
 30
0.0
 11
957.8076841560899
 21
2280.970691337306
 31
0.0
  0
LINE
  5
4AA
330
1F
100
AcDbEntity
  8
LAY-10
  6
CONTINUOUS
 62
     7
100
AcDbLine
 10
957.8076841560899
 20
2267.970691337306
 30
0.0
 11
961.8076841560899
 21
2274.470691337306
 31
0.0
  0
ARC
  5
4AB
330
1F
100
AcDbEntity
  8
LAY-10
  6
CONTINUOUS
 62
     7
100
AcDbCircle
 10
957.8076841560899
 20
2274.470691337306
 30
0.0
 40
12.75000000000001
100
AcDbArc
 50
18.2838899404031
 51
341.7161100595971
  0
LINE
  5
4AC
330
1F
100
AcDbEntity
  8
LAY-10
  6
CONTINUOUS
 62
     7
100
AcDbLine
 10
968.3076841560899
 20
2278.470691337305
 30
0.0
 11
968.3076841560899
 21
2270.470691337307
 31
0.0
  0
LINE
  5
4AD
330
1F
100
AcDbEntity
  8
LAY-10
  6
CONTINUOUS
 62
     7
100
AcDbLine
 10
968.3076841560899
 20
2278.470691337305
 30
0.0
 11
969.9139841688932
 21
2278.470691337305
 31
0.0
  0
LINE
  5
4AE
330
1F
100
AcDbEntity
  8
LAY-10
  6
CONTINUOUS
 62
     7
100
AcDbLine
 10
968.3076841560899
 20
2270.470691337307
 30
0.0
 11
969.9139841688932
 21
2270.470691337307
 31
0.0
  0
CIRCLE
  5
4AF
330
1F
100
AcDbEntity
  8
LAY-10
  6
CONTINUOUS
 62
     7
100
AcDbCircle
 10
957.8076841560903
 20
1254.470691337505
 30
0.0
 40
13.00000000000001
  0
LINE
  5
4B0
330
1F
100
AcDbEntity
  8
LAY-10
  6
CONTINUOUS
 62
     7
100
AcDbLine
 10
953.8076841560905
 20
1254.4706913375
 30
0.0
 11
957.8076841560903
 21
1260.9706913375
 31
0.0
  0
LINE
  5
4B1
330
1F
100
AcDbEntity
  8
LAY-10
  6
CONTINUOUS
 62
     7
100
AcDbLine
 10
957.8076841560903
 20
1247.9706913375
 30
0.0
 11
953.8076841560905
 21
1254.4706913375
 31
0.0
  0
LINE
  5
4B2
330
1F
100
AcDbEntity
  8
LAY-10
  6
CONTINUOUS
 62
     7
100
AcDbLine
 10
961.8076841560903
 20
1254.4706913375
 30
0.0
 11
957.8076841560903
 21
1247.9706913375
 31
0.0
  0
LINE
  5
4B3
330
1F
100
AcDbEntity
  8
LAY-10
  6
CONTINUOUS
 62
     7
100
AcDbLine
 10
957.8076841560903
 20
1260.9706913375
 30
0.0
 11
961.8076841560903
 21
1254.4706913375
 31
0.0
  0
ARC
  5
4B4
330
1F
100
AcDbEntity
  8
LAY-10
  6
CONTINUOUS
 62
     7
100
AcDbCircle
 10
957.8076841560903
 20
1254.4706913375
 30
0.0
 40
12.75000000000001
100
AcDbArc
 50
18.2838899404031
 51
341.716110059597
  0
LINE
  5
4B5
330
1F
100
AcDbEntity
  8
LAY-10
  6
CONTINUOUS
 62
     7
100
AcDbLine
 10
968.3076841560904
 20
1250.470691337501
 30
0.0
 11
968.3076841560904
 21
1258.470691337499
 31
0.0
  0
LINE
  5
4B6
330
1F
100
AcDbEntity
  8
LAY-10
  6
CONTINUOUS
 62
     7
100
AcDbLine
 10
968.3076841560904
 20
1250.470691337501
 30
0.0
 11
969.9139841688936
 21
1250.470691337501
 31
0.0
  0
LINE
  5
4B7
330
1F
100
AcDbEntity
  8
LAY-10
  6
CONTINUOUS
 62
     7
100
AcDbLine
 10
968.3076841560904
 20
1258.470691337499
 30
0.0
 11
969.9139841688936
 21
1258.470691337499
 31
0.0
  0
LINE
  5
4B8
330
1F
100
AcDbEntity
  8
LAY-10
  6
CONTINUOUS
 62
     7
100
AcDbLine
 10
1165.80768415609
 20
1229.470691337303
 30
0.0
 11
1165.807684156088
 21
2299.470691337303
 31
0.0
  0
LINE
  5
4B9
330
1F
100
AcDbEntity
  8
LAY-10
  6
CONTINUOUS
 62
     7
100
AcDbLine
 10
998.7349961798939
 20
1253.299692605268
 30
0.0
 11
1015.91933650765
 21
1236.115352277221
 31
0.0
  0
LINE
  5
4BA
330
1F
100
AcDbEntity
  8
LAY-10
  6
CONTINUOUS
 62
     7
100
AcDbLine
 10
1139.66302321555
 20
1236.115352280024
 30
0.0
 11
1133.018362273087
 21
1229.470691337223
 31
0.0
  0
LINE
  5
4BB
330
1F
100
AcDbEntity
  8
LAY-10
  6
CONTINUOUS
 62
     7
100
AcDbLine
 10
1157.34069274375
 20
1253.793021808824
 30
0.0
 11
1165.807684156075
 21
1262.260013221295
 31
0.0
  0
LINE
  5
4BC
330
1F
100
AcDbEntity
  8
LAY-10
  6
CONTINUOUS
 62
     7
100
AcDbLine
 10
1062.307684155346
 20
1229.470691337221
 30
0.0
 11
1068.952345097554
 21
1236.115352279017
 31
0.0
  0
LINE
  5
4BD
330
1F
100
AcDbEntity
  8
LAY-10
  6
CONTINUOUS
 62
     7
100
AcDbLine
 10
1157.34069274505
 20
1289.148360865222
 30
0.0
 11
1165.80768415605
 21
1297.615352276366
 31
0.0
  0
LINE
  5
4BE
330
1F
100
AcDbEntity
  8
LAY-10
  6
CONTINUOUS
 62
     7
100
AcDbLine
 10
1121.985353685749
 20
1289.148360866222
 30
0.0
 11
1139.66302321545
 21
1306.826030396221
 31
0.0
  0
LINE
  5
4BF
330
1F
100
AcDbEntity
  8
LAY-10
  6
CONTINUOUS
 62
     7
100
AcDbLine
 10
1139.66302321545
 20
1324.503699925222
 30
0.0
 11
1157.34069274515
 21
1306.826030396221
 31
0.0
  0
LINE
  5
4C0
330
1F
100
AcDbEntity
  8
LAY-10
  6
CONTINUOUS
 62
     7
100
AcDbLine
 10
1104.30768415615
 20
1324.503699925222
 30
0.0
 11
1121.985353685749
 21
1306.826030396221
 31
0.0
  0
LINE
  5
4C1
330
1F
100
AcDbEntity
  8
LAY-10
  6
CONTINUOUS
 62
     7
100
AcDbLine
 10
1015.91933650775
 20
1271.470691337221
 30
0.0
 11
998.2416669780498
 21
1289.148360866222
 31
0.0
  0
LINE
  5
4C2
330
1F
100
AcDbEntity
  8
LAY-10
  6
CONTINUOUS
 62
     7
100
AcDbLine
 10
1033.59700603735
 20
1306.826030396222
 30
0.0
 11
1015.91933650775
 21
1289.148360866222
 31
0.0
  0
LINE
  5
4C3
330
1F
100
AcDbEntity
  8
LAY-10
  6
CONTINUOUS
 62
     7
100
AcDbLine
 10
1033.59700603735
 20
1271.470691337221
 30
0.0
 11
1015.91933650775
 21
1253.793021807222
 31
0.0
  0
LINE
  5
4C4
330
1F
100
AcDbEntity
  8
LAY-10
  6
CONTINUOUS
 62
     7
100
AcDbLine
 10
1051.27467556705
 20
1306.826030396222
 30
0.0
 11
1033.59700603735
 21
1324.503699925222
 31
0.0
  0
LINE
  5
4C5
330
1F
100
AcDbEntity
  8
LAY-10
  6
CONTINUOUS
 62
     7
100
AcDbLine
 10
1086.63001462635
 20
1289.148360866222
 30
0.0
 11
1104.30768415605
 21
1306.826030396222
 31
0.0
  0
LINE
  5
4C6
330
1F
100
AcDbEntity
  8
LAY-10
  6
CONTINUOUS
 62
     7
100
AcDbLine
 10
1086.63001462635
 20
1306.826030396222
 30
0.0
 11
1068.95234509675
 21
1324.503699925222
 31
0.0
  0
LINE
  5
4C7
330
1F
100
AcDbEntity
  8
LAY-10
  6
CONTINUOUS
 62
     7
100
AcDbLine
 10
1051.27467556705
 20
1271.470691337221
 30
0.0
 11
1033.59700603735
 21
1289.148360866222
 31
0.0
  0
LINE
  5
4C8
330
1F
100
AcDbEntity
  8
LAY-10
  6
CONTINUOUS
 62
     7
100
AcDbLine
 10
1033.59700603735
 20
1253.793021807222
 30
0.0
 11
1051.27467556705
 21
1236.115352277222
 31
0.0
  0
LINE
  5
4C9
330
1F
100
AcDbEntity
  8
LAY-10
  6
CONTINUOUS
 62
     7
100
AcDbLine
 10
1157.34069274525
 20
1395.214378043222
 30
0.0
 11
1165.80768415605
 21
1403.681369454166
 31
0.0
  0
LINE
  5
4CA
330
1F
100
AcDbEntity
  8
LAY-10
  6
CONTINUOUS
 62
     7
100
AcDbLine
 10
1121.98535368585
 20
1359.859038984222
 30
0.0
 11
1139.66302321555
 21
1377.536708514222
 31
0.0
  0
LINE
  5
4CB
330
1F
100
AcDbEntity
  8
LAY-10
  6
CONTINUOUS
 62
     7
100
AcDbLine
 10
1157.34069274515
 20
1377.536708514222
 30
0.0
 11
1139.66302321555
 21
1395.214378043222
 31
0.0
  0
LINE
  5
4CC
330
1F
100
AcDbEntity
  8
LAY-10
  6
CONTINUOUS
 62
     7
100
AcDbLine
 10
1157.34069274515
 20
1359.859038984222
 30
0.0
 11
1165.80768415605
 21
1368.326030395265
 31
0.0
  0
LINE
  5
4CD
330
1F
100
AcDbEntity
  8
LAY-10
  6
CONTINUOUS
 62
     7
100
AcDbLine
 10
1157.34069274515
 20
1324.503699925222
 30
0.0
 11
1165.80768415605
 21
1332.970691336265
 31
0.0
  0
LINE
  5
4CE
330
1F
100
AcDbEntity
  8
LAY-10
  6
CONTINUOUS
 62
     7
100
AcDbLine
 10
1139.66302321555
 20
1359.859038984222
 30
0.0
 11
1157.34069274515
 21
1342.181369455221
 31
0.0
  0
LINE
  5
4CF
330
1F
100
AcDbEntity
  8
LAY-10
  6
CONTINUOUS
 62
     7
100
AcDbLine
 10
1121.98535368585
 20
1377.536708514222
 30
0.0
 11
1104.30768415615
 21
1395.214378043222
 31
0.0
  0
LINE
  5
4D0
330
1F
100
AcDbEntity
  8
LAY-10
  6
CONTINUOUS
 62
     7
100
AcDbLine
 10
1104.30768415615
 20
1377.536708514222
 30
0.0
 11
1086.63001462645
 21
1359.859038984221
 31
0.0
  0
LINE
  5
4D1
330
1F
100
AcDbEntity
  8
LAY-10
  6
CONTINUOUS
 62
     7
100
AcDbLine
 10
1086.63001462645
 20
1342.181369455222
 30
0.0
 11
1068.95234509675
 21
1359.859038984221
 31
0.0
  0
LINE
  5
4D2
330
1F
100
AcDbEntity
  8
LAY-10
  6
CONTINUOUS
 62
     7
100
AcDbLine
 10
1121.985353685749
 20
1324.503699925222
 30
0.0
 11
1139.66302321545
 21
1342.181369455221
 31
0.0
  0
LINE
  5
4D3
330
1F
100
AcDbEntity
  8
LAY-10
  6
CONTINUOUS
 62
     7
100
AcDbLine
 10
1086.63001462645
 20
1324.503699925222
 30
0.0
 11
1104.30768415615
 21
1342.181369455222
 31
0.0
  0
LINE
  5
4D4
330
1F
100
AcDbEntity
  8
LAY-10
  6
CONTINUOUS
 62
     7
100
AcDbLine
 10
1121.985353685749
 20
1342.181369455221
 30
0.0
 11
1104.30768415615
 21
1359.859038984221
 31
0.0
  0
LINE
  5
4D5
330
1F
100
AcDbEntity
  8
LAY-10
  6
CONTINUOUS
 62
     7
100
AcDbLine
 10
1139.66302321555
 20
1412.892047573222
 30
0.0
 11
1121.98535368585
 21
1395.214378043222
 31
0.0
  0
LINE
  5
4D6
330
1F
100
AcDbEntity
  8
LAY-10
  6
CONTINUOUS
 62
     7
100
AcDbLine
 10
1157.34069274525
 20
1412.892047573222
 30
0.0
 11
1139.66302321555
 21
1430.569717102222
 31
0.0
  0
LINE
  5
4D7
330
1F
100
AcDbEntity
  8
LAY-10
  6
CONTINUOUS
 62
     7
100
AcDbLine
 10
1165.80768415605
 20
1439.036708513167
 30
0.0
 11
1157.34069274525
 21
1430.569717102222
 31
0.0
  0
LINE
  5
4D8
330
1F
100
AcDbEntity
  8
LAY-10
  6
CONTINUOUS
 62
     7
100
AcDbLine
 10
1026.952345096563
 20
1229.470691337221
 30
0.0
 11
1033.59700603745
 21
1236.115352278222
 31
0.0
  0
LINE
  5
4D9
330
1F
100
AcDbEntity
  8
LAY-10
  6
CONTINUOUS
 62
     7
100
AcDbLine
 10
991.5970060368861
 20
1229.470691337221
 30
0.0
 11
998.2416669771499
 21
1236.115352277222
 31
0.0
  0
LINE
  5
4DA
330
1F
100
AcDbEntity
  8
LAY-10
  6
CONTINUOUS
 62
     7
100
AcDbLine
 10
956.2416669772163
 20
1229.470691337221
 30
0.0
 11
962.88632791748
 21
1236.115352277222
 31
0.0
  0
LINE
  5
4DB
330
1F
100
AcDbEntity
  8
LAY-10
  6
CONTINUOUS
 62
     7
100
AcDbLine
 10
1051.27467556705
 20
1289.148360866222
 30
0.0
 11
1068.95234509675
 21
1306.826030396222
 31
0.0
  0
LINE
  5
4DC
330
1F
100
AcDbEntity
  8
LAY-10
  6
CONTINUOUS
 62
     7
100
AcDbLine
 10
1068.95234509675
 20
1342.181369455222
 30
0.0
 11
1051.27467556705
 21
1324.503699925222
 31
0.0
  0
LINE
  5
4DD
330
1F
100
AcDbEntity
  8
LAY-10
  6
CONTINUOUS
 62
     7
100
AcDbLine
 10
1121.98535368535
 20
1253.793021807823
 30
0.0
 11
1139.663023215049
 21
1271.470691337822
 31
0.0
  0
LINE
  5
4DE
330
1F
100
AcDbEntity
  8
LAY-10
  6
CONTINUOUS
 62
     7
100
AcDbLine
 10
1139.66302321535
 20
1253.793021808124
 30
0.0
 11
1157.34069274465
 21
1236.115352278825
 31
0.0
  0
LINE
  5
4DF
330
1F
100
AcDbEntity
  8
LAY-10
  6
CONTINUOUS
 62
     7
100
AcDbLine
 10
1157.34069274405
 20
1271.470691338222
 30
0.0
 11
1139.663023214749
 21
1289.148360867521
 31
0.0
  0
LINE
  5
4E0
330
1F
100
AcDbEntity
  8
LAY-10
  6
CONTINUOUS
 62
     7
100
AcDbLine
 10
1051.27467556705
 20
1253.793021807222
 30
0.0
 11
1064.807684156049
 21
1267.326030396451
 31
0.0
  0
LINE
  5
4E1
330
1F
100
AcDbEntity
  8
LAY-10
  6
CONTINUOUS
 62
     7
100
AcDbLine
 10
1121.985353685252
 20
1236.115352279422
 30
0.0
 11
1104.307684155951
 21
1253.793021808721
 31
0.0
  0
LINE
  5
4E2
330
1F
100
AcDbEntity
  8
LAY-10
  6
CONTINUOUS
 62
     7
100
AcDbLine
 10
1104.30768415725
 20
1271.470691337721
 30
0.0
 11
1086.630014627252
 21
1253.793021808019
 31
0.0
  0
LINE
  5
4E3
330
1F
100
AcDbEntity
  8
LAY-10
  6
CONTINUOUS
 62
     7
100
AcDbLine
 10
1068.952345098251
 20
1253.793021808018
 30
0.0
 11
1086.630014627253
 21
1236.11535227832
 31
0.0
  0
LINE
  5
4E4
330
1F
100
AcDbEntity
  8
LAY-10
  6
CONTINUOUS
 62
     7
100
AcDbLine
 10
1068.952345098248
 20
1289.148360867318
 30
0.0
 11
1086.630014627251
 21
1271.470691337719
 31
0.0
  0
LINE
  5
4E5
330
1F
100
AcDbEntity
  8
LAY-10
  6
CONTINUOUS
 62
     7
100
AcDbLine
 10
1104.307684158252
 20
1236.115352278421
 30
0.0
 11
1097.66302321694
 21
1229.470691337221
 31
0.0
  0
LINE
  5
4E6
330
1F
100
AcDbEntity
  8
LAY-10
  6
CONTINUOUS
 62
     7
100
AcDbLine
 10
1104.307684156349
 20
1289.148360866521
 30
0.0
 11
1121.985353685649
 21
1271.470691337221
 31
0.0
  0
LINE
  5
4E7
330
1F
100
AcDbEntity
  8
LAY-10
  6
CONTINUOUS
 62
     7
100
AcDbLine
 10
980.5639974494491
 20
1253.793021806222
 30
0.0
 11
998.2416669787492
 21
1271.470691336522
 31
0.0
  0
LINE
  5
4E8
330
1F
100
AcDbEntity
  8
LAY-10
  6
CONTINUOUS
 62
     7
100
AcDbLine
 10
749.8076841560883
 20
2299.470691337301
 30
0.0
 11
749.8076841560883
 21
1229.470691337302
 31
0.0
  0
LINE
  5
4E9
330
1F
100
AcDbEntity
  8
LAY-10
  6
CONTINUOUS
 62
     7
100
AcDbLine
 10
916.8803721322652
 20
2275.641690069252
 30
0.0
 11
899.6960318045094
 21
2292.826030397299
 31
0.0
  0
LINE
  5
4EA
330
1F
100
AcDbEntity
  8
LAY-10
  6
CONTINUOUS
 62
     7
100
AcDbLine
 10
775.9523450966084
 20
2292.826030394496
 30
0.0
 11
782.5970060390713
 21
2299.470691337297
 31
0.0
  0
LINE
  5
4EB
330
1F
100
AcDbEntity
  8
LAY-10
  6
CONTINUOUS
 62
     7
100
AcDbLine
 10
758.2746755684091
 20
2275.148360865696
 30
0.0
 11
749.8076841560841
 21
2266.681369453226
 31
0.0
  0
LINE
  5
4EC
330
1F
100
AcDbEntity
  8
LAY-10
  6
CONTINUOUS
 62
     7
100
AcDbLine
 10
853.3076841568131
 20
2299.470691337299
 30
0.0
 11
846.6630232146053
 21
2292.826030395503
 31
0.0
  0
LINE
  5
4ED
330
1F
100
AcDbEntity
  8
LAY-10
  6
CONTINUOUS
 62
     7
100
AcDbLine
 10
758.274675567109
 20
2239.793021809298
 30
0.0
 11
749.8076841561091
 21
2231.326030398154
 31
0.0
  0
LINE
  5
4EE
330
1F
100
AcDbEntity
  8
LAY-10
  6
CONTINUOUS
 62
     7
100
AcDbLine
 10
793.6300146264092
 20
2239.793021808298
 30
0.0
 11
775.9523450967091
 21
2222.1153522783
 31
0.0
  0
LINE
  5
4EF
330
1F
100
AcDbEntity
  8
LAY-10
  6
CONTINUOUS
 62
     7
100
AcDbLine
 10
775.9523450967091
 20
2204.437682749299
 30
0.0
 11
758.274675567009
 21
2222.1153522783
 31
0.0
  0
LINE
  5
4F0
330
1F
100
AcDbEntity
  8
LAY-10
  6
CONTINUOUS
 62
     7
100
AcDbLine
 10
811.307684156009
 20
2204.437682749298
 30
0.0
 11
793.6300146264092
 21
2222.1153522783
 31
0.0
  0
LINE
  5
4F1
330
1F
100
AcDbEntity
  8
LAY-10
  6
CONTINUOUS
 62
     7
100
AcDbLine
 10
899.6960318044089
 20
2257.470691337299
 30
0.0
 11
917.3737013341093
 21
2239.793021808298
 31
0.0
  0
LINE
  5
4F2
330
1F
100
AcDbEntity
  8
LAY-10
  6
CONTINUOUS
 62
     7
100
AcDbLine
 10
882.0183622748093
 20
2222.115352278299
 30
0.0
 11
899.6960318044089
 21
2239.793021808298
 31
0.0
  0
LINE
  5
4F3
330
1F
100
AcDbEntity
  8
LAY-10
  6
CONTINUOUS
 62
     7
100
AcDbLine
 10
882.0183622748093
 20
2257.470691337299
 30
0.0
 11
899.6960318044089
 21
2275.148360867299
 31
0.0
  0
LINE
  5
4F4
330
1F
100
AcDbEntity
  8
LAY-10
  6
CONTINUOUS
 62
     7
100
AcDbLine
 10
864.3406927451093
 20
2222.115352278299
 30
0.0
 11
882.0183622748093
 21
2204.437682749299
 31
0.0
  0
LINE
  5
4F5
330
1F
100
AcDbEntity
  8
LAY-10
  6
CONTINUOUS
 62
     7
100
AcDbLine
 10
828.9853536858093
 20
2239.793021808298
 30
0.0
 11
811.3076841561091
 21
2222.115352278299
 31
0.0
  0
LINE
  5
4F6
330
1F
100
AcDbEntity
  8
LAY-10
  6
CONTINUOUS
 62
     7
100
AcDbLine
 10
828.9853536858093
 20
2222.115352278299
 30
0.0
 11
846.6630232154089
 21
2204.437682749299
 31
0.0
  0
LINE
  5
4F7
330
1F
100
AcDbEntity
  8
LAY-10
  6
CONTINUOUS
 62
     7
100
AcDbLine
 10
864.3406927451093
 20
2257.470691337299
 30
0.0
 11
882.0183622748093
 21
2239.793021808298
 31
0.0
  0
LINE
  5
4F8
330
1F
100
AcDbEntity
  8
LAY-10
  6
CONTINUOUS
 62
     7
100
AcDbLine
 10
882.0183622748093
 20
2275.148360867299
 30
0.0
 11
864.3406927451093
 21
2292.826030397298
 31
0.0
  0
LINE
  5
4F9
330
1F
100
AcDbEntity
  8
LAY-10
  6
CONTINUOUS
 62
     7
100
AcDbLine
 10
758.274675566909
 20
2133.727004631298
 30
0.0
 11
749.8076841561091
 21
2125.260013220354
 31
0.0
  0
LINE
  5
4FA
330
1F
100
AcDbEntity
  8
LAY-10
  6
CONTINUOUS
 62
     7
100
AcDbLine
 10
793.6300146263092
 20
2169.082343690298
 30
0.0
 11
775.9523450966094
 21
2151.404674160299
 31
0.0
  0
LINE
  5
4FB
330
1F
100
AcDbEntity
  8
LAY-10
  6
CONTINUOUS
 62
     7
100
AcDbLine
 10
758.274675567009
 20
2151.404674160299
 30
0.0
 11
775.9523450966094
 21
2133.727004631299
 31
0.0
  0
LINE
  5
4FC
330
1F
100
AcDbEntity
  8
LAY-10
  6
CONTINUOUS
 62
     7
100
AcDbLine
 10
758.274675567009
 20
2169.082343690298
 30
0.0
 11
749.8076841561091
 21
2160.615352279255
 31
0.0
  0
LINE
  5
4FD
330
1F
100
AcDbEntity
  8
LAY-10
  6
CONTINUOUS
 62
     7
100
AcDbLine
 10
758.274675567009
 20
2204.437682749299
 30
0.0
 11
749.8076841561091
 21
2195.970691338255
 31
0.0
  0
LINE
  5
4FE
330
1F
100
AcDbEntity
  8
LAY-10
  6
CONTINUOUS
 62
     7
100
AcDbLine
 10
775.9523450966094
 20
2169.082343690298
 30
0.0
 11
758.274675567009
 21
2186.760013219299
 31
0.0
  0
LINE
  5
4FF
330
1F
100
AcDbEntity
  8
LAY-10
  6
CONTINUOUS
 62
     7
100
AcDbLine
 10
793.6300146263092
 20
2151.404674160299
 30
0.0
 11
811.307684156009
 21
2133.727004631299
 31
0.0
  0
LINE
  5
500
330
1F
100
AcDbEntity
  8
LAY-10
  6
CONTINUOUS
 62
     7
100
AcDbLine
 10
811.307684156009
 20
2151.404674160299
 30
0.0
 11
828.9853536857092
 21
2169.082343690299
 31
0.0
  0
LINE
  5
501
330
1F
100
AcDbEntity
  8
LAY-10
  6
CONTINUOUS
 62
     7
100
AcDbLine
 10
828.9853536857092
 20
2186.760013219298
 30
0.0
 11
846.6630232154089
 21
2169.082343690299
 31
0.0
  0
LINE
  5
502
330
1F
100
AcDbEntity
  8
LAY-10
  6
CONTINUOUS
 62
     7
100
AcDbLine
 10
793.6300146264092
 20
2204.437682749299
 30
0.0
 11
775.9523450967091
 21
2186.760013219299
 31
0.0
  0
LINE
  5
503
330
1F
100
AcDbEntity
  8
LAY-10
  6
CONTINUOUS
 62
     7
100
AcDbLine
 10
828.9853536857092
 20
2204.437682749298
 30
0.0
 11
811.307684156009
 21
2186.760013219298
 31
0.0
  0
LINE
  5
504
330
1F
100
AcDbEntity
  8
LAY-10
  6
CONTINUOUS
 62
     7
100
AcDbLine
 10
793.6300146264092
 20
2186.760013219299
 30
0.0
 11
811.307684156009
 21
2169.082343690299
 31
0.0
  0
LINE
  5
505
330
1F
100
AcDbEntity
  8
LAY-10
  6
CONTINUOUS
 62
     7
100
AcDbLine
 10
775.9523450966094
 20
2116.049335101298
 30
0.0
 11
793.6300146263092
 21
2133.727004631299
 31
0.0
  0
LINE
  5
506
330
1F
100
AcDbEntity
  8
LAY-10
  6
CONTINUOUS
 62
     7
100
AcDbLine
 10
758.274675566909
 20
2116.049335101298
 30
0.0
 11
775.9523450966094
 21
2098.371665572298
 31
0.0
  0
LINE
  5
507
330
1F
100
AcDbEntity
  8
LAY-10
  6
CONTINUOUS
 62
     7
100
AcDbLine
 10
749.8076841561091
 20
2089.904674161354
 30
0.0
 11
758.274675566909
 21
2098.371665572298
 31
0.0
  0
LINE
  5
508
330
1F
100
AcDbEntity
  8
LAY-10
  6
CONTINUOUS
 62
     7
100
AcDbLine
 10
888.6630232155962
 20
2299.470691337299
 30
0.0
 11
882.0183622747093
 21
2292.826030396299
 31
0.0
  0
LINE
  5
509
330
1F
100
AcDbEntity
  8
LAY-10
  6
CONTINUOUS
 62
     7
100
AcDbLine
 10
924.0183622752729
 20
2299.470691337299
 30
0.0
 11
917.3737013350092
 21
2292.826030397298
 31
0.0
  0
LINE
  5
50A
330
1F
100
AcDbEntity
  8
LAY-10
  6
CONTINUOUS
 62
     7
100
AcDbLine
 10
959.3737013349428
 20
2299.470691337299
 30
0.0
 11
952.729040394679
 21
2292.826030397298
 31
0.0
  0
LINE
  5
50B
330
1F
100
AcDbEntity
  8
LAY-10
  6
CONTINUOUS
 62
     7
100
AcDbLine
 10
864.3406927451093
 20
2239.793021808298
 30
0.0
 11
846.6630232154089
 21
2222.115352278299
 31
0.0
  0
LINE
  5
50C
330
1F
100
AcDbEntity
  8
LAY-10
  6
CONTINUOUS
 62
     7
100
AcDbLine
 10
846.6630232154089
 20
2186.760013219298
 30
0.0
 11
864.3406927451093
 21
2204.437682749299
 31
0.0
  0
LINE
  5
50D
330
1F
100
AcDbEntity
  8
LAY-10
  6
CONTINUOUS
 62
     7
100
AcDbLine
 10
793.6300146268085
 20
2275.148360866698
 30
0.0
 11
775.9523450971096
 21
2257.470691336698
 31
0.0
  0
LINE
  5
50E
330
1F
100
AcDbEntity
  8
LAY-10
  6
CONTINUOUS
 62
     7
100
AcDbLine
 10
775.9523450968092
 20
2275.148360866397
 30
0.0
 11
758.2746755675086
 21
2292.826030395696
 31
0.0
  0
LINE
  5
50F
330
1F
100
AcDbEntity
  8
LAY-10
  6
CONTINUOUS
 62
     7
100
AcDbLine
 10
758.2746755681088
 20
2257.470691336298
 30
0.0
 11
775.9523450974098
 21
2239.793021806999
 31
0.0
  0
LINE
  5
510
330
1F
100
AcDbEntity
  8
LAY-10
  6
CONTINUOUS
 62
     7
100
AcDbLine
 10
864.3406927451093
 20
2275.148360867299
 30
0.0
 11
850.8076841561098
 21
2261.61535227807
 31
0.0
  0
LINE
  5
511
330
1F
100
AcDbEntity
  8
LAY-10
  6
CONTINUOUS
 62
     7
100
AcDbLine
 10
793.6300146269072
 20
2292.826030395098
 30
0.0
 11
811.3076841562078
 21
2275.148360865799
 31
0.0
  0
LINE
  5
512
330
1F
100
AcDbEntity
  8
LAY-10
  6
CONTINUOUS
 62
     7
100
AcDbLine
 10
811.3076841549085
 20
2257.470691336799
 30
0.0
 11
828.9853536849068
 21
2275.148360866501
 31
0.0
  0
LINE
  5
513
330
1F
100
AcDbEntity
  8
LAY-10
  6
CONTINUOUS
 62
     7
100
AcDbLine
 10
846.6630232139079
 20
2275.148360866502
 30
0.0
 11
828.9853536849055
 21
2292.826030396201
 31
0.0
  0
LINE
  5
514
330
1F
100
AcDbEntity
  8
LAY-10
  6
CONTINUOUS
 62
     7
100
AcDbLine
 10
846.6630232139105
 20
2239.793021807202
 30
0.0
 11
828.9853536849082
 21
2257.470691336801
 31
0.0
  0
LINE
  5
515
330
1F
100
AcDbEntity
  8
LAY-10
  6
CONTINUOUS
 62
     7
100
AcDbLine
 10
811.3076841539074
 20
2292.8260303961
 30
0.0
 11
817.9523450952191
 21
2299.470691337299
 31
0.0
  0
LINE
  5
516
330
1F
100
AcDbEntity
  8
LAY-10
  6
CONTINUOUS
 62
     7
100
AcDbLine
 10
811.3076841558094
 20
2239.793021807999
 30
0.0
 11
793.6300146265099
 21
2257.470691337299
 31
0.0
  0
LINE
  5
517
330
1F
100
AcDbEntity
  8
LAY-10
  6
CONTINUOUS
 62
     7
100
AcDbLine
 10
935.05137086271
 20
2275.148360868298
 30
0.0
 11
917.3737013334098
 21
2257.470691337999
 31
0.0
  0
LINE
  5
518
330
1F
100
AcDbEntity
  8
LAY-10
  6
CONTINUOUS
 62
     7
100
AcDbLine
 10
749.8076841560883
 20
2299.470691337301
 30
0.0
 11
1165.807684156088
 21
2299.470691337303
 31
0.0
  0
LINE
  5
519
330
1F
100
AcDbEntity
  8
LAY-10
  6
CONTINUOUS
 62
     7
100
AcDbLine
 10
749.8076841560883
 20
1229.470691337302
 30
0.0
 11
1165.80768415609
 21
1229.470691337303
 31
0.0
  0
LINE
  5
51A
330
1F
100
AcDbEntity
  8
LAY-10
  6
CONTINUOUS
 62
     7
100
AcDbLine
 10
935.051370862011
 20
2292.826030397998
 30
0.0
 11
946.682072029284
 21
2281.195329231185
 31
0.0
  0
LINE
  5
51B
330
1F
100
AcDbEntity
  8
LAY-10
  6
CONTINUOUS
 62
     7
100
AcDbLine
 10
980.563997450148
 20
1236.115352276523
 30
0.0
 11
968.9332962827809
 21
1247.74605344343
 31
0.0
  0
CIRCLE
  5
51C
330
1F
100
AcDbEntity
  8
LAY-10
  6
CONTINUOUS
 62
     7
100
AcDbCircle
 10
1375.80768415617
 20
2274.4706913373
 30
0.0
 40
13.00000000000001
  0
LINE
  5
51D
330
1F
100
AcDbEntity
  8
LAY-10
  6
CONTINUOUS
 62
     7
100
AcDbLine
 10
1371.80768415617
 20
2274.470691337306
 30
0.0
 11
1375.80768415617
 21
2267.970691337306
 31
0.0
  0
LINE
  5
51E
330
1F
100
AcDbEntity
  8
LAY-10
  6
CONTINUOUS
 62
     7
100
AcDbLine
 10
1375.80768415617
 20
2280.970691337306
 30
0.0
 11
1371.80768415617
 21
2274.470691337306
 31
0.0
  0
LINE
  5
51F
330
1F
100
AcDbEntity
  8
LAY-10
  6
CONTINUOUS
 62
     7
100
AcDbLine
 10
1379.80768415617
 20
2274.470691337306
 30
0.0
 11
1375.80768415617
 21
2280.970691337306
 31
0.0
  0
LINE
  5
520
330
1F
100
AcDbEntity
  8
LAY-10
  6
CONTINUOUS
 62
     7
100
AcDbLine
 10
1375.80768415617
 20
2267.970691337306
 30
0.0
 11
1379.80768415617
 21
2274.470691337306
 31
0.0
  0
ARC
  5
521
330
1F
100
AcDbEntity
  8
LAY-10
  6
CONTINUOUS
 62
     7
100
AcDbCircle
 10
1375.80768415617
 20
2274.470691337306
 30
0.0
 40
12.75000000000001
100
AcDbArc
 50
18.2838899404031
 51
341.7161100595971
  0
LINE
  5
522
330
1F
100
AcDbEntity
  8
LAY-10
  6
CONTINUOUS
 62
     7
100
AcDbLine
 10
1386.30768415617
 20
2278.470691337305
 30
0.0
 11
1386.30768415617
 21
2270.470691337307
 31
0.0
  0
LINE
  5
523
330
1F
100
AcDbEntity
  8
LAY-10
  6
CONTINUOUS
 62
     7
100
AcDbLine
 10
1386.30768415617
 20
2278.470691337305
 30
0.0
 11
1387.913984168973
 21
2278.470691337305
 31
0.0
  0
LINE
  5
524
330
1F
100
AcDbEntity
  8
LAY-10
  6
CONTINUOUS
 62
     7
100
AcDbLine
 10
1386.30768415617
 20
2270.470691337307
 30
0.0
 11
1387.913984168973
 21
2270.470691337307
 31
0.0
  0
CIRCLE
  5
525
330
1F
100
AcDbEntity
  8
LAY-10
  6
CONTINUOUS
 62
     7
100
AcDbCircle
 10
1375.80768415617
 20
1254.470691337505
 30
0.0
 40
13.00000000000001
  0
LINE
  5
526
330
1F
100
AcDbEntity
  8
LAY-10
  6
CONTINUOUS
 62
     7
100
AcDbLine
 10
1371.80768415617
 20
1254.4706913375
 30
0.0
 11
1375.80768415617
 21
1260.9706913375
 31
0.0
  0
LINE
  5
527
330
1F
100
AcDbEntity
  8
LAY-10
  6
CONTINUOUS
 62
     7
100
AcDbLine
 10
1375.80768415617
 20
1247.9706913375
 30
0.0
 11
1371.80768415617
 21
1254.4706913375
 31
0.0
  0
LINE
  5
528
330
1F
100
AcDbEntity
  8
LAY-10
  6
CONTINUOUS
 62
     7
100
AcDbLine
 10
1379.80768415617
 20
1254.4706913375
 30
0.0
 11
1375.80768415617
 21
1247.9706913375
 31
0.0
  0
LINE
  5
529
330
1F
100
AcDbEntity
  8
LAY-10
  6
CONTINUOUS
 62
     7
100
AcDbLine
 10
1375.80768415617
 20
1260.9706913375
 30
0.0
 11
1379.80768415617
 21
1254.4706913375
 31
0.0
  0
ARC
  5
52A
330
1F
100
AcDbEntity
  8
LAY-10
  6
CONTINUOUS
 62
     7
100
AcDbCircle
 10
1375.80768415617
 20
1254.4706913375
 30
0.0
 40
12.75000000000001
100
AcDbArc
 50
18.2838899404031
 51
341.716110059597
  0
LINE
  5
52B
330
1F
100
AcDbEntity
  8
LAY-10
  6
CONTINUOUS
 62
     7
100
AcDbLine
 10
1386.30768415617
 20
1250.470691337501
 30
0.0
 11
1386.30768415617
 21
1258.470691337499
 31
0.0
  0
LINE
  5
52C
330
1F
100
AcDbEntity
  8
LAY-10
  6
CONTINUOUS
 62
     7
100
AcDbLine
 10
1386.30768415617
 20
1250.470691337501
 30
0.0
 11
1387.913984168973
 21
1250.470691337501
 31
0.0
  0
LINE
  5
52D
330
1F
100
AcDbEntity
  8
LAY-10
  6
CONTINUOUS
 62
     7
100
AcDbLine
 10
1386.30768415617
 20
1258.470691337499
 30
0.0
 11
1387.913984168973
 21
1258.470691337499
 31
0.0
  0
LINE
  5
52E
330
1F
100
AcDbEntity
  8
LAY-10
  6
CONTINUOUS
 62
     7
100
AcDbLine
 10
1583.80768415617
 20
1229.470691337303
 30
0.0
 11
1583.807684156168
 21
2299.470691337303
 31
0.0
  0
LINE
  5
52F
330
1F
100
AcDbEntity
  8
LAY-10
  6
CONTINUOUS
 62
     7
100
AcDbLine
 10
1416.734996179974
 20
1253.299692605268
 30
0.0
 11
1433.919336507729
 21
1236.115352277221
 31
0.0
  0
LINE
  5
530
330
1F
100
AcDbEntity
  8
LAY-10
  6
CONTINUOUS
 62
     7
100
AcDbLine
 10
1557.66302321563
 20
1236.115352280024
 30
0.0
 11
1551.018362273168
 21
1229.470691337223
 31
0.0
  0
LINE
  5
531
330
1F
100
AcDbEntity
  8
LAY-10
  6
CONTINUOUS
 62
     7
100
AcDbLine
 10
1575.34069274383
 20
1253.793021808824
 30
0.0
 11
1583.807684156155
 21
1262.260013221295
 31
0.0
  0
LINE
  5
532
330
1F
100
AcDbEntity
  8
LAY-10
  6
CONTINUOUS
 62
     7
100
AcDbLine
 10
1480.307684155426
 20
1229.470691337221
 30
0.0
 11
1486.952345097633
 21
1236.115352279017
 31
0.0
  0
LINE
  5
533
330
1F
100
AcDbEntity
  8
LAY-10
  6
CONTINUOUS
 62
     7
100
AcDbLine
 10
1575.34069274513
 20
1289.148360865222
 30
0.0
 11
1583.80768415613
 21
1297.615352276366
 31
0.0
  0
LINE
  5
534
330
1F
100
AcDbEntity
  8
LAY-10
  6
CONTINUOUS
 62
     7
100
AcDbLine
 10
1539.98535368583
 20
1289.148360866222
 30
0.0
 11
1557.66302321553
 21
1306.826030396221
 31
0.0
  0
LINE
  5
535
330
1F
100
AcDbEntity
  8
LAY-10
  6
CONTINUOUS
 62
     7
100
AcDbLine
 10
1557.66302321553
 20
1324.503699925222
 30
0.0
 11
1575.34069274523
 21
1306.826030396221
 31
0.0
  0
LINE
  5
536
330
1F
100
AcDbEntity
  8
LAY-10
  6
CONTINUOUS
 62
     7
100
AcDbLine
 10
1522.30768415623
 20
1324.503699925222
 30
0.0
 11
1539.98535368583
 21
1306.826030396221
 31
0.0
  0
LINE
  5
537
330
1F
100
AcDbEntity
  8
LAY-10
  6
CONTINUOUS
 62
     7
100
AcDbLine
 10
1433.91933650783
 20
1271.470691337221
 30
0.0
 11
1416.24166697813
 21
1289.148360866222
 31
0.0
  0
LINE
  5
538
330
1F
100
AcDbEntity
  8
LAY-10
  6
CONTINUOUS
 62
     7
100
AcDbLine
 10
1451.59700603743
 20
1306.826030396222
 30
0.0
 11
1433.91933650783
 21
1289.148360866222
 31
0.0
  0
LINE
  5
539
330
1F
100
AcDbEntity
  8
LAY-10
  6
CONTINUOUS
 62
     7
100
AcDbLine
 10
1451.59700603743
 20
1271.470691337221
 30
0.0
 11
1433.91933650783
 21
1253.793021807222
 31
0.0
  0
LINE
  5
53A
330
1F
100
AcDbEntity
  8
LAY-10
  6
CONTINUOUS
 62
     7
100
AcDbLine
 10
1469.27467556713
 20
1306.826030396222
 30
0.0
 11
1451.59700603743
 21
1324.503699925222
 31
0.0
  0
LINE
  5
53B
330
1F
100
AcDbEntity
  8
LAY-10
  6
CONTINUOUS
 62
     7
100
AcDbLine
 10
1504.63001462643
 20
1289.148360866222
 30
0.0
 11
1522.30768415613
 21
1306.826030396222
 31
0.0
  0
LINE
  5
53C
330
1F
100
AcDbEntity
  8
LAY-10
  6
CONTINUOUS
 62
     7
100
AcDbLine
 10
1504.63001462643
 20
1306.826030396222
 30
0.0
 11
1486.95234509683
 21
1324.503699925222
 31
0.0
  0
LINE
  5
53D
330
1F
100
AcDbEntity
  8
LAY-10
  6
CONTINUOUS
 62
     7
100
AcDbLine
 10
1469.27467556713
 20
1271.470691337221
 30
0.0
 11
1451.59700603743
 21
1289.148360866222
 31
0.0
  0
LINE
  5
53E
330
1F
100
AcDbEntity
  8
LAY-10
  6
CONTINUOUS
 62
     7
100
AcDbLine
 10
1451.59700603743
 20
1253.793021807222
 30
0.0
 11
1469.27467556713
 21
1236.115352277222
 31
0.0
  0
LINE
  5
53F
330
1F
100
AcDbEntity
  8
LAY-10
  6
CONTINUOUS
 62
     7
100
AcDbLine
 10
1575.34069274533
 20
1395.214378043222
 30
0.0
 11
1583.80768415613
 21
1403.681369454166
 31
0.0
  0
LINE
  5
540
330
1F
100
AcDbEntity
  8
LAY-10
  6
CONTINUOUS
 62
     7
100
AcDbLine
 10
1539.98535368593
 20
1359.859038984222
 30
0.0
 11
1557.663023215629
 21
1377.536708514222
 31
0.0
  0
LINE
  5
541
330
1F
100
AcDbEntity
  8
LAY-10
  6
CONTINUOUS
 62
     7
100
AcDbLine
 10
1575.34069274523
 20
1377.536708514222
 30
0.0
 11
1557.663023215629
 21
1395.214378043222
 31
0.0
  0
LINE
  5
542
330
1F
100
AcDbEntity
  8
LAY-10
  6
CONTINUOUS
 62
     7
100
AcDbLine
 10
1575.34069274523
 20
1359.859038984222
 30
0.0
 11
1583.80768415613
 21
1368.326030395265
 31
0.0
  0
LINE
  5
543
330
1F
100
AcDbEntity
  8
LAY-10
  6
CONTINUOUS
 62
     7
100
AcDbLine
 10
1575.34069274523
 20
1324.503699925222
 30
0.0
 11
1583.80768415613
 21
1332.970691336265
 31
0.0
  0
LINE
  5
544
330
1F
100
AcDbEntity
  8
LAY-10
  6
CONTINUOUS
 62
     7
100
AcDbLine
 10
1557.663023215629
 20
1359.859038984222
 30
0.0
 11
1575.34069274523
 21
1342.181369455221
 31
0.0
  0
LINE
  5
545
330
1F
100
AcDbEntity
  8
LAY-10
  6
CONTINUOUS
 62
     7
100
AcDbLine
 10
1539.98535368593
 20
1377.536708514222
 30
0.0
 11
1522.30768415623
 21
1395.214378043222
 31
0.0
  0
LINE
  5
546
330
1F
100
AcDbEntity
  8
LAY-10
  6
CONTINUOUS
 62
     7
100
AcDbLine
 10
1522.30768415623
 20
1377.536708514222
 30
0.0
 11
1504.63001462653
 21
1359.859038984221
 31
0.0
  0
LINE
  5
547
330
1F
100
AcDbEntity
  8
LAY-10
  6
CONTINUOUS
 62
     7
100
AcDbLine
 10
1504.63001462653
 20
1342.181369455222
 30
0.0
 11
1486.95234509683
 21
1359.859038984221
 31
0.0
  0
LINE
  5
548
330
1F
100
AcDbEntity
  8
LAY-10
  6
CONTINUOUS
 62
     7
100
AcDbLine
 10
1539.98535368583
 20
1324.503699925222
 30
0.0
 11
1557.66302321553
 21
1342.181369455221
 31
0.0
  0
LINE
  5
549
330
1F
100
AcDbEntity
  8
LAY-10
  6
CONTINUOUS
 62
     7
100
AcDbLine
 10
1504.63001462653
 20
1324.503699925222
 30
0.0
 11
1522.30768415623
 21
1342.181369455222
 31
0.0
  0
LINE
  5
54A
330
1F
100
AcDbEntity
  8
LAY-10
  6
CONTINUOUS
 62
     7
100
AcDbLine
 10
1539.98535368583
 20
1342.181369455221
 30
0.0
 11
1522.30768415623
 21
1359.859038984221
 31
0.0
  0
LINE
  5
54B
330
1F
100
AcDbEntity
  8
LAY-10
  6
CONTINUOUS
 62
     7
100
AcDbLine
 10
1557.663023215629
 20
1412.892047573222
 30
0.0
 11
1539.98535368593
 21
1395.214378043222
 31
0.0
  0
LINE
  5
54C
330
1F
100
AcDbEntity
  8
LAY-10
  6
CONTINUOUS
 62
     7
100
AcDbLine
 10
1575.34069274533
 20
1412.892047573222
 30
0.0
 11
1557.663023215629
 21
1430.569717102222
 31
0.0
  0
LINE
  5
54D
330
1F
100
AcDbEntity
  8
LAY-10
  6
CONTINUOUS
 62
     7
100
AcDbLine
 10
1583.80768415613
 20
1439.036708513167
 30
0.0
 11
1575.34069274533
 21
1430.569717102222
 31
0.0
  0
LINE
  5
54E
330
1F
100
AcDbEntity
  8
LAY-10
  6
CONTINUOUS
 62
     7
100
AcDbLine
 10
1444.952345096643
 20
1229.470691337221
 30
0.0
 11
1451.59700603753
 21
1236.115352278222
 31
0.0
  0
LINE
  5
54F
330
1F
100
AcDbEntity
  8
LAY-10
  6
CONTINUOUS
 62
     7
100
AcDbLine
 10
1409.597006036966
 20
1229.470691337221
 30
0.0
 11
1416.24166697723
 21
1236.115352277222
 31
0.0
  0
LINE
  5
550
330
1F
100
AcDbEntity
  8
LAY-10
  6
CONTINUOUS
 62
     7
100
AcDbLine
 10
1374.241666977296
 20
1229.470691337221
 30
0.0
 11
1380.88632791756
 21
1236.115352277222
 31
0.0
  0
LINE
  5
551
330
1F
100
AcDbEntity
  8
LAY-10
  6
CONTINUOUS
 62
     7
100
AcDbLine
 10
1469.27467556713
 20
1289.148360866222
 30
0.0
 11
1486.95234509683
 21
1306.826030396222
 31
0.0
  0
LINE
  5
552
330
1F
100
AcDbEntity
  8
LAY-10
  6
CONTINUOUS
 62
     7
100
AcDbLine
 10
1486.95234509683
 20
1342.181369455222
 30
0.0
 11
1469.27467556713
 21
1324.503699925222
 31
0.0
  0
LINE
  5
553
330
1F
100
AcDbEntity
  8
LAY-10
  6
CONTINUOUS
 62
     7
100
AcDbLine
 10
1539.98535368543
 20
1253.793021807823
 30
0.0
 11
1557.663023215129
 21
1271.470691337822
 31
0.0
  0
LINE
  5
554
330
1F
100
AcDbEntity
  8
LAY-10
  6
CONTINUOUS
 62
     7
100
AcDbLine
 10
1557.66302321543
 20
1253.793021808124
 30
0.0
 11
1575.34069274473
 21
1236.115352278825
 31
0.0
  0
LINE
  5
555
330
1F
100
AcDbEntity
  8
LAY-10
  6
CONTINUOUS
 62
     7
100
AcDbLine
 10
1575.34069274413
 20
1271.470691338222
 30
0.0
 11
1557.663023214829
 21
1289.148360867521
 31
0.0
  0
LINE
  5
556
330
1F
100
AcDbEntity
  8
LAY-10
  6
CONTINUOUS
 62
     7
100
AcDbLine
 10
1469.27467556713
 20
1253.793021807222
 30
0.0
 11
1482.807684156129
 21
1267.326030396451
 31
0.0
  0
LINE
  5
557
330
1F
100
AcDbEntity
  8
LAY-10
  6
CONTINUOUS
 62
     7
100
AcDbLine
 10
1539.985353685332
 20
1236.115352279422
 30
0.0
 11
1522.307684156031
 21
1253.793021808721
 31
0.0
  0
LINE
  5
558
330
1F
100
AcDbEntity
  8
LAY-10
  6
CONTINUOUS
 62
     7
100
AcDbLine
 10
1522.30768415733
 20
1271.470691337721
 30
0.0
 11
1504.630014627332
 21
1253.793021808019
 31
0.0
  0
LINE
  5
559
330
1F
100
AcDbEntity
  8
LAY-10
  6
CONTINUOUS
 62
     7
100
AcDbLine
 10
1486.952345098331
 20
1253.793021808018
 30
0.0
 11
1504.630014627333
 21
1236.11535227832
 31
0.0
  0
LINE
  5
55A
330
1F
100
AcDbEntity
  8
LAY-10
  6
CONTINUOUS
 62
     7
100
AcDbLine
 10
1486.952345098328
 20
1289.148360867318
 30
0.0
 11
1504.630014627331
 21
1271.470691337719
 31
0.0
  0
LINE
  5
55B
330
1F
100
AcDbEntity
  8
LAY-10
  6
CONTINUOUS
 62
     7
100
AcDbLine
 10
1522.307684158332
 20
1236.115352278421
 30
0.0
 11
1515.663023217019
 21
1229.470691337221
 31
0.0
  0
LINE
  5
55C
330
1F
100
AcDbEntity
  8
LAY-10
  6
CONTINUOUS
 62
     7
100
AcDbLine
 10
1522.307684156429
 20
1289.148360866521
 30
0.0
 11
1539.985353685729
 21
1271.470691337221
 31
0.0
  0
LINE
  5
55D
330
1F
100
AcDbEntity
  8
LAY-10
  6
CONTINUOUS
 62
     7
100
AcDbLine
 10
1398.563997449529
 20
1253.793021806222
 30
0.0
 11
1416.241666978829
 21
1271.470691336522
 31
0.0
  0
LINE
  5
55E
330
1F
100
AcDbEntity
  8
LAY-10
  6
CONTINUOUS
 62
     7
100
AcDbLine
 10
1167.807684156168
 20
2299.470691337301
 30
0.0
 11
1167.807684156168
 21
1229.470691337302
 31
0.0
  0
LINE
  5
55F
330
1F
100
AcDbEntity
  8
LAY-10
  6
CONTINUOUS
 62
     7
100
AcDbLine
 10
1334.880372132345
 20
2275.641690069252
 30
0.0
 11
1317.696031804589
 21
2292.826030397299
 31
0.0
  0
LINE
  5
560
330
1F
100
AcDbEntity
  8
LAY-10
  6
CONTINUOUS
 62
     7
100
AcDbLine
 10
1193.952345096688
 20
2292.826030394496
 30
0.0
 11
1200.597006039151
 21
2299.470691337297
 31
0.0
  0
LINE
  5
561
330
1F
100
AcDbEntity
  8
LAY-10
  6
CONTINUOUS
 62
     7
100
AcDbLine
 10
1176.274675568489
 20
2275.148360865696
 30
0.0
 11
1167.807684156164
 21
2266.681369453226
 31
0.0
  0
LINE
  5
562
330
1F
100
AcDbEntity
  8
LAY-10
  6
CONTINUOUS
 62
     7
100
AcDbLine
 10
1271.307684156893
 20
2299.470691337299
 30
0.0
 11
1264.663023214685
 21
2292.826030395503
 31
0.0
  0
LINE
  5
563
330
1F
100
AcDbEntity
  8
LAY-10
  6
CONTINUOUS
 62
     7
100
AcDbLine
 10
1176.274675567189
 20
2239.793021809298
 30
0.0
 11
1167.807684156189
 21
2231.326030398154
 31
0.0
  0
LINE
  5
564
330
1F
100
AcDbEntity
  8
LAY-10
  6
CONTINUOUS
 62
     7
100
AcDbLine
 10
1211.630014626489
 20
2239.793021808298
 30
0.0
 11
1193.952345096789
 21
2222.1153522783
 31
0.0
  0
LINE
  5
565
330
1F
100
AcDbEntity
  8
LAY-10
  6
CONTINUOUS
 62
     7
100
AcDbLine
 10
1193.952345096789
 20
2204.437682749299
 30
0.0
 11
1176.274675567089
 21
2222.1153522783
 31
0.0
  0
LINE
  5
566
330
1F
100
AcDbEntity
  8
LAY-10
  6
CONTINUOUS
 62
     7
100
AcDbLine
 10
1229.307684156089
 20
2204.437682749298
 30
0.0
 11
1211.630014626489
 21
2222.1153522783
 31
0.0
  0
LINE
  5
567
330
1F
100
AcDbEntity
  8
LAY-10
  6
CONTINUOUS
 62
     7
100
AcDbLine
 10
1317.696031804489
 20
2257.470691337299
 30
0.0
 11
1335.373701334189
 21
2239.793021808298
 31
0.0
  0
LINE
  5
568
330
1F
100
AcDbEntity
  8
LAY-10
  6
CONTINUOUS
 62
     7
100
AcDbLine
 10
1300.018362274889
 20
2222.115352278299
 30
0.0
 11
1317.696031804489
 21
2239.793021808298
 31
0.0
  0
LINE
  5
569
330
1F
100
AcDbEntity
  8
LAY-10
  6
CONTINUOUS
 62
     7
100
AcDbLine
 10
1300.018362274889
 20
2257.470691337299
 30
0.0
 11
1317.696031804489
 21
2275.148360867299
 31
0.0
  0
LINE
  5
56A
330
1F
100
AcDbEntity
  8
LAY-10
  6
CONTINUOUS
 62
     7
100
AcDbLine
 10
1282.340692745189
 20
2222.115352278299
 30
0.0
 11
1300.018362274889
 21
2204.437682749299
 31
0.0
  0
LINE
  5
56B
330
1F
100
AcDbEntity
  8
LAY-10
  6
CONTINUOUS
 62
     7
100
AcDbLine
 10
1246.985353685889
 20
2239.793021808298
 30
0.0
 11
1229.307684156189
 21
2222.115352278299
 31
0.0
  0
LINE
  5
56C
330
1F
100
AcDbEntity
  8
LAY-10
  6
CONTINUOUS
 62
     7
100
AcDbLine
 10
1246.985353685889
 20
2222.115352278299
 30
0.0
 11
1264.663023215489
 21
2204.437682749299
 31
0.0
  0
LINE
  5
56D
330
1F
100
AcDbEntity
  8
LAY-10
  6
CONTINUOUS
 62
     7
100
AcDbLine
 10
1282.340692745189
 20
2257.470691337299
 30
0.0
 11
1300.018362274889
 21
2239.793021808298
 31
0.0
  0
LINE
  5
56E
330
1F
100
AcDbEntity
  8
LAY-10
  6
CONTINUOUS
 62
     7
100
AcDbLine
 10
1300.018362274889
 20
2275.148360867299
 30
0.0
 11
1282.340692745189
 21
2292.826030397298
 31
0.0
  0
LINE
  5
56F
330
1F
100
AcDbEntity
  8
LAY-10
  6
CONTINUOUS
 62
     7
100
AcDbLine
 10
1176.274675566989
 20
2133.727004631298
 30
0.0
 11
1167.807684156189
 21
2125.260013220354
 31
0.0
  0
LINE
  5
570
330
1F
100
AcDbEntity
  8
LAY-10
  6
CONTINUOUS
 62
     7
100
AcDbLine
 10
1211.630014626389
 20
2169.082343690298
 30
0.0
 11
1193.952345096689
 21
2151.404674160299
 31
0.0
  0
LINE
  5
571
330
1F
100
AcDbEntity
  8
LAY-10
  6
CONTINUOUS
 62
     7
100
AcDbLine
 10
1176.274675567089
 20
2151.404674160299
 30
0.0
 11
1193.952345096689
 21
2133.727004631299
 31
0.0
  0
LINE
  5
572
330
1F
100
AcDbEntity
  8
LAY-10
  6
CONTINUOUS
 62
     7
100
AcDbLine
 10
1176.274675567089
 20
2169.082343690298
 30
0.0
 11
1167.807684156189
 21
2160.615352279255
 31
0.0
  0
LINE
  5
573
330
1F
100
AcDbEntity
  8
LAY-10
  6
CONTINUOUS
 62
     7
100
AcDbLine
 10
1176.274675567089
 20
2204.437682749299
 30
0.0
 11
1167.807684156189
 21
2195.970691338255
 31
0.0
  0
LINE
  5
574
330
1F
100
AcDbEntity
  8
LAY-10
  6
CONTINUOUS
 62
     7
100
AcDbLine
 10
1193.952345096689
 20
2169.082343690298
 30
0.0
 11
1176.274675567089
 21
2186.760013219299
 31
0.0
  0
LINE
  5
575
330
1F
100
AcDbEntity
  8
LAY-10
  6
CONTINUOUS
 62
     7
100
AcDbLine
 10
1211.630014626389
 20
2151.404674160299
 30
0.0
 11
1229.307684156089
 21
2133.727004631299
 31
0.0
  0
LINE
  5
576
330
1F
100
AcDbEntity
  8
LAY-10
  6
CONTINUOUS
 62
     7
100
AcDbLine
 10
1229.307684156089
 20
2151.404674160299
 30
0.0
 11
1246.985353685789
 21
2169.082343690299
 31
0.0
  0
LINE
  5
577
330
1F
100
AcDbEntity
  8
LAY-10
  6
CONTINUOUS
 62
     7
100
AcDbLine
 10
1246.985353685789
 20
2186.760013219298
 30
0.0
 11
1264.663023215489
 21
2169.082343690299
 31
0.0
  0
LINE
  5
578
330
1F
100
AcDbEntity
  8
LAY-10
  6
CONTINUOUS
 62
     7
100
AcDbLine
 10
1211.630014626489
 20
2204.437682749299
 30
0.0
 11
1193.952345096789
 21
2186.760013219299
 31
0.0
  0
LINE
  5
579
330
1F
100
AcDbEntity
  8
LAY-10
  6
CONTINUOUS
 62
     7
100
AcDbLine
 10
1246.985353685789
 20
2204.437682749298
 30
0.0
 11
1229.307684156089
 21
2186.760013219298
 31
0.0
  0
LINE
  5
57A
330
1F
100
AcDbEntity
  8
LAY-10
  6
CONTINUOUS
 62
     7
100
AcDbLine
 10
1211.630014626489
 20
2186.760013219299
 30
0.0
 11
1229.307684156089
 21
2169.082343690299
 31
0.0
  0
LINE
  5
57B
330
1F
100
AcDbEntity
  8
LAY-10
  6
CONTINUOUS
 62
     7
100
AcDbLine
 10
1193.952345096689
 20
2116.049335101298
 30
0.0
 11
1211.630014626389
 21
2133.727004631299
 31
0.0
  0
LINE
  5
57C
330
1F
100
AcDbEntity
  8
LAY-10
  6
CONTINUOUS
 62
     7
100
AcDbLine
 10
1176.274675566989
 20
2116.049335101298
 30
0.0
 11
1193.952345096689
 21
2098.371665572298
 31
0.0
  0
LINE
  5
57D
330
1F
100
AcDbEntity
  8
LAY-10
  6
CONTINUOUS
 62
     7
100
AcDbLine
 10
1167.807684156189
 20
2089.904674161354
 30
0.0
 11
1176.274675566989
 21
2098.371665572298
 31
0.0
  0
LINE
  5
57E
330
1F
100
AcDbEntity
  8
LAY-10
  6
CONTINUOUS
 62
     7
100
AcDbLine
 10
1306.663023215676
 20
2299.470691337299
 30
0.0
 11
1300.018362274789
 21
2292.826030396299
 31
0.0
  0
LINE
  5
57F
330
1F
100
AcDbEntity
  8
LAY-10
  6
CONTINUOUS
 62
     7
100
AcDbLine
 10
1342.018362275353
 20
2299.470691337299
 30
0.0
 11
1335.373701335089
 21
2292.826030397298
 31
0.0
  0
LINE
  5
580
330
1F
100
AcDbEntity
  8
LAY-10
  6
CONTINUOUS
 62
     7
100
AcDbLine
 10
1377.373701335022
 20
2299.470691337299
 30
0.0
 11
1370.729040394759
 21
2292.826030397298
 31
0.0
  0
LINE
  5
581
330
1F
100
AcDbEntity
  8
LAY-10
  6
CONTINUOUS
 62
     7
100
AcDbLine
 10
1282.340692745189
 20
2239.793021808298
 30
0.0
 11
1264.663023215489
 21
2222.115352278299
 31
0.0
  0
LINE
  5
582
330
1F
100
AcDbEntity
  8
LAY-10
  6
CONTINUOUS
 62
     7
100
AcDbLine
 10
1264.663023215489
 20
2186.760013219298
 30
0.0
 11
1282.340692745189
 21
2204.437682749299
 31
0.0
  0
LINE
  5
583
330
1F
100
AcDbEntity
  8
LAY-10
  6
CONTINUOUS
 62
     7
100
AcDbLine
 10
1211.630014626888
 20
2275.148360866698
 30
0.0
 11
1193.952345097189
 21
2257.470691336698
 31
0.0
  0
LINE
  5
584
330
1F
100
AcDbEntity
  8
LAY-10
  6
CONTINUOUS
 62
     7
100
AcDbLine
 10
1193.952345096889
 20
2275.148360866397
 30
0.0
 11
1176.274675567588
 21
2292.826030395696
 31
0.0
  0
LINE
  5
585
330
1F
100
AcDbEntity
  8
LAY-10
  6
CONTINUOUS
 62
     7
100
AcDbLine
 10
1176.274675568189
 20
2257.470691336298
 30
0.0
 11
1193.95234509749
 21
2239.793021806999
 31
0.0
  0
LINE
  5
586
330
1F
100
AcDbEntity
  8
LAY-10
  6
CONTINUOUS
 62
     7
100
AcDbLine
 10
1282.340692745189
 20
2275.148360867299
 30
0.0
 11
1268.807684156189
 21
2261.61535227807
 31
0.0
  0
LINE
  5
587
330
1F
100
AcDbEntity
  8
LAY-10
  6
CONTINUOUS
 62
     7
100
AcDbLine
 10
1211.630014626987
 20
2292.826030395098
 30
0.0
 11
1229.307684156288
 21
2275.148360865799
 31
0.0
  0
LINE
  5
588
330
1F
100
AcDbEntity
  8
LAY-10
  6
CONTINUOUS
 62
     7
100
AcDbLine
 10
1229.307684154988
 20
2257.470691336799
 30
0.0
 11
1246.985353684987
 21
2275.148360866501
 31
0.0
  0
LINE
  5
589
330
1F
100
AcDbEntity
  8
LAY-10
  6
CONTINUOUS
 62
     7
100
AcDbLine
 10
1264.663023213988
 20
2275.148360866502
 30
0.0
 11
1246.985353684985
 21
2292.826030396201
 31
0.0
  0
LINE
  5
58A
330
1F
100
AcDbEntity
  8
LAY-10
  6
CONTINUOUS
 62
     7
100
AcDbLine
 10
1264.66302321399
 20
2239.793021807202
 30
0.0
 11
1246.985353684988
 21
2257.470691336801
 31
0.0
  0
LINE
  5
58B
330
1F
100
AcDbEntity
  8
LAY-10
  6
CONTINUOUS
 62
     7
100
AcDbLine
 10
1229.307684153987
 20
2292.8260303961
 30
0.0
 11
1235.952345095299
 21
2299.470691337299
 31
0.0
  0
LINE
  5
58C
330
1F
100
AcDbEntity
  8
LAY-10
  6
CONTINUOUS
 62
     7
100
AcDbLine
 10
1229.307684155889
 20
2239.793021807999
 30
0.0
 11
1211.63001462659
 21
2257.470691337299
 31
0.0
  0
LINE
  5
58D
330
1F
100
AcDbEntity
  8
LAY-10
  6
CONTINUOUS
 62
     7
100
AcDbLine
 10
1353.05137086279
 20
2275.148360868298
 30
0.0
 11
1335.373701333489
 21
2257.470691337999
 31
0.0
  0
LINE
  5
58E
330
1F
100
AcDbEntity
  8
LAY-10
  6
CONTINUOUS
 62
     7
100
AcDbLine
 10
1167.807684156168
 20
2299.470691337301
 30
0.0
 11
1583.807684156168
 21
2299.470691337303
 31
0.0
  0
LINE
  5
58F
330
1F
100
AcDbEntity
  8
LAY-10
  6
CONTINUOUS
 62
     7
100
AcDbLine
 10
1167.807684156168
 20
1229.470691337302
 30
0.0
 11
1583.80768415617
 21
1229.470691337303
 31
0.0
  0
LINE
  5
590
330
1F
100
AcDbEntity
  8
LAY-10
  6
CONTINUOUS
 62
     7
100
AcDbLine
 10
1353.051370862091
 20
2292.826030397998
 30
0.0
 11
1364.682072029364
 21
2281.195329231185
 31
0.0
  0
LINE
  5
591
330
1F
100
AcDbEntity
  8
LAY-10
  6
CONTINUOUS
 62
     7
100
AcDbLine
 10
1398.563997450228
 20
1236.115352276523
 30
0.0
 11
1386.933296282861
 21
1247.74605344343
 31
0.0
  0
CIRCLE
  5
592
330
1F
100
AcDbEntity
  8
LAY-10
  6
CONTINUOUS
 62
     7
100
AcDbCircle
 10
1793.80768415617
 20
2274.4706913373
 30
0.0
 40
13.00000000000001
  0
LINE
  5
593
330
1F
100
AcDbEntity
  8
LAY-10
  6
CONTINUOUS
 62
     7
100
AcDbLine
 10
1789.80768415617
 20
2274.470691337306
 30
0.0
 11
1793.80768415617
 21
2267.970691337306
 31
0.0
  0
LINE
  5
594
330
1F
100
AcDbEntity
  8
LAY-10
  6
CONTINUOUS
 62
     7
100
AcDbLine
 10
1793.80768415617
 20
2280.970691337306
 30
0.0
 11
1789.80768415617
 21
2274.470691337306
 31
0.0
  0
LINE
  5
595
330
1F
100
AcDbEntity
  8
LAY-10
  6
CONTINUOUS
 62
     7
100
AcDbLine
 10
1797.80768415617
 20
2274.470691337306
 30
0.0
 11
1793.80768415617
 21
2280.970691337306
 31
0.0
  0
LINE
  5
596
330
1F
100
AcDbEntity
  8
LAY-10
  6
CONTINUOUS
 62
     7
100
AcDbLine
 10
1793.80768415617
 20
2267.970691337306
 30
0.0
 11
1797.80768415617
 21
2274.470691337306
 31
0.0
  0
ARC
  5
597
330
1F
100
AcDbEntity
  8
LAY-10
  6
CONTINUOUS
 62
     7
100
AcDbCircle
 10
1793.80768415617
 20
2274.470691337306
 30
0.0
 40
12.75000000000001
100
AcDbArc
 50
18.2838899404031
 51
341.7161100595971
  0
LINE
  5
598
330
1F
100
AcDbEntity
  8
LAY-10
  6
CONTINUOUS
 62
     7
100
AcDbLine
 10
1804.30768415617
 20
2278.470691337305
 30
0.0
 11
1804.30768415617
 21
2270.470691337307
 31
0.0
  0
LINE
  5
599
330
1F
100
AcDbEntity
  8
LAY-10
  6
CONTINUOUS
 62
     7
100
AcDbLine
 10
1804.30768415617
 20
2278.470691337305
 30
0.0
 11
1805.913984168973
 21
2278.470691337305
 31
0.0
  0
LINE
  5
59A
330
1F
100
AcDbEntity
  8
LAY-10
  6
CONTINUOUS
 62
     7
100
AcDbLine
 10
1804.30768415617
 20
2270.470691337307
 30
0.0
 11
1805.913984168973
 21
2270.470691337307
 31
0.0
  0
CIRCLE
  5
59B
330
1F
100
AcDbEntity
  8
LAY-10
  6
CONTINUOUS
 62
     7
100
AcDbCircle
 10
1793.807684156171
 20
1254.470691337505
 30
0.0
 40
13.00000000000001
  0
LINE
  5
59C
330
1F
100
AcDbEntity
  8
LAY-10
  6
CONTINUOUS
 62
     7
100
AcDbLine
 10
1789.807684156171
 20
1254.4706913375
 30
0.0
 11
1793.807684156171
 21
1260.9706913375
 31
0.0
  0
LINE
  5
59D
330
1F
100
AcDbEntity
  8
LAY-10
  6
CONTINUOUS
 62
     7
100
AcDbLine
 10
1793.807684156171
 20
1247.9706913375
 30
0.0
 11
1789.807684156171
 21
1254.4706913375
 31
0.0
  0
LINE
  5
59E
330
1F
100
AcDbEntity
  8
LAY-10
  6
CONTINUOUS
 62
     7
100
AcDbLine
 10
1797.807684156171
 20
1254.4706913375
 30
0.0
 11
1793.807684156171
 21
1247.9706913375
 31
0.0
  0
LINE
  5
59F
330
1F
100
AcDbEntity
  8
LAY-10
  6
CONTINUOUS
 62
     7
100
AcDbLine
 10
1793.807684156171
 20
1260.9706913375
 30
0.0
 11
1797.807684156171
 21
1254.4706913375
 31
0.0
  0
ARC
  5
5A0
330
1F
100
AcDbEntity
  8
LAY-10
  6
CONTINUOUS
 62
     7
100
AcDbCircle
 10
1793.807684156171
 20
1254.4706913375
 30
0.0
 40
12.75000000000001
100
AcDbArc
 50
18.2838899404031
 51
341.716110059597
  0
LINE
  5
5A1
330
1F
100
AcDbEntity
  8
LAY-10
  6
CONTINUOUS
 62
     7
100
AcDbLine
 10
1804.307684156171
 20
1250.470691337501
 30
0.0
 11
1804.307684156171
 21
1258.470691337499
 31
0.0
  0
LINE
  5
5A2
330
1F
100
AcDbEntity
  8
LAY-10
  6
CONTINUOUS
 62
     7
100
AcDbLine
 10
1804.307684156171
 20
1250.470691337501
 30
0.0
 11
1805.913984168974
 21
1250.470691337501
 31
0.0
  0
LINE
  5
5A3
330
1F
100
AcDbEntity
  8
LAY-10
  6
CONTINUOUS
 62
     7
100
AcDbLine
 10
1804.307684156171
 20
1258.470691337499
 30
0.0
 11
1805.913984168974
 21
1258.470691337499
 31
0.0
  0
LINE
  5
5A4
330
1F
100
AcDbEntity
  8
LAY-10
  6
CONTINUOUS
 62
     7
100
AcDbLine
 10
2001.80768415617
 20
1229.470691337303
 30
0.0
 11
2001.807684156169
 21
2299.470691337303
 31
0.0
  0
LINE
  5
5A5
330
1F
100
AcDbEntity
  8
LAY-10
  6
CONTINUOUS
 62
     7
100
AcDbLine
 10
1834.734996179974
 20
1253.299692605268
 30
0.0
 11
1851.91933650773
 21
1236.115352277221
 31
0.0
  0
LINE
  5
5A6
330
1F
100
AcDbEntity
  8
LAY-10
  6
CONTINUOUS
 62
     7
100
AcDbLine
 10
1975.663023215631
 20
1236.115352280024
 30
0.0
 11
1969.018362273168
 21
1229.470691337223
 31
0.0
  0
LINE
  5
5A7
330
1F
100
AcDbEntity
  8
LAY-10
  6
CONTINUOUS
 62
     7
100
AcDbLine
 10
1993.34069274383
 20
1253.793021808824
 30
0.0
 11
2001.807684156155
 21
1262.260013221295
 31
0.0
  0
LINE
  5
5A8
330
1F
100
AcDbEntity
  8
LAY-10
  6
CONTINUOUS
 62
     7
100
AcDbLine
 10
1898.307684155426
 20
1229.470691337221
 30
0.0
 11
1904.952345097634
 21
1236.115352279017
 31
0.0
  0
LINE
  5
5A9
330
1F
100
AcDbEntity
  8
LAY-10
  6
CONTINUOUS
 62
     7
100
AcDbLine
 10
1993.34069274513
 20
1289.148360865222
 30
0.0
 11
2001.80768415613
 21
1297.615352276366
 31
0.0
  0
LINE
  5
5AA
330
1F
100
AcDbEntity
  8
LAY-10
  6
CONTINUOUS
 62
     7
100
AcDbLine
 10
1957.98535368583
 20
1289.148360866222
 30
0.0
 11
1975.66302321553
 21
1306.826030396221
 31
0.0
  0
LINE
  5
5AB
330
1F
100
AcDbEntity
  8
LAY-10
  6
CONTINUOUS
 62
     7
100
AcDbLine
 10
1975.66302321553
 20
1324.503699925222
 30
0.0
 11
1993.34069274523
 21
1306.826030396221
 31
0.0
  0
LINE
  5
5AC
330
1F
100
AcDbEntity
  8
LAY-10
  6
CONTINUOUS
 62
     7
100
AcDbLine
 10
1940.30768415623
 20
1324.503699925222
 30
0.0
 11
1957.98535368583
 21
1306.826030396221
 31
0.0
  0
LINE
  5
5AD
330
1F
100
AcDbEntity
  8
LAY-10
  6
CONTINUOUS
 62
     7
100
AcDbLine
 10
1851.91933650783
 20
1271.470691337221
 30
0.0
 11
1834.24166697813
 21
1289.148360866222
 31
0.0
  0
LINE
  5
5AE
330
1F
100
AcDbEntity
  8
LAY-10
  6
CONTINUOUS
 62
     7
100
AcDbLine
 10
1869.59700603743
 20
1306.826030396222
 30
0.0
 11
1851.91933650783
 21
1289.148360866222
 31
0.0
  0
LINE
  5
5AF
330
1F
100
AcDbEntity
  8
LAY-10
  6
CONTINUOUS
 62
     7
100
AcDbLine
 10
1869.59700603743
 20
1271.470691337221
 30
0.0
 11
1851.91933650783
 21
1253.793021807222
 31
0.0
  0
LINE
  5
5B0
330
1F
100
AcDbEntity
  8
LAY-10
  6
CONTINUOUS
 62
     7
100
AcDbLine
 10
1887.27467556713
 20
1306.826030396222
 30
0.0
 11
1869.59700603743
 21
1324.503699925222
 31
0.0
  0
LINE
  5
5B1
330
1F
100
AcDbEntity
  8
LAY-10
  6
CONTINUOUS
 62
     7
100
AcDbLine
 10
1922.63001462643
 20
1289.148360866222
 30
0.0
 11
1940.30768415613
 21
1306.826030396222
 31
0.0
  0
LINE
  5
5B2
330
1F
100
AcDbEntity
  8
LAY-10
  6
CONTINUOUS
 62
     7
100
AcDbLine
 10
1922.63001462643
 20
1306.826030396222
 30
0.0
 11
1904.95234509683
 21
1324.503699925222
 31
0.0
  0
LINE
  5
5B3
330
1F
100
AcDbEntity
  8
LAY-10
  6
CONTINUOUS
 62
     7
100
AcDbLine
 10
1887.27467556713
 20
1271.470691337221
 30
0.0
 11
1869.59700603743
 21
1289.148360866222
 31
0.0
  0
LINE
  5
5B4
330
1F
100
AcDbEntity
  8
LAY-10
  6
CONTINUOUS
 62
     7
100
AcDbLine
 10
1869.59700603743
 20
1253.793021807222
 30
0.0
 11
1887.27467556713
 21
1236.115352277222
 31
0.0
  0
LINE
  5
5B5
330
1F
100
AcDbEntity
  8
LAY-10
  6
CONTINUOUS
 62
     7
100
AcDbLine
 10
1993.34069274533
 20
1395.214378043222
 30
0.0
 11
2001.80768415613
 21
1403.681369454166
 31
0.0
  0
LINE
  5
5B6
330
1F
100
AcDbEntity
  8
LAY-10
  6
CONTINUOUS
 62
     7
100
AcDbLine
 10
1957.98535368593
 20
1359.859038984222
 30
0.0
 11
1975.66302321563
 21
1377.536708514222
 31
0.0
  0
LINE
  5
5B7
330
1F
100
AcDbEntity
  8
LAY-10
  6
CONTINUOUS
 62
     7
100
AcDbLine
 10
1993.34069274523
 20
1377.536708514222
 30
0.0
 11
1975.66302321563
 21
1395.214378043222
 31
0.0
  0
LINE
  5
5B8
330
1F
100
AcDbEntity
  8
LAY-10
  6
CONTINUOUS
 62
     7
100
AcDbLine
 10
1993.34069274523
 20
1359.859038984222
 30
0.0
 11
2001.80768415613
 21
1368.326030395265
 31
0.0
  0
LINE
  5
5B9
330
1F
100
AcDbEntity
  8
LAY-10
  6
CONTINUOUS
 62
     7
100
AcDbLine
 10
1993.34069274523
 20
1324.503699925222
 30
0.0
 11
2001.80768415613
 21
1332.970691336265
 31
0.0
  0
LINE
  5
5BA
330
1F
100
AcDbEntity
  8
LAY-10
  6
CONTINUOUS
 62
     7
100
AcDbLine
 10
1975.66302321563
 20
1359.859038984222
 30
0.0
 11
1993.34069274523
 21
1342.181369455221
 31
0.0
  0
LINE
  5
5BB
330
1F
100
AcDbEntity
  8
LAY-10
  6
CONTINUOUS
 62
     7
100
AcDbLine
 10
1957.98535368593
 20
1377.536708514222
 30
0.0
 11
1940.30768415623
 21
1395.214378043222
 31
0.0
  0
LINE
  5
5BC
330
1F
100
AcDbEntity
  8
LAY-10
  6
CONTINUOUS
 62
     7
100
AcDbLine
 10
1940.30768415623
 20
1377.536708514222
 30
0.0
 11
1922.63001462653
 21
1359.859038984221
 31
0.0
  0
LINE
  5
5BD
330
1F
100
AcDbEntity
  8
LAY-10
  6
CONTINUOUS
 62
     7
100
AcDbLine
 10
1922.63001462653
 20
1342.181369455222
 30
0.0
 11
1904.95234509683
 21
1359.859038984221
 31
0.0
  0
LINE
  5
5BE
330
1F
100
AcDbEntity
  8
LAY-10
  6
CONTINUOUS
 62
     7
100
AcDbLine
 10
1957.98535368583
 20
1324.503699925222
 30
0.0
 11
1975.66302321553
 21
1342.181369455221
 31
0.0
  0
LINE
  5
5BF
330
1F
100
AcDbEntity
  8
LAY-10
  6
CONTINUOUS
 62
     7
100
AcDbLine
 10
1922.63001462653
 20
1324.503699925222
 30
0.0
 11
1940.30768415623
 21
1342.181369455222
 31
0.0
  0
LINE
  5
5C0
330
1F
100
AcDbEntity
  8
LAY-10
  6
CONTINUOUS
 62
     7
100
AcDbLine
 10
1957.98535368583
 20
1342.181369455221
 30
0.0
 11
1940.30768415623
 21
1359.859038984221
 31
0.0
  0
LINE
  5
5C1
330
1F
100
AcDbEntity
  8
LAY-10
  6
CONTINUOUS
 62
     7
100
AcDbLine
 10
1975.66302321563
 20
1412.892047573222
 30
0.0
 11
1957.98535368593
 21
1395.214378043222
 31
0.0
  0
LINE
  5
5C2
330
1F
100
AcDbEntity
  8
LAY-10
  6
CONTINUOUS
 62
     7
100
AcDbLine
 10
1993.34069274533
 20
1412.892047573222
 30
0.0
 11
1975.66302321563
 21
1430.569717102222
 31
0.0
  0
LINE
  5
5C3
330
1F
100
AcDbEntity
  8
LAY-10
  6
CONTINUOUS
 62
     7
100
AcDbLine
 10
2001.80768415613
 20
1439.036708513167
 30
0.0
 11
1993.34069274533
 21
1430.569717102222
 31
0.0
  0
LINE
  5
5C4
330
1F
100
AcDbEntity
  8
LAY-10
  6
CONTINUOUS
 62
     7
100
AcDbLine
 10
1862.952345096643
 20
1229.470691337221
 30
0.0
 11
1869.59700603753
 21
1236.115352278222
 31
0.0
  0
LINE
  5
5C5
330
1F
100
AcDbEntity
  8
LAY-10
  6
CONTINUOUS
 62
     7
100
AcDbLine
 10
1827.597006036966
 20
1229.470691337221
 30
0.0
 11
1834.24166697723
 21
1236.115352277222
 31
0.0
  0
LINE
  5
5C6
330
1F
100
AcDbEntity
  8
LAY-10
  6
CONTINUOUS
 62
     7
100
AcDbLine
 10
1792.241666977296
 20
1229.470691337221
 30
0.0
 11
1798.88632791756
 21
1236.115352277222
 31
0.0
  0
LINE
  5
5C7
330
1F
100
AcDbEntity
  8
LAY-10
  6
CONTINUOUS
 62
     7
100
AcDbLine
 10
1887.27467556713
 20
1289.148360866222
 30
0.0
 11
1904.95234509683
 21
1306.826030396222
 31
0.0
  0
LINE
  5
5C8
330
1F
100
AcDbEntity
  8
LAY-10
  6
CONTINUOUS
 62
     7
100
AcDbLine
 10
1904.95234509683
 20
1342.181369455222
 30
0.0
 11
1887.27467556713
 21
1324.503699925222
 31
0.0
  0
LINE
  5
5C9
330
1F
100
AcDbEntity
  8
LAY-10
  6
CONTINUOUS
 62
     7
100
AcDbLine
 10
1957.985353685431
 20
1253.793021807823
 30
0.0
 11
1975.66302321513
 21
1271.470691337822
 31
0.0
  0
LINE
  5
5CA
330
1F
100
AcDbEntity
  8
LAY-10
  6
CONTINUOUS
 62
     7
100
AcDbLine
 10
1975.66302321543
 20
1253.793021808124
 30
0.0
 11
1993.340692744731
 21
1236.115352278825
 31
0.0
  0
LINE
  5
5CB
330
1F
100
AcDbEntity
  8
LAY-10
  6
CONTINUOUS
 62
     7
100
AcDbLine
 10
1993.34069274413
 20
1271.470691338222
 30
0.0
 11
1975.66302321483
 21
1289.148360867521
 31
0.0
  0
LINE
  5
5CC
330
1F
100
AcDbEntity
  8
LAY-10
  6
CONTINUOUS
 62
     7
100
AcDbLine
 10
1887.27467556713
 20
1253.793021807222
 30
0.0
 11
1900.80768415613
 21
1267.326030396451
 31
0.0
  0
LINE
  5
5CD
330
1F
100
AcDbEntity
  8
LAY-10
  6
CONTINUOUS
 62
     7
100
AcDbLine
 10
1957.985353685332
 20
1236.115352279422
 30
0.0
 11
1940.307684156031
 21
1253.793021808721
 31
0.0
  0
LINE
  5
5CE
330
1F
100
AcDbEntity
  8
LAY-10
  6
CONTINUOUS
 62
     7
100
AcDbLine
 10
1940.307684157331
 20
1271.470691337721
 30
0.0
 11
1922.630014627332
 21
1253.793021808019
 31
0.0
  0
LINE
  5
5CF
330
1F
100
AcDbEntity
  8
LAY-10
  6
CONTINUOUS
 62
     7
100
AcDbLine
 10
1904.952345098332
 20
1253.793021808018
 30
0.0
 11
1922.630014627334
 21
1236.11535227832
 31
0.0
  0
LINE
  5
5D0
330
1F
100
AcDbEntity
  8
LAY-10
  6
CONTINUOUS
 62
     7
100
AcDbLine
 10
1904.952345098329
 20
1289.148360867318
 30
0.0
 11
1922.630014627331
 21
1271.470691337719
 31
0.0
  0
LINE
  5
5D1
330
1F
100
AcDbEntity
  8
LAY-10
  6
CONTINUOUS
 62
     7
100
AcDbLine
 10
1940.307684158332
 20
1236.115352278421
 30
0.0
 11
1933.66302321702
 21
1229.470691337221
 31
0.0
  0
LINE
  5
5D2
330
1F
100
AcDbEntity
  8
LAY-10
  6
CONTINUOUS
 62
     7
100
AcDbLine
 10
1940.30768415643
 20
1289.148360866521
 30
0.0
 11
1957.985353685729
 21
1271.470691337221
 31
0.0
  0
LINE
  5
5D3
330
1F
100
AcDbEntity
  8
LAY-10
  6
CONTINUOUS
 62
     7
100
AcDbLine
 10
1816.563997449529
 20
1253.793021806222
 30
0.0
 11
1834.241666978829
 21
1271.470691336522
 31
0.0
  0
LINE
  5
5D4
330
1F
100
AcDbEntity
  8
LAY-10
  6
CONTINUOUS
 62
     7
100
AcDbLine
 10
1585.807684156169
 20
2299.470691337301
 30
0.0
 11
1585.807684156169
 21
1229.470691337302
 31
0.0
  0
LINE
  5
5D5
330
1F
100
AcDbEntity
  8
LAY-10
  6
CONTINUOUS
 62
     7
100
AcDbLine
 10
1752.880372132345
 20
2275.641690069252
 30
0.0
 11
1735.696031804589
 21
2292.826030397299
 31
0.0
  0
LINE
  5
5D6
330
1F
100
AcDbEntity
  8
LAY-10
  6
CONTINUOUS
 62
     7
100
AcDbLine
 10
1611.952345096689
 20
2292.826030394496
 30
0.0
 11
1618.597006039151
 21
2299.470691337297
 31
0.0
  0
LINE
  5
5D7
330
1F
100
AcDbEntity
  8
LAY-10
  6
CONTINUOUS
 62
     7
100
AcDbLine
 10
1594.274675568489
 20
2275.148360865696
 30
0.0
 11
1585.807684156164
 21
2266.681369453226
 31
0.0
  0
LINE
  5
5D8
330
1F
100
AcDbEntity
  8
LAY-10
  6
CONTINUOUS
 62
     7
100
AcDbLine
 10
1689.307684156893
 20
2299.470691337299
 30
0.0
 11
1682.663023214685
 21
2292.826030395503
 31
0.0
  0
LINE
  5
5D9
330
1F
100
AcDbEntity
  8
LAY-10
  6
CONTINUOUS
 62
     7
100
AcDbLine
 10
1594.274675567189
 20
2239.793021809298
 30
0.0
 11
1585.807684156189
 21
2231.326030398154
 31
0.0
  0
LINE
  5
5DA
330
1F
100
AcDbEntity
  8
LAY-10
  6
CONTINUOUS
 62
     7
100
AcDbLine
 10
1629.630014626489
 20
2239.793021808298
 30
0.0
 11
1611.952345096789
 21
2222.1153522783
 31
0.0
  0
LINE
  5
5DB
330
1F
100
AcDbEntity
  8
LAY-10
  6
CONTINUOUS
 62
     7
100
AcDbLine
 10
1611.952345096789
 20
2204.437682749299
 30
0.0
 11
1594.274675567089
 21
2222.1153522783
 31
0.0
  0
LINE
  5
5DC
330
1F
100
AcDbEntity
  8
LAY-10
  6
CONTINUOUS
 62
     7
100
AcDbLine
 10
1647.307684156089
 20
2204.437682749298
 30
0.0
 11
1629.630014626489
 21
2222.1153522783
 31
0.0
  0
LINE
  5
5DD
330
1F
100
AcDbEntity
  8
LAY-10
  6
CONTINUOUS
 62
     7
100
AcDbLine
 10
1735.696031804489
 20
2257.470691337299
 30
0.0
 11
1753.373701334189
 21
2239.793021808298
 31
0.0
  0
LINE
  5
5DE
330
1F
100
AcDbEntity
  8
LAY-10
  6
CONTINUOUS
 62
     7
100
AcDbLine
 10
1718.018362274889
 20
2222.115352278299
 30
0.0
 11
1735.696031804489
 21
2239.793021808298
 31
0.0
  0
LINE
  5
5DF
330
1F
100
AcDbEntity
  8
LAY-10
  6
CONTINUOUS
 62
     7
100
AcDbLine
 10
1718.018362274889
 20
2257.470691337299
 30
0.0
 11
1735.696031804489
 21
2275.148360867299
 31
0.0
  0
LINE
  5
5E0
330
1F
100
AcDbEntity
  8
LAY-10
  6
CONTINUOUS
 62
     7
100
AcDbLine
 10
1700.340692745189
 20
2222.115352278299
 30
0.0
 11
1718.018362274889
 21
2204.437682749299
 31
0.0
  0
LINE
  5
5E1
330
1F
100
AcDbEntity
  8
LAY-10
  6
CONTINUOUS
 62
     7
100
AcDbLine
 10
1664.985353685889
 20
2239.793021808298
 30
0.0
 11
1647.307684156189
 21
2222.115352278299
 31
0.0
  0
LINE
  5
5E2
330
1F
100
AcDbEntity
  8
LAY-10
  6
CONTINUOUS
 62
     7
100
AcDbLine
 10
1664.985353685889
 20
2222.115352278299
 30
0.0
 11
1682.663023215489
 21
2204.437682749299
 31
0.0
  0
LINE
  5
5E3
330
1F
100
AcDbEntity
  8
LAY-10
  6
CONTINUOUS
 62
     7
100
AcDbLine
 10
1700.340692745189
 20
2257.470691337299
 30
0.0
 11
1718.018362274889
 21
2239.793021808298
 31
0.0
  0
LINE
  5
5E4
330
1F
100
AcDbEntity
  8
LAY-10
  6
CONTINUOUS
 62
     7
100
AcDbLine
 10
1718.018362274889
 20
2275.148360867299
 30
0.0
 11
1700.340692745189
 21
2292.826030397298
 31
0.0
  0
LINE
  5
5E5
330
1F
100
AcDbEntity
  8
LAY-10
  6
CONTINUOUS
 62
     7
100
AcDbLine
 10
1594.274675566989
 20
2133.727004631298
 30
0.0
 11
1585.807684156189
 21
2125.260013220354
 31
0.0
  0
LINE
  5
5E6
330
1F
100
AcDbEntity
  8
LAY-10
  6
CONTINUOUS
 62
     7
100
AcDbLine
 10
1629.630014626389
 20
2169.082343690298
 30
0.0
 11
1611.952345096689
 21
2151.404674160299
 31
0.0
  0
LINE
  5
5E7
330
1F
100
AcDbEntity
  8
LAY-10
  6
CONTINUOUS
 62
     7
100
AcDbLine
 10
1594.274675567089
 20
2151.404674160299
 30
0.0
 11
1611.952345096689
 21
2133.727004631299
 31
0.0
  0
LINE
  5
5E8
330
1F
100
AcDbEntity
  8
LAY-10
  6
CONTINUOUS
 62
     7
100
AcDbLine
 10
1594.274675567089
 20
2169.082343690298
 30
0.0
 11
1585.807684156189
 21
2160.615352279255
 31
0.0
  0
LINE
  5
5E9
330
1F
100
AcDbEntity
  8
LAY-10
  6
CONTINUOUS
 62
     7
100
AcDbLine
 10
1594.274675567089
 20
2204.437682749299
 30
0.0
 11
1585.807684156189
 21
2195.970691338255
 31
0.0
  0
LINE
  5
5EA
330
1F
100
AcDbEntity
  8
LAY-10
  6
CONTINUOUS
 62
     7
100
AcDbLine
 10
1611.952345096689
 20
2169.082343690298
 30
0.0
 11
1594.274675567089
 21
2186.760013219299
 31
0.0
  0
LINE
  5
5EB
330
1F
100
AcDbEntity
  8
LAY-10
  6
CONTINUOUS
 62
     7
100
AcDbLine
 10
1629.630014626389
 20
2151.404674160299
 30
0.0
 11
1647.307684156089
 21
2133.727004631299
 31
0.0
  0
LINE
  5
5EC
330
1F
100
AcDbEntity
  8
LAY-10
  6
CONTINUOUS
 62
     7
100
AcDbLine
 10
1647.307684156089
 20
2151.404674160299
 30
0.0
 11
1664.985353685789
 21
2169.082343690299
 31
0.0
  0
LINE
  5
5ED
330
1F
100
AcDbEntity
  8
LAY-10
  6
CONTINUOUS
 62
     7
100
AcDbLine
 10
1664.985353685789
 20
2186.760013219298
 30
0.0
 11
1682.663023215489
 21
2169.082343690299
 31
0.0
  0
LINE
  5
5EE
330
1F
100
AcDbEntity
  8
LAY-10
  6
CONTINUOUS
 62
     7
100
AcDbLine
 10
1629.630014626489
 20
2204.437682749299
 30
0.0
 11
1611.952345096789
 21
2186.760013219299
 31
0.0
  0
LINE
  5
5EF
330
1F
100
AcDbEntity
  8
LAY-10
  6
CONTINUOUS
 62
     7
100
AcDbLine
 10
1664.985353685789
 20
2204.437682749298
 30
0.0
 11
1647.307684156089
 21
2186.760013219298
 31
0.0
  0
LINE
  5
5F0
330
1F
100
AcDbEntity
  8
LAY-10
  6
CONTINUOUS
 62
     7
100
AcDbLine
 10
1629.630014626489
 20
2186.760013219299
 30
0.0
 11
1647.307684156089
 21
2169.082343690299
 31
0.0
  0
LINE
  5
5F1
330
1F
100
AcDbEntity
  8
LAY-10
  6
CONTINUOUS
 62
     7
100
AcDbLine
 10
1611.952345096689
 20
2116.049335101298
 30
0.0
 11
1629.630014626389
 21
2133.727004631299
 31
0.0
  0
LINE
  5
5F2
330
1F
100
AcDbEntity
  8
LAY-10
  6
CONTINUOUS
 62
     7
100
AcDbLine
 10
1594.274675566989
 20
2116.049335101298
 30
0.0
 11
1611.952345096689
 21
2098.371665572298
 31
0.0
  0
LINE
  5
5F3
330
1F
100
AcDbEntity
  8
LAY-10
  6
CONTINUOUS
 62
     7
100
AcDbLine
 10
1585.807684156189
 20
2089.904674161354
 30
0.0
 11
1594.274675566989
 21
2098.371665572298
 31
0.0
  0
LINE
  5
5F4
330
1F
100
AcDbEntity
  8
LAY-10
  6
CONTINUOUS
 62
     7
100
AcDbLine
 10
1724.663023215676
 20
2299.470691337299
 30
0.0
 11
1718.018362274789
 21
2292.826030396299
 31
0.0
  0
LINE
  5
5F5
330
1F
100
AcDbEntity
  8
LAY-10
  6
CONTINUOUS
 62
     7
100
AcDbLine
 10
1760.018362275353
 20
2299.470691337299
 30
0.0
 11
1753.373701335089
 21
2292.826030397298
 31
0.0
  0
LINE
  5
5F6
330
1F
100
AcDbEntity
  8
LAY-10
  6
CONTINUOUS
 62
     7
100
AcDbLine
 10
1795.373701335023
 20
2299.470691337299
 30
0.0
 11
1788.729040394759
 21
2292.826030397298
 31
0.0
  0
LINE
  5
5F7
330
1F
100
AcDbEntity
  8
LAY-10
  6
CONTINUOUS
 62
     7
100
AcDbLine
 10
1700.340692745189
 20
2239.793021808298
 30
0.0
 11
1682.663023215489
 21
2222.115352278299
 31
0.0
  0
LINE
  5
5F8
330
1F
100
AcDbEntity
  8
LAY-10
  6
CONTINUOUS
 62
     7
100
AcDbLine
 10
1682.663023215489
 20
2186.760013219298
 30
0.0
 11
1700.340692745189
 21
2204.437682749299
 31
0.0
  0
LINE
  5
5F9
330
1F
100
AcDbEntity
  8
LAY-10
  6
CONTINUOUS
 62
     7
100
AcDbLine
 10
1629.630014626889
 20
2275.148360866698
 30
0.0
 11
1611.95234509719
 21
2257.470691336698
 31
0.0
  0
LINE
  5
5FA
330
1F
100
AcDbEntity
  8
LAY-10
  6
CONTINUOUS
 62
     7
100
AcDbLine
 10
1611.952345096889
 20
2275.148360866397
 30
0.0
 11
1594.274675567589
 21
2292.826030395696
 31
0.0
  0
LINE
  5
5FB
330
1F
100
AcDbEntity
  8
LAY-10
  6
CONTINUOUS
 62
     7
100
AcDbLine
 10
1594.274675568189
 20
2257.470691336298
 30
0.0
 11
1611.95234509749
 21
2239.793021806999
 31
0.0
  0
LINE
  5
5FC
330
1F
100
AcDbEntity
  8
LAY-10
  6
CONTINUOUS
 62
     7
100
AcDbLine
 10
1700.340692745189
 20
2275.148360867299
 30
0.0
 11
1686.80768415619
 21
2261.61535227807
 31
0.0
  0
LINE
  5
5FD
330
1F
100
AcDbEntity
  8
LAY-10
  6
CONTINUOUS
 62
     7
100
AcDbLine
 10
1629.630014626987
 20
2292.826030395098
 30
0.0
 11
1647.307684156288
 21
2275.148360865799
 31
0.0
  0
LINE
  5
5FE
330
1F
100
AcDbEntity
  8
LAY-10
  6
CONTINUOUS
 62
     7
100
AcDbLine
 10
1647.307684154989
 20
2257.470691336799
 30
0.0
 11
1664.985353684987
 21
2275.148360866501
 31
0.0
  0
LINE
  5
5FF
330
1F
100
AcDbEntity
  8
LAY-10
  6
CONTINUOUS
 62
     7
100
AcDbLine
 10
1682.663023213988
 20
2275.148360866502
 30
0.0
 11
1664.985353684986
 21
2292.826030396201
 31
0.0
  0
LINE
  5
600
330
1F
100
AcDbEntity
  8
LAY-10
  6
CONTINUOUS
 62
     7
100
AcDbLine
 10
1682.663023213991
 20
2239.793021807202
 30
0.0
 11
1664.985353684988
 21
2257.470691336801
 31
0.0
  0
LINE
  5
601
330
1F
100
AcDbEntity
  8
LAY-10
  6
CONTINUOUS
 62
     7
100
AcDbLine
 10
1647.307684153988
 20
2292.8260303961
 30
0.0
 11
1653.952345095299
 21
2299.470691337299
 31
0.0
  0
LINE
  5
602
330
1F
100
AcDbEntity
  8
LAY-10
  6
CONTINUOUS
 62
     7
100
AcDbLine
 10
1647.30768415589
 20
2239.793021807999
 30
0.0
 11
1629.63001462659
 21
2257.470691337299
 31
0.0
  0
LINE
  5
603
330
1F
100
AcDbEntity
  8
LAY-10
  6
CONTINUOUS
 62
     7
100
AcDbLine
 10
1771.05137086279
 20
2275.148360868298
 30
0.0
 11
1753.37370133349
 21
2257.470691337999
 31
0.0
  0
LINE
  5
604
330
1F
100
AcDbEntity
  8
LAY-10
  6
CONTINUOUS
 62
     7
100
AcDbLine
 10
1585.807684156169
 20
2299.470691337301
 30
0.0
 11
2001.807684156169
 21
2299.470691337303
 31
0.0
  0
LINE
  5
605
330
1F
100
AcDbEntity
  8
LAY-10
  6
CONTINUOUS
 62
     7
100
AcDbLine
 10
1585.807684156169
 20
1229.470691337302
 30
0.0
 11
2001.80768415617
 21
1229.470691337303
 31
0.0
  0
LINE
  5
606
330
1F
100
AcDbEntity
  8
LAY-10
  6
CONTINUOUS
 62
     7
100
AcDbLine
 10
1771.051370862091
 20
2292.826030397998
 30
0.0
 11
1782.682072029364
 21
2281.195329231185
 31
0.0
  0
LINE
  5
607
330
1F
100
AcDbEntity
  8
LAY-10
  6
CONTINUOUS
 62
     7
100
AcDbLine
 10
1816.563997450228
 20
1236.115352276523
 30
0.0
 11
1804.933296282861
 21
1247.74605344343
 31
0.0
  0
LINE
  5
608
330
1F
100
AcDbEntity
  8
LAY-10
  6
CONTINUOUS
 62
     7
100
AcDbLine
 10
671.3076841562336
 20
2344.374805079505
 30
0.0
 11
662.3076841562332
 21
2344.374805079505
 31
0.0
  0
LINE
  5
609
330
1F
100
AcDbEntity
  8
LAY-10
  6
CONTINUOUS
 62
     7
100
AcDbLine
 10
662.3076841562332
 20
2315.476320269668
 30
0.0
 11
662.3076841562332
 21
2344.374805079505
 31
0.0
  0
LINE
  5
60A
330
1F
100
AcDbEntity
  8
LAY-10
  6
CONTINUOUS
 62
     7
100
AcDbLine
 10
671.3076841562336
 20
2315.476320269668
 30
0.0
 11
671.3076841562336
 21
2344.374805079505
 31
0.0
  0
LINE
  5
60B
330
1F
100
AcDbEntity
  8
LAY-10
  6
CONTINUOUS
 62
     7
100
AcDbLine
 10
1162.307684156194
 20
2344.374805079506
 30
0.0
 11
1171.307684156196
 21
2344.374805079506
 31
0.0
  0
LINE
  5
60C
330
1F
100
AcDbEntity
  8
LAY-10
  6
CONTINUOUS
 62
     7
100
AcDbLine
 10
1171.307684156196
 20
2315.476320269669
 30
0.0
 11
1171.307684156196
 21
2344.374805079506
 31
0.0
  0
LINE
  5
60D
330
1F
100
AcDbEntity
  8
LAY-10
  6
CONTINUOUS
 62
     7
100
AcDbLine
 10
1162.307684156195
 20
2315.476320269669
 30
0.0
 11
1162.307684156194
 21
2344.374805079506
 31
0.0
  0
LINE
  5
60E
330
1F
100
AcDbEntity
  8
LAY-10
  6
CONTINUOUS
 62
     7
100
AcDbLine
 10
1662.307684156117
 20
2344.374805079503
 30
0.0
 11
1671.307684156117
 21
2344.374805079503
 31
0.0
  0
LINE
  5
60F
330
1F
100
AcDbEntity
  8
LAY-10
  6
CONTINUOUS
 62
     7
100
AcDbLine
 10
1671.307684156117
 20
2315.476320269666
 30
0.0
 11
1671.307684156117
 21
2344.374805079503
 31
0.0
  0
LINE
  5
610
330
1F
100
AcDbEntity
  8
LAY-10
  6
CONTINUOUS
 62
     7
100
AcDbLine
 10
1662.307684156117
 20
2315.476320269666
 30
0.0
 11
1662.307684156117
 21
2344.374805079503
 31
0.0
  0
LINE
  5
611
330
1F
100
AcDbEntity
  8
LAY-10
  6
CONTINUOUS
 62
     7
100
AcDbLine
 10
671.3076841562341
 20
1184.566577595381
 30
0.0
 11
662.3076841562338
 21
1184.566577595381
 31
0.0
  0
LINE
  5
612
330
1F
100
AcDbEntity
  8
LAY-10
  6
CONTINUOUS
 62
     7
100
AcDbLine
 10
662.3076841562338
 20
1213.465062405218
 30
0.0
 11
662.3076841562338
 21
1184.566577595381
 31
0.0
  0
LINE
  5
613
330
1F
100
AcDbEntity
  8
LAY-10
  6
CONTINUOUS
 62
     7
100
AcDbLine
 10
671.3076841562341
 20
1213.465062405218
 30
0.0
 11
671.3076841562341
 21
1184.566577595381
 31
0.0
  0
LINE
  5
614
330
1F
100
AcDbEntity
  8
LAY-10
  6
CONTINUOUS
 62
     7
100
AcDbLine
 10
1162.307684156195
 20
1184.56657759538
 30
0.0
 11
1171.307684156196
 21
1184.56657759538
 31
0.0
  0
LINE
  5
615
330
1F
100
AcDbEntity
  8
LAY-10
  6
CONTINUOUS
 62
     7
100
AcDbLine
 10
1171.307684156196
 20
1213.465062405217
 30
0.0
 11
1171.307684156196
 21
1184.56657759538
 31
0.0
  0
LINE
  5
616
330
1F
100
AcDbEntity
  8
LAY-10
  6
CONTINUOUS
 62
     7
100
AcDbLine
 10
1162.307684156196
 20
1213.465062405217
 30
0.0
 11
1162.307684156195
 21
1184.56657759538
 31
0.0
  0
LINE
  5
617
330
1F
100
AcDbEntity
  8
LAY-10
  6
CONTINUOUS
 62
     7
100
AcDbLine
 10
1662.307684156118
 20
1184.566577595383
 30
0.0
 11
1671.307684156118
 21
1184.566577595383
 31
0.0
  0
LINE
  5
618
330
1F
100
AcDbEntity
  8
LAY-10
  6
CONTINUOUS
 62
     7
100
AcDbLine
 10
1671.307684156118
 20
1213.465062405221
 30
0.0
 11
1671.307684156118
 21
1184.566577595383
 31
0.0
  0
LINE
  5
619
330
1F
100
AcDbEntity
  8
LAY-10
  6
CONTINUOUS
 62
     7
100
AcDbLine
 10
1662.307684156117
 20
1213.465062405221
 30
0.0
 11
1662.307684156118
 21
1184.566577595383
 31
0.0
  0
LINE
  5
61A
330
1F
100
AcDbEntity
  8
LAY-10
  6
CENTER
 62
     2
100
AcDbLine
 10
2358.94250381031
 20
1764.470691337197
 30
0.0
 11
2514.7755610271
 21
1764.470691337197
 31
0.0
  0
LINE
  5
61B
330
1F
100
AcDbEntity
  8
LAY-10
  6
CENTER
 62
     2
100
AcDbLine
 10
1166.807684156167
 20
872.3330572167907
 30
0.0
 11
1166.807684156167
 21
716.5
 31
0.0
  0
LINE
  5
61C
330
1F
100
AcDbEntity
  8
LAY-10
  6
CENTER
 62
     2
100
AcDbLine
 10
1166.807684156175
 20
2351.97069133729
 30
0.0
 11
1166.807684156173
 21
1171.670691337389
 31
0.0
  0
LINE
  5
61D
330
1F
100
AcDbEntity
  8
LAY-10
  6
CENTER
 62
     2
100
AcDbLine
 10
2017.807684155911
 20
2014.470691337361
 30
0.0
 11
2059.607684155911
 21
2014.470691337362
 31
0.0
  0
LINE
  5
61E
330
1F
100
AcDbEntity
  8
LAY-10
  6
CENTER
 62
     2
100
AcDbLine
 10
2017.807684155909
 20
1514.470691337401
 30
0.0
 11
2054.307684155863
 21
1514.470691337401
 31
0.0
  0
LINE
  5
61F
330
1F
100
AcDbEntity
  8
LAY-10
  6
CENTER
 62
     2
100
AcDbLine
 10
315.802055224038
 20
1514.470691337405
 30
0.0
 11
279.3020552240844
 21
1514.470691337406
 31
0.0
  0
LINE
  5
620
330
1F
100
AcDbEntity
  8
LAY-10
  6
CENTER
 62
     2
100
AcDbLine
 10
315.802055224038
 20
2014.470691337365
 30
0.0
 11
274.0020552240387
 21
2014.470691337366
 31
0.0
  0
LINE
  5
621
330
1F
100
AcDbEntity
  8
LAY-10
  6
CENTER
 62
     2
100
AcDbLine
 10
274.5076841557668
 20
1764.470691337443
 30
0.0
 11
2059.60768415587
 21
1764.470691337443
 31
0.0
  0
LINE
  5
622
330
1F
100
AcDbEntity
  8
LAY-10
  6
CENTER
 62
     2
100
AcDbLine
 10
539.8076841562099
 20
2293.070691337351
 30
0.0
 11
539.8076841562099
 21
2254.170691337351
 31
0.0
  0
LINE
  5
623
330
1F
100
AcDbEntity
  8
LAY-10
  6
CENTER
 62
     2
100
AcDbLine
 10
521.2826841562104
 20
2274.470691337349
 30
0.0
 11
558.7826841562094
 21
2274.470691337349
 31
0.0
  0
LINE
  5
624
330
1F
100
AcDbEntity
  8
LAY-10
  6
CENTER
 62
     2
100
AcDbLine
 10
539.8076841562104
 20
1235.870691337455
 30
0.0
 11
539.8076841562104
 21
1274.770691337455
 31
0.0
  0
LINE
  5
625
330
1F
100
AcDbEntity
  8
LAY-10
  6
CENTER
 62
     2
100
AcDbLine
 10
521.2826841562108
 20
1254.470691337456
 30
0.0
 11
558.7826841562098
 21
1254.470691337456
 31
0.0
  0
LINE
  5
626
330
1F
100
AcDbEntity
  8
LAY-10
  6
CENTER
 62
     2
100
AcDbLine
 10
957.8076841560899
 20
2293.070691337351
 30
0.0
 11
957.8076841560899
 21
2254.170691337351
 31
0.0
  0
LINE
  5
627
330
1F
100
AcDbEntity
  8
LAY-10
  6
CENTER
 62
     2
100
AcDbLine
 10
939.2826841560905
 20
2274.470691337349
 30
0.0
 11
976.7826841560893
 21
2274.470691337349
 31
0.0
  0
LINE
  5
628
330
1F
100
AcDbEntity
  8
LAY-10
  6
CENTER
 62
     2
100
AcDbLine
 10
957.8076841560903
 20
1235.870691337455
 30
0.0
 11
957.8076841560903
 21
1274.770691337455
 31
0.0
  0
LINE
  5
629
330
1F
100
AcDbEntity
  8
LAY-10
  6
CENTER
 62
     2
100
AcDbLine
 10
939.2826841560909
 20
1254.470691337456
 30
0.0
 11
976.7826841560898
 21
1254.470691337456
 31
0.0
  0
LINE
  5
62A
330
1F
100
AcDbEntity
  8
LAY-10
  6
CENTER
 62
     2
100
AcDbLine
 10
1375.80768415617
 20
2293.070691337351
 30
0.0
 11
1375.80768415617
 21
2254.170691337351
 31
0.0
  0
LINE
  5
62B
330
1F
100
AcDbEntity
  8
LAY-10
  6
CENTER
 62
     2
100
AcDbLine
 10
1357.28268415617
 20
2274.470691337349
 30
0.0
 11
1394.782684156169
 21
2274.470691337349
 31
0.0
  0
LINE
  5
62C
330
1F
100
AcDbEntity
  8
LAY-10
  6
CENTER
 62
     2
100
AcDbLine
 10
1375.80768415617
 20
1235.870691337455
 30
0.0
 11
1375.80768415617
 21
1274.770691337455
 31
0.0
  0
LINE
  5
62D
330
1F
100
AcDbEntity
  8
LAY-10
  6
CENTER
 62
     2
100
AcDbLine
 10
1357.28268415617
 20
1254.470691337456
 30
0.0
 11
1394.782684156169
 21
1254.470691337456
 31
0.0
  0
LINE
  5
62E
330
1F
100
AcDbEntity
  8
LAY-10
  6
CENTER
 62
     2
100
AcDbLine
 10
1793.80768415617
 20
2293.070691337351
 30
0.0
 11
1793.80768415617
 21
2254.170691337351
 31
0.0
  0
LINE
  5
62F
330
1F
100
AcDbEntity
  8
LAY-10
  6
CENTER
 62
     2
100
AcDbLine
 10
1775.28268415617
 20
2274.470691337349
 30
0.0
 11
1812.78268415617
 21
2274.470691337349
 31
0.0
  0
LINE
  5
630
330
1F
100
AcDbEntity
  8
LAY-10
  6
CENTER
 62
     2
100
AcDbLine
 10
1793.807684156171
 20
1235.870691337455
 30
0.0
 11
1793.807684156171
 21
1274.770691337455
 31
0.0
  0
LINE
  5
631
330
1F
100
AcDbEntity
  8
LAY-10
  6
CENTER
 62
     2
100
AcDbLine
 10
1775.282684156171
 20
1254.470691337456
 30
0.0
 11
1812.78268415617
 21
1254.470691337456
 31
0.0
  0
LINE
  5
632
330
1F
100
AcDbEntity
  8
LAY-10
  6
CENTER
 62
     2
100
AcDbLine
 10
666.8076841562347
 20
2315.476320269668
 30
0.0
 11
666.8076841562331
 21
2357.276320269667
 31
0.0
  0
LINE
  5
633
330
1F
100
AcDbEntity
  8
LAY-10
  6
CENTER
 62
     2
100
AcDbLine
 10
1666.807684156116
 20
2315.476320269666
 30
0.0
 11
1666.807684156118
 21
2357.276320269665
 31
0.0
  0
LINE
  5
634
330
1F
100
AcDbEntity
  8
LAY-10
  6
CENTER
 62
     2
100
AcDbLine
 10
666.8076841562353
 20
1213.465062405218
 30
0.0
 11
666.8076841562337
 21
1171.665062405219
 31
0.0
  0
LINE
  5
635
330
1F
100
AcDbEntity
  8
LAY-10
  6
CENTER
 62
     2
100
AcDbLine
 10
1666.807684156116
 20
1213.465062405221
 30
0.0
 11
1666.807684156119
 21
1171.665062405221
 31
0.0
  0
DIMENSION
  5
637
330
1F
100
AcDbEntity
  8
LAY-20
  6
CONTINUOUS
 62
     4
100
AcDbDimension
  2
*D15
 10
2202.5235112715
 20
2315.47069133723
 30
0.0
 11
2177.5235112715
 21
1764.47069133719
 31
0.0
 70
   160
  3
ISO-25
100
AcDbAlignedDimension
 13
2372.523511271509
 23
1213.47069133715
 33
0.0
 14
2372.523511271509
 24
2315.47069133723
 34
0.0
 50
90.0
100
AcDbRotatedDimension
1001
ACAD
1000
DSTYLE
1002
{
1070
   270
1070
     2
1070
     6
1000
EX_BNORM
1070
     7
1000
EX_BNORM
1070
    41
1040
25.0
1070
    42
1040
15.0
1070
    44
1040
15.0
1070
    73
1070
     0
1070
    74
1070
     0
1070
    75
1070
     0
1070
    76
1070
     0
1070
    77
1070
     1
1070
    78
1070
     8
1070
   140
1040
31.181104
1070
   147
1040
0.0
1070
   173
1070
     1
1070
   176
1070
     4
1070
   177
1070
     4
1070
   178
1070
     7
1070
   271
1070
     1
1070
   277
1070
     2
1070
   279
1070
     2
1070
   280
1070
     0
1070
   287
1070
     5
1070
   340
1005
636
1002
}
  0
DIMENSION
  5
645
330
1F
100
AcDbEntity
  8
LAY-20
  6
CONTINUOUS
 62
     4
100
AcDbDimension
  2
*D16
 10
2272.5235112715
 20
2299.470691337245
 30
0.0
 11
2247.5235112715
 21
1764.470691337258
 31
0.0
 70
   160
  3
ISO-25
100
AcDbAlignedDimension
 13
2372.523511271507
 23
1229.470691337272
 33
0.0
 14
2372.523511271505
 24
2299.470691337245
 34
0.0
 50
90.0
100
AcDbRotatedDimension
1001
ACAD
1000
DSTYLE
1002
{
1070
   270
1070
     2
1070
     6
1000
EX_BNORM
1070
     7
1000
EX_BNORM
1070
    41
1040
25.0
1070
    42
1040
15.0
1070
    44
1040
15.0
1070
    73
1070
     0
1070
    74
1070
     0
1070
    75
1070
     0
1070
    76
1070
     0
1070
    77
1070
     1
1070
    78
1070
     8
1070
   140
1040
31.181104
1070
   147
1040
0.0
1070
   173
1070
     1
1070
   176
1070
     4
1070
   177
1070
     4
1070
   178
1070
     7
1070
   271
1070
     1
1070
   277
1070
     2
1070
   279
1070
     2
1070
   280
1070
     0
1070
   287
1070
     5
1070
   340
1005
636
1002
}
  0
DIMENSION
  5
652
330
1F
100
AcDbEntity
  8
LAY-20
  6
CONTINUOUS
 62
     4
100
AcDbDimension
  2
*D17
 10
2607.52351127151
 20
1314.470691337149
 30
0.0
 11
2582.52351127151
 21
1764.47069133719
 31
0.0
 70
   160
  3
ISO-25
100
AcDbAlignedDimension
 13
2507.52351127151
 23
2214.47069133723
 33
0.0
 14
2507.52351127151
 24
1314.470691337149
 34
0.0
 50
90.0
100
AcDbRotatedDimension
1001
ACAD
1000
DSTYLE
1002
{
1070
   270
1070
     2
1070
     6
1000
EX_BNORM
1070
     7
1000
EX_BNORM
1070
    41
1040
25.0
1070
    42
1040
15.0
1070
    44
1040
15.0
1070
    73
1070
     0
1070
    74
1070
     0
1070
    75
1070
     0
1070
    76
1070
     0
1070
    77
1070
     1
1070
    78
1070
     8
1070
   140
1040
31.181104
1070
   147
1040
0.0
1070
   173
1070
     1
1070
   176
1070
     4
1070
   177
1070
     4
1070
   178
1070
     7
1070
   271
1070
     1
1070
   277
1070
     2
1070
   279
1070
     2
1070
   280
1070
     0
1070
   287
1070
     5
1070
   340
1005
636
1002
}
  0
DIMENSION
  5
65F
330
1F
100
AcDbEntity
  8
LAY-20
  6
CONTINUOUS
 62
     4
100
AcDbDimension
  2
*D18
 10
2677.52351127151
 20
1222.270691337169
 30
0.0
 11
2652.52351127151
 21
1764.470691337199
 31
0.0
 70
   160
  3
ISO-25
100
AcDbAlignedDimension
 13
2426.2235112715
 23
2306.670691337229
 33
0.0
 14
2426.2235112715
 24
1222.270691337169
 34
0.0
 50
90.0
100
AcDbRotatedDimension
1001
ACAD
1000
DSTYLE
1002
{
1070
   270
1070
     2
1070
     6
1000
EX_BNORM
1070
     7
1000
EX_BNORM
1070
    41
1040
25.0
1070
    42
1040
15.0
1070
    44
1040
15.0
1070
    73
1070
     0
1070
    74
1070
     0
1070
    75
1070
     0
1070
    76
1070
     0
1070
    77
1070
     1
1070
    78
1070
     0
1070
   140
1040
31.181104
1070
   147
1040
0.0
1070
   173
1070
     1
1070
   176
1070
     4
1070
   177
1070
     4
1070
   178
1070
     7
1070
   271
1070
     0
1070
   277
1070
     2
1070
   279
1070
     2
1070
   280
1070
     0
1070
   287
1070
     5
1070
   340
1005
636
1002
}
  0
DIMENSION
  5
66C
330
1F
100
AcDbEntity
  8
LAY-20
  6
CONTINUOUS
 62
     4
100
AcDbDimension
  2
*D19
 10
2017.807684156201
 20
1028.7520497556
 30
0.0
 11
1166.80768415616
 21
1053.7520497556
 31
0.0
 70
   160
  3
ISO-25
100
AcDbAlignedDimension
 13
315.8076841561203
 23
858.7520497555903
 33
0.0
 14
2017.807684156201
 24
858.7520497555903
 34
0.0
100
AcDbRotatedDimension
1001
ACAD
1000
DSTYLE
1002
{
1070
   270
1070
     2
1070
     6
1000
EX_BNORM
1070
     7
1000
EX_BNORM
1070
    41
1040
25.0
1070
    42
1040
15.0
1070
    44
1040
15.0
1070
    73
1070
     0
1070
    74
1070
     0
1070
    75
1070
     0
1070
    76
1070
     0
1070
    77
1070
     1
1070
    78
1070
     8
1070
   140
1040
31.181104
1070
   147
1040
0.0
1070
   173
1070
     1
1070
   176
1070
     4
1070
   177
1070
     4
1070
   178
1070
     7
1070
   271
1070
     1
1070
   277
1070
     2
1070
   279
1070
     2
1070
   280
1070
     0
1070
   287
1070
     5
1070
   340
1005
636
1002
}
  0
DIMENSION
  5
679
330
1F
100
AcDbEntity
  8
LAY-20
  6
CONTINUOUS
 62
     4
100
AcDbDimension
  2
*D20
 10
747.8076841561349
 20
958.7520497555997
 30
0.0
 11
539.8076841561888
 21
983.7520497555997
 31
0.0
 70
   160
  3
ISO-25
100
AcDbAlignedDimension
 13
331.8076841562424
 23
858.7520497555934
 33
0.0
 14
747.8076841561349
 24
858.7520497555956
 34
0.0
100
AcDbRotatedDimension
1001
ACAD
1000
DSTYLE
1002
{
1070
   270
1070
     2
1070
     6
1000
EX_BNORM
1070
     7
1000
EX_BNORM
1070
    41
1040
25.0
1070
    42
1040
15.0
1070
    44
1040
15.0
1070
    73
1070
     0
1070
    74
1070
     0
1070
    75
1070
     0
1070
    76
1070
     0
1070
    77
1070
     1
1070
    78
1070
     8
1070
   140
1040
31.181104
1070
   147
1040
0.0
1070
   173
1070
     1
1070
   176
1070
     4
1070
   177
1070
     4
1070
   178
1070
     7
1070
   271
1070
     1
1070
   277
1070
     2
1070
   279
1070
     2
1070
   280
1070
     0
1070
   287
1070
     5
1070
   340
1005
636
1002
}
  0
DIMENSION
  5
686
330
1F
100
AcDbEntity
  8
LAY-20
  6
CONTINUOUS
 62
     4
100
AcDbDimension
  2
*D21
 10
416.8076841561201
 20
623.7520497555897
 30
0.0
 11
1166.80768415616
 21
648.7520497555897
 31
0.0
 70
   160
  3
ISO-25
100
AcDbAlignedDimension
 13
1916.8076841562
 23
723.7520497555901
 33
0.0
 14
416.8076841561201
 24
723.7520497555897
 34
0.0
100
AcDbRotatedDimension
1001
ACAD
1000
DSTYLE
1002
{
1070
   270
1070
     2
1070
     6
1000
EX_BNORM
1070
     7
1000
EX_BNORM
1070
    41
1040
25.0
1070
    42
1040
15.0
1070
    44
1040
15.0
1070
    73
1070
     0
1070
    74
1070
     0
1070
    75
1070
     0
1070
    76
1070
     0
1070
    77
1070
     1
1070
    78
1070
     8
1070
   140
1040
31.181104
1070
   147
1040
0.0
1070
   173
1070
     1
1070
   176
1070
     4
1070
   177
1070
     4
1070
   178
1070
     7
1070
   271
1070
     1
1070
   277
1070
     2
1070
   279
1070
     2
1070
   280
1070
     0
1070
   287
1070
     5
1070
   340
1005
636
1002
}
  0
DIMENSION
  5
693
330
1F
100
AcDbEntity
  8
LAY-20
  6
CONTINUOUS
 62
     4
100
AcDbDimension
  2
*D22
 10
2146.706168966
 20
858.7520497555903
 30
0.0
 11
2121.706168965999
 21
791.25204975559
 31
0.0
 70
   160
  3
ISO-25
100
AcDbAlignedDimension
 13
1963.0076841562
 23
723.7520497555901
 33
0.0
 14
2017.807684156201
 24
858.7520497555903
 34
0.0
 50
90.0
100
AcDbRotatedDimension
1001
ACAD
1000
DSTYLE
1002
{
1070
   270
1070
     2
1070
     6
1000
EX_BNORM
1070
     7
1000
EX_BNORM
1070
    41
1040
25.0
1070
    42
1040
15.0
1070
    44
1040
15.0
1070
    73
1070
     0
1070
    74
1070
     0
1070
    75
1070
     0
1070
    76
1070
     0
1070
    77
1070
     1
1070
    78
1070
     8
1070
   140
1040
31.181104
1070
   147
1040
0.0
1070
   173
1070
     1
1070
   176
1070
     4
1070
   177
1070
     4
1070
   178
1070
     7
1070
   271
1070
     1
1070
   277
1070
     2
1070
   279
1070
     2
1070
   280
1070
     0
1070
   287
1070
     5
1070
   340
1005
636
1002
}
  0
DIMENSION
  5
6A0
330
1F
100
AcDbEntity
  8
LAY-20
  6
CONTINUOUS
 62
     4
100
AcDbDimension
  2
*D23
 10
324.6076841561401
 20
553.7520497555897
 30
0.0
 11
1166.80768415617
 21
578.7520497555897
 31
0.0
 70
   160
  3
ISO-25
100
AcDbAlignedDimension
 13
2009.0076841562
 23
805.0520497555999
 33
0.0
 14
324.6076841561401
 24
805.0520497555999
 34
0.0
100
AcDbRotatedDimension
1001
ACAD
1000
DSTYLE
1002
{
1070
   270
1070
     2
1070
     6
1000
EX_BNORM
1070
     7
1000
EX_BNORM
1070
    41
1040
25.0
1070
    42
1040
15.0
1070
    44
1040
15.0
1070
    73
1070
     0
1070
    74
1070
     0
1070
    75
1070
     0
1070
    76
1070
     0
1070
    77
1070
     1
1070
    78
1070
     0
1070
   140
1040
31.181104
1070
   147
1040
0.0
1070
   173
1070
     1
1070
   176
1070
     4
1070
   177
1070
     4
1070
   178
1070
     7
1070
   271
1070
     0
1070
   277
1070
     2
1070
   279
1070
     2
1070
   280
1070
     0
1070
   287
1070
     5
1070
   340
1005
636
1002
}
  0
DIMENSION
  5
6AD
330
1F
100
AcDbEntity
  8
LAY-20
  6
CONTINUOUS
 62
     4
100
AcDbDimension
  2
*D24
 10
1337.0
 20
858.7520497555802
 30
0.0
 11
1312.0
 21
923.7520497555797
 31
0.0
 70
   160
  3
ISO-25
100
AcDbAlignedDimension
 13
1337.0
 23
854.2520497555797
 33
0.0
 14
1337.0
 24
858.7520497555802
 34
0.0
 50
90.0
100
AcDbRotatedDimension
1001
ACAD
1000
DSTYLE
1002
{
1070
   270
1070
     2
1070
     6
1000
EX_BNORM
1070
     7
1000
EX_BNORM
1070
    41
1040
25.0
1070
    42
1040
0.0
1070
    44
1040
0.0
1070
    73
1070
     0
1070
    74
1070
     0
1070
    75
1070
     1
1070
    76
1070
     1
1070
    77
1070
     1
1070
    78
1070
     8
1070
   140
1040
31.181104
1070
   147
1040
0.0
1070
   173
1070
     1
1070
   176
1070
     4
1070
   177
1070
     4
1070
   178
1070
     7
1070
   271
1070
     1
1070
   277
1070
     2
1070
   279
1070
     2
1070
   280
1070
     2
1070
   287
1070
     5
1070
   340
1005
636
1002
}
  0
LINE
  5
6BA
330
1F
100
AcDbEntity
  8
LAY-255
  6
CONTINUOUS
 62
     7
100
AcDbLine
 10
3850.0
 20
220.0
 30
0.0
 11
2850.0
 21
220.0
 31
0.0
  0
LINE
  5
6BB
330
1F
100
AcDbEntity
  8
LAY-255
  6
CONTINUOUS
 62
     7
100
AcDbLine
 10
2888.0
 20
160.0
 30
0.0
 11
2968.0
 21
210.0
 31
0.0
  0
LINE
  5
6BC
330
1F
100
AcDbEntity
  8
LAY-255
  6
CONTINUOUS
 62
     7
100
AcDbLine
 10
2968.0
 20
210.0
 30
0.0
 11
3048.0
 21
160.0
 31
0.0
  0
LINE
  5
6BD
330
1F
100
AcDbEntity
  8
LAY-255
  6
CONTINUOUS
 62
     7
100
AcDbLine
 10
3048.0
 20
160.0
 30
0.0
 11
2968.0
 21
110.0
 31
0.0
  0
LINE
  5
6BE
330
1F
100
AcDbEntity
  8
LAY-255
  6
CONTINUOUS
 62
     7
100
AcDbLine
 10
2968.0
 20
110.0
 30
0.0
 11
2888.0
 21
160.0
 31
0.0
  0
LINE
  5
6BF
330
1F
100
AcDbEntity
  8
LAY-255
  6
CONTINUOUS
 62
     7
100
AcDbLine
 10
49.99999999999999
 20
100.0
 30
0.0
 11
3850.0
 21
100.0
 31
0.0
  0
LINE
  5
6C0
330
1F
100
AcDbEntity
  8
LAY-255
  6
CONTINUOUS
 62
     7
100
AcDbLine
 10
49.99999999999999
 20
2800.0
 30
0.0
 11
3850.0
 21
2800.0
 31
0.0
  0
LINE
  5
6C1
330
1F
100
AcDbEntity
  8
LAY-255
  6
CONTINUOUS
 62
     7
100
AcDbLine
 10
49.99999999999999
 20
100.0
 30
0.0
 11
49.99999999999999
 21
2800.0
 31
0.0
  0
LINE
  5
6C2
330
1F
100
AcDbEntity
  8
LAY-255
  6
CONTINUOUS
 62
     7
100
AcDbLine
 10
3850.0
 20
100.0
 30
0.0
 11
3850.0
 21
2800.0
 31
0.0
  0
LINE
  5
6C3
330
1F
100
AcDbEntity
  8
LAY-255
  6
CONTINUOUS
 62
     4
100
AcDbLine
 10
2850.0
 20
280.0
 30
0.0
 11
3850.0
 21
280.0
 31
0.0
  0
LINE
  5
6C4
330
1F
100
AcDbEntity
  8
LAY-255
  6
CONTINUOUS
 62
     7
100
AcDbLine
 10
2850.0
 20
100.0
 30
0.0
 11
2850.0
 21
670.0
 31
0.0
  0
POINT
  5
6C5
330
1F
100
AcDbEntity
  8
LAY-255
  6
CONTINUOUS
 62
     7
100
AcDbPoint
 10
2890.0
 20
400.0
 30
0.0
  0
LINE
  5
6C6
330
1F
100
AcDbEntity
  8
LAY-255
  6
CONTINUOUS
 62
     4
100
AcDbLine
 10
3350.0
 20
280.0
 30
0.0
 11
3350.0
 21
220.0
 31
0.0
  0
LINE
  5
6C7
330
1F
100
AcDbEntity
  8
LAY-255
  6
CONTINUOUS
 62
     7
100
AcDbLine
 10
3850.0
 20
670.0
 30
0.0
 11
2850.0
 21
670.0
 31
0.0
  0
LINE
  5
6C8
330
1F
100
AcDbEntity
  8
LAY-255
  6
CONTINUOUS
 62
     4
100
AcDbLine
 10
3830.0
 20
550.0
 30
0.0
 11
2870.0
 21
550.0
 31
0.0
  0
LINE
  5
6C9
330
1F
100
AcDbEntity
  8
LAY-255
  6
CONTINUOUS
 62
     4
100
AcDbLine
 10
3830.0
 20
610.0
 30
0.0
 11
2870.0
 21
610.0
 31
0.0
  0
POINT
  5
6CA
330
1F
100
AcDbEntity
  8
LAY-255
  6
CONTINUOUS
 62
     7
100
AcDbPoint
 10
2890.0
 20
500.0
 30
0.0
  0
POINT
  5
6CB
330
1F
100
AcDbEntity
  8
LAY-255
  6
CONTINUOUS
 62
     7
100
AcDbPoint
 10
3000.0
 20
560.0
 30
0.0
  0
POINT
  5
6CC
330
1F
100
AcDbEntity
  8
LAY-255
  6
CONTINUOUS
 62
     7
100
AcDbPoint
 10
3000.0
 20
620.0
 30
0.0
  0
POINT
  5
6CD
330
1F
100
AcDbEntity
  8
LAY-255
  6
CONTINUOUS
 62
     7
100
AcDbPoint
 10
2890.0
 20
350.0
 30
0.0
  0
POINT
  5
6CE
330
1F
100
AcDbEntity
  8
LAY-255
  6
CONTINUOUS
 62
     7
100
AcDbPoint
 10
2890.0
 20
450.0
 30
0.0
  0
POINT
  5
6CF
330
1F
100
AcDbEntity
  8
LAY-255
  6
CONTINUOUS
 62
     7
100
AcDbPoint
 10
2890.0
 20
300.0
 30
0.0
  0
TEXT
  5
6D0
330
1F
100
AcDbEntity
  8
LAY-255
  6
CONTINUOUS
 62
     7
100
AcDbText
 10
3081.3837890625
 20
155.4374999999999
 30
0.0
 40
51.5625
  1
福西鋳物株式会社
 41
1.342691999659091
  7
EXCADSTD
100
AcDbText
  0
TEXT
  5
6D1
330
1F
100
AcDbEntity
  8
LAY-255
  6
CONTINUOUS
 62
     7
100
AcDbText
 10
3085.09375
 20
119.8124999999999
 30
0.0
 40
17.1875
  1
ＦＵＫＵＮＩＳＨＩ
 41
1.204799226045263
  7
EXCADSTD
100
AcDbText
  0
TEXT
  5
6D2
330
1F
100
AcDbEntity
  8
LAY-255
  6
CONTINUOUS
 62
     7
100
AcDbText
 10
3327.191964285714
 20
119.8124999999999
 30
0.0
 40
17.1875
  1
ＦＯＵＮＤＲＹ
 41
1.243252752978497
  7
EXCADSTD
100
AcDbText
  0
TEXT
  5
6D3
330
1F
100
AcDbEntity
  8
LAY-255
  6
CONTINUOUS
 62
     7
100
AcDbText
 10
3519.945914381009
 20
119.8124999999999
 30
0.0
 40
17.1875
  1
ＣＯ.,ＬＴＤ.
 41
1.243831036226633
  7
EXCADSTD
100
AcDbText
  0
TEXT
  5
6D4
330
1F
100
AcDbEntity
  8
LAY-255
  6
CONTINUOUS
 62
     7
100
AcDbText
 10
2940.34375
 20
137.1875
 30
0.0
 40
51.5625
  1
S
 41
0.7582677563636363
  7
EXCADSTD
100
AcDbText
  0
TEXT
  5
6D5
330
1F
100
AcDbEntity
  8
LAY-255
  6
CONTINUOUS
 62
     7
100
AcDbText
 10
2971.046875
 20
137.4941037735999
 30
0.0
 40
51.5625
  1
F
 41
0.7440945272727272
  7
EXCADSTD
100
AcDbText
  0
TEXT
  5
6D6
330
1F
100
AcDbEntity
  8
LAY-255
  6
CONTINUOUS
 62
     7
100
AcDbText
 10
3371.0546875
 20
244.21875
 30
0.0
 40
25.78125
  1
縮尺
 41
1.080708718181818
  7
EXCADSTD
100
AcDbText
  0
TEXT
  5
6D7
330
1F
100
AcDbEntity
  8
LAY-255
  6
CONTINUOUS
 62
     7
100
AcDbText
 10
2872.65625
 20
565.625
 30
0.0
 40
34.375
  1
型式
 41
1.056348480681818
  7
EXCADSTD
100
AcDbText
  0
TEXT
  5
6D8
330
1F
100
AcDbEntity
  8
LAY-255
  6
CONTINUOUS
 62
     7
100
AcDbText
 10
2874.21875
 20
625.625
 30
0.0
 40
34.375
  1
品名
 41
0.9788386340909091
  7
EXCADSTD
100
AcDbText
  0
TEXT
  5
6D9
330
1F
100
AcDbEntity
  8
LAY-255
  6
CONTINUOUS
 62
     7
100
AcDbText
 10
2871.5234375
 20
244.21875
 30
0.0
 40
25.78125
  1
作成日
 41
1.000629973818182
  7
EXCADSTD
100
AcDbText
  0
TEXT
  5
6DA
330
1F
100
AcDbEntity
  8
LAY-255
  6
CONTINUOUS
 62
     7
100
AcDbText
 10
2891.40625
 20
505.625
 30
0.0
 40
34.375
  1
材質：スチール
 41
1.029301719225037
  7
EXCADSTD
100
AcDbText
  0
TEXT
  5
6DB
330
1F
100
AcDbEntity
  8
LAY-255
  6
CONTINUOUS
 62
     7
100
AcDbText
 10
3482.8125
 20
235.625
 30
0.0
 40
34.375
  1
１：１０
 41
0.9243863385026738
  7
EXCADSTD
100
AcDbText
  0
TEXT
  5
6DC
330
1F
100
AcDbEntity
  8
LAY-255
  6
CONTINUOUS
 62
     7
100
AcDbText
 10
3009.84375
 20
235.625
 30
0.0
 40
34.375
  1
２０／０８／０３
 41
0.9733971264935065
  7
EXCADSTD
100
AcDbText
  0
TEXT
  5
6DD
330
1F
100
AcDbEntity
  8
LAY-255
  6
CONTINUOUS
 62
     7
100
AcDbText
 10
3001.5625
 20
625.625
 30
0.0
 40
34.375
  1
縞鋼板製マシンハッチ
 41
1.016284949586777
  7
EXCADSTD
100
AcDbText
  0
TEXT
  5
6DE
330
1F
100
AcDbEntity
  8
LAY-255
  6
CONTINUOUS
 62
     7
100
AcDbText
 10
2893.75
 20
455.625
 30
0.0
 40
34.375
  1
受枠目地：ステンレス鋼
 41
1.012216953889409
  7
EXCADSTD
100
AcDbText
  0
TEXT
  5
6DF
330
1F
100
AcDbEntity
  8
LAY-255
  6
CONTINUOUS
 62
     7
100
AcDbText
 10
3007.5
 20
565.625
 30
0.0
 40
34.375
  1
ＳＦ－９０×１５０ＣＭ－２Ｆ型
 41
1.005180326315789
  7
EXCADSTD
100
AcDbText
  0
TEXT
  5
6E0
330
1F
100
AcDbEntity
  8
LAY-255
  6
CONTINUOUS
 62
     7
100
AcDbText
 10
2892.65625
 20
355.625
 30
0.0
 40
34.375
  1
耐火材中蓋付き
 41
1.014779968107303
  7
EXCADSTD
100
AcDbText
  0
TEXT
  5
6E1
330
1F
100
AcDbEntity
  8
LAY-255
  6
CONTINUOUS
 62
     7
100
AcDbText
 10
2892.03125
 20
405.625
 30
0.0
 40
34.375
  1
適用荷重：Ｔ－２
 41
1.000225024415584
  7
EXCADSTD
100
AcDbText
  0
ENDSEC
  0
SECTION
  2
OBJECTS
  0
DICTIONARY
  5
C
330
0
100
AcDbDictionary
  3
ACAD_GROUP
350
D
  3
ACAD_LAYOUT
350
1A
  3
ACAD_MATERIAL
350
43
  3
ACAD_MLEADERSTYLE
350
6B
  3
ACAD_MLINESTYLE
350
17
  3
ACAD_PLOTSETTINGS
350
19
  3
ACAD_SCALELIST
350
47
  3
ACAD_VISUALSTYLE
350
2A
  3
ACDBHEADERROUNDTRIPXREC
350
6E2
  3
ACDBVARIABLEDICTIONARY
350
703
  0
DICTIONARY
  5
70E
330
8
100
AcDbDictionary
280
     1
  3
ACAD_XREC_ROUNDTRIP
360
70F
  0
DICTIONARY
  5
D
102
{ACAD_REACTORS
330
C
102
}
330
C
100
AcDbDictionary
  0
DICTIONARY
  5
1A
102
{ACAD_REACTORS
330
C
102
}
330
C
100
AcDbDictionary
  0
DICTIONARY
  5
43
102
{ACAD_REACTORS
330
C
102
}
330
C
100
AcDbDictionary
  3
BYBLOCK
350
45
  3
BYLAYER
350
44
  3
GLOBAL
350
46
  0
DICTIONARY
  5
6B
102
{ACAD_REACTORS
330
C
102
}
330
C
100
AcDbDictionary
  3
STANDARD
350
6C
  0
DICTIONARY
  5
17
102
{ACAD_REACTORS
330
C
102
}
330
C
100
AcDbDictionary
  3
STANDARD
350
18
  0
DICTIONARY
  5
19
102
{ACAD_REACTORS
330
C
102
}
330
C
100
AcDbDictionary
  0
DICTIONARY
  5
47
102
{ACAD_REACTORS
330
C
102
}
330
C
100
AcDbDictionary
  3
A0
350
48
  3
A1
350
49
  3
A2
350
4A
  3
A3
350
4B
  3
A4
350
4C
  3
A5
350
4D
  3
A6
350
4E
  3
A7
350
4F
  3
A8
350
50
  3
A9
350
51
  3
B0
350
52
  3
B1
350
53
  3
B2
350
54
  3
B3
350
55
  3
B4
350
56
  3
B5
350
57
  3
B6
350
58
  3
B7
350
59
  3
B8
350
5A
  3
B9
350
5B
  3
C0
350
5C
  3
C1
350
5D
  3
C2
350
5E
  3
C3
350
5F
  3
C4
350
60
  3
C5
350
61
  3
C6
350
62
  3
C7
350
63
  3
C8
350
64
  3
C9
350
65
  3
D0
350
66
  3
D1
350
67
  3
D2
350
68
  0
DICTIONARY
  5
2A
102
{ACAD_REACTORS
330
C
102
}
330
C
100
AcDbDictionary
  3
2DWIREFRAME
350
2F
  3
BASIC
350
32
  3
BRIGHTEN
350
36
  3
COLORCHANGE
350
3A
  3
CONCEPTUAL
350
34
  3
DIM
350
35
  3
EDGECOLOROFF
350
3D
  3
FACEPATTERN
350
39
  3
FLAT
350
2B
  3
FLATWITHEDGES
350
2C
  3
GOURAUD
350
2D
  3
GOURAUDWITHEDGES
350
2E
  3
HIDDEN
350
31
  3
JITTEROFF
350
3B
  3
LINEPATTERN
350
38
  3
OVERHANGOFF
350
3C
  3
REALISTIC
350
33
  3
SHADED
350
42
  3
SHADED_WITH_EDGES
350
41
  3
SHADES_OF_GRAY
350
3E
  3
SKETCHY
350
3F
  3
THICKEN
350
37
  3
WIREFRAME
350
30
  3
X-RAY
350
40
  0
DICTIONARY
  5
6E2
102
{ACAD_REACTORS
330
C
102
}
330
C
100
AcDbDictionary
  3
CEPSNID
350
6EC
  3
CEPSNTYPE
350
6EB
  3
DIMSTYLEDATA
350
702
  3
FINGERPRINTGUID
350
6ED
  3
HYPERLINKBASE
350
6E5
  3
INSUNITS
350
6EA
  3
LAYOUTDICT
350
6E7
  3
LWETCUNION
350
6E9
  3
PLOTSETDICT
350
6E8
  3
PSVPSCALE
350
6EF
  3
PUCSBASE
350
6F2
  3
PUCSORGBACK
350
6F8
  3
PUCSORGBOTTOM
350
6F4
  3
PUCSORGFRONT
350
6F7
  3
PUCSORGLEFT
350
6F5
  3
PUCSORGRIGHT
350
6F6
  3
PUCSORGTOP
350
6F3
  3
PUCSORTHOREF
350
6F0
  3
PUCSORTHOVIEW
350
6F1
  3
STYLESHEET
350
6E6
  3
TSTACKALIGN
350
6E3
  3
TSTACKSIZE
350
6E4
  3
UCSBASE
350
6FB
  3
UCSORGBACK
350
701
  3
UCSORGBOTTOM
350
6FD
  3
UCSORGFRONT
350
700
  3
UCSORGLEFT
350
6FE
  3
UCSORGRIGHT
350
6FF
  3
UCSORGTOP
350
6FC
  3
UCSORTHOREF
350
6F9
  3
UCSORTHOVIEW
350
6FA
  3
VERSIONGUID
350
6EE
  0
DICTIONARY
  5
703
102
{ACAD_REACTORS
330
C
102
}
330
C
100
AcDbDictionary
  3
CANNOSCALE
350
710
  3
CENTEREXE
350
70A
  3
CENTERLTYPEFILE
350
70B
  3
CMLEADERSTYLE
350
705
  3
CTABLESTYLE
350
704
  3
DIMASSOC
350
70C
  3
HIDETEXT
350
70D
  3
MSLTSCALE
350
711
  3
PSOLHEIGHT
350
707
  3
PSOLWIDTH
350
706
  0
XRECORD
  5
70F
102
{ACAD_REACTORS
330
70E
102
}
330
70E
100
AcDbXrecord
102
VTR_0.000_0.000_1.000_1.000_VISUALSTYLE
340
2F
102
VTR_0.000_0.000_1.000_1.000_GRIDDISPLAY
 70
     3
102
VTR_0.000_0.000_1.000_1.000_GRIDMAJOR
 70
     5
102
VTR_0.000_0.000_1.000_1.000_DEFAULTLIGHTING
280
     1
102
VTR_0.000_0.000_1.000_1.000_DEFAULTLIGHTINGTYPE
 70
     1
102
VTR_0.000_0.000_1.000_1.000_BRIGHTNESS
141
0.0
102
VTR_0.000_0.000_1.000_1.000_CONTRAST
142
0.0
  0
MATERIAL
  5
45
102
{ACAD_REACTORS
330
43
102
}
102
{ACAD_XDICTIONARY
360
714
102
}
330
43
100
AcDbMaterial
  1
BYBLOCK
  0
MATERIAL
  5
44
102
{ACAD_REACTORS
330
43
102
}
102
{ACAD_XDICTIONARY
360
712
102
}
330
43
100
AcDbMaterial
  1
BYLAYER
  0
MATERIAL
  5
46
102
{ACAD_REACTORS
330
43
102
}
102
{ACAD_XDICTIONARY
360
716
102
}
330
43
100
AcDbMaterial
  1
GLOBAL
  0
ACAD_PROXY_OBJECT
  5
6C
102
{ACAD_REACTORS
330
6B
102
}
330
6B
100
AcDbProxyObject
 90
      499
 91
      505
 93
      610
310
40901902A4063FBFFFFFE0000000000000020400000000000020404214DD185B99185C990000000000000104090141901A00000000000004100000000000000041025764000000000000039000
340
14
340
0
340
11
340
0
 94
        0
1001
ACAD_MLEADERVER
1070
     2
  0
MLINESTYLE
  5
18
102
{ACAD_REACTORS
330
17
102
}
330
17
100
AcDbMlineStyle
  2
Standard
 70
     0
  3

 62
   256
 51
90.0
 52
90.0
 71
     2
 49
0.5
 62
   256
  6
BYLAYER
 49
-0.5
 62
   256
  6
BYLAYER
  0
ACAD_PROXY_OBJECT
  5
48
102
{ACAD_REACTORS
330
47
102
}
330
47
100
AcDbProxyObject
 90
      499
 91
      503
 93
       41
310
903313A31580
  0
ACAD_PROXY_OBJECT
  5
49
102
{ACAD_REACTORS
330
47
102
}
330
47
100
AcDbProxyObject
 90
      499
 91
      503
 93
      105
310
903313A324000000000000004000
  0
ACAD_PROXY_OBJECT
  5
4A
102
{ACAD_REACTORS
330
47
102
}
330
47
100
AcDbProxyObject
 90
      499
 91
      503
 93
      105
310
903313A344000000000000104000
  0
ACAD_PROXY_OBJECT
  5
4B
102
{ACAD_REACTORS
330
47
102
}
330
47
100
AcDbProxyObject
 90
      499
 91
      503
 93
      105
310
903313A354000000000000144000
  0
ACAD_PROXY_OBJECT
  5
4C
102
{ACAD_REACTORS
330
47
102
}
330
47
100
AcDbProxyObject
 90
      499
 91
      503
 93
      105
310
903313A384000000000000204000
  0
ACAD_PROXY_OBJECT
  5
4D
102
{ACAD_REACTORS
330
47
102
}
330
47
100
AcDbProxyObject
 90
      499
 91
      503
 93
      113
310
904313A31304000000000000244000
  0
ACAD_PROXY_OBJECT
  5
4E
102
{ACAD_REACTORS
330
47
102
}
330
47
100
AcDbProxyObject
 90
      499
 91
      503
 93
      113
310
904313A31364000000000000304000
  0
ACAD_PROXY_OBJECT
  5
4F
102
{ACAD_REACTORS
330
47
102
}
330
47
100
AcDbProxyObject
 90
      499
 91
      503
 93
      113
310
904313A32304000000000000344000
  0
ACAD_PROXY_OBJECT
  5
50
102
{ACAD_REACTORS
330
47
102
}
330
47
100
AcDbProxyObject
 90
      499
 91
      503
 93
      113
310
904313A333040000000000003E4000
  0
ACAD_PROXY_OBJECT
  5
51
102
{ACAD_REACTORS
330
47
102
}
330
47
100
AcDbProxyObject
 90
      499
 91
      503
 93
      113
310
904313A34304000000000000444000
  0
ACAD_PROXY_OBJECT
  5
52
102
{ACAD_REACTORS
330
47
102
}
330
47
100
AcDbProxyObject
 90
      499
 91
      503
 93
      113
310
904313A35304000000000000494000
  0
ACAD_PROXY_OBJECT
  5
53
102
{ACAD_REACTORS
330
47
102
}
330
47
100
AcDbProxyObject
 90
      499
 91
      503
 93
      121
310
905313A3130304000000000000594000
  0
ACAD_PROXY_OBJECT
  5
54
102
{ACAD_REACTORS
330
47
102
}
330
47
100
AcDbProxyObject
 90
      499
 91
      503
 93
      105
310
903323A310000000000000010100
  0
ACAD_PROXY_OBJECT
  5
55
102
{ACAD_REACTORS
330
47
102
}
330
47
100
AcDbProxyObject
 90
      499
 91
      503
 93
      105
310
903343A310000000000000410100
  0
ACAD_PROXY_OBJECT
  5
56
102
{ACAD_REACTORS
330
47
102
}
330
47
100
AcDbProxyObject
 90
      499
 91
      503
 93
      105
310
903383A310000000000000810100
  0
ACAD_PROXY_OBJECT
  5
57
102
{ACAD_REACTORS
330
47
102
}
330
47
100
AcDbProxyObject
 90
      499
 91
      503
 93
      113
310
90431303A310000000000000910100
  0
ACAD_PROXY_OBJECT
  5
58
102
{ACAD_REACTORS
330
47
102
}
330
47
100
AcDbProxyObject
 90
      499
 91
      503
 93
      121
310
9053130303A310000000000001650100
  0
ACAD_PROXY_OBJECT
  5
59
102
{ACAD_REACTORS
330
47
102
}
330
47
100
AcDbProxyObject
 90
      499
 91
      503
 93
      257
310
90E312F31323822203D2031272D3022000000000000200FC000000000000284000
  0
ACAD_PROXY_OBJECT
  5
5A
102
{ACAD_REACTORS
330
47
102
}
330
47
100
AcDbProxyObject
 90
      499
 91
      503
 93
      249
310
90D312F363422203D2031272D3022000000000000240FC000000000000284000
  0
ACAD_PROXY_OBJECT
  5
5B
102
{ACAD_REACTORS
330
47
102
}
330
47
100
AcDbProxyObject
 90
      499
 91
      503
 93
      249
310
90D312F333222203D2031272D3022000000000000280FC000000000000284000
  0
ACAD_PROXY_OBJECT
  5
5C
102
{ACAD_REACTORS
330
47
102
}
330
47
100
AcDbProxyObject
 90
      499
 91
      503
 93
      249
310
90D312F313622203D2031272D30220000000000002C0FC000000000000284000
  0
ACAD_PROXY_OBJECT
  5
5D
102
{ACAD_REACTORS
330
47
102
}
330
47
100
AcDbProxyObject
 90
      499
 91
      503
 93
      249
310
90D332F333222203D2031272D30220000000000002E0FC000000000000284000
  0
ACAD_PROXY_OBJECT
  5
5E
102
{ACAD_REACTORS
330
47
102
}
330
47
100
AcDbProxyObject
 90
      499
 91
      503
 93
      241
310
90C312F3822203D2031272D3022000000000000300FC000000000000284000
  0
ACAD_PROXY_OBJECT
  5
5F
102
{ACAD_REACTORS
330
47
102
}
330
47
100
AcDbProxyObject
 90
      499
 91
      503
 93
      249
310
90D332F313622203D2031272D3022000000000000320FC000000000000284000
  0
ACAD_PROXY_OBJECT
  5
60
102
{ACAD_REACTORS
330
47
102
}
330
47
100
AcDbProxyObject
 90
      499
 91
      503
 93
      241
310
90C312F3422203D2031272D3022000000000000340FC000000000000284000
  0
ACAD_PROXY_OBJECT
  5
61
102
{ACAD_REACTORS
330
47
102
}
330
47
100
AcDbProxyObject
 90
      499
 91
      503
 93
      241
310
90C332F3822203D2031272D3022000000000000360FC000000000000284000
  0
ACAD_PROXY_OBJECT
  5
62
102
{ACAD_REACTORS
330
47
102
}
330
47
100
AcDbProxyObject
 90
      499
 91
      503
 93
      241
310
90C312F3222203D2031272D3022000000000000380FC000000000000284000
  0
ACAD_PROXY_OBJECT
  5
63
102
{ACAD_REACTORS
330
47
102
}
330
47
100
AcDbProxyObject
 90
      499
 91
      503
 93
      241
310
90C332F3422203D2031272D30220000000000003A0FC000000000000284000
  0
ACAD_PROXY_OBJECT
  5
64
102
{ACAD_REACTORS
330
47
102
}
330
47
100
AcDbProxyObject
 90
      499
 91
      503
 93
      161
310
90A3122203D2031272D30224000000000000284000
  0
ACAD_PROXY_OBJECT
  5
65
102
{ACAD_REACTORS
330
47
102
}
330
47
100
AcDbProxyObject
 90
      499
 91
      503
 93
      257
310
90E312D312F3222203D2031272D30220000000000003E0FC000000000000284000
  0
ACAD_PROXY_OBJECT
  5
66
102
{ACAD_REACTORS
330
47
102
}
330
47
100
AcDbProxyObject
 90
      499
 91
      503
 93
      225
310
90A3322203D2031272D302200000000000002100000000000000284000
  0
ACAD_PROXY_OBJECT
  5
67
102
{ACAD_REACTORS
330
47
102
}
330
47
100
AcDbProxyObject
 90
      499
 91
      503
 93
      225
310
90A3622203D2031272D302200000000000006100000000000000284000
  0
ACAD_PROXY_OBJECT
  5
68
102
{ACAD_REACTORS
330
47
102
}
330
47
100
AcDbProxyObject
 90
      499
 91
      503
 93
      249
310
90D31272D3022203D2031272D30220000000000000A100000000000000284000
  0
ACAD_PROXY_OBJECT
  5
2F
102
{ACAD_REACTORS
330
2A
102
}
330
2A
100
AcDbProxyObject
 90
      499
 91
      501
 93
      436
310
42CC9915DA5C99599C985B595049028333333333333E33F0000000000000F90107901411070040501600405405064090741402480A0340
1001
ACAD
1000
AcDbSavedByObjectVersion
1070
     0
  0
ACAD_PROXY_OBJECT
  5
32
102
{ACAD_REACTORS
330
2A
102
}
330
2A
100
AcDbProxyObject
 90
      499
 91
      501
 93
      388
310
4150985CDA58D07406404333333333333E33F0000000000000F90107A41107004050150841D405064090741402480A0350
1001
ACAD
1000
AcDbSavedByObjectVersion
1070
     0
  0
ACAD_PROXY_OBJECT
  5
36
102
{ACAD_REACTORS
330
2A
102
}
330
2A
100
AcDbProxyObject
 90
      499
 91
      501
 93
      428
310
42109C9A59DA1D195B90C409028333333333333E33F0000000000000F9010790141107004050150841D405064090741402480A029950
1001
ACAD
1000
AcDbSavedByObjectVersion
1070
     0
  0
ACAD_PROXY_OBJECT
  5
3A
102
{ACAD_REACTORS
330
2A
102
}
330
2A
100
AcDbProxyObject
 90
      499
 91
      501
 93
      452
310
42D0DBDB1BDC90DA185B99D95104090240C333333333333E33F0000000000000F90108901411070040501508421405064090741402480A0350
1001
ACAD
1000
AcDbSavedByObjectVersion
1070
     0
  0
ACAD_PROXY_OBJECT
  5
34
102
{ACAD_REACTORS
330
2A
102
}
330
2A
100
AcDbProxyObject
 90
      499
 91
      501
 93
      500
310
4290DBDB98D95C1D1D585B10940D028333333333333E33F0000000000000F90107902409070040501000000000018199010841D405064090740C02480A0340
1001
ACAD
1000
AcDbSavedByObjectVersion
1070
     0
  0
ACAD_PROXY_OBJECT
  5
35
102
{ACAD_REACTORS
330
2A
102
}
330
2A
100
AcDbProxyObject
 90
      499
 91
      501
 93
      412
310
40D11A5B50B409028333333333333E33F0000000000000F9010790141107004050150841D405064090741402480A02677FFFFFD0
1001
ACAD
1000
AcDbSavedByObjectVersion
1070
     0
  0
ACAD_PROXY_OBJECT
  5
3D
102
{ACAD_REACTORS
330
2A
102
}
330
2A
100
AcDbProxyObject
 90
      499
 91
      501
 93
      452
310
43115919D950DBDB1BDC93D999916409028333333333333E33F0000000000000F9010790141107004050150841D405064090741402480A0350
1001
ACAD
1000
AcDbSavedByObjectVersion
1070
     0
  0
ACAD_PROXY_OBJECT
  5
39
102
{ACAD_REACTORS
330
2A
102
}
330
2A
100
AcDbProxyObject
 90
      499
 91
      501
 93
      444
310
42D19858D95C185D1D195C9B90F409028333333333333E33F0000000000000F9010790141107004050150841D405064090741402480A0350
1001
ACAD
1000
AcDbSavedByObjectVersion
1070
     0
  0
ACAD_PROXY_OBJECT
  5
2B
102
{ACAD_REACTORS
330
2A
102
}
330
2A
100
AcDbProxyObject
 90
      499
 91
      501
 93
      380
310
41119B185D240901404333333333333E33F0000000000000F9010740A907004050150841D405064090741402480A1B50
1001
ACAD
1000
AcDbSavedByObjectVersion
1070
     0
  0
ACAD_PROXY_OBJECT
  5
2C
102
{ACAD_REACTORS
330
2A
102
}
330
2A
100
AcDbProxyObject
 90
      499
 91
      501
 93
      468
310
43519B185D15DA5D1A115919D95CD0140901404333333333333E33F0000000000000F90107409019070040501600405405064090741402480A1B50
1001
ACAD
1000
AcDbSavedByObjectVersion
1070
     0
  0
ACAD_PROXY_OBJECT
  5
2D
102
{ACAD_REACTORS
330
2A
102
}
330
2A
100
AcDbProxyObject
 90
      499
 91
      501
 93
      404
310
41D1DBDD5C985D5910240902404333333333333E33F0000000000000F9010740A9070040501641D405064090741402480A1B50
1001
ACAD
1000
AcDbSavedByObjectVersion
1070
     0
  0
ACAD_PROXY_OBJECT
  5
2E
102
{ACAD_REACTORS
330
2A
102
}
330
2A
100
AcDbProxyObject
 90
      499
 91
      501
 93
      492
310
4411DBDD5C985D5915DA5D1A115919D95CD0340902404333333333333E33F0000000000000F90107409019070040501600405405064090741402480A1B50
1001
ACAD
1000
AcDbSavedByObjectVersion
1070
     0
  0
ACAD_PROXY_OBJECT
  5
31
102
{ACAD_REACTORS
330
2A
102
}
330
2A
100
AcDbProxyObject
 90
      499
 91
      501
 93
      476
310
41921A5919195B90640502408333333333333E33F0000000000000F901079024090700405020000000000001110200405405064090740C02480A0340
1001
ACAD
1000
AcDbSavedByObjectVersion
1070
     0
  0
ACAD_PROXY_OBJECT
  5
3B
102
{ACAD_REACTORS
330
2A
102
}
330
2A
100
AcDbProxyObject
 90
      499
 91
      501
 93
      428
310
42529A5D1D195C93D999914409028333333333333E33F0000000000000F9010790141107004050150A41D405064090741402480A0350
1001
ACAD
1000
AcDbSavedByObjectVersion
1070
     0
  0
ACAD_PROXY_OBJECT
  5
38
102
{ACAD_REACTORS
330
2A
102
}
330
2A
100
AcDbProxyObject
 90
      499
 91
      501
 93
      444
310
42D31A5B995C185D1D195C9B90E409028333333333333E33F0000000000000F9010790141107004050750841D405064090741402483A0350
1001
ACAD
1000
AcDbSavedByObjectVersion
1070
     0
  0
ACAD_PROXY_OBJECT
  5
3C
102
{ACAD_REACTORS
330
2A
102
}
330
2A
100
AcDbProxyObject
 90
      499
 91
      501
 93
      444
310
42D3DD995C9A185B99D3D999915409028333333333333E33F0000000000000F9010790141107004050150941D405064090741402480A0350
1001
ACAD
1000
AcDbSavedByObjectVersion
1070
     0
  0
ACAD_PROXY_OBJECT
  5
33
102
{ACAD_REACTORS
330
2A
102
}
330
2A
100
AcDbProxyObject
 90
      499
 91
      501
 93
      428
310
425499585B1A5CDD1A58D08409038333333333333E33F0000000000000F9010740A907004050150800405405064090740C02480A1B40
1001
ACAD
1000
AcDbSavedByObjectVersion
1070
     0
  0
ACAD_PROXY_OBJECT
  5
42
102
{ACAD_REACTORS
330
2A
102
}
330
2A
100
AcDbProxyObject
 90
      499
 91
      501
 93
      420
310
4194DA1859195911B40902404333333333333E33F0000000000000F9010740A41107004050150800405405064090840C02480A0B40
1001
ACAD
1000
AcDbSavedByObjectVersion
1070
     0
  0
ACAD_PROXY_OBJECT
  5
41
102
{ACAD_REACTORS
330
2A
102
}
330
2A
100
AcDbProxyObject
 90
      499
 91
      501
 93
      516
310
4454DA18591959081DDA5D1A08195919D95CD1A40902404333333333333E33F0000000000000F901074090142907004050250800405405064090740C02480A0B40
1001
ACAD
1000
AcDbSavedByObjectVersion
1070
     0
  0
ACAD_PROXY_OBJECT
  5
3E
102
{ACAD_REACTORS
330
2A
102
}
330
2A
100
AcDbProxyObject
 90
      499
 91
      501
 93
      532
310
4394DA1859195CC81BD98811DC985E5174090240C333333333333E33F0000000000000F901079024090741D01000000000000111010841D405064090740C02480A0340
1001
ACAD
1000
AcDbSavedByObjectVersion
1070
     0
  0
ACAD_PROXY_OBJECT
  5
3F
102
{ACAD_REACTORS
330
2A
102
}
330
2A
100
AcDbProxyObject
 90
      499
 91
      501
 93
      476
310
41D4DAD95D18DA1E51840502408333333333333E33F0000000000000F901079024090741D01000000000000111010B41D405064090741802480A0340
1001
ACAD
1000
AcDbSavedByObjectVersion
1070
     0
  0
ACAD_PROXY_OBJECT
  5
37
102
{ACAD_REACTORS
330
2A
102
}
330
2A
100
AcDbProxyObject
 90
      499
 91
      501
 93
      412
310
41D51A1A58DAD95B90D409028333333333333E33F0000000000000F9010790141107004050150C41D405064090741402480A0350
1001
ACAD
1000
AcDbSavedByObjectVersion
1070
     0
  0
ACAD_PROXY_OBJECT
  5
30
102
{ACAD_REACTORS
330
2A
102
}
330
2A
100
AcDbProxyObject
 90
      499
 91
      501
 93
      420
310
4255DA5C99599C985B595059028333333333333E33F0000000000000F90107901411070040501600405405064090740C02480A0340
1001
ACAD
1000
AcDbSavedByObjectVersion
1070
     0
  0
ACAD_PROXY_OBJECT
  5
40
102
{ACAD_REACTORS
330
2A
102
}
330
2A
100
AcDbProxyObject
 90
      499
 91
      501
 93
      404
310
41560B54985E51940902404000000000000E03F0000000000000F9010740501907004050150841D405064090740C02480A1B40
1001
ACAD
1000
AcDbSavedByObjectVersion
1070
     0
  0
XRECORD
  5
6EC
102
{ACAD_REACTORS
330
6E2
102
}
330
6E2
100
AcDbXrecord
340
0
  0
XRECORD
  5
6EB
102
{ACAD_REACTORS
330
6E2
102
}
330
6E2
100
AcDbXrecord
 90
        0
  0
XRECORD
  5
702
102
{ACAD_REACTORS
330
6E2
102
}
330
6E2
100
AcDbXrecord
1000
DSTYLE
1002
{
1070
   340
340
11
1002
}
  0
XRECORD
  5
6ED
102
{ACAD_REACTORS
330
6E2
102
}
330
6E2
100
AcDbXrecord
  1
{5b158bff-4b17-4051-b944-0f3e7fb02483}
  0
XRECORD
  5
6E5
102
{ACAD_REACTORS
330
6E2
102
}
330
6E2
100
AcDbXrecord
  1

  0
XRECORD
  5
6EA
102
{ACAD_REACTORS
330
6E2
102
}
330
6E2
100
AcDbXrecord
 90
        4
  0
XRECORD
  5
6E7
102
{ACAD_REACTORS
330
6E2
102
}
330
6E2
100
AcDbXrecord
340
1A
  0
XRECORD
  5
6E9
102
{ACAD_REACTORS
330
6E2
102
}
330
6E2
100
AcDbXrecord
 90
    10781
  0
XRECORD
  5
6E8
102
{ACAD_REACTORS
330
6E2
102
}
330
6E2
100
AcDbXrecord
340
19
  0
XRECORD
  5
6EF
102
{ACAD_REACTORS
330
6E2
102
}
330
6E2
100
AcDbXrecord
 40
0.0
  0
XRECORD
  5
6F2
102
{ACAD_REACTORS
330
6E2
102
}
330
6E2
100
AcDbXrecord
340
0
  0
XRECORD
  5
6F8
102
{ACAD_REACTORS
330
6E2
102
}
330
6E2
100
AcDbXrecord
 10
0.0
 20
0.0
 30
0.0
  0
XRECORD
  5
6F4
102
{ACAD_REACTORS
330
6E2
102
}
330
6E2
100
AcDbXrecord
 10
0.0
 20
0.0
 30
0.0
  0
XRECORD
  5
6F7
102
{ACAD_REACTORS
330
6E2
102
}
330
6E2
100
AcDbXrecord
 10
0.0
 20
0.0
 30
0.0
  0
XRECORD
  5
6F5
102
{ACAD_REACTORS
330
6E2
102
}
330
6E2
100
AcDbXrecord
 10
0.0
 20
0.0
 30
0.0
  0
XRECORD
  5
6F6
102
{ACAD_REACTORS
330
6E2
102
}
330
6E2
100
AcDbXrecord
 10
0.0
 20
0.0
 30
0.0
  0
XRECORD
  5
6F3
102
{ACAD_REACTORS
330
6E2
102
}
330
6E2
100
AcDbXrecord
 10
0.0
 20
0.0
 30
0.0
  0
XRECORD
  5
6F0
102
{ACAD_REACTORS
330
6E2
102
}
330
6E2
100
AcDbXrecord
340
0
  0
XRECORD
  5
6F1
102
{ACAD_REACTORS
330
6E2
102
}
330
6E2
100
AcDbXrecord
 70
     0
  0
XRECORD
  5
6E6
102
{ACAD_REACTORS
330
6E2
102
}
330
6E2
100
AcDbXrecord
  1

  0
XRECORD
  5
6E3
102
{ACAD_REACTORS
330
6E2
102
}
330
6E2
100
AcDbXrecord
 90
        1
  0
XRECORD
  5
6E4
102
{ACAD_REACTORS
330
6E2
102
}
330
6E2
100
AcDbXrecord
 90
       70
  0
XRECORD
  5
6FB
102
{ACAD_REACTORS
330
6E2
102
}
330
6E2
100
AcDbXrecord
340
0
  0
XRECORD
  5
701
102
{ACAD_REACTORS
330
6E2
102
}
330
6E2
100
AcDbXrecord
 10
0.0
 20
0.0
 30
0.0
  0
XRECORD
  5
6FD
102
{ACAD_REACTORS
330
6E2
102
}
330
6E2
100
AcDbXrecord
 10
0.0
 20
0.0
 30
0.0
  0
XRECORD
  5
700
102
{ACAD_REACTORS
330
6E2
102
}
330
6E2
100
AcDbXrecord
 10
0.0
 20
0.0
 30
0.0
  0
XRECORD
  5
6FE
102
{ACAD_REACTORS
330
6E2
102
}
330
6E2
100
AcDbXrecord
 10
0.0
 20
0.0
 30
0.0
  0
XRECORD
  5
6FF
102
{ACAD_REACTORS
330
6E2
102
}
330
6E2
100
AcDbXrecord
 10
0.0
 20
0.0
 30
0.0
  0
XRECORD
  5
6FC
102
{ACAD_REACTORS
330
6E2
102
}
330
6E2
100
AcDbXrecord
 10
0.0
 20
0.0
 30
0.0
  0
XRECORD
  5
6F9
102
{ACAD_REACTORS
330
6E2
102
}
330
6E2
100
AcDbXrecord
340
0
  0
XRECORD
  5
6FA
102
{ACAD_REACTORS
330
6E2
102
}
330
6E2
100
AcDbXrecord
 70
     0
  0
XRECORD
  5
6EE
102
{ACAD_REACTORS
330
6E2
102
}
330
6E2
100
AcDbXrecord
  1
{FAEB1C32-E019-11D5-929B-00C0DF256EC4}
  0
DICTIONARYVAR
  5
710
102
{ACAD_REACTORS
330
703
102
}
330
703
100
DictionaryVariables
280
     0
  1
1:1
  0
DICTIONARYVAR
  5
70A
102
{ACAD_REACTORS
330
703
102
}
330
703
100
DictionaryVariables
280
     0
  1
3.500000
  0
DICTIONARYVAR
  5
70B
102
{ACAD_REACTORS
330
703
102
}
330
703
100
DictionaryVariables
280
     0
  1
acadiso.lin
  0
DICTIONARYVAR
  5
705
102
{ACAD_REACTORS
330
703
102
}
330
703
100
DictionaryVariables
280
     0
  1
Standard
  0
DICTIONARYVAR
  5
704
102
{ACAD_REACTORS
330
703
102
}
330
703
100
DictionaryVariables
280
     0
  1
Standard
  0
DICTIONARYVAR
  5
70C
102
{ACAD_REACTORS
330
703
102
}
330
703
100
DictionaryVariables
280
     0
  1
2
  0
DICTIONARYVAR
  5
70D
102
{ACAD_REACTORS
330
703
102
}
330
703
100
DictionaryVariables
280
     0
  1
1
  0
DICTIONARYVAR
  5
711
102
{ACAD_REACTORS
330
703
102
}
330
703
100
DictionaryVariables
280
     0
  1
1
  0
DICTIONARYVAR
  5
707
102
{ACAD_REACTORS
330
703
102
}
330
703
100
DictionaryVariables
280
     0
  1
80.000000
  0
DICTIONARYVAR
  5
706
102
{ACAD_REACTORS
330
703
102
}
330
703
100
DictionaryVariables
280
     0
  1
5.000000
  0
DICTIONARY
  5
714
330
45
100
AcDbDictionary
280
     1
  3
ACAD_XREC_ROUNDTRIP
360
715
  0
DICTIONARY
  5
712
330
44
100
AcDbDictionary
280
     1
  3
ACAD_XREC_ROUNDTRIP
360
713
  0
DICTIONARY
  5
716
330
46
100
AcDbDictionary
280
     1
  3
ACAD_XREC_ROUNDTRIP
360
717
  0
XRECORD
  5
715
102
{ACAD_REACTORS
330
714
102
}
330
714
100
AcDbXrecord
102
MATERIAL
148
0.0
149
0.0
149
0.0
 93
        0
 94
      127
282
     0
 72
     1
 77
     1
171
     1
175
     1
179
     1
273
     0
  0
XRECORD
  5
713
102
{ACAD_REACTORS
330
712
102
}
330
712
100
AcDbXrecord
102
MATERIAL
148
0.0
149
0.0
149
0.0
 93
        0
 94
      127
282
     0
 72
     1
 77
     1
171
     1
175
     1
179
     1
273
     0
  0
XRECORD
  5
717
102
{ACAD_REACTORS
330
716
102
}
330
716
100
AcDbXrecord
102
MATERIAL
148
0.0
149
0.0
149
0.0
 93
        0
 94
      127
282
     0
 72
     1
 77
     1
171
     1
175
     1
179
     1
273
     0
  0
ENDSEC
  0
EOF
