  0
SECTION
  2
HEADER
  9
$ACADVER
  1
AC1014
  9
$ACADMAINTVER
 70
     9
  9
$DWGCODEPAGE
  3
ANSI_932
  9
$INSBASE
 10
0.0
 20
0.0
 30
0.0
  9
$EXTMIN
 10
50.0
 20
100.0
 30
0.0
  9
$EXTMAX
 10
3850.0
 20
2800.0
 30
0.0
  9
$LIMMIN
 10
0.0
 20
0.0
  9
$LIMMAX
 10
420.0
 20
297.0
  9
$ORTHOMODE
 70
     0
  9
$REGENMODE
 70
     1
  9
$FILLMODE
 70
     1
  9
$QTEXTMODE
 70
     0
  9
$MIRRTEXT
 70
     1
  9
$DRAGMODE
 70
     2
  9
$LTSCALE
 40
0.2
  9
$OSMODE
 70
    37
  9
$ATTMODE
 70
     1
  9
$TEXTSIZE
 40
2.5
  9
$TRACEWID
 40
1.0
  9
$TEXTSTYLE
  7
STANDARD
  9
$CLAYER
  8
LAY-10
  9
$CELTYPE
  6
BYLAYER
  9
$CECOLOR
 62
   256
  9
$CELTSCALE
 40
1.0
  9
$DELOBJ
 70
     1
  9
$DISPSILH
 70
     0
  9
$DIMSCALE
 40
1.0
  9
$DIMASZ
 40
2.5
  9
$DIMEXO
 40
0.625
  9
$DIMDLI
 40
3.75
  9
$DIMRND
 40
0.0
  9
$DIMDLE
 40
0.0
  9
$DIMEXE
 40
1.25
  9
$DIMTP
 40
0.0
  9
$DIMTM
 40
0.0
  9
$DIMTXT
 40
2.5
  9
$DIMCEN
 40
2.5
  9
$DIMTSZ
 40
0.0
  9
$DIMTOL
 70
     0
  9
$DIMLIM
 70
     0
  9
$DIMTIH
 70
     0
  9
$DIMTOH
 70
     0
  9
$DIMSE1
 70
     0
  9
$DIMSE2
 70
     0
  9
$DIMTAD
 70
     1
  9
$DIMZIN
 70
     8
  9
$DIMBLK
  1

  9
$DIMASO
 70
     1
  9
$DIMSHO
 70
     1
  9
$DIMPOST
  1

  9
$DIMAPOST
  1

  9
$DIMALT
 70
     0
  9
$DIMALTD
 70
     3
  9
$DIMALTF
 40
0.03937007874016
  9
$DIMLFAC
 40
1.0
  9
$DIMTOFL
 70
     1
  9
$DIMTVP
 40
0.0
  9
$DIMTIX
 70
     0
  9
$DIMSOXD
 70
     0
  9
$DIMSAH
 70
     0
  9
$DIMBLK1
  1

  9
$DIMBLK2
  1

  9
$DIMSTYLE
  2
ISO-25
  9
$DIMCLRD
 70
     0
  9
$DIMCLRE
 70
     0
  9
$DIMCLRT
 70
     0
  9
$DIMTFAC
 40
1.0
  9
$DIMGAP
 40
0.625
  9
$DIMJUST
 70
     0
  9
$DIMSD1
 70
     0
  9
$DIMSD2
 70
     0
  9
$DIMTOLJ
 70
     0
  9
$DIMTZIN
 70
     8
  9
$DIMALTZ
 70
     0
  9
$DIMALTTZ
 70
     0
  9
$DIMFIT
 70
     3
  9
$DIMUPT
 70
     0
  9
$DIMUNIT
 70
     2
  9
$DIMDEC
 70
     2
  9
$DIMTDEC
 70
     2
  9
$DIMALTU
 70
     2
  9
$DIMALTTD
 70
     3
  9
$DIMTXSTY
  7
STANDARD
  9
$DIMAUNIT
 70
     0
  9
$LUNITS
 70
     2
  9
$LUPREC
 70
     4
  9
$SKETCHINC
 40
1.0
  9
$FILLETRAD
 40
10.0
  9
$AUNITS
 70
     0
  9
$AUPREC
 70
     0
  9
$MENU
  1
.
  9
$ELEVATION
 40
0.0
  9
$PELEVATION
 40
0.0
  9
$THICKNESS
 40
0.0
  9
$LIMCHECK
 70
     0
  9
$CHAMFERA
 40
0.0
  9
$CHAMFERB
 40
0.0
  9
$CHAMFERC
 40
0.0
  9
$CHAMFERD
 40
0.0
  9
$SKPOLY
 70
     0
  9
$TDCREATE
 40
2459229.333645035
  9
$TDUPDATE
 40
2459229.333645625
  9
$TDINDWG
 40
0.0000000116
  9
$TDUSRTIMER
 40
0.0000000116
  9
$USRTIMER
 70
     1
  9
$ANGBASE
 50
0.0
  9
$ANGDIR
 70
     0
  9
$PDMODE
 70
     0
  9
$PDSIZE
 40
0.0
  9
$PLINEWID
 40
0.0
  9
$COORDS
 70
     1
  9
$SPLFRAME
 70
     0
  9
$SPLINETYPE
 70
     6
  9
$SPLINESEGS
 70
     8
  9
$ATTDIA
 70
     0
  9
$ATTREQ
 70
     1
  9
$HANDLING
 70
     1
  9
$HANDSEED
  5
553
  9
$SURFTAB1
 70
     6
  9
$SURFTAB2
 70
     6
  9
$SURFTYPE
 70
     6
  9
$SURFU
 70
     6
  9
$SURFV
 70
     6
  9
$UCSNAME
  2

  9
$UCSORG
 10
0.0
 20
0.0
 30
0.0
  9
$UCSXDIR
 10
1.0
 20
0.0
 30
0.0
  9
$UCSYDIR
 10
0.0
 20
1.0
 30
0.0
  9
$PUCSNAME
  2

  9
$PUCSORG
 10
0.0
 20
0.0
 30
0.0
  9
$PUCSXDIR
 10
1.0
 20
0.0
 30
0.0
  9
$PUCSYDIR
 10
0.0
 20
1.0
 30
0.0
  9
$USERI1
 70
     0
  9
$USERI2
 70
     0
  9
$USERI3
 70
     0
  9
$USERI4
 70
     0
  9
$USERI5
 70
     0
  9
$USERR1
 40
0.0
  9
$USERR2
 40
0.0
  9
$USERR3
 40
0.0
  9
$USERR4
 40
0.0
  9
$USERR5
 40
0.0
  9
$WORLDVIEW
 70
     1
  9
$SHADEDGE
 70
     3
  9
$SHADEDIF
 70
    70
  9
$TILEMODE
 70
     1
  9
$MAXACTVP
 70
    64
  9
$PINSBASE
 10
0.0
 20
0.0
 30
0.0
  9
$PLIMCHECK
 70
     0
  9
$PEXTMIN
 10
1.000000000000000E+20
 20
1.000000000000000E+20
 30
1.000000000000000E+20
  9
$PEXTMAX
 10
-1.000000000000000E+20
 20
-1.000000000000000E+20
 30
-1.000000000000000E+20
  9
$PLIMMIN
 10
0.0
 20
0.0
  9
$PLIMMAX
 10
420.0
 20
297.0
  9
$UNITMODE
 70
     0
  9
$VISRETAIN
 70
     1
  9
$PLINEGEN
 70
     0
  9
$PSLTSCALE
 70
     1
  9
$TREEDEPTH
 70
  3020
  9
$PICKSTYLE
 70
     1
  9
$CMLSTYLE
  2
STANDARD
  9
$CMLJUST
 70
     0
  9
$CMLSCALE
 40
20.0
  9
$PROXYGRAPHICS
 70
     1
  9
$MEASUREMENT
 70
     1
  0
ENDSEC
  0
SECTION
  2
CLASSES
  0
CLASS
  1
ACDBDICTIONARYWDFLT
  2
AcDbDictionaryWithDefault
  3
ObjectDBX Classes
 90
        0
280
     0
281
     0
  0
CLASS
  1
VISUALSTYLE
  2
AcDbVisualStyle
  3
ObjectDBX Classes
 90
     4095
280
     0
281
     0
  0
CLASS
  1
MATERIAL
  2
AcDbMaterial
  3
ObjectDBX Classes
 90
     1153
280
     0
281
     0
  0
CLASS
  1
SCALE
  2
AcDbScale
  3
ObjectDBX Classes
 90
     1153
280
     0
281
     0
  0
CLASS
  1
TABLESTYLE
  2
AcDbTableStyle
  3
ObjectDBX Classes
 90
     4095
280
     0
281
     0
  0
CLASS
  1
MLEADERSTYLE
  2
AcDbMLeaderStyle
  3
ACDB_MLEADERSTYLE_CLASS
 90
     4095
280
     0
281
     0
  0
CLASS
  1
SUN
  2
AcDbSun
  3
SCENEOE
 90
     1153
280
     0
281
     0
  0
CLASS
  1
DICTIONARYVAR
  2
AcDbDictionaryVar
  3
ObjectDBX Classes
 90
        0
280
     0
281
     0
  0
CLASS
  1
XRECORD
  2
AcDbXrecord
  3
ObjectDBX Classes
 90
        0
280
     0
281
     0
  0
CLASS
  1
LWPOLYLINE
  2
AcDbPolyline
  3
ObjectDBX Classes
 90
        0
280
     0
281
     1
  0
CLASS
  1
HATCH
  2
AcDbHatch
  3
ObjectDBX Classes
 90
        0
280
     0
281
     1
  0
CLASS
  1
ACDBPLACEHOLDER
  2
AcDbPlaceHolder
  3
ObjectDBX Classes
 90
        0
280
     0
281
     0
  0
CLASS
  1
LAYOUT
  2
AcDbLayout
  3
ObjectDBX Classes
 90
        0
280
     0
281
     0
  0
ENDSEC
  0
SECTION
  2
TABLES
  0
TABLE
  2
VPORT
  5
8
102
{ACAD_XDICTIONARY
360
548
102
}
330
0
100
AcDbSymbolTable
 70
     1
  0
VPORT
  5
29
330
8
100
AcDbSymbolTableRecord
100
AcDbViewportTableRecord
  2
*ACTIVE
 70
     0
 10
0.0
 20
0.0
 11
1.0
 21
1.0
 12
1950.0
 22
1450.0
 13
0.0
 23
0.0
 14
10.0
 24
10.0
 15
10.0
 25
10.0
 16
0.0
 26
0.0
 36
1.0
 17
0.0
 27
0.0
 37
0.0
 40
2700.0
 41
1.407407407407408
 42
50.0
 43
0.0
 44
0.0
 50
0.0
 51
0.0
 71
     0
 72
  1000
 73
     1
 74
     3
 75
     0
 76
     0
 77
     0
 78
     0
  0
ENDTAB
  0
TABLE
  2
LTYPE
  5
5
330
0
100
AcDbSymbolTable
 70
     6
  0
LTYPE
  5
14
330
5
100
AcDbSymbolTableRecord
100
AcDbLinetypeTableRecord
  2
BYBLOCK
 70
     0
  3

 72
    65
 73
     0
 40
0.0
  0
LTYPE
  5
15
330
5
100
AcDbSymbolTableRecord
100
AcDbLinetypeTableRecord
  2
BYLAYER
 70
     0
  3

 72
    65
 73
     0
 40
0.0
  0
LTYPE
  5
16
330
5
100
AcDbSymbolTableRecord
100
AcDbLinetypeTableRecord
  2
CONTINUOUS
 70
     0
  3
Solid line
 72
    65
 73
     0
 40
0.0
  0
LTYPE
  5
6E
330
5
100
AcDbSymbolTableRecord
100
AcDbLinetypeTableRecord
  2
HIDDEN
 70
     0
  3
Hidden __ __ __ __ __ __ __ __ __ __ __ __ __ __
 72
    65
 73
     2
 40
9.524999999999999
 49
6.35
 74
     0
 49
-3.175
 74
     0
  0
LTYPE
  5
6F
330
5
100
AcDbSymbolTableRecord
100
AcDbLinetypeTableRecord
  2
CENTER
 70
     0
  3
Center ____ _ ____ _ ____ _ ____ _ ____ _ ____
 72
    65
 73
     4
 40
50.8
 49
31.75
 74
     0
 49
-6.35
 74
     0
 49
6.35
 74
     0
 49
-6.35
 74
     0
  0
LTYPE
  5
70
330
5
100
AcDbSymbolTableRecord
100
AcDbLinetypeTableRecord
  2
PHANTOM
 70
     0
  3
Phantom ______  __  __  ______  __  __  ______ 
 72
    65
 73
     6
 40
63.50000000000001
 49
31.75
 74
     0
 49
-6.35
 74
     0
 49
6.35
 74
     0
 49
-6.35
 74
     0
 49
6.35
 74
     0
 49
-6.35
 74
     0
  0
LTYPE
  5
71
330
5
100
AcDbSymbolTableRecord
100
AcDbLinetypeTableRecord
  2
ACAD_ISO06W100
 70
     0
  3
ISO long-dash triple-dot ____ ... ____ ... ____
 72
    65
 73
     8
 40
36.0
 49
24.0
 74
     0
 49
-3.0
 74
     0
 49
0.0
 74
     0
 49
-3.0
 74
     0
 49
0.0
 74
     0
 49
-3.0
 74
     0
 49
0.0
 74
     0
 49
-3.0
 74
     0
  0
LTYPE
  5
72
330
5
100
AcDbSymbolTableRecord
100
AcDbLinetypeTableRecord
  2
ACAD_ISO15W100
 70
     0
  3
ISO double-dash triple-dot __ __ . . . __ __ . .
 72
    65
 73
    10
 40
39.0
 49
12.0
 74
     0
 49
-3.0
 74
     0
 49
12.0
 74
     0
 49
-3.0
 74
     0
 49
0.0
 74
     0
 49
-3.0
 74
     0
 49
0.0
 74
     0
 49
-3.0
 74
     0
 49
0.0
 74
     0
 49
-3.0
 74
     0
  0
ENDTAB
  0
TABLE
  2
LAYER
  5
2
330
0
100
AcDbSymbolTable
 70
     6
  0
LAYER
  5
10
330
2
100
AcDbSymbolTableRecord
100
AcDbLayerTableRecord
  2
0
 70
     0
 62
     7
  6
CONTINUOUS
  0
LAYER
  5
75
330
2
100
AcDbSymbolTableRecord
100
AcDbLayerTableRecord
  2
LAY-10
 70
     0
 62
     7
  6
CONTINUOUS
  0
LAYER
  5
76
330
2
100
AcDbSymbolTableRecord
100
AcDbLayerTableRecord
  2
LAY-11
 70
     0
 62
     7
  6
CONTINUOUS
  0
LAYER
  5
77
330
2
100
AcDbSymbolTableRecord
100
AcDbLayerTableRecord
  2
LAY-20
 70
     0
 62
     7
  6
CONTINUOUS
  0
LAYER
  5
78
330
2
100
AcDbSymbolTableRecord
100
AcDbLayerTableRecord
  2
LAY-255
 70
     0
 62
     7
  6
CONTINUOUS
  0
LAYER
  5
472
330
2
100
AcDbSymbolTableRecord
100
AcDbLayerTableRecord
  2
DEFPOINTS
 70
     0
 62
     7
  6
CONTINUOUS
  0
ENDTAB
  0
TABLE
  2
STYLE
  5
3
330
0
100
AcDbSymbolTable
 70
     4
  0
STYLE
  5
11
330
3
100
AcDbSymbolTableRecord
100
AcDbTextStyleTableRecord
  2
STANDARD
 70
     0
 40
0.0
 41
1.0
 50
0.0
 71
     0
 42
2.5
  3
simplex
  4
bigfont
  0
STYLE
  5
73
330
3
100
AcDbSymbolTableRecord
100
AcDbTextStyleTableRecord
  2
EXCADSTD
 70
     0
 40
0.0
 41
1.0
 50
0.0
 71
     0
 42
2.5
  3
simplex
  4
bigfont
  0
STYLE
  5
74
330
3
100
AcDbSymbolTableRecord
100
AcDbTextStyleTableRecord
  2
EXCADVERT
 70
     4
 40
0.0
 41
1.0
 50
0.0
 71
     0
 42
2.5
  3
simplex
  4
bigfont
  0
STYLE
  5
470
330
3
100
AcDbSymbolTableRecord
100
AcDbTextStyleTableRecord
  2
EXCADDIM1
 70
     0
 40
0.0
 41
0.84
 50
0.0
 71
     0
 42
2.5
  3
simplex
  4
bigfont
  0
ENDTAB
  0
TABLE
  2
VIEW
  5
6
330
0
100
AcDbSymbolTable
 70
     0
  0
ENDTAB
  0
TABLE
  2
UCS
  5
7
330
0
100
AcDbSymbolTable
 70
     0
  0
ENDTAB
  0
TABLE
  2
APPID
  5
9
330
0
100
AcDbSymbolTable
 70
     2
  0
APPID
  5
12
330
9
100
AcDbSymbolTableRecord
100
AcDbRegAppTableRecord
  2
ACAD
 70
     0
  0
APPID
  5
552
330
9
100
AcDbSymbolTableRecord
100
AcDbRegAppTableRecord
  2
ACAD_MLEADERVER
 70
     0
  0
ENDTAB
  0
TABLE
  2
DIMSTYLE
  5
A
330
0
100
AcDbSymbolTable
 70
     1
  0
DIMSTYLE
105
27
102
{ACAD_REACTORS
330
471
330
47F
330
48C
330
499
330
4A6
330
4B3
330
4C0
330
4CD
330
4DA
330
4E7
102
}
330
A
100
AcDbSymbolTableRecord
100
AcDbDimStyleTableRecord
  2
ISO-25
 70
     0
  3

  4

  5

  6

  7

 40
1.0
 41
2.5
 42
0.625
 43
3.75
 44
1.25
 45
0.0
 46
0.0
 47
0.0
 48
0.0
140
2.5
141
2.5
142
0.0
143
0.03937007874016
144
1.0
145
0.0
146
1.0
147
0.625
 71
     0
 72
     0
 73
     0
 74
     0
 75
     0
 76
     0
 77
     1
 78
     8
170
     0
171
     3
172
     1
173
     0
174
     0
175
     0
176
     0
177
     0
178
     0
270
     2
271
     2
272
     2
273
     2
274
     3
340
11
275
     0
280
     0
281
     0
282
     0
283
     0
284
     8
285
     0
286
     0
287
     5
288
     0
  0
ENDTAB
  0
TABLE
  2
BLOCK_RECORD
  5
1
330
0
100
AcDbSymbolTable
 70
    24
  0
BLOCK_RECORD
  5
1F
330
1
100
AcDbSymbolTableRecord
100
AcDbBlockTableRecord
  2
*MODEL_SPACE
  0
BLOCK_RECORD
  5
1B
330
1
100
AcDbSymbolTableRecord
100
AcDbBlockTableRecord
  2
*PAPER_SPACE
  0
BLOCK_RECORD
  5
79
330
1
100
AcDbSymbolTableRecord
100
AcDbBlockTableRecord
  2
EX_NORM
  0
BLOCK_RECORD
  5
7C
330
1
100
AcDbSymbolTableRecord
100
AcDbBlockTableRecord
  2
EX_BNORM
  0
BLOCK_RECORD
  5
7F
330
1
100
AcDbSymbolTableRecord
100
AcDbBlockTableRecord
  2
EX_BCIR
  0
BLOCK_RECORD
  5
82
330
1
100
AcDbSymbolTableRecord
100
AcDbBlockTableRecord
  2
EX_RCIVIL
  0
BLOCK_RECORD
  5
85
330
1
100
AcDbSymbolTableRecord
100
AcDbBlockTableRecord
  2
EX_SLANT
  0
BLOCK_RECORD
  5
88
330
1
100
AcDbSymbolTableRecord
100
AcDbBlockTableRecord
  2
EX_NONE
  0
BLOCK_RECORD
  5
8B
330
1
100
AcDbSymbolTableRecord
100
AcDbBlockTableRecord
  2
EX_CIVIL
  0
BLOCK_RECORD
  5
8E
330
1
100
AcDbSymbolTableRecord
100
AcDbBlockTableRecord
  2
EX_WCIR
  0
BLOCK_RECORD
  5
91
330
1
100
AcDbSymbolTableRecord
100
AcDbBlockTableRecord
  2
EX_WCIR2
  0
BLOCK_RECORD
  5
94
330
1
100
AcDbSymbolTableRecord
100
AcDbBlockTableRecord
  2
EX_WNORM
  0
BLOCK_RECORD
  5
97
330
1
100
AcDbSymbolTableRecord
100
AcDbBlockTableRecord
  2
EX_NNORM
  0
BLOCK_RECORD
  5
9A
330
1
100
AcDbSymbolTableRecord
100
AcDbBlockTableRecord
  2
EX_BBOX
  0
BLOCK_RECORD
  5
9D
330
1
100
AcDbSymbolTableRecord
100
AcDbBlockTableRecord
  2
EX_WBOX
  0
BLOCK_RECORD
  5
A0
330
1
100
AcDbSymbolTableRecord
100
AcDbBlockTableRecord
  2
EX_INTEGRAL
  0
BLOCK_RECORD
  5
473
330
1
100
AcDbSymbolTableRecord
100
AcDbBlockTableRecord
  2
*D15
  0
BLOCK_RECORD
  5
480
330
1
100
AcDbSymbolTableRecord
100
AcDbBlockTableRecord
  2
*D16
  0
BLOCK_RECORD
  5
48D
330
1
100
AcDbSymbolTableRecord
100
AcDbBlockTableRecord
  2
*D17
  0
BLOCK_RECORD
  5
49A
330
1
100
AcDbSymbolTableRecord
100
AcDbBlockTableRecord
  2
*D18
  0
BLOCK_RECORD
  5
4A7
330
1
100
AcDbSymbolTableRecord
100
AcDbBlockTableRecord
  2
*D19
  0
BLOCK_RECORD
  5
4B4
330
1
100
AcDbSymbolTableRecord
100
AcDbBlockTableRecord
  2
*D20
  0
BLOCK_RECORD
  5
4C1
330
1
100
AcDbSymbolTableRecord
100
AcDbBlockTableRecord
  2
*D21
  0
BLOCK_RECORD
  5
4CE
330
1
100
AcDbSymbolTableRecord
100
AcDbBlockTableRecord
  2
*D22
  0
BLOCK_RECORD
  5
4DB
330
1
100
AcDbSymbolTableRecord
100
AcDbBlockTableRecord
  2
*D23
  0
BLOCK_RECORD
  5
4E8
330
1
100
AcDbSymbolTableRecord
100
AcDbBlockTableRecord
  2
*D24
  0
ENDTAB
  0
ENDSEC
  0
SECTION
  2
BLOCKS
  0
BLOCK
  5
20
330
1F
100
AcDbEntity
  8
0
100
AcDbBlockBegin
  2
*MODEL_SPACE
 70
     0
 10
0.0
 20
0.0
 30
0.0
  3
*MODEL_SPACE
  1

  0
ENDBLK
  5
21
330
1F
100
AcDbEntity
  8
0
100
AcDbBlockEnd
  0
BLOCK
  5
1C
330
1B
100
AcDbEntity
 67
     1
  8
0
100
AcDbBlockBegin
  2
*PAPER_SPACE
 70
     0
 10
0.0
 20
0.0
 30
0.0
  3
*PAPER_SPACE
  1

  0
ENDBLK
  5
1D
330
1B
100
AcDbEntity
 67
     1
  8
0
100
AcDbBlockEnd
  0
BLOCK
  5
7A
330
79
100
AcDbEntity
  8
0
100
AcDbBlockBegin
  2
EX_NORM
 70
     0
 10
0.0
 20
0.0
 30
0.0
  3
EX_NORM
  1

  0
LINE
  5
A3
330
79
100
AcDbEntity
  8
0
  6
CONTINUOUS
 62
     0
100
AcDbLine
 10
0.0
 20
0.0
 30
0.0
 11
-1.0
 21
0.0
 31
0.0
  0
LINE
  5
A4
330
79
100
AcDbEntity
  8
0
  6
CONTINUOUS
 62
     0
100
AcDbLine
 10
0.0
 20
0.0
 30
0.0
 11
-1.0
 21
0.166666667
 31
0.0
  0
LINE
  5
A5
330
79
100
AcDbEntity
  8
0
  6
CONTINUOUS
 62
     0
100
AcDbLine
 10
0.0
 20
0.0
 30
0.0
 11
-1.0
 21
-0.166666667
 31
0.0
  0
ENDBLK
  5
7B
330
79
100
AcDbEntity
  8
0
100
AcDbBlockEnd
  0
BLOCK
  5
7D
330
7C
100
AcDbEntity
  8
0
100
AcDbBlockBegin
  2
EX_BNORM
 70
     0
 10
0.0
 20
0.0
 30
0.0
  3
EX_BNORM
  1

  0
LINE
  5
A6
330
7C
100
AcDbEntity
  8
0
  6
CONTINUOUS
 62
     0
100
AcDbLine
 10
0.0
 20
0.0
 30
0.0
 11
-1.0
 21
0.0
 31
0.0
  0
LINE
  5
A7
330
7C
100
AcDbEntity
  8
0
  6
CONTINUOUS
 62
     0
100
AcDbLine
 10
0.0
 20
0.0
 30
0.0
 11
-1.0
 21
0.166666667
 31
0.0
  0
LINE
  5
A8
330
7C
100
AcDbEntity
  8
0
  6
CONTINUOUS
 62
     0
100
AcDbLine
 10
0.0
 20
0.0
 30
0.0
 11
-1.0
 21
-0.166666667
 31
0.0
  0
LINE
  5
A9
330
7C
100
AcDbEntity
  8
0
  6
CONTINUOUS
 62
     0
100
AcDbLine
 10
0.0
 20
0.0
 30
0.0
 11
-1.0
 21
0.083333333
 31
0.0
  0
LINE
  5
AA
330
7C
100
AcDbEntity
  8
0
  6
CONTINUOUS
 62
     0
100
AcDbLine
 10
0.0
 20
0.0
 30
0.0
 11
-1.0
 21
-0.083333333
 31
0.0
  0
LINE
  5
AB
330
7C
100
AcDbEntity
  8
0
  6
CONTINUOUS
 62
     0
100
AcDbLine
 10
-1.0
 20
0.166666667
 30
0.0
 11
-1.0
 21
-0.166666667
 31
0.0
  0
ENDBLK
  5
7E
330
7C
100
AcDbEntity
  8
0
100
AcDbBlockEnd
  0
BLOCK
  5
80
330
7F
100
AcDbEntity
  8
0
100
AcDbBlockBegin
  2
EX_BCIR
 70
     0
 10
0.0
 20
0.0
 30
0.0
  3
EX_BCIR
  1

  0
LINE
  5
AC
330
7F
100
AcDbEntity
  8
0
  6
CONTINUOUS
 62
     0
100
AcDbLine
 10
0.0
 20
0.0
 30
0.0
 11
-1.0
 21
0.0
 31
0.0
  0
CIRCLE
  5
AD
330
7F
100
AcDbEntity
  8
0
  6
CONTINUOUS
 62
     0
100
AcDbCircle
 10
0.0
 20
0.0
 30
0.0
 40
0.5
  0
CIRCLE
  5
AE
330
7F
100
AcDbEntity
  8
0
  6
CONTINUOUS
 62
     0
100
AcDbCircle
 10
0.0
 20
0.0
 30
0.0
 40
0.25
  0
ENDBLK
  5
81
330
7F
100
AcDbEntity
  8
0
100
AcDbBlockEnd
  0
BLOCK
  5
83
330
82
100
AcDbEntity
  8
0
100
AcDbBlockBegin
  2
EX_RCIVIL
 70
     0
 10
0.0
 20
0.0
 30
0.0
  3
EX_RCIVIL
  1

  0
LINE
  5
AF
330
82
100
AcDbEntity
  8
0
  6
CONTINUOUS
 62
     0
100
AcDbLine
 10
0.0
 20
0.0
 30
0.0
 11
-1.0
 21
0.0
 31
0.0
  0
LINE
  5
B0
330
82
100
AcDbEntity
  8
0
  6
CONTINUOUS
 62
     0
100
AcDbLine
 10
-1.0
 20
-0.25
 30
0.0
 11
0.0
 21
-0.25
 31
0.0
  0
LINE
  5
B1
330
82
100
AcDbEntity
  8
0
  6
CONTINUOUS
 62
     0
100
AcDbLine
 10
-1.0
 20
-0.125
 30
0.0
 11
0.0
 21
-0.125
 31
0.0
  0
ENDBLK
  5
84
330
82
100
AcDbEntity
  8
0
100
AcDbBlockEnd
  0
BLOCK
  5
86
330
85
100
AcDbEntity
  8
0
100
AcDbBlockBegin
  2
EX_SLANT
 70
     0
 10
0.0
 20
0.0
 30
0.0
  3
EX_SLANT
  1

  0
LINE
  5
B2
330
85
100
AcDbEntity
  8
0
  6
CONTINUOUS
 62
     0
100
AcDbLine
 10
0.0
 20
0.0
 30
0.0
 11
-1.0
 21
0.0
 31
0.0
  0
LINE
  5
B3
330
85
100
AcDbEntity
  8
0
  6
CONTINUOUS
 62
     0
100
AcDbLine
 10
0.707106781
 20
0.707106781
 30
0.0
 11
-0.707106781
 21
-0.707106781
 31
0.0
  0
ENDBLK
  5
87
330
85
100
AcDbEntity
  8
0
100
AcDbBlockEnd
  0
BLOCK
  5
89
330
88
100
AcDbEntity
  8
0
100
AcDbBlockBegin
  2
EX_NONE
 70
     0
 10
0.0
 20
0.0
 30
0.0
  3
EX_NONE
  1

  0
LINE
  5
B4
330
88
100
AcDbEntity
  8
0
  6
CONTINUOUS
 62
     0
100
AcDbLine
 10
0.0
 20
0.0
 30
0.0
 11
-1.0
 21
0.0
 31
0.0
  0
ENDBLK
  5
8A
330
88
100
AcDbEntity
  8
0
100
AcDbBlockEnd
  0
BLOCK
  5
8C
330
8B
100
AcDbEntity
  8
0
100
AcDbBlockBegin
  2
EX_CIVIL
 70
     0
 10
0.0
 20
0.0
 30
0.0
  3
EX_CIVIL
  1

  0
LINE
  5
B5
330
8B
100
AcDbEntity
  8
0
  6
CONTINUOUS
 62
     0
100
AcDbLine
 10
0.0
 20
0.0
 30
0.0
 11
-1.0
 21
0.0
 31
0.0
  0
LINE
  5
B6
330
8B
100
AcDbEntity
  8
0
  6
CONTINUOUS
 62
     0
100
AcDbLine
 10
-1.0
 20
0.25
 30
0.0
 11
0.0
 21
0.25
 31
0.0
  0
LINE
  5
B7
330
8B
100
AcDbEntity
  8
0
  6
CONTINUOUS
 62
     0
100
AcDbLine
 10
-1.0
 20
0.125
 30
0.0
 11
0.0
 21
0.125
 31
0.0
  0
ENDBLK
  5
8D
330
8B
100
AcDbEntity
  8
0
100
AcDbBlockEnd
  0
BLOCK
  5
8F
330
8E
100
AcDbEntity
  8
0
100
AcDbBlockBegin
  2
EX_WCIR
 70
     0
 10
0.0
 20
0.0
 30
0.0
  3
EX_WCIR
  1

  0
LINE
  5
B8
330
8E
100
AcDbEntity
  8
0
  6
CONTINUOUS
 62
     0
100
AcDbLine
 10
0.0
 20
0.0
 30
0.0
 11
-1.0
 21
0.0
 31
0.0
  0
CIRCLE
  5
B9
330
8E
100
AcDbEntity
  8
0
  6
CONTINUOUS
 62
     0
100
AcDbCircle
 10
0.0
 20
0.0
 30
0.0
 40
0.5
  0
ENDBLK
  5
90
330
8E
100
AcDbEntity
  8
0
100
AcDbBlockEnd
  0
BLOCK
  5
92
330
91
100
AcDbEntity
  8
0
100
AcDbBlockBegin
  2
EX_WCIR2
 70
     0
 10
0.0
 20
0.0
 30
0.0
  3
EX_WCIR2
  1

  0
LINE
  5
BA
330
91
100
AcDbEntity
  8
0
  6
CONTINUOUS
 62
     0
100
AcDbLine
 10
-0.5
 20
0.0
 30
0.0
 11
-1.0
 21
0.0
 31
0.0
  0
CIRCLE
  5
BB
330
91
100
AcDbEntity
  8
0
  6
CONTINUOUS
 62
     0
100
AcDbCircle
 10
0.0
 20
0.0
 30
0.0
 40
0.5
  0
ENDBLK
  5
93
330
91
100
AcDbEntity
  8
0
100
AcDbBlockEnd
  0
BLOCK
  5
95
330
94
100
AcDbEntity
  8
0
100
AcDbBlockBegin
  2
EX_WNORM
 70
     0
 10
0.0
 20
0.0
 30
0.0
  3
EX_WNORM
  1

  0
LINE
  5
BC
330
94
100
AcDbEntity
  8
0
  6
CONTINUOUS
 62
     0
100
AcDbLine
 10
-1.0
 20
0.0
 30
0.0
 11
-1.0
 21
0.0
 31
0.0
  0
LINE
  5
BD
330
94
100
AcDbEntity
  8
0
  6
CONTINUOUS
 62
     0
100
AcDbLine
 10
0.0
 20
0.0
 30
0.0
 11
-1.0
 21
0.166666667
 31
0.0
  0
LINE
  5
BE
330
94
100
AcDbEntity
  8
0
  6
CONTINUOUS
 62
     0
100
AcDbLine
 10
0.0
 20
0.0
 30
0.0
 11
-1.0
 21
-0.166666667
 31
0.0
  0
LINE
  5
BF
330
94
100
AcDbEntity
  8
0
  6
CONTINUOUS
 62
     0
100
AcDbLine
 10
-1.0
 20
0.166666667
 30
0.0
 11
-1.0
 21
-0.166666667
 31
0.0
  0
ENDBLK
  5
96
330
94
100
AcDbEntity
  8
0
100
AcDbBlockEnd
  0
BLOCK
  5
98
330
97
100
AcDbEntity
  8
0
100
AcDbBlockBegin
  2
EX_NNORM
 70
     0
 10
0.0
 20
0.0
 30
0.0
  3
EX_NNORM
  1

  0
LINE
  5
C0
330
97
100
AcDbEntity
  8
0
  6
CONTINUOUS
 62
     0
100
AcDbLine
 10
0.0
 20
0.0
 30
0.0
 11
-1.0
 21
0.0
 31
0.0
  0
LINE
  5
C1
330
97
100
AcDbEntity
  8
0
  6
CONTINUOUS
 62
     0
100
AcDbLine
 10
0.0
 20
0.0
 30
0.0
 11
-1.0
 21
0.166666667
 31
0.0
  0
LINE
  5
C2
330
97
100
AcDbEntity
  8
0
  6
CONTINUOUS
 62
     0
100
AcDbLine
 10
0.0
 20
0.0
 30
0.0
 11
-1.0
 21
-0.166666667
 31
0.0
  0
LINE
  5
C3
330
97
100
AcDbEntity
  8
0
  6
CONTINUOUS
 62
     0
100
AcDbLine
 10
-1.0
 20
0.166666667
 30
0.0
 11
-1.0
 21
-0.166666667
 31
0.0
  0
ENDBLK
  5
99
330
97
100
AcDbEntity
  8
0
100
AcDbBlockEnd
  0
BLOCK
  5
9B
330
9A
100
AcDbEntity
  8
0
100
AcDbBlockBegin
  2
EX_BBOX
 70
     0
 10
0.0
 20
0.0
 30
0.0
  3
EX_BBOX
  1

  0
LINE
  5
C4
330
9A
100
AcDbEntity
  8
0
  6
CONTINUOUS
 62
     0
100
AcDbLine
 10
0.0
 20
0.0
 30
0.0
 11
-1.0
 21
0.0
 31
0.0
  0
LINE
  5
C5
330
9A
100
AcDbEntity
  8
0
  6
CONTINUOUS
 62
     0
100
AcDbLine
 10
-0.5
 20
0.5
 30
0.0
 11
0.5
 21
0.5
 31
0.0
  0
LINE
  5
C6
330
9A
100
AcDbEntity
  8
0
  6
CONTINUOUS
 62
     0
100
AcDbLine
 10
0.5
 20
0.5
 30
0.0
 11
0.5
 21
-0.5
 31
0.0
  0
LINE
  5
C7
330
9A
100
AcDbEntity
  8
0
  6
CONTINUOUS
 62
     0
100
AcDbLine
 10
0.5
 20
-0.5
 30
0.0
 11
-0.5
 21
-0.5
 31
0.0
  0
LINE
  5
C8
330
9A
100
AcDbEntity
  8
0
  6
CONTINUOUS
 62
     0
100
AcDbLine
 10
-0.5
 20
-0.5
 30
0.0
 11
-0.5
 21
0.5
 31
0.0
  0
LINE
  5
C9
330
9A
100
AcDbEntity
  8
0
  6
CONTINUOUS
 62
     0
100
AcDbLine
 10
-0.25
 20
0.25
 30
0.0
 11
0.25
 21
0.25
 31
0.0
  0
LINE
  5
CA
330
9A
100
AcDbEntity
  8
0
  6
CONTINUOUS
 62
     0
100
AcDbLine
 10
0.25
 20
0.25
 30
0.0
 11
0.25
 21
-0.25
 31
0.0
  0
LINE
  5
CB
330
9A
100
AcDbEntity
  8
0
  6
CONTINUOUS
 62
     0
100
AcDbLine
 10
0.25
 20
-0.25
 30
0.0
 11
-0.25
 21
-0.25
 31
0.0
  0
LINE
  5
CC
330
9A
100
AcDbEntity
  8
0
  6
CONTINUOUS
 62
     0
100
AcDbLine
 10
-0.25
 20
-0.25
 30
0.0
 11
-0.25
 21
0.25
 31
0.0
  0
ENDBLK
  5
9C
330
9A
100
AcDbEntity
  8
0
100
AcDbBlockEnd
  0
BLOCK
  5
9E
330
9D
100
AcDbEntity
  8
0
100
AcDbBlockBegin
  2
EX_WBOX
 70
     0
 10
0.0
 20
0.0
 30
0.0
  3
EX_WBOX
  1

  0
LINE
  5
CD
330
9D
100
AcDbEntity
  8
0
  6
CONTINUOUS
 62
     0
100
AcDbLine
 10
-0.5
 20
0.0
 30
0.0
 11
-1.0
 21
0.0
 31
0.0
  0
LINE
  5
CE
330
9D
100
AcDbEntity
  8
0
  6
CONTINUOUS
 62
     0
100
AcDbLine
 10
-0.5
 20
0.5
 30
0.0
 11
0.5
 21
0.5
 31
0.0
  0
LINE
  5
CF
330
9D
100
AcDbEntity
  8
0
  6
CONTINUOUS
 62
     0
100
AcDbLine
 10
0.5
 20
0.5
 30
0.0
 11
0.5
 21
-0.5
 31
0.0
  0
LINE
  5
D0
330
9D
100
AcDbEntity
  8
0
  6
CONTINUOUS
 62
     0
100
AcDbLine
 10
0.5
 20
-0.5
 30
0.0
 11
-0.5
 21
-0.5
 31
0.0
  0
LINE
  5
D1
330
9D
100
AcDbEntity
  8
0
  6
CONTINUOUS
 62
     0
100
AcDbLine
 10
-0.5
 20
-0.5
 30
0.0
 11
-0.5
 21
0.5
 31
0.0
  0
ENDBLK
  5
9F
330
9D
100
AcDbEntity
  8
0
100
AcDbBlockEnd
  0
BLOCK
  5
A1
330
A0
100
AcDbEntity
  8
0
100
AcDbBlockBegin
  2
EX_INTEGRAL
 70
     0
 10
0.0
 20
0.0
 30
0.0
  3
EX_INTEGRAL
  1

  0
LINE
  5
D2
330
A0
100
AcDbEntity
  8
0
  6
CONTINUOUS
 62
     0
100
AcDbLine
 10
0.0
 20
0.0
 30
0.0
 11
-1.0
 21
0.0
 31
0.0
  0
ARC
  5
D3
330
A0
100
AcDbEntity
  8
0
  6
CONTINUOUS
 62
     0
100
AcDbCircle
 10
0.542115
 20
0.164992
 30
0.0
 40
0.56667
100
AcDbArc
 50
73.07249033629006
 51
196.9275130221199
  0
ARC
  5
D4
330
A0
100
AcDbEntity
  8
0
  6
CONTINUOUS
 62
     0
100
AcDbCircle
 10
-0.542115
 20
-0.164992
 30
0.0
 40
0.56667
100
AcDbArc
 50
253.0724869220464
 51
16.9275130559125
  0
ENDBLK
  5
A2
330
A0
100
AcDbEntity
  8
0
100
AcDbBlockEnd
  0
BLOCK
  5
474
330
473
100
AcDbEntity
  8
0
100
AcDbBlockBegin
  2
*D15
 70
     1
 10
0.0
 20
0.0
 30
0.0
  3
*D15
  1

  0
LINE
  5
476
330
473
100
AcDbEntity
  8
LAY-20
  6
CONTINUOUS
 62
     4
100
AcDbLine
 10
567.8076841561203
 20
973.7520497555903
 30
0.0
 11
567.8076841561203
 21
1143.7520497556
 31
0.0
  0
LINE
  5
477
330
473
100
AcDbEntity
  8
LAY-20
  6
CONTINUOUS
 62
     4
100
AcDbLine
 10
1469.8076841562
 20
973.7520497555903
 30
0.0
 11
1469.8076841562
 21
1143.7520497556
 31
0.0
  0
LINE
  5
478
330
473
100
AcDbEntity
  8
LAY-20
  6
CONTINUOUS
 62
     4
100
AcDbLine
 10
592.8076841561203
 20
1128.7520497556
 30
0.0
 11
1444.8076841562
 21
1128.7520497556
 31
0.0
  0
INSERT
  5
479
330
473
100
AcDbEntity
  8
LAY-20
 62
     4
100
AcDbBlockReference
  2
EX_BNORM
 10
567.8076841561203
 20
1128.7520497556
 30
0.0
 41
25.0
 42
25.0
 43
25.0
 50
180.0
  0
INSERT
  5
47A
330
473
100
AcDbEntity
  8
LAY-20
 62
     4
100
AcDbBlockReference
  2
EX_BNORM
 10
1469.8076841562
 20
1128.7520497556
 30
0.0
 41
25.0
 42
25.0
 43
25.0
  0
MTEXT
  5
47B
330
473
100
AcDbEntity
  8
LAY-20
 62
     7
100
AcDbMText
 10
1018.80768415616
 20
1153.7520497556
 30
0.0
 40
31.181104
 41
0.0
 71
     5
 72
     1
  1
902
  7
EXCADDIM1
  0
POINT
  5
47C
330
473
100
AcDbEntity
  8
DEFPOINTS
 62
     0
100
AcDbPoint
 10
567.8076841561203
 20
958.7520497555903
 30
0.0
  0
POINT
  5
47D
330
473
100
AcDbEntity
  8
DEFPOINTS
 62
     0
100
AcDbPoint
 10
1469.8076841562
 20
958.7520497555903
 30
0.0
  0
POINT
  5
47E
330
473
100
AcDbEntity
  8
DEFPOINTS
 62
     0
100
AcDbPoint
 10
1469.8076841562
 20
1128.7520497556
 30
0.0
  0
ENDBLK
  5
475
330
473
100
AcDbEntity
  8
0
100
AcDbBlockEnd
  0
BLOCK
  5
481
330
480
100
AcDbEntity
  8
0
100
AcDbBlockBegin
  2
*D16
 70
     1
 10
0.0
 20
0.0
 30
0.0
  3
*D16
  1

  0
LINE
  5
483
330
480
100
AcDbEntity
  8
LAY-20
  6
CONTINUOUS
 62
     4
100
AcDbLine
 10
583.8076841562424
 20
973.7520497555934
 30
0.0
 11
583.8076841562424
 21
1073.7520497556
 31
0.0
  0
LINE
  5
484
330
480
100
AcDbEntity
  8
LAY-20
  6
CONTINUOUS
 62
     4
100
AcDbLine
 10
1017.807684156115
 20
973.7520497555956
 30
0.0
 11
1017.807684156115
 21
1073.7520497556
 31
0.0
  0
LINE
  5
485
330
480
100
AcDbEntity
  8
LAY-20
  6
CONTINUOUS
 62
     4
100
AcDbLine
 10
608.8076841562424
 20
1058.7520497556
 30
0.0
 11
992.8076841561151
 21
1058.7520497556
 31
0.0
  0
INSERT
  5
486
330
480
100
AcDbEntity
  8
LAY-20
 62
     4
100
AcDbBlockReference
  2
EX_BNORM
 10
583.8076841562424
 20
1058.7520497556
 30
0.0
 41
25.0
 42
25.0
 43
25.0
 50
180.0
  0
INSERT
  5
487
330
480
100
AcDbEntity
  8
LAY-20
 62
     4
100
AcDbBlockReference
  2
EX_BNORM
 10
1017.807684156115
 20
1058.7520497556
 30
0.0
 41
25.0
 42
25.0
 43
25.0
  0
MTEXT
  5
488
330
480
100
AcDbEntity
  8
LAY-20
 62
     7
100
AcDbMText
 10
800.8076841561788
 20
1083.7520497556
 30
0.0
 40
31.181104
 41
0.0
 71
     5
 72
     1
  1
434
  7
EXCADDIM1
  0
POINT
  5
489
330
480
100
AcDbEntity
  8
DEFPOINTS
 62
     0
100
AcDbPoint
 10
583.8076841562424
 20
958.7520497555934
 30
0.0
  0
POINT
  5
48A
330
480
100
AcDbEntity
  8
DEFPOINTS
 62
     0
100
AcDbPoint
 10
1017.807684156115
 20
958.7520497555956
 30
0.0
  0
POINT
  5
48B
330
480
100
AcDbEntity
  8
DEFPOINTS
 62
     0
100
AcDbPoint
 10
1017.807684156115
 20
1058.7520497556
 30
0.0
  0
ENDBLK
  5
482
330
480
100
AcDbEntity
  8
0
100
AcDbBlockEnd
  0
BLOCK
  5
48E
330
48D
100
AcDbEntity
  8
0
100
AcDbBlockBegin
  2
*D17
 70
     1
 10
0.0
 20
0.0
 30
0.0
  3
*D17
  1

  0
LINE
  5
490
330
48D
100
AcDbEntity
  8
LAY-20
  6
CONTINUOUS
 62
     4
100
AcDbLine
 10
1368.8076841562
 20
788.7520497555901
 30
0.0
 11
1368.8076841562
 21
688.7520497555902
 31
0.0
  0
LINE
  5
491
330
48D
100
AcDbEntity
  8
LAY-20
  6
CONTINUOUS
 62
     4
100
AcDbLine
 10
668.8076841561201
 20
788.7520497555901
 30
0.0
 11
668.8076841561201
 21
688.7520497555902
 31
0.0
  0
LINE
  5
492
330
48D
100
AcDbEntity
  8
LAY-20
  6
CONTINUOUS
 62
     4
100
AcDbLine
 10
1343.8076841562
 20
703.75204975559
 30
0.0
 11
693.8076841561201
 21
703.75204975559
 31
0.0
  0
INSERT
  5
493
330
48D
100
AcDbEntity
  8
LAY-20
 62
     4
100
AcDbBlockReference
  2
EX_BNORM
 10
1368.8076841562
 20
703.75204975559
 30
0.0
 41
25.0
 42
25.0
 43
25.0
  0
INSERT
  5
494
330
48D
100
AcDbEntity
  8
LAY-20
 62
     4
100
AcDbBlockReference
  2
EX_BNORM
 10
668.8076841561201
 20
703.75204975559
 30
0.0
 41
25.0
 42
25.0
 43
25.0
 50
180.0
  0
MTEXT
  5
495
330
48D
100
AcDbEntity
  8
LAY-20
 62
     7
100
AcDbMText
 10
1018.80768415616
 20
728.7520497555898
 30
0.0
 40
31.181104
 41
0.0
 71
     5
 72
     1
  1
700
  7
EXCADDIM1
  0
POINT
  5
496
330
48D
100
AcDbEntity
  8
DEFPOINTS
 62
     0
100
AcDbPoint
 10
1368.8076841562
 20
803.7520497555901
 30
0.0
  0
POINT
  5
497
330
48D
100
AcDbEntity
  8
DEFPOINTS
 62
     0
100
AcDbPoint
 10
668.8076841561201
 20
803.7520497555901
 30
0.0
  0
POINT
  5
498
330
48D
100
AcDbEntity
  8
DEFPOINTS
 62
     0
100
AcDbPoint
 10
668.8076841561201
 20
703.75204975559
 30
0.0
  0
ENDBLK
  5
48F
330
48D
100
AcDbEntity
  8
0
100
AcDbBlockEnd
  0
BLOCK
  5
49B
330
49A
100
AcDbEntity
  8
0
100
AcDbBlockBegin
  2
*D18
 70
     1
 10
0.0
 20
0.0
 30
0.0
  3
*D18
  1

  0
LINE
  5
49D
330
49A
100
AcDbEntity
  8
LAY-20
  6
CONTINUOUS
 62
     4
100
AcDbLine
 10
1430.0076841562
 20
803.7520497555901
 30
0.0
 11
1613.706168965999
 21
803.7520497555901
 31
0.0
  0
LINE
  5
49E
330
49A
100
AcDbEntity
  8
LAY-20
  6
CONTINUOUS
 62
     4
100
AcDbLine
 10
1484.8076841562
 20
958.7520497555903
 30
0.0
 11
1613.706168965999
 21
958.7520497555903
 31
0.0
  0
LINE
  5
49F
330
49A
100
AcDbEntity
  8
LAY-20
  6
CONTINUOUS
 62
     4
100
AcDbLine
 10
1598.706168966
 20
828.7520497555901
 30
0.0
 11
1598.706168966
 21
933.7520497555903
 31
0.0
  0
INSERT
  5
4A0
330
49A
100
AcDbEntity
  8
LAY-20
 62
     4
100
AcDbBlockReference
  2
EX_BNORM
 10
1598.706168966
 20
803.7520497555901
 30
0.0
 41
25.0
 42
25.0
 43
25.0
 50
270.0
  0
INSERT
  5
4A1
330
49A
100
AcDbEntity
  8
LAY-20
 62
     4
100
AcDbBlockReference
  2
EX_BNORM
 10
1598.706168966
 20
958.7520497555903
 30
0.0
 41
25.0
 42
25.0
 43
25.0
 50
90.0
  0
MTEXT
  5
4A2
330
49A
100
AcDbEntity
  8
LAY-20
 62
     7
100
AcDbMText
 10
1573.706168966
 20
881.25204975559
 30
0.0
 40
31.181104
 41
0.0
 71
     5
 72
     1
  1
155
  7
EXCADDIM1
 11
0.0
 21
1.0
 31
0.0
  0
POINT
  5
4A3
330
49A
100
AcDbEntity
  8
DEFPOINTS
 62
     0
100
AcDbPoint
 10
1415.0076841562
 20
803.7520497555901
 30
0.0
  0
POINT
  5
4A4
330
49A
100
AcDbEntity
  8
DEFPOINTS
 62
     0
100
AcDbPoint
 10
1469.8076841562
 20
958.7520497555903
 30
0.0
  0
POINT
  5
4A5
330
49A
100
AcDbEntity
  8
DEFPOINTS
 62
     0
100
AcDbPoint
 10
1598.706168966
 20
958.7520497555903
 30
0.0
  0
ENDBLK
  5
49C
330
49A
100
AcDbEntity
  8
0
100
AcDbBlockEnd
  0
BLOCK
  5
4A8
330
4A7
100
AcDbEntity
  8
0
100
AcDbBlockBegin
  2
*D19
 70
     1
 10
0.0
 20
0.0
 30
0.0
  3
*D19
  1

  0
LINE
  5
4AA
330
4A7
100
AcDbEntity
  8
LAY-20
  6
CONTINUOUS
 62
     4
100
AcDbLine
 10
1461.0076841562
 20
873.5520497555899
 30
0.0
 11
1461.0076841562
 21
618.75204975559
 31
0.0
  0
LINE
  5
4AB
330
4A7
100
AcDbEntity
  8
LAY-20
  6
CONTINUOUS
 62
     4
100
AcDbLine
 10
576.6076841561401
 20
873.5520497555899
 30
0.0
 11
576.6076841561401
 21
618.75204975559
 31
0.0
  0
LINE
  5
4AC
330
4A7
100
AcDbEntity
  8
LAY-20
  6
CONTINUOUS
 62
     4
100
AcDbLine
 10
1436.0076841562
 20
633.75204975559
 30
0.0
 11
601.6076841561401
 21
633.75204975559
 31
0.0
  0
INSERT
  5
4AD
330
4A7
100
AcDbEntity
  8
LAY-20
 62
     4
100
AcDbBlockReference
  2
EX_BNORM
 10
1461.0076841562
 20
633.75204975559
 30
0.0
 41
25.0
 42
25.0
 43
25.0
  0
INSERT
  5
4AE
330
4A7
100
AcDbEntity
  8
LAY-20
 62
     4
100
AcDbBlockReference
  2
EX_BNORM
 10
576.6076841561401
 20
633.75204975559
 30
0.0
 41
25.0
 42
25.0
 43
25.0
 50
180.0
  0
MTEXT
  5
4AF
330
4A7
100
AcDbEntity
  8
LAY-20
 62
     7
100
AcDbMText
 10
1018.80768415617
 20
658.75204975559
 30
0.0
 40
31.181104
 41
0.0
 71
     5
 72
     1
  1
884
  7
EXCADDIM1
  0
POINT
  5
4B0
330
4A7
100
AcDbEntity
  8
DEFPOINTS
 62
     0
100
AcDbPoint
 10
1461.0076841562
 20
888.5520497555899
 30
0.0
  0
POINT
  5
4B1
330
4A7
100
AcDbEntity
  8
DEFPOINTS
 62
     0
100
AcDbPoint
 10
576.6076841561401
 20
888.5520497555899
 30
0.0
  0
POINT
  5
4B2
330
4A7
100
AcDbEntity
  8
DEFPOINTS
 62
     0
100
AcDbPoint
 10
576.6076841561401
 20
633.75204975559
 30
0.0
  0
ENDBLK
  5
4A9
330
4A7
100
AcDbEntity
  8
0
100
AcDbBlockEnd
  0
BLOCK
  5
4B5
330
4B4
100
AcDbEntity
  8
0
100
AcDbBlockBegin
  2
*D20
 70
     1
 10
0.0
 20
0.0
 30
0.0
  3
*D20
  1

  0
LINE
  5
4B7
330
4B4
100
AcDbEntity
  8
LAY-20
  6
CONTINUOUS
 62
     4
100
AcDbLine
 10
1809.52351127151
 20
1313.47069133732
 30
0.0
 11
1639.5235112715
 21
1313.47069133732
 31
0.0
  0
LINE
  5
4B8
330
4B4
100
AcDbEntity
  8
LAY-20
  6
CONTINUOUS
 62
     4
100
AcDbLine
 10
1809.52351127151
 20
2215.4706913374
 30
0.0
 11
1639.5235112715
 21
2215.4706913374
 31
0.0
  0
LINE
  5
4B9
330
4B4
100
AcDbEntity
  8
LAY-20
  6
CONTINUOUS
 62
     4
100
AcDbLine
 10
1654.5235112715
 20
1338.47069133732
 30
0.0
 11
1654.5235112715
 21
2190.4706913374
 31
0.0
  0
INSERT
  5
4BA
330
4B4
100
AcDbEntity
  8
LAY-20
 62
     4
100
AcDbBlockReference
  2
EX_BNORM
 10
1654.5235112715
 20
1313.47069133732
 30
0.0
 41
25.0
 42
25.0
 43
25.0
 50
270.0
  0
INSERT
  5
4BB
330
4B4
100
AcDbEntity
  8
LAY-20
 62
     4
100
AcDbBlockReference
  2
EX_BNORM
 10
1654.5235112715
 20
2215.4706913374
 30
0.0
 41
25.0
 42
25.0
 43
25.0
 50
90.0
  0
MTEXT
  5
4BC
330
4B4
100
AcDbEntity
  8
LAY-20
 62
     7
100
AcDbMText
 10
1629.5235112715
 20
1764.47069133736
 30
0.0
 40
31.181104
 41
0.0
 71
     5
 72
     1
  1
902
  7
EXCADDIM1
 11
0.0
 21
1.0
 31
0.0
  0
POINT
  5
4BD
330
4B4
100
AcDbEntity
  8
DEFPOINTS
 62
     0
100
AcDbPoint
 10
1824.52351127151
 20
1313.47069133732
 30
0.0
  0
POINT
  5
4BE
330
4B4
100
AcDbEntity
  8
DEFPOINTS
 62
     0
100
AcDbPoint
 10
1824.52351127151
 20
2215.4706913374
 30
0.0
  0
POINT
  5
4BF
330
4B4
100
AcDbEntity
  8
DEFPOINTS
 62
     0
100
AcDbPoint
 10
1654.5235112715
 20
2215.4706913374
 30
0.0
  0
ENDBLK
  5
4B6
330
4B4
100
AcDbEntity
  8
0
100
AcDbBlockEnd
  0
BLOCK
  5
4C2
330
4C1
100
AcDbEntity
  8
0
100
AcDbBlockBegin
  2
*D21
 70
     1
 10
0.0
 20
0.0
 30
0.0
  3
*D21
  1

  0
LINE
  5
4C4
330
4C1
100
AcDbEntity
  8
LAY-20
  6
CONTINUOUS
 62
     4
100
AcDbLine
 10
1809.523511271507
 20
1329.470691337442
 30
0.0
 11
1709.5235112715
 21
1329.470691337442
 31
0.0
  0
LINE
  5
4C5
330
4C1
100
AcDbEntity
  8
LAY-20
  6
CONTINUOUS
 62
     4
100
AcDbLine
 10
1809.523511271505
 20
2199.470691337415
 30
0.0
 11
1709.5235112715
 21
2199.470691337415
 31
0.0
  0
LINE
  5
4C6
330
4C1
100
AcDbEntity
  8
LAY-20
  6
CONTINUOUS
 62
     4
100
AcDbLine
 10
1724.5235112715
 20
1354.470691337442
 30
0.0
 11
1724.5235112715
 21
2174.470691337415
 31
0.0
  0
INSERT
  5
4C7
330
4C1
100
AcDbEntity
  8
LAY-20
 62
     4
100
AcDbBlockReference
  2
EX_BNORM
 10
1724.5235112715
 20
1329.470691337442
 30
0.0
 41
25.0
 42
25.0
 43
25.0
 50
270.0
  0
INSERT
  5
4C8
330
4C1
100
AcDbEntity
  8
LAY-20
 62
     4
100
AcDbBlockReference
  2
EX_BNORM
 10
1724.5235112715
 20
2199.470691337415
 30
0.0
 41
25.0
 42
25.0
 43
25.0
 50
90.0
  0
MTEXT
  5
4C9
330
4C1
100
AcDbEntity
  8
LAY-20
 62
     7
100
AcDbMText
 10
1699.5235112715
 20
1764.470691337428
 30
0.0
 40
31.181104
 41
0.0
 71
     5
 72
     1
  1
870
  7
EXCADDIM1
 11
0.0
 21
1.0
 31
0.0
  0
POINT
  5
4CA
330
4C1
100
AcDbEntity
  8
DEFPOINTS
 62
     0
100
AcDbPoint
 10
1824.523511271507
 20
1329.470691337442
 30
0.0
  0
POINT
  5
4CB
330
4C1
100
AcDbEntity
  8
DEFPOINTS
 62
     0
100
AcDbPoint
 10
1824.523511271505
 20
2199.470691337415
 30
0.0
  0
POINT
  5
4CC
330
4C1
100
AcDbEntity
  8
DEFPOINTS
 62
     0
100
AcDbPoint
 10
1724.5235112715
 20
2199.470691337415
 30
0.0
  0
ENDBLK
  5
4C3
330
4C1
100
AcDbEntity
  8
0
100
AcDbBlockEnd
  0
BLOCK
  5
4CF
330
4CE
100
AcDbEntity
  8
0
100
AcDbBlockBegin
  2
*D22
 70
     1
 10
0.0
 20
0.0
 30
0.0
  3
*D22
  1

  0
LINE
  5
4D1
330
4CE
100
AcDbEntity
  8
LAY-20
  6
CONTINUOUS
 62
     4
100
AcDbLine
 10
1994.52351127151
 20
2114.4706913374
 30
0.0
 11
2094.52351127151
 21
2114.470691337399
 31
0.0
  0
LINE
  5
4D2
330
4CE
100
AcDbEntity
  8
LAY-20
  6
CONTINUOUS
 62
     4
100
AcDbLine
 10
1994.52351127151
 20
1414.47069133732
 30
0.0
 11
2094.52351127151
 21
1414.47069133732
 31
0.0
  0
LINE
  5
4D3
330
4CE
100
AcDbEntity
  8
LAY-20
  6
CONTINUOUS
 62
     4
100
AcDbLine
 10
2079.52351127151
 20
2089.470691337399
 30
0.0
 11
2079.52351127151
 21
1439.47069133732
 31
0.0
  0
INSERT
  5
4D4
330
4CE
100
AcDbEntity
  8
LAY-20
 62
     4
100
AcDbBlockReference
  2
EX_BNORM
 10
2079.52351127151
 20
2114.470691337399
 30
0.0
 41
25.0
 42
25.0
 43
25.0
 50
90.0
  0
INSERT
  5
4D5
330
4CE
100
AcDbEntity
  8
LAY-20
 62
     4
100
AcDbBlockReference
  2
EX_BNORM
 10
2079.52351127151
 20
1414.47069133732
 30
0.0
 41
25.0
 42
25.0
 43
25.0
 50
270.0
  0
MTEXT
  5
4D6
330
4CE
100
AcDbEntity
  8
LAY-20
 62
     7
100
AcDbMText
 10
2054.52351127151
 20
1764.47069133736
 30
0.0
 40
31.181104
 41
0.0
 71
     5
 72
     1
  1
700
  7
EXCADDIM1
 11
0.0
 21
1.0
 31
0.0
  0
POINT
  5
4D7
330
4CE
100
AcDbEntity
  8
DEFPOINTS
 62
     0
100
AcDbPoint
 10
1979.52351127151
 20
2114.4706913374
 30
0.0
  0
POINT
  5
4D8
330
4CE
100
AcDbEntity
  8
DEFPOINTS
 62
     0
100
AcDbPoint
 10
1979.52351127151
 20
1414.47069133732
 30
0.0
  0
POINT
  5
4D9
330
4CE
100
AcDbEntity
  8
DEFPOINTS
 62
     0
100
AcDbPoint
 10
2079.52351127151
 20
1414.47069133732
 30
0.0
  0
ENDBLK
  5
4D0
330
4CE
100
AcDbEntity
  8
0
100
AcDbBlockEnd
  0
BLOCK
  5
4DC
330
4DB
100
AcDbEntity
  8
0
100
AcDbBlockBegin
  2
*D23
 70
     1
 10
0.0
 20
0.0
 30
0.0
  3
*D23
  1

  0
LINE
  5
4DE
330
4DB
100
AcDbEntity
  8
LAY-20
  6
CONTINUOUS
 62
     4
100
AcDbLine
 10
1909.7235112715
 20
2206.6706913374
 30
0.0
 11
2164.52351127151
 21
2206.670691337399
 31
0.0
  0
LINE
  5
4DF
330
4DB
100
AcDbEntity
  8
LAY-20
  6
CONTINUOUS
 62
     4
100
AcDbLine
 10
1909.7235112715
 20
1322.27069133734
 30
0.0
 11
2164.52351127151
 21
1322.27069133734
 31
0.0
  0
LINE
  5
4E0
330
4DB
100
AcDbEntity
  8
LAY-20
  6
CONTINUOUS
 62
     4
100
AcDbLine
 10
2149.52351127151
 20
2181.670691337399
 30
0.0
 11
2149.52351127151
 21
1347.27069133734
 31
0.0
  0
INSERT
  5
4E1
330
4DB
100
AcDbEntity
  8
LAY-20
 62
     4
100
AcDbBlockReference
  2
EX_BNORM
 10
2149.52351127151
 20
2206.670691337399
 30
0.0
 41
25.0
 42
25.0
 43
25.0
 50
90.0
  0
INSERT
  5
4E2
330
4DB
100
AcDbEntity
  8
LAY-20
 62
     4
100
AcDbBlockReference
  2
EX_BNORM
 10
2149.52351127151
 20
1322.27069133734
 30
0.0
 41
25.0
 42
25.0
 43
25.0
 50
270.0
  0
MTEXT
  5
4E3
330
4DB
100
AcDbEntity
  8
LAY-20
 62
     7
100
AcDbMText
 10
2124.52351127151
 20
1764.47069133737
 30
0.0
 40
31.181104
 41
0.0
 71
     5
 72
     1
  1
884
  7
EXCADDIM1
 11
0.0
 21
1.0
 31
0.0
  0
POINT
  5
4E4
330
4DB
100
AcDbEntity
  8
DEFPOINTS
 62
     0
100
AcDbPoint
 10
1894.7235112715
 20
2206.6706913374
 30
0.0
  0
POINT
  5
4E5
330
4DB
100
AcDbEntity
  8
DEFPOINTS
 62
     0
100
AcDbPoint
 10
1894.7235112715
 20
1322.27069133734
 30
0.0
  0
POINT
  5
4E6
330
4DB
100
AcDbEntity
  8
DEFPOINTS
 62
     0
100
AcDbPoint
 10
2149.52351127151
 20
1322.27069133734
 30
0.0
  0
ENDBLK
  5
4DD
330
4DB
100
AcDbEntity
  8
0
100
AcDbBlockEnd
  0
BLOCK
  5
4E9
330
4E8
100
AcDbEntity
  8
0
100
AcDbBlockBegin
  2
*D24
 70
     1
 10
0.0
 20
0.0
 30
0.0
  3
*D24
  1

  0
LINE
  5
4EB
330
4E8
100
AcDbEntity
  8
LAY-20
  6
CONTINUOUS
 62
     4
100
AcDbLine
 10
1170.0
 20
952.7520497555702
 30
0.0
 11
1170.0
 21
958.7520497555801
 31
0.0
  0
LINE
  5
4EC
330
4E8
100
AcDbEntity
  8
LAY-20
  6
CONTINUOUS
 62
     4
100
AcDbLine
 10
1170.0
 20
927.7520497555702
 30
0.0
 11
1170.0
 21
902.7520497555702
 31
0.0
  0
LINE
  5
4ED
330
4E8
100
AcDbEntity
  8
LAY-20
  6
CONTINUOUS
 62
     4
100
AcDbLine
 10
1170.0
 20
983.7520497555801
 30
0.0
 11
1170.0
 21
1008.75204975558
 31
0.0
  0
INSERT
  5
4EE
330
4E8
100
AcDbEntity
  8
LAY-20
 62
     4
100
AcDbBlockReference
  2
EX_BNORM
 10
1170.0
 20
952.7520497555702
 30
0.0
 41
25.0
 42
25.0
 43
25.0
 50
90.0
  0
INSERT
  5
4EF
330
4E8
100
AcDbEntity
  8
LAY-20
 62
     4
100
AcDbBlockReference
  2
EX_BNORM
 10
1170.0
 20
958.7520497555801
 30
0.0
 41
25.0
 42
25.0
 43
25.0
 50
270.0
  0
MTEXT
  5
4F0
330
4E8
100
AcDbEntity
  8
LAY-20
 62
     7
100
AcDbMText
 10
1145.0
 20
1003.75204975558
 30
0.0
 40
31.181104
 41
0.0
 71
     5
 72
     1
  1
6
  7
EXCADDIM1
 11
0.0
 21
1.0
 31
0.0
  0
POINT
  5
4F1
330
4E8
100
AcDbEntity
  8
DEFPOINTS
 62
     0
100
AcDbPoint
 10
1170.0
 20
952.7520497555702
 30
0.0
  0
POINT
  5
4F2
330
4E8
100
AcDbEntity
  8
DEFPOINTS
 62
     0
100
AcDbPoint
 10
1170.0
 20
958.7520497555801
 30
0.0
  0
POINT
  5
4F3
330
4E8
100
AcDbEntity
  8
DEFPOINTS
 62
     0
100
AcDbPoint
 10
1170.0
 20
958.7520497555801
 30
0.0
  0
ENDBLK
  5
4EA
330
4E8
100
AcDbEntity
  8
0
100
AcDbBlockEnd
  0
ENDSEC
  0
SECTION
  2
ENTITIES
  0
LINE
  5
D5
330
1F
100
AcDbEntity
  8
LAY-10
  6
CONTINUOUS
 62
     7
100
AcDbLine
 10
628.4076841562044
 20
848.6459639423892
 30
0.0
 11
637.1137699693509
 21
857.3520497555354
 31
0.0
  0
LINE
  5
D6
330
1F
100
AcDbEntity
  8
LAY-10
  6
CONTINUOUS
 62
     7
100
AcDbLine
 10
628.4076841561996
 20
834.503828318653
 30
0.0
 11
651.2559055930868
 21
857.3520497555405
 31
0.0
  0
LINE
  5
D7
330
1F
100
AcDbEntity
  8
LAY-10
  6
CONTINUOUS
 62
     7
100
AcDbLine
 10
628.4076841562019
 20
820.3616926949246
 30
0.0
 11
665.398041216815
 21
857.3520497555381
 31
0.0
  0
LINE
  5
D8
330
1F
100
AcDbEntity
  8
LAY-10
  6
CONTINUOUS
 62
     7
100
AcDbLine
 10
632.740176840545
 20
810.5520497555367
 30
0.0
 11
679.5401768405433
 21
857.3520497555354
 31
0.0
  0
LINE
  5
D9
330
1F
100
AcDbEntity
  8
LAY-10
  6
CONTINUOUS
 62
     7
100
AcDbLine
 10
646.8823124642811
 20
810.552049755542
 30
0.0
 11
693.6823124642794
 21
857.3520497555407
 31
0.0
  0
LINE
  5
DA
330
1F
100
AcDbEntity
  8
LAY-10
  6
CONTINUOUS
 62
     7
100
AcDbLine
 10
661.0244480880092
 20
810.5520497555394
 30
0.0
 11
707.824448088008
 21
857.3520497555381
 31
0.0
  0
LINE
  5
DB
330
1F
100
AcDbEntity
  8
LAY-10
  6
CONTINUOUS
 62
     7
100
AcDbLine
 10
675.1665837117375
 20
810.5520497555369
 30
0.0
 11
721.9665837117361
 21
857.3520497555355
 31
0.0
  0
LINE
  5
DC
330
1F
100
AcDbEntity
  8
LAY-10
  6
CONTINUOUS
 62
     7
100
AcDbLine
 10
689.3087193354736
 20
810.552049755542
 30
0.0
 11
736.1087193354721
 21
857.3520497555407
 31
0.0
  0
LINE
  5
DD
330
1F
100
AcDbEntity
  8
LAY-10
  6
CONTINUOUS
 62
     7
100
AcDbLine
 10
703.4508549592022
 20
810.5520497555394
 30
0.0
 11
750.2508549592005
 21
857.3520497555381
 31
0.0
  0
LINE
  5
DE
330
1F
100
AcDbEntity
  8
LAY-10
  6
CONTINUOUS
 62
     7
100
AcDbLine
 10
717.5929905829302
 20
810.552049755537
 30
0.0
 11
764.3929905829365
 21
857.3520497555435
 31
0.0
  0
LINE
  5
DF
330
1F
100
AcDbEntity
  8
LAY-10
  6
CONTINUOUS
 62
     7
100
AcDbLine
 10
731.7351262066663
 20
810.5520497555422
 30
0.0
 11
778.5351262066652
 21
857.352049755541
 31
0.0
  0
LINE
  5
E0
330
1F
100
AcDbEntity
  8
LAY-10
  6
CONTINUOUS
 62
     7
100
AcDbLine
 10
745.8772618303946
 20
810.5520497555398
 30
0.0
 11
792.6772618303933
 21
857.3520497555382
 31
0.0
  0
LINE
  5
E1
330
1F
100
AcDbEntity
  8
LAY-10
  6
CONTINUOUS
 62
     7
100
AcDbLine
 10
760.0193974541232
 20
810.552049755537
 30
0.0
 11
806.8193974541293
 21
857.3520497555435
 31
0.0
  0
LINE
  5
E2
330
1F
100
AcDbEntity
  8
LAY-10
  6
CONTINUOUS
 62
     7
100
AcDbLine
 10
774.1615330778593
 20
810.5520497555424
 30
0.0
 11
820.9615330778577
 21
857.352049755541
 31
0.0
  0
LINE
  5
E3
330
1F
100
AcDbEntity
  8
LAY-10
  6
CONTINUOUS
 62
     7
100
AcDbLine
 10
788.3036687015874
 20
810.5520497555398
 30
0.0
 11
835.1036687015863
 21
857.3520497555384
 31
0.0
  0
LINE
  5
E4
330
1F
100
AcDbEntity
  8
LAY-10
  6
CONTINUOUS
 62
     7
100
AcDbLine
 10
802.4458043253157
 20
810.5520497555372
 30
0.0
 11
849.245804325322
 21
857.3520497555436
 31
0.0
  0
LINE
  5
E5
330
1F
100
AcDbEntity
  8
LAY-10
  6
CONTINUOUS
 62
     7
100
AcDbLine
 10
816.5879399490518
 20
810.5520497555424
 30
0.0
 11
863.3879399490504
 21
857.352049755541
 31
0.0
  0
LINE
  5
E6
330
1F
100
AcDbEntity
  8
LAY-10
  6
CONTINUOUS
 62
     7
100
AcDbLine
 10
830.7300755727802
 20
810.5520497555398
 30
0.0
 11
877.5300755727787
 21
857.3520497555384
 31
0.0
  0
LINE
  5
E7
330
1F
100
AcDbEntity
  8
LAY-10
  6
CONTINUOUS
 62
     7
100
AcDbLine
 10
844.8722111965085
 20
810.5520497555375
 30
0.0
 11
891.6722111965148
 21
857.3520497555438
 31
0.0
  0
LINE
  5
E8
330
1F
100
AcDbEntity
  8
LAY-10
  6
CONTINUOUS
 62
     7
100
AcDbLine
 10
859.0143468202444
 20
810.5520497555426
 30
0.0
 11
905.8143468202429
 21
857.3520497555412
 31
0.0
  0
LINE
  5
E9
330
1F
100
AcDbEntity
  8
LAY-10
  6
CONTINUOUS
 62
     7
100
AcDbLine
 10
873.1564824439729
 20
810.5520497555399
 30
0.0
 11
919.9564824439716
 21
857.3520497555387
 31
0.0
  0
LINE
  5
EA
330
1F
100
AcDbEntity
  8
LAY-10
  6
CONTINUOUS
 62
     7
100
AcDbLine
 10
887.298618067701
 20
810.5520497555375
 30
0.0
 11
934.0986180677075
 21
857.3520497555438
 31
0.0
  0
LINE
  5
EB
330
1F
100
AcDbEntity
  8
LAY-10
  6
CONTINUOUS
 62
     7
100
AcDbLine
 10
901.4407536914373
 20
810.5520497555426
 30
0.0
 11
948.240753691436
 21
857.3520497555413
 31
0.0
  0
LINE
  5
EC
330
1F
100
AcDbEntity
  8
LAY-10
  6
CONTINUOUS
 62
     7
100
AcDbLine
 10
915.5828893151656
 20
810.5520497555401
 30
0.0
 11
962.3828893151642
 21
857.3520497555387
 31
0.0
  0
LINE
  5
ED
330
1F
100
AcDbEntity
  8
LAY-10
  6
CONTINUOUS
 62
     7
100
AcDbLine
 10
929.7250249388941
 20
810.5520497555376
 30
0.0
 11
976.5250249389004
 21
857.3520497555439
 31
0.0
  0
LINE
  5
EE
330
1F
100
AcDbEntity
  8
LAY-10
  6
CONTINUOUS
 62
     7
100
AcDbLine
 10
943.86716056263
 20
810.5520497555427
 30
0.0
 11
990.6671605626286
 21
857.3520497555415
 31
0.0
  0
LINE
  5
EF
330
1F
100
AcDbEntity
  8
LAY-10
  6
CONTINUOUS
 62
     7
100
AcDbLine
 10
958.0092961863585
 20
810.5520497555403
 30
0.0
 11
1004.809296186357
 21
857.3520497555388
 31
0.0
  0
LINE
  5
F0
330
1F
100
AcDbEntity
  8
LAY-10
  6
CONTINUOUS
 62
     7
100
AcDbLine
 10
972.1514318100942
 20
810.5520497555455
 30
0.0
 11
1018.951431810093
 21
857.3520497555442
 31
0.0
  0
LINE
  5
F1
330
1F
100
AcDbEntity
  8
LAY-10
  6
CONTINUOUS
 62
     7
100
AcDbLine
 10
986.2935674338229
 20
810.5520497555428
 30
0.0
 11
1033.093567433822
 21
857.3520497555415
 31
0.0
  0
LINE
  5
F2
330
1F
100
AcDbEntity
  8
LAY-10
  6
CONTINUOUS
 62
     7
100
AcDbLine
 10
1000.435703057551
 20
810.5520497555403
 30
0.0
 11
1047.23570305755
 21
857.3520497555389
 31
0.0
  0
LINE
  5
F3
330
1F
100
AcDbEntity
  8
LAY-10
  6
CONTINUOUS
 62
     7
100
AcDbLine
 10
1014.577838681287
 20
810.5520497555455
 30
0.0
 11
1061.377838681286
 21
857.3520497555442
 31
0.0
  0
LINE
  5
F4
330
1F
100
AcDbEntity
  8
LAY-10
  6
CONTINUOUS
 62
     7
100
AcDbLine
 10
1028.719974305016
 20
810.552049755543
 30
0.0
 11
1075.519974305014
 21
857.3520497555415
 31
0.0
  0
LINE
  5
F5
330
1F
100
AcDbEntity
  8
LAY-10
  6
CONTINUOUS
 62
     7
100
AcDbLine
 10
1042.862109928744
 20
810.5520497555405
 30
0.0
 11
1089.662109928743
 21
857.352049755539
 31
0.0
  0
LINE
  5
F6
330
1F
100
AcDbEntity
  8
LAY-10
  6
CONTINUOUS
 62
     7
100
AcDbLine
 10
1057.00424555248
 20
810.5520497555456
 30
0.0
 11
1103.804245552478
 21
857.3520497555444
 31
0.0
  0
LINE
  5
F7
330
1F
100
AcDbEntity
  8
LAY-10
  6
CONTINUOUS
 62
     7
100
AcDbLine
 10
1071.146381176208
 20
810.5520497555432
 30
0.0
 11
1117.946381176207
 21
857.3520497555417
 31
0.0
  0
LINE
  5
F8
330
1F
100
AcDbEntity
  8
LAY-10
  6
CONTINUOUS
 62
     7
100
AcDbLine
 10
1085.288516799937
 20
810.5520497555406
 30
0.0
 11
1132.088516799935
 21
857.3520497555393
 31
0.0
  0
LINE
  5
F9
330
1F
100
AcDbEntity
  8
LAY-10
  6
CONTINUOUS
 62
     7
100
AcDbLine
 10
1099.430652423673
 20
810.5520497555458
 30
0.0
 11
1146.230652423671
 21
857.3520497555444
 31
0.0
  0
LINE
  5
FA
330
1F
100
AcDbEntity
  8
LAY-10
  6
CONTINUOUS
 62
     7
100
AcDbLine
 10
1113.572788047401
 20
810.5520497555432
 30
0.0
 11
1160.372788047399
 21
857.3520497555418
 31
0.0
  0
LINE
  5
FB
330
1F
100
AcDbEntity
  8
LAY-10
  6
CONTINUOUS
 62
     7
100
AcDbLine
 10
1127.714923671129
 20
810.5520497555407
 30
0.0
 11
1174.514923671128
 21
857.3520497555394
 31
0.0
  0
LINE
  5
FC
330
1F
100
AcDbEntity
  8
LAY-10
  6
CONTINUOUS
 62
     7
100
AcDbLine
 10
1141.857059294865
 20
810.5520497555458
 30
0.0
 11
1188.657059294864
 21
857.3520497555445
 31
0.0
  0
LINE
  5
FD
330
1F
100
AcDbEntity
  8
LAY-10
  6
CONTINUOUS
 62
     7
100
AcDbLine
 10
1155.999194918594
 20
810.5520497555433
 30
0.0
 11
1202.799194918593
 21
857.3520497555419
 31
0.0
  0
LINE
  5
FE
330
1F
100
AcDbEntity
  8
LAY-10
  6
CONTINUOUS
 62
     7
100
AcDbLine
 10
1170.141330542322
 20
810.5520497555409
 30
0.0
 11
1216.94133054232
 21
857.3520497555394
 31
0.0
  0
LINE
  5
FF
330
1F
100
AcDbEntity
  8
LAY-10
  6
CONTINUOUS
 62
     7
100
AcDbLine
 10
1184.283466166058
 20
810.552049755546
 30
0.0
 11
1231.083466166057
 21
857.3520497555446
 31
0.0
  0
LINE
  5
100
330
1F
100
AcDbEntity
  8
LAY-10
  6
CONTINUOUS
 62
     7
100
AcDbLine
 10
1198.425601789786
 20
810.5520497555434
 30
0.0
 11
1245.225601789785
 21
857.3520497555421
 31
0.0
  0
LINE
  5
101
330
1F
100
AcDbEntity
  8
LAY-10
  6
CONTINUOUS
 62
     7
100
AcDbLine
 10
1212.567737413515
 20
810.5520497555409
 30
0.0
 11
1259.367737413514
 21
857.3520497555395
 31
0.0
  0
LINE
  5
102
330
1F
100
AcDbEntity
  8
LAY-10
  6
CONTINUOUS
 62
     7
100
AcDbLine
 10
1226.709873037251
 20
810.552049755546
 30
0.0
 11
1273.50987303725
 21
857.3520497555447
 31
0.0
  0
LINE
  5
103
330
1F
100
AcDbEntity
  8
LAY-10
  6
CONTINUOUS
 62
     7
100
AcDbLine
 10
1240.852008660979
 20
810.5520497555435
 30
0.0
 11
1287.652008660978
 21
857.3520497555421
 31
0.0
  0
LINE
  5
104
330
1F
100
AcDbEntity
  8
LAY-10
  6
CONTINUOUS
 62
     7
100
AcDbLine
 10
1254.994144284708
 20
810.552049755541
 30
0.0
 11
1301.794144284706
 21
857.3520497555396
 31
0.0
  0
LINE
  5
105
330
1F
100
AcDbEntity
  8
LAY-10
  6
CONTINUOUS
 62
     7
100
AcDbLine
 10
1269.136279908444
 20
810.5520497555461
 30
0.0
 11
1315.936279908442
 21
857.352049755545
 31
0.0
  0
LINE
  5
106
330
1F
100
AcDbEntity
  8
LAY-10
  6
CONTINUOUS
 62
     7
100
AcDbLine
 10
1283.278415532172
 20
810.5520497555437
 30
0.0
 11
1330.078415532171
 21
857.3520497555423
 31
0.0
  0
LINE
  5
107
330
1F
100
AcDbEntity
  8
LAY-10
  6
CONTINUOUS
 62
     7
100
AcDbLine
 10
1297.4205511559
 20
810.5520497555411
 30
0.0
 11
1344.220551155907
 21
857.3520497555476
 31
0.0
  0
LINE
  5
108
330
1F
100
AcDbEntity
  8
LAY-10
  6
CONTINUOUS
 62
     7
100
AcDbLine
 10
1311.562686779636
 20
810.5520497555462
 30
0.0
 11
1358.362686779635
 21
857.352049755545
 31
0.0
  0
LINE
  5
109
330
1F
100
AcDbEntity
  8
LAY-10
  6
CONTINUOUS
 62
     7
100
AcDbLine
 10
1325.704822403365
 20
810.5520497555437
 30
0.0
 11
1372.504822403364
 21
857.3520497555423
 31
0.0
  0
LINE
  5
10A
330
1F
100
AcDbEntity
  8
LAY-10
  6
CONTINUOUS
 62
     7
100
AcDbLine
 10
1339.846958027093
 20
810.5520497555411
 30
0.0
 11
1386.6469580271
 21
857.3520497555476
 31
0.0
  0
LINE
  5
10B
330
1F
100
AcDbEntity
  8
LAY-10
  6
CONTINUOUS
 62
     7
100
AcDbLine
 10
1353.989093650829
 20
810.5520497555462
 30
0.0
 11
1400.789093650828
 21
857.352049755545
 31
0.0
  0
LINE
  5
10C
330
1F
100
AcDbEntity
  8
LAY-10
  6
CONTINUOUS
 62
     7
100
AcDbLine
 10
1368.131229274557
 20
810.5520497555437
 30
0.0
 11
1409.207684156135
 21
851.6285046371208
 31
0.0
  0
LINE
  5
10D
330
1F
100
AcDbEntity
  8
LAY-10
  6
CONTINUOUS
 62
     7
100
AcDbLine
 10
1382.273364898294
 20
810.5520497555489
 30
0.0
 11
1409.20768415613
 21
837.4863690133848
 31
0.0
  0
LINE
  5
10E
330
1F
100
AcDbEntity
  8
LAY-10
  6
CONTINUOUS
 62
     7
100
AcDbLine
 10
1396.415500522022
 20
810.5520497555461
 30
0.0
 11
1409.207684156132
 21
823.3442333896563
 31
0.0
  0
LINE
  5
10F
330
1F
100
AcDbEntity
  8
LAY-10
  6
CONTINUOUS
 62
     7
100
AcDbLine
 10
637.1863819202486
 20
810.5520497555467
 30
0.0
 11
628.4076841562078
 21
819.3307475195879
 31
0.0
  0
LINE
  5
110
330
1F
100
AcDbEntity
  8
LAY-10
  6
CONTINUOUS
 62
     7
100
AcDbLine
 10
651.3285175439848
 20
810.5520497555417
 30
0.0
 11
628.4076841562025
 21
833.472883143324
 31
0.0
  0
LINE
  5
111
330
1F
100
AcDbEntity
  8
LAY-10
  6
CONTINUOUS
 62
     7
100
AcDbLine
 10
665.4706531677132
 20
810.5520497555443
 30
0.0
 11
628.407684156205
 21
847.6150187670523
 31
0.0
  0
LINE
  5
112
330
1F
100
AcDbEntity
  8
LAY-10
  6
CONTINUOUS
 62
     7
100
AcDbLine
 10
679.6127887914417
 20
810.5520497555466
 30
0.0
 11
632.8127887914429
 21
857.3520497555453
 31
0.0
  0
LINE
  5
113
330
1F
100
AcDbEntity
  8
LAY-10
  6
CONTINUOUS
 62
     7
100
AcDbLine
 10
693.7549244151774
 20
810.5520497555415
 30
0.0
 11
646.9549244151788
 21
857.3520497555402
 31
0.0
  0
LINE
  5
114
330
1F
100
AcDbEntity
  8
LAY-10
  6
CONTINUOUS
 62
     7
100
AcDbLine
 10
707.8970600389057
 20
810.552049755544
 30
0.0
 11
661.0970600389073
 21
857.3520497555428
 31
0.0
  0
LINE
  5
115
330
1F
100
AcDbEntity
  8
LAY-10
  6
CONTINUOUS
 62
     7
100
AcDbLine
 10
722.0391956626341
 20
810.5520497555466
 30
0.0
 11
675.2391956626358
 21
857.3520497555453
 31
0.0
  0
LINE
  5
116
330
1F
100
AcDbEntity
  8
LAY-10
  6
CONTINUOUS
 62
     7
100
AcDbLine
 10
736.1813312863703
 20
810.5520497555415
 30
0.0
 11
689.381331286372
 21
857.3520497555402
 31
0.0
  0
LINE
  5
117
330
1F
100
AcDbEntity
  8
LAY-10
  6
CONTINUOUS
 62
     7
100
AcDbLine
 10
750.3234669100989
 20
810.5520497555439
 30
0.0
 11
703.5234669101001
 21
857.3520497555427
 31
0.0
  0
LINE
  5
118
330
1F
100
AcDbEntity
  8
LAY-10
  6
CONTINUOUS
 62
     7
100
AcDbLine
 10
764.4656025338268
 20
810.5520497555466
 30
0.0
 11
717.6656025338284
 21
857.3520497555451
 31
0.0
  0
LINE
  5
119
330
1F
100
AcDbEntity
  8
LAY-10
  6
CONTINUOUS
 62
     7
100
AcDbLine
 10
778.6077381575628
 20
810.5520497555412
 30
0.0
 11
731.8077381575645
 21
857.3520497555401
 31
0.0
  0
LINE
  5
11A
330
1F
100
AcDbEntity
  8
LAY-10
  6
CONTINUOUS
 62
     7
100
AcDbLine
 10
792.7498737812914
 20
810.5520497555437
 30
0.0
 11
745.949873781293
 21
857.3520497555425
 31
0.0
  0
LINE
  5
11B
330
1F
100
AcDbEntity
  8
LAY-10
  6
CONTINUOUS
 62
     7
100
AcDbLine
 10
806.8920094050196
 20
810.5520497555464
 30
0.0
 11
760.092009405021
 21
857.3520497555451
 31
0.0
  0
LINE
  5
11C
330
1F
100
AcDbEntity
  8
LAY-10
  6
CONTINUOUS
 62
     7
100
AcDbLine
 10
821.0341450287556
 20
810.5520497555411
 30
0.0
 11
774.2341450287572
 21
857.3520497555398
 31
0.0
  0
LINE
  5
11D
330
1F
100
AcDbEntity
  8
LAY-10
  6
CONTINUOUS
 62
     7
100
AcDbLine
 10
835.176280652484
 20
810.5520497555437
 30
0.0
 11
788.3762806524857
 21
857.3520497555423
 31
0.0
  0
LINE
  5
11E
330
1F
100
AcDbEntity
  8
LAY-10
  6
CONTINUOUS
 62
     7
100
AcDbLine
 10
849.3184162762125
 20
810.5520497555461
 30
0.0
 11
802.5184162762141
 21
857.352049755545
 31
0.0
  0
LINE
  5
11F
330
1F
100
AcDbEntity
  8
LAY-10
  6
CONTINUOUS
 62
     7
100
AcDbLine
 10
863.4605518999485
 20
810.552049755541
 30
0.0
 11
816.6605518999497
 21
857.3520497555398
 31
0.0
  0
LINE
  5
120
330
1F
100
AcDbEntity
  8
LAY-10
  6
CONTINUOUS
 62
     7
100
AcDbLine
 10
877.6026875236769
 20
810.5520497555437
 30
0.0
 11
830.8026875236783
 21
857.3520497555422
 31
0.0
  0
LINE
  5
121
330
1F
100
AcDbEntity
  8
LAY-10
  6
CONTINUOUS
 62
     7
100
AcDbLine
 10
891.744823147405
 20
810.5520497555461
 30
0.0
 11
844.9448231474066
 21
857.352049755545
 31
0.0
  0
LINE
  5
122
330
1F
100
AcDbEntity
  8
LAY-10
  6
CONTINUOUS
 62
     7
100
AcDbLine
 10
905.8869587711413
 20
810.552049755541
 30
0.0
 11
859.0869587711427
 21
857.3520497555396
 31
0.0
  0
LINE
  5
123
330
1F
100
AcDbEntity
  8
LAY-10
  6
CONTINUOUS
 62
     7
100
AcDbLine
 10
920.0290943948696
 20
810.5520497555435
 30
0.0
 11
873.2290943948709
 21
857.3520497555421
 31
0.0
  0
LINE
  5
124
330
1F
100
AcDbEntity
  8
LAY-10
  6
CONTINUOUS
 62
     7
100
AcDbLine
 10
934.1712300185977
 20
810.552049755546
 30
0.0
 11
887.3712300185994
 21
857.3520497555446
 31
0.0
  0
LINE
  5
125
330
1F
100
AcDbEntity
  8
LAY-10
  6
CONTINUOUS
 62
     7
100
AcDbLine
 10
948.313365642334
 20
810.5520497555409
 30
0.0
 11
901.5133656423354
 21
857.3520497555395
 31
0.0
  0
LINE
  5
126
330
1F
100
AcDbEntity
  8
LAY-10
  6
CONTINUOUS
 62
     7
100
AcDbLine
 10
962.4555012660625
 20
810.5520497555433
 30
0.0
 11
915.6555012660638
 21
857.3520497555421
 31
0.0
  0
LINE
  5
127
330
1F
100
AcDbEntity
  8
LAY-10
  6
CONTINUOUS
 62
     7
100
AcDbLine
 10
976.5976368897907
 20
810.552049755546
 30
0.0
 11
929.7976368897919
 21
857.3520497555445
 31
0.0
  0
LINE
  5
128
330
1F
100
AcDbEntity
  8
LAY-10
  6
CONTINUOUS
 62
     7
100
AcDbLine
 10
990.7397725135269
 20
810.5520497555407
 30
0.0
 11
943.9397725135279
 21
857.3520497555394
 31
0.0
  0
LINE
  5
129
330
1F
100
AcDbEntity
  8
LAY-10
  6
CONTINUOUS
 62
     7
100
AcDbLine
 10
1004.881908137255
 20
810.5520497555433
 30
0.0
 11
958.0819081372563
 21
857.3520497555419
 31
0.0
  0
LINE
  5
12A
330
1F
100
AcDbEntity
  8
LAY-10
  6
CONTINUOUS
 62
     7
100
AcDbLine
 10
1019.024043760983
 20
810.5520497555458
 30
0.0
 11
972.224043760985
 21
857.3520497555444
 31
0.0
  0
LINE
  5
12B
330
1F
100
AcDbEntity
  8
LAY-10
  6
CONTINUOUS
 62
     7
100
AcDbLine
 10
1033.16617938472
 20
810.5520497555406
 30
0.0
 11
986.3661793847209
 21
857.3520497555393
 31
0.0
  0
LINE
  5
12C
330
1F
100
AcDbEntity
  8
LAY-10
  6
CONTINUOUS
 62
     7
100
AcDbLine
 10
1047.308315008448
 20
810.5520497555432
 30
0.0
 11
1000.508315008449
 21
857.3520497555417
 31
0.0
  0
LINE
  5
12D
330
1F
100
AcDbEntity
  8
LAY-10
  6
CONTINUOUS
 62
     7
100
AcDbLine
 10
1061.450450632176
 20
810.5520497555457
 30
0.0
 11
1014.650450632177
 21
857.3520497555444
 31
0.0
  0
LINE
  5
12E
330
1F
100
AcDbEntity
  8
LAY-10
  6
CONTINUOUS
 62
     7
100
AcDbLine
 10
1075.592586255912
 20
810.5520497555405
 30
0.0
 11
1028.792586255906
 21
857.3520497555468
 31
0.0
  0
LINE
  5
12F
330
1F
100
AcDbEntity
  8
LAY-10
  6
CONTINUOUS
 62
     7
100
AcDbLine
 10
1089.734721879641
 20
810.5520497555432
 30
0.0
 11
1042.934721879642
 21
857.3520497555417
 31
0.0
  0
LINE
  5
130
330
1F
100
AcDbEntity
  8
LAY-10
  6
CONTINUOUS
 62
     7
100
AcDbLine
 10
1103.876857503369
 20
810.5520497555455
 30
0.0
 11
1057.07685750337
 21
857.3520497555442
 31
0.0
  0
LINE
  5
131
330
1F
100
AcDbEntity
  8
LAY-10
  6
CONTINUOUS
 62
     7
100
AcDbLine
 10
1118.018993127105
 20
810.5520497555403
 30
0.0
 11
1071.218993127099
 21
857.3520497555467
 31
0.0
  0
LINE
  5
132
330
1F
100
AcDbEntity
  8
LAY-10
  6
CONTINUOUS
 62
     7
100
AcDbLine
 10
1132.161128750833
 20
810.552049755543
 30
0.0
 11
1085.361128750835
 21
857.3520497555415
 31
0.0
  0
LINE
  5
133
330
1F
100
AcDbEntity
  8
LAY-10
  6
CONTINUOUS
 62
     7
100
AcDbLine
 10
1146.303264374561
 20
810.5520497555455
 30
0.0
 11
1099.503264374563
 21
857.352049755544
 31
0.0
  0
LINE
  5
134
330
1F
100
AcDbEntity
  8
LAY-10
  6
CONTINUOUS
 62
     7
100
AcDbLine
 10
1160.445399998298
 20
810.5520497555403
 30
0.0
 11
1113.645399998291
 21
857.3520497555467
 31
0.0
  0
LINE
  5
135
330
1F
100
AcDbEntity
  8
LAY-10
  6
CONTINUOUS
 62
     7
100
AcDbLine
 10
1174.587535622026
 20
810.5520497555427
 30
0.0
 11
1127.787535622027
 21
857.3520497555415
 31
0.0
  0
LINE
  5
136
330
1F
100
AcDbEntity
  8
LAY-10
  6
CONTINUOUS
 62
     7
100
AcDbLine
 10
1188.729671245754
 20
810.5520497555455
 30
0.0
 11
1141.929671245756
 21
857.3520497555439
 31
0.0
  0
LINE
  5
137
330
1F
100
AcDbEntity
  8
LAY-10
  6
CONTINUOUS
 62
     7
100
AcDbLine
 10
1202.87180686949
 20
810.55204975554
 30
0.0
 11
1156.071806869484
 21
857.3520497555464
 31
0.0
  0
LINE
  5
138
330
1F
100
AcDbEntity
  8
LAY-10
  6
CONTINUOUS
 62
     7
100
AcDbLine
 10
1217.013942493219
 20
810.5520497555426
 30
0.0
 11
1170.21394249322
 21
857.3520497555413
 31
0.0
  0
LINE
  5
139
330
1F
100
AcDbEntity
  8
LAY-10
  6
CONTINUOUS
 62
     7
100
AcDbLine
 10
1231.156078116947
 20
810.5520497555452
 30
0.0
 11
1184.356078116949
 21
857.3520497555438
 31
0.0
  0
LINE
  5
13A
330
1F
100
AcDbEntity
  8
LAY-10
  6
CONTINUOUS
 62
     7
100
AcDbLine
 10
1245.298213740676
 20
810.5520497555478
 30
0.0
 11
1198.498213740677
 21
857.3520497555464
 31
0.0
  0
LINE
  5
13B
330
1F
100
AcDbEntity
  8
LAY-10
  6
CONTINUOUS
 62
     7
100
AcDbLine
 10
1259.440349364412
 20
810.5520497555426
 30
0.0
 11
1212.640349364413
 21
857.3520497555413
 31
0.0
  0
LINE
  5
13C
330
1F
100
AcDbEntity
  8
LAY-10
  6
CONTINUOUS
 62
     7
100
AcDbLine
 10
1273.58248498814
 20
810.5520497555455
 30
0.0
 11
1226.782484988141
 21
857.3520497555439
 31
0.0
  0
LINE
  5
13D
330
1F
100
AcDbEntity
  8
LAY-10
  6
CONTINUOUS
 62
     7
100
AcDbLine
 10
1287.724620611868
 20
810.5520497555478
 30
0.0
 11
1240.92462061187
 21
857.3520497555464
 31
0.0
  0
LINE
  5
13E
330
1F
100
AcDbEntity
  8
LAY-10
  6
CONTINUOUS
 62
     7
100
AcDbLine
 10
1301.866756235604
 20
810.5520497555427
 30
0.0
 11
1255.066756235606
 21
857.3520497555415
 31
0.0
  0
LINE
  5
13F
330
1F
100
AcDbEntity
  8
LAY-10
  6
CONTINUOUS
 62
     7
100
AcDbLine
 10
1316.008891859333
 20
810.5520497555455
 30
0.0
 11
1269.208891859334
 21
857.3520497555439
 31
0.0
  0
LINE
  5
140
330
1F
100
AcDbEntity
  8
LAY-10
  6
CONTINUOUS
 62
     7
100
AcDbLine
 10
1330.151027483062
 20
810.5520497555478
 30
0.0
 11
1283.351027483063
 21
857.3520497555464
 31
0.0
  0
LINE
  5
141
330
1F
100
AcDbEntity
  8
LAY-10
  6
CONTINUOUS
 62
     7
100
AcDbLine
 10
1344.293163106798
 20
810.5520497555428
 30
0.0
 11
1297.493163106799
 21
857.3520497555415
 31
0.0
  0
LINE
  5
142
330
1F
100
AcDbEntity
  8
LAY-10
  6
CONTINUOUS
 62
     7
100
AcDbLine
 10
1358.435298730526
 20
810.5520497555455
 30
0.0
 11
1311.635298730527
 21
857.352049755544
 31
0.0
  0
LINE
  5
143
330
1F
100
AcDbEntity
  8
LAY-10
  6
CONTINUOUS
 62
     7
100
AcDbLine
 10
1372.577434354254
 20
810.552049755548
 30
0.0
 11
1325.777434354256
 21
857.3520497555467
 31
0.0
  0
LINE
  5
144
330
1F
100
AcDbEntity
  8
LAY-10
  6
CONTINUOUS
 62
     7
100
AcDbLine
 10
1386.71956997799
 20
810.5520497555428
 30
0.0
 11
1339.919569977992
 21
857.3520497555415
 31
0.0
  0
LINE
  5
145
330
1F
100
AcDbEntity
  8
LAY-10
  6
CONTINUOUS
 62
     7
100
AcDbLine
 10
1400.861705601719
 20
810.5520497555455
 30
0.0
 11
1354.06170560172
 21
857.3520497555442
 31
0.0
  0
LINE
  5
146
330
1F
100
AcDbEntity
  8
LAY-10
  6
CONTINUOUS
 62
     7
100
AcDbLine
 10
1409.207684156131
 20
816.3482068248643
 30
0.0
 11
1368.203841225449
 21
857.3520497555467
 31
0.0
  0
LINE
  5
147
330
1F
100
AcDbEntity
  8
LAY-10
  6
CONTINUOUS
 62
     7
100
AcDbLine
 10
1409.207684156126
 20
830.4903424486004
 30
0.0
 11
1382.345976849185
 21
857.3520497555415
 31
0.0
  0
LINE
  5
148
330
1F
100
AcDbEntity
  8
LAY-10
  6
CONTINUOUS
 62
     7
100
AcDbLine
 10
1409.207684156128
 20
844.6324780723288
 30
0.0
 11
1396.488112472913
 21
857.3520497555442
 31
0.0
  0
LINE
  5
149
330
1F
100
AcDbEntity
  8
LAY-10
  6
CONTINUOUS
 62
     7
100
AcDbLine
 10
1934.629597084711
 20
1374.070691337404
 30
0.0
 11
1925.923511271565
 21
1382.776777150551
 31
0.0
  0
LINE
  5
14A
330
1F
100
AcDbEntity
  8
LAY-10
  6
CONTINUOUS
 62
     7
100
AcDbLine
 10
1948.771732708447
 20
1374.070691337399
 30
0.0
 11
1925.923511271559
 21
1396.918912774286
 31
0.0
  0
LINE
  5
14B
330
1F
100
AcDbEntity
  8
LAY-10
  6
CONTINUOUS
 62
     7
100
AcDbLine
 10
1962.913868332175
 20
1374.070691337402
 30
0.0
 11
1925.923511271562
 21
1411.061048398015
 31
0.0
  0
LINE
  5
14C
330
1F
100
AcDbEntity
  8
LAY-10
  6
CONTINUOUS
 62
     7
100
AcDbLine
 10
1972.723511271563
 20
1378.403184021745
 30
0.0
 11
1925.923511271565
 21
1425.203184021743
 31
0.0
  0
LINE
  5
14D
330
1F
100
AcDbEntity
  8
LAY-10
  6
CONTINUOUS
 62
     7
100
AcDbLine
 10
1972.723511271558
 20
1392.545319645481
 30
0.0
 11
1925.923511271559
 21
1439.345319645479
 31
0.0
  0
LINE
  5
14E
330
1F
100
AcDbEntity
  8
LAY-10
  6
CONTINUOUS
 62
     7
100
AcDbLine
 10
1972.723511271561
 20
1406.687455269209
 30
0.0
 11
1925.923511271562
 21
1453.487455269208
 31
0.0
  0
LINE
  5
14F
330
1F
100
AcDbEntity
  8
LAY-10
  6
CONTINUOUS
 62
     7
100
AcDbLine
 10
1972.723511271563
 20
1420.829590892937
 30
0.0
 11
1925.923511271565
 21
1467.629590892936
 31
0.0
  0
LINE
  5
150
330
1F
100
AcDbEntity
  8
LAY-10
  6
CONTINUOUS
 62
     7
100
AcDbLine
 10
1972.723511271558
 20
1434.971726516673
 30
0.0
 11
1925.923511271559
 21
1481.771726516672
 31
0.0
  0
LINE
  5
151
330
1F
100
AcDbEntity
  8
LAY-10
  6
CONTINUOUS
 62
     7
100
AcDbLine
 10
1972.723511271561
 20
1449.113862140402
 30
0.0
 11
1925.923511271562
 21
1495.9138621404
 31
0.0
  0
LINE
  5
152
330
1F
100
AcDbEntity
  8
LAY-10
  6
CONTINUOUS
 62
     7
100
AcDbLine
 10
1972.723511271563
 20
1463.25599776413
 30
0.0
 11
1925.923511271557
 21
1510.055997764136
 31
0.0
  0
LINE
  5
153
330
1F
100
AcDbEntity
  8
LAY-10
  6
CONTINUOUS
 62
     7
100
AcDbLine
 10
1972.723511271558
 20
1477.398133387866
 30
0.0
 11
1925.923511271559
 21
1524.198133387865
 31
0.0
  0
LINE
  5
154
330
1F
100
AcDbEntity
  8
LAY-10
  6
CONTINUOUS
 62
     7
100
AcDbLine
 10
1972.72351127156
 20
1491.540269011594
 30
0.0
 11
1925.923511271562
 21
1538.340269011593
 31
0.0
  0
LINE
  5
155
330
1F
100
AcDbEntity
  8
LAY-10
  6
CONTINUOUS
 62
     7
100
AcDbLine
 10
1972.723511271563
 20
1505.682404635323
 30
0.0
 11
1925.923511271557
 21
1552.482404635329
 31
0.0
  0
LINE
  5
156
330
1F
100
AcDbEntity
  8
LAY-10
  6
CONTINUOUS
 62
     7
100
AcDbLine
 10
1972.723511271558
 20
1519.824540259059
 30
0.0
 11
1925.923511271559
 21
1566.624540259057
 31
0.0
  0
LINE
  5
157
330
1F
100
AcDbEntity
  8
LAY-10
  6
CONTINUOUS
 62
     7
100
AcDbLine
 10
1972.72351127156
 20
1533.966675882787
 30
0.0
 11
1925.923511271561
 21
1580.766675882786
 31
0.0
  0
LINE
  5
158
330
1F
100
AcDbEntity
  8
LAY-10
  6
CONTINUOUS
 62
     7
100
AcDbLine
 10
1972.723511271563
 20
1548.108811506515
 30
0.0
 11
1925.923511271557
 21
1594.908811506522
 31
0.0
  0
LINE
  5
159
330
1F
100
AcDbEntity
  8
LAY-10
  6
CONTINUOUS
 62
     7
100
AcDbLine
 10
1972.723511271558
 20
1562.250947130251
 30
0.0
 11
1925.923511271559
 21
1609.05094713025
 31
0.0
  0
LINE
  5
15A
330
1F
100
AcDbEntity
  8
LAY-10
  6
CONTINUOUS
 62
     7
100
AcDbLine
 10
1972.72351127156
 20
1576.39308275398
 30
0.0
 11
1925.923511271561
 21
1623.193082753978
 31
0.0
  0
LINE
  5
15B
330
1F
100
AcDbEntity
  8
LAY-10
  6
CONTINUOUS
 62
     7
100
AcDbLine
 10
1972.723511271563
 20
1590.535218377708
 30
0.0
 11
1925.923511271556
 21
1637.335218377714
 31
0.0
  0
LINE
  5
15C
330
1F
100
AcDbEntity
  8
LAY-10
  6
CONTINUOUS
 62
     7
100
AcDbLine
 10
1972.723511271557
 20
1604.677354001444
 30
0.0
 11
1925.923511271559
 21
1651.477354001443
 31
0.0
  0
LINE
  5
15D
330
1F
100
AcDbEntity
  8
LAY-10
  6
CONTINUOUS
 62
     7
100
AcDbLine
 10
1972.72351127156
 20
1618.819489625173
 30
0.0
 11
1925.923511271561
 21
1665.619489625171
 31
0.0
  0
LINE
  5
15E
330
1F
100
AcDbEntity
  8
LAY-10
  6
CONTINUOUS
 62
     7
100
AcDbLine
 10
1972.723511271563
 20
1632.961625248901
 30
0.0
 11
1925.923511271556
 21
1679.761625248907
 31
0.0
  0
LINE
  5
15F
330
1F
100
AcDbEntity
  8
LAY-10
  6
CONTINUOUS
 62
     7
100
AcDbLine
 10
1972.723511271557
 20
1647.103760872637
 30
0.0
 11
1925.923511271559
 21
1693.903760872636
 31
0.0
  0
LINE
  5
160
330
1F
100
AcDbEntity
  8
LAY-10
  6
CONTINUOUS
 62
     7
100
AcDbLine
 10
1972.72351127156
 20
1661.245896496365
 30
0.0
 11
1925.923511271561
 21
1708.045896496364
 31
0.0
  0
LINE
  5
161
330
1F
100
AcDbEntity
  8
LAY-10
  6
CONTINUOUS
 62
     7
100
AcDbLine
 10
1972.723511271562
 20
1675.388032120094
 30
0.0
 11
1925.923511271556
 21
1722.1880321201
 31
0.0
  0
LINE
  5
162
330
1F
100
AcDbEntity
  8
LAY-10
  6
CONTINUOUS
 62
     7
100
AcDbLine
 10
1972.723511271557
 20
1689.53016774383
 30
0.0
 11
1925.923511271558
 21
1736.330167743828
 31
0.0
  0
LINE
  5
163
330
1F
100
AcDbEntity
  8
LAY-10
  6
CONTINUOUS
 62
     7
100
AcDbLine
 10
1972.72351127156
 20
1703.672303367558
 30
0.0
 11
1925.923511271561
 21
1750.472303367557
 31
0.0
  0
LINE
  5
164
330
1F
100
AcDbEntity
  8
LAY-10
  6
CONTINUOUS
 62
     7
100
AcDbLine
 10
1972.723511271554
 20
1717.814438991294
 30
0.0
 11
1925.923511271556
 21
1764.614438991293
 31
0.0
  0
LINE
  5
165
330
1F
100
AcDbEntity
  8
LAY-10
  6
CONTINUOUS
 62
     7
100
AcDbLine
 10
1972.723511271557
 20
1731.956574615023
 30
0.0
 11
1925.923511271558
 21
1778.756574615021
 31
0.0
  0
LINE
  5
166
330
1F
100
AcDbEntity
  8
LAY-10
  6
CONTINUOUS
 62
     7
100
AcDbLine
 10
1972.72351127156
 20
1746.098710238751
 30
0.0
 11
1925.923511271561
 21
1792.89871023875
 31
0.0
  0
LINE
  5
167
330
1F
100
AcDbEntity
  8
LAY-10
  6
CONTINUOUS
 62
     7
100
AcDbLine
 10
1972.723511271554
 20
1760.240845862487
 30
0.0
 11
1925.923511271556
 21
1807.040845862486
 31
0.0
  0
LINE
  5
168
330
1F
100
AcDbEntity
  8
LAY-10
  6
CONTINUOUS
 62
     7
100
AcDbLine
 10
1972.723511271557
 20
1774.382981486215
 30
0.0
 11
1925.923511271558
 21
1821.182981486214
 31
0.0
  0
LINE
  5
169
330
1F
100
AcDbEntity
  8
LAY-10
  6
CONTINUOUS
 62
     7
100
AcDbLine
 10
1972.72351127156
 20
1788.525117109943
 30
0.0
 11
1925.923511271561
 21
1835.325117109942
 31
0.0
  0
LINE
  5
16A
330
1F
100
AcDbEntity
  8
LAY-10
  6
CONTINUOUS
 62
     7
100
AcDbLine
 10
1972.723511271554
 20
1802.66725273368
 30
0.0
 11
1925.923511271556
 21
1849.467252733678
 31
0.0
  0
LINE
  5
16B
330
1F
100
AcDbEntity
  8
LAY-10
  6
CONTINUOUS
 62
     7
100
AcDbLine
 10
1972.723511271557
 20
1816.809388357408
 30
0.0
 11
1925.923511271558
 21
1863.609388357407
 31
0.0
  0
LINE
  5
16C
330
1F
100
AcDbEntity
  8
LAY-10
  6
CONTINUOUS
 62
     7
100
AcDbLine
 10
1972.72351127156
 20
1830.951523981136
 30
0.0
 11
1925.923511271561
 21
1877.751523981135
 31
0.0
  0
LINE
  5
16D
330
1F
100
AcDbEntity
  8
LAY-10
  6
CONTINUOUS
 62
     7
100
AcDbLine
 10
1972.723511271554
 20
1845.093659604872
 30
0.0
 11
1925.923511271556
 21
1891.893659604871
 31
0.0
  0
LINE
  5
16E
330
1F
100
AcDbEntity
  8
LAY-10
  6
CONTINUOUS
 62
     7
100
AcDbLine
 10
1972.723511271557
 20
1859.235795228601
 30
0.0
 11
1925.923511271558
 21
1906.035795228599
 31
0.0
  0
LINE
  5
16F
330
1F
100
AcDbEntity
  8
LAY-10
  6
CONTINUOUS
 62
     7
100
AcDbLine
 10
1972.72351127156
 20
1873.377930852329
 30
0.0
 11
1925.923511271561
 21
1920.177930852328
 31
0.0
  0
LINE
  5
170
330
1F
100
AcDbEntity
  8
LAY-10
  6
CONTINUOUS
 62
     7
100
AcDbLine
 10
1972.723511271554
 20
1887.520066476065
 30
0.0
 11
1925.923511271556
 21
1934.320066476064
 31
0.0
  0
LINE
  5
171
330
1F
100
AcDbEntity
  8
LAY-10
  6
CONTINUOUS
 62
     7
100
AcDbLine
 10
1972.723511271557
 20
1901.662202099793
 30
0.0
 11
1925.923511271558
 21
1948.462202099792
 31
0.0
  0
LINE
  5
172
330
1F
100
AcDbEntity
  8
LAY-10
  6
CONTINUOUS
 62
     7
100
AcDbLine
 10
1972.723511271559
 20
1915.804337723522
 30
0.0
 11
1925.923511271561
 21
1962.60433772352
 31
0.0
  0
LINE
  5
173
330
1F
100
AcDbEntity
  8
LAY-10
  6
CONTINUOUS
 62
     7
100
AcDbLine
 10
1972.723511271554
 20
1929.946473347258
 30
0.0
 11
1925.923511271556
 21
1976.746473347257
 31
0.0
  0
LINE
  5
174
330
1F
100
AcDbEntity
  8
LAY-10
  6
CONTINUOUS
 62
     7
100
AcDbLine
 10
1972.723511271557
 20
1944.088608970986
 30
0.0
 11
1925.923511271558
 21
1990.888608970985
 31
0.0
  0
LINE
  5
175
330
1F
100
AcDbEntity
  8
LAY-10
  6
CONTINUOUS
 62
     7
100
AcDbLine
 10
1972.723511271559
 20
1958.230744594714
 30
0.0
 11
1925.923511271561
 21
2005.030744594713
 31
0.0
  0
LINE
  5
176
330
1F
100
AcDbEntity
  8
LAY-10
  6
CONTINUOUS
 62
     7
100
AcDbLine
 10
1972.723511271554
 20
1972.372880218451
 30
0.0
 11
1925.923511271555
 21
2019.172880218449
 31
0.0
  0
LINE
  5
177
330
1F
100
AcDbEntity
  8
LAY-10
  6
CONTINUOUS
 62
     7
100
AcDbLine
 10
1972.723511271556
 20
1986.515015842179
 30
0.0
 11
1925.923511271558
 21
2033.315015842178
 31
0.0
  0
LINE
  5
178
330
1F
100
AcDbEntity
  8
LAY-10
  6
CONTINUOUS
 62
     7
100
AcDbLine
 10
1972.723511271559
 20
2000.657151465907
 30
0.0
 11
1925.92351127156
 21
2047.457151465906
 31
0.0
  0
LINE
  5
179
330
1F
100
AcDbEntity
  8
LAY-10
  6
CONTINUOUS
 62
     7
100
AcDbLine
 10
1972.723511271554
 20
2014.799287089643
 30
0.0
 11
1925.923511271555
 21
2061.599287089642
 31
0.0
  0
LINE
  5
17A
330
1F
100
AcDbEntity
  8
LAY-10
  6
CONTINUOUS
 62
     7
100
AcDbLine
 10
1972.723511271556
 20
2028.941422713372
 30
0.0
 11
1925.923511271558
 21
2075.74142271337
 31
0.0
  0
LINE
  5
17B
330
1F
100
AcDbEntity
  8
LAY-10
  6
CONTINUOUS
 62
     7
100
AcDbLine
 10
1972.723511271559
 20
2043.0835583371
 30
0.0
 11
1925.923511271552
 21
2089.883558337106
 31
0.0
  0
LINE
  5
17C
330
1F
100
AcDbEntity
  8
LAY-10
  6
CONTINUOUS
 62
     7
100
AcDbLine
 10
1972.723511271554
 20
2057.225693960836
 30
0.0
 11
1925.923511271555
 21
2104.025693960835
 31
0.0
  0
LINE
  5
17D
330
1F
100
AcDbEntity
  8
LAY-10
  6
CONTINUOUS
 62
     7
100
AcDbLine
 10
1972.723511271556
 20
2071.367829584564
 30
0.0
 11
1925.923511271558
 21
2118.167829584563
 31
0.0
  0
LINE
  5
17E
330
1F
100
AcDbEntity
  8
LAY-10
  6
CONTINUOUS
 62
     7
100
AcDbLine
 10
1972.723511271559
 20
2085.509965208293
 30
0.0
 11
1925.923511271552
 21
2132.309965208299
 31
0.0
  0
LINE
  5
17F
330
1F
100
AcDbEntity
  8
LAY-10
  6
CONTINUOUS
 62
     7
100
AcDbLine
 10
1972.723511271554
 20
2099.652100832029
 30
0.0
 11
1925.923511271555
 21
2146.452100832028
 31
0.0
  0
LINE
  5
180
330
1F
100
AcDbEntity
  8
LAY-10
  6
CONTINUOUS
 62
     7
100
AcDbLine
 10
1972.723511271556
 20
2113.794236455757
 30
0.0
 11
1931.647056389979
 21
2154.870691337334
 31
0.0
  0
LINE
  5
181
330
1F
100
AcDbEntity
  8
LAY-10
  6
CONTINUOUS
 62
     7
100
AcDbLine
 10
1972.723511271551
 20
2127.936372079494
 30
0.0
 11
1945.789192013715
 21
2154.870691337329
 31
0.0
  0
LINE
  5
182
330
1F
100
AcDbEntity
  8
LAY-10
  6
CONTINUOUS
 62
     7
100
AcDbLine
 10
1972.723511271554
 20
2142.078507703222
 30
0.0
 11
1959.931327637444
 21
2154.870691337332
 31
0.0
  0
LINE
  5
183
330
1F
100
AcDbEntity
  8
LAY-10
  6
CONTINUOUS
 62
     7
100
AcDbLine
 10
1972.723511271553
 20
1382.849389101448
 30
0.0
 11
1963.944813507512
 21
1374.070691337407
 31
0.0
  0
LINE
  5
184
330
1F
100
AcDbEntity
  8
LAY-10
  6
CONTINUOUS
 62
     7
100
AcDbLine
 10
1972.723511271558
 20
1396.991524725185
 30
0.0
 11
1949.802677883776
 21
1374.070691337402
 31
0.0
  0
LINE
  5
185
330
1F
100
AcDbEntity
  8
LAY-10
  6
CONTINUOUS
 62
     7
100
AcDbLine
 10
1972.723511271556
 20
1411.133660348913
 30
0.0
 11
1935.660542260048
 21
1374.070691337404
 31
0.0
  0
LINE
  5
186
330
1F
100
AcDbEntity
  8
LAY-10
  6
CONTINUOUS
 62
     7
100
AcDbLine
 10
1972.723511271553
 20
1425.275795972641
 30
0.0
 11
1925.923511271555
 21
1378.475795972643
 31
0.0
  0
LINE
  5
187
330
1F
100
AcDbEntity
  8
LAY-10
  6
CONTINUOUS
 62
     7
100
AcDbLine
 10
1972.723511271558
 20
1439.417931596377
 30
0.0
 11
1925.92351127156
 21
1392.617931596379
 31
0.0
  0
LINE
  5
188
330
1F
100
AcDbEntity
  8
LAY-10
  6
CONTINUOUS
 62
     7
100
AcDbLine
 10
1972.723511271556
 20
1453.560067220105
 30
0.0
 11
1925.923511271557
 21
1406.760067220107
 31
0.0
  0
LINE
  5
189
330
1F
100
AcDbEntity
  8
LAY-10
  6
CONTINUOUS
 62
     7
100
AcDbLine
 10
1972.723511271553
 20
1467.702202843834
 30
0.0
 11
1925.923511271555
 21
1420.902202843835
 31
0.0
  0
LINE
  5
18A
330
1F
100
AcDbEntity
  8
LAY-10
  6
CONTINUOUS
 62
     7
100
AcDbLine
 10
1972.723511271558
 20
1481.84433846757
 30
0.0
 11
1925.92351127156
 21
1435.044338467572
 31
0.0
  0
LINE
  5
18B
330
1F
100
AcDbEntity
  8
LAY-10
  6
CONTINUOUS
 62
     7
100
AcDbLine
 10
1972.723511271556
 20
1495.986474091299
 30
0.0
 11
1925.923511271557
 21
1449.1864740913
 31
0.0
  0
LINE
  5
18C
330
1F
100
AcDbEntity
  8
LAY-10
  6
CONTINUOUS
 62
     7
100
AcDbLine
 10
1972.723511271553
 20
1510.128609715026
 30
0.0
 11
1925.923511271555
 21
1463.328609715028
 31
0.0
  0
LINE
  5
18D
330
1F
100
AcDbEntity
  8
LAY-10
  6
CONTINUOUS
 62
     7
100
AcDbLine
 10
1972.723511271559
 20
1524.270745338762
 30
0.0
 11
1925.92351127156
 21
1477.470745338764
 31
0.0
  0
LINE
  5
18E
330
1F
100
AcDbEntity
  8
LAY-10
  6
CONTINUOUS
 62
     7
100
AcDbLine
 10
1972.723511271556
 20
1538.412880962491
 30
0.0
 11
1925.923511271557
 21
1491.612880962493
 31
0.0
  0
LINE
  5
18F
330
1F
100
AcDbEntity
  8
LAY-10
  6
CONTINUOUS
 62
     7
100
AcDbLine
 10
1972.723511271553
 20
1552.555016586219
 30
0.0
 11
1925.923511271555
 21
1505.755016586221
 31
0.0
  0
LINE
  5
190
330
1F
100
AcDbEntity
  8
LAY-10
  6
CONTINUOUS
 62
     7
100
AcDbLine
 10
1972.723511271559
 20
1566.697152209955
 30
0.0
 11
1925.92351127156
 21
1519.897152209957
 31
0.0
  0
LINE
  5
191
330
1F
100
AcDbEntity
  8
LAY-10
  6
CONTINUOUS
 62
     7
100
AcDbLine
 10
1972.723511271556
 20
1580.839287833684
 30
0.0
 11
1925.923511271558
 21
1534.039287833685
 31
0.0
  0
LINE
  5
192
330
1F
100
AcDbEntity
  8
LAY-10
  6
CONTINUOUS
 62
     7
100
AcDbLine
 10
1972.723511271554
 20
1594.981423457412
 30
0.0
 11
1925.923511271555
 21
1548.181423457414
 31
0.0
  0
LINE
  5
193
330
1F
100
AcDbEntity
  8
LAY-10
  6
CONTINUOUS
 62
     7
100
AcDbLine
 10
1972.723511271559
 20
1609.123559081148
 30
0.0
 11
1925.92351127156
 21
1562.323559081149
 31
0.0
  0
LINE
  5
194
330
1F
100
AcDbEntity
  8
LAY-10
  6
CONTINUOUS
 62
     7
100
AcDbLine
 10
1972.723511271556
 20
1623.265694704877
 30
0.0
 11
1925.923511271558
 21
1576.465694704878
 31
0.0
  0
LINE
  5
195
330
1F
100
AcDbEntity
  8
LAY-10
  6
CONTINUOUS
 62
     7
100
AcDbLine
 10
1972.723511271554
 20
1637.407830328605
 30
0.0
 11
1925.923511271555
 21
1590.607830328606
 31
0.0
  0
LINE
  5
196
330
1F
100
AcDbEntity
  8
LAY-10
  6
CONTINUOUS
 62
     7
100
AcDbLine
 10
1972.723511271559
 20
1651.549965952341
 30
0.0
 11
1925.92351127156
 21
1604.749965952342
 31
0.0
  0
LINE
  5
197
330
1F
100
AcDbEntity
  8
LAY-10
  6
CONTINUOUS
 62
     7
100
AcDbLine
 10
1972.723511271556
 20
1665.692101576069
 30
0.0
 11
1925.923511271558
 21
1618.892101576071
 31
0.0
  0
LINE
  5
198
330
1F
100
AcDbEntity
  8
LAY-10
  6
CONTINUOUS
 62
     7
100
AcDbLine
 10
1972.723511271554
 20
1679.834237199797
 30
0.0
 11
1925.923511271556
 21
1633.034237199799
 31
0.0
  0
LINE
  5
199
330
1F
100
AcDbEntity
  8
LAY-10
  6
CONTINUOUS
 62
     7
100
AcDbLine
 10
1972.723511271559
 20
1693.976372823534
 30
0.0
 11
1925.923511271561
 21
1647.176372823535
 31
0.0
  0
LINE
  5
19A
330
1F
100
AcDbEntity
  8
LAY-10
  6
CONTINUOUS
 62
     7
100
AcDbLine
 10
1972.723511271557
 20
1708.118508447262
 30
0.0
 11
1925.923511271558
 21
1661.318508447263
 31
0.0
  0
LINE
  5
19B
330
1F
100
AcDbEntity
  8
LAY-10
  6
CONTINUOUS
 62
     7
100
AcDbLine
 10
1972.723511271554
 20
1722.26064407099
 30
0.0
 11
1925.923511271556
 21
1675.460644070992
 31
0.0
  0
LINE
  5
19C
330
1F
100
AcDbEntity
  8
LAY-10
  6
CONTINUOUS
 62
     7
100
AcDbLine
 10
1972.72351127156
 20
1736.402779694727
 30
0.0
 11
1925.923511271561
 21
1689.602779694728
 31
0.0
  0
LINE
  5
19D
330
1F
100
AcDbEntity
  8
LAY-10
  6
CONTINUOUS
 62
     7
100
AcDbLine
 10
1972.723511271557
 20
1750.544915318455
 30
0.0
 11
1925.923511271558
 21
1703.744915318456
 31
0.0
  0
LINE
  5
19E
330
1F
100
AcDbEntity
  8
LAY-10
  6
CONTINUOUS
 62
     7
100
AcDbLine
 10
1972.723511271554
 20
1764.687050942183
 30
0.0
 11
1925.923511271556
 21
1717.887050942185
 31
0.0
  0
LINE
  5
19F
330
1F
100
AcDbEntity
  8
LAY-10
  6
CONTINUOUS
 62
     7
100
AcDbLine
 10
1972.72351127156
 20
1778.829186565919
 30
0.0
 11
1925.923511271561
 21
1732.029186565921
 31
0.0
  0
LINE
  5
1A0
330
1F
100
AcDbEntity
  8
LAY-10
  6
CONTINUOUS
 62
     7
100
AcDbLine
 10
1972.723511271557
 20
1792.971322189648
 30
0.0
 11
1925.923511271558
 21
1746.171322189649
 31
0.0
  0
LINE
  5
1A1
330
1F
100
AcDbEntity
  8
LAY-10
  6
CONTINUOUS
 62
     7
100
AcDbLine
 10
1972.723511271554
 20
1807.113457813376
 30
0.0
 11
1925.923511271556
 21
1760.313457813377
 31
0.0
  0
LINE
  5
1A2
330
1F
100
AcDbEntity
  8
LAY-10
  6
CONTINUOUS
 62
     7
100
AcDbLine
 10
1972.72351127156
 20
1821.255593437112
 30
0.0
 11
1925.923511271553
 21
1774.455593437106
 31
0.0
  0
LINE
  5
1A3
330
1F
100
AcDbEntity
  8
LAY-10
  6
CONTINUOUS
 62
     7
100
AcDbLine
 10
1972.723511271557
 20
1835.397729060841
 30
0.0
 11
1925.923511271558
 21
1788.597729060842
 31
0.0
  0
LINE
  5
1A4
330
1F
100
AcDbEntity
  8
LAY-10
  6
CONTINUOUS
 62
     7
100
AcDbLine
 10
1972.723511271554
 20
1849.539864684569
 30
0.0
 11
1925.923511271556
 21
1802.73986468457
 31
0.0
  0
LINE
  5
1A5
330
1F
100
AcDbEntity
  8
LAY-10
  6
CONTINUOUS
 62
     7
100
AcDbLine
 10
1972.72351127156
 20
1863.682000308305
 30
0.0
 11
1925.923511271553
 21
1816.882000308298
 31
0.0
  0
LINE
  5
1A6
330
1F
100
AcDbEntity
  8
LAY-10
  6
CONTINUOUS
 62
     7
100
AcDbLine
 10
1972.723511271557
 20
1877.824135932033
 30
0.0
 11
1925.923511271558
 21
1831.024135932034
 31
0.0
  0
LINE
  5
1A7
330
1F
100
AcDbEntity
  8
LAY-10
  6
CONTINUOUS
 62
     7
100
AcDbLine
 10
1972.723511271554
 20
1891.966271555761
 30
0.0
 11
1925.923511271556
 21
1845.166271555763
 31
0.0
  0
LINE
  5
1A8
330
1F
100
AcDbEntity
  8
LAY-10
  6
CONTINUOUS
 62
     7
100
AcDbLine
 10
1972.72351127156
 20
1906.108407179498
 30
0.0
 11
1925.923511271553
 21
1859.308407179491
 31
0.0
  0
LINE
  5
1A9
330
1F
100
AcDbEntity
  8
LAY-10
  6
CONTINUOUS
 62
     7
100
AcDbLine
 10
1972.723511271557
 20
1920.250542803226
 30
0.0
 11
1925.923511271558
 21
1873.450542803227
 31
0.0
  0
LINE
  5
1AA
330
1F
100
AcDbEntity
  8
LAY-10
  6
CONTINUOUS
 62
     7
100
AcDbLine
 10
1972.723511271554
 20
1934.392678426954
 30
0.0
 11
1925.923511271556
 21
1887.592678426955
 31
0.0
  0
LINE
  5
1AB
330
1F
100
AcDbEntity
  8
LAY-10
  6
CONTINUOUS
 62
     7
100
AcDbLine
 10
1972.72351127156
 20
1948.53481405069
 30
0.0
 11
1925.923511271553
 21
1901.734814050684
 31
0.0
  0
LINE
  5
1AC
330
1F
100
AcDbEntity
  8
LAY-10
  6
CONTINUOUS
 62
     7
100
AcDbLine
 10
1972.723511271557
 20
1962.676949674418
 30
0.0
 11
1925.923511271559
 21
1915.87694967442
 31
0.0
  0
LINE
  5
1AD
330
1F
100
AcDbEntity
  8
LAY-10
  6
CONTINUOUS
 62
     7
100
AcDbLine
 10
1972.723511271555
 20
1976.819085298147
 30
0.0
 11
1925.923511271556
 21
1930.019085298148
 31
0.0
  0
LINE
  5
1AE
330
1F
100
AcDbEntity
  8
LAY-10
  6
CONTINUOUS
 62
     7
100
AcDbLine
 10
1972.723511271552
 20
1990.961220921876
 30
0.0
 11
1925.923511271553
 21
1944.161220921877
 31
0.0
  0
LINE
  5
1AF
330
1F
100
AcDbEntity
  8
LAY-10
  6
CONTINUOUS
 62
     7
100
AcDbLine
 10
1972.723511271557
 20
2005.103356545611
 30
0.0
 11
1925.923511271559
 21
1958.303356545613
 31
0.0
  0
LINE
  5
1B0
330
1F
100
AcDbEntity
  8
LAY-10
  6
CONTINUOUS
 62
     7
100
AcDbLine
 10
1972.723511271554
 20
2019.24549216934
 30
0.0
 11
1925.923511271556
 21
1972.445492169341
 31
0.0
  0
LINE
  5
1B1
330
1F
100
AcDbEntity
  8
LAY-10
  6
CONTINUOUS
 62
     7
100
AcDbLine
 10
1972.723511271552
 20
2033.387627793068
 30
0.0
 11
1925.923511271553
 21
1986.58762779307
 31
0.0
  0
LINE
  5
1B2
330
1F
100
AcDbEntity
  8
LAY-10
  6
CONTINUOUS
 62
     7
100
AcDbLine
 10
1972.723511271557
 20
2047.529763416804
 30
0.0
 11
1925.923511271558
 21
2000.729763416806
 31
0.0
  0
LINE
  5
1B3
330
1F
100
AcDbEntity
  8
LAY-10
  6
CONTINUOUS
 62
     7
100
AcDbLine
 10
1972.723511271554
 20
2061.671899040532
 30
0.0
 11
1925.923511271556
 21
2014.871899040534
 31
0.0
  0
LINE
  5
1B4
330
1F
100
AcDbEntity
  8
LAY-10
  6
CONTINUOUS
 62
     7
100
AcDbLine
 10
1972.723511271552
 20
2075.814034664261
 30
0.0
 11
1925.923511271553
 21
2029.014034664262
 31
0.0
  0
LINE
  5
1B5
330
1F
100
AcDbEntity
  8
LAY-10
  6
CONTINUOUS
 62
     7
100
AcDbLine
 10
1972.723511271557
 20
2089.956170287997
 30
0.0
 11
1925.923511271558
 21
2043.156170287999
 31
0.0
  0
LINE
  5
1B6
330
1F
100
AcDbEntity
  8
LAY-10
  6
CONTINUOUS
 62
     7
100
AcDbLine
 10
1972.723511271554
 20
2104.098305911726
 30
0.0
 11
1925.923511271556
 21
2057.298305911727
 31
0.0
  0
LINE
  5
1B7
330
1F
100
AcDbEntity
  8
LAY-10
  6
CONTINUOUS
 62
     7
100
AcDbLine
 10
1972.723511271552
 20
2118.240441535454
 30
0.0
 11
1925.923511271553
 21
2071.440441535455
 31
0.0
  0
LINE
  5
1B8
330
1F
100
AcDbEntity
  8
LAY-10
  6
CONTINUOUS
 62
     7
100
AcDbLine
 10
1972.723511271557
 20
2132.38257715919
 30
0.0
 11
1925.923511271558
 21
2085.582577159191
 31
0.0
  0
LINE
  5
1B9
330
1F
100
AcDbEntity
  8
LAY-10
  6
CONTINUOUS
 62
     7
100
AcDbLine
 10
1972.723511271554
 20
2146.524712782918
 30
0.0
 11
1925.923511271556
 21
2099.72471278292
 31
0.0
  0
LINE
  5
1BA
330
1F
100
AcDbEntity
  8
LAY-10
  6
CONTINUOUS
 62
     7
100
AcDbLine
 10
1966.927354202236
 20
2154.870691337331
 30
0.0
 11
1925.923511271553
 21
2113.866848406648
 31
0.0
  0
LINE
  5
1BB
330
1F
100
AcDbEntity
  8
LAY-10
  6
CONTINUOUS
 62
     7
100
AcDbLine
 10
1952.7852185785
 20
2154.870691337326
 30
0.0
 11
1925.923511271558
 21
2128.008984030384
 31
0.0
  0
LINE
  5
1BC
330
1F
100
AcDbEntity
  8
LAY-10
  6
CONTINUOUS
 62
     7
100
AcDbLine
 10
1938.643082954771
 20
2154.870691337328
 30
0.0
 11
1925.923511271556
 21
2142.151119654113
 31
0.0
  0
LINE
  5
1BD
330
1F
100
AcDbEntity
  8
LAY-10
  6
CONTINUOUS
 62
     7
100
AcDbLine
 10
582.8076841561376
 20
958.7520497555922
 30
0.0
 11
567.8076841561376
 21
958.7520497555922
 31
0.0
  0
LINE
  5
1BE
330
1F
100
AcDbEntity
  8
LAY-10
  6
CONTINUOUS
 62
     7
100
AcDbLine
 10
582.8076841561376
 20
958.7520497555922
 30
0.0
 11
582.8076841561376
 21
943.7520497555922
 31
0.0
  0
LINE
  5
1BF
330
1F
100
AcDbEntity
  8
LAY-10
  6
CONTINUOUS
 62
     7
100
AcDbLine
 10
579.8076841561403
 20
955.7520497555925
 30
0.0
 11
567.8076841561376
 21
955.7520497555925
 31
0.0
  0
LINE
  5
1C0
330
1F
100
AcDbEntity
  8
LAY-10
  6
CONTINUOUS
 62
     7
100
AcDbLine
 10
582.8076841561376
 20
943.7520497555922
 30
0.0
 11
579.8076841561403
 21
943.7520497555922
 31
0.0
  0
LINE
  5
1C1
330
1F
100
AcDbEntity
  8
LAY-10
  6
CONTINUOUS
 62
     7
100
AcDbLine
 10
567.8076841561376
 20
958.7520497555922
 30
0.0
 11
567.8076841561376
 21
955.7520497555925
 31
0.0
  0
LINE
  5
1C2
330
1F
100
AcDbEntity
  8
LAY-10
  6
CONTINUOUS
 62
     7
100
AcDbLine
 10
1454.807684156197
 20
958.7520497555922
 30
0.0
 11
1469.807684156197
 21
958.7520497555922
 31
0.0
  0
LINE
  5
1C3
330
1F
100
AcDbEntity
  8
LAY-10
  6
CONTINUOUS
 62
     7
100
AcDbLine
 10
1454.807684156197
 20
958.7520497555922
 30
0.0
 11
1454.807684156197
 21
943.7520497555922
 31
0.0
  0
LINE
  5
1C4
330
1F
100
AcDbEntity
  8
LAY-10
  6
CONTINUOUS
 62
     7
100
AcDbLine
 10
1457.807684156194
 20
955.7520497555925
 30
0.0
 11
1469.807684156197
 21
955.7520497555925
 31
0.0
  0
LINE
  5
1C5
330
1F
100
AcDbEntity
  8
LAY-10
  6
CONTINUOUS
 62
     7
100
AcDbLine
 10
1454.807684156197
 20
943.7520497555922
 30
0.0
 11
1457.807684156194
 21
943.7520497555922
 31
0.0
  0
LINE
  5
1C6
330
1F
100
AcDbEntity
  8
LAY-10
  6
CONTINUOUS
 62
     7
100
AcDbLine
 10
1469.807684156197
 20
958.7520497555922
 30
0.0
 11
1469.807684156197
 21
955.7520497555925
 31
0.0
  0
LINE
  5
1C7
330
1F
100
AcDbEntity
  8
LAY-10
  6
CONTINUOUS
 62
     7
100
AcDbLine
 10
1824.523511271508
 20
1328.470691337337
 30
0.0
 11
1824.523511271508
 21
1313.470691337337
 31
0.0
  0
LINE
  5
1C8
330
1F
100
AcDbEntity
  8
LAY-10
  6
CONTINUOUS
 62
     7
100
AcDbLine
 10
1824.523511271508
 20
1328.470691337337
 30
0.0
 11
1839.523511271508
 21
1328.470691337337
 31
0.0
  0
LINE
  5
1C9
330
1F
100
AcDbEntity
  8
LAY-10
  6
CONTINUOUS
 62
     7
100
AcDbLine
 10
1827.523511271507
 20
1325.47069133734
 30
0.0
 11
1827.523511271507
 21
1313.470691337337
 31
0.0
  0
LINE
  5
1CA
330
1F
100
AcDbEntity
  8
LAY-10
  6
CONTINUOUS
 62
     7
100
AcDbLine
 10
1839.523511271508
 20
1328.470691337337
 30
0.0
 11
1839.523511271508
 21
1325.47069133734
 31
0.0
  0
LINE
  5
1CB
330
1F
100
AcDbEntity
  8
LAY-10
  6
CONTINUOUS
 62
     7
100
AcDbLine
 10
1824.523511271508
 20
1313.470691337337
 30
0.0
 11
1827.523511271507
 21
1313.470691337337
 31
0.0
  0
LINE
  5
1CC
330
1F
100
AcDbEntity
  8
LAY-10
  6
CONTINUOUS
 62
     7
100
AcDbLine
 10
1824.523511271508
 20
2200.470691337397
 30
0.0
 11
1824.523511271508
 21
2215.470691337397
 31
0.0
  0
LINE
  5
1CD
330
1F
100
AcDbEntity
  8
LAY-10
  6
CONTINUOUS
 62
     7
100
AcDbLine
 10
1824.523511271508
 20
2200.470691337397
 30
0.0
 11
1839.523511271508
 21
2200.470691337397
 31
0.0
  0
LINE
  5
1CE
330
1F
100
AcDbEntity
  8
LAY-10
  6
CONTINUOUS
 62
     7
100
AcDbLine
 10
1827.523511271507
 20
2203.470691337394
 30
0.0
 11
1827.523511271507
 21
2215.470691337397
 31
0.0
  0
LINE
  5
1CF
330
1F
100
AcDbEntity
  8
LAY-10
  6
CONTINUOUS
 62
     7
100
AcDbLine
 10
1839.523511271508
 20
2200.470691337397
 30
0.0
 11
1839.523511271508
 21
2203.470691337394
 31
0.0
  0
LINE
  5
1D0
330
1F
100
AcDbEntity
  8
LAY-10
  6
CONTINUOUS
 62
     7
100
AcDbLine
 10
1824.523511271508
 20
2215.470691337397
 30
0.0
 11
1827.523511271507
 21
2215.470691337397
 31
0.0
  0
LINE
  5
1D1
330
1F
100
AcDbEntity
  8
LAY-10
  6
CONTINUOUS
 62
     7
100
AcDbLine
 10
567.8076841561207
 20
2215.470691337442
 30
0.0
 11
582.8076841561207
 21
2200.470691337442
 31
0.0
  0
LINE
  5
1D2
330
1F
100
AcDbEntity
  8
LAY-10
  6
CONTINUOUS
 62
     7
100
AcDbLine
 10
1454.807684156022
 20
2200.470691337442
 30
0.0
 11
1469.807684156022
 21
2215.470691337442
 31
0.0
  0
LINE
  5
1D3
330
1F
100
AcDbEntity
  8
LAY-10
  6
CONTINUOUS
 62
     7
100
AcDbLine
 10
567.8076841561207
 20
2215.470691337442
 30
0.0
 11
1469.807684156022
 21
2215.470691337442
 31
0.0
  0
LINE
  5
1D4
330
1F
100
AcDbEntity
  8
LAY-10
  6
CONTINUOUS
 62
     7
100
AcDbLine
 10
582.807684156117
 20
1328.470691337443
 30
0.0
 11
567.807684156117
 21
1313.470691337443
 31
0.0
  0
LINE
  5
1D5
330
1F
100
AcDbEntity
  8
LAY-10
  6
CONTINUOUS
 62
     7
100
AcDbLine
 10
1454.807684156021
 20
1328.470691337443
 30
0.0
 11
1469.807684156021
 21
1313.470691337446
 31
0.0
  0
LINE
  5
1D6
330
1F
100
AcDbEntity
  8
LAY-10
  6
CONTINUOUS
 62
     7
100
AcDbLine
 10
567.807684156117
 20
1313.470691337443
 30
0.0
 11
1469.807684156021
 21
1313.470691337443
 31
0.0
  0
LINE
  5
1D7
330
1F
100
AcDbEntity
  8
LAY-10
  6
CONTINUOUS
 62
     7
100
AcDbLine
 10
583.8076841561189
 20
2199.470691337441
 30
0.0
 11
1017.807684156119
 21
2199.470691337443
 31
0.0
  0
LINE
  5
1D8
330
1F
100
AcDbEntity
  8
LAY-10
  6
CONTINUOUS
 62
     7
100
AcDbLine
 10
1454.807684156022
 20
2200.470691337442
 30
0.0
 11
582.8076841561207
 21
2200.470691337442
 31
0.0
  0
LINE
  5
1D9
330
1F
100
AcDbEntity
  8
LAY-10
  6
CONTINUOUS
 62
     7
100
AcDbLine
 10
583.8076841561189
 20
1329.470691337441
 30
0.0
 11
1017.807684156121
 21
1329.470691337443
 31
0.0
  0
LINE
  5
1DA
330
1F
100
AcDbEntity
  8
LAY-10
  6
CONTINUOUS
 62
     7
100
AcDbLine
 10
1454.807684156021
 20
1328.470691337443
 30
0.0
 11
582.807684156117
 21
1328.470691337443
 31
0.0
  0
LINE
  5
1DB
330
1F
100
AcDbEntity
  8
LAY-10
  6
CONTINUOUS
 62
     7
100
AcDbLine
 10
538.9035704142008
 20
2009.970691337465
 30
0.0
 11
538.9035704142008
 21
2018.970691337466
 31
0.0
  0
LINE
  5
1DC
330
1F
100
AcDbEntity
  8
LAY-10
  6
CONTINUOUS
 62
     7
100
AcDbLine
 10
567.8020552240379
 20
2018.970691337466
 30
0.0
 11
538.9035704142008
 21
2018.970691337466
 31
0.0
  0
LINE
  5
1DD
330
1F
100
AcDbEntity
  8
LAY-10
  6
CONTINUOUS
 62
     7
100
AcDbLine
 10
567.8020552240379
 20
2009.970691337465
 30
0.0
 11
538.9035704142008
 21
2009.970691337465
 31
0.0
  0
LINE
  5
1DE
330
1F
100
AcDbEntity
  8
LAY-10
  6
CONTINUOUS
 62
     7
100
AcDbLine
 10
1498.706168965748
 20
2009.970691337462
 30
0.0
 11
1498.706168965748
 21
2018.970691337463
 31
0.0
  0
LINE
  5
1DF
330
1F
100
AcDbEntity
  8
LAY-10
  6
CONTINUOUS
 62
     7
100
AcDbLine
 10
1469.807684155911
 20
2018.970691337463
 30
0.0
 11
1498.706168965748
 21
2018.970691337463
 31
0.0
  0
LINE
  5
1E0
330
1F
100
AcDbEntity
  8
LAY-10
  6
CONTINUOUS
 62
     7
100
AcDbLine
 10
1469.807684155911
 20
2009.970691337462
 30
0.0
 11
1498.706168965748
 21
2009.970691337462
 31
0.0
  0
LINE
  5
1E1
330
1F
100
AcDbEntity
  8
LAY-10
  6
CONTINUOUS
 62
     7
100
AcDbLine
 10
1017.807684156121
 20
1329.470691337443
 30
0.0
 11
1017.807684156119
 21
2199.470691337443
 31
0.0
  0
LINE
  5
1E2
330
1F
100
AcDbEntity
  8
LAY-10
  6
CONTINUOUS
 62
     7
100
AcDbLine
 10
1454.807684156022
 20
2200.470691337442
 30
0.0
 11
1454.807684156021
 21
1328.470691337443
 31
0.0
  0
LINE
  5
1E3
330
1F
100
AcDbEntity
  8
LAY-10
  6
CONTINUOUS
 62
     7
100
AcDbLine
 10
1469.807684156021
 20
1313.470691337443
 30
0.0
 11
1469.807684156022
 21
2215.470691337442
 31
0.0
  0
LINE
  5
1E4
330
1F
100
AcDbEntity
  8
LAY-10
  6
CONTINUOUS
 62
     7
100
AcDbLine
 10
583.8076841561189
 20
2199.470691337441
 30
0.0
 11
583.8076841561189
 21
1329.470691337441
 31
0.0
  0
LINE
  5
1E5
330
1F
100
AcDbEntity
  8
LAY-10
  6
CONTINUOUS
 62
     7
100
AcDbLine
 10
582.807684156117
 20
1328.470691337443
 30
0.0
 11
582.8076841561207
 21
2200.470691337442
 31
0.0
  0
LINE
  5
1E6
330
1F
100
AcDbEntity
  8
LAY-10
  6
CONTINUOUS
 62
     7
100
AcDbLine
 10
567.807684156117
 20
1313.470691337443
 30
0.0
 11
567.8076841561207
 21
2215.470691337442
 31
0.0
  0
LINE
  5
1E7
330
1F
100
AcDbEntity
  8
LAY-10
  6
CONTINUOUS
 62
     7
100
AcDbLine
 10
1498.706168965746
 20
1518.970691337501
 30
0.0
 11
1498.706168965746
 21
1509.9706913375
 31
0.0
  0
LINE
  5
1E8
330
1F
100
AcDbEntity
  8
LAY-10
  6
CONTINUOUS
 62
     7
100
AcDbLine
 10
1469.807684155909
 20
1509.9706913375
 30
0.0
 11
1498.706168965746
 21
1509.9706913375
 31
0.0
  0
LINE
  5
1E9
330
1F
100
AcDbEntity
  8
LAY-10
  6
CONTINUOUS
 62
     7
100
AcDbLine
 10
1469.807684155909
 20
1518.970691337501
 30
0.0
 11
1498.706168965746
 21
1518.970691337501
 31
0.0
  0
LINE
  5
1EA
330
1F
100
AcDbEntity
  8
LAY-10
  6
CONTINUOUS
 62
     7
100
AcDbLine
 10
538.9035704142008
 20
1518.970691337505
 30
0.0
 11
538.9035704142008
 21
1509.970691337503
 31
0.0
  0
LINE
  5
1EB
330
1F
100
AcDbEntity
  8
LAY-10
  6
CONTINUOUS
 62
     7
100
AcDbLine
 10
567.8020552240379
 20
1509.970691337503
 30
0.0
 11
538.9035704142008
 21
1509.970691337503
 31
0.0
  0
LINE
  5
1EC
330
1F
100
AcDbEntity
  8
LAY-10
  6
CONTINUOUS
 62
     7
100
AcDbLine
 10
567.8020552240379
 20
1518.970691337504
 30
0.0
 11
538.9035704142008
 21
1518.970691337505
 31
0.0
  0
CIRCLE
  5
1ED
330
1F
100
AcDbEntity
  8
LAY-10
  6
CONTINUOUS
 62
     7
100
AcDbCircle
 10
800.8076841561202
 20
2174.47069133744
 30
0.0
 40
13.00000000000001
  0
LINE
  5
1EE
330
1F
100
AcDbEntity
  8
LAY-10
  6
CONTINUOUS
 62
     7
100
AcDbLine
 10
796.8076841561202
 20
2174.470691337445
 30
0.0
 11
800.8076841561202
 21
2167.970691337445
 31
0.0
  0
LINE
  5
1EF
330
1F
100
AcDbEntity
  8
LAY-10
  6
CONTINUOUS
 62
     7
100
AcDbLine
 10
800.8076841561202
 20
2180.970691337445
 30
0.0
 11
796.8076841561202
 21
2174.470691337445
 31
0.0
  0
LINE
  5
1F0
330
1F
100
AcDbEntity
  8
LAY-10
  6
CONTINUOUS
 62
     7
100
AcDbLine
 10
804.8076841561203
 20
2174.470691337445
 30
0.0
 11
800.8076841561202
 21
2180.970691337445
 31
0.0
  0
LINE
  5
1F1
330
1F
100
AcDbEntity
  8
LAY-10
  6
CONTINUOUS
 62
     7
100
AcDbLine
 10
800.8076841561202
 20
2167.970691337445
 30
0.0
 11
804.8076841561203
 21
2174.470691337445
 31
0.0
  0
ARC
  5
1F2
330
1F
100
AcDbEntity
  8
LAY-10
  6
CONTINUOUS
 62
     7
100
AcDbCircle
 10
800.8076841561202
 20
2174.470691337445
 30
0.0
 40
12.75000000000001
100
AcDbArc
 50
18.2838899404031
 51
341.7161100595971
  0
LINE
  5
1F3
330
1F
100
AcDbEntity
  8
LAY-10
  6
CONTINUOUS
 62
     7
100
AcDbLine
 10
811.3076841561202
 20
2178.470691337444
 30
0.0
 11
811.3076841561202
 21
2170.470691337446
 31
0.0
  0
LINE
  5
1F4
330
1F
100
AcDbEntity
  8
LAY-10
  6
CONTINUOUS
 62
     7
100
AcDbLine
 10
811.3076841561202
 20
2178.470691337444
 30
0.0
 11
812.9139841689235
 21
2178.470691337444
 31
0.0
  0
LINE
  5
1F5
330
1F
100
AcDbEntity
  8
LAY-10
  6
CONTINUOUS
 62
     7
100
AcDbLine
 10
811.3076841561202
 20
2170.470691337446
 30
0.0
 11
812.9139841689235
 21
2170.470691337446
 31
0.0
  0
CIRCLE
  5
1F6
330
1F
100
AcDbEntity
  8
LAY-10
  6
CONTINUOUS
 62
     7
100
AcDbCircle
 10
800.8076841561206
 20
1354.470691337645
 30
0.0
 40
13.00000000000001
  0
LINE
  5
1F7
330
1F
100
AcDbEntity
  8
LAY-10
  6
CONTINUOUS
 62
     7
100
AcDbLine
 10
796.8076841561206
 20
1354.470691337639
 30
0.0
 11
800.8076841561206
 21
1360.970691337639
 31
0.0
  0
LINE
  5
1F8
330
1F
100
AcDbEntity
  8
LAY-10
  6
CONTINUOUS
 62
     7
100
AcDbLine
 10
800.8076841561206
 20
1347.970691337639
 30
0.0
 11
796.8076841561206
 21
1354.470691337639
 31
0.0
  0
LINE
  5
1F9
330
1F
100
AcDbEntity
  8
LAY-10
  6
CONTINUOUS
 62
     7
100
AcDbLine
 10
804.8076841561206
 20
1354.470691337639
 30
0.0
 11
800.8076841561206
 21
1347.970691337639
 31
0.0
  0
LINE
  5
1FA
330
1F
100
AcDbEntity
  8
LAY-10
  6
CONTINUOUS
 62
     7
100
AcDbLine
 10
800.8076841561206
 20
1360.970691337639
 30
0.0
 11
804.8076841561206
 21
1354.470691337639
 31
0.0
  0
ARC
  5
1FB
330
1F
100
AcDbEntity
  8
LAY-10
  6
CONTINUOUS
 62
     7
100
AcDbCircle
 10
800.8076841561206
 20
1354.470691337639
 30
0.0
 40
12.75000000000001
100
AcDbArc
 50
18.2838899404031
 51
341.716110059597
  0
LINE
  5
1FC
330
1F
100
AcDbEntity
  8
LAY-10
  6
CONTINUOUS
 62
     7
100
AcDbLine
 10
811.3076841561207
 20
1350.47069133764
 30
0.0
 11
811.3076841561207
 21
1358.470691337638
 31
0.0
  0
LINE
  5
1FD
330
1F
100
AcDbEntity
  8
LAY-10
  6
CONTINUOUS
 62
     7
100
AcDbLine
 10
811.3076841561207
 20
1350.47069133764
 30
0.0
 11
812.9139841689239
 21
1350.47069133764
 31
0.0
  0
LINE
  5
1FE
330
1F
100
AcDbEntity
  8
LAY-10
  6
CONTINUOUS
 62
     7
100
AcDbLine
 10
811.3076841561207
 20
1358.470691337638
 30
0.0
 11
812.9139841689239
 21
1358.470691337638
 31
0.0
  0
LINE
  5
1FF
330
1F
100
AcDbEntity
  8
LAY-10
  6
CONTINUOUS
 62
     7
100
AcDbLine
 10
750.8803721322757
 20
2175.641690069392
 30
0.0
 11
733.69603180452
 21
2192.826030397439
 31
0.0
  0
LINE
  5
200
330
1F
100
AcDbEntity
  8
LAY-10
  6
CONTINUOUS
 62
     7
100
AcDbLine
 10
609.9523450966191
 20
2192.826030394636
 30
0.0
 11
616.597006039082
 21
2199.470691337437
 31
0.0
  0
LINE
  5
201
330
1F
100
AcDbEntity
  8
LAY-10
  6
CONTINUOUS
 62
     7
100
AcDbLine
 10
592.2746755684199
 20
2175.148360865836
 30
0.0
 11
583.8076841560948
 21
2166.681369453365
 31
0.0
  0
LINE
  5
202
330
1F
100
AcDbEntity
  8
LAY-10
  6
CONTINUOUS
 62
     7
100
AcDbLine
 10
687.3076841568237
 20
2199.470691337439
 30
0.0
 11
680.6630232146159
 21
2192.826030395643
 31
0.0
  0
LINE
  5
203
330
1F
100
AcDbEntity
  8
LAY-10
  6
CONTINUOUS
 62
     7
100
AcDbLine
 10
592.2746755671197
 20
2139.793021809438
 30
0.0
 11
583.8076841561198
 21
2131.326030398294
 31
0.0
  0
LINE
  5
204
330
1F
100
AcDbEntity
  8
LAY-10
  6
CONTINUOUS
 62
     7
100
AcDbLine
 10
627.6300146264199
 20
2139.793021808438
 30
0.0
 11
609.9523450967196
 21
2122.115352278439
 31
0.0
  0
LINE
  5
205
330
1F
100
AcDbEntity
  8
LAY-10
  6
CONTINUOUS
 62
     7
100
AcDbLine
 10
609.9523450967196
 20
2104.437682749438
 30
0.0
 11
592.2746755670197
 21
2122.115352278439
 31
0.0
  0
LINE
  5
206
330
1F
100
AcDbEntity
  8
LAY-10
  6
CONTINUOUS
 62
     7
100
AcDbLine
 10
645.3076841560196
 20
2104.437682749437
 30
0.0
 11
627.6300146264199
 21
2122.115352278439
 31
0.0
  0
LINE
  5
207
330
1F
100
AcDbEntity
  8
LAY-10
  6
CONTINUOUS
 62
     7
100
AcDbLine
 10
733.6960318044195
 20
2157.470691337439
 30
0.0
 11
751.3737013341197
 21
2139.793021808438
 31
0.0
  0
LINE
  5
208
330
1F
100
AcDbEntity
  8
LAY-10
  6
CONTINUOUS
 62
     7
100
AcDbLine
 10
716.0183622748197
 20
2122.115352278438
 30
0.0
 11
733.6960318044195
 21
2139.793021808438
 31
0.0
  0
LINE
  5
209
330
1F
100
AcDbEntity
  8
LAY-10
  6
CONTINUOUS
 62
     7
100
AcDbLine
 10
716.0183622748197
 20
2157.470691337439
 30
0.0
 11
733.6960318044195
 21
2175.148360867438
 31
0.0
  0
LINE
  5
20A
330
1F
100
AcDbEntity
  8
LAY-10
  6
CONTINUOUS
 62
     7
100
AcDbLine
 10
698.3406927451197
 20
2122.115352278438
 30
0.0
 11
716.0183622748197
 21
2104.437682749438
 31
0.0
  0
LINE
  5
20B
330
1F
100
AcDbEntity
  8
LAY-10
  6
CONTINUOUS
 62
     7
100
AcDbLine
 10
662.9853536858196
 20
2139.793021808438
 30
0.0
 11
645.3076841561196
 21
2122.115352278438
 31
0.0
  0
LINE
  5
20C
330
1F
100
AcDbEntity
  8
LAY-10
  6
CONTINUOUS
 62
     7
100
AcDbLine
 10
662.9853536858196
 20
2122.115352278438
 30
0.0
 11
680.6630232154195
 21
2104.437682749438
 31
0.0
  0
LINE
  5
20D
330
1F
100
AcDbEntity
  8
LAY-10
  6
CONTINUOUS
 62
     7
100
AcDbLine
 10
698.3406927451197
 20
2157.470691337439
 30
0.0
 11
716.0183622748197
 21
2139.793021808438
 31
0.0
  0
LINE
  5
20E
330
1F
100
AcDbEntity
  8
LAY-10
  6
CONTINUOUS
 62
     7
100
AcDbLine
 10
716.0183622748197
 20
2175.148360867438
 30
0.0
 11
698.3406927451197
 21
2192.826030397438
 31
0.0
  0
LINE
  5
20F
330
1F
100
AcDbEntity
  8
LAY-10
  6
CONTINUOUS
 62
     7
100
AcDbLine
 10
592.2746755669197
 20
2033.727004631438
 30
0.0
 11
583.8076841561198
 21
2025.260013220494
 31
0.0
  0
LINE
  5
210
330
1F
100
AcDbEntity
  8
LAY-10
  6
CONTINUOUS
 62
     7
100
AcDbLine
 10
627.6300146263198
 20
2069.082343690438
 30
0.0
 11
609.95234509662
 21
2051.404674160438
 31
0.0
  0
LINE
  5
211
330
1F
100
AcDbEntity
  8
LAY-10
  6
CONTINUOUS
 62
     7
100
AcDbLine
 10
592.2746755670197
 20
2051.404674160438
 30
0.0
 11
609.95234509662
 21
2033.727004631439
 31
0.0
  0
LINE
  5
212
330
1F
100
AcDbEntity
  8
LAY-10
  6
CONTINUOUS
 62
     7
100
AcDbLine
 10
592.2746755670197
 20
2069.082343690438
 30
0.0
 11
583.8076841561198
 21
2060.615352279394
 31
0.0
  0
LINE
  5
213
330
1F
100
AcDbEntity
  8
LAY-10
  6
CONTINUOUS
 62
     7
100
AcDbLine
 10
592.2746755670197
 20
2104.437682749438
 30
0.0
 11
583.8076841561198
 21
2095.970691338395
 31
0.0
  0
LINE
  5
214
330
1F
100
AcDbEntity
  8
LAY-10
  6
CONTINUOUS
 62
     7
100
AcDbLine
 10
609.95234509662
 20
2069.082343690438
 30
0.0
 11
592.2746755670197
 21
2086.760013219439
 31
0.0
  0
LINE
  5
215
330
1F
100
AcDbEntity
  8
LAY-10
  6
CONTINUOUS
 62
     7
100
AcDbLine
 10
627.6300146263198
 20
2051.404674160438
 30
0.0
 11
645.3076841560196
 21
2033.727004631439
 31
0.0
  0
LINE
  5
216
330
1F
100
AcDbEntity
  8
LAY-10
  6
CONTINUOUS
 62
     7
100
AcDbLine
 10
645.3076841560196
 20
2051.404674160438
 30
0.0
 11
662.9853536857196
 21
2069.082343690439
 31
0.0
  0
LINE
  5
217
330
1F
100
AcDbEntity
  8
LAY-10
  6
CONTINUOUS
 62
     7
100
AcDbLine
 10
662.9853536857196
 20
2086.760013219438
 30
0.0
 11
680.6630232154195
 21
2069.082343690439
 31
0.0
  0
LINE
  5
218
330
1F
100
AcDbEntity
  8
LAY-10
  6
CONTINUOUS
 62
     7
100
AcDbLine
 10
627.6300146264199
 20
2104.437682749438
 30
0.0
 11
609.9523450967196
 21
2086.760013219439
 31
0.0
  0
LINE
  5
219
330
1F
100
AcDbEntity
  8
LAY-10
  6
CONTINUOUS
 62
     7
100
AcDbLine
 10
662.9853536857196
 20
2104.437682749437
 30
0.0
 11
645.3076841560196
 21
2086.760013219438
 31
0.0
  0
LINE
  5
21A
330
1F
100
AcDbEntity
  8
LAY-10
  6
CONTINUOUS
 62
     7
100
AcDbLine
 10
627.6300146264199
 20
2086.760013219439
 30
0.0
 11
645.3076841560196
 21
2069.082343690439
 31
0.0
  0
LINE
  5
21B
330
1F
100
AcDbEntity
  8
LAY-10
  6
CONTINUOUS
 62
     7
100
AcDbLine
 10
609.95234509662
 20
2016.049335101438
 30
0.0
 11
627.6300146263198
 21
2033.727004631439
 31
0.0
  0
LINE
  5
21C
330
1F
100
AcDbEntity
  8
LAY-10
  6
CONTINUOUS
 62
     7
100
AcDbLine
 10
592.2746755669197
 20
2016.049335101438
 30
0.0
 11
609.95234509662
 21
1998.371665572438
 31
0.0
  0
LINE
  5
21D
330
1F
100
AcDbEntity
  8
LAY-10
  6
CONTINUOUS
 62
     7
100
AcDbLine
 10
583.8076841561198
 20
1989.904674161494
 30
0.0
 11
592.2746755669197
 21
1998.371665572438
 31
0.0
  0
LINE
  5
21E
330
1F
100
AcDbEntity
  8
LAY-10
  6
CONTINUOUS
 62
     7
100
AcDbLine
 10
722.6630232156068
 20
2199.470691337439
 30
0.0
 11
716.0183622747196
 21
2192.826030396438
 31
0.0
  0
LINE
  5
21F
330
1F
100
AcDbEntity
  8
LAY-10
  6
CONTINUOUS
 62
     7
100
AcDbLine
 10
758.0183622752835
 20
2199.470691337439
 30
0.0
 11
751.3737013350197
 21
2192.826030397438
 31
0.0
  0
LINE
  5
220
330
1F
100
AcDbEntity
  8
LAY-10
  6
CONTINUOUS
 62
     7
100
AcDbLine
 10
793.3737013349534
 20
2199.470691337439
 30
0.0
 11
786.7290403946896
 21
2192.826030397438
 31
0.0
  0
LINE
  5
221
330
1F
100
AcDbEntity
  8
LAY-10
  6
CONTINUOUS
 62
     7
100
AcDbLine
 10
698.3406927451197
 20
2139.793021808438
 30
0.0
 11
680.6630232154195
 21
2122.115352278438
 31
0.0
  0
LINE
  5
222
330
1F
100
AcDbEntity
  8
LAY-10
  6
CONTINUOUS
 62
     7
100
AcDbLine
 10
680.6630232154195
 20
2086.760013219438
 30
0.0
 11
698.3406927451197
 21
2104.437682749438
 31
0.0
  0
LINE
  5
223
330
1F
100
AcDbEntity
  8
LAY-10
  6
CONTINUOUS
 62
     7
100
AcDbLine
 10
627.6300146268192
 20
2175.148360866837
 30
0.0
 11
609.9523450971202
 21
2157.470691336838
 31
0.0
  0
LINE
  5
224
330
1F
100
AcDbEntity
  8
LAY-10
  6
CONTINUOUS
 62
     7
100
AcDbLine
 10
609.9523450968196
 20
2175.148360866536
 30
0.0
 11
592.274675567519
 21
2192.826030395835
 31
0.0
  0
LINE
  5
225
330
1F
100
AcDbEntity
  8
LAY-10
  6
CONTINUOUS
 62
     7
100
AcDbLine
 10
592.2746755681193
 20
2157.470691336438
 30
0.0
 11
609.9523450974203
 21
2139.793021807138
 31
0.0
  0
LINE
  5
226
330
1F
100
AcDbEntity
  8
LAY-10
  6
CONTINUOUS
 62
     7
100
AcDbLine
 10
698.3406927451197
 20
2175.148360867438
 30
0.0
 11
684.8076841561201
 21
2161.615352278209
 31
0.0
  0
LINE
  5
227
330
1F
100
AcDbEntity
  8
LAY-10
  6
CONTINUOUS
 62
     7
100
AcDbLine
 10
627.6300146269178
 20
2192.826030395238
 30
0.0
 11
645.3076841562184
 21
2175.148360865939
 31
0.0
  0
LINE
  5
228
330
1F
100
AcDbEntity
  8
LAY-10
  6
CONTINUOUS
 62
     7
100
AcDbLine
 10
645.3076841549191
 20
2157.470691336939
 30
0.0
 11
662.9853536849174
 21
2175.148360866641
 31
0.0
  0
LINE
  5
229
330
1F
100
AcDbEntity
  8
LAY-10
  6
CONTINUOUS
 62
     7
100
AcDbLine
 10
680.6630232139182
 20
2175.148360866642
 30
0.0
 11
662.985353684916
 21
2192.82603039634
 31
0.0
  0
LINE
  5
22A
330
1F
100
AcDbEntity
  8
LAY-10
  6
CONTINUOUS
 62
     7
100
AcDbLine
 10
680.6630232139211
 20
2139.793021807342
 30
0.0
 11
662.9853536849188
 21
2157.47069133694
 31
0.0
  0
LINE
  5
22B
330
1F
100
AcDbEntity
  8
LAY-10
  6
CONTINUOUS
 62
     7
100
AcDbLine
 10
645.3076841539179
 20
2192.826030396239
 30
0.0
 11
651.9523450952298
 21
2199.470691337439
 31
0.0
  0
LINE
  5
22C
330
1F
100
AcDbEntity
  8
LAY-10
  6
CONTINUOUS
 62
     7
100
AcDbLine
 10
645.3076841558201
 20
2139.793021808139
 30
0.0
 11
627.6300146265204
 21
2157.470691337439
 31
0.0
  0
LINE
  5
22D
330
1F
100
AcDbEntity
  8
LAY-10
  6
CONTINUOUS
 62
     7
100
AcDbLine
 10
769.0513708627205
 20
2175.148360868438
 30
0.0
 11
751.3737013334204
 21
2157.470691338138
 31
0.0
  0
LINE
  5
22E
330
1F
100
AcDbEntity
  8
LAY-10
  6
CONTINUOUS
 62
     7
100
AcDbLine
 10
769.0513708620214
 20
2192.826030398137
 30
0.0
 11
786.7290403917207
 21
2175.148360869137
 31
0.0
  0
LINE
  5
22F
330
1F
100
AcDbEntity
  8
LAY-10
  6
CONTINUOUS
 62
     7
100
AcDbLine
 10
850.7349961799446
 20
1353.299692605407
 30
0.0
 11
867.9193365077003
 21
1336.11535227736
 31
0.0
  0
LINE
  5
230
330
1F
100
AcDbEntity
  8
LAY-10
  6
CONTINUOUS
 62
     7
100
AcDbLine
 10
991.6630232156012
 20
1336.115352280163
 30
0.0
 11
985.0183622731382
 21
1329.470691337362
 31
0.0
  0
LINE
  5
231
330
1F
100
AcDbEntity
  8
LAY-10
  6
CONTINUOUS
 62
     7
100
AcDbLine
 10
1009.3406927438
 20
1353.793021808963
 30
0.0
 11
1017.807684156126
 21
1362.260013221434
 31
0.0
  0
LINE
  5
232
330
1F
100
AcDbEntity
  8
LAY-10
  6
CONTINUOUS
 62
     7
100
AcDbLine
 10
914.3076841553966
 20
1329.47069133736
 30
0.0
 11
920.9523450976043
 21
1336.115352279156
 31
0.0
  0
LINE
  5
233
330
1F
100
AcDbEntity
  8
LAY-10
  6
CONTINUOUS
 62
     7
100
AcDbLine
 10
1009.3406927451
 20
1389.148360865361
 30
0.0
 11
1017.807684156101
 21
1397.615352276505
 31
0.0
  0
LINE
  5
234
330
1F
100
AcDbEntity
  8
LAY-10
  6
CONTINUOUS
 62
     7
100
AcDbLine
 10
973.9853536858004
 20
1389.148360866361
 30
0.0
 11
991.6630232155006
 21
1406.82603039636
 31
0.0
  0
LINE
  5
235
330
1F
100
AcDbEntity
  8
LAY-10
  6
CONTINUOUS
 62
     7
100
AcDbLine
 10
991.6630232155006
 20
1424.503699925361
 30
0.0
 11
1009.3406927452
 21
1406.82603039636
 31
0.0
  0
LINE
  5
236
330
1F
100
AcDbEntity
  8
LAY-10
  6
CONTINUOUS
 62
     7
100
AcDbLine
 10
956.3076841562005
 20
1424.503699925362
 30
0.0
 11
973.9853536858004
 21
1406.82603039636
 31
0.0
  0
LINE
  5
237
330
1F
100
AcDbEntity
  8
LAY-10
  6
CONTINUOUS
 62
     7
100
AcDbLine
 10
867.9193365078007
 20
1371.47069133736
 30
0.0
 11
850.2416669781004
 21
1389.148360866361
 31
0.0
  0
LINE
  5
238
330
1F
100
AcDbEntity
  8
LAY-10
  6
CONTINUOUS
 62
     7
100
AcDbLine
 10
885.5970060374005
 20
1406.82603039636
 30
0.0
 11
867.9193365078007
 21
1389.148360866361
 31
0.0
  0
LINE
  5
239
330
1F
100
AcDbEntity
  8
LAY-10
  6
CONTINUOUS
 62
     7
100
AcDbLine
 10
885.5970060374005
 20
1371.47069133736
 30
0.0
 11
867.9193365078007
 21
1353.79302180736
 31
0.0
  0
LINE
  5
23A
330
1F
100
AcDbEntity
  8
LAY-10
  6
CONTINUOUS
 62
     7
100
AcDbLine
 10
903.2746755671004
 20
1406.82603039636
 30
0.0
 11
885.5970060374005
 21
1424.503699925361
 31
0.0
  0
LINE
  5
23B
330
1F
100
AcDbEntity
  8
LAY-10
  6
CONTINUOUS
 62
     7
100
AcDbLine
 10
938.6300146264006
 20
1389.148360866361
 30
0.0
 11
956.3076841561004
 21
1406.82603039636
 31
0.0
  0
LINE
  5
23C
330
1F
100
AcDbEntity
  8
LAY-10
  6
CONTINUOUS
 62
     7
100
AcDbLine
 10
938.6300146264006
 20
1406.82603039636
 30
0.0
 11
920.9523450968007
 21
1424.503699925361
 31
0.0
  0
LINE
  5
23D
330
1F
100
AcDbEntity
  8
LAY-10
  6
CONTINUOUS
 62
     7
100
AcDbLine
 10
903.2746755671004
 20
1371.47069133736
 30
0.0
 11
885.5970060374005
 21
1389.148360866361
 31
0.0
  0
LINE
  5
23E
330
1F
100
AcDbEntity
  8
LAY-10
  6
CONTINUOUS
 62
     7
100
AcDbLine
 10
885.5970060374005
 20
1353.79302180736
 30
0.0
 11
903.2746755671004
 21
1336.115352277361
 31
0.0
  0
LINE
  5
23F
330
1F
100
AcDbEntity
  8
LAY-10
  6
CONTINUOUS
 62
     7
100
AcDbLine
 10
1009.340692745301
 20
1495.214378043361
 30
0.0
 11
1017.807684156101
 21
1503.681369454305
 31
0.0
  0
LINE
  5
240
330
1F
100
AcDbEntity
  8
LAY-10
  6
CONTINUOUS
 62
     7
100
AcDbLine
 10
973.9853536859005
 20
1459.859038984361
 30
0.0
 11
991.6630232156002
 21
1477.536708514361
 31
0.0
  0
LINE
  5
241
330
1F
100
AcDbEntity
  8
LAY-10
  6
CONTINUOUS
 62
     7
100
AcDbLine
 10
1009.3406927452
 20
1477.536708514361
 30
0.0
 11
991.6630232156002
 21
1495.214378043361
 31
0.0
  0
LINE
  5
242
330
1F
100
AcDbEntity
  8
LAY-10
  6
CONTINUOUS
 62
     7
100
AcDbLine
 10
1009.3406927452
 20
1459.859038984361
 30
0.0
 11
1017.807684156101
 21
1468.326030395405
 31
0.0
  0
LINE
  5
243
330
1F
100
AcDbEntity
  8
LAY-10
  6
CONTINUOUS
 62
     7
100
AcDbLine
 10
1009.3406927452
 20
1424.503699925361
 30
0.0
 11
1017.807684156101
 21
1432.970691336404
 31
0.0
  0
LINE
  5
244
330
1F
100
AcDbEntity
  8
LAY-10
  6
CONTINUOUS
 62
     7
100
AcDbLine
 10
991.6630232156002
 20
1459.859038984361
 30
0.0
 11
1009.3406927452
 21
1442.18136945536
 31
0.0
  0
LINE
  5
245
330
1F
100
AcDbEntity
  8
LAY-10
  6
CONTINUOUS
 62
     7
100
AcDbLine
 10
973.9853536859005
 20
1477.536708514361
 30
0.0
 11
956.3076841562005
 21
1495.214378043361
 31
0.0
  0
LINE
  5
246
330
1F
100
AcDbEntity
  8
LAY-10
  6
CONTINUOUS
 62
     7
100
AcDbLine
 10
956.3076841562005
 20
1477.536708514361
 30
0.0
 11
938.6300146265006
 21
1459.85903898436
 31
0.0
  0
LINE
  5
247
330
1F
100
AcDbEntity
  8
LAY-10
  6
CONTINUOUS
 62
     7
100
AcDbLine
 10
938.6300146265006
 20
1442.181369455361
 30
0.0
 11
920.9523450968007
 21
1459.85903898436
 31
0.0
  0
LINE
  5
248
330
1F
100
AcDbEntity
  8
LAY-10
  6
CONTINUOUS
 62
     7
100
AcDbLine
 10
973.9853536858004
 20
1424.503699925361
 30
0.0
 11
991.6630232155006
 21
1442.18136945536
 31
0.0
  0
LINE
  5
249
330
1F
100
AcDbEntity
  8
LAY-10
  6
CONTINUOUS
 62
     7
100
AcDbLine
 10
938.6300146265006
 20
1424.503699925362
 30
0.0
 11
956.3076841562005
 21
1442.181369455361
 31
0.0
  0
LINE
  5
24A
330
1F
100
AcDbEntity
  8
LAY-10
  6
CONTINUOUS
 62
     7
100
AcDbLine
 10
973.9853536858004
 20
1442.18136945536
 30
0.0
 11
956.3076841562005
 21
1459.85903898436
 31
0.0
  0
LINE
  5
24B
330
1F
100
AcDbEntity
  8
LAY-10
  6
CONTINUOUS
 62
     7
100
AcDbLine
 10
991.6630232156002
 20
1512.892047573361
 30
0.0
 11
973.9853536859005
 21
1495.214378043361
 31
0.0
  0
LINE
  5
24C
330
1F
100
AcDbEntity
  8
LAY-10
  6
CONTINUOUS
 62
     7
100
AcDbLine
 10
1009.340692745301
 20
1512.892047573361
 30
0.0
 11
991.6630232156002
 21
1530.569717102361
 31
0.0
  0
LINE
  5
24D
330
1F
100
AcDbEntity
  8
LAY-10
  6
CONTINUOUS
 62
     7
100
AcDbLine
 10
1017.807684156101
 20
1539.036708513306
 30
0.0
 11
1009.340692745301
 21
1530.569717102361
 31
0.0
  0
LINE
  5
24E
330
1F
100
AcDbEntity
  8
LAY-10
  6
CONTINUOUS
 62
     7
100
AcDbLine
 10
878.9523450966135
 20
1329.47069133736
 30
0.0
 11
885.5970060375006
 21
1336.115352278361
 31
0.0
  0
LINE
  5
24F
330
1F
100
AcDbEntity
  8
LAY-10
  6
CONTINUOUS
 62
     7
100
AcDbLine
 10
843.5970060369368
 20
1329.47069133736
 30
0.0
 11
850.2416669772005
 21
1336.115352277361
 31
0.0
  0
LINE
  5
250
330
1F
100
AcDbEntity
  8
LAY-10
  6
CONTINUOUS
 62
     7
100
AcDbLine
 10
808.241666977267
 20
1329.47069133736
 30
0.0
 11
814.8863279175306
 21
1336.115352277361
 31
0.0
  0
LINE
  5
251
330
1F
100
AcDbEntity
  8
LAY-10
  6
CONTINUOUS
 62
     7
100
AcDbLine
 10
903.2746755671004
 20
1389.148360866361
 30
0.0
 11
920.9523450968007
 21
1406.82603039636
 31
0.0
  0
LINE
  5
252
330
1F
100
AcDbEntity
  8
LAY-10
  6
CONTINUOUS
 62
     7
100
AcDbLine
 10
920.9523450968007
 20
1442.181369455361
 30
0.0
 11
903.2746755671004
 21
1424.503699925361
 31
0.0
  0
LINE
  5
253
330
1F
100
AcDbEntity
  8
LAY-10
  6
CONTINUOUS
 62
     7
100
AcDbLine
 10
973.985353685401
 20
1353.793021807962
 30
0.0
 11
991.6630232151
 21
1371.470691337961
 31
0.0
  0
LINE
  5
254
330
1F
100
AcDbEntity
  8
LAY-10
  6
CONTINUOUS
 62
     7
100
AcDbLine
 10
991.6630232154006
 20
1353.793021808263
 30
0.0
 11
1009.340692744701
 21
1336.115352278964
 31
0.0
  0
LINE
  5
255
330
1F
100
AcDbEntity
  8
LAY-10
  6
CONTINUOUS
 62
     7
100
AcDbLine
 10
1009.340692744101
 20
1371.470691338362
 30
0.0
 11
991.6630232147999
 21
1389.148360867661
 31
0.0
  0
LINE
  5
256
330
1F
100
AcDbEntity
  8
LAY-10
  6
CONTINUOUS
 62
     7
100
AcDbLine
 10
903.2746755671004
 20
1353.79302180736
 30
0.0
 11
916.8076841561
 21
1367.32603039659
 31
0.0
  0
LINE
  5
257
330
1F
100
AcDbEntity
  8
LAY-10
  6
CONTINUOUS
 62
     7
100
AcDbLine
 10
973.9853536853025
 20
1336.115352279561
 30
0.0
 11
956.3076841560019
 21
1353.79302180886
 31
0.0
  0
LINE
  5
258
330
1F
100
AcDbEntity
  8
LAY-10
  6
CONTINUOUS
 62
     7
100
AcDbLine
 10
956.307684157301
 20
1371.47069133786
 30
0.0
 11
938.6300146273028
 21
1353.793021808158
 31
0.0
  0
LINE
  5
259
330
1F
100
AcDbEntity
  8
LAY-10
  6
CONTINUOUS
 62
     7
100
AcDbLine
 10
920.9523450983019
 20
1353.793021808157
 30
0.0
 11
938.6300146273041
 21
1336.115352278459
 31
0.0
  0
LINE
  5
25A
330
1F
100
AcDbEntity
  8
LAY-10
  6
CONTINUOUS
 62
     7
100
AcDbLine
 10
920.9523450982991
 20
1389.148360867457
 30
0.0
 11
938.6300146273015
 21
1371.470691337859
 31
0.0
  0
LINE
  5
25B
330
1F
100
AcDbEntity
  8
LAY-10
  6
CONTINUOUS
 62
     7
100
AcDbLine
 10
956.3076841583023
 20
1336.11535227856
 30
0.0
 11
949.6630232169904
 21
1329.47069133736
 31
0.0
  0
LINE
  5
25C
330
1F
100
AcDbEntity
  8
LAY-10
  6
CONTINUOUS
 62
     7
100
AcDbLine
 10
956.3076841564001
 20
1389.14836086666
 30
0.0
 11
973.9853536856998
 21
1371.47069133736
 31
0.0
  0
LINE
  5
25D
330
1F
100
AcDbEntity
  8
LAY-10
  6
CONTINUOUS
 62
     7
100
AcDbLine
 10
832.5639974494997
 20
1353.793021806361
 30
0.0
 11
850.2416669787999
 21
1371.470691336661
 31
0.0
  0
LINE
  5
25E
330
1F
100
AcDbEntity
  8
LAY-10
  6
CONTINUOUS
 62
     7
100
AcDbLine
 10
832.5639974501988
 20
1336.115352276661
 30
0.0
 11
814.8863279204996
 21
1353.793021805662
 31
0.0
  0
LINE
  5
25F
330
1F
100
AcDbEntity
  8
LAY-10
  6
CONTINUOUS
 62
     7
100
AcDbLine
 10
1453.807684156232
 20
2199.470691337439
 30
0.0
 11
1019.807684156232
 21
2199.470691337443
 31
0.0
  0
LINE
  5
260
330
1F
100
AcDbEntity
  8
LAY-10
  6
CONTINUOUS
 62
     7
100
AcDbLine
 10
1453.807684156229
 20
1329.470691337439
 30
0.0
 11
1019.807684156227
 21
1329.470691337443
 31
0.0
  0
LINE
  5
261
330
1F
100
AcDbEntity
  8
LAY-10
  6
CONTINUOUS
 62
     7
100
AcDbLine
 10
1019.807684156227
 20
1329.470691337443
 30
0.0
 11
1019.807684156232
 21
2199.470691337443
 31
0.0
  0
LINE
  5
262
330
1F
100
AcDbEntity
  8
LAY-10
  6
CONTINUOUS
 62
     7
100
AcDbLine
 10
1453.807684156232
 20
2199.470691337439
 30
0.0
 11
1453.807684156229
 21
1329.470691337439
 31
0.0
  0
CIRCLE
  5
263
330
1F
100
AcDbEntity
  8
LAY-10
  6
CONTINUOUS
 62
     7
100
AcDbCircle
 10
1238.8020552239
 20
2174.47069133744
 30
0.0
 40
13.00000000000001
  0
LINE
  5
264
330
1F
100
AcDbEntity
  8
LAY-10
  6
CONTINUOUS
 62
     7
100
AcDbLine
 10
1234.8020552239
 20
2174.470691337445
 30
0.0
 11
1238.8020552239
 21
2167.970691337445
 31
0.0
  0
LINE
  5
265
330
1F
100
AcDbEntity
  8
LAY-10
  6
CONTINUOUS
 62
     7
100
AcDbLine
 10
1238.8020552239
 20
2180.970691337445
 30
0.0
 11
1234.8020552239
 21
2174.470691337445
 31
0.0
  0
LINE
  5
266
330
1F
100
AcDbEntity
  8
LAY-10
  6
CONTINUOUS
 62
     7
100
AcDbLine
 10
1242.8020552239
 20
2174.470691337445
 30
0.0
 11
1238.8020552239
 21
2180.970691337445
 31
0.0
  0
LINE
  5
267
330
1F
100
AcDbEntity
  8
LAY-10
  6
CONTINUOUS
 62
     7
100
AcDbLine
 10
1238.8020552239
 20
2167.970691337445
 30
0.0
 11
1242.8020552239
 21
2174.470691337445
 31
0.0
  0
ARC
  5
268
330
1F
100
AcDbEntity
  8
LAY-10
  6
CONTINUOUS
 62
     7
100
AcDbCircle
 10
1238.8020552239
 20
2174.470691337445
 30
0.0
 40
12.75000000000001
100
AcDbArc
 50
18.2838899404031
 51
341.7161100595971
  0
LINE
  5
269
330
1F
100
AcDbEntity
  8
LAY-10
  6
CONTINUOUS
 62
     7
100
AcDbLine
 10
1249.3020552239
 20
2178.470691337444
 30
0.0
 11
1249.3020552239
 21
2170.470691337446
 31
0.0
  0
LINE
  5
26A
330
1F
100
AcDbEntity
  8
LAY-10
  6
CONTINUOUS
 62
     7
100
AcDbLine
 10
1249.3020552239
 20
2178.470691337444
 30
0.0
 11
1250.908355236704
 21
2178.470691337444
 31
0.0
  0
LINE
  5
26B
330
1F
100
AcDbEntity
  8
LAY-10
  6
CONTINUOUS
 62
     7
100
AcDbLine
 10
1249.3020552239
 20
2170.470691337446
 30
0.0
 11
1250.908355236704
 21
2170.470691337446
 31
0.0
  0
CIRCLE
  5
26C
330
1F
100
AcDbEntity
  8
LAY-10
  6
CONTINUOUS
 62
     7
100
AcDbCircle
 10
1238.802055223901
 20
1354.470691337645
 30
0.0
 40
13.00000000000001
  0
LINE
  5
26D
330
1F
100
AcDbEntity
  8
LAY-10
  6
CONTINUOUS
 62
     7
100
AcDbLine
 10
1234.802055223901
 20
1354.470691337639
 30
0.0
 11
1238.802055223901
 21
1360.97069133764
 31
0.0
  0
LINE
  5
26E
330
1F
100
AcDbEntity
  8
LAY-10
  6
CONTINUOUS
 62
     7
100
AcDbLine
 10
1238.802055223901
 20
1347.97069133764
 30
0.0
 11
1234.802055223901
 21
1354.470691337639
 31
0.0
  0
LINE
  5
26F
330
1F
100
AcDbEntity
  8
LAY-10
  6
CONTINUOUS
 62
     7
100
AcDbLine
 10
1242.802055223901
 20
1354.470691337639
 30
0.0
 11
1238.802055223901
 21
1347.97069133764
 31
0.0
  0
LINE
  5
270
330
1F
100
AcDbEntity
  8
LAY-10
  6
CONTINUOUS
 62
     7
100
AcDbLine
 10
1238.802055223901
 20
1360.97069133764
 30
0.0
 11
1242.802055223901
 21
1354.470691337639
 31
0.0
  0
ARC
  5
271
330
1F
100
AcDbEntity
  8
LAY-10
  6
CONTINUOUS
 62
     7
100
AcDbCircle
 10
1238.802055223901
 20
1354.470691337639
 30
0.0
 40
12.75000000000001
100
AcDbArc
 50
18.2838899404031
 51
341.716110059597
  0
LINE
  5
272
330
1F
100
AcDbEntity
  8
LAY-10
  6
CONTINUOUS
 62
     7
100
AcDbLine
 10
1249.302055223901
 20
1350.470691337641
 30
0.0
 11
1249.302055223901
 21
1358.470691337639
 31
0.0
  0
LINE
  5
273
330
1F
100
AcDbEntity
  8
LAY-10
  6
CONTINUOUS
 62
     7
100
AcDbLine
 10
1249.302055223901
 20
1350.470691337641
 30
0.0
 11
1250.908355236704
 21
1350.470691337641
 31
0.0
  0
LINE
  5
274
330
1F
100
AcDbEntity
  8
LAY-10
  6
CONTINUOUS
 62
     7
100
AcDbLine
 10
1249.302055223901
 20
1358.470691337639
 30
0.0
 11
1250.908355236704
 21
1358.470691337639
 31
0.0
  0
LINE
  5
275
330
1F
100
AcDbEntity
  8
LAY-10
  6
CONTINUOUS
 62
     7
100
AcDbLine
 10
1186.880372132356
 20
2175.641690069392
 30
0.0
 11
1169.6960318046
 21
2192.826030397439
 31
0.0
  0
LINE
  5
276
330
1F
100
AcDbEntity
  8
LAY-10
  6
CONTINUOUS
 62
     7
100
AcDbLine
 10
1045.952345096699
 20
2192.826030394636
 30
0.0
 11
1052.597006039162
 21
2199.470691337437
 31
0.0
  0
LINE
  5
277
330
1F
100
AcDbEntity
  8
LAY-10
  6
CONTINUOUS
 62
     7
100
AcDbLine
 10
1028.2746755685
 20
2175.148360865836
 30
0.0
 11
1019.807684156175
 21
2166.681369453365
 31
0.0
  0
LINE
  5
278
330
1F
100
AcDbEntity
  8
LAY-10
  6
CONTINUOUS
 62
     7
100
AcDbLine
 10
1123.307684156904
 20
2199.470691337439
 30
0.0
 11
1116.663023214696
 21
2192.826030395643
 31
0.0
  0
LINE
  5
279
330
1F
100
AcDbEntity
  8
LAY-10
  6
CONTINUOUS
 62
     7
100
AcDbLine
 10
1028.2746755672
 20
2139.793021809438
 30
0.0
 11
1019.8076841562
 21
2131.326030398294
 31
0.0
  0
LINE
  5
27A
330
1F
100
AcDbEntity
  8
LAY-10
  6
CONTINUOUS
 62
     7
100
AcDbLine
 10
1063.6300146265
 20
2139.793021808438
 30
0.0
 11
1045.9523450968
 21
2122.115352278439
 31
0.0
  0
LINE
  5
27B
330
1F
100
AcDbEntity
  8
LAY-10
  6
CONTINUOUS
 62
     7
100
AcDbLine
 10
1045.9523450968
 20
2104.437682749438
 30
0.0
 11
1028.2746755671
 21
2122.115352278439
 31
0.0
  0
LINE
  5
27C
330
1F
100
AcDbEntity
  8
LAY-10
  6
CONTINUOUS
 62
     7
100
AcDbLine
 10
1081.3076841561
 20
2104.437682749437
 30
0.0
 11
1063.6300146265
 21
2122.115352278439
 31
0.0
  0
LINE
  5
27D
330
1F
100
AcDbEntity
  8
LAY-10
  6
CONTINUOUS
 62
     7
100
AcDbLine
 10
1169.6960318045
 20
2157.470691337439
 30
0.0
 11
1187.3737013342
 21
2139.793021808438
 31
0.0
  0
LINE
  5
27E
330
1F
100
AcDbEntity
  8
LAY-10
  6
CONTINUOUS
 62
     7
100
AcDbLine
 10
1152.0183622749
 20
2122.115352278438
 30
0.0
 11
1169.6960318045
 21
2139.793021808438
 31
0.0
  0
LINE
  5
27F
330
1F
100
AcDbEntity
  8
LAY-10
  6
CONTINUOUS
 62
     7
100
AcDbLine
 10
1152.0183622749
 20
2157.470691337439
 30
0.0
 11
1169.6960318045
 21
2175.148360867438
 31
0.0
  0
LINE
  5
280
330
1F
100
AcDbEntity
  8
LAY-10
  6
CONTINUOUS
 62
     7
100
AcDbLine
 10
1134.3406927452
 20
2122.115352278438
 30
0.0
 11
1152.0183622749
 21
2104.437682749438
 31
0.0
  0
LINE
  5
281
330
1F
100
AcDbEntity
  8
LAY-10
  6
CONTINUOUS
 62
     7
100
AcDbLine
 10
1098.9853536859
 20
2139.793021808438
 30
0.0
 11
1081.3076841562
 21
2122.115352278438
 31
0.0
  0
LINE
  5
282
330
1F
100
AcDbEntity
  8
LAY-10
  6
CONTINUOUS
 62
     7
100
AcDbLine
 10
1098.9853536859
 20
2122.115352278438
 30
0.0
 11
1116.6630232155
 21
2104.437682749438
 31
0.0
  0
LINE
  5
283
330
1F
100
AcDbEntity
  8
LAY-10
  6
CONTINUOUS
 62
     7
100
AcDbLine
 10
1134.3406927452
 20
2157.470691337439
 30
0.0
 11
1152.0183622749
 21
2139.793021808438
 31
0.0
  0
LINE
  5
284
330
1F
100
AcDbEntity
  8
LAY-10
  6
CONTINUOUS
 62
     7
100
AcDbLine
 10
1152.0183622749
 20
2175.148360867438
 30
0.0
 11
1134.3406927452
 21
2192.826030397438
 31
0.0
  0
LINE
  5
285
330
1F
100
AcDbEntity
  8
LAY-10
  6
CONTINUOUS
 62
     7
100
AcDbLine
 10
1028.274675567
 20
2033.727004631438
 30
0.0
 11
1019.8076841562
 21
2025.260013220494
 31
0.0
  0
LINE
  5
286
330
1F
100
AcDbEntity
  8
LAY-10
  6
CONTINUOUS
 62
     7
100
AcDbLine
 10
1063.6300146264
 20
2069.082343690438
 30
0.0
 11
1045.9523450967
 21
2051.404674160438
 31
0.0
  0
LINE
  5
287
330
1F
100
AcDbEntity
  8
LAY-10
  6
CONTINUOUS
 62
     7
100
AcDbLine
 10
1028.2746755671
 20
2051.404674160438
 30
0.0
 11
1045.9523450967
 21
2033.727004631439
 31
0.0
  0
LINE
  5
288
330
1F
100
AcDbEntity
  8
LAY-10
  6
CONTINUOUS
 62
     7
100
AcDbLine
 10
1028.2746755671
 20
2069.082343690438
 30
0.0
 11
1019.8076841562
 21
2060.615352279394
 31
0.0
  0
LINE
  5
289
330
1F
100
AcDbEntity
  8
LAY-10
  6
CONTINUOUS
 62
     7
100
AcDbLine
 10
1028.2746755671
 20
2104.437682749438
 30
0.0
 11
1019.8076841562
 21
2095.970691338395
 31
0.0
  0
LINE
  5
28A
330
1F
100
AcDbEntity
  8
LAY-10
  6
CONTINUOUS
 62
     7
100
AcDbLine
 10
1045.9523450967
 20
2069.082343690438
 30
0.0
 11
1028.2746755671
 21
2086.760013219439
 31
0.0
  0
LINE
  5
28B
330
1F
100
AcDbEntity
  8
LAY-10
  6
CONTINUOUS
 62
     7
100
AcDbLine
 10
1063.6300146264
 20
2051.404674160438
 30
0.0
 11
1081.3076841561
 21
2033.727004631439
 31
0.0
  0
LINE
  5
28C
330
1F
100
AcDbEntity
  8
LAY-10
  6
CONTINUOUS
 62
     7
100
AcDbLine
 10
1081.3076841561
 20
2051.404674160438
 30
0.0
 11
1098.9853536858
 21
2069.082343690439
 31
0.0
  0
LINE
  5
28D
330
1F
100
AcDbEntity
  8
LAY-10
  6
CONTINUOUS
 62
     7
100
AcDbLine
 10
1098.9853536858
 20
2086.760013219438
 30
0.0
 11
1116.6630232155
 21
2069.082343690439
 31
0.0
  0
LINE
  5
28E
330
1F
100
AcDbEntity
  8
LAY-10
  6
CONTINUOUS
 62
     7
100
AcDbLine
 10
1063.6300146265
 20
2104.437682749438
 30
0.0
 11
1045.9523450968
 21
2086.760013219439
 31
0.0
  0
LINE
  5
28F
330
1F
100
AcDbEntity
  8
LAY-10
  6
CONTINUOUS
 62
     7
100
AcDbLine
 10
1098.9853536858
 20
2104.437682749437
 30
0.0
 11
1081.3076841561
 21
2086.760013219438
 31
0.0
  0
LINE
  5
290
330
1F
100
AcDbEntity
  8
LAY-10
  6
CONTINUOUS
 62
     7
100
AcDbLine
 10
1063.6300146265
 20
2086.760013219439
 30
0.0
 11
1081.3076841561
 21
2069.082343690439
 31
0.0
  0
LINE
  5
291
330
1F
100
AcDbEntity
  8
LAY-10
  6
CONTINUOUS
 62
     7
100
AcDbLine
 10
1045.9523450967
 20
2016.049335101438
 30
0.0
 11
1063.6300146264
 21
2033.727004631439
 31
0.0
  0
LINE
  5
292
330
1F
100
AcDbEntity
  8
LAY-10
  6
CONTINUOUS
 62
     7
100
AcDbLine
 10
1028.274675567
 20
2016.049335101438
 30
0.0
 11
1045.9523450967
 21
1998.371665572438
 31
0.0
  0
LINE
  5
293
330
1F
100
AcDbEntity
  8
LAY-10
  6
CONTINUOUS
 62
     7
100
AcDbLine
 10
1019.8076841562
 20
1989.904674161494
 30
0.0
 11
1028.274675567
 21
1998.371665572438
 31
0.0
  0
LINE
  5
294
330
1F
100
AcDbEntity
  8
LAY-10
  6
CONTINUOUS
 62
     7
100
AcDbLine
 10
1158.663023215687
 20
2199.470691337439
 30
0.0
 11
1152.0183622748
 21
2192.826030396438
 31
0.0
  0
LINE
  5
295
330
1F
100
AcDbEntity
  8
LAY-10
  6
CONTINUOUS
 62
     7
100
AcDbLine
 10
1194.018362275364
 20
2199.470691337439
 30
0.0
 11
1187.3737013351
 21
2192.826030397438
 31
0.0
  0
LINE
  5
296
330
1F
100
AcDbEntity
  8
LAY-10
  6
CONTINUOUS
 62
     7
100
AcDbLine
 10
1229.373701335034
 20
2199.470691337439
 30
0.0
 11
1222.72904039477
 21
2192.826030397438
 31
0.0
  0
LINE
  5
297
330
1F
100
AcDbEntity
  8
LAY-10
  6
CONTINUOUS
 62
     7
100
AcDbLine
 10
1134.3406927452
 20
2139.793021808438
 30
0.0
 11
1116.6630232155
 21
2122.115352278438
 31
0.0
  0
LINE
  5
298
330
1F
100
AcDbEntity
  8
LAY-10
  6
CONTINUOUS
 62
     7
100
AcDbLine
 10
1116.6630232155
 20
2086.760013219438
 30
0.0
 11
1134.3406927452
 21
2104.437682749438
 31
0.0
  0
LINE
  5
299
330
1F
100
AcDbEntity
  8
LAY-10
  6
CONTINUOUS
 62
     7
100
AcDbLine
 10
1063.630014626899
 20
2175.148360866837
 30
0.0
 11
1045.9523450972
 21
2157.470691336838
 31
0.0
  0
LINE
  5
29A
330
1F
100
AcDbEntity
  8
LAY-10
  6
CONTINUOUS
 62
     7
100
AcDbLine
 10
1045.9523450969
 20
2175.148360866536
 30
0.0
 11
1028.274675567599
 21
2192.826030395835
 31
0.0
  0
LINE
  5
29B
330
1F
100
AcDbEntity
  8
LAY-10
  6
CONTINUOUS
 62
     7
100
AcDbLine
 10
1028.274675568199
 20
2157.470691336438
 30
0.0
 11
1045.9523450975
 21
2139.793021807138
 31
0.0
  0
LINE
  5
29C
330
1F
100
AcDbEntity
  8
LAY-10
  6
CONTINUOUS
 62
     7
100
AcDbLine
 10
1134.3406927452
 20
2175.148360867438
 30
0.0
 11
1120.8076841562
 21
2161.615352278209
 31
0.0
  0
LINE
  5
29D
330
1F
100
AcDbEntity
  8
LAY-10
  6
CONTINUOUS
 62
     7
100
AcDbLine
 10
1063.630014626998
 20
2192.826030395238
 30
0.0
 11
1081.307684156299
 21
2175.148360865939
 31
0.0
  0
LINE
  5
29E
330
1F
100
AcDbEntity
  8
LAY-10
  6
CONTINUOUS
 62
     7
100
AcDbLine
 10
1081.307684154999
 20
2157.470691336939
 30
0.0
 11
1098.985353684998
 21
2175.148360866641
 31
0.0
  0
LINE
  5
29F
330
1F
100
AcDbEntity
  8
LAY-10
  6
CONTINUOUS
 62
     7
100
AcDbLine
 10
1116.663023213998
 20
2175.148360866642
 30
0.0
 11
1098.985353684996
 21
2192.82603039634
 31
0.0
  0
LINE
  5
2A0
330
1F
100
AcDbEntity
  8
LAY-10
  6
CONTINUOUS
 62
     7
100
AcDbLine
 10
1116.663023214001
 20
2139.793021807342
 30
0.0
 11
1098.985353684999
 21
2157.47069133694
 31
0.0
  0
LINE
  5
2A1
330
1F
100
AcDbEntity
  8
LAY-10
  6
CONTINUOUS
 62
     7
100
AcDbLine
 10
1081.307684153998
 20
2192.826030396239
 30
0.0
 11
1087.95234509531
 21
2199.470691337439
 31
0.0
  0
LINE
  5
2A2
330
1F
100
AcDbEntity
  8
LAY-10
  6
CONTINUOUS
 62
     7
100
AcDbLine
 10
1081.3076841559
 20
2139.793021808139
 30
0.0
 11
1063.630014626601
 21
2157.470691337439
 31
0.0
  0
LINE
  5
2A3
330
1F
100
AcDbEntity
  8
LAY-10
  6
CONTINUOUS
 62
     7
100
AcDbLine
 10
1205.051370862801
 20
2175.148360868438
 30
0.0
 11
1187.373701333501
 21
2157.470691338138
 31
0.0
  0
LINE
  5
2A4
330
1F
100
AcDbEntity
  8
LAY-10
  6
CONTINUOUS
 62
     7
100
AcDbLine
 10
1205.051370862101
 20
2192.826030398137
 30
0.0
 11
1222.729040391801
 21
2175.148360869137
 31
0.0
  0
LINE
  5
2A5
330
1F
100
AcDbEntity
  8
LAY-10
  6
CONTINUOUS
 62
     7
100
AcDbLine
 10
1286.734996180044
 20
1353.299692605407
 30
0.0
 11
1303.9193365078
 21
1336.11535227736
 31
0.0
  0
LINE
  5
2A6
330
1F
100
AcDbEntity
  8
LAY-10
  6
CONTINUOUS
 62
     7
100
AcDbLine
 10
1427.663023215701
 20
1336.115352280163
 30
0.0
 11
1421.018362273238
 21
1329.470691337362
 31
0.0
  0
LINE
  5
2A7
330
1F
100
AcDbEntity
  8
LAY-10
  6
CONTINUOUS
 62
     7
100
AcDbLine
 10
1445.3406927439
 20
1353.793021808963
 30
0.0
 11
1453.807684156225
 21
1362.260013221434
 31
0.0
  0
LINE
  5
2A8
330
1F
100
AcDbEntity
  8
LAY-10
  6
CONTINUOUS
 62
     7
100
AcDbLine
 10
1350.307684155496
 20
1329.47069133736
 30
0.0
 11
1356.952345097704
 21
1336.115352279156
 31
0.0
  0
LINE
  5
2A9
330
1F
100
AcDbEntity
  8
LAY-10
  6
CONTINUOUS
 62
     7
100
AcDbLine
 10
1445.3406927452
 20
1389.148360865361
 30
0.0
 11
1453.8076841562
 21
1397.615352276505
 31
0.0
  0
LINE
  5
2AA
330
1F
100
AcDbEntity
  8
LAY-10
  6
CONTINUOUS
 62
     7
100
AcDbLine
 10
1409.9853536859
 20
1389.148360866361
 30
0.0
 11
1427.663023215601
 21
1406.82603039636
 31
0.0
  0
LINE
  5
2AB
330
1F
100
AcDbEntity
  8
LAY-10
  6
CONTINUOUS
 62
     7
100
AcDbLine
 10
1427.663023215601
 20
1424.503699925361
 30
0.0
 11
1445.3406927453
 21
1406.82603039636
 31
0.0
  0
LINE
  5
2AC
330
1F
100
AcDbEntity
  8
LAY-10
  6
CONTINUOUS
 62
     7
100
AcDbLine
 10
1392.3076841563
 20
1424.503699925362
 30
0.0
 11
1409.9853536859
 21
1406.82603039636
 31
0.0
  0
LINE
  5
2AD
330
1F
100
AcDbEntity
  8
LAY-10
  6
CONTINUOUS
 62
     7
100
AcDbLine
 10
1303.919336507901
 20
1371.47069133736
 30
0.0
 11
1286.2416669782
 21
1389.148360866361
 31
0.0
  0
LINE
  5
2AE
330
1F
100
AcDbEntity
  8
LAY-10
  6
CONTINUOUS
 62
     7
100
AcDbLine
 10
1321.5970060375
 20
1406.82603039636
 30
0.0
 11
1303.919336507901
 21
1389.148360866361
 31
0.0
  0
LINE
  5
2AF
330
1F
100
AcDbEntity
  8
LAY-10
  6
CONTINUOUS
 62
     7
100
AcDbLine
 10
1321.5970060375
 20
1371.47069133736
 30
0.0
 11
1303.919336507901
 21
1353.79302180736
 31
0.0
  0
LINE
  5
2B0
330
1F
100
AcDbEntity
  8
LAY-10
  6
CONTINUOUS
 62
     7
100
AcDbLine
 10
1339.2746755672
 20
1406.82603039636
 30
0.0
 11
1321.5970060375
 21
1424.503699925361
 31
0.0
  0
LINE
  5
2B1
330
1F
100
AcDbEntity
  8
LAY-10
  6
CONTINUOUS
 62
     7
100
AcDbLine
 10
1374.6300146265
 20
1389.148360866361
 30
0.0
 11
1392.3076841562
 21
1406.82603039636
 31
0.0
  0
LINE
  5
2B2
330
1F
100
AcDbEntity
  8
LAY-10
  6
CONTINUOUS
 62
     7
100
AcDbLine
 10
1374.6300146265
 20
1406.82603039636
 30
0.0
 11
1356.952345096901
 21
1424.503699925361
 31
0.0
  0
LINE
  5
2B3
330
1F
100
AcDbEntity
  8
LAY-10
  6
CONTINUOUS
 62
     7
100
AcDbLine
 10
1339.2746755672
 20
1371.47069133736
 30
0.0
 11
1321.5970060375
 21
1389.148360866361
 31
0.0
  0
LINE
  5
2B4
330
1F
100
AcDbEntity
  8
LAY-10
  6
CONTINUOUS
 62
     7
100
AcDbLine
 10
1321.5970060375
 20
1353.79302180736
 30
0.0
 11
1339.2746755672
 21
1336.115352277361
 31
0.0
  0
LINE
  5
2B5
330
1F
100
AcDbEntity
  8
LAY-10
  6
CONTINUOUS
 62
     7
100
AcDbLine
 10
1445.3406927454
 20
1495.214378043361
 30
0.0
 11
1453.8076841562
 21
1503.681369454305
 31
0.0
  0
LINE
  5
2B6
330
1F
100
AcDbEntity
  8
LAY-10
  6
CONTINUOUS
 62
     7
100
AcDbLine
 10
1409.985353686
 20
1459.859038984361
 30
0.0
 11
1427.6630232157
 21
1477.536708514361
 31
0.0
  0
LINE
  5
2B7
330
1F
100
AcDbEntity
  8
LAY-10
  6
CONTINUOUS
 62
     7
100
AcDbLine
 10
1445.3406927453
 20
1477.536708514361
 30
0.0
 11
1427.6630232157
 21
1495.214378043361
 31
0.0
  0
LINE
  5
2B8
330
1F
100
AcDbEntity
  8
LAY-10
  6
CONTINUOUS
 62
     7
100
AcDbLine
 10
1445.3406927453
 20
1459.859038984361
 30
0.0
 11
1453.8076841562
 21
1468.326030395405
 31
0.0
  0
LINE
  5
2B9
330
1F
100
AcDbEntity
  8
LAY-10
  6
CONTINUOUS
 62
     7
100
AcDbLine
 10
1445.3406927453
 20
1424.503699925361
 30
0.0
 11
1453.8076841562
 21
1432.970691336404
 31
0.0
  0
LINE
  5
2BA
330
1F
100
AcDbEntity
  8
LAY-10
  6
CONTINUOUS
 62
     7
100
AcDbLine
 10
1427.6630232157
 20
1459.859038984361
 30
0.0
 11
1445.3406927453
 21
1442.18136945536
 31
0.0
  0
LINE
  5
2BB
330
1F
100
AcDbEntity
  8
LAY-10
  6
CONTINUOUS
 62
     7
100
AcDbLine
 10
1409.985353686
 20
1477.536708514361
 30
0.0
 11
1392.3076841563
 21
1495.214378043361
 31
0.0
  0
LINE
  5
2BC
330
1F
100
AcDbEntity
  8
LAY-10
  6
CONTINUOUS
 62
     7
100
AcDbLine
 10
1392.3076841563
 20
1477.536708514361
 30
0.0
 11
1374.630014626601
 21
1459.85903898436
 31
0.0
  0
LINE
  5
2BD
330
1F
100
AcDbEntity
  8
LAY-10
  6
CONTINUOUS
 62
     7
100
AcDbLine
 10
1374.630014626601
 20
1442.181369455361
 30
0.0
 11
1356.952345096901
 21
1459.85903898436
 31
0.0
  0
LINE
  5
2BE
330
1F
100
AcDbEntity
  8
LAY-10
  6
CONTINUOUS
 62
     7
100
AcDbLine
 10
1409.9853536859
 20
1424.503699925361
 30
0.0
 11
1427.663023215601
 21
1442.18136945536
 31
0.0
  0
LINE
  5
2BF
330
1F
100
AcDbEntity
  8
LAY-10
  6
CONTINUOUS
 62
     7
100
AcDbLine
 10
1374.630014626601
 20
1424.503699925362
 30
0.0
 11
1392.3076841563
 21
1442.181369455361
 31
0.0
  0
LINE
  5
2C0
330
1F
100
AcDbEntity
  8
LAY-10
  6
CONTINUOUS
 62
     7
100
AcDbLine
 10
1409.9853536859
 20
1442.18136945536
 30
0.0
 11
1392.3076841563
 21
1459.85903898436
 31
0.0
  0
LINE
  5
2C1
330
1F
100
AcDbEntity
  8
LAY-10
  6
CONTINUOUS
 62
     7
100
AcDbLine
 10
1427.6630232157
 20
1512.892047573361
 30
0.0
 11
1409.985353686
 21
1495.214378043361
 31
0.0
  0
LINE
  5
2C2
330
1F
100
AcDbEntity
  8
LAY-10
  6
CONTINUOUS
 62
     7
100
AcDbLine
 10
1445.3406927454
 20
1512.892047573361
 30
0.0
 11
1427.6630232157
 21
1530.569717102361
 31
0.0
  0
LINE
  5
2C3
330
1F
100
AcDbEntity
  8
LAY-10
  6
CONTINUOUS
 62
     7
100
AcDbLine
 10
1453.8076841562
 20
1539.036708513306
 30
0.0
 11
1445.3406927454
 21
1530.569717102361
 31
0.0
  0
LINE
  5
2C4
330
1F
100
AcDbEntity
  8
LAY-10
  6
CONTINUOUS
 62
     7
100
AcDbLine
 10
1314.952345096713
 20
1329.47069133736
 30
0.0
 11
1321.597006037601
 21
1336.115352278361
 31
0.0
  0
LINE
  5
2C5
330
1F
100
AcDbEntity
  8
LAY-10
  6
CONTINUOUS
 62
     7
100
AcDbLine
 10
1279.597006037037
 20
1329.47069133736
 30
0.0
 11
1286.2416669773
 21
1336.115352277361
 31
0.0
  0
LINE
  5
2C6
330
1F
100
AcDbEntity
  8
LAY-10
  6
CONTINUOUS
 62
     7
100
AcDbLine
 10
1244.241666977367
 20
1329.47069133736
 30
0.0
 11
1250.886327917631
 21
1336.115352277361
 31
0.0
  0
LINE
  5
2C7
330
1F
100
AcDbEntity
  8
LAY-10
  6
CONTINUOUS
 62
     7
100
AcDbLine
 10
1339.2746755672
 20
1389.148360866361
 30
0.0
 11
1356.952345096901
 21
1406.82603039636
 31
0.0
  0
LINE
  5
2C8
330
1F
100
AcDbEntity
  8
LAY-10
  6
CONTINUOUS
 62
     7
100
AcDbLine
 10
1356.952345096901
 20
1442.181369455361
 30
0.0
 11
1339.2746755672
 21
1424.503699925361
 31
0.0
  0
LINE
  5
2C9
330
1F
100
AcDbEntity
  8
LAY-10
  6
CONTINUOUS
 62
     7
100
AcDbLine
 10
1409.985353685501
 20
1353.793021807962
 30
0.0
 11
1427.6630232152
 21
1371.470691337961
 31
0.0
  0
LINE
  5
2CA
330
1F
100
AcDbEntity
  8
LAY-10
  6
CONTINUOUS
 62
     7
100
AcDbLine
 10
1427.663023215501
 20
1353.793021808263
 30
0.0
 11
1445.340692744801
 21
1336.115352278964
 31
0.0
  0
LINE
  5
2CB
330
1F
100
AcDbEntity
  8
LAY-10
  6
CONTINUOUS
 62
     7
100
AcDbLine
 10
1445.340692744201
 20
1371.470691338362
 30
0.0
 11
1427.6630232149
 21
1389.148360867661
 31
0.0
  0
LINE
  5
2CC
330
1F
100
AcDbEntity
  8
LAY-10
  6
CONTINUOUS
 62
     7
100
AcDbLine
 10
1339.2746755672
 20
1353.79302180736
 30
0.0
 11
1352.8076841562
 21
1367.32603039659
 31
0.0
  0
LINE
  5
2CD
330
1F
100
AcDbEntity
  8
LAY-10
  6
CONTINUOUS
 62
     7
100
AcDbLine
 10
1409.985353685402
 20
1336.115352279561
 30
0.0
 11
1392.307684156102
 21
1353.79302180886
 31
0.0
  0
LINE
  5
2CE
330
1F
100
AcDbEntity
  8
LAY-10
  6
CONTINUOUS
 62
     7
100
AcDbLine
 10
1392.307684157401
 20
1371.47069133786
 30
0.0
 11
1374.630014627402
 21
1353.793021808158
 31
0.0
  0
LINE
  5
2CF
330
1F
100
AcDbEntity
  8
LAY-10
  6
CONTINUOUS
 62
     7
100
AcDbLine
 10
1356.952345098402
 20
1353.793021808157
 30
0.0
 11
1374.630014627404
 21
1336.115352278459
 31
0.0
  0
LINE
  5
2D0
330
1F
100
AcDbEntity
  8
LAY-10
  6
CONTINUOUS
 62
     7
100
AcDbLine
 10
1356.952345098399
 20
1389.148360867457
 30
0.0
 11
1374.630014627401
 21
1371.470691337859
 31
0.0
  0
LINE
  5
2D1
330
1F
100
AcDbEntity
  8
LAY-10
  6
CONTINUOUS
 62
     7
100
AcDbLine
 10
1392.307684158402
 20
1336.11535227856
 30
0.0
 11
1385.66302321709
 21
1329.47069133736
 31
0.0
  0
LINE
  5
2D2
330
1F
100
AcDbEntity
  8
LAY-10
  6
CONTINUOUS
 62
     7
100
AcDbLine
 10
1392.3076841565
 20
1389.14836086666
 30
0.0
 11
1409.9853536858
 21
1371.47069133736
 31
0.0
  0
LINE
  5
2D3
330
1F
100
AcDbEntity
  8
LAY-10
  6
CONTINUOUS
 62
     7
100
AcDbLine
 10
1268.5639974496
 20
1353.793021806361
 30
0.0
 11
1286.2416669789
 21
1371.470691336661
 31
0.0
  0
LINE
  5
2D4
330
1F
100
AcDbEntity
  8
LAY-10
  6
CONTINUOUS
 62
     7
100
AcDbLine
 10
1268.563997450299
 20
1336.115352276661
 30
0.0
 11
1250.8863279206
 21
1353.793021805662
 31
0.0
  0
LINE
  5
2D5
330
1F
100
AcDbEntity
  8
LAY-10
  6
CONTINUOUS
 62
     7
100
AcDbLine
 10
1264.307684156166
 20
2244.374805079319
 30
0.0
 11
1273.307684156166
 21
2244.374805079319
 31
0.0
  0
LINE
  5
2D6
330
1F
100
AcDbEntity
  8
LAY-10
  6
CONTINUOUS
 62
     7
100
AcDbLine
 10
1273.307684156166
 20
2215.476320269482
 30
0.0
 11
1273.307684156166
 21
2244.374805079319
 31
0.0
  0
LINE
  5
2D7
330
1F
100
AcDbEntity
  8
LAY-10
  6
CONTINUOUS
 62
     7
100
AcDbLine
 10
1264.307684156166
 20
2215.476320269482
 30
0.0
 11
1264.307684156166
 21
2244.374805079319
 31
0.0
  0
LINE
  5
2D8
330
1F
100
AcDbEntity
  8
LAY-10
  6
CONTINUOUS
 62
     7
100
AcDbLine
 10
773.307684156205
 20
2244.374805079319
 30
0.0
 11
764.3076841562035
 21
2244.374805079319
 31
0.0
  0
LINE
  5
2D9
330
1F
100
AcDbEntity
  8
LAY-10
  6
CONTINUOUS
 62
     7
100
AcDbLine
 10
764.3076841562035
 20
2215.476320269482
 30
0.0
 11
764.3076841562035
 21
2244.374805079319
 31
0.0
  0
LINE
  5
2DA
330
1F
100
AcDbEntity
  8
LAY-10
  6
CONTINUOUS
 62
     7
100
AcDbLine
 10
773.3076841562041
 20
2215.476320269482
 30
0.0
 11
773.307684156205
 21
2244.374805079319
 31
0.0
  0
LINE
  5
2DB
330
1F
100
AcDbEntity
  8
LAY-10
  6
CONTINUOUS
 62
     7
100
AcDbLine
 10
1264.307684156166
 20
1284.566577595766
 30
0.0
 11
1273.307684156166
 21
1284.566577595766
 31
0.0
  0
LINE
  5
2DC
330
1F
100
AcDbEntity
  8
LAY-10
  6
CONTINUOUS
 62
     7
100
AcDbLine
 10
1273.307684156166
 20
1313.465062405603
 30
0.0
 11
1273.307684156166
 21
1284.566577595766
 31
0.0
  0
LINE
  5
2DD
330
1F
100
AcDbEntity
  8
LAY-10
  6
CONTINUOUS
 62
     7
100
AcDbLine
 10
1264.307684156166
 20
1313.465062405603
 30
0.0
 11
1264.307684156166
 21
1284.566577595766
 31
0.0
  0
LINE
  5
2DE
330
1F
100
AcDbEntity
  8
LAY-10
  6
CONTINUOUS
 62
     7
100
AcDbLine
 10
773.3076841562055
 20
1284.566577595765
 30
0.0
 11
764.3076841562041
 21
1284.566577595765
 31
0.0
  0
LINE
  5
2DF
330
1F
100
AcDbEntity
  8
LAY-10
  6
CONTINUOUS
 62
     7
100
AcDbLine
 10
764.3076841562041
 20
1313.465062405602
 30
0.0
 11
764.3076841562041
 21
1284.566577595765
 31
0.0
  0
LINE
  5
2E0
330
1F
100
AcDbEntity
  8
LAY-10
  6
CONTINUOUS
 62
     7
100
AcDbLine
 10
773.3076841562047
 20
1313.465062405602
 30
0.0
 11
773.3076841562055
 21
1284.566577595765
 31
0.0
  0
LINE
  5
2E1
330
1F
100
AcDbEntity
  8
LAY-10
  6
CONTINUOUS
 62
     7
100
AcDbLine
 10
1410.807684156201
 20
858.952049755541
 30
0.0
 11
626.8076841562058
 21
858.9520497555435
 31
0.0
  0
LINE
  5
2E2
330
1F
100
AcDbEntity
  8
LAY-10
  6
CONTINUOUS
 62
     7
100
AcDbLine
 10
1414.8076841562
 20
806.952049755591
 30
0.0
 11
1368.807684156196
 21
806.9520497555915
 31
0.0
  0
LINE
  5
2E3
330
1F
100
AcDbEntity
  8
LAY-10
  6
CONTINUOUS
 62
     7
100
AcDbLine
 10
626.8076841562058
 20
808.952049755543
 30
0.0
 11
1410.807684156201
 21
808.952049755543
 31
0.0
  0
LINE
  5
2E4
330
1F
100
AcDbEntity
  8
LAY-10
  6
CONTINUOUS
 62
     7
100
AcDbLine
 10
622.8076841561351
 20
806.952049755591
 30
0.0
 11
668.807684156139
 21
806.9520497555915
 31
0.0
  0
LINE
  5
2E5
330
1F
100
AcDbEntity
  8
LAY-10
  6
CONTINUOUS
 62
     7
100
AcDbLine
 10
1410.807684156129
 20
858.9520497555435
 30
0.0
 11
1410.807684156129
 21
806.9520497555417
 31
0.0
  0
LINE
  5
2E6
330
1F
100
AcDbEntity
  8
LAY-10
  6
CONTINUOUS
 62
     7
100
AcDbLine
 10
1409.20768415613
 20
810.5520497555416
 30
0.0
 11
1409.20768415613
 21
857.3520497555425
 31
0.0
  0
LINE
  5
2E7
330
1F
100
AcDbEntity
  8
LAY-10
  6
CONTINUOUS
 62
     7
100
AcDbLine
 10
1335.507684156129
 20
859.9520497555428
 30
0.0
 11
1335.507684156129
 21
858.9520497555435
 31
0.0
  0
CIRCLE
  5
2E8
330
1F
100
AcDbEntity
  8
LAY-10
  6
CONTINUOUS
 62
     7
100
AcDbCircle
 10
1278.807684156124
 20
861.9520497555428
 30
0.0
 40
3.000000000000003
  0
ARC
  5
2E9
330
1F
100
AcDbEntity
  8
LAY-10
  6
CONTINUOUS
 62
     7
100
AcDbCircle
 10
1322.508575157097
 20
861.9511587545743
 30
0.0
 40
2.999108999030569
100
AcDbArc
 50
270.0
 51
90.00000000000001
  0
ARC
  5
2EA
330
1F
100
AcDbEntity
  8
LAY-10
  6
CONTINUOUS
 62
     7
100
AcDbCircle
 10
1326.507684156129
 20
859.9520497555428
 30
0.0
 40
1.0
100
AcDbArc
 50
180.0
 51
270.0
  0
LINE
  5
2EB
330
1F
100
AcDbEntity
  8
LAY-10
  6
CONTINUOUS
 62
     7
100
AcDbLine
 10
1326.507684156129
 20
861.952049755543
 30
0.0
 11
1326.507684156129
 21
859.9520497555428
 31
0.0
  0
LINE
  5
2EC
330
1F
100
AcDbEntity
  8
LAY-10
  6
CONTINUOUS
 62
     7
100
AcDbLine
 10
1326.507684156129
 20
859.9520497555428
 30
0.0
 11
1335.507684156129
 21
859.9520497555428
 31
0.0
  0
LINE
  5
2ED
330
1F
100
AcDbEntity
  8
LAY-10
  6
CONTINUOUS
 62
     7
100
AcDbLine
 10
1278.716816776207
 20
864.9506732929798
 30
0.0
 11
1322.508575157097
 21
864.9506732929798
 31
0.0
  0
ARC
  5
2EE
330
1F
100
AcDbEntity
  8
LAY-10
  6
CONTINUOUS
 62
     7
100
AcDbCircle
 10
1322.507684156128
 20
861.952049755543
 30
0.0
 40
4.0
100
AcDbArc
 50
0.0
 51
131.4394216791276
  0
LINE
  5
2EF
330
1F
100
AcDbEntity
  8
LAY-10
  6
CONTINUOUS
 62
     7
100
AcDbLine
 10
1325.507684156126
 20
859.9520497555428
 30
0.0
 11
1325.507684156126
 21
861.952049755543
 31
0.0
  0
LINE
  5
2F0
330
1F
100
AcDbEntity
  8
LAY-10
  6
CONTINUOUS
 62
     7
100
AcDbLine
 10
1385.807684156131
 20
806.9520497555417
 30
0.0
 11
1385.807684156131
 21
808.952049755543
 31
0.0
  0
LINE
  5
2F1
330
1F
100
AcDbEntity
  8
LAY-10
  6
CONTINUOUS
 62
     7
100
AcDbLine
 10
1415.007684156202
 20
803.7520497555903
 30
0.0
 11
1368.807684156196
 21
803.7520497555903
 31
0.0
  0
LINE
  5
2F2
330
1F
100
AcDbEntity
  8
LAY-10
  6
CONTINUOUS
 62
     7
100
AcDbLine
 10
1368.807684156196
 20
806.9520497555868
 30
0.0
 11
1368.807684156196
 21
803.7520497555903
 31
0.0
  0
ARC
  5
2F3
330
1F
100
AcDbEntity
  8
LAY-10
  6
CONTINUOUS
 62
     7
100
AcDbCircle
 10
1415.007684156202
 20
806.7520497555907
 30
0.0
 40
3.000000000000003
100
AcDbArc
 50
270.0
 51
0.0
  0
LINE
  5
2F4
330
1F
100
AcDbEntity
  8
LAY-10
  6
CONTINUOUS
 62
     7
100
AcDbLine
 10
1409.207684156198
 20
857.352049755541
 30
0.0
 11
628.4076841562053
 21
857.3520497555425
 31
0.0
  0
LINE
  5
2F5
330
1F
100
AcDbEntity
  8
LAY-10
  6
CONTINUOUS
 62
     7
100
AcDbLine
 10
628.4076841562053
 20
810.5520497555416
 30
0.0
 11
1409.207684156198
 21
810.5520497555416
 31
0.0
  0
LINE
  5
2F6
330
1F
100
AcDbEntity
  8
LAY-10
  6
CONTINUOUS
 62
     7
100
AcDbLine
 10
626.8076841562058
 20
858.9520497555435
 30
0.0
 11
626.8076841562058
 21
806.9520497555417
 31
0.0
  0
LINE
  5
2F7
330
1F
100
AcDbEntity
  8
LAY-10
  6
CONTINUOUS
 62
     7
100
AcDbLine
 10
628.4076841562053
 20
810.5520497555416
 30
0.0
 11
628.4076841562053
 21
857.3520497555425
 31
0.0
  0
LINE
  5
2F8
330
1F
100
AcDbEntity
  8
LAY-10
  6
CONTINUOUS
 62
     7
100
AcDbLine
 10
702.1076841562056
 20
859.9520497555428
 30
0.0
 11
702.1076841562056
 21
858.9520497555435
 31
0.0
  0
CIRCLE
  5
2F9
330
1F
100
AcDbEntity
  8
LAY-10
  6
CONTINUOUS
 62
     7
100
AcDbCircle
 10
758.8076841562106
 20
861.9520497555428
 30
0.0
 40
3.000000000000003
  0
ARC
  5
2FA
330
1F
100
AcDbEntity
  8
LAY-10
  6
CONTINUOUS
 62
     7
100
AcDbCircle
 10
715.1067931552379
 20
861.9511587545743
 30
0.0
 40
2.999108999030569
100
AcDbArc
 50
90.00000000000001
 51
270.0000000000002
  0
ARC
  5
2FB
330
1F
100
AcDbEntity
  8
LAY-10
  6
CONTINUOUS
 62
     7
100
AcDbCircle
 10
711.1076841562062
 20
859.9520497555428
 30
0.0
 40
1.0
100
AcDbArc
 50
270.0000000000002
 51
0.0
  0
LINE
  5
2FC
330
1F
100
AcDbEntity
  8
LAY-10
  6
CONTINUOUS
 62
     7
100
AcDbLine
 10
711.1076841562062
 20
861.952049755543
 30
0.0
 11
711.1076841562062
 21
859.9520497555428
 31
0.0
  0
LINE
  5
2FD
330
1F
100
AcDbEntity
  8
LAY-10
  6
CONTINUOUS
 62
     7
100
AcDbLine
 10
711.1076841562062
 20
859.9520497555428
 30
0.0
 11
702.1076841562056
 21
859.9520497555428
 31
0.0
  0
LINE
  5
2FE
330
1F
100
AcDbEntity
  8
LAY-10
  6
CONTINUOUS
 62
     7
100
AcDbLine
 10
758.8985515361276
 20
864.9506732929798
 30
0.0
 11
715.1067931552379
 21
864.9506732929798
 31
0.0
  0
ARC
  5
2FF
330
1F
100
AcDbEntity
  8
LAY-10
  6
CONTINUOUS
 62
     7
100
AcDbCircle
 10
715.1076841562074
 20
861.952049755543
 30
0.0
 40
4.0
100
AcDbArc
 50
48.56057832087367
 51
180.0
  0
LINE
  5
300
330
1F
100
AcDbEntity
  8
LAY-10
  6
CONTINUOUS
 62
     7
100
AcDbLine
 10
712.107684156209
 20
859.9520497555428
 30
0.0
 11
712.107684156209
 21
861.952049755543
 31
0.0
  0
LINE
  5
301
330
1F
100
AcDbEntity
  8
LAY-10
  6
CONTINUOUS
 62
     7
100
AcDbLine
 10
651.8076841562041
 20
806.9520497555417
 30
0.0
 11
651.8076841562041
 21
808.952049755543
 31
0.0
  0
LINE
  5
302
330
1F
100
AcDbEntity
  8
LAY-10
  6
CONTINUOUS
 62
     7
100
AcDbLine
 10
622.6076841561326
 20
803.7520497555903
 30
0.0
 11
668.807684156139
 21
803.7520497555903
 31
0.0
  0
LINE
  5
303
330
1F
100
AcDbEntity
  8
LAY-10
  6
CONTINUOUS
 62
     7
100
AcDbLine
 10
668.807684156139
 20
806.9520497555868
 30
0.0
 11
668.807684156139
 21
803.7520497555903
 31
0.0
  0
ARC
  5
304
330
1F
100
AcDbEntity
  8
LAY-10
  6
CONTINUOUS
 62
     7
100
AcDbCircle
 10
622.6076841561326
 20
806.7520497555907
 30
0.0
 40
3.000000000000003
100
AcDbArc
 50
180.0
 51
270.0000000000002
  0
LINE
  5
305
330
1F
100
AcDbEntity
  8
LAY-10
  6
CONTINUOUS
 62
     7
100
AcDbLine
 10
1924.323511271559
 20
2156.470691337401
 30
0.0
 11
1924.323511271557
 21
1372.470691337406
 31
0.0
  0
LINE
  5
306
330
1F
100
AcDbEntity
  8
LAY-10
  6
CONTINUOUS
 62
     7
100
AcDbLine
 10
1976.323511271509
 20
2160.4706913374
 30
0.0
 11
1976.323511271509
 21
2114.470691337396
 31
0.0
  0
LINE
  5
307
330
1F
100
AcDbEntity
  8
LAY-10
  6
CONTINUOUS
 62
     7
100
AcDbLine
 10
1974.323511271557
 20
1372.470691337406
 30
0.0
 11
1974.323511271557
 21
2156.470691337401
 31
0.0
  0
LINE
  5
308
330
1F
100
AcDbEntity
  8
LAY-10
  6
CONTINUOUS
 62
     7
100
AcDbLine
 10
1976.323511271509
 20
1368.470691337335
 30
0.0
 11
1976.323511271509
 21
1414.470691337339
 31
0.0
  0
LINE
  5
309
330
1F
100
AcDbEntity
  8
LAY-10
  6
CONTINUOUS
 62
     7
100
AcDbLine
 10
1924.323511271557
 20
2156.470691337329
 30
0.0
 11
1976.323511271559
 21
2156.470691337329
 31
0.0
  0
LINE
  5
30A
330
1F
100
AcDbEntity
  8
LAY-10
  6
CONTINUOUS
 62
     7
100
AcDbLine
 10
1972.723511271558
 20
2154.870691337329
 30
0.0
 11
1925.923511271557
 21
2154.870691337329
 31
0.0
  0
LINE
  5
30B
330
1F
100
AcDbEntity
  8
LAY-10
  6
CONTINUOUS
 62
     7
100
AcDbLine
 10
1976.323511271559
 20
2131.470691337331
 30
0.0
 11
1974.323511271557
 21
2131.470691337331
 31
0.0
  0
LINE
  5
30C
330
1F
100
AcDbEntity
  8
LAY-10
  6
CONTINUOUS
 62
     7
100
AcDbLine
 10
1979.52351127151
 20
2160.670691337402
 30
0.0
 11
1979.52351127151
 21
2114.470691337396
 31
0.0
  0
LINE
  5
30D
330
1F
100
AcDbEntity
  8
LAY-10
  6
CONTINUOUS
 62
     7
100
AcDbLine
 10
1976.323511271513
 20
2114.470691337396
 30
0.0
 11
1979.52351127151
 21
2114.470691337396
 31
0.0
  0
ARC
  5
30E
330
1F
100
AcDbEntity
  8
LAY-10
  6
CONTINUOUS
 62
     7
100
AcDbCircle
 10
1976.523511271509
 20
2160.670691337402
 30
0.0
 40
3.000000000000003
100
AcDbArc
 50
0.0
 51
90.00000000000001
  0
LINE
  5
30F
330
1F
100
AcDbEntity
  8
LAY-10
  6
CONTINUOUS
 62
     7
100
AcDbLine
 10
1925.923511271559
 20
2154.870691337398
 30
0.0
 11
1925.923511271557
 21
1374.070691337405
 31
0.0
  0
LINE
  5
310
330
1F
100
AcDbEntity
  8
LAY-10
  6
CONTINUOUS
 62
     7
100
AcDbLine
 10
1972.723511271558
 20
1374.070691337405
 30
0.0
 11
1972.723511271558
 21
2154.870691337398
 31
0.0
  0
LINE
  5
311
330
1F
100
AcDbEntity
  8
LAY-10
  6
CONTINUOUS
 62
     7
100
AcDbLine
 10
1924.323511271557
 20
1372.470691337406
 30
0.0
 11
1976.323511271559
 21
1372.470691337406
 31
0.0
  0
LINE
  5
312
330
1F
100
AcDbEntity
  8
LAY-10
  6
CONTINUOUS
 62
     7
100
AcDbLine
 10
1972.723511271558
 20
1374.070691337405
 30
0.0
 11
1925.923511271557
 21
1374.070691337405
 31
0.0
  0
LINE
  5
313
330
1F
100
AcDbEntity
  8
LAY-10
  6
CONTINUOUS
 62
     7
100
AcDbLine
 10
1976.323511271559
 20
1397.470691337404
 30
0.0
 11
1974.323511271557
 21
1397.470691337404
 31
0.0
  0
LINE
  5
314
330
1F
100
AcDbEntity
  8
LAY-10
  6
CONTINUOUS
 62
     7
100
AcDbLine
 10
1979.52351127151
 20
1368.270691337332
 30
0.0
 11
1979.52351127151
 21
1414.470691337339
 31
0.0
  0
LINE
  5
315
330
1F
100
AcDbEntity
  8
LAY-10
  6
CONTINUOUS
 62
     7
100
AcDbLine
 10
1976.323511271513
 20
1414.470691337339
 30
0.0
 11
1979.52351127151
 21
1414.470691337339
 31
0.0
  0
ARC
  5
316
330
1F
100
AcDbEntity
  8
LAY-10
  6
CONTINUOUS
 62
     7
100
AcDbCircle
 10
1976.523511271509
 20
1368.270691337332
 30
0.0
 40
3.000000000000003
100
AcDbArc
 50
270.0
 51
0.0000000000001719
  0
LINE
  5
317
330
1F
100
AcDbEntity
  8
LAY-10
  6
CONTINUOUS
 62
     7
100
AcDbLine
 10
1923.323511271562
 20
1839.320691337409
 30
0.0
 11
1923.323511271562
 21
1819.320691337408
 31
0.0
  0
LINE
  5
318
330
1F
100
AcDbEntity
  8
LAY-10
  6
CONTINUOUS
 62
     7
100
AcDbLine
 10
1923.323511271562
 20
1709.320691337409
 30
0.0
 11
1923.323511271562
 21
1689.320691337409
 31
0.0
  0
ARC
  5
319
330
1F
100
AcDbEntity
  8
LAY-10
  6
CONTINUOUS
 62
     7
100
AcDbCircle
 10
1921.323511271569
 20
1811.320691337408
 30
0.0
 40
3.000000000000003
100
AcDbArc
 50
270.0
 51
0.0
  0
ARC
  5
31A
330
1F
100
AcDbEntity
  8
LAY-10
  6
CONTINUOUS
 62
     7
100
AcDbCircle
 10
1921.323511271569
 20
1811.320691337408
 30
0.0
 40
3.000000000000003
100
AcDbArc
 50
180.0
 51
270.0
  0
ARC
  5
31B
330
1F
100
AcDbEntity
  8
LAY-10
  6
CONTINUOUS
 62
     7
100
AcDbCircle
 10
1921.323511271569
 20
1717.320691337407
 30
0.0
 40
3.000000000000003
100
AcDbArc
 50
0.0
 51
90.00000000000001
  0
ARC
  5
31C
330
1F
100
AcDbEntity
  8
LAY-10
  6
CONTINUOUS
 62
     7
100
AcDbCircle
 10
1921.323511271569
 20
1717.320691337407
 30
0.0
 40
3.000000000000003
100
AcDbArc
 50
90.00000000000001
 51
180.0
  0
LINE
  5
31D
330
1F
100
AcDbEntity
  8
LAY-10
  6
CONTINUOUS
 62
     7
100
AcDbLine
 10
1916.323511271561
 20
1689.320691337409
 30
0.0
 11
1924.323511271568
 21
1689.320691337409
 31
0.0
  0
LINE
  5
31E
330
1F
100
AcDbEntity
  8
LAY-10
  6
CONTINUOUS
 62
     7
100
AcDbLine
 10
1916.323511271561
 20
1839.320691337409
 30
0.0
 11
1924.323511271568
 21
1839.320691337409
 31
0.0
  0
LINE
  5
31F
330
1F
100
AcDbEntity
  8
LAY-10
  6
CONTINUOUS
 62
     7
100
AcDbLine
 10
1916.323511271561
 20
1819.320691337408
 30
0.0
 11
1924.323511271568
 21
1819.320691337408
 31
0.0
  0
LINE
  5
320
330
1F
100
AcDbEntity
  8
LAY-10
  6
CONTINUOUS
 62
     7
100
AcDbLine
 10
1918.323511271561
 20
1839.320691337409
 30
0.0
 11
1918.323511271561
 21
1849.620691337408
 31
0.0
  0
LINE
  5
321
330
1F
100
AcDbEntity
  8
LAY-10
  6
CONTINUOUS
 62
     7
100
AcDbLine
 10
1918.323511271561
 20
1709.320691337409
 30
0.0
 11
1918.323511271561
 21
1819.320691337408
 31
0.0
  0
LINE
  5
322
330
1F
100
AcDbEntity
  8
LAY-10
  6
CONTINUOUS
 62
     7
100
AcDbLine
 10
1918.323511271561
 20
1679.320691337409
 30
0.0
 11
1918.323511271561
 21
1689.320691337409
 31
0.0
  0
LINE
  5
323
330
1F
100
AcDbEntity
  8
LAY-10
  6
CONTINUOUS
 62
     7
100
AcDbLine
 10
1916.323511271561
 20
1819.320691337408
 30
0.0
 11
1916.323511271561
 21
1839.320691337409
 31
0.0
  0
LINE
  5
324
330
1F
100
AcDbEntity
  8
LAY-10
  6
CONTINUOUS
 62
     7
100
AcDbLine
 10
1916.323511271561
 20
1689.320691337409
 30
0.0
 11
1916.323511271561
 21
1709.320691337409
 31
0.0
  0
LINE
  5
325
330
1F
100
AcDbEntity
  8
LAY-10
  6
CONTINUOUS
 62
     7
100
AcDbLine
 10
1916.323511271561
 20
1709.320691337409
 30
0.0
 11
1924.323511271568
 21
1709.320691337409
 31
0.0
  0
LINE
  5
326
330
1F
100
AcDbEntity
  8
LAY-10
  6
CONTINUOUS
 62
     7
100
AcDbLine
 10
1918.323511271561
 20
1849.620691337408
 30
0.0
 11
1924.323511271568
 21
1849.620691337408
 31
0.0
  0
LINE
  5
327
330
1F
100
AcDbEntity
  8
LAY-10
  6
CONTINUOUS
 62
     7
100
AcDbLine
 10
1918.323511271561
 20
1679.320691337409
 30
0.0
 11
1924.323511271568
 21
1679.320691337409
 31
0.0
  0
LINE
  5
328
330
1F
100
AcDbEntity
  8
LAY-10
  6
CONTINUOUS
 62
     7
100
AcDbLine
 10
619.6076841561314
 20
879.5520497555938
 30
0.0
 11
619.6076841561314
 21
806.7520497555907
 31
0.0
  0
LINE
  5
329
330
1F
100
AcDbEntity
  8
LAY-10
  6
CONTINUOUS
 62
     7
100
AcDbLine
 10
622.8076841561351
 20
879.7520497555936
 30
0.0
 11
622.8076841561351
 21
806.9520497555868
 31
0.0
  0
LINE
  5
32A
330
1F
100
AcDbEntity
  8
LAY-10
  6
CONTINUOUS
 62
     7
100
AcDbLine
 10
1418.007684156203
 20
879.5520497555938
 30
0.0
 11
1418.007684156203
 21
806.7520497555907
 31
0.0
  0
LINE
  5
32B
330
1F
100
AcDbEntity
  8
LAY-10
  6
CONTINUOUS
 62
     7
100
AcDbLine
 10
1414.8076841562
 20
879.7520497555936
 30
0.0
 11
1414.8076841562
 21
806.9520497555868
 31
0.0
  0
LINE
  5
32C
330
1F
100
AcDbEntity
  8
LAY-10
  6
CONTINUOUS
 62
     7
100
AcDbLine
 10
902.3076841562968
 20
885.75204975558
 30
0.0
 11
1135.30768415602
 21
885.75204975558
 31
0.0
  0
LINE
  5
32D
330
1F
100
AcDbEntity
  8
LAY-10
  6
CONTINUOUS
 62
     7
100
AcDbLine
 10
582.8076841561879
 20
885.7520497555896
 30
0.0
 11
1454.8076841562
 21
885.7520497555897
 31
0.0
  0
ARC
  5
32E
330
1F
100
AcDbEntity
  8
LAY-10
  6
CONTINUOUS
 62
     7
100
AcDbCircle
 10
582.8076841561715
 20
888.7520497555915
 30
0.0
 40
3.000000000000003
100
AcDbArc
 50
180.0
 51
270.0000000000002
  0
ARC
  5
32F
330
1F
100
AcDbEntity
  8
LAY-10
  6
CONTINUOUS
 62
     7
100
AcDbCircle
 10
582.6076841561724
 20
888.5520497555929
 30
0.0
 40
6.000000000000006
100
AcDbArc
 50
180.0
 51
270.0000000000002
  0
ARC
  5
330
330
1F
100
AcDbEntity
  8
LAY-10
  6
CONTINUOUS
 62
     7
100
AcDbCircle
 10
616.6076841561326
 20
879.5520497555938
 30
0.0
 40
3.000000000000003
100
AcDbArc
 50
0.0
 51
90.00000000000001
  0
ARC
  5
331
330
1F
100
AcDbEntity
  8
LAY-10
  6
CONTINUOUS
 62
     7
100
AcDbCircle
 10
616.8076841561331
 20
879.7520497555936
 30
0.0
 40
6.000000000000006
100
AcDbArc
 50
0.0
 51
90.00000000000001
  0
LINE
  5
332
330
1F
100
AcDbEntity
  8
LAY-10
  6
CONTINUOUS
 62
     7
100
AcDbLine
 10
609.9213926551265
 20
874.5520497554918
 30
0.0
 11
609.9213926551265
 21
882.5520497554928
 31
0.0
  0
LINE
  5
333
330
1F
100
AcDbEntity
  8
LAY-10
  6
CONTINUOUS
 62
     7
100
AcDbLine
 10
579.9213926551247
 20
874.5520497554918
 30
0.0
 11
609.9213926551265
 21
874.5520497554918
 31
0.0
  0
ARC
  5
334
330
1F
100
AcDbEntity
  8
LAY-10
  6
CONTINUOUS
 62
     7
100
AcDbCircle
 10
579.9213926551247
 20
874.5520497554918
 30
0.0
 40
8.0
100
AcDbArc
 50
90.00000000000001
 51
134.9999999999946
  0
LINE
  5
335
330
1F
100
AcDbEntity
  8
LAY-10
  6
CONTINUOUS
 62
     7
100
AcDbLine
 10
538.9091993463054
 20
844.853564945658
 30
0.0
 11
574.264538405633
 21
880.2089040049852
 31
0.0
  0
LINE
  5
336
330
1F
100
AcDbEntity
  8
LAY-10
  6
CONTINUOUS
 62
     7
100
AcDbLine
 10
544.5660535957958
 20
839.1967106961672
 30
0.0
 11
579.9213926551247
 21
874.5520497554918
 31
0.0
  0
LINE
  5
337
330
1F
100
AcDbEntity
  8
LAY-10
  6
CONTINUOUS
 62
     7
100
AcDbLine
 10
538.9091993463054
 20
844.853564945658
 30
0.0
 11
544.5660535957958
 21
839.1967106961648
 31
0.0
  0
LINE
  5
338
330
1F
100
AcDbEntity
  8
LAY-10
  6
CONTINUOUS
 62
     7
100
AcDbLine
 10
616.6076841561326
 20
882.5520497555925
 30
0.0
 11
579.9213926551247
 21
882.5520497555925
 31
0.0
  0
ARC
  5
339
330
1F
100
AcDbEntity
  8
LAY-10
  6
CONTINUOUS
 62
     7
100
AcDbCircle
 10
1454.807684156163
 20
888.7520497555915
 30
0.0
 40
3.000000000000003
100
AcDbArc
 50
270.0
 51
0.0
  0
ARC
  5
33A
330
1F
100
AcDbEntity
  8
LAY-10
  6
CONTINUOUS
 62
     7
100
AcDbCircle
 10
1455.007684156163
 20
888.5520497555929
 30
0.0
 40
6.000000000000006
100
AcDbArc
 50
270.0
 51
0.0
  0
ARC
  5
33B
330
1F
100
AcDbEntity
  8
LAY-10
  6
CONTINUOUS
 62
     7
100
AcDbCircle
 10
1421.007684156202
 20
879.5520497555938
 30
0.0
 40
3.000000000000003
100
AcDbArc
 50
90.00000000000001
 51
180.0
  0
ARC
  5
33C
330
1F
100
AcDbEntity
  8
LAY-10
  6
CONTINUOUS
 62
     7
100
AcDbCircle
 10
1420.807684156202
 20
879.7520497555936
 30
0.0
 40
6.000000000000006
100
AcDbArc
 50
90.00000000000001
 51
180.0
  0
LINE
  5
33D
330
1F
100
AcDbEntity
  8
LAY-10
  6
CONTINUOUS
 62
     7
100
AcDbLine
 10
1427.693975657208
 20
874.5520497554918
 30
0.0
 11
1427.693975657208
 21
882.5520497554928
 31
0.0
  0
LINE
  5
33E
330
1F
100
AcDbEntity
  8
LAY-10
  6
CONTINUOUS
 62
     7
100
AcDbLine
 10
1457.69397565721
 20
874.5520497554918
 30
0.0
 11
1427.693975657208
 21
874.5520497554918
 31
0.0
  0
ARC
  5
33F
330
1F
100
AcDbEntity
  8
LAY-10
  6
CONTINUOUS
 62
     7
100
AcDbCircle
 10
1457.69397565721
 20
874.5520497554918
 30
0.0
 40
8.0
100
AcDbArc
 50
45.00000000000463
 51
90.00000000000001
  0
LINE
  5
340
330
1F
100
AcDbEntity
  8
LAY-10
  6
CONTINUOUS
 62
     7
100
AcDbLine
 10
1498.70616896603
 20
844.853564945658
 30
0.0
 11
1463.350829906702
 21
880.2089040049852
 31
0.0
  0
LINE
  5
341
330
1F
100
AcDbEntity
  8
LAY-10
  6
CONTINUOUS
 62
     7
100
AcDbLine
 10
1493.049314716539
 20
839.1967106961672
 30
0.0
 11
1457.69397565721
 21
874.5520497554918
 31
0.0
  0
LINE
  5
342
330
1F
100
AcDbEntity
  8
LAY-10
  6
CONTINUOUS
 62
     7
100
AcDbLine
 10
1498.70616896603
 20
844.853564945658
 30
0.0
 11
1493.049314716539
 21
839.1967106961648
 31
0.0
  0
LINE
  5
343
330
1F
100
AcDbEntity
  8
LAY-10
  6
CONTINUOUS
 62
     7
100
AcDbLine
 10
1421.007684156202
 20
882.5520497555925
 30
0.0
 11
1457.69397565721
 21
882.5520497555925
 31
0.0
  0
LINE
  5
344
330
1F
100
AcDbEntity
  8
LAY-10
  6
CONTINUOUS
 62
     7
100
AcDbLine
 10
1457.807684156194
 20
955.7520497555925
 30
0.0
 11
1457.807684156194
 21
888.7520497555915
 31
0.0
  0
LINE
  5
345
330
1F
100
AcDbEntity
  8
LAY-10
  6
CONTINUOUS
 62
     7
100
AcDbLine
 10
1461.007684156193
 20
888.5520497555929
 30
0.0
 11
1461.007684156193
 21
955.7520497555925
 31
0.0
  0
LINE
  5
346
330
1F
100
AcDbEntity
  8
LAY-10
  6
CONTINUOUS
 62
     7
100
AcDbLine
 10
579.8076841561403
 20
955.7520497555925
 30
0.0
 11
579.8076841561403
 21
888.7520497555915
 31
0.0
  0
LINE
  5
347
330
1F
100
AcDbEntity
  8
LAY-10
  6
CONTINUOUS
 62
     7
100
AcDbLine
 10
576.6076841561417
 20
888.5520497555929
 30
0.0
 11
576.6076841561417
 21
955.7520497555925
 31
0.0
  0
LINE
  5
348
330
1F
100
AcDbEntity
  8
LAY-10
  6
CONTINUOUS
 62
     7
100
AcDbLine
 10
613.2981305963214
 20
887.7520497555886
 30
0.0
 11
611.4928339381164
 21
885.7520497555859
 31
0.0
  0
LINE
  5
349
330
1F
100
AcDbEntity
  8
LAY-10
  6
CONTINUOUS
 62
     7
100
AcDbLine
 10
612.5910238151333
 20
887.7520497555868
 30
0.0
 11
610.7857271569314
 21
885.7520497555859
 31
0.0
  0
LINE
  5
34A
330
1F
100
AcDbEntity
  8
LAY-10
  6
CONTINUOUS
 62
     7
100
AcDbLine
 10
611.883917033948
 20
887.7520497555886
 30
0.0
 11
610.0786203757422
 21
885.7520497555859
 31
0.0
  0
LINE
  5
34B
330
1F
100
AcDbEntity
  8
LAY-10
  6
CONTINUOUS
 62
     7
100
AcDbLine
 10
611.1768102527599
 20
887.7520497555868
 30
0.0
 11
609.3715135945582
 21
885.7520497555859
 31
0.0
  0
LINE
  5
34C
330
1F
100
AcDbEntity
  8
LAY-10
  6
CONTINUOUS
 62
     7
100
AcDbLine
 10
610.4697034715759
 20
887.7520497555886
 30
0.0
 11
608.6644068133701
 21
885.7520497555859
 31
0.0
  0
LINE
  5
34D
330
1F
100
AcDbEntity
  8
LAY-10
  6
CONTINUOUS
 62
     7
100
AcDbLine
 10
609.762596690388
 20
887.7520497555868
 30
0.0
 11
607.9606465815119
 21
885.7500996467095
 31
0.0
  0
LINE
  5
34E
330
1F
100
AcDbEntity
  8
LAY-10
  6
CONTINUOUS
 62
     7
100
AcDbLine
 10
609.0554899092014
 20
887.7520497555886
 30
0.0
 11
607.2539431708834
 21
885.7520497555859
 31
0.0
  0
LINE
  5
34F
330
1F
100
AcDbEntity
  8
LAY-10
  6
CONTINUOUS
 62
     7
100
AcDbLine
 10
608.3483831280147
 20
887.7520497555868
 30
0.0
 11
606.5483831280163
 21
885.7520497555886
 31
0.0
  0
LINE
  5
350
330
1F
100
AcDbEntity
  8
LAY-10
  6
CONTINUOUS
 62
     7
100
AcDbLine
 10
607.6412763468302
 20
887.7520497555886
 30
0.0
 11
605.8412763468292
 21
885.7520497555851
 31
0.0
  0
LINE
  5
351
330
1F
100
AcDbEntity
  8
LAY-10
  6
CONTINUOUS
 62
     7
100
AcDbLine
 10
606.9341695656426
 20
887.7520497555868
 30
0.0
 11
605.1341695656442
 21
885.7520497555886
 31
0.0
  0
LINE
  5
352
330
1F
100
AcDbEntity
  8
LAY-10
  6
CONTINUOUS
 62
     7
100
AcDbLine
 10
606.227062784457
 20
887.7520497555886
 30
0.0
 11
604.4270627844559
 21
885.7520497555851
 31
0.0
  0
LINE
  5
353
330
1F
100
AcDbEntity
  8
LAY-10
  6
CONTINUOUS
 62
     7
100
AcDbLine
 10
605.519956003268
 20
887.7520497555868
 30
0.0
 11
603.7199560032697
 21
885.7520497555886
 31
0.0
  0
LINE
  5
354
330
1F
100
AcDbEntity
  8
LAY-10
  6
CONTINUOUS
 62
     7
100
AcDbLine
 10
604.8128492220836
 20
887.7520497555886
 30
0.0
 11
603.012849222083
 21
885.7520497555851
 31
0.0
  0
LINE
  5
355
330
1F
100
AcDbEntity
  8
LAY-10
  6
CONTINUOUS
 62
     7
100
AcDbLine
 10
604.105742440896
 20
887.7520497555868
 30
0.0
 11
602.3057424408977
 21
885.7520497555886
 31
0.0
  0
LINE
  5
356
330
1F
100
AcDbEntity
  8
LAY-10
  6
CONTINUOUS
 62
     7
100
AcDbLine
 10
603.3986356597107
 20
887.7520497555886
 30
0.0
 11
601.5986356597069
 21
885.7520497555851
 31
0.0
  0
LINE
  5
357
330
1F
100
AcDbEntity
  8
LAY-10
  6
CONTINUOUS
 62
     7
100
AcDbLine
 10
602.6915288785235
 20
887.7520497555868
 30
0.0
 11
600.8915288785242
 21
885.7520497555886
 31
0.0
  0
LINE
  5
358
330
1F
100
AcDbEntity
  8
LAY-10
  6
CONTINUOUS
 62
     7
100
AcDbLine
 10
601.9844220973387
 20
887.7520497555886
 30
0.0
 11
600.1844220973358
 21
885.7520497555851
 31
0.0
  0
LINE
  5
359
330
1F
100
AcDbEntity
  8
LAY-10
  6
CONTINUOUS
 62
     7
100
AcDbLine
 10
601.2773153161503
 20
887.7520497555868
 30
0.0
 11
599.4773153161519
 21
885.7520497555886
 31
0.0
  0
LINE
  5
35A
330
1F
100
AcDbEntity
  8
LAY-10
  6
CONTINUOUS
 62
     7
100
AcDbLine
 10
600.5702085349641
 20
887.7520497555886
 30
0.0
 11
598.7702085349624
 21
885.7520497555851
 31
0.0
  0
LINE
  5
35B
330
1F
100
AcDbEntity
  8
LAY-10
  6
CONTINUOUS
 62
     7
100
AcDbLine
 10
599.8631017537759
 20
887.7520497555868
 30
0.0
 11
598.063101753779
 21
885.7520497555896
 31
0.0
  0
LINE
  5
35C
330
1F
100
AcDbEntity
  8
LAY-10
  6
CONTINUOUS
 62
     7
100
AcDbLine
 10
599.1559949725921
 20
887.7520497555886
 30
0.0
 11
597.3559949725892
 21
885.7520497555851
 31
0.0
  0
LINE
  5
35D
330
1F
100
AcDbEntity
  8
LAY-10
  6
CONTINUOUS
 62
     7
100
AcDbLine
 10
598.4488881914014
 20
887.7520497555868
 30
0.0
 11
596.648888191407
 21
885.7520497555896
 31
0.0
  0
LINE
  5
35E
330
1F
100
AcDbEntity
  8
LAY-10
  6
CONTINUOUS
 62
     7
100
AcDbLine
 10
597.7417814102187
 20
887.7520497555886
 30
0.0
 11
595.9417814102163
 21
885.7520497555851
 31
0.0
  0
LINE
  5
35F
330
1F
100
AcDbEntity
  8
LAY-10
  6
CONTINUOUS
 62
     7
100
AcDbLine
 10
597.0346746290302
 20
887.7520497555868
 30
0.0
 11
595.2346746290336
 21
885.7520497555896
 31
0.0
  0
LINE
  5
360
330
1F
100
AcDbEntity
  8
LAY-10
  6
CONTINUOUS
 62
     7
100
AcDbLine
 10
596.3275678478464
 20
887.7520497555886
 30
0.0
 11
594.5275678478442
 21
885.7520497555851
 31
0.0
  0
LINE
  5
361
330
1F
100
AcDbEntity
  8
LAY-10
  6
CONTINUOUS
 62
     7
100
AcDbLine
 10
595.6204610666568
 20
887.7520497555868
 30
0.0
 11
593.8204610666604
 21
885.7520497555896
 31
0.0
  0
LINE
  5
362
330
1F
100
AcDbEntity
  8
LAY-10
  6
CONTINUOUS
 62
     7
100
AcDbLine
 10
594.9133542854735
 20
887.7520497555886
 30
0.0
 11
593.1133542854697
 21
885.7520497555868
 31
0.0
  0
LINE
  5
363
330
1F
100
AcDbEntity
  8
LAY-10
  6
CONTINUOUS
 62
     7
100
AcDbLine
 10
594.2062475042836
 20
887.7520497555868
 30
0.0
 11
592.4062475042879
 21
885.7520497555896
 31
0.0
  0
LINE
  5
364
330
1F
100
AcDbEntity
  8
LAY-10
  6
CONTINUOUS
 62
     7
100
AcDbLine
 10
593.4991407231014
 20
887.7520497555886
 30
0.0
 11
591.6991407230977
 21
885.7520497555868
 31
0.0
  0
LINE
  5
365
330
1F
100
AcDbEntity
  8
LAY-10
  6
CONTINUOUS
 62
     7
100
AcDbLine
 10
592.7920339419107
 20
887.7520497555868
 30
0.0
 11
590.9920339419147
 21
885.7520497555896
 31
0.0
  0
LINE
  5
366
330
1F
100
AcDbEntity
  8
LAY-10
  6
CONTINUOUS
 62
     7
100
AcDbLine
 10
592.0849271607281
 20
887.7520497555886
 30
0.0
 11
590.2849271607242
 21
885.7520497555868
 31
0.0
  0
LINE
  5
367
330
1F
100
AcDbEntity
  8
LAY-10
  6
CONTINUOUS
 62
     7
100
AcDbLine
 10
591.3778203795387
 20
887.7520497555868
 30
0.0
 11
589.5778203795418
 21
885.7520497555896
 31
0.0
  0
LINE
  5
368
330
1F
100
AcDbEntity
  8
LAY-10
  6
CONTINUOUS
 62
     7
100
AcDbLine
 10
590.6707135983548
 20
887.7520497555895
 30
0.0
 11
588.8707135983523
 21
885.7520497555868
 31
0.0
  0
LINE
  5
369
330
1F
100
AcDbEntity
  8
LAY-10
  6
CONTINUOUS
 62
     7
100
AcDbLine
 10
589.9636068171641
 20
887.7520497555868
 30
0.0
 11
588.1636068171697
 21
885.7520497555896
 31
0.0
  0
LINE
  5
36A
330
1F
100
AcDbEntity
  8
LAY-10
  6
CONTINUOUS
 62
     7
100
AcDbLine
 10
589.2565000359823
 20
887.7520497555895
 30
0.0
 11
587.456500035979
 21
885.7520497555868
 31
0.0
  0
LINE
  5
36B
330
1F
100
AcDbEntity
  8
LAY-10
  6
CONTINUOUS
 62
     7
100
AcDbLine
 10
588.5493932547921
 20
887.7520497555868
 30
0.0
 11
586.7493932547951
 21
885.7520497555896
 31
0.0
  0
LINE
  5
36C
330
1F
100
AcDbEntity
  8
LAY-10
  6
CONTINUOUS
 62
     7
100
AcDbLine
 10
587.8422864736091
 20
887.7520497555895
 30
0.0
 11
586.042286473607
 21
885.7520497555868
 31
0.0
  0
LINE
  5
36D
330
1F
100
AcDbEntity
  8
LAY-10
  6
CONTINUOUS
 62
     7
100
AcDbLine
 10
587.1351796924187
 20
887.7520497555868
 30
0.0
 11
585.3351796924231
 21
885.7520497555896
 31
0.0
  0
LINE
  5
36E
330
1F
100
AcDbEntity
  8
LAY-10
  6
CONTINUOUS
 62
     7
100
AcDbLine
 10
586.4280729112362
 20
887.7520497555895
 30
0.0
 11
584.6280729112336
 21
885.7520497555868
 31
0.0
  0
LINE
  5
36F
330
1F
100
AcDbEntity
  8
LAY-10
  6
CONTINUOUS
 62
     7
100
AcDbLine
 10
585.7209661300467
 20
887.7520497555878
 30
0.0
 11
583.9209661300497
 21
885.7520497555896
 31
0.0
  0
LINE
  5
370
330
1F
100
AcDbEntity
  8
LAY-10
  6
CONTINUOUS
 62
     7
100
AcDbLine
 10
585.0138593488641
 20
887.7520497555895
 30
0.0
 11
583.807684156081
 21
886.3458745628075
 31
0.0
  0
LINE
  5
371
330
1F
100
AcDbEntity
  8
LAY-10
  6
CONTINUOUS
 62
     7
100
AcDbLine
 10
584.3067525676735
 20
887.7520497555878
 30
0.0
 11
583.8076841560783
 21
887.2529813439903
 31
0.0
  0
LINE
  5
372
330
1F
100
AcDbEntity
  8
LAY-10
  6
CONTINUOUS
 62
     7
100
AcDbLine
 10
613.8076841561611
 20
887.5331901898232
 30
0.0
 11
612.1999407193031
 21
885.7520497555859
 31
0.0
  0
LINE
  5
373
330
1F
100
AcDbEntity
  8
LAY-10
  6
CONTINUOUS
 62
     7
100
AcDbLine
 10
613.8076841561611
 20
886.749821120841
 30
0.0
 11
612.9070475004887
 21
885.7520497555859
 31
0.0
  0
LINE
  5
374
330
1F
100
AcDbEntity
  8
LAY-10
  6
CONTINUOUS
 62
     7
100
AcDbLine
 10
613.8076841561611
 20
885.966452051857
 30
0.0
 11
613.6141542816769
 21
885.7520497555859
 31
0.0
  0
LINE
  5
375
330
1F
100
AcDbEntity
  8
LAY-10
  6
CONTINUOUS
 62
     7
100
AcDbLine
 10
613.8076841562447
 20
887.752049755565
 30
0.0
 11
613.8076841562447
 21
885.7520497555649
 31
0.0
  0
LINE
  5
376
330
1F
100
AcDbEntity
  8
LAY-10
  6
CONTINUOUS
 62
     7
100
AcDbLine
 10
1453.298130596181
 20
887.7520497555687
 30
0.0
 11
1451.492833937976
 21
885.752049755566
 31
0.0
  0
LINE
  5
377
330
1F
100
AcDbEntity
  8
LAY-10
  6
CONTINUOUS
 62
     7
100
AcDbLine
 10
1452.591023814993
 20
887.7520497555669
 30
0.0
 11
1450.785727156791
 21
885.752049755566
 31
0.0
  0
LINE
  5
378
330
1F
100
AcDbEntity
  8
LAY-10
  6
CONTINUOUS
 62
     7
100
AcDbLine
 10
1451.883917033808
 20
887.7520497555687
 30
0.0
 11
1450.078620375602
 21
885.752049755566
 31
0.0
  0
LINE
  5
379
330
1F
100
AcDbEntity
  8
LAY-10
  6
CONTINUOUS
 62
     7
100
AcDbLine
 10
1451.17681025262
 20
887.7520497555669
 30
0.0
 11
1449.371513594418
 21
885.752049755566
 31
0.0
  0
LINE
  5
37A
330
1F
100
AcDbEntity
  8
LAY-10
  6
CONTINUOUS
 62
     7
100
AcDbLine
 10
1450.469703471436
 20
887.7520497555687
 30
0.0
 11
1448.66440681323
 21
885.752049755566
 31
0.0
  0
LINE
  5
37B
330
1F
100
AcDbEntity
  8
LAY-10
  6
CONTINUOUS
 62
     7
100
AcDbLine
 10
1449.762596690248
 20
887.7520497555669
 30
0.0
 11
1447.960646581372
 21
885.7500996466896
 31
0.0
  0
LINE
  5
37C
330
1F
100
AcDbEntity
  8
LAY-10
  6
CONTINUOUS
 62
     7
100
AcDbLine
 10
1449.055489909061
 20
887.7520497555687
 30
0.0
 11
1447.253943170743
 21
885.752049755566
 31
0.0
  0
LINE
  5
37D
330
1F
100
AcDbEntity
  8
LAY-10
  6
CONTINUOUS
 62
     7
100
AcDbLine
 10
1448.348383127875
 20
887.7520497555669
 30
0.0
 11
1446.548383127876
 21
885.7520497555687
 31
0.0
  0
LINE
  5
37E
330
1F
100
AcDbEntity
  8
LAY-10
  6
CONTINUOUS
 62
     7
100
AcDbLine
 10
1447.64127634669
 20
887.7520497555687
 30
0.0
 11
1445.841276346689
 21
885.7520497555652
 31
0.0
  0
LINE
  5
37F
330
1F
100
AcDbEntity
  8
LAY-10
  6
CONTINUOUS
 62
     7
100
AcDbLine
 10
1446.934169565503
 20
887.7520497555669
 30
0.0
 11
1445.134169565504
 21
885.7520497555687
 31
0.0
  0
LINE
  5
380
330
1F
100
AcDbEntity
  8
LAY-10
  6
CONTINUOUS
 62
     7
100
AcDbLine
 10
1446.227062784317
 20
887.7520497555687
 30
0.0
 11
1444.427062784316
 21
885.7520497555652
 31
0.0
  0
LINE
  5
381
330
1F
100
AcDbEntity
  8
LAY-10
  6
CONTINUOUS
 62
     7
100
AcDbLine
 10
1445.519956003128
 20
887.7520497555669
 30
0.0
 11
1443.71995600313
 21
885.7520497555687
 31
0.0
  0
LINE
  5
382
330
1F
100
AcDbEntity
  8
LAY-10
  6
CONTINUOUS
 62
     7
100
AcDbLine
 10
1444.812849221943
 20
887.7520497555687
 30
0.0
 11
1443.012849221943
 21
885.7520497555652
 31
0.0
  0
LINE
  5
383
330
1F
100
AcDbEntity
  8
LAY-10
  6
CONTINUOUS
 62
     7
100
AcDbLine
 10
1444.105742440756
 20
887.7520497555669
 30
0.0
 11
1442.305742440758
 21
885.7520497555687
 31
0.0
  0
LINE
  5
384
330
1F
100
AcDbEntity
  8
LAY-10
  6
CONTINUOUS
 62
     7
100
AcDbLine
 10
1443.398635659571
 20
887.7520497555687
 30
0.0
 11
1441.598635659567
 21
885.7520497555652
 31
0.0
  0
LINE
  5
385
330
1F
100
AcDbEntity
  8
LAY-10
  6
CONTINUOUS
 62
     7
100
AcDbLine
 10
1442.691528878383
 20
887.7520497555669
 30
0.0
 11
1440.891528878384
 21
885.7520497555687
 31
0.0
  0
LINE
  5
386
330
1F
100
AcDbEntity
  8
LAY-10
  6
CONTINUOUS
 62
     7
100
AcDbLine
 10
1441.984422097199
 20
887.7520497555687
 30
0.0
 11
1440.184422097196
 21
885.7520497555652
 31
0.0
  0
LINE
  5
387
330
1F
100
AcDbEntity
  8
LAY-10
  6
CONTINUOUS
 62
     7
100
AcDbLine
 10
1441.27731531601
 20
887.7520497555669
 30
0.0
 11
1439.477315316012
 21
885.7520497555687
 31
0.0
  0
LINE
  5
388
330
1F
100
AcDbEntity
  8
LAY-10
  6
CONTINUOUS
 62
     7
100
AcDbLine
 10
1440.570208534824
 20
887.7520497555687
 30
0.0
 11
1438.770208534822
 21
885.7520497555652
 31
0.0
  0
LINE
  5
389
330
1F
100
AcDbEntity
  8
LAY-10
  6
CONTINUOUS
 62
     7
100
AcDbLine
 10
1439.863101753636
 20
887.7520497555669
 30
0.0
 11
1438.063101753639
 21
885.7520497555697
 31
0.0
  0
LINE
  5
38A
330
1F
100
AcDbEntity
  8
LAY-10
  6
CONTINUOUS
 62
     7
100
AcDbLine
 10
1439.155994972452
 20
887.7520497555687
 30
0.0
 11
1437.355994972449
 21
885.7520497555652
 31
0.0
  0
LINE
  5
38B
330
1F
100
AcDbEntity
  8
LAY-10
  6
CONTINUOUS
 62
     7
100
AcDbLine
 10
1438.448888191261
 20
887.7520497555669
 30
0.0
 11
1436.648888191267
 21
885.7520497555697
 31
0.0
  0
LINE
  5
38C
330
1F
100
AcDbEntity
  8
LAY-10
  6
CONTINUOUS
 62
     7
100
AcDbLine
 10
1437.741781410079
 20
887.7520497555687
 30
0.0
 11
1435.941781410076
 21
885.7520497555652
 31
0.0
  0
LINE
  5
38D
330
1F
100
AcDbEntity
  8
LAY-10
  6
CONTINUOUS
 62
     7
100
AcDbLine
 10
1437.03467462889
 20
887.7520497555669
 30
0.0
 11
1435.234674628894
 21
885.7520497555697
 31
0.0
  0
LINE
  5
38E
330
1F
100
AcDbEntity
  8
LAY-10
  6
CONTINUOUS
 62
     7
100
AcDbLine
 10
1436.327567847706
 20
887.7520497555687
 30
0.0
 11
1434.527567847704
 21
885.7520497555652
 31
0.0
  0
LINE
  5
38F
330
1F
100
AcDbEntity
  8
LAY-10
  6
CONTINUOUS
 62
     7
100
AcDbLine
 10
1435.620461066517
 20
887.7520497555669
 30
0.0
 11
1433.82046106652
 21
885.7520497555697
 31
0.0
  0
LINE
  5
390
330
1F
100
AcDbEntity
  8
LAY-10
  6
CONTINUOUS
 62
     7
100
AcDbLine
 10
1434.913354285333
 20
887.7520497555687
 30
0.0
 11
1433.11335428533
 21
885.7520497555669
 31
0.0
  0
LINE
  5
391
330
1F
100
AcDbEntity
  8
LAY-10
  6
CONTINUOUS
 62
     7
100
AcDbLine
 10
1434.206247504143
 20
887.7520497555669
 30
0.0
 11
1432.406247504148
 21
885.7520497555697
 31
0.0
  0
LINE
  5
392
330
1F
100
AcDbEntity
  8
LAY-10
  6
CONTINUOUS
 62
     7
100
AcDbLine
 10
1433.499140722961
 20
887.7520497555687
 30
0.0
 11
1431.699140722958
 21
885.7520497555669
 31
0.0
  0
LINE
  5
393
330
1F
100
AcDbEntity
  8
LAY-10
  6
CONTINUOUS
 62
     7
100
AcDbLine
 10
1432.792033941771
 20
887.7520497555669
 30
0.0
 11
1430.992033941774
 21
885.7520497555697
 31
0.0
  0
LINE
  5
394
330
1F
100
AcDbEntity
  8
LAY-10
  6
CONTINUOUS
 62
     7
100
AcDbLine
 10
1432.084927160588
 20
887.7520497555687
 30
0.0
 11
1430.284927160584
 21
885.7520497555669
 31
0.0
  0
LINE
  5
395
330
1F
100
AcDbEntity
  8
LAY-10
  6
CONTINUOUS
 62
     7
100
AcDbLine
 10
1431.377820379399
 20
887.7520497555669
 30
0.0
 11
1429.577820379402
 21
885.7520497555697
 31
0.0
  0
LINE
  5
396
330
1F
100
AcDbEntity
  8
LAY-10
  6
CONTINUOUS
 62
     7
100
AcDbLine
 10
1430.670713598215
 20
887.7520497555696
 30
0.0
 11
1428.870713598212
 21
885.7520497555669
 31
0.0
  0
LINE
  5
397
330
1F
100
AcDbEntity
  8
LAY-10
  6
CONTINUOUS
 62
     7
100
AcDbLine
 10
1429.963606817024
 20
887.7520497555669
 30
0.0
 11
1428.16360681703
 21
885.7520497555697
 31
0.0
  0
LINE
  5
398
330
1F
100
AcDbEntity
  8
LAY-10
  6
CONTINUOUS
 62
     7
100
AcDbLine
 10
1429.256500035842
 20
887.7520497555696
 30
0.0
 11
1427.456500035839
 21
885.7520497555669
 31
0.0
  0
LINE
  5
399
330
1F
100
AcDbEntity
  8
LAY-10
  6
CONTINUOUS
 62
     7
100
AcDbLine
 10
1428.549393254652
 20
887.7520497555669
 30
0.0
 11
1426.749393254655
 21
885.7520497555697
 31
0.0
  0
LINE
  5
39A
330
1F
100
AcDbEntity
  8
LAY-10
  6
CONTINUOUS
 62
     7
100
AcDbLine
 10
1427.842286473469
 20
887.7520497555696
 30
0.0
 11
1426.042286473467
 21
885.7520497555669
 31
0.0
  0
LINE
  5
39B
330
1F
100
AcDbEntity
  8
LAY-10
  6
CONTINUOUS
 62
     7
100
AcDbLine
 10
1427.135179692279
 20
887.7520497555669
 30
0.0
 11
1425.335179692283
 21
885.7520497555697
 31
0.0
  0
LINE
  5
39C
330
1F
100
AcDbEntity
  8
LAY-10
  6
CONTINUOUS
 62
     7
100
AcDbLine
 10
1426.428072911096
 20
887.7520497555696
 30
0.0
 11
1424.628072911094
 21
885.7520497555669
 31
0.0
  0
LINE
  5
39D
330
1F
100
AcDbEntity
  8
LAY-10
  6
CONTINUOUS
 62
     7
100
AcDbLine
 10
1425.720966129907
 20
887.7520497555679
 30
0.0
 11
1423.92096612991
 21
885.7520497555697
 31
0.0
  0
LINE
  5
39E
330
1F
100
AcDbEntity
  8
LAY-10
  6
CONTINUOUS
 62
     7
100
AcDbLine
 10
1425.013859348724
 20
887.7520497555696
 30
0.0
 11
1423.807684155941
 21
886.3458745627876
 31
0.0
  0
LINE
  5
39F
330
1F
100
AcDbEntity
  8
LAY-10
  6
CONTINUOUS
 62
     7
100
AcDbLine
 10
1424.306752567533
 20
887.7520497555679
 30
0.0
 11
1423.807684155938
 21
887.2529813439704
 31
0.0
  0
LINE
  5
3A0
330
1F
100
AcDbEntity
  8
LAY-10
  6
CONTINUOUS
 62
     7
100
AcDbLine
 10
1453.807684156021
 20
887.5331901898033
 30
0.0
 11
1452.199940719163
 21
885.752049755566
 31
0.0
  0
LINE
  5
3A1
330
1F
100
AcDbEntity
  8
LAY-10
  6
CONTINUOUS
 62
     7
100
AcDbLine
 10
1453.807684156021
 20
886.7498211208211
 30
0.0
 11
1452.907047500349
 21
885.752049755566
 31
0.0
  0
LINE
  5
3A2
330
1F
100
AcDbEntity
  8
LAY-10
  6
CONTINUOUS
 62
     7
100
AcDbLine
 10
1453.807684156021
 20
885.9664520518371
 30
0.0
 11
1453.614154281537
 21
885.752049755566
 31
0.0
  0
LINE
  5
3A3
330
1F
100
AcDbEntity
  8
LAY-10
  6
CONTINUOUS
 62
     7
100
AcDbLine
 10
1423.807684156089
 20
887.7520497555648
 30
0.0
 11
1423.807684156089
 21
885.7520497555648
 31
0.0
  0
LINE
  5
3A4
330
1F
100
AcDbEntity
  8
LAY-10
  6
CONTINUOUS
 62
     7
100
AcDbLine
 10
583.80768415624
 20
887.7520497555897
 30
0.0
 11
1453.8076841562
 21
887.7520497555898
 31
0.0
  0
LINE
  5
3A5
330
1F
100
AcDbEntity
  8
LAY-10
  6
CONTINUOUS
 62
     7
100
AcDbLine
 10
1903.723511271496
 20
1365.270691337331
 30
0.0
 11
1976.523511271509
 21
1365.270691337331
 31
0.0
  0
LINE
  5
3A6
330
1F
100
AcDbEntity
  8
LAY-10
  6
CONTINUOUS
 62
     7
100
AcDbLine
 10
1903.523511271497
 20
1368.470691337335
 30
0.0
 11
1976.323511271513
 21
1368.470691337335
 31
0.0
  0
LINE
  5
3A7
330
1F
100
AcDbEntity
  8
LAY-10
  6
CONTINUOUS
 62
     7
100
AcDbLine
 10
1903.723511271496
 20
2163.670691337403
 30
0.0
 11
1976.523511271509
 21
2163.670691337403
 31
0.0
  0
LINE
  5
3A8
330
1F
100
AcDbEntity
  8
LAY-10
  6
CONTINUOUS
 62
     7
100
AcDbLine
 10
1903.523511271497
 20
2160.4706913374
 30
0.0
 11
1976.323511271513
 21
2160.4706913374
 31
0.0
  0
ARC
  5
3A9
330
1F
100
AcDbEntity
  8
LAY-10
  6
CONTINUOUS
 62
     7
100
AcDbCircle
 10
1894.523511271498
 20
1328.470691337371
 30
0.0
 40
3.000000000000003
100
AcDbArc
 50
270.0
 51
0.0000000000001719
  0
ARC
  5
3AA
330
1F
100
AcDbEntity
  8
LAY-10
  6
CONTINUOUS
 62
     7
100
AcDbCircle
 10
1894.723511271497
 20
1328.270691337372
 30
0.0
 40
6.000000000000006
100
AcDbArc
 50
270.0
 51
0.0000000000001719
  0
ARC
  5
3AB
330
1F
100
AcDbEntity
  8
LAY-10
  6
CONTINUOUS
 62
     7
100
AcDbCircle
 10
1903.723511271496
 20
1362.270691337332
 30
0.0
 40
3.000000000000003
100
AcDbArc
 50
90.00000000000001
 51
180.0
  0
ARC
  5
3AC
330
1F
100
AcDbEntity
  8
LAY-10
  6
CONTINUOUS
 62
     7
100
AcDbCircle
 10
1903.523511271497
 20
1362.470691337333
 30
0.0
 40
6.000000000000006
100
AcDbArc
 50
90.00000000000001
 51
180.0
  0
LINE
  5
3AD
330
1F
100
AcDbEntity
  8
LAY-10
  6
CONTINUOUS
 62
     7
100
AcDbLine
 10
1908.723511271598
 20
1355.584399836326
 30
0.0
 11
1900.723511271597
 21
1355.584399836326
 31
0.0
  0
LINE
  5
3AE
330
1F
100
AcDbEntity
  8
LAY-10
  6
CONTINUOUS
 62
     7
100
AcDbLine
 10
1908.723511271598
 20
1325.584399836324
 30
0.0
 11
1908.723511271598
 21
1355.584399836326
 31
0.0
  0
ARC
  5
3AF
330
1F
100
AcDbEntity
  8
LAY-10
  6
CONTINUOUS
 62
     7
100
AcDbCircle
 10
1908.723511271598
 20
1325.584399836324
 30
0.0
 40
8.0
100
AcDbArc
 50
180.0
 51
224.9999999999946
  0
LINE
  5
3B0
330
1F
100
AcDbEntity
  8
LAY-10
  6
CONTINUOUS
 62
     7
100
AcDbLine
 10
1938.421996081432
 20
1284.572206527505
 30
0.0
 11
1903.066657022105
 21
1319.927545586833
 31
0.0
  0
LINE
  5
3B1
330
1F
100
AcDbEntity
  8
LAY-10
  6
CONTINUOUS
 62
     7
100
AcDbLine
 10
1944.078850330923
 20
1290.229060776996
 30
0.0
 11
1908.723511271598
 21
1325.584399836324
 31
0.0
  0
LINE
  5
3B2
330
1F
100
AcDbEntity
  8
LAY-10
  6
CONTINUOUS
 62
     7
100
AcDbLine
 10
1938.421996081432
 20
1284.572206527505
 30
0.0
 11
1944.078850330925
 21
1290.229060776996
 31
0.0
  0
LINE
  5
3B3
330
1F
100
AcDbEntity
  8
LAY-10
  6
CONTINUOUS
 62
     7
100
AcDbLine
 10
1900.723511271498
 20
1362.270691337332
 30
0.0
 11
1900.723511271498
 21
1325.584399836324
 31
0.0
  0
ARC
  5
3B4
330
1F
100
AcDbEntity
  8
LAY-10
  6
CONTINUOUS
 62
     7
100
AcDbCircle
 10
1894.523511271498
 20
2200.470691337363
 30
0.0
 40
3.000000000000003
100
AcDbArc
 50
0.0
 51
90.00000000000001
  0
ARC
  5
3B5
330
1F
100
AcDbEntity
  8
LAY-10
  6
CONTINUOUS
 62
     7
100
AcDbCircle
 10
1894.723511271497
 20
2200.670691337362
 30
0.0
 40
6.000000000000006
100
AcDbArc
 50
0.0
 51
90.00000000000001
  0
ARC
  5
3B6
330
1F
100
AcDbEntity
  8
LAY-10
  6
CONTINUOUS
 62
     7
100
AcDbCircle
 10
1903.723511271496
 20
2166.670691337402
 30
0.0
 40
3.000000000000003
100
AcDbArc
 50
180.0
 51
270.0
  0
ARC
  5
3B7
330
1F
100
AcDbEntity
  8
LAY-10
  6
CONTINUOUS
 62
     7
100
AcDbCircle
 10
1903.523511271497
 20
2166.470691337402
 30
0.0
 40
6.000000000000006
100
AcDbArc
 50
180.0
 51
270.0
  0
LINE
  5
3B8
330
1F
100
AcDbEntity
  8
LAY-10
  6
CONTINUOUS
 62
     7
100
AcDbLine
 10
1908.723511271598
 20
2173.356982838408
 30
0.0
 11
1900.723511271597
 21
2173.356982838408
 31
0.0
  0
LINE
  5
3B9
330
1F
100
AcDbEntity
  8
LAY-10
  6
CONTINUOUS
 62
     7
100
AcDbLine
 10
1908.723511271598
 20
2203.35698283841
 30
0.0
 11
1908.723511271598
 21
2173.356982838408
 31
0.0
  0
ARC
  5
3BA
330
1F
100
AcDbEntity
  8
LAY-10
  6
CONTINUOUS
 62
     7
100
AcDbCircle
 10
1908.723511271598
 20
2203.35698283841
 30
0.0
 40
8.0
100
AcDbArc
 50
135.0000000000047
 51
180.0
  0
LINE
  5
3BB
330
1F
100
AcDbEntity
  8
LAY-10
  6
CONTINUOUS
 62
     7
100
AcDbLine
 10
1938.421996081432
 20
2244.369176147229
 30
0.0
 11
1903.066657022105
 21
2209.013837087902
 31
0.0
  0
LINE
  5
3BC
330
1F
100
AcDbEntity
  8
LAY-10
  6
CONTINUOUS
 62
     7
100
AcDbLine
 10
1944.078850330923
 20
2238.712321897739
 30
0.0
 11
1908.723511271598
 21
2203.35698283841
 31
0.0
  0
LINE
  5
3BD
330
1F
100
AcDbEntity
  8
LAY-10
  6
CONTINUOUS
 62
     7
100
AcDbLine
 10
1938.421996081432
 20
2244.369176147229
 30
0.0
 11
1944.078850330925
 21
2238.712321897739
 31
0.0
  0
LINE
  5
3BE
330
1F
100
AcDbEntity
  8
LAY-10
  6
CONTINUOUS
 62
     7
100
AcDbLine
 10
1900.723511271498
 20
2166.670691337402
 30
0.0
 11
1900.723511271498
 21
2203.35698283841
 31
0.0
  0
LINE
  5
3BF
330
1F
100
AcDbEntity
  8
LAY-10
  6
CONTINUOUS
 62
     7
100
AcDbLine
 10
1827.523511271507
 20
2203.470691337394
 30
0.0
 11
1894.523511271498
 21
2203.470691337394
 31
0.0
  0
LINE
  5
3C0
330
1F
100
AcDbEntity
  8
LAY-10
  6
CONTINUOUS
 62
     7
100
AcDbLine
 10
1894.723511271497
 20
2206.670691337393
 30
0.0
 11
1827.523511271507
 21
2206.670691337393
 31
0.0
  0
LINE
  5
3C1
330
1F
100
AcDbEntity
  8
LAY-10
  6
CONTINUOUS
 62
     7
100
AcDbLine
 10
1827.523511271507
 20
1325.47069133734
 30
0.0
 11
1894.523511271498
 21
1325.47069133734
 31
0.0
  0
LINE
  5
3C2
330
1F
100
AcDbEntity
  8
LAY-10
  6
CONTINUOUS
 62
     7
100
AcDbLine
 10
1894.723511271497
 20
1322.270691337341
 30
0.0
 11
1827.523511271507
 21
1322.270691337341
 31
0.0
  0
LINE
  5
3C3
330
1F
100
AcDbEntity
  8
LAY-10
  6
CONTINUOUS
 62
     7
100
AcDbLine
 10
1824.52351127153
 20
1329.47069133744
 30
0.0
 11
1897.523511271501
 21
1329.47069133744
 31
0.0
  0
LINE
  5
3C4
330
1F
100
AcDbEntity
  8
LAY-10
  6
CONTINUOUS
 62
     7
100
AcDbLine
 10
1897.5235112715
 20
2199.470691337399
 30
0.0
 11
1824.523511271515
 21
2199.470691337399
 31
0.0
  0
LINE
  5
3C5
330
1F
100
AcDbEntity
  8
LAY-10
  6
CONTINUOUS
 62
     7
100
AcDbLine
 10
1895.523511271502
 20
1358.961137777521
 30
0.0
 11
1897.523511271504
 21
1357.155841119316
 31
0.0
  0
LINE
  5
3C6
330
1F
100
AcDbEntity
  8
LAY-10
  6
CONTINUOUS
 62
     7
100
AcDbLine
 10
1895.523511271503
 20
1358.254030996333
 30
0.0
 11
1897.523511271504
 21
1356.448734338131
 31
0.0
  0
LINE
  5
3C7
330
1F
100
AcDbEntity
  8
LAY-10
  6
CONTINUOUS
 62
     7
100
AcDbLine
 10
1895.523511271502
 20
1357.546924215148
 30
0.0
 11
1897.523511271504
 21
1355.741627556942
 31
0.0
  0
LINE
  5
3C8
330
1F
100
AcDbEntity
  8
LAY-10
  6
CONTINUOUS
 62
     7
100
AcDbLine
 10
1895.523511271503
 20
1356.839817433959
 30
0.0
 11
1897.523511271504
 21
1355.034520775758
 31
0.0
  0
LINE
  5
3C9
330
1F
100
AcDbEntity
  8
LAY-10
  6
CONTINUOUS
 62
     7
100
AcDbLine
 10
1895.523511271502
 20
1356.132710652776
 30
0.0
 11
1897.523511271504
 21
1354.32741399457
 31
0.0
  0
LINE
  5
3CA
330
1F
100
AcDbEntity
  8
LAY-10
  6
CONTINUOUS
 62
     7
100
AcDbLine
 10
1895.523511271503
 20
1355.425603871588
 30
0.0
 11
1897.525461380381
 21
1353.623653762712
 31
0.0
  0
LINE
  5
3CB
330
1F
100
AcDbEntity
  8
LAY-10
  6
CONTINUOUS
 62
     7
100
AcDbLine
 10
1895.523511271502
 20
1354.718497090401
 30
0.0
 11
1897.523511271504
 21
1352.916950352083
 31
0.0
  0
LINE
  5
3CC
330
1F
100
AcDbEntity
  8
LAY-10
  6
CONTINUOUS
 62
     7
100
AcDbLine
 10
1895.523511271503
 20
1354.011390309214
 30
0.0
 11
1897.523511271501
 21
1352.211390309216
 31
0.0
  0
LINE
  5
3CD
330
1F
100
AcDbEntity
  8
LAY-10
  6
CONTINUOUS
 62
     7
100
AcDbLine
 10
1895.523511271502
 20
1353.30428352803
 30
0.0
 11
1897.523511271505
 21
1351.504283528029
 31
0.0
  0
LINE
  5
3CE
330
1F
100
AcDbEntity
  8
LAY-10
  6
CONTINUOUS
 62
     7
100
AcDbLine
 10
1895.523511271503
 20
1352.597176746842
 30
0.0
 11
1897.523511271501
 21
1350.797176746844
 31
0.0
  0
LINE
  5
3CF
330
1F
100
AcDbEntity
  8
LAY-10
  6
CONTINUOUS
 62
     7
100
AcDbLine
 10
1895.523511271502
 20
1351.890069965656
 30
0.0
 11
1897.523511271505
 21
1350.090069965656
 31
0.0
  0
LINE
  5
3D0
330
1F
100
AcDbEntity
  8
LAY-10
  6
CONTINUOUS
 62
     7
100
AcDbLine
 10
1895.523511271503
 20
1351.182963184468
 30
0.0
 11
1897.523511271501
 21
1349.382963184469
 31
0.0
  0
LINE
  5
3D1
330
1F
100
AcDbEntity
  8
LAY-10
  6
CONTINUOUS
 62
     7
100
AcDbLine
 10
1895.523511271502
 20
1350.475856403283
 30
0.0
 11
1897.523511271505
 21
1348.675856403283
 31
0.0
  0
LINE
  5
3D2
330
1F
100
AcDbEntity
  8
LAY-10
  6
CONTINUOUS
 62
     7
100
AcDbLine
 10
1895.523511271503
 20
1349.768749622096
 30
0.0
 11
1897.523511271501
 21
1347.968749622097
 31
0.0
  0
LINE
  5
3D3
330
1F
100
AcDbEntity
  8
LAY-10
  6
CONTINUOUS
 62
     7
100
AcDbLine
 10
1895.523511271502
 20
1349.061642840911
 30
0.0
 11
1897.523511271505
 21
1347.261642840907
 31
0.0
  0
LINE
  5
3D4
330
1F
100
AcDbEntity
  8
LAY-10
  6
CONTINUOUS
 62
     7
100
AcDbLine
 10
1895.523511271503
 20
1348.354536059723
 30
0.0
 11
1897.523511271501
 21
1346.554536059724
 31
0.0
  0
LINE
  5
3D5
330
1F
100
AcDbEntity
  8
LAY-10
  6
CONTINUOUS
 62
     7
100
AcDbLine
 10
1895.523511271502
 20
1347.647429278538
 30
0.0
 11
1897.523511271505
 21
1345.847429278535
 31
0.0
  0
LINE
  5
3D6
330
1F
100
AcDbEntity
  8
LAY-10
  6
CONTINUOUS
 62
     7
100
AcDbLine
 10
1895.523511271503
 20
1346.94032249735
 30
0.0
 11
1897.523511271501
 21
1345.140322497352
 31
0.0
  0
LINE
  5
3D7
330
1F
100
AcDbEntity
  8
LAY-10
  6
CONTINUOUS
 62
     7
100
AcDbLine
 10
1895.523511271502
 20
1346.233215716164
 30
0.0
 11
1897.523511271505
 21
1344.433215716162
 31
0.0
  0
LINE
  5
3D8
330
1F
100
AcDbEntity
  8
LAY-10
  6
CONTINUOUS
 62
     7
100
AcDbLine
 10
1895.523511271503
 20
1345.526108934976
 30
0.0
 11
1897.523511271501
 21
1343.726108934979
 31
0.0
  0
LINE
  5
3D9
330
1F
100
AcDbEntity
  8
LAY-10
  6
CONTINUOUS
 62
     7
100
AcDbLine
 10
1895.523511271502
 20
1344.819002153792
 30
0.0
 11
1897.523511271505
 21
1343.019002153789
 31
0.0
  0
LINE
  5
3DA
330
1F
100
AcDbEntity
  8
LAY-10
  6
CONTINUOUS
 62
     7
100
AcDbLine
 10
1895.523511271503
 20
1344.111895372601
 30
0.0
 11
1897.523511271501
 21
1342.311895372607
 31
0.0
  0
LINE
  5
3DB
330
1F
100
AcDbEntity
  8
LAY-10
  6
CONTINUOUS
 62
     7
100
AcDbLine
 10
1895.523511271502
 20
1343.404788591418
 30
0.0
 11
1897.523511271505
 21
1341.604788591416
 31
0.0
  0
LINE
  5
3DC
330
1F
100
AcDbEntity
  8
LAY-10
  6
CONTINUOUS
 62
     7
100
AcDbLine
 10
1895.523511271503
 20
1342.69768181023
 30
0.0
 11
1897.523511271501
 21
1340.897681810233
 31
0.0
  0
LINE
  5
3DD
330
1F
100
AcDbEntity
  8
LAY-10
  6
CONTINUOUS
 62
     7
100
AcDbLine
 10
1895.523511271502
 20
1341.990575029046
 30
0.0
 11
1897.523511271505
 21
1340.190575029044
 31
0.0
  0
LINE
  5
3DE
330
1F
100
AcDbEntity
  8
LAY-10
  6
CONTINUOUS
 62
     7
100
AcDbLine
 10
1895.523511271503
 20
1341.283468247856
 30
0.0
 11
1897.523511271501
 21
1339.48346824786
 31
0.0
  0
LINE
  5
3DF
330
1F
100
AcDbEntity
  8
LAY-10
  6
CONTINUOUS
 62
     7
100
AcDbLine
 10
1895.523511271502
 20
1340.576361466673
 30
0.0
 11
1897.523511271503
 21
1338.776361466669
 31
0.0
  0
LINE
  5
3E0
330
1F
100
AcDbEntity
  8
LAY-10
  6
CONTINUOUS
 62
     7
100
AcDbLine
 10
1895.523511271503
 20
1339.869254685483
 30
0.0
 11
1897.523511271501
 21
1338.069254685488
 31
0.0
  0
LINE
  5
3E1
330
1F
100
AcDbEntity
  8
LAY-10
  6
CONTINUOUS
 62
     7
100
AcDbLine
 10
1895.523511271502
 20
1339.162147904301
 30
0.0
 11
1897.523511271503
 21
1337.362147904297
 31
0.0
  0
LINE
  5
3E2
330
1F
100
AcDbEntity
  8
LAY-10
  6
CONTINUOUS
 62
     7
100
AcDbLine
 10
1895.523511271503
 20
1338.455041123111
 30
0.0
 11
1897.523511271501
 21
1336.655041123114
 31
0.0
  0
LINE
  5
3E3
330
1F
100
AcDbEntity
  8
LAY-10
  6
CONTINUOUS
 62
     7
100
AcDbLine
 10
1895.523511271502
 20
1337.747934341928
 30
0.0
 11
1897.523511271503
 21
1335.947934341924
 31
0.0
  0
LINE
  5
3E4
330
1F
100
AcDbEntity
  8
LAY-10
  6
CONTINUOUS
 62
     7
100
AcDbLine
 10
1895.523511271503
 20
1337.040827560738
 30
0.0
 11
1897.523511271501
 21
1335.240827560742
 31
0.0
  0
LINE
  5
3E5
330
1F
100
AcDbEntity
  8
LAY-10
  6
CONTINUOUS
 62
     7
100
AcDbLine
 10
1895.5235112715
 20
1336.333720779555
 30
0.0
 11
1897.523511271503
 21
1334.533720779552
 31
0.0
  0
LINE
  5
3E6
330
1F
100
AcDbEntity
  8
LAY-10
  6
CONTINUOUS
 62
     7
100
AcDbLine
 10
1895.523511271503
 20
1335.626613998364
 30
0.0
 11
1897.523511271501
 21
1333.826613998369
 31
0.0
  0
LINE
  5
3E7
330
1F
100
AcDbEntity
  8
LAY-10
  6
CONTINUOUS
 62
     7
100
AcDbLine
 10
1895.5235112715
 20
1334.919507217182
 30
0.0
 11
1897.523511271503
 21
1333.119507217179
 31
0.0
  0
LINE
  5
3E8
330
1F
100
AcDbEntity
  8
LAY-10
  6
CONTINUOUS
 62
     7
100
AcDbLine
 10
1895.523511271503
 20
1334.212400435992
 30
0.0
 11
1897.523511271501
 21
1332.412400435995
 31
0.0
  0
LINE
  5
3E9
330
1F
100
AcDbEntity
  8
LAY-10
  6
CONTINUOUS
 62
     7
100
AcDbLine
 10
1895.5235112715
 20
1333.505293654809
 30
0.0
 11
1897.523511271503
 21
1331.705293654807
 31
0.0
  0
LINE
  5
3EA
330
1F
100
AcDbEntity
  8
LAY-10
  6
CONTINUOUS
 62
     7
100
AcDbLine
 10
1895.523511271503
 20
1332.798186873618
 30
0.0
 11
1897.523511271501
 21
1330.998186873623
 31
0.0
  0
LINE
  5
3EB
330
1F
100
AcDbEntity
  8
LAY-10
  6
CONTINUOUS
 62
     7
100
AcDbLine
 10
1895.5235112715
 20
1332.091080092436
 30
0.0
 11
1897.523511271503
 21
1330.291080092433
 31
0.0
  0
LINE
  5
3EC
330
1F
100
AcDbEntity
  8
LAY-10
  6
CONTINUOUS
 62
     7
100
AcDbLine
 10
1895.523511271502
 20
1331.383973311246
 30
0.0
 11
1897.523511271501
 21
1329.583973311249
 31
0.0
  0
LINE
  5
3ED
330
1F
100
AcDbEntity
  8
LAY-10
  6
CONTINUOUS
 62
     7
100
AcDbLine
 10
1895.5235112715
 20
1330.676866530064
 30
0.0
 11
1896.929686464282
 21
1329.470691337281
 31
0.0
  0
LINE
  5
3EE
330
1F
100
AcDbEntity
  8
LAY-10
  6
CONTINUOUS
 62
     7
100
AcDbLine
 10
1895.523511271502
 20
1329.969759748873
 30
0.0
 11
1896.0225796831
 21
1329.470691337278
 31
0.0
  0
LINE
  5
3EF
330
1F
100
AcDbEntity
  8
LAY-10
  6
CONTINUOUS
 62
     7
100
AcDbLine
 10
1895.742370837267
 20
1359.470691337361
 30
0.0
 11
1897.523511271504
 21
1357.862947900503
 31
0.0
  0
LINE
  5
3F0
330
1F
100
AcDbEntity
  8
LAY-10
  6
CONTINUOUS
 62
     7
100
AcDbLine
 10
1896.525739906249
 20
1359.470691337361
 30
0.0
 11
1897.523511271504
 21
1358.570054681688
 31
0.0
  0
LINE
  5
3F1
330
1F
100
AcDbEntity
  8
LAY-10
  6
CONTINUOUS
 62
     7
100
AcDbLine
 10
1897.309108975233
 20
1359.470691337361
 30
0.0
 11
1897.523511271504
 21
1359.277161462877
 31
0.0
  0
LINE
  5
3F2
330
1F
100
AcDbEntity
  8
LAY-10
  6
CONTINUOUS
 62
     7
100
AcDbLine
 10
1895.523511271525
 20
1359.470691337444
 30
0.0
 11
1897.523511271525
 21
1359.470691337444
 31
0.0
  0
LINE
  5
3F3
330
1F
100
AcDbEntity
  8
LAY-10
  6
CONTINUOUS
 62
     7
100
AcDbLine
 10
1895.523511271521
 20
2198.961137777381
 30
0.0
 11
1897.523511271524
 21
2197.155841119176
 31
0.0
  0
LINE
  5
3F4
330
1F
100
AcDbEntity
  8
LAY-10
  6
CONTINUOUS
 62
     7
100
AcDbLine
 10
1895.523511271523
 20
2198.254030996193
 30
0.0
 11
1897.523511271524
 21
2196.448734337991
 31
0.0
  0
LINE
  5
3F5
330
1F
100
AcDbEntity
  8
LAY-10
  6
CONTINUOUS
 62
     7
100
AcDbLine
 10
1895.523511271521
 20
2197.546924215008
 30
0.0
 11
1897.523511271524
 21
2195.741627556802
 31
0.0
  0
LINE
  5
3F6
330
1F
100
AcDbEntity
  8
LAY-10
  6
CONTINUOUS
 62
     7
100
AcDbLine
 10
1895.523511271523
 20
2196.839817433819
 30
0.0
 11
1897.523511271524
 21
2195.034520775618
 31
0.0
  0
LINE
  5
3F7
330
1F
100
AcDbEntity
  8
LAY-10
  6
CONTINUOUS
 62
     7
100
AcDbLine
 10
1895.523511271521
 20
2196.132710652636
 30
0.0
 11
1897.523511271524
 21
2194.32741399443
 31
0.0
  0
LINE
  5
3F8
330
1F
100
AcDbEntity
  8
LAY-10
  6
CONTINUOUS
 62
     7
100
AcDbLine
 10
1895.523511271523
 20
2195.425603871448
 30
0.0
 11
1897.5254613804
 21
2193.623653762572
 31
0.0
  0
LINE
  5
3F9
330
1F
100
AcDbEntity
  8
LAY-10
  6
CONTINUOUS
 62
     7
100
AcDbLine
 10
1895.523511271521
 20
2194.718497090261
 30
0.0
 11
1897.523511271524
 21
2192.916950351943
 31
0.0
  0
LINE
  5
3FA
330
1F
100
AcDbEntity
  8
LAY-10
  6
CONTINUOUS
 62
     7
100
AcDbLine
 10
1895.523511271523
 20
2194.011390309075
 30
0.0
 11
1897.523511271521
 21
2192.211390309076
 31
0.0
  0
LINE
  5
3FB
330
1F
100
AcDbEntity
  8
LAY-10
  6
CONTINUOUS
 62
     7
100
AcDbLine
 10
1895.523511271521
 20
2193.30428352789
 30
0.0
 11
1897.523511271525
 21
2191.504283527889
 31
0.0
  0
LINE
  5
3FC
330
1F
100
AcDbEntity
  8
LAY-10
  6
CONTINUOUS
 62
     7
100
AcDbLine
 10
1895.523511271523
 20
2192.597176746702
 30
0.0
 11
1897.523511271521
 21
2190.797176746704
 31
0.0
  0
LINE
  5
3FD
330
1F
100
AcDbEntity
  8
LAY-10
  6
CONTINUOUS
 62
     7
100
AcDbLine
 10
1895.523511271521
 20
2191.890069965517
 30
0.0
 11
1897.523511271525
 21
2190.090069965516
 31
0.0
  0
LINE
  5
3FE
330
1F
100
AcDbEntity
  8
LAY-10
  6
CONTINUOUS
 62
     7
100
AcDbLine
 10
1895.523511271523
 20
2191.182963184328
 30
0.0
 11
1897.523511271521
 21
2189.38296318433
 31
0.0
  0
LINE
  5
3FF
330
1F
100
AcDbEntity
  8
LAY-10
  6
CONTINUOUS
 62
     7
100
AcDbLine
 10
1895.523511271521
 20
2190.475856403144
 30
0.0
 11
1897.523511271525
 21
2188.675856403143
 31
0.0
  0
LINE
  5
400
330
1F
100
AcDbEntity
  8
LAY-10
  6
CONTINUOUS
 62
     7
100
AcDbLine
 10
1895.523511271523
 20
2189.768749621956
 30
0.0
 11
1897.523511271521
 21
2187.968749621958
 31
0.0
  0
LINE
  5
401
330
1F
100
AcDbEntity
  8
LAY-10
  6
CONTINUOUS
 62
     7
100
AcDbLine
 10
1895.523511271521
 20
2189.061642840771
 30
0.0
 11
1897.523511271525
 21
2187.261642840767
 31
0.0
  0
LINE
  5
402
330
1F
100
AcDbEntity
  8
LAY-10
  6
CONTINUOUS
 62
     7
100
AcDbLine
 10
1895.523511271523
 20
2188.354536059583
 30
0.0
 11
1897.523511271521
 21
2186.554536059584
 31
0.0
  0
LINE
  5
403
330
1F
100
AcDbEntity
  8
LAY-10
  6
CONTINUOUS
 62
     7
100
AcDbLine
 10
1895.523511271521
 20
2187.647429278398
 30
0.0
 11
1897.523511271525
 21
2185.847429278395
 31
0.0
  0
LINE
  5
404
330
1F
100
AcDbEntity
  8
LAY-10
  6
CONTINUOUS
 62
     7
100
AcDbLine
 10
1895.523511271523
 20
2186.94032249721
 30
0.0
 11
1897.523511271521
 21
2185.140322497212
 31
0.0
  0
LINE
  5
405
330
1F
100
AcDbEntity
  8
LAY-10
  6
CONTINUOUS
 62
     7
100
AcDbLine
 10
1895.523511271521
 20
2186.233215716024
 30
0.0
 11
1897.523511271525
 21
2184.433215716022
 31
0.0
  0
LINE
  5
406
330
1F
100
AcDbEntity
  8
LAY-10
  6
CONTINUOUS
 62
     7
100
AcDbLine
 10
1895.523511271523
 20
2185.526108934836
 30
0.0
 11
1897.52351127152
 21
2183.726108934839
 31
0.0
  0
LINE
  5
407
330
1F
100
AcDbEntity
  8
LAY-10
  6
CONTINUOUS
 62
     7
100
AcDbLine
 10
1895.523511271521
 20
2184.819002153652
 30
0.0
 11
1897.523511271525
 21
2183.019002153649
 31
0.0
  0
LINE
  5
408
330
1F
100
AcDbEntity
  8
LAY-10
  6
CONTINUOUS
 62
     7
100
AcDbLine
 10
1895.523511271523
 20
2184.111895372461
 30
0.0
 11
1897.52351127152
 21
2182.311895372467
 31
0.0
  0
LINE
  5
409
330
1F
100
AcDbEntity
  8
LAY-10
  6
CONTINUOUS
 62
     7
100
AcDbLine
 10
1895.523511271521
 20
2183.404788591278
 30
0.0
 11
1897.523511271525
 21
2181.604788591276
 31
0.0
  0
LINE
  5
40A
330
1F
100
AcDbEntity
  8
LAY-10
  6
CONTINUOUS
 62
     7
100
AcDbLine
 10
1895.523511271523
 20
2182.69768181009
 30
0.0
 11
1897.52351127152
 21
2180.897681810093
 31
0.0
  0
LINE
  5
40B
330
1F
100
AcDbEntity
  8
LAY-10
  6
CONTINUOUS
 62
     7
100
AcDbLine
 10
1895.523511271521
 20
2181.990575028906
 30
0.0
 11
1897.523511271525
 21
2180.190575028904
 31
0.0
  0
LINE
  5
40C
330
1F
100
AcDbEntity
  8
LAY-10
  6
CONTINUOUS
 62
     7
100
AcDbLine
 10
1895.523511271523
 20
2181.283468247716
 30
0.0
 11
1897.52351127152
 21
2179.48346824772
 31
0.0
  0
LINE
  5
40D
330
1F
100
AcDbEntity
  8
LAY-10
  6
CONTINUOUS
 62
     7
100
AcDbLine
 10
1895.523511271521
 20
2180.576361466533
 30
0.0
 11
1897.523511271523
 21
2178.77636146653
 31
0.0
  0
LINE
  5
40E
330
1F
100
AcDbEntity
  8
LAY-10
  6
CONTINUOUS
 62
     7
100
AcDbLine
 10
1895.523511271523
 20
2179.869254685344
 30
0.0
 11
1897.52351127152
 21
2178.069254685347
 31
0.0
  0
LINE
  5
40F
330
1F
100
AcDbEntity
  8
LAY-10
  6
CONTINUOUS
 62
     7
100
AcDbLine
 10
1895.523511271521
 20
2179.162147904161
 30
0.0
 11
1897.523511271523
 21
2177.362147904158
 31
0.0
  0
LINE
  5
410
330
1F
100
AcDbEntity
  8
LAY-10
  6
CONTINUOUS
 62
     7
100
AcDbLine
 10
1895.523511271523
 20
2178.455041122971
 30
0.0
 11
1897.52351127152
 21
2176.655041122975
 31
0.0
  0
LINE
  5
411
330
1F
100
AcDbEntity
  8
LAY-10
  6
CONTINUOUS
 62
     7
100
AcDbLine
 10
1895.523511271521
 20
2177.747934341788
 30
0.0
 11
1897.523511271523
 21
2175.947934341784
 31
0.0
  0
LINE
  5
412
330
1F
100
AcDbEntity
  8
LAY-10
  6
CONTINUOUS
 62
     7
100
AcDbLine
 10
1895.523511271523
 20
2177.040827560598
 30
0.0
 11
1897.52351127152
 21
2175.240827560602
 31
0.0
  0
LINE
  5
413
330
1F
100
AcDbEntity
  8
LAY-10
  6
CONTINUOUS
 62
     7
100
AcDbLine
 10
1895.523511271521
 20
2176.333720779415
 30
0.0
 11
1897.523511271523
 21
2174.533720779412
 31
0.0
  0
LINE
  5
414
330
1F
100
AcDbEntity
  8
LAY-10
  6
CONTINUOUS
 62
     7
100
AcDbLine
 10
1895.523511271523
 20
2175.626613998224
 30
0.0
 11
1897.52351127152
 21
2173.826613998229
 31
0.0
  0
LINE
  5
415
330
1F
100
AcDbEntity
  8
LAY-10
  6
CONTINUOUS
 62
     7
100
AcDbLine
 10
1895.523511271521
 20
2174.919507217042
 30
0.0
 11
1897.523511271523
 21
2173.119507217039
 31
0.0
  0
LINE
  5
416
330
1F
100
AcDbEntity
  8
LAY-10
  6
CONTINUOUS
 62
     7
100
AcDbLine
 10
1895.523511271523
 20
2174.212400435852
 30
0.0
 11
1897.52351127152
 21
2172.412400435855
 31
0.0
  0
LINE
  5
417
330
1F
100
AcDbEntity
  8
LAY-10
  6
CONTINUOUS
 62
     7
100
AcDbLine
 10
1895.523511271521
 20
2173.505293654669
 30
0.0
 11
1897.523511271523
 21
2171.705293654667
 31
0.0
  0
LINE
  5
418
330
1F
100
AcDbEntity
  8
LAY-10
  6
CONTINUOUS
 62
     7
100
AcDbLine
 10
1895.523511271523
 20
2172.798186873478
 30
0.0
 11
1897.52351127152
 21
2170.998186873483
 31
0.0
  0
LINE
  5
419
330
1F
100
AcDbEntity
  8
LAY-10
  6
CONTINUOUS
 62
     7
100
AcDbLine
 10
1895.523511271521
 20
2172.091080092296
 30
0.0
 11
1897.523511271523
 21
2170.291080092293
 31
0.0
  0
LINE
  5
41A
330
1F
100
AcDbEntity
  8
LAY-10
  6
CONTINUOUS
 62
     7
100
AcDbLine
 10
1895.523511271522
 20
2171.383973311106
 30
0.0
 11
1897.52351127152
 21
2169.583973311109
 31
0.0
  0
LINE
  5
41B
330
1F
100
AcDbEntity
  8
LAY-10
  6
CONTINUOUS
 62
     7
100
AcDbLine
 10
1895.523511271521
 20
2170.676866529924
 30
0.0
 11
1896.929686464303
 21
2169.470691337141
 31
0.0
  0
LINE
  5
41C
330
1F
100
AcDbEntity
  8
LAY-10
  6
CONTINUOUS
 62
     7
100
AcDbLine
 10
1895.523511271522
 20
2169.969759748733
 30
0.0
 11
1896.02257968312
 21
2169.470691337138
 31
0.0
  0
LINE
  5
41D
330
1F
100
AcDbEntity
  8
LAY-10
  6
CONTINUOUS
 62
     7
100
AcDbLine
 10
1895.742370837287
 20
2199.470691337221
 30
0.0
 11
1897.523511271524
 21
2197.862947900363
 31
0.0
  0
LINE
  5
41E
330
1F
100
AcDbEntity
  8
LAY-10
  6
CONTINUOUS
 62
     7
100
AcDbLine
 10
1896.525739906269
 20
2199.470691337221
 30
0.0
 11
1897.523511271524
 21
2198.570054681548
 31
0.0
  0
LINE
  5
41F
330
1F
100
AcDbEntity
  8
LAY-10
  6
CONTINUOUS
 62
     7
100
AcDbLine
 10
1897.309108975253
 20
2199.470691337221
 30
0.0
 11
1897.523511271524
 21
2199.277161462737
 31
0.0
  0
LINE
  5
420
330
1F
100
AcDbEntity
  8
LAY-10
  6
CONTINUOUS
 62
     7
100
AcDbLine
 10
1895.523511271525
 20
2169.470691337289
 30
0.0
 11
1897.523511271525
 21
2169.470691337289
 31
0.0
  0
LINE
  5
421
330
1F
100
AcDbEntity
  8
LAY-10
  6
CONTINUOUS
 62
     7
100
AcDbLine
 10
1897.52351127151
 20
1647.970691337496
 30
0.0
 11
1897.52351127151
 21
1880.970691337219
 31
0.0
  0
LINE
  5
422
330
1F
100
AcDbEntity
  8
LAY-10
  6
CONTINUOUS
 62
     7
100
AcDbLine
 10
1897.523511271501
 20
1328.470691337388
 30
0.0
 11
1897.5235112715
 21
2200.4706913374
 31
0.0
  0
LINE
  5
423
330
1F
100
AcDbEntity
  8
LAY-10
  6
CONTINUOUS
 62
     7
100
AcDbLine
 10
1830.5235112715
 20
1761.470691337599
 30
0.0
 11
1880.523511271497
 21
1761.470691337599
 31
0.0
  0
LINE
  5
424
330
1F
100
AcDbEntity
  8
LAY-10
  6
CONTINUOUS
 62
     7
100
AcDbLine
 10
1830.5235112715
 20
1767.470691337601
 30
0.0
 11
1880.523511271497
 21
1767.470691337601
 31
0.0
  0
LINE
  5
425
330
1F
100
AcDbEntity
  8
LAY-10
  6
CONTINUOUS
 62
     7
100
AcDbLine
 10
1881.0235112715
 20
2193.470691337499
 30
0.0
 11
1834.5235112715
 21
2193.470691337499
 31
0.0
  0
LINE
  5
426
330
1F
100
AcDbEntity
  8
LAY-10
  6
CONTINUOUS
 62
     7
100
AcDbLine
 10
1895.5235112715
 20
2134.470691337499
 30
0.0
 11
1893.5235112715
 21
2134.470691337499
 31
0.0
  0
ARC
  5
427
330
1F
100
AcDbEntity
  8
LAY-10
  6
CONTINUOUS
 62
     7
100
AcDbCircle
 10
1893.5235112715
 20
2138.470691337499
 30
0.0
 40
4.0
100
AcDbArc
 50
180.0
 51
270.0
  0
ARC
  5
428
330
1F
100
AcDbEntity
  8
LAY-10
  6
CONTINUOUS
 62
     7
100
AcDbCircle
 10
1834.5235112715
 20
2197.470691337499
 30
0.0
 40
4.0
100
AcDbArc
 50
180.0
 51
270.0
  0
ARC
  5
429
330
1F
100
AcDbEntity
  8
LAY-10
  6
CONTINUOUS
 62
     7
100
AcDbCircle
 10
1881.0235112715
 20
2184.970691337499
 30
0.0
 40
8.5
100
AcDbArc
 50
0.0
 51
90.00000000000001
  0
LINE
  5
42A
330
1F
100
AcDbEntity
  8
LAY-10
  6
CONTINUOUS
 62
     7
100
AcDbLine
 10
1881.0235112715
 20
1335.4706913377
 30
0.0
 11
1834.5235112715
 21
1335.4706913377
 31
0.0
  0
LINE
  5
42B
330
1F
100
AcDbEntity
  8
LAY-10
  6
CONTINUOUS
 62
     7
100
AcDbLine
 10
1895.5235112715
 20
1394.4706913377
 30
0.0
 11
1893.5235112715
 21
1394.4706913377
 31
0.0
  0
ARC
  5
42C
330
1F
100
AcDbEntity
  8
LAY-10
  6
CONTINUOUS
 62
     7
100
AcDbCircle
 10
1893.5235112715
 20
1390.4706913377
 30
0.0
 40
4.0
100
AcDbArc
 50
90.00000000000001
 51
180.0
  0
ARC
  5
42D
330
1F
100
AcDbEntity
  8
LAY-10
  6
CONTINUOUS
 62
     7
100
AcDbCircle
 10
1834.5235112715
 20
1331.4706913377
 30
0.0
 40
4.0
100
AcDbArc
 50
90.00000000000001
 51
180.0
  0
ARC
  5
42E
330
1F
100
AcDbEntity
  8
LAY-10
  6
CONTINUOUS
 62
     7
100
AcDbCircle
 10
1881.0235112715
 20
1343.9706913377
 30
0.0
 40
8.5
100
AcDbArc
 50
270.0
 51
0.0
  0
LINE
  5
42F
330
1F
100
AcDbEntity
  8
LAY-10
  6
CONTINUOUS
 62
     7
100
AcDbLine
 10
1830.5235112715
 20
1329.4706913377
 30
0.0
 11
1830.5235112715
 21
2199.470691337501
 31
0.0
  0
LINE
  5
430
330
1F
100
AcDbEntity
  8
LAY-10
  6
CONTINUOUS
 62
     7
100
AcDbLine
 10
1824.5235112715
 20
1329.4706913377
 30
0.0
 11
1824.5235112715
 21
2199.470691337501
 31
0.0
  0
LINE
  5
431
330
1F
100
AcDbEntity
  8
LAY-10
  6
CONTINUOUS
 62
     7
100
AcDbLine
 10
1880.5235112715
 20
1335.4706913377
 30
0.0
 11
1880.5235112715
 21
2193.470691337499
 31
0.0
  0
LINE
  5
432
330
1F
100
AcDbEntity
  8
LAY-10
  6
CONTINUOUS
 62
     7
100
AcDbLine
 10
1889.5235112715
 20
1343.9706913377
 30
0.0
 11
1889.5235112715
 21
2184.9706913375
 31
0.0
  0
LINE
  5
433
330
1F
100
AcDbEntity
  8
LAY-10
  6
CONTINUOUS
 62
     7
100
AcDbLine
 10
1895.5235112715
 20
1329.4706913377
 30
0.0
 11
1895.5235112715
 21
2199.470691337499
 31
0.0
  0
LINE
  5
434
330
1F
100
AcDbEntity
  8
LAY-10
  6
CONTINUOUS
 62
     7
100
AcDbLine
 10
1011.807684156239
 20
902.2520497555696
 30
0.0
 11
1011.807684156239
 21
948.7520497555696
 31
0.0
  0
LINE
  5
435
330
1F
100
AcDbEntity
  8
LAY-10
  6
CONTINUOUS
 62
     7
100
AcDbLine
 10
952.8076841562394
 20
887.7520497555696
 30
0.0
 11
952.8076841562394
 21
889.7520497555696
 31
0.0
  0
ARC
  5
436
330
1F
100
AcDbEntity
  8
LAY-10
  6
CONTINUOUS
 62
     7
100
AcDbCircle
 10
956.8076841562394
 20
889.7520497555696
 30
0.0
 40
4.0
100
AcDbArc
 50
90.00000000000001
 51
180.0
  0
ARC
  5
437
330
1F
100
AcDbEntity
  8
LAY-10
  6
CONTINUOUS
 62
     7
100
AcDbCircle
 10
1015.807684156239
 20
948.7520497555696
 30
0.0
 40
4.0
100
AcDbArc
 50
90.00000000000001
 51
180.0
  0
ARC
  5
438
330
1F
100
AcDbEntity
  8
LAY-10
  6
CONTINUOUS
 62
     7
100
AcDbCircle
 10
1003.307684156239
 20
902.2520497555696
 30
0.0
 40
8.5
100
AcDbArc
 50
270.0
 51
0.0
  0
LINE
  5
439
330
1F
100
AcDbEntity
  8
LAY-10
  6
CONTINUOUS
 62
     7
100
AcDbLine
 10
1017.807684156239
 20
887.7520497555696
 30
0.0
 11
1017.807684156239
 21
958.7520497555693
 31
0.0
  0
LINE
  5
43A
330
1F
100
AcDbEntity
  8
LAY-10
  6
CONTINUOUS
 62
     7
100
AcDbLine
 10
589.8076841562404
 20
902.2520497555696
 30
0.0
 11
589.8076841562404
 21
948.7520497555696
 31
0.0
  0
LINE
  5
43B
330
1F
100
AcDbEntity
  8
LAY-10
  6
CONTINUOUS
 62
     7
100
AcDbLine
 10
648.8076841562406
 20
887.7520497555696
 30
0.0
 11
648.8076841562406
 21
889.7520497555696
 31
0.0
  0
ARC
  5
43C
330
1F
100
AcDbEntity
  8
LAY-10
  6
CONTINUOUS
 62
     7
100
AcDbCircle
 10
644.8076841562404
 20
889.7520497555696
 30
0.0
 40
4.0
100
AcDbArc
 50
0.0
 51
90.00000000000001
  0
ARC
  5
43D
330
1F
100
AcDbEntity
  8
LAY-10
  6
CONTINUOUS
 62
     7
100
AcDbCircle
 10
585.8076841562404
 20
948.7520497555696
 30
0.0
 40
4.0
100
AcDbArc
 50
0.0
 51
90.00000000000001
  0
ARC
  5
43E
330
1F
100
AcDbEntity
  8
LAY-10
  6
CONTINUOUS
 62
     7
100
AcDbCircle
 10
598.3076841562404
 20
902.2520497555696
 30
0.0
 40
8.5
100
AcDbArc
 50
180.0
 51
270.0
  0
LINE
  5
43F
330
1F
100
AcDbEntity
  8
LAY-10
  6
CONTINUOUS
 62
     7
100
AcDbLine
 10
897.8076841562396
 20
952.7520497555702
 30
0.0
 11
897.8076841562392
 21
902.7520497555728
 31
0.0
  0
LINE
  5
440
330
1F
100
AcDbEntity
  8
LAY-10
  6
CONTINUOUS
 62
     7
100
AcDbLine
 10
903.8076841562417
 20
952.7520497555702
 30
0.0
 11
903.8076841562417
 21
902.7520497555728
 31
0.0
  0
LINE
  5
441
330
1F
100
AcDbEntity
  8
LAY-10
  6
CONTINUOUS
 62
     7
100
AcDbLine
 10
703.8076841562404
 20
952.7520497555702
 30
0.0
 11
703.807684156241
 21
902.7520497555728
 31
0.0
  0
LINE
  5
442
330
1F
100
AcDbEntity
  8
LAY-10
  6
CONTINUOUS
 62
     7
100
AcDbLine
 10
697.8076841562381
 20
952.7520497555702
 30
0.0
 11
697.8076841562381
 21
902.7520497555728
 31
0.0
  0
LINE
  5
443
330
1F
100
AcDbEntity
  8
LAY-10
  6
CONTINUOUS
 62
     7
100
AcDbLine
 10
583.8076841562403
 20
952.7520497555702
 30
0.0
 11
1017.80768415624
 21
952.7520497555702
 31
0.0
  0
LINE
  5
444
330
1F
100
AcDbEntity
  8
LAY-10
  6
CONTINUOUS
 62
     7
100
AcDbLine
 10
583.8076841562403
 20
958.7520497555693
 30
0.0
 11
1017.80768415624
 21
958.7520497555693
 31
0.0
  0
LINE
  5
445
330
1F
100
AcDbEntity
  8
LAY-10
  6
CONTINUOUS
 62
     7
100
AcDbLine
 10
589.8076841562399
 20
902.7520497555702
 30
0.0
 11
1011.807684156239
 21
902.7520497555702
 31
0.0
  0
LINE
  5
446
330
1F
100
AcDbEntity
  8
LAY-10
  6
CONTINUOUS
 62
     7
100
AcDbLine
 10
598.3076841562404
 20
893.7520497555696
 30
0.0
 11
1003.30768415624
 21
893.75204975557
 31
0.0
  0
LINE
  5
447
330
1F
100
AcDbEntity
  8
LAY-10
  6
CONTINUOUS
 62
     7
100
AcDbLine
 10
1447.807684156099
 20
902.2520497555696
 30
0.0
 11
1447.807684156099
 21
948.7520497555696
 31
0.0
  0
LINE
  5
448
330
1F
100
AcDbEntity
  8
LAY-10
  6
CONTINUOUS
 62
     7
100
AcDbLine
 10
1388.807684156099
 20
887.7520497555696
 30
0.0
 11
1388.807684156099
 21
889.7520497555696
 31
0.0
  0
ARC
  5
449
330
1F
100
AcDbEntity
  8
LAY-10
  6
CONTINUOUS
 62
     7
100
AcDbCircle
 10
1392.807684156099
 20
889.7520497555696
 30
0.0
 40
4.0
100
AcDbArc
 50
90.00000000000001
 51
180.0
  0
ARC
  5
44A
330
1F
100
AcDbEntity
  8
LAY-10
  6
CONTINUOUS
 62
     7
100
AcDbCircle
 10
1451.807684156099
 20
948.7520497555696
 30
0.0
 40
4.0
100
AcDbArc
 50
90.00000000000001
 51
180.0
  0
ARC
  5
44B
330
1F
100
AcDbEntity
  8
LAY-10
  6
CONTINUOUS
 62
     7
100
AcDbCircle
 10
1439.307684156099
 20
902.2520497555696
 30
0.0
 40
8.5
100
AcDbArc
 50
270.0
 51
0.0
  0
LINE
  5
44C
330
1F
100
AcDbEntity
  8
LAY-10
  6
CONTINUOUS
 62
     7
100
AcDbLine
 10
1025.8076841561
 20
902.2520497555696
 30
0.0
 11
1025.8076841561
 21
948.7520497555696
 31
0.0
  0
LINE
  5
44D
330
1F
100
AcDbEntity
  8
LAY-10
  6
CONTINUOUS
 62
     7
100
AcDbLine
 10
1084.807684156101
 20
887.7520497555696
 30
0.0
 11
1084.807684156101
 21
889.7520497555696
 31
0.0
  0
ARC
  5
44E
330
1F
100
AcDbEntity
  8
LAY-10
  6
CONTINUOUS
 62
     7
100
AcDbCircle
 10
1080.8076841561
 20
889.7520497555696
 30
0.0
 40
4.0
100
AcDbArc
 50
0.0
 51
90.00000000000001
  0
ARC
  5
44F
330
1F
100
AcDbEntity
  8
LAY-10
  6
CONTINUOUS
 62
     7
100
AcDbCircle
 10
1021.8076841561
 20
948.7520497555696
 30
0.0
 40
4.0
100
AcDbArc
 50
0.0
 51
90.00000000000001
  0
ARC
  5
450
330
1F
100
AcDbEntity
  8
LAY-10
  6
CONTINUOUS
 62
     7
100
AcDbCircle
 10
1034.3076841561
 20
902.2520497555696
 30
0.0
 40
8.5
100
AcDbArc
 50
180.0
 51
270.0
  0
LINE
  5
451
330
1F
100
AcDbEntity
  8
LAY-10
  6
CONTINUOUS
 62
     7
100
AcDbLine
 10
1019.807684156101
 20
887.7520497555697
 30
0.0
 11
1019.807684156101
 21
958.7520497555693
 31
0.0
  0
LINE
  5
452
330
1F
100
AcDbEntity
  8
LAY-10
  6
CONTINUOUS
 62
     7
100
AcDbLine
 10
1333.8076841561
 20
952.7520497555702
 30
0.0
 11
1333.807684156099
 21
902.7520497555728
 31
0.0
  0
LINE
  5
453
330
1F
100
AcDbEntity
  8
LAY-10
  6
CONTINUOUS
 62
     7
100
AcDbLine
 10
1339.807684156101
 20
952.7520497555702
 30
0.0
 11
1339.807684156101
 21
902.7520497555728
 31
0.0
  0
LINE
  5
454
330
1F
100
AcDbEntity
  8
LAY-10
  6
CONTINUOUS
 62
     7
100
AcDbLine
 10
1139.807684156101
 20
952.7520497555702
 30
0.0
 11
1139.807684156101
 21
902.7520497555728
 31
0.0
  0
LINE
  5
455
330
1F
100
AcDbEntity
  8
LAY-10
  6
CONTINUOUS
 62
     7
100
AcDbLine
 10
1133.807684156098
 20
952.7520497555702
 30
0.0
 11
1133.807684156098
 21
902.7520497555728
 31
0.0
  0
LINE
  5
456
330
1F
100
AcDbEntity
  8
LAY-10
  6
CONTINUOUS
 62
     7
100
AcDbLine
 10
1019.8076841561
 20
958.7520497555693
 30
0.0
 11
1453.8076841561
 21
958.7520497555693
 31
0.0
  0
LINE
  5
457
330
1F
100
AcDbEntity
  8
LAY-10
  6
CONTINUOUS
 62
     7
100
AcDbLine
 10
1025.8076841561
 20
902.7520497555702
 30
0.0
 11
1447.807684156099
 21
902.7520497555702
 31
0.0
  0
LINE
  5
458
330
1F
100
AcDbEntity
  8
LAY-10
  6
CONTINUOUS
 62
     7
100
AcDbLine
 10
1034.3076841561
 20
893.7520497555696
 30
0.0
 11
1439.3076841561
 21
893.75204975557
 31
0.0
  0
LINE
  5
459
330
1F
100
AcDbEntity
  8
LAY-10
  6
CONTINUOUS
 62
     7
100
AcDbLine
 10
583.8076841562407
 20
885.7520497555896
 30
0.0
 11
583.8076841562407
 21
958.7520497555693
 31
0.0
  0
LINE
  5
45A
330
1F
100
AcDbEntity
  8
LAY-10
  6
CONTINUOUS
 62
     7
100
AcDbLine
 10
1453.807684156099
 20
885.7520497555897
 30
0.0
 11
1453.807684156099
 21
958.7520497555693
 31
0.0
  0
LINE
  5
45B
330
1F
100
AcDbEntity
  8
LAY-10
  6
CONTINUOUS
 62
     7
100
AcDbLine
 10
1019.8076841561
 20
952.7520497555702
 30
0.0
 11
1453.8076841561
 21
952.7520497555702
 31
0.0
  0
LINE
  5
45C
330
1F
100
AcDbEntity
  8
LAY-10
  6
CENTER
 62
     2
100
AcDbLine
 10
567.8020552240379
 20
1514.470691337504
 30
0.0
 11
531.3020552240843
 21
1514.470691337505
 31
0.0
  0
LINE
  5
45D
330
1F
100
AcDbEntity
  8
LAY-10
  6
CENTER
 62
     2
100
AcDbLine
 10
567.8020552240379
 20
2014.470691337464
 30
0.0
 11
526.0020552240386
 21
2014.470691337466
 31
0.0
  0
LINE
  5
45E
330
1F
100
AcDbEntity
  8
LAY-10
  6
CENTER
 62
     2
100
AcDbLine
 10
526.5076841557667
 20
1764.470691337542
 30
0.0
 11
1511.60768415587
 21
1764.470691337543
 31
0.0
  0
LINE
  5
45F
330
1F
100
AcDbEntity
  8
LAY-10
  6
CENTER
 62
     2
100
AcDbLine
 10
1469.807684155911
 20
2014.470691337461
 30
0.0
 11
1511.607684155911
 21
2014.470691337461
 31
0.0
  0
LINE
  5
460
330
1F
100
AcDbEntity
  8
LAY-10
  6
CENTER
 62
     2
100
AcDbLine
 10
1469.807684155909
 20
1514.4706913375
 30
0.0
 11
1506.307684155863
 21
1514.470691337501
 31
0.0
  0
LINE
  5
461
330
1F
100
AcDbEntity
  8
LAY-10
  6
CENTER
 62
     2
100
AcDbLine
 10
800.8076841561202
 20
2193.07069133749
 30
0.0
 11
800.8076841561202
 21
2154.170691337491
 31
0.0
  0
LINE
  5
462
330
1F
100
AcDbEntity
  8
LAY-10
  6
CENTER
 62
     2
100
AcDbLine
 10
782.2826841561206
 20
2174.470691337489
 30
0.0
 11
819.7826841561198
 21
2174.470691337489
 31
0.0
  0
LINE
  5
463
330
1F
100
AcDbEntity
  8
LAY-10
  6
CENTER
 62
     2
100
AcDbLine
 10
800.8076841561207
 20
1335.870691337594
 30
0.0
 11
800.8076841561206
 21
1374.770691337594
 31
0.0
  0
LINE
  5
464
330
1F
100
AcDbEntity
  8
LAY-10
  6
CENTER
 62
     2
100
AcDbLine
 10
782.282684156121
 20
1354.470691337596
 30
0.0
 11
819.78268415612
 21
1354.470691337596
 31
0.0
  0
LINE
  5
465
330
1F
100
AcDbEntity
  8
LAY-10
  6
CENTER
 62
     2
100
AcDbLine
 10
1238.8020552239
 20
2193.07069133749
 30
0.0
 11
1238.8020552239
 21
2154.170691337491
 31
0.0
  0
LINE
  5
466
330
1F
100
AcDbEntity
  8
LAY-10
  6
CENTER
 62
     2
100
AcDbLine
 10
1220.277055223901
 20
2174.470691337489
 30
0.0
 11
1257.7770552239
 21
2174.470691337489
 31
0.0
  0
LINE
  5
467
330
1F
100
AcDbEntity
  8
LAY-10
  6
CENTER
 62
     2
100
AcDbLine
 10
1238.802055223901
 20
1335.870691337595
 30
0.0
 11
1238.802055223901
 21
1374.770691337594
 31
0.0
  0
LINE
  5
468
330
1F
100
AcDbEntity
  8
LAY-10
  6
CENTER
 62
     2
100
AcDbLine
 10
1220.277055223901
 20
1354.470691337596
 30
0.0
 11
1257.7770552239
 21
1354.470691337596
 31
0.0
  0
LINE
  5
469
330
1F
100
AcDbEntity
  8
LAY-10
  6
CENTER
 62
     2
100
AcDbLine
 10
1018.807684156175
 20
2251.97069133739
 30
0.0
 11
1018.807684156174
 21
1271.670691337488
 31
0.0
  0
LINE
  5
46A
330
1F
100
AcDbEntity
  8
LAY-10
  6
CENTER
 62
     2
100
AcDbLine
 10
768.8076841562046
 20
2215.476320269482
 30
0.0
 11
768.8076841562055
 21
2251.976320269436
 31
0.0
  0
LINE
  5
46B
330
1F
100
AcDbEntity
  8
LAY-10
  6
CENTER
 62
     2
100
AcDbLine
 10
1268.807684156165
 20
2215.476320269482
 30
0.0
 11
1268.807684156166
 21
2257.276320269481
 31
0.0
  0
LINE
  5
46C
330
1F
100
AcDbEntity
  8
LAY-10
  6
CENTER
 62
     2
100
AcDbLine
 10
768.807684156205
 20
1313.465062405602
 30
0.0
 11
768.8076841562059
 21
1276.965062405649
 31
0.0
  0
LINE
  5
46D
330
1F
100
AcDbEntity
  8
LAY-10
  6
CENTER
 62
     2
100
AcDbLine
 10
1268.807684156165
 20
1313.465062405603
 30
0.0
 11
1268.807684156166
 21
1271.665062405604
 31
0.0
  0
LINE
  5
46E
330
1F
100
AcDbEntity
  8
LAY-10
  6
CENTER
 62
     2
100
AcDbLine
 10
1018.807684156167
 20
972.3330572167904
 30
0.0
 11
1018.807684156167
 21
796.5
 31
0.0
  0
LINE
  5
46F
330
1F
100
AcDbEntity
  8
LAY-10
  6
CENTER
 62
     2
100
AcDbLine
 10
1810.94250381031
 20
1764.470691337367
 30
0.0
 11
1986.7755610271
 21
1764.470691337367
 31
0.0
  0
DIMENSION
  5
471
330
1F
100
AcDbEntity
  8
LAY-20
  6
CONTINUOUS
 62
     4
100
AcDbDimension
  2
*D15
 10
1469.8076841562
 20
1128.7520497556
 30
0.0
 11
1018.80768415616
 21
1153.7520497556
 31
0.0
 70
   160
  3
ISO-25
100
AcDbAlignedDimension
 13
567.8076841561203
 23
958.7520497555903
 33
0.0
 14
1469.8076841562
 24
958.7520497555903
 34
0.0
100
AcDbRotatedDimension
1001
ACAD
1000
DSTYLE
1002
{
1070
   270
1070
     2
1070
     6
1000
EX_BNORM
1070
     7
1000
EX_BNORM
1070
    41
1040
25.0
1070
    42
1040
15.0
1070
    44
1040
15.0
1070
    73
1070
     0
1070
    74
1070
     0
1070
    75
1070
     0
1070
    76
1070
     0
1070
    77
1070
     1
1070
    78
1070
     8
1070
   140
1040
31.181104
1070
   147
1040
0.0
1070
   173
1070
     1
1070
   176
1070
     4
1070
   177
1070
     4
1070
   178
1070
     7
1070
   271
1070
     1
1070
   277
1070
     2
1070
   279
1070
     2
1070
   280
1070
     0
1070
   287
1070
     5
1070
   340
1005
470
1002
}
  0
DIMENSION
  5
47F
330
1F
100
AcDbEntity
  8
LAY-20
  6
CONTINUOUS
 62
     4
100
AcDbDimension
  2
*D16
 10
1017.807684156115
 20
1058.7520497556
 30
0.0
 11
800.8076841561788
 21
1083.7520497556
 31
0.0
 70
   160
  3
ISO-25
100
AcDbAlignedDimension
 13
583.8076841562424
 23
958.7520497555934
 33
0.0
 14
1017.807684156115
 24
958.7520497555956
 34
0.0
100
AcDbRotatedDimension
1001
ACAD
1000
DSTYLE
1002
{
1070
   270
1070
     2
1070
     6
1000
EX_BNORM
1070
     7
1000
EX_BNORM
1070
    41
1040
25.0
1070
    42
1040
15.0
1070
    44
1040
15.0
1070
    73
1070
     0
1070
    74
1070
     0
1070
    75
1070
     0
1070
    76
1070
     0
1070
    77
1070
     1
1070
    78
1070
     8
1070
   140
1040
31.181104
1070
   147
1040
0.0
1070
   173
1070
     1
1070
   176
1070
     4
1070
   177
1070
     4
1070
   178
1070
     7
1070
   271
1070
     1
1070
   277
1070
     2
1070
   279
1070
     2
1070
   280
1070
     0
1070
   287
1070
     5
1070
   340
1005
470
1002
}
  0
DIMENSION
  5
48C
330
1F
100
AcDbEntity
  8
LAY-20
  6
CONTINUOUS
 62
     4
100
AcDbDimension
  2
*D17
 10
668.8076841561201
 20
703.75204975559
 30
0.0
 11
1018.80768415616
 21
728.7520497555898
 31
0.0
 70
   160
  3
ISO-25
100
AcDbAlignedDimension
 13
1368.8076841562
 23
803.7520497555901
 33
0.0
 14
668.8076841561201
 24
803.7520497555901
 34
0.0
100
AcDbRotatedDimension
1001
ACAD
1000
DSTYLE
1002
{
1070
   270
1070
     2
1070
     6
1000
EX_BNORM
1070
     7
1000
EX_BNORM
1070
    41
1040
25.0
1070
    42
1040
15.0
1070
    44
1040
14.99999999999977
1070
    73
1070
     0
1070
    74
1070
     0
1070
    75
1070
     0
1070
    76
1070
     0
1070
    77
1070
     1
1070
    78
1070
     8
1070
   140
1040
31.181104
1070
   147
1040
0.0
1070
   173
1070
     1
1070
   176
1070
     4
1070
   177
1070
     4
1070
   178
1070
     7
1070
   271
1070
     1
1070
   277
1070
     2
1070
   279
1070
     2
1070
   280
1070
     0
1070
   287
1070
     5
1070
   340
1005
470
1002
}
  0
DIMENSION
  5
499
330
1F
100
AcDbEntity
  8
LAY-20
  6
CONTINUOUS
 62
     4
100
AcDbDimension
  2
*D18
 10
1598.706168966
 20
958.7520497555903
 30
0.0
 11
1573.706168966
 21
881.25204975559
 31
0.0
 70
   160
  3
ISO-25
100
AcDbAlignedDimension
 13
1415.0076841562
 23
803.7520497555901
 33
0.0
 14
1469.8076841562
 24
958.7520497555903
 34
0.0
 50
90.0
100
AcDbRotatedDimension
1001
ACAD
1000
DSTYLE
1002
{
1070
   270
1070
     2
1070
     6
1000
EX_BNORM
1070
     7
1000
EX_BNORM
1070
    41
1040
25.0
1070
    42
1040
15.0
1070
    44
1040
14.99999999999955
1070
    73
1070
     0
1070
    74
1070
     0
1070
    75
1070
     0
1070
    76
1070
     0
1070
    77
1070
     1
1070
    78
1070
     8
1070
   140
1040
31.181104
1070
   147
1040
0.0
1070
   173
1070
     1
1070
   176
1070
     4
1070
   177
1070
     4
1070
   178
1070
     7
1070
   271
1070
     1
1070
   277
1070
     2
1070
   279
1070
     2
1070
   280
1070
     0
1070
   287
1070
     5
1070
   340
1005
470
1002
}
  0
DIMENSION
  5
4A6
330
1F
100
AcDbEntity
  8
LAY-20
  6
CONTINUOUS
 62
     4
100
AcDbDimension
  2
*D19
 10
576.6076841561401
 20
633.75204975559
 30
0.0
 11
1018.80768415617
 21
658.75204975559
 31
0.0
 70
   160
  3
ISO-25
100
AcDbAlignedDimension
 13
1461.0076841562
 23
888.5520497555899
 33
0.0
 14
576.6076841561401
 24
888.5520497555899
 34
0.0
100
AcDbRotatedDimension
1001
ACAD
1000
DSTYLE
1002
{
1070
   270
1070
     2
1070
     6
1000
EX_BNORM
1070
     7
1000
EX_BNORM
1070
    41
1040
25.0
1070
    42
1040
15.0
1070
    44
1040
15.0
1070
    73
1070
     0
1070
    74
1070
     0
1070
    75
1070
     0
1070
    76
1070
     0
1070
    77
1070
     1
1070
    78
1070
     0
1070
   140
1040
31.181104
1070
   147
1040
0.0
1070
   173
1070
     1
1070
   176
1070
     4
1070
   177
1070
     4
1070
   178
1070
     7
1070
   271
1070
     0
1070
   277
1070
     2
1070
   279
1070
     2
1070
   280
1070
     0
1070
   287
1070
     5
1070
   340
1005
470
1002
}
  0
DIMENSION
  5
4B3
330
1F
100
AcDbEntity
  8
LAY-20
  6
CONTINUOUS
 62
     4
100
AcDbDimension
  2
*D20
 10
1654.5235112715
 20
2215.4706913374
 30
0.0
 11
1629.5235112715
 21
1764.47069133736
 31
0.0
 70
   160
  3
ISO-25
100
AcDbAlignedDimension
 13
1824.52351127151
 23
1313.47069133732
 33
0.0
 14
1824.52351127151
 24
2215.4706913374
 34
0.0
 50
90.0
100
AcDbRotatedDimension
1001
ACAD
1000
DSTYLE
1002
{
1070
   270
1070
     2
1070
     6
1000
EX_BNORM
1070
     7
1000
EX_BNORM
1070
    41
1040
25.0
1070
    42
1040
15.0
1070
    44
1040
15.0
1070
    73
1070
     0
1070
    74
1070
     0
1070
    75
1070
     0
1070
    76
1070
     0
1070
    77
1070
     1
1070
    78
1070
     8
1070
   140
1040
31.181104
1070
   147
1040
0.0
1070
   173
1070
     1
1070
   176
1070
     4
1070
   177
1070
     4
1070
   178
1070
     7
1070
   271
1070
     1
1070
   277
1070
     2
1070
   279
1070
     2
1070
   280
1070
     0
1070
   287
1070
     5
1070
   340
1005
470
1002
}
  0
DIMENSION
  5
4C0
330
1F
100
AcDbEntity
  8
LAY-20
  6
CONTINUOUS
 62
     4
100
AcDbDimension
  2
*D21
 10
1724.5235112715
 20
2199.470691337415
 30
0.0
 11
1699.5235112715
 21
1764.470691337428
 31
0.0
 70
   160
  3
ISO-25
100
AcDbAlignedDimension
 13
1824.523511271507
 23
1329.470691337442
 33
0.0
 14
1824.523511271505
 24
2199.470691337415
 34
0.0
 50
90.0
100
AcDbRotatedDimension
1001
ACAD
1000
DSTYLE
1002
{
1070
   270
1070
     2
1070
     6
1000
EX_BNORM
1070
     7
1000
EX_BNORM
1070
    41
1040
25.0
1070
    42
1040
15.0
1070
    44
1040
15.0
1070
    73
1070
     0
1070
    74
1070
     0
1070
    75
1070
     0
1070
    76
1070
     0
1070
    77
1070
     1
1070
    78
1070
     8
1070
   140
1040
31.181104
1070
   147
1040
0.0
1070
   173
1070
     1
1070
   176
1070
     4
1070
   177
1070
     4
1070
   178
1070
     7
1070
   271
1070
     1
1070
   277
1070
     2
1070
   279
1070
     2
1070
   280
1070
     0
1070
   287
1070
     5
1070
   340
1005
470
1002
}
  0
DIMENSION
  5
4CD
330
1F
100
AcDbEntity
  8
LAY-20
  6
CONTINUOUS
 62
     4
100
AcDbDimension
  2
*D22
 10
2079.52351127151
 20
1414.47069133732
 30
0.0
 11
2054.52351127151
 21
1764.47069133736
 31
0.0
 70
   160
  3
ISO-25
100
AcDbAlignedDimension
 13
1979.52351127151
 23
2114.4706913374
 33
0.0
 14
1979.52351127151
 24
1414.47069133732
 34
0.0
 50
90.0
100
AcDbRotatedDimension
1001
ACAD
1000
DSTYLE
1002
{
1070
   270
1070
     2
1070
     6
1000
EX_BNORM
1070
     7
1000
EX_BNORM
1070
    41
1040
25.0
1070
    42
1040
15.0
1070
    44
1040
15.0
1070
    73
1070
     0
1070
    74
1070
     0
1070
    75
1070
     0
1070
    76
1070
     0
1070
    77
1070
     1
1070
    78
1070
     8
1070
   140
1040
31.181104
1070
   147
1040
0.0
1070
   173
1070
     1
1070
   176
1070
     4
1070
   177
1070
     4
1070
   178
1070
     7
1070
   271
1070
     1
1070
   277
1070
     2
1070
   279
1070
     2
1070
   280
1070
     0
1070
   287
1070
     5
1070
   340
1005
470
1002
}
  0
DIMENSION
  5
4DA
330
1F
100
AcDbEntity
  8
LAY-20
  6
CONTINUOUS
 62
     4
100
AcDbDimension
  2
*D23
 10
2149.52351127151
 20
1322.27069133734
 30
0.0
 11
2124.52351127151
 21
1764.47069133737
 31
0.0
 70
   160
  3
ISO-25
100
AcDbAlignedDimension
 13
1894.7235112715
 23
2206.6706913374
 33
0.0
 14
1894.7235112715
 24
1322.27069133734
 34
0.0
 50
90.0
100
AcDbRotatedDimension
1001
ACAD
1000
DSTYLE
1002
{
1070
   270
1070
     2
1070
     6
1000
EX_BNORM
1070
     7
1000
EX_BNORM
1070
    41
1040
25.0
1070
    42
1040
15.0
1070
    44
1040
15.0
1070
    73
1070
     0
1070
    74
1070
     0
1070
    75
1070
     0
1070
    76
1070
     0
1070
    77
1070
     1
1070
    78
1070
     0
1070
   140
1040
31.181104
1070
   147
1040
0.0
1070
   173
1070
     1
1070
   176
1070
     4
1070
   177
1070
     4
1070
   178
1070
     7
1070
   271
1070
     0
1070
   277
1070
     2
1070
   279
1070
     2
1070
   280
1070
     0
1070
   287
1070
     5
1070
   340
1005
470
1002
}
  0
DIMENSION
  5
4E7
330
1F
100
AcDbEntity
  8
LAY-20
  6
CONTINUOUS
 62
     4
100
AcDbDimension
  2
*D24
 10
1170.0
 20
958.7520497555801
 30
0.0
 11
1145.0
 21
1003.75204975558
 31
0.0
 70
   160
  3
ISO-25
100
AcDbAlignedDimension
 13
1170.0
 23
952.7520497555702
 33
0.0
 14
1170.0
 24
958.7520497555801
 34
0.0
 50
90.0
100
AcDbRotatedDimension
1001
ACAD
1000
DSTYLE
1002
{
1070
   270
1070
     2
1070
     6
1000
EX_BNORM
1070
     7
1000
EX_BNORM
1070
    41
1040
25.0
1070
    42
1040
0.0
1070
    44
1040
0.0
1070
    73
1070
     0
1070
    74
1070
     0
1070
    75
1070
     1
1070
    76
1070
     1
1070
    77
1070
     1
1070
    78
1070
     8
1070
   140
1040
31.181104
1070
   147
1040
0.0
1070
   173
1070
     1
1070
   176
1070
     4
1070
   177
1070
     4
1070
   178
1070
     7
1070
   271
1070
     1
1070
   277
1070
     2
1070
   279
1070
     2
1070
   280
1070
     2
1070
   287
1070
     5
1070
   340
1005
470
1002
}
  0
LINE
  5
4F4
330
1F
100
AcDbEntity
  8
LAY-255
  6
CONTINUOUS
 62
     7
100
AcDbLine
 10
3850.0
 20
219.9999999999999
 30
0.0
 11
2850.0
 21
219.9999999999999
 31
0.0
  0
LINE
  5
4F5
330
1F
100
AcDbEntity
  8
LAY-255
  6
CONTINUOUS
 62
     7
100
AcDbLine
 10
2888.0
 20
160.0
 30
0.0
 11
2968.0
 21
210.0
 31
0.0
  0
LINE
  5
4F6
330
1F
100
AcDbEntity
  8
LAY-255
  6
CONTINUOUS
 62
     7
100
AcDbLine
 10
2968.0
 20
210.0
 30
0.0
 11
3048.0
 21
160.0
 31
0.0
  0
LINE
  5
4F7
330
1F
100
AcDbEntity
  8
LAY-255
  6
CONTINUOUS
 62
     7
100
AcDbLine
 10
3048.0
 20
160.0
 30
0.0
 11
2968.0
 21
110.0
 31
0.0
  0
LINE
  5
4F8
330
1F
100
AcDbEntity
  8
LAY-255
  6
CONTINUOUS
 62
     7
100
AcDbLine
 10
2968.0
 20
110.0
 30
0.0
 11
2888.0
 21
160.0
 31
0.0
  0
LINE
  5
4F9
330
1F
100
AcDbEntity
  8
LAY-255
  6
CONTINUOUS
 62
     7
100
AcDbLine
 10
50.0
 20
100.0
 30
0.0
 11
3850.0
 21
100.0
 31
0.0
  0
LINE
  5
4FA
330
1F
100
AcDbEntity
  8
LAY-255
  6
CONTINUOUS
 62
     7
100
AcDbLine
 10
50.0
 20
2800.0
 30
0.0
 11
3850.0
 21
2800.0
 31
0.0
  0
LINE
  5
4FB
330
1F
100
AcDbEntity
  8
LAY-255
  6
CONTINUOUS
 62
     7
100
AcDbLine
 10
50.0
 20
100.0
 30
0.0
 11
50.0
 21
2800.0
 31
0.0
  0
LINE
  5
4FC
330
1F
100
AcDbEntity
  8
LAY-255
  6
CONTINUOUS
 62
     7
100
AcDbLine
 10
3850.0
 20
100.0
 30
0.0
 11
3850.0
 21
2800.0
 31
0.0
  0
LINE
  5
4FD
330
1F
100
AcDbEntity
  8
LAY-255
  6
CONTINUOUS
 62
     4
100
AcDbLine
 10
2850.0
 20
279.9999999999999
 30
0.0
 11
3850.0
 21
279.9999999999999
 31
0.0
  0
LINE
  5
4FE
330
1F
100
AcDbEntity
  8
LAY-255
  6
CONTINUOUS
 62
     7
100
AcDbLine
 10
2850.0
 20
100.0
 30
0.0
 11
2850.0
 21
670.0
 31
0.0
  0
POINT
  5
4FF
330
1F
100
AcDbEntity
  8
LAY-255
  6
CONTINUOUS
 62
     7
100
AcDbPoint
 10
2890.0
 20
399.9999999999999
 30
0.0
  0
LINE
  5
500
330
1F
100
AcDbEntity
  8
LAY-255
  6
CONTINUOUS
 62
     4
100
AcDbLine
 10
3350.0
 20
279.9999999999999
 30
0.0
 11
3350.0
 21
220.0
 31
0.0
  0
LINE
  5
501
330
1F
100
AcDbEntity
  8
LAY-255
  6
CONTINUOUS
 62
     7
100
AcDbLine
 10
3850.0
 20
670.0
 30
0.0
 11
2850.0
 21
670.0
 31
0.0
  0
LINE
  5
502
330
1F
100
AcDbEntity
  8
LAY-255
  6
CONTINUOUS
 62
     4
100
AcDbLine
 10
3830.0
 20
549.9999999999999
 30
0.0
 11
2870.0
 21
549.9999999999999
 31
0.0
  0
LINE
  5
503
330
1F
100
AcDbEntity
  8
LAY-255
  6
CONTINUOUS
 62
     4
100
AcDbLine
 10
3830.0
 20
610.0
 30
0.0
 11
2870.0
 21
610.0
 31
0.0
  0
POINT
  5
504
330
1F
100
AcDbEntity
  8
LAY-255
  6
CONTINUOUS
 62
     7
100
AcDbPoint
 10
2890.0
 20
499.9999999999999
 30
0.0
  0
POINT
  5
505
330
1F
100
AcDbEntity
  8
LAY-255
  6
CONTINUOUS
 62
     7
100
AcDbPoint
 10
3000.0
 20
559.9999999999999
 30
0.0
  0
POINT
  5
506
330
1F
100
AcDbEntity
  8
LAY-255
  6
CONTINUOUS
 62
     7
100
AcDbPoint
 10
3000.0
 20
620.0
 30
0.0
  0
POINT
  5
507
330
1F
100
AcDbEntity
  8
LAY-255
  6
CONTINUOUS
 62
     7
100
AcDbPoint
 10
2890.0
 20
349.9999999999999
 30
0.0
  0
POINT
  5
508
330
1F
100
AcDbEntity
  8
LAY-255
  6
CONTINUOUS
 62
     7
100
AcDbPoint
 10
2890.0
 20
449.9999999999999
 30
0.0
  0
POINT
  5
509
330
1F
100
AcDbEntity
  8
LAY-255
  6
CONTINUOUS
 62
     7
100
AcDbPoint
 10
2890.0
 20
299.9999999999998
 30
0.0
  0
TEXT
  5
50A
330
1F
100
AcDbEntity
  8
LAY-255
  6
CONTINUOUS
 62
     7
100
AcDbText
 10
3081.3837890625
 20
155.4375
 30
0.0
 40
51.5625
  1
福西鋳物株式会社
 41
1.342691999659091
  7
EXCADSTD
100
AcDbText
  0
TEXT
  5
50B
330
1F
100
AcDbEntity
  8
LAY-255
  6
CONTINUOUS
 62
     7
100
AcDbText
 10
3085.09375
 20
119.8125
 30
0.0
 40
17.1875
  1
ＦＵＫＵＮＩＳＨＩ
 41
1.204799226045263
  7
EXCADSTD
100
AcDbText
  0
TEXT
  5
50C
330
1F
100
AcDbEntity
  8
LAY-255
  6
CONTINUOUS
 62
     7
100
AcDbText
 10
3327.191964285714
 20
119.8125
 30
0.0
 40
17.1875
  1
ＦＯＵＮＤＲＹ
 41
1.243252752978497
  7
EXCADSTD
100
AcDbText
  0
TEXT
  5
50D
330
1F
100
AcDbEntity
  8
LAY-255
  6
CONTINUOUS
 62
     7
100
AcDbText
 10
3519.945914381009
 20
119.8125
 30
0.0
 40
17.1875
  1
ＣＯ.,ＬＴＤ.
 41
1.243831036226633
  7
EXCADSTD
100
AcDbText
  0
TEXT
  5
50E
330
1F
100
AcDbEntity
  8
LAY-255
  6
CONTINUOUS
 62
     7
100
AcDbText
 10
2940.34375
 20
137.1875
 30
0.0
 40
51.5625
  1
S
 41
0.7582677563636363
  7
EXCADSTD
100
AcDbText
  0
TEXT
  5
50F
330
1F
100
AcDbEntity
  8
LAY-255
  6
CONTINUOUS
 62
     7
100
AcDbText
 10
2971.046875
 20
137.4941037736
 30
0.0
 40
51.5625
  1
F
 41
0.7440945272727272
  7
EXCADSTD
100
AcDbText
  0
TEXT
  5
510
330
1F
100
AcDbEntity
  8
LAY-255
  6
CONTINUOUS
 62
     7
100
AcDbText
 10
3371.0546875
 20
244.2187499999999
 30
0.0
 40
25.78125
  1
縮尺
 41
1.080708718181818
  7
EXCADSTD
100
AcDbText
  0
TEXT
  5
511
330
1F
100
AcDbEntity
  8
LAY-255
  6
CONTINUOUS
 62
     7
100
AcDbText
 10
2872.65625
 20
565.6249999999999
 30
0.0
 40
34.375
  1
型式
 41
1.056348480681818
  7
EXCADSTD
100
AcDbText
  0
TEXT
  5
512
330
1F
100
AcDbEntity
  8
LAY-255
  6
CONTINUOUS
 62
     7
100
AcDbText
 10
2874.21875
 20
625.625
 30
0.0
 40
34.375
  1
品名
 41
0.9788386340909091
  7
EXCADSTD
100
AcDbText
  0
TEXT
  5
513
330
1F
100
AcDbEntity
  8
LAY-255
  6
CONTINUOUS
 62
     7
100
AcDbText
 10
2871.5234375
 20
244.2187499999999
 30
0.0
 40
25.78125
  1
作成日
 41
1.000629973818182
  7
EXCADSTD
100
AcDbText
  0
TEXT
  5
514
330
1F
100
AcDbEntity
  8
LAY-255
  6
CONTINUOUS
 62
     7
100
AcDbText
 10
2891.40625
 20
505.6249999999999
 30
0.0
 40
34.375
  1
材質：スチール
 41
1.029301719225037
  7
EXCADSTD
100
AcDbText
  0
TEXT
  5
515
330
1F
100
AcDbEntity
  8
LAY-255
  6
CONTINUOUS
 62
     7
100
AcDbText
 10
3482.8125
 20
235.6249999999999
 30
0.0
 40
34.375
  1
１：１０
 41
0.9243863385026738
  7
EXCADSTD
100
AcDbText
  0
TEXT
  5
516
330
1F
100
AcDbEntity
  8
LAY-255
  6
CONTINUOUS
 62
     7
100
AcDbText
 10
3009.84375
 20
235.6249999999999
 30
0.0
 40
34.375
  1
２０／０８／０３
 41
0.9733971264935065
  7
EXCADSTD
100
AcDbText
  0
TEXT
  5
517
330
1F
100
AcDbEntity
  8
LAY-255
  6
CONTINUOUS
 62
     7
100
AcDbText
 10
3001.5625
 20
625.625
 30
0.0
 40
34.375
  1
縞鋼板製マシンハッチ
 41
1.016284949586777
  7
EXCADSTD
100
AcDbText
  0
TEXT
  5
518
330
1F
100
AcDbEntity
  8
LAY-255
  6
CONTINUOUS
 62
     7
100
AcDbText
 10
2893.75
 20
455.6249999999999
 30
0.0
 40
34.375
  1
受枠目地：ステンレス鋼
 41
1.012216953889409
  7
EXCADSTD
100
AcDbText
  0
TEXT
  5
519
330
1F
100
AcDbEntity
  8
LAY-255
  6
CONTINUOUS
 62
     7
100
AcDbText
 10
2892.65625
 20
355.6249999999999
 30
0.0
 40
34.375
  1
耐火材中蓋付き
 41
1.014779968107303
  7
EXCADSTD
100
AcDbText
  0
TEXT
  5
51A
330
1F
100
AcDbEntity
  8
LAY-255
  6
CONTINUOUS
 62
     7
100
AcDbText
 10
3007.5
 20
565.6249999999999
 30
0.0
 40
34.375
  1
ＳＦ－７０ＣＭ－６Ｆ型
 41
1.0041805868791
  7
EXCADSTD
100
AcDbText
  0
TEXT
  5
51B
330
1F
100
AcDbEntity
  8
LAY-255
  6
CONTINUOUS
 62
     7
100
AcDbText
 10
2892.03125
 20
405.6249999999999
 30
0.0
 40
34.375
  1
適用荷重：Ｔ－６
 41
1.000225024415584
  7
EXCADSTD
100
AcDbText
  0
ENDSEC
  0
SECTION
  2
OBJECTS
  0
DICTIONARY
  5
C
330
0
100
AcDbDictionary
  3
ACAD_GROUP
350
D
  3
ACAD_LAYOUT
350
1A
  3
ACAD_MATERIAL
350
43
  3
ACAD_MLEADERSTYLE
350
6B
  3
ACAD_MLINESTYLE
350
17
  3
ACAD_PLOTSETTINGS
350
19
  3
ACAD_SCALELIST
350
47
  3
ACAD_VISUALSTYLE
350
2A
  3
ACDBHEADERROUNDTRIPXREC
350
51C
  3
ACDBVARIABLEDICTIONARY
350
53D
  0
DICTIONARY
  5
548
330
8
100
AcDbDictionary
280
     1
  3
ACAD_XREC_ROUNDTRIP
360
549
  0
DICTIONARY
  5
D
102
{ACAD_REACTORS
330
C
102
}
330
C
100
AcDbDictionary
  0
DICTIONARY
  5
1A
102
{ACAD_REACTORS
330
C
102
}
330
C
100
AcDbDictionary
  0
DICTIONARY
  5
43
102
{ACAD_REACTORS
330
C
102
}
330
C
100
AcDbDictionary
  3
BYBLOCK
350
45
  3
BYLAYER
350
44
  3
GLOBAL
350
46
  0
DICTIONARY
  5
6B
102
{ACAD_REACTORS
330
C
102
}
330
C
100
AcDbDictionary
  3
STANDARD
350
6C
  0
DICTIONARY
  5
17
102
{ACAD_REACTORS
330
C
102
}
330
C
100
AcDbDictionary
  3
STANDARD
350
18
  0
DICTIONARY
  5
19
102
{ACAD_REACTORS
330
C
102
}
330
C
100
AcDbDictionary
  0
DICTIONARY
  5
47
102
{ACAD_REACTORS
330
C
102
}
330
C
100
AcDbDictionary
  3
A0
350
48
  3
A1
350
49
  3
A2
350
4A
  3
A3
350
4B
  3
A4
350
4C
  3
A5
350
4D
  3
A6
350
4E
  3
A7
350
4F
  3
A8
350
50
  3
A9
350
51
  3
B0
350
52
  3
B1
350
53
  3
B2
350
54
  3
B3
350
55
  3
B4
350
56
  3
B5
350
57
  3
B6
350
58
  3
B7
350
59
  3
B8
350
5A
  3
B9
350
5B
  3
C0
350
5C
  3
C1
350
5D
  3
C2
350
5E
  3
C3
350
5F
  3
C4
350
60
  3
C5
350
61
  3
C6
350
62
  3
C7
350
63
  3
C8
350
64
  3
C9
350
65
  3
D0
350
66
  3
D1
350
67
  3
D2
350
68
  0
DICTIONARY
  5
2A
102
{ACAD_REACTORS
330
C
102
}
330
C
100
AcDbDictionary
  3
2DWIREFRAME
350
2F
  3
BASIC
350
32
  3
BRIGHTEN
350
36
  3
COLORCHANGE
350
3A
  3
CONCEPTUAL
350
34
  3
DIM
350
35
  3
EDGECOLOROFF
350
3D
  3
FACEPATTERN
350
39
  3
FLAT
350
2B
  3
FLATWITHEDGES
350
2C
  3
GOURAUD
350
2D
  3
GOURAUDWITHEDGES
350
2E
  3
HIDDEN
350
31
  3
JITTEROFF
350
3B
  3
LINEPATTERN
350
38
  3
OVERHANGOFF
350
3C
  3
REALISTIC
350
33
  3
SHADED
350
42
  3
SHADED_WITH_EDGES
350
41
  3
SHADES_OF_GRAY
350
3E
  3
SKETCHY
350
3F
  3
THICKEN
350
37
  3
WIREFRAME
350
30
  3
X-RAY
350
40
  0
DICTIONARY
  5
51C
102
{ACAD_REACTORS
330
C
102
}
330
C
100
AcDbDictionary
  3
CEPSNID
350
526
  3
CEPSNTYPE
350
525
  3
DIMSTYLEDATA
350
53C
  3
FINGERPRINTGUID
350
527
  3
HYPERLINKBASE
350
51F
  3
INSUNITS
350
524
  3
LAYOUTDICT
350
521
  3
LWETCUNION
350
523
  3
PLOTSETDICT
350
522
  3
PSVPSCALE
350
529
  3
PUCSBASE
350
52C
  3
PUCSORGBACK
350
532
  3
PUCSORGBOTTOM
350
52E
  3
PUCSORGFRONT
350
531
  3
PUCSORGLEFT
350
52F
  3
PUCSORGRIGHT
350
530
  3
PUCSORGTOP
350
52D
  3
PUCSORTHOREF
350
52A
  3
PUCSORTHOVIEW
350
52B
  3
STYLESHEET
350
520
  3
TSTACKALIGN
350
51D
  3
TSTACKSIZE
350
51E
  3
UCSBASE
350
535
  3
UCSORGBACK
350
53B
  3
UCSORGBOTTOM
350
537
  3
UCSORGFRONT
350
53A
  3
UCSORGLEFT
350
538
  3
UCSORGRIGHT
350
539
  3
UCSORGTOP
350
536
  3
UCSORTHOREF
350
533
  3
UCSORTHOVIEW
350
534
  3
VERSIONGUID
350
528
  0
DICTIONARY
  5
53D
102
{ACAD_REACTORS
330
C
102
}
330
C
100
AcDbDictionary
  3
CANNOSCALE
350
54A
  3
CENTEREXE
350
544
  3
CENTERLTYPEFILE
350
545
  3
CMLEADERSTYLE
350
53F
  3
CTABLESTYLE
350
53E
  3
DIMASSOC
350
546
  3
HIDETEXT
350
547
  3
MSLTSCALE
350
54B
  3
PSOLHEIGHT
350
541
  3
PSOLWIDTH
350
540
  0
XRECORD
  5
549
102
{ACAD_REACTORS
330
548
102
}
330
548
100
AcDbXrecord
102
VTR_0.000_0.000_1.000_1.000_VISUALSTYLE
340
2F
102
VTR_0.000_0.000_1.000_1.000_GRIDDISPLAY
 70
     3
102
VTR_0.000_0.000_1.000_1.000_GRIDMAJOR
 70
     5
102
VTR_0.000_0.000_1.000_1.000_DEFAULTLIGHTING
280
     1
102
VTR_0.000_0.000_1.000_1.000_DEFAULTLIGHTINGTYPE
 70
     1
102
VTR_0.000_0.000_1.000_1.000_BRIGHTNESS
141
0.0
102
VTR_0.000_0.000_1.000_1.000_CONTRAST
142
0.0
  0
MATERIAL
  5
45
102
{ACAD_REACTORS
330
43
102
}
102
{ACAD_XDICTIONARY
360
54E
102
}
330
43
100
AcDbMaterial
  1
BYBLOCK
  0
MATERIAL
  5
44
102
{ACAD_REACTORS
330
43
102
}
102
{ACAD_XDICTIONARY
360
54C
102
}
330
43
100
AcDbMaterial
  1
BYLAYER
  0
MATERIAL
  5
46
102
{ACAD_REACTORS
330
43
102
}
102
{ACAD_XDICTIONARY
360
550
102
}
330
43
100
AcDbMaterial
  1
GLOBAL
  0
ACAD_PROXY_OBJECT
  5
6C
102
{ACAD_REACTORS
330
6B
102
}
330
6B
100
AcDbProxyObject
 90
      499
 91
      505
 93
      610
310
40901902A4063FBFFFFFE0000000000000020400000000000020404214DD185B99185C990000000000000104090141901A00000000000004100000000000000041025764000000000000039000
340
14
340
0
340
11
340
0
 94
        0
1001
ACAD_MLEADERVER
1070
     2
  0
MLINESTYLE
  5
18
102
{ACAD_REACTORS
330
17
102
}
330
17
100
AcDbMlineStyle
  2
Standard
 70
     0
  3

 62
   256
 51
90.0
 52
90.0
 71
     2
 49
0.5
 62
   256
  6
BYLAYER
 49
-0.5
 62
   256
  6
BYLAYER
  0
ACAD_PROXY_OBJECT
  5
48
102
{ACAD_REACTORS
330
47
102
}
330
47
100
AcDbProxyObject
 90
      499
 91
      503
 93
       41
310
903313A31580
  0
ACAD_PROXY_OBJECT
  5
49
102
{ACAD_REACTORS
330
47
102
}
330
47
100
AcDbProxyObject
 90
      499
 91
      503
 93
      105
310
903313A324000000000000004000
  0
ACAD_PROXY_OBJECT
  5
4A
102
{ACAD_REACTORS
330
47
102
}
330
47
100
AcDbProxyObject
 90
      499
 91
      503
 93
      105
310
903313A344000000000000104000
  0
ACAD_PROXY_OBJECT
  5
4B
102
{ACAD_REACTORS
330
47
102
}
330
47
100
AcDbProxyObject
 90
      499
 91
      503
 93
      105
310
903313A354000000000000144000
  0
ACAD_PROXY_OBJECT
  5
4C
102
{ACAD_REACTORS
330
47
102
}
330
47
100
AcDbProxyObject
 90
      499
 91
      503
 93
      105
310
903313A384000000000000204000
  0
ACAD_PROXY_OBJECT
  5
4D
102
{ACAD_REACTORS
330
47
102
}
330
47
100
AcDbProxyObject
 90
      499
 91
      503
 93
      113
310
904313A31304000000000000244000
  0
ACAD_PROXY_OBJECT
  5
4E
102
{ACAD_REACTORS
330
47
102
}
330
47
100
AcDbProxyObject
 90
      499
 91
      503
 93
      113
310
904313A31364000000000000304000
  0
ACAD_PROXY_OBJECT
  5
4F
102
{ACAD_REACTORS
330
47
102
}
330
47
100
AcDbProxyObject
 90
      499
 91
      503
 93
      113
310
904313A32304000000000000344000
  0
ACAD_PROXY_OBJECT
  5
50
102
{ACAD_REACTORS
330
47
102
}
330
47
100
AcDbProxyObject
 90
      499
 91
      503
 93
      113
310
904313A333040000000000003E4000
  0
ACAD_PROXY_OBJECT
  5
51
102
{ACAD_REACTORS
330
47
102
}
330
47
100
AcDbProxyObject
 90
      499
 91
      503
 93
      113
310
904313A34304000000000000444000
  0
ACAD_PROXY_OBJECT
  5
52
102
{ACAD_REACTORS
330
47
102
}
330
47
100
AcDbProxyObject
 90
      499
 91
      503
 93
      113
310
904313A35304000000000000494000
  0
ACAD_PROXY_OBJECT
  5
53
102
{ACAD_REACTORS
330
47
102
}
330
47
100
AcDbProxyObject
 90
      499
 91
      503
 93
      121
310
905313A3130304000000000000594000
  0
ACAD_PROXY_OBJECT
  5
54
102
{ACAD_REACTORS
330
47
102
}
330
47
100
AcDbProxyObject
 90
      499
 91
      503
 93
      105
310
903323A310000000000000010100
  0
ACAD_PROXY_OBJECT
  5
55
102
{ACAD_REACTORS
330
47
102
}
330
47
100
AcDbProxyObject
 90
      499
 91
      503
 93
      105
310
903343A310000000000000410100
  0
ACAD_PROXY_OBJECT
  5
56
102
{ACAD_REACTORS
330
47
102
}
330
47
100
AcDbProxyObject
 90
      499
 91
      503
 93
      105
310
903383A310000000000000810100
  0
ACAD_PROXY_OBJECT
  5
57
102
{ACAD_REACTORS
330
47
102
}
330
47
100
AcDbProxyObject
 90
      499
 91
      503
 93
      113
310
90431303A310000000000000910100
  0
ACAD_PROXY_OBJECT
  5
58
102
{ACAD_REACTORS
330
47
102
}
330
47
100
AcDbProxyObject
 90
      499
 91
      503
 93
      121
310
9053130303A310000000000001650100
  0
ACAD_PROXY_OBJECT
  5
59
102
{ACAD_REACTORS
330
47
102
}
330
47
100
AcDbProxyObject
 90
      499
 91
      503
 93
      257
310
90E312F31323822203D2031272D3022000000000000200FC000000000000284000
  0
ACAD_PROXY_OBJECT
  5
5A
102
{ACAD_REACTORS
330
47
102
}
330
47
100
AcDbProxyObject
 90
      499
 91
      503
 93
      249
310
90D312F363422203D2031272D3022000000000000240FC000000000000284000
  0
ACAD_PROXY_OBJECT
  5
5B
102
{ACAD_REACTORS
330
47
102
}
330
47
100
AcDbProxyObject
 90
      499
 91
      503
 93
      249
310
90D312F333222203D2031272D3022000000000000280FC000000000000284000
  0
ACAD_PROXY_OBJECT
  5
5C
102
{ACAD_REACTORS
330
47
102
}
330
47
100
AcDbProxyObject
 90
      499
 91
      503
 93
      249
310
90D312F313622203D2031272D30220000000000002C0FC000000000000284000
  0
ACAD_PROXY_OBJECT
  5
5D
102
{ACAD_REACTORS
330
47
102
}
330
47
100
AcDbProxyObject
 90
      499
 91
      503
 93
      249
310
90D332F333222203D2031272D30220000000000002E0FC000000000000284000
  0
ACAD_PROXY_OBJECT
  5
5E
102
{ACAD_REACTORS
330
47
102
}
330
47
100
AcDbProxyObject
 90
      499
 91
      503
 93
      241
310
90C312F3822203D2031272D3022000000000000300FC000000000000284000
  0
ACAD_PROXY_OBJECT
  5
5F
102
{ACAD_REACTORS
330
47
102
}
330
47
100
AcDbProxyObject
 90
      499
 91
      503
 93
      249
310
90D332F313622203D2031272D3022000000000000320FC000000000000284000
  0
ACAD_PROXY_OBJECT
  5
60
102
{ACAD_REACTORS
330
47
102
}
330
47
100
AcDbProxyObject
 90
      499
 91
      503
 93
      241
310
90C312F3422203D2031272D3022000000000000340FC000000000000284000
  0
ACAD_PROXY_OBJECT
  5
61
102
{ACAD_REACTORS
330
47
102
}
330
47
100
AcDbProxyObject
 90
      499
 91
      503
 93
      241
310
90C332F3822203D2031272D3022000000000000360FC000000000000284000
  0
ACAD_PROXY_OBJECT
  5
62
102
{ACAD_REACTORS
330
47
102
}
330
47
100
AcDbProxyObject
 90
      499
 91
      503
 93
      241
310
90C312F3222203D2031272D3022000000000000380FC000000000000284000
  0
ACAD_PROXY_OBJECT
  5
63
102
{ACAD_REACTORS
330
47
102
}
330
47
100
AcDbProxyObject
 90
      499
 91
      503
 93
      241
310
90C332F3422203D2031272D30220000000000003A0FC000000000000284000
  0
ACAD_PROXY_OBJECT
  5
64
102
{ACAD_REACTORS
330
47
102
}
330
47
100
AcDbProxyObject
 90
      499
 91
      503
 93
      161
310
90A3122203D2031272D30224000000000000284000
  0
ACAD_PROXY_OBJECT
  5
65
102
{ACAD_REACTORS
330
47
102
}
330
47
100
AcDbProxyObject
 90
      499
 91
      503
 93
      257
310
90E312D312F3222203D2031272D30220000000000003E0FC000000000000284000
  0
ACAD_PROXY_OBJECT
  5
66
102
{ACAD_REACTORS
330
47
102
}
330
47
100
AcDbProxyObject
 90
      499
 91
      503
 93
      225
310
90A3322203D2031272D302200000000000002100000000000000284000
  0
ACAD_PROXY_OBJECT
  5
67
102
{ACAD_REACTORS
330
47
102
}
330
47
100
AcDbProxyObject
 90
      499
 91
      503
 93
      225
310
90A3622203D2031272D302200000000000006100000000000000284000
  0
ACAD_PROXY_OBJECT
  5
68
102
{ACAD_REACTORS
330
47
102
}
330
47
100
AcDbProxyObject
 90
      499
 91
      503
 93
      249
310
90D31272D3022203D2031272D30220000000000000A100000000000000284000
  0
ACAD_PROXY_OBJECT
  5
2F
102
{ACAD_REACTORS
330
2A
102
}
330
2A
100
AcDbProxyObject
 90
      499
 91
      501
 93
      436
310
42CC9915DA5C99599C985B595049028333333333333E33F0000000000000F90107901411070040501600405405064090741402480A0340
1001
ACAD
1000
AcDbSavedByObjectVersion
1070
     0
  0
ACAD_PROXY_OBJECT
  5
32
102
{ACAD_REACTORS
330
2A
102
}
330
2A
100
AcDbProxyObject
 90
      499
 91
      501
 93
      388
310
4150985CDA58D07406404333333333333E33F0000000000000F90107A41107004050150841D405064090741402480A0350
1001
ACAD
1000
AcDbSavedByObjectVersion
1070
     0
  0
ACAD_PROXY_OBJECT
  5
36
102
{ACAD_REACTORS
330
2A
102
}
330
2A
100
AcDbProxyObject
 90
      499
 91
      501
 93
      428
310
42109C9A59DA1D195B90C409028333333333333E33F0000000000000F9010790141107004050150841D405064090741402480A029950
1001
ACAD
1000
AcDbSavedByObjectVersion
1070
     0
  0
ACAD_PROXY_OBJECT
  5
3A
102
{ACAD_REACTORS
330
2A
102
}
330
2A
100
AcDbProxyObject
 90
      499
 91
      501
 93
      452
310
42D0DBDB1BDC90DA185B99D95104090240C333333333333E33F0000000000000F90108901411070040501508421405064090741402480A0350
1001
ACAD
1000
AcDbSavedByObjectVersion
1070
     0
  0
ACAD_PROXY_OBJECT
  5
34
102
{ACAD_REACTORS
330
2A
102
}
330
2A
100
AcDbProxyObject
 90
      499
 91
      501
 93
      500
310
4290DBDB98D95C1D1D585B10940D028333333333333E33F0000000000000F90107902409070040501000000000018199010841D405064090740C02480A0340
1001
ACAD
1000
AcDbSavedByObjectVersion
1070
     0
  0
ACAD_PROXY_OBJECT
  5
35
102
{ACAD_REACTORS
330
2A
102
}
330
2A
100
AcDbProxyObject
 90
      499
 91
      501
 93
      412
310
40D11A5B50B409028333333333333E33F0000000000000F9010790141107004050150841D405064090741402480A02677FFFFFD0
1001
ACAD
1000
AcDbSavedByObjectVersion
1070
     0
  0
ACAD_PROXY_OBJECT
  5
3D
102
{ACAD_REACTORS
330
2A
102
}
330
2A
100
AcDbProxyObject
 90
      499
 91
      501
 93
      452
310
43115919D950DBDB1BDC93D999916409028333333333333E33F0000000000000F9010790141107004050150841D405064090741402480A0350
1001
ACAD
1000
AcDbSavedByObjectVersion
1070
     0
  0
ACAD_PROXY_OBJECT
  5
39
102
{ACAD_REACTORS
330
2A
102
}
330
2A
100
AcDbProxyObject
 90
      499
 91
      501
 93
      444
310
42D19858D95C185D1D195C9B90F409028333333333333E33F0000000000000F9010790141107004050150841D405064090741402480A0350
1001
ACAD
1000
AcDbSavedByObjectVersion
1070
     0
  0
ACAD_PROXY_OBJECT
  5
2B
102
{ACAD_REACTORS
330
2A
102
}
330
2A
100
AcDbProxyObject
 90
      499
 91
      501
 93
      380
310
41119B185D240901404333333333333E33F0000000000000F9010740A907004050150841D405064090741402480A1B50
1001
ACAD
1000
AcDbSavedByObjectVersion
1070
     0
  0
ACAD_PROXY_OBJECT
  5
2C
102
{ACAD_REACTORS
330
2A
102
}
330
2A
100
AcDbProxyObject
 90
      499
 91
      501
 93
      468
310
43519B185D15DA5D1A115919D95CD0140901404333333333333E33F0000000000000F90107409019070040501600405405064090741402480A1B50
1001
ACAD
1000
AcDbSavedByObjectVersion
1070
     0
  0
ACAD_PROXY_OBJECT
  5
2D
102
{ACAD_REACTORS
330
2A
102
}
330
2A
100
AcDbProxyObject
 90
      499
 91
      501
 93
      404
310
41D1DBDD5C985D5910240902404333333333333E33F0000000000000F9010740A9070040501641D405064090741402480A1B50
1001
ACAD
1000
AcDbSavedByObjectVersion
1070
     0
  0
ACAD_PROXY_OBJECT
  5
2E
102
{ACAD_REACTORS
330
2A
102
}
330
2A
100
AcDbProxyObject
 90
      499
 91
      501
 93
      492
310
4411DBDD5C985D5915DA5D1A115919D95CD0340902404333333333333E33F0000000000000F90107409019070040501600405405064090741402480A1B50
1001
ACAD
1000
AcDbSavedByObjectVersion
1070
     0
  0
ACAD_PROXY_OBJECT
  5
31
102
{ACAD_REACTORS
330
2A
102
}
330
2A
100
AcDbProxyObject
 90
      499
 91
      501
 93
      476
310
41921A5919195B90640502408333333333333E33F0000000000000F901079024090700405020000000000001110200405405064090740C02480A0340
1001
ACAD
1000
AcDbSavedByObjectVersion
1070
     0
  0
ACAD_PROXY_OBJECT
  5
3B
102
{ACAD_REACTORS
330
2A
102
}
330
2A
100
AcDbProxyObject
 90
      499
 91
      501
 93
      428
310
42529A5D1D195C93D999914409028333333333333E33F0000000000000F9010790141107004050150A41D405064090741402480A0350
1001
ACAD
1000
AcDbSavedByObjectVersion
1070
     0
  0
ACAD_PROXY_OBJECT
  5
38
102
{ACAD_REACTORS
330
2A
102
}
330
2A
100
AcDbProxyObject
 90
      499
 91
      501
 93
      444
310
42D31A5B995C185D1D195C9B90E409028333333333333E33F0000000000000F9010790141107004050750841D405064090741402483A0350
1001
ACAD
1000
AcDbSavedByObjectVersion
1070
     0
  0
ACAD_PROXY_OBJECT
  5
3C
102
{ACAD_REACTORS
330
2A
102
}
330
2A
100
AcDbProxyObject
 90
      499
 91
      501
 93
      444
310
42D3DD995C9A185B99D3D999915409028333333333333E33F0000000000000F9010790141107004050150941D405064090741402480A0350
1001
ACAD
1000
AcDbSavedByObjectVersion
1070
     0
  0
ACAD_PROXY_OBJECT
  5
33
102
{ACAD_REACTORS
330
2A
102
}
330
2A
100
AcDbProxyObject
 90
      499
 91
      501
 93
      428
310
425499585B1A5CDD1A58D08409038333333333333E33F0000000000000F9010740A907004050150800405405064090740C02480A1B40
1001
ACAD
1000
AcDbSavedByObjectVersion
1070
     0
  0
ACAD_PROXY_OBJECT
  5
42
102
{ACAD_REACTORS
330
2A
102
}
330
2A
100
AcDbProxyObject
 90
      499
 91
      501
 93
      420
310
4194DA1859195911B40902404333333333333E33F0000000000000F9010740A41107004050150800405405064090840C02480A0B40
1001
ACAD
1000
AcDbSavedByObjectVersion
1070
     0
  0
ACAD_PROXY_OBJECT
  5
41
102
{ACAD_REACTORS
330
2A
102
}
330
2A
100
AcDbProxyObject
 90
      499
 91
      501
 93
      516
310
4454DA18591959081DDA5D1A08195919D95CD1A40902404333333333333E33F0000000000000F901074090142907004050250800405405064090740C02480A0B40
1001
ACAD
1000
AcDbSavedByObjectVersion
1070
     0
  0
ACAD_PROXY_OBJECT
  5
3E
102
{ACAD_REACTORS
330
2A
102
}
330
2A
100
AcDbProxyObject
 90
      499
 91
      501
 93
      532
310
4394DA1859195CC81BD98811DC985E5174090240C333333333333E33F0000000000000F901079024090741D01000000000000111010841D405064090740C02480A0340
1001
ACAD
1000
AcDbSavedByObjectVersion
1070
     0
  0
ACAD_PROXY_OBJECT
  5
3F
102
{ACAD_REACTORS
330
2A
102
}
330
2A
100
AcDbProxyObject
 90
      499
 91
      501
 93
      476
310
41D4DAD95D18DA1E51840502408333333333333E33F0000000000000F901079024090741D01000000000000111010B41D405064090741802480A0340
1001
ACAD
1000
AcDbSavedByObjectVersion
1070
     0
  0
ACAD_PROXY_OBJECT
  5
37
102
{ACAD_REACTORS
330
2A
102
}
330
2A
100
AcDbProxyObject
 90
      499
 91
      501
 93
      412
310
41D51A1A58DAD95B90D409028333333333333E33F0000000000000F9010790141107004050150C41D405064090741402480A0350
1001
ACAD
1000
AcDbSavedByObjectVersion
1070
     0
  0
ACAD_PROXY_OBJECT
  5
30
102
{ACAD_REACTORS
330
2A
102
}
330
2A
100
AcDbProxyObject
 90
      499
 91
      501
 93
      420
310
4255DA5C99599C985B595059028333333333333E33F0000000000000F90107901411070040501600405405064090740C02480A0340
1001
ACAD
1000
AcDbSavedByObjectVersion
1070
     0
  0
ACAD_PROXY_OBJECT
  5
40
102
{ACAD_REACTORS
330
2A
102
}
330
2A
100
AcDbProxyObject
 90
      499
 91
      501
 93
      404
310
41560B54985E51940902404000000000000E03F0000000000000F9010740501907004050150841D405064090740C02480A1B40
1001
ACAD
1000
AcDbSavedByObjectVersion
1070
     0
  0
XRECORD
  5
526
102
{ACAD_REACTORS
330
51C
102
}
330
51C
100
AcDbXrecord
340
0
  0
XRECORD
  5
525
102
{ACAD_REACTORS
330
51C
102
}
330
51C
100
AcDbXrecord
 90
        0
  0
XRECORD
  5
53C
102
{ACAD_REACTORS
330
51C
102
}
330
51C
100
AcDbXrecord
1000
DSTYLE
1002
{
1070
   340
340
11
1002
}
  0
XRECORD
  5
527
102
{ACAD_REACTORS
330
51C
102
}
330
51C
100
AcDbXrecord
  1
{dfed05cd-3396-4048-90d7-5bdb0c4519dd}
  0
XRECORD
  5
51F
102
{ACAD_REACTORS
330
51C
102
}
330
51C
100
AcDbXrecord
  1

  0
XRECORD
  5
524
102
{ACAD_REACTORS
330
51C
102
}
330
51C
100
AcDbXrecord
 90
        4
  0
XRECORD
  5
521
102
{ACAD_REACTORS
330
51C
102
}
330
51C
100
AcDbXrecord
340
1A
  0
XRECORD
  5
523
102
{ACAD_REACTORS
330
51C
102
}
330
51C
100
AcDbXrecord
 90
    10781
  0
XRECORD
  5
522
102
{ACAD_REACTORS
330
51C
102
}
330
51C
100
AcDbXrecord
340
19
  0
XRECORD
  5
529
102
{ACAD_REACTORS
330
51C
102
}
330
51C
100
AcDbXrecord
 40
0.0
  0
XRECORD
  5
52C
102
{ACAD_REACTORS
330
51C
102
}
330
51C
100
AcDbXrecord
340
0
  0
XRECORD
  5
532
102
{ACAD_REACTORS
330
51C
102
}
330
51C
100
AcDbXrecord
 10
0.0
 20
0.0
 30
0.0
  0
XRECORD
  5
52E
102
{ACAD_REACTORS
330
51C
102
}
330
51C
100
AcDbXrecord
 10
0.0
 20
0.0
 30
0.0
  0
XRECORD
  5
531
102
{ACAD_REACTORS
330
51C
102
}
330
51C
100
AcDbXrecord
 10
0.0
 20
0.0
 30
0.0
  0
XRECORD
  5
52F
102
{ACAD_REACTORS
330
51C
102
}
330
51C
100
AcDbXrecord
 10
0.0
 20
0.0
 30
0.0
  0
XRECORD
  5
530
102
{ACAD_REACTORS
330
51C
102
}
330
51C
100
AcDbXrecord
 10
0.0
 20
0.0
 30
0.0
  0
XRECORD
  5
52D
102
{ACAD_REACTORS
330
51C
102
}
330
51C
100
AcDbXrecord
 10
0.0
 20
0.0
 30
0.0
  0
XRECORD
  5
52A
102
{ACAD_REACTORS
330
51C
102
}
330
51C
100
AcDbXrecord
340
0
  0
XRECORD
  5
52B
102
{ACAD_REACTORS
330
51C
102
}
330
51C
100
AcDbXrecord
 70
     0
  0
XRECORD
  5
520
102
{ACAD_REACTORS
330
51C
102
}
330
51C
100
AcDbXrecord
  1

  0
XRECORD
  5
51D
102
{ACAD_REACTORS
330
51C
102
}
330
51C
100
AcDbXrecord
 90
        1
  0
XRECORD
  5
51E
102
{ACAD_REACTORS
330
51C
102
}
330
51C
100
AcDbXrecord
 90
       70
  0
XRECORD
  5
535
102
{ACAD_REACTORS
330
51C
102
}
330
51C
100
AcDbXrecord
340
0
  0
XRECORD
  5
53B
102
{ACAD_REACTORS
330
51C
102
}
330
51C
100
AcDbXrecord
 10
0.0
 20
0.0
 30
0.0
  0
XRECORD
  5
537
102
{ACAD_REACTORS
330
51C
102
}
330
51C
100
AcDbXrecord
 10
0.0
 20
0.0
 30
0.0
  0
XRECORD
  5
53A
102
{ACAD_REACTORS
330
51C
102
}
330
51C
100
AcDbXrecord
 10
0.0
 20
0.0
 30
0.0
  0
XRECORD
  5
538
102
{ACAD_REACTORS
330
51C
102
}
330
51C
100
AcDbXrecord
 10
0.0
 20
0.0
 30
0.0
  0
XRECORD
  5
539
102
{ACAD_REACTORS
330
51C
102
}
330
51C
100
AcDbXrecord
 10
0.0
 20
0.0
 30
0.0
  0
XRECORD
  5
536
102
{ACAD_REACTORS
330
51C
102
}
330
51C
100
AcDbXrecord
 10
0.0
 20
0.0
 30
0.0
  0
XRECORD
  5
533
102
{ACAD_REACTORS
330
51C
102
}
330
51C
100
AcDbXrecord
340
0
  0
XRECORD
  5
534
102
{ACAD_REACTORS
330
51C
102
}
330
51C
100
AcDbXrecord
 70
     0
  0
XRECORD
  5
528
102
{ACAD_REACTORS
330
51C
102
}
330
51C
100
AcDbXrecord
  1
{FAEB1C32-E019-11D5-929B-00C0DF256EC4}
  0
DICTIONARYVAR
  5
54A
102
{ACAD_REACTORS
330
53D
102
}
330
53D
100
DictionaryVariables
280
     0
  1
1:1
  0
DICTIONARYVAR
  5
544
102
{ACAD_REACTORS
330
53D
102
}
330
53D
100
DictionaryVariables
280
     0
  1
3.500000
  0
DICTIONARYVAR
  5
545
102
{ACAD_REACTORS
330
53D
102
}
330
53D
100
DictionaryVariables
280
     0
  1
acadiso.lin
  0
DICTIONARYVAR
  5
53F
102
{ACAD_REACTORS
330
53D
102
}
330
53D
100
DictionaryVariables
280
     0
  1
Standard
  0
DICTIONARYVAR
  5
53E
102
{ACAD_REACTORS
330
53D
102
}
330
53D
100
DictionaryVariables
280
     0
  1
Standard
  0
DICTIONARYVAR
  5
546
102
{ACAD_REACTORS
330
53D
102
}
330
53D
100
DictionaryVariables
280
     0
  1
2
  0
DICTIONARYVAR
  5
547
102
{ACAD_REACTORS
330
53D
102
}
330
53D
100
DictionaryVariables
280
     0
  1
1
  0
DICTIONARYVAR
  5
54B
102
{ACAD_REACTORS
330
53D
102
}
330
53D
100
DictionaryVariables
280
     0
  1
1
  0
DICTIONARYVAR
  5
541
102
{ACAD_REACTORS
330
53D
102
}
330
53D
100
DictionaryVariables
280
     0
  1
80.000000
  0
DICTIONARYVAR
  5
540
102
{ACAD_REACTORS
330
53D
102
}
330
53D
100
DictionaryVariables
280
     0
  1
5.000000
  0
DICTIONARY
  5
54E
330
45
100
AcDbDictionary
280
     1
  3
ACAD_XREC_ROUNDTRIP
360
54F
  0
DICTIONARY
  5
54C
330
44
100
AcDbDictionary
280
     1
  3
ACAD_XREC_ROUNDTRIP
360
54D
  0
DICTIONARY
  5
550
330
46
100
AcDbDictionary
280
     1
  3
ACAD_XREC_ROUNDTRIP
360
551
  0
XRECORD
  5
54F
102
{ACAD_REACTORS
330
54E
102
}
330
54E
100
AcDbXrecord
102
MATERIAL
148
0.0
149
0.0
149
0.0
 93
        0
 94
      127
282
     0
 72
     1
 77
     1
171
     1
175
     1
179
     1
273
     0
  0
XRECORD
  5
54D
102
{ACAD_REACTORS
330
54C
102
}
330
54C
100
AcDbXrecord
102
MATERIAL
148
0.0
149
0.0
149
0.0
 93
        0
 94
      127
282
     0
 72
     1
 77
     1
171
     1
175
     1
179
     1
273
     0
  0
XRECORD
  5
551
102
{ACAD_REACTORS
330
550
102
}
330
550
100
AcDbXrecord
102
MATERIAL
148
0.0
149
0.0
149
0.0
 93
        0
 94
      127
282
     0
 72
     1
 77
     1
171
     1
175
     1
179
     1
273
     0
  0
ENDSEC
  0
EOF
