  0
SECTION
  2
HEADER
  9
$ACADVER
  1
AC1014
  9
$ACADMAINTVER
 70
     9
  9
$DWGCODEPAGE
  3
ANSI_932
  9
$INSBASE
 10
0.0
 20
0.0
 30
0.0
  9
$EXTMIN
 10
49.99999999999998
 20
100.0
 30
0.0
  9
$EXTMAX
 10
3850.0
 20
2800.0
 30
0.0
  9
$LIMMIN
 10
0.0
 20
0.0
  9
$LIMMAX
 10
420.0
 20
297.0
  9
$ORTHOMODE
 70
     0
  9
$REGENMODE
 70
     1
  9
$FILLMODE
 70
     1
  9
$QTEXTMODE
 70
     0
  9
$MIRRTEXT
 70
     1
  9
$DRAGMODE
 70
     2
  9
$LTSCALE
 40
0.2
  9
$OSMODE
 70
    37
  9
$ATTMODE
 70
     1
  9
$TEXTSIZE
 40
2.5
  9
$TRACEWID
 40
1.0
  9
$TEXTSTYLE
  7
STANDARD
  9
$CLAYER
  8
LAY-10
  9
$CELTYPE
  6
BYLAYER
  9
$CECOLOR
 62
   256
  9
$CELTSCALE
 40
1.0
  9
$DELOBJ
 70
     1
  9
$DISPSILH
 70
     0
  9
$DIMSCALE
 40
1.0
  9
$DIMASZ
 40
2.5
  9
$DIMEXO
 40
0.625
  9
$DIMDLI
 40
3.75
  9
$DIMRND
 40
0.0
  9
$DIMDLE
 40
0.0
  9
$DIMEXE
 40
1.25
  9
$DIMTP
 40
0.0
  9
$DIMTM
 40
0.0
  9
$DIMTXT
 40
2.5
  9
$DIMCEN
 40
2.5
  9
$DIMTSZ
 40
0.0
  9
$DIMTOL
 70
     0
  9
$DIMLIM
 70
     0
  9
$DIMTIH
 70
     0
  9
$DIMTOH
 70
     0
  9
$DIMSE1
 70
     0
  9
$DIMSE2
 70
     0
  9
$DIMTAD
 70
     1
  9
$DIMZIN
 70
     8
  9
$DIMBLK
  1

  9
$DIMASO
 70
     1
  9
$DIMSHO
 70
     1
  9
$DIMPOST
  1

  9
$DIMAPOST
  1

  9
$DIMALT
 70
     0
  9
$DIMALTD
 70
     3
  9
$DIMALTF
 40
0.03937007874016
  9
$DIMLFAC
 40
1.0
  9
$DIMTOFL
 70
     1
  9
$DIMTVP
 40
0.0
  9
$DIMTIX
 70
     0
  9
$DIMSOXD
 70
     0
  9
$DIMSAH
 70
     0
  9
$DIMBLK1
  1

  9
$DIMBLK2
  1

  9
$DIMSTYLE
  2
ISO-25
  9
$DIMCLRD
 70
     0
  9
$DIMCLRE
 70
     0
  9
$DIMCLRT
 70
     0
  9
$DIMTFAC
 40
1.0
  9
$DIMGAP
 40
0.625
  9
$DIMJUST
 70
     0
  9
$DIMSD1
 70
     0
  9
$DIMSD2
 70
     0
  9
$DIMTOLJ
 70
     0
  9
$DIMTZIN
 70
     8
  9
$DIMALTZ
 70
     0
  9
$DIMALTTZ
 70
     0
  9
$DIMFIT
 70
     3
  9
$DIMUPT
 70
     0
  9
$DIMUNIT
 70
     2
  9
$DIMDEC
 70
     2
  9
$DIMTDEC
 70
     2
  9
$DIMALTU
 70
     2
  9
$DIMALTTD
 70
     3
  9
$DIMTXSTY
  7
STANDARD
  9
$DIMAUNIT
 70
     0
  9
$LUNITS
 70
     2
  9
$LUPREC
 70
     4
  9
$SKETCHINC
 40
1.0
  9
$FILLETRAD
 40
10.0
  9
$AUNITS
 70
     0
  9
$AUPREC
 70
     0
  9
$MENU
  1
.
  9
$ELEVATION
 40
0.0
  9
$PELEVATION
 40
0.0
  9
$THICKNESS
 40
0.0
  9
$LIMCHECK
 70
     0
  9
$CHAMFERA
 40
0.0
  9
$CHAMFERB
 40
0.0
  9
$CHAMFERC
 40
0.0
  9
$CHAMFERD
 40
0.0
  9
$SKPOLY
 70
     0
  9
$TDCREATE
 40
2459229.333649525
  9
$TDUPDATE
 40
2459229.333650347
  9
$TDINDWG
 40
0.0000000116
  9
$TDUSRTIMER
 40
0.0000000116
  9
$USRTIMER
 70
     1
  9
$ANGBASE
 50
0.0
  9
$ANGDIR
 70
     0
  9
$PDMODE
 70
     0
  9
$PDSIZE
 40
0.0
  9
$PLINEWID
 40
0.0
  9
$COORDS
 70
     1
  9
$SPLFRAME
 70
     0
  9
$SPLINETYPE
 70
     6
  9
$SPLINESEGS
 70
     8
  9
$ATTDIA
 70
     0
  9
$ATTREQ
 70
     1
  9
$HANDLING
 70
     1
  9
$HANDSEED
  5
719
  9
$SURFTAB1
 70
     6
  9
$SURFTAB2
 70
     6
  9
$SURFTYPE
 70
     6
  9
$SURFU
 70
     6
  9
$SURFV
 70
     6
  9
$UCSNAME
  2

  9
$UCSORG
 10
0.0
 20
0.0
 30
0.0
  9
$UCSXDIR
 10
1.0
 20
0.0
 30
0.0
  9
$UCSYDIR
 10
0.0
 20
1.0
 30
0.0
  9
$PUCSNAME
  2

  9
$PUCSORG
 10
0.0
 20
0.0
 30
0.0
  9
$PUCSXDIR
 10
1.0
 20
0.0
 30
0.0
  9
$PUCSYDIR
 10
0.0
 20
1.0
 30
0.0
  9
$USERI1
 70
     0
  9
$USERI2
 70
     0
  9
$USERI3
 70
     0
  9
$USERI4
 70
     0
  9
$USERI5
 70
     0
  9
$USERR1
 40
0.0
  9
$USERR2
 40
0.0
  9
$USERR3
 40
0.0
  9
$USERR4
 40
0.0
  9
$USERR5
 40
0.0
  9
$WORLDVIEW
 70
     1
  9
$SHADEDGE
 70
     3
  9
$SHADEDIF
 70
    70
  9
$TILEMODE
 70
     1
  9
$MAXACTVP
 70
    64
  9
$PINSBASE
 10
0.0
 20
0.0
 30
0.0
  9
$PLIMCHECK
 70
     0
  9
$PEXTMIN
 10
1.000000000000000E+20
 20
1.000000000000000E+20
 30
1.000000000000000E+20
  9
$PEXTMAX
 10
-1.000000000000000E+20
 20
-1.000000000000000E+20
 30
-1.000000000000000E+20
  9
$PLIMMIN
 10
0.0
 20
0.0
  9
$PLIMMAX
 10
420.0
 20
297.0
  9
$UNITMODE
 70
     0
  9
$VISRETAIN
 70
     1
  9
$PLINEGEN
 70
     0
  9
$PSLTSCALE
 70
     1
  9
$TREEDEPTH
 70
  3020
  9
$PICKSTYLE
 70
     1
  9
$CMLSTYLE
  2
STANDARD
  9
$CMLJUST
 70
     0
  9
$CMLSCALE
 40
20.0
  9
$PROXYGRAPHICS
 70
     1
  9
$MEASUREMENT
 70
     1
  0
ENDSEC
  0
SECTION
  2
CLASSES
  0
CLASS
  1
ACDBDICTIONARYWDFLT
  2
AcDbDictionaryWithDefault
  3
ObjectDBX Classes
 90
        0
280
     0
281
     0
  0
CLASS
  1
VISUALSTYLE
  2
AcDbVisualStyle
  3
ObjectDBX Classes
 90
     4095
280
     0
281
     0
  0
CLASS
  1
MATERIAL
  2
AcDbMaterial
  3
ObjectDBX Classes
 90
     1153
280
     0
281
     0
  0
CLASS
  1
SCALE
  2
AcDbScale
  3
ObjectDBX Classes
 90
     1153
280
     0
281
     0
  0
CLASS
  1
TABLESTYLE
  2
AcDbTableStyle
  3
ObjectDBX Classes
 90
     4095
280
     0
281
     0
  0
CLASS
  1
MLEADERSTYLE
  2
AcDbMLeaderStyle
  3
ACDB_MLEADERSTYLE_CLASS
 90
     4095
280
     0
281
     0
  0
CLASS
  1
SUN
  2
AcDbSun
  3
SCENEOE
 90
     1153
280
     0
281
     0
  0
CLASS
  1
DICTIONARYVAR
  2
AcDbDictionaryVar
  3
ObjectDBX Classes
 90
        0
280
     0
281
     0
  0
CLASS
  1
XRECORD
  2
AcDbXrecord
  3
ObjectDBX Classes
 90
        0
280
     0
281
     0
  0
CLASS
  1
LWPOLYLINE
  2
AcDbPolyline
  3
ObjectDBX Classes
 90
        0
280
     0
281
     1
  0
CLASS
  1
HATCH
  2
AcDbHatch
  3
ObjectDBX Classes
 90
        0
280
     0
281
     1
  0
CLASS
  1
ACDBPLACEHOLDER
  2
AcDbPlaceHolder
  3
ObjectDBX Classes
 90
        0
280
     0
281
     0
  0
CLASS
  1
LAYOUT
  2
AcDbLayout
  3
ObjectDBX Classes
 90
        0
280
     0
281
     0
  0
ENDSEC
  0
SECTION
  2
TABLES
  0
TABLE
  2
VPORT
  5
8
102
{ACAD_XDICTIONARY
360
70E
102
}
330
0
100
AcDbSymbolTable
 70
     1
  0
VPORT
  5
29
330
8
100
AcDbSymbolTableRecord
100
AcDbViewportTableRecord
  2
*ACTIVE
 70
     0
 10
0.0
 20
0.0
 11
1.0
 21
1.0
 12
1950.0
 22
1450.0
 13
0.0
 23
0.0
 14
10.0
 24
10.0
 15
10.0
 25
10.0
 16
0.0
 26
0.0
 36
1.0
 17
0.0
 27
0.0
 37
0.0
 40
2700.0
 41
1.407407407407408
 42
50.0
 43
0.0
 44
0.0
 50
0.0
 51
0.0
 71
     0
 72
  1000
 73
     1
 74
     3
 75
     0
 76
     0
 77
     0
 78
     0
  0
ENDTAB
  0
TABLE
  2
LTYPE
  5
5
330
0
100
AcDbSymbolTable
 70
     6
  0
LTYPE
  5
14
330
5
100
AcDbSymbolTableRecord
100
AcDbLinetypeTableRecord
  2
BYBLOCK
 70
     0
  3

 72
    65
 73
     0
 40
0.0
  0
LTYPE
  5
15
330
5
100
AcDbSymbolTableRecord
100
AcDbLinetypeTableRecord
  2
BYLAYER
 70
     0
  3

 72
    65
 73
     0
 40
0.0
  0
LTYPE
  5
16
330
5
100
AcDbSymbolTableRecord
100
AcDbLinetypeTableRecord
  2
CONTINUOUS
 70
     0
  3
Solid line
 72
    65
 73
     0
 40
0.0
  0
LTYPE
  5
6E
330
5
100
AcDbSymbolTableRecord
100
AcDbLinetypeTableRecord
  2
HIDDEN
 70
     0
  3
Hidden __ __ __ __ __ __ __ __ __ __ __ __ __ __
 72
    65
 73
     2
 40
9.524999999999999
 49
6.35
 74
     0
 49
-3.175
 74
     0
  0
LTYPE
  5
6F
330
5
100
AcDbSymbolTableRecord
100
AcDbLinetypeTableRecord
  2
CENTER
 70
     0
  3
Center ____ _ ____ _ ____ _ ____ _ ____ _ ____
 72
    65
 73
     4
 40
50.8
 49
31.75
 74
     0
 49
-6.35
 74
     0
 49
6.35
 74
     0
 49
-6.35
 74
     0
  0
LTYPE
  5
70
330
5
100
AcDbSymbolTableRecord
100
AcDbLinetypeTableRecord
  2
PHANTOM
 70
     0
  3
Phantom ______  __  __  ______  __  __  ______ 
 72
    65
 73
     6
 40
63.50000000000001
 49
31.75
 74
     0
 49
-6.35
 74
     0
 49
6.35
 74
     0
 49
-6.35
 74
     0
 49
6.35
 74
     0
 49
-6.35
 74
     0
  0
LTYPE
  5
71
330
5
100
AcDbSymbolTableRecord
100
AcDbLinetypeTableRecord
  2
ACAD_ISO06W100
 70
     0
  3
ISO long-dash triple-dot ____ ... ____ ... ____
 72
    65
 73
     8
 40
36.0
 49
24.0
 74
     0
 49
-3.0
 74
     0
 49
0.0
 74
     0
 49
-3.0
 74
     0
 49
0.0
 74
     0
 49
-3.0
 74
     0
 49
0.0
 74
     0
 49
-3.0
 74
     0
  0
LTYPE
  5
72
330
5
100
AcDbSymbolTableRecord
100
AcDbLinetypeTableRecord
  2
ACAD_ISO15W100
 70
     0
  3
ISO double-dash triple-dot __ __ . . . __ __ . .
 72
    65
 73
    10
 40
39.0
 49
12.0
 74
     0
 49
-3.0
 74
     0
 49
12.0
 74
     0
 49
-3.0
 74
     0
 49
0.0
 74
     0
 49
-3.0
 74
     0
 49
0.0
 74
     0
 49
-3.0
 74
     0
 49
0.0
 74
     0
 49
-3.0
 74
     0
  0
ENDTAB
  0
TABLE
  2
LAYER
  5
2
330
0
100
AcDbSymbolTable
 70
     6
  0
LAYER
  5
10
330
2
100
AcDbSymbolTableRecord
100
AcDbLayerTableRecord
  2
0
 70
     0
 62
     7
  6
CONTINUOUS
  0
LAYER
  5
75
330
2
100
AcDbSymbolTableRecord
100
AcDbLayerTableRecord
  2
LAY-10
 70
     0
 62
     7
  6
CONTINUOUS
  0
LAYER
  5
76
330
2
100
AcDbSymbolTableRecord
100
AcDbLayerTableRecord
  2
LAY-11
 70
     0
 62
     7
  6
CONTINUOUS
  0
LAYER
  5
77
330
2
100
AcDbSymbolTableRecord
100
AcDbLayerTableRecord
  2
LAY-20
 70
     0
 62
     7
  6
CONTINUOUS
  0
LAYER
  5
78
330
2
100
AcDbSymbolTableRecord
100
AcDbLayerTableRecord
  2
LAY-255
 70
     0
 62
     7
  6
CONTINUOUS
  0
LAYER
  5
638
330
2
100
AcDbSymbolTableRecord
100
AcDbLayerTableRecord
  2
DEFPOINTS
 70
     0
 62
     7
  6
CONTINUOUS
  0
ENDTAB
  0
TABLE
  2
STYLE
  5
3
330
0
100
AcDbSymbolTable
 70
     4
  0
STYLE
  5
11
330
3
100
AcDbSymbolTableRecord
100
AcDbTextStyleTableRecord
  2
STANDARD
 70
     0
 40
0.0
 41
1.0
 50
0.0
 71
     0
 42
2.5
  3
simplex
  4
bigfont
  0
STYLE
  5
73
330
3
100
AcDbSymbolTableRecord
100
AcDbTextStyleTableRecord
  2
EXCADSTD
 70
     0
 40
0.0
 41
1.0
 50
0.0
 71
     0
 42
2.5
  3
simplex
  4
bigfont
  0
STYLE
  5
74
330
3
100
AcDbSymbolTableRecord
100
AcDbTextStyleTableRecord
  2
EXCADVERT
 70
     4
 40
0.0
 41
1.0
 50
0.0
 71
     0
 42
2.5
  3
simplex
  4
bigfont
  0
STYLE
  5
636
330
3
100
AcDbSymbolTableRecord
100
AcDbTextStyleTableRecord
  2
EXCADDIM1
 70
     0
 40
0.0
 41
0.84
 50
0.0
 71
     0
 42
2.5
  3
simplex
  4
bigfont
  0
ENDTAB
  0
TABLE
  2
VIEW
  5
6
330
0
100
AcDbSymbolTable
 70
     0
  0
ENDTAB
  0
TABLE
  2
UCS
  5
7
330
0
100
AcDbSymbolTable
 70
     0
  0
ENDTAB
  0
TABLE
  2
APPID
  5
9
330
0
100
AcDbSymbolTable
 70
     2
  0
APPID
  5
12
330
9
100
AcDbSymbolTableRecord
100
AcDbRegAppTableRecord
  2
ACAD
 70
     0
  0
APPID
  5
718
330
9
100
AcDbSymbolTableRecord
100
AcDbRegAppTableRecord
  2
ACAD_MLEADERVER
 70
     0
  0
ENDTAB
  0
TABLE
  2
DIMSTYLE
  5
A
330
0
100
AcDbSymbolTable
 70
     1
  0
DIMSTYLE
105
27
102
{ACAD_REACTORS
330
637
330
645
330
652
330
65F
330
66C
330
679
330
686
330
693
330
6A0
330
6AD
102
}
330
A
100
AcDbSymbolTableRecord
100
AcDbDimStyleTableRecord
  2
ISO-25
 70
     0
  3

  4

  5

  6

  7

 40
1.0
 41
2.5
 42
0.625
 43
3.75
 44
1.25
 45
0.0
 46
0.0
 47
0.0
 48
0.0
140
2.5
141
2.5
142
0.0
143
0.03937007874016
144
1.0
145
0.0
146
1.0
147
0.625
 71
     0
 72
     0
 73
     0
 74
     0
 75
     0
 76
     0
 77
     1
 78
     8
170
     0
171
     3
172
     1
173
     0
174
     0
175
     0
176
     0
177
     0
178
     0
270
     2
271
     2
272
     2
273
     2
274
     3
340
11
275
     0
280
     0
281
     0
282
     0
283
     0
284
     8
285
     0
286
     0
287
     5
288
     0
  0
ENDTAB
  0
TABLE
  2
BLOCK_RECORD
  5
1
330
0
100
AcDbSymbolTable
 70
    24
  0
BLOCK_RECORD
  5
1F
330
1
100
AcDbSymbolTableRecord
100
AcDbBlockTableRecord
  2
*MODEL_SPACE
  0
BLOCK_RECORD
  5
1B
330
1
100
AcDbSymbolTableRecord
100
AcDbBlockTableRecord
  2
*PAPER_SPACE
  0
BLOCK_RECORD
  5
79
330
1
100
AcDbSymbolTableRecord
100
AcDbBlockTableRecord
  2
EX_NORM
  0
BLOCK_RECORD
  5
7C
330
1
100
AcDbSymbolTableRecord
100
AcDbBlockTableRecord
  2
EX_BNORM
  0
BLOCK_RECORD
  5
7F
330
1
100
AcDbSymbolTableRecord
100
AcDbBlockTableRecord
  2
EX_BCIR
  0
BLOCK_RECORD
  5
82
330
1
100
AcDbSymbolTableRecord
100
AcDbBlockTableRecord
  2
EX_RCIVIL
  0
BLOCK_RECORD
  5
85
330
1
100
AcDbSymbolTableRecord
100
AcDbBlockTableRecord
  2
EX_SLANT
  0
BLOCK_RECORD
  5
88
330
1
100
AcDbSymbolTableRecord
100
AcDbBlockTableRecord
  2
EX_NONE
  0
BLOCK_RECORD
  5
8B
330
1
100
AcDbSymbolTableRecord
100
AcDbBlockTableRecord
  2
EX_CIVIL
  0
BLOCK_RECORD
  5
8E
330
1
100
AcDbSymbolTableRecord
100
AcDbBlockTableRecord
  2
EX_WCIR
  0
BLOCK_RECORD
  5
91
330
1
100
AcDbSymbolTableRecord
100
AcDbBlockTableRecord
  2
EX_WCIR2
  0
BLOCK_RECORD
  5
94
330
1
100
AcDbSymbolTableRecord
100
AcDbBlockTableRecord
  2
EX_WNORM
  0
BLOCK_RECORD
  5
97
330
1
100
AcDbSymbolTableRecord
100
AcDbBlockTableRecord
  2
EX_NNORM
  0
BLOCK_RECORD
  5
9A
330
1
100
AcDbSymbolTableRecord
100
AcDbBlockTableRecord
  2
EX_BBOX
  0
BLOCK_RECORD
  5
9D
330
1
100
AcDbSymbolTableRecord
100
AcDbBlockTableRecord
  2
EX_WBOX
  0
BLOCK_RECORD
  5
A0
330
1
100
AcDbSymbolTableRecord
100
AcDbBlockTableRecord
  2
EX_INTEGRAL
  0
BLOCK_RECORD
  5
639
330
1
100
AcDbSymbolTableRecord
100
AcDbBlockTableRecord
  2
*D15
  0
BLOCK_RECORD
  5
646
330
1
100
AcDbSymbolTableRecord
100
AcDbBlockTableRecord
  2
*D16
  0
BLOCK_RECORD
  5
653
330
1
100
AcDbSymbolTableRecord
100
AcDbBlockTableRecord
  2
*D17
  0
BLOCK_RECORD
  5
660
330
1
100
AcDbSymbolTableRecord
100
AcDbBlockTableRecord
  2
*D18
  0
BLOCK_RECORD
  5
66D
330
1
100
AcDbSymbolTableRecord
100
AcDbBlockTableRecord
  2
*D19
  0
BLOCK_RECORD
  5
67A
330
1
100
AcDbSymbolTableRecord
100
AcDbBlockTableRecord
  2
*D20
  0
BLOCK_RECORD
  5
687
330
1
100
AcDbSymbolTableRecord
100
AcDbBlockTableRecord
  2
*D21
  0
BLOCK_RECORD
  5
694
330
1
100
AcDbSymbolTableRecord
100
AcDbBlockTableRecord
  2
*D22
  0
BLOCK_RECORD
  5
6A1
330
1
100
AcDbSymbolTableRecord
100
AcDbBlockTableRecord
  2
*D23
  0
BLOCK_RECORD
  5
6AE
330
1
100
AcDbSymbolTableRecord
100
AcDbBlockTableRecord
  2
*D24
  0
ENDTAB
  0
ENDSEC
  0
SECTION
  2
BLOCKS
  0
BLOCK
  5
20
330
1F
100
AcDbEntity
  8
0
100
AcDbBlockBegin
  2
*MODEL_SPACE
 70
     0
 10
0.0
 20
0.0
 30
0.0
  3
*MODEL_SPACE
  1

  0
ENDBLK
  5
21
330
1F
100
AcDbEntity
  8
0
100
AcDbBlockEnd
  0
BLOCK
  5
1C
330
1B
100
AcDbEntity
 67
     1
  8
0
100
AcDbBlockBegin
  2
*PAPER_SPACE
 70
     0
 10
0.0
 20
0.0
 30
0.0
  3
*PAPER_SPACE
  1

  0
ENDBLK
  5
1D
330
1B
100
AcDbEntity
 67
     1
  8
0
100
AcDbBlockEnd
  0
BLOCK
  5
7A
330
79
100
AcDbEntity
  8
0
100
AcDbBlockBegin
  2
EX_NORM
 70
     0
 10
0.0
 20
0.0
 30
0.0
  3
EX_NORM
  1

  0
LINE
  5
A3
330
79
100
AcDbEntity
  8
0
  6
CONTINUOUS
 62
     0
100
AcDbLine
 10
0.0
 20
0.0
 30
0.0
 11
-1.0
 21
0.0
 31
0.0
  0
LINE
  5
A4
330
79
100
AcDbEntity
  8
0
  6
CONTINUOUS
 62
     0
100
AcDbLine
 10
0.0
 20
0.0
 30
0.0
 11
-1.0
 21
0.166666667
 31
0.0
  0
LINE
  5
A5
330
79
100
AcDbEntity
  8
0
  6
CONTINUOUS
 62
     0
100
AcDbLine
 10
0.0
 20
0.0
 30
0.0
 11
-1.0
 21
-0.166666667
 31
0.0
  0
ENDBLK
  5
7B
330
79
100
AcDbEntity
  8
0
100
AcDbBlockEnd
  0
BLOCK
  5
7D
330
7C
100
AcDbEntity
  8
0
100
AcDbBlockBegin
  2
EX_BNORM
 70
     0
 10
0.0
 20
0.0
 30
0.0
  3
EX_BNORM
  1

  0
LINE
  5
A6
330
7C
100
AcDbEntity
  8
0
  6
CONTINUOUS
 62
     0
100
AcDbLine
 10
0.0
 20
0.0
 30
0.0
 11
-1.0
 21
0.0
 31
0.0
  0
LINE
  5
A7
330
7C
100
AcDbEntity
  8
0
  6
CONTINUOUS
 62
     0
100
AcDbLine
 10
0.0
 20
0.0
 30
0.0
 11
-1.0
 21
0.166666667
 31
0.0
  0
LINE
  5
A8
330
7C
100
AcDbEntity
  8
0
  6
CONTINUOUS
 62
     0
100
AcDbLine
 10
0.0
 20
0.0
 30
0.0
 11
-1.0
 21
-0.166666667
 31
0.0
  0
LINE
  5
A9
330
7C
100
AcDbEntity
  8
0
  6
CONTINUOUS
 62
     0
100
AcDbLine
 10
0.0
 20
0.0
 30
0.0
 11
-1.0
 21
0.083333333
 31
0.0
  0
LINE
  5
AA
330
7C
100
AcDbEntity
  8
0
  6
CONTINUOUS
 62
     0
100
AcDbLine
 10
0.0
 20
0.0
 30
0.0
 11
-1.0
 21
-0.083333333
 31
0.0
  0
LINE
  5
AB
330
7C
100
AcDbEntity
  8
0
  6
CONTINUOUS
 62
     0
100
AcDbLine
 10
-1.0
 20
0.166666667
 30
0.0
 11
-1.0
 21
-0.166666667
 31
0.0
  0
ENDBLK
  5
7E
330
7C
100
AcDbEntity
  8
0
100
AcDbBlockEnd
  0
BLOCK
  5
80
330
7F
100
AcDbEntity
  8
0
100
AcDbBlockBegin
  2
EX_BCIR
 70
     0
 10
0.0
 20
0.0
 30
0.0
  3
EX_BCIR
  1

  0
LINE
  5
AC
330
7F
100
AcDbEntity
  8
0
  6
CONTINUOUS
 62
     0
100
AcDbLine
 10
0.0
 20
0.0
 30
0.0
 11
-1.0
 21
0.0
 31
0.0
  0
CIRCLE
  5
AD
330
7F
100
AcDbEntity
  8
0
  6
CONTINUOUS
 62
     0
100
AcDbCircle
 10
0.0
 20
0.0
 30
0.0
 40
0.5
  0
CIRCLE
  5
AE
330
7F
100
AcDbEntity
  8
0
  6
CONTINUOUS
 62
     0
100
AcDbCircle
 10
0.0
 20
0.0
 30
0.0
 40
0.25
  0
ENDBLK
  5
81
330
7F
100
AcDbEntity
  8
0
100
AcDbBlockEnd
  0
BLOCK
  5
83
330
82
100
AcDbEntity
  8
0
100
AcDbBlockBegin
  2
EX_RCIVIL
 70
     0
 10
0.0
 20
0.0
 30
0.0
  3
EX_RCIVIL
  1

  0
LINE
  5
AF
330
82
100
AcDbEntity
  8
0
  6
CONTINUOUS
 62
     0
100
AcDbLine
 10
0.0
 20
0.0
 30
0.0
 11
-1.0
 21
0.0
 31
0.0
  0
LINE
  5
B0
330
82
100
AcDbEntity
  8
0
  6
CONTINUOUS
 62
     0
100
AcDbLine
 10
-1.0
 20
-0.25
 30
0.0
 11
0.0
 21
-0.25
 31
0.0
  0
LINE
  5
B1
330
82
100
AcDbEntity
  8
0
  6
CONTINUOUS
 62
     0
100
AcDbLine
 10
-1.0
 20
-0.125
 30
0.0
 11
0.0
 21
-0.125
 31
0.0
  0
ENDBLK
  5
84
330
82
100
AcDbEntity
  8
0
100
AcDbBlockEnd
  0
BLOCK
  5
86
330
85
100
AcDbEntity
  8
0
100
AcDbBlockBegin
  2
EX_SLANT
 70
     0
 10
0.0
 20
0.0
 30
0.0
  3
EX_SLANT
  1

  0
LINE
  5
B2
330
85
100
AcDbEntity
  8
0
  6
CONTINUOUS
 62
     0
100
AcDbLine
 10
0.0
 20
0.0
 30
0.0
 11
-1.0
 21
0.0
 31
0.0
  0
LINE
  5
B3
330
85
100
AcDbEntity
  8
0
  6
CONTINUOUS
 62
     0
100
AcDbLine
 10
0.707106781
 20
0.707106781
 30
0.0
 11
-0.707106781
 21
-0.707106781
 31
0.0
  0
ENDBLK
  5
87
330
85
100
AcDbEntity
  8
0
100
AcDbBlockEnd
  0
BLOCK
  5
89
330
88
100
AcDbEntity
  8
0
100
AcDbBlockBegin
  2
EX_NONE
 70
     0
 10
0.0
 20
0.0
 30
0.0
  3
EX_NONE
  1

  0
LINE
  5
B4
330
88
100
AcDbEntity
  8
0
  6
CONTINUOUS
 62
     0
100
AcDbLine
 10
0.0
 20
0.0
 30
0.0
 11
-1.0
 21
0.0
 31
0.0
  0
ENDBLK
  5
8A
330
88
100
AcDbEntity
  8
0
100
AcDbBlockEnd
  0
BLOCK
  5
8C
330
8B
100
AcDbEntity
  8
0
100
AcDbBlockBegin
  2
EX_CIVIL
 70
     0
 10
0.0
 20
0.0
 30
0.0
  3
EX_CIVIL
  1

  0
LINE
  5
B5
330
8B
100
AcDbEntity
  8
0
  6
CONTINUOUS
 62
     0
100
AcDbLine
 10
0.0
 20
0.0
 30
0.0
 11
-1.0
 21
0.0
 31
0.0
  0
LINE
  5
B6
330
8B
100
AcDbEntity
  8
0
  6
CONTINUOUS
 62
     0
100
AcDbLine
 10
-1.0
 20
0.25
 30
0.0
 11
0.0
 21
0.25
 31
0.0
  0
LINE
  5
B7
330
8B
100
AcDbEntity
  8
0
  6
CONTINUOUS
 62
     0
100
AcDbLine
 10
-1.0
 20
0.125
 30
0.0
 11
0.0
 21
0.125
 31
0.0
  0
ENDBLK
  5
8D
330
8B
100
AcDbEntity
  8
0
100
AcDbBlockEnd
  0
BLOCK
  5
8F
330
8E
100
AcDbEntity
  8
0
100
AcDbBlockBegin
  2
EX_WCIR
 70
     0
 10
0.0
 20
0.0
 30
0.0
  3
EX_WCIR
  1

  0
LINE
  5
B8
330
8E
100
AcDbEntity
  8
0
  6
CONTINUOUS
 62
     0
100
AcDbLine
 10
0.0
 20
0.0
 30
0.0
 11
-1.0
 21
0.0
 31
0.0
  0
CIRCLE
  5
B9
330
8E
100
AcDbEntity
  8
0
  6
CONTINUOUS
 62
     0
100
AcDbCircle
 10
0.0
 20
0.0
 30
0.0
 40
0.5
  0
ENDBLK
  5
90
330
8E
100
AcDbEntity
  8
0
100
AcDbBlockEnd
  0
BLOCK
  5
92
330
91
100
AcDbEntity
  8
0
100
AcDbBlockBegin
  2
EX_WCIR2
 70
     0
 10
0.0
 20
0.0
 30
0.0
  3
EX_WCIR2
  1

  0
LINE
  5
BA
330
91
100
AcDbEntity
  8
0
  6
CONTINUOUS
 62
     0
100
AcDbLine
 10
-0.5
 20
0.0
 30
0.0
 11
-1.0
 21
0.0
 31
0.0
  0
CIRCLE
  5
BB
330
91
100
AcDbEntity
  8
0
  6
CONTINUOUS
 62
     0
100
AcDbCircle
 10
0.0
 20
0.0
 30
0.0
 40
0.5
  0
ENDBLK
  5
93
330
91
100
AcDbEntity
  8
0
100
AcDbBlockEnd
  0
BLOCK
  5
95
330
94
100
AcDbEntity
  8
0
100
AcDbBlockBegin
  2
EX_WNORM
 70
     0
 10
0.0
 20
0.0
 30
0.0
  3
EX_WNORM
  1

  0
LINE
  5
BC
330
94
100
AcDbEntity
  8
0
  6
CONTINUOUS
 62
     0
100
AcDbLine
 10
-1.0
 20
0.0
 30
0.0
 11
-1.0
 21
0.0
 31
0.0
  0
LINE
  5
BD
330
94
100
AcDbEntity
  8
0
  6
CONTINUOUS
 62
     0
100
AcDbLine
 10
0.0
 20
0.0
 30
0.0
 11
-1.0
 21
0.166666667
 31
0.0
  0
LINE
  5
BE
330
94
100
AcDbEntity
  8
0
  6
CONTINUOUS
 62
     0
100
AcDbLine
 10
0.0
 20
0.0
 30
0.0
 11
-1.0
 21
-0.166666667
 31
0.0
  0
LINE
  5
BF
330
94
100
AcDbEntity
  8
0
  6
CONTINUOUS
 62
     0
100
AcDbLine
 10
-1.0
 20
0.166666667
 30
0.0
 11
-1.0
 21
-0.166666667
 31
0.0
  0
ENDBLK
  5
96
330
94
100
AcDbEntity
  8
0
100
AcDbBlockEnd
  0
BLOCK
  5
98
330
97
100
AcDbEntity
  8
0
100
AcDbBlockBegin
  2
EX_NNORM
 70
     0
 10
0.0
 20
0.0
 30
0.0
  3
EX_NNORM
  1

  0
LINE
  5
C0
330
97
100
AcDbEntity
  8
0
  6
CONTINUOUS
 62
     0
100
AcDbLine
 10
0.0
 20
0.0
 30
0.0
 11
-1.0
 21
0.0
 31
0.0
  0
LINE
  5
C1
330
97
100
AcDbEntity
  8
0
  6
CONTINUOUS
 62
     0
100
AcDbLine
 10
0.0
 20
0.0
 30
0.0
 11
-1.0
 21
0.166666667
 31
0.0
  0
LINE
  5
C2
330
97
100
AcDbEntity
  8
0
  6
CONTINUOUS
 62
     0
100
AcDbLine
 10
0.0
 20
0.0
 30
0.0
 11
-1.0
 21
-0.166666667
 31
0.0
  0
LINE
  5
C3
330
97
100
AcDbEntity
  8
0
  6
CONTINUOUS
 62
     0
100
AcDbLine
 10
-1.0
 20
0.166666667
 30
0.0
 11
-1.0
 21
-0.166666667
 31
0.0
  0
ENDBLK
  5
99
330
97
100
AcDbEntity
  8
0
100
AcDbBlockEnd
  0
BLOCK
  5
9B
330
9A
100
AcDbEntity
  8
0
100
AcDbBlockBegin
  2
EX_BBOX
 70
     0
 10
0.0
 20
0.0
 30
0.0
  3
EX_BBOX
  1

  0
LINE
  5
C4
330
9A
100
AcDbEntity
  8
0
  6
CONTINUOUS
 62
     0
100
AcDbLine
 10
0.0
 20
0.0
 30
0.0
 11
-1.0
 21
0.0
 31
0.0
  0
LINE
  5
C5
330
9A
100
AcDbEntity
  8
0
  6
CONTINUOUS
 62
     0
100
AcDbLine
 10
-0.5
 20
0.5
 30
0.0
 11
0.5
 21
0.5
 31
0.0
  0
LINE
  5
C6
330
9A
100
AcDbEntity
  8
0
  6
CONTINUOUS
 62
     0
100
AcDbLine
 10
0.5
 20
0.5
 30
0.0
 11
0.5
 21
-0.5
 31
0.0
  0
LINE
  5
C7
330
9A
100
AcDbEntity
  8
0
  6
CONTINUOUS
 62
     0
100
AcDbLine
 10
0.5
 20
-0.5
 30
0.0
 11
-0.5
 21
-0.5
 31
0.0
  0
LINE
  5
C8
330
9A
100
AcDbEntity
  8
0
  6
CONTINUOUS
 62
     0
100
AcDbLine
 10
-0.5
 20
-0.5
 30
0.0
 11
-0.5
 21
0.5
 31
0.0
  0
LINE
  5
C9
330
9A
100
AcDbEntity
  8
0
  6
CONTINUOUS
 62
     0
100
AcDbLine
 10
-0.25
 20
0.25
 30
0.0
 11
0.25
 21
0.25
 31
0.0
  0
LINE
  5
CA
330
9A
100
AcDbEntity
  8
0
  6
CONTINUOUS
 62
     0
100
AcDbLine
 10
0.25
 20
0.25
 30
0.0
 11
0.25
 21
-0.25
 31
0.0
  0
LINE
  5
CB
330
9A
100
AcDbEntity
  8
0
  6
CONTINUOUS
 62
     0
100
AcDbLine
 10
0.25
 20
-0.25
 30
0.0
 11
-0.25
 21
-0.25
 31
0.0
  0
LINE
  5
CC
330
9A
100
AcDbEntity
  8
0
  6
CONTINUOUS
 62
     0
100
AcDbLine
 10
-0.25
 20
-0.25
 30
0.0
 11
-0.25
 21
0.25
 31
0.0
  0
ENDBLK
  5
9C
330
9A
100
AcDbEntity
  8
0
100
AcDbBlockEnd
  0
BLOCK
  5
9E
330
9D
100
AcDbEntity
  8
0
100
AcDbBlockBegin
  2
EX_WBOX
 70
     0
 10
0.0
 20
0.0
 30
0.0
  3
EX_WBOX
  1

  0
LINE
  5
CD
330
9D
100
AcDbEntity
  8
0
  6
CONTINUOUS
 62
     0
100
AcDbLine
 10
-0.5
 20
0.0
 30
0.0
 11
-1.0
 21
0.0
 31
0.0
  0
LINE
  5
CE
330
9D
100
AcDbEntity
  8
0
  6
CONTINUOUS
 62
     0
100
AcDbLine
 10
-0.5
 20
0.5
 30
0.0
 11
0.5
 21
0.5
 31
0.0
  0
LINE
  5
CF
330
9D
100
AcDbEntity
  8
0
  6
CONTINUOUS
 62
     0
100
AcDbLine
 10
0.5
 20
0.5
 30
0.0
 11
0.5
 21
-0.5
 31
0.0
  0
LINE
  5
D0
330
9D
100
AcDbEntity
  8
0
  6
CONTINUOUS
 62
     0
100
AcDbLine
 10
0.5
 20
-0.5
 30
0.0
 11
-0.5
 21
-0.5
 31
0.0
  0
LINE
  5
D1
330
9D
100
AcDbEntity
  8
0
  6
CONTINUOUS
 62
     0
100
AcDbLine
 10
-0.5
 20
-0.5
 30
0.0
 11
-0.5
 21
0.5
 31
0.0
  0
ENDBLK
  5
9F
330
9D
100
AcDbEntity
  8
0
100
AcDbBlockEnd
  0
BLOCK
  5
A1
330
A0
100
AcDbEntity
  8
0
100
AcDbBlockBegin
  2
EX_INTEGRAL
 70
     0
 10
0.0
 20
0.0
 30
0.0
  3
EX_INTEGRAL
  1

  0
LINE
  5
D2
330
A0
100
AcDbEntity
  8
0
  6
CONTINUOUS
 62
     0
100
AcDbLine
 10
0.0
 20
0.0
 30
0.0
 11
-1.0
 21
0.0
 31
0.0
  0
ARC
  5
D3
330
A0
100
AcDbEntity
  8
0
  6
CONTINUOUS
 62
     0
100
AcDbCircle
 10
0.542115
 20
0.164992
 30
0.0
 40
0.56667
100
AcDbArc
 50
73.07249033629006
 51
196.9275130221199
  0
ARC
  5
D4
330
A0
100
AcDbEntity
  8
0
  6
CONTINUOUS
 62
     0
100
AcDbCircle
 10
-0.542115
 20
-0.164992
 30
0.0
 40
0.56667
100
AcDbArc
 50
253.0724869220464
 51
16.9275130559125
  0
ENDBLK
  5
A2
330
A0
100
AcDbEntity
  8
0
100
AcDbBlockEnd
  0
BLOCK
  5
63A
330
639
100
AcDbEntity
  8
0
100
AcDbBlockBegin
  2
*D15
 70
     1
 10
0.0
 20
0.0
 30
0.0
  3
*D15
  1

  0
LINE
  5
63C
330
639
100
AcDbEntity
  8
LAY-20
  6
CONTINUOUS
 62
     4
100
AcDbLine
 10
2357.523511271509
 20
1213.47069133722
 30
0.0
 11
2187.5235112715
 21
1213.47069133722
 31
0.0
  0
LINE
  5
63D
330
639
100
AcDbEntity
  8
LAY-20
  6
CONTINUOUS
 62
     4
100
AcDbLine
 10
2357.523511271509
 20
2315.4706913373
 30
0.0
 11
2187.5235112715
 21
2315.4706913373
 31
0.0
  0
LINE
  5
63E
330
639
100
AcDbEntity
  8
LAY-20
  6
CONTINUOUS
 62
     4
100
AcDbLine
 10
2202.5235112715
 20
1238.47069133722
 30
0.0
 11
2202.5235112715
 21
2290.4706913373
 31
0.0
  0
INSERT
  5
63F
330
639
100
AcDbEntity
  8
LAY-20
 62
     4
100
AcDbBlockReference
  2
EX_BNORM
 10
2202.5235112715
 20
1213.47069133722
 30
0.0
 41
25.0
 42
25.0
 43
25.0
 50
270.0
  0
INSERT
  5
640
330
639
100
AcDbEntity
  8
LAY-20
 62
     4
100
AcDbBlockReference
  2
EX_BNORM
 10
2202.5235112715
 20
2315.4706913373
 30
0.0
 41
25.0
 42
25.0
 43
25.0
 50
90.0
  0
MTEXT
  5
641
330
639
100
AcDbEntity
  8
LAY-20
 62
     7
100
AcDbMText
 10
2177.5235112715
 20
1764.47069133726
 30
0.0
 40
31.181104
 41
0.0
 71
     5
 72
     1
  1
1102
  7
EXCADDIM1
 11
0.0
 21
1.0
 31
0.0
  0
POINT
  5
642
330
639
100
AcDbEntity
  8
DEFPOINTS
 62
     0
100
AcDbPoint
 10
2372.523511271509
 20
1213.47069133722
 30
0.0
  0
POINT
  5
643
330
639
100
AcDbEntity
  8
DEFPOINTS
 62
     0
100
AcDbPoint
 10
2372.523511271509
 20
2315.4706913373
 30
0.0
  0
POINT
  5
644
330
639
100
AcDbEntity
  8
DEFPOINTS
 62
     0
100
AcDbPoint
 10
2202.5235112715
 20
2315.4706913373
 30
0.0
  0
ENDBLK
  5
63B
330
639
100
AcDbEntity
  8
0
100
AcDbBlockEnd
  0
BLOCK
  5
647
330
646
100
AcDbEntity
  8
0
100
AcDbBlockBegin
  2
*D16
 70
     1
 10
0.0
 20
0.0
 30
0.0
  3
*D16
  1

  0
LINE
  5
649
330
646
100
AcDbEntity
  8
LAY-20
  6
CONTINUOUS
 62
     4
100
AcDbLine
 10
2357.523511271507
 20
1229.470691337342
 30
0.0
 11
2257.5235112715
 21
1229.470691337342
 31
0.0
  0
LINE
  5
64A
330
646
100
AcDbEntity
  8
LAY-20
  6
CONTINUOUS
 62
     4
100
AcDbLine
 10
2357.523511271505
 20
2299.470691337316
 30
0.0
 11
2257.5235112715
 21
2299.470691337316
 31
0.0
  0
LINE
  5
64B
330
646
100
AcDbEntity
  8
LAY-20
  6
CONTINUOUS
 62
     4
100
AcDbLine
 10
2272.5235112715
 20
1254.470691337342
 30
0.0
 11
2272.5235112715
 21
2274.470691337316
 31
0.0
  0
INSERT
  5
64C
330
646
100
AcDbEntity
  8
LAY-20
 62
     4
100
AcDbBlockReference
  2
EX_BNORM
 10
2272.5235112715
 20
1229.470691337342
 30
0.0
 41
25.0
 42
25.0
 43
25.0
 50
270.0
  0
INSERT
  5
64D
330
646
100
AcDbEntity
  8
LAY-20
 62
     4
100
AcDbBlockReference
  2
EX_BNORM
 10
2272.5235112715
 20
2299.470691337316
 30
0.0
 41
25.0
 42
25.0
 43
25.0
 50
90.0
  0
MTEXT
  5
64E
330
646
100
AcDbEntity
  8
LAY-20
 62
     7
100
AcDbMText
 10
2247.5235112715
 20
1764.470691337329
 30
0.0
 40
31.181104
 41
0.0
 71
     5
 72
     1
  1
1070
  7
EXCADDIM1
 11
0.0
 21
1.0
 31
0.0
  0
POINT
  5
64F
330
646
100
AcDbEntity
  8
DEFPOINTS
 62
     0
100
AcDbPoint
 10
2372.523511271507
 20
1229.470691337342
 30
0.0
  0
POINT
  5
650
330
646
100
AcDbEntity
  8
DEFPOINTS
 62
     0
100
AcDbPoint
 10
2372.523511271505
 20
2299.470691337316
 30
0.0
  0
POINT
  5
651
330
646
100
AcDbEntity
  8
DEFPOINTS
 62
     0
100
AcDbPoint
 10
2272.5235112715
 20
2299.470691337316
 30
0.0
  0
ENDBLK
  5
648
330
646
100
AcDbEntity
  8
0
100
AcDbBlockEnd
  0
BLOCK
  5
654
330
653
100
AcDbEntity
  8
0
100
AcDbBlockBegin
  2
*D17
 70
     1
 10
0.0
 20
0.0
 30
0.0
  3
*D17
  1

  0
LINE
  5
656
330
653
100
AcDbEntity
  8
LAY-20
  6
CONTINUOUS
 62
     4
100
AcDbLine
 10
2542.52351127151
 20
2214.4706913373
 30
0.0
 11
2642.523511271509
 21
2214.4706913373
 31
0.0
  0
LINE
  5
657
330
653
100
AcDbEntity
  8
LAY-20
  6
CONTINUOUS
 62
     4
100
AcDbLine
 10
2542.52351127151
 20
1314.47069133722
 30
0.0
 11
2642.523511271509
 21
1314.47069133722
 31
0.0
  0
LINE
  5
658
330
653
100
AcDbEntity
  8
LAY-20
  6
CONTINUOUS
 62
     4
100
AcDbLine
 10
2627.523511271509
 20
2189.4706913373
 30
0.0
 11
2627.523511271509
 21
1339.47069133722
 31
0.0
  0
INSERT
  5
659
330
653
100
AcDbEntity
  8
LAY-20
 62
     4
100
AcDbBlockReference
  2
EX_BNORM
 10
2627.523511271509
 20
2214.4706913373
 30
0.0
 41
25.0
 42
25.0
 43
25.0
 50
90.0
  0
INSERT
  5
65A
330
653
100
AcDbEntity
  8
LAY-20
 62
     4
100
AcDbBlockReference
  2
EX_BNORM
 10
2627.523511271509
 20
1314.47069133722
 30
0.0
 41
25.0
 42
25.0
 43
25.0
 50
270.0
  0
MTEXT
  5
65B
330
653
100
AcDbEntity
  8
LAY-20
 62
     7
100
AcDbMText
 10
2602.523511271509
 20
1764.47069133726
 30
0.0
 40
31.181104
 41
0.0
 71
     5
 72
     1
  1
900
  7
EXCADDIM1
 11
0.0
 21
1.0
 31
0.0
  0
POINT
  5
65C
330
653
100
AcDbEntity
  8
DEFPOINTS
 62
     0
100
AcDbPoint
 10
2527.52351127151
 20
2214.4706913373
 30
0.0
  0
POINT
  5
65D
330
653
100
AcDbEntity
  8
DEFPOINTS
 62
     0
100
AcDbPoint
 10
2527.52351127151
 20
1314.47069133722
 30
0.0
  0
POINT
  5
65E
330
653
100
AcDbEntity
  8
DEFPOINTS
 62
     0
100
AcDbPoint
 10
2627.523511271509
 20
1314.47069133722
 30
0.0
  0
ENDBLK
  5
655
330
653
100
AcDbEntity
  8
0
100
AcDbBlockEnd
  0
BLOCK
  5
661
330
660
100
AcDbEntity
  8
0
100
AcDbBlockBegin
  2
*D18
 70
     1
 10
0.0
 20
0.0
 30
0.0
  3
*D18
  1

  0
LINE
  5
663
330
660
100
AcDbEntity
  8
LAY-20
  6
CONTINUOUS
 62
     4
100
AcDbLine
 10
2457.7235112715
 20
2306.670691337301
 30
0.0
 11
2712.523511271509
 21
2306.670691337301
 31
0.0
  0
LINE
  5
664
330
660
100
AcDbEntity
  8
LAY-20
  6
CONTINUOUS
 62
     4
100
AcDbLine
 10
2457.7235112715
 20
1222.270691337241
 30
0.0
 11
2712.523511271509
 21
1222.270691337241
 31
0.0
  0
LINE
  5
665
330
660
100
AcDbEntity
  8
LAY-20
  6
CONTINUOUS
 62
     4
100
AcDbLine
 10
2697.523511271509
 20
2281.670691337301
 30
0.0
 11
2697.523511271509
 21
1247.270691337241
 31
0.0
  0
INSERT
  5
666
330
660
100
AcDbEntity
  8
LAY-20
 62
     4
100
AcDbBlockReference
  2
EX_BNORM
 10
2697.523511271509
 20
2306.670691337301
 30
0.0
 41
25.0
 42
25.0
 43
25.0
 50
90.0
  0
INSERT
  5
667
330
660
100
AcDbEntity
  8
LAY-20
 62
     4
100
AcDbBlockReference
  2
EX_BNORM
 10
2697.523511271509
 20
1222.270691337241
 30
0.0
 41
25.0
 42
25.0
 43
25.0
 50
270.0
  0
MTEXT
  5
668
330
660
100
AcDbEntity
  8
LAY-20
 62
     7
100
AcDbMText
 10
2672.523511271509
 20
1764.47069133727
 30
0.0
 40
31.181104
 41
0.0
 71
     5
 72
     1
  1
1084
  7
EXCADDIM1
 11
0.0
 21
1.0
 31
0.0
  0
POINT
  5
669
330
660
100
AcDbEntity
  8
DEFPOINTS
 62
     0
100
AcDbPoint
 10
2442.7235112715
 20
2306.670691337301
 30
0.0
  0
POINT
  5
66A
330
660
100
AcDbEntity
  8
DEFPOINTS
 62
     0
100
AcDbPoint
 10
2442.7235112715
 20
1222.270691337241
 30
0.0
  0
POINT
  5
66B
330
660
100
AcDbEntity
  8
DEFPOINTS
 62
     0
100
AcDbPoint
 10
2697.523511271509
 20
1222.270691337241
 30
0.0
  0
ENDBLK
  5
662
330
660
100
AcDbEntity
  8
0
100
AcDbBlockEnd
  0
BLOCK
  5
66E
330
66D
100
AcDbEntity
  8
0
100
AcDbBlockBegin
  2
*D19
 70
     1
 10
0.0
 20
0.0
 30
0.0
  3
*D19
  1

  0
LINE
  5
670
330
66D
100
AcDbEntity
  8
LAY-20
  6
CONTINUOUS
 62
     4
100
AcDbLine
 10
315.8076841561206
 20
873.7520497554906
 30
0.0
 11
315.8076841561206
 21
1043.7520497555
 31
0.0
  0
LINE
  5
671
330
66D
100
AcDbEntity
  8
LAY-20
  6
CONTINUOUS
 62
     4
100
AcDbLine
 10
2017.807684156201
 20
873.7520497554906
 30
0.0
 11
2017.807684156201
 21
1043.7520497555
 31
0.0
  0
LINE
  5
672
330
66D
100
AcDbEntity
  8
LAY-20
  6
CONTINUOUS
 62
     4
100
AcDbLine
 10
340.8076841561206
 20
1028.7520497555
 30
0.0
 11
1992.807684156201
 21
1028.7520497555
 31
0.0
  0
INSERT
  5
673
330
66D
100
AcDbEntity
  8
LAY-20
 62
     4
100
AcDbBlockReference
  2
EX_BNORM
 10
315.8076841561206
 20
1028.7520497555
 30
0.0
 41
25.0
 42
25.0
 43
25.0
 50
180.0
  0
INSERT
  5
674
330
66D
100
AcDbEntity
  8
LAY-20
 62
     4
100
AcDbBlockReference
  2
EX_BNORM
 10
2017.807684156201
 20
1028.7520497555
 30
0.0
 41
25.0
 42
25.0
 43
25.0
  0
MTEXT
  5
675
330
66D
100
AcDbEntity
  8
LAY-20
 62
     7
100
AcDbMText
 10
1166.807684156161
 20
1053.7520497555
 30
0.0
 40
31.181104
 41
0.0
 71
     5
 72
     1
  1
1702
  7
EXCADDIM1
  0
POINT
  5
676
330
66D
100
AcDbEntity
  8
DEFPOINTS
 62
     0
100
AcDbPoint
 10
315.8076841561206
 20
858.7520497554906
 30
0.0
  0
POINT
  5
677
330
66D
100
AcDbEntity
  8
DEFPOINTS
 62
     0
100
AcDbPoint
 10
2017.807684156201
 20
858.7520497554906
 30
0.0
  0
POINT
  5
678
330
66D
100
AcDbEntity
  8
DEFPOINTS
 62
     0
100
AcDbPoint
 10
2017.807684156201
 20
1028.7520497555
 30
0.0
  0
ENDBLK
  5
66F
330
66D
100
AcDbEntity
  8
0
100
AcDbBlockEnd
  0
BLOCK
  5
67B
330
67A
100
AcDbEntity
  8
0
100
AcDbBlockBegin
  2
*D20
 70
     1
 10
0.0
 20
0.0
 30
0.0
  3
*D20
  1

  0
LINE
  5
67D
330
67A
100
AcDbEntity
  8
LAY-20
  6
CONTINUOUS
 62
     4
100
AcDbLine
 10
331.8076841562425
 20
873.7520497554933
 30
0.0
 11
331.8076841562425
 21
973.7520497554997
 31
0.0
  0
LINE
  5
67E
330
67A
100
AcDbEntity
  8
LAY-20
  6
CONTINUOUS
 62
     4
100
AcDbLine
 10
747.8076841561157
 20
873.752049755496
 30
0.0
 11
747.8076841561157
 21
973.7520497554997
 31
0.0
  0
LINE
  5
67F
330
67A
100
AcDbEntity
  8
LAY-20
  6
CONTINUOUS
 62
     4
100
AcDbLine
 10
356.8076841562425
 20
958.7520497554997
 30
0.0
 11
722.8076841561157
 21
958.7520497554997
 31
0.0
  0
INSERT
  5
680
330
67A
100
AcDbEntity
  8
LAY-20
 62
     4
100
AcDbBlockReference
  2
EX_BNORM
 10
331.8076841562425
 20
958.7520497554997
 30
0.0
 41
25.0
 42
25.0
 43
25.0
 50
180.0
  0
INSERT
  5
681
330
67A
100
AcDbEntity
  8
LAY-20
 62
     4
100
AcDbBlockReference
  2
EX_BNORM
 10
747.8076841561157
 20
958.7520497554997
 30
0.0
 41
25.0
 42
25.0
 43
25.0
  0
MTEXT
  5
682
330
67A
100
AcDbEntity
  8
LAY-20
 62
     7
100
AcDbMText
 10
539.8076841561792
 20
983.7520497554997
 30
0.0
 40
31.181104
 41
0.0
 71
     5
 72
     1
  1
416
  7
EXCADDIM1
  0
POINT
  5
683
330
67A
100
AcDbEntity
  8
DEFPOINTS
 62
     0
100
AcDbPoint
 10
331.8076841562425
 20
858.7520497554933
 30
0.0
  0
POINT
  5
684
330
67A
100
AcDbEntity
  8
DEFPOINTS
 62
     0
100
AcDbPoint
 10
747.8076841561157
 20
858.752049755496
 30
0.0
  0
POINT
  5
685
330
67A
100
AcDbEntity
  8
DEFPOINTS
 62
     0
100
AcDbPoint
 10
747.8076841561157
 20
958.7520497554997
 30
0.0
  0
ENDBLK
  5
67C
330
67A
100
AcDbEntity
  8
0
100
AcDbBlockEnd
  0
BLOCK
  5
688
330
687
100
AcDbEntity
  8
0
100
AcDbBlockBegin
  2
*D21
 70
     1
 10
0.0
 20
0.0
 30
0.0
  3
*D21
  1

  0
LINE
  5
68A
330
687
100
AcDbEntity
  8
LAY-20
  6
CONTINUOUS
 62
     4
100
AcDbLine
 10
1916.8076841562
 20
688.75204975549
 30
0.0
 11
1916.8076841562
 21
588.7520497554897
 31
0.0
  0
LINE
  5
68B
330
687
100
AcDbEntity
  8
LAY-20
  6
CONTINUOUS
 62
     4
100
AcDbLine
 10
416.8076841561202
 20
688.75204975549
 30
0.0
 11
416.8076841561202
 21
588.7520497554897
 31
0.0
  0
LINE
  5
68C
330
687
100
AcDbEntity
  8
LAY-20
  6
CONTINUOUS
 62
     4
100
AcDbLine
 10
1891.8076841562
 20
603.7520497554897
 30
0.0
 11
441.8076841561202
 21
603.7520497554897
 31
0.0
  0
INSERT
  5
68D
330
687
100
AcDbEntity
  8
LAY-20
 62
     4
100
AcDbBlockReference
  2
EX_BNORM
 10
1916.8076841562
 20
603.7520497554897
 30
0.0
 41
25.0
 42
25.0
 43
25.0
  0
INSERT
  5
68E
330
687
100
AcDbEntity
  8
LAY-20
 62
     4
100
AcDbBlockReference
  2
EX_BNORM
 10
416.8076841561202
 20
603.7520497554897
 30
0.0
 41
25.0
 42
25.0
 43
25.0
 50
180.0
  0
MTEXT
  5
68F
330
687
100
AcDbEntity
  8
LAY-20
 62
     7
100
AcDbMText
 10
1166.80768415616
 20
628.7520497554897
 30
0.0
 40
31.181104
 41
0.0
 71
     5
 72
     1
  1
1500
  7
EXCADDIM1
  0
POINT
  5
690
330
687
100
AcDbEntity
  8
DEFPOINTS
 62
     0
100
AcDbPoint
 10
1916.8076841562
 20
703.75204975549
 30
0.0
  0
POINT
  5
691
330
687
100
AcDbEntity
  8
DEFPOINTS
 62
     0
100
AcDbPoint
 10
416.8076841561202
 20
703.75204975549
 30
0.0
  0
POINT
  5
692
330
687
100
AcDbEntity
  8
DEFPOINTS
 62
     0
100
AcDbPoint
 10
416.8076841561202
 20
603.7520497554897
 30
0.0
  0
ENDBLK
  5
689
330
687
100
AcDbEntity
  8
0
100
AcDbBlockEnd
  0
BLOCK
  5
695
330
694
100
AcDbEntity
  8
0
100
AcDbBlockBegin
  2
*D22
 70
     1
 10
0.0
 20
0.0
 30
0.0
  3
*D22
  1

  0
LINE
  5
697
330
694
100
AcDbEntity
  8
LAY-20
  6
CONTINUOUS
 62
     4
100
AcDbLine
 10
1978.0076841562
 20
703.75204975549
 30
0.0
 11
2161.706168966
 21
703.75204975549
 31
0.0
  0
LINE
  5
698
330
694
100
AcDbEntity
  8
LAY-20
  6
CONTINUOUS
 62
     4
100
AcDbLine
 10
2032.807684156201
 20
858.7520497554906
 30
0.0
 11
2161.706168966
 21
858.7520497554906
 31
0.0
  0
LINE
  5
699
330
694
100
AcDbEntity
  8
LAY-20
  6
CONTINUOUS
 62
     4
100
AcDbLine
 10
2146.706168966
 20
728.75204975549
 30
0.0
 11
2146.706168966
 21
833.7520497554906
 31
0.0
  0
INSERT
  5
69A
330
694
100
AcDbEntity
  8
LAY-20
 62
     4
100
AcDbBlockReference
  2
EX_BNORM
 10
2146.706168966
 20
703.75204975549
 30
0.0
 41
25.0
 42
25.0
 43
25.0
 50
270.0
  0
INSERT
  5
69B
330
694
100
AcDbEntity
  8
LAY-20
 62
     4
100
AcDbBlockReference
  2
EX_BNORM
 10
2146.706168966
 20
858.7520497554906
 30
0.0
 41
25.0
 42
25.0
 43
25.0
 50
90.0
  0
MTEXT
  5
69C
330
694
100
AcDbEntity
  8
LAY-20
 62
     7
100
AcDbMText
 10
2121.706168966001
 20
781.2520497554901
 30
0.0
 40
31.181104
 41
0.0
 71
     5
 72
     1
  1
155
  7
EXCADDIM1
 11
0.0
 21
1.0
 31
0.0
  0
POINT
  5
69D
330
694
100
AcDbEntity
  8
DEFPOINTS
 62
     0
100
AcDbPoint
 10
1963.0076841562
 20
703.75204975549
 30
0.0
  0
POINT
  5
69E
330
694
100
AcDbEntity
  8
DEFPOINTS
 62
     0
100
AcDbPoint
 10
2017.807684156201
 20
858.7520497554906
 30
0.0
  0
POINT
  5
69F
330
694
100
AcDbEntity
  8
DEFPOINTS
 62
     0
100
AcDbPoint
 10
2146.706168966
 20
858.7520497554906
 30
0.0
  0
ENDBLK
  5
696
330
694
100
AcDbEntity
  8
0
100
AcDbBlockEnd
  0
BLOCK
  5
6A2
330
6A1
100
AcDbEntity
  8
0
100
AcDbBlockBegin
  2
*D23
 70
     1
 10
0.0
 20
0.0
 30
0.0
  3
*D23
  1

  0
LINE
  5
6A4
330
6A1
100
AcDbEntity
  8
LAY-20
  6
CONTINUOUS
 62
     4
100
AcDbLine
 10
2009.007684156201
 20
773.5520497554899
 30
0.0
 11
2009.007684156201
 21
518.7520497554897
 31
0.0
  0
LINE
  5
6A5
330
6A1
100
AcDbEntity
  8
LAY-20
  6
CONTINUOUS
 62
     4
100
AcDbLine
 10
324.6076841561402
 20
773.5520497554899
 30
0.0
 11
324.6076841561402
 21
518.7520497554897
 31
0.0
  0
LINE
  5
6A6
330
6A1
100
AcDbEntity
  8
LAY-20
  6
CONTINUOUS
 62
     4
100
AcDbLine
 10
1984.007684156201
 20
533.7520497554897
 30
0.0
 11
349.6076841561402
 21
533.7520497554897
 31
0.0
  0
INSERT
  5
6A7
330
6A1
100
AcDbEntity
  8
LAY-20
 62
     4
100
AcDbBlockReference
  2
EX_BNORM
 10
2009.007684156201
 20
533.7520497554897
 30
0.0
 41
25.0
 42
25.0
 43
25.0
  0
INSERT
  5
6A8
330
6A1
100
AcDbEntity
  8
LAY-20
 62
     4
100
AcDbBlockReference
  2
EX_BNORM
 10
324.6076841561402
 20
533.7520497554897
 30
0.0
 41
25.0
 42
25.0
 43
25.0
 50
180.0
  0
MTEXT
  5
6A9
330
6A1
100
AcDbEntity
  8
LAY-20
 62
     7
100
AcDbMText
 10
1166.80768415617
 20
558.7520497554897
 30
0.0
 40
31.181104
 41
0.0
 71
     5
 72
     1
  1
1684
  7
EXCADDIM1
  0
POINT
  5
6AA
330
6A1
100
AcDbEntity
  8
DEFPOINTS
 62
     0
100
AcDbPoint
 10
2009.007684156201
 20
788.5520497554899
 30
0.0
  0
POINT
  5
6AB
330
6A1
100
AcDbEntity
  8
DEFPOINTS
 62
     0
100
AcDbPoint
 10
324.6076841561402
 20
788.5520497554899
 30
0.0
  0
POINT
  5
6AC
330
6A1
100
AcDbEntity
  8
DEFPOINTS
 62
     0
100
AcDbPoint
 10
324.6076841561402
 20
533.7520497554897
 30
0.0
  0
ENDBLK
  5
6A3
330
6A1
100
AcDbEntity
  8
0
100
AcDbBlockEnd
  0
BLOCK
  5
6AF
330
6AE
100
AcDbEntity
  8
0
100
AcDbBlockBegin
  2
*D24
 70
     1
 10
0.0
 20
0.0
 30
0.0
  3
*D24
  1

  0
LINE
  5
6B1
330
6AE
100
AcDbEntity
  8
LAY-20
  6
CONTINUOUS
 62
     4
100
AcDbLine
 10
972.0000000000007
 20
852.7520497554707
 30
0.0
 11
972.0000000000007
 21
858.7520497554797
 31
0.0
  0
LINE
  5
6B2
330
6AE
100
AcDbEntity
  8
LAY-20
  6
CONTINUOUS
 62
     4
100
AcDbLine
 10
972.0000000000007
 20
827.7520497554707
 30
0.0
 11
972.0000000000007
 21
802.7520497554707
 31
0.0
  0
LINE
  5
6B3
330
6AE
100
AcDbEntity
  8
LAY-20
  6
CONTINUOUS
 62
     4
100
AcDbLine
 10
972.0000000000007
 20
883.7520497554797
 30
0.0
 11
972.0000000000007
 21
908.7520497554797
 31
0.0
  0
INSERT
  5
6B4
330
6AE
100
AcDbEntity
  8
LAY-20
 62
     4
100
AcDbBlockReference
  2
EX_BNORM
 10
972.0000000000007
 20
852.7520497554707
 30
0.0
 41
25.0
 42
25.0
 43
25.0
 50
90.0
  0
INSERT
  5
6B5
330
6AE
100
AcDbEntity
  8
LAY-20
 62
     4
100
AcDbBlockReference
  2
EX_BNORM
 10
972.0000000000007
 20
858.7520497554797
 30
0.0
 41
25.0
 42
25.0
 43
25.0
 50
270.0
  0
MTEXT
  5
6B6
330
6AE
100
AcDbEntity
  8
LAY-20
 62
     7
100
AcDbMText
 10
947.0000000000008
 20
903.7520497554796
 30
0.0
 40
31.181104
 41
0.0
 71
     5
 72
     1
  1
6
  7
EXCADDIM1
 11
0.0
 21
1.0
 31
0.0
  0
POINT
  5
6B7
330
6AE
100
AcDbEntity
  8
DEFPOINTS
 62
     0
100
AcDbPoint
 10
972.0000000000007
 20
852.7520497554707
 30
0.0
  0
POINT
  5
6B8
330
6AE
100
AcDbEntity
  8
DEFPOINTS
 62
     0
100
AcDbPoint
 10
972.0000000000007
 20
858.7520497554797
 30
0.0
  0
POINT
  5
6B9
330
6AE
100
AcDbEntity
  8
DEFPOINTS
 62
     0
100
AcDbPoint
 10
972.0000000000007
 20
858.7520497554797
 30
0.0
  0
ENDBLK
  5
6B0
330
6AE
100
AcDbEntity
  8
0
100
AcDbBlockEnd
  0
ENDSEC
  0
SECTION
  2
ENTITIES
  0
LINE
  5
D5
330
1F
100
AcDbEntity
  8
LAY-10
  6
CONTINUOUS
 62
     7
100
AcDbLine
 10
2473.923511271694
 20
2253.202674191813
 30
0.0
 11
2475.591528417217
 21
2254.870691337335
 31
0.0
  0
LINE
  5
D6
330
1F
100
AcDbEntity
  8
LAY-10
  6
CONTINUOUS
 62
     7
100
AcDbLine
 10
2473.923511271694
 20
2239.060538568081
 30
0.0
 11
2489.733664040948
 21
2254.870691337335
 31
0.0
  0
LINE
  5
D7
330
1F
100
AcDbEntity
  8
LAY-10
  6
CONTINUOUS
 62
     7
100
AcDbLine
 10
2473.923511271694
 20
2224.91840294435
 30
0.0
 11
2503.875799664679
 21
2254.870691337335
 31
0.0
  0
LINE
  5
D8
330
1F
100
AcDbEntity
  8
LAY-10
  6
CONTINUOUS
 62
     7
100
AcDbLine
 10
2473.923511271694
 20
2210.77626732062
 30
0.0
 11
2518.01793528841
 21
2254.870691337335
 31
0.0
  0
LINE
  5
D9
330
1F
100
AcDbEntity
  8
LAY-10
  6
CONTINUOUS
 62
     7
100
AcDbLine
 10
2473.923511271694
 20
2196.634131696888
 30
0.0
 11
2520.723511271677
 21
2243.434131696872
 31
0.0
  0
LINE
  5
DA
330
1F
100
AcDbEntity
  8
LAY-10
  6
CONTINUOUS
 62
     7
100
AcDbLine
 10
2473.923511271694
 20
2182.491996073158
 30
0.0
 11
2520.723511271677
 21
2229.291996073141
 31
0.0
  0
LINE
  5
DB
330
1F
100
AcDbEntity
  8
LAY-10
  6
CONTINUOUS
 62
     7
100
AcDbLine
 10
2473.923511271694
 20
2168.349860449426
 30
0.0
 11
2520.723511271677
 21
2215.14986044941
 31
0.0
  0
LINE
  5
DC
330
1F
100
AcDbEntity
  8
LAY-10
  6
CONTINUOUS
 62
     7
100
AcDbLine
 10
2473.923511271694
 20
2154.207724825696
 30
0.0
 11
2520.723511271678
 21
2201.007724825679
 31
0.0
  0
LINE
  5
DD
330
1F
100
AcDbEntity
  8
LAY-10
  6
CONTINUOUS
 62
     7
100
AcDbLine
 10
2473.923511271694
 20
2140.065589201965
 30
0.0
 11
2520.723511271678
 21
2186.865589201948
 31
0.0
  0
LINE
  5
DE
330
1F
100
AcDbEntity
  8
LAY-10
  6
CONTINUOUS
 62
     7
100
AcDbLine
 10
2473.923511271694
 20
2125.923453578234
 30
0.0
 11
2520.723511271677
 21
2172.723453578217
 31
0.0
  0
LINE
  5
DF
330
1F
100
AcDbEntity
  8
LAY-10
  6
CONTINUOUS
 62
     7
100
AcDbLine
 10
2473.923511271694
 20
2111.781317954503
 30
0.0
 11
2520.723511271677
 21
2158.581317954487
 31
0.0
  0
LINE
  5
E0
330
1F
100
AcDbEntity
  8
LAY-10
  6
CONTINUOUS
 62
     7
100
AcDbLine
 10
2473.923511271694
 20
2097.639182330772
 30
0.0
 11
2520.723511271677
 21
2144.439182330755
 31
0.0
  0
LINE
  5
E1
330
1F
100
AcDbEntity
  8
LAY-10
  6
CONTINUOUS
 62
     7
100
AcDbLine
 10
2473.923511271694
 20
2083.497046707041
 30
0.0
 11
2520.723511271678
 21
2130.297046707024
 31
0.0
  0
LINE
  5
E2
330
1F
100
AcDbEntity
  8
LAY-10
  6
CONTINUOUS
 62
     7
100
AcDbLine
 10
2473.923511271681
 20
2069.354911083297
 30
0.0
 11
2520.723511271677
 21
2116.154911083293
 31
0.0
  0
LINE
  5
E3
330
1F
100
AcDbEntity
  8
LAY-10
  6
CONTINUOUS
 62
     7
100
AcDbLine
 10
2473.923511271681
 20
2055.212775459567
 30
0.0
 11
2520.723511271677
 21
2102.012775459562
 31
0.0
  0
LINE
  5
E4
330
1F
100
AcDbEntity
  8
LAY-10
  6
CONTINUOUS
 62
     7
100
AcDbLine
 10
2473.923511271681
 20
2041.070639835835
 30
0.0
 11
2520.723511271677
 21
2087.870639835832
 31
0.0
  0
LINE
  5
E5
330
1F
100
AcDbEntity
  8
LAY-10
  6
CONTINUOUS
 62
     7
100
AcDbLine
 10
2473.923511271681
 20
2026.928504212104
 30
0.0
 11
2520.723511271677
 21
2073.728504212101
 31
0.0
  0
LINE
  5
E6
330
1F
100
AcDbEntity
  8
LAY-10
  6
CONTINUOUS
 62
     7
100
AcDbLine
 10
2473.923511271681
 20
2012.786368588374
 30
0.0
 11
2520.723511271678
 21
2059.58636858837
 31
0.0
  0
LINE
  5
E7
330
1F
100
AcDbEntity
  8
LAY-10
  6
CONTINUOUS
 62
     7
100
AcDbLine
 10
2473.923511271681
 20
1998.644232964642
 30
0.0
 11
2520.723511271677
 21
2045.444232964638
 31
0.0
  0
LINE
  5
E8
330
1F
100
AcDbEntity
  8
LAY-10
  6
CONTINUOUS
 62
     7
100
AcDbLine
 10
2473.923511271681
 20
1984.502097340911
 30
0.0
 11
2520.723511271677
 21
2031.302097340907
 31
0.0
  0
LINE
  5
E9
330
1F
100
AcDbEntity
  8
LAY-10
  6
CONTINUOUS
 62
     7
100
AcDbLine
 10
2473.923511271681
 20
1970.359961717181
 30
0.0
 11
2520.723511271677
 21
2017.159961717177
 31
0.0
  0
LINE
  5
EA
330
1F
100
AcDbEntity
  8
LAY-10
  6
CONTINUOUS
 62
     7
100
AcDbLine
 10
2473.923511271681
 20
1956.21782609345
 30
0.0
 11
2520.723511271677
 21
2003.017826093445
 31
0.0
  0
LINE
  5
EB
330
1F
100
AcDbEntity
  8
LAY-10
  6
CONTINUOUS
 62
     7
100
AcDbLine
 10
2473.923511271681
 20
1942.075690469719
 30
0.0
 11
2520.723511271678
 21
1988.875690469715
 31
0.0
  0
LINE
  5
EC
330
1F
100
AcDbEntity
  8
LAY-10
  6
CONTINUOUS
 62
     7
100
AcDbLine
 10
2473.923511271681
 20
1927.933554845987
 30
0.0
 11
2520.723511271677
 21
1974.733554845984
 31
0.0
  0
LINE
  5
ED
330
1F
100
AcDbEntity
  8
LAY-10
  6
CONTINUOUS
 62
     7
100
AcDbLine
 10
2473.923511271681
 20
1913.791419222257
 30
0.0
 11
2520.723511271677
 21
1960.591419222252
 31
0.0
  0
LINE
  5
EE
330
1F
100
AcDbEntity
  8
LAY-10
  6
CONTINUOUS
 62
     7
100
AcDbLine
 10
2473.923511271681
 20
1899.649283598525
 30
0.0
 11
2520.723511271677
 21
1946.449283598522
 31
0.0
  0
LINE
  5
EF
330
1F
100
AcDbEntity
  8
LAY-10
  6
CONTINUOUS
 62
     7
100
AcDbLine
 10
2473.923511271681
 20
1885.507147974795
 30
0.0
 11
2520.723511271677
 21
1932.30714797479
 31
0.0
  0
LINE
  5
F0
330
1F
100
AcDbEntity
  8
LAY-10
  6
CONTINUOUS
 62
     7
100
AcDbLine
 10
2473.923511271681
 20
1871.365012351064
 30
0.0
 11
2520.723511271678
 21
1918.16501235106
 31
0.0
  0
LINE
  5
F1
330
1F
100
AcDbEntity
  8
LAY-10
  6
CONTINUOUS
 62
     7
100
AcDbLine
 10
2473.923511271681
 20
1857.222876727333
 30
0.0
 11
2520.723511271677
 21
1904.022876727329
 31
0.0
  0
LINE
  5
F2
330
1F
100
AcDbEntity
  8
LAY-10
  6
CONTINUOUS
 62
     7
100
AcDbLine
 10
2473.923511271681
 20
1843.080741103602
 30
0.0
 11
2520.723511271677
 21
1889.880741103598
 31
0.0
  0
LINE
  5
F3
330
1F
100
AcDbEntity
  8
LAY-10
  6
CONTINUOUS
 62
     7
100
AcDbLine
 10
2473.923511271681
 20
1828.938605479871
 30
0.0
 11
2520.723511271677
 21
1875.738605479867
 31
0.0
  0
LINE
  5
F4
330
1F
100
AcDbEntity
  8
LAY-10
  6
CONTINUOUS
 62
     7
100
AcDbLine
 10
2473.923511271681
 20
1814.79646985614
 30
0.0
 11
2520.723511271677
 21
1861.596469856136
 31
0.0
  0
LINE
  5
F5
330
1F
100
AcDbEntity
  8
LAY-10
  6
CONTINUOUS
 62
     7
100
AcDbLine
 10
2473.923511271681
 20
1800.654334232409
 30
0.0
 11
2520.723511271678
 21
1847.454334232406
 31
0.0
  0
LINE
  5
F6
330
1F
100
AcDbEntity
  8
LAY-10
  6
CONTINUOUS
 62
     7
100
AcDbLine
 10
2473.923511271681
 20
1786.512198608679
 30
0.0
 11
2520.723511271677
 21
1833.312198608674
 31
0.0
  0
LINE
  5
F7
330
1F
100
AcDbEntity
  8
LAY-10
  6
CONTINUOUS
 62
     7
100
AcDbLine
 10
2473.923511271681
 20
1772.370062984947
 30
0.0
 11
2520.723511271677
 21
1819.170062984944
 31
0.0
  0
LINE
  5
F8
330
1F
100
AcDbEntity
  8
LAY-10
  6
CONTINUOUS
 62
     7
100
AcDbLine
 10
2473.923511271681
 20
1758.227927361216
 30
0.0
 11
2520.723511271677
 21
1805.027927361212
 31
0.0
  0
LINE
  5
F9
330
1F
100
AcDbEntity
  8
LAY-10
  6
CONTINUOUS
 62
     7
100
AcDbLine
 10
2473.923511271681
 20
1744.085791737485
 30
0.0
 11
2520.723511271677
 21
1790.885791737481
 31
0.0
  0
LINE
  5
FA
330
1F
100
AcDbEntity
  8
LAY-10
  6
CONTINUOUS
 62
     7
100
AcDbLine
 10
2473.923511271681
 20
1729.943656113754
 30
0.0
 11
2520.723511271678
 21
1776.743656113751
 31
0.0
  0
LINE
  5
FB
330
1F
100
AcDbEntity
  8
LAY-10
  6
CONTINUOUS
 62
     7
100
AcDbLine
 10
2473.923511271681
 20
1715.801520490024
 30
0.0
 11
2520.723511271677
 21
1762.601520490019
 31
0.0
  0
LINE
  5
FC
330
1F
100
AcDbEntity
  8
LAY-10
  6
CONTINUOUS
 62
     7
100
AcDbLine
 10
2473.923511271681
 20
1701.659384866292
 30
0.0
 11
2520.723511271677
 21
1748.459384866289
 31
0.0
  0
LINE
  5
FD
330
1F
100
AcDbEntity
  8
LAY-10
  6
CONTINUOUS
 62
     7
100
AcDbLine
 10
2473.923511271681
 20
1687.517249242562
 30
0.0
 11
2520.723511271677
 21
1734.317249242557
 31
0.0
  0
LINE
  5
FE
330
1F
100
AcDbEntity
  8
LAY-10
  6
CONTINUOUS
 62
     7
100
AcDbLine
 10
2473.923511271681
 20
1673.37511361883
 30
0.0
 11
2520.723511271677
 21
1720.175113618827
 31
0.0
  0
LINE
  5
FF
330
1F
100
AcDbEntity
  8
LAY-10
  6
CONTINUOUS
 62
     7
100
AcDbLine
 10
2473.923511271681
 20
1659.232977995099
 30
0.0
 11
2520.723511271678
 21
1706.032977995096
 31
0.0
  0
LINE
  5
100
330
1F
100
AcDbEntity
  8
LAY-10
  6
CONTINUOUS
 62
     7
100
AcDbLine
 10
2473.923511271681
 20
1645.090842371369
 30
0.0
 11
2520.723511271677
 21
1691.890842371364
 31
0.0
  0
LINE
  5
101
330
1F
100
AcDbEntity
  8
LAY-10
  6
CONTINUOUS
 62
     7
100
AcDbLine
 10
2473.923511271681
 20
1630.948706747638
 30
0.0
 11
2520.723511271677
 21
1677.748706747634
 31
0.0
  0
LINE
  5
102
330
1F
100
AcDbEntity
  8
LAY-10
  6
CONTINUOUS
 62
     7
100
AcDbLine
 10
2473.923511271681
 20
1616.806571123907
 30
0.0
 11
2520.723511271677
 21
1663.606571123903
 31
0.0
  0
LINE
  5
103
330
1F
100
AcDbEntity
  8
LAY-10
  6
CONTINUOUS
 62
     7
100
AcDbLine
 10
2473.923511271681
 20
1602.664435500176
 30
0.0
 11
2520.723511271677
 21
1649.464435500172
 31
0.0
  0
LINE
  5
104
330
1F
100
AcDbEntity
  8
LAY-10
  6
CONTINUOUS
 62
     7
100
AcDbLine
 10
2473.923511271681
 20
1588.522299876445
 30
0.0
 11
2520.723511271677
 21
1635.322299876441
 31
0.0
  0
LINE
  5
105
330
1F
100
AcDbEntity
  8
LAY-10
  6
CONTINUOUS
 62
     7
100
AcDbLine
 10
2473.923511271681
 20
1574.380164252714
 30
0.0
 11
2520.723511271677
 21
1621.18016425271
 31
0.0
  0
LINE
  5
106
330
1F
100
AcDbEntity
  8
LAY-10
  6
CONTINUOUS
 62
     7
100
AcDbLine
 10
2473.923511271681
 20
1560.238028628983
 30
0.0
 11
2520.723511271677
 21
1607.038028628979
 31
0.0
  0
LINE
  5
107
330
1F
100
AcDbEntity
  8
LAY-10
  6
CONTINUOUS
 62
     7
100
AcDbLine
 10
2473.923511271681
 20
1546.095893005252
 30
0.0
 11
2520.723511271677
 21
1592.895893005248
 31
0.0
  0
LINE
  5
108
330
1F
100
AcDbEntity
  8
LAY-10
  6
CONTINUOUS
 62
     7
100
AcDbLine
 10
2473.923511271681
 20
1531.953757381521
 30
0.0
 11
2520.723511271677
 21
1578.753757381517
 31
0.0
  0
LINE
  5
109
330
1F
100
AcDbEntity
  8
LAY-10
  6
CONTINUOUS
 62
     7
100
AcDbLine
 10
2473.923511271681
 20
1517.81162175779
 30
0.0
 11
2520.723511271677
 21
1564.611621757786
 31
0.0
  0
LINE
  5
10A
330
1F
100
AcDbEntity
  8
LAY-10
  6
CONTINUOUS
 62
     7
100
AcDbLine
 10
2473.923511271681
 20
1503.669486134059
 30
0.0
 11
2520.723511271677
 21
1550.469486134056
 31
0.0
  0
LINE
  5
10B
330
1F
100
AcDbEntity
  8
LAY-10
  6
CONTINUOUS
 62
     7
100
AcDbLine
 10
2473.923511271681
 20
1489.527350510328
 30
0.0
 11
2520.723511271677
 21
1536.327350510324
 31
0.0
  0
LINE
  5
10C
330
1F
100
AcDbEntity
  8
LAY-10
  6
CONTINUOUS
 62
     7
100
AcDbLine
 10
2473.923511271681
 20
1475.385214886597
 30
0.0
 11
2520.723511271677
 21
1522.185214886593
 31
0.0
  0
LINE
  5
10D
330
1F
100
AcDbEntity
  8
LAY-10
  6
CONTINUOUS
 62
     7
100
AcDbLine
 10
2473.923511271681
 20
1461.243079262866
 30
0.0
 11
2520.723511271677
 21
1508.043079262862
 31
0.0
  0
LINE
  5
10E
330
1F
100
AcDbEntity
  8
LAY-10
  6
CONTINUOUS
 62
     7
100
AcDbLine
 10
2473.923511271681
 20
1447.100943639135
 30
0.0
 11
2520.723511271677
 21
1493.900943639131
 31
0.0
  0
LINE
  5
10F
330
1F
100
AcDbEntity
  8
LAY-10
  6
CONTINUOUS
 62
     7
100
AcDbLine
 10
2473.923511271681
 20
1432.958808015404
 30
0.0
 11
2520.723511271677
 21
1479.758808015401
 31
0.0
  0
LINE
  5
110
330
1F
100
AcDbEntity
  8
LAY-10
  6
CONTINUOUS
 62
     7
100
AcDbLine
 10
2473.923511271681
 20
1418.816672391674
 30
0.0
 11
2520.723511271677
 21
1465.616672391669
 31
0.0
  0
LINE
  5
111
330
1F
100
AcDbEntity
  8
LAY-10
  6
CONTINUOUS
 62
     7
100
AcDbLine
 10
2473.923511271681
 20
1404.674536767942
 30
0.0
 11
2520.723511271677
 21
1451.474536767939
 31
0.0
  0
LINE
  5
112
330
1F
100
AcDbEntity
  8
LAY-10
  6
CONTINUOUS
 62
     7
100
AcDbLine
 10
2473.923511271681
 20
1390.532401144211
 30
0.0
 11
2520.723511271677
 21
1437.332401144207
 31
0.0
  0
LINE
  5
113
330
1F
100
AcDbEntity
  8
LAY-10
  6
CONTINUOUS
 62
     7
100
AcDbLine
 10
2473.923511271681
 20
1376.39026552048
 30
0.0
 11
2520.723511271677
 21
1423.190265520476
 31
0.0
  0
LINE
  5
114
330
1F
100
AcDbEntity
  8
LAY-10
  6
CONTINUOUS
 62
     7
100
AcDbLine
 10
2473.923511271681
 20
1362.248129896749
 30
0.0
 11
2520.723511271677
 21
1409.048129896746
 31
0.0
  0
LINE
  5
115
330
1F
100
AcDbEntity
  8
LAY-10
  6
CONTINUOUS
 62
     7
100
AcDbLine
 10
2473.923511271681
 20
1348.105994273018
 30
0.0
 11
2520.723511271677
 21
1394.905994273014
 31
0.0
  0
LINE
  5
116
330
1F
100
AcDbEntity
  8
LAY-10
  6
CONTINUOUS
 62
     7
100
AcDbLine
 10
2473.923511271681
 20
1333.963858649288
 30
0.0
 11
2520.723511271677
 21
1380.763858649284
 31
0.0
  0
LINE
  5
117
330
1F
100
AcDbEntity
  8
LAY-10
  6
CONTINUOUS
 62
     7
100
AcDbLine
 10
2473.923511271681
 20
1319.821723025556
 30
0.0
 11
2520.723511271677
 21
1366.621723025553
 31
0.0
  0
LINE
  5
118
330
1F
100
AcDbEntity
  8
LAY-10
  6
CONTINUOUS
 62
     7
100
AcDbLine
 10
2473.923511271681
 20
1305.679587401826
 30
0.0
 11
2520.723511271677
 21
1352.479587401821
 31
0.0
  0
LINE
  5
119
330
1F
100
AcDbEntity
  8
LAY-10
  6
CONTINUOUS
 62
     7
100
AcDbLine
 10
2473.923511271681
 20
1291.537451778094
 30
0.0
 11
2520.723511271677
 21
1338.337451778091
 31
0.0
  0
LINE
  5
11A
330
1F
100
AcDbEntity
  8
LAY-10
  6
CONTINUOUS
 62
     7
100
AcDbLine
 10
2473.923511271681
 20
1277.395316154364
 30
0.0
 11
2520.723511271677
 21
1324.19531615436
 31
0.0
  0
LINE
  5
11B
330
1F
100
AcDbEntity
  8
LAY-10
  6
CONTINUOUS
 62
     7
100
AcDbLine
 10
2484.741022078379
 20
1274.07069133733
 30
0.0
 11
2520.723511271677
 21
1310.053180530629
 31
0.0
  0
LINE
  5
11C
330
1F
100
AcDbEntity
  8
LAY-10
  6
CONTINUOUS
 62
     7
100
AcDbLine
 10
2498.88315770211
 20
1274.07069133733
 30
0.0
 11
2520.723511271677
 21
1295.911044906898
 31
0.0
  0
LINE
  5
11D
330
1F
100
AcDbEntity
  8
LAY-10
  6
CONTINUOUS
 62
     7
100
AcDbLine
 10
2513.025293325853
 20
1274.070691337343
 30
0.0
 11
2520.723511271677
 21
1281.768909283167
 31
0.0
  0
LINE
  5
11E
330
1F
100
AcDbEntity
  8
LAY-10
  6
CONTINUOUS
 62
     7
100
AcDbLine
 10
2483.573468058889
 20
1274.070691337348
 30
0.0
 11
2473.923511271681
 21
1283.720648124556
 31
0.0
  0
LINE
  5
11F
330
1F
100
AcDbEntity
  8
LAY-10
  6
CONTINUOUS
 62
     7
100
AcDbLine
 10
2497.715603682621
 20
1274.070691337348
 30
0.0
 11
2473.923511271681
 21
1297.862783748287
 31
0.0
  0
LINE
  5
120
330
1F
100
AcDbEntity
  8
LAY-10
  6
CONTINUOUS
 62
     7
100
AcDbLine
 10
2511.857739306364
 20
1274.070691337335
 30
0.0
 11
2473.923511271681
 21
1312.004919372018
 31
0.0
  0
LINE
  5
121
330
1F
100
AcDbEntity
  8
LAY-10
  6
CONTINUOUS
 62
     7
100
AcDbLine
 10
2520.723511271677
 20
1279.347054995753
 30
0.0
 11
2473.923511271681
 21
1326.147054995749
 31
0.0
  0
LINE
  5
122
330
1F
100
AcDbEntity
  8
LAY-10
  6
CONTINUOUS
 62
     7
100
AcDbLine
 10
2520.723511271677
 20
1293.489190619483
 30
0.0
 11
2473.923511271681
 21
1340.28919061948
 31
0.0
  0
LINE
  5
123
330
1F
100
AcDbEntity
  8
LAY-10
  6
CONTINUOUS
 62
     7
100
AcDbLine
 10
2520.723511271677
 20
1307.631326243215
 30
0.0
 11
2473.923511271681
 21
1354.43132624321
 31
0.0
  0
LINE
  5
124
330
1F
100
AcDbEntity
  8
LAY-10
  6
CONTINUOUS
 62
     7
100
AcDbLine
 10
2520.723511271677
 20
1321.773461866945
 30
0.0
 11
2473.923511271681
 21
1368.573461866942
 31
0.0
  0
LINE
  5
125
330
1F
100
AcDbEntity
  8
LAY-10
  6
CONTINUOUS
 62
     7
100
AcDbLine
 10
2520.723511271677
 20
1335.915597490677
 30
0.0
 11
2473.923511271681
 21
1382.715597490673
 31
0.0
  0
LINE
  5
126
330
1F
100
AcDbEntity
  8
LAY-10
  6
CONTINUOUS
 62
     7
100
AcDbLine
 10
2520.723511271677
 20
1350.057733114407
 30
0.0
 11
2473.923511271681
 21
1396.857733114404
 31
0.0
  0
LINE
  5
127
330
1F
100
AcDbEntity
  8
LAY-10
  6
CONTINUOUS
 62
     7
100
AcDbLine
 10
2520.723511271677
 20
1364.199868738138
 30
0.0
 11
2473.923511271681
 21
1410.999868738135
 31
0.0
  0
LINE
  5
128
330
1F
100
AcDbEntity
  8
LAY-10
  6
CONTINUOUS
 62
     7
100
AcDbLine
 10
2520.723511271677
 20
1378.34200436187
 30
0.0
 11
2473.923511271681
 21
1425.142004361865
 31
0.0
  0
LINE
  5
129
330
1F
100
AcDbEntity
  8
LAY-10
  6
CONTINUOUS
 62
     7
100
AcDbLine
 10
2520.723511271677
 20
1392.4841399856
 30
0.0
 11
2473.923511271681
 21
1439.284139985597
 31
0.0
  0
LINE
  5
12A
330
1F
100
AcDbEntity
  8
LAY-10
  6
CONTINUOUS
 62
     7
100
AcDbLine
 10
2520.723511271677
 20
1406.626275609332
 30
0.0
 11
2473.923511271681
 21
1453.426275609327
 31
0.0
  0
LINE
  5
12B
330
1F
100
AcDbEntity
  8
LAY-10
  6
CONTINUOUS
 62
     7
100
AcDbLine
 10
2520.723511271677
 20
1420.768411233062
 30
0.0
 11
2473.923511271681
 21
1467.568411233059
 31
0.0
  0
LINE
  5
12C
330
1F
100
AcDbEntity
  8
LAY-10
  6
CONTINUOUS
 62
     7
100
AcDbLine
 10
2520.723511271677
 20
1434.910546856793
 30
0.0
 11
2473.923511271681
 21
1481.71054685679
 31
0.0
  0
LINE
  5
12D
330
1F
100
AcDbEntity
  8
LAY-10
  6
CONTINUOUS
 62
     7
100
AcDbLine
 10
2520.723511271677
 20
1449.052682480524
 30
0.0
 11
2473.923511271681
 21
1495.85268248052
 31
0.0
  0
LINE
  5
12E
330
1F
100
AcDbEntity
  8
LAY-10
  6
CONTINUOUS
 62
     7
100
AcDbLine
 10
2520.723511271677
 20
1463.194818104255
 30
0.0
 11
2473.923511271681
 21
1509.994818104252
 31
0.0
  0
LINE
  5
12F
330
1F
100
AcDbEntity
  8
LAY-10
  6
CONTINUOUS
 62
     7
100
AcDbLine
 10
2520.723511271677
 20
1477.336953727987
 30
0.0
 11
2473.923511271681
 21
1524.136953727982
 31
0.0
  0
LINE
  5
130
330
1F
100
AcDbEntity
  8
LAY-10
  6
CONTINUOUS
 62
     7
100
AcDbLine
 10
2520.723511271677
 20
1491.479089351717
 30
0.0
 11
2473.923511271681
 21
1538.279089351713
 31
0.0
  0
LINE
  5
131
330
1F
100
AcDbEntity
  8
LAY-10
  6
CONTINUOUS
 62
     7
100
AcDbLine
 10
2520.723511271677
 20
1505.621224975448
 30
0.0
 11
2473.923511271681
 21
1552.421224975444
 31
0.0
  0
LINE
  5
132
330
1F
100
AcDbEntity
  8
LAY-10
  6
CONTINUOUS
 62
     7
100
AcDbLine
 10
2520.723511271677
 20
1519.763360599179
 30
0.0
 11
2473.923511271681
 21
1566.563360599175
 31
0.0
  0
LINE
  5
133
330
1F
100
AcDbEntity
  8
LAY-10
  6
CONTINUOUS
 62
     7
100
AcDbLine
 10
2520.723511271677
 20
1533.90549622291
 30
0.0
 11
2473.923511271681
 21
1580.705496222907
 31
0.0
  0
LINE
  5
134
330
1F
100
AcDbEntity
  8
LAY-10
  6
CONTINUOUS
 62
     7
100
AcDbLine
 10
2520.723511271677
 20
1548.047631846641
 30
0.0
 11
2473.923511271681
 21
1594.847631846637
 31
0.0
  0
LINE
  5
135
330
1F
100
AcDbEntity
  8
LAY-10
  6
CONTINUOUS
 62
     7
100
AcDbLine
 10
2520.723511271677
 20
1562.189767470372
 30
0.0
 11
2473.923511271681
 21
1608.989767470368
 31
0.0
  0
LINE
  5
136
330
1F
100
AcDbEntity
  8
LAY-10
  6
CONTINUOUS
 62
     7
100
AcDbLine
 10
2520.723511271677
 20
1576.331903094103
 30
0.0
 11
2473.923511271681
 21
1623.131903094098
 31
0.0
  0
LINE
  5
137
330
1F
100
AcDbEntity
  8
LAY-10
  6
CONTINUOUS
 62
     7
100
AcDbLine
 10
2520.723511271677
 20
1590.474038717833
 30
0.0
 11
2473.923511271681
 21
1637.27403871783
 31
0.0
  0
LINE
  5
138
330
1F
100
AcDbEntity
  8
LAY-10
  6
CONTINUOUS
 62
     7
100
AcDbLine
 10
2520.723511271677
 20
1604.616174341565
 30
0.0
 11
2473.923511271681
 21
1651.41617434156
 31
0.0
  0
LINE
  5
139
330
1F
100
AcDbEntity
  8
LAY-10
  6
CONTINUOUS
 62
     7
100
AcDbLine
 10
2520.723511271677
 20
1618.758309965295
 30
0.0
 11
2473.923511271681
 21
1665.558309965292
 31
0.0
  0
LINE
  5
13A
330
1F
100
AcDbEntity
  8
LAY-10
  6
CONTINUOUS
 62
     7
100
AcDbLine
 10
2520.723511271677
 20
1632.900445589027
 30
0.0
 11
2473.923511271681
 21
1679.700445589023
 31
0.0
  0
LINE
  5
13B
330
1F
100
AcDbEntity
  8
LAY-10
  6
CONTINUOUS
 62
     7
100
AcDbLine
 10
2520.723511271677
 20
1647.042581212758
 30
0.0
 11
2473.923511271681
 21
1693.842581212753
 31
0.0
  0
LINE
  5
13C
330
1F
100
AcDbEntity
  8
LAY-10
  6
CONTINUOUS
 62
     7
100
AcDbLine
 10
2520.723511271677
 20
1661.184716836488
 30
0.0
 11
2473.923511271681
 21
1707.984716836485
 31
0.0
  0
LINE
  5
13D
330
1F
100
AcDbEntity
  8
LAY-10
  6
CONTINUOUS
 62
     7
100
AcDbLine
 10
2520.723511271677
 20
1675.32685246022
 30
0.0
 11
2473.923511271681
 21
1722.126852460215
 31
0.0
  0
LINE
  5
13E
330
1F
100
AcDbEntity
  8
LAY-10
  6
CONTINUOUS
 62
     7
100
AcDbLine
 10
2520.723511271677
 20
1689.46898808395
 30
0.0
 11
2473.923511271681
 21
1736.268988083947
 31
0.0
  0
LINE
  5
13F
330
1F
100
AcDbEntity
  8
LAY-10
  6
CONTINUOUS
 62
     7
100
AcDbLine
 10
2520.723511271677
 20
1703.611123707682
 30
0.0
 11
2473.923511271681
 21
1750.411123707677
 31
0.0
  0
LINE
  5
140
330
1F
100
AcDbEntity
  8
LAY-10
  6
CONTINUOUS
 62
     7
100
AcDbLine
 10
2520.723511271677
 20
1717.753259331412
 30
0.0
 11
2473.923511271681
 21
1764.553259331408
 31
0.0
  0
LINE
  5
141
330
1F
100
AcDbEntity
  8
LAY-10
  6
CONTINUOUS
 62
     7
100
AcDbLine
 10
2520.723511271677
 20
1731.895394955143
 30
0.0
 11
2473.923511271681
 21
1778.69539495514
 31
0.0
  0
LINE
  5
142
330
1F
100
AcDbEntity
  8
LAY-10
  6
CONTINUOUS
 62
     7
100
AcDbLine
 10
2520.723511271677
 20
1746.037530578875
 30
0.0
 11
2473.923511271681
 21
1792.83753057887
 31
0.0
  0
LINE
  5
143
330
1F
100
AcDbEntity
  8
LAY-10
  6
CONTINUOUS
 62
     7
100
AcDbLine
 10
2520.723511271677
 20
1760.179666202605
 30
0.0
 11
2473.923511271681
 21
1806.979666202602
 31
0.0
  0
LINE
  5
144
330
1F
100
AcDbEntity
  8
LAY-10
  6
CONTINUOUS
 62
     7
100
AcDbLine
 10
2520.723511271677
 20
1774.321801826336
 30
0.0
 11
2473.923511271681
 21
1821.121801826332
 31
0.0
  0
LINE
  5
145
330
1F
100
AcDbEntity
  8
LAY-10
  6
CONTINUOUS
 62
     7
100
AcDbLine
 10
2520.723511271677
 20
1788.463937450067
 30
0.0
 11
2473.923511271681
 21
1835.263937450063
 31
0.0
  0
LINE
  5
146
330
1F
100
AcDbEntity
  8
LAY-10
  6
CONTINUOUS
 62
     7
100
AcDbLine
 10
2520.723511271677
 20
1802.606073073798
 30
0.0
 11
2473.923511271681
 21
1849.406073073794
 31
0.0
  0
LINE
  5
147
330
1F
100
AcDbEntity
  8
LAY-10
  6
CONTINUOUS
 62
     7
100
AcDbLine
 10
2520.723511271677
 20
1816.748208697529
 30
0.0
 11
2473.923511271681
 21
1863.548208697525
 31
0.0
  0
LINE
  5
148
330
1F
100
AcDbEntity
  8
LAY-10
  6
CONTINUOUS
 62
     7
100
AcDbLine
 10
2520.723511271677
 20
1830.89034432126
 30
0.0
 11
2473.923511271681
 21
1877.690344321257
 31
0.0
  0
LINE
  5
149
330
1F
100
AcDbEntity
  8
LAY-10
  6
CONTINUOUS
 62
     7
100
AcDbLine
 10
2520.723511271677
 20
1845.032479944991
 30
0.0
 11
2473.923511271681
 21
1891.832479944987
 31
0.0
  0
LINE
  5
14A
330
1F
100
AcDbEntity
  8
LAY-10
  6
CONTINUOUS
 62
     7
100
AcDbLine
 10
2520.723511271677
 20
1859.174615568721
 30
0.0
 11
2473.923511271681
 21
1905.974615568718
 31
0.0
  0
LINE
  5
14B
330
1F
100
AcDbEntity
  8
LAY-10
  6
CONTINUOUS
 62
     7
100
AcDbLine
 10
2520.723511271677
 20
1873.316751192453
 30
0.0
 11
2473.923511271681
 21
1920.116751192448
 31
0.0
  0
LINE
  5
14C
330
1F
100
AcDbEntity
  8
LAY-10
  6
CONTINUOUS
 62
     7
100
AcDbLine
 10
2520.723511271677
 20
1887.458886816183
 30
0.0
 11
2473.923511271681
 21
1934.25888681618
 31
0.0
  0
LINE
  5
14D
330
1F
100
AcDbEntity
  8
LAY-10
  6
CONTINUOUS
 62
     7
100
AcDbLine
 10
2520.723511271677
 20
1901.601022439915
 30
0.0
 11
2473.923511271681
 21
1948.401022439911
 31
0.0
  0
LINE
  5
14E
330
1F
100
AcDbEntity
  8
LAY-10
  6
CONTINUOUS
 62
     7
100
AcDbLine
 10
2520.723511271677
 20
1915.743158063646
 30
0.0
 11
2473.923511271681
 21
1962.543158063642
 31
0.0
  0
LINE
  5
14F
330
1F
100
AcDbEntity
  8
LAY-10
  6
CONTINUOUS
 62
     7
100
AcDbLine
 10
2520.723511271677
 20
1929.885293687376
 30
0.0
 11
2473.923511271681
 21
1976.685293687373
 31
0.0
  0
LINE
  5
150
330
1F
100
AcDbEntity
  8
LAY-10
  6
CONTINUOUS
 62
     7
100
AcDbLine
 10
2520.723511271677
 20
1944.027429311108
 30
0.0
 11
2473.923511271681
 21
1990.827429311103
 31
0.0
  0
LINE
  5
151
330
1F
100
AcDbEntity
  8
LAY-10
  6
CONTINUOUS
 62
     7
100
AcDbLine
 10
2520.723511271677
 20
1958.169564934839
 30
0.0
 11
2473.923511271681
 21
2004.969564934835
 31
0.0
  0
LINE
  5
152
330
1F
100
AcDbEntity
  8
LAY-10
  6
CONTINUOUS
 62
     7
100
AcDbLine
 10
2520.723511271677
 20
1972.31170055857
 30
0.0
 11
2473.923511271681
 21
2019.111700558566
 31
0.0
  0
LINE
  5
153
330
1F
100
AcDbEntity
  8
LAY-10
  6
CONTINUOUS
 62
     7
100
AcDbLine
 10
2520.723511271677
 20
1986.4538361823
 30
0.0
 11
2473.923511271681
 21
2033.253836182297
 31
0.0
  0
LINE
  5
154
330
1F
100
AcDbEntity
  8
LAY-10
  6
CONTINUOUS
 62
     7
100
AcDbLine
 10
2520.723511271677
 20
2000.595971806032
 30
0.0
 11
2473.923511271681
 21
2047.395971806028
 31
0.0
  0
LINE
  5
155
330
1F
100
AcDbEntity
  8
LAY-10
  6
CONTINUOUS
 62
     7
100
AcDbLine
 10
2520.723511271677
 20
2014.738107429763
 30
0.0
 11
2473.923511271681
 21
2061.538107429759
 31
0.0
  0
LINE
  5
156
330
1F
100
AcDbEntity
  8
LAY-10
  6
CONTINUOUS
 62
     7
100
AcDbLine
 10
2520.723511271677
 20
2028.880243053494
 30
0.0
 11
2473.923511271681
 21
2075.68024305349
 31
0.0
  0
LINE
  5
157
330
1F
100
AcDbEntity
  8
LAY-10
  6
CONTINUOUS
 62
     7
100
AcDbLine
 10
2520.723511271677
 20
2043.022378677225
 30
0.0
 11
2473.923511271681
 21
2089.822378677221
 31
0.0
  0
LINE
  5
158
330
1F
100
AcDbEntity
  8
LAY-10
  6
CONTINUOUS
 62
     7
100
AcDbLine
 10
2520.723511271677
 20
2057.164514300955
 30
0.0
 11
2473.923511271681
 21
2103.964514300951
 31
0.0
  0
LINE
  5
159
330
1F
100
AcDbEntity
  8
LAY-10
  6
CONTINUOUS
 62
     7
100
AcDbLine
 10
2520.723511271677
 20
2071.306649924686
 30
0.0
 11
2473.923511271681
 21
2118.106649924682
 31
0.0
  0
LINE
  5
15A
330
1F
100
AcDbEntity
  8
LAY-10
  6
CONTINUOUS
 62
     7
100
AcDbLine
 10
2520.723511271677
 20
2085.448785548417
 30
0.0
 11
2473.923511271681
 21
2132.248785548413
 31
0.0
  0
LINE
  5
15B
330
1F
100
AcDbEntity
  8
LAY-10
  6
CONTINUOUS
 62
     7
100
AcDbLine
 10
2520.723511271677
 20
2099.590921172148
 30
0.0
 11
2473.923511271681
 21
2146.390921172144
 31
0.0
  0
LINE
  5
15C
330
1F
100
AcDbEntity
  8
LAY-10
  6
CONTINUOUS
 62
     7
100
AcDbLine
 10
2520.723511271677
 20
2113.733056795879
 30
0.0
 11
2473.923511271681
 21
2160.533056795875
 31
0.0
  0
LINE
  5
15D
330
1F
100
AcDbEntity
  8
LAY-10
  6
CONTINUOUS
 62
     7
100
AcDbLine
 10
2520.723511271677
 20
2127.87519241961
 30
0.0
 11
2473.923511271681
 21
2174.675192419606
 31
0.0
  0
LINE
  5
15E
330
1F
100
AcDbEntity
  8
LAY-10
  6
CONTINUOUS
 62
     7
100
AcDbLine
 10
2520.723511271677
 20
2142.017328043341
 30
0.0
 11
2473.923511271681
 21
2188.817328043337
 31
0.0
  0
LINE
  5
15F
330
1F
100
AcDbEntity
  8
LAY-10
  6
CONTINUOUS
 62
     7
100
AcDbLine
 10
2520.723511271677
 20
2156.159463667072
 30
0.0
 11
2473.923511271681
 21
2202.959463667068
 31
0.0
  0
LINE
  5
160
330
1F
100
AcDbEntity
  8
LAY-10
  6
CONTINUOUS
 62
     7
100
AcDbLine
 10
2520.723511271677
 20
2170.301599290803
 30
0.0
 11
2473.923511271681
 21
2217.101599290799
 31
0.0
  0
LINE
  5
161
330
1F
100
AcDbEntity
  8
LAY-10
  6
CONTINUOUS
 62
     7
100
AcDbLine
 10
2520.723511271677
 20
2184.443734914534
 30
0.0
 11
2473.923511271681
 21
2231.24373491453
 31
0.0
  0
LINE
  5
162
330
1F
100
AcDbEntity
  8
LAY-10
  6
CONTINUOUS
 62
     7
100
AcDbLine
 10
2520.723511271677
 20
2198.585870538264
 30
0.0
 11
2473.923511271681
 21
2245.385870538261
 31
0.0
  0
LINE
  5
163
330
1F
100
AcDbEntity
  8
LAY-10
  6
CONTINUOUS
 62
     7
100
AcDbLine
 10
2520.723511271677
 20
2212.728006161996
 30
0.0
 11
2478.580826096334
 21
2254.870691337339
 31
0.0
  0
LINE
  5
164
330
1F
100
AcDbEntity
  8
LAY-10
  6
CONTINUOUS
 62
     7
100
AcDbLine
 10
2520.723511271677
 20
2226.870141785726
 30
0.0
 11
2492.722961720065
 21
2254.870691337339
 31
0.0
  0
LINE
  5
165
330
1F
100
AcDbEntity
  8
LAY-10
  6
CONTINUOUS
 62
     7
100
AcDbLine
 10
2520.723511271677
 20
2241.012277409458
 30
0.0
 11
2506.865097343795
 21
2254.870691337339
 31
0.0
  0
LINE
  5
166
330
1F
100
AcDbEntity
  8
LAY-10
  6
CONTINUOUS
 62
     7
100
AcDbLine
 10
376.4076841563506
 20
747.1521682778945
 30
0.0
 11
386.6075656338542
 21
757.3520497553983
 31
0.0
  0
LINE
  5
167
330
1F
100
AcDbEntity
  8
LAY-10
  6
CONTINUOUS
 62
     7
100
AcDbLine
 10
376.4076841563506
 20
733.0100326541638
 30
0.0
 11
400.749701257585
 21
757.3520497553983
 31
0.0
  0
LINE
  5
168
330
1F
100
AcDbEntity
  8
LAY-10
  6
CONTINUOUS
 62
     7
100
AcDbLine
 10
376.4076841563506
 20
718.8678970304327
 30
0.0
 11
414.8918368813161
 21
757.3520497553983
 31
0.0
  0
LINE
  5
169
330
1F
100
AcDbEntity
  8
LAY-10
  6
CONTINUOUS
 62
     7
100
AcDbLine
 10
382.2339725050381
 20
710.5520497553895
 30
0.0
 11
429.033972505047
 21
757.3520497553983
 31
0.0
  0
LINE
  5
16A
330
1F
100
AcDbEntity
  8
LAY-10
  6
CONTINUOUS
 62
     7
100
AcDbLine
 10
396.3761081287689
 20
710.5520497553895
 30
0.0
 11
443.176108128778
 21
757.3520497553983
 31
0.0
  0
LINE
  5
16B
330
1F
100
AcDbEntity
  8
LAY-10
  6
CONTINUOUS
 62
     7
100
AcDbLine
 10
410.5182437525
 20
710.5520497553895
 30
0.0
 11
457.3182437525088
 21
757.3520497553983
 31
0.0
  0
LINE
  5
16C
330
1F
100
AcDbEntity
  8
LAY-10
  6
CONTINUOUS
 62
     7
100
AcDbLine
 10
424.660379376231
 20
710.5520497553895
 30
0.0
 11
471.4603793762399
 21
757.3520497553983
 31
0.0
  0
LINE
  5
16D
330
1F
100
AcDbEntity
  8
LAY-10
  6
CONTINUOUS
 62
     7
100
AcDbLine
 10
438.8025149999619
 20
710.5520497553895
 30
0.0
 11
485.6025149999707
 21
757.3520497553983
 31
0.0
  0
LINE
  5
16E
330
1F
100
AcDbEntity
  8
LAY-10
  6
CONTINUOUS
 62
     7
100
AcDbLine
 10
452.9446506236927
 20
710.5520497553895
 30
0.0
 11
499.7446506237018
 21
757.3520497553983
 31
0.0
  0
LINE
  5
16F
330
1F
100
AcDbEntity
  8
LAY-10
  6
CONTINUOUS
 62
     7
100
AcDbLine
 10
467.0867862474238
 20
710.5520497553895
 30
0.0
 11
513.8867862474326
 21
757.3520497553983
 31
0.0
  0
LINE
  5
170
330
1F
100
AcDbEntity
  8
LAY-10
  6
CONTINUOUS
 62
     7
100
AcDbLine
 10
481.2289218711547
 20
710.5520497553895
 30
0.0
 11
528.0289218711637
 21
757.3520497553983
 31
0.0
  0
LINE
  5
171
330
1F
100
AcDbEntity
  8
LAY-10
  6
CONTINUOUS
 62
     7
100
AcDbLine
 10
495.3710574948855
 20
710.5520497553895
 30
0.0
 11
542.1710574948945
 21
757.3520497553983
 31
0.0
  0
LINE
  5
172
330
1F
100
AcDbEntity
  8
LAY-10
  6
CONTINUOUS
 62
     7
100
AcDbLine
 10
509.5131931186165
 20
710.5520497553895
 30
0.0
 11
556.3131931186256
 21
757.3520497553983
 31
0.0
  0
LINE
  5
173
330
1F
100
AcDbEntity
  8
LAY-10
  6
CONTINUOUS
 62
     7
100
AcDbLine
 10
523.6553287423476
 20
710.5520497553895
 30
0.0
 11
570.4553287423562
 21
757.3520497553983
 31
0.0
  0
LINE
  5
174
330
1F
100
AcDbEntity
  8
LAY-10
  6
CONTINUOUS
 62
     7
100
AcDbLine
 10
537.7974643660784
 20
710.5520497553895
 30
0.0
 11
584.5974643660873
 21
757.3520497553978
 31
0.0
  0
LINE
  5
175
330
1F
100
AcDbEntity
  8
LAY-10
  6
CONTINUOUS
 62
     7
100
AcDbLine
 10
551.9395999898093
 20
710.5520497553895
 30
0.0
 11
598.7395999898183
 21
757.3520497553983
 31
0.0
  0
LINE
  5
176
330
1F
100
AcDbEntity
  8
LAY-10
  6
CONTINUOUS
 62
     7
100
AcDbLine
 10
566.0817356135401
 20
710.5520497553895
 30
0.0
 11
612.8817356135489
 21
757.3520497553983
 31
0.0
  0
LINE
  5
177
330
1F
100
AcDbEntity
  8
LAY-10
  6
CONTINUOUS
 62
     7
100
AcDbLine
 10
580.2238712372712
 20
710.5520497553895
 30
0.0
 11
627.02387123728
 21
757.3520497553978
 31
0.0
  0
LINE
  5
178
330
1F
100
AcDbEntity
  8
LAY-10
  6
CONTINUOUS
 62
     7
100
AcDbLine
 10
594.366006861002
 20
710.5520497553895
 30
0.0
 11
641.166006861011
 21
757.3520497553983
 31
0.0
  0
LINE
  5
179
330
1F
100
AcDbEntity
  8
LAY-10
  6
CONTINUOUS
 62
     7
100
AcDbLine
 10
608.5081424847331
 20
710.5520497553895
 30
0.0
 11
655.3081424847421
 21
757.3520497553978
 31
0.0
  0
LINE
  5
17A
330
1F
100
AcDbEntity
  8
LAY-10
  6
CONTINUOUS
 62
     7
100
AcDbLine
 10
622.6502781084639
 20
710.5520497553895
 30
0.0
 11
669.4502781084728
 21
757.3520497553983
 31
0.0
  0
LINE
  5
17B
330
1F
100
AcDbEntity
  8
LAY-10
  6
CONTINUOUS
 62
     7
100
AcDbLine
 10
636.792413732195
 20
710.5520497553895
 30
0.0
 11
683.5924137322038
 21
757.3520497553983
 31
0.0
  0
LINE
  5
17C
330
1F
100
AcDbEntity
  8
LAY-10
  6
CONTINUOUS
 62
     7
100
AcDbLine
 10
650.9345493559257
 20
710.5520497553895
 30
0.0
 11
697.7345493559349
 21
757.3520497553978
 31
0.0
  0
LINE
  5
17D
330
1F
100
AcDbEntity
  8
LAY-10
  6
CONTINUOUS
 62
     7
100
AcDbLine
 10
665.0766849796566
 20
710.5520497553895
 30
0.0
 11
711.8766849796657
 21
757.3520497553983
 31
0.0
  0
LINE
  5
17E
330
1F
100
AcDbEntity
  8
LAY-10
  6
CONTINUOUS
 62
     7
100
AcDbLine
 10
679.2188206033877
 20
710.5520497553895
 30
0.0
 11
726.0188206033968
 21
757.3520497553978
 31
0.0
  0
LINE
  5
17F
330
1F
100
AcDbEntity
  8
LAY-10
  6
CONTINUOUS
 62
     7
100
AcDbLine
 10
693.3609562271188
 20
710.5520497553895
 30
0.0
 11
740.1609562271275
 21
757.3520497553983
 31
0.0
  0
LINE
  5
180
330
1F
100
AcDbEntity
  8
LAY-10
  6
CONTINUOUS
 62
     7
100
AcDbLine
 10
707.5030918508498
 20
710.5520497553895
 30
0.0
 11
754.3030918508586
 21
757.3520497553983
 31
0.0
  0
LINE
  5
181
330
1F
100
AcDbEntity
  8
LAY-10
  6
CONTINUOUS
 62
     7
100
AcDbLine
 10
721.6452274745805
 20
710.5520497553895
 30
0.0
 11
768.44522747459
 21
757.3520497553978
 31
0.0
  0
LINE
  5
182
330
1F
100
AcDbEntity
  8
LAY-10
  6
CONTINUOUS
 62
     7
100
AcDbLine
 10
735.7873630983115
 20
710.5520497553895
 30
0.0
 11
782.5873630983205
 21
757.3520497553983
 31
0.0
  0
LINE
  5
183
330
1F
100
AcDbEntity
  8
LAY-10
  6
CONTINUOUS
 62
     7
100
AcDbLine
 10
749.9294987220426
 20
710.5520497553895
 30
0.0
 11
796.7294987220515
 21
757.3520497553978
 31
0.0
  0
LINE
  5
184
330
1F
100
AcDbEntity
  8
LAY-10
  6
CONTINUOUS
 62
     7
100
AcDbLine
 10
764.0716343457734
 20
710.5520497553895
 30
0.0
 11
810.8716343457826
 21
757.3520497553983
 31
0.0
  0
LINE
  5
185
330
1F
100
AcDbEntity
  8
LAY-10
  6
CONTINUOUS
 62
     7
100
AcDbLine
 10
778.2137699695045
 20
710.5520497553895
 30
0.0
 11
825.0137699695133
 21
757.3520497553983
 31
0.0
  0
LINE
  5
186
330
1F
100
AcDbEntity
  8
LAY-10
  6
CONTINUOUS
 62
     7
100
AcDbLine
 10
792.3559055932355
 20
710.5520497553895
 30
0.0
 11
839.1559055932444
 21
757.3520497553978
 31
0.0
  0
LINE
  5
187
330
1F
100
AcDbEntity
  8
LAY-10
  6
CONTINUOUS
 62
     7
100
AcDbLine
 10
806.4980412169666
 20
710.5520497553895
 30
0.0
 11
853.2980412169752
 21
757.3520497553983
 31
0.0
  0
LINE
  5
188
330
1F
100
AcDbEntity
  8
LAY-10
  6
CONTINUOUS
 62
     7
100
AcDbLine
 10
820.6401768406977
 20
710.5520497553895
 30
0.0
 11
867.4401768407063
 21
757.3520497553978
 31
0.0
  0
LINE
  5
189
330
1F
100
AcDbEntity
  8
LAY-10
  6
CONTINUOUS
 62
     7
100
AcDbLine
 10
834.7823124644282
 20
710.5520497553895
 30
0.0
 11
881.5823124644373
 21
757.3520497553983
 31
0.0
  0
LINE
  5
18A
330
1F
100
AcDbEntity
  8
LAY-10
  6
CONTINUOUS
 62
     7
100
AcDbLine
 10
848.9244480881592
 20
710.5520497553895
 30
0.0
 11
895.724448088168
 21
757.3520497553983
 31
0.0
  0
LINE
  5
18B
330
1F
100
AcDbEntity
  8
LAY-10
  6
CONTINUOUS
 62
     7
100
AcDbLine
 10
863.0665837118903
 20
710.5520497553895
 30
0.0
 11
909.866583711899
 21
757.3520497553978
 31
0.0
  0
LINE
  5
18C
330
1F
100
AcDbEntity
  8
LAY-10
  6
CONTINUOUS
 62
     7
100
AcDbLine
 10
877.208719335621
 20
710.5520497553895
 30
0.0
 11
924.0087193356301
 21
757.3520497553983
 31
0.0
  0
LINE
  5
18D
330
1F
100
AcDbEntity
  8
LAY-10
  6
CONTINUOUS
 62
     7
100
AcDbLine
 10
891.3508549593521
 20
710.5520497553895
 30
0.0
 11
938.1508549593611
 21
757.3520497553978
 31
0.0
  0
LINE
  5
18E
330
1F
100
AcDbEntity
  8
LAY-10
  6
CONTINUOUS
 62
     7
100
AcDbLine
 10
905.4929905830829
 20
710.5520497553895
 30
0.0
 11
952.2929905830918
 21
757.3520497553978
 31
0.0
  0
LINE
  5
18F
330
1F
100
AcDbEntity
  8
LAY-10
  6
CONTINUOUS
 62
     7
100
AcDbLine
 10
919.635126206814
 20
710.5520497553895
 30
0.0
 11
966.4351262068228
 21
757.3520497553978
 31
0.0
  0
LINE
  5
190
330
1F
100
AcDbEntity
  8
LAY-10
  6
CONTINUOUS
 62
     7
100
AcDbLine
 10
933.7772618305451
 20
710.5520497553895
 30
0.0
 11
980.5772618305542
 21
757.3520497553978
 31
0.0
  0
LINE
  5
191
330
1F
100
AcDbEntity
  8
LAY-10
  6
CONTINUOUS
 62
     7
100
AcDbLine
 10
947.9193974542757
 20
710.5520497553895
 30
0.0
 11
994.7193974542853
 21
757.3520497553983
 31
0.0
  0
LINE
  5
192
330
1F
100
AcDbEntity
  8
LAY-10
  6
CONTINUOUS
 62
     7
100
AcDbLine
 10
962.0615330780067
 20
710.5520497553895
 30
0.0
 11
1008.861533078016
 21
757.3520497553978
 31
0.0
  0
LINE
  5
193
330
1F
100
AcDbEntity
  8
LAY-10
  6
CONTINUOUS
 62
     7
100
AcDbLine
 10
976.2036687017379
 20
710.5520497553895
 30
0.0
 11
1023.003668701747
 21
757.3520497553978
 31
0.0
  0
LINE
  5
194
330
1F
100
AcDbEntity
  8
LAY-10
  6
CONTINUOUS
 62
     7
100
AcDbLine
 10
990.345804325469
 20
710.5520497553895
 30
0.0
 11
1037.145804325478
 21
757.3520497553978
 31
0.0
  0
LINE
  5
195
330
1F
100
AcDbEntity
  8
LAY-10
  6
CONTINUOUS
 62
     7
100
AcDbLine
 10
1004.4879399492
 20
710.5520497553895
 30
0.0
 11
1051.287939949209
 21
757.3520497553978
 31
0.0
  0
LINE
  5
196
330
1F
100
AcDbEntity
  8
LAY-10
  6
CONTINUOUS
 62
     7
100
AcDbLine
 10
1018.630075572931
 20
710.5520497553895
 30
0.0
 11
1065.43007557294
 21
757.3520497553983
 31
0.0
  0
LINE
  5
197
330
1F
100
AcDbEntity
  8
LAY-10
  6
CONTINUOUS
 62
     7
100
AcDbLine
 10
1032.772211196662
 20
710.5520497553895
 30
0.0
 11
1079.572211196671
 21
757.3520497553978
 31
0.0
  0
LINE
  5
198
330
1F
100
AcDbEntity
  8
LAY-10
  6
CONTINUOUS
 62
     7
100
AcDbLine
 10
1046.914346820393
 20
710.5520497553889
 30
0.0
 11
1093.714346820402
 21
757.3520497553978
 31
0.0
  0
LINE
  5
199
330
1F
100
AcDbEntity
  8
LAY-10
  6
CONTINUOUS
 62
     7
100
AcDbLine
 10
1061.056482444124
 20
710.5520497553895
 30
0.0
 11
1107.856482444133
 21
757.3520497553978
 31
0.0
  0
LINE
  5
19A
330
1F
100
AcDbEntity
  8
LAY-10
  6
CONTINUOUS
 62
     7
100
AcDbLine
 10
1075.198618067855
 20
710.5520497553895
 30
0.0
 11
1121.998618067864
 21
757.3520497553978
 31
0.0
  0
LINE
  5
19B
330
1F
100
AcDbEntity
  8
LAY-10
  6
CONTINUOUS
 62
     7
100
AcDbLine
 10
1089.340753691586
 20
710.5520497553895
 30
0.0
 11
1136.140753691594
 21
757.3520497553983
 31
0.0
  0
LINE
  5
19C
330
1F
100
AcDbEntity
  8
LAY-10
  6
CONTINUOUS
 62
     7
100
AcDbLine
 10
1103.482889315317
 20
710.5520497553895
 30
0.0
 11
1150.282889315326
 21
757.3520497553978
 31
0.0
  0
LINE
  5
19D
330
1F
100
AcDbEntity
  8
LAY-10
  6
CONTINUOUS
 62
     7
100
AcDbLine
 10
1117.625024939047
 20
710.5520497553889
 30
0.0
 11
1164.425024939057
 21
757.3520497553978
 31
0.0
  0
LINE
  5
19E
330
1F
100
AcDbEntity
  8
LAY-10
  6
CONTINUOUS
 62
     7
100
AcDbLine
 10
1131.767160562778
 20
710.5520497553895
 30
0.0
 11
1178.567160562788
 21
757.3520497553978
 31
0.0
  0
LINE
  5
19F
330
1F
100
AcDbEntity
  8
LAY-10
  6
CONTINUOUS
 62
     7
100
AcDbLine
 10
1145.909296186509
 20
710.5520497553895
 30
0.0
 11
1192.709296186518
 21
757.3520497553978
 31
0.0
  0
LINE
  5
1A0
330
1F
100
AcDbEntity
  8
LAY-10
  6
CONTINUOUS
 62
     7
100
AcDbLine
 10
1160.051431810241
 20
710.5520497553895
 30
0.0
 11
1206.851431810249
 21
757.3520497553978
 31
0.0
  0
LINE
  5
1A1
330
1F
100
AcDbEntity
  8
LAY-10
  6
CONTINUOUS
 62
     7
100
AcDbLine
 10
1174.193567433972
 20
710.5520497553895
 30
0.0
 11
1220.99356743398
 21
757.3520497553978
 31
0.0
  0
LINE
  5
1A2
330
1F
100
AcDbEntity
  8
LAY-10
  6
CONTINUOUS
 62
     7
100
AcDbLine
 10
1188.335703057702
 20
710.5520497553889
 30
0.0
 11
1235.135703057711
 21
757.3520497553978
 31
0.0
  0
LINE
  5
1A3
330
1F
100
AcDbEntity
  8
LAY-10
  6
CONTINUOUS
 62
     7
100
AcDbLine
 10
1202.477838681433
 20
710.5520497553895
 30
0.0
 11
1249.277838681443
 21
757.3520497553978
 31
0.0
  0
LINE
  5
1A4
330
1F
100
AcDbEntity
  8
LAY-10
  6
CONTINUOUS
 62
     7
100
AcDbLine
 10
1216.619974305164
 20
710.5520497553895
 30
0.0
 11
1263.419974305173
 21
757.3520497553978
 31
0.0
  0
LINE
  5
1A5
330
1F
100
AcDbEntity
  8
LAY-10
  6
CONTINUOUS
 62
     7
100
AcDbLine
 10
1230.762109928895
 20
710.5520497553895
 30
0.0
 11
1277.562109928904
 21
757.3520497553978
 31
0.0
  0
LINE
  5
1A6
330
1F
100
AcDbEntity
  8
LAY-10
  6
CONTINUOUS
 62
     7
100
AcDbLine
 10
1244.904245552626
 20
710.5520497553895
 30
0.0
 11
1291.704245552635
 21
757.3520497553978
 31
0.0
  0
LINE
  5
1A7
330
1F
100
AcDbEntity
  8
LAY-10
  6
CONTINUOUS
 62
     7
100
AcDbLine
 10
1259.046381176357
 20
710.5520497553889
 30
0.0
 11
1305.846381176366
 21
757.3520497553978
 31
0.0
  0
LINE
  5
1A8
330
1F
100
AcDbEntity
  8
LAY-10
  6
CONTINUOUS
 62
     7
100
AcDbLine
 10
1273.188516800088
 20
710.5520497553895
 30
0.0
 11
1319.988516800097
 21
757.3520497553978
 31
0.0
  0
LINE
  5
1A9
330
1F
100
AcDbEntity
  8
LAY-10
  6
CONTINUOUS
 62
     7
100
AcDbLine
 10
1287.330652423819
 20
710.5520497553895
 30
0.0
 11
1334.130652423828
 21
757.3520497553978
 31
0.0
  0
LINE
  5
1AA
330
1F
100
AcDbEntity
  8
LAY-10
  6
CONTINUOUS
 62
     7
100
AcDbLine
 10
1301.472788047549
 20
710.5520497553895
 30
0.0
 11
1348.272788047559
 21
757.3520497553978
 31
0.0
  0
LINE
  5
1AB
330
1F
100
AcDbEntity
  8
LAY-10
  6
CONTINUOUS
 62
     7
100
AcDbLine
 10
1315.61492367128
 20
710.5520497553895
 30
0.0
 11
1362.41492367129
 21
757.3520497553978
 31
0.0
  0
LINE
  5
1AC
330
1F
100
AcDbEntity
  8
LAY-10
  6
CONTINUOUS
 62
     7
100
AcDbLine
 10
1329.757059295011
 20
710.5520497553889
 30
0.0
 11
1376.557059295021
 21
757.3520497553978
 31
0.0
  0
LINE
  5
1AD
330
1F
100
AcDbEntity
  8
LAY-10
  6
CONTINUOUS
 62
     7
100
AcDbLine
 10
1343.899194918743
 20
710.5520497553895
 30
0.0
 11
1390.699194918752
 21
757.3520497553978
 31
0.0
  0
LINE
  5
1AE
330
1F
100
AcDbEntity
  8
LAY-10
  6
CONTINUOUS
 62
     7
100
AcDbLine
 10
1358.041330542474
 20
710.5520497553895
 30
0.0
 11
1404.841330542483
 21
757.3520497553978
 31
0.0
  0
LINE
  5
1AF
330
1F
100
AcDbEntity
  8
LAY-10
  6
CONTINUOUS
 62
     7
100
AcDbLine
 10
1372.183466166205
 20
710.5520497553895
 30
0.0
 11
1418.983466166213
 21
757.3520497553978
 31
0.0
  0
LINE
  5
1B0
330
1F
100
AcDbEntity
  8
LAY-10
  6
CONTINUOUS
 62
     7
100
AcDbLine
 10
1386.325601789936
 20
710.5520497553895
 30
0.0
 11
1433.125601789945
 21
757.3520497553978
 31
0.0
  0
LINE
  5
1B1
330
1F
100
AcDbEntity
  8
LAY-10
  6
CONTINUOUS
 62
     7
100
AcDbLine
 10
1400.467737413667
 20
710.5520497553889
 30
0.0
 11
1447.267737413676
 21
757.3520497553978
 31
0.0
  0
LINE
  5
1B2
330
1F
100
AcDbEntity
  8
LAY-10
  6
CONTINUOUS
 62
     7
100
AcDbLine
 10
1414.609873037397
 20
710.5520497553895
 30
0.0
 11
1461.409873037406
 21
757.3520497553978
 31
0.0
  0
LINE
  5
1B3
330
1F
100
AcDbEntity
  8
LAY-10
  6
CONTINUOUS
 62
     7
100
AcDbLine
 10
1428.752008661128
 20
710.5520497553895
 30
0.0
 11
1475.552008661137
 21
757.3520497553978
 31
0.0
  0
LINE
  5
1B4
330
1F
100
AcDbEntity
  8
LAY-10
  6
CONTINUOUS
 62
     7
100
AcDbLine
 10
1442.89414428486
 20
710.5520497553895
 30
0.0
 11
1489.694144284856
 21
757.352049755385
 31
0.0
  0
LINE
  5
1B5
330
1F
100
AcDbEntity
  8
LAY-10
  6
CONTINUOUS
 62
     7
100
AcDbLine
 10
1457.036279908591
 20
710.5520497553895
 30
0.0
 11
1503.836279908587
 21
757.352049755385
 31
0.0
  0
LINE
  5
1B6
330
1F
100
AcDbEntity
  8
LAY-10
  6
CONTINUOUS
 62
     7
100
AcDbLine
 10
1471.178415532321
 20
710.5520497553889
 30
0.0
 11
1517.978415532317
 21
757.352049755385
 31
0.0
  0
LINE
  5
1B7
330
1F
100
AcDbEntity
  8
LAY-10
  6
CONTINUOUS
 62
     7
100
AcDbLine
 10
1485.320551156052
 20
710.5520497553895
 30
0.0
 11
1532.120551156048
 21
757.352049755385
 31
0.0
  0
LINE
  5
1B8
330
1F
100
AcDbEntity
  8
LAY-10
  6
CONTINUOUS
 62
     7
100
AcDbLine
 10
1499.462686779783
 20
710.5520497553889
 30
0.0
 11
1546.262686779779
 21
757.352049755385
 31
0.0
  0
LINE
  5
1B9
330
1F
100
AcDbEntity
  8
LAY-10
  6
CONTINUOUS
 62
     7
100
AcDbLine
 10
1513.604822403514
 20
710.5520497553895
 30
0.0
 11
1560.40482240351
 21
757.352049755385
 31
0.0
  0
LINE
  5
1BA
330
1F
100
AcDbEntity
  8
LAY-10
  6
CONTINUOUS
 62
     7
100
AcDbLine
 10
1527.746958027245
 20
710.5520497553895
 30
0.0
 11
1574.546958027241
 21
757.352049755385
 31
0.0
  0
LINE
  5
1BB
330
1F
100
AcDbEntity
  8
LAY-10
  6
CONTINUOUS
 62
     7
100
AcDbLine
 10
1541.889093650976
 20
710.5520497553889
 30
0.0
 11
1588.689093650972
 21
757.352049755385
 31
0.0
  0
LINE
  5
1BC
330
1F
100
AcDbEntity
  8
LAY-10
  6
CONTINUOUS
 62
     7
100
AcDbLine
 10
1556.031229274707
 20
710.5520497553895
 30
0.0
 11
1602.831229274703
 21
757.352049755385
 31
0.0
  0
LINE
  5
1BD
330
1F
100
AcDbEntity
  8
LAY-10
  6
CONTINUOUS
 62
     7
100
AcDbLine
 10
1570.173364898438
 20
710.5520497553889
 30
0.0
 11
1616.973364898435
 21
757.352049755385
 31
0.0
  0
LINE
  5
1BE
330
1F
100
AcDbEntity
  8
LAY-10
  6
CONTINUOUS
 62
     7
100
AcDbLine
 10
1584.315500522169
 20
710.5520497553895
 30
0.0
 11
1631.115500522166
 21
757.352049755385
 31
0.0
  0
LINE
  5
1BF
330
1F
100
AcDbEntity
  8
LAY-10
  6
CONTINUOUS
 62
     7
100
AcDbLine
 10
1598.4576361459
 20
710.5520497553895
 30
0.0
 11
1645.257636145896
 21
757.352049755385
 31
0.0
  0
LINE
  5
1C0
330
1F
100
AcDbEntity
  8
LAY-10
  6
CONTINUOUS
 62
     7
100
AcDbLine
 10
1612.599771769631
 20
710.5520497553889
 30
0.0
 11
1659.399771769627
 21
757.352049755385
 31
0.0
  0
LINE
  5
1C1
330
1F
100
AcDbEntity
  8
LAY-10
  6
CONTINUOUS
 62
     7
100
AcDbLine
 10
1626.741907393362
 20
710.5520497553895
 30
0.0
 11
1673.541907393358
 21
757.352049755385
 31
0.0
  0
LINE
  5
1C2
330
1F
100
AcDbEntity
  8
LAY-10
  6
CONTINUOUS
 62
     7
100
AcDbLine
 10
1640.884043017093
 20
710.5520497553889
 30
0.0
 11
1687.684043017089
 21
757.352049755385
 31
0.0
  0
LINE
  5
1C3
330
1F
100
AcDbEntity
  8
LAY-10
  6
CONTINUOUS
 62
     7
100
AcDbLine
 10
1655.026178640824
 20
710.5520497553889
 30
0.0
 11
1701.82617864082
 21
757.352049755385
 31
0.0
  0
LINE
  5
1C4
330
1F
100
AcDbEntity
  8
LAY-10
  6
CONTINUOUS
 62
     7
100
AcDbLine
 10
1669.168314264555
 20
710.5520497553895
 30
0.0
 11
1715.968314264551
 21
757.352049755385
 31
0.0
  0
LINE
  5
1C5
330
1F
100
AcDbEntity
  8
LAY-10
  6
CONTINUOUS
 62
     7
100
AcDbLine
 10
1683.310449888285
 20
710.5520497553889
 30
0.0
 11
1730.110449888281
 21
757.352049755385
 31
0.0
  0
LINE
  5
1C6
330
1F
100
AcDbEntity
  8
LAY-10
  6
CONTINUOUS
 62
     7
100
AcDbLine
 10
1697.452585512016
 20
710.5520497553895
 30
0.0
 11
1744.252585512013
 21
757.352049755385
 31
0.0
  0
LINE
  5
1C7
330
1F
100
AcDbEntity
  8
LAY-10
  6
CONTINUOUS
 62
     7
100
AcDbLine
 10
1711.594721135747
 20
710.5520497553889
 30
0.0
 11
1758.394721135744
 21
757.352049755385
 31
0.0
  0
LINE
  5
1C8
330
1F
100
AcDbEntity
  8
LAY-10
  6
CONTINUOUS
 62
     7
100
AcDbLine
 10
1725.736856759479
 20
710.5520497553895
 30
0.0
 11
1772.536856759475
 21
757.352049755385
 31
0.0
  0
LINE
  5
1C9
330
1F
100
AcDbEntity
  8
LAY-10
  6
CONTINUOUS
 62
     7
100
AcDbLine
 10
1739.878992383209
 20
710.5520497553895
 30
0.0
 11
1786.678992383205
 21
757.352049755385
 31
0.0
  0
LINE
  5
1CA
330
1F
100
AcDbEntity
  8
LAY-10
  6
CONTINUOUS
 62
     7
100
AcDbLine
 10
1754.02112800694
 20
710.5520497553895
 30
0.0
 11
1800.821128006936
 21
757.352049755385
 31
0.0
  0
LINE
  5
1CB
330
1F
100
AcDbEntity
  8
LAY-10
  6
CONTINUOUS
 62
     7
100
AcDbLine
 10
1768.163263630671
 20
710.5520497553895
 30
0.0
 11
1814.963263630667
 21
757.352049755385
 31
0.0
  0
LINE
  5
1CC
330
1F
100
AcDbEntity
  8
LAY-10
  6
CONTINUOUS
 62
     7
100
AcDbLine
 10
1782.305399254402
 20
710.5520497553889
 30
0.0
 11
1829.105399254398
 21
757.352049755385
 31
0.0
  0
LINE
  5
1CD
330
1F
100
AcDbEntity
  8
LAY-10
  6
CONTINUOUS
 62
     7
100
AcDbLine
 10
1796.447534878133
 20
710.5520497553895
 30
0.0
 11
1843.247534878129
 21
757.352049755385
 31
0.0
  0
LINE
  5
1CE
330
1F
100
AcDbEntity
  8
LAY-10
  6
CONTINUOUS
 62
     7
100
AcDbLine
 10
1810.589670501864
 20
710.5520497553895
 30
0.0
 11
1857.38967050186
 21
757.352049755385
 31
0.0
  0
LINE
  5
1CF
330
1F
100
AcDbEntity
  8
LAY-10
  6
CONTINUOUS
 62
     7
100
AcDbLine
 10
1824.731806125595
 20
710.5520497553889
 30
0.0
 11
1871.531806125591
 21
757.352049755385
 31
0.0
  0
LINE
  5
1D0
330
1F
100
AcDbEntity
  8
LAY-10
  6
CONTINUOUS
 62
     7
100
AcDbLine
 10
1838.873941749326
 20
710.5520497553895
 30
0.0
 11
1885.673941749322
 21
757.352049755385
 31
0.0
  0
LINE
  5
1D1
330
1F
100
AcDbEntity
  8
LAY-10
  6
CONTINUOUS
 62
     7
100
AcDbLine
 10
1853.016077373057
 20
710.5520497553889
 30
0.0
 11
1899.816077373054
 21
757.352049755385
 31
0.0
  0
LINE
  5
1D2
330
1F
100
AcDbEntity
  8
LAY-10
  6
CONTINUOUS
 62
     7
100
AcDbLine
 10
1867.158212996788
 20
710.5520497553895
 30
0.0
 11
1913.958212996784
 21
757.352049755385
 31
0.0
  0
LINE
  5
1D3
330
1F
100
AcDbEntity
  8
LAY-10
  6
CONTINUOUS
 62
     7
100
AcDbLine
 10
1881.300348620519
 20
710.5520497553895
 30
0.0
 11
1928.100348620515
 21
757.352049755385
 31
0.0
  0
LINE
  5
1D4
330
1F
100
AcDbEntity
  8
LAY-10
  6
CONTINUOUS
 62
     7
100
AcDbLine
 10
1895.44248424425
 20
710.5520497553895
 30
0.0
 11
1942.242484244246
 21
757.352049755385
 31
0.0
  0
LINE
  5
1D5
330
1F
100
AcDbEntity
  8
LAY-10
  6
CONTINUOUS
 62
     7
100
AcDbLine
 10
1909.584619867981
 20
710.5520497553889
 30
0.0
 11
1956.384619867977
 21
757.352049755385
 31
0.0
  0
LINE
  5
1D6
330
1F
100
AcDbEntity
  8
LAY-10
  6
CONTINUOUS
 62
     7
100
AcDbLine
 10
1923.726755491712
 20
710.5520497553889
 30
0.0
 11
1957.207684156354
 21
744.0329784200308
 31
0.0
  0
LINE
  5
1D7
330
1F
100
AcDbEntity
  8
LAY-10
  6
CONTINUOUS
 62
     7
100
AcDbLine
 10
1937.868891115443
 20
710.5520497553895
 30
0.0
 11
1957.207684156354
 21
729.8908427963003
 31
0.0
  0
LINE
  5
1D8
330
1F
100
AcDbEntity
  8
LAY-10
  6
CONTINUOUS
 62
     7
100
AcDbLine
 10
1952.011026739173
 20
710.5520497553895
 30
0.0
 11
1957.207684156354
 21
715.7487071725686
 31
0.0
  0
LINE
  5
1D9
330
1F
100
AcDbEntity
  8
LAY-10
  6
CONTINUOUS
 62
     7
100
AcDbLine
 10
385.5380419610006
 20
710.5520497554048
 30
0.0
 11
376.4076841563592
 21
719.6824075600458
 31
0.0
  0
LINE
  5
1DA
330
1F
100
AcDbEntity
  8
LAY-10
  6
CONTINUOUS
 62
     7
100
AcDbLine
 10
399.6801775847314
 20
710.5520497554048
 30
0.0
 11
376.4076841563592
 21
733.8245431837769
 31
0.0
  0
LINE
  5
1DB
330
1F
100
AcDbEntity
  8
LAY-10
  6
CONTINUOUS
 62
     7
100
AcDbLine
 10
413.8223132084624
 20
710.5520497554048
 30
0.0
 11
376.4076841563592
 21
747.966678807508
 31
0.0
  0
LINE
  5
1DC
330
1F
100
AcDbEntity
  8
LAY-10
  6
CONTINUOUS
 62
     7
100
AcDbLine
 10
427.9644488321933
 20
710.5520497554048
 30
0.0
 11
381.1644488322101
 21
757.3520497553878
 31
0.0
  0
LINE
  5
1DD
330
1F
100
AcDbEntity
  8
LAY-10
  6
CONTINUOUS
 62
     7
100
AcDbLine
 10
442.1065844559243
 20
710.5520497554045
 30
0.0
 11
395.306584455941
 21
757.3520497553878
 31
0.0
  0
LINE
  5
1DE
330
1F
100
AcDbEntity
  8
LAY-10
  6
CONTINUOUS
 62
     7
100
AcDbLine
 10
456.2487200796554
 20
710.5520497554048
 30
0.0
 11
409.4487200796721
 21
757.3520497553878
 31
0.0
  0
LINE
  5
1DF
330
1F
100
AcDbEntity
  8
LAY-10
  6
CONTINUOUS
 62
     7
100
AcDbLine
 10
470.3908557033863
 20
710.5520497554048
 30
0.0
 11
423.5908557034031
 21
757.3520497553878
 31
0.0
  0
LINE
  5
1E0
330
1F
100
AcDbEntity
  8
LAY-10
  6
CONTINUOUS
 62
     7
100
AcDbLine
 10
484.5329913271171
 20
710.5520497554048
 30
0.0
 11
437.732991327134
 21
757.3520497553878
 31
0.0
  0
LINE
  5
1E1
330
1F
100
AcDbEntity
  8
LAY-10
  6
CONTINUOUS
 62
     7
100
AcDbLine
 10
498.6751269508482
 20
710.5520497554045
 30
0.0
 11
451.8751269508648
 21
757.3520497553878
 31
0.0
  0
LINE
  5
1E2
330
1F
100
AcDbEntity
  8
LAY-10
  6
CONTINUOUS
 62
     7
100
AcDbLine
 10
512.8172625745792
 20
710.5520497554045
 30
0.0
 11
466.0172625745959
 21
757.3520497553878
 31
0.0
  0
LINE
  5
1E3
330
1F
100
AcDbEntity
  8
LAY-10
  6
CONTINUOUS
 62
     7
100
AcDbLine
 10
526.95939819831
 20
710.5520497554045
 30
0.0
 11
480.1593981983269
 21
757.3520497553878
 31
0.0
  0
LINE
  5
1E4
330
1F
100
AcDbEntity
  8
LAY-10
  6
CONTINUOUS
 62
     7
100
AcDbLine
 10
541.1015338220409
 20
710.5520497554048
 30
0.0
 11
494.3015338220578
 21
757.3520497553878
 31
0.0
  0
LINE
  5
1E5
330
1F
100
AcDbEntity
  8
LAY-10
  6
CONTINUOUS
 62
     7
100
AcDbLine
 10
555.243669445772
 20
710.5520497554048
 30
0.0
 11
508.4436694457887
 21
757.3520497553878
 31
0.0
  0
LINE
  5
1E6
330
1F
100
AcDbEntity
  8
LAY-10
  6
CONTINUOUS
 62
     7
100
AcDbLine
 10
569.3858050695026
 20
710.5520497554045
 30
0.0
 11
522.5858050695197
 21
757.3520497553878
 31
0.0
  0
LINE
  5
1E7
330
1F
100
AcDbEntity
  8
LAY-10
  6
CONTINUOUS
 62
     7
100
AcDbLine
 10
583.5279406932334
 20
710.5520497554048
 30
0.0
 11
536.7279406932505
 21
757.3520497553878
 31
0.0
  0
LINE
  5
1E8
330
1F
100
AcDbEntity
  8
LAY-10
  6
CONTINUOUS
 62
     7
100
AcDbLine
 10
597.6700763169645
 20
710.5520497554045
 30
0.0
 11
550.8700763169816
 21
757.3520497553878
 31
0.0
  0
LINE
  5
1E9
330
1F
100
AcDbEntity
  8
LAY-10
  6
CONTINUOUS
 62
     7
100
AcDbLine
 10
611.8122119406955
 20
710.5520497554048
 30
0.0
 11
565.0122119407122
 21
757.3520497553878
 31
0.0
  0
LINE
  5
1EA
330
1F
100
AcDbEntity
  8
LAY-10
  6
CONTINUOUS
 62
     7
100
AcDbLine
 10
625.9543475644264
 20
710.5520497554045
 30
0.0
 11
579.1543475644432
 21
757.3520497553878
 31
0.0
  0
LINE
  5
1EB
330
1F
100
AcDbEntity
  8
LAY-10
  6
CONTINUOUS
 62
     7
100
AcDbLine
 10
640.0964831881574
 20
710.5520497554045
 30
0.0
 11
593.2964831881743
 21
757.3520497553878
 31
0.0
  0
LINE
  5
1EC
330
1F
100
AcDbEntity
  8
LAY-10
  6
CONTINUOUS
 62
     7
100
AcDbLine
 10
654.2386188118883
 20
710.5520497554048
 30
0.0
 11
607.4386188119049
 21
757.3520497553878
 31
0.0
  0
LINE
  5
1ED
330
1F
100
AcDbEntity
  8
LAY-10
  6
CONTINUOUS
 62
     7
100
AcDbLine
 10
668.3807544356193
 20
710.5520497554045
 30
0.0
 11
621.580754435636
 21
757.3520497553878
 31
0.0
  0
LINE
  5
1EE
330
1F
100
AcDbEntity
  8
LAY-10
  6
CONTINUOUS
 62
     7
100
AcDbLine
 10
682.5228900593501
 20
710.5520497554048
 30
0.0
 11
635.722890059367
 21
757.3520497553878
 31
0.0
  0
LINE
  5
1EF
330
1F
100
AcDbEntity
  8
LAY-10
  6
CONTINUOUS
 62
     7
100
AcDbLine
 10
696.665025683081
 20
710.5520497554045
 30
0.0
 11
649.8650256830981
 21
757.3520497553878
 31
0.0
  0
LINE
  5
1F0
330
1F
100
AcDbEntity
  8
LAY-10
  6
CONTINUOUS
 62
     7
100
AcDbLine
 10
710.8071613068121
 20
710.5520497554045
 30
0.0
 11
664.007161306829
 21
757.3520497553878
 31
0.0
  0
LINE
  5
1F1
330
1F
100
AcDbEntity
  8
LAY-10
  6
CONTINUOUS
 62
     7
100
AcDbLine
 10
724.9492969305431
 20
710.5520497554048
 30
0.0
 11
678.1492969305597
 21
757.3520497553878
 31
0.0
  0
LINE
  5
1F2
330
1F
100
AcDbEntity
  8
LAY-10
  6
CONTINUOUS
 62
     7
100
AcDbLine
 10
739.0914325542742
 20
710.5520497554045
 30
0.0
 11
692.2914325542907
 21
757.3520497553878
 31
0.0
  0
LINE
  5
1F3
330
1F
100
AcDbEntity
  8
LAY-10
  6
CONTINUOUS
 62
     7
100
AcDbLine
 10
753.2335681780048
 20
710.5520497554048
 30
0.0
 11
706.4335681780218
 21
757.3520497553878
 31
0.0
  0
LINE
  5
1F4
330
1F
100
AcDbEntity
  8
LAY-10
  6
CONTINUOUS
 62
     7
100
AcDbLine
 10
767.3757038017359
 20
710.5520497554045
 30
0.0
 11
720.5757038017528
 21
757.3520497553878
 31
0.0
  0
LINE
  5
1F5
330
1F
100
AcDbEntity
  8
LAY-10
  6
CONTINUOUS
 62
     7
100
AcDbLine
 10
781.517839425467
 20
710.5520497554045
 30
0.0
 11
734.7178394254835
 21
757.3520497553878
 31
0.0
  0
LINE
  5
1F6
330
1F
100
AcDbEntity
  8
LAY-10
  6
CONTINUOUS
 62
     7
100
AcDbLine
 10
795.6599750491978
 20
710.5520497554048
 30
0.0
 11
748.8599750492145
 21
757.3520497553878
 31
0.0
  0
LINE
  5
1F7
330
1F
100
AcDbEntity
  8
LAY-10
  6
CONTINUOUS
 62
     7
100
AcDbLine
 10
809.8021106729288
 20
710.5520497554045
 30
0.0
 11
763.0021106729455
 21
757.3520497553878
 31
0.0
  0
LINE
  5
1F8
330
1F
100
AcDbEntity
  8
LAY-10
  6
CONTINUOUS
 62
     7
100
AcDbLine
 10
823.9442462966599
 20
710.5520497554048
 30
0.0
 11
777.1442462966766
 21
757.3520497553878
 31
0.0
  0
LINE
  5
1F9
330
1F
100
AcDbEntity
  8
LAY-10
  6
CONTINUOUS
 62
     7
100
AcDbLine
 10
838.086381920391
 20
710.5520497554045
 30
0.0
 11
791.2863819204074
 21
757.3520497553878
 31
0.0
  0
LINE
  5
1FA
330
1F
100
AcDbEntity
  8
LAY-10
  6
CONTINUOUS
 62
     7
100
AcDbLine
 10
852.228517544122
 20
710.5520497554045
 30
0.0
 11
805.4285175441385
 21
757.3520497553878
 31
0.0
  0
LINE
  5
1FB
330
1F
100
AcDbEntity
  8
LAY-10
  6
CONTINUOUS
 62
     7
100
AcDbLine
 10
866.3706531678525
 20
710.5520497554045
 30
0.0
 11
819.5706531678695
 21
757.3520497553878
 31
0.0
  0
LINE
  5
1FC
330
1F
100
AcDbEntity
  8
LAY-10
  6
CONTINUOUS
 62
     7
100
AcDbLine
 10
880.5127887915836
 20
710.5520497554045
 30
0.0
 11
833.7127887916001
 21
757.3520497553878
 31
0.0
  0
LINE
  5
1FD
330
1F
100
AcDbEntity
  8
LAY-10
  6
CONTINUOUS
 62
     7
100
AcDbLine
 10
894.6549244153147
 20
710.5520497554048
 30
0.0
 11
847.8549244153312
 21
757.3520497553878
 31
0.0
  0
LINE
  5
1FE
330
1F
100
AcDbEntity
  8
LAY-10
  6
CONTINUOUS
 62
     7
100
AcDbLine
 10
908.7970600390454
 20
710.5520497554045
 30
0.0
 11
861.9970600390623
 21
757.3520497553878
 31
0.0
  0
LINE
  5
1FF
330
1F
100
AcDbEntity
  8
LAY-10
  6
CONTINUOUS
 62
     7
100
AcDbLine
 10
922.9391956627765
 20
710.5520497554045
 30
0.0
 11
876.1391956627933
 21
757.3520497553878
 31
0.0
  0
LINE
  5
200
330
1F
100
AcDbEntity
  8
LAY-10
  6
CONTINUOUS
 62
     7
100
AcDbLine
 10
937.0813312865073
 20
710.5520497554045
 30
0.0
 11
890.2813312865239
 21
757.3520497553878
 31
0.0
  0
LINE
  5
201
330
1F
100
AcDbEntity
  8
LAY-10
  6
CONTINUOUS
 62
     7
100
AcDbLine
 10
951.2234669102384
 20
710.5520497554045
 30
0.0
 11
904.423466910255
 21
757.3520497553878
 31
0.0
  0
LINE
  5
202
330
1F
100
AcDbEntity
  8
LAY-10
  6
CONTINUOUS
 62
     7
100
AcDbLine
 10
965.3656025339694
 20
710.5520497554048
 30
0.0
 11
918.5656025339861
 21
757.3520497553878
 31
0.0
  0
LINE
  5
203
330
1F
100
AcDbEntity
  8
LAY-10
  6
CONTINUOUS
 62
     7
100
AcDbLine
 10
979.5077381577001
 20
710.5520497554045
 30
0.0
 11
932.7077381577171
 21
757.3520497553878
 31
0.0
  0
LINE
  5
204
330
1F
100
AcDbEntity
  8
LAY-10
  6
CONTINUOUS
 62
     7
100
AcDbLine
 10
993.6498737814312
 20
710.5520497554045
 30
0.0
 11
946.849873781448
 21
757.3520497553878
 31
0.0
  0
LINE
  5
205
330
1F
100
AcDbEntity
  8
LAY-10
  6
CONTINUOUS
 62
     7
100
AcDbLine
 10
1007.792009405162
 20
710.5520497554045
 30
0.0
 11
960.992009405179
 21
757.3520497553878
 31
0.0
  0
LINE
  5
206
330
1F
100
AcDbEntity
  8
LAY-10
  6
CONTINUOUS
 62
     7
100
AcDbLine
 10
1021.934145028893
 20
710.5520497554045
 30
0.0
 11
975.1341450289101
 21
757.3520497553878
 31
0.0
  0
LINE
  5
207
330
1F
100
AcDbEntity
  8
LAY-10
  6
CONTINUOUS
 62
     7
100
AcDbLine
 10
1036.076280652624
 20
710.5520497554048
 30
0.0
 11
989.2762806526412
 21
757.3520497553878
 31
0.0
  0
LINE
  5
208
330
1F
100
AcDbEntity
  8
LAY-10
  6
CONTINUOUS
 62
     7
100
AcDbLine
 10
1050.218416276355
 20
710.5520497554045
 30
0.0
 11
1003.418416276372
 21
757.3520497553878
 31
0.0
  0
LINE
  5
209
330
1F
100
AcDbEntity
  8
LAY-10
  6
CONTINUOUS
 62
     7
100
AcDbLine
 10
1064.360551900086
 20
710.5520497554045
 30
0.0
 11
1017.560551900103
 21
757.3520497553878
 31
0.0
  0
LINE
  5
20A
330
1F
100
AcDbEntity
  8
LAY-10
  6
CONTINUOUS
 62
     7
100
AcDbLine
 10
1078.502687523817
 20
710.5520497554045
 30
0.0
 11
1031.702687523834
 21
757.3520497553878
 31
0.0
  0
LINE
  5
20B
330
1F
100
AcDbEntity
  8
LAY-10
  6
CONTINUOUS
 62
     7
100
AcDbLine
 10
1092.644823147548
 20
710.5520497554045
 30
0.0
 11
1045.844823147565
 21
757.3520497553878
 31
0.0
  0
LINE
  5
20C
330
1F
100
AcDbEntity
  8
LAY-10
  6
CONTINUOUS
 62
     7
100
AcDbLine
 10
1106.786958771279
 20
710.5520497554048
 30
0.0
 11
1059.986958771296
 21
757.3520497553878
 31
0.0
  0
LINE
  5
20D
330
1F
100
AcDbEntity
  8
LAY-10
  6
CONTINUOUS
 62
     7
100
AcDbLine
 10
1120.92909439501
 20
710.5520497554048
 30
0.0
 11
1074.129094395027
 21
757.3520497553878
 31
0.0
  0
LINE
  5
20E
330
1F
100
AcDbEntity
  8
LAY-10
  6
CONTINUOUS
 62
     7
100
AcDbLine
 10
1135.071230018741
 20
710.5520497554045
 30
0.0
 11
1088.271230018758
 21
757.3520497553878
 31
0.0
  0
LINE
  5
20F
330
1F
100
AcDbEntity
  8
LAY-10
  6
CONTINUOUS
 62
     7
100
AcDbLine
 10
1149.213365642472
 20
710.5520497554048
 30
0.0
 11
1102.413365642489
 21
757.3520497553878
 31
0.0
  0
LINE
  5
210
330
1F
100
AcDbEntity
  8
LAY-10
  6
CONTINUOUS
 62
     7
100
AcDbLine
 10
1163.355501266203
 20
710.5520497554048
 30
0.0
 11
1116.55550126622
 21
757.3520497553878
 31
0.0
  0
LINE
  5
211
330
1F
100
AcDbEntity
  8
LAY-10
  6
CONTINUOUS
 62
     7
100
AcDbLine
 10
1177.497636889934
 20
710.5520497554048
 30
0.0
 11
1130.69763688995
 21
757.3520497553878
 31
0.0
  0
LINE
  5
212
330
1F
100
AcDbEntity
  8
LAY-10
  6
CONTINUOUS
 62
     7
100
AcDbLine
 10
1191.639772513665
 20
710.5520497554048
 30
0.0
 11
1144.839772513682
 21
757.3520497553878
 31
0.0
  0
LINE
  5
213
330
1F
100
AcDbEntity
  8
LAY-10
  6
CONTINUOUS
 62
     7
100
AcDbLine
 10
1205.781908137396
 20
710.5520497554045
 30
0.0
 11
1158.981908137413
 21
757.3520497553878
 31
0.0
  0
LINE
  5
214
330
1F
100
AcDbEntity
  8
LAY-10
  6
CONTINUOUS
 62
     7
100
AcDbLine
 10
1219.924043761127
 20
710.5520497554048
 30
0.0
 11
1173.124043761144
 21
757.3520497553878
 31
0.0
  0
LINE
  5
215
330
1F
100
AcDbEntity
  8
LAY-10
  6
CONTINUOUS
 62
     7
100
AcDbLine
 10
1234.066179384858
 20
710.5520497554048
 30
0.0
 11
1187.266179384875
 21
757.3520497553878
 31
0.0
  0
LINE
  5
216
330
1F
100
AcDbEntity
  8
LAY-10
  6
CONTINUOUS
 62
     7
100
AcDbLine
 10
1248.208315008589
 20
710.5520497554048
 30
0.0
 11
1201.408315008605
 21
757.3520497553878
 31
0.0
  0
LINE
  5
217
330
1F
100
AcDbEntity
  8
LAY-10
  6
CONTINUOUS
 62
     7
100
AcDbLine
 10
1262.35045063232
 20
710.5520497554048
 30
0.0
 11
1215.550450632336
 21
757.3520497553878
 31
0.0
  0
LINE
  5
218
330
1F
100
AcDbEntity
  8
LAY-10
  6
CONTINUOUS
 62
     7
100
AcDbLine
 10
1276.49258625605
 20
710.5520497554045
 30
0.0
 11
1229.692586256067
 21
757.3520497553878
 31
0.0
  0
LINE
  5
219
330
1F
100
AcDbEntity
  8
LAY-10
  6
CONTINUOUS
 62
     7
100
AcDbLine
 10
1290.634721879781
 20
710.5520497554048
 30
0.0
 11
1243.834721879799
 21
757.3520497553878
 31
0.0
  0
LINE
  5
21A
330
1F
100
AcDbEntity
  8
LAY-10
  6
CONTINUOUS
 62
     7
100
AcDbLine
 10
1304.776857503512
 20
710.5520497554048
 30
0.0
 11
1257.976857503529
 21
757.3520497553878
 31
0.0
  0
LINE
  5
21B
330
1F
100
AcDbEntity
  8
LAY-10
  6
CONTINUOUS
 62
     7
100
AcDbLine
 10
1318.918993127243
 20
710.5520497554048
 30
0.0
 11
1272.11899312726
 21
757.3520497553878
 31
0.0
  0
LINE
  5
21C
330
1F
100
AcDbEntity
  8
LAY-10
  6
CONTINUOUS
 62
     7
100
AcDbLine
 10
1333.061128750974
 20
710.5520497554048
 30
0.0
 11
1286.261128750991
 21
757.3520497553878
 31
0.0
  0
LINE
  5
21D
330
1F
100
AcDbEntity
  8
LAY-10
  6
CONTINUOUS
 62
     7
100
AcDbLine
 10
1347.203264374705
 20
710.5520497554045
 30
0.0
 11
1300.403264374722
 21
757.3520497553878
 31
0.0
  0
LINE
  5
21E
330
1F
100
AcDbEntity
  8
LAY-10
  6
CONTINUOUS
 62
     7
100
AcDbLine
 10
1361.345399998436
 20
710.5520497554048
 30
0.0
 11
1314.545399998453
 21
757.3520497553878
 31
0.0
  0
LINE
  5
21F
330
1F
100
AcDbEntity
  8
LAY-10
  6
CONTINUOUS
 62
     7
100
AcDbLine
 10
1375.487535622167
 20
710.5520497554048
 30
0.0
 11
1328.687535622184
 21
757.3520497553878
 31
0.0
  0
LINE
  5
220
330
1F
100
AcDbEntity
  8
LAY-10
  6
CONTINUOUS
 62
     7
100
AcDbLine
 10
1389.629671245898
 20
710.5520497554048
 30
0.0
 11
1342.829671245915
 21
757.3520497553878
 31
0.0
  0
LINE
  5
221
330
1F
100
AcDbEntity
  8
LAY-10
  6
CONTINUOUS
 62
     7
100
AcDbLine
 10
1403.771806869629
 20
710.5520497554048
 30
0.0
 11
1356.971806869646
 21
757.3520497553878
 31
0.0
  0
LINE
  5
222
330
1F
100
AcDbEntity
  8
LAY-10
  6
CONTINUOUS
 62
     7
100
AcDbLine
 10
1417.91394249336
 20
710.5520497554045
 30
0.0
 11
1371.113942493377
 21
757.3520497553878
 31
0.0
  0
LINE
  5
223
330
1F
100
AcDbEntity
  8
LAY-10
  6
CONTINUOUS
 62
     7
100
AcDbLine
 10
1432.056078117091
 20
710.5520497554048
 30
0.0
 11
1385.256078117108
 21
757.3520497553878
 31
0.0
  0
LINE
  5
224
330
1F
100
AcDbEntity
  8
LAY-10
  6
CONTINUOUS
 62
     7
100
AcDbLine
 10
1446.198213740822
 20
710.5520497554048
 30
0.0
 11
1399.398213740839
 21
757.3520497553878
 31
0.0
  0
LINE
  5
225
330
1F
100
AcDbEntity
  8
LAY-10
  6
CONTINUOUS
 62
     7
100
AcDbLine
 10
1460.340349364553
 20
710.5520497554048
 30
0.0
 11
1413.540349364569
 21
757.3520497553878
 31
0.0
  0
LINE
  5
226
330
1F
100
AcDbEntity
  8
LAY-10
  6
CONTINUOUS
 62
     7
100
AcDbLine
 10
1474.482484988284
 20
710.5520497554048
 30
0.0
 11
1427.6824849883
 21
757.3520497553878
 31
0.0
  0
LINE
  5
227
330
1F
100
AcDbEntity
  8
LAY-10
  6
CONTINUOUS
 62
     7
100
AcDbLine
 10
1488.624620612015
 20
710.5520497554048
 30
0.0
 11
1441.824620612031
 21
757.3520497553878
 31
0.0
  0
LINE
  5
228
330
1F
100
AcDbEntity
  8
LAY-10
  6
CONTINUOUS
 62
     7
100
AcDbLine
 10
1502.766756235746
 20
710.5520497554048
 30
0.0
 11
1455.966756235762
 21
757.3520497553878
 31
0.0
  0
LINE
  5
229
330
1F
100
AcDbEntity
  8
LAY-10
  6
CONTINUOUS
 62
     7
100
AcDbLine
 10
1516.908891859477
 20
710.5520497554045
 30
0.0
 11
1470.108891859493
 21
757.3520497553878
 31
0.0
  0
LINE
  5
22A
330
1F
100
AcDbEntity
  8
LAY-10
  6
CONTINUOUS
 62
     7
100
AcDbLine
 10
1531.051027483208
 20
710.5520497554048
 30
0.0
 11
1484.251027483224
 21
757.3520497553878
 31
0.0
  0
LINE
  5
22B
330
1F
100
AcDbEntity
  8
LAY-10
  6
CONTINUOUS
 62
     7
100
AcDbLine
 10
1545.193163106939
 20
710.5520497554048
 30
0.0
 11
1498.393163106955
 21
757.3520497553878
 31
0.0
  0
LINE
  5
22C
330
1F
100
AcDbEntity
  8
LAY-10
  6
CONTINUOUS
 62
     7
100
AcDbLine
 10
1559.33529873067
 20
710.5520497554048
 30
0.0
 11
1512.535298730686
 21
757.3520497553878
 31
0.0
  0
LINE
  5
22D
330
1F
100
AcDbEntity
  8
LAY-10
  6
CONTINUOUS
 62
     7
100
AcDbLine
 10
1573.477434354401
 20
710.5520497554048
 30
0.0
 11
1526.677434354417
 21
757.3520497553878
 31
0.0
  0
LINE
  5
22E
330
1F
100
AcDbEntity
  8
LAY-10
  6
CONTINUOUS
 62
     7
100
AcDbLine
 10
1587.619569978132
 20
710.5520497554045
 30
0.0
 11
1540.819569978149
 21
757.3520497553878
 31
0.0
  0
LINE
  5
22F
330
1F
100
AcDbEntity
  8
LAY-10
  6
CONTINUOUS
 62
     7
100
AcDbLine
 10
1601.761705601863
 20
710.5520497554048
 30
0.0
 11
1554.961705601879
 21
757.3520497553878
 31
0.0
  0
LINE
  5
230
330
1F
100
AcDbEntity
  8
LAY-10
  6
CONTINUOUS
 62
     7
100
AcDbLine
 10
1615.903841225593
 20
710.5520497554048
 30
0.0
 11
1569.10384122561
 21
757.3520497553878
 31
0.0
  0
LINE
  5
231
330
1F
100
AcDbEntity
  8
LAY-10
  6
CONTINUOUS
 62
     7
100
AcDbLine
 10
1630.045976849324
 20
710.5520497554048
 30
0.0
 11
1583.245976849341
 21
757.3520497553878
 31
0.0
  0
LINE
  5
232
330
1F
100
AcDbEntity
  8
LAY-10
  6
CONTINUOUS
 62
     7
100
AcDbLine
 10
1644.188112473055
 20
710.5520497554048
 30
0.0
 11
1597.388112473072
 21
757.3520497553878
 31
0.0
  0
LINE
  5
233
330
1F
100
AcDbEntity
  8
LAY-10
  6
CONTINUOUS
 62
     7
100
AcDbLine
 10
1658.330248096786
 20
710.5520497554045
 30
0.0
 11
1611.530248096803
 21
757.3520497553878
 31
0.0
  0
LINE
  5
234
330
1F
100
AcDbEntity
  8
LAY-10
  6
CONTINUOUS
 62
     7
100
AcDbLine
 10
1672.472383720517
 20
710.5520497554048
 30
0.0
 11
1625.672383720534
 21
757.3520497553878
 31
0.0
  0
LINE
  5
235
330
1F
100
AcDbEntity
  8
LAY-10
  6
CONTINUOUS
 62
     7
100
AcDbLine
 10
1686.614519344248
 20
710.5520497554048
 30
0.0
 11
1639.814519344265
 21
757.3520497553878
 31
0.0
  0
LINE
  5
236
330
1F
100
AcDbEntity
  8
LAY-10
  6
CONTINUOUS
 62
     7
100
AcDbLine
 10
1700.756654967979
 20
710.5520497554048
 30
0.0
 11
1653.956654967996
 21
757.3520497553878
 31
0.0
  0
LINE
  5
237
330
1F
100
AcDbEntity
  8
LAY-10
  6
CONTINUOUS
 62
     7
100
AcDbLine
 10
1714.89879059171
 20
710.5520497554048
 30
0.0
 11
1668.098790591727
 21
757.3520497553878
 31
0.0
  0
LINE
  5
238
330
1F
100
AcDbEntity
  8
LAY-10
  6
CONTINUOUS
 62
     7
100
AcDbLine
 10
1729.040926215441
 20
710.5520497554045
 30
0.0
 11
1682.240926215458
 21
757.3520497553878
 31
0.0
  0
LINE
  5
239
330
1F
100
AcDbEntity
  8
LAY-10
  6
CONTINUOUS
 62
     7
100
AcDbLine
 10
1743.183061839172
 20
710.5520497554048
 30
0.0
 11
1696.383061839189
 21
757.3520497553878
 31
0.0
  0
LINE
  5
23A
330
1F
100
AcDbEntity
  8
LAY-10
  6
CONTINUOUS
 62
     7
100
AcDbLine
 10
1757.325197462903
 20
710.5520497554048
 30
0.0
 11
1710.52519746292
 21
757.3520497553878
 31
0.0
  0
LINE
  5
23B
330
1F
100
AcDbEntity
  8
LAY-10
  6
CONTINUOUS
 62
     7
100
AcDbLine
 10
1771.467333086634
 20
710.5520497554048
 30
0.0
 11
1724.667333086651
 21
757.3520497553878
 31
0.0
  0
LINE
  5
23C
330
1F
100
AcDbEntity
  8
LAY-10
  6
CONTINUOUS
 62
     7
100
AcDbLine
 10
1785.609468710365
 20
710.5520497554048
 30
0.0
 11
1738.809468710382
 21
757.3520497553878
 31
0.0
  0
LINE
  5
23D
330
1F
100
AcDbEntity
  8
LAY-10
  6
CONTINUOUS
 62
     7
100
AcDbLine
 10
1799.751604334096
 20
710.5520497554045
 30
0.0
 11
1752.951604334113
 21
757.3520497553878
 31
0.0
  0
LINE
  5
23E
330
1F
100
AcDbEntity
  8
LAY-10
  6
CONTINUOUS
 62
     7
100
AcDbLine
 10
1813.893739957827
 20
710.5520497554048
 30
0.0
 11
1767.093739957843
 21
757.3520497553878
 31
0.0
  0
LINE
  5
23F
330
1F
100
AcDbEntity
  8
LAY-10
  6
CONTINUOUS
 62
     7
100
AcDbLine
 10
1828.035875581558
 20
710.5520497554048
 30
0.0
 11
1781.235875581574
 21
757.3520497553878
 31
0.0
  0
LINE
  5
240
330
1F
100
AcDbEntity
  8
LAY-10
  6
CONTINUOUS
 62
     7
100
AcDbLine
 10
1842.178011205289
 20
710.5520497554048
 30
0.0
 11
1795.378011205305
 21
757.3520497553878
 31
0.0
  0
LINE
  5
241
330
1F
100
AcDbEntity
  8
LAY-10
  6
CONTINUOUS
 62
     7
100
AcDbLine
 10
1856.32014682902
 20
710.5520497554048
 30
0.0
 11
1809.520146829037
 21
757.3520497553878
 31
0.0
  0
LINE
  5
242
330
1F
100
AcDbEntity
  8
LAY-10
  6
CONTINUOUS
 62
     7
100
AcDbLine
 10
1870.462282452751
 20
710.5520497554048
 30
0.0
 11
1823.662282452767
 21
757.3520497553878
 31
0.0
  0
LINE
  5
243
330
1F
100
AcDbEntity
  8
LAY-10
  6
CONTINUOUS
 62
     7
100
AcDbLine
 10
1884.604418076482
 20
710.552049755404
 30
0.0
 11
1837.804418076498
 21
757.3520497553878
 31
0.0
  0
LINE
  5
244
330
1F
100
AcDbEntity
  8
LAY-10
  6
CONTINUOUS
 62
     7
100
AcDbLine
 10
1898.746553700212
 20
710.5520497554045
 30
0.0
 11
1851.946553700229
 21
757.3520497553878
 31
0.0
  0
LINE
  5
245
330
1F
100
AcDbEntity
  8
LAY-10
  6
CONTINUOUS
 62
     7
100
AcDbLine
 10
1912.888689323943
 20
710.5520497554048
 30
0.0
 11
1866.08868932396
 21
757.3520497553878
 31
0.0
  0
LINE
  5
246
330
1F
100
AcDbEntity
  8
LAY-10
  6
CONTINUOUS
 62
     7
100
AcDbLine
 10
1927.030824947674
 20
710.5520497554048
 30
0.0
 11
1880.230824947691
 21
757.3520497553878
 31
0.0
  0
LINE
  5
247
330
1F
100
AcDbEntity
  8
LAY-10
  6
CONTINUOUS
 62
     7
100
AcDbLine
 10
1941.172960571405
 20
710.5520497554048
 30
0.0
 11
1894.372960571422
 21
757.3520497553878
 31
0.0
  0
LINE
  5
248
330
1F
100
AcDbEntity
  8
LAY-10
  6
CONTINUOUS
 62
     7
100
AcDbLine
 10
1955.315096195136
 20
710.552049755404
 30
0.0
 11
1908.515096195153
 21
757.3520497553878
 31
0.0
  0
LINE
  5
249
330
1F
100
AcDbEntity
  8
LAY-10
  6
CONTINUOUS
 62
     7
100
AcDbLine
 10
1957.207684156349
 20
722.8015974179222
 30
0.0
 11
1922.657231818884
 21
757.3520497553878
 31
0.0
  0
LINE
  5
24A
330
1F
100
AcDbEntity
  8
LAY-10
  6
CONTINUOUS
 62
     7
100
AcDbLine
 10
1957.207684156349
 20
736.9437330416532
 30
0.0
 11
1936.799367442615
 21
757.3520497553878
 31
0.0
  0
LINE
  5
24B
330
1F
100
AcDbEntity
  8
LAY-10
  6
CONTINUOUS
 62
     7
100
AcDbLine
 10
1957.207684156349
 20
751.0858686653843
 30
0.0
 11
1950.941503066346
 21
757.3520497553878
 31
0.0
  0
LINE
  5
24C
330
1F
100
AcDbEntity
  8
LAY-10
  6
CONTINUOUS
 62
     7
100
AcDbLine
 10
2445.52351127151
 20
1647.970691337397
 30
0.0
 11
2445.52351127151
 21
1880.97069133712
 31
0.0
  0
LINE
  5
24D
330
1F
100
AcDbEntity
  8
LAY-10
  6
CONTINUOUS
 62
     7
100
AcDbLine
 10
2378.5235112715
 20
1761.4706913375
 30
0.0
 11
2428.523511271496
 21
1761.470691337499
 31
0.0
  0
LINE
  5
24E
330
1F
100
AcDbEntity
  8
LAY-10
  6
CONTINUOUS
 62
     7
100
AcDbLine
 10
2378.5235112715
 20
1767.470691337502
 30
0.0
 11
2428.523511271496
 21
1767.470691337502
 31
0.0
  0
LINE
  5
24F
330
1F
100
AcDbEntity
  8
LAY-10
  6
CONTINUOUS
 62
     7
100
AcDbLine
 10
2372.523511271507
 20
2300.470691337298
 30
0.0
 11
2372.523511271507
 21
2315.470691337298
 31
0.0
  0
LINE
  5
250
330
1F
100
AcDbEntity
  8
LAY-10
  6
CONTINUOUS
 62
     7
100
AcDbLine
 10
2372.523511271507
 20
2300.470691337298
 30
0.0
 11
2387.523511271507
 21
2300.470691337298
 31
0.0
  0
LINE
  5
251
330
1F
100
AcDbEntity
  8
LAY-10
  6
CONTINUOUS
 62
     7
100
AcDbLine
 10
2375.523511271507
 20
2303.470691337295
 30
0.0
 11
2375.523511271507
 21
2315.470691337298
 31
0.0
  0
LINE
  5
252
330
1F
100
AcDbEntity
  8
LAY-10
  6
CONTINUOUS
 62
     7
100
AcDbLine
 10
2387.523511271507
 20
2300.470691337298
 30
0.0
 11
2387.523511271507
 21
2303.470691337295
 31
0.0
  0
LINE
  5
253
330
1F
100
AcDbEntity
  8
LAY-10
  6
CONTINUOUS
 62
     7
100
AcDbLine
 10
2372.523511271507
 20
2315.470691337298
 30
0.0
 11
2375.523511271507
 21
2315.470691337298
 31
0.0
  0
LINE
  5
254
330
1F
100
AcDbEntity
  8
LAY-10
  6
CONTINUOUS
 62
     7
100
AcDbLine
 10
2524.323511271508
 20
2260.4706913373
 30
0.0
 11
2524.323511271508
 21
2214.470691337297
 31
0.0
  0
LINE
  5
255
330
1F
100
AcDbEntity
  8
LAY-10
  6
CONTINUOUS
 62
     7
100
AcDbLine
 10
2472.323511271557
 20
2256.470691337229
 30
0.0
 11
2524.323511271558
 21
2256.470691337229
 31
0.0
  0
LINE
  5
256
330
1F
100
AcDbEntity
  8
LAY-10
  6
CONTINUOUS
 62
     7
100
AcDbLine
 10
2520.723511271558
 20
2254.870691337231
 30
0.0
 11
2473.923511271557
 21
2254.870691337231
 31
0.0
  0
LINE
  5
257
330
1F
100
AcDbEntity
  8
LAY-10
  6
CONTINUOUS
 62
     7
100
AcDbLine
 10
2524.323511271558
 20
2231.470691337231
 30
0.0
 11
2522.323511271557
 21
2231.470691337231
 31
0.0
  0
LINE
  5
258
330
1F
100
AcDbEntity
  8
LAY-10
  6
CONTINUOUS
 62
     7
100
AcDbLine
 10
2527.523511271509
 20
2260.670691337303
 30
0.0
 11
2527.523511271509
 21
2214.470691337297
 31
0.0
  0
LINE
  5
259
330
1F
100
AcDbEntity
  8
LAY-10
  6
CONTINUOUS
 62
     7
100
AcDbLine
 10
2524.323511271513
 20
2214.470691337297
 30
0.0
 11
2527.523511271509
 21
2214.470691337297
 31
0.0
  0
ARC
  5
25A
330
1F
100
AcDbEntity
  8
LAY-10
  6
CONTINUOUS
 62
     7
100
AcDbCircle
 10
2524.523511271509
 20
2260.670691337303
 30
0.0
 40
3.000000000000003
100
AcDbArc
 50
0.0
 51
90.00000000000001
  0
LINE
  5
25B
330
1F
100
AcDbEntity
  8
LAY-10
  6
CONTINUOUS
 62
     7
100
AcDbLine
 10
2451.723511271496
 20
2263.670691337305
 30
0.0
 11
2524.523511271509
 21
2263.670691337305
 31
0.0
  0
LINE
  5
25C
330
1F
100
AcDbEntity
  8
LAY-10
  6
CONTINUOUS
 62
     7
100
AcDbLine
 10
2451.523511271496
 20
2260.4706913373
 30
0.0
 11
2524.323511271513
 21
2260.4706913373
 31
0.0
  0
ARC
  5
25D
330
1F
100
AcDbEntity
  8
LAY-10
  6
CONTINUOUS
 62
     7
100
AcDbCircle
 10
2442.523511271498
 20
2300.470691337264
 30
0.0
 40
3.000000000000003
100
AcDbArc
 50
0.0
 51
90.00000000000001
  0
ARC
  5
25E
330
1F
100
AcDbEntity
  8
LAY-10
  6
CONTINUOUS
 62
     7
100
AcDbCircle
 10
2442.723511271497
 20
2300.670691337263
 30
0.0
 40
6.000000000000006
100
AcDbArc
 50
0.0
 51
90.00000000000001
  0
ARC
  5
25F
330
1F
100
AcDbEntity
  8
LAY-10
  6
CONTINUOUS
 62
     7
100
AcDbCircle
 10
2451.723511271496
 20
2266.670691337303
 30
0.0
 40
3.000000000000003
100
AcDbArc
 50
180.0
 51
270.0
  0
ARC
  5
260
330
1F
100
AcDbEntity
  8
LAY-10
  6
CONTINUOUS
 62
     7
100
AcDbCircle
 10
2451.523511271496
 20
2266.470691337302
 30
0.0
 40
6.000000000000006
100
AcDbArc
 50
180.0
 51
270.0
  0
LINE
  5
261
330
1F
100
AcDbEntity
  8
LAY-10
  6
CONTINUOUS
 62
     7
100
AcDbLine
 10
2456.723511271598
 20
2273.356982838309
 30
0.0
 11
2448.723511271597
 21
2273.356982838309
 31
0.0
  0
LINE
  5
262
330
1F
100
AcDbEntity
  8
LAY-10
  6
CONTINUOUS
 62
     7
100
AcDbLine
 10
2456.723511271598
 20
2303.356982838311
 30
0.0
 11
2456.723511271598
 21
2273.356982838309
 31
0.0
  0
ARC
  5
263
330
1F
100
AcDbEntity
  8
LAY-10
  6
CONTINUOUS
 62
     7
100
AcDbCircle
 10
2456.723511271598
 20
2303.356982838311
 30
0.0
 40
8.0
100
AcDbArc
 50
135.0000000000047
 51
180.0
  0
LINE
  5
264
330
1F
100
AcDbEntity
  8
LAY-10
  6
CONTINUOUS
 62
     7
100
AcDbLine
 10
2486.421996081432
 20
2344.36917614713
 30
0.0
 11
2451.066657022105
 21
2309.013837087802
 31
0.0
  0
LINE
  5
265
330
1F
100
AcDbEntity
  8
LAY-10
  6
CONTINUOUS
 62
     7
100
AcDbLine
 10
2492.078850330922
 20
2338.71232189764
 30
0.0
 11
2456.723511271598
 21
2303.356982838311
 31
0.0
  0
LINE
  5
266
330
1F
100
AcDbEntity
  8
LAY-10
  6
CONTINUOUS
 62
     7
100
AcDbLine
 10
2486.421996081432
 20
2344.36917614713
 30
0.0
 11
2492.078850330925
 21
2338.71232189764
 31
0.0
  0
LINE
  5
267
330
1F
100
AcDbEntity
  8
LAY-10
  6
CONTINUOUS
 62
     7
100
AcDbLine
 10
2448.723511271498
 20
2266.670691337303
 30
0.0
 11
2448.723511271498
 21
2303.356982838311
 31
0.0
  0
LINE
  5
268
330
1F
100
AcDbEntity
  8
LAY-10
  6
CONTINUOUS
 62
     7
100
AcDbLine
 10
2375.523511271507
 20
2303.470691337295
 30
0.0
 11
2442.523511271498
 21
2303.470691337295
 31
0.0
  0
LINE
  5
269
330
1F
100
AcDbEntity
  8
LAY-10
  6
CONTINUOUS
 62
     7
100
AcDbLine
 10
2442.723511271497
 20
2306.670691337294
 30
0.0
 11
2375.523511271507
 21
2306.670691337294
 31
0.0
  0
LINE
  5
26A
330
1F
100
AcDbEntity
  8
LAY-10
  6
CONTINUOUS
 62
     7
100
AcDbLine
 10
2445.5235112715
 20
2299.4706913373
 30
0.0
 11
2372.523511271515
 21
2299.4706913373
 31
0.0
  0
LINE
  5
26B
330
1F
100
AcDbEntity
  8
LAY-10
  6
CONTINUOUS
 62
     7
100
AcDbLine
 10
2443.523511271521
 20
2298.961137777283
 30
0.0
 11
2445.523511271524
 21
2297.155841119077
 31
0.0
  0
LINE
  5
26C
330
1F
100
AcDbEntity
  8
LAY-10
  6
CONTINUOUS
 62
     7
100
AcDbLine
 10
2443.523511271523
 20
2298.254030996094
 30
0.0
 11
2445.523511271524
 21
2296.448734337892
 31
0.0
  0
LINE
  5
26D
330
1F
100
AcDbEntity
  8
LAY-10
  6
CONTINUOUS
 62
     7
100
AcDbLine
 10
2443.523511271521
 20
2297.546924214909
 30
0.0
 11
2445.523511271524
 21
2295.741627556703
 31
0.0
  0
LINE
  5
26E
330
1F
100
AcDbEntity
  8
LAY-10
  6
CONTINUOUS
 62
     7
100
AcDbLine
 10
2443.523511271523
 20
2296.839817433721
 30
0.0
 11
2445.523511271524
 21
2295.034520775519
 31
0.0
  0
LINE
  5
26F
330
1F
100
AcDbEntity
  8
LAY-10
  6
CONTINUOUS
 62
     7
100
AcDbLine
 10
2443.523511271521
 20
2296.132710652536
 30
0.0
 11
2445.523511271524
 21
2294.327413994331
 31
0.0
  0
LINE
  5
270
330
1F
100
AcDbEntity
  8
LAY-10
  6
CONTINUOUS
 62
     7
100
AcDbLine
 10
2443.523511271523
 20
2295.425603871349
 30
0.0
 11
2445.5254613804
 21
2293.623653762473
 31
0.0
  0
LINE
  5
271
330
1F
100
AcDbEntity
  8
LAY-10
  6
CONTINUOUS
 62
     7
100
AcDbLine
 10
2443.523511271521
 20
2294.718497090163
 30
0.0
 11
2445.523511271524
 21
2292.916950351844
 31
0.0
  0
LINE
  5
272
330
1F
100
AcDbEntity
  8
LAY-10
  6
CONTINUOUS
 62
     7
100
AcDbLine
 10
2443.523511271523
 20
2294.011390308976
 30
0.0
 11
2445.523511271521
 21
2292.211390308977
 31
0.0
  0
LINE
  5
273
330
1F
100
AcDbEntity
  8
LAY-10
  6
CONTINUOUS
 62
     7
100
AcDbLine
 10
2443.523511271521
 20
2293.304283527791
 30
0.0
 11
2445.523511271525
 21
2291.50428352779
 31
0.0
  0
LINE
  5
274
330
1F
100
AcDbEntity
  8
LAY-10
  6
CONTINUOUS
 62
     7
100
AcDbLine
 10
2443.523511271523
 20
2292.597176746603
 30
0.0
 11
2445.523511271521
 21
2290.797176746605
 31
0.0
  0
LINE
  5
275
330
1F
100
AcDbEntity
  8
LAY-10
  6
CONTINUOUS
 62
     7
100
AcDbLine
 10
2443.523511271521
 20
2291.890069965418
 30
0.0
 11
2445.523511271525
 21
2290.090069965417
 31
0.0
  0
LINE
  5
276
330
1F
100
AcDbEntity
  8
LAY-10
  6
CONTINUOUS
 62
     7
100
AcDbLine
 10
2443.523511271523
 20
2291.182963184229
 30
0.0
 11
2445.523511271521
 21
2289.38296318423
 31
0.0
  0
LINE
  5
277
330
1F
100
AcDbEntity
  8
LAY-10
  6
CONTINUOUS
 62
     7
100
AcDbLine
 10
2443.523511271521
 20
2290.475856403044
 30
0.0
 11
2445.523511271525
 21
2288.675856403043
 31
0.0
  0
LINE
  5
278
330
1F
100
AcDbEntity
  8
LAY-10
  6
CONTINUOUS
 62
     7
100
AcDbLine
 10
2443.523511271523
 20
2289.768749621857
 30
0.0
 11
2445.523511271521
 21
2287.968749621858
 31
0.0
  0
LINE
  5
279
330
1F
100
AcDbEntity
  8
LAY-10
  6
CONTINUOUS
 62
     7
100
AcDbLine
 10
2443.523511271521
 20
2289.061642840671
 30
0.0
 11
2445.523511271525
 21
2287.261642840668
 31
0.0
  0
LINE
  5
27A
330
1F
100
AcDbEntity
  8
LAY-10
  6
CONTINUOUS
 62
     7
100
AcDbLine
 10
2443.523511271523
 20
2288.354536059484
 30
0.0
 11
2445.523511271521
 21
2286.554536059485
 31
0.0
  0
LINE
  5
27B
330
1F
100
AcDbEntity
  8
LAY-10
  6
CONTINUOUS
 62
     7
100
AcDbLine
 10
2443.523511271521
 20
2287.6474292783
 30
0.0
 11
2445.523511271525
 21
2285.847429278297
 31
0.0
  0
LINE
  5
27C
330
1F
100
AcDbEntity
  8
LAY-10
  6
CONTINUOUS
 62
     7
100
AcDbLine
 10
2443.523511271523
 20
2286.940322497111
 30
0.0
 11
2445.523511271521
 21
2285.140322497113
 31
0.0
  0
LINE
  5
27D
330
1F
100
AcDbEntity
  8
LAY-10
  6
CONTINUOUS
 62
     7
100
AcDbLine
 10
2443.523511271521
 20
2286.233215715924
 30
0.0
 11
2445.523511271525
 21
2284.433215715923
 31
0.0
  0
LINE
  5
27E
330
1F
100
AcDbEntity
  8
LAY-10
  6
CONTINUOUS
 62
     7
100
AcDbLine
 10
2443.523511271523
 20
2285.526108934736
 30
0.0
 11
2445.52351127152
 21
2283.72610893474
 31
0.0
  0
LINE
  5
27F
330
1F
100
AcDbEntity
  8
LAY-10
  6
CONTINUOUS
 62
     7
100
AcDbLine
 10
2443.523511271521
 20
2284.819002153553
 30
0.0
 11
2445.523511271525
 21
2283.01900215355
 31
0.0
  0
LINE
  5
280
330
1F
100
AcDbEntity
  8
LAY-10
  6
CONTINUOUS
 62
     7
100
AcDbLine
 10
2443.523511271523
 20
2284.111895372363
 30
0.0
 11
2445.52351127152
 21
2282.311895372367
 31
0.0
  0
LINE
  5
281
330
1F
100
AcDbEntity
  8
LAY-10
  6
CONTINUOUS
 62
     7
100
AcDbLine
 10
2443.523511271521
 20
2283.40478859118
 30
0.0
 11
2445.523511271525
 21
2281.604788591177
 31
0.0
  0
LINE
  5
282
330
1F
100
AcDbEntity
  8
LAY-10
  6
CONTINUOUS
 62
     7
100
AcDbLine
 10
2443.523511271523
 20
2282.697681809991
 30
0.0
 11
2445.52351127152
 21
2280.897681809994
 31
0.0
  0
LINE
  5
283
330
1F
100
AcDbEntity
  8
LAY-10
  6
CONTINUOUS
 62
     7
100
AcDbLine
 10
2443.523511271521
 20
2281.990575028807
 30
0.0
 11
2445.523511271525
 21
2280.190575028805
 31
0.0
  0
LINE
  5
284
330
1F
100
AcDbEntity
  8
LAY-10
  6
CONTINUOUS
 62
     7
100
AcDbLine
 10
2443.523511271523
 20
2281.283468247618
 30
0.0
 11
2445.52351127152
 21
2279.483468247621
 31
0.0
  0
LINE
  5
285
330
1F
100
AcDbEntity
  8
LAY-10
  6
CONTINUOUS
 62
     7
100
AcDbLine
 10
2443.523511271521
 20
2280.576361466435
 30
0.0
 11
2445.523511271524
 21
2278.77636146643
 31
0.0
  0
LINE
  5
286
330
1F
100
AcDbEntity
  8
LAY-10
  6
CONTINUOUS
 62
     7
100
AcDbLine
 10
2443.523511271523
 20
2279.869254685244
 30
0.0
 11
2445.52351127152
 21
2278.069254685249
 31
0.0
  0
LINE
  5
287
330
1F
100
AcDbEntity
  8
LAY-10
  6
CONTINUOUS
 62
     7
100
AcDbLine
 10
2443.523511271521
 20
2279.162147904061
 30
0.0
 11
2445.523511271524
 21
2277.362147904058
 31
0.0
  0
LINE
  5
288
330
1F
100
AcDbEntity
  8
LAY-10
  6
CONTINUOUS
 62
     7
100
AcDbLine
 10
2443.523511271523
 20
2278.455041122871
 30
0.0
 11
2445.52351127152
 21
2276.655041122875
 31
0.0
  0
LINE
  5
289
330
1F
100
AcDbEntity
  8
LAY-10
  6
CONTINUOUS
 62
     7
100
AcDbLine
 10
2443.523511271521
 20
2277.747934341688
 30
0.0
 11
2445.523511271524
 21
2275.947934341685
 31
0.0
  0
LINE
  5
28A
330
1F
100
AcDbEntity
  8
LAY-10
  6
CONTINUOUS
 62
     7
100
AcDbLine
 10
2443.523511271523
 20
2277.0408275605
 30
0.0
 11
2445.52351127152
 21
2275.240827560502
 31
0.0
  0
LINE
  5
28B
330
1F
100
AcDbEntity
  8
LAY-10
  6
CONTINUOUS
 62
     7
100
AcDbLine
 10
2443.523511271521
 20
2276.333720779316
 30
0.0
 11
2445.523511271524
 21
2274.533720779313
 31
0.0
  0
LINE
  5
28C
330
1F
100
AcDbEntity
  8
LAY-10
  6
CONTINUOUS
 62
     7
100
AcDbLine
 10
2443.523511271523
 20
2275.626613998124
 30
0.0
 11
2445.52351127152
 21
2273.826613998131
 31
0.0
  0
LINE
  5
28D
330
1F
100
AcDbEntity
  8
LAY-10
  6
CONTINUOUS
 62
     7
100
AcDbLine
 10
2443.523511271521
 20
2274.919507216943
 30
0.0
 11
2445.523511271524
 21
2273.11950721694
 31
0.0
  0
LINE
  5
28E
330
1F
100
AcDbEntity
  8
LAY-10
  6
CONTINUOUS
 62
     7
100
AcDbLine
 10
2443.523511271523
 20
2274.212400435753
 30
0.0
 11
2445.52351127152
 21
2272.412400435755
 31
0.0
  0
LINE
  5
28F
330
1F
100
AcDbEntity
  8
LAY-10
  6
CONTINUOUS
 62
     7
100
AcDbLine
 10
2443.523511271521
 20
2273.50529365457
 30
0.0
 11
2445.523511271524
 21
2271.705293654567
 31
0.0
  0
LINE
  5
290
330
1F
100
AcDbEntity
  8
LAY-10
  6
CONTINUOUS
 62
     7
100
AcDbLine
 10
2443.523511271523
 20
2272.79818687338
 30
0.0
 11
2445.52351127152
 21
2270.998186873384
 31
0.0
  0
LINE
  5
291
330
1F
100
AcDbEntity
  8
LAY-10
  6
CONTINUOUS
 62
     7
100
AcDbLine
 10
2443.523511271521
 20
2272.091080092197
 30
0.0
 11
2445.523511271524
 21
2270.291080092194
 31
0.0
  0
LINE
  5
292
330
1F
100
AcDbEntity
  8
LAY-10
  6
CONTINUOUS
 62
     7
100
AcDbLine
 10
2443.523511271522
 20
2271.383973311007
 30
0.0
 11
2445.52351127152
 21
2269.583973311011
 31
0.0
  0
LINE
  5
293
330
1F
100
AcDbEntity
  8
LAY-10
  6
CONTINUOUS
 62
     7
100
AcDbLine
 10
2443.523511271521
 20
2270.676866529825
 30
0.0
 11
2444.929686464302
 21
2269.470691337042
 31
0.0
  0
LINE
  5
294
330
1F
100
AcDbEntity
  8
LAY-10
  6
CONTINUOUS
 62
     7
100
AcDbLine
 10
2443.523511271522
 20
2269.969759748635
 30
0.0
 11
2444.022579683119
 21
2269.470691337038
 31
0.0
  0
LINE
  5
295
330
1F
100
AcDbEntity
  8
LAY-10
  6
CONTINUOUS
 62
     7
100
AcDbLine
 10
2443.742370837287
 20
2299.470691337122
 30
0.0
 11
2445.523511271524
 21
2297.862947900264
 31
0.0
  0
LINE
  5
296
330
1F
100
AcDbEntity
  8
LAY-10
  6
CONTINUOUS
 62
     7
100
AcDbLine
 10
2444.525739906268
 20
2299.470691337122
 30
0.0
 11
2445.523511271524
 21
2298.570054681449
 31
0.0
  0
LINE
  5
297
330
1F
100
AcDbEntity
  8
LAY-10
  6
CONTINUOUS
 62
     7
100
AcDbLine
 10
2445.309108975252
 20
2299.470691337122
 30
0.0
 11
2445.523511271524
 21
2299.277161462637
 31
0.0
  0
LINE
  5
298
330
1F
100
AcDbEntity
  8
LAY-10
  6
CONTINUOUS
 62
     7
100
AcDbLine
 10
2443.523511271525
 20
2269.470691337189
 30
0.0
 11
2445.523511271525
 21
2269.470691337189
 31
0.0
  0
LINE
  5
299
330
1F
100
AcDbEntity
  8
LAY-10
  6
CONTINUOUS
 62
     7
100
AcDbLine
 10
2429.0235112715
 20
2293.4706913374
 30
0.0
 11
2382.5235112715
 21
2293.4706913374
 31
0.0
  0
LINE
  5
29A
330
1F
100
AcDbEntity
  8
LAY-10
  6
CONTINUOUS
 62
     7
100
AcDbLine
 10
2443.5235112715
 20
2234.4706913374
 30
0.0
 11
2441.5235112715
 21
2234.4706913374
 31
0.0
  0
ARC
  5
29B
330
1F
100
AcDbEntity
  8
LAY-10
  6
CONTINUOUS
 62
     7
100
AcDbCircle
 10
2441.5235112715
 20
2238.4706913374
 30
0.0
 40
4.0
100
AcDbArc
 50
180.0
 51
270.0
  0
ARC
  5
29C
330
1F
100
AcDbEntity
  8
LAY-10
  6
CONTINUOUS
 62
     7
100
AcDbCircle
 10
2382.5235112715
 20
2297.4706913374
 30
0.0
 40
4.0
100
AcDbArc
 50
180.0
 51
270.0
  0
ARC
  5
29D
330
1F
100
AcDbEntity
  8
LAY-10
  6
CONTINUOUS
 62
     7
100
AcDbCircle
 10
2429.0235112715
 20
2284.9706913374
 30
0.0
 40
8.5
100
AcDbArc
 50
0.0
 51
90.00000000000001
  0
LINE
  5
29E
330
1F
100
AcDbEntity
  8
LAY-10
  6
CONTINUOUS
 62
     7
100
AcDbLine
 10
2372.523511271507
 20
1228.470691337238
 30
0.0
 11
2372.523511271507
 21
1213.470691337238
 31
0.0
  0
LINE
  5
29F
330
1F
100
AcDbEntity
  8
LAY-10
  6
CONTINUOUS
 62
     7
100
AcDbLine
 10
2372.523511271507
 20
1228.470691337238
 30
0.0
 11
2387.523511271507
 21
1228.470691337238
 31
0.0
  0
LINE
  5
2A0
330
1F
100
AcDbEntity
  8
LAY-10
  6
CONTINUOUS
 62
     7
100
AcDbLine
 10
2375.523511271507
 20
1225.470691337241
 30
0.0
 11
2375.523511271507
 21
1213.470691337238
 31
0.0
  0
LINE
  5
2A1
330
1F
100
AcDbEntity
  8
LAY-10
  6
CONTINUOUS
 62
     7
100
AcDbLine
 10
2387.523511271507
 20
1228.470691337238
 30
0.0
 11
2387.523511271507
 21
1225.470691337241
 31
0.0
  0
LINE
  5
2A2
330
1F
100
AcDbEntity
  8
LAY-10
  6
CONTINUOUS
 62
     7
100
AcDbLine
 10
2372.523511271507
 20
1213.470691337238
 30
0.0
 11
2375.523511271507
 21
1213.470691337238
 31
0.0
  0
LINE
  5
2A3
330
1F
100
AcDbEntity
  8
LAY-10
  6
CONTINUOUS
 62
     7
100
AcDbLine
 10
2524.323511271508
 20
1268.470691337235
 30
0.0
 11
2524.323511271508
 21
1314.47069133724
 31
0.0
  0
LINE
  5
2A4
330
1F
100
AcDbEntity
  8
LAY-10
  6
CONTINUOUS
 62
     7
100
AcDbLine
 10
2472.323511271557
 20
1272.470691337306
 30
0.0
 11
2524.323511271558
 21
1272.470691337306
 31
0.0
  0
LINE
  5
2A5
330
1F
100
AcDbEntity
  8
LAY-10
  6
CONTINUOUS
 62
     7
100
AcDbLine
 10
2520.723511271558
 20
1274.070691337306
 30
0.0
 11
2473.923511271557
 21
1274.070691337306
 31
0.0
  0
LINE
  5
2A6
330
1F
100
AcDbEntity
  8
LAY-10
  6
CONTINUOUS
 62
     7
100
AcDbLine
 10
2524.323511271558
 20
1297.470691337305
 30
0.0
 11
2522.323511271557
 21
1297.470691337305
 31
0.0
  0
LINE
  5
2A7
330
1F
100
AcDbEntity
  8
LAY-10
  6
CONTINUOUS
 62
     7
100
AcDbLine
 10
2527.523511271509
 20
1268.270691337233
 30
0.0
 11
2527.523511271509
 21
1314.47069133724
 31
0.0
  0
LINE
  5
2A8
330
1F
100
AcDbEntity
  8
LAY-10
  6
CONTINUOUS
 62
     7
100
AcDbLine
 10
2524.323511271513
 20
1314.47069133724
 30
0.0
 11
2527.523511271509
 21
1314.47069133724
 31
0.0
  0
ARC
  5
2A9
330
1F
100
AcDbEntity
  8
LAY-10
  6
CONTINUOUS
 62
     7
100
AcDbCircle
 10
2524.523511271509
 20
1268.270691337233
 30
0.0
 40
3.000000000000003
100
AcDbArc
 50
270.0
 51
0.0000000000001719
  0
LINE
  5
2AA
330
1F
100
AcDbEntity
  8
LAY-10
  6
CONTINUOUS
 62
     7
100
AcDbLine
 10
2451.723511271496
 20
1265.270691337232
 30
0.0
 11
2524.523511271509
 21
1265.270691337232
 31
0.0
  0
LINE
  5
2AB
330
1F
100
AcDbEntity
  8
LAY-10
  6
CONTINUOUS
 62
     7
100
AcDbLine
 10
2451.523511271496
 20
1268.470691337235
 30
0.0
 11
2524.323511271513
 21
1268.470691337235
 31
0.0
  0
ARC
  5
2AC
330
1F
100
AcDbEntity
  8
LAY-10
  6
CONTINUOUS
 62
     7
100
AcDbCircle
 10
2442.523511271498
 20
1228.470691337272
 30
0.0
 40
3.000000000000003
100
AcDbArc
 50
270.0
 51
0.0000000000001719
  0
ARC
  5
2AD
330
1F
100
AcDbEntity
  8
LAY-10
  6
CONTINUOUS
 62
     7
100
AcDbCircle
 10
2442.723511271497
 20
1228.270691337273
 30
0.0
 40
6.000000000000006
100
AcDbArc
 50
270.0
 51
0.0000000000001719
  0
ARC
  5
2AE
330
1F
100
AcDbEntity
  8
LAY-10
  6
CONTINUOUS
 62
     7
100
AcDbCircle
 10
2451.723511271496
 20
1262.270691337233
 30
0.0
 40
3.000000000000003
100
AcDbArc
 50
90.00000000000001
 51
180.0
  0
ARC
  5
2AF
330
1F
100
AcDbEntity
  8
LAY-10
  6
CONTINUOUS
 62
     7
100
AcDbCircle
 10
2451.523511271496
 20
1262.470691337234
 30
0.0
 40
6.000000000000006
100
AcDbArc
 50
90.00000000000001
 51
180.0
  0
LINE
  5
2B0
330
1F
100
AcDbEntity
  8
LAY-10
  6
CONTINUOUS
 62
     7
100
AcDbLine
 10
2456.723511271598
 20
1255.584399836227
 30
0.0
 11
2448.723511271597
 21
1255.584399836227
 31
0.0
  0
LINE
  5
2B1
330
1F
100
AcDbEntity
  8
LAY-10
  6
CONTINUOUS
 62
     7
100
AcDbLine
 10
2456.723511271598
 20
1225.584399836225
 30
0.0
 11
2456.723511271598
 21
1255.584399836227
 31
0.0
  0
ARC
  5
2B2
330
1F
100
AcDbEntity
  8
LAY-10
  6
CONTINUOUS
 62
     7
100
AcDbCircle
 10
2456.723511271598
 20
1225.584399836225
 30
0.0
 40
8.0
100
AcDbArc
 50
180.0
 51
224.9999999999946
  0
LINE
  5
2B3
330
1F
100
AcDbEntity
  8
LAY-10
  6
CONTINUOUS
 62
     7
100
AcDbLine
 10
2486.421996081432
 20
1184.572206527405
 30
0.0
 11
2451.066657022105
 21
1219.927545586733
 31
0.0
  0
LINE
  5
2B4
330
1F
100
AcDbEntity
  8
LAY-10
  6
CONTINUOUS
 62
     7
100
AcDbLine
 10
2492.078850330922
 20
1190.229060776896
 30
0.0
 11
2456.723511271598
 21
1225.584399836225
 31
0.0
  0
LINE
  5
2B5
330
1F
100
AcDbEntity
  8
LAY-10
  6
CONTINUOUS
 62
     7
100
AcDbLine
 10
2486.421996081432
 20
1184.572206527405
 30
0.0
 11
2492.078850330925
 21
1190.229060776896
 31
0.0
  0
LINE
  5
2B6
330
1F
100
AcDbEntity
  8
LAY-10
  6
CONTINUOUS
 62
     7
100
AcDbLine
 10
2448.723511271498
 20
1262.270691337233
 30
0.0
 11
2448.723511271498
 21
1225.584399836225
 31
0.0
  0
LINE
  5
2B7
330
1F
100
AcDbEntity
  8
LAY-10
  6
CONTINUOUS
 62
     7
100
AcDbLine
 10
2375.523511271507
 20
1225.470691337241
 30
0.0
 11
2442.523511271498
 21
1225.470691337241
 31
0.0
  0
LINE
  5
2B8
330
1F
100
AcDbEntity
  8
LAY-10
  6
CONTINUOUS
 62
     7
100
AcDbLine
 10
2442.723511271497
 20
1222.270691337242
 30
0.0
 11
2375.523511271507
 21
1222.270691337242
 31
0.0
  0
LINE
  5
2B9
330
1F
100
AcDbEntity
  8
LAY-10
  6
CONTINUOUS
 62
     7
100
AcDbLine
 10
2372.52351127153
 20
1229.47069133734
 30
0.0
 11
2445.523511271501
 21
1229.47069133734
 31
0.0
  0
LINE
  5
2BA
330
1F
100
AcDbEntity
  8
LAY-10
  6
CONTINUOUS
 62
     7
100
AcDbLine
 10
2443.523511271501
 20
1258.961137777422
 30
0.0
 11
2445.523511271504
 21
1257.155841119217
 31
0.0
  0
LINE
  5
2BB
330
1F
100
AcDbEntity
  8
LAY-10
  6
CONTINUOUS
 62
     7
100
AcDbLine
 10
2443.523511271503
 20
1258.254030996234
 30
0.0
 11
2445.523511271504
 21
1256.448734338031
 31
0.0
  0
LINE
  5
2BC
330
1F
100
AcDbEntity
  8
LAY-10
  6
CONTINUOUS
 62
     7
100
AcDbLine
 10
2443.523511271501
 20
1257.546924215048
 30
0.0
 11
2445.523511271504
 21
1255.741627556843
 31
0.0
  0
LINE
  5
2BD
330
1F
100
AcDbEntity
  8
LAY-10
  6
CONTINUOUS
 62
     7
100
AcDbLine
 10
2443.523511271503
 20
1256.83981743386
 30
0.0
 11
2445.523511271504
 21
1255.034520775659
 31
0.0
  0
LINE
  5
2BE
330
1F
100
AcDbEntity
  8
LAY-10
  6
CONTINUOUS
 62
     7
100
AcDbLine
 10
2443.523511271501
 20
1256.132710652676
 30
0.0
 11
2445.523511271504
 21
1254.32741399447
 31
0.0
  0
LINE
  5
2BF
330
1F
100
AcDbEntity
  8
LAY-10
  6
CONTINUOUS
 62
     7
100
AcDbLine
 10
2443.523511271503
 20
1255.425603871488
 30
0.0
 11
2445.52546138038
 21
1253.623653762613
 31
0.0
  0
LINE
  5
2C0
330
1F
100
AcDbEntity
  8
LAY-10
  6
CONTINUOUS
 62
     7
100
AcDbLine
 10
2443.523511271501
 20
1254.718497090302
 30
0.0
 11
2445.523511271504
 21
1252.916950351984
 31
0.0
  0
LINE
  5
2C1
330
1F
100
AcDbEntity
  8
LAY-10
  6
CONTINUOUS
 62
     7
100
AcDbLine
 10
2443.523511271503
 20
1254.011390309115
 30
0.0
 11
2445.523511271501
 21
1252.211390309116
 31
0.0
  0
LINE
  5
2C2
330
1F
100
AcDbEntity
  8
LAY-10
  6
CONTINUOUS
 62
     7
100
AcDbLine
 10
2443.523511271501
 20
1253.304283527931
 30
0.0
 11
2445.523511271505
 21
1251.50428352793
 31
0.0
  0
LINE
  5
2C3
330
1F
100
AcDbEntity
  8
LAY-10
  6
CONTINUOUS
 62
     7
100
AcDbLine
 10
2443.523511271503
 20
1252.597176746742
 30
0.0
 11
2445.523511271501
 21
1250.797176746745
 31
0.0
  0
LINE
  5
2C4
330
1F
100
AcDbEntity
  8
LAY-10
  6
CONTINUOUS
 62
     7
100
AcDbLine
 10
2443.523511271501
 20
1251.890069965558
 30
0.0
 11
2445.523511271505
 21
1250.090069965556
 31
0.0
  0
LINE
  5
2C5
330
1F
100
AcDbEntity
  8
LAY-10
  6
CONTINUOUS
 62
     7
100
AcDbLine
 10
2443.523511271503
 20
1251.182963184368
 30
0.0
 11
2445.523511271501
 21
1249.38296318437
 31
0.0
  0
LINE
  5
2C6
330
1F
100
AcDbEntity
  8
LAY-10
  6
CONTINUOUS
 62
     7
100
AcDbLine
 10
2443.523511271501
 20
1250.475856403184
 30
0.0
 11
2445.523511271505
 21
1248.675856403183
 31
0.0
  0
LINE
  5
2C7
330
1F
100
AcDbEntity
  8
LAY-10
  6
CONTINUOUS
 62
     7
100
AcDbLine
 10
2443.523511271503
 20
1249.768749621997
 30
0.0
 11
2445.523511271501
 21
1247.968749621998
 31
0.0
  0
LINE
  5
2C8
330
1F
100
AcDbEntity
  8
LAY-10
  6
CONTINUOUS
 62
     7
100
AcDbLine
 10
2443.523511271501
 20
1249.061642840811
 30
0.0
 11
2445.523511271505
 21
1247.261642840807
 31
0.0
  0
LINE
  5
2C9
330
1F
100
AcDbEntity
  8
LAY-10
  6
CONTINUOUS
 62
     7
100
AcDbLine
 10
2443.523511271503
 20
1248.354536059624
 30
0.0
 11
2445.523511271501
 21
1246.554536059624
 31
0.0
  0
LINE
  5
2CA
330
1F
100
AcDbEntity
  8
LAY-10
  6
CONTINUOUS
 62
     7
100
AcDbLine
 10
2443.523511271501
 20
1247.647429278439
 30
0.0
 11
2445.523511271505
 21
1245.847429278436
 31
0.0
  0
LINE
  5
2CB
330
1F
100
AcDbEntity
  8
LAY-10
  6
CONTINUOUS
 62
     7
100
AcDbLine
 10
2443.523511271503
 20
1246.940322497251
 30
0.0
 11
2445.523511271501
 21
1245.140322497253
 31
0.0
  0
LINE
  5
2CC
330
1F
100
AcDbEntity
  8
LAY-10
  6
CONTINUOUS
 62
     7
100
AcDbLine
 10
2443.523511271501
 20
1246.233215716064
 30
0.0
 11
2445.523511271505
 21
1244.433215716063
 31
0.0
  0
LINE
  5
2CD
330
1F
100
AcDbEntity
  8
LAY-10
  6
CONTINUOUS
 62
     7
100
AcDbLine
 10
2443.523511271503
 20
1245.526108934876
 30
0.0
 11
2445.523511271501
 21
1243.726108934879
 31
0.0
  0
LINE
  5
2CE
330
1F
100
AcDbEntity
  8
LAY-10
  6
CONTINUOUS
 62
     7
100
AcDbLine
 10
2443.523511271501
 20
1244.819002153693
 30
0.0
 11
2445.523511271505
 21
1243.01900215369
 31
0.0
  0
LINE
  5
2CF
330
1F
100
AcDbEntity
  8
LAY-10
  6
CONTINUOUS
 62
     7
100
AcDbLine
 10
2443.523511271503
 20
1244.111895372502
 30
0.0
 11
2445.523511271501
 21
1242.311895372507
 31
0.0
  0
LINE
  5
2D0
330
1F
100
AcDbEntity
  8
LAY-10
  6
CONTINUOUS
 62
     7
100
AcDbLine
 10
2443.523511271501
 20
1243.404788591318
 30
0.0
 11
2445.523511271505
 21
1241.604788591316
 31
0.0
  0
LINE
  5
2D1
330
1F
100
AcDbEntity
  8
LAY-10
  6
CONTINUOUS
 62
     7
100
AcDbLine
 10
2443.523511271503
 20
1242.697681810131
 30
0.0
 11
2445.523511271501
 21
1240.897681810133
 31
0.0
  0
LINE
  5
2D2
330
1F
100
AcDbEntity
  8
LAY-10
  6
CONTINUOUS
 62
     7
100
AcDbLine
 10
2443.523511271501
 20
1241.990575028947
 30
0.0
 11
2445.523511271505
 21
1240.190575028945
 31
0.0
  0
LINE
  5
2D3
330
1F
100
AcDbEntity
  8
LAY-10
  6
CONTINUOUS
 62
     7
100
AcDbLine
 10
2443.523511271503
 20
1241.283468247758
 30
0.0
 11
2445.523511271501
 21
1239.483468247761
 31
0.0
  0
LINE
  5
2D4
330
1F
100
AcDbEntity
  8
LAY-10
  6
CONTINUOUS
 62
     7
100
AcDbLine
 10
2443.523511271501
 20
1240.576361466574
 30
0.0
 11
2445.523511271503
 21
1238.77636146657
 31
0.0
  0
LINE
  5
2D5
330
1F
100
AcDbEntity
  8
LAY-10
  6
CONTINUOUS
 62
     7
100
AcDbLine
 10
2443.523511271503
 20
1239.869254685384
 30
0.0
 11
2445.523511271501
 21
1238.069254685389
 31
0.0
  0
LINE
  5
2D6
330
1F
100
AcDbEntity
  8
LAY-10
  6
CONTINUOUS
 62
     7
100
AcDbLine
 10
2443.523511271501
 20
1239.162147904201
 30
0.0
 11
2445.523511271503
 21
1237.362147904198
 31
0.0
  0
LINE
  5
2D7
330
1F
100
AcDbEntity
  8
LAY-10
  6
CONTINUOUS
 62
     7
100
AcDbLine
 10
2443.523511271503
 20
1238.455041123011
 30
0.0
 11
2445.523511271501
 21
1236.655041123015
 31
0.0
  0
LINE
  5
2D8
330
1F
100
AcDbEntity
  8
LAY-10
  6
CONTINUOUS
 62
     7
100
AcDbLine
 10
2443.523511271501
 20
1237.747934341828
 30
0.0
 11
2445.523511271503
 21
1235.947934341824
 31
0.0
  0
LINE
  5
2D9
330
1F
100
AcDbEntity
  8
LAY-10
  6
CONTINUOUS
 62
     7
100
AcDbLine
 10
2443.523511271503
 20
1237.040827560639
 30
0.0
 11
2445.523511271501
 21
1235.240827560642
 31
0.0
  0
LINE
  5
2DA
330
1F
100
AcDbEntity
  8
LAY-10
  6
CONTINUOUS
 62
     7
100
AcDbLine
 10
2443.5235112715
 20
1236.333720779455
 30
0.0
 11
2445.523511271503
 21
1234.533720779453
 31
0.0
  0
LINE
  5
2DB
330
1F
100
AcDbEntity
  8
LAY-10
  6
CONTINUOUS
 62
     7
100
AcDbLine
 10
2443.523511271503
 20
1235.626613998264
 30
0.0
 11
2445.523511271501
 21
1233.82661399827
 31
0.0
  0
LINE
  5
2DC
330
1F
100
AcDbEntity
  8
LAY-10
  6
CONTINUOUS
 62
     7
100
AcDbLine
 10
2443.5235112715
 20
1234.919507217083
 30
0.0
 11
2445.523511271503
 21
1233.119507217079
 31
0.0
  0
LINE
  5
2DD
330
1F
100
AcDbEntity
  8
LAY-10
  6
CONTINUOUS
 62
     7
100
AcDbLine
 10
2443.523511271503
 20
1234.212400435893
 30
0.0
 11
2445.523511271501
 21
1232.412400435895
 31
0.0
  0
LINE
  5
2DE
330
1F
100
AcDbEntity
  8
LAY-10
  6
CONTINUOUS
 62
     7
100
AcDbLine
 10
2443.5235112715
 20
1233.50529365471
 30
0.0
 11
2445.523511271503
 21
1231.705293654707
 31
0.0
  0
LINE
  5
2DF
330
1F
100
AcDbEntity
  8
LAY-10
  6
CONTINUOUS
 62
     7
100
AcDbLine
 10
2443.523511271503
 20
1232.798186873518
 30
0.0
 11
2445.523511271501
 21
1230.998186873524
 31
0.0
  0
LINE
  5
2E0
330
1F
100
AcDbEntity
  8
LAY-10
  6
CONTINUOUS
 62
     7
100
AcDbLine
 10
2443.5235112715
 20
1232.091080092336
 30
0.0
 11
2445.523511271503
 21
1230.291080092333
 31
0.0
  0
LINE
  5
2E1
330
1F
100
AcDbEntity
  8
LAY-10
  6
CONTINUOUS
 62
     7
100
AcDbLine
 10
2443.523511271503
 20
1231.383973311147
 30
0.0
 11
2445.523511271501
 21
1229.58397331115
 31
0.0
  0
LINE
  5
2E2
330
1F
100
AcDbEntity
  8
LAY-10
  6
CONTINUOUS
 62
     7
100
AcDbLine
 10
2443.5235112715
 20
1230.676866529965
 30
0.0
 11
2444.929686464282
 21
1229.470691337182
 31
0.0
  0
LINE
  5
2E3
330
1F
100
AcDbEntity
  8
LAY-10
  6
CONTINUOUS
 62
     7
100
AcDbLine
 10
2443.523511271503
 20
1229.969759748774
 30
0.0
 11
2444.022579683099
 21
1229.470691337178
 31
0.0
  0
LINE
  5
2E4
330
1F
100
AcDbEntity
  8
LAY-10
  6
CONTINUOUS
 62
     7
100
AcDbLine
 10
2443.742370837266
 20
1259.470691337262
 30
0.0
 11
2445.523511271504
 21
1257.862947900404
 31
0.0
  0
LINE
  5
2E5
330
1F
100
AcDbEntity
  8
LAY-10
  6
CONTINUOUS
 62
     7
100
AcDbLine
 10
2444.525739906248
 20
1259.470691337262
 30
0.0
 11
2445.523511271504
 21
1258.570054681589
 31
0.0
  0
LINE
  5
2E6
330
1F
100
AcDbEntity
  8
LAY-10
  6
CONTINUOUS
 62
     7
100
AcDbLine
 10
2445.309108975232
 20
1259.470691337262
 30
0.0
 11
2445.523511271504
 21
1259.277161462777
 31
0.0
  0
LINE
  5
2E7
330
1F
100
AcDbEntity
  8
LAY-10
  6
CONTINUOUS
 62
     7
100
AcDbLine
 10
2443.523511271525
 20
1259.470691337345
 30
0.0
 11
2445.523511271525
 21
1259.470691337345
 31
0.0
  0
LINE
  5
2E8
330
1F
100
AcDbEntity
  8
LAY-10
  6
CONTINUOUS
 62
     7
100
AcDbLine
 10
2429.0235112715
 20
1235.4706913376
 30
0.0
 11
2382.5235112715
 21
1235.4706913376
 31
0.0
  0
LINE
  5
2E9
330
1F
100
AcDbEntity
  8
LAY-10
  6
CONTINUOUS
 62
     7
100
AcDbLine
 10
2443.5235112715
 20
1294.4706913376
 30
0.0
 11
2441.5235112715
 21
1294.4706913376
 31
0.0
  0
ARC
  5
2EA
330
1F
100
AcDbEntity
  8
LAY-10
  6
CONTINUOUS
 62
     7
100
AcDbCircle
 10
2441.5235112715
 20
1290.4706913376
 30
0.0
 40
4.0
100
AcDbArc
 50
90.00000000000001
 51
180.0
  0
ARC
  5
2EB
330
1F
100
AcDbEntity
  8
LAY-10
  6
CONTINUOUS
 62
     7
100
AcDbCircle
 10
2382.5235112715
 20
1231.470691337601
 30
0.0
 40
4.0
100
AcDbArc
 50
90.00000000000001
 51
180.0
  0
ARC
  5
2EC
330
1F
100
AcDbEntity
  8
LAY-10
  6
CONTINUOUS
 62
     7
100
AcDbCircle
 10
2429.0235112715
 20
1243.970691337601
 30
0.0
 40
8.5
100
AcDbArc
 50
270.0
 51
0.0
  0
LINE
  5
2ED
330
1F
100
AcDbEntity
  8
LAY-10
  6
CONTINUOUS
 62
     7
100
AcDbLine
 10
2472.323511271558
 20
2256.470691337302
 30
0.0
 11
2472.323511271557
 21
1272.470691337306
 31
0.0
  0
LINE
  5
2EE
330
1F
100
AcDbEntity
  8
LAY-10
  6
CONTINUOUS
 62
     7
100
AcDbLine
 10
2522.323511271557
 20
1272.470691337306
 30
0.0
 11
2522.323511271557
 21
2256.470691337302
 31
0.0
  0
LINE
  5
2EF
330
1F
100
AcDbEntity
  8
LAY-10
  6
CONTINUOUS
 62
     7
100
AcDbLine
 10
2473.923511271559
 20
2254.870691337299
 30
0.0
 11
2473.923511271557
 21
1274.070691337306
 31
0.0
  0
LINE
  5
2F0
330
1F
100
AcDbEntity
  8
LAY-10
  6
CONTINUOUS
 62
     7
100
AcDbLine
 10
2520.723511271558
 20
1274.070691337306
 30
0.0
 11
2520.723511271558
 21
2254.870691337299
 31
0.0
  0
LINE
  5
2F1
330
1F
100
AcDbEntity
  8
LAY-10
  6
CONTINUOUS
 62
     7
100
AcDbLine
 10
2445.523511271501
 20
1228.470691337288
 30
0.0
 11
2445.5235112715
 21
2300.4706913373
 31
0.0
  0
LINE
  5
2F2
330
1F
100
AcDbEntity
  8
LAY-10
  6
CONTINUOUS
 62
     7
100
AcDbLine
 10
2378.5235112715
 20
1229.4706913376
 30
0.0
 11
2378.5235112715
 21
2299.470691337402
 31
0.0
  0
LINE
  5
2F3
330
1F
100
AcDbEntity
  8
LAY-10
  6
CONTINUOUS
 62
     7
100
AcDbLine
 10
2372.5235112715
 20
1229.4706913376
 30
0.0
 11
2372.5235112715
 21
2299.470691337402
 31
0.0
  0
LINE
  5
2F4
330
1F
100
AcDbEntity
  8
LAY-10
  6
CONTINUOUS
 62
     7
100
AcDbLine
 10
2428.5235112715
 20
1235.4706913376
 30
0.0
 11
2428.5235112715
 21
2293.4706913374
 31
0.0
  0
LINE
  5
2F5
330
1F
100
AcDbEntity
  8
LAY-10
  6
CONTINUOUS
 62
     7
100
AcDbLine
 10
2437.5235112715
 20
1243.970691337601
 30
0.0
 11
2437.5235112715
 21
2284.970691337401
 31
0.0
  0
LINE
  5
2F6
330
1F
100
AcDbEntity
  8
LAY-10
  6
CONTINUOUS
 62
     7
100
AcDbLine
 10
2443.5235112715
 20
1229.4706913376
 30
0.0
 11
2443.5235112715
 21
2299.4706913374
 31
0.0
  0
LINE
  5
2F7
330
1F
100
AcDbEntity
  8
LAY-10
  6
CONTINUOUS
 62
     7
100
AcDbLine
 10
2471.32351127168
 20
2110.32069133752
 30
0.0
 11
2471.32351127168
 21
2090.320691337519
 31
0.0
  0
LINE
  5
2F8
330
1F
100
AcDbEntity
  8
LAY-10
  6
CONTINUOUS
 62
     7
100
AcDbLine
 10
2471.32351127168
 20
1980.32069133752
 30
0.0
 11
2471.32351127168
 21
1960.32069133752
 31
0.0
  0
ARC
  5
2F9
330
1F
100
AcDbEntity
  8
LAY-10
  6
CONTINUOUS
 62
     7
100
AcDbCircle
 10
2469.323511271687
 20
2082.320691337519
 30
0.0
 40
3.000000000000003
100
AcDbArc
 50
270.0
 51
0.0
  0
ARC
  5
2FA
330
1F
100
AcDbEntity
  8
LAY-10
  6
CONTINUOUS
 62
     7
100
AcDbCircle
 10
2469.323511271687
 20
2082.320691337519
 30
0.0
 40
3.000000000000003
100
AcDbArc
 50
180.0
 51
270.0
  0
ARC
  5
2FB
330
1F
100
AcDbEntity
  8
LAY-10
  6
CONTINUOUS
 62
     7
100
AcDbCircle
 10
2469.323511271687
 20
1988.320691337518
 30
0.0
 40
3.000000000000003
100
AcDbArc
 50
0.0
 51
90.00000000000001
  0
ARC
  5
2FC
330
1F
100
AcDbEntity
  8
LAY-10
  6
CONTINUOUS
 62
     7
100
AcDbCircle
 10
2469.323511271687
 20
1988.320691337518
 30
0.0
 40
3.000000000000003
100
AcDbArc
 50
90.00000000000001
 51
180.0
  0
LINE
  5
2FD
330
1F
100
AcDbEntity
  8
LAY-10
  6
CONTINUOUS
 62
     7
100
AcDbLine
 10
2464.323511271679
 20
1960.32069133752
 30
0.0
 11
2472.323511271687
 21
1960.32069133752
 31
0.0
  0
LINE
  5
2FE
330
1F
100
AcDbEntity
  8
LAY-10
  6
CONTINUOUS
 62
     7
100
AcDbLine
 10
2464.323511271679
 20
2110.32069133752
 30
0.0
 11
2472.323511271687
 21
2110.32069133752
 31
0.0
  0
LINE
  5
2FF
330
1F
100
AcDbEntity
  8
LAY-10
  6
CONTINUOUS
 62
     7
100
AcDbLine
 10
2464.323511271679
 20
2090.320691337519
 30
0.0
 11
2472.323511271687
 21
2090.320691337519
 31
0.0
  0
LINE
  5
300
330
1F
100
AcDbEntity
  8
LAY-10
  6
CONTINUOUS
 62
     7
100
AcDbLine
 10
2466.32351127168
 20
2110.32069133752
 30
0.0
 11
2466.32351127168
 21
2120.620691337519
 31
0.0
  0
LINE
  5
301
330
1F
100
AcDbEntity
  8
LAY-10
  6
CONTINUOUS
 62
     7
100
AcDbLine
 10
2466.32351127168
 20
1980.32069133752
 30
0.0
 11
2466.32351127168
 21
2090.320691337519
 31
0.0
  0
LINE
  5
302
330
1F
100
AcDbEntity
  8
LAY-10
  6
CONTINUOUS
 62
     7
100
AcDbLine
 10
2466.32351127168
 20
1950.32069133752
 30
0.0
 11
2466.32351127168
 21
1960.32069133752
 31
0.0
  0
LINE
  5
303
330
1F
100
AcDbEntity
  8
LAY-10
  6
CONTINUOUS
 62
     7
100
AcDbLine
 10
2464.323511271679
 20
2090.320691337519
 30
0.0
 11
2464.323511271679
 21
2110.32069133752
 31
0.0
  0
LINE
  5
304
330
1F
100
AcDbEntity
  8
LAY-10
  6
CONTINUOUS
 62
     7
100
AcDbLine
 10
2464.323511271679
 20
1960.32069133752
 30
0.0
 11
2464.323511271679
 21
1980.32069133752
 31
0.0
  0
LINE
  5
305
330
1F
100
AcDbEntity
  8
LAY-10
  6
CONTINUOUS
 62
     7
100
AcDbLine
 10
2464.323511271679
 20
1980.32069133752
 30
0.0
 11
2472.323511271687
 21
1980.32069133752
 31
0.0
  0
LINE
  5
306
330
1F
100
AcDbEntity
  8
LAY-10
  6
CONTINUOUS
 62
     7
100
AcDbLine
 10
2466.32351127168
 20
2120.620691337519
 30
0.0
 11
2472.323511271687
 21
2120.620691337519
 31
0.0
  0
LINE
  5
307
330
1F
100
AcDbEntity
  8
LAY-10
  6
CONTINUOUS
 62
     7
100
AcDbLine
 10
2466.32351127168
 20
1950.32069133752
 30
0.0
 11
2472.323511271687
 21
1950.32069133752
 31
0.0
  0
LINE
  5
308
330
1F
100
AcDbEntity
  8
LAY-10
  6
CONTINUOUS
 62
     7
100
AcDbLine
 10
2471.32351127168
 20
1418.620691337318
 30
0.0
 11
2471.32351127168
 21
1438.620691337318
 31
0.0
  0
LINE
  5
309
330
1F
100
AcDbEntity
  8
LAY-10
  6
CONTINUOUS
 62
     7
100
AcDbLine
 10
2471.32351127168
 20
1548.620691337317
 30
0.0
 11
2471.32351127168
 21
1568.620691337318
 31
0.0
  0
ARC
  5
30A
330
1F
100
AcDbEntity
  8
LAY-10
  6
CONTINUOUS
 62
     7
100
AcDbCircle
 10
2469.323511271687
 20
1446.620691337318
 30
0.0
 40
3.000000000000003
100
AcDbArc
 50
0.0
 51
90.00000000000001
  0
ARC
  5
30B
330
1F
100
AcDbEntity
  8
LAY-10
  6
CONTINUOUS
 62
     7
100
AcDbCircle
 10
2469.323511271687
 20
1446.620691337318
 30
0.0
 40
3.000000000000003
100
AcDbArc
 50
90.00000000000001
 51
180.0
  0
ARC
  5
30C
330
1F
100
AcDbEntity
  8
LAY-10
  6
CONTINUOUS
 62
     7
100
AcDbCircle
 10
2469.323511271687
 20
1540.62069133732
 30
0.0
 40
3.000000000000003
100
AcDbArc
 50
270.0000000000002
 51
0.0
  0
ARC
  5
30D
330
1F
100
AcDbEntity
  8
LAY-10
  6
CONTINUOUS
 62
     7
100
AcDbCircle
 10
2469.323511271687
 20
1540.62069133732
 30
0.0
 40
3.000000000000003
100
AcDbArc
 50
180.0
 51
270.0000000000002
  0
LINE
  5
30E
330
1F
100
AcDbEntity
  8
LAY-10
  6
CONTINUOUS
 62
     7
100
AcDbLine
 10
2464.323511271679
 20
1568.620691337318
 30
0.0
 11
2472.323511271687
 21
1568.620691337318
 31
0.0
  0
LINE
  5
30F
330
1F
100
AcDbEntity
  8
LAY-10
  6
CONTINUOUS
 62
     7
100
AcDbLine
 10
2464.323511271679
 20
1418.620691337318
 30
0.0
 11
2472.323511271687
 21
1418.620691337318
 31
0.0
  0
LINE
  5
310
330
1F
100
AcDbEntity
  8
LAY-10
  6
CONTINUOUS
 62
     7
100
AcDbLine
 10
2464.323511271679
 20
1438.620691337318
 30
0.0
 11
2472.323511271687
 21
1438.620691337318
 31
0.0
  0
LINE
  5
311
330
1F
100
AcDbEntity
  8
LAY-10
  6
CONTINUOUS
 62
     7
100
AcDbLine
 10
2466.32351127168
 20
1418.620691337318
 30
0.0
 11
2466.32351127168
 21
1408.320691337318
 31
0.0
  0
LINE
  5
312
330
1F
100
AcDbEntity
  8
LAY-10
  6
CONTINUOUS
 62
     7
100
AcDbLine
 10
2466.32351127168
 20
1548.620691337317
 30
0.0
 11
2466.32351127168
 21
1438.620691337318
 31
0.0
  0
LINE
  5
313
330
1F
100
AcDbEntity
  8
LAY-10
  6
CONTINUOUS
 62
     7
100
AcDbLine
 10
2466.32351127168
 20
1578.620691337318
 30
0.0
 11
2466.32351127168
 21
1568.620691337318
 31
0.0
  0
LINE
  5
314
330
1F
100
AcDbEntity
  8
LAY-10
  6
CONTINUOUS
 62
     7
100
AcDbLine
 10
2464.323511271679
 20
1438.620691337318
 30
0.0
 11
2464.323511271679
 21
1418.620691337318
 31
0.0
  0
LINE
  5
315
330
1F
100
AcDbEntity
  8
LAY-10
  6
CONTINUOUS
 62
     7
100
AcDbLine
 10
2464.323511271679
 20
1568.620691337318
 30
0.0
 11
2464.323511271679
 21
1548.620691337317
 31
0.0
  0
LINE
  5
316
330
1F
100
AcDbEntity
  8
LAY-10
  6
CONTINUOUS
 62
     7
100
AcDbLine
 10
2464.323511271679
 20
1548.620691337317
 30
0.0
 11
2472.323511271687
 21
1548.620691337317
 31
0.0
  0
LINE
  5
317
330
1F
100
AcDbEntity
  8
LAY-10
  6
CONTINUOUS
 62
     7
100
AcDbLine
 10
2466.32351127168
 20
1408.320691337318
 30
0.0
 11
2472.323511271687
 21
1408.320691337318
 31
0.0
  0
LINE
  5
318
330
1F
100
AcDbEntity
  8
LAY-10
  6
CONTINUOUS
 62
     7
100
AcDbLine
 10
2466.32351127168
 20
1578.620691337318
 30
0.0
 11
2472.323511271687
 21
1578.620691337318
 31
0.0
  0
LINE
  5
319
330
1F
100
AcDbEntity
  8
LAY-10
  6
CONTINUOUS
 62
     7
100
AcDbLine
 10
2378.5235112715
 20
2028.9706913375
 30
0.0
 11
2428.523511271496
 21
2028.970691337499
 31
0.0
  0
LINE
  5
31A
330
1F
100
AcDbEntity
  8
LAY-10
  6
CONTINUOUS
 62
     7
100
AcDbLine
 10
2378.5235112715
 20
2034.970691337502
 30
0.0
 11
2428.523511271496
 21
2034.970691337502
 31
0.0
  0
LINE
  5
31B
330
1F
100
AcDbEntity
  8
LAY-10
  6
CONTINUOUS
 62
     7
100
AcDbLine
 10
2378.523511271501
 20
1499.970691337389
 30
0.0
 11
2428.523511271497
 21
1499.97069133739
 31
0.0
  0
LINE
  5
31C
330
1F
100
AcDbEntity
  8
LAY-10
  6
CONTINUOUS
 62
     7
100
AcDbLine
 10
2378.523511271501
 20
1493.970691337387
 30
0.0
 11
2428.523511271497
 21
1493.970691337387
 31
0.0
  0
LINE
  5
31D
330
1F
100
AcDbEntity
  8
LAY-10
  6
CONTINUOUS
 62
     7
100
AcDbLine
 10
2002.807684156198
 20
858.7520497554925
 30
0.0
 11
2017.807684156198
 21
858.7520497554925
 31
0.0
  0
LINE
  5
31E
330
1F
100
AcDbEntity
  8
LAY-10
  6
CONTINUOUS
 62
     7
100
AcDbLine
 10
2002.807684156198
 20
858.7520497554925
 30
0.0
 11
2002.807684156198
 21
843.7520497554925
 31
0.0
  0
LINE
  5
31F
330
1F
100
AcDbEntity
  8
LAY-10
  6
CONTINUOUS
 62
     7
100
AcDbLine
 10
2005.807684156195
 20
855.7520497554924
 30
0.0
 11
2017.807684156198
 21
855.7520497554924
 31
0.0
  0
LINE
  5
320
330
1F
100
AcDbEntity
  8
LAY-10
  6
CONTINUOUS
 62
     7
100
AcDbLine
 10
2002.807684156198
 20
843.7520497554925
 30
0.0
 11
2005.807684156195
 21
843.7520497554925
 31
0.0
  0
LINE
  5
321
330
1F
100
AcDbEntity
  8
LAY-10
  6
CONTINUOUS
 62
     7
100
AcDbLine
 10
2017.807684156198
 20
858.7520497554925
 30
0.0
 11
2017.807684156198
 21
855.7520497554924
 31
0.0
  0
LINE
  5
322
330
1F
100
AcDbEntity
  8
LAY-10
  6
CONTINUOUS
 62
     7
100
AcDbLine
 10
1962.807684156201
 20
706.9520497554913
 30
0.0
 11
1916.807684156196
 21
706.9520497554913
 31
0.0
  0
LINE
  5
323
330
1F
100
AcDbEntity
  8
LAY-10
  6
CONTINUOUS
 62
     7
100
AcDbLine
 10
1958.80768415613
 20
758.952049755444
 30
0.0
 11
1958.80768415613
 21
706.9520497554422
 31
0.0
  0
LINE
  5
324
330
1F
100
AcDbEntity
  8
LAY-10
  6
CONTINUOUS
 62
     7
100
AcDbLine
 10
1957.20768415613
 20
710.5520497554417
 30
0.0
 11
1957.20768415613
 21
757.3520497554418
 31
0.0
  0
LINE
  5
325
330
1F
100
AcDbEntity
  8
LAY-10
  6
CONTINUOUS
 62
     7
100
AcDbLine
 10
1883.50768415613
 20
759.9520497554422
 30
0.0
 11
1883.50768415613
 21
758.952049755444
 31
0.0
  0
CIRCLE
  5
326
330
1F
100
AcDbEntity
  8
LAY-10
  6
CONTINUOUS
 62
     7
100
AcDbCircle
 10
1826.807684156124
 20
761.9520497554422
 30
0.0
 40
3.000000000000003
  0
ARC
  5
327
330
1F
100
AcDbEntity
  8
LAY-10
  6
CONTINUOUS
 62
     7
100
AcDbCircle
 10
1870.508575157097
 20
761.9511587544748
 30
0.0
 40
2.999108999030569
100
AcDbArc
 50
270.0
 51
90.00000000000001
  0
ARC
  5
328
330
1F
100
AcDbEntity
  8
LAY-10
  6
CONTINUOUS
 62
     7
100
AcDbCircle
 10
1874.507684156129
 20
759.9520497554422
 30
0.0
 40
1.0
100
AcDbArc
 50
180.0
 51
270.0
  0
LINE
  5
329
330
1F
100
AcDbEntity
  8
LAY-10
  6
CONTINUOUS
 62
     7
100
AcDbLine
 10
1874.507684156129
 20
761.9520497554431
 30
0.0
 11
1874.507684156129
 21
759.9520497554422
 31
0.0
  0
LINE
  5
32A
330
1F
100
AcDbEntity
  8
LAY-10
  6
CONTINUOUS
 62
     7
100
AcDbLine
 10
1874.507684156129
 20
759.9520497554422
 30
0.0
 11
1883.50768415613
 21
759.9520497554422
 31
0.0
  0
LINE
  5
32B
330
1F
100
AcDbEntity
  8
LAY-10
  6
CONTINUOUS
 62
     7
100
AcDbLine
 10
1826.716816776208
 20
764.9506732928803
 30
0.0
 11
1870.508575157097
 21
764.9506732928803
 31
0.0
  0
ARC
  5
32C
330
1F
100
AcDbEntity
  8
LAY-10
  6
CONTINUOUS
 62
     7
100
AcDbCircle
 10
1870.507684156128
 20
761.9520497554431
 30
0.0
 40
4.0
100
AcDbArc
 50
0.0
 51
131.4394216791276
  0
LINE
  5
32D
330
1F
100
AcDbEntity
  8
LAY-10
  6
CONTINUOUS
 62
     7
100
AcDbLine
 10
1873.507684156126
 20
759.9520497554422
 30
0.0
 11
1873.507684156126
 21
761.9520497554431
 31
0.0
  0
LINE
  5
32E
330
1F
100
AcDbEntity
  8
LAY-10
  6
CONTINUOUS
 62
     7
100
AcDbLine
 10
1933.807684156131
 20
706.9520497554422
 30
0.0
 11
1933.807684156131
 21
708.9520497554431
 31
0.0
  0
LINE
  5
32F
330
1F
100
AcDbEntity
  8
LAY-10
  6
CONTINUOUS
 62
     7
100
AcDbLine
 10
1963.007684156203
 20
703.75204975549
 30
0.0
 11
1916.807684156196
 21
703.75204975549
 31
0.0
  0
LINE
  5
330
330
1F
100
AcDbEntity
  8
LAY-10
  6
CONTINUOUS
 62
     7
100
AcDbLine
 10
1916.807684156196
 20
706.9520497554868
 30
0.0
 11
1916.807684156196
 21
703.75204975549
 31
0.0
  0
ARC
  5
331
330
1F
100
AcDbEntity
  8
LAY-10
  6
CONTINUOUS
 62
     7
100
AcDbCircle
 10
1963.007684156203
 20
706.7520497554906
 30
0.0
 40
3.000000000000003
100
AcDbArc
 50
270.0
 51
0.0
  0
LINE
  5
332
330
1F
100
AcDbEntity
  8
LAY-10
  6
CONTINUOUS
 62
     7
100
AcDbLine
 10
1966.007684156203
 20
779.5520497554935
 30
0.0
 11
1966.007684156203
 21
706.7520497554906
 31
0.0
  0
LINE
  5
333
330
1F
100
AcDbEntity
  8
LAY-10
  6
CONTINUOUS
 62
     7
100
AcDbLine
 10
1962.807684156201
 20
779.7520497554933
 30
0.0
 11
1962.807684156201
 21
706.9520497554868
 31
0.0
  0
ARC
  5
334
330
1F
100
AcDbEntity
  8
LAY-10
  6
CONTINUOUS
 62
     7
100
AcDbCircle
 10
2002.807684156163
 20
788.7520497554915
 30
0.0
 40
3.000000000000003
100
AcDbArc
 50
270.0
 51
0.0
  0
ARC
  5
335
330
1F
100
AcDbEntity
  8
LAY-10
  6
CONTINUOUS
 62
     7
100
AcDbCircle
 10
2003.007684156163
 20
788.5520497554927
 30
0.0
 40
6.000000000000006
100
AcDbArc
 50
270.0
 51
0.0
  0
ARC
  5
336
330
1F
100
AcDbEntity
  8
LAY-10
  6
CONTINUOUS
 62
     7
100
AcDbCircle
 10
1969.007684156203
 20
779.5520497554935
 30
0.0
 40
3.000000000000003
100
AcDbArc
 50
90.00000000000001
 51
180.0
  0
ARC
  5
337
330
1F
100
AcDbEntity
  8
LAY-10
  6
CONTINUOUS
 62
     7
100
AcDbCircle
 10
1968.807684156202
 20
779.7520497554933
 30
0.0
 40
6.000000000000006
100
AcDbArc
 50
90.00000000000001
 51
180.0
  0
LINE
  5
338
330
1F
100
AcDbEntity
  8
LAY-10
  6
CONTINUOUS
 62
     7
100
AcDbLine
 10
1975.693975657208
 20
774.5520497553917
 30
0.0
 11
1975.693975657208
 21
782.5520497553925
 31
0.0
  0
LINE
  5
339
330
1F
100
AcDbEntity
  8
LAY-10
  6
CONTINUOUS
 62
     7
100
AcDbLine
 10
2005.69397565721
 20
774.5520497553917
 30
0.0
 11
1975.693975657208
 21
774.5520497553917
 31
0.0
  0
ARC
  5
33A
330
1F
100
AcDbEntity
  8
LAY-10
  6
CONTINUOUS
 62
     7
100
AcDbCircle
 10
2005.69397565721
 20
774.5520497553917
 30
0.0
 40
8.0
100
AcDbArc
 50
45.00000000000463
 51
90.00000000000001
  0
LINE
  5
33B
330
1F
100
AcDbEntity
  8
LAY-10
  6
CONTINUOUS
 62
     7
100
AcDbLine
 10
2046.70616896603
 20
744.853564945558
 30
0.0
 11
2011.350829906702
 21
780.208904004885
 31
0.0
  0
LINE
  5
33C
330
1F
100
AcDbEntity
  8
LAY-10
  6
CONTINUOUS
 62
     7
100
AcDbLine
 10
2041.049314716539
 20
739.1967106960673
 30
0.0
 11
2005.69397565721
 21
774.5520497553917
 31
0.0
  0
LINE
  5
33D
330
1F
100
AcDbEntity
  8
LAY-10
  6
CONTINUOUS
 62
     7
100
AcDbLine
 10
2046.70616896603
 20
744.853564945558
 30
0.0
 11
2041.049314716539
 21
739.1967106960647
 31
0.0
  0
LINE
  5
33E
330
1F
100
AcDbEntity
  8
LAY-10
  6
CONTINUOUS
 62
     7
100
AcDbLine
 10
1969.007684156203
 20
782.5520497554926
 30
0.0
 11
2005.69397565721
 21
782.5520497554926
 31
0.0
  0
LINE
  5
33F
330
1F
100
AcDbEntity
  8
LAY-10
  6
CONTINUOUS
 62
     7
100
AcDbLine
 10
2005.807684156194
 20
855.7520497554924
 30
0.0
 11
2005.807684156194
 21
788.7520497554915
 31
0.0
  0
LINE
  5
340
330
1F
100
AcDbEntity
  8
LAY-10
  6
CONTINUOUS
 62
     7
100
AcDbLine
 10
2009.007684156194
 20
788.5520497554927
 30
0.0
 11
2009.007684156194
 21
855.7520497554924
 31
0.0
  0
LINE
  5
341
330
1F
100
AcDbEntity
  8
LAY-10
  6
CONTINUOUS
 62
     7
100
AcDbLine
 10
2001.298130596182
 20
787.7520497554688
 30
0.0
 11
1999.492833937977
 21
785.752049755466
 31
0.0
  0
LINE
  5
342
330
1F
100
AcDbEntity
  8
LAY-10
  6
CONTINUOUS
 62
     7
100
AcDbLine
 10
2000.591023814994
 20
787.7520497554669
 30
0.0
 11
1998.785727156792
 21
785.752049755466
 31
0.0
  0
LINE
  5
343
330
1F
100
AcDbEntity
  8
LAY-10
  6
CONTINUOUS
 62
     7
100
AcDbLine
 10
1999.883917033808
 20
787.7520497554688
 30
0.0
 11
1998.078620375602
 21
785.752049755466
 31
0.0
  0
LINE
  5
344
330
1F
100
AcDbEntity
  8
LAY-10
  6
CONTINUOUS
 62
     7
100
AcDbLine
 10
1999.17681025262
 20
787.7520497554669
 30
0.0
 11
1997.371513594419
 21
785.752049755466
 31
0.0
  0
LINE
  5
345
330
1F
100
AcDbEntity
  8
LAY-10
  6
CONTINUOUS
 62
     7
100
AcDbLine
 10
1998.469703471436
 20
787.7520497554688
 30
0.0
 11
1996.66440681323
 21
785.752049755466
 31
0.0
  0
LINE
  5
346
330
1F
100
AcDbEntity
  8
LAY-10
  6
CONTINUOUS
 62
     7
100
AcDbLine
 10
1997.762596690249
 20
787.7520497554669
 30
0.0
 11
1995.960646581372
 21
785.7500996465897
 31
0.0
  0
LINE
  5
347
330
1F
100
AcDbEntity
  8
LAY-10
  6
CONTINUOUS
 62
     7
100
AcDbLine
 10
1997.055489909062
 20
787.7520497554688
 30
0.0
 11
1995.253943170744
 21
785.752049755466
 31
0.0
  0
LINE
  5
348
330
1F
100
AcDbEntity
  8
LAY-10
  6
CONTINUOUS
 62
     7
100
AcDbLine
 10
1996.348383127875
 20
787.7520497554669
 30
0.0
 11
1994.548383127877
 21
785.7520497554688
 31
0.0
  0
LINE
  5
349
330
1F
100
AcDbEntity
  8
LAY-10
  6
CONTINUOUS
 62
     7
100
AcDbLine
 10
1995.64127634669
 20
787.7520497554688
 30
0.0
 11
1993.84127634669
 21
785.7520497554651
 31
0.0
  0
LINE
  5
34A
330
1F
100
AcDbEntity
  8
LAY-10
  6
CONTINUOUS
 62
     7
100
AcDbLine
 10
1994.934169565503
 20
787.7520497554669
 30
0.0
 11
1993.134169565504
 21
785.7520497554688
 31
0.0
  0
LINE
  5
34B
330
1F
100
AcDbEntity
  8
LAY-10
  6
CONTINUOUS
 62
     7
100
AcDbLine
 10
1994.227062784317
 20
787.7520497554688
 30
0.0
 11
1992.427062784316
 21
785.7520497554651
 31
0.0
  0
LINE
  5
34C
330
1F
100
AcDbEntity
  8
LAY-10
  6
CONTINUOUS
 62
     7
100
AcDbLine
 10
1993.519956003128
 20
787.7520497554669
 30
0.0
 11
1991.71995600313
 21
785.7520497554688
 31
0.0
  0
LINE
  5
34D
330
1F
100
AcDbEntity
  8
LAY-10
  6
CONTINUOUS
 62
     7
100
AcDbLine
 10
1992.812849221944
 20
787.7520497554688
 30
0.0
 11
1991.012849221943
 21
785.7520497554651
 31
0.0
  0
LINE
  5
34E
330
1F
100
AcDbEntity
  8
LAY-10
  6
CONTINUOUS
 62
     7
100
AcDbLine
 10
1992.105742440756
 20
787.7520497554669
 30
0.0
 11
1990.305742440758
 21
785.7520497554688
 31
0.0
  0
LINE
  5
34F
330
1F
100
AcDbEntity
  8
LAY-10
  6
CONTINUOUS
 62
     7
100
AcDbLine
 10
1991.398635659571
 20
787.7520497554688
 30
0.0
 11
1989.598635659567
 21
785.7520497554651
 31
0.0
  0
LINE
  5
350
330
1F
100
AcDbEntity
  8
LAY-10
  6
CONTINUOUS
 62
     7
100
AcDbLine
 10
1990.691528878384
 20
787.7520497554669
 30
0.0
 11
1988.891528878385
 21
785.7520497554688
 31
0.0
  0
LINE
  5
351
330
1F
100
AcDbEntity
  8
LAY-10
  6
CONTINUOUS
 62
     7
100
AcDbLine
 10
1989.984422097199
 20
787.7520497554688
 30
0.0
 11
1988.184422097196
 21
785.7520497554651
 31
0.0
  0
LINE
  5
352
330
1F
100
AcDbEntity
  8
LAY-10
  6
CONTINUOUS
 62
     7
100
AcDbLine
 10
1989.277315316011
 20
787.7520497554669
 30
0.0
 11
1987.477315316012
 21
785.7520497554688
 31
0.0
  0
LINE
  5
353
330
1F
100
AcDbEntity
  8
LAY-10
  6
CONTINUOUS
 62
     7
100
AcDbLine
 10
1988.570208534824
 20
787.7520497554688
 30
0.0
 11
1986.770208534823
 21
785.7520497554651
 31
0.0
  0
LINE
  5
354
330
1F
100
AcDbEntity
  8
LAY-10
  6
CONTINUOUS
 62
     7
100
AcDbLine
 10
1987.863101753636
 20
787.7520497554669
 30
0.0
 11
1986.063101753639
 21
785.7520497554697
 31
0.0
  0
LINE
  5
355
330
1F
100
AcDbEntity
  8
LAY-10
  6
CONTINUOUS
 62
     7
100
AcDbLine
 10
1987.155994972452
 20
787.7520497554688
 30
0.0
 11
1985.355994972449
 21
785.7520497554651
 31
0.0
  0
LINE
  5
356
330
1F
100
AcDbEntity
  8
LAY-10
  6
CONTINUOUS
 62
     7
100
AcDbLine
 10
1986.448888191262
 20
787.7520497554669
 30
0.0
 11
1984.648888191267
 21
785.7520497554697
 31
0.0
  0
LINE
  5
357
330
1F
100
AcDbEntity
  8
LAY-10
  6
CONTINUOUS
 62
     7
100
AcDbLine
 10
1985.741781410079
 20
787.7520497554688
 30
0.0
 11
1983.941781410077
 21
785.7520497554651
 31
0.0
  0
LINE
  5
358
330
1F
100
AcDbEntity
  8
LAY-10
  6
CONTINUOUS
 62
     7
100
AcDbLine
 10
1985.03467462889
 20
787.7520497554669
 30
0.0
 11
1983.234674628894
 21
785.7520497554697
 31
0.0
  0
LINE
  5
359
330
1F
100
AcDbEntity
  8
LAY-10
  6
CONTINUOUS
 62
     7
100
AcDbLine
 10
1984.327567847707
 20
787.7520497554688
 30
0.0
 11
1982.527567847704
 21
785.7520497554651
 31
0.0
  0
LINE
  5
35A
330
1F
100
AcDbEntity
  8
LAY-10
  6
CONTINUOUS
 62
     7
100
AcDbLine
 10
1983.620461066517
 20
787.7520497554669
 30
0.0
 11
1981.820461066521
 21
785.7520497554697
 31
0.0
  0
LINE
  5
35B
330
1F
100
AcDbEntity
  8
LAY-10
  6
CONTINUOUS
 62
     7
100
AcDbLine
 10
1982.913354285334
 20
787.7520497554688
 30
0.0
 11
1981.11335428533
 21
785.7520497554669
 31
0.0
  0
LINE
  5
35C
330
1F
100
AcDbEntity
  8
LAY-10
  6
CONTINUOUS
 62
     7
100
AcDbLine
 10
1982.206247504144
 20
787.7520497554669
 30
0.0
 11
1980.406247504148
 21
785.7520497554697
 31
0.0
  0
LINE
  5
35D
330
1F
100
AcDbEntity
  8
LAY-10
  6
CONTINUOUS
 62
     7
100
AcDbLine
 10
1981.499140722962
 20
787.7520497554688
 30
0.0
 11
1979.699140722958
 21
785.7520497554669
 31
0.0
  0
LINE
  5
35E
330
1F
100
AcDbEntity
  8
LAY-10
  6
CONTINUOUS
 62
     7
100
AcDbLine
 10
1980.792033941771
 20
787.7520497554669
 30
0.0
 11
1978.992033941775
 21
785.7520497554697
 31
0.0
  0
LINE
  5
35F
330
1F
100
AcDbEntity
  8
LAY-10
  6
CONTINUOUS
 62
     7
100
AcDbLine
 10
1980.084927160589
 20
787.7520497554688
 30
0.0
 11
1978.284927160585
 21
785.7520497554669
 31
0.0
  0
LINE
  5
360
330
1F
100
AcDbEntity
  8
LAY-10
  6
CONTINUOUS
 62
     7
100
AcDbLine
 10
1979.377820379399
 20
787.7520497554669
 30
0.0
 11
1977.577820379402
 21
785.7520497554697
 31
0.0
  0
LINE
  5
361
330
1F
100
AcDbEntity
  8
LAY-10
  6
CONTINUOUS
 62
     7
100
AcDbLine
 10
1978.670713598215
 20
787.7520497554697
 30
0.0
 11
1976.870713598213
 21
785.7520497554669
 31
0.0
  0
LINE
  5
362
330
1F
100
AcDbEntity
  8
LAY-10
  6
CONTINUOUS
 62
     7
100
AcDbLine
 10
1977.963606817024
 20
787.7520497554669
 30
0.0
 11
1976.16360681703
 21
785.7520497554697
 31
0.0
  0
LINE
  5
363
330
1F
100
AcDbEntity
  8
LAY-10
  6
CONTINUOUS
 62
     7
100
AcDbLine
 10
1977.256500035843
 20
787.7520497554697
 30
0.0
 11
1975.456500035839
 21
785.7520497554669
 31
0.0
  0
LINE
  5
364
330
1F
100
AcDbEntity
  8
LAY-10
  6
CONTINUOUS
 62
     7
100
AcDbLine
 10
1976.549393254652
 20
787.7520497554669
 30
0.0
 11
1974.749393254655
 21
785.7520497554697
 31
0.0
  0
LINE
  5
365
330
1F
100
AcDbEntity
  8
LAY-10
  6
CONTINUOUS
 62
     7
100
AcDbLine
 10
1975.842286473469
 20
787.7520497554697
 30
0.0
 11
1974.042286473467
 21
785.7520497554669
 31
0.0
  0
LINE
  5
366
330
1F
100
AcDbEntity
  8
LAY-10
  6
CONTINUOUS
 62
     7
100
AcDbLine
 10
1975.135179692279
 20
787.7520497554669
 30
0.0
 11
1973.335179692283
 21
785.7520497554697
 31
0.0
  0
LINE
  5
367
330
1F
100
AcDbEntity
  8
LAY-10
  6
CONTINUOUS
 62
     7
100
AcDbLine
 10
1974.428072911096
 20
787.7520497554697
 30
0.0
 11
1972.628072911094
 21
785.7520497554669
 31
0.0
  0
LINE
  5
368
330
1F
100
AcDbEntity
  8
LAY-10
  6
CONTINUOUS
 62
     7
100
AcDbLine
 10
1973.720966129907
 20
787.7520497554679
 30
0.0
 11
1971.92096612991
 21
785.7520497554697
 31
0.0
  0
LINE
  5
369
330
1F
100
AcDbEntity
  8
LAY-10
  6
CONTINUOUS
 62
     7
100
AcDbLine
 10
1973.013859348724
 20
787.7520497554697
 30
0.0
 11
1971.807684155941
 21
786.3458745626878
 31
0.0
  0
LINE
  5
36A
330
1F
100
AcDbEntity
  8
LAY-10
  6
CONTINUOUS
 62
     7
100
AcDbLine
 10
1972.306752567534
 20
787.7520497554679
 30
0.0
 11
1971.807684155939
 21
787.2529813438706
 31
0.0
  0
LINE
  5
36B
330
1F
100
AcDbEntity
  8
LAY-10
  6
CONTINUOUS
 62
     7
100
AcDbLine
 10
2001.807684156021
 20
787.5331901897034
 30
0.0
 11
2000.199940719164
 21
785.752049755466
 31
0.0
  0
LINE
  5
36C
330
1F
100
AcDbEntity
  8
LAY-10
  6
CONTINUOUS
 62
     7
100
AcDbLine
 10
2001.807684156021
 20
786.7498211207212
 30
0.0
 11
2000.907047500349
 21
785.752049755466
 31
0.0
  0
LINE
  5
36D
330
1F
100
AcDbEntity
  8
LAY-10
  6
CONTINUOUS
 62
     7
100
AcDbLine
 10
2001.807684156021
 20
785.9664520517373
 30
0.0
 11
2001.614154281537
 21
785.752049755466
 31
0.0
  0
LINE
  5
36E
330
1F
100
AcDbEntity
  8
LAY-10
  6
CONTINUOUS
 62
     7
100
AcDbLine
 10
1971.807684156089
 20
787.7520497554651
 30
0.0
 11
1971.807684156089
 21
785.7520497554651
 31
0.0
  0
LINE
  5
36F
330
1F
100
AcDbEntity
  8
LAY-10
  6
CONTINUOUS
 62
     7
100
AcDbLine
 10
1995.8076841561
 20
802.2520497554697
 30
0.0
 11
1995.8076841561
 21
848.7520497554698
 31
0.0
  0
LINE
  5
370
330
1F
100
AcDbEntity
  8
LAY-10
  6
CONTINUOUS
 62
     7
100
AcDbLine
 10
1936.8076841561
 20
787.7520497554697
 30
0.0
 11
1936.8076841561
 21
789.7520497554697
 31
0.0
  0
ARC
  5
371
330
1F
100
AcDbEntity
  8
LAY-10
  6
CONTINUOUS
 62
     7
100
AcDbCircle
 10
1940.8076841561
 20
789.7520497554697
 30
0.0
 40
4.0
100
AcDbArc
 50
90.00000000000001
 51
180.0
  0
ARC
  5
372
330
1F
100
AcDbEntity
  8
LAY-10
  6
CONTINUOUS
 62
     7
100
AcDbCircle
 10
1999.8076841561
 20
848.7520497554698
 30
0.0
 40
4.0
100
AcDbArc
 50
90.00000000000001
 51
180.0
  0
ARC
  5
373
330
1F
100
AcDbEntity
  8
LAY-10
  6
CONTINUOUS
 62
     7
100
AcDbCircle
 10
1987.3076841561
 20
802.2520497554697
 30
0.0
 40
8.5
100
AcDbArc
 50
270.0
 51
0.0
  0
LINE
  5
374
330
1F
100
AcDbEntity
  8
LAY-10
  6
CONTINUOUS
 62
     7
100
AcDbLine
 10
2001.8076841561
 20
785.7520497554897
 30
0.0
 11
2001.8076841561
 21
858.7520497554688
 31
0.0
  0
LINE
  5
375
330
1F
100
AcDbEntity
  8
LAY-10
  6
CONTINUOUS
 62
     7
100
AcDbLine
 10
330.8076841561377
 20
858.7520497554925
 30
0.0
 11
315.8076841561379
 21
858.7520497554925
 31
0.0
  0
LINE
  5
376
330
1F
100
AcDbEntity
  8
LAY-10
  6
CONTINUOUS
 62
     7
100
AcDbLine
 10
330.8076841561377
 20
858.7520497554925
 30
0.0
 11
330.8076841561377
 21
843.7520497554925
 31
0.0
  0
LINE
  5
377
330
1F
100
AcDbEntity
  8
LAY-10
  6
CONTINUOUS
 62
     7
100
AcDbLine
 10
327.8076841561405
 20
855.7520497554924
 30
0.0
 11
315.8076841561379
 21
855.7520497554924
 31
0.0
  0
LINE
  5
378
330
1F
100
AcDbEntity
  8
LAY-10
  6
CONTINUOUS
 62
     7
100
AcDbLine
 10
330.8076841561377
 20
843.7520497554925
 30
0.0
 11
327.8076841561405
 21
843.7520497554925
 31
0.0
  0
LINE
  5
379
330
1F
100
AcDbEntity
  8
LAY-10
  6
CONTINUOUS
 62
     7
100
AcDbLine
 10
315.8076841561379
 20
858.7520497554925
 30
0.0
 11
315.8076841561379
 21
855.7520497554924
 31
0.0
  0
LINE
  5
37A
330
1F
100
AcDbEntity
  8
LAY-10
  6
CONTINUOUS
 62
     7
100
AcDbLine
 10
370.8076841561352
 20
706.9520497554913
 30
0.0
 11
416.8076841561391
 21
706.9520497554913
 31
0.0
  0
LINE
  5
37B
330
1F
100
AcDbEntity
  8
LAY-10
  6
CONTINUOUS
 62
     7
100
AcDbLine
 10
374.807684156206
 20
758.952049755444
 30
0.0
 11
374.807684156206
 21
706.9520497554422
 31
0.0
  0
LINE
  5
37C
330
1F
100
AcDbEntity
  8
LAY-10
  6
CONTINUOUS
 62
     7
100
AcDbLine
 10
376.4076841562054
 20
710.5520497554417
 30
0.0
 11
376.4076841562054
 21
757.3520497554418
 31
0.0
  0
LINE
  5
37D
330
1F
100
AcDbEntity
  8
LAY-10
  6
CONTINUOUS
 62
     7
100
AcDbLine
 10
450.1076841562057
 20
759.9520497554422
 30
0.0
 11
450.1076841562057
 21
758.952049755444
 31
0.0
  0
CIRCLE
  5
37E
330
1F
100
AcDbEntity
  8
LAY-10
  6
CONTINUOUS
 62
     7
100
AcDbCircle
 10
506.8076841562109
 20
761.9520497554422
 30
0.0
 40
3.000000000000003
  0
ARC
  5
37F
330
1F
100
AcDbEntity
  8
LAY-10
  6
CONTINUOUS
 62
     7
100
AcDbCircle
 10
463.1067931552381
 20
761.9511587544748
 30
0.0
 40
2.999108999030569
100
AcDbArc
 50
90.00000000000001
 51
270.0000000000002
  0
ARC
  5
380
330
1F
100
AcDbEntity
  8
LAY-10
  6
CONTINUOUS
 62
     7
100
AcDbCircle
 10
459.1076841562063
 20
759.9520497554422
 30
0.0
 40
1.0
100
AcDbArc
 50
270.0000000000002
 51
0.0
  0
LINE
  5
381
330
1F
100
AcDbEntity
  8
LAY-10
  6
CONTINUOUS
 62
     7
100
AcDbLine
 10
459.1076841562063
 20
761.9520497554431
 30
0.0
 11
459.1076841562063
 21
759.9520497554422
 31
0.0
  0
LINE
  5
382
330
1F
100
AcDbEntity
  8
LAY-10
  6
CONTINUOUS
 62
     7
100
AcDbLine
 10
459.1076841562063
 20
759.9520497554422
 30
0.0
 11
450.1076841562057
 21
759.9520497554422
 31
0.0
  0
LINE
  5
383
330
1F
100
AcDbEntity
  8
LAY-10
  6
CONTINUOUS
 62
     7
100
AcDbLine
 10
506.8985515361277
 20
764.9506732928803
 30
0.0
 11
463.1067931552381
 21
764.9506732928803
 31
0.0
  0
ARC
  5
384
330
1F
100
AcDbEntity
  8
LAY-10
  6
CONTINUOUS
 62
     7
100
AcDbCircle
 10
463.1076841562075
 20
761.9520497554431
 30
0.0
 40
4.0
100
AcDbArc
 50
48.56057832087367
 51
180.0
  0
LINE
  5
385
330
1F
100
AcDbEntity
  8
LAY-10
  6
CONTINUOUS
 62
     7
100
AcDbLine
 10
460.1076841562091
 20
759.9520497554422
 30
0.0
 11
460.1076841562091
 21
761.9520497554431
 31
0.0
  0
LINE
  5
386
330
1F
100
AcDbEntity
  8
LAY-10
  6
CONTINUOUS
 62
     7
100
AcDbLine
 10
399.8076841562043
 20
706.9520497554422
 30
0.0
 11
399.8076841562043
 21
708.9520497554431
 31
0.0
  0
LINE
  5
387
330
1F
100
AcDbEntity
  8
LAY-10
  6
CONTINUOUS
 62
     7
100
AcDbLine
 10
370.6076841561327
 20
703.75204975549
 30
0.0
 11
416.8076841561391
 21
703.75204975549
 31
0.0
  0
LINE
  5
388
330
1F
100
AcDbEntity
  8
LAY-10
  6
CONTINUOUS
 62
     7
100
AcDbLine
 10
416.8076841561391
 20
706.9520497554868
 30
0.0
 11
416.8076841561391
 21
703.75204975549
 31
0.0
  0
ARC
  5
389
330
1F
100
AcDbEntity
  8
LAY-10
  6
CONTINUOUS
 62
     7
100
AcDbCircle
 10
370.6076841561327
 20
706.7520497554906
 30
0.0
 40
3.000000000000003
100
AcDbArc
 50
180.0
 51
270.0000000000002
  0
LINE
  5
38A
330
1F
100
AcDbEntity
  8
LAY-10
  6
CONTINUOUS
 62
     7
100
AcDbLine
 10
367.6076841561315
 20
779.5520497554935
 30
0.0
 11
367.6076841561315
 21
706.7520497554906
 31
0.0
  0
LINE
  5
38B
330
1F
100
AcDbEntity
  8
LAY-10
  6
CONTINUOUS
 62
     7
100
AcDbLine
 10
370.8076841561352
 20
779.7520497554933
 30
0.0
 11
370.8076841561352
 21
706.9520497554868
 31
0.0
  0
ARC
  5
38C
330
1F
100
AcDbEntity
  8
LAY-10
  6
CONTINUOUS
 62
     7
100
AcDbCircle
 10
330.8076841561716
 20
788.7520497554915
 30
0.0
 40
3.000000000000003
100
AcDbArc
 50
180.0
 51
270.0000000000002
  0
ARC
  5
38D
330
1F
100
AcDbEntity
  8
LAY-10
  6
CONTINUOUS
 62
     7
100
AcDbCircle
 10
330.6076841561726
 20
788.5520497554927
 30
0.0
 40
6.000000000000006
100
AcDbArc
 50
180.0
 51
270.0000000000002
  0
ARC
  5
38E
330
1F
100
AcDbEntity
  8
LAY-10
  6
CONTINUOUS
 62
     7
100
AcDbCircle
 10
364.6076841561327
 20
779.5520497554935
 30
0.0
 40
3.000000000000003
100
AcDbArc
 50
0.0
 51
90.00000000000001
  0
ARC
  5
38F
330
1F
100
AcDbEntity
  8
LAY-10
  6
CONTINUOUS
 62
     7
100
AcDbCircle
 10
364.8076841561332
 20
779.7520497554933
 30
0.0
 40
6.000000000000006
100
AcDbArc
 50
0.0
 51
90.00000000000001
  0
LINE
  5
390
330
1F
100
AcDbEntity
  8
LAY-10
  6
CONTINUOUS
 62
     7
100
AcDbLine
 10
357.9213926551266
 20
774.5520497553917
 30
0.0
 11
357.9213926551266
 21
782.5520497553925
 31
0.0
  0
LINE
  5
391
330
1F
100
AcDbEntity
  8
LAY-10
  6
CONTINUOUS
 62
     7
100
AcDbLine
 10
327.9213926551248
 20
774.5520497553917
 30
0.0
 11
357.9213926551266
 21
774.5520497553917
 31
0.0
  0
ARC
  5
392
330
1F
100
AcDbEntity
  8
LAY-10
  6
CONTINUOUS
 62
     7
100
AcDbCircle
 10
327.9213926551248
 20
774.5520497553917
 30
0.0
 40
8.0
100
AcDbArc
 50
90.00000000000001
 51
134.9999999999946
  0
LINE
  5
393
330
1F
100
AcDbEntity
  8
LAY-10
  6
CONTINUOUS
 62
     7
100
AcDbLine
 10
286.9091993463056
 20
744.853564945558
 30
0.0
 11
322.2645384056331
 21
780.208904004885
 31
0.0
  0
LINE
  5
394
330
1F
100
AcDbEntity
  8
LAY-10
  6
CONTINUOUS
 62
     7
100
AcDbLine
 10
292.566053595796
 20
739.1967106960673
 30
0.0
 11
327.9213926551248
 21
774.5520497553917
 31
0.0
  0
LINE
  5
395
330
1F
100
AcDbEntity
  8
LAY-10
  6
CONTINUOUS
 62
     7
100
AcDbLine
 10
286.9091993463056
 20
744.853564945558
 30
0.0
 11
292.566053595796
 21
739.1967106960647
 31
0.0
  0
LINE
  5
396
330
1F
100
AcDbEntity
  8
LAY-10
  6
CONTINUOUS
 62
     7
100
AcDbLine
 10
364.6076841561327
 20
782.5520497554926
 30
0.0
 11
327.9213926551248
 21
782.5520497554926
 31
0.0
  0
LINE
  5
397
330
1F
100
AcDbEntity
  8
LAY-10
  6
CONTINUOUS
 62
     7
100
AcDbLine
 10
327.8076841561405
 20
855.7520497554924
 30
0.0
 11
327.8076841561405
 21
788.7520497554915
 31
0.0
  0
LINE
  5
398
330
1F
100
AcDbEntity
  8
LAY-10
  6
CONTINUOUS
 62
     7
100
AcDbLine
 10
324.6076841561418
 20
788.5520497554927
 30
0.0
 11
324.6076841561418
 21
855.7520497554924
 31
0.0
  0
LINE
  5
399
330
1F
100
AcDbEntity
  8
LAY-10
  6
CONTINUOUS
 62
     7
100
AcDbLine
 10
361.2981305963215
 20
787.7520497554889
 30
0.0
 11
359.4928339381165
 21
785.7520497554862
 31
0.0
  0
LINE
  5
39A
330
1F
100
AcDbEntity
  8
LAY-10
  6
CONTINUOUS
 62
     7
100
AcDbLine
 10
360.5910238151334
 20
787.752049755487
 30
0.0
 11
358.7857271569315
 21
785.7520497554862
 31
0.0
  0
LINE
  5
39B
330
1F
100
AcDbEntity
  8
LAY-10
  6
CONTINUOUS
 62
     7
100
AcDbLine
 10
359.8839170339481
 20
787.7520497554889
 30
0.0
 11
358.0786203757422
 21
785.7520497554862
 31
0.0
  0
LINE
  5
39C
330
1F
100
AcDbEntity
  8
LAY-10
  6
CONTINUOUS
 62
     7
100
AcDbLine
 10
359.1768102527599
 20
787.752049755487
 30
0.0
 11
357.3715135945583
 21
785.7520497554862
 31
0.0
  0
LINE
  5
39D
330
1F
100
AcDbEntity
  8
LAY-10
  6
CONTINUOUS
 62
     7
100
AcDbLine
 10
358.4697034715761
 20
787.7520497554889
 30
0.0
 11
356.6644068133702
 21
785.7520497554862
 31
0.0
  0
LINE
  5
39E
330
1F
100
AcDbEntity
  8
LAY-10
  6
CONTINUOUS
 62
     7
100
AcDbLine
 10
357.7625966903882
 20
787.752049755487
 30
0.0
 11
355.960646581512
 21
785.7500996466098
 31
0.0
  0
LINE
  5
39F
330
1F
100
AcDbEntity
  8
LAY-10
  6
CONTINUOUS
 62
     7
100
AcDbLine
 10
357.0554899092015
 20
787.7520497554889
 30
0.0
 11
355.2539431708835
 21
785.7520497554862
 31
0.0
  0
LINE
  5
3A0
330
1F
100
AcDbEntity
  8
LAY-10
  6
CONTINUOUS
 62
     7
100
AcDbLine
 10
356.3483831280147
 20
787.752049755487
 30
0.0
 11
354.5483831280164
 21
785.7520497554888
 31
0.0
  0
LINE
  5
3A1
330
1F
100
AcDbEntity
  8
LAY-10
  6
CONTINUOUS
 62
     7
100
AcDbLine
 10
355.6412763468303
 20
787.7520497554889
 30
0.0
 11
353.8412763468294
 21
785.7520497554851
 31
0.0
  0
LINE
  5
3A2
330
1F
100
AcDbEntity
  8
LAY-10
  6
CONTINUOUS
 62
     7
100
AcDbLine
 10
354.9341695656427
 20
787.752049755487
 30
0.0
 11
353.1341695656444
 21
785.7520497554888
 31
0.0
  0
LINE
  5
3A3
330
1F
100
AcDbEntity
  8
LAY-10
  6
CONTINUOUS
 62
     7
100
AcDbLine
 10
354.2270627844571
 20
787.7520497554889
 30
0.0
 11
352.4270627844559
 21
785.7520497554851
 31
0.0
  0
LINE
  5
3A4
330
1F
100
AcDbEntity
  8
LAY-10
  6
CONTINUOUS
 62
     7
100
AcDbLine
 10
353.5199560032681
 20
787.752049755487
 30
0.0
 11
351.7199560032698
 21
785.7520497554888
 31
0.0
  0
LINE
  5
3A5
330
1F
100
AcDbEntity
  8
LAY-10
  6
CONTINUOUS
 62
     7
100
AcDbLine
 10
352.8128492220837
 20
787.7520497554889
 30
0.0
 11
351.012849222083
 21
785.7520497554851
 31
0.0
  0
LINE
  5
3A6
330
1F
100
AcDbEntity
  8
LAY-10
  6
CONTINUOUS
 62
     7
100
AcDbLine
 10
352.1057424408961
 20
787.752049755487
 30
0.0
 11
350.3057424408977
 21
785.7520497554888
 31
0.0
  0
LINE
  5
3A7
330
1F
100
AcDbEntity
  8
LAY-10
  6
CONTINUOUS
 62
     7
100
AcDbLine
 10
351.3986356597108
 20
787.7520497554889
 30
0.0
 11
349.598635659707
 21
785.7520497554851
 31
0.0
  0
LINE
  5
3A8
330
1F
100
AcDbEntity
  8
LAY-10
  6
CONTINUOUS
 62
     7
100
AcDbLine
 10
350.6915288785237
 20
787.752049755487
 30
0.0
 11
348.8915288785243
 21
785.7520497554888
 31
0.0
  0
LINE
  5
3A9
330
1F
100
AcDbEntity
  8
LAY-10
  6
CONTINUOUS
 62
     7
100
AcDbLine
 10
349.9844220973388
 20
787.7520497554889
 30
0.0
 11
348.1844220973359
 21
785.7520497554851
 31
0.0
  0
LINE
  5
3AA
330
1F
100
AcDbEntity
  8
LAY-10
  6
CONTINUOUS
 62
     7
100
AcDbLine
 10
349.2773153161504
 20
787.752049755487
 30
0.0
 11
347.477315316152
 21
785.7520497554888
 31
0.0
  0
LINE
  5
3AB
330
1F
100
AcDbEntity
  8
LAY-10
  6
CONTINUOUS
 62
     7
100
AcDbLine
 10
348.5702085349642
 20
787.7520497554889
 30
0.0
 11
346.7702085349626
 21
785.7520497554851
 31
0.0
  0
LINE
  5
3AC
330
1F
100
AcDbEntity
  8
LAY-10
  6
CONTINUOUS
 62
     7
100
AcDbLine
 10
347.863101753776
 20
787.752049755487
 30
0.0
 11
346.0631017537791
 21
785.7520497554897
 31
0.0
  0
LINE
  5
3AD
330
1F
100
AcDbEntity
  8
LAY-10
  6
CONTINUOUS
 62
     7
100
AcDbLine
 10
347.1559949725922
 20
787.7520497554889
 30
0.0
 11
345.3559949725893
 21
785.7520497554851
 31
0.0
  0
LINE
  5
3AE
330
1F
100
AcDbEntity
  8
LAY-10
  6
CONTINUOUS
 62
     7
100
AcDbLine
 10
346.4488881914015
 20
787.752049755487
 30
0.0
 11
344.6488881914071
 21
785.7520497554897
 31
0.0
  0
LINE
  5
3AF
330
1F
100
AcDbEntity
  8
LAY-10
  6
CONTINUOUS
 62
     7
100
AcDbLine
 10
345.7417814102187
 20
787.7520497554889
 30
0.0
 11
343.9417814102164
 21
785.7520497554851
 31
0.0
  0
LINE
  5
3B0
330
1F
100
AcDbEntity
  8
LAY-10
  6
CONTINUOUS
 62
     7
100
AcDbLine
 10
345.0346746290303
 20
787.752049755487
 30
0.0
 11
343.2346746290338
 21
785.7520497554897
 31
0.0
  0
LINE
  5
3B1
330
1F
100
AcDbEntity
  8
LAY-10
  6
CONTINUOUS
 62
     7
100
AcDbLine
 10
344.3275678478464
 20
787.7520497554889
 30
0.0
 11
342.5275678478444
 21
785.7520497554851
 31
0.0
  0
LINE
  5
3B2
330
1F
100
AcDbEntity
  8
LAY-10
  6
CONTINUOUS
 62
     7
100
AcDbLine
 10
343.620461066657
 20
787.752049755487
 30
0.0
 11
341.8204610666605
 21
785.7520497554897
 31
0.0
  0
LINE
  5
3B3
330
1F
100
AcDbEntity
  8
LAY-10
  6
CONTINUOUS
 62
     7
100
AcDbLine
 10
342.9133542854735
 20
787.7520497554889
 30
0.0
 11
341.1133542854698
 21
785.752049755487
 31
0.0
  0
LINE
  5
3B4
330
1F
100
AcDbEntity
  8
LAY-10
  6
CONTINUOUS
 62
     7
100
AcDbLine
 10
342.2062475042837
 20
787.752049755487
 30
0.0
 11
340.406247504288
 21
785.7520497554897
 31
0.0
  0
LINE
  5
3B5
330
1F
100
AcDbEntity
  8
LAY-10
  6
CONTINUOUS
 62
     7
100
AcDbLine
 10
341.4991407231015
 20
787.7520497554889
 30
0.0
 11
339.6991407230978
 21
785.752049755487
 31
0.0
  0
LINE
  5
3B6
330
1F
100
AcDbEntity
  8
LAY-10
  6
CONTINUOUS
 62
     7
100
AcDbLine
 10
340.7920339419108
 20
787.752049755487
 30
0.0
 11
338.9920339419148
 21
785.7520497554897
 31
0.0
  0
LINE
  5
3B7
330
1F
100
AcDbEntity
  8
LAY-10
  6
CONTINUOUS
 62
     7
100
AcDbLine
 10
340.0849271607282
 20
787.7520497554889
 30
0.0
 11
338.2849271607244
 21
785.752049755487
 31
0.0
  0
LINE
  5
3B8
330
1F
100
AcDbEntity
  8
LAY-10
  6
CONTINUOUS
 62
     7
100
AcDbLine
 10
339.3778203795388
 20
787.752049755487
 30
0.0
 11
337.5778203795419
 21
785.7520497554897
 31
0.0
  0
LINE
  5
3B9
330
1F
100
AcDbEntity
  8
LAY-10
  6
CONTINUOUS
 62
     7
100
AcDbLine
 10
338.670713598355
 20
787.7520497554897
 30
0.0
 11
336.8707135983524
 21
785.752049755487
 31
0.0
  0
LINE
  5
3BA
330
1F
100
AcDbEntity
  8
LAY-10
  6
CONTINUOUS
 62
     7
100
AcDbLine
 10
337.9636068171642
 20
787.752049755487
 30
0.0
 11
336.1636068171698
 21
785.7520497554897
 31
0.0
  0
LINE
  5
3BB
330
1F
100
AcDbEntity
  8
LAY-10
  6
CONTINUOUS
 62
     7
100
AcDbLine
 10
337.2565000359825
 20
787.7520497554897
 30
0.0
 11
335.4565000359792
 21
785.752049755487
 31
0.0
  0
LINE
  5
3BC
330
1F
100
AcDbEntity
  8
LAY-10
  6
CONTINUOUS
 62
     7
100
AcDbLine
 10
336.5493932547922
 20
787.752049755487
 30
0.0
 11
334.7493932547952
 21
785.7520497554897
 31
0.0
  0
LINE
  5
3BD
330
1F
100
AcDbEntity
  8
LAY-10
  6
CONTINUOUS
 62
     7
100
AcDbLine
 10
335.8422864736092
 20
787.7520497554897
 30
0.0
 11
334.0422864736071
 21
785.752049755487
 31
0.0
  0
LINE
  5
3BE
330
1F
100
AcDbEntity
  8
LAY-10
  6
CONTINUOUS
 62
     7
100
AcDbLine
 10
335.1351796924188
 20
787.752049755487
 30
0.0
 11
333.3351796924233
 21
785.7520497554897
 31
0.0
  0
LINE
  5
3BF
330
1F
100
AcDbEntity
  8
LAY-10
  6
CONTINUOUS
 62
     7
100
AcDbLine
 10
334.4280729112363
 20
787.7520497554897
 30
0.0
 11
332.6280729112338
 21
785.752049755487
 31
0.0
  0
LINE
  5
3C0
330
1F
100
AcDbEntity
  8
LAY-10
  6
CONTINUOUS
 62
     7
100
AcDbLine
 10
333.7209661300469
 20
787.7520497554879
 30
0.0
 11
331.9209661300498
 21
785.7520497554897
 31
0.0
  0
LINE
  5
3C1
330
1F
100
AcDbEntity
  8
LAY-10
  6
CONTINUOUS
 62
     7
100
AcDbLine
 10
333.0138593488642
 20
787.7520497554897
 30
0.0
 11
331.8076841560811
 21
786.3458745627076
 31
0.0
  0
LINE
  5
3C2
330
1F
100
AcDbEntity
  8
LAY-10
  6
CONTINUOUS
 62
     7
100
AcDbLine
 10
332.3067525676736
 20
787.7520497554879
 30
0.0
 11
331.8076841560784
 21
787.2529813438905
 31
0.0
  0
LINE
  5
3C3
330
1F
100
AcDbEntity
  8
LAY-10
  6
CONTINUOUS
 62
     7
100
AcDbLine
 10
361.8076841561613
 20
787.5331901897234
 30
0.0
 11
360.1999407193032
 21
785.7520497554862
 31
0.0
  0
LINE
  5
3C4
330
1F
100
AcDbEntity
  8
LAY-10
  6
CONTINUOUS
 62
     7
100
AcDbLine
 10
361.8076841561613
 20
786.7498211207413
 30
0.0
 11
360.9070475004888
 21
785.7520497554862
 31
0.0
  0
LINE
  5
3C5
330
1F
100
AcDbEntity
  8
LAY-10
  6
CONTINUOUS
 62
     7
100
AcDbLine
 10
361.8076841561613
 20
785.9664520517572
 30
0.0
 11
361.614154281677
 21
785.7520497554862
 31
0.0
  0
LINE
  5
3C6
330
1F
100
AcDbEntity
  8
LAY-10
  6
CONTINUOUS
 62
     7
100
AcDbLine
 10
361.8076841562448
 20
787.7520497554651
 30
0.0
 11
361.8076841562448
 21
785.7520497554651
 31
0.0
  0
LINE
  5
3C7
330
1F
100
AcDbEntity
  8
LAY-10
  6
CONTINUOUS
 62
     7
100
AcDbLine
 10
337.8076841562405
 20
802.2520497554697
 30
0.0
 11
337.8076841562405
 21
848.7520497554698
 31
0.0
  0
LINE
  5
3C8
330
1F
100
AcDbEntity
  8
LAY-10
  6
CONTINUOUS
 62
     7
100
AcDbLine
 10
396.8076841562407
 20
787.7520497554697
 30
0.0
 11
396.8076841562407
 21
789.7520497554697
 31
0.0
  0
ARC
  5
3C9
330
1F
100
AcDbEntity
  8
LAY-10
  6
CONTINUOUS
 62
     7
100
AcDbCircle
 10
392.8076841562405
 20
789.7520497554697
 30
0.0
 40
4.0
100
AcDbArc
 50
0.0
 51
90.00000000000001
  0
ARC
  5
3CA
330
1F
100
AcDbEntity
  8
LAY-10
  6
CONTINUOUS
 62
     7
100
AcDbCircle
 10
333.8076841562405
 20
848.7520497554698
 30
0.0
 40
4.0
100
AcDbArc
 50
0.0
 51
90.00000000000001
  0
ARC
  5
3CB
330
1F
100
AcDbEntity
  8
LAY-10
  6
CONTINUOUS
 62
     7
100
AcDbCircle
 10
346.3076841562404
 20
802.2520497554697
 30
0.0
 40
8.5
100
AcDbArc
 50
180.0
 51
270.0
  0
LINE
  5
3CC
330
1F
100
AcDbEntity
  8
LAY-10
  6
CONTINUOUS
 62
     7
100
AcDbLine
 10
331.8076841562408
 20
785.7520497554897
 30
0.0
 11
331.8076841562408
 21
858.7520497554688
 31
0.0
  0
LINE
  5
3CD
330
1F
100
AcDbEntity
  8
LAY-10
  6
CONTINUOUS
 62
     7
100
AcDbLine
 10
1958.807684156201
 20
758.9520497554404
 30
0.0
 11
374.807684156206
 21
758.952049755444
 31
0.0
  0
LINE
  5
3CE
330
1F
100
AcDbEntity
  8
LAY-10
  6
CONTINUOUS
 62
     7
100
AcDbLine
 10
374.807684156206
 20
708.9520497554431
 30
0.0
 11
1958.807684156201
 21
708.9520497554431
 31
0.0
  0
LINE
  5
3CF
330
1F
100
AcDbEntity
  8
LAY-10
  6
CONTINUOUS
 62
     7
100
AcDbLine
 10
1957.207684156199
 20
757.3520497554409
 30
0.0
 11
376.4076841562054
 21
757.3520497554418
 31
0.0
  0
LINE
  5
3D0
330
1F
100
AcDbEntity
  8
LAY-10
  6
CONTINUOUS
 62
     7
100
AcDbLine
 10
376.4076841562054
 20
710.5520497554417
 30
0.0
 11
1957.207684156199
 21
710.5520497554417
 31
0.0
  0
LINE
  5
3D1
330
1F
100
AcDbEntity
  8
LAY-10
  6
CONTINUOUS
 62
     7
100
AcDbLine
 10
636.8076841562398
 20
852.7520497554707
 30
0.0
 11
636.8076841562394
 21
802.7520497554724
 31
0.0
  0
LINE
  5
3D2
330
1F
100
AcDbEntity
  8
LAY-10
  6
CONTINUOUS
 62
     7
100
AcDbLine
 10
642.8076841562419
 20
852.7520497554707
 30
0.0
 11
642.8076841562419
 21
802.7520497554724
 31
0.0
  0
LINE
  5
3D3
330
1F
100
AcDbEntity
  8
LAY-10
  6
CONTINUOUS
 62
     7
100
AcDbLine
 10
442.8076841562408
 20
852.7520497554707
 30
0.0
 11
442.8076841562414
 21
802.7520497554724
 31
0.0
  0
LINE
  5
3D4
330
1F
100
AcDbEntity
  8
LAY-10
  6
CONTINUOUS
 62
     7
100
AcDbLine
 10
436.8076841562383
 20
852.7520497554707
 30
0.0
 11
436.8076841562383
 21
802.7520497554724
 31
0.0
  0
LINE
  5
3D5
330
1F
100
AcDbEntity
  8
LAY-10
  6
CONTINUOUS
 62
     7
100
AcDbLine
 10
741.8076841562398
 20
802.2520497554697
 30
0.0
 11
741.8076841562398
 21
848.7520497554698
 31
0.0
  0
LINE
  5
3D6
330
1F
100
AcDbEntity
  8
LAY-10
  6
CONTINUOUS
 62
     7
100
AcDbLine
 10
682.8076841562396
 20
787.7520497554697
 30
0.0
 11
682.8076841562396
 21
789.7520497554697
 31
0.0
  0
ARC
  5
3D7
330
1F
100
AcDbEntity
  8
LAY-10
  6
CONTINUOUS
 62
     7
100
AcDbCircle
 10
686.8076841562397
 20
789.7520497554697
 30
0.0
 40
4.0
100
AcDbArc
 50
90.00000000000001
 51
180.0
  0
ARC
  5
3D8
330
1F
100
AcDbEntity
  8
LAY-10
  6
CONTINUOUS
 62
     7
100
AcDbCircle
 10
745.8076841562402
 20
848.7520497554698
 30
0.0
 40
4.0
100
AcDbArc
 50
90.00000000000001
 51
180.0
  0
ARC
  5
3D9
330
1F
100
AcDbEntity
  8
LAY-10
  6
CONTINUOUS
 62
     7
100
AcDbCircle
 10
733.3076841562399
 20
802.2520497554697
 30
0.0
 40
8.5
100
AcDbArc
 50
270.0
 51
0.0
  0
LINE
  5
3DA
330
1F
100
AcDbEntity
  8
LAY-10
  6
CONTINUOUS
 62
     7
100
AcDbLine
 10
747.80768415624
 20
787.7520497554697
 30
0.0
 11
747.80768415624
 21
858.7520497554688
 31
0.0
  0
LINE
  5
3DB
330
1F
100
AcDbEntity
  8
LAY-10
  6
CONTINUOUS
 62
     7
100
AcDbLine
 10
331.8076841562404
 20
852.7520497554707
 30
0.0
 11
747.8076841562411
 21
852.7520497554707
 31
0.0
  0
LINE
  5
3DC
330
1F
100
AcDbEntity
  8
LAY-10
  6
CONTINUOUS
 62
     7
100
AcDbLine
 10
331.8076841562404
 20
858.7520497554688
 30
0.0
 11
747.8076841562411
 21
858.7520497554688
 31
0.0
  0
LINE
  5
3DD
330
1F
100
AcDbEntity
  8
LAY-10
  6
CONTINUOUS
 62
     7
100
AcDbLine
 10
337.8076841562401
 20
802.7520497554707
 30
0.0
 11
741.8076841562398
 21
802.7520497554707
 31
0.0
  0
LINE
  5
3DE
330
1F
100
AcDbEntity
  8
LAY-10
  6
CONTINUOUS
 62
     7
100
AcDbLine
 10
346.3076841562404
 20
793.7520497554698
 30
0.0
 11
733.3076841562403
 21
793.7520497554706
 31
0.0
  0
LINE
  5
3DF
330
1F
100
AcDbEntity
  8
LAY-10
  6
CONTINUOUS
 62
     7
100
AcDbLine
 10
1890.8076841561
 20
852.7520497554707
 30
0.0
 11
1890.807684156099
 21
802.7520497554724
 31
0.0
  0
LINE
  5
3E0
330
1F
100
AcDbEntity
  8
LAY-10
  6
CONTINUOUS
 62
     7
100
AcDbLine
 10
1896.807684156101
 20
852.7520497554707
 30
0.0
 11
1896.807684156101
 21
802.7520497554724
 31
0.0
  0
LINE
  5
3E1
330
1F
100
AcDbEntity
  8
LAY-10
  6
CONTINUOUS
 62
     7
100
AcDbLine
 10
1696.807684156101
 20
852.7520497554707
 30
0.0
 11
1696.807684156101
 21
802.7520497554724
 31
0.0
  0
LINE
  5
3E2
330
1F
100
AcDbEntity
  8
LAY-10
  6
CONTINUOUS
 62
     7
100
AcDbLine
 10
1690.807684156098
 20
852.7520497554707
 30
0.0
 11
1690.807684156098
 21
802.7520497554724
 31
0.0
  0
LINE
  5
3E3
330
1F
100
AcDbEntity
  8
LAY-10
  6
CONTINUOUS
 62
     7
100
AcDbLine
 10
1591.8076841561
 20
802.2520497554697
 30
0.0
 11
1591.8076841561
 21
848.7520497554698
 31
0.0
  0
LINE
  5
3E4
330
1F
100
AcDbEntity
  8
LAY-10
  6
CONTINUOUS
 62
     7
100
AcDbLine
 10
1650.807684156101
 20
787.7520497554697
 30
0.0
 11
1650.807684156101
 21
789.7520497554697
 31
0.0
  0
ARC
  5
3E5
330
1F
100
AcDbEntity
  8
LAY-10
  6
CONTINUOUS
 62
     7
100
AcDbCircle
 10
1646.8076841561
 20
789.7520497554697
 30
0.0
 40
4.0
100
AcDbArc
 50
0.0
 51
90.00000000000001
  0
ARC
  5
3E6
330
1F
100
AcDbEntity
  8
LAY-10
  6
CONTINUOUS
 62
     7
100
AcDbCircle
 10
1587.807684156101
 20
848.7520497554698
 30
0.0
 40
4.0
100
AcDbArc
 50
0.0
 51
90.00000000000001
  0
ARC
  5
3E7
330
1F
100
AcDbEntity
  8
LAY-10
  6
CONTINUOUS
 62
     7
100
AcDbCircle
 10
1600.3076841561
 20
802.2520497554697
 30
0.0
 40
8.5
100
AcDbArc
 50
180.0
 51
270.0
  0
LINE
  5
3E8
330
1F
100
AcDbEntity
  8
LAY-10
  6
CONTINUOUS
 62
     7
100
AcDbLine
 10
1585.807684156101
 20
787.7520497554697
 30
0.0
 11
1585.807684156101
 21
858.7520497554688
 31
0.0
  0
LINE
  5
3E9
330
1F
100
AcDbEntity
  8
LAY-10
  6
CONTINUOUS
 62
     7
100
AcDbLine
 10
1585.807684156101
 20
858.7520497554688
 30
0.0
 11
2001.8076841561
 21
858.7520497554688
 31
0.0
  0
LINE
  5
3EA
330
1F
100
AcDbEntity
  8
LAY-10
  6
CONTINUOUS
 62
     7
100
AcDbLine
 10
1591.8076841561
 20
802.7520497554707
 30
0.0
 11
1995.8076841561
 21
802.7520497554707
 31
0.0
  0
LINE
  5
3EB
330
1F
100
AcDbEntity
  8
LAY-10
  6
CONTINUOUS
 62
     7
100
AcDbLine
 10
1600.3076841561
 20
793.7520497554698
 30
0.0
 11
1987.3076841561
 21
793.7520497554706
 31
0.0
  0
LINE
  5
3EC
330
1F
100
AcDbEntity
  8
LAY-10
  6
CONTINUOUS
 62
     7
100
AcDbLine
 10
1585.807684156101
 20
852.7520497554707
 30
0.0
 11
2001.8076841561
 21
852.7520497554707
 31
0.0
  0
LINE
  5
3ED
330
1F
100
AcDbEntity
  8
LAY-10
  6
CONTINUOUS
 62
     7
100
AcDbLine
 10
641.3076841562971
 20
785.7520497554797
 30
0.0
 11
1692.30768415602
 21
785.7520497554797
 31
0.0
  0
LINE
  5
3EE
330
1F
100
AcDbEntity
  8
LAY-10
  6
CONTINUOUS
 62
     7
100
AcDbLine
 10
330.807684156188
 20
785.7520497554897
 30
0.0
 11
2002.8076841562
 21
785.7520497554897
 31
0.0
  0
LINE
  5
3EF
330
1F
100
AcDbEntity
  8
LAY-10
  6
CONTINUOUS
 62
     7
100
AcDbLine
 10
331.8076841562403
 20
787.7520497554897
 30
0.0
 11
2001.8076841562
 21
787.7520497554897
 31
0.0
  0
LINE
  5
3F0
330
1F
100
AcDbEntity
  8
LAY-10
  6
CONTINUOUS
 62
     7
100
AcDbLine
 10
755.8076841561207
 20
802.2520497554697
 30
0.0
 11
755.8076841561207
 21
848.7520497554698
 31
0.0
  0
LINE
  5
3F1
330
1F
100
AcDbEntity
  8
LAY-10
  6
CONTINUOUS
 62
     7
100
AcDbLine
 10
814.8076841561209
 20
787.7520497554697
 30
0.0
 11
814.8076841561209
 21
789.7520497554697
 31
0.0
  0
ARC
  5
3F2
330
1F
100
AcDbEntity
  8
LAY-10
  6
CONTINUOUS
 62
     7
100
AcDbCircle
 10
810.8076841561207
 20
789.7520497554697
 30
0.0
 40
4.0
100
AcDbArc
 50
0.0
 51
90.00000000000001
  0
ARC
  5
3F3
330
1F
100
AcDbEntity
  8
LAY-10
  6
CONTINUOUS
 62
     7
100
AcDbCircle
 10
751.8076841561206
 20
848.7520497554698
 30
0.0
 40
4.0
100
AcDbArc
 50
0.0
 51
90.00000000000001
  0
ARC
  5
3F4
330
1F
100
AcDbEntity
  8
LAY-10
  6
CONTINUOUS
 62
     7
100
AcDbCircle
 10
764.3076841561206
 20
802.2520497554697
 30
0.0
 40
8.5
100
AcDbArc
 50
180.0
 51
270.0
  0
LINE
  5
3F5
330
1F
100
AcDbEntity
  8
LAY-10
  6
CONTINUOUS
 62
     7
100
AcDbLine
 10
1054.80768415612
 20
852.7520497554707
 30
0.0
 11
1054.80768415612
 21
802.7520497554724
 31
0.0
  0
LINE
  5
3F6
330
1F
100
AcDbEntity
  8
LAY-10
  6
CONTINUOUS
 62
     7
100
AcDbLine
 10
1060.807684156122
 20
852.7520497554707
 30
0.0
 11
1060.807684156122
 21
802.7520497554724
 31
0.0
  0
LINE
  5
3F7
330
1F
100
AcDbEntity
  8
LAY-10
  6
CONTINUOUS
 62
     7
100
AcDbLine
 10
860.8076841561211
 20
852.7520497554707
 30
0.0
 11
860.8076841561215
 21
802.7520497554724
 31
0.0
  0
LINE
  5
3F8
330
1F
100
AcDbEntity
  8
LAY-10
  6
CONTINUOUS
 62
     7
100
AcDbLine
 10
854.8076841561186
 20
852.7520497554707
 30
0.0
 11
854.8076841561186
 21
802.7520497554724
 31
0.0
  0
LINE
  5
3F9
330
1F
100
AcDbEntity
  8
LAY-10
  6
CONTINUOUS
 62
     7
100
AcDbLine
 10
1159.80768415612
 20
802.2520497554697
 30
0.0
 11
1159.80768415612
 21
848.7520497554698
 31
0.0
  0
LINE
  5
3FA
330
1F
100
AcDbEntity
  8
LAY-10
  6
CONTINUOUS
 62
     7
100
AcDbLine
 10
1100.80768415612
 20
787.7520497554697
 30
0.0
 11
1100.80768415612
 21
789.7520497554697
 31
0.0
  0
ARC
  5
3FB
330
1F
100
AcDbEntity
  8
LAY-10
  6
CONTINUOUS
 62
     7
100
AcDbCircle
 10
1104.80768415612
 20
789.7520497554697
 30
0.0
 40
4.0
100
AcDbArc
 50
90.00000000000001
 51
180.0
  0
ARC
  5
3FC
330
1F
100
AcDbEntity
  8
LAY-10
  6
CONTINUOUS
 62
     7
100
AcDbCircle
 10
1163.80768415612
 20
848.7520497554698
 30
0.0
 40
4.0
100
AcDbArc
 50
90.00000000000001
 51
180.0
  0
ARC
  5
3FD
330
1F
100
AcDbEntity
  8
LAY-10
  6
CONTINUOUS
 62
     7
100
AcDbCircle
 10
1151.30768415612
 20
802.2520497554697
 30
0.0
 40
8.5
100
AcDbArc
 50
270.0
 51
0.0
  0
LINE
  5
3FE
330
1F
100
AcDbEntity
  8
LAY-10
  6
CONTINUOUS
 62
     7
100
AcDbLine
 10
1165.80768415612
 20
787.7520497554697
 30
0.0
 11
1165.80768415612
 21
858.7520497554688
 31
0.0
  0
LINE
  5
3FF
330
1F
100
AcDbEntity
  8
LAY-10
  6
CONTINUOUS
 62
     7
100
AcDbLine
 10
749.8076841561206
 20
852.7520497554707
 30
0.0
 11
1165.807684156121
 21
852.7520497554707
 31
0.0
  0
LINE
  5
400
330
1F
100
AcDbEntity
  8
LAY-10
  6
CONTINUOUS
 62
     7
100
AcDbLine
 10
749.8076841561206
 20
858.7520497554688
 30
0.0
 11
1165.807684156121
 21
858.7520497554688
 31
0.0
  0
LINE
  5
401
330
1F
100
AcDbEntity
  8
LAY-10
  6
CONTINUOUS
 62
     7
100
AcDbLine
 10
755.8076841561203
 20
802.7520497554707
 30
0.0
 11
1159.80768415612
 21
802.7520497554707
 31
0.0
  0
LINE
  5
402
330
1F
100
AcDbEntity
  8
LAY-10
  6
CONTINUOUS
 62
     7
100
AcDbLine
 10
764.3076841561206
 20
793.7520497554698
 30
0.0
 11
1151.307684156121
 21
793.7520497554706
 31
0.0
  0
LINE
  5
403
330
1F
100
AcDbEntity
  8
LAY-10
  6
CONTINUOUS
 62
     7
100
AcDbLine
 10
749.80768415612
 20
858.75204975547
 30
0.0
 11
749.80768415612
 21
787.7520497554897
 31
0.0
  0
LINE
  5
404
330
1F
100
AcDbEntity
  8
LAY-10
  6
CONTINUOUS
 62
     7
100
AcDbLine
 10
1577.807684156214
 20
802.2520497554696
 30
0.0
 11
1577.807684156214
 21
848.7520497554698
 31
0.0
  0
LINE
  5
405
330
1F
100
AcDbEntity
  8
LAY-10
  6
CONTINUOUS
 62
     7
100
AcDbLine
 10
1518.807684156214
 20
787.7520497554696
 30
0.0
 11
1518.807684156214
 21
789.7520497554696
 31
0.0
  0
ARC
  5
406
330
1F
100
AcDbEntity
  8
LAY-10
  6
CONTINUOUS
 62
     7
100
AcDbCircle
 10
1522.807684156214
 20
789.7520497554696
 30
0.0
 40
4.0
100
AcDbArc
 50
90.00000000000001
 51
180.0
  0
ARC
  5
407
330
1F
100
AcDbEntity
  8
LAY-10
  6
CONTINUOUS
 62
     7
100
AcDbCircle
 10
1581.807684156214
 20
848.7520497554698
 30
0.0
 40
4.0
100
AcDbArc
 50
90.00000000000001
 51
180.0
  0
ARC
  5
408
330
1F
100
AcDbEntity
  8
LAY-10
  6
CONTINUOUS
 62
     7
100
AcDbCircle
 10
1569.307684156214
 20
802.2520497554696
 30
0.0
 40
8.5
100
AcDbArc
 50
270.0
 51
0.0
  0
LINE
  5
409
330
1F
100
AcDbEntity
  8
LAY-10
  6
CONTINUOUS
 62
     7
100
AcDbLine
 10
1278.807684156215
 20
852.7520497554707
 30
0.0
 11
1278.807684156215
 21
802.7520497554724
 31
0.0
  0
LINE
  5
40A
330
1F
100
AcDbEntity
  8
LAY-10
  6
CONTINUOUS
 62
     7
100
AcDbLine
 10
1272.807684156213
 20
852.7520497554707
 30
0.0
 11
1272.807684156213
 21
802.7520497554724
 31
0.0
  0
LINE
  5
40B
330
1F
100
AcDbEntity
  8
LAY-10
  6
CONTINUOUS
 62
     7
100
AcDbLine
 10
1472.807684156214
 20
852.7520497554707
 30
0.0
 11
1472.807684156213
 21
802.7520497554724
 31
0.0
  0
LINE
  5
40C
330
1F
100
AcDbEntity
  8
LAY-10
  6
CONTINUOUS
 62
     7
100
AcDbLine
 10
1478.807684156216
 20
852.7520497554707
 30
0.0
 11
1478.807684156216
 21
802.7520497554724
 31
0.0
  0
LINE
  5
40D
330
1F
100
AcDbEntity
  8
LAY-10
  6
CONTINUOUS
 62
     7
100
AcDbLine
 10
1173.807684156215
 20
802.2520497554697
 30
0.0
 11
1173.807684156215
 21
848.7520497554698
 31
0.0
  0
LINE
  5
40E
330
1F
100
AcDbEntity
  8
LAY-10
  6
CONTINUOUS
 62
     7
100
AcDbLine
 10
1232.807684156215
 20
787.7520497554697
 30
0.0
 11
1232.807684156215
 21
789.7520497554697
 31
0.0
  0
ARC
  5
40F
330
1F
100
AcDbEntity
  8
LAY-10
  6
CONTINUOUS
 62
     7
100
AcDbCircle
 10
1228.807684156215
 20
789.7520497554697
 30
0.0
 40
4.0
100
AcDbArc
 50
0.0
 51
90.00000000000001
  0
ARC
  5
410
330
1F
100
AcDbEntity
  8
LAY-10
  6
CONTINUOUS
 62
     7
100
AcDbCircle
 10
1169.807684156214
 20
848.7520497554698
 30
0.0
 40
4.0
100
AcDbArc
 50
0.0
 51
90.00000000000001
  0
ARC
  5
411
330
1F
100
AcDbEntity
  8
LAY-10
  6
CONTINUOUS
 62
     7
100
AcDbCircle
 10
1182.307684156215
 20
802.2520497554697
 30
0.0
 40
8.5
100
AcDbArc
 50
180.0
 51
270.0
  0
LINE
  5
412
330
1F
100
AcDbEntity
  8
LAY-10
  6
CONTINUOUS
 62
     7
100
AcDbLine
 10
1167.807684156215
 20
787.7520497554697
 30
0.0
 11
1167.807684156215
 21
858.7520497554688
 31
0.0
  0
LINE
  5
413
330
1F
100
AcDbEntity
  8
LAY-10
  6
CONTINUOUS
 62
     7
100
AcDbLine
 10
1583.807684156214
 20
852.7520497554707
 30
0.0
 11
1167.807684156214
 21
852.7520497554707
 31
0.0
  0
LINE
  5
414
330
1F
100
AcDbEntity
  8
LAY-10
  6
CONTINUOUS
 62
     7
100
AcDbLine
 10
1583.807684156214
 20
858.7520497554686
 30
0.0
 11
1167.807684156214
 21
858.7520497554688
 31
0.0
  0
LINE
  5
415
330
1F
100
AcDbEntity
  8
LAY-10
  6
CONTINUOUS
 62
     7
100
AcDbLine
 10
1577.807684156214
 20
802.7520497554707
 30
0.0
 11
1173.807684156215
 21
802.7520497554707
 31
0.0
  0
LINE
  5
416
330
1F
100
AcDbEntity
  8
LAY-10
  6
CONTINUOUS
 62
     7
100
AcDbLine
 10
1569.307684156214
 20
793.7520497554698
 30
0.0
 11
1182.307684156214
 21
793.7520497554706
 31
0.0
  0
LINE
  5
417
330
1F
100
AcDbEntity
  8
LAY-10
  6
CONTINUOUS
 62
     7
100
AcDbLine
 10
1583.807684156215
 20
858.7520497554699
 30
0.0
 11
1583.807684156215
 21
787.7520497554896
 31
0.0
  0
LINE
  5
418
330
1F
100
AcDbEntity
  8
LAY-10
  6
CONTINUOUS
 62
     7
100
AcDbLine
 10
2046.706168965749
 20
2009.970691337362
 30
0.0
 11
2046.706168965749
 21
2018.970691337363
 31
0.0
  0
LINE
  5
419
330
1F
100
AcDbEntity
  8
LAY-10
  6
CONTINUOUS
 62
     7
100
AcDbLine
 10
2017.807684155911
 20
2018.970691337363
 30
0.0
 11
2046.706168965749
 21
2018.970691337363
 31
0.0
  0
LINE
  5
41A
330
1F
100
AcDbEntity
  8
LAY-10
  6
CONTINUOUS
 62
     7
100
AcDbLine
 10
2017.807684155911
 20
2009.970691337362
 30
0.0
 11
2046.706168965749
 21
2009.970691337362
 31
0.0
  0
LINE
  5
41B
330
1F
100
AcDbEntity
  8
LAY-10
  6
CONTINUOUS
 62
     7
100
AcDbLine
 10
2046.706168965746
 20
1518.970691337402
 30
0.0
 11
2046.706168965746
 21
1509.970691337401
 31
0.0
  0
LINE
  5
41C
330
1F
100
AcDbEntity
  8
LAY-10
  6
CONTINUOUS
 62
     7
100
AcDbLine
 10
2017.807684155909
 20
1509.9706913374
 30
0.0
 11
2046.706168965746
 21
1509.970691337401
 31
0.0
  0
LINE
  5
41D
330
1F
100
AcDbEntity
  8
LAY-10
  6
CONTINUOUS
 62
     7
100
AcDbLine
 10
2017.807684155909
 20
1518.970691337401
 30
0.0
 11
2046.706168965746
 21
1518.970691337402
 31
0.0
  0
LINE
  5
41E
330
1F
100
AcDbEntity
  8
LAY-10
  6
CONTINUOUS
 62
     7
100
AcDbLine
 10
2002.807684156022
 20
2300.470691337342
 30
0.0
 11
2017.807684156022
 21
2315.470691337342
 31
0.0
  0
LINE
  5
41F
330
1F
100
AcDbEntity
  8
LAY-10
  6
CONTINUOUS
 62
     7
100
AcDbLine
 10
2002.807684156021
 20
1228.470691337344
 30
0.0
 11
2017.807684156021
 21
1213.470691337346
 31
0.0
  0
LINE
  5
420
330
1F
100
AcDbEntity
  8
LAY-10
  6
CONTINUOUS
 62
     7
100
AcDbLine
 10
2002.807684156022
 20
2300.470691337342
 30
0.0
 11
2002.807684156021
 21
1228.470691337343
 31
0.0
  0
LINE
  5
421
330
1F
100
AcDbEntity
  8
LAY-10
  6
CONTINUOUS
 62
     7
100
AcDbLine
 10
2017.807684156021
 20
1213.470691337344
 30
0.0
 11
2017.807684156022
 21
2315.470691337342
 31
0.0
  0
LINE
  5
422
330
1F
100
AcDbEntity
  8
LAY-10
  6
CONTINUOUS
 62
     7
100
AcDbLine
 10
286.9035704142009
 20
2009.970691337366
 30
0.0
 11
286.9035704142009
 21
2018.970691337366
 31
0.0
  0
LINE
  5
423
330
1F
100
AcDbEntity
  8
LAY-10
  6
CONTINUOUS
 62
     7
100
AcDbLine
 10
315.802055224038
 20
2018.970691337366
 30
0.0
 11
286.9035704142009
 21
2018.970691337366
 31
0.0
  0
LINE
  5
424
330
1F
100
AcDbEntity
  8
LAY-10
  6
CONTINUOUS
 62
     7
100
AcDbLine
 10
315.802055224038
 20
2009.970691337366
 30
0.0
 11
286.9035704142009
 21
2009.970691337366
 31
0.0
  0
LINE
  5
425
330
1F
100
AcDbEntity
  8
LAY-10
  6
CONTINUOUS
 62
     7
100
AcDbLine
 10
286.9035704142009
 20
1518.970691337405
 30
0.0
 11
286.9035704142009
 21
1509.970691337404
 31
0.0
  0
LINE
  5
426
330
1F
100
AcDbEntity
  8
LAY-10
  6
CONTINUOUS
 62
     7
100
AcDbLine
 10
315.802055224038
 20
1509.970691337404
 30
0.0
 11
286.9035704142009
 21
1509.970691337404
 31
0.0
  0
LINE
  5
427
330
1F
100
AcDbEntity
  8
LAY-10
  6
CONTINUOUS
 62
     7
100
AcDbLine
 10
315.802055224038
 20
1518.970691337404
 30
0.0
 11
286.9035704142009
 21
1518.970691337405
 31
0.0
  0
LINE
  5
428
330
1F
100
AcDbEntity
  8
LAY-10
  6
CONTINUOUS
 62
     7
100
AcDbLine
 10
315.8076841561208
 20
2315.470691337342
 30
0.0
 11
330.8076841561207
 21
2300.470691337342
 31
0.0
  0
LINE
  5
429
330
1F
100
AcDbEntity
  8
LAY-10
  6
CONTINUOUS
 62
     7
100
AcDbLine
 10
330.8076841561171
 20
1228.470691337344
 30
0.0
 11
315.8076841561171
 21
1213.470691337344
 31
0.0
  0
LINE
  5
42A
330
1F
100
AcDbEntity
  8
LAY-10
  6
CONTINUOUS
 62
     7
100
AcDbLine
 10
330.8076841561171
 20
1228.470691337344
 30
0.0
 11
330.8076841561207
 21
2300.470691337342
 31
0.0
  0
LINE
  5
42B
330
1F
100
AcDbEntity
  8
LAY-10
  6
CONTINUOUS
 62
     7
100
AcDbLine
 10
315.8076841561171
 20
1213.470691337344
 30
0.0
 11
315.8076841561208
 21
2315.470691337342
 31
0.0
  0
LINE
  5
42C
330
1F
100
AcDbEntity
  8
LAY-10
  6
CONTINUOUS
 62
     7
100
AcDbLine
 10
315.8076841561208
 20
2315.470691337342
 30
0.0
 11
2017.807684156022
 21
2315.470691337342
 31
0.0
  0
LINE
  5
42D
330
1F
100
AcDbEntity
  8
LAY-10
  6
CONTINUOUS
 62
     7
100
AcDbLine
 10
2002.807684156022
 20
2300.470691337342
 30
0.0
 11
330.8076841561207
 21
2300.470691337342
 31
0.0
  0
LINE
  5
42E
330
1F
100
AcDbEntity
  8
LAY-10
  6
CONTINUOUS
 62
     7
100
AcDbLine
 10
315.8076841561171
 20
1213.470691337344
 30
0.0
 11
2017.807684156021
 21
1213.470691337343
 31
0.0
  0
LINE
  5
42F
330
1F
100
AcDbEntity
  8
LAY-10
  6
CONTINUOUS
 62
     7
100
AcDbLine
 10
2002.807684156021
 20
1228.470691337343
 30
0.0
 11
330.8076841561171
 21
1228.470691337344
 31
0.0
  0
CIRCLE
  5
430
330
1F
100
AcDbEntity
  8
LAY-10
  6
CONTINUOUS
 62
     7
100
AcDbCircle
 10
539.8076841562099
 20
2274.4706913373
 30
0.0
 40
13.00000000000001
  0
LINE
  5
431
330
1F
100
AcDbEntity
  8
LAY-10
  6
CONTINUOUS
 62
     7
100
AcDbLine
 10
535.80768415621
 20
2274.470691337306
 30
0.0
 11
539.8076841562099
 21
2267.970691337306
 31
0.0
  0
LINE
  5
432
330
1F
100
AcDbEntity
  8
LAY-10
  6
CONTINUOUS
 62
     7
100
AcDbLine
 10
539.8076841562099
 20
2280.970691337306
 30
0.0
 11
535.80768415621
 21
2274.470691337306
 31
0.0
  0
LINE
  5
433
330
1F
100
AcDbEntity
  8
LAY-10
  6
CONTINUOUS
 62
     7
100
AcDbLine
 10
543.8076841562099
 20
2274.470691337306
 30
0.0
 11
539.8076841562099
 21
2280.970691337306
 31
0.0
  0
LINE
  5
434
330
1F
100
AcDbEntity
  8
LAY-10
  6
CONTINUOUS
 62
     7
100
AcDbLine
 10
539.8076841562099
 20
2267.970691337306
 30
0.0
 11
543.8076841562099
 21
2274.470691337306
 31
0.0
  0
ARC
  5
435
330
1F
100
AcDbEntity
  8
LAY-10
  6
CONTINUOUS
 62
     7
100
AcDbCircle
 10
539.8076841562099
 20
2274.470691337306
 30
0.0
 40
12.75000000000001
100
AcDbArc
 50
18.2838899404031
 51
341.7161100595971
  0
LINE
  5
436
330
1F
100
AcDbEntity
  8
LAY-10
  6
CONTINUOUS
 62
     7
100
AcDbLine
 10
550.3076841562099
 20
2278.470691337305
 30
0.0
 11
550.3076841562099
 21
2270.470691337307
 31
0.0
  0
LINE
  5
437
330
1F
100
AcDbEntity
  8
LAY-10
  6
CONTINUOUS
 62
     7
100
AcDbLine
 10
550.3076841562099
 20
2278.470691337305
 30
0.0
 11
551.9139841690132
 21
2278.470691337305
 31
0.0
  0
LINE
  5
438
330
1F
100
AcDbEntity
  8
LAY-10
  6
CONTINUOUS
 62
     7
100
AcDbLine
 10
550.3076841562099
 20
2270.470691337307
 30
0.0
 11
551.9139841690132
 21
2270.470691337307
 31
0.0
  0
CIRCLE
  5
439
330
1F
100
AcDbEntity
  8
LAY-10
  6
CONTINUOUS
 62
     7
100
AcDbCircle
 10
539.8076841562104
 20
1254.470691337505
 30
0.0
 40
13.00000000000001
  0
LINE
  5
43A
330
1F
100
AcDbEntity
  8
LAY-10
  6
CONTINUOUS
 62
     7
100
AcDbLine
 10
535.8076841562105
 20
1254.4706913375
 30
0.0
 11
539.8076841562104
 21
1260.9706913375
 31
0.0
  0
LINE
  5
43B
330
1F
100
AcDbEntity
  8
LAY-10
  6
CONTINUOUS
 62
     7
100
AcDbLine
 10
539.8076841562104
 20
1247.9706913375
 30
0.0
 11
535.8076841562105
 21
1254.4706913375
 31
0.0
  0
LINE
  5
43C
330
1F
100
AcDbEntity
  8
LAY-10
  6
CONTINUOUS
 62
     7
100
AcDbLine
 10
543.8076841562104
 20
1254.4706913375
 30
0.0
 11
539.8076841562104
 21
1247.9706913375
 31
0.0
  0
LINE
  5
43D
330
1F
100
AcDbEntity
  8
LAY-10
  6
CONTINUOUS
 62
     7
100
AcDbLine
 10
539.8076841562104
 20
1260.9706913375
 30
0.0
 11
543.8076841562104
 21
1254.4706913375
 31
0.0
  0
ARC
  5
43E
330
1F
100
AcDbEntity
  8
LAY-10
  6
CONTINUOUS
 62
     7
100
AcDbCircle
 10
539.8076841562104
 20
1254.4706913375
 30
0.0
 40
12.75000000000001
100
AcDbArc
 50
18.2838899404031
 51
341.716110059597
  0
LINE
  5
43F
330
1F
100
AcDbEntity
  8
LAY-10
  6
CONTINUOUS
 62
     7
100
AcDbLine
 10
550.3076841562104
 20
1250.470691337501
 30
0.0
 11
550.3076841562104
 21
1258.470691337499
 31
0.0
  0
LINE
  5
440
330
1F
100
AcDbEntity
  8
LAY-10
  6
CONTINUOUS
 62
     7
100
AcDbLine
 10
550.3076841562104
 20
1250.470691337501
 30
0.0
 11
551.9139841690137
 21
1250.470691337501
 31
0.0
  0
LINE
  5
441
330
1F
100
AcDbEntity
  8
LAY-10
  6
CONTINUOUS
 62
     7
100
AcDbLine
 10
550.3076841562104
 20
1258.470691337499
 30
0.0
 11
551.9139841690137
 21
1258.470691337499
 31
0.0
  0
LINE
  5
442
330
1F
100
AcDbEntity
  8
LAY-10
  6
CONTINUOUS
 62
     7
100
AcDbLine
 10
747.8076841562099
 20
1229.470691337303
 30
0.0
 11
747.8076841562083
 21
2299.470691337303
 31
0.0
  0
LINE
  5
443
330
1F
100
AcDbEntity
  8
LAY-10
  6
CONTINUOUS
 62
     7
100
AcDbLine
 10
580.7349961800138
 20
1253.299692605268
 30
0.0
 11
597.9193365077696
 21
1236.115352277221
 31
0.0
  0
LINE
  5
444
330
1F
100
AcDbEntity
  8
LAY-10
  6
CONTINUOUS
 62
     7
100
AcDbLine
 10
721.6630232156704
 20
1236.115352280024
 30
0.0
 11
715.0183622732076
 21
1229.470691337223
 31
0.0
  0
LINE
  5
445
330
1F
100
AcDbEntity
  8
LAY-10
  6
CONTINUOUS
 62
     7
100
AcDbLine
 10
739.3406927438698
 20
1253.793021808824
 30
0.0
 11
747.8076841561947
 21
1262.260013221295
 31
0.0
  0
LINE
  5
446
330
1F
100
AcDbEntity
  8
LAY-10
  6
CONTINUOUS
 62
     7
100
AcDbLine
 10
644.3076841554657
 20
1229.470691337221
 30
0.0
 11
650.9523450976737
 21
1236.115352279017
 31
0.0
  0
LINE
  5
447
330
1F
100
AcDbEntity
  8
LAY-10
  6
CONTINUOUS
 62
     7
100
AcDbLine
 10
739.3406927451699
 20
1289.148360865222
 30
0.0
 11
747.8076841561697
 21
1297.615352276366
 31
0.0
  0
LINE
  5
448
330
1F
100
AcDbEntity
  8
LAY-10
  6
CONTINUOUS
 62
     7
100
AcDbLine
 10
703.9853536858695
 20
1289.148360866222
 30
0.0
 11
721.66302321557
 21
1306.826030396221
 31
0.0
  0
LINE
  5
449
330
1F
100
AcDbEntity
  8
LAY-10
  6
CONTINUOUS
 62
     7
100
AcDbLine
 10
721.66302321557
 20
1324.503699925222
 30
0.0
 11
739.34069274527
 21
1306.826030396221
 31
0.0
  0
LINE
  5
44A
330
1F
100
AcDbEntity
  8
LAY-10
  6
CONTINUOUS
 62
     7
100
AcDbLine
 10
686.3076841562699
 20
1324.503699925222
 30
0.0
 11
703.9853536858695
 21
1306.826030396221
 31
0.0
  0
LINE
  5
44B
330
1F
100
AcDbEntity
  8
LAY-10
  6
CONTINUOUS
 62
     7
100
AcDbLine
 10
597.9193365078701
 20
1271.470691337221
 30
0.0
 11
580.2416669781699
 21
1289.148360866222
 31
0.0
  0
LINE
  5
44C
330
1F
100
AcDbEntity
  8
LAY-10
  6
CONTINUOUS
 62
     7
100
AcDbLine
 10
615.5970060374699
 20
1306.826030396222
 30
0.0
 11
597.9193365078701
 21
1289.148360866222
 31
0.0
  0
LINE
  5
44D
330
1F
100
AcDbEntity
  8
LAY-10
  6
CONTINUOUS
 62
     7
100
AcDbLine
 10
615.5970060374699
 20
1271.470691337221
 30
0.0
 11
597.9193365078701
 21
1253.793021807222
 31
0.0
  0
LINE
  5
44E
330
1F
100
AcDbEntity
  8
LAY-10
  6
CONTINUOUS
 62
     7
100
AcDbLine
 10
633.2746755671699
 20
1306.826030396222
 30
0.0
 11
615.5970060374699
 21
1324.503699925222
 31
0.0
  0
LINE
  5
44F
330
1F
100
AcDbEntity
  8
LAY-10
  6
CONTINUOUS
 62
     7
100
AcDbLine
 10
668.6300146264699
 20
1289.148360866222
 30
0.0
 11
686.3076841561699
 21
1306.826030396222
 31
0.0
  0
LINE
  5
450
330
1F
100
AcDbEntity
  8
LAY-10
  6
CONTINUOUS
 62
     7
100
AcDbLine
 10
668.6300146264699
 20
1306.826030396222
 30
0.0
 11
650.9523450968701
 21
1324.503699925222
 31
0.0
  0
LINE
  5
451
330
1F
100
AcDbEntity
  8
LAY-10
  6
CONTINUOUS
 62
     7
100
AcDbLine
 10
633.2746755671699
 20
1271.470691337221
 30
0.0
 11
615.5970060374699
 21
1289.148360866222
 31
0.0
  0
LINE
  5
452
330
1F
100
AcDbEntity
  8
LAY-10
  6
CONTINUOUS
 62
     7
100
AcDbLine
 10
615.5970060374699
 20
1253.793021807222
 30
0.0
 11
633.2746755671699
 21
1236.115352277222
 31
0.0
  0
LINE
  5
453
330
1F
100
AcDbEntity
  8
LAY-10
  6
CONTINUOUS
 62
     7
100
AcDbLine
 10
739.34069274537
 20
1395.214378043222
 30
0.0
 11
747.8076841561697
 21
1403.681369454166
 31
0.0
  0
LINE
  5
454
330
1F
100
AcDbEntity
  8
LAY-10
  6
CONTINUOUS
 62
     7
100
AcDbLine
 10
703.9853536859696
 20
1359.859038984222
 30
0.0
 11
721.6630232156697
 21
1377.536708514222
 31
0.0
  0
LINE
  5
455
330
1F
100
AcDbEntity
  8
LAY-10
  6
CONTINUOUS
 62
     7
100
AcDbLine
 10
739.34069274527
 20
1377.536708514222
 30
0.0
 11
721.6630232156697
 21
1395.214378043222
 31
0.0
  0
LINE
  5
456
330
1F
100
AcDbEntity
  8
LAY-10
  6
CONTINUOUS
 62
     7
100
AcDbLine
 10
739.34069274527
 20
1359.859038984222
 30
0.0
 11
747.8076841561697
 21
1368.326030395265
 31
0.0
  0
LINE
  5
457
330
1F
100
AcDbEntity
  8
LAY-10
  6
CONTINUOUS
 62
     7
100
AcDbLine
 10
739.34069274527
 20
1324.503699925222
 30
0.0
 11
747.8076841561697
 21
1332.970691336265
 31
0.0
  0
LINE
  5
458
330
1F
100
AcDbEntity
  8
LAY-10
  6
CONTINUOUS
 62
     7
100
AcDbLine
 10
721.6630232156697
 20
1359.859038984222
 30
0.0
 11
739.34069274527
 21
1342.181369455221
 31
0.0
  0
LINE
  5
459
330
1F
100
AcDbEntity
  8
LAY-10
  6
CONTINUOUS
 62
     7
100
AcDbLine
 10
703.9853536859696
 20
1377.536708514222
 30
0.0
 11
686.3076841562699
 21
1395.214378043222
 31
0.0
  0
LINE
  5
45A
330
1F
100
AcDbEntity
  8
LAY-10
  6
CONTINUOUS
 62
     7
100
AcDbLine
 10
686.3076841562699
 20
1377.536708514222
 30
0.0
 11
668.63001462657
 21
1359.859038984221
 31
0.0
  0
LINE
  5
45B
330
1F
100
AcDbEntity
  8
LAY-10
  6
CONTINUOUS
 62
     7
100
AcDbLine
 10
668.63001462657
 20
1342.181369455222
 30
0.0
 11
650.9523450968701
 21
1359.859038984221
 31
0.0
  0
LINE
  5
45C
330
1F
100
AcDbEntity
  8
LAY-10
  6
CONTINUOUS
 62
     7
100
AcDbLine
 10
703.9853536858695
 20
1324.503699925222
 30
0.0
 11
721.66302321557
 21
1342.181369455221
 31
0.0
  0
LINE
  5
45D
330
1F
100
AcDbEntity
  8
LAY-10
  6
CONTINUOUS
 62
     7
100
AcDbLine
 10
668.63001462657
 20
1324.503699925222
 30
0.0
 11
686.3076841562699
 21
1342.181369455222
 31
0.0
  0
LINE
  5
45E
330
1F
100
AcDbEntity
  8
LAY-10
  6
CONTINUOUS
 62
     7
100
AcDbLine
 10
703.9853536858695
 20
1342.181369455221
 30
0.0
 11
686.3076841562699
 21
1359.859038984221
 31
0.0
  0
LINE
  5
45F
330
1F
100
AcDbEntity
  8
LAY-10
  6
CONTINUOUS
 62
     7
100
AcDbLine
 10
721.6630232156697
 20
1412.892047573222
 30
0.0
 11
703.9853536859696
 21
1395.214378043222
 31
0.0
  0
LINE
  5
460
330
1F
100
AcDbEntity
  8
LAY-10
  6
CONTINUOUS
 62
     7
100
AcDbLine
 10
739.34069274537
 20
1412.892047573222
 30
0.0
 11
721.6630232156697
 21
1430.569717102222
 31
0.0
  0
LINE
  5
461
330
1F
100
AcDbEntity
  8
LAY-10
  6
CONTINUOUS
 62
     7
100
AcDbLine
 10
747.8076841561697
 20
1439.036708513167
 30
0.0
 11
739.34069274537
 21
1430.569717102222
 31
0.0
  0
LINE
  5
462
330
1F
100
AcDbEntity
  8
LAY-10
  6
CONTINUOUS
 62
     7
100
AcDbLine
 10
608.9523450966827
 20
1229.470691337221
 30
0.0
 11
615.5970060375699
 21
1236.115352278222
 31
0.0
  0
LINE
  5
463
330
1F
100
AcDbEntity
  8
LAY-10
  6
CONTINUOUS
 62
     7
100
AcDbLine
 10
573.597006037006
 20
1229.470691337221
 30
0.0
 11
580.2416669772699
 21
1236.115352277222
 31
0.0
  0
LINE
  5
464
330
1F
100
AcDbEntity
  8
LAY-10
  6
CONTINUOUS
 62
     7
100
AcDbLine
 10
538.2416669773362
 20
1229.470691337221
 30
0.0
 11
544.8863279176
 21
1236.115352277222
 31
0.0
  0
LINE
  5
465
330
1F
100
AcDbEntity
  8
LAY-10
  6
CONTINUOUS
 62
     7
100
AcDbLine
 10
633.2746755671699
 20
1289.148360866222
 30
0.0
 11
650.9523450968701
 21
1306.826030396222
 31
0.0
  0
LINE
  5
466
330
1F
100
AcDbEntity
  8
LAY-10
  6
CONTINUOUS
 62
     7
100
AcDbLine
 10
650.9523450968701
 20
1342.181369455222
 30
0.0
 11
633.2746755671699
 21
1324.503699925222
 31
0.0
  0
LINE
  5
467
330
1F
100
AcDbEntity
  8
LAY-10
  6
CONTINUOUS
 62
     7
100
AcDbLine
 10
703.9853536854705
 20
1253.793021807823
 30
0.0
 11
721.6630232151695
 21
1271.470691337822
 31
0.0
  0
LINE
  5
468
330
1F
100
AcDbEntity
  8
LAY-10
  6
CONTINUOUS
 62
     7
100
AcDbLine
 10
721.6630232154699
 20
1253.793021808124
 30
0.0
 11
739.3406927447705
 21
1236.115352278825
 31
0.0
  0
LINE
  5
469
330
1F
100
AcDbEntity
  8
LAY-10
  6
CONTINUOUS
 62
     7
100
AcDbLine
 10
739.3406927441703
 20
1271.470691338222
 30
0.0
 11
721.6630232148693
 21
1289.148360867521
 31
0.0
  0
LINE
  5
46A
330
1F
100
AcDbEntity
  8
LAY-10
  6
CONTINUOUS
 62
     7
100
AcDbLine
 10
633.2746755671699
 20
1253.793021807222
 30
0.0
 11
646.8076841561694
 21
1267.326030396451
 31
0.0
  0
LINE
  5
46B
330
1F
100
AcDbEntity
  8
LAY-10
  6
CONTINUOUS
 62
     7
100
AcDbLine
 10
703.9853536853716
 20
1236.115352279422
 30
0.0
 11
686.307684156071
 21
1253.793021808721
 31
0.0
  0
LINE
  5
46C
330
1F
100
AcDbEntity
  8
LAY-10
  6
CONTINUOUS
 62
     7
100
AcDbLine
 10
686.3076841573704
 20
1271.470691337721
 30
0.0
 11
668.6300146273722
 21
1253.793021808019
 31
0.0
  0
LINE
  5
46D
330
1F
100
AcDbEntity
  8
LAY-10
  6
CONTINUOUS
 62
     7
100
AcDbLine
 10
650.9523450983713
 20
1253.793021808018
 30
0.0
 11
668.6300146273735
 21
1236.11535227832
 31
0.0
  0
LINE
  5
46E
330
1F
100
AcDbEntity
  8
LAY-10
  6
CONTINUOUS
 62
     7
100
AcDbLine
 10
650.9523450983685
 20
1289.148360867318
 30
0.0
 11
668.6300146273707
 21
1271.470691337719
 31
0.0
  0
LINE
  5
46F
330
1F
100
AcDbEntity
  8
LAY-10
  6
CONTINUOUS
 62
     7
100
AcDbLine
 10
686.3076841583717
 20
1236.115352278421
 30
0.0
 11
679.6630232170597
 21
1229.470691337221
 31
0.0
  0
LINE
  5
470
330
1F
100
AcDbEntity
  8
LAY-10
  6
CONTINUOUS
 62
     7
100
AcDbLine
 10
686.3076841564695
 20
1289.148360866521
 30
0.0
 11
703.9853536857692
 21
1271.470691337221
 31
0.0
  0
LINE
  5
471
330
1F
100
AcDbEntity
  8
LAY-10
  6
CONTINUOUS
 62
     7
100
AcDbLine
 10
562.563997449569
 20
1253.793021806222
 30
0.0
 11
580.2416669788691
 21
1271.470691336522
 31
0.0
  0
LINE
  5
472
330
1F
100
AcDbEntity
  8
LAY-10
  6
CONTINUOUS
 62
     7
100
AcDbLine
 10
331.8076841562084
 20
2299.470691337301
 30
0.0
 11
331.8076841562084
 21
1229.470691337302
 31
0.0
  0
LINE
  5
473
330
1F
100
AcDbEntity
  8
LAY-10
  6
CONTINUOUS
 62
     7
100
AcDbLine
 10
498.8803721323851
 20
2275.641690069252
 30
0.0
 11
481.6960318046293
 21
2292.826030397299
 31
0.0
  0
LINE
  5
474
330
1F
100
AcDbEntity
  8
LAY-10
  6
CONTINUOUS
 62
     7
100
AcDbLine
 10
357.9523450967284
 20
2292.826030394496
 30
0.0
 11
364.5970060391913
 21
2299.470691337297
 31
0.0
  0
LINE
  5
475
330
1F
100
AcDbEntity
  8
LAY-10
  6
CONTINUOUS
 62
     7
100
AcDbLine
 10
340.2746755685292
 20
2275.148360865696
 30
0.0
 11
331.8076841562041
 21
2266.681369453226
 31
0.0
  0
LINE
  5
476
330
1F
100
AcDbEntity
  8
LAY-10
  6
CONTINUOUS
 62
     7
100
AcDbLine
 10
435.3076841569331
 20
2299.470691337299
 30
0.0
 11
428.6630232147253
 21
2292.826030395503
 31
0.0
  0
LINE
  5
477
330
1F
100
AcDbEntity
  8
LAY-10
  6
CONTINUOUS
 62
     7
100
AcDbLine
 10
340.2746755672291
 20
2239.793021809298
 30
0.0
 11
331.8076841562291
 21
2231.326030398154
 31
0.0
  0
LINE
  5
478
330
1F
100
AcDbEntity
  8
LAY-10
  6
CONTINUOUS
 62
     7
100
AcDbLine
 10
375.6300146265293
 20
2239.793021808298
 30
0.0
 11
357.9523450968292
 21
2222.1153522783
 31
0.0
  0
LINE
  5
479
330
1F
100
AcDbEntity
  8
LAY-10
  6
CONTINUOUS
 62
     7
100
AcDbLine
 10
357.9523450968292
 20
2204.437682749299
 30
0.0
 11
340.2746755671291
 21
2222.1153522783
 31
0.0
  0
LINE
  5
47A
330
1F
100
AcDbEntity
  8
LAY-10
  6
CONTINUOUS
 62
     7
100
AcDbLine
 10
393.3076841561291
 20
2204.437682749298
 30
0.0
 11
375.6300146265293
 21
2222.1153522783
 31
0.0
  0
LINE
  5
47B
330
1F
100
AcDbEntity
  8
LAY-10
  6
CONTINUOUS
 62
     7
100
AcDbLine
 10
481.6960318045288
 20
2257.470691337299
 30
0.0
 11
499.3737013342292
 21
2239.793021808298
 31
0.0
  0
LINE
  5
47C
330
1F
100
AcDbEntity
  8
LAY-10
  6
CONTINUOUS
 62
     7
100
AcDbLine
 10
464.0183622749292
 20
2222.115352278299
 30
0.0
 11
481.6960318045288
 21
2239.793021808298
 31
0.0
  0
LINE
  5
47D
330
1F
100
AcDbEntity
  8
LAY-10
  6
CONTINUOUS
 62
     7
100
AcDbLine
 10
464.0183622749292
 20
2257.470691337299
 30
0.0
 11
481.6960318045288
 21
2275.148360867299
 31
0.0
  0
LINE
  5
47E
330
1F
100
AcDbEntity
  8
LAY-10
  6
CONTINUOUS
 62
     7
100
AcDbLine
 10
446.3406927452291
 20
2222.115352278299
 30
0.0
 11
464.0183622749292
 21
2204.437682749299
 31
0.0
  0
LINE
  5
47F
330
1F
100
AcDbEntity
  8
LAY-10
  6
CONTINUOUS
 62
     7
100
AcDbLine
 10
410.9853536859292
 20
2239.793021808298
 30
0.0
 11
393.3076841562291
 21
2222.115352278299
 31
0.0
  0
LINE
  5
480
330
1F
100
AcDbEntity
  8
LAY-10
  6
CONTINUOUS
 62
     7
100
AcDbLine
 10
410.9853536859292
 20
2222.115352278299
 30
0.0
 11
428.6630232155288
 21
2204.437682749299
 31
0.0
  0
LINE
  5
481
330
1F
100
AcDbEntity
  8
LAY-10
  6
CONTINUOUS
 62
     7
100
AcDbLine
 10
446.3406927452291
 20
2257.470691337299
 30
0.0
 11
464.0183622749292
 21
2239.793021808298
 31
0.0
  0
LINE
  5
482
330
1F
100
AcDbEntity
  8
LAY-10
  6
CONTINUOUS
 62
     7
100
AcDbLine
 10
464.0183622749292
 20
2275.148360867299
 30
0.0
 11
446.3406927452291
 21
2292.826030397298
 31
0.0
  0
LINE
  5
483
330
1F
100
AcDbEntity
  8
LAY-10
  6
CONTINUOUS
 62
     7
100
AcDbLine
 10
340.274675567029
 20
2133.727004631298
 30
0.0
 11
331.8076841562291
 21
2125.260013220354
 31
0.0
  0
LINE
  5
484
330
1F
100
AcDbEntity
  8
LAY-10
  6
CONTINUOUS
 62
     7
100
AcDbLine
 10
375.6300146264292
 20
2169.082343690298
 30
0.0
 11
357.9523450967293
 21
2151.404674160299
 31
0.0
  0
LINE
  5
485
330
1F
100
AcDbEntity
  8
LAY-10
  6
CONTINUOUS
 62
     7
100
AcDbLine
 10
340.2746755671291
 20
2151.404674160299
 30
0.0
 11
357.9523450967293
 21
2133.727004631299
 31
0.0
  0
LINE
  5
486
330
1F
100
AcDbEntity
  8
LAY-10
  6
CONTINUOUS
 62
     7
100
AcDbLine
 10
340.2746755671291
 20
2169.082343690298
 30
0.0
 11
331.8076841562291
 21
2160.615352279255
 31
0.0
  0
LINE
  5
487
330
1F
100
AcDbEntity
  8
LAY-10
  6
CONTINUOUS
 62
     7
100
AcDbLine
 10
340.2746755671291
 20
2204.437682749299
 30
0.0
 11
331.8076841562291
 21
2195.970691338255
 31
0.0
  0
LINE
  5
488
330
1F
100
AcDbEntity
  8
LAY-10
  6
CONTINUOUS
 62
     7
100
AcDbLine
 10
357.9523450967293
 20
2169.082343690298
 30
0.0
 11
340.2746755671291
 21
2186.760013219299
 31
0.0
  0
LINE
  5
489
330
1F
100
AcDbEntity
  8
LAY-10
  6
CONTINUOUS
 62
     7
100
AcDbLine
 10
375.6300146264292
 20
2151.404674160299
 30
0.0
 11
393.3076841561291
 21
2133.727004631299
 31
0.0
  0
LINE
  5
48A
330
1F
100
AcDbEntity
  8
LAY-10
  6
CONTINUOUS
 62
     7
100
AcDbLine
 10
393.3076841561291
 20
2151.404674160299
 30
0.0
 11
410.9853536858292
 21
2169.082343690299
 31
0.0
  0
LINE
  5
48B
330
1F
100
AcDbEntity
  8
LAY-10
  6
CONTINUOUS
 62
     7
100
AcDbLine
 10
410.9853536858292
 20
2186.760013219298
 30
0.0
 11
428.6630232155288
 21
2169.082343690299
 31
0.0
  0
LINE
  5
48C
330
1F
100
AcDbEntity
  8
LAY-10
  6
CONTINUOUS
 62
     7
100
AcDbLine
 10
375.6300146265293
 20
2204.437682749299
 30
0.0
 11
357.9523450968292
 21
2186.760013219299
 31
0.0
  0
LINE
  5
48D
330
1F
100
AcDbEntity
  8
LAY-10
  6
CONTINUOUS
 62
     7
100
AcDbLine
 10
410.9853536858292
 20
2204.437682749298
 30
0.0
 11
393.3076841561291
 21
2186.760013219298
 31
0.0
  0
LINE
  5
48E
330
1F
100
AcDbEntity
  8
LAY-10
  6
CONTINUOUS
 62
     7
100
AcDbLine
 10
375.6300146265293
 20
2186.760013219299
 30
0.0
 11
393.3076841561291
 21
2169.082343690299
 31
0.0
  0
LINE
  5
48F
330
1F
100
AcDbEntity
  8
LAY-10
  6
CONTINUOUS
 62
     7
100
AcDbLine
 10
357.9523450967293
 20
2116.049335101298
 30
0.0
 11
375.6300146264292
 21
2133.727004631299
 31
0.0
  0
LINE
  5
490
330
1F
100
AcDbEntity
  8
LAY-10
  6
CONTINUOUS
 62
     7
100
AcDbLine
 10
340.274675567029
 20
2116.049335101298
 30
0.0
 11
357.9523450967293
 21
2098.371665572298
 31
0.0
  0
LINE
  5
491
330
1F
100
AcDbEntity
  8
LAY-10
  6
CONTINUOUS
 62
     7
100
AcDbLine
 10
331.8076841562291
 20
2089.904674161354
 30
0.0
 11
340.274675567029
 21
2098.371665572298
 31
0.0
  0
LINE
  5
492
330
1F
100
AcDbEntity
  8
LAY-10
  6
CONTINUOUS
 62
     7
100
AcDbLine
 10
470.6630232157162
 20
2299.470691337299
 30
0.0
 11
464.0183622748292
 21
2292.826030396299
 31
0.0
  0
LINE
  5
493
330
1F
100
AcDbEntity
  8
LAY-10
  6
CONTINUOUS
 62
     7
100
AcDbLine
 10
506.0183622753929
 20
2299.470691337299
 30
0.0
 11
499.3737013351291
 21
2292.826030397298
 31
0.0
  0
LINE
  5
494
330
1F
100
AcDbEntity
  8
LAY-10
  6
CONTINUOUS
 62
     7
100
AcDbLine
 10
541.3737013350627
 20
2299.470691337299
 30
0.0
 11
534.729040394799
 21
2292.826030397298
 31
0.0
  0
LINE
  5
495
330
1F
100
AcDbEntity
  8
LAY-10
  6
CONTINUOUS
 62
     7
100
AcDbLine
 10
446.3406927452291
 20
2239.793021808298
 30
0.0
 11
428.6630232155288
 21
2222.115352278299
 31
0.0
  0
LINE
  5
496
330
1F
100
AcDbEntity
  8
LAY-10
  6
CONTINUOUS
 62
     7
100
AcDbLine
 10
428.6630232155288
 20
2186.760013219298
 30
0.0
 11
446.3406927452291
 21
2204.437682749299
 31
0.0
  0
LINE
  5
497
330
1F
100
AcDbEntity
  8
LAY-10
  6
CONTINUOUS
 62
     7
100
AcDbLine
 10
375.6300146269285
 20
2275.148360866698
 30
0.0
 11
357.9523450972296
 21
2257.470691336698
 31
0.0
  0
LINE
  5
498
330
1F
100
AcDbEntity
  8
LAY-10
  6
CONTINUOUS
 62
     7
100
AcDbLine
 10
357.9523450969292
 20
2275.148360866397
 30
0.0
 11
340.2746755676286
 21
2292.826030395696
 31
0.0
  0
LINE
  5
499
330
1F
100
AcDbEntity
  8
LAY-10
  6
CONTINUOUS
 62
     7
100
AcDbLine
 10
340.2746755682289
 20
2257.470691336298
 30
0.0
 11
357.9523450975297
 21
2239.793021806999
 31
0.0
  0
LINE
  5
49A
330
1F
100
AcDbEntity
  8
LAY-10
  6
CONTINUOUS
 62
     7
100
AcDbLine
 10
446.3406927452291
 20
2275.148360867299
 30
0.0
 11
432.8076841562296
 21
2261.61535227807
 31
0.0
  0
LINE
  5
49B
330
1F
100
AcDbEntity
  8
LAY-10
  6
CONTINUOUS
 62
     7
100
AcDbLine
 10
375.6300146270272
 20
2292.826030395098
 30
0.0
 11
393.3076841563278
 21
2275.148360865799
 31
0.0
  0
LINE
  5
49C
330
1F
100
AcDbEntity
  8
LAY-10
  6
CONTINUOUS
 62
     7
100
AcDbLine
 10
393.3076841550286
 20
2257.470691336799
 30
0.0
 11
410.9853536850268
 21
2275.148360866501
 31
0.0
  0
LINE
  5
49D
330
1F
100
AcDbEntity
  8
LAY-10
  6
CONTINUOUS
 62
     7
100
AcDbLine
 10
428.6630232140277
 20
2275.148360866502
 30
0.0
 11
410.9853536850254
 21
2292.826030396201
 31
0.0
  0
LINE
  5
49E
330
1F
100
AcDbEntity
  8
LAY-10
  6
CONTINUOUS
 62
     7
100
AcDbLine
 10
428.6630232140304
 20
2239.793021807202
 30
0.0
 11
410.9853536850281
 21
2257.470691336801
 31
0.0
  0
LINE
  5
49F
330
1F
100
AcDbEntity
  8
LAY-10
  6
CONTINUOUS
 62
     7
100
AcDbLine
 10
393.3076841540275
 20
2292.8260303961
 30
0.0
 11
399.9523450953392
 21
2299.470691337299
 31
0.0
  0
LINE
  5
4A0
330
1F
100
AcDbEntity
  8
LAY-10
  6
CONTINUOUS
 62
     7
100
AcDbLine
 10
393.3076841559295
 20
2239.793021807999
 30
0.0
 11
375.63001462663
 21
2257.470691337299
 31
0.0
  0
LINE
  5
4A1
330
1F
100
AcDbEntity
  8
LAY-10
  6
CONTINUOUS
 62
     7
100
AcDbLine
 10
517.0513708628299
 20
2275.148360868298
 30
0.0
 11
499.3737013335298
 21
2257.470691337999
 31
0.0
  0
LINE
  5
4A2
330
1F
100
AcDbEntity
  8
LAY-10
  6
CONTINUOUS
 62
     7
100
AcDbLine
 10
331.8076841562084
 20
2299.470691337301
 30
0.0
 11
747.8076841562083
 21
2299.470691337303
 31
0.0
  0
LINE
  5
4A3
330
1F
100
AcDbEntity
  8
LAY-10
  6
CONTINUOUS
 62
     7
100
AcDbLine
 10
331.8076841562084
 20
1229.470691337302
 30
0.0
 11
747.8076841562099
 21
1229.470691337303
 31
0.0
  0
LINE
  5
4A4
330
1F
100
AcDbEntity
  8
LAY-10
  6
CONTINUOUS
 62
     7
100
AcDbLine
 10
517.051370862131
 20
2292.826030397998
 30
0.0
 11
528.6820720294039
 21
2281.195329231185
 31
0.0
  0
LINE
  5
4A5
330
1F
100
AcDbEntity
  8
LAY-10
  6
CONTINUOUS
 62
     7
100
AcDbLine
 10
562.5639974502681
 20
1236.115352276523
 30
0.0
 11
550.9332962829009
 21
1247.74605344343
 31
0.0
  0
CIRCLE
  5
4A6
330
1F
100
AcDbEntity
  8
LAY-10
  6
CONTINUOUS
 62
     7
100
AcDbCircle
 10
957.8076841560899
 20
2274.4706913373
 30
0.0
 40
13.00000000000001
  0
LINE
  5
4A7
330
1F
100
AcDbEntity
  8
LAY-10
  6
CONTINUOUS
 62
     7
100
AcDbLine
 10
953.8076841560901
 20
2274.470691337306
 30
0.0
 11
957.8076841560899
 21
2267.970691337306
 31
0.0
  0
LINE
  5
4A8
330
1F
100
AcDbEntity
  8
LAY-10
  6
CONTINUOUS
 62
     7
100
AcDbLine
 10
957.8076841560899
 20
2280.970691337306
 30
0.0
 11
953.8076841560901
 21
2274.470691337306
 31
0.0
  0
LINE
  5
4A9
330
1F
100
AcDbEntity
  8
LAY-10
  6
CONTINUOUS
 62
     7
100
AcDbLine
 10
961.8076841560899
 20
2274.470691337306
 30
0.0
 11
957.8076841560899
 21
2280.970691337306
 31
0.0
  0
LINE
  5
4AA
330
1F
100
AcDbEntity
  8
LAY-10
  6
CONTINUOUS
 62
     7
100
AcDbLine
 10
957.8076841560899
 20
2267.970691337306
 30
0.0
 11
961.8076841560899
 21
2274.470691337306
 31
0.0
  0
ARC
  5
4AB
330
1F
100
AcDbEntity
  8
LAY-10
  6
CONTINUOUS
 62
     7
100
AcDbCircle
 10
957.8076841560899
 20
2274.470691337306
 30
0.0
 40
12.75000000000001
100
AcDbArc
 50
18.2838899404031
 51
341.7161100595971
  0
LINE
  5
4AC
330
1F
100
AcDbEntity
  8
LAY-10
  6
CONTINUOUS
 62
     7
100
AcDbLine
 10
968.3076841560899
 20
2278.470691337305
 30
0.0
 11
968.3076841560899
 21
2270.470691337307
 31
0.0
  0
LINE
  5
4AD
330
1F
100
AcDbEntity
  8
LAY-10
  6
CONTINUOUS
 62
     7
100
AcDbLine
 10
968.3076841560899
 20
2278.470691337305
 30
0.0
 11
969.9139841688932
 21
2278.470691337305
 31
0.0
  0
LINE
  5
4AE
330
1F
100
AcDbEntity
  8
LAY-10
  6
CONTINUOUS
 62
     7
100
AcDbLine
 10
968.3076841560899
 20
2270.470691337307
 30
0.0
 11
969.9139841688932
 21
2270.470691337307
 31
0.0
  0
CIRCLE
  5
4AF
330
1F
100
AcDbEntity
  8
LAY-10
  6
CONTINUOUS
 62
     7
100
AcDbCircle
 10
957.8076841560903
 20
1254.470691337505
 30
0.0
 40
13.00000000000001
  0
LINE
  5
4B0
330
1F
100
AcDbEntity
  8
LAY-10
  6
CONTINUOUS
 62
     7
100
AcDbLine
 10
953.8076841560905
 20
1254.4706913375
 30
0.0
 11
957.8076841560903
 21
1260.9706913375
 31
0.0
  0
LINE
  5
4B1
330
1F
100
AcDbEntity
  8
LAY-10
  6
CONTINUOUS
 62
     7
100
AcDbLine
 10
957.8076841560903
 20
1247.9706913375
 30
0.0
 11
953.8076841560905
 21
1254.4706913375
 31
0.0
  0
LINE
  5
4B2
330
1F
100
AcDbEntity
  8
LAY-10
  6
CONTINUOUS
 62
     7
100
AcDbLine
 10
961.8076841560903
 20
1254.4706913375
 30
0.0
 11
957.8076841560903
 21
1247.9706913375
 31
0.0
  0
LINE
  5
4B3
330
1F
100
AcDbEntity
  8
LAY-10
  6
CONTINUOUS
 62
     7
100
AcDbLine
 10
957.8076841560903
 20
1260.9706913375
 30
0.0
 11
961.8076841560903
 21
1254.4706913375
 31
0.0
  0
ARC
  5
4B4
330
1F
100
AcDbEntity
  8
LAY-10
  6
CONTINUOUS
 62
     7
100
AcDbCircle
 10
957.8076841560903
 20
1254.4706913375
 30
0.0
 40
12.75000000000001
100
AcDbArc
 50
18.2838899404031
 51
341.716110059597
  0
LINE
  5
4B5
330
1F
100
AcDbEntity
  8
LAY-10
  6
CONTINUOUS
 62
     7
100
AcDbLine
 10
968.3076841560904
 20
1250.470691337501
 30
0.0
 11
968.3076841560904
 21
1258.470691337499
 31
0.0
  0
LINE
  5
4B6
330
1F
100
AcDbEntity
  8
LAY-10
  6
CONTINUOUS
 62
     7
100
AcDbLine
 10
968.3076841560904
 20
1250.470691337501
 30
0.0
 11
969.9139841688936
 21
1250.470691337501
 31
0.0
  0
LINE
  5
4B7
330
1F
100
AcDbEntity
  8
LAY-10
  6
CONTINUOUS
 62
     7
100
AcDbLine
 10
968.3076841560904
 20
1258.470691337499
 30
0.0
 11
969.9139841688936
 21
1258.470691337499
 31
0.0
  0
LINE
  5
4B8
330
1F
100
AcDbEntity
  8
LAY-10
  6
CONTINUOUS
 62
     7
100
AcDbLine
 10
1165.80768415609
 20
1229.470691337303
 30
0.0
 11
1165.807684156088
 21
2299.470691337303
 31
0.0
  0
LINE
  5
4B9
330
1F
100
AcDbEntity
  8
LAY-10
  6
CONTINUOUS
 62
     7
100
AcDbLine
 10
998.7349961798939
 20
1253.299692605268
 30
0.0
 11
1015.91933650765
 21
1236.115352277221
 31
0.0
  0
LINE
  5
4BA
330
1F
100
AcDbEntity
  8
LAY-10
  6
CONTINUOUS
 62
     7
100
AcDbLine
 10
1139.66302321555
 20
1236.115352280024
 30
0.0
 11
1133.018362273087
 21
1229.470691337223
 31
0.0
  0
LINE
  5
4BB
330
1F
100
AcDbEntity
  8
LAY-10
  6
CONTINUOUS
 62
     7
100
AcDbLine
 10
1157.34069274375
 20
1253.793021808824
 30
0.0
 11
1165.807684156075
 21
1262.260013221295
 31
0.0
  0
LINE
  5
4BC
330
1F
100
AcDbEntity
  8
LAY-10
  6
CONTINUOUS
 62
     7
100
AcDbLine
 10
1062.307684155346
 20
1229.470691337221
 30
0.0
 11
1068.952345097554
 21
1236.115352279017
 31
0.0
  0
LINE
  5
4BD
330
1F
100
AcDbEntity
  8
LAY-10
  6
CONTINUOUS
 62
     7
100
AcDbLine
 10
1157.34069274505
 20
1289.148360865222
 30
0.0
 11
1165.80768415605
 21
1297.615352276366
 31
0.0
  0
LINE
  5
4BE
330
1F
100
AcDbEntity
  8
LAY-10
  6
CONTINUOUS
 62
     7
100
AcDbLine
 10
1121.985353685749
 20
1289.148360866222
 30
0.0
 11
1139.66302321545
 21
1306.826030396221
 31
0.0
  0
LINE
  5
4BF
330
1F
100
AcDbEntity
  8
LAY-10
  6
CONTINUOUS
 62
     7
100
AcDbLine
 10
1139.66302321545
 20
1324.503699925222
 30
0.0
 11
1157.34069274515
 21
1306.826030396221
 31
0.0
  0
LINE
  5
4C0
330
1F
100
AcDbEntity
  8
LAY-10
  6
CONTINUOUS
 62
     7
100
AcDbLine
 10
1104.30768415615
 20
1324.503699925222
 30
0.0
 11
1121.985353685749
 21
1306.826030396221
 31
0.0
  0
LINE
  5
4C1
330
1F
100
AcDbEntity
  8
LAY-10
  6
CONTINUOUS
 62
     7
100
AcDbLine
 10
1015.91933650775
 20
1271.470691337221
 30
0.0
 11
998.2416669780498
 21
1289.148360866222
 31
0.0
  0
LINE
  5
4C2
330
1F
100
AcDbEntity
  8
LAY-10
  6
CONTINUOUS
 62
     7
100
AcDbLine
 10
1033.59700603735
 20
1306.826030396222
 30
0.0
 11
1015.91933650775
 21
1289.148360866222
 31
0.0
  0
LINE
  5
4C3
330
1F
100
AcDbEntity
  8
LAY-10
  6
CONTINUOUS
 62
     7
100
AcDbLine
 10
1033.59700603735
 20
1271.470691337221
 30
0.0
 11
1015.91933650775
 21
1253.793021807222
 31
0.0
  0
LINE
  5
4C4
330
1F
100
AcDbEntity
  8
LAY-10
  6
CONTINUOUS
 62
     7
100
AcDbLine
 10
1051.27467556705
 20
1306.826030396222
 30
0.0
 11
1033.59700603735
 21
1324.503699925222
 31
0.0
  0
LINE
  5
4C5
330
1F
100
AcDbEntity
  8
LAY-10
  6
CONTINUOUS
 62
     7
100
AcDbLine
 10
1086.63001462635
 20
1289.148360866222
 30
0.0
 11
1104.30768415605
 21
1306.826030396222
 31
0.0
  0
LINE
  5
4C6
330
1F
100
AcDbEntity
  8
LAY-10
  6
CONTINUOUS
 62
     7
100
AcDbLine
 10
1086.63001462635
 20
1306.826030396222
 30
0.0
 11
1068.95234509675
 21
1324.503699925222
 31
0.0
  0
LINE
  5
4C7
330
1F
100
AcDbEntity
  8
LAY-10
  6
CONTINUOUS
 62
     7
100
AcDbLine
 10
1051.27467556705
 20
1271.470691337221
 30
0.0
 11
1033.59700603735
 21
1289.148360866222
 31
0.0
  0
LINE
  5
4C8
330
1F
100
AcDbEntity
  8
LAY-10
  6
CONTINUOUS
 62
     7
100
AcDbLine
 10
1033.59700603735
 20
1253.793021807222
 30
0.0
 11
1051.27467556705
 21
1236.115352277222
 31
0.0
  0
LINE
  5
4C9
330
1F
100
AcDbEntity
  8
LAY-10
  6
CONTINUOUS
 62
     7
100
AcDbLine
 10
1157.34069274525
 20
1395.214378043222
 30
0.0
 11
1165.80768415605
 21
1403.681369454166
 31
0.0
  0
LINE
  5
4CA
330
1F
100
AcDbEntity
  8
LAY-10
  6
CONTINUOUS
 62
     7
100
AcDbLine
 10
1121.98535368585
 20
1359.859038984222
 30
0.0
 11
1139.66302321555
 21
1377.536708514222
 31
0.0
  0
LINE
  5
4CB
330
1F
100
AcDbEntity
  8
LAY-10
  6
CONTINUOUS
 62
     7
100
AcDbLine
 10
1157.34069274515
 20
1377.536708514222
 30
0.0
 11
1139.66302321555
 21
1395.214378043222
 31
0.0
  0
LINE
  5
4CC
330
1F
100
AcDbEntity
  8
LAY-10
  6
CONTINUOUS
 62
     7
100
AcDbLine
 10
1157.34069274515
 20
1359.859038984222
 30
0.0
 11
1165.80768415605
 21
1368.326030395265
 31
0.0
  0
LINE
  5
4CD
330
1F
100
AcDbEntity
  8
LAY-10
  6
CONTINUOUS
 62
     7
100
AcDbLine
 10
1157.34069274515
 20
1324.503699925222
 30
0.0
 11
1165.80768415605
 21
1332.970691336265
 31
0.0
  0
LINE
  5
4CE
330
1F
100
AcDbEntity
  8
LAY-10
  6
CONTINUOUS
 62
     7
100
AcDbLine
 10
1139.66302321555
 20
1359.859038984222
 30
0.0
 11
1157.34069274515
 21
1342.181369455221
 31
0.0
  0
LINE
  5
4CF
330
1F
100
AcDbEntity
  8
LAY-10
  6
CONTINUOUS
 62
     7
100
AcDbLine
 10
1121.98535368585
 20
1377.536708514222
 30
0.0
 11
1104.30768415615
 21
1395.214378043222
 31
0.0
  0
LINE
  5
4D0
330
1F
100
AcDbEntity
  8
LAY-10
  6
CONTINUOUS
 62
     7
100
AcDbLine
 10
1104.30768415615
 20
1377.536708514222
 30
0.0
 11
1086.63001462645
 21
1359.859038984221
 31
0.0
  0
LINE
  5
4D1
330
1F
100
AcDbEntity
  8
LAY-10
  6
CONTINUOUS
 62
     7
100
AcDbLine
 10
1086.63001462645
 20
1342.181369455222
 30
0.0
 11
1068.95234509675
 21
1359.859038984221
 31
0.0
  0
LINE
  5
4D2
330
1F
100
AcDbEntity
  8
LAY-10
  6
CONTINUOUS
 62
     7
100
AcDbLine
 10
1121.985353685749
 20
1324.503699925222
 30
0.0
 11
1139.66302321545
 21
1342.181369455221
 31
0.0
  0
LINE
  5
4D3
330
1F
100
AcDbEntity
  8
LAY-10
  6
CONTINUOUS
 62
     7
100
AcDbLine
 10
1086.63001462645
 20
1324.503699925222
 30
0.0
 11
1104.30768415615
 21
1342.181369455222
 31
0.0
  0
LINE
  5
4D4
330
1F
100
AcDbEntity
  8
LAY-10
  6
CONTINUOUS
 62
     7
100
AcDbLine
 10
1121.985353685749
 20
1342.181369455221
 30
0.0
 11
1104.30768415615
 21
1359.859038984221
 31
0.0
  0
LINE
  5
4D5
330
1F
100
AcDbEntity
  8
LAY-10
  6
CONTINUOUS
 62
     7
100
AcDbLine
 10
1139.66302321555
 20
1412.892047573222
 30
0.0
 11
1121.98535368585
 21
1395.214378043222
 31
0.0
  0
LINE
  5
4D6
330
1F
100
AcDbEntity
  8
LAY-10
  6
CONTINUOUS
 62
     7
100
AcDbLine
 10
1157.34069274525
 20
1412.892047573222
 30
0.0
 11
1139.66302321555
 21
1430.569717102222
 31
0.0
  0
LINE
  5
4D7
330
1F
100
AcDbEntity
  8
LAY-10
  6
CONTINUOUS
 62
     7
100
AcDbLine
 10
1165.80768415605
 20
1439.036708513167
 30
0.0
 11
1157.34069274525
 21
1430.569717102222
 31
0.0
  0
LINE
  5
4D8
330
1F
100
AcDbEntity
  8
LAY-10
  6
CONTINUOUS
 62
     7
100
AcDbLine
 10
1026.952345096563
 20
1229.470691337221
 30
0.0
 11
1033.59700603745
 21
1236.115352278222
 31
0.0
  0
LINE
  5
4D9
330
1F
100
AcDbEntity
  8
LAY-10
  6
CONTINUOUS
 62
     7
100
AcDbLine
 10
991.5970060368861
 20
1229.470691337221
 30
0.0
 11
998.2416669771499
 21
1236.115352277222
 31
0.0
  0
LINE
  5
4DA
330
1F
100
AcDbEntity
  8
LAY-10
  6
CONTINUOUS
 62
     7
100
AcDbLine
 10
956.2416669772163
 20
1229.470691337221
 30
0.0
 11
962.88632791748
 21
1236.115352277222
 31
0.0
  0
LINE
  5
4DB
330
1F
100
AcDbEntity
  8
LAY-10
  6
CONTINUOUS
 62
     7
100
AcDbLine
 10
1051.27467556705
 20
1289.148360866222
 30
0.0
 11
1068.95234509675
 21
1306.826030396222
 31
0.0
  0
LINE
  5
4DC
330
1F
100
AcDbEntity
  8
LAY-10
  6
CONTINUOUS
 62
     7
100
AcDbLine
 10
1068.95234509675
 20
1342.181369455222
 30
0.0
 11
1051.27467556705
 21
1324.503699925222
 31
0.0
  0
LINE
  5
4DD
330
1F
100
AcDbEntity
  8
LAY-10
  6
CONTINUOUS
 62
     7
100
AcDbLine
 10
1121.98535368535
 20
1253.793021807823
 30
0.0
 11
1139.663023215049
 21
1271.470691337822
 31
0.0
  0
LINE
  5
4DE
330
1F
100
AcDbEntity
  8
LAY-10
  6
CONTINUOUS
 62
     7
100
AcDbLine
 10
1139.66302321535
 20
1253.793021808124
 30
0.0
 11
1157.34069274465
 21
1236.115352278825
 31
0.0
  0
LINE
  5
4DF
330
1F
100
AcDbEntity
  8
LAY-10
  6
CONTINUOUS
 62
     7
100
AcDbLine
 10
1157.34069274405
 20
1271.470691338222
 30
0.0
 11
1139.663023214749
 21
1289.148360867521
 31
0.0
  0
LINE
  5
4E0
330
1F
100
AcDbEntity
  8
LAY-10
  6
CONTINUOUS
 62
     7
100
AcDbLine
 10
1051.27467556705
 20
1253.793021807222
 30
0.0
 11
1064.807684156049
 21
1267.326030396451
 31
0.0
  0
LINE
  5
4E1
330
1F
100
AcDbEntity
  8
LAY-10
  6
CONTINUOUS
 62
     7
100
AcDbLine
 10
1121.985353685252
 20
1236.115352279422
 30
0.0
 11
1104.307684155951
 21
1253.793021808721
 31
0.0
  0
LINE
  5
4E2
330
1F
100
AcDbEntity
  8
LAY-10
  6
CONTINUOUS
 62
     7
100
AcDbLine
 10
1104.30768415725
 20
1271.470691337721
 30
0.0
 11
1086.630014627252
 21
1253.793021808019
 31
0.0
  0
LINE
  5
4E3
330
1F
100
AcDbEntity
  8
LAY-10
  6
CONTINUOUS
 62
     7
100
AcDbLine
 10
1068.952345098251
 20
1253.793021808018
 30
0.0
 11
1086.630014627253
 21
1236.11535227832
 31
0.0
  0
LINE
  5
4E4
330
1F
100
AcDbEntity
  8
LAY-10
  6
CONTINUOUS
 62
     7
100
AcDbLine
 10
1068.952345098248
 20
1289.148360867318
 30
0.0
 11
1086.630014627251
 21
1271.470691337719
 31
0.0
  0
LINE
  5
4E5
330
1F
100
AcDbEntity
  8
LAY-10
  6
CONTINUOUS
 62
     7
100
AcDbLine
 10
1104.307684158252
 20
1236.115352278421
 30
0.0
 11
1097.66302321694
 21
1229.470691337221
 31
0.0
  0
LINE
  5
4E6
330
1F
100
AcDbEntity
  8
LAY-10
  6
CONTINUOUS
 62
     7
100
AcDbLine
 10
1104.307684156349
 20
1289.148360866521
 30
0.0
 11
1121.985353685649
 21
1271.470691337221
 31
0.0
  0
LINE
  5
4E7
330
1F
100
AcDbEntity
  8
LAY-10
  6
CONTINUOUS
 62
     7
100
AcDbLine
 10
980.5639974494491
 20
1253.793021806222
 30
0.0
 11
998.2416669787492
 21
1271.470691336522
 31
0.0
  0
LINE
  5
4E8
330
1F
100
AcDbEntity
  8
LAY-10
  6
CONTINUOUS
 62
     7
100
AcDbLine
 10
749.8076841560883
 20
2299.470691337301
 30
0.0
 11
749.8076841560883
 21
1229.470691337302
 31
0.0
  0
LINE
  5
4E9
330
1F
100
AcDbEntity
  8
LAY-10
  6
CONTINUOUS
 62
     7
100
AcDbLine
 10
916.8803721322652
 20
2275.641690069252
 30
0.0
 11
899.6960318045094
 21
2292.826030397299
 31
0.0
  0
LINE
  5
4EA
330
1F
100
AcDbEntity
  8
LAY-10
  6
CONTINUOUS
 62
     7
100
AcDbLine
 10
775.9523450966084
 20
2292.826030394496
 30
0.0
 11
782.5970060390713
 21
2299.470691337297
 31
0.0
  0
LINE
  5
4EB
330
1F
100
AcDbEntity
  8
LAY-10
  6
CONTINUOUS
 62
     7
100
AcDbLine
 10
758.2746755684091
 20
2275.148360865696
 30
0.0
 11
749.8076841560841
 21
2266.681369453226
 31
0.0
  0
LINE
  5
4EC
330
1F
100
AcDbEntity
  8
LAY-10
  6
CONTINUOUS
 62
     7
100
AcDbLine
 10
853.3076841568131
 20
2299.470691337299
 30
0.0
 11
846.6630232146053
 21
2292.826030395503
 31
0.0
  0
LINE
  5
4ED
330
1F
100
AcDbEntity
  8
LAY-10
  6
CONTINUOUS
 62
     7
100
AcDbLine
 10
758.274675567109
 20
2239.793021809298
 30
0.0
 11
749.8076841561091
 21
2231.326030398154
 31
0.0
  0
LINE
  5
4EE
330
1F
100
AcDbEntity
  8
LAY-10
  6
CONTINUOUS
 62
     7
100
AcDbLine
 10
793.6300146264092
 20
2239.793021808298
 30
0.0
 11
775.9523450967091
 21
2222.1153522783
 31
0.0
  0
LINE
  5
4EF
330
1F
100
AcDbEntity
  8
LAY-10
  6
CONTINUOUS
 62
     7
100
AcDbLine
 10
775.9523450967091
 20
2204.437682749299
 30
0.0
 11
758.274675567009
 21
2222.1153522783
 31
0.0
  0
LINE
  5
4F0
330
1F
100
AcDbEntity
  8
LAY-10
  6
CONTINUOUS
 62
     7
100
AcDbLine
 10
811.307684156009
 20
2204.437682749298
 30
0.0
 11
793.6300146264092
 21
2222.1153522783
 31
0.0
  0
LINE
  5
4F1
330
1F
100
AcDbEntity
  8
LAY-10
  6
CONTINUOUS
 62
     7
100
AcDbLine
 10
899.6960318044089
 20
2257.470691337299
 30
0.0
 11
917.3737013341093
 21
2239.793021808298
 31
0.0
  0
LINE
  5
4F2
330
1F
100
AcDbEntity
  8
LAY-10
  6
CONTINUOUS
 62
     7
100
AcDbLine
 10
882.0183622748093
 20
2222.115352278299
 30
0.0
 11
899.6960318044089
 21
2239.793021808298
 31
0.0
  0
LINE
  5
4F3
330
1F
100
AcDbEntity
  8
LAY-10
  6
CONTINUOUS
 62
     7
100
AcDbLine
 10
882.0183622748093
 20
2257.470691337299
 30
0.0
 11
899.6960318044089
 21
2275.148360867299
 31
0.0
  0
LINE
  5
4F4
330
1F
100
AcDbEntity
  8
LAY-10
  6
CONTINUOUS
 62
     7
100
AcDbLine
 10
864.3406927451093
 20
2222.115352278299
 30
0.0
 11
882.0183622748093
 21
2204.437682749299
 31
0.0
  0
LINE
  5
4F5
330
1F
100
AcDbEntity
  8
LAY-10
  6
CONTINUOUS
 62
     7
100
AcDbLine
 10
828.9853536858093
 20
2239.793021808298
 30
0.0
 11
811.3076841561091
 21
2222.115352278299
 31
0.0
  0
LINE
  5
4F6
330
1F
100
AcDbEntity
  8
LAY-10
  6
CONTINUOUS
 62
     7
100
AcDbLine
 10
828.9853536858093
 20
2222.115352278299
 30
0.0
 11
846.6630232154089
 21
2204.437682749299
 31
0.0
  0
LINE
  5
4F7
330
1F
100
AcDbEntity
  8
LAY-10
  6
CONTINUOUS
 62
     7
100
AcDbLine
 10
864.3406927451093
 20
2257.470691337299
 30
0.0
 11
882.0183622748093
 21
2239.793021808298
 31
0.0
  0
LINE
  5
4F8
330
1F
100
AcDbEntity
  8
LAY-10
  6
CONTINUOUS
 62
     7
100
AcDbLine
 10
882.0183622748093
 20
2275.148360867299
 30
0.0
 11
864.3406927451093
 21
2292.826030397298
 31
0.0
  0
LINE
  5
4F9
330
1F
100
AcDbEntity
  8
LAY-10
  6
CONTINUOUS
 62
     7
100
AcDbLine
 10
758.274675566909
 20
2133.727004631298
 30
0.0
 11
749.8076841561091
 21
2125.260013220354
 31
0.0
  0
LINE
  5
4FA
330
1F
100
AcDbEntity
  8
LAY-10
  6
CONTINUOUS
 62
     7
100
AcDbLine
 10
793.6300146263092
 20
2169.082343690298
 30
0.0
 11
775.9523450966094
 21
2151.404674160299
 31
0.0
  0
LINE
  5
4FB
330
1F
100
AcDbEntity
  8
LAY-10
  6
CONTINUOUS
 62
     7
100
AcDbLine
 10
758.274675567009
 20
2151.404674160299
 30
0.0
 11
775.9523450966094
 21
2133.727004631299
 31
0.0
  0
LINE
  5
4FC
330
1F
100
AcDbEntity
  8
LAY-10
  6
CONTINUOUS
 62
     7
100
AcDbLine
 10
758.274675567009
 20
2169.082343690298
 30
0.0
 11
749.8076841561091
 21
2160.615352279255
 31
0.0
  0
LINE
  5
4FD
330
1F
100
AcDbEntity
  8
LAY-10
  6
CONTINUOUS
 62
     7
100
AcDbLine
 10
758.274675567009
 20
2204.437682749299
 30
0.0
 11
749.8076841561091
 21
2195.970691338255
 31
0.0
  0
LINE
  5
4FE
330
1F
100
AcDbEntity
  8
LAY-10
  6
CONTINUOUS
 62
     7
100
AcDbLine
 10
775.9523450966094
 20
2169.082343690298
 30
0.0
 11
758.274675567009
 21
2186.760013219299
 31
0.0
  0
LINE
  5
4FF
330
1F
100
AcDbEntity
  8
LAY-10
  6
CONTINUOUS
 62
     7
100
AcDbLine
 10
793.6300146263092
 20
2151.404674160299
 30
0.0
 11
811.307684156009
 21
2133.727004631299
 31
0.0
  0
LINE
  5
500
330
1F
100
AcDbEntity
  8
LAY-10
  6
CONTINUOUS
 62
     7
100
AcDbLine
 10
811.307684156009
 20
2151.404674160299
 30
0.0
 11
828.9853536857092
 21
2169.082343690299
 31
0.0
  0
LINE
  5
501
330
1F
100
AcDbEntity
  8
LAY-10
  6
CONTINUOUS
 62
     7
100
AcDbLine
 10
828.9853536857092
 20
2186.760013219298
 30
0.0
 11
846.6630232154089
 21
2169.082343690299
 31
0.0
  0
LINE
  5
502
330
1F
100
AcDbEntity
  8
LAY-10
  6
CONTINUOUS
 62
     7
100
AcDbLine
 10
793.6300146264092
 20
2204.437682749299
 30
0.0
 11
775.9523450967091
 21
2186.760013219299
 31
0.0
  0
LINE
  5
503
330
1F
100
AcDbEntity
  8
LAY-10
  6
CONTINUOUS
 62
     7
100
AcDbLine
 10
828.9853536857092
 20
2204.437682749298
 30
0.0
 11
811.307684156009
 21
2186.760013219298
 31
0.0
  0
LINE
  5
504
330
1F
100
AcDbEntity
  8
LAY-10
  6
CONTINUOUS
 62
     7
100
AcDbLine
 10
793.6300146264092
 20
2186.760013219299
 30
0.0
 11
811.307684156009
 21
2169.082343690299
 31
0.0
  0
LINE
  5
505
330
1F
100
AcDbEntity
  8
LAY-10
  6
CONTINUOUS
 62
     7
100
AcDbLine
 10
775.9523450966094
 20
2116.049335101298
 30
0.0
 11
793.6300146263092
 21
2133.727004631299
 31
0.0
  0
LINE
  5
506
330
1F
100
AcDbEntity
  8
LAY-10
  6
CONTINUOUS
 62
     7
100
AcDbLine
 10
758.274675566909
 20
2116.049335101298
 30
0.0
 11
775.9523450966094
 21
2098.371665572298
 31
0.0
  0
LINE
  5
507
330
1F
100
AcDbEntity
  8
LAY-10
  6
CONTINUOUS
 62
     7
100
AcDbLine
 10
749.8076841561091
 20
2089.904674161354
 30
0.0
 11
758.274675566909
 21
2098.371665572298
 31
0.0
  0
LINE
  5
508
330
1F
100
AcDbEntity
  8
LAY-10
  6
CONTINUOUS
 62
     7
100
AcDbLine
 10
888.6630232155962
 20
2299.470691337299
 30
0.0
 11
882.0183622747093
 21
2292.826030396299
 31
0.0
  0
LINE
  5
509
330
1F
100
AcDbEntity
  8
LAY-10
  6
CONTINUOUS
 62
     7
100
AcDbLine
 10
924.0183622752729
 20
2299.470691337299
 30
0.0
 11
917.3737013350092
 21
2292.826030397298
 31
0.0
  0
LINE
  5
50A
330
1F
100
AcDbEntity
  8
LAY-10
  6
CONTINUOUS
 62
     7
100
AcDbLine
 10
959.3737013349428
 20
2299.470691337299
 30
0.0
 11
952.729040394679
 21
2292.826030397298
 31
0.0
  0
LINE
  5
50B
330
1F
100
AcDbEntity
  8
LAY-10
  6
CONTINUOUS
 62
     7
100
AcDbLine
 10
864.3406927451093
 20
2239.793021808298
 30
0.0
 11
846.6630232154089
 21
2222.115352278299
 31
0.0
  0
LINE
  5
50C
330
1F
100
AcDbEntity
  8
LAY-10
  6
CONTINUOUS
 62
     7
100
AcDbLine
 10
846.6630232154089
 20
2186.760013219298
 30
0.0
 11
864.3406927451093
 21
2204.437682749299
 31
0.0
  0
LINE
  5
50D
330
1F
100
AcDbEntity
  8
LAY-10
  6
CONTINUOUS
 62
     7
100
AcDbLine
 10
793.6300146268085
 20
2275.148360866698
 30
0.0
 11
775.9523450971096
 21
2257.470691336698
 31
0.0
  0
LINE
  5
50E
330
1F
100
AcDbEntity
  8
LAY-10
  6
CONTINUOUS
 62
     7
100
AcDbLine
 10
775.9523450968092
 20
2275.148360866397
 30
0.0
 11
758.2746755675086
 21
2292.826030395696
 31
0.0
  0
LINE
  5
50F
330
1F
100
AcDbEntity
  8
LAY-10
  6
CONTINUOUS
 62
     7
100
AcDbLine
 10
758.2746755681088
 20
2257.470691336298
 30
0.0
 11
775.9523450974098
 21
2239.793021806999
 31
0.0
  0
LINE
  5
510
330
1F
100
AcDbEntity
  8
LAY-10
  6
CONTINUOUS
 62
     7
100
AcDbLine
 10
864.3406927451093
 20
2275.148360867299
 30
0.0
 11
850.8076841561098
 21
2261.61535227807
 31
0.0
  0
LINE
  5
511
330
1F
100
AcDbEntity
  8
LAY-10
  6
CONTINUOUS
 62
     7
100
AcDbLine
 10
793.6300146269072
 20
2292.826030395098
 30
0.0
 11
811.3076841562078
 21
2275.148360865799
 31
0.0
  0
LINE
  5
512
330
1F
100
AcDbEntity
  8
LAY-10
  6
CONTINUOUS
 62
     7
100
AcDbLine
 10
811.3076841549085
 20
2257.470691336799
 30
0.0
 11
828.9853536849068
 21
2275.148360866501
 31
0.0
  0
LINE
  5
513
330
1F
100
AcDbEntity
  8
LAY-10
  6
CONTINUOUS
 62
     7
100
AcDbLine
 10
846.6630232139079
 20
2275.148360866502
 30
0.0
 11
828.9853536849055
 21
2292.826030396201
 31
0.0
  0
LINE
  5
514
330
1F
100
AcDbEntity
  8
LAY-10
  6
CONTINUOUS
 62
     7
100
AcDbLine
 10
846.6630232139105
 20
2239.793021807202
 30
0.0
 11
828.9853536849082
 21
2257.470691336801
 31
0.0
  0
LINE
  5
515
330
1F
100
AcDbEntity
  8
LAY-10
  6
CONTINUOUS
 62
     7
100
AcDbLine
 10
811.3076841539074
 20
2292.8260303961
 30
0.0
 11
817.9523450952191
 21
2299.470691337299
 31
0.0
  0
LINE
  5
516
330
1F
100
AcDbEntity
  8
LAY-10
  6
CONTINUOUS
 62
     7
100
AcDbLine
 10
811.3076841558094
 20
2239.793021807999
 30
0.0
 11
793.6300146265099
 21
2257.470691337299
 31
0.0
  0
LINE
  5
517
330
1F
100
AcDbEntity
  8
LAY-10
  6
CONTINUOUS
 62
     7
100
AcDbLine
 10
935.05137086271
 20
2275.148360868298
 30
0.0
 11
917.3737013334098
 21
2257.470691337999
 31
0.0
  0
LINE
  5
518
330
1F
100
AcDbEntity
  8
LAY-10
  6
CONTINUOUS
 62
     7
100
AcDbLine
 10
749.8076841560883
 20
2299.470691337301
 30
0.0
 11
1165.807684156088
 21
2299.470691337303
 31
0.0
  0
LINE
  5
519
330
1F
100
AcDbEntity
  8
LAY-10
  6
CONTINUOUS
 62
     7
100
AcDbLine
 10
749.8076841560883
 20
1229.470691337302
 30
0.0
 11
1165.80768415609
 21
1229.470691337303
 31
0.0
  0
LINE
  5
51A
330
1F
100
AcDbEntity
  8
LAY-10
  6
CONTINUOUS
 62
     7
100
AcDbLine
 10
935.051370862011
 20
2292.826030397998
 30
0.0
 11
946.682072029284
 21
2281.195329231185
 31
0.0
  0
LINE
  5
51B
330
1F
100
AcDbEntity
  8
LAY-10
  6
CONTINUOUS
 62
     7
100
AcDbLine
 10
980.563997450148
 20
1236.115352276523
 30
0.0
 11
968.9332962827809
 21
1247.74605344343
 31
0.0
  0
CIRCLE
  5
51C
330
1F
100
AcDbEntity
  8
LAY-10
  6
CONTINUOUS
 62
     7
100
AcDbCircle
 10
1375.80768415617
 20
2274.4706913373
 30
0.0
 40
13.00000000000001
  0
LINE
  5
51D
330
1F
100
AcDbEntity
  8
LAY-10
  6
CONTINUOUS
 62
     7
100
AcDbLine
 10
1371.80768415617
 20
2274.470691337306
 30
0.0
 11
1375.80768415617
 21
2267.970691337306
 31
0.0
  0
LINE
  5
51E
330
1F
100
AcDbEntity
  8
LAY-10
  6
CONTINUOUS
 62
     7
100
AcDbLine
 10
1375.80768415617
 20
2280.970691337306
 30
0.0
 11
1371.80768415617
 21
2274.470691337306
 31
0.0
  0
LINE
  5
51F
330
1F
100
AcDbEntity
  8
LAY-10
  6
CONTINUOUS
 62
     7
100
AcDbLine
 10
1379.80768415617
 20
2274.470691337306
 30
0.0
 11
1375.80768415617
 21
2280.970691337306
 31
0.0
  0
LINE
  5
520
330
1F
100
AcDbEntity
  8
LAY-10
  6
CONTINUOUS
 62
     7
100
AcDbLine
 10
1375.80768415617
 20
2267.970691337306
 30
0.0
 11
1379.80768415617
 21
2274.470691337306
 31
0.0
  0
ARC
  5
521
330
1F
100
AcDbEntity
  8
LAY-10
  6
CONTINUOUS
 62
     7
100
AcDbCircle
 10
1375.80768415617
 20
2274.470691337306
 30
0.0
 40
12.75000000000001
100
AcDbArc
 50
18.2838899404031
 51
341.7161100595971
  0
LINE
  5
522
330
1F
100
AcDbEntity
  8
LAY-10
  6
CONTINUOUS
 62
     7
100
AcDbLine
 10
1386.30768415617
 20
2278.470691337305
 30
0.0
 11
1386.30768415617
 21
2270.470691337307
 31
0.0
  0
LINE
  5
523
330
1F
100
AcDbEntity
  8
LAY-10
  6
CONTINUOUS
 62
     7
100
AcDbLine
 10
1386.30768415617
 20
2278.470691337305
 30
0.0
 11
1387.913984168973
 21
2278.470691337305
 31
0.0
  0
LINE
  5
524
330
1F
100
AcDbEntity
  8
LAY-10
  6
CONTINUOUS
 62
     7
100
AcDbLine
 10
1386.30768415617
 20
2270.470691337307
 30
0.0
 11
1387.913984168973
 21
2270.470691337307
 31
0.0
  0
CIRCLE
  5
525
330
1F
100
AcDbEntity
  8
LAY-10
  6
CONTINUOUS
 62
     7
100
AcDbCircle
 10
1375.80768415617
 20
1254.470691337505
 30
0.0
 40
13.00000000000001
  0
LINE
  5
526
330
1F
100
AcDbEntity
  8
LAY-10
  6
CONTINUOUS
 62
     7
100
AcDbLine
 10
1371.80768415617
 20
1254.4706913375
 30
0.0
 11
1375.80768415617
 21
1260.9706913375
 31
0.0
  0
LINE
  5
527
330
1F
100
AcDbEntity
  8
LAY-10
  6
CONTINUOUS
 62
     7
100
AcDbLine
 10
1375.80768415617
 20
1247.9706913375
 30
0.0
 11
1371.80768415617
 21
1254.4706913375
 31
0.0
  0
LINE
  5
528
330
1F
100
AcDbEntity
  8
LAY-10
  6
CONTINUOUS
 62
     7
100
AcDbLine
 10
1379.80768415617
 20
1254.4706913375
 30
0.0
 11
1375.80768415617
 21
1247.9706913375
 31
0.0
  0
LINE
  5
529
330
1F
100
AcDbEntity
  8
LAY-10
  6
CONTINUOUS
 62
     7
100
AcDbLine
 10
1375.80768415617
 20
1260.9706913375
 30
0.0
 11
1379.80768415617
 21
1254.4706913375
 31
0.0
  0
ARC
  5
52A
330
1F
100
AcDbEntity
  8
LAY-10
  6
CONTINUOUS
 62
     7
100
AcDbCircle
 10
1375.80768415617
 20
1254.4706913375
 30
0.0
 40
12.75000000000001
100
AcDbArc
 50
18.2838899404031
 51
341.716110059597
  0
LINE
  5
52B
330
1F
100
AcDbEntity
  8
LAY-10
  6
CONTINUOUS
 62
     7
100
AcDbLine
 10
1386.30768415617
 20
1250.470691337501
 30
0.0
 11
1386.30768415617
 21
1258.470691337499
 31
0.0
  0
LINE
  5
52C
330
1F
100
AcDbEntity
  8
LAY-10
  6
CONTINUOUS
 62
     7
100
AcDbLine
 10
1386.30768415617
 20
1250.470691337501
 30
0.0
 11
1387.913984168973
 21
1250.470691337501
 31
0.0
  0
LINE
  5
52D
330
1F
100
AcDbEntity
  8
LAY-10
  6
CONTINUOUS
 62
     7
100
AcDbLine
 10
1386.30768415617
 20
1258.470691337499
 30
0.0
 11
1387.913984168973
 21
1258.470691337499
 31
0.0
  0
LINE
  5
52E
330
1F
100
AcDbEntity
  8
LAY-10
  6
CONTINUOUS
 62
     7
100
AcDbLine
 10
1583.80768415617
 20
1229.470691337303
 30
0.0
 11
1583.807684156168
 21
2299.470691337303
 31
0.0
  0
LINE
  5
52F
330
1F
100
AcDbEntity
  8
LAY-10
  6
CONTINUOUS
 62
     7
100
AcDbLine
 10
1416.734996179974
 20
1253.299692605268
 30
0.0
 11
1433.919336507729
 21
1236.115352277221
 31
0.0
  0
LINE
  5
530
330
1F
100
AcDbEntity
  8
LAY-10
  6
CONTINUOUS
 62
     7
100
AcDbLine
 10
1557.66302321563
 20
1236.115352280024
 30
0.0
 11
1551.018362273168
 21
1229.470691337223
 31
0.0
  0
LINE
  5
531
330
1F
100
AcDbEntity
  8
LAY-10
  6
CONTINUOUS
 62
     7
100
AcDbLine
 10
1575.34069274383
 20
1253.793021808824
 30
0.0
 11
1583.807684156155
 21
1262.260013221295
 31
0.0
  0
LINE
  5
532
330
1F
100
AcDbEntity
  8
LAY-10
  6
CONTINUOUS
 62
     7
100
AcDbLine
 10
1480.307684155426
 20
1229.470691337221
 30
0.0
 11
1486.952345097633
 21
1236.115352279017
 31
0.0
  0
LINE
  5
533
330
1F
100
AcDbEntity
  8
LAY-10
  6
CONTINUOUS
 62
     7
100
AcDbLine
 10
1575.34069274513
 20
1289.148360865222
 30
0.0
 11
1583.80768415613
 21
1297.615352276366
 31
0.0
  0
LINE
  5
534
330
1F
100
AcDbEntity
  8
LAY-10
  6
CONTINUOUS
 62
     7
100
AcDbLine
 10
1539.98535368583
 20
1289.148360866222
 30
0.0
 11
1557.66302321553
 21
1306.826030396221
 31
0.0
  0
LINE
  5
535
330
1F
100
AcDbEntity
  8
LAY-10
  6
CONTINUOUS
 62
     7
100
AcDbLine
 10
1557.66302321553
 20
1324.503699925222
 30
0.0
 11
1575.34069274523
 21
1306.826030396221
 31
0.0
  0
LINE
  5
536
330
1F
100
AcDbEntity
  8
LAY-10
  6
CONTINUOUS
 62
     7
100
AcDbLine
 10
1522.30768415623
 20
1324.503699925222
 30
0.0
 11
1539.98535368583
 21
1306.826030396221
 31
0.0
  0
LINE
  5
537
330
1F
100
AcDbEntity
  8
LAY-10
  6
CONTINUOUS
 62
     7
100
AcDbLine
 10
1433.91933650783
 20
1271.470691337221
 30
0.0
 11
1416.24166697813
 21
1289.148360866222
 31
0.0
  0
LINE
  5
538
330
1F
100
AcDbEntity
  8
LAY-10
  6
CONTINUOUS
 62
     7
100
AcDbLine
 10
1451.59700603743
 20
1306.826030396222
 30
0.0
 11
1433.91933650783
 21
1289.148360866222
 31
0.0
  0
LINE
  5
539
330
1F
100
AcDbEntity
  8
LAY-10
  6
CONTINUOUS
 62
     7
100
AcDbLine
 10
1451.59700603743
 20
1271.470691337221
 30
0.0
 11
1433.91933650783
 21
1253.793021807222
 31
0.0
  0
LINE
  5
53A
330
1F
100
AcDbEntity
  8
LAY-10
  6
CONTINUOUS
 62
     7
100
AcDbLine
 10
1469.27467556713
 20
1306.826030396222
 30
0.0
 11
1451.59700603743
 21
1324.503699925222
 31
0.0
  0
LINE
  5
53B
330
1F
100
AcDbEntity
  8
LAY-10
  6
CONTINUOUS
 62
     7
100
AcDbLine
 10
1504.63001462643
 20
1289.148360866222
 30
0.0
 11
1522.30768415613
 21
1306.826030396222
 31
0.0
  0
LINE
  5
53C
330
1F
100
AcDbEntity
  8
LAY-10
  6
CONTINUOUS
 62
     7
100
AcDbLine
 10
1504.63001462643
 20
1306.826030396222
 30
0.0
 11
1486.95234509683
 21
1324.503699925222
 31
0.0
  0
LINE
  5
53D
330
1F
100
AcDbEntity
  8
LAY-10
  6
CONTINUOUS
 62
     7
100
AcDbLine
 10
1469.27467556713
 20
1271.470691337221
 30
0.0
 11
1451.59700603743
 21
1289.148360866222
 31
0.0
  0
LINE
  5
53E
330
1F
100
AcDbEntity
  8
LAY-10
  6
CONTINUOUS
 62
     7
100
AcDbLine
 10
1451.59700603743
 20
1253.793021807222
 30
0.0
 11
1469.27467556713
 21
1236.115352277222
 31
0.0
  0
LINE
  5
53F
330
1F
100
AcDbEntity
  8
LAY-10
  6
CONTINUOUS
 62
     7
100
AcDbLine
 10
1575.34069274533
 20
1395.214378043222
 30
0.0
 11
1583.80768415613
 21
1403.681369454166
 31
0.0
  0
LINE
  5
540
330
1F
100
AcDbEntity
  8
LAY-10
  6
CONTINUOUS
 62
     7
100
AcDbLine
 10
1539.98535368593
 20
1359.859038984222
 30
0.0
 11
1557.663023215629
 21
1377.536708514222
 31
0.0
  0
LINE
  5
541
330
1F
100
AcDbEntity
  8
LAY-10
  6
CONTINUOUS
 62
     7
100
AcDbLine
 10
1575.34069274523
 20
1377.536708514222
 30
0.0
 11
1557.663023215629
 21
1395.214378043222
 31
0.0
  0
LINE
  5
542
330
1F
100
AcDbEntity
  8
LAY-10
  6
CONTINUOUS
 62
     7
100
AcDbLine
 10
1575.34069274523
 20
1359.859038984222
 30
0.0
 11
1583.80768415613
 21
1368.326030395265
 31
0.0
  0
LINE
  5
543
330
1F
100
AcDbEntity
  8
LAY-10
  6
CONTINUOUS
 62
     7
100
AcDbLine
 10
1575.34069274523
 20
1324.503699925222
 30
0.0
 11
1583.80768415613
 21
1332.970691336265
 31
0.0
  0
LINE
  5
544
330
1F
100
AcDbEntity
  8
LAY-10
  6
CONTINUOUS
 62
     7
100
AcDbLine
 10
1557.663023215629
 20
1359.859038984222
 30
0.0
 11
1575.34069274523
 21
1342.181369455221
 31
0.0
  0
LINE
  5
545
330
1F
100
AcDbEntity
  8
LAY-10
  6
CONTINUOUS
 62
     7
100
AcDbLine
 10
1539.98535368593
 20
1377.536708514222
 30
0.0
 11
1522.30768415623
 21
1395.214378043222
 31
0.0
  0
LINE
  5
546
330
1F
100
AcDbEntity
  8
LAY-10
  6
CONTINUOUS
 62
     7
100
AcDbLine
 10
1522.30768415623
 20
1377.536708514222
 30
0.0
 11
1504.63001462653
 21
1359.859038984221
 31
0.0
  0
LINE
  5
547
330
1F
100
AcDbEntity
  8
LAY-10
  6
CONTINUOUS
 62
     7
100
AcDbLine
 10
1504.63001462653
 20
1342.181369455222
 30
0.0
 11
1486.95234509683
 21
1359.859038984221
 31
0.0
  0
LINE
  5
548
330
1F
100
AcDbEntity
  8
LAY-10
  6
CONTINUOUS
 62
     7
100
AcDbLine
 10
1539.98535368583
 20
1324.503699925222
 30
0.0
 11
1557.66302321553
 21
1342.181369455221
 31
0.0
  0
LINE
  5
549
330
1F
100
AcDbEntity
  8
LAY-10
  6
CONTINUOUS
 62
     7
100
AcDbLine
 10
1504.63001462653
 20
1324.503699925222
 30
0.0
 11
1522.30768415623
 21
1342.181369455222
 31
0.0
  0
LINE
  5
54A
330
1F
100
AcDbEntity
  8
LAY-10
  6
CONTINUOUS
 62
     7
100
AcDbLine
 10
1539.98535368583
 20
1342.181369455221
 30
0.0
 11
1522.30768415623
 21
1359.859038984221
 31
0.0
  0
LINE
  5
54B
330
1F
100
AcDbEntity
  8
LAY-10
  6
CONTINUOUS
 62
     7
100
AcDbLine
 10
1557.663023215629
 20
1412.892047573222
 30
0.0
 11
1539.98535368593
 21
1395.214378043222
 31
0.0
  0
LINE
  5
54C
330
1F
100
AcDbEntity
  8
LAY-10
  6
CONTINUOUS
 62
     7
100
AcDbLine
 10
1575.34069274533
 20
1412.892047573222
 30
0.0
 11
1557.663023215629
 21
1430.569717102222
 31
0.0
  0
LINE
  5
54D
330
1F
100
AcDbEntity
  8
LAY-10
  6
CONTINUOUS
 62
     7
100
AcDbLine
 10
1583.80768415613
 20
1439.036708513167
 30
0.0
 11
1575.34069274533
 21
1430.569717102222
 31
0.0
  0
LINE
  5
54E
330
1F
100
AcDbEntity
  8
LAY-10
  6
CONTINUOUS
 62
     7
100
AcDbLine
 10
1444.952345096643
 20
1229.470691337221
 30
0.0
 11
1451.59700603753
 21
1236.115352278222
 31
0.0
  0
LINE
  5
54F
330
1F
100
AcDbEntity
  8
LAY-10
  6
CONTINUOUS
 62
     7
100
AcDbLine
 10
1409.597006036966
 20
1229.470691337221
 30
0.0
 11
1416.24166697723
 21
1236.115352277222
 31
0.0
  0
LINE
  5
550
330
1F
100
AcDbEntity
  8
LAY-10
  6
CONTINUOUS
 62
     7
100
AcDbLine
 10
1374.241666977296
 20
1229.470691337221
 30
0.0
 11
1380.88632791756
 21
1236.115352277222
 31
0.0
  0
LINE
  5
551
330
1F
100
AcDbEntity
  8
LAY-10
  6
CONTINUOUS
 62
     7
100
AcDbLine
 10
1469.27467556713
 20
1289.148360866222
 30
0.0
 11
1486.95234509683
 21
1306.826030396222
 31
0.0
  0
LINE
  5
552
330
1F
100
AcDbEntity
  8
LAY-10
  6
CONTINUOUS
 62
     7
100
AcDbLine
 10
1486.95234509683
 20
1342.181369455222
 30
0.0
 11
1469.27467556713
 21
1324.503699925222
 31
0.0
  0
LINE
  5
553
330
1F
100
AcDbEntity
  8
LAY-10
  6
CONTINUOUS
 62
     7
100
AcDbLine
 10
1539.98535368543
 20
1253.793021807823
 30
0.0
 11
1557.663023215129
 21
1271.470691337822
 31
0.0
  0
LINE
  5
554
330
1F
100
AcDbEntity
  8
LAY-10
  6
CONTINUOUS
 62
     7
100
AcDbLine
 10
1557.66302321543
 20
1253.793021808124
 30
0.0
 11
1575.34069274473
 21
1236.115352278825
 31
0.0
  0
LINE
  5
555
330
1F
100
AcDbEntity
  8
LAY-10
  6
CONTINUOUS
 62
     7
100
AcDbLine
 10
1575.34069274413
 20
1271.470691338222
 30
0.0
 11
1557.663023214829
 21
1289.148360867521
 31
0.0
  0
LINE
  5
556
330
1F
100
AcDbEntity
  8
LAY-10
  6
CONTINUOUS
 62
     7
100
AcDbLine
 10
1469.27467556713
 20
1253.793021807222
 30
0.0
 11
1482.807684156129
 21
1267.326030396451
 31
0.0
  0
LINE
  5
557
330
1F
100
AcDbEntity
  8
LAY-10
  6
CONTINUOUS
 62
     7
100
AcDbLine
 10
1539.985353685332
 20
1236.115352279422
 30
0.0
 11
1522.307684156031
 21
1253.793021808721
 31
0.0
  0
LINE
  5
558
330
1F
100
AcDbEntity
  8
LAY-10
  6
CONTINUOUS
 62
     7
100
AcDbLine
 10
1522.30768415733
 20
1271.470691337721
 30
0.0
 11
1504.630014627332
 21
1253.793021808019
 31
0.0
  0
LINE
  5
559
330
1F
100
AcDbEntity
  8
LAY-10
  6
CONTINUOUS
 62
     7
100
AcDbLine
 10
1486.952345098331
 20
1253.793021808018
 30
0.0
 11
1504.630014627333
 21
1236.11535227832
 31
0.0
  0
LINE
  5
55A
330
1F
100
AcDbEntity
  8
LAY-10
  6
CONTINUOUS
 62
     7
100
AcDbLine
 10
1486.952345098328
 20
1289.148360867318
 30
0.0
 11
1504.630014627331
 21
1271.470691337719
 31
0.0
  0
LINE
  5
55B
330
1F
100
AcDbEntity
  8
LAY-10
  6
CONTINUOUS
 62
     7
100
AcDbLine
 10
1522.307684158332
 20
1236.115352278421
 30
0.0
 11
1515.663023217019
 21
1229.470691337221
 31
0.0
  0
LINE
  5
55C
330
1F
100
AcDbEntity
  8
LAY-10
  6
CONTINUOUS
 62
     7
100
AcDbLine
 10
1522.307684156429
 20
1289.148360866521
 30
0.0
 11
1539.985353685729
 21
1271.470691337221
 31
0.0
  0
LINE
  5
55D
330
1F
100
AcDbEntity
  8
LAY-10
  6
CONTINUOUS
 62
     7
100
AcDbLine
 10
1398.563997449529
 20
1253.793021806222
 30
0.0
 11
1416.241666978829
 21
1271.470691336522
 31
0.0
  0
LINE
  5
55E
330
1F
100
AcDbEntity
  8
LAY-10
  6
CONTINUOUS
 62
     7
100
AcDbLine
 10
1167.807684156168
 20
2299.470691337301
 30
0.0
 11
1167.807684156168
 21
1229.470691337302
 31
0.0
  0
LINE
  5
55F
330
1F
100
AcDbEntity
  8
LAY-10
  6
CONTINUOUS
 62
     7
100
AcDbLine
 10
1334.880372132345
 20
2275.641690069252
 30
0.0
 11
1317.696031804589
 21
2292.826030397299
 31
0.0
  0
LINE
  5
560
330
1F
100
AcDbEntity
  8
LAY-10
  6
CONTINUOUS
 62
     7
100
AcDbLine
 10
1193.952345096688
 20
2292.826030394496
 30
0.0
 11
1200.597006039151
 21
2299.470691337297
 31
0.0
  0
LINE
  5
561
330
1F
100
AcDbEntity
  8
LAY-10
  6
CONTINUOUS
 62
     7
100
AcDbLine
 10
1176.274675568489
 20
2275.148360865696
 30
0.0
 11
1167.807684156164
 21
2266.681369453226
 31
0.0
  0
LINE
  5
562
330
1F
100
AcDbEntity
  8
LAY-10
  6
CONTINUOUS
 62
     7
100
AcDbLine
 10
1271.307684156893
 20
2299.470691337299
 30
0.0
 11
1264.663023214685
 21
2292.826030395503
 31
0.0
  0
LINE
  5
563
330
1F
100
AcDbEntity
  8
LAY-10
  6
CONTINUOUS
 62
     7
100
AcDbLine
 10
1176.274675567189
 20
2239.793021809298
 30
0.0
 11
1167.807684156189
 21
2231.326030398154
 31
0.0
  0
LINE
  5
564
330
1F
100
AcDbEntity
  8
LAY-10
  6
CONTINUOUS
 62
     7
100
AcDbLine
 10
1211.630014626489
 20
2239.793021808298
 30
0.0
 11
1193.952345096789
 21
2222.1153522783
 31
0.0
  0
LINE
  5
565
330
1F
100
AcDbEntity
  8
LAY-10
  6
CONTINUOUS
 62
     7
100
AcDbLine
 10
1193.952345096789
 20
2204.437682749299
 30
0.0
 11
1176.274675567089
 21
2222.1153522783
 31
0.0
  0
LINE
  5
566
330
1F
100
AcDbEntity
  8
LAY-10
  6
CONTINUOUS
 62
     7
100
AcDbLine
 10
1229.307684156089
 20
2204.437682749298
 30
0.0
 11
1211.630014626489
 21
2222.1153522783
 31
0.0
  0
LINE
  5
567
330
1F
100
AcDbEntity
  8
LAY-10
  6
CONTINUOUS
 62
     7
100
AcDbLine
 10
1317.696031804489
 20
2257.470691337299
 30
0.0
 11
1335.373701334189
 21
2239.793021808298
 31
0.0
  0
LINE
  5
568
330
1F
100
AcDbEntity
  8
LAY-10
  6
CONTINUOUS
 62
     7
100
AcDbLine
 10
1300.018362274889
 20
2222.115352278299
 30
0.0
 11
1317.696031804489
 21
2239.793021808298
 31
0.0
  0
LINE
  5
569
330
1F
100
AcDbEntity
  8
LAY-10
  6
CONTINUOUS
 62
     7
100
AcDbLine
 10
1300.018362274889
 20
2257.470691337299
 30
0.0
 11
1317.696031804489
 21
2275.148360867299
 31
0.0
  0
LINE
  5
56A
330
1F
100
AcDbEntity
  8
LAY-10
  6
CONTINUOUS
 62
     7
100
AcDbLine
 10
1282.340692745189
 20
2222.115352278299
 30
0.0
 11
1300.018362274889
 21
2204.437682749299
 31
0.0
  0
LINE
  5
56B
330
1F
100
AcDbEntity
  8
LAY-10
  6
CONTINUOUS
 62
     7
100
AcDbLine
 10
1246.985353685889
 20
2239.793021808298
 30
0.0
 11
1229.307684156189
 21
2222.115352278299
 31
0.0
  0
LINE
  5
56C
330
1F
100
AcDbEntity
  8
LAY-10
  6
CONTINUOUS
 62
     7
100
AcDbLine
 10
1246.985353685889
 20
2222.115352278299
 30
0.0
 11
1264.663023215489
 21
2204.437682749299
 31
0.0
  0
LINE
  5
56D
330
1F
100
AcDbEntity
  8
LAY-10
  6
CONTINUOUS
 62
     7
100
AcDbLine
 10
1282.340692745189
 20
2257.470691337299
 30
0.0
 11
1300.018362274889
 21
2239.793021808298
 31
0.0
  0
LINE
  5
56E
330
1F
100
AcDbEntity
  8
LAY-10
  6
CONTINUOUS
 62
     7
100
AcDbLine
 10
1300.018362274889
 20
2275.148360867299
 30
0.0
 11
1282.340692745189
 21
2292.826030397298
 31
0.0
  0
LINE
  5
56F
330
1F
100
AcDbEntity
  8
LAY-10
  6
CONTINUOUS
 62
     7
100
AcDbLine
 10
1176.274675566989
 20
2133.727004631298
 30
0.0
 11
1167.807684156189
 21
2125.260013220354
 31
0.0
  0
LINE
  5
570
330
1F
100
AcDbEntity
  8
LAY-10
  6
CONTINUOUS
 62
     7
100
AcDbLine
 10
1211.630014626389
 20
2169.082343690298
 30
0.0
 11
1193.952345096689
 21
2151.404674160299
 31
0.0
  0
LINE
  5
571
330
1F
100
AcDbEntity
  8
LAY-10
  6
CONTINUOUS
 62
     7
100
AcDbLine
 10
1176.274675567089
 20
2151.404674160299
 30
0.0
 11
1193.952345096689
 21
2133.727004631299
 31
0.0
  0
LINE
  5
572
330
1F
100
AcDbEntity
  8
LAY-10
  6
CONTINUOUS
 62
     7
100
AcDbLine
 10
1176.274675567089
 20
2169.082343690298
 30
0.0
 11
1167.807684156189
 21
2160.615352279255
 31
0.0
  0
LINE
  5
573
330
1F
100
AcDbEntity
  8
LAY-10
  6
CONTINUOUS
 62
     7
100
AcDbLine
 10
1176.274675567089
 20
2204.437682749299
 30
0.0
 11
1167.807684156189
 21
2195.970691338255
 31
0.0
  0
LINE
  5
574
330
1F
100
AcDbEntity
  8
LAY-10
  6
CONTINUOUS
 62
     7
100
AcDbLine
 10
1193.952345096689
 20
2169.082343690298
 30
0.0
 11
1176.274675567089
 21
2186.760013219299
 31
0.0
  0
LINE
  5
575
330
1F
100
AcDbEntity
  8
LAY-10
  6
CONTINUOUS
 62
     7
100
AcDbLine
 10
1211.630014626389
 20
2151.404674160299
 30
0.0
 11
1229.307684156089
 21
2133.727004631299
 31
0.0
  0
LINE
  5
576
330
1F
100
AcDbEntity
  8
LAY-10
  6
CONTINUOUS
 62
     7
100
AcDbLine
 10
1229.307684156089
 20
2151.404674160299
 30
0.0
 11
1246.985353685789
 21
2169.082343690299
 31
0.0
  0
LINE
  5
577
330
1F
100
AcDbEntity
  8
LAY-10
  6
CONTINUOUS
 62
     7
100
AcDbLine
 10
1246.985353685789
 20
2186.760013219298
 30
0.0
 11
1264.663023215489
 21
2169.082343690299
 31
0.0
  0
LINE
  5
578
330
1F
100
AcDbEntity
  8
LAY-10
  6
CONTINUOUS
 62
     7
100
AcDbLine
 10
1211.630014626489
 20
2204.437682749299
 30
0.0
 11
1193.952345096789
 21
2186.760013219299
 31
0.0
  0
LINE
  5
579
330
1F
100
AcDbEntity
  8
LAY-10
  6
CONTINUOUS
 62
     7
100
AcDbLine
 10
1246.985353685789
 20
2204.437682749298
 30
0.0
 11
1229.307684156089
 21
2186.760013219298
 31
0.0
  0
LINE
  5
57A
330
1F
100
AcDbEntity
  8
LAY-10
  6
CONTINUOUS
 62
     7
100
AcDbLine
 10
1211.630014626489
 20
2186.760013219299
 30
0.0
 11
1229.307684156089
 21
2169.082343690299
 31
0.0
  0
LINE
  5
57B
330
1F
100
AcDbEntity
  8
LAY-10
  6
CONTINUOUS
 62
     7
100
AcDbLine
 10
1193.952345096689
 20
2116.049335101298
 30
0.0
 11
1211.630014626389
 21
2133.727004631299
 31
0.0
  0
LINE
  5
57C
330
1F
100
AcDbEntity
  8
LAY-10
  6
CONTINUOUS
 62
     7
100
AcDbLine
 10
1176.274675566989
 20
2116.049335101298
 30
0.0
 11
1193.952345096689
 21
2098.371665572298
 31
0.0
  0
LINE
  5
57D
330
1F
100
AcDbEntity
  8
LAY-10
  6
CONTINUOUS
 62
     7
100
AcDbLine
 10
1167.807684156189
 20
2089.904674161354
 30
0.0
 11
1176.274675566989
 21
2098.371665572298
 31
0.0
  0
LINE
  5
57E
330
1F
100
AcDbEntity
  8
LAY-10
  6
CONTINUOUS
 62
     7
100
AcDbLine
 10
1306.663023215676
 20
2299.470691337299
 30
0.0
 11
1300.018362274789
 21
2292.826030396299
 31
0.0
  0
LINE
  5
57F
330
1F
100
AcDbEntity
  8
LAY-10
  6
CONTINUOUS
 62
     7
100
AcDbLine
 10
1342.018362275353
 20
2299.470691337299
 30
0.0
 11
1335.373701335089
 21
2292.826030397298
 31
0.0
  0
LINE
  5
580
330
1F
100
AcDbEntity
  8
LAY-10
  6
CONTINUOUS
 62
     7
100
AcDbLine
 10
1377.373701335022
 20
2299.470691337299
 30
0.0
 11
1370.729040394759
 21
2292.826030397298
 31
0.0
  0
LINE
  5
581
330
1F
100
AcDbEntity
  8
LAY-10
  6
CONTINUOUS
 62
     7
100
AcDbLine
 10
1282.340692745189
 20
2239.793021808298
 30
0.0
 11
1264.663023215489
 21
2222.115352278299
 31
0.0
  0
LINE
  5
582
330
1F
100
AcDbEntity
  8
LAY-10
  6
CONTINUOUS
 62
     7
100
AcDbLine
 10
1264.663023215489
 20
2186.760013219298
 30
0.0
 11
1282.340692745189
 21
2204.437682749299
 31
0.0
  0
LINE
  5
583
330
1F
100
AcDbEntity
  8
LAY-10
  6
CONTINUOUS
 62
     7
100
AcDbLine
 10
1211.630014626888
 20
2275.148360866698
 30
0.0
 11
1193.952345097189
 21
2257.470691336698
 31
0.0
  0
LINE
  5
584
330
1F
100
AcDbEntity
  8
LAY-10
  6
CONTINUOUS
 62
     7
100
AcDbLine
 10
1193.952345096889
 20
2275.148360866397
 30
0.0
 11
1176.274675567588
 21
2292.826030395696
 31
0.0
  0
LINE
  5
585
330
1F
100
AcDbEntity
  8
LAY-10
  6
CONTINUOUS
 62
     7
100
AcDbLine
 10
1176.274675568189
 20
2257.470691336298
 30
0.0
 11
1193.95234509749
 21
2239.793021806999
 31
0.0
  0
LINE
  5
586
330
1F
100
AcDbEntity
  8
LAY-10
  6
CONTINUOUS
 62
     7
100
AcDbLine
 10
1282.340692745189
 20
2275.148360867299
 30
0.0
 11
1268.807684156189
 21
2261.61535227807
 31
0.0
  0
LINE
  5
587
330
1F
100
AcDbEntity
  8
LAY-10
  6
CONTINUOUS
 62
     7
100
AcDbLine
 10
1211.630014626987
 20
2292.826030395098
 30
0.0
 11
1229.307684156288
 21
2275.148360865799
 31
0.0
  0
LINE
  5
588
330
1F
100
AcDbEntity
  8
LAY-10
  6
CONTINUOUS
 62
     7
100
AcDbLine
 10
1229.307684154988
 20
2257.470691336799
 30
0.0
 11
1246.985353684987
 21
2275.148360866501
 31
0.0
  0
LINE
  5
589
330
1F
100
AcDbEntity
  8
LAY-10
  6
CONTINUOUS
 62
     7
100
AcDbLine
 10
1264.663023213988
 20
2275.148360866502
 30
0.0
 11
1246.985353684985
 21
2292.826030396201
 31
0.0
  0
LINE
  5
58A
330
1F
100
AcDbEntity
  8
LAY-10
  6
CONTINUOUS
 62
     7
100
AcDbLine
 10
1264.66302321399
 20
2239.793021807202
 30
0.0
 11
1246.985353684988
 21
2257.470691336801
 31
0.0
  0
LINE
  5
58B
330
1F
100
AcDbEntity
  8
LAY-10
  6
CONTINUOUS
 62
     7
100
AcDbLine
 10
1229.307684153987
 20
2292.8260303961
 30
0.0
 11
1235.952345095299
 21
2299.470691337299
 31
0.0
  0
LINE
  5
58C
330
1F
100
AcDbEntity
  8
LAY-10
  6
CONTINUOUS
 62
     7
100
AcDbLine
 10
1229.307684155889
 20
2239.793021807999
 30
0.0
 11
1211.63001462659
 21
2257.470691337299
 31
0.0
  0
LINE
  5
58D
330
1F
100
AcDbEntity
  8
LAY-10
  6
CONTINUOUS
 62
     7
100
AcDbLine
 10
1353.05137086279
 20
2275.148360868298
 30
0.0
 11
1335.373701333489
 21
2257.470691337999
 31
0.0
  0
LINE
  5
58E
330
1F
100
AcDbEntity
  8
LAY-10
  6
CONTINUOUS
 62
     7
100
AcDbLine
 10
1167.807684156168
 20
2299.470691337301
 30
0.0
 11
1583.807684156168
 21
2299.470691337303
 31
0.0
  0
LINE
  5
58F
330
1F
100
AcDbEntity
  8
LAY-10
  6
CONTINUOUS
 62
     7
100
AcDbLine
 10
1167.807684156168
 20
1229.470691337302
 30
0.0
 11
1583.80768415617
 21
1229.470691337303
 31
0.0
  0
LINE
  5
590
330
1F
100
AcDbEntity
  8
LAY-10
  6
CONTINUOUS
 62
     7
100
AcDbLine
 10
1353.051370862091
 20
2292.826030397998
 30
0.0
 11
1364.682072029364
 21
2281.195329231185
 31
0.0
  0
LINE
  5
591
330
1F
100
AcDbEntity
  8
LAY-10
  6
CONTINUOUS
 62
     7
100
AcDbLine
 10
1398.563997450228
 20
1236.115352276523
 30
0.0
 11
1386.933296282861
 21
1247.74605344343
 31
0.0
  0
CIRCLE
  5
592
330
1F
100
AcDbEntity
  8
LAY-10
  6
CONTINUOUS
 62
     7
100
AcDbCircle
 10
1793.80768415617
 20
2274.4706913373
 30
0.0
 40
13.00000000000001
  0
LINE
  5
593
330
1F
100
AcDbEntity
  8
LAY-10
  6
CONTINUOUS
 62
     7
100
AcDbLine
 10
1789.80768415617
 20
2274.470691337306
 30
0.0
 11
1793.80768415617
 21
2267.970691337306
 31
0.0
  0
LINE
  5
594
330
1F
100
AcDbEntity
  8
LAY-10
  6
CONTINUOUS
 62
     7
100
AcDbLine
 10
1793.80768415617
 20
2280.970691337306
 30
0.0
 11
1789.80768415617
 21
2274.470691337306
 31
0.0
  0
LINE
  5
595
330
1F
100
AcDbEntity
  8
LAY-10
  6
CONTINUOUS
 62
     7
100
AcDbLine
 10
1797.80768415617
 20
2274.470691337306
 30
0.0
 11
1793.80768415617
 21
2280.970691337306
 31
0.0
  0
LINE
  5
596
330
1F
100
AcDbEntity
  8
LAY-10
  6
CONTINUOUS
 62
     7
100
AcDbLine
 10
1793.80768415617
 20
2267.970691337306
 30
0.0
 11
1797.80768415617
 21
2274.470691337306
 31
0.0
  0
ARC
  5
597
330
1F
100
AcDbEntity
  8
LAY-10
  6
CONTINUOUS
 62
     7
100
AcDbCircle
 10
1793.80768415617
 20
2274.470691337306
 30
0.0
 40
12.75000000000001
100
AcDbArc
 50
18.2838899404031
 51
341.7161100595971
  0
LINE
  5
598
330
1F
100
AcDbEntity
  8
LAY-10
  6
CONTINUOUS
 62
     7
100
AcDbLine
 10
1804.30768415617
 20
2278.470691337305
 30
0.0
 11
1804.30768415617
 21
2270.470691337307
 31
0.0
  0
LINE
  5
599
330
1F
100
AcDbEntity
  8
LAY-10
  6
CONTINUOUS
 62
     7
100
AcDbLine
 10
1804.30768415617
 20
2278.470691337305
 30
0.0
 11
1805.913984168973
 21
2278.470691337305
 31
0.0
  0
LINE
  5
59A
330
1F
100
AcDbEntity
  8
LAY-10
  6
CONTINUOUS
 62
     7
100
AcDbLine
 10
1804.30768415617
 20
2270.470691337307
 30
0.0
 11
1805.913984168973
 21
2270.470691337307
 31
0.0
  0
CIRCLE
  5
59B
330
1F
100
AcDbEntity
  8
LAY-10
  6
CONTINUOUS
 62
     7
100
AcDbCircle
 10
1793.807684156171
 20
1254.470691337505
 30
0.0
 40
13.00000000000001
  0
LINE
  5
59C
330
1F
100
AcDbEntity
  8
LAY-10
  6
CONTINUOUS
 62
     7
100
AcDbLine
 10
1789.807684156171
 20
1254.4706913375
 30
0.0
 11
1793.807684156171
 21
1260.9706913375
 31
0.0
  0
LINE
  5
59D
330
1F
100
AcDbEntity
  8
LAY-10
  6
CONTINUOUS
 62
     7
100
AcDbLine
 10
1793.807684156171
 20
1247.9706913375
 30
0.0
 11
1789.807684156171
 21
1254.4706913375
 31
0.0
  0
LINE
  5
59E
330
1F
100
AcDbEntity
  8
LAY-10
  6
CONTINUOUS
 62
     7
100
AcDbLine
 10
1797.807684156171
 20
1254.4706913375
 30
0.0
 11
1793.807684156171
 21
1247.9706913375
 31
0.0
  0
LINE
  5
59F
330
1F
100
AcDbEntity
  8
LAY-10
  6
CONTINUOUS
 62
     7
100
AcDbLine
 10
1793.807684156171
 20
1260.9706913375
 30
0.0
 11
1797.807684156171
 21
1254.4706913375
 31
0.0
  0
ARC
  5
5A0
330
1F
100
AcDbEntity
  8
LAY-10
  6
CONTINUOUS
 62
     7
100
AcDbCircle
 10
1793.807684156171
 20
1254.4706913375
 30
0.0
 40
12.75000000000001
100
AcDbArc
 50
18.2838899404031
 51
341.716110059597
  0
LINE
  5
5A1
330
1F
100
AcDbEntity
  8
LAY-10
  6
CONTINUOUS
 62
     7
100
AcDbLine
 10
1804.307684156171
 20
1250.470691337501
 30
0.0
 11
1804.307684156171
 21
1258.470691337499
 31
0.0
  0
LINE
  5
5A2
330
1F
100
AcDbEntity
  8
LAY-10
  6
CONTINUOUS
 62
     7
100
AcDbLine
 10
1804.307684156171
 20
1250.470691337501
 30
0.0
 11
1805.913984168974
 21
1250.470691337501
 31
0.0
  0
LINE
  5
5A3
330
1F
100
AcDbEntity
  8
LAY-10
  6
CONTINUOUS
 62
     7
100
AcDbLine
 10
1804.307684156171
 20
1258.470691337499
 30
0.0
 11
1805.913984168974
 21
1258.470691337499
 31
0.0
  0
LINE
  5
5A4
330
1F
100
AcDbEntity
  8
LAY-10
  6
CONTINUOUS
 62
     7
100
AcDbLine
 10
2001.80768415617
 20
1229.470691337303
 30
0.0
 11
2001.807684156169
 21
2299.470691337303
 31
0.0
  0
LINE
  5
5A5
330
1F
100
AcDbEntity
  8
LAY-10
  6
CONTINUOUS
 62
     7
100
AcDbLine
 10
1834.734996179974
 20
1253.299692605268
 30
0.0
 11
1851.91933650773
 21
1236.115352277221
 31
0.0
  0
LINE
  5
5A6
330
1F
100
AcDbEntity
  8
LAY-10
  6
CONTINUOUS
 62
     7
100
AcDbLine
 10
1975.663023215631
 20
1236.115352280024
 30
0.0
 11
1969.018362273168
 21
1229.470691337223
 31
0.0
  0
LINE
  5
5A7
330
1F
100
AcDbEntity
  8
LAY-10
  6
CONTINUOUS
 62
     7
100
AcDbLine
 10
1993.34069274383
 20
1253.793021808824
 30
0.0
 11
2001.807684156155
 21
1262.260013221295
 31
0.0
  0
LINE
  5
5A8
330
1F
100
AcDbEntity
  8
LAY-10
  6
CONTINUOUS
 62
     7
100
AcDbLine
 10
1898.307684155426
 20
1229.470691337221
 30
0.0
 11
1904.952345097634
 21
1236.115352279017
 31
0.0
  0
LINE
  5
5A9
330
1F
100
AcDbEntity
  8
LAY-10
  6
CONTINUOUS
 62
     7
100
AcDbLine
 10
1993.34069274513
 20
1289.148360865222
 30
0.0
 11
2001.80768415613
 21
1297.615352276366
 31
0.0
  0
LINE
  5
5AA
330
1F
100
AcDbEntity
  8
LAY-10
  6
CONTINUOUS
 62
     7
100
AcDbLine
 10
1957.98535368583
 20
1289.148360866222
 30
0.0
 11
1975.66302321553
 21
1306.826030396221
 31
0.0
  0
LINE
  5
5AB
330
1F
100
AcDbEntity
  8
LAY-10
  6
CONTINUOUS
 62
     7
100
AcDbLine
 10
1975.66302321553
 20
1324.503699925222
 30
0.0
 11
1993.34069274523
 21
1306.826030396221
 31
0.0
  0
LINE
  5
5AC
330
1F
100
AcDbEntity
  8
LAY-10
  6
CONTINUOUS
 62
     7
100
AcDbLine
 10
1940.30768415623
 20
1324.503699925222
 30
0.0
 11
1957.98535368583
 21
1306.826030396221
 31
0.0
  0
LINE
  5
5AD
330
1F
100
AcDbEntity
  8
LAY-10
  6
CONTINUOUS
 62
     7
100
AcDbLine
 10
1851.91933650783
 20
1271.470691337221
 30
0.0
 11
1834.24166697813
 21
1289.148360866222
 31
0.0
  0
LINE
  5
5AE
330
1F
100
AcDbEntity
  8
LAY-10
  6
CONTINUOUS
 62
     7
100
AcDbLine
 10
1869.59700603743
 20
1306.826030396222
 30
0.0
 11
1851.91933650783
 21
1289.148360866222
 31
0.0
  0
LINE
  5
5AF
330
1F
100
AcDbEntity
  8
LAY-10
  6
CONTINUOUS
 62
     7
100
AcDbLine
 10
1869.59700603743
 20
1271.470691337221
 30
0.0
 11
1851.91933650783
 21
1253.793021807222
 31
0.0
  0
LINE
  5
5B0
330
1F
100
AcDbEntity
  8
LAY-10
  6
CONTINUOUS
 62
     7
100
AcDbLine
 10
1887.27467556713
 20
1306.826030396222
 30
0.0
 11
1869.59700603743
 21
1324.503699925222
 31
0.0
  0
LINE
  5
5B1
330
1F
100
AcDbEntity
  8
LAY-10
  6
CONTINUOUS
 62
     7
100
AcDbLine
 10
1922.63001462643
 20
1289.148360866222
 30
0.0
 11
1940.30768415613
 21
1306.826030396222
 31
0.0
  0
LINE
  5
5B2
330
1F
100
AcDbEntity
  8
LAY-10
  6
CONTINUOUS
 62
     7
100
AcDbLine
 10
1922.63001462643
 20
1306.826030396222
 30
0.0
 11
1904.95234509683
 21
1324.503699925222
 31
0.0
  0
LINE
  5
5B3
330
1F
100
AcDbEntity
  8
LAY-10
  6
CONTINUOUS
 62
     7
100
AcDbLine
 10
1887.27467556713
 20
1271.470691337221
 30
0.0
 11
1869.59700603743
 21
1289.148360866222
 31
0.0
  0
LINE
  5
5B4
330
1F
100
AcDbEntity
  8
LAY-10
  6
CONTINUOUS
 62
     7
100
AcDbLine
 10
1869.59700603743
 20
1253.793021807222
 30
0.0
 11
1887.27467556713
 21
1236.115352277222
 31
0.0
  0
LINE
  5
5B5
330
1F
100
AcDbEntity
  8
LAY-10
  6
CONTINUOUS
 62
     7
100
AcDbLine
 10
1993.34069274533
 20
1395.214378043222
 30
0.0
 11
2001.80768415613
 21
1403.681369454166
 31
0.0
  0
LINE
  5
5B6
330
1F
100
AcDbEntity
  8
LAY-10
  6
CONTINUOUS
 62
     7
100
AcDbLine
 10
1957.98535368593
 20
1359.859038984222
 30
0.0
 11
1975.66302321563
 21
1377.536708514222
 31
0.0
  0
LINE
  5
5B7
330
1F
100
AcDbEntity
  8
LAY-10
  6
CONTINUOUS
 62
     7
100
AcDbLine
 10
1993.34069274523
 20
1377.536708514222
 30
0.0
 11
1975.66302321563
 21
1395.214378043222
 31
0.0
  0
LINE
  5
5B8
330
1F
100
AcDbEntity
  8
LAY-10
  6
CONTINUOUS
 62
     7
100
AcDbLine
 10
1993.34069274523
 20
1359.859038984222
 30
0.0
 11
2001.80768415613
 21
1368.326030395265
 31
0.0
  0
LINE
  5
5B9
330
1F
100
AcDbEntity
  8
LAY-10
  6
CONTINUOUS
 62
     7
100
AcDbLine
 10
1993.34069274523
 20
1324.503699925222
 30
0.0
 11
2001.80768415613
 21
1332.970691336265
 31
0.0
  0
LINE
  5
5BA
330
1F
100
AcDbEntity
  8
LAY-10
  6
CONTINUOUS
 62
     7
100
AcDbLine
 10
1975.66302321563
 20
1359.859038984222
 30
0.0
 11
1993.34069274523
 21
1342.181369455221
 31
0.0
  0
LINE
  5
5BB
330
1F
100
AcDbEntity
  8
LAY-10
  6
CONTINUOUS
 62
     7
100
AcDbLine
 10
1957.98535368593
 20
1377.536708514222
 30
0.0
 11
1940.30768415623
 21
1395.214378043222
 31
0.0
  0
LINE
  5
5BC
330
1F
100
AcDbEntity
  8
LAY-10
  6
CONTINUOUS
 62
     7
100
AcDbLine
 10
1940.30768415623
 20
1377.536708514222
 30
0.0
 11
1922.63001462653
 21
1359.859038984221
 31
0.0
  0
LINE
  5
5BD
330
1F
100
AcDbEntity
  8
LAY-10
  6
CONTINUOUS
 62
     7
100
AcDbLine
 10
1922.63001462653
 20
1342.181369455222
 30
0.0
 11
1904.95234509683
 21
1359.859038984221
 31
0.0
  0
LINE
  5
5BE
330
1F
100
AcDbEntity
  8
LAY-10
  6
CONTINUOUS
 62
     7
100
AcDbLine
 10
1957.98535368583
 20
1324.503699925222
 30
0.0
 11
1975.66302321553
 21
1342.181369455221
 31
0.0
  0
LINE
  5
5BF
330
1F
100
AcDbEntity
  8
LAY-10
  6
CONTINUOUS
 62
     7
100
AcDbLine
 10
1922.63001462653
 20
1324.503699925222
 30
0.0
 11
1940.30768415623
 21
1342.181369455222
 31
0.0
  0
LINE
  5
5C0
330
1F
100
AcDbEntity
  8
LAY-10
  6
CONTINUOUS
 62
     7
100
AcDbLine
 10
1957.98535368583
 20
1342.181369455221
 30
0.0
 11
1940.30768415623
 21
1359.859038984221
 31
0.0
  0
LINE
  5
5C1
330
1F
100
AcDbEntity
  8
LAY-10
  6
CONTINUOUS
 62
     7
100
AcDbLine
 10
1975.66302321563
 20
1412.892047573222
 30
0.0
 11
1957.98535368593
 21
1395.214378043222
 31
0.0
  0
LINE
  5
5C2
330
1F
100
AcDbEntity
  8
LAY-10
  6
CONTINUOUS
 62
     7
100
AcDbLine
 10
1993.34069274533
 20
1412.892047573222
 30
0.0
 11
1975.66302321563
 21
1430.569717102222
 31
0.0
  0
LINE
  5
5C3
330
1F
100
AcDbEntity
  8
LAY-10
  6
CONTINUOUS
 62
     7
100
AcDbLine
 10
2001.80768415613
 20
1439.036708513167
 30
0.0
 11
1993.34069274533
 21
1430.569717102222
 31
0.0
  0
LINE
  5
5C4
330
1F
100
AcDbEntity
  8
LAY-10
  6
CONTINUOUS
 62
     7
100
AcDbLine
 10
1862.952345096643
 20
1229.470691337221
 30
0.0
 11
1869.59700603753
 21
1236.115352278222
 31
0.0
  0
LINE
  5
5C5
330
1F
100
AcDbEntity
  8
LAY-10
  6
CONTINUOUS
 62
     7
100
AcDbLine
 10
1827.597006036966
 20
1229.470691337221
 30
0.0
 11
1834.24166697723
 21
1236.115352277222
 31
0.0
  0
LINE
  5
5C6
330
1F
100
AcDbEntity
  8
LAY-10
  6
CONTINUOUS
 62
     7
100
AcDbLine
 10
1792.241666977296
 20
1229.470691337221
 30
0.0
 11
1798.88632791756
 21
1236.115352277222
 31
0.0
  0
LINE
  5
5C7
330
1F
100
AcDbEntity
  8
LAY-10
  6
CONTINUOUS
 62
     7
100
AcDbLine
 10
1887.27467556713
 20
1289.148360866222
 30
0.0
 11
1904.95234509683
 21
1306.826030396222
 31
0.0
  0
LINE
  5
5C8
330
1F
100
AcDbEntity
  8
LAY-10
  6
CONTINUOUS
 62
     7
100
AcDbLine
 10
1904.95234509683
 20
1342.181369455222
 30
0.0
 11
1887.27467556713
 21
1324.503699925222
 31
0.0
  0
LINE
  5
5C9
330
1F
100
AcDbEntity
  8
LAY-10
  6
CONTINUOUS
 62
     7
100
AcDbLine
 10
1957.985353685431
 20
1253.793021807823
 30
0.0
 11
1975.66302321513
 21
1271.470691337822
 31
0.0
  0
LINE
  5
5CA
330
1F
100
AcDbEntity
  8
LAY-10
  6
CONTINUOUS
 62
     7
100
AcDbLine
 10
1975.66302321543
 20
1253.793021808124
 30
0.0
 11
1993.340692744731
 21
1236.115352278825
 31
0.0
  0
LINE
  5
5CB
330
1F
100
AcDbEntity
  8
LAY-10
  6
CONTINUOUS
 62
     7
100
AcDbLine
 10
1993.34069274413
 20
1271.470691338222
 30
0.0
 11
1975.66302321483
 21
1289.148360867521
 31
0.0
  0
LINE
  5
5CC
330
1F
100
AcDbEntity
  8
LAY-10
  6
CONTINUOUS
 62
     7
100
AcDbLine
 10
1887.27467556713
 20
1253.793021807222
 30
0.0
 11
1900.80768415613
 21
1267.326030396451
 31
0.0
  0
LINE
  5
5CD
330
1F
100
AcDbEntity
  8
LAY-10
  6
CONTINUOUS
 62
     7
100
AcDbLine
 10
1957.985353685332
 20
1236.115352279422
 30
0.0
 11
1940.307684156031
 21
1253.793021808721
 31
0.0
  0
LINE
  5
5CE
330
1F
100
AcDbEntity
  8
LAY-10
  6
CONTINUOUS
 62
     7
100
AcDbLine
 10
1940.307684157331
 20
1271.470691337721
 30
0.0
 11
1922.630014627332
 21
1253.793021808019
 31
0.0
  0
LINE
  5
5CF
330
1F
100
AcDbEntity
  8
LAY-10
  6
CONTINUOUS
 62
     7
100
AcDbLine
 10
1904.952345098332
 20
1253.793021808018
 30
0.0
 11
1922.630014627334
 21
1236.11535227832
 31
0.0
  0
LINE
  5
5D0
330
1F
100
AcDbEntity
  8
LAY-10
  6
CONTINUOUS
 62
     7
100
AcDbLine
 10
1904.952345098329
 20
1289.148360867318
 30
0.0
 11
1922.630014627331
 21
1271.470691337719
 31
0.0
  0
LINE
  5
5D1
330
1F
100
AcDbEntity
  8
LAY-10
  6
CONTINUOUS
 62
     7
100
AcDbLine
 10
1940.307684158332
 20
1236.115352278421
 30
0.0
 11
1933.66302321702
 21
1229.470691337221
 31
0.0
  0
LINE
  5
5D2
330
1F
100
AcDbEntity
  8
LAY-10
  6
CONTINUOUS
 62
     7
100
AcDbLine
 10
1940.30768415643
 20
1289.148360866521
 30
0.0
 11
1957.985353685729
 21
1271.470691337221
 31
0.0
  0
LINE
  5
5D3
330
1F
100
AcDbEntity
  8
LAY-10
  6
CONTINUOUS
 62
     7
100
AcDbLine
 10
1816.563997449529
 20
1253.793021806222
 30
0.0
 11
1834.241666978829
 21
1271.470691336522
 31
0.0
  0
LINE
  5
5D4
330
1F
100
AcDbEntity
  8
LAY-10
  6
CONTINUOUS
 62
     7
100
AcDbLine
 10
1585.807684156169
 20
2299.470691337301
 30
0.0
 11
1585.807684156169
 21
1229.470691337302
 31
0.0
  0
LINE
  5
5D5
330
1F
100
AcDbEntity
  8
LAY-10
  6
CONTINUOUS
 62
     7
100
AcDbLine
 10
1752.880372132345
 20
2275.641690069252
 30
0.0
 11
1735.696031804589
 21
2292.826030397299
 31
0.0
  0
LINE
  5
5D6
330
1F
100
AcDbEntity
  8
LAY-10
  6
CONTINUOUS
 62
     7
100
AcDbLine
 10
1611.952345096689
 20
2292.826030394496
 30
0.0
 11
1618.597006039151
 21
2299.470691337297
 31
0.0
  0
LINE
  5
5D7
330
1F
100
AcDbEntity
  8
LAY-10
  6
CONTINUOUS
 62
     7
100
AcDbLine
 10
1594.274675568489
 20
2275.148360865696
 30
0.0
 11
1585.807684156164
 21
2266.681369453226
 31
0.0
  0
LINE
  5
5D8
330
1F
100
AcDbEntity
  8
LAY-10
  6
CONTINUOUS
 62
     7
100
AcDbLine
 10
1689.307684156893
 20
2299.470691337299
 30
0.0
 11
1682.663023214685
 21
2292.826030395503
 31
0.0
  0
LINE
  5
5D9
330
1F
100
AcDbEntity
  8
LAY-10
  6
CONTINUOUS
 62
     7
100
AcDbLine
 10
1594.274675567189
 20
2239.793021809298
 30
0.0
 11
1585.807684156189
 21
2231.326030398154
 31
0.0
  0
LINE
  5
5DA
330
1F
100
AcDbEntity
  8
LAY-10
  6
CONTINUOUS
 62
     7
100
AcDbLine
 10
1629.630014626489
 20
2239.793021808298
 30
0.0
 11
1611.952345096789
 21
2222.1153522783
 31
0.0
  0
LINE
  5
5DB
330
1F
100
AcDbEntity
  8
LAY-10
  6
CONTINUOUS
 62
     7
100
AcDbLine
 10
1611.952345096789
 20
2204.437682749299
 30
0.0
 11
1594.274675567089
 21
2222.1153522783
 31
0.0
  0
LINE
  5
5DC
330
1F
100
AcDbEntity
  8
LAY-10
  6
CONTINUOUS
 62
     7
100
AcDbLine
 10
1647.307684156089
 20
2204.437682749298
 30
0.0
 11
1629.630014626489
 21
2222.1153522783
 31
0.0
  0
LINE
  5
5DD
330
1F
100
AcDbEntity
  8
LAY-10
  6
CONTINUOUS
 62
     7
100
AcDbLine
 10
1735.696031804489
 20
2257.470691337299
 30
0.0
 11
1753.373701334189
 21
2239.793021808298
 31
0.0
  0
LINE
  5
5DE
330
1F
100
AcDbEntity
  8
LAY-10
  6
CONTINUOUS
 62
     7
100
AcDbLine
 10
1718.018362274889
 20
2222.115352278299
 30
0.0
 11
1735.696031804489
 21
2239.793021808298
 31
0.0
  0
LINE
  5
5DF
330
1F
100
AcDbEntity
  8
LAY-10
  6
CONTINUOUS
 62
     7
100
AcDbLine
 10
1718.018362274889
 20
2257.470691337299
 30
0.0
 11
1735.696031804489
 21
2275.148360867299
 31
0.0
  0
LINE
  5
5E0
330
1F
100
AcDbEntity
  8
LAY-10
  6
CONTINUOUS
 62
     7
100
AcDbLine
 10
1700.340692745189
 20
2222.115352278299
 30
0.0
 11
1718.018362274889
 21
2204.437682749299
 31
0.0
  0
LINE
  5
5E1
330
1F
100
AcDbEntity
  8
LAY-10
  6
CONTINUOUS
 62
     7
100
AcDbLine
 10
1664.985353685889
 20
2239.793021808298
 30
0.0
 11
1647.307684156189
 21
2222.115352278299
 31
0.0
  0
LINE
  5
5E2
330
1F
100
AcDbEntity
  8
LAY-10
  6
CONTINUOUS
 62
     7
100
AcDbLine
 10
1664.985353685889
 20
2222.115352278299
 30
0.0
 11
1682.663023215489
 21
2204.437682749299
 31
0.0
  0
LINE
  5
5E3
330
1F
100
AcDbEntity
  8
LAY-10
  6
CONTINUOUS
 62
     7
100
AcDbLine
 10
1700.340692745189
 20
2257.470691337299
 30
0.0
 11
1718.018362274889
 21
2239.793021808298
 31
0.0
  0
LINE
  5
5E4
330
1F
100
AcDbEntity
  8
LAY-10
  6
CONTINUOUS
 62
     7
100
AcDbLine
 10
1718.018362274889
 20
2275.148360867299
 30
0.0
 11
1700.340692745189
 21
2292.826030397298
 31
0.0
  0
LINE
  5
5E5
330
1F
100
AcDbEntity
  8
LAY-10
  6
CONTINUOUS
 62
     7
100
AcDbLine
 10
1594.274675566989
 20
2133.727004631298
 30
0.0
 11
1585.807684156189
 21
2125.260013220354
 31
0.0
  0
LINE
  5
5E6
330
1F
100
AcDbEntity
  8
LAY-10
  6
CONTINUOUS
 62
     7
100
AcDbLine
 10
1629.630014626389
 20
2169.082343690298
 30
0.0
 11
1611.952345096689
 21
2151.404674160299
 31
0.0
  0
LINE
  5
5E7
330
1F
100
AcDbEntity
  8
LAY-10
  6
CONTINUOUS
 62
     7
100
AcDbLine
 10
1594.274675567089
 20
2151.404674160299
 30
0.0
 11
1611.952345096689
 21
2133.727004631299
 31
0.0
  0
LINE
  5
5E8
330
1F
100
AcDbEntity
  8
LAY-10
  6
CONTINUOUS
 62
     7
100
AcDbLine
 10
1594.274675567089
 20
2169.082343690298
 30
0.0
 11
1585.807684156189
 21
2160.615352279255
 31
0.0
  0
LINE
  5
5E9
330
1F
100
AcDbEntity
  8
LAY-10
  6
CONTINUOUS
 62
     7
100
AcDbLine
 10
1594.274675567089
 20
2204.437682749299
 30
0.0
 11
1585.807684156189
 21
2195.970691338255
 31
0.0
  0
LINE
  5
5EA
330
1F
100
AcDbEntity
  8
LAY-10
  6
CONTINUOUS
 62
     7
100
AcDbLine
 10
1611.952345096689
 20
2169.082343690298
 30
0.0
 11
1594.274675567089
 21
2186.760013219299
 31
0.0
  0
LINE
  5
5EB
330
1F
100
AcDbEntity
  8
LAY-10
  6
CONTINUOUS
 62
     7
100
AcDbLine
 10
1629.630014626389
 20
2151.404674160299
 30
0.0
 11
1647.307684156089
 21
2133.727004631299
 31
0.0
  0
LINE
  5
5EC
330
1F
100
AcDbEntity
  8
LAY-10
  6
CONTINUOUS
 62
     7
100
AcDbLine
 10
1647.307684156089
 20
2151.404674160299
 30
0.0
 11
1664.985353685789
 21
2169.082343690299
 31
0.0
  0
LINE
  5
5ED
330
1F
100
AcDbEntity
  8
LAY-10
  6
CONTINUOUS
 62
     7
100
AcDbLine
 10
1664.985353685789
 20
2186.760013219298
 30
0.0
 11
1682.663023215489
 21
2169.082343690299
 31
0.0
  0
LINE
  5
5EE
330
1F
100
AcDbEntity
  8
LAY-10
  6
CONTINUOUS
 62
     7
100
AcDbLine
 10
1629.630014626489
 20
2204.437682749299
 30
0.0
 11
1611.952345096789
 21
2186.760013219299
 31
0.0
  0
LINE
  5
5EF
330
1F
100
AcDbEntity
  8
LAY-10
  6
CONTINUOUS
 62
     7
100
AcDbLine
 10
1664.985353685789
 20
2204.437682749298
 30
0.0
 11
1647.307684156089
 21
2186.760013219298
 31
0.0
  0
LINE
  5
5F0
330
1F
100
AcDbEntity
  8
LAY-10
  6
CONTINUOUS
 62
     7
100
AcDbLine
 10
1629.630014626489
 20
2186.760013219299
 30
0.0
 11
1647.307684156089
 21
2169.082343690299
 31
0.0
  0
LINE
  5
5F1
330
1F
100
AcDbEntity
  8
LAY-10
  6
CONTINUOUS
 62
     7
100
AcDbLine
 10
1611.952345096689
 20
2116.049335101298
 30
0.0
 11
1629.630014626389
 21
2133.727004631299
 31
0.0
  0
LINE
  5
5F2
330
1F
100
AcDbEntity
  8
LAY-10
  6
CONTINUOUS
 62
     7
100
AcDbLine
 10
1594.274675566989
 20
2116.049335101298
 30
0.0
 11
1611.952345096689
 21
2098.371665572298
 31
0.0
  0
LINE
  5
5F3
330
1F
100
AcDbEntity
  8
LAY-10
  6
CONTINUOUS
 62
     7
100
AcDbLine
 10
1585.807684156189
 20
2089.904674161354
 30
0.0
 11
1594.274675566989
 21
2098.371665572298
 31
0.0
  0
LINE
  5
5F4
330
1F
100
AcDbEntity
  8
LAY-10
  6
CONTINUOUS
 62
     7
100
AcDbLine
 10
1724.663023215676
 20
2299.470691337299
 30
0.0
 11
1718.018362274789
 21
2292.826030396299
 31
0.0
  0
LINE
  5
5F5
330
1F
100
AcDbEntity
  8
LAY-10
  6
CONTINUOUS
 62
     7
100
AcDbLine
 10
1760.018362275353
 20
2299.470691337299
 30
0.0
 11
1753.373701335089
 21
2292.826030397298
 31
0.0
  0
LINE
  5
5F6
330
1F
100
AcDbEntity
  8
LAY-10
  6
CONTINUOUS
 62
     7
100
AcDbLine
 10
1795.373701335023
 20
2299.470691337299
 30
0.0
 11
1788.729040394759
 21
2292.826030397298
 31
0.0
  0
LINE
  5
5F7
330
1F
100
AcDbEntity
  8
LAY-10
  6
CONTINUOUS
 62
     7
100
AcDbLine
 10
1700.340692745189
 20
2239.793021808298
 30
0.0
 11
1682.663023215489
 21
2222.115352278299
 31
0.0
  0
LINE
  5
5F8
330
1F
100
AcDbEntity
  8
LAY-10
  6
CONTINUOUS
 62
     7
100
AcDbLine
 10
1682.663023215489
 20
2186.760013219298
 30
0.0
 11
1700.340692745189
 21
2204.437682749299
 31
0.0
  0
LINE
  5
5F9
330
1F
100
AcDbEntity
  8
LAY-10
  6
CONTINUOUS
 62
     7
100
AcDbLine
 10
1629.630014626889
 20
2275.148360866698
 30
0.0
 11
1611.95234509719
 21
2257.470691336698
 31
0.0
  0
LINE
  5
5FA
330
1F
100
AcDbEntity
  8
LAY-10
  6
CONTINUOUS
 62
     7
100
AcDbLine
 10
1611.952345096889
 20
2275.148360866397
 30
0.0
 11
1594.274675567589
 21
2292.826030395696
 31
0.0
  0
LINE
  5
5FB
330
1F
100
AcDbEntity
  8
LAY-10
  6
CONTINUOUS
 62
     7
100
AcDbLine
 10
1594.274675568189
 20
2257.470691336298
 30
0.0
 11
1611.95234509749
 21
2239.793021806999
 31
0.0
  0
LINE
  5
5FC
330
1F
100
AcDbEntity
  8
LAY-10
  6
CONTINUOUS
 62
     7
100
AcDbLine
 10
1700.340692745189
 20
2275.148360867299
 30
0.0
 11
1686.80768415619
 21
2261.61535227807
 31
0.0
  0
LINE
  5
5FD
330
1F
100
AcDbEntity
  8
LAY-10
  6
CONTINUOUS
 62
     7
100
AcDbLine
 10
1629.630014626987
 20
2292.826030395098
 30
0.0
 11
1647.307684156288
 21
2275.148360865799
 31
0.0
  0
LINE
  5
5FE
330
1F
100
AcDbEntity
  8
LAY-10
  6
CONTINUOUS
 62
     7
100
AcDbLine
 10
1647.307684154989
 20
2257.470691336799
 30
0.0
 11
1664.985353684987
 21
2275.148360866501
 31
0.0
  0
LINE
  5
5FF
330
1F
100
AcDbEntity
  8
LAY-10
  6
CONTINUOUS
 62
     7
100
AcDbLine
 10
1682.663023213988
 20
2275.148360866502
 30
0.0
 11
1664.985353684986
 21
2292.826030396201
 31
0.0
  0
LINE
  5
600
330
1F
100
AcDbEntity
  8
LAY-10
  6
CONTINUOUS
 62
     7
100
AcDbLine
 10
1682.663023213991
 20
2239.793021807202
 30
0.0
 11
1664.985353684988
 21
2257.470691336801
 31
0.0
  0
LINE
  5
601
330
1F
100
AcDbEntity
  8
LAY-10
  6
CONTINUOUS
 62
     7
100
AcDbLine
 10
1647.307684153988
 20
2292.8260303961
 30
0.0
 11
1653.952345095299
 21
2299.470691337299
 31
0.0
  0
LINE
  5
602
330
1F
100
AcDbEntity
  8
LAY-10
  6
CONTINUOUS
 62
     7
100
AcDbLine
 10
1647.30768415589
 20
2239.793021807999
 30
0.0
 11
1629.63001462659
 21
2257.470691337299
 31
0.0
  0
LINE
  5
603
330
1F
100
AcDbEntity
  8
LAY-10
  6
CONTINUOUS
 62
     7
100
AcDbLine
 10
1771.05137086279
 20
2275.148360868298
 30
0.0
 11
1753.37370133349
 21
2257.470691337999
 31
0.0
  0
LINE
  5
604
330
1F
100
AcDbEntity
  8
LAY-10
  6
CONTINUOUS
 62
     7
100
AcDbLine
 10
1585.807684156169
 20
2299.470691337301
 30
0.0
 11
2001.807684156169
 21
2299.470691337303
 31
0.0
  0
LINE
  5
605
330
1F
100
AcDbEntity
  8
LAY-10
  6
CONTINUOUS
 62
     7
100
AcDbLine
 10
1585.807684156169
 20
1229.470691337302
 30
0.0
 11
2001.80768415617
 21
1229.470691337303
 31
0.0
  0
LINE
  5
606
330
1F
100
AcDbEntity
  8
LAY-10
  6
CONTINUOUS
 62
     7
100
AcDbLine
 10
1771.051370862091
 20
2292.826030397998
 30
0.0
 11
1782.682072029364
 21
2281.195329231185
 31
0.0
  0
LINE
  5
607
330
1F
100
AcDbEntity
  8
LAY-10
  6
CONTINUOUS
 62
     7
100
AcDbLine
 10
1816.563997450228
 20
1236.115352276523
 30
0.0
 11
1804.933296282861
 21
1247.74605344343
 31
0.0
  0
LINE
  5
608
330
1F
100
AcDbEntity
  8
LAY-10
  6
CONTINUOUS
 62
     7
100
AcDbLine
 10
671.3076841562336
 20
2344.374805079505
 30
0.0
 11
662.3076841562332
 21
2344.374805079505
 31
0.0
  0
LINE
  5
609
330
1F
100
AcDbEntity
  8
LAY-10
  6
CONTINUOUS
 62
     7
100
AcDbLine
 10
662.3076841562332
 20
2315.476320269668
 30
0.0
 11
662.3076841562332
 21
2344.374805079505
 31
0.0
  0
LINE
  5
60A
330
1F
100
AcDbEntity
  8
LAY-10
  6
CONTINUOUS
 62
     7
100
AcDbLine
 10
671.3076841562336
 20
2315.476320269668
 30
0.0
 11
671.3076841562336
 21
2344.374805079505
 31
0.0
  0
LINE
  5
60B
330
1F
100
AcDbEntity
  8
LAY-10
  6
CONTINUOUS
 62
     7
100
AcDbLine
 10
1162.307684156194
 20
2344.374805079506
 30
0.0
 11
1171.307684156196
 21
2344.374805079506
 31
0.0
  0
LINE
  5
60C
330
1F
100
AcDbEntity
  8
LAY-10
  6
CONTINUOUS
 62
     7
100
AcDbLine
 10
1171.307684156196
 20
2315.476320269669
 30
0.0
 11
1171.307684156196
 21
2344.374805079506
 31
0.0
  0
LINE
  5
60D
330
1F
100
AcDbEntity
  8
LAY-10
  6
CONTINUOUS
 62
     7
100
AcDbLine
 10
1162.307684156195
 20
2315.476320269669
 30
0.0
 11
1162.307684156194
 21
2344.374805079506
 31
0.0
  0
LINE
  5
60E
330
1F
100
AcDbEntity
  8
LAY-10
  6
CONTINUOUS
 62
     7
100
AcDbLine
 10
1662.307684156117
 20
2344.374805079503
 30
0.0
 11
1671.307684156117
 21
2344.374805079503
 31
0.0
  0
LINE
  5
60F
330
1F
100
AcDbEntity
  8
LAY-10
  6
CONTINUOUS
 62
     7
100
AcDbLine
 10
1671.307684156117
 20
2315.476320269666
 30
0.0
 11
1671.307684156117
 21
2344.374805079503
 31
0.0
  0
LINE
  5
610
330
1F
100
AcDbEntity
  8
LAY-10
  6
CONTINUOUS
 62
     7
100
AcDbLine
 10
1662.307684156117
 20
2315.476320269666
 30
0.0
 11
1662.307684156117
 21
2344.374805079503
 31
0.0
  0
LINE
  5
611
330
1F
100
AcDbEntity
  8
LAY-10
  6
CONTINUOUS
 62
     7
100
AcDbLine
 10
671.3076841562341
 20
1184.566577595381
 30
0.0
 11
662.3076841562338
 21
1184.566577595381
 31
0.0
  0
LINE
  5
612
330
1F
100
AcDbEntity
  8
LAY-10
  6
CONTINUOUS
 62
     7
100
AcDbLine
 10
662.3076841562338
 20
1213.465062405218
 30
0.0
 11
662.3076841562338
 21
1184.566577595381
 31
0.0
  0
LINE
  5
613
330
1F
100
AcDbEntity
  8
LAY-10
  6
CONTINUOUS
 62
     7
100
AcDbLine
 10
671.3076841562341
 20
1213.465062405218
 30
0.0
 11
671.3076841562341
 21
1184.566577595381
 31
0.0
  0
LINE
  5
614
330
1F
100
AcDbEntity
  8
LAY-10
  6
CONTINUOUS
 62
     7
100
AcDbLine
 10
1162.307684156195
 20
1184.56657759538
 30
0.0
 11
1171.307684156196
 21
1184.56657759538
 31
0.0
  0
LINE
  5
615
330
1F
100
AcDbEntity
  8
LAY-10
  6
CONTINUOUS
 62
     7
100
AcDbLine
 10
1171.307684156196
 20
1213.465062405217
 30
0.0
 11
1171.307684156196
 21
1184.56657759538
 31
0.0
  0
LINE
  5
616
330
1F
100
AcDbEntity
  8
LAY-10
  6
CONTINUOUS
 62
     7
100
AcDbLine
 10
1162.307684156196
 20
1213.465062405217
 30
0.0
 11
1162.307684156195
 21
1184.56657759538
 31
0.0
  0
LINE
  5
617
330
1F
100
AcDbEntity
  8
LAY-10
  6
CONTINUOUS
 62
     7
100
AcDbLine
 10
1662.307684156118
 20
1184.566577595383
 30
0.0
 11
1671.307684156118
 21
1184.566577595383
 31
0.0
  0
LINE
  5
618
330
1F
100
AcDbEntity
  8
LAY-10
  6
CONTINUOUS
 62
     7
100
AcDbLine
 10
1671.307684156118
 20
1213.465062405221
 30
0.0
 11
1671.307684156118
 21
1184.566577595383
 31
0.0
  0
LINE
  5
619
330
1F
100
AcDbEntity
  8
LAY-10
  6
CONTINUOUS
 62
     7
100
AcDbLine
 10
1662.307684156117
 20
1213.465062405221
 30
0.0
 11
1662.307684156118
 21
1184.566577595383
 31
0.0
  0
LINE
  5
61A
330
1F
100
AcDbEntity
  8
LAY-10
  6
CENTER
 62
     2
100
AcDbLine
 10
2358.94250381031
 20
1764.470691337267
 30
0.0
 11
2534.7755610271
 21
1764.470691337267
 31
0.0
  0
LINE
  5
61B
330
1F
100
AcDbEntity
  8
LAY-10
  6
CENTER
 62
     2
100
AcDbLine
 10
1166.807684156167
 20
872.3330572166907
 30
0.0
 11
1166.807684156167
 21
696.4999999999
 31
0.0
  0
LINE
  5
61C
330
1F
100
AcDbEntity
  8
LAY-10
  6
CENTER
 62
     2
100
AcDbLine
 10
1166.807684156175
 20
2351.97069133729
 30
0.0
 11
1166.807684156173
 21
1171.670691337389
 31
0.0
  0
LINE
  5
61D
330
1F
100
AcDbEntity
  8
LAY-10
  6
CENTER
 62
     2
100
AcDbLine
 10
2017.807684155911
 20
2014.470691337361
 30
0.0
 11
2059.607684155911
 21
2014.470691337362
 31
0.0
  0
LINE
  5
61E
330
1F
100
AcDbEntity
  8
LAY-10
  6
CENTER
 62
     2
100
AcDbLine
 10
2017.807684155909
 20
1514.470691337401
 30
0.0
 11
2054.307684155863
 21
1514.470691337401
 31
0.0
  0
LINE
  5
61F
330
1F
100
AcDbEntity
  8
LAY-10
  6
CENTER
 62
     2
100
AcDbLine
 10
315.802055224038
 20
1514.470691337405
 30
0.0
 11
279.3020552240844
 21
1514.470691337406
 31
0.0
  0
LINE
  5
620
330
1F
100
AcDbEntity
  8
LAY-10
  6
CENTER
 62
     2
100
AcDbLine
 10
315.802055224038
 20
2014.470691337365
 30
0.0
 11
274.0020552240387
 21
2014.470691337366
 31
0.0
  0
LINE
  5
621
330
1F
100
AcDbEntity
  8
LAY-10
  6
CENTER
 62
     2
100
AcDbLine
 10
274.5076841557668
 20
1764.470691337443
 30
0.0
 11
2059.60768415587
 21
1764.470691337443
 31
0.0
  0
LINE
  5
622
330
1F
100
AcDbEntity
  8
LAY-10
  6
CENTER
 62
     2
100
AcDbLine
 10
539.8076841562099
 20
2293.070691337351
 30
0.0
 11
539.8076841562099
 21
2254.170691337351
 31
0.0
  0
LINE
  5
623
330
1F
100
AcDbEntity
  8
LAY-10
  6
CENTER
 62
     2
100
AcDbLine
 10
521.2826841562104
 20
2274.470691337349
 30
0.0
 11
558.7826841562094
 21
2274.470691337349
 31
0.0
  0
LINE
  5
624
330
1F
100
AcDbEntity
  8
LAY-10
  6
CENTER
 62
     2
100
AcDbLine
 10
539.8076841562104
 20
1235.870691337455
 30
0.0
 11
539.8076841562104
 21
1274.770691337455
 31
0.0
  0
LINE
  5
625
330
1F
100
AcDbEntity
  8
LAY-10
  6
CENTER
 62
     2
100
AcDbLine
 10
521.2826841562108
 20
1254.470691337456
 30
0.0
 11
558.7826841562098
 21
1254.470691337456
 31
0.0
  0
LINE
  5
626
330
1F
100
AcDbEntity
  8
LAY-10
  6
CENTER
 62
     2
100
AcDbLine
 10
957.8076841560899
 20
2293.070691337351
 30
0.0
 11
957.8076841560899
 21
2254.170691337351
 31
0.0
  0
LINE
  5
627
330
1F
100
AcDbEntity
  8
LAY-10
  6
CENTER
 62
     2
100
AcDbLine
 10
939.2826841560905
 20
2274.470691337349
 30
0.0
 11
976.7826841560893
 21
2274.470691337349
 31
0.0
  0
LINE
  5
628
330
1F
100
AcDbEntity
  8
LAY-10
  6
CENTER
 62
     2
100
AcDbLine
 10
957.8076841560903
 20
1235.870691337455
 30
0.0
 11
957.8076841560903
 21
1274.770691337455
 31
0.0
  0
LINE
  5
629
330
1F
100
AcDbEntity
  8
LAY-10
  6
CENTER
 62
     2
100
AcDbLine
 10
939.2826841560909
 20
1254.470691337456
 30
0.0
 11
976.7826841560898
 21
1254.470691337456
 31
0.0
  0
LINE
  5
62A
330
1F
100
AcDbEntity
  8
LAY-10
  6
CENTER
 62
     2
100
AcDbLine
 10
1375.80768415617
 20
2293.070691337351
 30
0.0
 11
1375.80768415617
 21
2254.170691337351
 31
0.0
  0
LINE
  5
62B
330
1F
100
AcDbEntity
  8
LAY-10
  6
CENTER
 62
     2
100
AcDbLine
 10
1357.28268415617
 20
2274.470691337349
 30
0.0
 11
1394.782684156169
 21
2274.470691337349
 31
0.0
  0
LINE
  5
62C
330
1F
100
AcDbEntity
  8
LAY-10
  6
CENTER
 62
     2
100
AcDbLine
 10
1375.80768415617
 20
1235.870691337455
 30
0.0
 11
1375.80768415617
 21
1274.770691337455
 31
0.0
  0
LINE
  5
62D
330
1F
100
AcDbEntity
  8
LAY-10
  6
CENTER
 62
     2
100
AcDbLine
 10
1357.28268415617
 20
1254.470691337456
 30
0.0
 11
1394.782684156169
 21
1254.470691337456
 31
0.0
  0
LINE
  5
62E
330
1F
100
AcDbEntity
  8
LAY-10
  6
CENTER
 62
     2
100
AcDbLine
 10
1793.80768415617
 20
2293.070691337351
 30
0.0
 11
1793.80768415617
 21
2254.170691337351
 31
0.0
  0
LINE
  5
62F
330
1F
100
AcDbEntity
  8
LAY-10
  6
CENTER
 62
     2
100
AcDbLine
 10
1775.28268415617
 20
2274.470691337349
 30
0.0
 11
1812.78268415617
 21
2274.470691337349
 31
0.0
  0
LINE
  5
630
330
1F
100
AcDbEntity
  8
LAY-10
  6
CENTER
 62
     2
100
AcDbLine
 10
1793.807684156171
 20
1235.870691337455
 30
0.0
 11
1793.807684156171
 21
1274.770691337455
 31
0.0
  0
LINE
  5
631
330
1F
100
AcDbEntity
  8
LAY-10
  6
CENTER
 62
     2
100
AcDbLine
 10
1775.282684156171
 20
1254.470691337456
 30
0.0
 11
1812.78268415617
 21
1254.470691337456
 31
0.0
  0
LINE
  5
632
330
1F
100
AcDbEntity
  8
LAY-10
  6
CENTER
 62
     2
100
AcDbLine
 10
666.8076841562347
 20
2315.476320269668
 30
0.0
 11
666.8076841562331
 21
2357.276320269667
 31
0.0
  0
LINE
  5
633
330
1F
100
AcDbEntity
  8
LAY-10
  6
CENTER
 62
     2
100
AcDbLine
 10
1666.807684156116
 20
2315.476320269666
 30
0.0
 11
1666.807684156118
 21
2357.276320269665
 31
0.0
  0
LINE
  5
634
330
1F
100
AcDbEntity
  8
LAY-10
  6
CENTER
 62
     2
100
AcDbLine
 10
666.8076841562353
 20
1213.465062405218
 30
0.0
 11
666.8076841562337
 21
1171.665062405219
 31
0.0
  0
LINE
  5
635
330
1F
100
AcDbEntity
  8
LAY-10
  6
CENTER
 62
     2
100
AcDbLine
 10
1666.807684156116
 20
1213.465062405221
 30
0.0
 11
1666.807684156119
 21
1171.665062405221
 31
0.0
  0
DIMENSION
  5
637
330
1F
100
AcDbEntity
  8
LAY-20
  6
CONTINUOUS
 62
     4
100
AcDbDimension
  2
*D15
 10
2202.5235112715
 20
2315.4706913373
 30
0.0
 11
2177.5235112715
 21
1764.47069133726
 31
0.0
 70
   160
  3
ISO-25
100
AcDbAlignedDimension
 13
2372.523511271509
 23
1213.47069133722
 33
0.0
 14
2372.523511271509
 24
2315.4706913373
 34
0.0
 50
90.0
100
AcDbRotatedDimension
1001
ACAD
1000
DSTYLE
1002
{
1070
   270
1070
     2
1070
     6
1000
EX_BNORM
1070
     7
1000
EX_BNORM
1070
    41
1040
25.0
1070
    42
1040
15.0
1070
    44
1040
15.0
1070
    73
1070
     0
1070
    74
1070
     0
1070
    75
1070
     0
1070
    76
1070
     0
1070
    77
1070
     1
1070
    78
1070
     8
1070
   140
1040
31.181104
1070
   147
1040
0.0
1070
   173
1070
     1
1070
   176
1070
     4
1070
   177
1070
     4
1070
   178
1070
     7
1070
   271
1070
     1
1070
   277
1070
     2
1070
   279
1070
     2
1070
   280
1070
     0
1070
   287
1070
     5
1070
   340
1005
636
1002
}
  0
DIMENSION
  5
645
330
1F
100
AcDbEntity
  8
LAY-20
  6
CONTINUOUS
 62
     4
100
AcDbDimension
  2
*D16
 10
2272.5235112715
 20
2299.470691337316
 30
0.0
 11
2247.5235112715
 21
1764.470691337329
 31
0.0
 70
   160
  3
ISO-25
100
AcDbAlignedDimension
 13
2372.523511271507
 23
1229.470691337342
 33
0.0
 14
2372.523511271505
 24
2299.470691337316
 34
0.0
 50
90.0
100
AcDbRotatedDimension
1001
ACAD
1000
DSTYLE
1002
{
1070
   270
1070
     2
1070
     6
1000
EX_BNORM
1070
     7
1000
EX_BNORM
1070
    41
1040
25.0
1070
    42
1040
15.0
1070
    44
1040
15.0
1070
    73
1070
     0
1070
    74
1070
     0
1070
    75
1070
     0
1070
    76
1070
     0
1070
    77
1070
     1
1070
    78
1070
     8
1070
   140
1040
31.181104
1070
   147
1040
0.0
1070
   173
1070
     1
1070
   176
1070
     4
1070
   177
1070
     4
1070
   178
1070
     7
1070
   271
1070
     1
1070
   277
1070
     2
1070
   279
1070
     2
1070
   280
1070
     0
1070
   287
1070
     5
1070
   340
1005
636
1002
}
  0
DIMENSION
  5
652
330
1F
100
AcDbEntity
  8
LAY-20
  6
CONTINUOUS
 62
     4
100
AcDbDimension
  2
*D17
 10
2627.523511271509
 20
1314.47069133722
 30
0.0
 11
2602.523511271509
 21
1764.47069133726
 31
0.0
 70
   160
  3
ISO-25
100
AcDbAlignedDimension
 13
2527.52351127151
 23
2214.4706913373
 33
0.0
 14
2527.52351127151
 24
1314.47069133722
 34
0.0
 50
90.0
100
AcDbRotatedDimension
1001
ACAD
1000
DSTYLE
1002
{
1070
   270
1070
     2
1070
     6
1000
EX_BNORM
1070
     7
1000
EX_BNORM
1070
    41
1040
25.0
1070
    42
1040
15.0
1070
    44
1040
15.0
1070
    73
1070
     0
1070
    74
1070
     0
1070
    75
1070
     0
1070
    76
1070
     0
1070
    77
1070
     1
1070
    78
1070
     8
1070
   140
1040
31.181104
1070
   147
1040
0.0
1070
   173
1070
     1
1070
   176
1070
     4
1070
   177
1070
     4
1070
   178
1070
     7
1070
   271
1070
     1
1070
   277
1070
     2
1070
   279
1070
     2
1070
   280
1070
     0
1070
   287
1070
     5
1070
   340
1005
636
1002
}
  0
DIMENSION
  5
65F
330
1F
100
AcDbEntity
  8
LAY-20
  6
CONTINUOUS
 62
     4
100
AcDbDimension
  2
*D18
 10
2697.523511271509
 20
1222.270691337241
 30
0.0
 11
2672.523511271509
 21
1764.47069133727
 31
0.0
 70
   160
  3
ISO-25
100
AcDbAlignedDimension
 13
2442.7235112715
 23
2306.670691337301
 33
0.0
 14
2442.7235112715
 24
1222.270691337241
 34
0.0
 50
90.0
100
AcDbRotatedDimension
1001
ACAD
1000
DSTYLE
1002
{
1070
   270
1070
     2
1070
     6
1000
EX_BNORM
1070
     7
1000
EX_BNORM
1070
    41
1040
25.0
1070
    42
1040
15.0
1070
    44
1040
15.0
1070
    73
1070
     0
1070
    74
1070
     0
1070
    75
1070
     0
1070
    76
1070
     0
1070
    77
1070
     1
1070
    78
1070
     0
1070
   140
1040
31.181104
1070
   147
1040
0.0
1070
   173
1070
     1
1070
   176
1070
     4
1070
   177
1070
     4
1070
   178
1070
     7
1070
   271
1070
     0
1070
   277
1070
     2
1070
   279
1070
     2
1070
   280
1070
     0
1070
   287
1070
     5
1070
   340
1005
636
1002
}
  0
DIMENSION
  5
66C
330
1F
100
AcDbEntity
  8
LAY-20
  6
CONTINUOUS
 62
     4
100
AcDbDimension
  2
*D19
 10
2017.807684156201
 20
1028.7520497555
 30
0.0
 11
1166.807684156161
 21
1053.7520497555
 31
0.0
 70
   160
  3
ISO-25
100
AcDbAlignedDimension
 13
315.8076841561206
 23
858.7520497554906
 33
0.0
 14
2017.807684156201
 24
858.7520497554906
 34
0.0
100
AcDbRotatedDimension
1001
ACAD
1000
DSTYLE
1002
{
1070
   270
1070
     2
1070
     6
1000
EX_BNORM
1070
     7
1000
EX_BNORM
1070
    41
1040
25.0
1070
    42
1040
15.0
1070
    44
1040
15.0
1070
    73
1070
     0
1070
    74
1070
     0
1070
    75
1070
     0
1070
    76
1070
     0
1070
    77
1070
     1
1070
    78
1070
     8
1070
   140
1040
31.181104
1070
   147
1040
0.0
1070
   173
1070
     1
1070
   176
1070
     4
1070
   177
1070
     4
1070
   178
1070
     7
1070
   271
1070
     1
1070
   277
1070
     2
1070
   279
1070
     2
1070
   280
1070
     0
1070
   287
1070
     5
1070
   340
1005
636
1002
}
  0
DIMENSION
  5
679
330
1F
100
AcDbEntity
  8
LAY-20
  6
CONTINUOUS
 62
     4
100
AcDbDimension
  2
*D20
 10
747.8076841561157
 20
958.7520497554997
 30
0.0
 11
539.8076841561792
 21
983.7520497554997
 31
0.0
 70
   160
  3
ISO-25
100
AcDbAlignedDimension
 13
331.8076841562425
 23
858.7520497554933
 33
0.0
 14
747.8076841561157
 24
858.752049755496
 34
0.0
100
AcDbRotatedDimension
1001
ACAD
1000
DSTYLE
1002
{
1070
   270
1070
     2
1070
     6
1000
EX_BNORM
1070
     7
1000
EX_BNORM
1070
    41
1040
25.0
1070
    42
1040
15.0
1070
    44
1040
15.0
1070
    73
1070
     0
1070
    74
1070
     0
1070
    75
1070
     0
1070
    76
1070
     0
1070
    77
1070
     1
1070
    78
1070
     8
1070
   140
1040
31.181104
1070
   147
1040
0.0
1070
   173
1070
     1
1070
   176
1070
     4
1070
   177
1070
     4
1070
   178
1070
     7
1070
   271
1070
     1
1070
   277
1070
     2
1070
   279
1070
     2
1070
   280
1070
     0
1070
   287
1070
     5
1070
   340
1005
636
1002
}
  0
DIMENSION
  5
686
330
1F
100
AcDbEntity
  8
LAY-20
  6
CONTINUOUS
 62
     4
100
AcDbDimension
  2
*D21
 10
416.8076841561202
 20
603.7520497554897
 30
0.0
 11
1166.80768415616
 21
628.7520497554897
 31
0.0
 70
   160
  3
ISO-25
100
AcDbAlignedDimension
 13
1916.8076841562
 23
703.75204975549
 33
0.0
 14
416.8076841561202
 24
703.75204975549
 34
0.0
100
AcDbRotatedDimension
1001
ACAD
1000
DSTYLE
1002
{
1070
   270
1070
     2
1070
     6
1000
EX_BNORM
1070
     7
1000
EX_BNORM
1070
    41
1040
25.0
1070
    42
1040
15.0
1070
    44
1040
15.0
1070
    73
1070
     0
1070
    74
1070
     0
1070
    75
1070
     0
1070
    76
1070
     0
1070
    77
1070
     1
1070
    78
1070
     8
1070
   140
1040
31.181104
1070
   147
1040
0.0
1070
   173
1070
     1
1070
   176
1070
     4
1070
   177
1070
     4
1070
   178
1070
     7
1070
   271
1070
     1
1070
   277
1070
     2
1070
   279
1070
     2
1070
   280
1070
     0
1070
   287
1070
     5
1070
   340
1005
636
1002
}
  0
DIMENSION
  5
693
330
1F
100
AcDbEntity
  8
LAY-20
  6
CONTINUOUS
 62
     4
100
AcDbDimension
  2
*D22
 10
2146.706168966
 20
858.7520497554906
 30
0.0
 11
2121.706168966001
 21
781.2520497554901
 31
0.0
 70
   160
  3
ISO-25
100
AcDbAlignedDimension
 13
1963.0076841562
 23
703.75204975549
 33
0.0
 14
2017.807684156201
 24
858.7520497554906
 34
0.0
 50
90.0
100
AcDbRotatedDimension
1001
ACAD
1000
DSTYLE
1002
{
1070
   270
1070
     2
1070
     6
1000
EX_BNORM
1070
     7
1000
EX_BNORM
1070
    41
1040
25.0
1070
    42
1040
15.0
1070
    44
1040
15.0
1070
    73
1070
     0
1070
    74
1070
     0
1070
    75
1070
     0
1070
    76
1070
     0
1070
    77
1070
     1
1070
    78
1070
     8
1070
   140
1040
31.181104
1070
   147
1040
0.0
1070
   173
1070
     1
1070
   176
1070
     4
1070
   177
1070
     4
1070
   178
1070
     7
1070
   271
1070
     1
1070
   277
1070
     2
1070
   279
1070
     2
1070
   280
1070
     0
1070
   287
1070
     5
1070
   340
1005
636
1002
}
  0
DIMENSION
  5
6A0
330
1F
100
AcDbEntity
  8
LAY-20
  6
CONTINUOUS
 62
     4
100
AcDbDimension
  2
*D23
 10
324.6076841561402
 20
533.7520497554897
 30
0.0
 11
1166.80768415617
 21
558.7520497554897
 31
0.0
 70
   160
  3
ISO-25
100
AcDbAlignedDimension
 13
2009.007684156201
 23
788.5520497554899
 33
0.0
 14
324.6076841561402
 24
788.5520497554899
 34
0.0
100
AcDbRotatedDimension
1001
ACAD
1000
DSTYLE
1002
{
1070
   270
1070
     2
1070
     6
1000
EX_BNORM
1070
     7
1000
EX_BNORM
1070
    41
1040
25.0
1070
    42
1040
15.0
1070
    44
1040
15.0
1070
    73
1070
     0
1070
    74
1070
     0
1070
    75
1070
     0
1070
    76
1070
     0
1070
    77
1070
     1
1070
    78
1070
     0
1070
   140
1040
31.181104
1070
   147
1040
0.0
1070
   173
1070
     1
1070
   176
1070
     4
1070
   177
1070
     4
1070
   178
1070
     7
1070
   271
1070
     0
1070
   277
1070
     2
1070
   279
1070
     2
1070
   280
1070
     0
1070
   287
1070
     5
1070
   340
1005
636
1002
}
  0
DIMENSION
  5
6AD
330
1F
100
AcDbEntity
  8
LAY-20
  6
CONTINUOUS
 62
     4
100
AcDbDimension
  2
*D24
 10
972.0000000000007
 20
858.7520497554797
 30
0.0
 11
947.0000000000008
 21
903.7520497554796
 31
0.0
 70
   160
  3
ISO-25
100
AcDbAlignedDimension
 13
972.0000000000007
 23
852.7520497554707
 33
0.0
 14
972.0000000000007
 24
858.7520497554797
 34
0.0
 50
90.0
100
AcDbRotatedDimension
1001
ACAD
1000
DSTYLE
1002
{
1070
   270
1070
     2
1070
     6
1000
EX_BNORM
1070
     7
1000
EX_BNORM
1070
    41
1040
25.0
1070
    42
1040
0.0
1070
    44
1040
0.0
1070
    73
1070
     0
1070
    74
1070
     0
1070
    75
1070
     1
1070
    76
1070
     1
1070
    77
1070
     1
1070
    78
1070
     8
1070
   140
1040
31.181104
1070
   147
1040
0.0
1070
   173
1070
     1
1070
   176
1070
     4
1070
   177
1070
     4
1070
   178
1070
     7
1070
   271
1070
     1
1070
   277
1070
     2
1070
   279
1070
     2
1070
   280
1070
     2
1070
   287
1070
     5
1070
   340
1005
636
1002
}
  0
LINE
  5
6BA
330
1F
100
AcDbEntity
  8
LAY-255
  6
CONTINUOUS
 62
     7
100
AcDbLine
 10
3850.0
 20
220.0
 30
0.0
 11
2850.0
 21
220.0
 31
0.0
  0
LINE
  5
6BB
330
1F
100
AcDbEntity
  8
LAY-255
  6
CONTINUOUS
 62
     7
100
AcDbLine
 10
2888.0
 20
160.0
 30
0.0
 11
2968.0
 21
210.0
 31
0.0
  0
LINE
  5
6BC
330
1F
100
AcDbEntity
  8
LAY-255
  6
CONTINUOUS
 62
     7
100
AcDbLine
 10
2968.0
 20
210.0
 30
0.0
 11
3048.0
 21
160.0
 31
0.0
  0
LINE
  5
6BD
330
1F
100
AcDbEntity
  8
LAY-255
  6
CONTINUOUS
 62
     7
100
AcDbLine
 10
3048.0
 20
160.0
 30
0.0
 11
2968.0
 21
110.0
 31
0.0
  0
LINE
  5
6BE
330
1F
100
AcDbEntity
  8
LAY-255
  6
CONTINUOUS
 62
     7
100
AcDbLine
 10
2968.0
 20
110.0
 30
0.0
 11
2888.0
 21
160.0
 31
0.0
  0
LINE
  5
6BF
330
1F
100
AcDbEntity
  8
LAY-255
  6
CONTINUOUS
 62
     7
100
AcDbLine
 10
49.99999999999998
 20
100.0
 30
0.0
 11
3850.0
 21
100.0
 31
0.0
  0
LINE
  5
6C0
330
1F
100
AcDbEntity
  8
LAY-255
  6
CONTINUOUS
 62
     7
100
AcDbLine
 10
49.99999999999998
 20
2800.0
 30
0.0
 11
3850.0
 21
2800.0
 31
0.0
  0
LINE
  5
6C1
330
1F
100
AcDbEntity
  8
LAY-255
  6
CONTINUOUS
 62
     7
100
AcDbLine
 10
49.99999999999998
 20
100.0
 30
0.0
 11
49.99999999999998
 21
2800.0
 31
0.0
  0
LINE
  5
6C2
330
1F
100
AcDbEntity
  8
LAY-255
  6
CONTINUOUS
 62
     7
100
AcDbLine
 10
3850.0
 20
100.0
 30
0.0
 11
3850.0
 21
2800.0
 31
0.0
  0
LINE
  5
6C3
330
1F
100
AcDbEntity
  8
LAY-255
  6
CONTINUOUS
 62
     4
100
AcDbLine
 10
2850.0
 20
280.0
 30
0.0
 11
3850.0
 21
280.0
 31
0.0
  0
LINE
  5
6C4
330
1F
100
AcDbEntity
  8
LAY-255
  6
CONTINUOUS
 62
     7
100
AcDbLine
 10
2850.0
 20
100.0
 30
0.0
 11
2850.0
 21
670.0
 31
0.0
  0
POINT
  5
6C5
330
1F
100
AcDbEntity
  8
LAY-255
  6
CONTINUOUS
 62
     7
100
AcDbPoint
 10
2890.0
 20
400.0
 30
0.0
  0
LINE
  5
6C6
330
1F
100
AcDbEntity
  8
LAY-255
  6
CONTINUOUS
 62
     4
100
AcDbLine
 10
3350.0
 20
280.0
 30
0.0
 11
3350.0
 21
220.0
 31
0.0
  0
LINE
  5
6C7
330
1F
100
AcDbEntity
  8
LAY-255
  6
CONTINUOUS
 62
     7
100
AcDbLine
 10
3850.0
 20
670.0
 30
0.0
 11
2850.0
 21
670.0
 31
0.0
  0
LINE
  5
6C8
330
1F
100
AcDbEntity
  8
LAY-255
  6
CONTINUOUS
 62
     4
100
AcDbLine
 10
3830.0
 20
550.0
 30
0.0
 11
2870.0
 21
550.0
 31
0.0
  0
LINE
  5
6C9
330
1F
100
AcDbEntity
  8
LAY-255
  6
CONTINUOUS
 62
     4
100
AcDbLine
 10
3830.0
 20
610.0
 30
0.0
 11
2870.0
 21
610.0
 31
0.0
  0
POINT
  5
6CA
330
1F
100
AcDbEntity
  8
LAY-255
  6
CONTINUOUS
 62
     7
100
AcDbPoint
 10
2890.0
 20
500.0
 30
0.0
  0
POINT
  5
6CB
330
1F
100
AcDbEntity
  8
LAY-255
  6
CONTINUOUS
 62
     7
100
AcDbPoint
 10
3000.0
 20
560.0
 30
0.0
  0
POINT
  5
6CC
330
1F
100
AcDbEntity
  8
LAY-255
  6
CONTINUOUS
 62
     7
100
AcDbPoint
 10
3000.0
 20
620.0
 30
0.0
  0
POINT
  5
6CD
330
1F
100
AcDbEntity
  8
LAY-255
  6
CONTINUOUS
 62
     7
100
AcDbPoint
 10
2890.0
 20
350.0
 30
0.0
  0
POINT
  5
6CE
330
1F
100
AcDbEntity
  8
LAY-255
  6
CONTINUOUS
 62
     7
100
AcDbPoint
 10
2890.0
 20
450.0
 30
0.0
  0
POINT
  5
6CF
330
1F
100
AcDbEntity
  8
LAY-255
  6
CONTINUOUS
 62
     7
100
AcDbPoint
 10
2890.0
 20
300.0
 30
0.0
  0
TEXT
  5
6D0
330
1F
100
AcDbEntity
  8
LAY-255
  6
CONTINUOUS
 62
     7
100
AcDbText
 10
3081.3837890625
 20
155.4374999999999
 30
0.0
 40
51.5625
  1
福西鋳物株式会社
 41
1.342691999659091
  7
EXCADSTD
100
AcDbText
  0
TEXT
  5
6D1
330
1F
100
AcDbEntity
  8
LAY-255
  6
CONTINUOUS
 62
     7
100
AcDbText
 10
3085.09375
 20
119.8124999999999
 30
0.0
 40
17.1875
  1
ＦＵＫＵＮＩＳＨＩ
 41
1.204799226045263
  7
EXCADSTD
100
AcDbText
  0
TEXT
  5
6D2
330
1F
100
AcDbEntity
  8
LAY-255
  6
CONTINUOUS
 62
     7
100
AcDbText
 10
3327.191964285714
 20
119.8124999999999
 30
0.0
 40
17.1875
  1
ＦＯＵＮＤＲＹ
 41
1.243252752978497
  7
EXCADSTD
100
AcDbText
  0
TEXT
  5
6D3
330
1F
100
AcDbEntity
  8
LAY-255
  6
CONTINUOUS
 62
     7
100
AcDbText
 10
3519.945914381009
 20
119.8124999999999
 30
0.0
 40
17.1875
  1
ＣＯ.,ＬＴＤ.
 41
1.243831036226633
  7
EXCADSTD
100
AcDbText
  0
TEXT
  5
6D4
330
1F
100
AcDbEntity
  8
LAY-255
  6
CONTINUOUS
 62
     7
100
AcDbText
 10
2940.34375
 20
137.1875
 30
0.0
 40
51.5625
  1
S
 41
0.7582677563636363
  7
EXCADSTD
100
AcDbText
  0
TEXT
  5
6D5
330
1F
100
AcDbEntity
  8
LAY-255
  6
CONTINUOUS
 62
     7
100
AcDbText
 10
2971.046875
 20
137.4941037735999
 30
0.0
 40
51.5625
  1
F
 41
0.7440945272727272
  7
EXCADSTD
100
AcDbText
  0
TEXT
  5
6D6
330
1F
100
AcDbEntity
  8
LAY-255
  6
CONTINUOUS
 62
     7
100
AcDbText
 10
3371.0546875
 20
244.21875
 30
0.0
 40
25.78125
  1
縮尺
 41
1.080708718181818
  7
EXCADSTD
100
AcDbText
  0
TEXT
  5
6D7
330
1F
100
AcDbEntity
  8
LAY-255
  6
CONTINUOUS
 62
     7
100
AcDbText
 10
2872.65625
 20
565.625
 30
0.0
 40
34.375
  1
型式
 41
1.056348480681818
  7
EXCADSTD
100
AcDbText
  0
TEXT
  5
6D8
330
1F
100
AcDbEntity
  8
LAY-255
  6
CONTINUOUS
 62
     7
100
AcDbText
 10
2874.21875
 20
625.625
 30
0.0
 40
34.375
  1
品名
 41
0.9788386340909091
  7
EXCADSTD
100
AcDbText
  0
TEXT
  5
6D9
330
1F
100
AcDbEntity
  8
LAY-255
  6
CONTINUOUS
 62
     7
100
AcDbText
 10
2871.5234375
 20
244.21875
 30
0.0
 40
25.78125
  1
作成日
 41
1.000629973818182
  7
EXCADSTD
100
AcDbText
  0
TEXT
  5
6DA
330
1F
100
AcDbEntity
  8
LAY-255
  6
CONTINUOUS
 62
     7
100
AcDbText
 10
2891.40625
 20
505.625
 30
0.0
 40
34.375
  1
材質：スチール
 41
1.029301719225037
  7
EXCADSTD
100
AcDbText
  0
TEXT
  5
6DB
330
1F
100
AcDbEntity
  8
LAY-255
  6
CONTINUOUS
 62
     7
100
AcDbText
 10
3482.8125
 20
235.625
 30
0.0
 40
34.375
  1
１：１０
 41
0.9243863385026738
  7
EXCADSTD
100
AcDbText
  0
TEXT
  5
6DC
330
1F
100
AcDbEntity
  8
LAY-255
  6
CONTINUOUS
 62
     7
100
AcDbText
 10
3009.84375
 20
235.625
 30
0.0
 40
34.375
  1
２０／０８／０３
 41
0.9733971264935065
  7
EXCADSTD
100
AcDbText
  0
TEXT
  5
6DD
330
1F
100
AcDbEntity
  8
LAY-255
  6
CONTINUOUS
 62
     7
100
AcDbText
 10
3001.5625
 20
625.625
 30
0.0
 40
34.375
  1
縞鋼板製マシンハッチ
 41
1.016284949586777
  7
EXCADSTD
100
AcDbText
  0
TEXT
  5
6DE
330
1F
100
AcDbEntity
  8
LAY-255
  6
CONTINUOUS
 62
     7
100
AcDbText
 10
2893.75
 20
455.625
 30
0.0
 40
34.375
  1
受枠目地：ステンレス鋼
 41
1.012216953889409
  7
EXCADSTD
100
AcDbText
  0
TEXT
  5
6DF
330
1F
100
AcDbEntity
  8
LAY-255
  6
CONTINUOUS
 62
     7
100
AcDbText
 10
2892.65625
 20
355.625
 30
0.0
 40
34.375
  1
耐火材中蓋付き
 41
1.014779968107303
  7
EXCADSTD
100
AcDbText
  0
TEXT
  5
6E0
330
1F
100
AcDbEntity
  8
LAY-255
  6
CONTINUOUS
 62
     7
100
AcDbText
 10
3007.5
 20
565.625
 30
0.0
 40
34.375
  1
ＳＦ－９０×１５０ＣＭ－６Ｆ型
 41
1.005180326315789
  7
EXCADSTD
100
AcDbText
  0
TEXT
  5
6E1
330
1F
100
AcDbEntity
  8
LAY-255
  6
CONTINUOUS
 62
     7
100
AcDbText
 10
2892.03125
 20
405.625
 30
0.0
 40
34.375
  1
適用荷重：Ｔ－６
 41
1.000225024415584
  7
EXCADSTD
100
AcDbText
  0
ENDSEC
  0
SECTION
  2
OBJECTS
  0
DICTIONARY
  5
C
330
0
100
AcDbDictionary
  3
ACAD_GROUP
350
D
  3
ACAD_LAYOUT
350
1A
  3
ACAD_MATERIAL
350
43
  3
ACAD_MLEADERSTYLE
350
6B
  3
ACAD_MLINESTYLE
350
17
  3
ACAD_PLOTSETTINGS
350
19
  3
ACAD_SCALELIST
350
47
  3
ACAD_VISUALSTYLE
350
2A
  3
ACDBHEADERROUNDTRIPXREC
350
6E2
  3
ACDBVARIABLEDICTIONARY
350
703
  0
DICTIONARY
  5
70E
330
8
100
AcDbDictionary
280
     1
  3
ACAD_XREC_ROUNDTRIP
360
70F
  0
DICTIONARY
  5
D
102
{ACAD_REACTORS
330
C
102
}
330
C
100
AcDbDictionary
  0
DICTIONARY
  5
1A
102
{ACAD_REACTORS
330
C
102
}
330
C
100
AcDbDictionary
  0
DICTIONARY
  5
43
102
{ACAD_REACTORS
330
C
102
}
330
C
100
AcDbDictionary
  3
BYBLOCK
350
45
  3
BYLAYER
350
44
  3
GLOBAL
350
46
  0
DICTIONARY
  5
6B
102
{ACAD_REACTORS
330
C
102
}
330
C
100
AcDbDictionary
  3
STANDARD
350
6C
  0
DICTIONARY
  5
17
102
{ACAD_REACTORS
330
C
102
}
330
C
100
AcDbDictionary
  3
STANDARD
350
18
  0
DICTIONARY
  5
19
102
{ACAD_REACTORS
330
C
102
}
330
C
100
AcDbDictionary
  0
DICTIONARY
  5
47
102
{ACAD_REACTORS
330
C
102
}
330
C
100
AcDbDictionary
  3
A0
350
48
  3
A1
350
49
  3
A2
350
4A
  3
A3
350
4B
  3
A4
350
4C
  3
A5
350
4D
  3
A6
350
4E
  3
A7
350
4F
  3
A8
350
50
  3
A9
350
51
  3
B0
350
52
  3
B1
350
53
  3
B2
350
54
  3
B3
350
55
  3
B4
350
56
  3
B5
350
57
  3
B6
350
58
  3
B7
350
59
  3
B8
350
5A
  3
B9
350
5B
  3
C0
350
5C
  3
C1
350
5D
  3
C2
350
5E
  3
C3
350
5F
  3
C4
350
60
  3
C5
350
61
  3
C6
350
62
  3
C7
350
63
  3
C8
350
64
  3
C9
350
65
  3
D0
350
66
  3
D1
350
67
  3
D2
350
68
  0
DICTIONARY
  5
2A
102
{ACAD_REACTORS
330
C
102
}
330
C
100
AcDbDictionary
  3
2DWIREFRAME
350
2F
  3
BASIC
350
32
  3
BRIGHTEN
350
36
  3
COLORCHANGE
350
3A
  3
CONCEPTUAL
350
34
  3
DIM
350
35
  3
EDGECOLOROFF
350
3D
  3
FACEPATTERN
350
39
  3
FLAT
350
2B
  3
FLATWITHEDGES
350
2C
  3
GOURAUD
350
2D
  3
GOURAUDWITHEDGES
350
2E
  3
HIDDEN
350
31
  3
JITTEROFF
350
3B
  3
LINEPATTERN
350
38
  3
OVERHANGOFF
350
3C
  3
REALISTIC
350
33
  3
SHADED
350
42
  3
SHADED_WITH_EDGES
350
41
  3
SHADES_OF_GRAY
350
3E
  3
SKETCHY
350
3F
  3
THICKEN
350
37
  3
WIREFRAME
350
30
  3
X-RAY
350
40
  0
DICTIONARY
  5
6E2
102
{ACAD_REACTORS
330
C
102
}
330
C
100
AcDbDictionary
  3
CEPSNID
350
6EC
  3
CEPSNTYPE
350
6EB
  3
DIMSTYLEDATA
350
702
  3
FINGERPRINTGUID
350
6ED
  3
HYPERLINKBASE
350
6E5
  3
INSUNITS
350
6EA
  3
LAYOUTDICT
350
6E7
  3
LWETCUNION
350
6E9
  3
PLOTSETDICT
350
6E8
  3
PSVPSCALE
350
6EF
  3
PUCSBASE
350
6F2
  3
PUCSORGBACK
350
6F8
  3
PUCSORGBOTTOM
350
6F4
  3
PUCSORGFRONT
350
6F7
  3
PUCSORGLEFT
350
6F5
  3
PUCSORGRIGHT
350
6F6
  3
PUCSORGTOP
350
6F3
  3
PUCSORTHOREF
350
6F0
  3
PUCSORTHOVIEW
350
6F1
  3
STYLESHEET
350
6E6
  3
TSTACKALIGN
350
6E3
  3
TSTACKSIZE
350
6E4
  3
UCSBASE
350
6FB
  3
UCSORGBACK
350
701
  3
UCSORGBOTTOM
350
6FD
  3
UCSORGFRONT
350
700
  3
UCSORGLEFT
350
6FE
  3
UCSORGRIGHT
350
6FF
  3
UCSORGTOP
350
6FC
  3
UCSORTHOREF
350
6F9
  3
UCSORTHOVIEW
350
6FA
  3
VERSIONGUID
350
6EE
  0
DICTIONARY
  5
703
102
{ACAD_REACTORS
330
C
102
}
330
C
100
AcDbDictionary
  3
CANNOSCALE
350
710
  3
CENTEREXE
350
70A
  3
CENTERLTYPEFILE
350
70B
  3
CMLEADERSTYLE
350
705
  3
CTABLESTYLE
350
704
  3
DIMASSOC
350
70C
  3
HIDETEXT
350
70D
  3
MSLTSCALE
350
711
  3
PSOLHEIGHT
350
707
  3
PSOLWIDTH
350
706
  0
XRECORD
  5
70F
102
{ACAD_REACTORS
330
70E
102
}
330
70E
100
AcDbXrecord
102
VTR_0.000_0.000_1.000_1.000_VISUALSTYLE
340
2F
102
VTR_0.000_0.000_1.000_1.000_GRIDDISPLAY
 70
     3
102
VTR_0.000_0.000_1.000_1.000_GRIDMAJOR
 70
     5
102
VTR_0.000_0.000_1.000_1.000_DEFAULTLIGHTING
280
     1
102
VTR_0.000_0.000_1.000_1.000_DEFAULTLIGHTINGTYPE
 70
     1
102
VTR_0.000_0.000_1.000_1.000_BRIGHTNESS
141
0.0
102
VTR_0.000_0.000_1.000_1.000_CONTRAST
142
0.0
  0
MATERIAL
  5
45
102
{ACAD_REACTORS
330
43
102
}
102
{ACAD_XDICTIONARY
360
714
102
}
330
43
100
AcDbMaterial
  1
BYBLOCK
  0
MATERIAL
  5
44
102
{ACAD_REACTORS
330
43
102
}
102
{ACAD_XDICTIONARY
360
712
102
}
330
43
100
AcDbMaterial
  1
BYLAYER
  0
MATERIAL
  5
46
102
{ACAD_REACTORS
330
43
102
}
102
{ACAD_XDICTIONARY
360
716
102
}
330
43
100
AcDbMaterial
  1
GLOBAL
  0
ACAD_PROXY_OBJECT
  5
6C
102
{ACAD_REACTORS
330
6B
102
}
330
6B
100
AcDbProxyObject
 90
      499
 91
      505
 93
      610
310
40901902A4063FBFFFFFE0000000000000020400000000000020404214DD185B99185C990000000000000104090141901A00000000000004100000000000000041025764000000000000039000
340
14
340
0
340
11
340
0
 94
        0
1001
ACAD_MLEADERVER
1070
     2
  0
MLINESTYLE
  5
18
102
{ACAD_REACTORS
330
17
102
}
330
17
100
AcDbMlineStyle
  2
Standard
 70
     0
  3

 62
   256
 51
90.0
 52
90.0
 71
     2
 49
0.5
 62
   256
  6
BYLAYER
 49
-0.5
 62
   256
  6
BYLAYER
  0
ACAD_PROXY_OBJECT
  5
48
102
{ACAD_REACTORS
330
47
102
}
330
47
100
AcDbProxyObject
 90
      499
 91
      503
 93
       41
310
903313A31580
  0
ACAD_PROXY_OBJECT
  5
49
102
{ACAD_REACTORS
330
47
102
}
330
47
100
AcDbProxyObject
 90
      499
 91
      503
 93
      105
310
903313A324000000000000004000
  0
ACAD_PROXY_OBJECT
  5
4A
102
{ACAD_REACTORS
330
47
102
}
330
47
100
AcDbProxyObject
 90
      499
 91
      503
 93
      105
310
903313A344000000000000104000
  0
ACAD_PROXY_OBJECT
  5
4B
102
{ACAD_REACTORS
330
47
102
}
330
47
100
AcDbProxyObject
 90
      499
 91
      503
 93
      105
310
903313A354000000000000144000
  0
ACAD_PROXY_OBJECT
  5
4C
102
{ACAD_REACTORS
330
47
102
}
330
47
100
AcDbProxyObject
 90
      499
 91
      503
 93
      105
310
903313A384000000000000204000
  0
ACAD_PROXY_OBJECT
  5
4D
102
{ACAD_REACTORS
330
47
102
}
330
47
100
AcDbProxyObject
 90
      499
 91
      503
 93
      113
310
904313A31304000000000000244000
  0
ACAD_PROXY_OBJECT
  5
4E
102
{ACAD_REACTORS
330
47
102
}
330
47
100
AcDbProxyObject
 90
      499
 91
      503
 93
      113
310
904313A31364000000000000304000
  0
ACAD_PROXY_OBJECT
  5
4F
102
{ACAD_REACTORS
330
47
102
}
330
47
100
AcDbProxyObject
 90
      499
 91
      503
 93
      113
310
904313A32304000000000000344000
  0
ACAD_PROXY_OBJECT
  5
50
102
{ACAD_REACTORS
330
47
102
}
330
47
100
AcDbProxyObject
 90
      499
 91
      503
 93
      113
310
904313A333040000000000003E4000
  0
ACAD_PROXY_OBJECT
  5
51
102
{ACAD_REACTORS
330
47
102
}
330
47
100
AcDbProxyObject
 90
      499
 91
      503
 93
      113
310
904313A34304000000000000444000
  0
ACAD_PROXY_OBJECT
  5
52
102
{ACAD_REACTORS
330
47
102
}
330
47
100
AcDbProxyObject
 90
      499
 91
      503
 93
      113
310
904313A35304000000000000494000
  0
ACAD_PROXY_OBJECT
  5
53
102
{ACAD_REACTORS
330
47
102
}
330
47
100
AcDbProxyObject
 90
      499
 91
      503
 93
      121
310
905313A3130304000000000000594000
  0
ACAD_PROXY_OBJECT
  5
54
102
{ACAD_REACTORS
330
47
102
}
330
47
100
AcDbProxyObject
 90
      499
 91
      503
 93
      105
310
903323A310000000000000010100
  0
ACAD_PROXY_OBJECT
  5
55
102
{ACAD_REACTORS
330
47
102
}
330
47
100
AcDbProxyObject
 90
      499
 91
      503
 93
      105
310
903343A310000000000000410100
  0
ACAD_PROXY_OBJECT
  5
56
102
{ACAD_REACTORS
330
47
102
}
330
47
100
AcDbProxyObject
 90
      499
 91
      503
 93
      105
310
903383A310000000000000810100
  0
ACAD_PROXY_OBJECT
  5
57
102
{ACAD_REACTORS
330
47
102
}
330
47
100
AcDbProxyObject
 90
      499
 91
      503
 93
      113
310
90431303A310000000000000910100
  0
ACAD_PROXY_OBJECT
  5
58
102
{ACAD_REACTORS
330
47
102
}
330
47
100
AcDbProxyObject
 90
      499
 91
      503
 93
      121
310
9053130303A310000000000001650100
  0
ACAD_PROXY_OBJECT
  5
59
102
{ACAD_REACTORS
330
47
102
}
330
47
100
AcDbProxyObject
 90
      499
 91
      503
 93
      257
310
90E312F31323822203D2031272D3022000000000000200FC000000000000284000
  0
ACAD_PROXY_OBJECT
  5
5A
102
{ACAD_REACTORS
330
47
102
}
330
47
100
AcDbProxyObject
 90
      499
 91
      503
 93
      249
310
90D312F363422203D2031272D3022000000000000240FC000000000000284000
  0
ACAD_PROXY_OBJECT
  5
5B
102
{ACAD_REACTORS
330
47
102
}
330
47
100
AcDbProxyObject
 90
      499
 91
      503
 93
      249
310
90D312F333222203D2031272D3022000000000000280FC000000000000284000
  0
ACAD_PROXY_OBJECT
  5
5C
102
{ACAD_REACTORS
330
47
102
}
330
47
100
AcDbProxyObject
 90
      499
 91
      503
 93
      249
310
90D312F313622203D2031272D30220000000000002C0FC000000000000284000
  0
ACAD_PROXY_OBJECT
  5
5D
102
{ACAD_REACTORS
330
47
102
}
330
47
100
AcDbProxyObject
 90
      499
 91
      503
 93
      249
310
90D332F333222203D2031272D30220000000000002E0FC000000000000284000
  0
ACAD_PROXY_OBJECT
  5
5E
102
{ACAD_REACTORS
330
47
102
}
330
47
100
AcDbProxyObject
 90
      499
 91
      503
 93
      241
310
90C312F3822203D2031272D3022000000000000300FC000000000000284000
  0
ACAD_PROXY_OBJECT
  5
5F
102
{ACAD_REACTORS
330
47
102
}
330
47
100
AcDbProxyObject
 90
      499
 91
      503
 93
      249
310
90D332F313622203D2031272D3022000000000000320FC000000000000284000
  0
ACAD_PROXY_OBJECT
  5
60
102
{ACAD_REACTORS
330
47
102
}
330
47
100
AcDbProxyObject
 90
      499
 91
      503
 93
      241
310
90C312F3422203D2031272D3022000000000000340FC000000000000284000
  0
ACAD_PROXY_OBJECT
  5
61
102
{ACAD_REACTORS
330
47
102
}
330
47
100
AcDbProxyObject
 90
      499
 91
      503
 93
      241
310
90C332F3822203D2031272D3022000000000000360FC000000000000284000
  0
ACAD_PROXY_OBJECT
  5
62
102
{ACAD_REACTORS
330
47
102
}
330
47
100
AcDbProxyObject
 90
      499
 91
      503
 93
      241
310
90C312F3222203D2031272D3022000000000000380FC000000000000284000
  0
ACAD_PROXY_OBJECT
  5
63
102
{ACAD_REACTORS
330
47
102
}
330
47
100
AcDbProxyObject
 90
      499
 91
      503
 93
      241
310
90C332F3422203D2031272D30220000000000003A0FC000000000000284000
  0
ACAD_PROXY_OBJECT
  5
64
102
{ACAD_REACTORS
330
47
102
}
330
47
100
AcDbProxyObject
 90
      499
 91
      503
 93
      161
310
90A3122203D2031272D30224000000000000284000
  0
ACAD_PROXY_OBJECT
  5
65
102
{ACAD_REACTORS
330
47
102
}
330
47
100
AcDbProxyObject
 90
      499
 91
      503
 93
      257
310
90E312D312F3222203D2031272D30220000000000003E0FC000000000000284000
  0
ACAD_PROXY_OBJECT
  5
66
102
{ACAD_REACTORS
330
47
102
}
330
47
100
AcDbProxyObject
 90
      499
 91
      503
 93
      225
310
90A3322203D2031272D302200000000000002100000000000000284000
  0
ACAD_PROXY_OBJECT
  5
67
102
{ACAD_REACTORS
330
47
102
}
330
47
100
AcDbProxyObject
 90
      499
 91
      503
 93
      225
310
90A3622203D2031272D302200000000000006100000000000000284000
  0
ACAD_PROXY_OBJECT
  5
68
102
{ACAD_REACTORS
330
47
102
}
330
47
100
AcDbProxyObject
 90
      499
 91
      503
 93
      249
310
90D31272D3022203D2031272D30220000000000000A100000000000000284000
  0
ACAD_PROXY_OBJECT
  5
2F
102
{ACAD_REACTORS
330
2A
102
}
330
2A
100
AcDbProxyObject
 90
      499
 91
      501
 93
      436
310
42CC9915DA5C99599C985B595049028333333333333E33F0000000000000F90107901411070040501600405405064090741402480A0340
1001
ACAD
1000
AcDbSavedByObjectVersion
1070
     0
  0
ACAD_PROXY_OBJECT
  5
32
102
{ACAD_REACTORS
330
2A
102
}
330
2A
100
AcDbProxyObject
 90
      499
 91
      501
 93
      388
310
4150985CDA58D07406404333333333333E33F0000000000000F90107A41107004050150841D405064090741402480A0350
1001
ACAD
1000
AcDbSavedByObjectVersion
1070
     0
  0
ACAD_PROXY_OBJECT
  5
36
102
{ACAD_REACTORS
330
2A
102
}
330
2A
100
AcDbProxyObject
 90
      499
 91
      501
 93
      428
310
42109C9A59DA1D195B90C409028333333333333E33F0000000000000F9010790141107004050150841D405064090741402480A029950
1001
ACAD
1000
AcDbSavedByObjectVersion
1070
     0
  0
ACAD_PROXY_OBJECT
  5
3A
102
{ACAD_REACTORS
330
2A
102
}
330
2A
100
AcDbProxyObject
 90
      499
 91
      501
 93
      452
310
42D0DBDB1BDC90DA185B99D95104090240C333333333333E33F0000000000000F90108901411070040501508421405064090741402480A0350
1001
ACAD
1000
AcDbSavedByObjectVersion
1070
     0
  0
ACAD_PROXY_OBJECT
  5
34
102
{ACAD_REACTORS
330
2A
102
}
330
2A
100
AcDbProxyObject
 90
      499
 91
      501
 93
      500
310
4290DBDB98D95C1D1D585B10940D028333333333333E33F0000000000000F90107902409070040501000000000018199010841D405064090740C02480A0340
1001
ACAD
1000
AcDbSavedByObjectVersion
1070
     0
  0
ACAD_PROXY_OBJECT
  5
35
102
{ACAD_REACTORS
330
2A
102
}
330
2A
100
AcDbProxyObject
 90
      499
 91
      501
 93
      412
310
40D11A5B50B409028333333333333E33F0000000000000F9010790141107004050150841D405064090741402480A02677FFFFFD0
1001
ACAD
1000
AcDbSavedByObjectVersion
1070
     0
  0
ACAD_PROXY_OBJECT
  5
3D
102
{ACAD_REACTORS
330
2A
102
}
330
2A
100
AcDbProxyObject
 90
      499
 91
      501
 93
      452
310
43115919D950DBDB1BDC93D999916409028333333333333E33F0000000000000F9010790141107004050150841D405064090741402480A0350
1001
ACAD
1000
AcDbSavedByObjectVersion
1070
     0
  0
ACAD_PROXY_OBJECT
  5
39
102
{ACAD_REACTORS
330
2A
102
}
330
2A
100
AcDbProxyObject
 90
      499
 91
      501
 93
      444
310
42D19858D95C185D1D195C9B90F409028333333333333E33F0000000000000F9010790141107004050150841D405064090741402480A0350
1001
ACAD
1000
AcDbSavedByObjectVersion
1070
     0
  0
ACAD_PROXY_OBJECT
  5
2B
102
{ACAD_REACTORS
330
2A
102
}
330
2A
100
AcDbProxyObject
 90
      499
 91
      501
 93
      380
310
41119B185D240901404333333333333E33F0000000000000F9010740A907004050150841D405064090741402480A1B50
1001
ACAD
1000
AcDbSavedByObjectVersion
1070
     0
  0
ACAD_PROXY_OBJECT
  5
2C
102
{ACAD_REACTORS
330
2A
102
}
330
2A
100
AcDbProxyObject
 90
      499
 91
      501
 93
      468
310
43519B185D15DA5D1A115919D95CD0140901404333333333333E33F0000000000000F90107409019070040501600405405064090741402480A1B50
1001
ACAD
1000
AcDbSavedByObjectVersion
1070
     0
  0
ACAD_PROXY_OBJECT
  5
2D
102
{ACAD_REACTORS
330
2A
102
}
330
2A
100
AcDbProxyObject
 90
      499
 91
      501
 93
      404
310
41D1DBDD5C985D5910240902404333333333333E33F0000000000000F9010740A9070040501641D405064090741402480A1B50
1001
ACAD
1000
AcDbSavedByObjectVersion
1070
     0
  0
ACAD_PROXY_OBJECT
  5
2E
102
{ACAD_REACTORS
330
2A
102
}
330
2A
100
AcDbProxyObject
 90
      499
 91
      501
 93
      492
310
4411DBDD5C985D5915DA5D1A115919D95CD0340902404333333333333E33F0000000000000F90107409019070040501600405405064090741402480A1B50
1001
ACAD
1000
AcDbSavedByObjectVersion
1070
     0
  0
ACAD_PROXY_OBJECT
  5
31
102
{ACAD_REACTORS
330
2A
102
}
330
2A
100
AcDbProxyObject
 90
      499
 91
      501
 93
      476
310
41921A5919195B90640502408333333333333E33F0000000000000F901079024090700405020000000000001110200405405064090740C02480A0340
1001
ACAD
1000
AcDbSavedByObjectVersion
1070
     0
  0
ACAD_PROXY_OBJECT
  5
3B
102
{ACAD_REACTORS
330
2A
102
}
330
2A
100
AcDbProxyObject
 90
      499
 91
      501
 93
      428
310
42529A5D1D195C93D999914409028333333333333E33F0000000000000F9010790141107004050150A41D405064090741402480A0350
1001
ACAD
1000
AcDbSavedByObjectVersion
1070
     0
  0
ACAD_PROXY_OBJECT
  5
38
102
{ACAD_REACTORS
330
2A
102
}
330
2A
100
AcDbProxyObject
 90
      499
 91
      501
 93
      444
310
42D31A5B995C185D1D195C9B90E409028333333333333E33F0000000000000F9010790141107004050750841D405064090741402483A0350
1001
ACAD
1000
AcDbSavedByObjectVersion
1070
     0
  0
ACAD_PROXY_OBJECT
  5
3C
102
{ACAD_REACTORS
330
2A
102
}
330
2A
100
AcDbProxyObject
 90
      499
 91
      501
 93
      444
310
42D3DD995C9A185B99D3D999915409028333333333333E33F0000000000000F9010790141107004050150941D405064090741402480A0350
1001
ACAD
1000
AcDbSavedByObjectVersion
1070
     0
  0
ACAD_PROXY_OBJECT
  5
33
102
{ACAD_REACTORS
330
2A
102
}
330
2A
100
AcDbProxyObject
 90
      499
 91
      501
 93
      428
310
425499585B1A5CDD1A58D08409038333333333333E33F0000000000000F9010740A907004050150800405405064090740C02480A1B40
1001
ACAD
1000
AcDbSavedByObjectVersion
1070
     0
  0
ACAD_PROXY_OBJECT
  5
42
102
{ACAD_REACTORS
330
2A
102
}
330
2A
100
AcDbProxyObject
 90
      499
 91
      501
 93
      420
310
4194DA1859195911B40902404333333333333E33F0000000000000F9010740A41107004050150800405405064090840C02480A0B40
1001
ACAD
1000
AcDbSavedByObjectVersion
1070
     0
  0
ACAD_PROXY_OBJECT
  5
41
102
{ACAD_REACTORS
330
2A
102
}
330
2A
100
AcDbProxyObject
 90
      499
 91
      501
 93
      516
310
4454DA18591959081DDA5D1A08195919D95CD1A40902404333333333333E33F0000000000000F901074090142907004050250800405405064090740C02480A0B40
1001
ACAD
1000
AcDbSavedByObjectVersion
1070
     0
  0
ACAD_PROXY_OBJECT
  5
3E
102
{ACAD_REACTORS
330
2A
102
}
330
2A
100
AcDbProxyObject
 90
      499
 91
      501
 93
      532
310
4394DA1859195CC81BD98811DC985E5174090240C333333333333E33F0000000000000F901079024090741D01000000000000111010841D405064090740C02480A0340
1001
ACAD
1000
AcDbSavedByObjectVersion
1070
     0
  0
ACAD_PROXY_OBJECT
  5
3F
102
{ACAD_REACTORS
330
2A
102
}
330
2A
100
AcDbProxyObject
 90
      499
 91
      501
 93
      476
310
41D4DAD95D18DA1E51840502408333333333333E33F0000000000000F901079024090741D01000000000000111010B41D405064090741802480A0340
1001
ACAD
1000
AcDbSavedByObjectVersion
1070
     0
  0
ACAD_PROXY_OBJECT
  5
37
102
{ACAD_REACTORS
330
2A
102
}
330
2A
100
AcDbProxyObject
 90
      499
 91
      501
 93
      412
310
41D51A1A58DAD95B90D409028333333333333E33F0000000000000F9010790141107004050150C41D405064090741402480A0350
1001
ACAD
1000
AcDbSavedByObjectVersion
1070
     0
  0
ACAD_PROXY_OBJECT
  5
30
102
{ACAD_REACTORS
330
2A
102
}
330
2A
100
AcDbProxyObject
 90
      499
 91
      501
 93
      420
310
4255DA5C99599C985B595059028333333333333E33F0000000000000F90107901411070040501600405405064090740C02480A0340
1001
ACAD
1000
AcDbSavedByObjectVersion
1070
     0
  0
ACAD_PROXY_OBJECT
  5
40
102
{ACAD_REACTORS
330
2A
102
}
330
2A
100
AcDbProxyObject
 90
      499
 91
      501
 93
      404
310
41560B54985E51940902404000000000000E03F0000000000000F9010740501907004050150841D405064090740C02480A1B40
1001
ACAD
1000
AcDbSavedByObjectVersion
1070
     0
  0
XRECORD
  5
6EC
102
{ACAD_REACTORS
330
6E2
102
}
330
6E2
100
AcDbXrecord
340
0
  0
XRECORD
  5
6EB
102
{ACAD_REACTORS
330
6E2
102
}
330
6E2
100
AcDbXrecord
 90
        0
  0
XRECORD
  5
702
102
{ACAD_REACTORS
330
6E2
102
}
330
6E2
100
AcDbXrecord
1000
DSTYLE
1002
{
1070
   340
340
11
1002
}
  0
XRECORD
  5
6ED
102
{ACAD_REACTORS
330
6E2
102
}
330
6E2
100
AcDbXrecord
  1
{c1511786-1000-42fa-a3fb-f327ba3cc77c}
  0
XRECORD
  5
6E5
102
{ACAD_REACTORS
330
6E2
102
}
330
6E2
100
AcDbXrecord
  1

  0
XRECORD
  5
6EA
102
{ACAD_REACTORS
330
6E2
102
}
330
6E2
100
AcDbXrecord
 90
        4
  0
XRECORD
  5
6E7
102
{ACAD_REACTORS
330
6E2
102
}
330
6E2
100
AcDbXrecord
340
1A
  0
XRECORD
  5
6E9
102
{ACAD_REACTORS
330
6E2
102
}
330
6E2
100
AcDbXrecord
 90
    10781
  0
XRECORD
  5
6E8
102
{ACAD_REACTORS
330
6E2
102
}
330
6E2
100
AcDbXrecord
340
19
  0
XRECORD
  5
6EF
102
{ACAD_REACTORS
330
6E2
102
}
330
6E2
100
AcDbXrecord
 40
0.0
  0
XRECORD
  5
6F2
102
{ACAD_REACTORS
330
6E2
102
}
330
6E2
100
AcDbXrecord
340
0
  0
XRECORD
  5
6F8
102
{ACAD_REACTORS
330
6E2
102
}
330
6E2
100
AcDbXrecord
 10
0.0
 20
0.0
 30
0.0
  0
XRECORD
  5
6F4
102
{ACAD_REACTORS
330
6E2
102
}
330
6E2
100
AcDbXrecord
 10
0.0
 20
0.0
 30
0.0
  0
XRECORD
  5
6F7
102
{ACAD_REACTORS
330
6E2
102
}
330
6E2
100
AcDbXrecord
 10
0.0
 20
0.0
 30
0.0
  0
XRECORD
  5
6F5
102
{ACAD_REACTORS
330
6E2
102
}
330
6E2
100
AcDbXrecord
 10
0.0
 20
0.0
 30
0.0
  0
XRECORD
  5
6F6
102
{ACAD_REACTORS
330
6E2
102
}
330
6E2
100
AcDbXrecord
 10
0.0
 20
0.0
 30
0.0
  0
XRECORD
  5
6F3
102
{ACAD_REACTORS
330
6E2
102
}
330
6E2
100
AcDbXrecord
 10
0.0
 20
0.0
 30
0.0
  0
XRECORD
  5
6F0
102
{ACAD_REACTORS
330
6E2
102
}
330
6E2
100
AcDbXrecord
340
0
  0
XRECORD
  5
6F1
102
{ACAD_REACTORS
330
6E2
102
}
330
6E2
100
AcDbXrecord
 70
     0
  0
XRECORD
  5
6E6
102
{ACAD_REACTORS
330
6E2
102
}
330
6E2
100
AcDbXrecord
  1

  0
XRECORD
  5
6E3
102
{ACAD_REACTORS
330
6E2
102
}
330
6E2
100
AcDbXrecord
 90
        1
  0
XRECORD
  5
6E4
102
{ACAD_REACTORS
330
6E2
102
}
330
6E2
100
AcDbXrecord
 90
       70
  0
XRECORD
  5
6FB
102
{ACAD_REACTORS
330
6E2
102
}
330
6E2
100
AcDbXrecord
340
0
  0
XRECORD
  5
701
102
{ACAD_REACTORS
330
6E2
102
}
330
6E2
100
AcDbXrecord
 10
0.0
 20
0.0
 30
0.0
  0
XRECORD
  5
6FD
102
{ACAD_REACTORS
330
6E2
102
}
330
6E2
100
AcDbXrecord
 10
0.0
 20
0.0
 30
0.0
  0
XRECORD
  5
700
102
{ACAD_REACTORS
330
6E2
102
}
330
6E2
100
AcDbXrecord
 10
0.0
 20
0.0
 30
0.0
  0
XRECORD
  5
6FE
102
{ACAD_REACTORS
330
6E2
102
}
330
6E2
100
AcDbXrecord
 10
0.0
 20
0.0
 30
0.0
  0
XRECORD
  5
6FF
102
{ACAD_REACTORS
330
6E2
102
}
330
6E2
100
AcDbXrecord
 10
0.0
 20
0.0
 30
0.0
  0
XRECORD
  5
6FC
102
{ACAD_REACTORS
330
6E2
102
}
330
6E2
100
AcDbXrecord
 10
0.0
 20
0.0
 30
0.0
  0
XRECORD
  5
6F9
102
{ACAD_REACTORS
330
6E2
102
}
330
6E2
100
AcDbXrecord
340
0
  0
XRECORD
  5
6FA
102
{ACAD_REACTORS
330
6E2
102
}
330
6E2
100
AcDbXrecord
 70
     0
  0
XRECORD
  5
6EE
102
{ACAD_REACTORS
330
6E2
102
}
330
6E2
100
AcDbXrecord
  1
{FAEB1C32-E019-11D5-929B-00C0DF256EC4}
  0
DICTIONARYVAR
  5
710
102
{ACAD_REACTORS
330
703
102
}
330
703
100
DictionaryVariables
280
     0
  1
1:1
  0
DICTIONARYVAR
  5
70A
102
{ACAD_REACTORS
330
703
102
}
330
703
100
DictionaryVariables
280
     0
  1
3.500000
  0
DICTIONARYVAR
  5
70B
102
{ACAD_REACTORS
330
703
102
}
330
703
100
DictionaryVariables
280
     0
  1
acadiso.lin
  0
DICTIONARYVAR
  5
705
102
{ACAD_REACTORS
330
703
102
}
330
703
100
DictionaryVariables
280
     0
  1
Standard
  0
DICTIONARYVAR
  5
704
102
{ACAD_REACTORS
330
703
102
}
330
703
100
DictionaryVariables
280
     0
  1
Standard
  0
DICTIONARYVAR
  5
70C
102
{ACAD_REACTORS
330
703
102
}
330
703
100
DictionaryVariables
280
     0
  1
2
  0
DICTIONARYVAR
  5
70D
102
{ACAD_REACTORS
330
703
102
}
330
703
100
DictionaryVariables
280
     0
  1
1
  0
DICTIONARYVAR
  5
711
102
{ACAD_REACTORS
330
703
102
}
330
703
100
DictionaryVariables
280
     0
  1
1
  0
DICTIONARYVAR
  5
707
102
{ACAD_REACTORS
330
703
102
}
330
703
100
DictionaryVariables
280
     0
  1
80.000000
  0
DICTIONARYVAR
  5
706
102
{ACAD_REACTORS
330
703
102
}
330
703
100
DictionaryVariables
280
     0
  1
5.000000
  0
DICTIONARY
  5
714
330
45
100
AcDbDictionary
280
     1
  3
ACAD_XREC_ROUNDTRIP
360
715
  0
DICTIONARY
  5
712
330
44
100
AcDbDictionary
280
     1
  3
ACAD_XREC_ROUNDTRIP
360
713
  0
DICTIONARY
  5
716
330
46
100
AcDbDictionary
280
     1
  3
ACAD_XREC_ROUNDTRIP
360
717
  0
XRECORD
  5
715
102
{ACAD_REACTORS
330
714
102
}
330
714
100
AcDbXrecord
102
MATERIAL
148
0.0
149
0.0
149
0.0
 93
        0
 94
      127
282
     0
 72
     1
 77
     1
171
     1
175
     1
179
     1
273
     0
  0
XRECORD
  5
713
102
{ACAD_REACTORS
330
712
102
}
330
712
100
AcDbXrecord
102
MATERIAL
148
0.0
149
0.0
149
0.0
 93
        0
 94
      127
282
     0
 72
     1
 77
     1
171
     1
175
     1
179
     1
273
     0
  0
XRECORD
  5
717
102
{ACAD_REACTORS
330
716
102
}
330
716
100
AcDbXrecord
102
MATERIAL
148
0.0
149
0.0
149
0.0
 93
        0
 94
      127
282
     0
 72
     1
 77
     1
171
     1
175
     1
179
     1
273
     0
  0
ENDSEC
  0
EOF
