  0
SECTION
  2
HEADER
  9
$ACADVER
  1
AC1014
  9
$ACADMAINTVER
 70
     9
  9
$DWGCODEPAGE
  3
ANSI_932
  9
$INSBASE
 10
0.0
 20
0.0
 30
0.0
  9
$EXTMIN
 10
50.0
 20
99.99999999999773
 30
0.0
  9
$EXTMAX
 10
3850.0
 20
2800.0
 30
0.0
  9
$LIMMIN
 10
0.0
 20
0.0
  9
$LIMMAX
 10
420.0
 20
297.0
  9
$ORTHOMODE
 70
     0
  9
$REGENMODE
 70
     1
  9
$FILLMODE
 70
     1
  9
$QTEXTMODE
 70
     0
  9
$MIRRTEXT
 70
     1
  9
$DRAGMODE
 70
     2
  9
$LTSCALE
 40
0.2
  9
$OSMODE
 70
    37
  9
$ATTMODE
 70
     1
  9
$TEXTSIZE
 40
2.5
  9
$TRACEWID
 40
1.0
  9
$TEXTSTYLE
  7
STANDARD
  9
$CLAYER
  8
LAY-10
  9
$CELTYPE
  6
BYLAYER
  9
$CECOLOR
 62
   256
  9
$CELTSCALE
 40
1.0
  9
$DELOBJ
 70
     1
  9
$DISPSILH
 70
     0
  9
$DIMSCALE
 40
1.0
  9
$DIMASZ
 40
2.5
  9
$DIMEXO
 40
0.625
  9
$DIMDLI
 40
3.75
  9
$DIMRND
 40
0.0
  9
$DIMDLE
 40
0.0
  9
$DIMEXE
 40
1.25
  9
$DIMTP
 40
0.0
  9
$DIMTM
 40
0.0
  9
$DIMTXT
 40
2.5
  9
$DIMCEN
 40
2.5
  9
$DIMTSZ
 40
0.0
  9
$DIMTOL
 70
     0
  9
$DIMLIM
 70
     0
  9
$DIMTIH
 70
     0
  9
$DIMTOH
 70
     0
  9
$DIMSE1
 70
     0
  9
$DIMSE2
 70
     0
  9
$DIMTAD
 70
     1
  9
$DIMZIN
 70
     8
  9
$DIMBLK
  1

  9
$DIMASO
 70
     1
  9
$DIMSHO
 70
     1
  9
$DIMPOST
  1

  9
$DIMAPOST
  1

  9
$DIMALT
 70
     0
  9
$DIMALTD
 70
     3
  9
$DIMALTF
 40
0.03937007874016
  9
$DIMLFAC
 40
1.0
  9
$DIMTOFL
 70
     1
  9
$DIMTVP
 40
0.0
  9
$DIMTIX
 70
     0
  9
$DIMSOXD
 70
     0
  9
$DIMSAH
 70
     0
  9
$DIMBLK1
  1

  9
$DIMBLK2
  1

  9
$DIMSTYLE
  2
ISO-25
  9
$DIMCLRD
 70
     0
  9
$DIMCLRE
 70
     0
  9
$DIMCLRT
 70
     0
  9
$DIMTFAC
 40
1.0
  9
$DIMGAP
 40
0.625
  9
$DIMJUST
 70
     0
  9
$DIMSD1
 70
     0
  9
$DIMSD2
 70
     0
  9
$DIMTOLJ
 70
     0
  9
$DIMTZIN
 70
     8
  9
$DIMALTZ
 70
     0
  9
$DIMALTTZ
 70
     0
  9
$DIMFIT
 70
     3
  9
$DIMUPT
 70
     0
  9
$DIMUNIT
 70
     2
  9
$DIMDEC
 70
     2
  9
$DIMTDEC
 70
     2
  9
$DIMALTU
 70
     2
  9
$DIMALTTD
 70
     3
  9
$DIMTXSTY
  7
STANDARD
  9
$DIMAUNIT
 70
     0
  9
$LUNITS
 70
     2
  9
$LUPREC
 70
     4
  9
$SKETCHINC
 40
1.0
  9
$FILLETRAD
 40
10.0
  9
$AUNITS
 70
     0
  9
$AUPREC
 70
     0
  9
$MENU
  1
.
  9
$ELEVATION
 40
0.0
  9
$PELEVATION
 40
0.0
  9
$THICKNESS
 40
0.0
  9
$LIMCHECK
 70
     0
  9
$CHAMFERA
 40
0.0
  9
$CHAMFERB
 40
0.0
  9
$CHAMFERC
 40
0.0
  9
$CHAMFERD
 40
0.0
  9
$SKPOLY
 70
     0
  9
$TDCREATE
 40
2459229.333628056
  9
$TDUPDATE
 40
2459229.333628576
  9
$TDINDWG
 40
0.0000000116
  9
$TDUSRTIMER
 40
0.0000000116
  9
$USRTIMER
 70
     1
  9
$ANGBASE
 50
0.0
  9
$ANGDIR
 70
     0
  9
$PDMODE
 70
     0
  9
$PDSIZE
 40
0.0
  9
$PLINEWID
 40
0.0
  9
$COORDS
 70
     1
  9
$SPLFRAME
 70
     0
  9
$SPLINETYPE
 70
     6
  9
$SPLINESEGS
 70
     8
  9
$ATTDIA
 70
     0
  9
$ATTREQ
 70
     1
  9
$HANDLING
 70
     1
  9
$HANDSEED
  5
4B5
  9
$SURFTAB1
 70
     6
  9
$SURFTAB2
 70
     6
  9
$SURFTYPE
 70
     6
  9
$SURFU
 70
     6
  9
$SURFV
 70
     6
  9
$UCSNAME
  2

  9
$UCSORG
 10
0.0
 20
0.0
 30
0.0
  9
$UCSXDIR
 10
1.0
 20
0.0
 30
0.0
  9
$UCSYDIR
 10
0.0
 20
1.0
 30
0.0
  9
$PUCSNAME
  2

  9
$PUCSORG
 10
0.0
 20
0.0
 30
0.0
  9
$PUCSXDIR
 10
1.0
 20
0.0
 30
0.0
  9
$PUCSYDIR
 10
0.0
 20
1.0
 30
0.0
  9
$USERI1
 70
     0
  9
$USERI2
 70
     0
  9
$USERI3
 70
     0
  9
$USERI4
 70
     0
  9
$USERI5
 70
     0
  9
$USERR1
 40
0.0
  9
$USERR2
 40
0.0
  9
$USERR3
 40
0.0
  9
$USERR4
 40
0.0
  9
$USERR5
 40
0.0
  9
$WORLDVIEW
 70
     1
  9
$SHADEDGE
 70
     3
  9
$SHADEDIF
 70
    70
  9
$TILEMODE
 70
     1
  9
$MAXACTVP
 70
    64
  9
$PINSBASE
 10
0.0
 20
0.0
 30
0.0
  9
$PLIMCHECK
 70
     0
  9
$PEXTMIN
 10
1.000000000000000E+20
 20
1.000000000000000E+20
 30
1.000000000000000E+20
  9
$PEXTMAX
 10
-1.000000000000000E+20
 20
-1.000000000000000E+20
 30
-1.000000000000000E+20
  9
$PLIMMIN
 10
0.0
 20
0.0
  9
$PLIMMAX
 10
420.0
 20
297.0
  9
$UNITMODE
 70
     0
  9
$VISRETAIN
 70
     1
  9
$PLINEGEN
 70
     0
  9
$PSLTSCALE
 70
     1
  9
$TREEDEPTH
 70
  3020
  9
$PICKSTYLE
 70
     1
  9
$CMLSTYLE
  2
STANDARD
  9
$CMLJUST
 70
     0
  9
$CMLSCALE
 40
20.0
  9
$PROXYGRAPHICS
 70
     1
  9
$MEASUREMENT
 70
     1
  0
ENDSEC
  0
SECTION
  2
CLASSES
  0
CLASS
  1
ACDBDICTIONARYWDFLT
  2
AcDbDictionaryWithDefault
  3
ObjectDBX Classes
 90
        0
280
     0
281
     0
  0
CLASS
  1
VISUALSTYLE
  2
AcDbVisualStyle
  3
ObjectDBX Classes
 90
     4095
280
     0
281
     0
  0
CLASS
  1
MATERIAL
  2
AcDbMaterial
  3
ObjectDBX Classes
 90
     1153
280
     0
281
     0
  0
CLASS
  1
SCALE
  2
AcDbScale
  3
ObjectDBX Classes
 90
     1153
280
     0
281
     0
  0
CLASS
  1
TABLESTYLE
  2
AcDbTableStyle
  3
ObjectDBX Classes
 90
     4095
280
     0
281
     0
  0
CLASS
  1
MLEADERSTYLE
  2
AcDbMLeaderStyle
  3
ACDB_MLEADERSTYLE_CLASS
 90
     4095
280
     0
281
     0
  0
CLASS
  1
SUN
  2
AcDbSun
  3
SCENEOE
 90
     1153
280
     0
281
     0
  0
CLASS
  1
DICTIONARYVAR
  2
AcDbDictionaryVar
  3
ObjectDBX Classes
 90
        0
280
     0
281
     0
  0
CLASS
  1
XRECORD
  2
AcDbXrecord
  3
ObjectDBX Classes
 90
        0
280
     0
281
     0
  0
CLASS
  1
LWPOLYLINE
  2
AcDbPolyline
  3
ObjectDBX Classes
 90
        0
280
     0
281
     1
  0
CLASS
  1
HATCH
  2
AcDbHatch
  3
ObjectDBX Classes
 90
        0
280
     0
281
     1
  0
CLASS
  1
ACDBPLACEHOLDER
  2
AcDbPlaceHolder
  3
ObjectDBX Classes
 90
        0
280
     0
281
     0
  0
CLASS
  1
LAYOUT
  2
AcDbLayout
  3
ObjectDBX Classes
 90
        0
280
     0
281
     0
  0
ENDSEC
  0
SECTION
  2
TABLES
  0
TABLE
  2
VPORT
  5
8
102
{ACAD_XDICTIONARY
360
4AA
102
}
330
0
100
AcDbSymbolTable
 70
     1
  0
VPORT
  5
29
330
8
100
AcDbSymbolTableRecord
100
AcDbViewportTableRecord
  2
*ACTIVE
 70
     0
 10
0.0
 20
0.0
 11
1.0
 21
1.0
 12
1950.0
 22
1449.999999999999
 13
0.0
 23
0.0
 14
10.0
 24
10.0
 15
10.0
 25
10.0
 16
0.0
 26
0.0
 36
1.0
 17
0.0
 27
0.0
 37
0.0
 40
2700.000000000002
 41
1.407407407407406
 42
50.0
 43
0.0
 44
0.0
 50
0.0
 51
0.0
 71
     0
 72
  1000
 73
     1
 74
     3
 75
     0
 76
     0
 77
     0
 78
     0
  0
ENDTAB
  0
TABLE
  2
LTYPE
  5
5
330
0
100
AcDbSymbolTable
 70
     6
  0
LTYPE
  5
14
330
5
100
AcDbSymbolTableRecord
100
AcDbLinetypeTableRecord
  2
BYBLOCK
 70
     0
  3

 72
    65
 73
     0
 40
0.0
  0
LTYPE
  5
15
330
5
100
AcDbSymbolTableRecord
100
AcDbLinetypeTableRecord
  2
BYLAYER
 70
     0
  3

 72
    65
 73
     0
 40
0.0
  0
LTYPE
  5
16
330
5
100
AcDbSymbolTableRecord
100
AcDbLinetypeTableRecord
  2
CONTINUOUS
 70
     0
  3
Solid line
 72
    65
 73
     0
 40
0.0
  0
LTYPE
  5
6E
330
5
100
AcDbSymbolTableRecord
100
AcDbLinetypeTableRecord
  2
HIDDEN
 70
     0
  3
Hidden __ __ __ __ __ __ __ __ __ __ __ __ __ __
 72
    65
 73
     2
 40
9.524999999999999
 49
6.35
 74
     0
 49
-3.175
 74
     0
  0
LTYPE
  5
6F
330
5
100
AcDbSymbolTableRecord
100
AcDbLinetypeTableRecord
  2
CENTER
 70
     0
  3
Center ____ _ ____ _ ____ _ ____ _ ____ _ ____
 72
    65
 73
     4
 40
50.8
 49
31.75
 74
     0
 49
-6.35
 74
     0
 49
6.35
 74
     0
 49
-6.35
 74
     0
  0
LTYPE
  5
70
330
5
100
AcDbSymbolTableRecord
100
AcDbLinetypeTableRecord
  2
PHANTOM
 70
     0
  3
Phantom ______  __  __  ______  __  __  ______ 
 72
    65
 73
     6
 40
63.50000000000001
 49
31.75
 74
     0
 49
-6.35
 74
     0
 49
6.35
 74
     0
 49
-6.35
 74
     0
 49
6.35
 74
     0
 49
-6.35
 74
     0
  0
LTYPE
  5
71
330
5
100
AcDbSymbolTableRecord
100
AcDbLinetypeTableRecord
  2
ACAD_ISO06W100
 70
     0
  3
ISO long-dash triple-dot ____ ... ____ ... ____
 72
    65
 73
     8
 40
36.0
 49
24.0
 74
     0
 49
-3.0
 74
     0
 49
0.0
 74
     0
 49
-3.0
 74
     0
 49
0.0
 74
     0
 49
-3.0
 74
     0
 49
0.0
 74
     0
 49
-3.0
 74
     0
  0
LTYPE
  5
72
330
5
100
AcDbSymbolTableRecord
100
AcDbLinetypeTableRecord
  2
ACAD_ISO15W100
 70
     0
  3
ISO double-dash triple-dot __ __ . . . __ __ . .
 72
    65
 73
    10
 40
39.0
 49
12.0
 74
     0
 49
-3.0
 74
     0
 49
12.0
 74
     0
 49
-3.0
 74
     0
 49
0.0
 74
     0
 49
-3.0
 74
     0
 49
0.0
 74
     0
 49
-3.0
 74
     0
 49
0.0
 74
     0
 49
-3.0
 74
     0
  0
ENDTAB
  0
TABLE
  2
LAYER
  5
2
330
0
100
AcDbSymbolTable
 70
     6
  0
LAYER
  5
10
330
2
100
AcDbSymbolTableRecord
100
AcDbLayerTableRecord
  2
0
 70
     0
 62
     7
  6
CONTINUOUS
  0
LAYER
  5
75
330
2
100
AcDbSymbolTableRecord
100
AcDbLayerTableRecord
  2
LAY-10
 70
     0
 62
     7
  6
CONTINUOUS
  0
LAYER
  5
76
330
2
100
AcDbSymbolTableRecord
100
AcDbLayerTableRecord
  2
LAY-11
 70
     0
 62
     7
  6
CONTINUOUS
  0
LAYER
  5
77
330
2
100
AcDbSymbolTableRecord
100
AcDbLayerTableRecord
  2
LAY-20
 70
     0
 62
     7
  6
CONTINUOUS
  0
LAYER
  5
78
330
2
100
AcDbSymbolTableRecord
100
AcDbLayerTableRecord
  2
LAY-255
 70
     0
 62
     7
  6
CONTINUOUS
  0
LAYER
  5
D7
330
2
100
AcDbSymbolTableRecord
100
AcDbLayerTableRecord
  2
DEFPOINTS
 70
     0
 62
     7
  6
CONTINUOUS
  0
ENDTAB
  0
TABLE
  2
STYLE
  5
3
330
0
100
AcDbSymbolTable
 70
     4
  0
STYLE
  5
11
330
3
100
AcDbSymbolTableRecord
100
AcDbTextStyleTableRecord
  2
STANDARD
 70
     0
 40
0.0
 41
1.0
 50
0.0
 71
     0
 42
2.5
  3
simplex
  4
bigfont
  0
STYLE
  5
73
330
3
100
AcDbSymbolTableRecord
100
AcDbTextStyleTableRecord
  2
EXCADSTD
 70
     0
 40
0.0
 41
1.0
 50
0.0
 71
     0
 42
2.5
  3
simplex
  4
bigfont
  0
STYLE
  5
74
330
3
100
AcDbSymbolTableRecord
100
AcDbTextStyleTableRecord
  2
EXCADVERT
 70
     4
 40
0.0
 41
1.0
 50
0.0
 71
     0
 42
2.5
  3
simplex
  4
bigfont
  0
STYLE
  5
D5
330
3
100
AcDbSymbolTableRecord
100
AcDbTextStyleTableRecord
  2
EXCADDIM1
 70
     0
 40
0.0
 41
0.84
 50
0.0
 71
     0
 42
2.5
  3
simplex
  4
bigfont
  0
ENDTAB
  0
TABLE
  2
VIEW
  5
6
330
0
100
AcDbSymbolTable
 70
     0
  0
ENDTAB
  0
TABLE
  2
UCS
  5
7
330
0
100
AcDbSymbolTable
 70
     0
  0
ENDTAB
  0
TABLE
  2
APPID
  5
9
330
0
100
AcDbSymbolTable
 70
     2
  0
APPID
  5
12
330
9
100
AcDbSymbolTableRecord
100
AcDbRegAppTableRecord
  2
ACAD
 70
     0
  0
APPID
  5
4B4
330
9
100
AcDbSymbolTableRecord
100
AcDbRegAppTableRecord
  2
ACAD_MLEADERVER
 70
     0
  0
ENDTAB
  0
TABLE
  2
DIMSTYLE
  5
A
330
0
100
AcDbSymbolTable
 70
     1
  0
DIMSTYLE
105
27
102
{ACAD_REACTORS
330
D6
330
E4
330
F1
330
3FB
330
408
330
415
330
422
330
42F
330
43C
330
449
102
}
330
A
100
AcDbSymbolTableRecord
100
AcDbDimStyleTableRecord
  2
ISO-25
 70
     0
  3

  4

  5

  6

  7

 40
1.0
 41
2.5
 42
0.625
 43
3.75
 44
1.25
 45
0.0
 46
0.0
 47
0.0
 48
0.0
140
2.5
141
2.5
142
0.0
143
0.03937007874016
144
1.0
145
0.0
146
1.0
147
0.625
 71
     0
 72
     0
 73
     0
 74
     0
 75
     0
 76
     0
 77
     1
 78
     8
170
     0
171
     3
172
     1
173
     0
174
     0
175
     0
176
     0
177
     0
178
     0
270
     2
271
     2
272
     2
273
     2
274
     3
340
11
275
     0
280
     0
281
     0
282
     0
283
     0
284
     8
285
     0
286
     0
287
     5
288
     0
  0
ENDTAB
  0
TABLE
  2
BLOCK_RECORD
  5
1
330
0
100
AcDbSymbolTable
 70
    24
  0
BLOCK_RECORD
  5
1F
330
1
100
AcDbSymbolTableRecord
100
AcDbBlockTableRecord
  2
*MODEL_SPACE
  0
BLOCK_RECORD
  5
1B
330
1
100
AcDbSymbolTableRecord
100
AcDbBlockTableRecord
  2
*PAPER_SPACE
  0
BLOCK_RECORD
  5
79
330
1
100
AcDbSymbolTableRecord
100
AcDbBlockTableRecord
  2
EX_NORM
  0
BLOCK_RECORD
  5
7C
330
1
100
AcDbSymbolTableRecord
100
AcDbBlockTableRecord
  2
EX_BNORM
  0
BLOCK_RECORD
  5
7F
330
1
100
AcDbSymbolTableRecord
100
AcDbBlockTableRecord
  2
EX_BCIR
  0
BLOCK_RECORD
  5
82
330
1
100
AcDbSymbolTableRecord
100
AcDbBlockTableRecord
  2
EX_RCIVIL
  0
BLOCK_RECORD
  5
85
330
1
100
AcDbSymbolTableRecord
100
AcDbBlockTableRecord
  2
EX_SLANT
  0
BLOCK_RECORD
  5
88
330
1
100
AcDbSymbolTableRecord
100
AcDbBlockTableRecord
  2
EX_NONE
  0
BLOCK_RECORD
  5
8B
330
1
100
AcDbSymbolTableRecord
100
AcDbBlockTableRecord
  2
EX_CIVIL
  0
BLOCK_RECORD
  5
8E
330
1
100
AcDbSymbolTableRecord
100
AcDbBlockTableRecord
  2
EX_WCIR
  0
BLOCK_RECORD
  5
91
330
1
100
AcDbSymbolTableRecord
100
AcDbBlockTableRecord
  2
EX_WCIR2
  0
BLOCK_RECORD
  5
94
330
1
100
AcDbSymbolTableRecord
100
AcDbBlockTableRecord
  2
EX_WNORM
  0
BLOCK_RECORD
  5
97
330
1
100
AcDbSymbolTableRecord
100
AcDbBlockTableRecord
  2
EX_NNORM
  0
BLOCK_RECORD
  5
9A
330
1
100
AcDbSymbolTableRecord
100
AcDbBlockTableRecord
  2
EX_BBOX
  0
BLOCK_RECORD
  5
9D
330
1
100
AcDbSymbolTableRecord
100
AcDbBlockTableRecord
  2
EX_WBOX
  0
BLOCK_RECORD
  5
A0
330
1
100
AcDbSymbolTableRecord
100
AcDbBlockTableRecord
  2
EX_INTEGRAL
  0
BLOCK_RECORD
  5
D8
330
1
100
AcDbSymbolTableRecord
100
AcDbBlockTableRecord
  2
*D15
  0
BLOCK_RECORD
  5
E5
330
1
100
AcDbSymbolTableRecord
100
AcDbBlockTableRecord
  2
*D16
  0
BLOCK_RECORD
  5
F2
330
1
100
AcDbSymbolTableRecord
100
AcDbBlockTableRecord
  2
*D17
  0
BLOCK_RECORD
  5
3FC
330
1
100
AcDbSymbolTableRecord
100
AcDbBlockTableRecord
  2
*D18
  0
BLOCK_RECORD
  5
409
330
1
100
AcDbSymbolTableRecord
100
AcDbBlockTableRecord
  2
*D19
  0
BLOCK_RECORD
  5
416
330
1
100
AcDbSymbolTableRecord
100
AcDbBlockTableRecord
  2
*D20
  0
BLOCK_RECORD
  5
423
330
1
100
AcDbSymbolTableRecord
100
AcDbBlockTableRecord
  2
*D21
  0
BLOCK_RECORD
  5
430
330
1
100
AcDbSymbolTableRecord
100
AcDbBlockTableRecord
  2
*D22
  0
BLOCK_RECORD
  5
43D
330
1
100
AcDbSymbolTableRecord
100
AcDbBlockTableRecord
  2
*D23
  0
BLOCK_RECORD
  5
44A
330
1
100
AcDbSymbolTableRecord
100
AcDbBlockTableRecord
  2
*D24
  0
ENDTAB
  0
ENDSEC
  0
SECTION
  2
BLOCKS
  0
BLOCK
  5
20
330
1F
100
AcDbEntity
  8
0
100
AcDbBlockBegin
  2
*MODEL_SPACE
 70
     0
 10
0.0
 20
0.0
 30
0.0
  3
*MODEL_SPACE
  1

  0
ENDBLK
  5
21
330
1F
100
AcDbEntity
  8
0
100
AcDbBlockEnd
  0
BLOCK
  5
1C
330
1B
100
AcDbEntity
 67
     1
  8
0
100
AcDbBlockBegin
  2
*PAPER_SPACE
 70
     0
 10
0.0
 20
0.0
 30
0.0
  3
*PAPER_SPACE
  1

  0
ENDBLK
  5
1D
330
1B
100
AcDbEntity
 67
     1
  8
0
100
AcDbBlockEnd
  0
BLOCK
  5
7A
330
79
100
AcDbEntity
  8
0
100
AcDbBlockBegin
  2
EX_NORM
 70
     0
 10
0.0
 20
0.0
 30
0.0
  3
EX_NORM
  1

  0
LINE
  5
A3
330
79
100
AcDbEntity
  8
0
  6
CONTINUOUS
 62
     0
100
AcDbLine
 10
0.0
 20
0.0
 30
0.0
 11
-1.0
 21
0.0
 31
0.0
  0
LINE
  5
A4
330
79
100
AcDbEntity
  8
0
  6
CONTINUOUS
 62
     0
100
AcDbLine
 10
0.0
 20
0.0
 30
0.0
 11
-1.0
 21
0.166666667
 31
0.0
  0
LINE
  5
A5
330
79
100
AcDbEntity
  8
0
  6
CONTINUOUS
 62
     0
100
AcDbLine
 10
0.0
 20
0.0
 30
0.0
 11
-1.0
 21
-0.166666667
 31
0.0
  0
ENDBLK
  5
7B
330
79
100
AcDbEntity
  8
0
100
AcDbBlockEnd
  0
BLOCK
  5
7D
330
7C
100
AcDbEntity
  8
0
100
AcDbBlockBegin
  2
EX_BNORM
 70
     0
 10
0.0
 20
0.0
 30
0.0
  3
EX_BNORM
  1

  0
LINE
  5
A6
330
7C
100
AcDbEntity
  8
0
  6
CONTINUOUS
 62
     0
100
AcDbLine
 10
0.0
 20
0.0
 30
0.0
 11
-1.0
 21
0.0
 31
0.0
  0
LINE
  5
A7
330
7C
100
AcDbEntity
  8
0
  6
CONTINUOUS
 62
     0
100
AcDbLine
 10
0.0
 20
0.0
 30
0.0
 11
-1.0
 21
0.166666667
 31
0.0
  0
LINE
  5
A8
330
7C
100
AcDbEntity
  8
0
  6
CONTINUOUS
 62
     0
100
AcDbLine
 10
0.0
 20
0.0
 30
0.0
 11
-1.0
 21
-0.166666667
 31
0.0
  0
LINE
  5
A9
330
7C
100
AcDbEntity
  8
0
  6
CONTINUOUS
 62
     0
100
AcDbLine
 10
0.0
 20
0.0
 30
0.0
 11
-1.0
 21
0.083333333
 31
0.0
  0
LINE
  5
AA
330
7C
100
AcDbEntity
  8
0
  6
CONTINUOUS
 62
     0
100
AcDbLine
 10
0.0
 20
0.0
 30
0.0
 11
-1.0
 21
-0.083333333
 31
0.0
  0
LINE
  5
AB
330
7C
100
AcDbEntity
  8
0
  6
CONTINUOUS
 62
     0
100
AcDbLine
 10
-1.0
 20
0.166666667
 30
0.0
 11
-1.0
 21
-0.166666667
 31
0.0
  0
ENDBLK
  5
7E
330
7C
100
AcDbEntity
  8
0
100
AcDbBlockEnd
  0
BLOCK
  5
80
330
7F
100
AcDbEntity
  8
0
100
AcDbBlockBegin
  2
EX_BCIR
 70
     0
 10
0.0
 20
0.0
 30
0.0
  3
EX_BCIR
  1

  0
LINE
  5
AC
330
7F
100
AcDbEntity
  8
0
  6
CONTINUOUS
 62
     0
100
AcDbLine
 10
0.0
 20
0.0
 30
0.0
 11
-1.0
 21
0.0
 31
0.0
  0
CIRCLE
  5
AD
330
7F
100
AcDbEntity
  8
0
  6
CONTINUOUS
 62
     0
100
AcDbCircle
 10
0.0
 20
0.0
 30
0.0
 40
0.5
  0
CIRCLE
  5
AE
330
7F
100
AcDbEntity
  8
0
  6
CONTINUOUS
 62
     0
100
AcDbCircle
 10
0.0
 20
0.0
 30
0.0
 40
0.25
  0
ENDBLK
  5
81
330
7F
100
AcDbEntity
  8
0
100
AcDbBlockEnd
  0
BLOCK
  5
83
330
82
100
AcDbEntity
  8
0
100
AcDbBlockBegin
  2
EX_RCIVIL
 70
     0
 10
0.0
 20
0.0
 30
0.0
  3
EX_RCIVIL
  1

  0
LINE
  5
AF
330
82
100
AcDbEntity
  8
0
  6
CONTINUOUS
 62
     0
100
AcDbLine
 10
0.0
 20
0.0
 30
0.0
 11
-1.0
 21
0.0
 31
0.0
  0
LINE
  5
B0
330
82
100
AcDbEntity
  8
0
  6
CONTINUOUS
 62
     0
100
AcDbLine
 10
-1.0
 20
-0.25
 30
0.0
 11
0.0
 21
-0.25
 31
0.0
  0
LINE
  5
B1
330
82
100
AcDbEntity
  8
0
  6
CONTINUOUS
 62
     0
100
AcDbLine
 10
-1.0
 20
-0.125
 30
0.0
 11
0.0
 21
-0.125
 31
0.0
  0
ENDBLK
  5
84
330
82
100
AcDbEntity
  8
0
100
AcDbBlockEnd
  0
BLOCK
  5
86
330
85
100
AcDbEntity
  8
0
100
AcDbBlockBegin
  2
EX_SLANT
 70
     0
 10
0.0
 20
0.0
 30
0.0
  3
EX_SLANT
  1

  0
LINE
  5
B2
330
85
100
AcDbEntity
  8
0
  6
CONTINUOUS
 62
     0
100
AcDbLine
 10
0.0
 20
0.0
 30
0.0
 11
-1.0
 21
0.0
 31
0.0
  0
LINE
  5
B3
330
85
100
AcDbEntity
  8
0
  6
CONTINUOUS
 62
     0
100
AcDbLine
 10
0.707106781
 20
0.707106781
 30
0.0
 11
-0.707106781
 21
-0.707106781
 31
0.0
  0
ENDBLK
  5
87
330
85
100
AcDbEntity
  8
0
100
AcDbBlockEnd
  0
BLOCK
  5
89
330
88
100
AcDbEntity
  8
0
100
AcDbBlockBegin
  2
EX_NONE
 70
     0
 10
0.0
 20
0.0
 30
0.0
  3
EX_NONE
  1

  0
LINE
  5
B4
330
88
100
AcDbEntity
  8
0
  6
CONTINUOUS
 62
     0
100
AcDbLine
 10
0.0
 20
0.0
 30
0.0
 11
-1.0
 21
0.0
 31
0.0
  0
ENDBLK
  5
8A
330
88
100
AcDbEntity
  8
0
100
AcDbBlockEnd
  0
BLOCK
  5
8C
330
8B
100
AcDbEntity
  8
0
100
AcDbBlockBegin
  2
EX_CIVIL
 70
     0
 10
0.0
 20
0.0
 30
0.0
  3
EX_CIVIL
  1

  0
LINE
  5
B5
330
8B
100
AcDbEntity
  8
0
  6
CONTINUOUS
 62
     0
100
AcDbLine
 10
0.0
 20
0.0
 30
0.0
 11
-1.0
 21
0.0
 31
0.0
  0
LINE
  5
B6
330
8B
100
AcDbEntity
  8
0
  6
CONTINUOUS
 62
     0
100
AcDbLine
 10
-1.0
 20
0.25
 30
0.0
 11
0.0
 21
0.25
 31
0.0
  0
LINE
  5
B7
330
8B
100
AcDbEntity
  8
0
  6
CONTINUOUS
 62
     0
100
AcDbLine
 10
-1.0
 20
0.125
 30
0.0
 11
0.0
 21
0.125
 31
0.0
  0
ENDBLK
  5
8D
330
8B
100
AcDbEntity
  8
0
100
AcDbBlockEnd
  0
BLOCK
  5
8F
330
8E
100
AcDbEntity
  8
0
100
AcDbBlockBegin
  2
EX_WCIR
 70
     0
 10
0.0
 20
0.0
 30
0.0
  3
EX_WCIR
  1

  0
LINE
  5
B8
330
8E
100
AcDbEntity
  8
0
  6
CONTINUOUS
 62
     0
100
AcDbLine
 10
0.0
 20
0.0
 30
0.0
 11
-1.0
 21
0.0
 31
0.0
  0
CIRCLE
  5
B9
330
8E
100
AcDbEntity
  8
0
  6
CONTINUOUS
 62
     0
100
AcDbCircle
 10
0.0
 20
0.0
 30
0.0
 40
0.5
  0
ENDBLK
  5
90
330
8E
100
AcDbEntity
  8
0
100
AcDbBlockEnd
  0
BLOCK
  5
92
330
91
100
AcDbEntity
  8
0
100
AcDbBlockBegin
  2
EX_WCIR2
 70
     0
 10
0.0
 20
0.0
 30
0.0
  3
EX_WCIR2
  1

  0
LINE
  5
BA
330
91
100
AcDbEntity
  8
0
  6
CONTINUOUS
 62
     0
100
AcDbLine
 10
-0.5
 20
0.0
 30
0.0
 11
-1.0
 21
0.0
 31
0.0
  0
CIRCLE
  5
BB
330
91
100
AcDbEntity
  8
0
  6
CONTINUOUS
 62
     0
100
AcDbCircle
 10
0.0
 20
0.0
 30
0.0
 40
0.5
  0
ENDBLK
  5
93
330
91
100
AcDbEntity
  8
0
100
AcDbBlockEnd
  0
BLOCK
  5
95
330
94
100
AcDbEntity
  8
0
100
AcDbBlockBegin
  2
EX_WNORM
 70
     0
 10
0.0
 20
0.0
 30
0.0
  3
EX_WNORM
  1

  0
LINE
  5
BC
330
94
100
AcDbEntity
  8
0
  6
CONTINUOUS
 62
     0
100
AcDbLine
 10
-1.0
 20
0.0
 30
0.0
 11
-1.0
 21
0.0
 31
0.0
  0
LINE
  5
BD
330
94
100
AcDbEntity
  8
0
  6
CONTINUOUS
 62
     0
100
AcDbLine
 10
0.0
 20
0.0
 30
0.0
 11
-1.0
 21
0.166666667
 31
0.0
  0
LINE
  5
BE
330
94
100
AcDbEntity
  8
0
  6
CONTINUOUS
 62
     0
100
AcDbLine
 10
0.0
 20
0.0
 30
0.0
 11
-1.0
 21
-0.166666667
 31
0.0
  0
LINE
  5
BF
330
94
100
AcDbEntity
  8
0
  6
CONTINUOUS
 62
     0
100
AcDbLine
 10
-1.0
 20
0.166666667
 30
0.0
 11
-1.0
 21
-0.166666667
 31
0.0
  0
ENDBLK
  5
96
330
94
100
AcDbEntity
  8
0
100
AcDbBlockEnd
  0
BLOCK
  5
98
330
97
100
AcDbEntity
  8
0
100
AcDbBlockBegin
  2
EX_NNORM
 70
     0
 10
0.0
 20
0.0
 30
0.0
  3
EX_NNORM
  1

  0
LINE
  5
C0
330
97
100
AcDbEntity
  8
0
  6
CONTINUOUS
 62
     0
100
AcDbLine
 10
0.0
 20
0.0
 30
0.0
 11
-1.0
 21
0.0
 31
0.0
  0
LINE
  5
C1
330
97
100
AcDbEntity
  8
0
  6
CONTINUOUS
 62
     0
100
AcDbLine
 10
0.0
 20
0.0
 30
0.0
 11
-1.0
 21
0.166666667
 31
0.0
  0
LINE
  5
C2
330
97
100
AcDbEntity
  8
0
  6
CONTINUOUS
 62
     0
100
AcDbLine
 10
0.0
 20
0.0
 30
0.0
 11
-1.0
 21
-0.166666667
 31
0.0
  0
LINE
  5
C3
330
97
100
AcDbEntity
  8
0
  6
CONTINUOUS
 62
     0
100
AcDbLine
 10
-1.0
 20
0.166666667
 30
0.0
 11
-1.0
 21
-0.166666667
 31
0.0
  0
ENDBLK
  5
99
330
97
100
AcDbEntity
  8
0
100
AcDbBlockEnd
  0
BLOCK
  5
9B
330
9A
100
AcDbEntity
  8
0
100
AcDbBlockBegin
  2
EX_BBOX
 70
     0
 10
0.0
 20
0.0
 30
0.0
  3
EX_BBOX
  1

  0
LINE
  5
C4
330
9A
100
AcDbEntity
  8
0
  6
CONTINUOUS
 62
     0
100
AcDbLine
 10
0.0
 20
0.0
 30
0.0
 11
-1.0
 21
0.0
 31
0.0
  0
LINE
  5
C5
330
9A
100
AcDbEntity
  8
0
  6
CONTINUOUS
 62
     0
100
AcDbLine
 10
-0.5
 20
0.5
 30
0.0
 11
0.5
 21
0.5
 31
0.0
  0
LINE
  5
C6
330
9A
100
AcDbEntity
  8
0
  6
CONTINUOUS
 62
     0
100
AcDbLine
 10
0.5
 20
0.5
 30
0.0
 11
0.5
 21
-0.5
 31
0.0
  0
LINE
  5
C7
330
9A
100
AcDbEntity
  8
0
  6
CONTINUOUS
 62
     0
100
AcDbLine
 10
0.5
 20
-0.5
 30
0.0
 11
-0.5
 21
-0.5
 31
0.0
  0
LINE
  5
C8
330
9A
100
AcDbEntity
  8
0
  6
CONTINUOUS
 62
     0
100
AcDbLine
 10
-0.5
 20
-0.5
 30
0.0
 11
-0.5
 21
0.5
 31
0.0
  0
LINE
  5
C9
330
9A
100
AcDbEntity
  8
0
  6
CONTINUOUS
 62
     0
100
AcDbLine
 10
-0.25
 20
0.25
 30
0.0
 11
0.25
 21
0.25
 31
0.0
  0
LINE
  5
CA
330
9A
100
AcDbEntity
  8
0
  6
CONTINUOUS
 62
     0
100
AcDbLine
 10
0.25
 20
0.25
 30
0.0
 11
0.25
 21
-0.25
 31
0.0
  0
LINE
  5
CB
330
9A
100
AcDbEntity
  8
0
  6
CONTINUOUS
 62
     0
100
AcDbLine
 10
0.25
 20
-0.25
 30
0.0
 11
-0.25
 21
-0.25
 31
0.0
  0
LINE
  5
CC
330
9A
100
AcDbEntity
  8
0
  6
CONTINUOUS
 62
     0
100
AcDbLine
 10
-0.25
 20
-0.25
 30
0.0
 11
-0.25
 21
0.25
 31
0.0
  0
ENDBLK
  5
9C
330
9A
100
AcDbEntity
  8
0
100
AcDbBlockEnd
  0
BLOCK
  5
9E
330
9D
100
AcDbEntity
  8
0
100
AcDbBlockBegin
  2
EX_WBOX
 70
     0
 10
0.0
 20
0.0
 30
0.0
  3
EX_WBOX
  1

  0
LINE
  5
CD
330
9D
100
AcDbEntity
  8
0
  6
CONTINUOUS
 62
     0
100
AcDbLine
 10
-0.5
 20
0.0
 30
0.0
 11
-1.0
 21
0.0
 31
0.0
  0
LINE
  5
CE
330
9D
100
AcDbEntity
  8
0
  6
CONTINUOUS
 62
     0
100
AcDbLine
 10
-0.5
 20
0.5
 30
0.0
 11
0.5
 21
0.5
 31
0.0
  0
LINE
  5
CF
330
9D
100
AcDbEntity
  8
0
  6
CONTINUOUS
 62
     0
100
AcDbLine
 10
0.5
 20
0.5
 30
0.0
 11
0.5
 21
-0.5
 31
0.0
  0
LINE
  5
D0
330
9D
100
AcDbEntity
  8
0
  6
CONTINUOUS
 62
     0
100
AcDbLine
 10
0.5
 20
-0.5
 30
0.0
 11
-0.5
 21
-0.5
 31
0.0
  0
LINE
  5
D1
330
9D
100
AcDbEntity
  8
0
  6
CONTINUOUS
 62
     0
100
AcDbLine
 10
-0.5
 20
-0.5
 30
0.0
 11
-0.5
 21
0.5
 31
0.0
  0
ENDBLK
  5
9F
330
9D
100
AcDbEntity
  8
0
100
AcDbBlockEnd
  0
BLOCK
  5
A1
330
A0
100
AcDbEntity
  8
0
100
AcDbBlockBegin
  2
EX_INTEGRAL
 70
     0
 10
0.0
 20
0.0
 30
0.0
  3
EX_INTEGRAL
  1

  0
LINE
  5
D2
330
A0
100
AcDbEntity
  8
0
  6
CONTINUOUS
 62
     0
100
AcDbLine
 10
0.0
 20
0.0
 30
0.0
 11
-1.0
 21
0.0
 31
0.0
  0
ARC
  5
D3
330
A0
100
AcDbEntity
  8
0
  6
CONTINUOUS
 62
     0
100
AcDbCircle
 10
0.542115
 20
0.164992
 30
0.0
 40
0.56667
100
AcDbArc
 50
73.07249033629006
 51
196.9275130221199
  0
ARC
  5
D4
330
A0
100
AcDbEntity
  8
0
  6
CONTINUOUS
 62
     0
100
AcDbCircle
 10
-0.542115
 20
-0.164992
 30
0.0
 40
0.56667
100
AcDbArc
 50
253.0724869220464
 51
16.9275130559125
  0
ENDBLK
  5
A2
330
A0
100
AcDbEntity
  8
0
100
AcDbBlockEnd
  0
BLOCK
  5
D9
330
D8
100
AcDbEntity
  8
0
100
AcDbBlockBegin
  2
*D15
 70
     1
 10
0.0
 20
0.0
 30
0.0
  3
*D15
  1

  0
LINE
  5
DB
330
D8
100
AcDbEntity
  8
LAY-10
  6
CONTINUOUS
 62
     4
100
AcDbLine
 10
550.0500000000006
 20
906.4999999990798
 30
0.0
 11
550.0500000000006
 21
1076.49999999908
 31
0.0
  0
LINE
  5
DC
330
D8
100
AcDbEntity
  8
LAY-10
  6
CONTINUOUS
 62
     4
100
AcDbLine
 10
1660.050000000001
 20
906.4999999990798
 30
0.0
 11
1660.050000000001
 21
1076.49999999908
 31
0.0
  0
LINE
  5
DD
330
D8
100
AcDbEntity
  8
LAY-10
  6
CONTINUOUS
 62
     4
100
AcDbLine
 10
575.0500000000006
 20
1061.49999999908
 30
0.0
 11
1635.050000000001
 21
1061.49999999908
 31
0.0
  0
INSERT
  5
DE
330
D8
100
AcDbEntity
  8
LAY-10
 62
     4
100
AcDbBlockReference
  2
EX_BNORM
 10
550.0500000000006
 20
1061.49999999908
 30
0.0
 41
25.0
 42
25.0
 43
25.0
 50
180.0
  0
INSERT
  5
DF
330
D8
100
AcDbEntity
  8
LAY-10
 62
     4
100
AcDbBlockReference
  2
EX_BNORM
 10
1660.050000000001
 20
1061.49999999908
 30
0.0
 41
25.0
 42
25.0
 43
25.0
  0
MTEXT
  5
E0
330
D8
100
AcDbEntity
  8
LAY-10
 62
     7
100
AcDbMText
 10
1105.050000000001
 20
1086.49999999908
 30
0.0
 40
31.181104
 41
0.0
 71
     5
 72
     1
  1
1110
  7
EXCADDIM1
  0
POINT
  5
E1
330
D8
100
AcDbEntity
  8
DEFPOINTS
 62
     0
100
AcDbPoint
 10
550.0500000000006
 20
891.4999999990798
 30
0.0
  0
POINT
  5
E2
330
D8
100
AcDbEntity
  8
DEFPOINTS
 62
     0
100
AcDbPoint
 10
1660.050000000001
 20
891.4999999990798
 30
0.0
  0
POINT
  5
E3
330
D8
100
AcDbEntity
  8
DEFPOINTS
 62
     0
100
AcDbPoint
 10
1660.050000000001
 20
1061.49999999908
 30
0.0
  0
ENDBLK
  5
DA
330
D8
100
AcDbEntity
  8
0
100
AcDbBlockEnd
  0
BLOCK
  5
E6
330
E5
100
AcDbEntity
  8
0
100
AcDbBlockBegin
  2
*D16
 70
     1
 10
0.0
 20
0.0
 30
0.0
  3
*D16
  1

  0
LINE
  5
E8
330
E5
100
AcDbEntity
  8
LAY-10
  6
CONTINUOUS
 62
     4
100
AcDbLine
 10
566.050000000001
 20
906.4999999990825
 30
0.0
 11
566.050000000001
 21
1006.49999999908
 31
0.0
  0
LINE
  5
E9
330
E5
100
AcDbEntity
  8
LAY-10
  6
CONTINUOUS
 62
     4
100
AcDbLine
 10
924.0500000000386
 20
906.4999999990835
 30
0.0
 11
924.0500000000386
 21
1006.49999999908
 31
0.0
  0
LINE
  5
EA
330
E5
100
AcDbEntity
  8
LAY-10
  6
CONTINUOUS
 62
     4
100
AcDbLine
 10
591.050000000001
 20
991.4999999990798
 30
0.0
 11
899.0500000000386
 21
991.4999999990798
 31
0.0
  0
INSERT
  5
EB
330
E5
100
AcDbEntity
  8
LAY-10
 62
     4
100
AcDbBlockReference
  2
EX_BNORM
 10
566.050000000001
 20
991.4999999990798
 30
0.0
 41
25.0
 42
25.0
 43
25.0
 50
180.0
  0
INSERT
  5
EC
330
E5
100
AcDbEntity
  8
LAY-10
 62
     4
100
AcDbBlockReference
  2
EX_BNORM
 10
924.0500000000386
 20
991.4999999990798
 30
0.0
 41
25.0
 42
25.0
 43
25.0
  0
MTEXT
  5
ED
330
E5
100
AcDbEntity
  8
LAY-10
 62
     7
100
AcDbMText
 10
745.0500000000198
 20
1016.49999999908
 30
0.0
 40
31.181104
 41
0.0
 71
     5
 72
     1
  1
358
  7
EXCADDIM1
  0
POINT
  5
EE
330
E5
100
AcDbEntity
  8
DEFPOINTS
 62
     0
100
AcDbPoint
 10
566.050000000001
 20
891.4999999990825
 30
0.0
  0
POINT
  5
EF
330
E5
100
AcDbEntity
  8
DEFPOINTS
 62
     0
100
AcDbPoint
 10
924.0500000000386
 20
891.4999999990835
 30
0.0
  0
POINT
  5
F0
330
E5
100
AcDbEntity
  8
DEFPOINTS
 62
     0
100
AcDbPoint
 10
924.0500000000386
 20
991.4999999990798
 30
0.0
  0
ENDBLK
  5
E7
330
E5
100
AcDbEntity
  8
0
100
AcDbBlockEnd
  0
BLOCK
  5
F3
330
F2
100
AcDbEntity
  8
0
100
AcDbBlockBegin
  2
*D17
 70
     1
 10
0.0
 20
0.0
 30
0.0
  3
*D17
  1

  0
LINE
  5
F5
330
F2
100
AcDbEntity
  8
LAY-10
  6
CONTINUOUS
 62
     4
100
AcDbLine
 10
605.0500000000006
 20
776.0999999990997
 30
0.0
 11
605.0500000000006
 21
676.4999999990997
 31
0.0
  0
LINE
  5
F6
330
F2
100
AcDbEntity
  8
LAY-10
  6
CONTINUOUS
 62
     4
100
AcDbLine
 10
1605.050000000001
 20
776.0999999990997
 30
0.0
 11
1605.050000000001
 21
676.4999999990997
 31
0.0
  0
LINE
  5
F7
330
F2
100
AcDbEntity
  8
LAY-10
  6
CONTINUOUS
 62
     4
100
AcDbLine
 10
630.0500000000006
 20
691.4999999990997
 30
0.0
 11
1580.050000000001
 21
691.4999999990997
 31
0.0
  0
INSERT
  5
F8
330
F2
100
AcDbEntity
  8
LAY-10
 62
     4
100
AcDbBlockReference
  2
EX_BNORM
 10
605.0500000000006
 20
691.4999999990997
 30
0.0
 41
25.0
 42
25.0
 43
25.0
 50
180.0
  0
INSERT
  5
F9
330
F2
100
AcDbEntity
  8
LAY-10
 62
     4
100
AcDbBlockReference
  2
EX_BNORM
 10
1605.050000000001
 20
691.4999999990997
 30
0.0
 41
25.0
 42
25.0
 43
25.0
  0
MTEXT
  5
FA
330
F2
100
AcDbEntity
  8
LAY-10
 62
     7
100
AcDbMText
 10
1105.050000000001
 20
716.4999999990997
 30
0.0
 40
31.181104
 41
0.0
 71
     5
 72
     1
  1
1000
  7
EXCADDIM1
  0
POINT
  5
FB
330
F2
100
AcDbEntity
  8
DEFPOINTS
 62
     0
100
AcDbPoint
 10
605.0500000000006
 20
791.0999999990997
 30
0.0
  0
POINT
  5
FC
330
F2
100
AcDbEntity
  8
DEFPOINTS
 62
     0
100
AcDbPoint
 10
1605.050000000001
 20
791.0999999990997
 30
0.0
  0
POINT
  5
FD
330
F2
100
AcDbEntity
  8
DEFPOINTS
 62
     0
100
AcDbPoint
 10
1605.050000000001
 20
691.4999999990997
 30
0.0
  0
ENDBLK
  5
F4
330
F2
100
AcDbEntity
  8
0
100
AcDbBlockEnd
  0
BLOCK
  5
3FD
330
3FC
100
AcDbEntity
  8
0
100
AcDbBlockBegin
  2
*D18
 70
     1
 10
0.0
 20
0.0
 30
0.0
  3
*D18
  1

  0
LINE
  5
3FF
330
3FC
100
AcDbEntity
  8
LAY-20
  6
CONTINUOUS
 62
     4
100
AcDbLine
 10
2032.05
 20
2403.7500000002
 30
0.0
 11
1862.049999999999
 21
2403.7500000002
 31
0.0
  0
LINE
  5
400
330
3FC
100
AcDbEntity
  8
LAY-20
  6
CONTINUOUS
 62
     4
100
AcDbLine
 10
2032.05
 20
1293.7500000002
 30
0.0
 11
1862.049999999999
 21
1293.7500000002
 31
0.0
  0
LINE
  5
401
330
3FC
100
AcDbEntity
  8
LAY-20
  6
CONTINUOUS
 62
     4
100
AcDbLine
 10
1877.049999999999
 20
2378.7500000002
 30
0.0
 11
1877.049999999999
 21
1318.7500000002
 31
0.0
  0
INSERT
  5
402
330
3FC
100
AcDbEntity
  8
LAY-20
 62
     4
100
AcDbBlockReference
  2
EX_BNORM
 10
1877.049999999999
 20
2403.7500000002
 30
0.0
 41
25.0
 42
25.0
 43
25.0
 50
90.0
  0
INSERT
  5
403
330
3FC
100
AcDbEntity
  8
LAY-20
 62
     4
100
AcDbBlockReference
  2
EX_BNORM
 10
1877.049999999999
 20
1293.7500000002
 30
0.0
 41
25.0
 42
25.0
 43
25.0
 50
270.0
  0
MTEXT
  5
404
330
3FC
100
AcDbEntity
  8
LAY-20
 62
     7
100
AcDbMText
 10
1852.049999999999
 20
1848.7500000002
 30
0.0
 40
31.181104
 41
0.0
 71
     5
 72
     1
  1
1110
  7
EXCADDIM1
 11
0.0
 21
1.0
 31
0.0
  0
POINT
  5
405
330
3FC
100
AcDbEntity
  8
DEFPOINTS
 62
     0
100
AcDbPoint
 10
2047.05
 20
2403.7500000002
 30
0.0
  0
POINT
  5
406
330
3FC
100
AcDbEntity
  8
DEFPOINTS
 62
     0
100
AcDbPoint
 10
2047.05
 20
1293.7500000002
 30
0.0
  0
POINT
  5
407
330
3FC
100
AcDbEntity
  8
DEFPOINTS
 62
     0
100
AcDbPoint
 10
1877.049999999999
 20
1293.7500000002
 30
0.0
  0
ENDBLK
  5
3FE
330
3FC
100
AcDbEntity
  8
0
100
AcDbBlockEnd
  0
BLOCK
  5
40A
330
409
100
AcDbEntity
  8
0
100
AcDbBlockBegin
  2
*D19
 70
     1
 10
0.0
 20
0.0
 30
0.0
  3
*D19
  1

  0
LINE
  5
40C
330
409
100
AcDbEntity
  8
LAY-20
  6
CONTINUOUS
 62
     4
100
AcDbLine
 10
2032.049999999997
 20
1309.750000000199
 30
0.0
 11
1932.05
 21
1309.750000000199
 31
0.0
  0
LINE
  5
40D
330
409
100
AcDbEntity
  8
LAY-20
  6
CONTINUOUS
 62
     4
100
AcDbLine
 10
2032.049999999997
 20
2387.750000000206
 30
0.0
 11
1932.05
 21
2387.750000000206
 31
0.0
  0
LINE
  5
40E
330
409
100
AcDbEntity
  8
LAY-20
  6
CONTINUOUS
 62
     4
100
AcDbLine
 10
1947.05
 20
1334.750000000199
 30
0.0
 11
1947.05
 21
2362.750000000206
 31
0.0
  0
INSERT
  5
40F
330
409
100
AcDbEntity
  8
LAY-20
 62
     4
100
AcDbBlockReference
  2
EX_BNORM
 10
1947.05
 20
1309.750000000199
 30
0.0
 41
25.0
 42
25.0
 43
25.0
 50
270.0
  0
INSERT
  5
410
330
409
100
AcDbEntity
  8
LAY-20
 62
     4
100
AcDbBlockReference
  2
EX_BNORM
 10
1947.05
 20
2387.750000000206
 30
0.0
 41
25.0
 42
25.0
 43
25.0
 50
90.0
  0
MTEXT
  5
411
330
409
100
AcDbEntity
  8
LAY-20
 62
     7
100
AcDbMText
 10
1922.05
 20
1848.750000000202
 30
0.0
 40
31.181104
 41
0.0
 71
     5
 72
     1
  1
1078
  7
EXCADDIM1
 11
0.0
 21
1.0
 31
0.0
  0
POINT
  5
412
330
409
100
AcDbEntity
  8
DEFPOINTS
 62
     0
100
AcDbPoint
 10
2047.049999999997
 20
1309.750000000199
 30
0.0
  0
POINT
  5
413
330
409
100
AcDbEntity
  8
DEFPOINTS
 62
     0
100
AcDbPoint
 10
2047.049999999997
 20
2387.750000000206
 30
0.0
  0
POINT
  5
414
330
409
100
AcDbEntity
  8
DEFPOINTS
 62
     0
100
AcDbPoint
 10
1947.05
 20
2387.750000000206
 30
0.0
  0
ENDBLK
  5
40B
330
409
100
AcDbEntity
  8
0
100
AcDbBlockEnd
  0
BLOCK
  5
417
330
416
100
AcDbEntity
  8
0
100
AcDbBlockBegin
  2
*D20
 70
     1
 10
0.0
 20
0.0
 30
0.0
  3
*D20
  1

  0
LINE
  5
419
330
416
100
AcDbEntity
  8
LAY-20
  6
CONTINUOUS
 62
     4
100
AcDbLine
 10
2162.05
 20
1348.7500000002
 30
0.0
 11
2262.049999999998
 21
1348.7500000002
 31
0.0
  0
LINE
  5
41A
330
416
100
AcDbEntity
  8
LAY-20
  6
CONTINUOUS
 62
     4
100
AcDbLine
 10
2162.05
 20
2348.7500000002
 30
0.0
 11
2262.049999999998
 21
2348.7500000002
 31
0.0
  0
LINE
  5
41B
330
416
100
AcDbEntity
  8
LAY-20
  6
CONTINUOUS
 62
     4
100
AcDbLine
 10
2247.049999999998
 20
1373.7500000002
 30
0.0
 11
2247.049999999998
 21
2323.7500000002
 31
0.0
  0
INSERT
  5
41C
330
416
100
AcDbEntity
  8
LAY-20
 62
     4
100
AcDbBlockReference
  2
EX_BNORM
 10
2247.049999999998
 20
1348.7500000002
 30
0.0
 41
25.0
 42
25.0
 43
25.0
 50
270.0
  0
INSERT
  5
41D
330
416
100
AcDbEntity
  8
LAY-20
 62
     4
100
AcDbBlockReference
  2
EX_BNORM
 10
2247.049999999998
 20
2348.7500000002
 30
0.0
 41
25.0
 42
25.0
 43
25.0
 50
90.0
  0
MTEXT
  5
41E
330
416
100
AcDbEntity
  8
LAY-20
 62
     7
100
AcDbMText
 10
2222.049999999998
 20
1848.7500000002
 30
0.0
 40
31.181104
 41
0.0
 71
     5
 72
     1
  1
1000
  7
EXCADDIM1
 11
0.0
 21
1.0
 31
0.0
  0
POINT
  5
41F
330
416
100
AcDbEntity
  8
DEFPOINTS
 62
     0
100
AcDbPoint
 10
2147.05
 20
1348.7500000002
 30
0.0
  0
POINT
  5
420
330
416
100
AcDbEntity
  8
DEFPOINTS
 62
     0
100
AcDbPoint
 10
2147.05
 20
2348.7500000002
 30
0.0
  0
POINT
  5
421
330
416
100
AcDbEntity
  8
DEFPOINTS
 62
     0
100
AcDbPoint
 10
2247.049999999998
 20
2348.7500000002
 30
0.0
  0
ENDBLK
  5
418
330
416
100
AcDbEntity
  8
0
100
AcDbBlockEnd
  0
BLOCK
  5
424
330
423
100
AcDbEntity
  8
0
100
AcDbBlockBegin
  2
*D21
 70
     1
 10
0.0
 20
0.0
 30
0.0
  3
*D21
  1

  0
LINE
  5
426
330
423
100
AcDbEntity
  8
LAY-20
  6
CONTINUOUS
 62
     4
100
AcDbLine
 10
2132.549999999999
 20
2394.9500000002
 30
0.0
 11
2332.05
 21
2394.9500000002
 31
0.0
  0
LINE
  5
427
330
423
100
AcDbEntity
  8
LAY-20
  6
CONTINUOUS
 62
     4
100
AcDbLine
 10
2132.549999999999
 20
1302.5500000002
 30
0.0
 11
2332.05
 21
1302.5500000002
 31
0.0
  0
LINE
  5
428
330
423
100
AcDbEntity
  8
LAY-20
  6
CONTINUOUS
 62
     4
100
AcDbLine
 10
2317.05
 20
2369.9500000002
 30
0.0
 11
2317.05
 21
1327.5500000002
 31
0.0
  0
INSERT
  5
429
330
423
100
AcDbEntity
  8
LAY-20
 62
     4
100
AcDbBlockReference
  2
EX_BNORM
 10
2317.05
 20
2394.9500000002
 30
0.0
 41
25.0
 42
25.0
 43
25.0
 50
90.0
  0
INSERT
  5
42A
330
423
100
AcDbEntity
  8
LAY-20
 62
     4
100
AcDbBlockReference
  2
EX_BNORM
 10
2317.05
 20
1302.5500000002
 30
0.0
 41
25.0
 42
25.0
 43
25.0
 50
270.0
  0
MTEXT
  5
42B
330
423
100
AcDbEntity
  8
LAY-20
 62
     7
100
AcDbMText
 10
2292.05
 20
1848.7500000002
 30
0.0
 40
31.181104
 41
0.0
 71
     5
 72
     1
  1
1092
  7
EXCADDIM1
 11
0.0
 21
1.0
 31
0.0
  0
POINT
  5
42C
330
423
100
AcDbEntity
  8
DEFPOINTS
 62
     0
100
AcDbPoint
 10
2117.549999999999
 20
2394.9500000002
 30
0.0
  0
POINT
  5
42D
330
423
100
AcDbEntity
  8
DEFPOINTS
 62
     0
100
AcDbPoint
 10
2117.549999999999
 20
1302.5500000002
 30
0.0
  0
POINT
  5
42E
330
423
100
AcDbEntity
  8
DEFPOINTS
 62
     0
100
AcDbPoint
 10
2317.05
 20
1302.5500000002
 30
0.0
  0
ENDBLK
  5
425
330
423
100
AcDbEntity
  8
0
100
AcDbBlockEnd
  0
BLOCK
  5
431
330
430
100
AcDbEntity
  8
0
100
AcDbBlockBegin
  2
*D22
 70
     1
 10
0.0
 20
0.0
 30
0.0
  3
*D22
  1

  0
LINE
  5
433
330
430
100
AcDbEntity
  8
LAY-20
  6
CONTINUOUS
 62
     4
100
AcDbLine
 10
1675.050000000001
 20
891.4999999990999
 30
0.0
 11
1803.9484848098
 21
891.4999999990999
 31
0.0
  0
LINE
  5
434
330
430
100
AcDbEntity
  8
LAY-20
  6
CONTINUOUS
 62
     4
100
AcDbLine
 10
1623.250000000011
 20
791.4999999991098
 30
0.0
 11
1803.9484848098
 21
791.4999999991098
 31
0.0
  0
LINE
  5
435
330
430
100
AcDbEntity
  8
LAY-20
  6
CONTINUOUS
 62
     4
100
AcDbLine
 10
1788.9484848098
 20
866.4999999990999
 30
0.0
 11
1788.9484848098
 21
816.4999999991098
 31
0.0
  0
INSERT
  5
436
330
430
100
AcDbEntity
  8
LAY-20
 62
     4
100
AcDbBlockReference
  2
EX_BNORM
 10
1788.9484848098
 20
891.4999999990999
 30
0.0
 41
25.0
 42
25.0
 43
25.0
 50
90.0
  0
INSERT
  5
437
330
430
100
AcDbEntity
  8
LAY-20
 62
     4
100
AcDbBlockReference
  2
EX_BNORM
 10
1788.9484848098
 20
791.4999999991098
 30
0.0
 41
25.0
 42
25.0
 43
25.0
 50
270.0
  0
MTEXT
  5
438
330
430
100
AcDbEntity
  8
LAY-20
 62
     7
100
AcDbMText
 10
1763.948484809801
 20
841.4999999991051
 30
0.0
 40
31.181104
 41
0.0
 71
     5
 72
     1
  1
100
  7
EXCADDIM1
 11
0.0
 21
1.0
 31
0.0
  0
POINT
  5
439
330
430
100
AcDbEntity
  8
DEFPOINTS
 62
     0
100
AcDbPoint
 10
1660.050000000001
 20
891.4999999990999
 30
0.0
  0
POINT
  5
43A
330
430
100
AcDbEntity
  8
DEFPOINTS
 62
     0
100
AcDbPoint
 10
1608.250000000011
 20
791.4999999991098
 30
0.0
  0
POINT
  5
43B
330
430
100
AcDbEntity
  8
DEFPOINTS
 62
     0
100
AcDbPoint
 10
1788.9484848098
 20
791.4999999991098
 30
0.0
  0
ENDBLK
  5
432
330
430
100
AcDbEntity
  8
0
100
AcDbBlockEnd
  0
BLOCK
  5
43E
330
43D
100
AcDbEntity
  8
0
100
AcDbBlockBegin
  2
*D23
 70
     1
 10
0.0
 20
0.0
 30
0.0
  3
*D23
  1

  0
LINE
  5
440
330
43D
100
AcDbEntity
  8
LAY-20
  6
CONTINUOUS
 62
     4
100
AcDbLine
 10
1651.25
 20
805.5999999990997
 30
0.0
 11
1651.25
 21
606.4999999990998
 31
0.0
  0
LINE
  5
441
330
43D
100
AcDbEntity
  8
LAY-20
  6
CONTINUOUS
 62
     4
100
AcDbLine
 10
558.8500000000307
 20
805.5999999990997
 30
0.0
 11
558.8500000000307
 21
606.4999999990998
 31
0.0
  0
LINE
  5
442
330
43D
100
AcDbEntity
  8
LAY-20
  6
CONTINUOUS
 62
     4
100
AcDbLine
 10
1626.25
 20
621.4999999990998
 30
0.0
 11
583.8500000000307
 21
621.4999999990998
 31
0.0
  0
INSERT
  5
443
330
43D
100
AcDbEntity
  8
LAY-20
 62
     4
100
AcDbBlockReference
  2
EX_BNORM
 10
1651.25
 20
621.4999999990998
 30
0.0
 41
25.0
 42
25.0
 43
25.0
  0
INSERT
  5
444
330
43D
100
AcDbEntity
  8
LAY-20
 62
     4
100
AcDbBlockReference
  2
EX_BNORM
 10
558.8500000000307
 20
621.4999999990998
 30
0.0
 41
25.0
 42
25.0
 43
25.0
 50
180.0
  0
MTEXT
  5
445
330
43D
100
AcDbEntity
  8
LAY-20
 62
     7
100
AcDbMText
 10
1105.050000000015
 20
646.4999999990996
 30
0.0
 40
31.181104
 41
0.0
 71
     5
 72
     1
  1
1092
  7
EXCADDIM1
  0
POINT
  5
446
330
43D
100
AcDbEntity
  8
DEFPOINTS
 62
     0
100
AcDbPoint
 10
1651.25
 20
820.5999999990997
 30
0.0
  0
POINT
  5
447
330
43D
100
AcDbEntity
  8
DEFPOINTS
 62
     0
100
AcDbPoint
 10
558.8500000000307
 20
820.5999999990997
 30
0.0
  0
POINT
  5
448
330
43D
100
AcDbEntity
  8
DEFPOINTS
 62
     0
100
AcDbPoint
 10
558.8500000000307
 20
621.4999999990998
 30
0.0
  0
ENDBLK
  5
43F
330
43D
100
AcDbEntity
  8
0
100
AcDbBlockEnd
  0
BLOCK
  5
44B
330
44A
100
AcDbEntity
  8
0
100
AcDbBlockBegin
  2
*D24
 70
     1
 10
0.0
 20
0.0
 30
0.0
  3
*D24
  1

  0
LINE
  5
44D
330
44A
100
AcDbEntity
  8
LAY-20
  6
CONTINUOUS
 62
     4
100
AcDbLine
 10
1358.5
 20
885.4999999990998
 30
0.0
 11
1358.5
 21
891.4999999990798
 31
0.0
  0
LINE
  5
44E
330
44A
100
AcDbEntity
  8
LAY-20
  6
CONTINUOUS
 62
     4
100
AcDbLine
 10
1358.5
 20
860.4999999990998
 30
0.0
 11
1358.5
 21
835.4999999990998
 31
0.0
  0
LINE
  5
44F
330
44A
100
AcDbEntity
  8
LAY-20
  6
CONTINUOUS
 62
     4
100
AcDbLine
 10
1358.5
 20
916.4999999990798
 30
0.0
 11
1358.5
 21
941.4999999990798
 31
0.0
  0
INSERT
  5
450
330
44A
100
AcDbEntity
  8
LAY-20
 62
     4
100
AcDbBlockReference
  2
EX_BNORM
 10
1358.5
 20
885.4999999990998
 30
0.0
 41
25.0
 42
25.0
 43
25.0
 50
90.0
  0
INSERT
  5
451
330
44A
100
AcDbEntity
  8
LAY-20
 62
     4
100
AcDbBlockReference
  2
EX_BNORM
 10
1358.5
 20
891.4999999990798
 30
0.0
 41
25.0
 42
25.0
 43
25.0
 50
270.0
  0
MTEXT
  5
452
330
44A
100
AcDbEntity
  8
LAY-20
 62
     7
100
AcDbMText
 10
1333.500000000001
 20
936.4999999990795
 30
0.0
 40
31.181104
 41
0.0
 71
     5
 72
     1
  1
6
  7
EXCADDIM1
 11
0.0
 21
1.0
 31
0.0
  0
POINT
  5
453
330
44A
100
AcDbEntity
  8
DEFPOINTS
 62
     0
100
AcDbPoint
 10
1358.5
 20
885.4999999990998
 30
0.0
  0
POINT
  5
454
330
44A
100
AcDbEntity
  8
DEFPOINTS
 62
     0
100
AcDbPoint
 10
1358.5
 20
891.4999999990798
 30
0.0
  0
POINT
  5
455
330
44A
100
AcDbEntity
  8
DEFPOINTS
 62
     0
100
AcDbPoint
 10
1358.5
 20
891.4999999990798
 30
0.0
  0
ENDBLK
  5
44C
330
44A
100
AcDbEntity
  8
0
100
AcDbBlockEnd
  0
ENDSEC
  0
SECTION
  2
ENTITIES
  0
DIMENSION
  5
D6
330
1F
100
AcDbEntity
  8
LAY-10
  6
CONTINUOUS
 62
     4
100
AcDbDimension
  2
*D15
 10
1660.050000000001
 20
1061.49999999908
 30
0.0
 11
1105.050000000001
 21
1086.49999999908
 31
0.0
 70
   160
  3
ISO-25
100
AcDbAlignedDimension
 13
550.0500000000006
 23
891.4999999990798
 33
0.0
 14
1660.050000000001
 24
891.4999999990798
 34
0.0
100
AcDbRotatedDimension
1001
ACAD
1000
DSTYLE
1002
{
1070
   270
1070
     2
1070
     6
1000
EX_BNORM
1070
     7
1000
EX_BNORM
1070
    41
1040
25.0
1070
    42
1040
15.0
1070
    44
1040
15.0
1070
    73
1070
     0
1070
    74
1070
     0
1070
    75
1070
     0
1070
    76
1070
     0
1070
    77
1070
     1
1070
    78
1070
     8
1070
   140
1040
31.181104
1070
   147
1040
0.0
1070
   173
1070
     1
1070
   176
1070
     4
1070
   177
1070
     4
1070
   178
1070
     7
1070
   271
1070
     1
1070
   277
1070
     2
1070
   279
1070
     2
1070
   280
1070
     0
1070
   287
1070
     5
1070
   340
1005
D5
1002
}
  0
DIMENSION
  5
E4
330
1F
100
AcDbEntity
  8
LAY-10
  6
CONTINUOUS
 62
     4
100
AcDbDimension
  2
*D16
 10
924.0500000000386
 20
991.4999999990798
 30
0.0
 11
745.0500000000198
 21
1016.49999999908
 31
0.0
 70
   160
  3
ISO-25
100
AcDbAlignedDimension
 13
566.050000000001
 23
891.4999999990825
 33
0.0
 14
924.0500000000386
 24
891.4999999990835
 34
0.0
100
AcDbRotatedDimension
1001
ACAD
1000
DSTYLE
1002
{
1070
   270
1070
     2
1070
     6
1000
EX_BNORM
1070
     7
1000
EX_BNORM
1070
    41
1040
25.0
1070
    42
1040
15.0
1070
    44
1040
15.0
1070
    73
1070
     0
1070
    74
1070
     0
1070
    75
1070
     0
1070
    76
1070
     0
1070
    77
1070
     1
1070
    78
1070
     8
1070
   140
1040
31.181104
1070
   147
1040
0.0
1070
   173
1070
     1
1070
   176
1070
     4
1070
   177
1070
     4
1070
   178
1070
     7
1070
   271
1070
     1
1070
   277
1070
     2
1070
   279
1070
     2
1070
   280
1070
     0
1070
   287
1070
     5
1070
   340
1005
D5
1002
}
  0
DIMENSION
  5
F1
330
1F
100
AcDbEntity
  8
LAY-10
  6
CONTINUOUS
 62
     4
100
AcDbDimension
  2
*D17
 10
1605.050000000001
 20
691.4999999990997
 30
0.0
 11
1105.050000000001
 21
716.4999999990997
 31
0.0
 70
   160
  3
ISO-25
100
AcDbAlignedDimension
 13
605.0500000000006
 23
791.0999999990997
 33
0.0
 14
1605.050000000001
 24
791.0999999990997
 34
0.0
100
AcDbRotatedDimension
1001
ACAD
1000
DSTYLE
1002
{
1070
   270
1070
     2
1070
     6
1000
EX_BNORM
1070
     7
1000
EX_BNORM
1070
    41
1040
25.0
1070
    42
1040
15.0
1070
    44
1040
15.0
1070
    73
1070
     0
1070
    74
1070
     0
1070
    75
1070
     0
1070
    76
1070
     0
1070
    77
1070
     1
1070
    78
1070
     8
1070
   140
1040
31.181104
1070
   147
1040
0.0
1070
   173
1070
     1
1070
   176
1070
     4
1070
   177
1070
     4
1070
   178
1070
     7
1070
   271
1070
     1
1070
   277
1070
     2
1070
   279
1070
     2
1070
   280
1070
     0
1070
   287
1070
     5
1070
   340
1005
D5
1002
}
  0
LINE
  5
FE
330
1F
100
AcDbEntity
  8
LAY-10
  6
CONTINUOUS
 62
     7
100
AcDbLine
 10
2053.05
 20
1845.750000000199
 30
0.0
 11
2103.049999999997
 21
1845.750000000199
 31
0.0
  0
LINE
  5
FF
330
1F
100
AcDbEntity
  8
LAY-10
  6
CONTINUOUS
 62
     7
100
AcDbLine
 10
2053.05
 20
1851.750000000202
 30
0.0
 11
2103.049999999997
 21
1851.750000000202
 31
0.0
  0
LINE
  5
100
330
1F
100
AcDbEntity
  8
LAY-10
  6
CONTINUOUS
 62
     7
100
AcDbLine
 10
2047.049999999997
 20
2388.750000000204
 30
0.0
 11
2047.049999999997
 21
2403.750000000204
 31
0.0
  0
LINE
  5
101
330
1F
100
AcDbEntity
  8
LAY-10
  6
CONTINUOUS
 62
     7
100
AcDbLine
 10
2047.049999999997
 20
2388.750000000204
 30
0.0
 11
2062.049999999997
 21
2388.750000000204
 31
0.0
  0
LINE
  5
102
330
1F
100
AcDbEntity
  8
LAY-10
  6
CONTINUOUS
 62
     7
100
AcDbLine
 10
2050.049999999997
 20
2391.750000000203
 30
0.0
 11
2050.049999999997
 21
2403.750000000204
 31
0.0
  0
LINE
  5
103
330
1F
100
AcDbEntity
  8
LAY-10
  6
CONTINUOUS
 62
     7
100
AcDbLine
 10
2062.049999999997
 20
2388.750000000204
 30
0.0
 11
2062.049999999997
 21
2391.750000000203
 31
0.0
  0
LINE
  5
104
330
1F
100
AcDbEntity
  8
LAY-10
  6
CONTINUOUS
 62
     7
100
AcDbLine
 10
2047.049999999997
 20
2403.750000000204
 30
0.0
 11
2050.049999999997
 21
2403.750000000204
 31
0.0
  0
LINE
  5
105
330
1F
100
AcDbEntity
  8
LAY-10
  6
CONTINUOUS
 62
     7
100
AcDbLine
 10
2050.049999999997
 20
2391.750000000203
 30
0.0
 11
2117.049999999997
 21
2391.750000000203
 31
0.0
  0
LINE
  5
106
330
1F
100
AcDbEntity
  8
LAY-10
  6
CONTINUOUS
 62
     7
100
AcDbLine
 10
2117.249999999996
 20
2394.950000000204
 30
0.0
 11
2050.049999999997
 21
2394.950000000204
 31
0.0
  0
LINE
  5
107
330
1F
100
AcDbEntity
  8
LAY-10
  6
CONTINUOUS
 62
     7
100
AcDbLine
 10
2160.948484809931
 20
2432.648484810039
 30
0.0
 11
2125.593145750605
 21
2397.293145750712
 31
0.0
  0
LINE
  5
108
330
1F
100
AcDbEntity
  8
LAY-10
  6
CONTINUOUS
 62
     7
100
AcDbLine
 10
2166.605339059422
 20
2426.991630560546
 30
0.0
 11
2131.250000000097
 21
2391.63629150122
 31
0.0
  0
LINE
  5
109
330
1F
100
AcDbEntity
  8
LAY-10
  6
CONTINUOUS
 62
     7
100
AcDbLine
 10
2160.948484809931
 20
2432.648484810039
 30
0.0
 11
2166.605339059423
 21
2426.991630560546
 31
0.0
  0
ARC
  5
10A
330
1F
100
AcDbEntity
  8
LAY-10
  6
CONTINUOUS
 62
     7
100
AcDbCircle
 10
2117.049999999997
 20
2388.750000000172
 30
0.0
 40
3.000000000000003
100
AcDbArc
 50
0.0
 51
90.00000000000001
  0
ARC
  5
10B
330
1F
100
AcDbEntity
  8
LAY-10
  6
CONTINUOUS
 62
     7
100
AcDbCircle
 10
2117.249999999996
 20
2388.950000000172
 30
0.0
 40
6.000000000000006
100
AcDbArc
 50
0.0
 51
90.00000000000001
  0
ARC
  5
10C
330
1F
100
AcDbEntity
  8
LAY-10
  6
CONTINUOUS
 62
     7
100
AcDbCircle
 10
2126.249999999996
 20
2354.950000000209
 30
0.0
 40
3.000000000000003
100
AcDbArc
 50
180.0
 51
270.0000000000002
  0
LINE
  5
10D
330
1F
100
AcDbEntity
  8
LAY-10
  6
CONTINUOUS
 62
     7
100
AcDbLine
 10
2131.250000000097
 20
2361.636291501219
 30
0.0
 11
2123.250000000095
 21
2361.636291501219
 31
0.0
  0
LINE
  5
10E
330
1F
100
AcDbEntity
  8
LAY-10
  6
CONTINUOUS
 62
     7
100
AcDbLine
 10
2131.250000000097
 20
2391.63629150122
 30
0.0
 11
2131.250000000097
 21
2361.636291501219
 31
0.0
  0
ARC
  5
10F
330
1F
100
AcDbEntity
  8
LAY-10
  6
CONTINUOUS
 62
     7
100
AcDbCircle
 10
2131.250000000097
 20
2391.63629150122
 30
0.0
 40
8.0
100
AcDbArc
 50
135.0000000000046
 51
180.0
  0
LINE
  5
110
330
1F
100
AcDbEntity
  8
LAY-10
  6
CONTINUOUS
 62
     7
100
AcDbLine
 10
2123.249999999996
 20
2354.950000000209
 30
0.0
 11
2123.249999999996
 21
2391.63629150122
 31
0.0
  0
ARC
  5
111
330
1F
100
AcDbEntity
  8
LAY-10
  6
CONTINUOUS
 62
     7
100
AcDbCircle
 10
2126.049999999997
 20
2354.750000000209
 30
0.0
 40
6.000000000000006
100
AcDbArc
 50
180.0
 51
270.0000000000002
  0
LINE
  5
112
330
1F
100
AcDbEntity
  8
LAY-10
  6
CONTINUOUS
 62
     7
100
AcDbLine
 10
2118.049999999997
 20
2357.750000000171
 30
0.0
 11
2120.049999999997
 21
2357.750000000171
 31
0.0
  0
LINE
  5
113
330
1F
100
AcDbEntity
  8
LAY-10
  6
CONTINUOUS
 62
     7
100
AcDbLine
 10
2118.049999999996
 20
2358.259553560093
 30
0.0
 11
2120.049999999997
 21
2360.064850218299
 31
0.0
  0
LINE
  5
114
330
1F
100
AcDbEntity
  8
LAY-10
  6
CONTINUOUS
 62
     7
100
AcDbLine
 10
2118.049999999997
 20
2358.966660341282
 30
0.0
 11
2120.049999999997
 21
2360.771956999484
 31
0.0
  0
LINE
  5
115
330
1F
100
AcDbEntity
  8
LAY-10
  6
CONTINUOUS
 62
     7
100
AcDbLine
 10
2118.049999999996
 20
2359.673767122467
 30
0.0
 11
2120.049999999997
 21
2361.479063780674
 31
0.0
  0
LINE
  5
116
330
1F
100
AcDbEntity
  8
LAY-10
  6
CONTINUOUS
 62
     7
100
AcDbLine
 10
2118.049999999997
 20
2360.380873903656
 30
0.0
 11
2120.049999999997
 21
2362.186170561858
 31
0.0
  0
LINE
  5
117
330
1F
100
AcDbEntity
  8
LAY-10
  6
CONTINUOUS
 62
     7
100
AcDbLine
 10
2118.049999999996
 20
2361.08798068484
 30
0.0
 11
2120.049999999997
 21
2362.893277343045
 31
0.0
  0
LINE
  5
118
330
1F
100
AcDbEntity
  8
LAY-10
  6
CONTINUOUS
 62
     7
100
AcDbLine
 10
2118.049999999997
 20
2361.795087466028
 30
0.0
 11
2120.051950108875
 21
2363.597037574904
 31
0.0
  0
LINE
  5
119
330
1F
100
AcDbEntity
  8
LAY-10
  6
CONTINUOUS
 62
     7
100
AcDbLine
 10
2118.049999999996
 20
2362.502194247214
 30
0.0
 11
2120.049999999997
 21
2364.303740985532
 31
0.0
  0
LINE
  5
11A
330
1F
100
AcDbEntity
  8
LAY-10
  6
CONTINUOUS
 62
     7
100
AcDbLine
 10
2118.049999999997
 20
2363.209301028401
 30
0.0
 11
2120.049999999995
 21
2365.009301028399
 31
0.0
  0
LINE
  5
11B
330
1F
100
AcDbEntity
  8
LAY-10
  6
CONTINUOUS
 62
     7
100
AcDbLine
 10
2118.049999999996
 20
2363.916407809586
 30
0.0
 11
2120.049999999998
 21
2365.716407809588
 31
0.0
  0
LINE
  5
11C
330
1F
100
AcDbEntity
  8
LAY-10
  6
CONTINUOUS
 62
     7
100
AcDbLine
 10
2118.049999999997
 20
2364.623514590773
 30
0.0
 11
2120.049999999995
 21
2366.423514590771
 31
0.0
  0
LINE
  5
11D
330
1F
100
AcDbEntity
  8
LAY-10
  6
CONTINUOUS
 62
     7
100
AcDbLine
 10
2118.049999999996
 20
2365.33062137196
 30
0.0
 11
2120.049999999998
 21
2367.13062137196
 31
0.0
  0
LINE
  5
11E
330
1F
100
AcDbEntity
  8
LAY-10
  6
CONTINUOUS
 62
     7
100
AcDbLine
 10
2118.049999999997
 20
2366.037728153147
 30
0.0
 11
2120.049999999995
 21
2367.837728153146
 31
0.0
  0
LINE
  5
11F
330
1F
100
AcDbEntity
  8
LAY-10
  6
CONTINUOUS
 62
     7
100
AcDbLine
 10
2118.049999999996
 20
2366.744834934332
 30
0.0
 11
2120.049999999998
 21
2368.544834934332
 31
0.0
  0
LINE
  5
120
330
1F
100
AcDbEntity
  8
LAY-10
  6
CONTINUOUS
 62
     7
100
AcDbLine
 10
2118.049999999997
 20
2367.45194171552
 30
0.0
 11
2120.049999999995
 21
2369.251941715518
 31
0.0
  0
LINE
  5
121
330
1F
100
AcDbEntity
  8
LAY-10
  6
CONTINUOUS
 62
     7
100
AcDbLine
 10
2118.049999999996
 20
2368.159048496705
 30
0.0
 11
2120.049999999998
 21
2369.959048496708
 31
0.0
  0
LINE
  5
122
330
1F
100
AcDbEntity
  8
LAY-10
  6
CONTINUOUS
 62
     7
100
AcDbLine
 10
2118.049999999997
 20
2368.866155277893
 30
0.0
 11
2120.049999999995
 21
2370.666155277891
 31
0.0
  0
LINE
  5
123
330
1F
100
AcDbEntity
  8
LAY-10
  6
CONTINUOUS
 62
     7
100
AcDbLine
 10
2118.049999999996
 20
2369.573262059077
 30
0.0
 11
2120.049999999998
 21
2371.37326205908
 31
0.0
  0
LINE
  5
124
330
1F
100
AcDbEntity
  8
LAY-10
  6
CONTINUOUS
 62
     7
100
AcDbLine
 10
2118.049999999997
 20
2370.280368840266
 30
0.0
 11
2120.049999999995
 21
2372.080368840264
 31
0.0
  0
LINE
  5
125
330
1F
100
AcDbEntity
  8
LAY-10
  6
CONTINUOUS
 62
     7
100
AcDbLine
 10
2118.049999999996
 20
2370.987475621451
 30
0.0
 11
2120.049999999998
 21
2372.787475621454
 31
0.0
  0
LINE
  5
126
330
1F
100
AcDbEntity
  8
LAY-10
  6
CONTINUOUS
 62
     7
100
AcDbLine
 10
2118.049999999997
 20
2371.69458240264
 30
0.0
 11
2120.049999999994
 21
2373.494582402636
 31
0.0
  0
LINE
  5
127
330
1F
100
AcDbEntity
  8
LAY-10
  6
CONTINUOUS
 62
     7
100
AcDbLine
 10
2118.049999999996
 20
2372.401689183824
 30
0.0
 11
2120.049999999998
 21
2374.201689183827
 31
0.0
  0
LINE
  5
128
330
1F
100
AcDbEntity
  8
LAY-10
  6
CONTINUOUS
 62
     7
100
AcDbLine
 10
2118.049999999997
 20
2373.108795965014
 30
0.0
 11
2120.049999999994
 21
2374.908795965009
 31
0.0
  0
LINE
  5
129
330
1F
100
AcDbEntity
  8
LAY-10
  6
CONTINUOUS
 62
     7
100
AcDbLine
 10
2118.049999999996
 20
2373.815902746197
 30
0.0
 11
2120.049999999998
 21
2375.615902746199
 31
0.0
  0
LINE
  5
12A
330
1F
100
AcDbEntity
  8
LAY-10
  6
CONTINUOUS
 62
     7
100
AcDbLine
 10
2118.049999999997
 20
2374.523009527386
 30
0.0
 11
2120.049999999994
 21
2376.323009527382
 31
0.0
  0
LINE
  5
12B
330
1F
100
AcDbEntity
  8
LAY-10
  6
CONTINUOUS
 62
     7
100
AcDbLine
 10
2118.049999999996
 20
2375.230116308569
 30
0.0
 11
2120.049999999998
 21
2377.030116308571
 31
0.0
  0
LINE
  5
12C
330
1F
100
AcDbEntity
  8
LAY-10
  6
CONTINUOUS
 62
     7
100
AcDbLine
 10
2118.049999999997
 20
2375.93722308976
 30
0.0
 11
2120.049999999994
 21
2377.737223089755
 31
0.0
  0
LINE
  5
12D
330
1F
100
AcDbEntity
  8
LAY-10
  6
CONTINUOUS
 62
     7
100
AcDbLine
 10
2118.049999999996
 20
2376.644329870942
 30
0.0
 11
2120.049999999997
 21
2378.444329870946
 31
0.0
  0
LINE
  5
12E
330
1F
100
AcDbEntity
  8
LAY-10
  6
CONTINUOUS
 62
     7
100
AcDbLine
 10
2118.049999999997
 20
2377.351436652132
 30
0.0
 11
2120.049999999994
 21
2379.151436652128
 31
0.0
  0
LINE
  5
12F
330
1F
100
AcDbEntity
  8
LAY-10
  6
CONTINUOUS
 62
     7
100
AcDbLine
 10
2118.049999999996
 20
2378.058543433314
 30
0.0
 11
2120.049999999997
 21
2379.858543433318
 31
0.0
  0
LINE
  5
130
330
1F
100
AcDbEntity
  8
LAY-10
  6
CONTINUOUS
 62
     7
100
AcDbLine
 10
2118.049999999997
 20
2378.765650214505
 30
0.0
 11
2120.049999999994
 21
2380.565650214501
 31
0.0
  0
LINE
  5
131
330
1F
100
AcDbEntity
  8
LAY-10
  6
CONTINUOUS
 62
     7
100
AcDbLine
 10
2118.049999999996
 20
2379.472756995688
 30
0.0
 11
2120.049999999997
 21
2381.272756995691
 31
0.0
  0
LINE
  5
132
330
1F
100
AcDbEntity
  8
LAY-10
  6
CONTINUOUS
 62
     7
100
AcDbLine
 10
2118.049999999997
 20
2380.179863776877
 30
0.0
 11
2120.049999999994
 21
2381.979863776874
 31
0.0
  0
LINE
  5
133
330
1F
100
AcDbEntity
  8
LAY-10
  6
CONTINUOUS
 62
     7
100
AcDbLine
 10
2118.049999999995
 20
2380.886970558061
 30
0.0
 11
2120.049999999997
 21
2382.686970558062
 31
0.0
  0
LINE
  5
134
330
1F
100
AcDbEntity
  8
LAY-10
  6
CONTINUOUS
 62
     7
100
AcDbLine
 10
2118.049999999997
 20
2381.594077339251
 30
0.0
 11
2120.049999999994
 21
2383.394077339246
 31
0.0
  0
LINE
  5
135
330
1F
100
AcDbEntity
  8
LAY-10
  6
CONTINUOUS
 62
     7
100
AcDbLine
 10
2118.049999999995
 20
2382.301184120433
 30
0.0
 11
2120.049999999997
 21
2384.101184120436
 31
0.0
  0
LINE
  5
136
330
1F
100
AcDbEntity
  8
LAY-10
  6
CONTINUOUS
 62
     7
100
AcDbLine
 10
2118.049999999997
 20
2383.008290901624
 30
0.0
 11
2120.049999999994
 21
2384.80829090162
 31
0.0
  0
LINE
  5
137
330
1F
100
AcDbEntity
  8
LAY-10
  6
CONTINUOUS
 62
     7
100
AcDbLine
 10
2118.049999999995
 20
2383.715397682807
 30
0.0
 11
2120.049999999997
 21
2385.515397682809
 31
0.0
  0
LINE
  5
138
330
1F
100
AcDbEntity
  8
LAY-10
  6
CONTINUOUS
 62
     7
100
AcDbLine
 10
2118.049999999997
 20
2384.422504463997
 30
0.0
 11
2120.049999999994
 21
2386.222504463993
 31
0.0
  0
LINE
  5
139
330
1F
100
AcDbEntity
  8
LAY-10
  6
CONTINUOUS
 62
     7
100
AcDbLine
 10
2118.049999999995
 20
2385.129611245179
 30
0.0
 11
2120.049999999997
 21
2386.929611245182
 31
0.0
  0
LINE
  5
13A
330
1F
100
AcDbEntity
  8
LAY-10
  6
CONTINUOUS
 62
     7
100
AcDbLine
 10
2118.049999999996
 20
2385.836718026368
 30
0.0
 11
2120.049999999994
 21
2387.636718026366
 31
0.0
  0
LINE
  5
13B
330
1F
100
AcDbEntity
  8
LAY-10
  6
CONTINUOUS
 62
     7
100
AcDbLine
 10
2118.049999999995
 20
2386.543824807552
 30
0.0
 11
2119.456175192776
 21
2387.750000000335
 31
0.0
  0
LINE
  5
13C
330
1F
100
AcDbEntity
  8
LAY-10
  6
CONTINUOUS
 62
     7
100
AcDbLine
 10
2118.049999999996
 20
2387.250931588742
 30
0.0
 11
2118.549068411592
 21
2387.750000000337
 31
0.0
  0
LINE
  5
13D
330
1F
100
AcDbEntity
  8
LAY-10
  6
CONTINUOUS
 62
     7
100
AcDbLine
 10
2119.052228634721
 20
2357.750000000236
 30
0.0
 11
2120.049999999997
 21
2358.650636655927
 31
0.0
  0
LINE
  5
13E
330
1F
100
AcDbEntity
  8
LAY-10
  6
CONTINUOUS
 62
     7
100
AcDbLine
 10
2118.268859565739
 20
2357.750000000236
 30
0.0
 11
2120.049999999997
 21
2359.357743437113
 31
0.0
  0
LINE
  5
13F
330
1F
100
AcDbEntity
  8
LAY-10
  6
CONTINUOUS
 62
     7
100
AcDbLine
 10
2119.835597703706
 20
2363.750000000236
 30
0.0
 11
2120.049999999997
 21
2363.943529874738
 31
0.0
  0
LINE
  5
140
330
1F
100
AcDbEntity
  8
LAY-10
  6
CONTINUOUS
 62
     7
100
AcDbLine
 10
2126.249999999996
 20
2351.950000000209
 30
0.0
 11
2147.049999999996
 21
2351.950000000209
 31
0.0
  0
LINE
  5
141
330
1F
100
AcDbEntity
  8
LAY-10
  6
CONTINUOUS
 62
     7
100
AcDbLine
 10
2126.049999999997
 20
2348.750000000209
 30
0.0
 11
2147.049999999996
 21
2348.750000000209
 31
0.0
  0
LINE
  5
142
330
1F
100
AcDbEntity
  8
LAY-10
  6
CONTINUOUS
 62
     7
100
AcDbLine
 10
2103.549999999999
 20
2381.750000000199
 30
0.0
 11
2057.05
 21
2381.750000000199
 31
0.0
  0
LINE
  5
143
330
1F
100
AcDbEntity
  8
LAY-10
  6
CONTINUOUS
 62
     7
100
AcDbLine
 10
2118.05
 20
2322.750000000199
 30
0.0
 11
2116.049999999999
 21
2322.750000000199
 31
0.0
  0
ARC
  5
144
330
1F
100
AcDbEntity
  8
LAY-10
  6
CONTINUOUS
 62
     7
100
AcDbCircle
 10
2116.049999999999
 20
2326.750000000199
 30
0.0
 40
4.0
100
AcDbArc
 50
180.0
 51
270.0
  0
ARC
  5
145
330
1F
100
AcDbEntity
  8
LAY-10
  6
CONTINUOUS
 62
     7
100
AcDbCircle
 10
2057.05
 20
2385.750000000199
 30
0.0
 40
4.0
100
AcDbArc
 50
180.0
 51
270.0
  0
ARC
  5
146
330
1F
100
AcDbEntity
  8
LAY-10
  6
CONTINUOUS
 62
     7
100
AcDbCircle
 10
2103.549999999999
 20
2373.250000000199
 30
0.0
 40
8.5
100
AcDbArc
 50
0.0
 51
90.00000000000001
  0
LINE
  5
147
330
1F
100
AcDbEntity
  8
LAY-10
  6
CONTINUOUS
 62
     7
100
AcDbLine
 10
2120.049999999997
 20
2387.750000000199
 30
0.0
 11
2047.05
 21
2387.750000000199
 31
0.0
  0
LINE
  5
148
330
1F
100
AcDbEntity
  8
LAY-10
  6
CONTINUOUS
 62
     7
100
AcDbLine
 10
2047.049999999997
 20
1308.750000000202
 30
0.0
 11
2047.049999999997
 21
1293.750000000202
 31
0.0
  0
LINE
  5
149
330
1F
100
AcDbEntity
  8
LAY-10
  6
CONTINUOUS
 62
     7
100
AcDbLine
 10
2047.049999999997
 20
1308.750000000202
 30
0.0
 11
2062.049999999997
 21
1308.750000000202
 31
0.0
  0
LINE
  5
14A
330
1F
100
AcDbEntity
  8
LAY-10
  6
CONTINUOUS
 62
     7
100
AcDbLine
 10
2050.049999999997
 20
1305.750000000202
 30
0.0
 11
2050.049999999997
 21
1293.750000000202
 31
0.0
  0
LINE
  5
14B
330
1F
100
AcDbEntity
  8
LAY-10
  6
CONTINUOUS
 62
     7
100
AcDbLine
 10
2062.049999999997
 20
1308.750000000202
 30
0.0
 11
2062.049999999997
 21
1305.750000000202
 31
0.0
  0
LINE
  5
14C
330
1F
100
AcDbEntity
  8
LAY-10
  6
CONTINUOUS
 62
     7
100
AcDbLine
 10
2047.049999999997
 20
1293.750000000202
 30
0.0
 11
2050.049999999997
 21
1293.750000000202
 31
0.0
  0
LINE
  5
14D
330
1F
100
AcDbEntity
  8
LAY-10
  6
CONTINUOUS
 62
     7
100
AcDbLine
 10
2050.049999999997
 20
1305.750000000202
 30
0.0
 11
2117.049999999997
 21
1305.750000000202
 31
0.0
  0
LINE
  5
14E
330
1F
100
AcDbEntity
  8
LAY-10
  6
CONTINUOUS
 62
     7
100
AcDbLine
 10
2117.249999999996
 20
1302.550000000202
 30
0.0
 11
2050.049999999997
 21
1302.550000000202
 31
0.0
  0
LINE
  5
14F
330
1F
100
AcDbEntity
  8
LAY-10
  6
CONTINUOUS
 62
     7
100
AcDbLine
 10
2160.948484809931
 20
1264.851515190367
 30
0.0
 11
2125.593145750605
 21
1300.206854249693
 31
0.0
  0
LINE
  5
150
330
1F
100
AcDbEntity
  8
LAY-10
  6
CONTINUOUS
 62
     7
100
AcDbLine
 10
2166.605339059422
 20
1270.50836943986
 30
0.0
 11
2131.250000000097
 21
1305.863708499186
 31
0.0
  0
LINE
  5
151
330
1F
100
AcDbEntity
  8
LAY-10
  6
CONTINUOUS
 62
     7
100
AcDbLine
 10
2160.948484809931
 20
1264.851515190367
 30
0.0
 11
2166.605339059423
 21
1270.50836943986
 31
0.0
  0
ARC
  5
152
330
1F
100
AcDbEntity
  8
LAY-10
  6
CONTINUOUS
 62
     7
100
AcDbCircle
 10
2117.049999999997
 20
1308.750000000234
 30
0.0
 40
3.000000000000003
100
AcDbArc
 50
270.0000000000002
 51
0.0000000000000573
  0
ARC
  5
153
330
1F
100
AcDbEntity
  8
LAY-10
  6
CONTINUOUS
 62
     7
100
AcDbCircle
 10
2117.249999999996
 20
1308.550000000235
 30
0.0
 40
6.000000000000006
100
AcDbArc
 50
270.0000000000002
 51
0.0000000000000573
  0
ARC
  5
154
330
1F
100
AcDbEntity
  8
LAY-10
  6
CONTINUOUS
 62
     7
100
AcDbCircle
 10
2126.249999999996
 20
1342.550000000197
 30
0.0
 40
3.000000000000003
100
AcDbArc
 50
90.00000000000001
 51
180.0000000000002
  0
LINE
  5
155
330
1F
100
AcDbEntity
  8
LAY-10
  6
CONTINUOUS
 62
     7
100
AcDbLine
 10
2131.250000000097
 20
1335.863708499186
 30
0.0
 11
2123.250000000095
 21
1335.863708499186
 31
0.0
  0
LINE
  5
156
330
1F
100
AcDbEntity
  8
LAY-10
  6
CONTINUOUS
 62
     7
100
AcDbLine
 10
2131.250000000097
 20
1305.863708499186
 30
0.0
 11
2131.250000000097
 21
1335.863708499186
 31
0.0
  0
ARC
  5
157
330
1F
100
AcDbEntity
  8
LAY-10
  6
CONTINUOUS
 62
     7
100
AcDbCircle
 10
2131.250000000097
 20
1305.863708499186
 30
0.0
 40
8.0
100
AcDbArc
 50
180.0000000000002
 51
224.9999999999946
  0
LINE
  5
158
330
1F
100
AcDbEntity
  8
LAY-10
  6
CONTINUOUS
 62
     7
100
AcDbLine
 10
2123.249999999996
 20
1342.550000000197
 30
0.0
 11
2123.249999999996
 21
1305.863708499186
 31
0.0
  0
ARC
  5
159
330
1F
100
AcDbEntity
  8
LAY-10
  6
CONTINUOUS
 62
     7
100
AcDbCircle
 10
2126.049999999997
 20
1342.750000000197
 30
0.0
 40
6.000000000000006
100
AcDbArc
 50
90.00000000000001
 51
180.0000000000002
  0
LINE
  5
15A
330
1F
100
AcDbEntity
  8
LAY-10
  6
CONTINUOUS
 62
     7
100
AcDbLine
 10
2118.049999999996
 20
1339.240446440312
 30
0.0
 11
2120.049999999997
 21
1337.435149782107
 31
0.0
  0
LINE
  5
15B
330
1F
100
AcDbEntity
  8
LAY-10
  6
CONTINUOUS
 62
     7
100
AcDbLine
 10
2118.049999999997
 20
1338.533339659123
 30
0.0
 11
2120.049999999997
 21
1336.728043000921
 31
0.0
  0
LINE
  5
15C
330
1F
100
AcDbEntity
  8
LAY-10
  6
CONTINUOUS
 62
     7
100
AcDbLine
 10
2118.049999999996
 20
1337.826232877938
 30
0.0
 11
2120.049999999997
 21
1336.020936219732
 31
0.0
  0
LINE
  5
15D
330
1F
100
AcDbEntity
  8
LAY-10
  6
CONTINUOUS
 62
     7
100
AcDbLine
 10
2118.049999999997
 20
1337.119126096751
 30
0.0
 11
2120.049999999997
 21
1335.313829438549
 31
0.0
  0
LINE
  5
15E
330
1F
100
AcDbEntity
  8
LAY-10
  6
CONTINUOUS
 62
     7
100
AcDbLine
 10
2118.049999999996
 20
1336.412019315566
 30
0.0
 11
2120.049999999997
 21
1334.606722657361
 31
0.0
  0
LINE
  5
15F
330
1F
100
AcDbEntity
  8
LAY-10
  6
CONTINUOUS
 62
     7
100
AcDbLine
 10
2118.049999999997
 20
1335.704912534378
 30
0.0
 11
2120.051950108875
 21
1333.902962425502
 31
0.0
  0
LINE
  5
160
330
1F
100
AcDbEntity
  8
LAY-10
  6
CONTINUOUS
 62
     7
100
AcDbLine
 10
2118.049999999996
 20
1334.997805753191
 30
0.0
 11
2120.049999999997
 21
1333.196259014874
 31
0.0
  0
LINE
  5
161
330
1F
100
AcDbEntity
  8
LAY-10
  6
CONTINUOUS
 62
     7
100
AcDbLine
 10
2118.049999999997
 20
1334.290698972005
 30
0.0
 11
2120.049999999995
 21
1332.490698972006
 31
0.0
  0
LINE
  5
162
330
1F
100
AcDbEntity
  8
LAY-10
  6
CONTINUOUS
 62
     7
100
AcDbLine
 10
2118.049999999996
 20
1333.58359219082
 30
0.0
 11
2120.049999999998
 21
1331.783592190819
 31
0.0
  0
LINE
  5
163
330
1F
100
AcDbEntity
  8
LAY-10
  6
CONTINUOUS
 62
     7
100
AcDbLine
 10
2118.049999999997
 20
1332.876485409632
 30
0.0
 11
2120.049999999995
 21
1331.076485409634
 31
0.0
  0
LINE
  5
164
330
1F
100
AcDbEntity
  8
LAY-10
  6
CONTINUOUS
 62
     7
100
AcDbLine
 10
2118.049999999996
 20
1332.169378628447
 30
0.0
 11
2120.049999999998
 21
1330.369378628445
 31
0.0
  0
LINE
  5
165
330
1F
100
AcDbEntity
  8
LAY-10
  6
CONTINUOUS
 62
     7
100
AcDbLine
 10
2118.049999999997
 20
1331.462271847258
 30
0.0
 11
2120.049999999995
 21
1329.662271847259
 31
0.0
  0
LINE
  5
166
330
1F
100
AcDbEntity
  8
LAY-10
  6
CONTINUOUS
 62
     7
100
AcDbLine
 10
2118.049999999996
 20
1330.755165066074
 30
0.0
 11
2120.049999999998
 21
1328.955165066073
 31
0.0
  0
LINE
  5
167
330
1F
100
AcDbEntity
  8
LAY-10
  6
CONTINUOUS
 62
     7
100
AcDbLine
 10
2118.049999999997
 20
1330.048058284886
 30
0.0
 11
2120.049999999995
 21
1328.248058284887
 31
0.0
  0
LINE
  5
168
330
1F
100
AcDbEntity
  8
LAY-10
  6
CONTINUOUS
 62
     7
100
AcDbLine
 10
2118.049999999996
 20
1329.340951503701
 30
0.0
 11
2120.049999999998
 21
1327.540951503697
 31
0.0
  0
LINE
  5
169
330
1F
100
AcDbEntity
  8
LAY-10
  6
CONTINUOUS
 62
     7
100
AcDbLine
 10
2118.049999999997
 20
1328.633844722513
 30
0.0
 11
2120.049999999995
 21
1326.833844722515
 31
0.0
  0
LINE
  5
16A
330
1F
100
AcDbEntity
  8
LAY-10
  6
CONTINUOUS
 62
     7
100
AcDbLine
 10
2118.049999999996
 20
1327.926737941328
 30
0.0
 11
2120.049999999998
 21
1326.126737941325
 31
0.0
  0
LINE
  5
16B
330
1F
100
AcDbEntity
  8
LAY-10
  6
CONTINUOUS
 62
     7
100
AcDbLine
 10
2118.049999999997
 20
1327.21963116014
 30
0.0
 11
2120.049999999995
 21
1325.419631160142
 31
0.0
  0
LINE
  5
16C
330
1F
100
AcDbEntity
  8
LAY-10
  6
CONTINUOUS
 62
     7
100
AcDbLine
 10
2118.049999999996
 20
1326.512524378954
 30
0.0
 11
2120.049999999998
 21
1324.712524378952
 31
0.0
  0
LINE
  5
16D
330
1F
100
AcDbEntity
  8
LAY-10
  6
CONTINUOUS
 62
     7
100
AcDbLine
 10
2118.049999999997
 20
1325.805417597766
 30
0.0
 11
2120.049999999994
 21
1324.005417597769
 31
0.0
  0
LINE
  5
16E
330
1F
100
AcDbEntity
  8
LAY-10
  6
CONTINUOUS
 62
     7
100
AcDbLine
 10
2118.049999999996
 20
1325.098310816582
 30
0.0
 11
2120.049999999998
 21
1323.29831081658
 31
0.0
  0
LINE
  5
16F
330
1F
100
AcDbEntity
  8
LAY-10
  6
CONTINUOUS
 62
     7
100
AcDbLine
 10
2118.049999999997
 20
1324.391204035391
 30
0.0
 11
2120.049999999994
 21
1322.591204035397
 31
0.0
  0
LINE
  5
170
330
1F
100
AcDbEntity
  8
LAY-10
  6
CONTINUOUS
 62
     7
100
AcDbLine
 10
2118.049999999996
 20
1323.684097254209
 30
0.0
 11
2120.049999999998
 21
1321.884097254206
 31
0.0
  0
LINE
  5
171
330
1F
100
AcDbEntity
  8
LAY-10
  6
CONTINUOUS
 62
     7
100
AcDbLine
 10
2118.049999999997
 20
1322.97699047302
 30
0.0
 11
2120.049999999994
 21
1321.176990473023
 31
0.0
  0
LINE
  5
172
330
1F
100
AcDbEntity
  8
LAY-10
  6
CONTINUOUS
 62
     7
100
AcDbLine
 10
2118.049999999996
 20
1322.269883691836
 30
0.0
 11
2120.049999999998
 21
1320.469883691834
 31
0.0
  0
LINE
  5
173
330
1F
100
AcDbEntity
  8
LAY-10
  6
CONTINUOUS
 62
     7
100
AcDbLine
 10
2118.049999999997
 20
1321.562776910647
 30
0.0
 11
2120.049999999994
 21
1319.76277691065
 31
0.0
  0
LINE
  5
174
330
1F
100
AcDbEntity
  8
LAY-10
  6
CONTINUOUS
 62
     7
100
AcDbLine
 10
2118.049999999996
 20
1320.855670129464
 30
0.0
 11
2120.049999999997
 21
1319.055670129459
 31
0.0
  0
LINE
  5
175
330
1F
100
AcDbEntity
  8
LAY-10
  6
CONTINUOUS
 62
     7
100
AcDbLine
 10
2118.049999999997
 20
1320.148563348274
 30
0.0
 11
2120.049999999994
 21
1318.348563348279
 31
0.0
  0
LINE
  5
176
330
1F
100
AcDbEntity
  8
LAY-10
  6
CONTINUOUS
 62
     7
100
AcDbLine
 10
2118.049999999996
 20
1319.441456567091
 30
0.0
 11
2120.049999999997
 21
1317.641456567087
 31
0.0
  0
LINE
  5
177
330
1F
100
AcDbEntity
  8
LAY-10
  6
CONTINUOUS
 62
     7
100
AcDbLine
 10
2118.049999999997
 20
1318.734349785901
 30
0.0
 11
2120.049999999994
 21
1316.934349785904
 31
0.0
  0
LINE
  5
178
330
1F
100
AcDbEntity
  8
LAY-10
  6
CONTINUOUS
 62
     7
100
AcDbLine
 10
2118.049999999996
 20
1318.027243004718
 30
0.0
 11
2120.049999999997
 21
1316.227243004715
 31
0.0
  0
LINE
  5
179
330
1F
100
AcDbEntity
  8
LAY-10
  6
CONTINUOUS
 62
     7
100
AcDbLine
 10
2118.049999999997
 20
1317.320136223528
 30
0.0
 11
2120.049999999994
 21
1315.520136223532
 31
0.0
  0
LINE
  5
17A
330
1F
100
AcDbEntity
  8
LAY-10
  6
CONTINUOUS
 62
     7
100
AcDbLine
 10
2118.049999999995
 20
1316.613029442344
 30
0.0
 11
2120.049999999997
 21
1314.813029442343
 31
0.0
  0
LINE
  5
17B
330
1F
100
AcDbEntity
  8
LAY-10
  6
CONTINUOUS
 62
     7
100
AcDbLine
 10
2118.049999999997
 20
1315.905922661154
 30
0.0
 11
2120.049999999994
 21
1314.105922661159
 31
0.0
  0
LINE
  5
17C
330
1F
100
AcDbEntity
  8
LAY-10
  6
CONTINUOUS
 62
     7
100
AcDbLine
 10
2118.049999999995
 20
1315.198815879973
 30
0.0
 11
2120.049999999997
 21
1313.398815879969
 31
0.0
  0
LINE
  5
17D
330
1F
100
AcDbEntity
  8
LAY-10
  6
CONTINUOUS
 62
     7
100
AcDbLine
 10
2118.049999999997
 20
1314.491709098782
 30
0.0
 11
2120.049999999994
 21
1312.691709098785
 31
0.0
  0
LINE
  5
17E
330
1F
100
AcDbEntity
  8
LAY-10
  6
CONTINUOUS
 62
     7
100
AcDbLine
 10
2118.049999999995
 20
1313.784602317599
 30
0.0
 11
2120.049999999997
 21
1311.984602317597
 31
0.0
  0
LINE
  5
17F
330
1F
100
AcDbEntity
  8
LAY-10
  6
CONTINUOUS
 62
     7
100
AcDbLine
 10
2118.049999999997
 20
1313.077495536409
 30
0.0
 11
2120.049999999994
 21
1311.277495536413
 31
0.0
  0
LINE
  5
180
330
1F
100
AcDbEntity
  8
LAY-10
  6
CONTINUOUS
 62
     7
100
AcDbLine
 10
2118.049999999995
 20
1312.370388755226
 30
0.0
 11
2120.049999999997
 21
1310.570388755223
 31
0.0
  0
LINE
  5
181
330
1F
100
AcDbEntity
  8
LAY-10
  6
CONTINUOUS
 62
     7
100
AcDbLine
 10
2118.049999999996
 20
1311.663281974038
 30
0.0
 11
2120.049999999994
 21
1309.863281974039
 31
0.0
  0
LINE
  5
182
330
1F
100
AcDbEntity
  8
LAY-10
  6
CONTINUOUS
 62
     7
100
AcDbLine
 10
2118.049999999995
 20
1310.956175192854
 30
0.0
 11
2119.456175192776
 21
1309.750000000071
 31
0.0
  0
LINE
  5
183
330
1F
100
AcDbEntity
  8
LAY-10
  6
CONTINUOUS
 62
     7
100
AcDbLine
 10
2118.049999999996
 20
1310.249068411664
 30
0.0
 11
2118.549068411592
 21
1309.750000000068
 31
0.0
  0
LINE
  5
184
330
1F
100
AcDbEntity
  8
LAY-10
  6
CONTINUOUS
 62
     7
100
AcDbLine
 10
2119.052228634721
 20
1339.75000000017
 30
0.0
 11
2120.049999999997
 21
1338.849363344478
 31
0.0
  0
LINE
  5
185
330
1F
100
AcDbEntity
  8
LAY-10
  6
CONTINUOUS
 62
     7
100
AcDbLine
 10
2118.268859565739
 20
1339.75000000017
 30
0.0
 11
2120.049999999997
 21
1338.142256563294
 31
0.0
  0
LINE
  5
186
330
1F
100
AcDbEntity
  8
LAY-10
  6
CONTINUOUS
 62
     7
100
AcDbLine
 10
2119.835597703706
 20
1333.75000000017
 30
0.0
 11
2120.049999999997
 21
1333.556470125667
 31
0.0
  0
LINE
  5
187
330
1F
100
AcDbEntity
  8
LAY-10
  6
CONTINUOUS
 62
     7
100
AcDbLine
 10
2118.049999999997
 20
1339.750000000234
 30
0.0
 11
2120.049999999997
 21
1339.750000000234
 31
0.0
  0
LINE
  5
188
330
1F
100
AcDbEntity
  8
LAY-10
  6
CONTINUOUS
 62
     7
100
AcDbLine
 10
2126.249999999996
 20
1345.550000000196
 30
0.0
 11
2147.049999999996
 21
1345.550000000196
 31
0.0
  0
LINE
  5
189
330
1F
100
AcDbEntity
  8
LAY-10
  6
CONTINUOUS
 62
     7
100
AcDbLine
 10
2126.049999999997
 20
1348.750000000197
 30
0.0
 11
2147.049999999996
 21
1348.750000000197
 31
0.0
  0
LINE
  5
18A
330
1F
100
AcDbEntity
  8
LAY-10
  6
CONTINUOUS
 62
     7
100
AcDbLine
 10
2103.549999999999
 20
1315.750000000201
 30
0.0
 11
2057.05
 21
1315.750000000201
 31
0.0
  0
LINE
  5
18B
330
1F
100
AcDbEntity
  8
LAY-10
  6
CONTINUOUS
 62
     7
100
AcDbLine
 10
2118.05
 20
1374.750000000201
 30
0.0
 11
2116.049999999999
 21
1374.750000000201
 31
0.0
  0
ARC
  5
18C
330
1F
100
AcDbEntity
  8
LAY-10
  6
CONTINUOUS
 62
     7
100
AcDbCircle
 10
2116.049999999999
 20
1370.750000000201
 30
0.0
 40
4.0
100
AcDbArc
 50
90.00000000000001
 51
180.0
  0
ARC
  5
18D
330
1F
100
AcDbEntity
  8
LAY-10
  6
CONTINUOUS
 62
     7
100
AcDbCircle
 10
2057.05
 20
1311.750000000201
 30
0.0
 40
4.0
100
AcDbArc
 50
90.00000000000001
 51
180.0
  0
ARC
  5
18E
330
1F
100
AcDbEntity
  8
LAY-10
  6
CONTINUOUS
 62
     7
100
AcDbCircle
 10
2103.549999999999
 20
1324.250000000201
 30
0.0
 40
8.5
100
AcDbArc
 50
270.0
 51
0.0
  0
LINE
  5
18F
330
1F
100
AcDbEntity
  8
LAY-10
  6
CONTINUOUS
 62
     7
100
AcDbLine
 10
2120.049999999997
 20
1309.7500000002
 30
0.0
 11
2047.05
 21
1309.7500000002
 31
0.0
  0
LINE
  5
190
330
1F
100
AcDbEntity
  8
LAY-10
  6
CONTINUOUS
 62
     7
100
AcDbLine
 10
2120.049999999997
 20
1308.750000000234
 30
0.0
 11
2120.049999999997
 21
2388.750000000169
 31
0.0
  0
LINE
  5
191
330
1F
100
AcDbEntity
  8
LAY-10
  6
CONTINUOUS
 62
     7
100
AcDbLine
 10
2147.049999999996
 20
1345.550000000196
 30
0.0
 11
2147.049999999996
 21
2351.950000000206
 31
0.0
  0
LINE
  5
192
330
1F
100
AcDbEntity
  8
LAY-10
  6
CONTINUOUS
 62
     7
100
AcDbLine
 10
2053.05
 20
1309.750000000201
 30
0.0
 11
2053.05
 21
2387.750000000201
 31
0.0
  0
LINE
  5
193
330
1F
100
AcDbEntity
  8
LAY-10
  6
CONTINUOUS
 62
     7
100
AcDbLine
 10
2047.05
 20
1309.750000000201
 30
0.0
 11
2047.05
 21
2387.750000000201
 31
0.0
  0
LINE
  5
194
330
1F
100
AcDbEntity
  8
LAY-10
  6
CONTINUOUS
 62
     7
100
AcDbLine
 10
2103.05
 20
1315.750000000201
 30
0.0
 11
2103.05
 21
2381.750000000199
 31
0.0
  0
LINE
  5
195
330
1F
100
AcDbEntity
  8
LAY-10
  6
CONTINUOUS
 62
     7
100
AcDbLine
 10
2112.05
 20
1324.250000000201
 30
0.0
 11
2112.05
 21
2373.2500000002
 31
0.0
  0
LINE
  5
196
330
1F
100
AcDbEntity
  8
LAY-10
  6
CONTINUOUS
 62
     7
100
AcDbLine
 10
2118.05
 20
1309.7500000002
 30
0.0
 11
2118.05
 21
2387.750000000199
 31
0.0
  0
LINE
  5
197
330
1F
100
AcDbEntity
  8
LAY-10
  6
CONTINUOUS
 62
     7
100
AcDbLine
 10
2053.05
 20
2115.250000000199
 30
0.0
 11
2103.049999999997
 21
2115.250000000199
 31
0.0
  0
LINE
  5
198
330
1F
100
AcDbEntity
  8
LAY-10
  6
CONTINUOUS
 62
     7
100
AcDbLine
 10
2053.05
 20
2121.250000000202
 30
0.0
 11
2103.049999999997
 21
2121.250000000202
 31
0.0
  0
LINE
  5
199
330
1F
100
AcDbEntity
  8
LAY-10
  6
CONTINUOUS
 62
     7
100
AcDbLine
 10
2053.05
 20
1582.250000000206
 30
0.0
 11
2103.049999999997
 21
1582.250000000207
 31
0.0
  0
LINE
  5
19A
330
1F
100
AcDbEntity
  8
LAY-10
  6
CONTINUOUS
 62
     7
100
AcDbLine
 10
2053.05
 20
1576.250000000204
 30
0.0
 11
2103.049999999997
 21
1576.250000000205
 31
0.0
  0
LINE
  5
19B
330
1F
100
AcDbEntity
  8
LAY-10
  6
CONTINUOUS
 62
     7
100
AcDbLine
 10
1645.050000000005
 20
891.499999999103
 30
0.0
 11
1645.050000000005
 21
876.499999999103
 31
0.0
  0
LINE
  5
19C
330
1F
100
AcDbEntity
  8
LAY-10
  6
CONTINUOUS
 62
     7
100
AcDbLine
 10
1645.050000000005
 20
891.499999999103
 30
0.0
 11
1660.050000000005
 21
891.499999999103
 31
0.0
  0
LINE
  5
19D
330
1F
100
AcDbEntity
  8
LAY-10
  6
CONTINUOUS
 62
     7
100
AcDbLine
 10
1648.050000000005
 20
888.4999999991035
 30
0.0
 11
1660.050000000005
 21
888.4999999991035
 31
0.0
  0
LINE
  5
19E
330
1F
100
AcDbEntity
  8
LAY-10
  6
CONTINUOUS
 62
     7
100
AcDbLine
 10
1645.050000000005
 20
876.499999999103
 30
0.0
 11
1648.050000000005
 21
876.499999999103
 31
0.0
  0
LINE
  5
19F
330
1F
100
AcDbEntity
  8
LAY-10
  6
CONTINUOUS
 62
     7
100
AcDbLine
 10
1660.050000000005
 20
891.499999999103
 30
0.0
 11
1660.050000000005
 21
888.4999999991035
 31
0.0
  0
LINE
  5
1A0
330
1F
100
AcDbEntity
  8
LAY-10
  6
CONTINUOUS
 62
     7
100
AcDbLine
 10
1645.050000000003
 20
891.4999999991035
 30
0.0
 11
1645.050000000003
 21
876.4999999991039
 31
0.0
  0
LINE
  5
1A1
330
1F
100
AcDbEntity
  8
LAY-10
  6
CONTINUOUS
 62
     7
100
AcDbLine
 10
1651.250000000006
 20
821.2999999991041
 30
0.0
 11
1651.250000000006
 21
888.4999999991035
 31
0.0
  0
ARC
  5
1A2
330
1F
100
AcDbEntity
  8
LAY-10
  6
CONTINUOUS
 62
     7
100
AcDbCircle
 10
1645.049999999973
 20
821.499999999103
 30
0.0
 40
3.000000000000003
100
AcDbArc
 50
270.0000000000002
 51
0.0
  0
ARC
  5
1A3
330
1F
100
AcDbEntity
  8
LAY-10
  6
CONTINUOUS
 62
     7
100
AcDbCircle
 10
1645.249999999972
 20
821.2999999991041
 30
0.0
 40
6.000000000000006
100
AcDbArc
 50
270.0000000000002
 51
0.0
  0
ARC
  5
1A4
330
1F
100
AcDbEntity
  8
LAY-10
  6
CONTINUOUS
 62
     7
100
AcDbCircle
 10
1611.25000000001
 20
812.2999999991046
 30
0.0
 40
3.000000000000003
100
AcDbArc
 50
90.00000000000001
 51
180.0
  0
ARC
  5
1A5
330
1F
100
AcDbEntity
  8
LAY-10
  6
CONTINUOUS
 62
     7
100
AcDbCircle
 10
1611.05000000001
 20
812.4999999991044
 30
0.0
 40
6.000000000000006
100
AcDbArc
 50
90.00000000000001
 51
180.0
  0
LINE
  5
1A6
330
1F
100
AcDbEntity
  8
LAY-10
  6
CONTINUOUS
 62
     7
100
AcDbLine
 10
1647.936291501019
 20
815.2999999991036
 30
0.0
 11
1611.25000000001
 21
815.2999999991036
 31
0.0
  0
LINE
  5
1A7
330
1F
100
AcDbEntity
  8
LAY-10
  6
CONTINUOUS
 62
     7
100
AcDbLine
 10
1648.050000000005
 20
888.4999999991035
 30
0.0
 11
1648.050000000005
 21
821.499999999103
 31
0.0
  0
LINE
  5
1A8
330
1F
100
AcDbEntity
  8
LAY-10
  6
CONTINUOUS
 62
     7
100
AcDbLine
 10
1617.377495536182
 20
820.4999999991248
 30
0.0
 11
1615.577495536186
 21
818.4999999991277
 31
0.0
  0
LINE
  5
1A9
330
1F
100
AcDbEntity
  8
LAY-10
  6
CONTINUOUS
 62
     7
100
AcDbLine
 10
1616.670388755
 20
820.4999999991276
 30
0.0
 11
1614.870388754997
 21
818.4999999991248
 31
0.0
  0
LINE
  5
1AA
330
1F
100
AcDbEntity
  8
LAY-10
  6
CONTINUOUS
 62
     7
100
AcDbLine
 10
1615.96328197381
 20
820.4999999991259
 30
0.0
 11
1614.163281973813
 21
818.4999999991277
 31
0.0
  0
LINE
  5
1AB
330
1F
100
AcDbEntity
  8
LAY-10
  6
CONTINUOUS
 62
     7
100
AcDbLine
 10
1615.256175192627
 20
820.4999999991276
 30
0.0
 11
1614.049999999844
 21
819.0938248063455
 31
0.0
  0
LINE
  5
1AC
330
1F
100
AcDbEntity
  8
LAY-10
  6
CONTINUOUS
 62
     7
100
AcDbLine
 10
1614.549068411437
 20
820.4999999991259
 30
0.0
 11
1614.049999999842
 21
820.0009315875288
 31
0.0
  0
LINE
  5
1AD
330
1F
100
AcDbEntity
  8
LAY-10
  6
CONTINUOUS
 62
     7
100
AcDbLine
 10
1644.049999999925
 20
818.7144022953951
 30
0.0
 11
1643.85647012544
 21
818.4999999991244
 31
0.0
  0
LINE
  5
1AE
330
1F
100
AcDbEntity
  8
LAY-10
  6
CONTINUOUS
 62
     7
100
AcDbLine
 10
1644.049999999925
 20
819.4977713643796
 30
0.0
 11
1643.149363344252
 21
818.4999999991244
 31
0.0
  0
LINE
  5
1AF
330
1F
100
AcDbEntity
  8
LAY-10
  6
CONTINUOUS
 62
     7
100
AcDbLine
 10
1644.049999999925
 20
820.2811404333619
 30
0.0
 11
1642.442256563066
 21
818.4999999991244
 31
0.0
  0
LINE
  5
1B0
330
1F
100
AcDbEntity
  8
LAY-10
  6
CONTINUOUS
 62
     7
100
AcDbLine
 10
1618.084602317372
 20
820.4999999991276
 30
0.0
 11
1616.28460231737
 21
818.4999999991248
 31
0.0
  0
LINE
  5
1B1
330
1F
100
AcDbEntity
  8
LAY-10
  6
CONTINUOUS
 62
     7
100
AcDbLine
 10
1618.791709098555
 20
820.4999999991248
 30
0.0
 11
1616.991709098559
 21
818.4999999991277
 31
0.0
  0
LINE
  5
1B2
330
1F
100
AcDbEntity
  8
LAY-10
  6
CONTINUOUS
 62
     7
100
AcDbLine
 10
1619.498815879746
 20
820.4999999991281
 30
0.0
 11
1617.698815879743
 21
818.4999999991248
 31
0.0
  0
LINE
  5
1B3
330
1F
100
AcDbEntity
  8
LAY-10
  6
CONTINUOUS
 62
     7
100
AcDbLine
 10
1620.205922660928
 20
820.4999999991248
 30
0.0
 11
1618.405922660933
 21
818.499999999128
 31
0.0
  0
LINE
  5
1B4
330
1F
100
AcDbEntity
  8
LAY-10
  6
CONTINUOUS
 62
     7
100
AcDbLine
 10
1620.913029442118
 20
820.4999999991281
 30
0.0
 11
1619.113029442116
 21
818.4999999991254
 31
0.0
  0
LINE
  5
1B5
330
1F
100
AcDbEntity
  8
LAY-10
  6
CONTINUOUS
 62
     7
100
AcDbLine
 10
1621.620136223302
 20
820.4999999991248
 30
0.0
 11
1619.820136223306
 21
818.499999999128
 31
0.0
  0
LINE
  5
1B6
330
1F
100
AcDbEntity
  8
LAY-10
  6
CONTINUOUS
 62
     7
100
AcDbLine
 10
1622.327243004491
 20
820.4999999991267
 30
0.0
 11
1620.527243004487
 21
818.4999999991254
 31
0.0
  0
LINE
  5
1B7
330
1F
100
AcDbEntity
  8
LAY-10
  6
CONTINUOUS
 62
     7
100
AcDbLine
 10
1623.034349785675
 20
820.4999999991248
 30
0.0
 11
1621.234349785678
 21
818.499999999128
 31
0.0
  0
LINE
  5
1B8
330
1F
100
AcDbEntity
  8
LAY-10
  6
CONTINUOUS
 62
     7
100
AcDbLine
 10
1623.741456566865
 20
820.4999999991267
 30
0.0
 11
1621.941456566861
 21
818.4999999991254
 31
0.0
  0
LINE
  5
1B9
330
1F
100
AcDbEntity
  8
LAY-10
  6
CONTINUOUS
 62
     7
100
AcDbLine
 10
1624.448563348047
 20
820.4999999991248
 30
0.0
 11
1622.648563348051
 21
818.499999999128
 31
0.0
  0
LINE
  5
1BA
330
1F
100
AcDbEntity
  8
LAY-10
  6
CONTINUOUS
 62
     7
100
AcDbLine
 10
1625.155670129237
 20
820.4999999991267
 30
0.0
 11
1623.355670129233
 21
818.4999999991254
 31
0.0
  0
LINE
  5
1BB
330
1F
100
AcDbEntity
  8
LAY-10
  6
CONTINUOUS
 62
     7
100
AcDbLine
 10
1625.862776910419
 20
820.4999999991248
 30
0.0
 11
1624.062776910424
 21
818.499999999128
 31
0.0
  0
LINE
  5
1BC
330
1F
100
AcDbEntity
  8
LAY-10
  6
CONTINUOUS
 62
     7
100
AcDbLine
 10
1626.569883691609
 20
820.4999999991267
 30
0.0
 11
1624.769883691607
 21
818.4999999991235
 31
0.0
  0
LINE
  5
1BD
330
1F
100
AcDbEntity
  8
LAY-10
  6
CONTINUOUS
 62
     7
100
AcDbLine
 10
1627.276990472793
 20
820.4999999991248
 30
0.0
 11
1625.476990472797
 21
818.499999999128
 31
0.0
  0
LINE
  5
1BE
330
1F
100
AcDbEntity
  8
LAY-10
  6
CONTINUOUS
 62
     7
100
AcDbLine
 10
1627.984097253982
 20
820.4999999991267
 30
0.0
 11
1626.18409725398
 21
818.4999999991235
 31
0.0
  0
LINE
  5
1BF
330
1F
100
AcDbEntity
  8
LAY-10
  6
CONTINUOUS
 62
     7
100
AcDbLine
 10
1628.691204035165
 20
820.4999999991248
 30
0.0
 11
1626.89120403517
 21
818.499999999128
 31
0.0
  0
LINE
  5
1C0
330
1F
100
AcDbEntity
  8
LAY-10
  6
CONTINUOUS
 62
     7
100
AcDbLine
 10
1629.398310816355
 20
820.4999999991267
 30
0.0
 11
1627.598310816352
 21
818.4999999991235
 31
0.0
  0
LINE
  5
1C1
330
1F
100
AcDbEntity
  8
LAY-10
  6
CONTINUOUS
 62
     7
100
AcDbLine
 10
1630.105417597539
 20
820.4999999991248
 30
0.0
 11
1628.305417597543
 21
818.499999999128
 31
0.0
  0
LINE
  5
1C2
330
1F
100
AcDbEntity
  8
LAY-10
  6
CONTINUOUS
 62
     7
100
AcDbLine
 10
1630.812524378728
 20
820.4999999991267
 30
0.0
 11
1629.012524378725
 21
818.4999999991235
 31
0.0
  0
LINE
  5
1C3
330
1F
100
AcDbEntity
  8
LAY-10
  6
CONTINUOUS
 62
     7
100
AcDbLine
 10
1631.519631159913
 20
820.4999999991248
 30
0.0
 11
1629.719631159915
 21
818.4999999991267
 31
0.0
  0
LINE
  5
1C4
330
1F
100
AcDbEntity
  8
LAY-10
  6
CONTINUOUS
 62
     7
100
AcDbLine
 10
1632.226737941102
 20
820.4999999991267
 30
0.0
 11
1630.426737941099
 21
818.4999999991235
 31
0.0
  0
LINE
  5
1C5
330
1F
100
AcDbEntity
  8
LAY-10
  6
CONTINUOUS
 62
     7
100
AcDbLine
 10
1632.933844722286
 20
820.4999999991253
 30
0.0
 11
1631.133844722287
 21
818.4999999991267
 31
0.0
  0
LINE
  5
1C6
330
1F
100
AcDbEntity
  8
LAY-10
  6
CONTINUOUS
 62
     7
100
AcDbLine
 10
1633.640951503475
 20
820.4999999991267
 30
0.0
 11
1631.84095150347
 21
818.4999999991235
 31
0.0
  0
LINE
  5
1C7
330
1F
100
AcDbEntity
  8
LAY-10
  6
CONTINUOUS
 62
     7
100
AcDbLine
 10
1634.348058284659
 20
820.4999999991253
 30
0.0
 11
1632.548058284661
 21
818.4999999991267
 31
0.0
  0
LINE
  5
1C8
330
1F
100
AcDbEntity
  8
LAY-10
  6
CONTINUOUS
 62
     7
100
AcDbLine
 10
1635.055165065847
 20
820.4999999991267
 30
0.0
 11
1633.255165065847
 21
818.4999999991239
 31
0.0
  0
LINE
  5
1C9
330
1F
100
AcDbEntity
  8
LAY-10
  6
CONTINUOUS
 62
     7
100
AcDbLine
 10
1635.762271847032
 20
820.4999999991253
 30
0.0
 11
1633.962271847033
 21
818.4999999991271
 31
0.0
  0
LINE
  5
1CA
330
1F
100
AcDbEntity
  8
LAY-10
  6
CONTINUOUS
 62
     7
100
AcDbLine
 10
1636.469378628219
 20
820.4999999991267
 30
0.0
 11
1634.669378628219
 21
818.4999999991239
 31
0.0
  0
LINE
  5
1CB
330
1F
100
AcDbEntity
  8
LAY-10
  6
CONTINUOUS
 62
     7
100
AcDbLine
 10
1637.176485409406
 20
820.4999999991253
 30
0.0
 11
1635.376485409407
 21
818.4999999991271
 31
0.0
  0
LINE
  5
1CC
330
1F
100
AcDbEntity
  8
LAY-10
  6
CONTINUOUS
 62
     7
100
AcDbLine
 10
1637.883592190593
 20
820.4999999991267
 30
0.0
 11
1636.083592190591
 21
818.4999999991239
 31
0.0
  0
LINE
  5
1CD
330
1F
100
AcDbEntity
  8
LAY-10
  6
CONTINUOUS
 62
     7
100
AcDbLine
 10
1638.590698971778
 20
820.4999999991253
 30
0.0
 11
1636.79069897178
 21
818.4999999991271
 31
0.0
  0
LINE
  5
1CE
330
1F
100
AcDbEntity
  8
LAY-10
  6
CONTINUOUS
 62
     7
100
AcDbLine
 10
1639.297805752965
 20
820.4999999991267
 30
0.0
 11
1637.496259014647
 21
818.4999999991244
 31
0.0
  0
LINE
  5
1CF
330
1F
100
AcDbEntity
  8
LAY-10
  6
CONTINUOUS
 62
     7
100
AcDbLine
 10
1640.004912534152
 20
820.4999999991253
 30
0.0
 11
1638.202962425275
 21
818.498049890248
 31
0.0
  0
LINE
  5
1D0
330
1F
100
AcDbEntity
  8
LAY-10
  6
CONTINUOUS
 62
     7
100
AcDbLine
 10
1640.712019315339
 20
820.4999999991267
 30
0.0
 11
1638.906722657134
 21
818.4999999991244
 31
0.0
  0
LINE
  5
1D1
330
1F
100
AcDbEntity
  8
LAY-10
  6
CONTINUOUS
 62
     7
100
AcDbLine
 10
1641.419126096523
 20
820.4999999991253
 30
0.0
 11
1639.613829438322
 21
818.4999999991244
 31
0.0
  0
LINE
  5
1D2
330
1F
100
AcDbEntity
  8
LAY-10
  6
CONTINUOUS
 62
     7
100
AcDbLine
 10
1642.126232877712
 20
820.4999999991267
 30
0.0
 11
1640.320936219505
 21
818.4999999991244
 31
0.0
  0
LINE
  5
1D3
330
1F
100
AcDbEntity
  8
LAY-10
  6
CONTINUOUS
 62
     7
100
AcDbLine
 10
1642.833339658896
 20
820.4999999991253
 30
0.0
 11
1641.028043000695
 21
818.4999999991244
 31
0.0
  0
LINE
  5
1D4
330
1F
100
AcDbEntity
  8
LAY-10
  6
CONTINUOUS
 62
     7
100
AcDbLine
 10
1643.540446440085
 20
820.4999999991267
 30
0.0
 11
1641.73514978188
 21
818.4999999991244
 31
0.0
  0
LINE
  5
1D5
330
1F
100
AcDbEntity
  8
LAY-10
  6
CONTINUOUS
 62
     7
100
AcDbLine
 10
1614.049999999972
 20
820.4999999991031
 30
0.0
 11
1614.049999999972
 21
818.4999999991016
 31
0.0
  0
LINE
  5
1D6
330
1F
100
AcDbEntity
  8
LAY-10
  6
CONTINUOUS
 62
     7
100
AcDbLine
 10
1608.25000000001
 20
812.2999999991046
 30
0.0
 11
1608.25000000001
 21
791.4999999991048
 31
0.0
  0
LINE
  5
1D7
330
1F
100
AcDbEntity
  8
LAY-10
  6
CONTINUOUS
 62
     7
100
AcDbLine
 10
1605.05000000001
 20
812.4999999991044
 30
0.0
 11
1605.05000000001
 21
791.4999999991048
 31
0.0
  0
LINE
  5
1D8
330
1F
100
AcDbEntity
  8
LAY-10
  6
CONTINUOUS
 62
     7
100
AcDbLine
 10
1617.936291501018
 20
807.2999999990031
 30
0.0
 11
1617.936291501018
 21
815.2999999990041
 31
0.0
  0
LINE
  5
1D9
330
1F
100
AcDbEntity
  8
LAY-10
  6
CONTINUOUS
 62
     7
100
AcDbLine
 10
1647.936291501018
 20
807.2999999990031
 30
0.0
 11
1617.936291501018
 21
807.2999999990031
 31
0.0
  0
ARC
  5
1DA
330
1F
100
AcDbEntity
  8
LAY-10
  6
CONTINUOUS
 62
     7
100
AcDbCircle
 10
1647.936291501018
 20
807.2999999990031
 30
0.0
 40
8.0
100
AcDbArc
 50
45.00000000000463
 51
90.00000000000001
  0
LINE
  5
1DB
330
1F
100
AcDbEntity
  8
LAY-10
  6
CONTINUOUS
 62
     7
100
AcDbLine
 10
1688.948484809839
 20
777.601515189169
 30
0.0
 11
1653.593145750512
 21
812.956854248496
 31
0.0
  0
LINE
  5
1DC
330
1F
100
AcDbEntity
  8
LAY-10
  6
CONTINUOUS
 62
     7
100
AcDbLine
 10
1683.291630560345
 20
771.9446609396772
 30
0.0
 11
1647.936291501018
 21
807.2999999990031
 31
0.0
  0
LINE
  5
1DD
330
1F
100
AcDbEntity
  8
LAY-10
  6
CONTINUOUS
 62
     7
100
AcDbLine
 10
1688.948484809839
 20
777.601515189169
 30
0.0
 11
1683.291630560345
 21
771.9446609396762
 31
0.0
  0
LINE
  5
1DE
330
1F
100
AcDbEntity
  8
LAY-10
  6
CONTINUOUS
 62
     7
100
AcDbLine
 10
565.0500000000052
 20
891.4999999991039
 30
0.0
 11
550.0500000000052
 21
891.4999999991039
 31
0.0
  0
LINE
  5
1DF
330
1F
100
AcDbEntity
  8
LAY-10
  6
CONTINUOUS
 62
     7
100
AcDbLine
 10
565.0500000000052
 20
891.4999999991035
 30
0.0
 11
565.0500000000052
 21
876.4999999991039
 31
0.0
  0
LINE
  5
1E0
330
1F
100
AcDbEntity
  8
LAY-10
  6
CONTINUOUS
 62
     7
100
AcDbLine
 10
562.0500000000061
 20
888.4999999991035
 30
0.0
 11
550.0500000000052
 21
888.4999999991035
 31
0.0
  0
LINE
  5
1E1
330
1F
100
AcDbEntity
  8
LAY-10
  6
CONTINUOUS
 62
     7
100
AcDbLine
 10
565.0500000000052
 20
876.4999999991039
 30
0.0
 11
562.0500000000061
 21
876.4999999991039
 31
0.0
  0
LINE
  5
1E2
330
1F
100
AcDbEntity
  8
LAY-10
  6
CONTINUOUS
 62
     7
100
AcDbLine
 10
550.0500000000052
 20
891.4999999991035
 30
0.0
 11
550.0500000000052
 21
888.4999999991035
 31
0.0
  0
LINE
  5
1E3
330
1F
100
AcDbEntity
  8
LAY-10
  6
CONTINUOUS
 62
     7
100
AcDbLine
 10
558.8500000000054
 20
821.2999999991041
 30
0.0
 11
558.8500000000054
 21
888.4999999991035
 31
0.0
  0
ARC
  5
1E4
330
1F
100
AcDbEntity
  8
LAY-10
  6
CONTINUOUS
 62
     7
100
AcDbCircle
 10
565.050000000037
 20
821.499999999103
 30
0.0
 40
3.000000000000003
100
AcDbArc
 50
180.0
 51
270.0000000000002
  0
ARC
  5
1E5
330
1F
100
AcDbEntity
  8
LAY-10
  6
CONTINUOUS
 62
     7
100
AcDbCircle
 10
564.8500000000372
 20
821.2999999991041
 30
0.0
 40
6.000000000000006
100
AcDbArc
 50
180.0
 51
270.0000000000002
  0
ARC
  5
1E6
330
1F
100
AcDbEntity
  8
LAY-10
  6
CONTINUOUS
 62
     7
100
AcDbCircle
 10
598.8499999999999
 20
812.2999999991046
 30
0.0
 40
3.000000000000003
100
AcDbArc
 50
0.0
 51
90.00000000000001
  0
ARC
  5
1E7
330
1F
100
AcDbEntity
  8
LAY-10
  6
CONTINUOUS
 62
     7
100
AcDbCircle
 10
599.0499999999997
 20
812.4999999991044
 30
0.0
 40
6.000000000000006
100
AcDbArc
 50
0.0
 51
90.00000000000001
  0
LINE
  5
1E8
330
1F
100
AcDbEntity
  8
LAY-10
  6
CONTINUOUS
 62
     7
100
AcDbLine
 10
592.1637084989902
 20
807.2999999990031
 30
0.0
 11
592.1637084989902
 21
815.2999999990041
 31
0.0
  0
LINE
  5
1E9
330
1F
100
AcDbEntity
  8
LAY-10
  6
CONTINUOUS
 62
     7
100
AcDbLine
 10
562.1637084989902
 20
807.2999999990031
 30
0.0
 11
592.1637084989902
 21
807.2999999990031
 31
0.0
  0
ARC
  5
1EA
330
1F
100
AcDbEntity
  8
LAY-10
  6
CONTINUOUS
 62
     7
100
AcDbCircle
 10
562.1637084989902
 20
807.2999999990031
 30
0.0
 40
8.0
100
AcDbArc
 50
90.00000000000001
 51
134.9999999999946
  0
LINE
  5
1EB
330
1F
100
AcDbEntity
  8
LAY-10
  6
CONTINUOUS
 62
     7
100
AcDbLine
 10
521.1515151901699
 20
777.601515189169
 30
0.0
 11
556.5068542494969
 21
812.956854248496
 31
0.0
  0
LINE
  5
1EC
330
1F
100
AcDbEntity
  8
LAY-10
  6
CONTINUOUS
 62
     7
100
AcDbLine
 10
526.8083694396632
 20
771.9446609396772
 30
0.0
 11
562.1637084989902
 21
807.2999999990031
 31
0.0
  0
LINE
  5
1ED
330
1F
100
AcDbEntity
  8
LAY-10
  6
CONTINUOUS
 62
     7
100
AcDbLine
 10
521.1515151901699
 20
777.601515189169
 30
0.0
 11
526.8083694396632
 21
771.9446609396766
 31
0.0
  0
LINE
  5
1EE
330
1F
100
AcDbEntity
  8
LAY-10
  6
CONTINUOUS
 62
     7
100
AcDbLine
 10
598.8499999999999
 20
815.2999999991036
 30
0.0
 11
562.1637084989902
 21
815.2999999991036
 31
0.0
  0
LINE
  5
1EF
330
1F
100
AcDbEntity
  8
LAY-10
  6
CONTINUOUS
 62
     7
100
AcDbLine
 10
562.0500000000061
 20
888.4999999991035
 30
0.0
 11
562.0500000000061
 21
821.499999999103
 31
0.0
  0
LINE
  5
1F0
330
1F
100
AcDbEntity
  8
LAY-10
  6
CONTINUOUS
 62
     7
100
AcDbLine
 10
596.0500000000079
 20
820.4999999991031
 30
0.0
 11
596.0500000000079
 21
818.499999999103
 31
0.0
  0
LINE
  5
1F1
330
1F
100
AcDbEntity
  8
LAY-10
  6
CONTINUOUS
 62
     7
100
AcDbLine
 10
582.8125243787276
 20
820.4999999991267
 30
0.0
 11
581.0125243787247
 21
818.4999999991235
 31
0.0
  0
LINE
  5
1F2
330
1F
100
AcDbEntity
  8
LAY-10
  6
CONTINUOUS
 62
     7
100
AcDbLine
 10
582.1054175975391
 20
820.4999999991248
 30
0.0
 11
580.3054175975426
 21
818.4999999991277
 31
0.0
  0
LINE
  5
1F3
330
1F
100
AcDbEntity
  8
LAY-10
  6
CONTINUOUS
 62
     7
100
AcDbLine
 10
581.3983108163552
 20
820.4999999991267
 30
0.0
 11
579.5983108163523
 21
818.4999999991235
 31
0.0
  0
LINE
  5
1F4
330
1F
100
AcDbEntity
  8
LAY-10
  6
CONTINUOUS
 62
     7
100
AcDbLine
 10
580.6912040351649
 20
820.4999999991248
 30
0.0
 11
578.8912040351702
 21
818.4999999991277
 31
0.0
  0
LINE
  5
1F5
330
1F
100
AcDbEntity
  8
LAY-10
  6
CONTINUOUS
 62
     7
100
AcDbLine
 10
579.9840972539819
 20
820.4999999991267
 30
0.0
 11
578.1840972539799
 21
818.4999999991235
 31
0.0
  0
LINE
  5
1F6
330
1F
100
AcDbEntity
  8
LAY-10
  6
CONTINUOUS
 62
     7
100
AcDbLine
 10
579.2769904727934
 20
820.4999999991248
 30
0.0
 11
577.4769904727968
 21
818.4999999991277
 31
0.0
  0
LINE
  5
1F7
330
1F
100
AcDbEntity
  8
LAY-10
  6
CONTINUOUS
 62
     7
100
AcDbLine
 10
578.5698836916094
 20
820.4999999991267
 30
0.0
 11
576.7698836916074
 21
818.4999999991235
 31
0.0
  0
LINE
  5
1F8
330
1F
100
AcDbEntity
  8
LAY-10
  6
CONTINUOUS
 62
     7
100
AcDbLine
 10
577.8627769104191
 20
820.4999999991248
 30
0.0
 11
576.0627769104235
 21
818.4999999991277
 31
0.0
  0
LINE
  5
1F9
330
1F
100
AcDbEntity
  8
LAY-10
  6
CONTINUOUS
 62
     7
100
AcDbLine
 10
577.155670129237
 20
820.4999999991267
 30
0.0
 11
575.3556701292332
 21
818.4999999991248
 31
0.0
  0
LINE
  5
1FA
330
1F
100
AcDbEntity
  8
LAY-10
  6
CONTINUOUS
 62
     7
100
AcDbLine
 10
576.4485633480467
 20
820.4999999991248
 30
0.0
 11
574.6485633480511
 21
818.4999999991277
 31
0.0
  0
LINE
  5
1FB
330
1F
100
AcDbEntity
  8
LAY-10
  6
CONTINUOUS
 62
     7
100
AcDbLine
 10
575.7414565668646
 20
820.4999999991267
 30
0.0
 11
573.9414565668608
 21
818.4999999991248
 31
0.0
  0
LINE
  5
1FC
330
1F
100
AcDbEntity
  8
LAY-10
  6
CONTINUOUS
 62
     7
100
AcDbLine
 10
575.0343497856743
 20
820.4999999991248
 30
0.0
 11
573.2343497856778
 21
818.4999999991277
 31
0.0
  0
LINE
  5
1FD
330
1F
100
AcDbEntity
  8
LAY-10
  6
CONTINUOUS
 62
     7
100
AcDbLine
 10
574.3272430044913
 20
820.4999999991267
 30
0.0
 11
572.5272430044874
 21
818.4999999991248
 31
0.0
  0
LINE
  5
1FE
330
1F
100
AcDbEntity
  8
LAY-10
  6
CONTINUOUS
 62
     7
100
AcDbLine
 10
573.6201362233019
 20
820.4999999991248
 30
0.0
 11
571.8201362233053
 21
818.4999999991277
 31
0.0
  0
LINE
  5
1FF
330
1F
100
AcDbEntity
  8
LAY-10
  6
CONTINUOUS
 62
     7
100
AcDbLine
 10
572.9130294421179
 20
820.4999999991276
 30
0.0
 11
571.1130294421159
 21
818.4999999991248
 31
0.0
  0
LINE
  5
200
330
1F
100
AcDbEntity
  8
LAY-10
  6
CONTINUOUS
 62
     7
100
AcDbLine
 10
572.2059226609276
 20
820.4999999991248
 30
0.0
 11
570.4059226609329
 21
818.4999999991277
 31
0.0
  0
LINE
  5
201
330
1F
100
AcDbEntity
  8
LAY-10
  6
CONTINUOUS
 62
     7
100
AcDbLine
 10
571.4988158797455
 20
820.4999999991276
 30
0.0
 11
569.6988158797426
 21
818.4999999991248
 31
0.0
  0
LINE
  5
202
330
1F
100
AcDbEntity
  8
LAY-10
  6
CONTINUOUS
 62
     7
100
AcDbLine
 10
570.7917090985552
 20
820.4999999991248
 30
0.0
 11
568.9917090985587
 21
818.4999999991277
 31
0.0
  0
LINE
  5
203
330
1F
100
AcDbEntity
  8
LAY-10
  6
CONTINUOUS
 62
     7
100
AcDbLine
 10
570.0846023173722
 20
820.4999999991276
 30
0.0
 11
568.2846023173702
 21
818.4999999991248
 31
0.0
  0
LINE
  5
204
330
1F
100
AcDbEntity
  8
LAY-10
  6
CONTINUOUS
 62
     7
100
AcDbLine
 10
569.3774955361819
 20
820.4999999991248
 30
0.0
 11
567.5774955361862
 21
818.4999999991277
 31
0.0
  0
LINE
  5
205
330
1F
100
AcDbEntity
  8
LAY-10
  6
CONTINUOUS
 62
     7
100
AcDbLine
 10
568.6703887549997
 20
820.4999999991276
 30
0.0
 11
566.8703887549968
 21
818.4999999991248
 31
0.0
  0
LINE
  5
206
330
1F
100
AcDbEntity
  8
LAY-10
  6
CONTINUOUS
 62
     7
100
AcDbLine
 10
567.9632819738104
 20
820.4999999991259
 30
0.0
 11
566.163281973812
 21
818.4999999991277
 31
0.0
  0
LINE
  5
207
330
1F
100
AcDbEntity
  8
LAY-10
  6
CONTINUOUS
 62
     7
100
AcDbLine
 10
567.2561751926273
 20
820.4999999991276
 30
0.0
 11
566.0499999998442
 21
819.0938248063455
 31
0.0
  0
LINE
  5
208
330
1F
100
AcDbEntity
  8
LAY-10
  6
CONTINUOUS
 62
     7
100
AcDbLine
 10
566.549068411437
 20
820.4999999991259
 30
0.0
 11
566.0499999998415
 21
820.0009315875288
 31
0.0
  0
LINE
  5
209
330
1F
100
AcDbEntity
  8
LAY-10
  6
CONTINUOUS
 62
     7
100
AcDbLine
 10
583.5196311599134
 20
820.4999999991248
 30
0.0
 11
581.719631159915
 21
818.4999999991267
 31
0.0
  0
LINE
  5
20A
330
1F
100
AcDbEntity
  8
LAY-10
  6
CONTINUOUS
 62
     7
100
AcDbLine
 10
595.5404464400849
 20
820.4999999991267
 30
0.0
 11
593.7351497818794
 21
818.4999999991244
 31
0.0
  0
LINE
  5
20B
330
1F
100
AcDbEntity
  8
LAY-10
  6
CONTINUOUS
 62
     7
100
AcDbLine
 10
594.8333396588964
 20
820.4999999991248
 30
0.0
 11
593.0280430006937
 21
818.4999999991244
 31
0.0
  0
LINE
  5
20C
330
1F
100
AcDbEntity
  8
LAY-10
  6
CONTINUOUS
 62
     7
100
AcDbLine
 10
584.2267379411019
 20
820.4999999991267
 30
0.0
 11
582.426737941099
 21
818.4999999991235
 31
0.0
  0
LINE
  5
20D
330
1F
100
AcDbEntity
  8
LAY-10
  6
CONTINUOUS
 62
     7
100
AcDbLine
 10
584.9338447222858
 20
820.4999999991248
 30
0.0
 11
583.1338447222874
 21
818.4999999991267
 31
0.0
  0
LINE
  5
20E
330
1F
100
AcDbEntity
  8
LAY-10
  6
CONTINUOUS
 62
     7
100
AcDbLine
 10
585.6409515034743
 20
820.4999999991267
 30
0.0
 11
583.8409515034705
 21
818.4999999991235
 31
0.0
  0
LINE
  5
20F
330
1F
100
AcDbEntity
  8
LAY-10
  6
CONTINUOUS
 62
     7
100
AcDbLine
 10
586.3480582846591
 20
820.4999999991248
 30
0.0
 11
584.5480582846608
 21
818.4999999991267
 31
0.0
  0
LINE
  5
210
330
1F
100
AcDbEntity
  8
LAY-10
  6
CONTINUOUS
 62
     7
100
AcDbLine
 10
587.0551650658467
 20
820.4999999991267
 30
0.0
 11
585.2551650658465
 21
818.4999999991235
 31
0.0
  0
LINE
  5
211
330
1F
100
AcDbEntity
  8
LAY-10
  6
CONTINUOUS
 62
     7
100
AcDbLine
 10
587.7622718470316
 20
820.4999999991248
 30
0.0
 11
585.9622718470332
 21
818.4999999991267
 31
0.0
  0
LINE
  5
212
330
1F
100
AcDbEntity
  8
LAY-10
  6
CONTINUOUS
 62
     7
100
AcDbLine
 10
588.4693786282191
 20
820.4999999991267
 30
0.0
 11
586.669378628219
 21
818.4999999991235
 31
0.0
  0
LINE
  5
213
330
1F
100
AcDbEntity
  8
LAY-10
  6
CONTINUOUS
 62
     7
100
AcDbLine
 10
589.1764854094058
 20
820.4999999991248
 30
0.0
 11
587.3764854094075
 21
818.4999999991267
 31
0.0
  0
LINE
  5
214
330
1F
100
AcDbEntity
  8
LAY-10
  6
CONTINUOUS
 62
     7
100
AcDbLine
 10
589.8835921905934
 20
820.4999999991267
 30
0.0
 11
588.0835921905914
 21
818.4999999991235
 31
0.0
  0
LINE
  5
215
330
1F
100
AcDbEntity
  8
LAY-10
  6
CONTINUOUS
 62
     7
100
AcDbLine
 10
590.5906989717781
 20
820.4999999991248
 30
0.0
 11
588.7906989717799
 21
818.4999999991267
 31
0.0
  0
LINE
  5
216
330
1F
100
AcDbEntity
  8
LAY-10
  6
CONTINUOUS
 62
     7
100
AcDbLine
 10
591.2978057529649
 20
820.4999999991267
 30
0.0
 11
589.4962590146464
 21
818.4999999991244
 31
0.0
  0
LINE
  5
217
330
1F
100
AcDbEntity
  8
LAY-10
  6
CONTINUOUS
 62
     7
100
AcDbLine
 10
592.0049125341507
 20
820.4999999991248
 30
0.0
 11
590.2029624252749
 21
818.4980498902476
 31
0.0
  0
LINE
  5
218
330
1F
100
AcDbEntity
  8
LAY-10
  6
CONTINUOUS
 62
     7
100
AcDbLine
 10
592.7120193153391
 20
820.4999999991267
 30
0.0
 11
590.9067226571336
 21
818.4999999991244
 31
0.0
  0
LINE
  5
219
330
1F
100
AcDbEntity
  8
LAY-10
  6
CONTINUOUS
 62
     7
100
AcDbLine
 10
593.4191260965231
 20
820.4999999991248
 30
0.0
 11
591.6138294383212
 21
818.4999999991244
 31
0.0
  0
LINE
  5
21A
330
1F
100
AcDbEntity
  8
LAY-10
  6
CONTINUOUS
 62
     7
100
AcDbLine
 10
594.1262328777115
 20
820.4999999991267
 30
0.0
 11
592.3209362195053
 21
818.4999999991244
 31
0.0
  0
LINE
  5
21B
330
1F
100
AcDbEntity
  8
LAY-10
  6
CONTINUOUS
 62
     7
100
AcDbLine
 10
596.0499999999241
 20
820.2811404333613
 30
0.0
 11
594.442256563066
 21
818.4999999991244
 31
0.0
  0
LINE
  5
21C
330
1F
100
AcDbEntity
  8
LAY-10
  6
CONTINUOUS
 62
     7
100
AcDbLine
 10
596.0499999999241
 20
819.4977713643791
 30
0.0
 11
595.1493633442519
 21
818.4999999991244
 31
0.0
  0
LINE
  5
21D
330
1F
100
AcDbEntity
  8
LAY-10
  6
CONTINUOUS
 62
     7
100
AcDbLine
 10
596.0499999999241
 20
818.7144022953951
 30
0.0
 11
595.8564701254404
 21
818.4999999991244
 31
0.0
  0
LINE
  5
21E
330
1F
100
AcDbEntity
  8
LAY-10
  6
CONTINUOUS
 62
     7
100
AcDbLine
 10
601.8499999999998
 20
812.2999999991046
 30
0.0
 11
601.8499999999998
 21
791.4999999991048
 31
0.0
  0
LINE
  5
21F
330
1F
100
AcDbEntity
  8
LAY-10
  6
CONTINUOUS
 62
     7
100
AcDbLine
 10
605.0499999999997
 20
812.4999999991044
 30
0.0
 11
605.0499999999997
 21
791.4999999991048
 31
0.0
  0
LINE
  5
220
330
1F
100
AcDbEntity
  8
LAY-10
  6
CONTINUOUS
 62
     7
100
AcDbLine
 10
566.0499999999961
 20
820.4999999991035
 30
0.0
 11
1644.050000000003
 21
820.4999999991039
 31
0.0
  0
LINE
  5
221
330
1F
100
AcDbEntity
  8
LAY-10
  6
CONTINUOUS
 62
     7
100
AcDbLine
 10
565.050000000037
 20
818.4999999991035
 30
0.0
 11
1645.049999999973
 21
818.4999999991035
 31
0.0
  0
LINE
  5
222
330
1F
100
AcDbEntity
  8
LAY-10
  6
CONTINUOUS
 62
     7
100
AcDbLine
 10
601.8499999999998
 20
791.4999999991048
 30
0.0
 11
1608.25000000001
 21
791.4999999991048
 31
0.0
  0
LINE
  5
223
330
1F
100
AcDbEntity
  8
LAY-10
  6
CONTINUOUS
 62
     7
100
AcDbLine
 10
550.0500000000004
 20
1293.750000000204
 30
0.0
 11
550.0500000000018
 21
2403.750000000203
 31
0.0
  0
LINE
  5
224
330
1F
100
AcDbEntity
  8
LAY-10
  6
CONTINUOUS
 62
     7
100
AcDbLine
 10
565.0500000000004
 20
1308.750000000204
 30
0.0
 11
565.0500000000018
 21
2388.750000000204
 31
0.0
  0
LINE
  5
225
330
1F
100
AcDbEntity
  8
LAY-10
  6
CONTINUOUS
 62
     7
100
AcDbLine
 10
550.0500000000018
 20
2403.750000000203
 30
0.0
 11
565.0500000000018
 21
2388.750000000204
 31
0.0
  0
LINE
  5
226
330
1F
100
AcDbEntity
  8
LAY-10
  6
CONTINUOUS
 62
     7
100
AcDbLine
 10
565.0500000000004
 20
1308.750000000204
 30
0.0
 11
550.0500000000004
 21
1293.750000000204
 31
0.0
  0
LINE
  5
227
330
1F
100
AcDbEntity
  8
LAY-10
  6
CONTINUOUS
 62
     7
100
AcDbLine
 10
1645.05
 20
2388.750000000204
 30
0.0
 11
1660.050000000002
 21
2403.750000000203
 31
0.0
  0
LINE
  5
228
330
1F
100
AcDbEntity
  8
LAY-10
  6
CONTINUOUS
 62
     7
100
AcDbLine
 10
1645.049999999999
 20
1308.750000000204
 30
0.0
 11
1660.05
 21
1293.750000000206
 31
0.0
  0
LINE
  5
229
330
1F
100
AcDbEntity
  8
LAY-10
  6
CONTINUOUS
 62
     7
100
AcDbLine
 10
550.0500000000018
 20
2403.750000000203
 30
0.0
 11
1660.050000000001
 21
2403.750000000203
 31
0.0
  0
LINE
  5
22A
330
1F
100
AcDbEntity
  8
LAY-10
  6
CONTINUOUS
 62
     7
100
AcDbLine
 10
1645.05
 20
2388.750000000204
 30
0.0
 11
565.0500000000018
 21
2388.750000000204
 31
0.0
  0
LINE
  5
22B
330
1F
100
AcDbEntity
  8
LAY-10
  6
CONTINUOUS
 62
     7
100
AcDbLine
 10
1645.049999999999
 20
1308.750000000203
 30
0.0
 11
565.0500000000004
 21
1308.750000000204
 31
0.0
  0
LINE
  5
22C
330
1F
100
AcDbEntity
  8
LAY-10
  6
CONTINUOUS
 62
     7
100
AcDbLine
 10
550.0500000000004
 20
1293.750000000204
 30
0.0
 11
1660.05
 21
1293.750000000203
 31
0.0
  0
LINE
  5
22D
330
1F
100
AcDbEntity
  8
LAY-10
  6
CONTINUOUS
 62
     7
100
AcDbLine
 10
1284.05
 20
2387.750000000202
 30
0.0
 11
926.0500000000009
 21
2387.750000000202
 31
0.0
  0
LINE
  5
22E
330
1F
100
AcDbEntity
  8
LAY-10
  6
CONTINUOUS
 62
     7
100
AcDbLine
 10
926.05
 20
1309.750000000203
 30
0.0
 11
1284.050000000002
 21
1309.750000000203
 31
0.0
  0
LINE
  5
22F
330
1F
100
AcDbEntity
  8
LAY-10
  6
CONTINUOUS
 62
     7
100
AcDbLine
 10
1222.5500000003
 20
1369.427669529501
 30
0.0
 11
1240.227669529599
 21
1351.7500000002
 31
0.0
  0
LINE
  5
230
330
1F
100
AcDbEntity
  8
LAY-10
  6
CONTINUOUS
 62
     7
100
AcDbLine
 10
1222.550000002202
 20
1316.3946609414
 30
0.0
 11
1215.90533906089
 21
1309.7500000002
 31
0.0
  0
LINE
  5
231
330
1F
100
AcDbEntity
  8
LAY-10
  6
CONTINUOUS
 62
     7
100
AcDbLine
 10
1187.194660942199
 20
1369.427669530297
 30
0.0
 11
1204.872330471201
 21
1351.750000000699
 31
0.0
  0
LINE
  5
232
330
1F
100
AcDbEntity
  8
LAY-10
  6
CONTINUOUS
 62
     7
100
AcDbLine
 10
1187.194660942201
 20
1334.072330470997
 30
0.0
 11
1204.872330471204
 21
1316.394660941299
 31
0.0
  0
LINE
  5
233
330
1F
100
AcDbEntity
  8
LAY-10
  6
CONTINUOUS
 62
     7
100
AcDbLine
 10
1222.5500000012
 20
1351.7500000007
 30
0.0
 11
1204.872330471202
 21
1334.072330470999
 31
0.0
  0
LINE
  5
234
330
1F
100
AcDbEntity
  8
LAY-10
  6
CONTINUOUS
 62
     7
100
AcDbLine
 10
1240.227669529202
 20
1316.394660942401
 30
0.0
 11
1222.549999999901
 21
1334.072330471701
 31
0.0
  0
LINE
  5
235
330
1F
100
AcDbEntity
  8
LAY-10
  6
CONTINUOUS
 62
     7
100
AcDbLine
 10
1169.516991411
 20
1334.072330470201
 30
0.0
 11
1183.05
 21
1347.60533905943
 31
0.0
  0
LINE
  5
236
330
1F
100
AcDbEntity
  8
LAY-10
  6
CONTINUOUS
 62
     7
100
AcDbLine
 10
1275.583008588
 20
1351.750000001202
 30
0.0
 11
1257.905339058699
 21
1369.427669530501
 31
0.0
  0
LINE
  5
237
330
1F
100
AcDbEntity
  8
LAY-10
  6
CONTINUOUS
 62
     7
100
AcDbLine
 10
1257.9053390593
 20
1334.072330471103
 30
0.0
 11
1275.583008588601
 21
1316.394660941804
 31
0.0
  0
LINE
  5
238
330
1F
100
AcDbEntity
  8
LAY-10
  6
CONTINUOUS
 62
     7
100
AcDbLine
 10
1240.227669529301
 20
1334.072330470802
 30
0.0
 11
1257.905339059
 21
1351.750000000802
 31
0.0
  0
LINE
  5
239
330
1F
100
AcDbEntity
  8
LAY-10
  6
CONTINUOUS
 62
     7
100
AcDbLine
 10
1187.1946609407
 20
1422.460678118201
 30
0.0
 11
1169.516991411
 21
1404.783008588201
 31
0.0
  0
LINE
  5
23A
330
1F
100
AcDbEntity
  8
LAY-10
  6
CONTINUOUS
 62
     7
100
AcDbLine
 10
1169.516991411
 20
1369.427669529201
 30
0.0
 11
1187.1946609407
 21
1387.105339059201
 31
0.0
  0
LINE
  5
23B
330
1F
100
AcDbEntity
  8
LAY-10
  6
CONTINUOUS
 62
     7
100
AcDbLine
 10
1081.1286437625
 20
1334.072330470201
 30
0.0
 11
1098.8063132922
 21
1316.394660940201
 31
0.0
  0
LINE
  5
23C
330
1F
100
AcDbEntity
  8
LAY-10
  6
CONTINUOUS
 62
     7
100
AcDbLine
 10
1074.483982821166
 20
1309.7500000002
 30
0.0
 11
1081.12864376143
 21
1316.394660940201
 31
0.0
  0
LINE
  5
23D
330
1F
100
AcDbEntity
  8
LAY-10
  6
CONTINUOUS
 62
     7
100
AcDbLine
 10
1109.839321880836
 20
1309.7500000002
 30
0.0
 11
1116.4839828211
 21
1316.394660940201
 31
0.0
  0
LINE
  5
23E
330
1F
100
AcDbEntity
  8
LAY-10
  6
CONTINUOUS
 62
     7
100
AcDbLine
 10
1145.194660940513
 20
1309.7500000002
 30
0.0
 11
1151.8393218814
 21
1316.394660941201
 31
0.0
  0
LINE
  5
23F
330
1F
100
AcDbEntity
  8
LAY-10
  6
CONTINUOUS
 62
     7
100
AcDbLine
 10
1284.05
 20
1519.316017176146
 30
0.0
 11
1275.5830085892
 21
1510.849025765202
 31
0.0
  0
LINE
  5
240
330
1F
100
AcDbEntity
  8
LAY-10
  6
CONTINUOUS
 62
     7
100
AcDbLine
 10
1275.5830085892
 20
1493.171356236202
 30
0.0
 11
1257.9053390595
 21
1510.849025765202
 31
0.0
  0
LINE
  5
241
330
1F
100
AcDbEntity
  8
LAY-10
  6
CONTINUOUS
 62
     7
100
AcDbLine
 10
1257.9053390595
 20
1493.171356236202
 30
0.0
 11
1240.2276695298
 21
1475.493686706202
 31
0.0
  0
LINE
  5
242
330
1F
100
AcDbEntity
  8
LAY-10
  6
CONTINUOUS
 62
     7
100
AcDbLine
 10
1240.2276695297
 20
1422.460678118201
 30
0.0
 11
1222.5500000001
 21
1440.138347647201
 31
0.0
  0
LINE
  5
243
330
1F
100
AcDbEntity
  8
LAY-10
  6
CONTINUOUS
 62
     7
100
AcDbLine
 10
1204.8723304704
 20
1404.783008588201
 30
0.0
 11
1222.5500000001
 21
1422.460678118201
 31
0.0
  0
LINE
  5
244
330
1F
100
AcDbEntity
  8
LAY-10
  6
CONTINUOUS
 62
     7
100
AcDbLine
 10
1240.2276695297
 20
1404.783008588201
 30
0.0
 11
1257.9053390594
 21
1422.460678118201
 31
0.0
  0
LINE
  5
245
330
1F
100
AcDbEntity
  8
LAY-10
  6
CONTINUOUS
 62
     7
100
AcDbLine
 10
1204.8723304704
 20
1422.460678118201
 30
0.0
 11
1187.1946609407
 21
1440.138347647201
 31
0.0
  0
LINE
  5
246
330
1F
100
AcDbEntity
  8
LAY-10
  6
CONTINUOUS
 62
     7
100
AcDbLine
 10
1222.5500000001
 20
1457.816017177202
 30
0.0
 11
1204.8723304704
 21
1440.138347647201
 31
0.0
  0
LINE
  5
247
330
1F
100
AcDbEntity
  8
LAY-10
  6
CONTINUOUS
 62
     7
100
AcDbLine
 10
1240.2276695298
 20
1457.816017177202
 30
0.0
 11
1222.5500000001
 21
1475.493686706202
 31
0.0
  0
LINE
  5
248
330
1F
100
AcDbEntity
  8
LAY-10
  6
CONTINUOUS
 62
     7
100
AcDbLine
 10
1257.9053390595
 20
1440.138347647202
 30
0.0
 11
1275.5830085891
 21
1422.460678118201
 31
0.0
  0
LINE
  5
249
330
1F
100
AcDbEntity
  8
LAY-10
  6
CONTINUOUS
 62
     7
100
AcDbLine
 10
1275.5830085891
 20
1404.783008588201
 30
0.0
 11
1284.05
 21
1413.249999999245
 31
0.0
  0
LINE
  5
24A
330
1F
100
AcDbEntity
  8
LAY-10
  6
CONTINUOUS
 62
     7
100
AcDbLine
 10
1275.5830085891
 20
1440.138347647202
 30
0.0
 11
1284.05
 21
1448.605339058245
 31
0.0
  0
LINE
  5
24B
330
1F
100
AcDbEntity
  8
LAY-10
  6
CONTINUOUS
 62
     7
100
AcDbLine
 10
1275.5830085891
 20
1457.816017177202
 30
0.0
 11
1257.9053390595
 21
1475.493686706202
 31
0.0
  0
LINE
  5
24C
330
1F
100
AcDbEntity
  8
LAY-10
  6
CONTINUOUS
 62
     7
100
AcDbLine
 10
1240.2276695298
 20
1440.138347647202
 30
0.0
 11
1257.9053390595
 21
1457.816017177202
 31
0.0
  0
LINE
  5
24D
330
1F
100
AcDbEntity
  8
LAY-10
  6
CONTINUOUS
 62
     7
100
AcDbLine
 10
1275.5830085892
 20
1475.493686706202
 30
0.0
 11
1284.05
 21
1483.960678117146
 31
0.0
  0
LINE
  5
24E
330
1F
100
AcDbEntity
  8
LAY-10
  6
CONTINUOUS
 62
     7
100
AcDbLine
 10
1151.8393218813
 20
1334.072330470201
 30
0.0
 11
1169.516991411
 21
1316.394660940201
 31
0.0
  0
LINE
  5
24F
330
1F
100
AcDbEntity
  8
LAY-10
  6
CONTINUOUS
 62
     7
100
AcDbLine
 10
1169.516991411
 20
1351.7500000002
 30
0.0
 11
1151.8393218813
 21
1369.427669529201
 31
0.0
  0
LINE
  5
250
330
1F
100
AcDbEntity
  8
LAY-10
  6
CONTINUOUS
 62
     7
100
AcDbLine
 10
1204.8723304703
 20
1387.105339059201
 30
0.0
 11
1187.1946609407
 21
1404.783008588201
 31
0.0
  0
LINE
  5
251
330
1F
100
AcDbEntity
  8
LAY-10
  6
CONTINUOUS
 62
     7
100
AcDbLine
 10
1204.8723304703
 20
1369.427669529201
 30
0.0
 11
1222.55
 21
1387.105339059201
 31
0.0
  0
LINE
  5
252
330
1F
100
AcDbEntity
  8
LAY-10
  6
CONTINUOUS
 62
     7
100
AcDbLine
 10
1169.516991411
 20
1387.105339059201
 30
0.0
 11
1151.8393218813
 21
1404.783008588201
 31
0.0
  0
LINE
  5
253
330
1F
100
AcDbEntity
  8
LAY-10
  6
CONTINUOUS
 62
     7
100
AcDbLine
 10
1151.8393218813
 20
1351.7500000002
 30
0.0
 11
1134.1616523517
 21
1334.072330470201
 31
0.0
  0
LINE
  5
254
330
1F
100
AcDbEntity
  8
LAY-10
  6
CONTINUOUS
 62
     7
100
AcDbLine
 10
1151.8393218813
 20
1387.105339059201
 30
0.0
 11
1134.1616523517
 21
1369.427669529201
 31
0.0
  0
LINE
  5
255
330
1F
100
AcDbEntity
  8
LAY-10
  6
CONTINUOUS
 62
     7
100
AcDbLine
 10
1134.1616523517
 20
1351.7500000002
 30
0.0
 11
1116.483982822
 21
1369.427669529201
 31
0.0
  0
LINE
  5
256
330
1F
100
AcDbEntity
  8
LAY-10
  6
CONTINUOUS
 62
     7
100
AcDbLine
 10
1222.5500000001
 20
1404.783008588201
 30
0.0
 11
1240.2276695297
 21
1387.105339059201
 31
0.0
  0
LINE
  5
257
330
1F
100
AcDbEntity
  8
LAY-10
  6
CONTINUOUS
 62
     7
100
AcDbLine
 10
1257.9053390594
 20
1404.783008588201
 30
0.0
 11
1275.5830085891
 21
1387.105339059201
 31
0.0
  0
LINE
  5
258
330
1F
100
AcDbEntity
  8
LAY-10
  6
CONTINUOUS
 62
     7
100
AcDbLine
 10
1240.2276695297
 20
1369.427669529201
 30
0.0
 11
1257.9053390594
 21
1387.105339059201
 31
0.0
  0
LINE
  5
259
330
1F
100
AcDbEntity
  8
LAY-10
  6
CONTINUOUS
 62
     7
100
AcDbLine
 10
1275.583008589
 20
1369.427669528202
 30
0.0
 11
1284.05
 21
1377.894660939346
 31
0.0
  0
LINE
  5
25A
330
1F
100
AcDbEntity
  8
LAY-10
  6
CONTINUOUS
 62
     7
100
AcDbLine
 10
1180.549999999296
 20
1309.7500000002
 30
0.0
 11
1187.194660941504
 21
1316.394660941996
 31
0.0
  0
LINE
  5
25B
330
1F
100
AcDbEntity
  8
LAY-10
  6
CONTINUOUS
 62
     7
100
AcDbLine
 10
1275.5830085877
 20
1334.072330471804
 30
0.0
 11
1284.050000000025
 21
1342.539321884274
 31
0.0
  0
LINE
  5
25C
330
1F
100
AcDbEntity
  8
LAY-10
  6
CONTINUOUS
 62
     7
100
AcDbLine
 10
1257.905339059501
 20
1316.394660943003
 30
0.0
 11
1251.260678117038
 21
1309.750000000202
 31
0.0
  0
LINE
  5
25D
330
1F
100
AcDbEntity
  8
LAY-10
  6
CONTINUOUS
 62
     7
100
AcDbLine
 10
987.5499999996996
 20
2328.072330470899
 30
0.0
 11
969.8723304703999
 21
2345.750000000199
 31
0.0
  0
LINE
  5
25E
330
1F
100
AcDbEntity
  8
LAY-10
  6
CONTINUOUS
 62
     7
100
AcDbLine
 10
987.5499999977974
 20
2381.105339059
 30
0.0
 11
994.1946609391093
 21
2387.7500000002
 31
0.0
  0
LINE
  5
25F
330
1F
100
AcDbEntity
  8
LAY-10
  6
CONTINUOUS
 62
     7
100
AcDbLine
 10
1022.905339057801
 20
2328.072330470102
 30
0.0
 11
1005.227669528798
 21
2345.749999999701
 31
0.0
  0
LINE
  5
260
330
1F
100
AcDbEntity
  8
LAY-10
  6
CONTINUOUS
 62
     7
100
AcDbLine
 10
1022.905339057798
 20
2363.427669529402
 30
0.0
 11
1005.227669528796
 21
2381.105339059101
 31
0.0
  0
LINE
  5
261
330
1F
100
AcDbEntity
  8
LAY-10
  6
CONTINUOUS
 62
     7
100
AcDbLine
 10
987.5499999987989
 20
2345.749999999699
 30
0.0
 11
1005.227669528797
 21
2363.427669529401
 31
0.0
  0
LINE
  5
262
330
1F
100
AcDbEntity
  8
LAY-10
  6
CONTINUOUS
 62
     7
100
AcDbLine
 10
969.8723304707974
 20
2381.105339057999
 30
0.0
 11
987.550000000098
 21
2363.427669528699
 31
0.0
  0
LINE
  5
263
330
1F
100
AcDbEntity
  8
LAY-10
  6
CONTINUOUS
 62
     7
100
AcDbLine
 10
1040.583008589
 20
2363.427669530199
 30
0.0
 11
1027.049999999999
 21
2349.89466094097
 31
0.0
  0
LINE
  5
264
330
1F
100
AcDbEntity
  8
LAY-10
  6
CONTINUOUS
 62
     7
100
AcDbLine
 10
934.5169914119988
 20
2345.749999999198
 30
0.0
 11
952.1946609412998
 21
2328.072330469899
 31
0.0
  0
LINE
  5
265
330
1F
100
AcDbEntity
  8
LAY-10
  6
CONTINUOUS
 62
     7
100
AcDbLine
 10
952.1946609406991
 20
2363.427669529297
 30
0.0
 11
934.5169914113985
 21
2381.105339058596
 31
0.0
  0
LINE
  5
266
330
1F
100
AcDbEntity
  8
LAY-10
  6
CONTINUOUS
 62
     7
100
AcDbLine
 10
969.8723304706988
 20
2363.427669529598
 30
0.0
 11
952.1946609409997
 21
2345.749999999598
 31
0.0
  0
LINE
  5
267
330
1F
100
AcDbEntity
  8
LAY-10
  6
CONTINUOUS
 62
     7
100
AcDbLine
 10
1022.905339059299
 20
2275.039321882199
 30
0.0
 11
1040.583008588999
 21
2292.716991412199
 31
0.0
  0
LINE
  5
268
330
1F
100
AcDbEntity
  8
LAY-10
  6
CONTINUOUS
 62
     7
100
AcDbLine
 10
1040.583008588999
 20
2328.072330471199
 30
0.0
 11
1022.905339059299
 21
2310.394660941199
 31
0.0
  0
LINE
  5
269
330
1F
100
AcDbEntity
  8
LAY-10
  6
CONTINUOUS
 62
     7
100
AcDbLine
 10
1128.971356237499
 20
2363.427669530199
 30
0.0
 11
1111.293686707799
 21
2381.105339060199
 31
0.0
  0
LINE
  5
26A
330
1F
100
AcDbEntity
  8
LAY-10
  6
CONTINUOUS
 62
     7
100
AcDbLine
 10
1135.616017178833
 20
2387.7500000002
 30
0.0
 11
1128.971356238569
 21
2381.105339060199
 31
0.0
  0
LINE
  5
26B
330
1F
100
AcDbEntity
  8
LAY-10
  6
CONTINUOUS
 62
     7
100
AcDbLine
 10
1100.260678119163
 20
2387.7500000002
 30
0.0
 11
1093.616017178899
 21
2381.105339060199
 31
0.0
  0
LINE
  5
26C
330
1F
100
AcDbEntity
  8
LAY-10
  6
CONTINUOUS
 62
     7
100
AcDbLine
 10
1064.905339059487
 20
2387.7500000002
 30
0.0
 11
1058.260678118599
 21
2381.105339059199
 31
0.0
  0
LINE
  5
26D
330
1F
100
AcDbEntity
  8
LAY-10
  6
CONTINUOUS
 62
     7
100
AcDbLine
 10
926.0499999999993
 20
2178.183982824254
 30
0.0
 11
934.5169914107993
 21
2186.650974235198
 31
0.0
  0
LINE
  5
26E
330
1F
100
AcDbEntity
  8
LAY-10
  6
CONTINUOUS
 62
     7
100
AcDbLine
 10
934.5169914107993
 20
2204.328643764198
 30
0.0
 11
952.1946609404995
 21
2186.650974235198
 31
0.0
  0
LINE
  5
26F
330
1F
100
AcDbEntity
  8
LAY-10
  6
CONTINUOUS
 62
     7
100
AcDbLine
 10
952.1946609404995
 20
2204.328643764198
 30
0.0
 11
969.8723304701994
 21
2222.006313294199
 31
0.0
  0
LINE
  5
270
330
1F
100
AcDbEntity
  8
LAY-10
  6
CONTINUOUS
 62
     7
100
AcDbLine
 10
969.8723304702994
 20
2275.039321882199
 30
0.0
 11
987.5499999998993
 21
2257.361652353199
 31
0.0
  0
LINE
  5
271
330
1F
100
AcDbEntity
  8
LAY-10
  6
CONTINUOUS
 62
     7
100
AcDbLine
 10
1005.227669529599
 20
2292.716991412198
 30
0.0
 11
987.5499999998993
 21
2275.039321882199
 31
0.0
  0
LINE
  5
272
330
1F
100
AcDbEntity
  8
LAY-10
  6
CONTINUOUS
 62
     7
100
AcDbLine
 10
969.8723304702994
 20
2292.716991412199
 30
0.0
 11
952.1946609405991
 21
2275.039321882199
 31
0.0
  0
LINE
  5
273
330
1F
100
AcDbEntity
  8
LAY-10
  6
CONTINUOUS
 62
     7
100
AcDbLine
 10
1005.227669529599
 20
2275.039321882199
 30
0.0
 11
1022.905339059299
 21
2257.361652353199
 31
0.0
  0
LINE
  5
274
330
1F
100
AcDbEntity
  8
LAY-10
  6
CONTINUOUS
 62
     7
100
AcDbLine
 10
987.5499999998993
 20
2239.683982823199
 30
0.0
 11
1005.227669529599
 21
2257.361652353199
 31
0.0
  0
LINE
  5
275
330
1F
100
AcDbEntity
  8
LAY-10
  6
CONTINUOUS
 62
     7
100
AcDbLine
 10
969.8723304701994
 20
2239.683982823199
 30
0.0
 11
987.5499999998993
 21
2222.006313294199
 31
0.0
  0
LINE
  5
276
330
1F
100
AcDbEntity
  8
LAY-10
  6
CONTINUOUS
 62
     7
100
AcDbLine
 10
952.1946609404995
 20
2257.361652353198
 30
0.0
 11
934.5169914108993
 21
2275.039321882199
 31
0.0
  0
LINE
  5
277
330
1F
100
AcDbEntity
  8
LAY-10
  6
CONTINUOUS
 62
     7
100
AcDbLine
 10
934.5169914108993
 20
2292.716991412199
 30
0.0
 11
926.0499999999993
 21
2284.250000001155
 31
0.0
  0
LINE
  5
278
330
1F
100
AcDbEntity
  8
LAY-10
  6
CONTINUOUS
 62
     7
100
AcDbLine
 10
934.5169914108993
 20
2257.361652353198
 30
0.0
 11
926.0499999999993
 21
2248.894660942155
 31
0.0
  0
LINE
  5
279
330
1F
100
AcDbEntity
  8
LAY-10
  6
CONTINUOUS
 62
     7
100
AcDbLine
 10
934.5169914108993
 20
2239.683982823199
 30
0.0
 11
952.1946609404995
 21
2222.006313294199
 31
0.0
  0
LINE
  5
27A
330
1F
100
AcDbEntity
  8
LAY-10
  6
CONTINUOUS
 62
     7
100
AcDbLine
 10
969.8723304701994
 20
2257.361652353198
 30
0.0
 11
952.1946609404995
 21
2239.683982823199
 31
0.0
  0
LINE
  5
27B
330
1F
100
AcDbEntity
  8
LAY-10
  6
CONTINUOUS
 62
     7
100
AcDbLine
 10
934.5169914107993
 20
2222.006313294198
 30
0.0
 11
926.0499999999993
 21
2213.539321883254
 31
0.0
  0
LINE
  5
27C
330
1F
100
AcDbEntity
  8
LAY-10
  6
CONTINUOUS
 62
     7
100
AcDbLine
 10
1058.260678118699
 20
2363.427669530199
 30
0.0
 11
1040.583008589
 21
2381.105339060199
 31
0.0
  0
LINE
  5
27D
330
1F
100
AcDbEntity
  8
LAY-10
  6
CONTINUOUS
 62
     7
100
AcDbLine
 10
1040.583008589
 20
2345.7500000002
 30
0.0
 11
1058.260678118699
 21
2328.072330471199
 31
0.0
  0
LINE
  5
27E
330
1F
100
AcDbEntity
  8
LAY-10
  6
CONTINUOUS
 62
     7
100
AcDbLine
 10
1005.227669529699
 20
2310.394660941199
 30
0.0
 11
1022.905339059299
 21
2292.716991412199
 31
0.0
  0
LINE
  5
27F
330
1F
100
AcDbEntity
  8
LAY-10
  6
CONTINUOUS
 62
     7
100
AcDbLine
 10
1005.227669529699
 20
2328.072330471199
 30
0.0
 11
987.5499999999994
 21
2310.394660941199
 31
0.0
  0
LINE
  5
280
330
1F
100
AcDbEntity
  8
LAY-10
  6
CONTINUOUS
 62
     7
100
AcDbLine
 10
1040.583008588999
 20
2310.394660941199
 30
0.0
 11
1058.260678118699
 21
2292.716991412199
 31
0.0
  0
LINE
  5
281
330
1F
100
AcDbEntity
  8
LAY-10
  6
CONTINUOUS
 62
     7
100
AcDbLine
 10
1058.260678118699
 20
2345.7500000002
 30
0.0
 11
1075.938347648299
 21
2363.427669530199
 31
0.0
  0
LINE
  5
282
330
1F
100
AcDbEntity
  8
LAY-10
  6
CONTINUOUS
 62
     7
100
AcDbLine
 10
1058.260678118699
 20
2310.394660941199
 30
0.0
 11
1075.938347648299
 21
2328.072330471199
 31
0.0
  0
LINE
  5
283
330
1F
100
AcDbEntity
  8
LAY-10
  6
CONTINUOUS
 62
     7
100
AcDbLine
 10
1075.938347648299
 20
2345.7500000002
 30
0.0
 11
1093.616017178
 21
2328.072330471199
 31
0.0
  0
LINE
  5
284
330
1F
100
AcDbEntity
  8
LAY-10
  6
CONTINUOUS
 62
     7
100
AcDbLine
 10
987.5499999998993
 20
2292.716991412198
 30
0.0
 11
969.8723304702994
 21
2310.3946609412
 31
0.0
  0
LINE
  5
285
330
1F
100
AcDbEntity
  8
LAY-10
  6
CONTINUOUS
 62
     7
100
AcDbLine
 10
952.1946609405991
 20
2292.716991412199
 30
0.0
 11
934.5169914108993
 21
2310.3946609412
 31
0.0
  0
LINE
  5
286
330
1F
100
AcDbEntity
  8
LAY-10
  6
CONTINUOUS
 62
     7
100
AcDbLine
 10
969.8723304702994
 20
2328.072330471199
 30
0.0
 11
952.1946609405991
 21
2310.3946609412
 31
0.0
  0
LINE
  5
287
330
1F
100
AcDbEntity
  8
LAY-10
  6
CONTINUOUS
 62
     7
100
AcDbLine
 10
934.5169914109994
 20
2328.072330472198
 30
0.0
 11
926.0499999999993
 21
2319.605339061054
 31
0.0
  0
LINE
  5
288
330
1F
100
AcDbEntity
  8
LAY-10
  6
CONTINUOUS
 62
     7
100
AcDbLine
 10
1029.550000000703
 20
2387.7500000002
 30
0.0
 11
1022.905339058495
 21
2381.105339058403
 31
0.0
  0
LINE
  5
289
330
1F
100
AcDbEntity
  8
LAY-10
  6
CONTINUOUS
 62
     7
100
AcDbLine
 10
934.5169914122994
 20
2363.427669528596
 30
0.0
 11
926.0499999999743
 21
2354.960678116126
 31
0.0
  0
LINE
  5
28A
330
1F
100
AcDbEntity
  8
LAY-10
  6
CONTINUOUS
 62
     7
100
AcDbLine
 10
952.1946609404986
 20
2381.105339057397
 30
0.0
 11
958.8393218829615
 21
2387.750000000197
 31
0.0
  0
LINE
  5
28B
330
1F
100
AcDbEntity
  8
LAY-10
  6
CONTINUOUS
 62
     7
100
AcDbLine
 10
1093.122687976155
 20
2363.920998732152
 30
0.0
 11
1075.9383476484
 21
2381.105339060199
 31
0.0
  0
LINE
  5
28C
330
1F
100
AcDbEntity
  8
LAY-10
  6
CONTINUOUS
 62
     7
100
AcDbLine
 10
1093.616017178
 20
2345.7500000002
 30
0.0
 11
1096.674029521973
 21
2348.808012344242
 31
0.0
  0
LINE
  5
28D
330
1F
100
AcDbEntity
  8
LAY-10
  6
CONTINUOUS
 62
     7
100
AcDbLine
 10
1660.05
 20
1293.750000000204
 30
0.0
 11
1660.050000000001
 21
2403.750000000203
 31
0.0
  0
LINE
  5
28E
330
1F
100
AcDbEntity
  8
LAY-10
  6
CONTINUOUS
 62
     7
100
AcDbLine
 10
1645.05
 20
2388.750000000204
 30
0.0
 11
1645.05
 21
1308.750000000203
 31
0.0
  0
LINE
  5
28F
330
1F
100
AcDbEntity
  8
LAY-10
  6
CONTINUOUS
 62
     7
100
AcDbLine
 10
926.0500000000009
 20
2387.750000000202
 30
0.0
 11
926.05
 21
1309.750000000203
 31
0.0
  0
LINE
  5
290
330
1F
100
AcDbEntity
  8
LAY-10
  6
CONTINUOUS
 62
     7
100
AcDbLine
 10
1284.050000000002
 20
1309.750000000203
 30
0.0
 11
1284.05
 21
2387.750000000202
 31
0.0
  0
LINE
  5
291
330
1F
100
AcDbEntity
  8
LAY-10
  6
CONTINUOUS
 62
     7
100
AcDbLine
 10
1116.658346467561
 20
1333.897966824537
 30
0.0
 11
1134.1616523516
 21
1316.394660940201
 31
0.0
  0
LINE
  5
292
330
1F
100
AcDbEntity
  8
LAY-10
  6
CONTINUOUS
 62
     7
100
AcDbLine
 10
1116.483982822
 20
1351.7500000002
 30
0.0
 11
1113.955022001888
 21
1349.221039180031
 31
0.0
  0
LINE
  5
293
330
1F
100
AcDbEntity
  8
LAY-10
  6
CONTINUOUS
 62
     7
100
AcDbLine
 10
1115.55
 20
1338.750000000199
 30
0.0
 11
1117.156300012804
 21
1338.750000000199
 31
0.0
  0
LINE
  5
294
330
1F
100
AcDbEntity
  8
LAY-10
  6
CONTINUOUS
 62
     7
100
AcDbLine
 10
1115.55
 20
1330.750000000201
 30
0.0
 11
1117.156300012804
 21
1330.750000000201
 31
0.0
  0
LINE
  5
295
330
1F
100
AcDbEntity
  8
LAY-10
  6
CONTINUOUS
 62
     7
100
AcDbLine
 10
1115.55
 20
1330.750000000201
 30
0.0
 11
1115.55
 21
1338.750000000199
 31
0.0
  0
ARC
  5
296
330
1F
100
AcDbEntity
  8
LAY-10
  6
CONTINUOUS
 62
     7
100
AcDbCircle
 10
1105.05
 20
1334.7500000002
 30
0.0
 40
12.75000000000001
100
AcDbArc
 50
18.28388994040334
 51
341.7161100595966
  0
LINE
  5
297
330
1F
100
AcDbEntity
  8
LAY-10
  6
CONTINUOUS
 62
     7
100
AcDbLine
 10
1105.05
 20
1341.2500000002
 30
0.0
 11
1109.05
 21
1334.7500000002
 31
0.0
  0
LINE
  5
298
330
1F
100
AcDbEntity
  8
LAY-10
  6
CONTINUOUS
 62
     7
100
AcDbLine
 10
1109.05
 20
1334.7500000002
 30
0.0
 11
1105.05
 21
1328.2500000002
 31
0.0
  0
LINE
  5
299
330
1F
100
AcDbEntity
  8
LAY-10
  6
CONTINUOUS
 62
     7
100
AcDbLine
 10
1105.05
 20
1328.2500000002
 30
0.0
 11
1101.05
 21
1334.7500000002
 31
0.0
  0
LINE
  5
29A
330
1F
100
AcDbEntity
  8
LAY-10
  6
CONTINUOUS
 62
     7
100
AcDbLine
 10
1101.05
 20
1334.7500000002
 30
0.0
 11
1105.05
 21
1341.2500000002
 31
0.0
  0
CIRCLE
  5
29B
330
1F
100
AcDbEntity
  8
LAY-10
  6
CONTINUOUS
 62
     7
100
AcDbCircle
 10
1105.05
 20
1334.7500000002
 30
0.0
 40
13.00000000000001
  0
LINE
  5
29C
330
1F
100
AcDbEntity
  8
LAY-10
  6
CONTINUOUS
 62
     7
100
AcDbLine
 10
1115.55
 20
2358.750000000206
 30
0.0
 11
1117.156300012804
 21
2358.750000000206
 31
0.0
  0
LINE
  5
29D
330
1F
100
AcDbEntity
  8
LAY-10
  6
CONTINUOUS
 62
     7
100
AcDbLine
 10
1115.55
 20
2366.750000000205
 30
0.0
 11
1117.156300012804
 21
2366.750000000205
 31
0.0
  0
LINE
  5
29E
330
1F
100
AcDbEntity
  8
LAY-10
  6
CONTINUOUS
 62
     7
100
AcDbLine
 10
1115.55
 20
2366.750000000205
 30
0.0
 11
1115.55
 21
2358.750000000206
 31
0.0
  0
ARC
  5
29F
330
1F
100
AcDbEntity
  8
LAY-10
  6
CONTINUOUS
 62
     7
100
AcDbCircle
 10
1105.05
 20
2362.750000000206
 30
0.0
 40
12.75000000000001
100
AcDbArc
 50
18.2838899404031
 51
341.7161100595971
  0
LINE
  5
2A0
330
1F
100
AcDbEntity
  8
LAY-10
  6
CONTINUOUS
 62
     7
100
AcDbLine
 10
1105.05
 20
2356.250000000206
 30
0.0
 11
1109.05
 21
2362.750000000206
 31
0.0
  0
LINE
  5
2A1
330
1F
100
AcDbEntity
  8
LAY-10
  6
CONTINUOUS
 62
     7
100
AcDbLine
 10
1109.05
 20
2362.750000000206
 30
0.0
 11
1105.05
 21
2369.250000000206
 31
0.0
  0
LINE
  5
2A2
330
1F
100
AcDbEntity
  8
LAY-10
  6
CONTINUOUS
 62
     7
100
AcDbLine
 10
1105.05
 20
2369.250000000206
 30
0.0
 11
1101.05
 21
2362.750000000206
 31
0.0
  0
LINE
  5
2A3
330
1F
100
AcDbEntity
  8
LAY-10
  6
CONTINUOUS
 62
     7
100
AcDbLine
 10
1101.05
 20
2362.750000000206
 30
0.0
 11
1105.05
 21
2356.250000000206
 31
0.0
  0
CIRCLE
  5
2A4
330
1F
100
AcDbEntity
  8
LAY-10
  6
CONTINUOUS
 62
     7
100
AcDbCircle
 10
1105.05
 20
2362.7500000002
 30
0.0
 40
13.00000000000001
  0
LINE
  5
2A5
330
1F
100
AcDbEntity
  8
LAY-10
  6
CONTINUOUS
 62
     7
100
AcDbLine
 10
859.5499999999943
 20
2432.648484810034
 30
0.0
 11
850.5499999999952
 21
2432.648484810034
 31
0.0
  0
LINE
  5
2A6
330
1F
100
AcDbEntity
  8
LAY-10
  6
CONTINUOUS
 62
     7
100
AcDbLine
 10
850.5499999999952
 20
2403.750000000197
 30
0.0
 11
850.5499999999952
 21
2432.648484810034
 31
0.0
  0
LINE
  5
2A7
330
1F
100
AcDbEntity
  8
LAY-10
  6
CONTINUOUS
 62
     7
100
AcDbLine
 10
859.5499999999943
 20
2403.750000000197
 30
0.0
 11
859.5499999999943
 21
2432.648484810034
 31
0.0
  0
LINE
  5
2A8
330
1F
100
AcDbEntity
  8
LAY-10
  6
CONTINUOUS
 62
     7
100
AcDbLine
 10
1350.549999999996
 20
2432.648484810034
 30
0.0
 11
1359.549999999995
 21
2432.648484810034
 31
0.0
  0
LINE
  5
2A9
330
1F
100
AcDbEntity
  8
LAY-10
  6
CONTINUOUS
 62
     7
100
AcDbLine
 10
1359.549999999995
 20
2403.750000000196
 30
0.0
 11
1359.549999999995
 21
2432.648484810034
 31
0.0
  0
LINE
  5
2AA
330
1F
100
AcDbEntity
  8
LAY-10
  6
CONTINUOUS
 62
     7
100
AcDbLine
 10
1350.549999999996
 20
2403.750000000196
 30
0.0
 11
1350.549999999996
 21
2432.648484810034
 31
0.0
  0
LINE
  5
2AB
330
1F
100
AcDbEntity
  8
LAY-10
  6
CONTINUOUS
 62
     7
100
AcDbLine
 10
521.1515151901654
 20
1603.250000000195
 30
0.0
 11
521.1515151901654
 21
1594.250000000196
 31
0.0
  0
LINE
  5
2AC
330
1F
100
AcDbEntity
  8
LAY-10
  6
CONTINUOUS
 62
     7
100
AcDbLine
 10
550.0500000000029
 20
1594.250000000196
 30
0.0
 11
521.1515151901654
 21
1594.250000000196
 31
0.0
  0
LINE
  5
2AD
330
1F
100
AcDbEntity
  8
LAY-10
  6
CONTINUOUS
 62
     7
100
AcDbLine
 10
550.0500000000029
 20
1603.250000000195
 30
0.0
 11
521.1515151901654
 21
1603.250000000195
 31
0.0
  0
LINE
  5
2AE
330
1F
100
AcDbEntity
  8
LAY-10
  6
CONTINUOUS
 62
     7
100
AcDbLine
 10
521.1515151901658
 20
2094.250000000196
 30
0.0
 11
521.1515151901658
 21
2103.250000000195
 31
0.0
  0
LINE
  5
2AF
330
1F
100
AcDbEntity
  8
LAY-10
  6
CONTINUOUS
 62
     7
100
AcDbLine
 10
550.0500000000034
 20
2103.250000000195
 30
0.0
 11
521.1515151901658
 21
2103.250000000195
 31
0.0
  0
LINE
  5
2B0
330
1F
100
AcDbEntity
  8
LAY-10
  6
CONTINUOUS
 62
     7
100
AcDbLine
 10
550.0500000000034
 20
2094.250000000196
 30
0.0
 11
521.1515151901658
 21
2094.250000000196
 31
0.0
  0
LINE
  5
2B1
330
1F
100
AcDbEntity
  8
LAY-10
  6
CONTINUOUS
 62
     7
100
AcDbLine
 10
1688.948484809834
 20
2094.250000000206
 30
0.0
 11
1688.948484809834
 21
2103.250000000205
 31
0.0
  0
LINE
  5
2B2
330
1F
100
AcDbEntity
  8
LAY-10
  6
CONTINUOUS
 62
     7
100
AcDbLine
 10
1660.049999999997
 20
2103.250000000205
 30
0.0
 11
1688.948484809834
 21
2103.250000000205
 31
0.0
  0
LINE
  5
2B3
330
1F
100
AcDbEntity
  8
LAY-10
  6
CONTINUOUS
 62
     7
100
AcDbLine
 10
1660.049999999997
 20
2094.250000000206
 30
0.0
 11
1688.948484809834
 21
2094.250000000206
 31
0.0
  0
LINE
  5
2B4
330
1F
100
AcDbEntity
  8
LAY-10
  6
CONTINUOUS
 62
     7
100
AcDbLine
 10
1688.948484809834
 20
1603.250000000204
 30
0.0
 11
1688.948484809834
 21
1594.250000000205
 31
0.0
  0
LINE
  5
2B5
330
1F
100
AcDbEntity
  8
LAY-10
  6
CONTINUOUS
 62
     7
100
AcDbLine
 10
1660.049999999996
 20
1594.250000000205
 30
0.0
 11
1688.948484809834
 21
1594.250000000205
 31
0.0
  0
LINE
  5
2B6
330
1F
100
AcDbEntity
  8
LAY-10
  6
CONTINUOUS
 62
     7
100
AcDbLine
 10
1660.049999999996
 20
1603.250000000204
 30
0.0
 11
1688.948484809834
 21
1603.250000000204
 31
0.0
  0
LINE
  5
2B7
330
1F
100
AcDbEntity
  8
LAY-10
  6
CONTINUOUS
 62
     7
100
AcDbLine
 10
1350.550000000005
 20
1264.851515190366
 30
0.0
 11
1359.550000000004
 21
1264.851515190366
 31
0.0
  0
LINE
  5
2B8
330
1F
100
AcDbEntity
  8
LAY-10
  6
CONTINUOUS
 62
     7
100
AcDbLine
 10
1359.550000000004
 20
1293.750000000203
 30
0.0
 11
1359.550000000004
 21
1264.851515190366
 31
0.0
  0
LINE
  5
2B9
330
1F
100
AcDbEntity
  8
LAY-10
  6
CONTINUOUS
 62
     7
100
AcDbLine
 10
1350.550000000005
 20
1293.750000000203
 30
0.0
 11
1350.550000000005
 21
1264.851515190366
 31
0.0
  0
LINE
  5
2BA
330
1F
100
AcDbEntity
  8
LAY-10
  6
CONTINUOUS
 62
     7
100
AcDbLine
 10
859.5500000000038
 20
1264.851515190366
 30
0.0
 11
850.5500000000047
 21
1264.851515190366
 31
0.0
  0
LINE
  5
2BB
330
1F
100
AcDbEntity
  8
LAY-10
  6
CONTINUOUS
 62
     7
100
AcDbLine
 10
850.5500000000047
 20
1293.750000000204
 30
0.0
 11
850.5500000000047
 21
1264.851515190366
 31
0.0
  0
LINE
  5
2BC
330
1F
100
AcDbEntity
  8
LAY-10
  6
CONTINUOUS
 62
     7
100
AcDbLine
 10
859.5500000000038
 20
1293.750000000204
 30
0.0
 11
859.5500000000038
 21
1264.851515190366
 31
0.0
  0
LINE
  5
2BD
330
1F
100
AcDbEntity
  8
LAY-10
  6
CONTINUOUS
 62
     7
100
AcDbLine
 10
566.0500000000409
 20
2387.750000000202
 30
0.0
 11
566.05000000004
 21
1309.750000000203
 31
0.0
  0
LINE
  5
2BE
330
1F
100
AcDbEntity
  8
LAY-10
  6
CONTINUOUS
 62
     7
100
AcDbLine
 10
924.0500000000409
 20
2387.750000000202
 30
0.0
 11
566.0500000000409
 21
2387.750000000202
 31
0.0
  0
LINE
  5
2BF
330
1F
100
AcDbEntity
  8
LAY-10
  6
CONTINUOUS
 62
     7
100
AcDbLine
 10
566.05000000004
 20
1309.750000000203
 30
0.0
 11
924.0500000000427
 21
1309.750000000203
 31
0.0
  0
LINE
  5
2C0
330
1F
100
AcDbEntity
  8
LAY-10
  6
CONTINUOUS
 62
     7
100
AcDbLine
 10
862.5500000003399
 20
1369.427669529501
 30
0.0
 11
880.2276695296396
 21
1351.7500000002
 31
0.0
  0
LINE
  5
2C1
330
1F
100
AcDbEntity
  8
LAY-10
  6
CONTINUOUS
 62
     7
100
AcDbLine
 10
862.5500000022421
 20
1316.3946609414
 30
0.0
 11
855.9053390609301
 21
1309.7500000002
 31
0.0
  0
LINE
  5
2C2
330
1F
100
AcDbEntity
  8
LAY-10
  6
CONTINUOUS
 62
     7
100
AcDbLine
 10
827.1946609422389
 20
1369.427669530297
 30
0.0
 11
844.8723304712412
 21
1351.750000000699
 31
0.0
  0
LINE
  5
2C3
330
1F
100
AcDbEntity
  8
LAY-10
  6
CONTINUOUS
 62
     7
100
AcDbLine
 10
827.1946609422417
 20
1334.072330470997
 30
0.0
 11
844.8723304712439
 21
1316.394660941299
 31
0.0
  0
LINE
  5
2C4
330
1F
100
AcDbEntity
  8
LAY-10
  6
CONTINUOUS
 62
     7
100
AcDbLine
 10
862.5500000012408
 20
1351.7500000007
 30
0.0
 11
844.8723304712425
 21
1334.072330470999
 31
0.0
  0
LINE
  5
2C5
330
1F
100
AcDbEntity
  8
LAY-10
  6
CONTINUOUS
 62
     7
100
AcDbLine
 10
880.2276695292421
 20
1316.394660942401
 30
0.0
 11
862.5499999999415
 21
1334.072330471701
 31
0.0
  0
LINE
  5
2C6
330
1F
100
AcDbEntity
  8
LAY-10
  6
CONTINUOUS
 62
     7
100
AcDbLine
 10
809.5169914110403
 20
1334.072330470201
 30
0.0
 11
823.0500000000399
 21
1347.60533905943
 31
0.0
  0
LINE
  5
2C7
330
1F
100
AcDbEntity
  8
LAY-10
  6
CONTINUOUS
 62
     7
100
AcDbLine
 10
915.5830085880407
 20
1351.750000001202
 30
0.0
 11
897.9053390587396
 21
1369.427669530501
 31
0.0
  0
LINE
  5
2C8
330
1F
100
AcDbEntity
  8
LAY-10
  6
CONTINUOUS
 62
     7
100
AcDbLine
 10
897.9053390593403
 20
1334.072330471103
 30
0.0
 11
915.583008588641
 21
1316.394660941804
 31
0.0
  0
LINE
  5
2C9
330
1F
100
AcDbEntity
  8
LAY-10
  6
CONTINUOUS
 62
     7
100
AcDbLine
 10
880.2276695293409
 20
1334.072330470802
 30
0.0
 11
897.9053390590398
 21
1351.750000000802
 31
0.0
  0
LINE
  5
2CA
330
1F
100
AcDbEntity
  8
LAY-10
  6
CONTINUOUS
 62
     7
100
AcDbLine
 10
827.1946609407405
 20
1422.460678118201
 30
0.0
 11
809.5169914110403
 21
1404.783008588201
 31
0.0
  0
LINE
  5
2CB
330
1F
100
AcDbEntity
  8
LAY-10
  6
CONTINUOUS
 62
     7
100
AcDbLine
 10
809.5169914110403
 20
1369.427669529201
 30
0.0
 11
827.1946609407405
 21
1387.105339059201
 31
0.0
  0
LINE
  5
2CC
330
1F
100
AcDbEntity
  8
LAY-10
  6
CONTINUOUS
 62
     7
100
AcDbLine
 10
721.1286437625404
 20
1334.072330470201
 30
0.0
 11
738.8063132922402
 21
1316.394660940201
 31
0.0
  0
LINE
  5
2CD
330
1F
100
AcDbEntity
  8
LAY-10
  6
CONTINUOUS
 62
     7
100
AcDbLine
 10
714.4839828212066
 20
1309.7500000002
 30
0.0
 11
721.1286437614704
 21
1316.394660940201
 31
0.0
  0
LINE
  5
2CE
330
1F
100
AcDbEntity
  8
LAY-10
  6
CONTINUOUS
 62
     7
100
AcDbLine
 10
749.8393218808765
 20
1309.7500000002
 30
0.0
 11
756.4839828211402
 21
1316.394660940201
 31
0.0
  0
LINE
  5
2CF
330
1F
100
AcDbEntity
  8
LAY-10
  6
CONTINUOUS
 62
     7
100
AcDbLine
 10
785.1946609405531
 20
1309.7500000002
 30
0.0
 11
791.8393218814404
 21
1316.394660941201
 31
0.0
  0
LINE
  5
2D0
330
1F
100
AcDbEntity
  8
LAY-10
  6
CONTINUOUS
 62
     7
100
AcDbLine
 10
924.0500000000402
 20
1519.316017176146
 30
0.0
 11
915.5830085892404
 21
1510.849025765202
 31
0.0
  0
LINE
  5
2D1
330
1F
100
AcDbEntity
  8
LAY-10
  6
CONTINUOUS
 62
     7
100
AcDbLine
 10
915.5830085892404
 20
1493.171356236202
 30
0.0
 11
897.90533905954
 21
1510.849025765202
 31
0.0
  0
LINE
  5
2D2
330
1F
100
AcDbEntity
  8
LAY-10
  6
CONTINUOUS
 62
     7
100
AcDbLine
 10
897.90533905954
 20
1493.171356236202
 30
0.0
 11
880.2276695298401
 21
1475.493686706202
 31
0.0
  0
LINE
  5
2D3
330
1F
100
AcDbEntity
  8
LAY-10
  6
CONTINUOUS
 62
     7
100
AcDbLine
 10
880.2276695297401
 20
1422.460678118201
 30
0.0
 11
862.5500000001404
 21
1440.138347647201
 31
0.0
  0
LINE
  5
2D4
330
1F
100
AcDbEntity
  8
LAY-10
  6
CONTINUOUS
 62
     7
100
AcDbLine
 10
844.8723304704404
 20
1404.783008588201
 30
0.0
 11
862.5500000001404
 21
1422.460678118201
 31
0.0
  0
LINE
  5
2D5
330
1F
100
AcDbEntity
  8
LAY-10
  6
CONTINUOUS
 62
     7
100
AcDbLine
 10
880.2276695297401
 20
1404.783008588201
 30
0.0
 11
897.9053390594404
 21
1422.460678118201
 31
0.0
  0
LINE
  5
2D6
330
1F
100
AcDbEntity
  8
LAY-10
  6
CONTINUOUS
 62
     7
100
AcDbLine
 10
844.8723304704404
 20
1422.460678118201
 30
0.0
 11
827.1946609407405
 21
1440.138347647201
 31
0.0
  0
LINE
  5
2D7
330
1F
100
AcDbEntity
  8
LAY-10
  6
CONTINUOUS
 62
     7
100
AcDbLine
 10
862.5500000001404
 20
1457.816017177202
 30
0.0
 11
844.8723304704404
 21
1440.138347647201
 31
0.0
  0
LINE
  5
2D8
330
1F
100
AcDbEntity
  8
LAY-10
  6
CONTINUOUS
 62
     7
100
AcDbLine
 10
880.2276695298401
 20
1457.816017177202
 30
0.0
 11
862.5500000001404
 21
1475.493686706202
 31
0.0
  0
LINE
  5
2D9
330
1F
100
AcDbEntity
  8
LAY-10
  6
CONTINUOUS
 62
     7
100
AcDbLine
 10
897.90533905954
 20
1440.138347647202
 30
0.0
 11
915.5830085891404
 21
1422.460678118201
 31
0.0
  0
LINE
  5
2DA
330
1F
100
AcDbEntity
  8
LAY-10
  6
CONTINUOUS
 62
     7
100
AcDbLine
 10
915.5830085891404
 20
1404.783008588201
 30
0.0
 11
924.0500000000402
 21
1413.249999999245
 31
0.0
  0
LINE
  5
2DB
330
1F
100
AcDbEntity
  8
LAY-10
  6
CONTINUOUS
 62
     7
100
AcDbLine
 10
915.5830085891404
 20
1440.138347647202
 30
0.0
 11
924.0500000000402
 21
1448.605339058245
 31
0.0
  0
LINE
  5
2DC
330
1F
100
AcDbEntity
  8
LAY-10
  6
CONTINUOUS
 62
     7
100
AcDbLine
 10
915.5830085891404
 20
1457.816017177202
 30
0.0
 11
897.90533905954
 21
1475.493686706202
 31
0.0
  0
LINE
  5
2DD
330
1F
100
AcDbEntity
  8
LAY-10
  6
CONTINUOUS
 62
     7
100
AcDbLine
 10
880.2276695298401
 20
1440.138347647202
 30
0.0
 11
897.90533905954
 21
1457.816017177202
 31
0.0
  0
LINE
  5
2DE
330
1F
100
AcDbEntity
  8
LAY-10
  6
CONTINUOUS
 62
     7
100
AcDbLine
 10
915.5830085892404
 20
1475.493686706202
 30
0.0
 11
924.0500000000402
 21
1483.960678117146
 31
0.0
  0
LINE
  5
2DF
330
1F
100
AcDbEntity
  8
LAY-10
  6
CONTINUOUS
 62
     7
100
AcDbLine
 10
791.8393218813403
 20
1334.072330470201
 30
0.0
 11
809.5169914110403
 21
1316.394660940201
 31
0.0
  0
LINE
  5
2E0
330
1F
100
AcDbEntity
  8
LAY-10
  6
CONTINUOUS
 62
     7
100
AcDbLine
 10
809.5169914110403
 20
1351.7500000002
 30
0.0
 11
791.8393218813403
 21
1369.427669529201
 31
0.0
  0
LINE
  5
2E1
330
1F
100
AcDbEntity
  8
LAY-10
  6
CONTINUOUS
 62
     7
100
AcDbLine
 10
844.8723304703403
 20
1387.105339059201
 30
0.0
 11
827.1946609407405
 21
1404.783008588201
 31
0.0
  0
LINE
  5
2E2
330
1F
100
AcDbEntity
  8
LAY-10
  6
CONTINUOUS
 62
     7
100
AcDbLine
 10
844.8723304703403
 20
1369.427669529201
 30
0.0
 11
862.5500000000403
 21
1387.105339059201
 31
0.0
  0
LINE
  5
2E3
330
1F
100
AcDbEntity
  8
LAY-10
  6
CONTINUOUS
 62
     7
100
AcDbLine
 10
809.5169914110403
 20
1387.105339059201
 30
0.0
 11
791.8393218813403
 21
1404.783008588201
 31
0.0
  0
LINE
  5
2E4
330
1F
100
AcDbEntity
  8
LAY-10
  6
CONTINUOUS
 62
     7
100
AcDbLine
 10
791.8393218813403
 20
1351.7500000002
 30
0.0
 11
774.1616523517405
 21
1334.072330470201
 31
0.0
  0
LINE
  5
2E5
330
1F
100
AcDbEntity
  8
LAY-10
  6
CONTINUOUS
 62
     7
100
AcDbLine
 10
791.8393218813403
 20
1387.105339059201
 30
0.0
 11
774.1616523517405
 21
1369.427669529201
 31
0.0
  0
LINE
  5
2E6
330
1F
100
AcDbEntity
  8
LAY-10
  6
CONTINUOUS
 62
     7
100
AcDbLine
 10
774.1616523517405
 20
1351.7500000002
 30
0.0
 11
756.48398282204
 21
1369.427669529201
 31
0.0
  0
LINE
  5
2E7
330
1F
100
AcDbEntity
  8
LAY-10
  6
CONTINUOUS
 62
     7
100
AcDbLine
 10
862.5500000001404
 20
1404.783008588201
 30
0.0
 11
880.2276695297401
 21
1387.105339059201
 31
0.0
  0
LINE
  5
2E8
330
1F
100
AcDbEntity
  8
LAY-10
  6
CONTINUOUS
 62
     7
100
AcDbLine
 10
897.9053390594404
 20
1404.783008588201
 30
0.0
 11
915.5830085891404
 21
1387.105339059201
 31
0.0
  0
LINE
  5
2E9
330
1F
100
AcDbEntity
  8
LAY-10
  6
CONTINUOUS
 62
     7
100
AcDbLine
 10
880.2276695297401
 20
1369.427669529201
 30
0.0
 11
897.9053390594404
 21
1387.105339059201
 31
0.0
  0
LINE
  5
2EA
330
1F
100
AcDbEntity
  8
LAY-10
  6
CONTINUOUS
 62
     7
100
AcDbLine
 10
915.5830085890403
 20
1369.427669528202
 30
0.0
 11
924.0500000000402
 21
1377.894660939346
 31
0.0
  0
LINE
  5
2EB
330
1F
100
AcDbEntity
  8
LAY-10
  6
CONTINUOUS
 62
     7
100
AcDbLine
 10
820.5499999993358
 20
1309.7500000002
 30
0.0
 11
827.194660941544
 21
1316.394660941996
 31
0.0
  0
LINE
  5
2EC
330
1F
100
AcDbEntity
  8
LAY-10
  6
CONTINUOUS
 62
     7
100
AcDbLine
 10
915.5830085877401
 20
1334.072330471804
 30
0.0
 11
924.0500000000652
 21
1342.539321884274
 31
0.0
  0
LINE
  5
2ED
330
1F
100
AcDbEntity
  8
LAY-10
  6
CONTINUOUS
 62
     7
100
AcDbLine
 10
897.9053390595409
 20
1316.394660943003
 30
0.0
 11
891.260678117078
 21
1309.750000000202
 31
0.0
  0
LINE
  5
2EE
330
1F
100
AcDbEntity
  8
LAY-10
  6
CONTINUOUS
 62
     7
100
AcDbLine
 10
627.5499999997397
 20
2328.072330470899
 30
0.0
 11
609.87233047044
 21
2345.750000000199
 31
0.0
  0
LINE
  5
2EF
330
1F
100
AcDbEntity
  8
LAY-10
  6
CONTINUOUS
 62
     7
100
AcDbLine
 10
627.5499999978375
 20
2381.105339059
 30
0.0
 11
634.1946609391495
 21
2387.7500000002
 31
0.0
  0
LINE
  5
2F0
330
1F
100
AcDbEntity
  8
LAY-10
  6
CONTINUOUS
 62
     7
100
AcDbLine
 10
662.9053390578406
 20
2328.072330470102
 30
0.0
 11
645.2276695288384
 21
2345.749999999701
 31
0.0
  0
LINE
  5
2F1
330
1F
100
AcDbEntity
  8
LAY-10
  6
CONTINUOUS
 62
     7
100
AcDbLine
 10
662.9053390578379
 20
2363.427669529402
 30
0.0
 11
645.2276695288357
 21
2381.105339059101
 31
0.0
  0
LINE
  5
2F2
330
1F
100
AcDbEntity
  8
LAY-10
  6
CONTINUOUS
 62
     7
100
AcDbLine
 10
627.5499999988389
 20
2345.749999999699
 30
0.0
 11
645.227669528837
 21
2363.427669529401
 31
0.0
  0
LINE
  5
2F3
330
1F
100
AcDbEntity
  8
LAY-10
  6
CONTINUOUS
 62
     7
100
AcDbLine
 10
609.8723304708375
 20
2381.105339057999
 30
0.0
 11
627.5500000001381
 21
2363.427669528699
 31
0.0
  0
LINE
  5
2F4
330
1F
100
AcDbEntity
  8
LAY-10
  6
CONTINUOUS
 62
     7
100
AcDbLine
 10
680.5830085890393
 20
2363.427669530199
 30
0.0
 11
667.0500000000397
 21
2349.89466094097
 31
0.0
  0
LINE
  5
2F5
330
1F
100
AcDbEntity
  8
LAY-10
  6
CONTINUOUS
 62
     7
100
AcDbLine
 10
574.5169914120389
 20
2345.749999999198
 30
0.0
 11
592.19466094134
 21
2328.072330469899
 31
0.0
  0
LINE
  5
2F6
330
1F
100
AcDbEntity
  8
LAY-10
  6
CONTINUOUS
 62
     7
100
AcDbLine
 10
592.1946609407393
 20
2363.427669529297
 30
0.0
 11
574.5169914114387
 21
2381.105339058596
 31
0.0
  0
LINE
  5
2F7
330
1F
100
AcDbEntity
  8
LAY-10
  6
CONTINUOUS
 62
     7
100
AcDbLine
 10
609.8723304707388
 20
2363.427669529598
 30
0.0
 11
592.1946609410398
 21
2345.749999999598
 31
0.0
  0
LINE
  5
2F8
330
1F
100
AcDbEntity
  8
LAY-10
  6
CONTINUOUS
 62
     7
100
AcDbLine
 10
662.905339059339
 20
2275.039321882199
 30
0.0
 11
680.5830085890393
 21
2292.716991412199
 31
0.0
  0
LINE
  5
2F9
330
1F
100
AcDbEntity
  8
LAY-10
  6
CONTINUOUS
 62
     7
100
AcDbLine
 10
680.5830085890393
 20
2328.072330471199
 30
0.0
 11
662.905339059339
 21
2310.394660941199
 31
0.0
  0
LINE
  5
2FA
330
1F
100
AcDbEntity
  8
LAY-10
  6
CONTINUOUS
 62
     7
100
AcDbLine
 10
768.9713562375391
 20
2363.427669530199
 30
0.0
 11
751.2936867078392
 21
2381.105339060199
 31
0.0
  0
LINE
  5
2FB
330
1F
100
AcDbEntity
  8
LAY-10
  6
CONTINUOUS
 62
     7
100
AcDbLine
 10
775.616017178873
 20
2387.7500000002
 30
0.0
 11
768.9713562386091
 21
2381.105339060199
 31
0.0
  0
LINE
  5
2FC
330
1F
100
AcDbEntity
  8
LAY-10
  6
CONTINUOUS
 62
     7
100
AcDbLine
 10
740.2606781192029
 20
2387.7500000002
 30
0.0
 11
733.6160171789393
 21
2381.105339060199
 31
0.0
  0
LINE
  5
2FD
330
1F
100
AcDbEntity
  8
LAY-10
  6
CONTINUOUS
 62
     7
100
AcDbLine
 10
704.9053390595262
 20
2387.7500000002
 30
0.0
 11
698.2606781186391
 21
2381.105339059199
 31
0.0
  0
LINE
  5
2FE
330
1F
100
AcDbEntity
  8
LAY-10
  6
CONTINUOUS
 62
     7
100
AcDbLine
 10
566.0500000000394
 20
2178.183982824254
 30
0.0
 11
574.5169914108393
 21
2186.650974235198
 31
0.0
  0
LINE
  5
2FF
330
1F
100
AcDbEntity
  8
LAY-10
  6
CONTINUOUS
 62
     7
100
AcDbLine
 10
574.5169914108393
 20
2204.328643764198
 30
0.0
 11
592.1946609405396
 21
2186.650974235198
 31
0.0
  0
LINE
  5
300
330
1F
100
AcDbEntity
  8
LAY-10
  6
CONTINUOUS
 62
     7
100
AcDbLine
 10
592.1946609405396
 20
2204.328643764198
 30
0.0
 11
609.8723304702395
 21
2222.006313294199
 31
0.0
  0
LINE
  5
301
330
1F
100
AcDbEntity
  8
LAY-10
  6
CONTINUOUS
 62
     7
100
AcDbLine
 10
609.8723304703395
 20
2275.039321882199
 30
0.0
 11
627.5499999999394
 21
2257.361652353199
 31
0.0
  0
LINE
  5
302
330
1F
100
AcDbEntity
  8
LAY-10
  6
CONTINUOUS
 62
     7
100
AcDbLine
 10
645.2276695296391
 20
2292.716991412198
 30
0.0
 11
627.5499999999394
 21
2275.039321882199
 31
0.0
  0
LINE
  5
303
330
1F
100
AcDbEntity
  8
LAY-10
  6
CONTINUOUS
 62
     7
100
AcDbLine
 10
609.8723304703395
 20
2292.716991412199
 30
0.0
 11
592.1946609406392
 21
2275.039321882199
 31
0.0
  0
LINE
  5
304
330
1F
100
AcDbEntity
  8
LAY-10
  6
CONTINUOUS
 62
     7
100
AcDbLine
 10
645.2276695296391
 20
2275.039321882199
 30
0.0
 11
662.905339059339
 21
2257.361652353199
 31
0.0
  0
LINE
  5
305
330
1F
100
AcDbEntity
  8
LAY-10
  6
CONTINUOUS
 62
     7
100
AcDbLine
 10
627.5499999999394
 20
2239.683982823199
 30
0.0
 11
645.2276695296391
 21
2257.361652353199
 31
0.0
  0
LINE
  5
306
330
1F
100
AcDbEntity
  8
LAY-10
  6
CONTINUOUS
 62
     7
100
AcDbLine
 10
609.8723304702395
 20
2239.683982823199
 30
0.0
 11
627.5499999999394
 21
2222.006313294199
 31
0.0
  0
LINE
  5
307
330
1F
100
AcDbEntity
  8
LAY-10
  6
CONTINUOUS
 62
     7
100
AcDbLine
 10
592.1946609405396
 20
2257.361652353198
 30
0.0
 11
574.5169914109393
 21
2275.039321882199
 31
0.0
  0
LINE
  5
308
330
1F
100
AcDbEntity
  8
LAY-10
  6
CONTINUOUS
 62
     7
100
AcDbLine
 10
574.5169914109393
 20
2292.716991412199
 30
0.0
 11
566.0500000000394
 21
2284.250000001155
 31
0.0
  0
LINE
  5
309
330
1F
100
AcDbEntity
  8
LAY-10
  6
CONTINUOUS
 62
     7
100
AcDbLine
 10
574.5169914109393
 20
2257.361652353198
 30
0.0
 11
566.0500000000394
 21
2248.894660942155
 31
0.0
  0
LINE
  5
30A
330
1F
100
AcDbEntity
  8
LAY-10
  6
CONTINUOUS
 62
     7
100
AcDbLine
 10
574.5169914109393
 20
2239.683982823199
 30
0.0
 11
592.1946609405396
 21
2222.006313294199
 31
0.0
  0
LINE
  5
30B
330
1F
100
AcDbEntity
  8
LAY-10
  6
CONTINUOUS
 62
     7
100
AcDbLine
 10
609.8723304702395
 20
2257.361652353198
 30
0.0
 11
592.1946609405396
 21
2239.683982823199
 31
0.0
  0
LINE
  5
30C
330
1F
100
AcDbEntity
  8
LAY-10
  6
CONTINUOUS
 62
     7
100
AcDbLine
 10
574.5169914108393
 20
2222.006313294198
 30
0.0
 11
566.0500000000394
 21
2213.539321883254
 31
0.0
  0
LINE
  5
30D
330
1F
100
AcDbEntity
  8
LAY-10
  6
CONTINUOUS
 62
     7
100
AcDbLine
 10
698.2606781187392
 20
2363.427669530199
 30
0.0
 11
680.5830085890393
 21
2381.105339060199
 31
0.0
  0
LINE
  5
30E
330
1F
100
AcDbEntity
  8
LAY-10
  6
CONTINUOUS
 62
     7
100
AcDbLine
 10
680.5830085890393
 20
2345.7500000002
 30
0.0
 11
698.2606781187392
 21
2328.072330471199
 31
0.0
  0
LINE
  5
30F
330
1F
100
AcDbEntity
  8
LAY-10
  6
CONTINUOUS
 62
     7
100
AcDbLine
 10
645.2276695297392
 20
2310.394660941199
 30
0.0
 11
662.905339059339
 21
2292.716991412199
 31
0.0
  0
LINE
  5
310
330
1F
100
AcDbEntity
  8
LAY-10
  6
CONTINUOUS
 62
     7
100
AcDbLine
 10
645.2276695297392
 20
2328.072330471199
 30
0.0
 11
627.5500000000394
 21
2310.394660941199
 31
0.0
  0
LINE
  5
311
330
1F
100
AcDbEntity
  8
LAY-10
  6
CONTINUOUS
 62
     7
100
AcDbLine
 10
680.5830085890393
 20
2310.394660941199
 30
0.0
 11
698.2606781187392
 21
2292.716991412199
 31
0.0
  0
LINE
  5
312
330
1F
100
AcDbEntity
  8
LAY-10
  6
CONTINUOUS
 62
     7
100
AcDbLine
 10
698.2606781187392
 20
2345.7500000002
 30
0.0
 11
715.938347648339
 21
2363.427669530199
 31
0.0
  0
LINE
  5
313
330
1F
100
AcDbEntity
  8
LAY-10
  6
CONTINUOUS
 62
     7
100
AcDbLine
 10
698.2606781187392
 20
2310.394660941199
 30
0.0
 11
715.938347648339
 21
2328.072330471199
 31
0.0
  0
LINE
  5
314
330
1F
100
AcDbEntity
  8
LAY-10
  6
CONTINUOUS
 62
     7
100
AcDbLine
 10
715.938347648339
 20
2345.7500000002
 30
0.0
 11
733.6160171780393
 21
2328.072330471199
 31
0.0
  0
LINE
  5
315
330
1F
100
AcDbEntity
  8
LAY-10
  6
CONTINUOUS
 62
     7
100
AcDbLine
 10
627.5499999999394
 20
2292.716991412198
 30
0.0
 11
609.8723304703395
 21
2310.3946609412
 31
0.0
  0
LINE
  5
316
330
1F
100
AcDbEntity
  8
LAY-10
  6
CONTINUOUS
 62
     7
100
AcDbLine
 10
592.1946609406392
 20
2292.716991412199
 30
0.0
 11
574.5169914109393
 21
2310.3946609412
 31
0.0
  0
LINE
  5
317
330
1F
100
AcDbEntity
  8
LAY-10
  6
CONTINUOUS
 62
     7
100
AcDbLine
 10
609.8723304703395
 20
2328.072330471199
 30
0.0
 11
592.1946609406392
 21
2310.3946609412
 31
0.0
  0
LINE
  5
318
330
1F
100
AcDbEntity
  8
LAY-10
  6
CONTINUOUS
 62
     7
100
AcDbLine
 10
574.5169914110394
 20
2328.072330472198
 30
0.0
 11
566.0500000000394
 21
2319.605339061054
 31
0.0
  0
LINE
  5
319
330
1F
100
AcDbEntity
  8
LAY-10
  6
CONTINUOUS
 62
     7
100
AcDbLine
 10
669.5500000007437
 20
2387.7500000002
 30
0.0
 11
662.9053390585354
 21
2381.105339058403
 31
0.0
  0
LINE
  5
31A
330
1F
100
AcDbEntity
  8
LAY-10
  6
CONTINUOUS
 62
     7
100
AcDbLine
 10
574.5169914123395
 20
2363.427669528596
 30
0.0
 11
566.0500000000144
 21
2354.960678116126
 31
0.0
  0
LINE
  5
31B
330
1F
100
AcDbEntity
  8
LAY-10
  6
CONTINUOUS
 62
     7
100
AcDbLine
 10
592.1946609405387
 20
2381.105339057397
 30
0.0
 11
598.8393218830016
 21
2387.750000000197
 31
0.0
  0
LINE
  5
31C
330
1F
100
AcDbEntity
  8
LAY-10
  6
CONTINUOUS
 62
     7
100
AcDbLine
 10
733.1226879761952
 20
2363.920998732152
 30
0.0
 11
715.9383476484394
 21
2381.105339060199
 31
0.0
  0
LINE
  5
31D
330
1F
100
AcDbEntity
  8
LAY-10
  6
CONTINUOUS
 62
     7
100
AcDbLine
 10
733.6160171780393
 20
2345.7500000002
 30
0.0
 11
736.6740295220123
 21
2348.808012344242
 31
0.0
  0
LINE
  5
31E
330
1F
100
AcDbEntity
  8
LAY-10
  6
CONTINUOUS
 62
     7
100
AcDbLine
 10
924.0500000000427
 20
1309.750000000203
 30
0.0
 11
924.0500000000409
 21
2387.750000000202
 31
0.0
  0
LINE
  5
31F
330
1F
100
AcDbEntity
  8
LAY-10
  6
CONTINUOUS
 62
     7
100
AcDbLine
 10
756.48398282204
 20
1351.7500000002
 30
0.0
 11
753.9550220019278
 21
1349.221039180031
 31
0.0
  0
LINE
  5
320
330
1F
100
AcDbEntity
  8
LAY-10
  6
CONTINUOUS
 62
     7
100
AcDbLine
 10
756.6583464676004
 20
1333.897966824537
 30
0.0
 11
774.16165235164
 21
1316.394660940201
 31
0.0
  0
LINE
  5
321
330
1F
100
AcDbEntity
  8
LAY-10
  6
CONTINUOUS
 62
     7
100
AcDbLine
 10
755.55000000004
 20
1338.750000000199
 30
0.0
 11
757.1563000128433
 21
1338.750000000199
 31
0.0
  0
LINE
  5
322
330
1F
100
AcDbEntity
  8
LAY-10
  6
CONTINUOUS
 62
     7
100
AcDbLine
 10
755.55000000004
 20
1330.750000000201
 30
0.0
 11
757.1563000128433
 21
1330.750000000201
 31
0.0
  0
LINE
  5
323
330
1F
100
AcDbEntity
  8
LAY-10
  6
CONTINUOUS
 62
     7
100
AcDbLine
 10
755.55000000004
 20
1330.750000000201
 30
0.0
 11
755.55000000004
 21
1338.750000000199
 31
0.0
  0
ARC
  5
324
330
1F
100
AcDbEntity
  8
LAY-10
  6
CONTINUOUS
 62
     7
100
AcDbCircle
 10
745.05000000004
 20
1334.7500000002
 30
0.0
 40
12.75000000000001
100
AcDbArc
 50
18.28388994040334
 51
341.7161100595966
  0
LINE
  5
325
330
1F
100
AcDbEntity
  8
LAY-10
  6
CONTINUOUS
 62
     7
100
AcDbLine
 10
745.05000000004
 20
1341.2500000002
 30
0.0
 11
749.0500000000399
 21
1334.7500000002
 31
0.0
  0
LINE
  5
326
330
1F
100
AcDbEntity
  8
LAY-10
  6
CONTINUOUS
 62
     7
100
AcDbLine
 10
749.0500000000399
 20
1334.7500000002
 30
0.0
 11
745.05000000004
 21
1328.2500000002
 31
0.0
  0
LINE
  5
327
330
1F
100
AcDbEntity
  8
LAY-10
  6
CONTINUOUS
 62
     7
100
AcDbLine
 10
745.05000000004
 20
1328.2500000002
 30
0.0
 11
741.0500000000397
 21
1334.7500000002
 31
0.0
  0
LINE
  5
328
330
1F
100
AcDbEntity
  8
LAY-10
  6
CONTINUOUS
 62
     7
100
AcDbLine
 10
741.0500000000397
 20
1334.7500000002
 30
0.0
 11
745.05000000004
 21
1341.2500000002
 31
0.0
  0
CIRCLE
  5
329
330
1F
100
AcDbEntity
  8
LAY-10
  6
CONTINUOUS
 62
     7
100
AcDbCircle
 10
745.0500000000397
 20
1334.7500000002
 30
0.0
 40
13.00000000000001
  0
LINE
  5
32A
330
1F
100
AcDbEntity
  8
LAY-10
  6
CONTINUOUS
 62
     7
100
AcDbLine
 10
755.55000000004
 20
2358.750000000206
 30
0.0
 11
757.1563000128433
 21
2358.750000000206
 31
0.0
  0
LINE
  5
32B
330
1F
100
AcDbEntity
  8
LAY-10
  6
CONTINUOUS
 62
     7
100
AcDbLine
 10
755.55000000004
 20
2366.750000000205
 30
0.0
 11
757.1563000128433
 21
2366.750000000205
 31
0.0
  0
LINE
  5
32C
330
1F
100
AcDbEntity
  8
LAY-10
  6
CONTINUOUS
 62
     7
100
AcDbLine
 10
755.55000000004
 20
2366.750000000205
 30
0.0
 11
755.55000000004
 21
2358.750000000206
 31
0.0
  0
ARC
  5
32D
330
1F
100
AcDbEntity
  8
LAY-10
  6
CONTINUOUS
 62
     7
100
AcDbCircle
 10
745.05000000004
 20
2362.750000000206
 30
0.0
 40
12.75000000000001
100
AcDbArc
 50
18.2838899404031
 51
341.7161100595971
  0
LINE
  5
32E
330
1F
100
AcDbEntity
  8
LAY-10
  6
CONTINUOUS
 62
     7
100
AcDbLine
 10
745.05000000004
 20
2356.250000000206
 30
0.0
 11
749.0500000000399
 21
2362.750000000206
 31
0.0
  0
LINE
  5
32F
330
1F
100
AcDbEntity
  8
LAY-10
  6
CONTINUOUS
 62
     7
100
AcDbLine
 10
749.0500000000399
 20
2362.750000000206
 30
0.0
 11
745.05000000004
 21
2369.250000000206
 31
0.0
  0
LINE
  5
330
330
1F
100
AcDbEntity
  8
LAY-10
  6
CONTINUOUS
 62
     7
100
AcDbLine
 10
745.05000000004
 20
2369.250000000206
 30
0.0
 11
741.05000000004
 21
2362.750000000206
 31
0.0
  0
LINE
  5
331
330
1F
100
AcDbEntity
  8
LAY-10
  6
CONTINUOUS
 62
     7
100
AcDbLine
 10
741.05000000004
 20
2362.750000000206
 30
0.0
 11
745.05000000004
 21
2356.250000000206
 31
0.0
  0
CIRCLE
  5
332
330
1F
100
AcDbEntity
  8
LAY-10
  6
CONTINUOUS
 62
     7
100
AcDbCircle
 10
745.0500000000397
 20
2362.7500000002
 30
0.0
 40
13.00000000000001
  0
LINE
  5
333
330
1F
100
AcDbEntity
  8
LAY-10
  6
CONTINUOUS
 62
     7
100
AcDbLine
 10
1644.05
 20
2387.750000000202
 30
0.0
 11
1286.05
 21
2387.750000000202
 31
0.0
  0
LINE
  5
334
330
1F
100
AcDbEntity
  8
LAY-10
  6
CONTINUOUS
 62
     7
100
AcDbLine
 10
1286.05
 20
1309.750000000203
 30
0.0
 11
1644.050000000002
 21
1309.750000000203
 31
0.0
  0
LINE
  5
335
330
1F
100
AcDbEntity
  8
LAY-10
  6
CONTINUOUS
 62
     7
100
AcDbLine
 10
1582.5500000003
 20
1369.427669529501
 30
0.0
 11
1600.2276695296
 21
1351.7500000002
 31
0.0
  0
LINE
  5
336
330
1F
100
AcDbEntity
  8
LAY-10
  6
CONTINUOUS
 62
     7
100
AcDbLine
 10
1582.550000002202
 20
1316.3946609414
 30
0.0
 11
1575.90533906089
 21
1309.7500000002
 31
0.0
  0
LINE
  5
337
330
1F
100
AcDbEntity
  8
LAY-10
  6
CONTINUOUS
 62
     7
100
AcDbLine
 10
1547.194660942199
 20
1369.427669530297
 30
0.0
 11
1564.872330471201
 21
1351.750000000699
 31
0.0
  0
LINE
  5
338
330
1F
100
AcDbEntity
  8
LAY-10
  6
CONTINUOUS
 62
     7
100
AcDbLine
 10
1547.194660942202
 20
1334.072330470997
 30
0.0
 11
1564.872330471204
 21
1316.394660941299
 31
0.0
  0
LINE
  5
339
330
1F
100
AcDbEntity
  8
LAY-10
  6
CONTINUOUS
 62
     7
100
AcDbLine
 10
1582.550000001201
 20
1351.7500000007
 30
0.0
 11
1564.872330471203
 21
1334.072330470999
 31
0.0
  0
LINE
  5
33A
330
1F
100
AcDbEntity
  8
LAY-10
  6
CONTINUOUS
 62
     7
100
AcDbLine
 10
1600.227669529202
 20
1316.394660942401
 30
0.0
 11
1582.549999999902
 21
1334.072330471701
 31
0.0
  0
LINE
  5
33B
330
1F
100
AcDbEntity
  8
LAY-10
  6
CONTINUOUS
 62
     7
100
AcDbLine
 10
1529.516991411
 20
1334.072330470201
 30
0.0
 11
1543.05
 21
1347.60533905943
 31
0.0
  0
LINE
  5
33C
330
1F
100
AcDbEntity
  8
LAY-10
  6
CONTINUOUS
 62
     7
100
AcDbLine
 10
1635.583008588001
 20
1351.750000001202
 30
0.0
 11
1617.9053390587
 21
1369.427669530501
 31
0.0
  0
LINE
  5
33D
330
1F
100
AcDbEntity
  8
LAY-10
  6
CONTINUOUS
 62
     7
100
AcDbLine
 10
1617.9053390593
 20
1334.072330471103
 30
0.0
 11
1635.583008588601
 21
1316.394660941804
 31
0.0
  0
LINE
  5
33E
330
1F
100
AcDbEntity
  8
LAY-10
  6
CONTINUOUS
 62
     7
100
AcDbLine
 10
1600.227669529301
 20
1334.072330470802
 30
0.0
 11
1617.905339059
 21
1351.750000000802
 31
0.0
  0
LINE
  5
33F
330
1F
100
AcDbEntity
  8
LAY-10
  6
CONTINUOUS
 62
     7
100
AcDbLine
 10
1547.194660940701
 20
1422.460678118201
 30
0.0
 11
1529.516991411
 21
1404.783008588201
 31
0.0
  0
LINE
  5
340
330
1F
100
AcDbEntity
  8
LAY-10
  6
CONTINUOUS
 62
     7
100
AcDbLine
 10
1529.516991411
 20
1369.427669529201
 30
0.0
 11
1547.194660940701
 21
1387.105339059201
 31
0.0
  0
LINE
  5
341
330
1F
100
AcDbEntity
  8
LAY-10
  6
CONTINUOUS
 62
     7
100
AcDbLine
 10
1441.1286437625
 20
1334.072330470201
 30
0.0
 11
1458.8063132922
 21
1316.394660940201
 31
0.0
  0
LINE
  5
342
330
1F
100
AcDbEntity
  8
LAY-10
  6
CONTINUOUS
 62
     7
100
AcDbLine
 10
1434.483982821167
 20
1309.7500000002
 30
0.0
 11
1441.12864376143
 21
1316.394660940201
 31
0.0
  0
LINE
  5
343
330
1F
100
AcDbEntity
  8
LAY-10
  6
CONTINUOUS
 62
     7
100
AcDbLine
 10
1469.839321880836
 20
1309.7500000002
 30
0.0
 11
1476.4839828211
 21
1316.394660940201
 31
0.0
  0
LINE
  5
344
330
1F
100
AcDbEntity
  8
LAY-10
  6
CONTINUOUS
 62
     7
100
AcDbLine
 10
1505.194660940513
 20
1309.7500000002
 30
0.0
 11
1511.8393218814
 21
1316.394660941201
 31
0.0
  0
LINE
  5
345
330
1F
100
AcDbEntity
  8
LAY-10
  6
CONTINUOUS
 62
     7
100
AcDbLine
 10
1644.05
 20
1519.316017176146
 30
0.0
 11
1635.5830085892
 21
1510.849025765202
 31
0.0
  0
LINE
  5
346
330
1F
100
AcDbEntity
  8
LAY-10
  6
CONTINUOUS
 62
     7
100
AcDbLine
 10
1635.5830085892
 20
1493.171356236202
 30
0.0
 11
1617.9053390595
 21
1510.849025765202
 31
0.0
  0
LINE
  5
347
330
1F
100
AcDbEntity
  8
LAY-10
  6
CONTINUOUS
 62
     7
100
AcDbLine
 10
1617.9053390595
 20
1493.171356236202
 30
0.0
 11
1600.2276695298
 21
1475.493686706202
 31
0.0
  0
LINE
  5
348
330
1F
100
AcDbEntity
  8
LAY-10
  6
CONTINUOUS
 62
     7
100
AcDbLine
 10
1600.2276695297
 20
1422.460678118201
 30
0.0
 11
1582.5500000001
 21
1440.138347647201
 31
0.0
  0
LINE
  5
349
330
1F
100
AcDbEntity
  8
LAY-10
  6
CONTINUOUS
 62
     7
100
AcDbLine
 10
1564.8723304704
 20
1404.783008588201
 30
0.0
 11
1582.5500000001
 21
1422.460678118201
 31
0.0
  0
LINE
  5
34A
330
1F
100
AcDbEntity
  8
LAY-10
  6
CONTINUOUS
 62
     7
100
AcDbLine
 10
1600.2276695297
 20
1404.783008588201
 30
0.0
 11
1617.9053390594
 21
1422.460678118201
 31
0.0
  0
LINE
  5
34B
330
1F
100
AcDbEntity
  8
LAY-10
  6
CONTINUOUS
 62
     7
100
AcDbLine
 10
1564.8723304704
 20
1422.460678118201
 30
0.0
 11
1547.194660940701
 21
1440.138347647201
 31
0.0
  0
LINE
  5
34C
330
1F
100
AcDbEntity
  8
LAY-10
  6
CONTINUOUS
 62
     7
100
AcDbLine
 10
1582.5500000001
 20
1457.816017177202
 30
0.0
 11
1564.8723304704
 21
1440.138347647201
 31
0.0
  0
LINE
  5
34D
330
1F
100
AcDbEntity
  8
LAY-10
  6
CONTINUOUS
 62
     7
100
AcDbLine
 10
1600.2276695298
 20
1457.816017177202
 30
0.0
 11
1582.5500000001
 21
1475.493686706202
 31
0.0
  0
LINE
  5
34E
330
1F
100
AcDbEntity
  8
LAY-10
  6
CONTINUOUS
 62
     7
100
AcDbLine
 10
1617.9053390595
 20
1440.138347647202
 30
0.0
 11
1635.5830085891
 21
1422.460678118201
 31
0.0
  0
LINE
  5
34F
330
1F
100
AcDbEntity
  8
LAY-10
  6
CONTINUOUS
 62
     7
100
AcDbLine
 10
1635.5830085891
 20
1404.783008588201
 30
0.0
 11
1644.05
 21
1413.249999999245
 31
0.0
  0
LINE
  5
350
330
1F
100
AcDbEntity
  8
LAY-10
  6
CONTINUOUS
 62
     7
100
AcDbLine
 10
1635.5830085891
 20
1440.138347647202
 30
0.0
 11
1644.05
 21
1448.605339058245
 31
0.0
  0
LINE
  5
351
330
1F
100
AcDbEntity
  8
LAY-10
  6
CONTINUOUS
 62
     7
100
AcDbLine
 10
1635.5830085891
 20
1457.816017177202
 30
0.0
 11
1617.9053390595
 21
1475.493686706202
 31
0.0
  0
LINE
  5
352
330
1F
100
AcDbEntity
  8
LAY-10
  6
CONTINUOUS
 62
     7
100
AcDbLine
 10
1600.2276695298
 20
1440.138347647202
 30
0.0
 11
1617.9053390595
 21
1457.816017177202
 31
0.0
  0
LINE
  5
353
330
1F
100
AcDbEntity
  8
LAY-10
  6
CONTINUOUS
 62
     7
100
AcDbLine
 10
1635.5830085892
 20
1475.493686706202
 30
0.0
 11
1644.05
 21
1483.960678117146
 31
0.0
  0
LINE
  5
354
330
1F
100
AcDbEntity
  8
LAY-10
  6
CONTINUOUS
 62
     7
100
AcDbLine
 10
1511.8393218813
 20
1334.072330470201
 30
0.0
 11
1529.516991411
 21
1316.394660940201
 31
0.0
  0
LINE
  5
355
330
1F
100
AcDbEntity
  8
LAY-10
  6
CONTINUOUS
 62
     7
100
AcDbLine
 10
1529.516991411
 20
1351.7500000002
 30
0.0
 11
1511.8393218813
 21
1369.427669529201
 31
0.0
  0
LINE
  5
356
330
1F
100
AcDbEntity
  8
LAY-10
  6
CONTINUOUS
 62
     7
100
AcDbLine
 10
1564.8723304703
 20
1387.105339059201
 30
0.0
 11
1547.194660940701
 21
1404.783008588201
 31
0.0
  0
LINE
  5
357
330
1F
100
AcDbEntity
  8
LAY-10
  6
CONTINUOUS
 62
     7
100
AcDbLine
 10
1564.8723304703
 20
1369.427669529201
 30
0.0
 11
1582.55
 21
1387.105339059201
 31
0.0
  0
LINE
  5
358
330
1F
100
AcDbEntity
  8
LAY-10
  6
CONTINUOUS
 62
     7
100
AcDbLine
 10
1529.516991411
 20
1387.105339059201
 30
0.0
 11
1511.8393218813
 21
1404.783008588201
 31
0.0
  0
LINE
  5
359
330
1F
100
AcDbEntity
  8
LAY-10
  6
CONTINUOUS
 62
     7
100
AcDbLine
 10
1511.8393218813
 20
1351.7500000002
 30
0.0
 11
1494.1616523517
 21
1334.072330470201
 31
0.0
  0
LINE
  5
35A
330
1F
100
AcDbEntity
  8
LAY-10
  6
CONTINUOUS
 62
     7
100
AcDbLine
 10
1511.8393218813
 20
1387.105339059201
 30
0.0
 11
1494.1616523517
 21
1369.427669529201
 31
0.0
  0
LINE
  5
35B
330
1F
100
AcDbEntity
  8
LAY-10
  6
CONTINUOUS
 62
     7
100
AcDbLine
 10
1494.1616523517
 20
1351.7500000002
 30
0.0
 11
1476.483982822
 21
1369.427669529201
 31
0.0
  0
LINE
  5
35C
330
1F
100
AcDbEntity
  8
LAY-10
  6
CONTINUOUS
 62
     7
100
AcDbLine
 10
1582.5500000001
 20
1404.783008588201
 30
0.0
 11
1600.2276695297
 21
1387.105339059201
 31
0.0
  0
LINE
  5
35D
330
1F
100
AcDbEntity
  8
LAY-10
  6
CONTINUOUS
 62
     7
100
AcDbLine
 10
1617.9053390594
 20
1404.783008588201
 30
0.0
 11
1635.5830085891
 21
1387.105339059201
 31
0.0
  0
LINE
  5
35E
330
1F
100
AcDbEntity
  8
LAY-10
  6
CONTINUOUS
 62
     7
100
AcDbLine
 10
1600.2276695297
 20
1369.427669529201
 30
0.0
 11
1617.9053390594
 21
1387.105339059201
 31
0.0
  0
LINE
  5
35F
330
1F
100
AcDbEntity
  8
LAY-10
  6
CONTINUOUS
 62
     7
100
AcDbLine
 10
1635.583008589
 20
1369.427669528202
 30
0.0
 11
1644.05
 21
1377.894660939346
 31
0.0
  0
LINE
  5
360
330
1F
100
AcDbEntity
  8
LAY-10
  6
CONTINUOUS
 62
     7
100
AcDbLine
 10
1540.549999999296
 20
1309.7500000002
 30
0.0
 11
1547.194660941504
 21
1316.394660941996
 31
0.0
  0
LINE
  5
361
330
1F
100
AcDbEntity
  8
LAY-10
  6
CONTINUOUS
 62
     7
100
AcDbLine
 10
1635.5830085877
 20
1334.072330471804
 30
0.0
 11
1644.050000000025
 21
1342.539321884274
 31
0.0
  0
LINE
  5
362
330
1F
100
AcDbEntity
  8
LAY-10
  6
CONTINUOUS
 62
     7
100
AcDbLine
 10
1617.905339059501
 20
1316.394660943003
 30
0.0
 11
1611.260678117038
 21
1309.750000000202
 31
0.0
  0
LINE
  5
363
330
1F
100
AcDbEntity
  8
LAY-10
  6
CONTINUOUS
 62
     7
100
AcDbLine
 10
1347.549999999699
 20
2328.072330470899
 30
0.0
 11
1329.8723304704
 21
2345.750000000199
 31
0.0
  0
LINE
  5
364
330
1F
100
AcDbEntity
  8
LAY-10
  6
CONTINUOUS
 62
     7
100
AcDbLine
 10
1347.549999997797
 20
2381.105339059
 30
0.0
 11
1354.194660939109
 21
2387.7500000002
 31
0.0
  0
LINE
  5
365
330
1F
100
AcDbEntity
  8
LAY-10
  6
CONTINUOUS
 62
     7
100
AcDbLine
 10
1382.9053390578
 20
2328.072330470102
 30
0.0
 11
1365.227669528798
 21
2345.749999999701
 31
0.0
  0
LINE
  5
366
330
1F
100
AcDbEntity
  8
LAY-10
  6
CONTINUOUS
 62
     7
100
AcDbLine
 10
1382.905339057798
 20
2363.427669529402
 30
0.0
 11
1365.227669528795
 21
2381.105339059101
 31
0.0
  0
LINE
  5
367
330
1F
100
AcDbEntity
  8
LAY-10
  6
CONTINUOUS
 62
     7
100
AcDbLine
 10
1347.549999998799
 20
2345.749999999699
 30
0.0
 11
1365.227669528797
 21
2363.427669529401
 31
0.0
  0
LINE
  5
368
330
1F
100
AcDbEntity
  8
LAY-10
  6
CONTINUOUS
 62
     7
100
AcDbLine
 10
1329.872330470797
 20
2381.105339057999
 30
0.0
 11
1347.550000000098
 21
2363.427669528699
 31
0.0
  0
LINE
  5
369
330
1F
100
AcDbEntity
  8
LAY-10
  6
CONTINUOUS
 62
     7
100
AcDbLine
 10
1400.583008588999
 20
2363.427669530199
 30
0.0
 11
1387.049999999999
 21
2349.89466094097
 31
0.0
  0
LINE
  5
36A
330
1F
100
AcDbEntity
  8
LAY-10
  6
CONTINUOUS
 62
     7
100
AcDbLine
 10
1294.516991411999
 20
2345.749999999198
 30
0.0
 11
1312.194660941299
 21
2328.072330469899
 31
0.0
  0
LINE
  5
36B
330
1F
100
AcDbEntity
  8
LAY-10
  6
CONTINUOUS
 62
     7
100
AcDbLine
 10
1312.194660940699
 20
2363.427669529297
 30
0.0
 11
1294.516991411399
 21
2381.105339058596
 31
0.0
  0
LINE
  5
36C
330
1F
100
AcDbEntity
  8
LAY-10
  6
CONTINUOUS
 62
     7
100
AcDbLine
 10
1329.872330470699
 20
2363.427669529598
 30
0.0
 11
1312.194660940999
 21
2345.749999999598
 31
0.0
  0
LINE
  5
36D
330
1F
100
AcDbEntity
  8
LAY-10
  6
CONTINUOUS
 62
     7
100
AcDbLine
 10
1382.905339059299
 20
2275.039321882199
 30
0.0
 11
1400.583008588999
 21
2292.716991412199
 31
0.0
  0
LINE
  5
36E
330
1F
100
AcDbEntity
  8
LAY-10
  6
CONTINUOUS
 62
     7
100
AcDbLine
 10
1400.583008588999
 20
2328.072330471199
 30
0.0
 11
1382.905339059299
 21
2310.394660941199
 31
0.0
  0
LINE
  5
36F
330
1F
100
AcDbEntity
  8
LAY-10
  6
CONTINUOUS
 62
     7
100
AcDbLine
 10
1488.971356237499
 20
2363.427669530199
 30
0.0
 11
1471.293686707799
 21
2381.105339060199
 31
0.0
  0
LINE
  5
370
330
1F
100
AcDbEntity
  8
LAY-10
  6
CONTINUOUS
 62
     7
100
AcDbLine
 10
1495.616017178833
 20
2387.7500000002
 30
0.0
 11
1488.971356238569
 21
2381.105339060199
 31
0.0
  0
LINE
  5
371
330
1F
100
AcDbEntity
  8
LAY-10
  6
CONTINUOUS
 62
     7
100
AcDbLine
 10
1460.260678119163
 20
2387.7500000002
 30
0.0
 11
1453.616017178899
 21
2381.105339060199
 31
0.0
  0
LINE
  5
372
330
1F
100
AcDbEntity
  8
LAY-10
  6
CONTINUOUS
 62
     7
100
AcDbLine
 10
1424.905339059486
 20
2387.7500000002
 30
0.0
 11
1418.260678118599
 21
2381.105339059199
 31
0.0
  0
LINE
  5
373
330
1F
100
AcDbEntity
  8
LAY-10
  6
CONTINUOUS
 62
     7
100
AcDbLine
 10
1286.049999999999
 20
2178.183982824254
 30
0.0
 11
1294.516991410799
 21
2186.650974235198
 31
0.0
  0
LINE
  5
374
330
1F
100
AcDbEntity
  8
LAY-10
  6
CONTINUOUS
 62
     7
100
AcDbLine
 10
1294.516991410799
 20
2204.328643764198
 30
0.0
 11
1312.194660940499
 21
2186.650974235198
 31
0.0
  0
LINE
  5
375
330
1F
100
AcDbEntity
  8
LAY-10
  6
CONTINUOUS
 62
     7
100
AcDbLine
 10
1312.194660940499
 20
2204.328643764198
 30
0.0
 11
1329.872330470199
 21
2222.006313294199
 31
0.0
  0
LINE
  5
376
330
1F
100
AcDbEntity
  8
LAY-10
  6
CONTINUOUS
 62
     7
100
AcDbLine
 10
1329.872330470299
 20
2275.039321882199
 30
0.0
 11
1347.549999999899
 21
2257.361652353199
 31
0.0
  0
LINE
  5
377
330
1F
100
AcDbEntity
  8
LAY-10
  6
CONTINUOUS
 62
     7
100
AcDbLine
 10
1365.227669529599
 20
2292.716991412198
 30
0.0
 11
1347.549999999899
 21
2275.039321882199
 31
0.0
  0
LINE
  5
378
330
1F
100
AcDbEntity
  8
LAY-10
  6
CONTINUOUS
 62
     7
100
AcDbLine
 10
1329.872330470299
 20
2292.716991412199
 30
0.0
 11
1312.194660940599
 21
2275.039321882199
 31
0.0
  0
LINE
  5
379
330
1F
100
AcDbEntity
  8
LAY-10
  6
CONTINUOUS
 62
     7
100
AcDbLine
 10
1365.227669529599
 20
2275.039321882199
 30
0.0
 11
1382.905339059299
 21
2257.361652353199
 31
0.0
  0
LINE
  5
37A
330
1F
100
AcDbEntity
  8
LAY-10
  6
CONTINUOUS
 62
     7
100
AcDbLine
 10
1347.549999999899
 20
2239.683982823199
 30
0.0
 11
1365.227669529599
 21
2257.361652353199
 31
0.0
  0
LINE
  5
37B
330
1F
100
AcDbEntity
  8
LAY-10
  6
CONTINUOUS
 62
     7
100
AcDbLine
 10
1329.872330470199
 20
2239.683982823199
 30
0.0
 11
1347.549999999899
 21
2222.006313294199
 31
0.0
  0
LINE
  5
37C
330
1F
100
AcDbEntity
  8
LAY-10
  6
CONTINUOUS
 62
     7
100
AcDbLine
 10
1312.194660940499
 20
2257.361652353198
 30
0.0
 11
1294.516991410899
 21
2275.039321882199
 31
0.0
  0
LINE
  5
37D
330
1F
100
AcDbEntity
  8
LAY-10
  6
CONTINUOUS
 62
     7
100
AcDbLine
 10
1294.516991410899
 20
2292.716991412199
 30
0.0
 11
1286.049999999999
 21
2284.250000001155
 31
0.0
  0
LINE
  5
37E
330
1F
100
AcDbEntity
  8
LAY-10
  6
CONTINUOUS
 62
     7
100
AcDbLine
 10
1294.516991410899
 20
2257.361652353198
 30
0.0
 11
1286.049999999999
 21
2248.894660942155
 31
0.0
  0
LINE
  5
37F
330
1F
100
AcDbEntity
  8
LAY-10
  6
CONTINUOUS
 62
     7
100
AcDbLine
 10
1294.516991410899
 20
2239.683982823199
 30
0.0
 11
1312.194660940499
 21
2222.006313294199
 31
0.0
  0
LINE
  5
380
330
1F
100
AcDbEntity
  8
LAY-10
  6
CONTINUOUS
 62
     7
100
AcDbLine
 10
1329.872330470199
 20
2257.361652353198
 30
0.0
 11
1312.194660940499
 21
2239.683982823199
 31
0.0
  0
LINE
  5
381
330
1F
100
AcDbEntity
  8
LAY-10
  6
CONTINUOUS
 62
     7
100
AcDbLine
 10
1294.516991410799
 20
2222.006313294198
 30
0.0
 11
1286.049999999999
 21
2213.539321883254
 31
0.0
  0
LINE
  5
382
330
1F
100
AcDbEntity
  8
LAY-10
  6
CONTINUOUS
 62
     7
100
AcDbLine
 10
1418.260678118699
 20
2363.427669530199
 30
0.0
 11
1400.583008588999
 21
2381.105339060199
 31
0.0
  0
LINE
  5
383
330
1F
100
AcDbEntity
  8
LAY-10
  6
CONTINUOUS
 62
     7
100
AcDbLine
 10
1400.583008588999
 20
2345.7500000002
 30
0.0
 11
1418.260678118699
 21
2328.072330471199
 31
0.0
  0
LINE
  5
384
330
1F
100
AcDbEntity
  8
LAY-10
  6
CONTINUOUS
 62
     7
100
AcDbLine
 10
1365.227669529699
 20
2310.394660941199
 30
0.0
 11
1382.905339059299
 21
2292.716991412199
 31
0.0
  0
LINE
  5
385
330
1F
100
AcDbEntity
  8
LAY-10
  6
CONTINUOUS
 62
     7
100
AcDbLine
 10
1365.227669529699
 20
2328.072330471199
 30
0.0
 11
1347.549999999999
 21
2310.394660941199
 31
0.0
  0
LINE
  5
386
330
1F
100
AcDbEntity
  8
LAY-10
  6
CONTINUOUS
 62
     7
100
AcDbLine
 10
1400.583008588999
 20
2310.394660941199
 30
0.0
 11
1418.260678118699
 21
2292.716991412199
 31
0.0
  0
LINE
  5
387
330
1F
100
AcDbEntity
  8
LAY-10
  6
CONTINUOUS
 62
     7
100
AcDbLine
 10
1418.260678118699
 20
2345.7500000002
 30
0.0
 11
1435.938347648299
 21
2363.427669530199
 31
0.0
  0
LINE
  5
388
330
1F
100
AcDbEntity
  8
LAY-10
  6
CONTINUOUS
 62
     7
100
AcDbLine
 10
1418.260678118699
 20
2310.394660941199
 30
0.0
 11
1435.938347648299
 21
2328.072330471199
 31
0.0
  0
LINE
  5
389
330
1F
100
AcDbEntity
  8
LAY-10
  6
CONTINUOUS
 62
     7
100
AcDbLine
 10
1435.938347648299
 20
2345.7500000002
 30
0.0
 11
1453.616017177999
 21
2328.072330471199
 31
0.0
  0
LINE
  5
38A
330
1F
100
AcDbEntity
  8
LAY-10
  6
CONTINUOUS
 62
     7
100
AcDbLine
 10
1347.549999999899
 20
2292.716991412198
 30
0.0
 11
1329.872330470299
 21
2310.3946609412
 31
0.0
  0
LINE
  5
38B
330
1F
100
AcDbEntity
  8
LAY-10
  6
CONTINUOUS
 62
     7
100
AcDbLine
 10
1312.194660940599
 20
2292.716991412199
 30
0.0
 11
1294.516991410899
 21
2310.3946609412
 31
0.0
  0
LINE
  5
38C
330
1F
100
AcDbEntity
  8
LAY-10
  6
CONTINUOUS
 62
     7
100
AcDbLine
 10
1329.872330470299
 20
2328.072330471199
 30
0.0
 11
1312.194660940599
 21
2310.3946609412
 31
0.0
  0
LINE
  5
38D
330
1F
100
AcDbEntity
  8
LAY-10
  6
CONTINUOUS
 62
     7
100
AcDbLine
 10
1294.516991410999
 20
2328.072330472198
 30
0.0
 11
1286.049999999999
 21
2319.605339061054
 31
0.0
  0
LINE
  5
38E
330
1F
100
AcDbEntity
  8
LAY-10
  6
CONTINUOUS
 62
     7
100
AcDbLine
 10
1389.550000000703
 20
2387.7500000002
 30
0.0
 11
1382.905339058495
 21
2381.105339058403
 31
0.0
  0
LINE
  5
38F
330
1F
100
AcDbEntity
  8
LAY-10
  6
CONTINUOUS
 62
     7
100
AcDbLine
 10
1294.516991412299
 20
2363.427669528596
 30
0.0
 11
1286.049999999974
 21
2354.960678116126
 31
0.0
  0
LINE
  5
390
330
1F
100
AcDbEntity
  8
LAY-10
  6
CONTINUOUS
 62
     7
100
AcDbLine
 10
1312.194660940499
 20
2381.105339057397
 30
0.0
 11
1318.839321882961
 21
2387.750000000197
 31
0.0
  0
LINE
  5
391
330
1F
100
AcDbEntity
  8
LAY-10
  6
CONTINUOUS
 62
     7
100
AcDbLine
 10
1453.122687976155
 20
2363.920998732152
 30
0.0
 11
1435.938347648399
 21
2381.105339060199
 31
0.0
  0
LINE
  5
392
330
1F
100
AcDbEntity
  8
LAY-10
  6
CONTINUOUS
 62
     7
100
AcDbLine
 10
1453.616017177999
 20
2345.7500000002
 30
0.0
 11
1456.674029521972
 21
2348.808012344242
 31
0.0
  0
LINE
  5
393
330
1F
100
AcDbEntity
  8
LAY-10
  6
CONTINUOUS
 62
     7
100
AcDbLine
 10
1286.05
 20
2387.750000000202
 30
0.0
 11
1286.05
 21
1309.750000000203
 31
0.0
  0
LINE
  5
394
330
1F
100
AcDbEntity
  8
LAY-10
  6
CONTINUOUS
 62
     7
100
AcDbLine
 10
1644.050000000002
 20
1309.750000000203
 30
0.0
 11
1644.05
 21
2387.750000000202
 31
0.0
  0
LINE
  5
395
330
1F
100
AcDbEntity
  8
LAY-10
  6
CONTINUOUS
 62
     7
100
AcDbLine
 10
1476.65834646756
 20
1333.897966824537
 30
0.0
 11
1494.1616523516
 21
1316.394660940201
 31
0.0
  0
LINE
  5
396
330
1F
100
AcDbEntity
  8
LAY-10
  6
CONTINUOUS
 62
     7
100
AcDbLine
 10
1476.483982822
 20
1351.7500000002
 30
0.0
 11
1473.955022001878
 21
1349.221039180021
 31
0.0
  0
LINE
  5
397
330
1F
100
AcDbEntity
  8
LAY-10
  6
CONTINUOUS
 62
     7
100
AcDbLine
 10
1475.55
 20
1338.750000000199
 30
0.0
 11
1477.156300012803
 21
1338.750000000199
 31
0.0
  0
LINE
  5
398
330
1F
100
AcDbEntity
  8
LAY-10
  6
CONTINUOUS
 62
     7
100
AcDbLine
 10
1475.55
 20
1330.750000000201
 30
0.0
 11
1477.156300012803
 21
1330.750000000201
 31
0.0
  0
LINE
  5
399
330
1F
100
AcDbEntity
  8
LAY-10
  6
CONTINUOUS
 62
     7
100
AcDbLine
 10
1475.55
 20
1330.750000000201
 30
0.0
 11
1475.55
 21
1338.750000000199
 31
0.0
  0
ARC
  5
39A
330
1F
100
AcDbEntity
  8
LAY-10
  6
CONTINUOUS
 62
     7
100
AcDbCircle
 10
1465.049999999999
 20
1334.7500000002
 30
0.0
 40
12.75000000000001
100
AcDbArc
 50
18.28388994040334
 51
341.7161100595966
  0
LINE
  5
39B
330
1F
100
AcDbEntity
  8
LAY-10
  6
CONTINUOUS
 62
     7
100
AcDbLine
 10
1465.049999999999
 20
1341.2500000002
 30
0.0
 11
1469.05
 21
1334.7500000002
 31
0.0
  0
LINE
  5
39C
330
1F
100
AcDbEntity
  8
LAY-10
  6
CONTINUOUS
 62
     7
100
AcDbLine
 10
1469.05
 20
1334.7500000002
 30
0.0
 11
1465.049999999999
 21
1328.2500000002
 31
0.0
  0
LINE
  5
39D
330
1F
100
AcDbEntity
  8
LAY-10
  6
CONTINUOUS
 62
     7
100
AcDbLine
 10
1465.049999999999
 20
1328.2500000002
 30
0.0
 11
1461.05
 21
1334.7500000002
 31
0.0
  0
LINE
  5
39E
330
1F
100
AcDbEntity
  8
LAY-10
  6
CONTINUOUS
 62
     7
100
AcDbLine
 10
1461.05
 20
1334.7500000002
 30
0.0
 11
1465.049999999999
 21
1341.2500000002
 31
0.0
  0
CIRCLE
  5
39F
330
1F
100
AcDbEntity
  8
LAY-10
  6
CONTINUOUS
 62
     7
100
AcDbCircle
 10
1465.049999999999
 20
1334.7500000002
 30
0.0
 40
13.00000000000001
  0
LINE
  5
3A0
330
1F
100
AcDbEntity
  8
LAY-10
  6
CONTINUOUS
 62
     7
100
AcDbLine
 10
1475.55
 20
2358.750000000206
 30
0.0
 11
1477.156300012803
 21
2358.750000000206
 31
0.0
  0
LINE
  5
3A1
330
1F
100
AcDbEntity
  8
LAY-10
  6
CONTINUOUS
 62
     7
100
AcDbLine
 10
1475.55
 20
2366.750000000205
 30
0.0
 11
1477.156300012803
 21
2366.750000000205
 31
0.0
  0
LINE
  5
3A2
330
1F
100
AcDbEntity
  8
LAY-10
  6
CONTINUOUS
 62
     7
100
AcDbLine
 10
1475.55
 20
2366.750000000205
 30
0.0
 11
1475.55
 21
2358.750000000206
 31
0.0
  0
ARC
  5
3A3
330
1F
100
AcDbEntity
  8
LAY-10
  6
CONTINUOUS
 62
     7
100
AcDbCircle
 10
1465.049999999999
 20
2362.750000000206
 30
0.0
 40
12.75000000000001
100
AcDbArc
 50
18.2838899404031
 51
341.7161100595971
  0
LINE
  5
3A4
330
1F
100
AcDbEntity
  8
LAY-10
  6
CONTINUOUS
 62
     7
100
AcDbLine
 10
1465.049999999999
 20
2356.250000000206
 30
0.0
 11
1469.05
 21
2362.750000000206
 31
0.0
  0
LINE
  5
3A5
330
1F
100
AcDbEntity
  8
LAY-10
  6
CONTINUOUS
 62
     7
100
AcDbLine
 10
1469.05
 20
2362.750000000206
 30
0.0
 11
1465.049999999999
 21
2369.250000000206
 31
0.0
  0
LINE
  5
3A6
330
1F
100
AcDbEntity
  8
LAY-10
  6
CONTINUOUS
 62
     7
100
AcDbLine
 10
1465.049999999999
 20
2369.250000000206
 30
0.0
 11
1461.05
 21
2362.750000000206
 31
0.0
  0
LINE
  5
3A7
330
1F
100
AcDbEntity
  8
LAY-10
  6
CONTINUOUS
 62
     7
100
AcDbLine
 10
1461.05
 20
2362.750000000206
 30
0.0
 11
1465.049999999999
 21
2356.250000000206
 31
0.0
  0
CIRCLE
  5
3A8
330
1F
100
AcDbEntity
  8
LAY-10
  6
CONTINUOUS
 62
     7
100
AcDbCircle
 10
1465.049999999999
 20
2362.7500000002
 30
0.0
 40
13.00000000000001
  0
LINE
  5
3A9
330
1F
100
AcDbEntity
  8
LAY-10
  6
CONTINUOUS
 62
     7
100
AcDbLine
 10
817.0499999999982
 20
885.4999999991003
 30
0.0
 11
817.0499999999976
 21
835.4999999991028
 31
0.0
  0
LINE
  5
3AA
330
1F
100
AcDbEntity
  8
LAY-10
  6
CONTINUOUS
 62
     7
100
AcDbLine
 10
823.0500000000004
 20
885.4999999991003
 30
0.0
 11
823.0500000000004
 21
835.4999999991028
 31
0.0
  0
LINE
  5
3AB
330
1F
100
AcDbEntity
  8
LAY-10
  6
CONTINUOUS
 62
     7
100
AcDbLine
 10
673.049999999999
 20
885.4999999991003
 30
0.0
 11
673.0499999999993
 21
835.4999999991028
 31
0.0
  0
LINE
  5
3AC
330
1F
100
AcDbEntity
  8
LAY-10
  6
CONTINUOUS
 62
     7
100
AcDbLine
 10
667.0499999999968
 20
885.4999999991003
 30
0.0
 11
667.0499999999968
 21
835.4999999991028
 31
0.0
  0
LINE
  5
3AD
330
1F
100
AcDbEntity
  8
LAY-10
  6
CONTINUOUS
 62
     7
100
AcDbLine
 10
918.0499999999981
 20
834.9999999990996
 30
0.0
 11
918.0499999999981
 21
881.4999999990996
 31
0.0
  0
LINE
  5
3AE
330
1F
100
AcDbEntity
  8
LAY-10
  6
CONTINUOUS
 62
     7
100
AcDbLine
 10
859.049999999998
 20
820.4999999990997
 30
0.0
 11
859.049999999998
 21
822.4999999990996
 31
0.0
  0
ARC
  5
3AF
330
1F
100
AcDbEntity
  8
LAY-10
  6
CONTINUOUS
 62
     7
100
AcDbCircle
 10
863.0499999999981
 20
822.4999999990996
 30
0.0
 40
4.0
100
AcDbArc
 50
90.00000000000001
 51
180.0
  0
ARC
  5
3B0
330
1F
100
AcDbEntity
  8
LAY-10
  6
CONTINUOUS
 62
     7
100
AcDbCircle
 10
922.0499999999982
 20
881.4999999990996
 30
0.0
 40
4.0
100
AcDbArc
 50
90.00000000000001
 51
180.0
  0
ARC
  5
3B1
330
1F
100
AcDbEntity
  8
LAY-10
  6
CONTINUOUS
 62
     7
100
AcDbCircle
 10
909.5499999999982
 20
834.9999999990996
 30
0.0
 40
8.5
100
AcDbArc
 50
270.0
 51
0.0
  0
LINE
  5
3B2
330
1F
100
AcDbEntity
  8
LAY-10
  6
CONTINUOUS
 62
     7
100
AcDbLine
 10
924.0500000000006
 20
820.4999999990995
 30
0.0
 11
924.0500000000006
 21
891.499999999099
 31
0.0
  0
LINE
  5
3B3
330
1F
100
AcDbEntity
  8
LAY-10
  6
CONTINUOUS
 62
     7
100
AcDbLine
 10
572.049999999999
 20
834.9999999990996
 30
0.0
 11
572.049999999999
 21
881.4999999990996
 31
0.0
  0
LINE
  5
3B4
330
1F
100
AcDbEntity
  8
LAY-10
  6
CONTINUOUS
 62
     7
100
AcDbLine
 10
631.049999999999
 20
820.4999999990997
 30
0.0
 11
631.049999999999
 21
822.4999999990996
 31
0.0
  0
ARC
  5
3B5
330
1F
100
AcDbEntity
  8
LAY-10
  6
CONTINUOUS
 62
     7
100
AcDbCircle
 10
627.049999999999
 20
822.4999999990996
 30
0.0
 40
4.0
100
AcDbArc
 50
0.0
 51
90.00000000000001
  0
ARC
  5
3B6
330
1F
100
AcDbEntity
  8
LAY-10
  6
CONTINUOUS
 62
     7
100
AcDbCircle
 10
568.049999999999
 20
881.4999999990996
 30
0.0
 40
4.0
100
AcDbArc
 50
0.0
 51
90.00000000000001
  0
ARC
  5
3B7
330
1F
100
AcDbEntity
  8
LAY-10
  6
CONTINUOUS
 62
     7
100
AcDbCircle
 10
580.549999999999
 20
834.9999999990996
 30
0.0
 40
8.5
100
AcDbArc
 50
180.0
 51
270.0
  0
LINE
  5
3B8
330
1F
100
AcDbEntity
  8
LAY-10
  6
CONTINUOUS
 62
     7
100
AcDbLine
 10
566.049999999999
 20
820.4999999990997
 30
0.0
 11
566.049999999999
 21
891.4999999990994
 31
0.0
  0
LINE
  5
3B9
330
1F
100
AcDbEntity
  8
LAY-10
  6
CONTINUOUS
 62
     7
100
AcDbLine
 10
924.0499999999984
 20
891.4999999990994
 30
0.0
 11
566.0499999999981
 21
891.4999999990994
 31
0.0
  0
LINE
  5
3BA
330
1F
100
AcDbEntity
  8
LAY-10
  6
CONTINUOUS
 62
     7
100
AcDbLine
 10
918.0499999999986
 20
835.4999999990999
 30
0.0
 11
572.049999999999
 21
835.4999999990999
 31
0.0
  0
LINE
  5
3BB
330
1F
100
AcDbEntity
  8
LAY-10
  6
CONTINUOUS
 62
     7
100
AcDbLine
 10
909.5499999999982
 20
826.4999999990996
 30
0.0
 11
580.5499999999986
 21
826.4999999991
 31
0.0
  0
LINE
  5
3BC
330
1F
100
AcDbEntity
  8
LAY-10
  6
CONTINUOUS
 62
     7
100
AcDbLine
 10
924.0499999999987
 20
885.4999999991003
 30
0.0
 11
566.0499999999981
 21
885.4999999991003
 31
0.0
  0
LINE
  5
3BD
330
1F
100
AcDbEntity
  8
LAY-10
  6
CONTINUOUS
 62
     7
100
AcDbLine
 10
1177.049999999998
 20
885.4999999991003
 30
0.0
 11
1177.049999999997
 21
835.4999999991028
 31
0.0
  0
LINE
  5
3BE
330
1F
100
AcDbEntity
  8
LAY-10
  6
CONTINUOUS
 62
     7
100
AcDbLine
 10
1183.05
 20
885.4999999991003
 30
0.0
 11
1183.05
 21
835.4999999991028
 31
0.0
  0
LINE
  5
3BF
330
1F
100
AcDbEntity
  8
LAY-10
  6
CONTINUOUS
 62
     7
100
AcDbLine
 10
1033.049999999999
 20
885.4999999991003
 30
0.0
 11
1033.049999999999
 21
835.4999999991028
 31
0.0
  0
LINE
  5
3C0
330
1F
100
AcDbEntity
  8
LAY-10
  6
CONTINUOUS
 62
     7
100
AcDbLine
 10
1027.049999999997
 20
885.4999999991003
 30
0.0
 11
1027.049999999997
 21
835.4999999991028
 31
0.0
  0
LINE
  5
3C1
330
1F
100
AcDbEntity
  8
LAY-10
  6
CONTINUOUS
 62
     7
100
AcDbLine
 10
1278.049999999998
 20
834.9999999990996
 30
0.0
 11
1278.049999999998
 21
881.4999999990996
 31
0.0
  0
LINE
  5
3C2
330
1F
100
AcDbEntity
  8
LAY-10
  6
CONTINUOUS
 62
     7
100
AcDbLine
 10
1219.049999999998
 20
820.4999999990997
 30
0.0
 11
1219.049999999998
 21
822.4999999990996
 31
0.0
  0
ARC
  5
3C3
330
1F
100
AcDbEntity
  8
LAY-10
  6
CONTINUOUS
 62
     7
100
AcDbCircle
 10
1223.049999999998
 20
822.4999999990996
 30
0.0
 40
4.0
100
AcDbArc
 50
90.00000000000001
 51
180.0
  0
ARC
  5
3C4
330
1F
100
AcDbEntity
  8
LAY-10
  6
CONTINUOUS
 62
     7
100
AcDbCircle
 10
1282.049999999998
 20
881.4999999990996
 30
0.0
 40
4.0
100
AcDbArc
 50
90.00000000000001
 51
180.0
  0
ARC
  5
3C5
330
1F
100
AcDbEntity
  8
LAY-10
  6
CONTINUOUS
 62
     7
100
AcDbCircle
 10
1269.549999999998
 20
834.9999999990996
 30
0.0
 40
8.5
100
AcDbArc
 50
270.0
 51
0.0
  0
LINE
  5
3C6
330
1F
100
AcDbEntity
  8
LAY-10
  6
CONTINUOUS
 62
     7
100
AcDbLine
 10
1284.05
 20
820.4999999990995
 30
0.0
 11
1284.05
 21
891.499999999099
 31
0.0
  0
LINE
  5
3C7
330
1F
100
AcDbEntity
  8
LAY-10
  6
CONTINUOUS
 62
     7
100
AcDbLine
 10
932.049999999999
 20
834.9999999990996
 30
0.0
 11
932.049999999999
 21
881.4999999990996
 31
0.0
  0
LINE
  5
3C8
330
1F
100
AcDbEntity
  8
LAY-10
  6
CONTINUOUS
 62
     7
100
AcDbLine
 10
991.049999999999
 20
820.4999999990997
 30
0.0
 11
991.049999999999
 21
822.4999999990996
 31
0.0
  0
ARC
  5
3C9
330
1F
100
AcDbEntity
  8
LAY-10
  6
CONTINUOUS
 62
     7
100
AcDbCircle
 10
987.049999999999
 20
822.4999999990996
 30
0.0
 40
4.0
100
AcDbArc
 50
0.0
 51
90.00000000000001
  0
ARC
  5
3CA
330
1F
100
AcDbEntity
  8
LAY-10
  6
CONTINUOUS
 62
     7
100
AcDbCircle
 10
928.049999999999
 20
881.4999999990996
 30
0.0
 40
4.0
100
AcDbArc
 50
0.0
 51
90.00000000000001
  0
ARC
  5
3CB
330
1F
100
AcDbEntity
  8
LAY-10
  6
CONTINUOUS
 62
     7
100
AcDbCircle
 10
940.549999999999
 20
834.9999999990996
 30
0.0
 40
8.5
100
AcDbArc
 50
180.0
 51
270.0
  0
LINE
  5
3CC
330
1F
100
AcDbEntity
  8
LAY-10
  6
CONTINUOUS
 62
     7
100
AcDbLine
 10
926.049999999999
 20
820.4999999990997
 30
0.0
 11
926.049999999999
 21
891.4999999990994
 31
0.0
  0
LINE
  5
3CD
330
1F
100
AcDbEntity
  8
LAY-10
  6
CONTINUOUS
 62
     7
100
AcDbLine
 10
1284.049999999998
 20
891.4999999990994
 30
0.0
 11
926.0499999999981
 21
891.4999999990994
 31
0.0
  0
LINE
  5
3CE
330
1F
100
AcDbEntity
  8
LAY-10
  6
CONTINUOUS
 62
     7
100
AcDbLine
 10
1278.049999999999
 20
835.4999999990999
 30
0.0
 11
932.049999999999
 21
835.4999999990999
 31
0.0
  0
LINE
  5
3CF
330
1F
100
AcDbEntity
  8
LAY-10
  6
CONTINUOUS
 62
     7
100
AcDbLine
 10
1269.549999999998
 20
826.4999999990996
 30
0.0
 11
940.5499999999986
 21
826.4999999991
 31
0.0
  0
LINE
  5
3D0
330
1F
100
AcDbEntity
  8
LAY-10
  6
CONTINUOUS
 62
     7
100
AcDbLine
 10
1284.049999999999
 20
885.4999999991003
 30
0.0
 11
926.0499999999981
 21
885.4999999991003
 31
0.0
  0
LINE
  5
3D1
330
1F
100
AcDbEntity
  8
LAY-10
  6
CONTINUOUS
 62
     7
100
AcDbLine
 10
1537.049999999998
 20
885.4999999991003
 30
0.0
 11
1537.049999999997
 21
835.4999999991028
 31
0.0
  0
LINE
  5
3D2
330
1F
100
AcDbEntity
  8
LAY-10
  6
CONTINUOUS
 62
     7
100
AcDbLine
 10
1543.05
 20
885.4999999991003
 30
0.0
 11
1543.05
 21
835.4999999991028
 31
0.0
  0
LINE
  5
3D3
330
1F
100
AcDbEntity
  8
LAY-10
  6
CONTINUOUS
 62
     7
100
AcDbLine
 10
1393.049999999999
 20
885.4999999991003
 30
0.0
 11
1393.049999999999
 21
835.4999999991028
 31
0.0
  0
LINE
  5
3D4
330
1F
100
AcDbEntity
  8
LAY-10
  6
CONTINUOUS
 62
     7
100
AcDbLine
 10
1387.049999999997
 20
885.4999999991003
 30
0.0
 11
1387.049999999997
 21
835.4999999991028
 31
0.0
  0
LINE
  5
3D5
330
1F
100
AcDbEntity
  8
LAY-10
  6
CONTINUOUS
 62
     7
100
AcDbLine
 10
1638.049999999998
 20
834.9999999990996
 30
0.0
 11
1638.049999999998
 21
881.4999999990996
 31
0.0
  0
LINE
  5
3D6
330
1F
100
AcDbEntity
  8
LAY-10
  6
CONTINUOUS
 62
     7
100
AcDbLine
 10
1579.049999999998
 20
820.4999999990997
 30
0.0
 11
1579.049999999998
 21
822.4999999990996
 31
0.0
  0
ARC
  5
3D7
330
1F
100
AcDbEntity
  8
LAY-10
  6
CONTINUOUS
 62
     7
100
AcDbCircle
 10
1583.049999999998
 20
822.4999999990996
 30
0.0
 40
4.0
100
AcDbArc
 50
90.00000000000001
 51
180.0
  0
ARC
  5
3D8
330
1F
100
AcDbEntity
  8
LAY-10
  6
CONTINUOUS
 62
     7
100
AcDbCircle
 10
1642.049999999998
 20
881.4999999990996
 30
0.0
 40
4.0
100
AcDbArc
 50
90.00000000000001
 51
180.0
  0
ARC
  5
3D9
330
1F
100
AcDbEntity
  8
LAY-10
  6
CONTINUOUS
 62
     7
100
AcDbCircle
 10
1629.549999999998
 20
834.9999999990996
 30
0.0
 40
8.5
100
AcDbArc
 50
270.0
 51
0.0
  0
LINE
  5
3DA
330
1F
100
AcDbEntity
  8
LAY-10
  6
CONTINUOUS
 62
     7
100
AcDbLine
 10
1644.05
 20
820.4999999990995
 30
0.0
 11
1644.05
 21
891.499999999099
 31
0.0
  0
LINE
  5
3DB
330
1F
100
AcDbEntity
  8
LAY-10
  6
CONTINUOUS
 62
     7
100
AcDbLine
 10
1292.049999999999
 20
834.9999999990996
 30
0.0
 11
1292.049999999999
 21
881.4999999990996
 31
0.0
  0
LINE
  5
3DC
330
1F
100
AcDbEntity
  8
LAY-10
  6
CONTINUOUS
 62
     7
100
AcDbLine
 10
1351.049999999999
 20
820.4999999990997
 30
0.0
 11
1351.049999999999
 21
822.4999999990996
 31
0.0
  0
ARC
  5
3DD
330
1F
100
AcDbEntity
  8
LAY-10
  6
CONTINUOUS
 62
     7
100
AcDbCircle
 10
1347.049999999999
 20
822.4999999990996
 30
0.0
 40
4.0
100
AcDbArc
 50
0.0
 51
90.00000000000001
  0
ARC
  5
3DE
330
1F
100
AcDbEntity
  8
LAY-10
  6
CONTINUOUS
 62
     7
100
AcDbCircle
 10
1288.049999999999
 20
881.4999999990996
 30
0.0
 40
4.0
100
AcDbArc
 50
0.0
 51
90.00000000000001
  0
ARC
  5
3DF
330
1F
100
AcDbEntity
  8
LAY-10
  6
CONTINUOUS
 62
     7
100
AcDbCircle
 10
1300.549999999999
 20
834.9999999990996
 30
0.0
 40
8.5
100
AcDbArc
 50
180.0
 51
270.0
  0
LINE
  5
3E0
330
1F
100
AcDbEntity
  8
LAY-10
  6
CONTINUOUS
 62
     7
100
AcDbLine
 10
1286.049999999999
 20
820.4999999990997
 30
0.0
 11
1286.049999999999
 21
891.4999999990994
 31
0.0
  0
LINE
  5
3E1
330
1F
100
AcDbEntity
  8
LAY-10
  6
CONTINUOUS
 62
     7
100
AcDbLine
 10
1644.049999999998
 20
891.4999999990994
 30
0.0
 11
1286.049999999998
 21
891.4999999990994
 31
0.0
  0
LINE
  5
3E2
330
1F
100
AcDbEntity
  8
LAY-10
  6
CONTINUOUS
 62
     7
100
AcDbLine
 10
1638.049999999998
 20
835.4999999990999
 30
0.0
 11
1292.049999999999
 21
835.4999999990999
 31
0.0
  0
LINE
  5
3E3
330
1F
100
AcDbEntity
  8
LAY-10
  6
CONTINUOUS
 62
     7
100
AcDbLine
 10
1629.549999999998
 20
826.4999999990996
 30
0.0
 11
1300.549999999998
 21
826.4999999991
 31
0.0
  0
LINE
  5
3E4
330
1F
100
AcDbEntity
  8
LAY-10
  6
CONTINUOUS
 62
     7
100
AcDbLine
 10
1644.049999999999
 20
885.4999999991003
 30
0.0
 11
1286.049999999998
 21
885.4999999991003
 31
0.0
  0
LINE
  5
3E5
330
1F
100
AcDbEntity
  8
LAY-10
  6
CENTER
 62
     2
100
AcDbLine
 10
2027.751515190201
 20
1848.750000000203
 30
0.0
 11
2181.1515151902
 21
1848.750000000203
 31
0.0
  0
LINE
  5
3E6
330
1F
100
AcDbEntity
  8
LAY-10
  6
CENTER
 62
     2
100
AcDbLine
 10
1105.050000000004
 20
897.0499999988995
 30
0.0
 11
1105.050000000004
 21
780.7499999988997
 31
0.0
  0
LINE
  5
3E7
330
1F
100
AcDbEntity
  8
LAY-10
  6
CENTER
 62
     2
100
AcDbLine
 10
1105.05
 20
2459.750000000202
 30
0.0
 11
1105.049999999999
 21
1239.750000000202
 31
0.0
  0
LINE
  5
3E8
330
1F
100
AcDbEntity
  8
LAY-10
  6
CENTER
 62
     2
100
AcDbLine
 10
502.0500000000009
 20
1848.750000000203
 30
0.0
 11
1714.050000000002
 21
1848.750000000203
 31
0.0
  0
LINE
  5
3E9
330
1F
100
AcDbEntity
  8
LAY-10
  6
CENTER
 62
     2
100
AcDbLine
 10
1086.525
 20
1334.750000000156
 30
0.0
 11
1124.025
 21
1334.750000000156
 31
0.0
  0
LINE
  5
3EA
330
1F
100
AcDbEntity
  8
LAY-10
  6
CENTER
 62
     2
100
AcDbLine
 10
1086.525
 20
2362.75000000025
 30
0.0
 11
1124.025
 21
2362.75000000025
 31
0.0
  0
LINE
  5
3EB
330
1F
100
AcDbEntity
  8
LAY-10
  6
CENTER
 62
     2
100
AcDbLine
 10
1355.049999999995
 20
2403.750000000196
 30
0.0
 11
1355.049999999995
 21
2445.550000000196
 31
0.0
  0
LINE
  5
3EC
330
1F
100
AcDbEntity
  8
LAY-10
  6
CENTER
 62
     2
100
AcDbLine
 10
855.0499999999952
 20
2403.750000000197
 30
0.0
 11
855.0499999999952
 21
2445.550000000197
 31
0.0
  0
LINE
  5
3ED
330
1F
100
AcDbEntity
  8
LAY-10
  6
CENTER
 62
     2
100
AcDbLine
 10
550.0500000000034
 20
2098.750000000195
 30
0.0
 11
508.2500000000036
 21
2098.750000000195
 31
0.0
  0
LINE
  5
3EE
330
1F
100
AcDbEntity
  8
LAY-10
  6
CENTER
 62
     2
100
AcDbLine
 10
550.0500000000029
 20
1598.750000000196
 30
0.0
 11
508.2500000000032
 21
1598.750000000196
 31
0.0
  0
LINE
  5
3EF
330
1F
100
AcDbEntity
  8
LAY-10
  6
CENTER
 62
     2
100
AcDbLine
 10
1660.049999999996
 20
1598.750000000205
 30
0.0
 11
1701.849999999996
 21
1598.750000000205
 31
0.0
  0
LINE
  5
3F0
330
1F
100
AcDbEntity
  8
LAY-10
  6
CENTER
 62
     2
100
AcDbLine
 10
1660.049999999997
 20
2098.750000000205
 30
0.0
 11
1701.849999999996
 21
2098.750000000205
 31
0.0
  0
LINE
  5
3F1
330
1F
100
AcDbEntity
  8
LAY-10
  6
CENTER
 62
     2
100
AcDbLine
 10
855.0500000000047
 20
1293.750000000204
 30
0.0
 11
855.0500000000047
 21
1251.950000000204
 31
0.0
  0
LINE
  5
3F2
330
1F
100
AcDbEntity
  8
LAY-10
  6
CENTER
 62
     2
100
AcDbLine
 10
1355.050000000004
 20
1293.750000000203
 30
0.0
 11
1355.050000000004
 21
1251.950000000204
 31
0.0
  0
LINE
  5
3F3
330
1F
100
AcDbEntity
  8
LAY-10
  6
CENTER
 62
     2
100
AcDbLine
 10
726.5250000000403
 20
1334.750000000156
 30
0.0
 11
764.0250000000393
 21
1334.750000000156
 31
0.0
  0
LINE
  5
3F4
330
1F
100
AcDbEntity
  8
LAY-10
  6
CENTER
 62
     2
100
AcDbLine
 10
745.05000000004
 20
1316.150000000155
 30
0.0
 11
745.05000000004
 21
1355.050000000155
 31
0.0
  0
LINE
  5
3F5
330
1F
100
AcDbEntity
  8
LAY-10
  6
CENTER
 62
     2
100
AcDbLine
 10
726.5250000000403
 20
2362.75000000025
 30
0.0
 11
764.0250000000393
 21
2362.75000000025
 31
0.0
  0
LINE
  5
3F6
330
1F
100
AcDbEntity
  8
LAY-10
  6
CENTER
 62
     2
100
AcDbLine
 10
745.05000000004
 20
2381.35000000025
 30
0.0
 11
745.05000000004
 21
2342.450000000251
 31
0.0
  0
LINE
  5
3F7
330
1F
100
AcDbEntity
  8
LAY-10
  6
CENTER
 62
     2
100
AcDbLine
 10
1446.525
 20
1334.750000000156
 30
0.0
 11
1484.024999999999
 21
1334.750000000156
 31
0.0
  0
LINE
  5
3F8
330
1F
100
AcDbEntity
  8
LAY-10
  6
CENTER
 62
     2
100
AcDbLine
 10
1465.05
 20
1316.150000000155
 30
0.0
 11
1465.05
 21
1355.050000000155
 31
0.0
  0
LINE
  5
3F9
330
1F
100
AcDbEntity
  8
LAY-10
  6
CENTER
 62
     2
100
AcDbLine
 10
1446.525
 20
2362.75000000025
 30
0.0
 11
1484.024999999999
 21
2362.75000000025
 31
0.0
  0
LINE
  5
3FA
330
1F
100
AcDbEntity
  8
LAY-10
  6
CENTER
 62
     2
100
AcDbLine
 10
1465.05
 20
2381.35000000025
 30
0.0
 11
1465.05
 21
2342.450000000251
 31
0.0
  0
DIMENSION
  5
3FB
330
1F
100
AcDbEntity
  8
LAY-20
  6
CONTINUOUS
 62
     4
100
AcDbDimension
  2
*D18
 10
1877.049999999999
 20
1293.7500000002
 30
0.0
 11
1852.049999999999
 21
1848.7500000002
 31
0.0
 70
   160
  3
ISO-25
100
AcDbAlignedDimension
 13
2047.05
 23
2403.7500000002
 33
0.0
 14
2047.05
 24
1293.7500000002
 34
0.0
 50
90.0
100
AcDbRotatedDimension
1001
ACAD
1000
DSTYLE
1002
{
1070
   270
1070
     2
1070
     6
1000
EX_BNORM
1070
     7
1000
EX_BNORM
1070
    41
1040
25.0
1070
    42
1040
15.0
1070
    44
1040
15.0
1070
    73
1070
     0
1070
    74
1070
     0
1070
    75
1070
     0
1070
    76
1070
     0
1070
    77
1070
     1
1070
    78
1070
     8
1070
   140
1040
31.181104
1070
   147
1040
0.0
1070
   173
1070
     1
1070
   176
1070
     4
1070
   177
1070
     4
1070
   178
1070
     7
1070
   271
1070
     1
1070
   277
1070
     2
1070
   279
1070
     2
1070
   280
1070
     0
1070
   287
1070
     5
1070
   340
1005
D5
1002
}
  0
DIMENSION
  5
408
330
1F
100
AcDbEntity
  8
LAY-20
  6
CONTINUOUS
 62
     4
100
AcDbDimension
  2
*D19
 10
1947.05
 20
2387.750000000206
 30
0.0
 11
1922.05
 21
1848.750000000202
 31
0.0
 70
   160
  3
ISO-25
100
AcDbAlignedDimension
 13
2047.049999999997
 23
1309.750000000199
 33
0.0
 14
2047.049999999997
 24
2387.750000000206
 34
0.0
 50
90.0
100
AcDbRotatedDimension
1001
ACAD
1000
DSTYLE
1002
{
1070
   270
1070
     2
1070
     6
1000
EX_BNORM
1070
     7
1000
EX_BNORM
1070
    41
1040
25.0
1070
    42
1040
15.0
1070
    44
1040
15.0
1070
    73
1070
     0
1070
    74
1070
     0
1070
    75
1070
     0
1070
    76
1070
     0
1070
    77
1070
     1
1070
    78
1070
     8
1070
   140
1040
31.181104
1070
   147
1040
0.0
1070
   173
1070
     1
1070
   176
1070
     4
1070
   177
1070
     4
1070
   178
1070
     7
1070
   271
1070
     1
1070
   277
1070
     2
1070
   279
1070
     2
1070
   280
1070
     0
1070
   287
1070
     5
1070
   340
1005
D5
1002
}
  0
DIMENSION
  5
415
330
1F
100
AcDbEntity
  8
LAY-20
  6
CONTINUOUS
 62
     4
100
AcDbDimension
  2
*D20
 10
2247.049999999998
 20
2348.7500000002
 30
0.0
 11
2222.049999999998
 21
1848.7500000002
 31
0.0
 70
   160
  3
ISO-25
100
AcDbAlignedDimension
 13
2147.05
 23
1348.7500000002
 33
0.0
 14
2147.05
 24
2348.7500000002
 34
0.0
 50
90.0
100
AcDbRotatedDimension
1001
ACAD
1000
DSTYLE
1002
{
1070
   270
1070
     2
1070
     6
1000
EX_BNORM
1070
     7
1000
EX_BNORM
1070
    41
1040
25.0
1070
    42
1040
15.0
1070
    44
1040
15.0
1070
    73
1070
     0
1070
    74
1070
     0
1070
    75
1070
     0
1070
    76
1070
     0
1070
    77
1070
     1
1070
    78
1070
     8
1070
   140
1040
31.181104
1070
   147
1040
0.0
1070
   173
1070
     1
1070
   176
1070
     4
1070
   177
1070
     4
1070
   178
1070
     7
1070
   271
1070
     1
1070
   277
1070
     2
1070
   279
1070
     2
1070
   280
1070
     0
1070
   287
1070
     5
1070
   340
1005
D5
1002
}
  0
DIMENSION
  5
422
330
1F
100
AcDbEntity
  8
LAY-20
  6
CONTINUOUS
 62
     4
100
AcDbDimension
  2
*D21
 10
2317.05
 20
1302.5500000002
 30
0.0
 11
2292.05
 21
1848.7500000002
 31
0.0
 70
   160
  3
ISO-25
100
AcDbAlignedDimension
 13
2117.549999999999
 23
2394.9500000002
 33
0.0
 14
2117.549999999999
 24
1302.5500000002
 34
0.0
 50
90.0
100
AcDbRotatedDimension
1001
ACAD
1000
DSTYLE
1002
{
1070
   270
1070
     2
1070
     6
1000
EX_BNORM
1070
     7
1000
EX_BNORM
1070
    41
1040
25.0
1070
    42
1040
15.0
1070
    44
1040
15.0
1070
    73
1070
     0
1070
    74
1070
     0
1070
    75
1070
     0
1070
    76
1070
     0
1070
    77
1070
     1
1070
    78
1070
     0
1070
   140
1040
31.181104
1070
   147
1040
0.0
1070
   173
1070
     1
1070
   176
1070
     4
1070
   177
1070
     4
1070
   178
1070
     7
1070
   271
1070
     0
1070
   277
1070
     2
1070
   279
1070
     2
1070
   280
1070
     0
1070
   287
1070
     5
1070
   340
1005
D5
1002
}
  0
DIMENSION
  5
42F
330
1F
100
AcDbEntity
  8
LAY-20
  6
CONTINUOUS
 62
     4
100
AcDbDimension
  2
*D22
 10
1788.9484848098
 20
791.4999999991098
 30
0.0
 11
1763.948484809801
 21
841.4999999991051
 31
0.0
 70
   160
  3
ISO-25
100
AcDbAlignedDimension
 13
1660.050000000001
 23
891.4999999990999
 33
0.0
 14
1608.250000000011
 24
791.4999999991098
 34
0.0
 50
90.0
100
AcDbRotatedDimension
1001
ACAD
1000
DSTYLE
1002
{
1070
   270
1070
     2
1070
     6
1000
EX_BNORM
1070
     7
1000
EX_BNORM
1070
    41
1040
25.0
1070
    42
1040
15.0
1070
    44
1040
15.0
1070
    73
1070
     0
1070
    74
1070
     0
1070
    75
1070
     0
1070
    76
1070
     0
1070
    77
1070
     1
1070
    78
1070
     8
1070
   140
1040
31.181104
1070
   147
1040
0.0
1070
   173
1070
     1
1070
   176
1070
     4
1070
   177
1070
     4
1070
   178
1070
     7
1070
   271
1070
     1
1070
   277
1070
     2
1070
   279
1070
     2
1070
   280
1070
     0
1070
   287
1070
     5
1070
   340
1005
D5
1002
}
  0
DIMENSION
  5
43C
330
1F
100
AcDbEntity
  8
LAY-20
  6
CONTINUOUS
 62
     4
100
AcDbDimension
  2
*D23
 10
558.8500000000307
 20
621.4999999990998
 30
0.0
 11
1105.050000000015
 21
646.4999999990996
 31
0.0
 70
   160
  3
ISO-25
100
AcDbAlignedDimension
 13
1651.25
 23
820.5999999990997
 33
0.0
 14
558.8500000000307
 24
820.5999999990997
 34
0.0
100
AcDbRotatedDimension
1001
ACAD
1000
DSTYLE
1002
{
1070
   270
1070
     2
1070
     6
1000
EX_BNORM
1070
     7
1000
EX_BNORM
1070
    41
1040
25.0
1070
    42
1040
15.0
1070
    44
1040
15.0
1070
    73
1070
     0
1070
    74
1070
     0
1070
    75
1070
     0
1070
    76
1070
     0
1070
    77
1070
     1
1070
    78
1070
     0
1070
   140
1040
31.181104
1070
   147
1040
0.0
1070
   173
1070
     1
1070
   176
1070
     4
1070
   177
1070
     4
1070
   178
1070
     7
1070
   271
1070
     0
1070
   277
1070
     2
1070
   279
1070
     2
1070
   280
1070
     0
1070
   287
1070
     5
1070
   340
1005
D5
1002
}
  0
DIMENSION
  5
449
330
1F
100
AcDbEntity
  8
LAY-20
  6
CONTINUOUS
 62
     4
100
AcDbDimension
  2
*D24
 10
1358.5
 20
891.4999999990798
 30
0.0
 11
1333.500000000001
 21
936.4999999990795
 31
0.0
 70
   160
  3
ISO-25
100
AcDbAlignedDimension
 13
1358.5
 23
885.4999999990998
 33
0.0
 14
1358.5
 24
891.4999999990798
 34
0.0
 50
90.0
100
AcDbRotatedDimension
1001
ACAD
1000
DSTYLE
1002
{
1070
   270
1070
     2
1070
     6
1000
EX_BNORM
1070
     7
1000
EX_BNORM
1070
    41
1040
25.0
1070
    42
1040
0.0
1070
    44
1040
0.0
1070
    73
1070
     0
1070
    74
1070
     0
1070
    75
1070
     1
1070
    76
1070
     1
1070
    77
1070
     1
1070
    78
1070
     8
1070
   140
1040
31.181104
1070
   147
1040
0.0
1070
   173
1070
     1
1070
   176
1070
     4
1070
   177
1070
     4
1070
   178
1070
     7
1070
   271
1070
     1
1070
   277
1070
     2
1070
   279
1070
     2
1070
   280
1070
     2
1070
   287
1070
     5
1070
   340
1005
D5
1002
}
  0
LINE
  5
456
330
1F
100
AcDbEntity
  8
LAY-255
  6
CONTINUOUS
 62
     7
100
AcDbLine
 10
3850.0
 20
219.9999999999999
 30
0.0
 11
2850.0
 21
219.9999999999999
 31
0.0
  0
LINE
  5
457
330
1F
100
AcDbEntity
  8
LAY-255
  6
CONTINUOUS
 62
     7
100
AcDbLine
 10
2888.0
 20
160.0
 30
0.0
 11
2968.0
 21
210.0
 31
0.0
  0
LINE
  5
458
330
1F
100
AcDbEntity
  8
LAY-255
  6
CONTINUOUS
 62
     7
100
AcDbLine
 10
2968.0
 20
210.0
 30
0.0
 11
3048.0
 21
160.0
 31
0.0
  0
LINE
  5
459
330
1F
100
AcDbEntity
  8
LAY-255
  6
CONTINUOUS
 62
     7
100
AcDbLine
 10
3048.0
 20
160.0
 30
0.0
 11
2968.0
 21
110.0
 31
0.0
  0
LINE
  5
45A
330
1F
100
AcDbEntity
  8
LAY-255
  6
CONTINUOUS
 62
     7
100
AcDbLine
 10
2968.0
 20
110.0
 30
0.0
 11
2888.0
 21
160.0
 31
0.0
  0
LINE
  5
45B
330
1F
100
AcDbEntity
  8
LAY-255
  6
CONTINUOUS
 62
     7
100
AcDbLine
 10
50.0
 20
100.0
 30
0.0
 11
3850.0
 21
100.0
 31
0.0
  0
LINE
  5
45C
330
1F
100
AcDbEntity
  8
LAY-255
  6
CONTINUOUS
 62
     7
100
AcDbLine
 10
50.0
 20
2800.0
 30
0.0
 11
3850.0
 21
2800.0
 31
0.0
  0
LINE
  5
45D
330
1F
100
AcDbEntity
  8
LAY-255
  6
CONTINUOUS
 62
     7
100
AcDbLine
 10
50.0
 20
100.0
 30
0.0
 11
50.0
 21
2800.0
 31
0.0
  0
LINE
  5
45E
330
1F
100
AcDbEntity
  8
LAY-255
  6
CONTINUOUS
 62
     7
100
AcDbLine
 10
3850.0
 20
100.0
 30
0.0
 11
3850.0
 21
2800.0
 31
0.0
  0
LINE
  5
45F
330
1F
100
AcDbEntity
  8
LAY-255
  6
CONTINUOUS
 62
     4
100
AcDbLine
 10
2850.0
 20
279.9999999999999
 30
0.0
 11
3850.0
 21
279.9999999999999
 31
0.0
  0
LINE
  5
460
330
1F
100
AcDbEntity
  8
LAY-255
  6
CONTINUOUS
 62
     7
100
AcDbLine
 10
2850.0
 20
100.0
 30
0.0
 11
2850.0
 21
670.0
 31
0.0
  0
POINT
  5
461
330
1F
100
AcDbEntity
  8
LAY-255
  6
CONTINUOUS
 62
     7
100
AcDbPoint
 10
2890.0
 20
399.9999999999999
 30
0.0
  0
LINE
  5
462
330
1F
100
AcDbEntity
  8
LAY-255
  6
CONTINUOUS
 62
     4
100
AcDbLine
 10
3350.0
 20
279.9999999999999
 30
0.0
 11
3350.0
 21
220.0
 31
0.0
  0
LINE
  5
463
330
1F
100
AcDbEntity
  8
LAY-255
  6
CONTINUOUS
 62
     7
100
AcDbLine
 10
3850.0
 20
670.0
 30
0.0
 11
2850.0
 21
670.0
 31
0.0
  0
LINE
  5
464
330
1F
100
AcDbEntity
  8
LAY-255
  6
CONTINUOUS
 62
     4
100
AcDbLine
 10
3830.0
 20
549.9999999999999
 30
0.0
 11
2870.0
 21
549.9999999999999
 31
0.0
  0
LINE
  5
465
330
1F
100
AcDbEntity
  8
LAY-255
  6
CONTINUOUS
 62
     4
100
AcDbLine
 10
3830.0
 20
610.0
 30
0.0
 11
2870.0
 21
610.0
 31
0.0
  0
POINT
  5
466
330
1F
100
AcDbEntity
  8
LAY-255
  6
CONTINUOUS
 62
     7
100
AcDbPoint
 10
2890.0
 20
499.9999999999999
 30
0.0
  0
POINT
  5
467
330
1F
100
AcDbEntity
  8
LAY-255
  6
CONTINUOUS
 62
     7
100
AcDbPoint
 10
3000.0
 20
559.9999999999999
 30
0.0
  0
POINT
  5
468
330
1F
100
AcDbEntity
  8
LAY-255
  6
CONTINUOUS
 62
     7
100
AcDbPoint
 10
3000.0
 20
620.0
 30
0.0
  0
POINT
  5
469
330
1F
100
AcDbEntity
  8
LAY-255
  6
CONTINUOUS
 62
     7
100
AcDbPoint
 10
2890.0
 20
349.9999999999999
 30
0.0
  0
POINT
  5
46A
330
1F
100
AcDbEntity
  8
LAY-255
  6
CONTINUOUS
 62
     7
100
AcDbPoint
 10
2890.0
 20
449.9999999999999
 30
0.0
  0
POINT
  5
46B
330
1F
100
AcDbEntity
  8
LAY-255
  6
CONTINUOUS
 62
     7
100
AcDbPoint
 10
2890.0
 20
299.9999999999998
 30
0.0
  0
LINE
  5
46C
330
1F
100
AcDbEntity
  8
LAY-255
  6
CONTINUOUS
 62
     7
100
AcDbLine
 10
2160.099999999997
 20
99.99999999999773
 30
0.0
 11
50.0
 21
100.0000000000014
 31
0.0
  0
TEXT
  5
46D
330
1F
100
AcDbEntity
  8
LAY-255
  6
CONTINUOUS
 62
     7
100
AcDbText
 10
3081.3837890625
 20
155.4375
 30
0.0
 40
51.5625
  1
福西鋳物株式会社
 41
1.342691999659091
  7
EXCADSTD
100
AcDbText
  0
TEXT
  5
46E
330
1F
100
AcDbEntity
  8
LAY-255
  6
CONTINUOUS
 62
     7
100
AcDbText
 10
3085.09375
 20
119.8125
 30
0.0
 40
17.1875
  1
ＦＵＫＵＮＩＳＨＩ
 41
1.204799226045263
  7
EXCADSTD
100
AcDbText
  0
TEXT
  5
46F
330
1F
100
AcDbEntity
  8
LAY-255
  6
CONTINUOUS
 62
     7
100
AcDbText
 10
3327.191964285714
 20
119.8125
 30
0.0
 40
17.1875
  1
ＦＯＵＮＤＲＹ
 41
1.243252752978497
  7
EXCADSTD
100
AcDbText
  0
TEXT
  5
470
330
1F
100
AcDbEntity
  8
LAY-255
  6
CONTINUOUS
 62
     7
100
AcDbText
 10
3519.945914381009
 20
119.8125
 30
0.0
 40
17.1875
  1
ＣＯ.,ＬＴＤ.
 41
1.243831036226633
  7
EXCADSTD
100
AcDbText
  0
TEXT
  5
471
330
1F
100
AcDbEntity
  8
LAY-255
  6
CONTINUOUS
 62
     7
100
AcDbText
 10
2940.34375
 20
137.1875
 30
0.0
 40
51.5625
  1
S
 41
0.7582677563636363
  7
EXCADSTD
100
AcDbText
  0
TEXT
  5
472
330
1F
100
AcDbEntity
  8
LAY-255
  6
CONTINUOUS
 62
     7
100
AcDbText
 10
2971.046875
 20
137.4941037736
 30
0.0
 40
51.5625
  1
F
 41
0.7440945272727272
  7
EXCADSTD
100
AcDbText
  0
TEXT
  5
473
330
1F
100
AcDbEntity
  8
LAY-255
  6
CONTINUOUS
 62
     7
100
AcDbText
 10
3371.0546875
 20
244.2187499999999
 30
0.0
 40
25.78125
  1
縮尺
 41
1.080708718181818
  7
EXCADSTD
100
AcDbText
  0
TEXT
  5
474
330
1F
100
AcDbEntity
  8
LAY-255
  6
CONTINUOUS
 62
     7
100
AcDbText
 10
2872.65625
 20
565.6249999999999
 30
0.0
 40
34.375
  1
型式
 41
1.056348480681818
  7
EXCADSTD
100
AcDbText
  0
TEXT
  5
475
330
1F
100
AcDbEntity
  8
LAY-255
  6
CONTINUOUS
 62
     7
100
AcDbText
 10
2874.21875
 20
625.625
 30
0.0
 40
34.375
  1
品名
 41
0.9788386340909091
  7
EXCADSTD
100
AcDbText
  0
TEXT
  5
476
330
1F
100
AcDbEntity
  8
LAY-255
  6
CONTINUOUS
 62
     7
100
AcDbText
 10
2871.5234375
 20
244.2187499999999
 30
0.0
 40
25.78125
  1
作成日
 41
1.000629973818182
  7
EXCADSTD
100
AcDbText
  0
TEXT
  5
477
330
1F
100
AcDbEntity
  8
LAY-255
  6
CONTINUOUS
 62
     7
100
AcDbText
 10
3001.5625
 20
625.625
 30
0.0
 40
34.375
  1
縞鋼板製マシンハッチ
 41
1.016284949586777
  7
EXCADSTD
100
AcDbText
  0
TEXT
  5
478
330
1F
100
AcDbEntity
  8
LAY-255
  6
CONTINUOUS
 62
     7
100
AcDbText
 10
3482.8125
 20
235.6249999999999
 30
0.0
 40
34.375
  1
１：１０
 41
0.9243863385026738
  7
EXCADSTD
100
AcDbText
  0
TEXT
  5
479
330
1F
100
AcDbEntity
  8
LAY-255
  6
CONTINUOUS
 62
     7
100
AcDbText
 10
2891.40625
 20
505.6249999999999
 30
0.0
 40
34.375
  1
材質：スチール
 41
1.029301719225037
  7
EXCADSTD
100
AcDbText
  0
TEXT
  5
47A
330
1F
100
AcDbEntity
  8
LAY-255
  6
CONTINUOUS
 62
     7
100
AcDbText
 10
2893.75
 20
455.6249999999999
 30
0.0
 40
34.375
  1
受枠目地：ステンレス鋼
 41
1.012216953889409
  7
EXCADSTD
100
AcDbText
  0
TEXT
  5
47B
330
1F
100
AcDbEntity
  8
LAY-255
  6
CONTINUOUS
 62
     7
100
AcDbText
 10
3007.5
 20
565.6249999999999
 30
0.0
 40
34.375
  1
ＳＦ－１００ＣＭ－６型
 41
1.0041805868791
  7
EXCADSTD
100
AcDbText
  0
TEXT
  5
47C
330
1F
100
AcDbEntity
  8
LAY-255
  6
CONTINUOUS
 62
     7
100
AcDbText
 10
2892.03125
 20
405.6249999999999
 30
0.0
 40
34.375
  1
適用荷重：Ｔ－６
 41
1.000225024415584
  7
EXCADSTD
100
AcDbText
  0
TEXT
  5
47D
330
1F
100
AcDbEntity
  8
LAY-255
  6
CONTINUOUS
 62
     7
100
AcDbText
 10
3008.90625
 20
235.6249999999999
 30
0.0
 40
34.375
  1
０９／０３／１１
 41
0.9566929636363637
  7
EXCADSTD
100
AcDbText
  0
ENDSEC
  0
SECTION
  2
OBJECTS
  0
DICTIONARY
  5
C
330
0
100
AcDbDictionary
  3
ACAD_GROUP
350
D
  3
ACAD_LAYOUT
350
1A
  3
ACAD_MATERIAL
350
43
  3
ACAD_MLEADERSTYLE
350
6B
  3
ACAD_MLINESTYLE
350
17
  3
ACAD_PLOTSETTINGS
350
19
  3
ACAD_SCALELIST
350
47
  3
ACAD_VISUALSTYLE
350
2A
  3
ACDBHEADERROUNDTRIPXREC
350
47E
  3
ACDBVARIABLEDICTIONARY
350
49F
  0
DICTIONARY
  5
4AA
330
8
100
AcDbDictionary
280
     1
  3
ACAD_XREC_ROUNDTRIP
360
4AB
  0
DICTIONARY
  5
D
102
{ACAD_REACTORS
330
C
102
}
330
C
100
AcDbDictionary
  0
DICTIONARY
  5
1A
102
{ACAD_REACTORS
330
C
102
}
330
C
100
AcDbDictionary
  0
DICTIONARY
  5
43
102
{ACAD_REACTORS
330
C
102
}
330
C
100
AcDbDictionary
  3
BYBLOCK
350
45
  3
BYLAYER
350
44
  3
GLOBAL
350
46
  0
DICTIONARY
  5
6B
102
{ACAD_REACTORS
330
C
102
}
330
C
100
AcDbDictionary
  3
STANDARD
350
6C
  0
DICTIONARY
  5
17
102
{ACAD_REACTORS
330
C
102
}
330
C
100
AcDbDictionary
  3
STANDARD
350
18
  0
DICTIONARY
  5
19
102
{ACAD_REACTORS
330
C
102
}
330
C
100
AcDbDictionary
  0
DICTIONARY
  5
47
102
{ACAD_REACTORS
330
C
102
}
330
C
100
AcDbDictionary
  3
A0
350
48
  3
A1
350
49
  3
A2
350
4A
  3
A3
350
4B
  3
A4
350
4C
  3
A5
350
4D
  3
A6
350
4E
  3
A7
350
4F
  3
A8
350
50
  3
A9
350
51
  3
B0
350
52
  3
B1
350
53
  3
B2
350
54
  3
B3
350
55
  3
B4
350
56
  3
B5
350
57
  3
B6
350
58
  3
B7
350
59
  3
B8
350
5A
  3
B9
350
5B
  3
C0
350
5C
  3
C1
350
5D
  3
C2
350
5E
  3
C3
350
5F
  3
C4
350
60
  3
C5
350
61
  3
C6
350
62
  3
C7
350
63
  3
C8
350
64
  3
C9
350
65
  3
D0
350
66
  3
D1
350
67
  3
D2
350
68
  0
DICTIONARY
  5
2A
102
{ACAD_REACTORS
330
C
102
}
330
C
100
AcDbDictionary
  3
2DWIREFRAME
350
2F
  3
BASIC
350
32
  3
BRIGHTEN
350
36
  3
COLORCHANGE
350
3A
  3
CONCEPTUAL
350
34
  3
DIM
350
35
  3
EDGECOLOROFF
350
3D
  3
FACEPATTERN
350
39
  3
FLAT
350
2B
  3
FLATWITHEDGES
350
2C
  3
GOURAUD
350
2D
  3
GOURAUDWITHEDGES
350
2E
  3
HIDDEN
350
31
  3
JITTEROFF
350
3B
  3
LINEPATTERN
350
38
  3
OVERHANGOFF
350
3C
  3
REALISTIC
350
33
  3
SHADED
350
42
  3
SHADED_WITH_EDGES
350
41
  3
SHADES_OF_GRAY
350
3E
  3
SKETCHY
350
3F
  3
THICKEN
350
37
  3
WIREFRAME
350
30
  3
X-RAY
350
40
  0
DICTIONARY
  5
47E
102
{ACAD_REACTORS
330
C
102
}
330
C
100
AcDbDictionary
  3
CEPSNID
350
488
  3
CEPSNTYPE
350
487
  3
DIMSTYLEDATA
350
49E
  3
FINGERPRINTGUID
350
489
  3
HYPERLINKBASE
350
481
  3
INSUNITS
350
486
  3
LAYOUTDICT
350
483
  3
LWETCUNION
350
485
  3
PLOTSETDICT
350
484
  3
PSVPSCALE
350
48B
  3
PUCSBASE
350
48E
  3
PUCSORGBACK
350
494
  3
PUCSORGBOTTOM
350
490
  3
PUCSORGFRONT
350
493
  3
PUCSORGLEFT
350
491
  3
PUCSORGRIGHT
350
492
  3
PUCSORGTOP
350
48F
  3
PUCSORTHOREF
350
48C
  3
PUCSORTHOVIEW
350
48D
  3
STYLESHEET
350
482
  3
TSTACKALIGN
350
47F
  3
TSTACKSIZE
350
480
  3
UCSBASE
350
497
  3
UCSORGBACK
350
49D
  3
UCSORGBOTTOM
350
499
  3
UCSORGFRONT
350
49C
  3
UCSORGLEFT
350
49A
  3
UCSORGRIGHT
350
49B
  3
UCSORGTOP
350
498
  3
UCSORTHOREF
350
495
  3
UCSORTHOVIEW
350
496
  3
VERSIONGUID
350
48A
  0
DICTIONARY
  5
49F
102
{ACAD_REACTORS
330
C
102
}
330
C
100
AcDbDictionary
  3
CANNOSCALE
350
4AC
  3
CENTEREXE
350
4A6
  3
CENTERLTYPEFILE
350
4A7
  3
CMLEADERSTYLE
350
4A1
  3
CTABLESTYLE
350
4A0
  3
DIMASSOC
350
4A8
  3
HIDETEXT
350
4A9
  3
MSLTSCALE
350
4AD
  3
PSOLHEIGHT
350
4A3
  3
PSOLWIDTH
350
4A2
  0
XRECORD
  5
4AB
102
{ACAD_REACTORS
330
4AA
102
}
330
4AA
100
AcDbXrecord
102
VTR_0.000_0.000_1.000_1.000_VISUALSTYLE
340
2F
102
VTR_0.000_0.000_1.000_1.000_GRIDDISPLAY
 70
     3
102
VTR_0.000_0.000_1.000_1.000_GRIDMAJOR
 70
     5
102
VTR_0.000_0.000_1.000_1.000_DEFAULTLIGHTING
280
     1
102
VTR_0.000_0.000_1.000_1.000_DEFAULTLIGHTINGTYPE
 70
     1
102
VTR_0.000_0.000_1.000_1.000_BRIGHTNESS
141
0.0
102
VTR_0.000_0.000_1.000_1.000_CONTRAST
142
0.0
  0
MATERIAL
  5
45
102
{ACAD_REACTORS
330
43
102
}
102
{ACAD_XDICTIONARY
360
4B0
102
}
330
43
100
AcDbMaterial
  1
BYBLOCK
  0
MATERIAL
  5
44
102
{ACAD_REACTORS
330
43
102
}
102
{ACAD_XDICTIONARY
360
4AE
102
}
330
43
100
AcDbMaterial
  1
BYLAYER
  0
MATERIAL
  5
46
102
{ACAD_REACTORS
330
43
102
}
102
{ACAD_XDICTIONARY
360
4B2
102
}
330
43
100
AcDbMaterial
  1
GLOBAL
  0
ACAD_PROXY_OBJECT
  5
6C
102
{ACAD_REACTORS
330
6B
102
}
330
6B
100
AcDbProxyObject
 90
      499
 91
      505
 93
      610
310
40901902A4063FBFFFFFE0000000000000020400000000000020404214DD185B99185C990000000000000104090141901A00000000000004100000000000000041025764000000000000039000
340
14
340
0
340
11
340
0
 94
        0
1001
ACAD_MLEADERVER
1070
     2
  0
MLINESTYLE
  5
18
102
{ACAD_REACTORS
330
17
102
}
330
17
100
AcDbMlineStyle
  2
Standard
 70
     0
  3

 62
   256
 51
90.0
 52
90.0
 71
     2
 49
0.5
 62
   256
  6
BYLAYER
 49
-0.5
 62
   256
  6
BYLAYER
  0
ACAD_PROXY_OBJECT
  5
48
102
{ACAD_REACTORS
330
47
102
}
330
47
100
AcDbProxyObject
 90
      499
 91
      503
 93
       41
310
903313A31580
  0
ACAD_PROXY_OBJECT
  5
49
102
{ACAD_REACTORS
330
47
102
}
330
47
100
AcDbProxyObject
 90
      499
 91
      503
 93
      105
310
903313A324000000000000004000
  0
ACAD_PROXY_OBJECT
  5
4A
102
{ACAD_REACTORS
330
47
102
}
330
47
100
AcDbProxyObject
 90
      499
 91
      503
 93
      105
310
903313A344000000000000104000
  0
ACAD_PROXY_OBJECT
  5
4B
102
{ACAD_REACTORS
330
47
102
}
330
47
100
AcDbProxyObject
 90
      499
 91
      503
 93
      105
310
903313A354000000000000144000
  0
ACAD_PROXY_OBJECT
  5
4C
102
{ACAD_REACTORS
330
47
102
}
330
47
100
AcDbProxyObject
 90
      499
 91
      503
 93
      105
310
903313A384000000000000204000
  0
ACAD_PROXY_OBJECT
  5
4D
102
{ACAD_REACTORS
330
47
102
}
330
47
100
AcDbProxyObject
 90
      499
 91
      503
 93
      113
310
904313A31304000000000000244000
  0
ACAD_PROXY_OBJECT
  5
4E
102
{ACAD_REACTORS
330
47
102
}
330
47
100
AcDbProxyObject
 90
      499
 91
      503
 93
      113
310
904313A31364000000000000304000
  0
ACAD_PROXY_OBJECT
  5
4F
102
{ACAD_REACTORS
330
47
102
}
330
47
100
AcDbProxyObject
 90
      499
 91
      503
 93
      113
310
904313A32304000000000000344000
  0
ACAD_PROXY_OBJECT
  5
50
102
{ACAD_REACTORS
330
47
102
}
330
47
100
AcDbProxyObject
 90
      499
 91
      503
 93
      113
310
904313A333040000000000003E4000
  0
ACAD_PROXY_OBJECT
  5
51
102
{ACAD_REACTORS
330
47
102
}
330
47
100
AcDbProxyObject
 90
      499
 91
      503
 93
      113
310
904313A34304000000000000444000
  0
ACAD_PROXY_OBJECT
  5
52
102
{ACAD_REACTORS
330
47
102
}
330
47
100
AcDbProxyObject
 90
      499
 91
      503
 93
      113
310
904313A35304000000000000494000
  0
ACAD_PROXY_OBJECT
  5
53
102
{ACAD_REACTORS
330
47
102
}
330
47
100
AcDbProxyObject
 90
      499
 91
      503
 93
      121
310
905313A3130304000000000000594000
  0
ACAD_PROXY_OBJECT
  5
54
102
{ACAD_REACTORS
330
47
102
}
330
47
100
AcDbProxyObject
 90
      499
 91
      503
 93
      105
310
903323A310000000000000010100
  0
ACAD_PROXY_OBJECT
  5
55
102
{ACAD_REACTORS
330
47
102
}
330
47
100
AcDbProxyObject
 90
      499
 91
      503
 93
      105
310
903343A310000000000000410100
  0
ACAD_PROXY_OBJECT
  5
56
102
{ACAD_REACTORS
330
47
102
}
330
47
100
AcDbProxyObject
 90
      499
 91
      503
 93
      105
310
903383A310000000000000810100
  0
ACAD_PROXY_OBJECT
  5
57
102
{ACAD_REACTORS
330
47
102
}
330
47
100
AcDbProxyObject
 90
      499
 91
      503
 93
      113
310
90431303A310000000000000910100
  0
ACAD_PROXY_OBJECT
  5
58
102
{ACAD_REACTORS
330
47
102
}
330
47
100
AcDbProxyObject
 90
      499
 91
      503
 93
      121
310
9053130303A310000000000001650100
  0
ACAD_PROXY_OBJECT
  5
59
102
{ACAD_REACTORS
330
47
102
}
330
47
100
AcDbProxyObject
 90
      499
 91
      503
 93
      257
310
90E312F31323822203D2031272D3022000000000000200FC000000000000284000
  0
ACAD_PROXY_OBJECT
  5
5A
102
{ACAD_REACTORS
330
47
102
}
330
47
100
AcDbProxyObject
 90
      499
 91
      503
 93
      249
310
90D312F363422203D2031272D3022000000000000240FC000000000000284000
  0
ACAD_PROXY_OBJECT
  5
5B
102
{ACAD_REACTORS
330
47
102
}
330
47
100
AcDbProxyObject
 90
      499
 91
      503
 93
      249
310
90D312F333222203D2031272D3022000000000000280FC000000000000284000
  0
ACAD_PROXY_OBJECT
  5
5C
102
{ACAD_REACTORS
330
47
102
}
330
47
100
AcDbProxyObject
 90
      499
 91
      503
 93
      249
310
90D312F313622203D2031272D30220000000000002C0FC000000000000284000
  0
ACAD_PROXY_OBJECT
  5
5D
102
{ACAD_REACTORS
330
47
102
}
330
47
100
AcDbProxyObject
 90
      499
 91
      503
 93
      249
310
90D332F333222203D2031272D30220000000000002E0FC000000000000284000
  0
ACAD_PROXY_OBJECT
  5
5E
102
{ACAD_REACTORS
330
47
102
}
330
47
100
AcDbProxyObject
 90
      499
 91
      503
 93
      241
310
90C312F3822203D2031272D3022000000000000300FC000000000000284000
  0
ACAD_PROXY_OBJECT
  5
5F
102
{ACAD_REACTORS
330
47
102
}
330
47
100
AcDbProxyObject
 90
      499
 91
      503
 93
      249
310
90D332F313622203D2031272D3022000000000000320FC000000000000284000
  0
ACAD_PROXY_OBJECT
  5
60
102
{ACAD_REACTORS
330
47
102
}
330
47
100
AcDbProxyObject
 90
      499
 91
      503
 93
      241
310
90C312F3422203D2031272D3022000000000000340FC000000000000284000
  0
ACAD_PROXY_OBJECT
  5
61
102
{ACAD_REACTORS
330
47
102
}
330
47
100
AcDbProxyObject
 90
      499
 91
      503
 93
      241
310
90C332F3822203D2031272D3022000000000000360FC000000000000284000
  0
ACAD_PROXY_OBJECT
  5
62
102
{ACAD_REACTORS
330
47
102
}
330
47
100
AcDbProxyObject
 90
      499
 91
      503
 93
      241
310
90C312F3222203D2031272D3022000000000000380FC000000000000284000
  0
ACAD_PROXY_OBJECT
  5
63
102
{ACAD_REACTORS
330
47
102
}
330
47
100
AcDbProxyObject
 90
      499
 91
      503
 93
      241
310
90C332F3422203D2031272D30220000000000003A0FC000000000000284000
  0
ACAD_PROXY_OBJECT
  5
64
102
{ACAD_REACTORS
330
47
102
}
330
47
100
AcDbProxyObject
 90
      499
 91
      503
 93
      161
310
90A3122203D2031272D30224000000000000284000
  0
ACAD_PROXY_OBJECT
  5
65
102
{ACAD_REACTORS
330
47
102
}
330
47
100
AcDbProxyObject
 90
      499
 91
      503
 93
      257
310
90E312D312F3222203D2031272D30220000000000003E0FC000000000000284000
  0
ACAD_PROXY_OBJECT
  5
66
102
{ACAD_REACTORS
330
47
102
}
330
47
100
AcDbProxyObject
 90
      499
 91
      503
 93
      225
310
90A3322203D2031272D302200000000000002100000000000000284000
  0
ACAD_PROXY_OBJECT
  5
67
102
{ACAD_REACTORS
330
47
102
}
330
47
100
AcDbProxyObject
 90
      499
 91
      503
 93
      225
310
90A3622203D2031272D302200000000000006100000000000000284000
  0
ACAD_PROXY_OBJECT
  5
68
102
{ACAD_REACTORS
330
47
102
}
330
47
100
AcDbProxyObject
 90
      499
 91
      503
 93
      249
310
90D31272D3022203D2031272D30220000000000000A100000000000000284000
  0
ACAD_PROXY_OBJECT
  5
2F
102
{ACAD_REACTORS
330
2A
102
}
330
2A
100
AcDbProxyObject
 90
      499
 91
      501
 93
      436
310
42CC9915DA5C99599C985B595049028333333333333E33F0000000000000F90107901411070040501600405405064090741402480A0340
1001
ACAD
1000
AcDbSavedByObjectVersion
1070
     0
  0
ACAD_PROXY_OBJECT
  5
32
102
{ACAD_REACTORS
330
2A
102
}
330
2A
100
AcDbProxyObject
 90
      499
 91
      501
 93
      388
310
4150985CDA58D07406404333333333333E33F0000000000000F90107A41107004050150841D405064090741402480A0350
1001
ACAD
1000
AcDbSavedByObjectVersion
1070
     0
  0
ACAD_PROXY_OBJECT
  5
36
102
{ACAD_REACTORS
330
2A
102
}
330
2A
100
AcDbProxyObject
 90
      499
 91
      501
 93
      428
310
42109C9A59DA1D195B90C409028333333333333E33F0000000000000F9010790141107004050150841D405064090741402480A029950
1001
ACAD
1000
AcDbSavedByObjectVersion
1070
     0
  0
ACAD_PROXY_OBJECT
  5
3A
102
{ACAD_REACTORS
330
2A
102
}
330
2A
100
AcDbProxyObject
 90
      499
 91
      501
 93
      452
310
42D0DBDB1BDC90DA185B99D95104090240C333333333333E33F0000000000000F90108901411070040501508421405064090741402480A0350
1001
ACAD
1000
AcDbSavedByObjectVersion
1070
     0
  0
ACAD_PROXY_OBJECT
  5
34
102
{ACAD_REACTORS
330
2A
102
}
330
2A
100
AcDbProxyObject
 90
      499
 91
      501
 93
      500
310
4290DBDB98D95C1D1D585B10940D028333333333333E33F0000000000000F90107902409070040501000000000018199010841D405064090740C02480A0340
1001
ACAD
1000
AcDbSavedByObjectVersion
1070
     0
  0
ACAD_PROXY_OBJECT
  5
35
102
{ACAD_REACTORS
330
2A
102
}
330
2A
100
AcDbProxyObject
 90
      499
 91
      501
 93
      412
310
40D11A5B50B409028333333333333E33F0000000000000F9010790141107004050150841D405064090741402480A02677FFFFFD0
1001
ACAD
1000
AcDbSavedByObjectVersion
1070
     0
  0
ACAD_PROXY_OBJECT
  5
3D
102
{ACAD_REACTORS
330
2A
102
}
330
2A
100
AcDbProxyObject
 90
      499
 91
      501
 93
      452
310
43115919D950DBDB1BDC93D999916409028333333333333E33F0000000000000F9010790141107004050150841D405064090741402480A0350
1001
ACAD
1000
AcDbSavedByObjectVersion
1070
     0
  0
ACAD_PROXY_OBJECT
  5
39
102
{ACAD_REACTORS
330
2A
102
}
330
2A
100
AcDbProxyObject
 90
      499
 91
      501
 93
      444
310
42D19858D95C185D1D195C9B90F409028333333333333E33F0000000000000F9010790141107004050150841D405064090741402480A0350
1001
ACAD
1000
AcDbSavedByObjectVersion
1070
     0
  0
ACAD_PROXY_OBJECT
  5
2B
102
{ACAD_REACTORS
330
2A
102
}
330
2A
100
AcDbProxyObject
 90
      499
 91
      501
 93
      380
310
41119B185D240901404333333333333E33F0000000000000F9010740A907004050150841D405064090741402480A1B50
1001
ACAD
1000
AcDbSavedByObjectVersion
1070
     0
  0
ACAD_PROXY_OBJECT
  5
2C
102
{ACAD_REACTORS
330
2A
102
}
330
2A
100
AcDbProxyObject
 90
      499
 91
      501
 93
      468
310
43519B185D15DA5D1A115919D95CD0140901404333333333333E33F0000000000000F90107409019070040501600405405064090741402480A1B50
1001
ACAD
1000
AcDbSavedByObjectVersion
1070
     0
  0
ACAD_PROXY_OBJECT
  5
2D
102
{ACAD_REACTORS
330
2A
102
}
330
2A
100
AcDbProxyObject
 90
      499
 91
      501
 93
      404
310
41D1DBDD5C985D5910240902404333333333333E33F0000000000000F9010740A9070040501641D405064090741402480A1B50
1001
ACAD
1000
AcDbSavedByObjectVersion
1070
     0
  0
ACAD_PROXY_OBJECT
  5
2E
102
{ACAD_REACTORS
330
2A
102
}
330
2A
100
AcDbProxyObject
 90
      499
 91
      501
 93
      492
310
4411DBDD5C985D5915DA5D1A115919D95CD0340902404333333333333E33F0000000000000F90107409019070040501600405405064090741402480A1B50
1001
ACAD
1000
AcDbSavedByObjectVersion
1070
     0
  0
ACAD_PROXY_OBJECT
  5
31
102
{ACAD_REACTORS
330
2A
102
}
330
2A
100
AcDbProxyObject
 90
      499
 91
      501
 93
      476
310
41921A5919195B90640502408333333333333E33F0000000000000F901079024090700405020000000000001110200405405064090740C02480A0340
1001
ACAD
1000
AcDbSavedByObjectVersion
1070
     0
  0
ACAD_PROXY_OBJECT
  5
3B
102
{ACAD_REACTORS
330
2A
102
}
330
2A
100
AcDbProxyObject
 90
      499
 91
      501
 93
      428
310
42529A5D1D195C93D999914409028333333333333E33F0000000000000F9010790141107004050150A41D405064090741402480A0350
1001
ACAD
1000
AcDbSavedByObjectVersion
1070
     0
  0
ACAD_PROXY_OBJECT
  5
38
102
{ACAD_REACTORS
330
2A
102
}
330
2A
100
AcDbProxyObject
 90
      499
 91
      501
 93
      444
310
42D31A5B995C185D1D195C9B90E409028333333333333E33F0000000000000F9010790141107004050750841D405064090741402483A0350
1001
ACAD
1000
AcDbSavedByObjectVersion
1070
     0
  0
ACAD_PROXY_OBJECT
  5
3C
102
{ACAD_REACTORS
330
2A
102
}
330
2A
100
AcDbProxyObject
 90
      499
 91
      501
 93
      444
310
42D3DD995C9A185B99D3D999915409028333333333333E33F0000000000000F9010790141107004050150941D405064090741402480A0350
1001
ACAD
1000
AcDbSavedByObjectVersion
1070
     0
  0
ACAD_PROXY_OBJECT
  5
33
102
{ACAD_REACTORS
330
2A
102
}
330
2A
100
AcDbProxyObject
 90
      499
 91
      501
 93
      428
310
425499585B1A5CDD1A58D08409038333333333333E33F0000000000000F9010740A907004050150800405405064090740C02480A1B40
1001
ACAD
1000
AcDbSavedByObjectVersion
1070
     0
  0
ACAD_PROXY_OBJECT
  5
42
102
{ACAD_REACTORS
330
2A
102
}
330
2A
100
AcDbProxyObject
 90
      499
 91
      501
 93
      420
310
4194DA1859195911B40902404333333333333E33F0000000000000F9010740A41107004050150800405405064090840C02480A0B40
1001
ACAD
1000
AcDbSavedByObjectVersion
1070
     0
  0
ACAD_PROXY_OBJECT
  5
41
102
{ACAD_REACTORS
330
2A
102
}
330
2A
100
AcDbProxyObject
 90
      499
 91
      501
 93
      516
310
4454DA18591959081DDA5D1A08195919D95CD1A40902404333333333333E33F0000000000000F901074090142907004050250800405405064090740C02480A0B40
1001
ACAD
1000
AcDbSavedByObjectVersion
1070
     0
  0
ACAD_PROXY_OBJECT
  5
3E
102
{ACAD_REACTORS
330
2A
102
}
330
2A
100
AcDbProxyObject
 90
      499
 91
      501
 93
      532
310
4394DA1859195CC81BD98811DC985E5174090240C333333333333E33F0000000000000F901079024090741D01000000000000111010841D405064090740C02480A0340
1001
ACAD
1000
AcDbSavedByObjectVersion
1070
     0
  0
ACAD_PROXY_OBJECT
  5
3F
102
{ACAD_REACTORS
330
2A
102
}
330
2A
100
AcDbProxyObject
 90
      499
 91
      501
 93
      476
310
41D4DAD95D18DA1E51840502408333333333333E33F0000000000000F901079024090741D01000000000000111010B41D405064090741802480A0340
1001
ACAD
1000
AcDbSavedByObjectVersion
1070
     0
  0
ACAD_PROXY_OBJECT
  5
37
102
{ACAD_REACTORS
330
2A
102
}
330
2A
100
AcDbProxyObject
 90
      499
 91
      501
 93
      412
310
41D51A1A58DAD95B90D409028333333333333E33F0000000000000F9010790141107004050150C41D405064090741402480A0350
1001
ACAD
1000
AcDbSavedByObjectVersion
1070
     0
  0
ACAD_PROXY_OBJECT
  5
30
102
{ACAD_REACTORS
330
2A
102
}
330
2A
100
AcDbProxyObject
 90
      499
 91
      501
 93
      420
310
4255DA5C99599C985B595059028333333333333E33F0000000000000F90107901411070040501600405405064090740C02480A0340
1001
ACAD
1000
AcDbSavedByObjectVersion
1070
     0
  0
ACAD_PROXY_OBJECT
  5
40
102
{ACAD_REACTORS
330
2A
102
}
330
2A
100
AcDbProxyObject
 90
      499
 91
      501
 93
      404
310
41560B54985E51940902404000000000000E03F0000000000000F9010740501907004050150841D405064090740C02480A1B40
1001
ACAD
1000
AcDbSavedByObjectVersion
1070
     0
  0
XRECORD
  5
488
102
{ACAD_REACTORS
330
47E
102
}
330
47E
100
AcDbXrecord
340
0
  0
XRECORD
  5
487
102
{ACAD_REACTORS
330
47E
102
}
330
47E
100
AcDbXrecord
 90
        0
  0
XRECORD
  5
49E
102
{ACAD_REACTORS
330
47E
102
}
330
47E
100
AcDbXrecord
1000
DSTYLE
1002
{
1070
   340
340
11
1002
}
  0
XRECORD
  5
489
102
{ACAD_REACTORS
330
47E
102
}
330
47E
100
AcDbXrecord
  1
{1e600791-c131-4a3b-b308-9bec6866a870}
  0
XRECORD
  5
481
102
{ACAD_REACTORS
330
47E
102
}
330
47E
100
AcDbXrecord
  1

  0
XRECORD
  5
486
102
{ACAD_REACTORS
330
47E
102
}
330
47E
100
AcDbXrecord
 90
        4
  0
XRECORD
  5
483
102
{ACAD_REACTORS
330
47E
102
}
330
47E
100
AcDbXrecord
340
1A
  0
XRECORD
  5
485
102
{ACAD_REACTORS
330
47E
102
}
330
47E
100
AcDbXrecord
 90
    10781
  0
XRECORD
  5
484
102
{ACAD_REACTORS
330
47E
102
}
330
47E
100
AcDbXrecord
340
19
  0
XRECORD
  5
48B
102
{ACAD_REACTORS
330
47E
102
}
330
47E
100
AcDbXrecord
 40
0.0
  0
XRECORD
  5
48E
102
{ACAD_REACTORS
330
47E
102
}
330
47E
100
AcDbXrecord
340
0
  0
XRECORD
  5
494
102
{ACAD_REACTORS
330
47E
102
}
330
47E
100
AcDbXrecord
 10
0.0
 20
0.0
 30
0.0
  0
XRECORD
  5
490
102
{ACAD_REACTORS
330
47E
102
}
330
47E
100
AcDbXrecord
 10
0.0
 20
0.0
 30
0.0
  0
XRECORD
  5
493
102
{ACAD_REACTORS
330
47E
102
}
330
47E
100
AcDbXrecord
 10
0.0
 20
0.0
 30
0.0
  0
XRECORD
  5
491
102
{ACAD_REACTORS
330
47E
102
}
330
47E
100
AcDbXrecord
 10
0.0
 20
0.0
 30
0.0
  0
XRECORD
  5
492
102
{ACAD_REACTORS
330
47E
102
}
330
47E
100
AcDbXrecord
 10
0.0
 20
0.0
 30
0.0
  0
XRECORD
  5
48F
102
{ACAD_REACTORS
330
47E
102
}
330
47E
100
AcDbXrecord
 10
0.0
 20
0.0
 30
0.0
  0
XRECORD
  5
48C
102
{ACAD_REACTORS
330
47E
102
}
330
47E
100
AcDbXrecord
340
0
  0
XRECORD
  5
48D
102
{ACAD_REACTORS
330
47E
102
}
330
47E
100
AcDbXrecord
 70
     0
  0
XRECORD
  5
482
102
{ACAD_REACTORS
330
47E
102
}
330
47E
100
AcDbXrecord
  1

  0
XRECORD
  5
47F
102
{ACAD_REACTORS
330
47E
102
}
330
47E
100
AcDbXrecord
 90
        1
  0
XRECORD
  5
480
102
{ACAD_REACTORS
330
47E
102
}
330
47E
100
AcDbXrecord
 90
       70
  0
XRECORD
  5
497
102
{ACAD_REACTORS
330
47E
102
}
330
47E
100
AcDbXrecord
340
0
  0
XRECORD
  5
49D
102
{ACAD_REACTORS
330
47E
102
}
330
47E
100
AcDbXrecord
 10
0.0
 20
0.0
 30
0.0
  0
XRECORD
  5
499
102
{ACAD_REACTORS
330
47E
102
}
330
47E
100
AcDbXrecord
 10
0.0
 20
0.0
 30
0.0
  0
XRECORD
  5
49C
102
{ACAD_REACTORS
330
47E
102
}
330
47E
100
AcDbXrecord
 10
0.0
 20
0.0
 30
0.0
  0
XRECORD
  5
49A
102
{ACAD_REACTORS
330
47E
102
}
330
47E
100
AcDbXrecord
 10
0.0
 20
0.0
 30
0.0
  0
XRECORD
  5
49B
102
{ACAD_REACTORS
330
47E
102
}
330
47E
100
AcDbXrecord
 10
0.0
 20
0.0
 30
0.0
  0
XRECORD
  5
498
102
{ACAD_REACTORS
330
47E
102
}
330
47E
100
AcDbXrecord
 10
0.0
 20
0.0
 30
0.0
  0
XRECORD
  5
495
102
{ACAD_REACTORS
330
47E
102
}
330
47E
100
AcDbXrecord
340
0
  0
XRECORD
  5
496
102
{ACAD_REACTORS
330
47E
102
}
330
47E
100
AcDbXrecord
 70
     0
  0
XRECORD
  5
48A
102
{ACAD_REACTORS
330
47E
102
}
330
47E
100
AcDbXrecord
  1
{FAEB1C32-E019-11D5-929B-00C0DF256EC4}
  0
DICTIONARYVAR
  5
4AC
102
{ACAD_REACTORS
330
49F
102
}
330
49F
100
DictionaryVariables
280
     0
  1
1:1
  0
DICTIONARYVAR
  5
4A6
102
{ACAD_REACTORS
330
49F
102
}
330
49F
100
DictionaryVariables
280
     0
  1
3.500000
  0
DICTIONARYVAR
  5
4A7
102
{ACAD_REACTORS
330
49F
102
}
330
49F
100
DictionaryVariables
280
     0
  1
acadiso.lin
  0
DICTIONARYVAR
  5
4A1
102
{ACAD_REACTORS
330
49F
102
}
330
49F
100
DictionaryVariables
280
     0
  1
Standard
  0
DICTIONARYVAR
  5
4A0
102
{ACAD_REACTORS
330
49F
102
}
330
49F
100
DictionaryVariables
280
     0
  1
Standard
  0
DICTIONARYVAR
  5
4A8
102
{ACAD_REACTORS
330
49F
102
}
330
49F
100
DictionaryVariables
280
     0
  1
2
  0
DICTIONARYVAR
  5
4A9
102
{ACAD_REACTORS
330
49F
102
}
330
49F
100
DictionaryVariables
280
     0
  1
1
  0
DICTIONARYVAR
  5
4AD
102
{ACAD_REACTORS
330
49F
102
}
330
49F
100
DictionaryVariables
280
     0
  1
1
  0
DICTIONARYVAR
  5
4A3
102
{ACAD_REACTORS
330
49F
102
}
330
49F
100
DictionaryVariables
280
     0
  1
80.000000
  0
DICTIONARYVAR
  5
4A2
102
{ACAD_REACTORS
330
49F
102
}
330
49F
100
DictionaryVariables
280
     0
  1
5.000000
  0
DICTIONARY
  5
4B0
330
45
100
AcDbDictionary
280
     1
  3
ACAD_XREC_ROUNDTRIP
360
4B1
  0
DICTIONARY
  5
4AE
330
44
100
AcDbDictionary
280
     1
  3
ACAD_XREC_ROUNDTRIP
360
4AF
  0
DICTIONARY
  5
4B2
330
46
100
AcDbDictionary
280
     1
  3
ACAD_XREC_ROUNDTRIP
360
4B3
  0
XRECORD
  5
4B1
102
{ACAD_REACTORS
330
4B0
102
}
330
4B0
100
AcDbXrecord
102
MATERIAL
148
0.0
149
0.0
149
0.0
 93
        0
 94
      127
282
     0
 72
     1
 77
     1
171
     1
175
     1
179
     1
273
     0
  0
XRECORD
  5
4AF
102
{ACAD_REACTORS
330
4AE
102
}
330
4AE
100
AcDbXrecord
102
MATERIAL
148
0.0
149
0.0
149
0.0
 93
        0
 94
      127
282
     0
 72
     1
 77
     1
171
     1
175
     1
179
     1
273
     0
  0
XRECORD
  5
4B3
102
{ACAD_REACTORS
330
4B2
102
}
330
4B2
100
AcDbXrecord
102
MATERIAL
148
0.0
149
0.0
149
0.0
 93
        0
 94
      127
282
     0
 72
     1
 77
     1
171
     1
175
     1
179
     1
273
     0
  0
ENDSEC
  0
EOF
