  0
SECTION
  2
HEADER
  9
$ACADVER
  1
AC1014
  9
$ACADMAINTVER
 70
     9
  9
$DWGCODEPAGE
  3
ANSI_932
  9
$INSBASE
 10
0.0
 20
0.0
 30
0.0
  9
$EXTMIN
 10
50.0
 20
100.0
 30
0.0
  9
$EXTMAX
 10
3850.0
 20
2800.0
 30
0.0
  9
$LIMMIN
 10
0.0
 20
0.0
  9
$LIMMAX
 10
420.0
 20
297.0
  9
$ORTHOMODE
 70
     0
  9
$REGENMODE
 70
     1
  9
$FILLMODE
 70
     1
  9
$QTEXTMODE
 70
     0
  9
$MIRRTEXT
 70
     1
  9
$DRAGMODE
 70
     2
  9
$LTSCALE
 40
0.2
  9
$OSMODE
 70
    37
  9
$ATTMODE
 70
     1
  9
$TEXTSIZE
 40
2.5
  9
$TRACEWID
 40
1.0
  9
$TEXTSTYLE
  7
STANDARD
  9
$CLAYER
  8
LAY-10
  9
$CELTYPE
  6
BYLAYER
  9
$CECOLOR
 62
   256
  9
$CELTSCALE
 40
1.0
  9
$DELOBJ
 70
     1
  9
$DISPSILH
 70
     0
  9
$DIMSCALE
 40
1.0
  9
$DIMASZ
 40
2.5
  9
$DIMEXO
 40
0.625
  9
$DIMDLI
 40
3.75
  9
$DIMRND
 40
0.0
  9
$DIMDLE
 40
0.0
  9
$DIMEXE
 40
1.25
  9
$DIMTP
 40
0.0
  9
$DIMTM
 40
0.0
  9
$DIMTXT
 40
2.5
  9
$DIMCEN
 40
2.5
  9
$DIMTSZ
 40
0.0
  9
$DIMTOL
 70
     0
  9
$DIMLIM
 70
     0
  9
$DIMTIH
 70
     0
  9
$DIMTOH
 70
     0
  9
$DIMSE1
 70
     0
  9
$DIMSE2
 70
     0
  9
$DIMTAD
 70
     1
  9
$DIMZIN
 70
     8
  9
$DIMBLK
  1

  9
$DIMASO
 70
     1
  9
$DIMSHO
 70
     1
  9
$DIMPOST
  1

  9
$DIMAPOST
  1

  9
$DIMALT
 70
     0
  9
$DIMALTD
 70
     3
  9
$DIMALTF
 40
0.03937007874016
  9
$DIMLFAC
 40
1.0
  9
$DIMTOFL
 70
     1
  9
$DIMTVP
 40
0.0
  9
$DIMTIX
 70
     0
  9
$DIMSOXD
 70
     0
  9
$DIMSAH
 70
     0
  9
$DIMBLK1
  1

  9
$DIMBLK2
  1

  9
$DIMSTYLE
  2
ISO-25
  9
$DIMCLRD
 70
     0
  9
$DIMCLRE
 70
     0
  9
$DIMCLRT
 70
     0
  9
$DIMTFAC
 40
1.0
  9
$DIMGAP
 40
0.625
  9
$DIMJUST
 70
     0
  9
$DIMSD1
 70
     0
  9
$DIMSD2
 70
     0
  9
$DIMTOLJ
 70
     0
  9
$DIMTZIN
 70
     8
  9
$DIMALTZ
 70
     0
  9
$DIMALTTZ
 70
     0
  9
$DIMFIT
 70
     3
  9
$DIMUPT
 70
     0
  9
$DIMUNIT
 70
     2
  9
$DIMDEC
 70
     2
  9
$DIMTDEC
 70
     2
  9
$DIMALTU
 70
     2
  9
$DIMALTTD
 70
     3
  9
$DIMTXSTY
  7
STANDARD
  9
$DIMAUNIT
 70
     0
  9
$LUNITS
 70
     2
  9
$LUPREC
 70
     4
  9
$SKETCHINC
 40
1.0
  9
$FILLETRAD
 40
10.0
  9
$AUNITS
 70
     0
  9
$AUPREC
 70
     0
  9
$MENU
  1
.
  9
$ELEVATION
 40
0.0
  9
$PELEVATION
 40
0.0
  9
$THICKNESS
 40
0.0
  9
$LIMCHECK
 70
     0
  9
$CHAMFERA
 40
0.0
  9
$CHAMFERB
 40
0.0
  9
$CHAMFERC
 40
0.0
  9
$CHAMFERD
 40
0.0
  9
$SKPOLY
 70
     0
  9
$TDCREATE
 40
2459229.333691238
  9
$TDUPDATE
 40
2459229.333692616
  9
$TDINDWG
 40
0.0000000116
  9
$TDUSRTIMER
 40
0.0000000116
  9
$USRTIMER
 70
     1
  9
$ANGBASE
 50
0.0
  9
$ANGDIR
 70
     0
  9
$PDMODE
 70
     0
  9
$PDSIZE
 40
0.0
  9
$PLINEWID
 40
0.0
  9
$COORDS
 70
     1
  9
$SPLFRAME
 70
     0
  9
$SPLINETYPE
 70
     6
  9
$SPLINESEGS
 70
     8
  9
$ATTDIA
 70
     0
  9
$ATTREQ
 70
     1
  9
$HANDLING
 70
     1
  9
$HANDSEED
  5
60B
  9
$SURFTAB1
 70
     6
  9
$SURFTAB2
 70
     6
  9
$SURFTYPE
 70
     6
  9
$SURFU
 70
     6
  9
$SURFV
 70
     6
  9
$UCSNAME
  2

  9
$UCSORG
 10
0.0
 20
0.0
 30
0.0
  9
$UCSXDIR
 10
1.0
 20
0.0
 30
0.0
  9
$UCSYDIR
 10
0.0
 20
1.0
 30
0.0
  9
$PUCSNAME
  2

  9
$PUCSORG
 10
0.0
 20
0.0
 30
0.0
  9
$PUCSXDIR
 10
1.0
 20
0.0
 30
0.0
  9
$PUCSYDIR
 10
0.0
 20
1.0
 30
0.0
  9
$USERI1
 70
     0
  9
$USERI2
 70
     0
  9
$USERI3
 70
     0
  9
$USERI4
 70
     0
  9
$USERI5
 70
     0
  9
$USERR1
 40
0.0
  9
$USERR2
 40
0.0
  9
$USERR3
 40
0.0
  9
$USERR4
 40
0.0
  9
$USERR5
 40
0.0
  9
$WORLDVIEW
 70
     1
  9
$SHADEDGE
 70
     3
  9
$SHADEDIF
 70
    70
  9
$TILEMODE
 70
     1
  9
$MAXACTVP
 70
    64
  9
$PINSBASE
 10
0.0
 20
0.0
 30
0.0
  9
$PLIMCHECK
 70
     0
  9
$PEXTMIN
 10
1.000000000000000E+20
 20
1.000000000000000E+20
 30
1.000000000000000E+20
  9
$PEXTMAX
 10
-1.000000000000000E+20
 20
-1.000000000000000E+20
 30
-1.000000000000000E+20
  9
$PLIMMIN
 10
0.0
 20
0.0
  9
$PLIMMAX
 10
420.0
 20
297.0
  9
$UNITMODE
 70
     0
  9
$VISRETAIN
 70
     1
  9
$PLINEGEN
 70
     0
  9
$PSLTSCALE
 70
     1
  9
$TREEDEPTH
 70
  3020
  9
$PICKSTYLE
 70
     1
  9
$CMLSTYLE
  2
STANDARD
  9
$CMLJUST
 70
     0
  9
$CMLSCALE
 40
20.0
  9
$PROXYGRAPHICS
 70
     1
  9
$MEASUREMENT
 70
     1
  0
ENDSEC
  0
SECTION
  2
CLASSES
  0
CLASS
  1
ACDBDICTIONARYWDFLT
  2
AcDbDictionaryWithDefault
  3
ObjectDBX Classes
 90
        0
280
     0
281
     0
  0
CLASS
  1
VISUALSTYLE
  2
AcDbVisualStyle
  3
ObjectDBX Classes
 90
     4095
280
     0
281
     0
  0
CLASS
  1
MATERIAL
  2
AcDbMaterial
  3
ObjectDBX Classes
 90
     1153
280
     0
281
     0
  0
CLASS
  1
SCALE
  2
AcDbScale
  3
ObjectDBX Classes
 90
     1153
280
     0
281
     0
  0
CLASS
  1
TABLESTYLE
  2
AcDbTableStyle
  3
ObjectDBX Classes
 90
     4095
280
     0
281
     0
  0
CLASS
  1
MLEADERSTYLE
  2
AcDbMLeaderStyle
  3
ACDB_MLEADERSTYLE_CLASS
 90
     4095
280
     0
281
     0
  0
CLASS
  1
SUN
  2
AcDbSun
  3
SCENEOE
 90
     1153
280
     0
281
     0
  0
CLASS
  1
DICTIONARYVAR
  2
AcDbDictionaryVar
  3
ObjectDBX Classes
 90
        0
280
     0
281
     0
  0
CLASS
  1
XRECORD
  2
AcDbXrecord
  3
ObjectDBX Classes
 90
        0
280
     0
281
     0
  0
CLASS
  1
LWPOLYLINE
  2
AcDbPolyline
  3
ObjectDBX Classes
 90
        0
280
     0
281
     1
  0
CLASS
  1
HATCH
  2
AcDbHatch
  3
ObjectDBX Classes
 90
        0
280
     0
281
     1
  0
CLASS
  1
ACDBPLACEHOLDER
  2
AcDbPlaceHolder
  3
ObjectDBX Classes
 90
        0
280
     0
281
     0
  0
CLASS
  1
LAYOUT
  2
AcDbLayout
  3
ObjectDBX Classes
 90
        0
280
     0
281
     0
  0
ENDSEC
  0
SECTION
  2
TABLES
  0
TABLE
  2
VPORT
  5
8
102
{ACAD_XDICTIONARY
360
600
102
}
330
0
100
AcDbSymbolTable
 70
     1
  0
VPORT
  5
29
330
8
100
AcDbSymbolTableRecord
100
AcDbViewportTableRecord
  2
*ACTIVE
 70
     0
 10
0.0
 20
0.0
 11
1.0
 21
1.0
 12
1950.0
 22
1450.0
 13
0.0
 23
0.0
 14
10.0
 24
10.0
 15
10.0
 25
10.0
 16
0.0
 26
0.0
 36
1.0
 17
0.0
 27
0.0
 37
0.0
 40
2700.0
 41
1.407407407407408
 42
50.0
 43
0.0
 44
0.0
 50
0.0
 51
0.0
 71
     0
 72
  1000
 73
     1
 74
     3
 75
     0
 76
     0
 77
     0
 78
     0
  0
ENDTAB
  0
TABLE
  2
LTYPE
  5
5
330
0
100
AcDbSymbolTable
 70
     6
  0
LTYPE
  5
14
330
5
100
AcDbSymbolTableRecord
100
AcDbLinetypeTableRecord
  2
BYBLOCK
 70
     0
  3

 72
    65
 73
     0
 40
0.0
  0
LTYPE
  5
15
330
5
100
AcDbSymbolTableRecord
100
AcDbLinetypeTableRecord
  2
BYLAYER
 70
     0
  3

 72
    65
 73
     0
 40
0.0
  0
LTYPE
  5
16
330
5
100
AcDbSymbolTableRecord
100
AcDbLinetypeTableRecord
  2
CONTINUOUS
 70
     0
  3
Solid line
 72
    65
 73
     0
 40
0.0
  0
LTYPE
  5
6E
330
5
100
AcDbSymbolTableRecord
100
AcDbLinetypeTableRecord
  2
HIDDEN
 70
     0
  3
Hidden __ __ __ __ __ __ __ __ __ __ __ __ __ __
 72
    65
 73
     2
 40
9.524999999999999
 49
6.35
 74
     0
 49
-3.175
 74
     0
  0
LTYPE
  5
6F
330
5
100
AcDbSymbolTableRecord
100
AcDbLinetypeTableRecord
  2
CENTER
 70
     0
  3
Center ____ _ ____ _ ____ _ ____ _ ____ _ ____
 72
    65
 73
     4
 40
50.8
 49
31.75
 74
     0
 49
-6.35
 74
     0
 49
6.35
 74
     0
 49
-6.35
 74
     0
  0
LTYPE
  5
70
330
5
100
AcDbSymbolTableRecord
100
AcDbLinetypeTableRecord
  2
PHANTOM
 70
     0
  3
Phantom ______  __  __  ______  __  __  ______ 
 72
    65
 73
     6
 40
63.50000000000001
 49
31.75
 74
     0
 49
-6.35
 74
     0
 49
6.35
 74
     0
 49
-6.35
 74
     0
 49
6.35
 74
     0
 49
-6.35
 74
     0
  0
LTYPE
  5
71
330
5
100
AcDbSymbolTableRecord
100
AcDbLinetypeTableRecord
  2
ACAD_ISO06W100
 70
     0
  3
ISO long-dash triple-dot ____ ... ____ ... ____
 72
    65
 73
     8
 40
36.0
 49
24.0
 74
     0
 49
-3.0
 74
     0
 49
0.0
 74
     0
 49
-3.0
 74
     0
 49
0.0
 74
     0
 49
-3.0
 74
     0
 49
0.0
 74
     0
 49
-3.0
 74
     0
  0
LTYPE
  5
72
330
5
100
AcDbSymbolTableRecord
100
AcDbLinetypeTableRecord
  2
ACAD_ISO15W100
 70
     0
  3
ISO double-dash triple-dot __ __ . . . __ __ . .
 72
    65
 73
    10
 40
39.0
 49
12.0
 74
     0
 49
-3.0
 74
     0
 49
12.0
 74
     0
 49
-3.0
 74
     0
 49
0.0
 74
     0
 49
-3.0
 74
     0
 49
0.0
 74
     0
 49
-3.0
 74
     0
 49
0.0
 74
     0
 49
-3.0
 74
     0
  0
ENDTAB
  0
TABLE
  2
LAYER
  5
2
330
0
100
AcDbSymbolTable
 70
     6
  0
LAYER
  5
10
330
2
100
AcDbSymbolTableRecord
100
AcDbLayerTableRecord
  2
0
 70
     0
 62
     7
  6
CONTINUOUS
  0
LAYER
  5
75
330
2
100
AcDbSymbolTableRecord
100
AcDbLayerTableRecord
  2
LAY-10
 70
     0
 62
     7
  6
CONTINUOUS
  0
LAYER
  5
76
330
2
100
AcDbSymbolTableRecord
100
AcDbLayerTableRecord
  2
LAY-11
 70
     0
 62
     7
  6
CONTINUOUS
  0
LAYER
  5
77
330
2
100
AcDbSymbolTableRecord
100
AcDbLayerTableRecord
  2
LAY-20
 70
     0
 62
     7
  6
CONTINUOUS
  0
LAYER
  5
78
330
2
100
AcDbSymbolTableRecord
100
AcDbLayerTableRecord
  2
LAY-255
 70
     0
 62
     7
  6
CONTINUOUS
  0
LAYER
  5
52B
330
2
100
AcDbSymbolTableRecord
100
AcDbLayerTableRecord
  2
DEFPOINTS
 70
     0
 62
     7
  6
CONTINUOUS
  0
ENDTAB
  0
TABLE
  2
STYLE
  5
3
330
0
100
AcDbSymbolTable
 70
     4
  0
STYLE
  5
11
330
3
100
AcDbSymbolTableRecord
100
AcDbTextStyleTableRecord
  2
STANDARD
 70
     0
 40
0.0
 41
1.0
 50
0.0
 71
     0
 42
2.5
  3
simplex
  4
bigfont
  0
STYLE
  5
73
330
3
100
AcDbSymbolTableRecord
100
AcDbTextStyleTableRecord
  2
EXCADSTD
 70
     0
 40
0.0
 41
1.0
 50
0.0
 71
     0
 42
2.5
  3
simplex
  4
bigfont
  0
STYLE
  5
74
330
3
100
AcDbSymbolTableRecord
100
AcDbTextStyleTableRecord
  2
EXCADVERT
 70
     4
 40
0.0
 41
1.0
 50
0.0
 71
     0
 42
2.5
  3
simplex
  4
bigfont
  0
STYLE
  5
529
330
3
100
AcDbSymbolTableRecord
100
AcDbTextStyleTableRecord
  2
EXCADDIM1
 70
     0
 40
0.0
 41
0.84
 50
0.0
 71
     0
 42
2.5
  3
simplex
  4
bigfont
  0
ENDTAB
  0
TABLE
  2
VIEW
  5
6
330
0
100
AcDbSymbolTable
 70
     0
  0
ENDTAB
  0
TABLE
  2
UCS
  5
7
330
0
100
AcDbSymbolTable
 70
     0
  0
ENDTAB
  0
TABLE
  2
APPID
  5
9
330
0
100
AcDbSymbolTable
 70
     2
  0
APPID
  5
12
330
9
100
AcDbSymbolTableRecord
100
AcDbRegAppTableRecord
  2
ACAD
 70
     0
  0
APPID
  5
60A
330
9
100
AcDbSymbolTableRecord
100
AcDbRegAppTableRecord
  2
ACAD_MLEADERVER
 70
     0
  0
ENDTAB
  0
TABLE
  2
DIMSTYLE
  5
A
330
0
100
AcDbSymbolTable
 70
     1
  0
DIMSTYLE
105
27
102
{ACAD_REACTORS
330
52A
330
538
330
545
330
552
330
55F
330
56C
330
579
330
586
330
593
330
5A0
102
}
330
A
100
AcDbSymbolTableRecord
100
AcDbDimStyleTableRecord
  2
ISO-25
 70
     0
  3

  4

  5

  6

  7

 40
1.0
 41
2.5
 42
0.625
 43
3.75
 44
1.25
 45
0.0
 46
0.0
 47
0.0
 48
0.0
140
2.5
141
2.5
142
0.0
143
0.03937007874016
144
1.0
145
0.0
146
1.0
147
0.625
 71
     0
 72
     0
 73
     0
 74
     0
 75
     0
 76
     0
 77
     1
 78
     8
170
     0
171
     3
172
     1
173
     0
174
     0
175
     0
176
     0
177
     0
178
     0
270
     2
271
     2
272
     2
273
     2
274
     3
340
11
275
     0
280
     0
281
     0
282
     0
283
     0
284
     8
285
     0
286
     0
287
     5
288
     0
  0
ENDTAB
  0
TABLE
  2
BLOCK_RECORD
  5
1
330
0
100
AcDbSymbolTable
 70
    36
  0
BLOCK_RECORD
  5
1F
330
1
100
AcDbSymbolTableRecord
100
AcDbBlockTableRecord
  2
*MODEL_SPACE
  0
BLOCK_RECORD
  5
1B
330
1
100
AcDbSymbolTableRecord
100
AcDbBlockTableRecord
  2
*PAPER_SPACE
  0
BLOCK_RECORD
  5
79
330
1
100
AcDbSymbolTableRecord
100
AcDbBlockTableRecord
  2
EX_NORM
  0
BLOCK_RECORD
  5
7C
330
1
100
AcDbSymbolTableRecord
100
AcDbBlockTableRecord
  2
EX_BNORM
  0
BLOCK_RECORD
  5
7F
330
1
100
AcDbSymbolTableRecord
100
AcDbBlockTableRecord
  2
EX_BCIR
  0
BLOCK_RECORD
  5
82
330
1
100
AcDbSymbolTableRecord
100
AcDbBlockTableRecord
  2
EX_RCIVIL
  0
BLOCK_RECORD
  5
85
330
1
100
AcDbSymbolTableRecord
100
AcDbBlockTableRecord
  2
EX_SLANT
  0
BLOCK_RECORD
  5
88
330
1
100
AcDbSymbolTableRecord
100
AcDbBlockTableRecord
  2
EX_NONE
  0
BLOCK_RECORD
  5
8B
330
1
100
AcDbSymbolTableRecord
100
AcDbBlockTableRecord
  2
EX_CIVIL
  0
BLOCK_RECORD
  5
8E
330
1
100
AcDbSymbolTableRecord
100
AcDbBlockTableRecord
  2
EX_WCIR
  0
BLOCK_RECORD
  5
91
330
1
100
AcDbSymbolTableRecord
100
AcDbBlockTableRecord
  2
EX_WCIR2
  0
BLOCK_RECORD
  5
94
330
1
100
AcDbSymbolTableRecord
100
AcDbBlockTableRecord
  2
EX_WNORM
  0
BLOCK_RECORD
  5
97
330
1
100
AcDbSymbolTableRecord
100
AcDbBlockTableRecord
  2
EX_NNORM
  0
BLOCK_RECORD
  5
9A
330
1
100
AcDbSymbolTableRecord
100
AcDbBlockTableRecord
  2
EX_BBOX
  0
BLOCK_RECORD
  5
9D
330
1
100
AcDbSymbolTableRecord
100
AcDbBlockTableRecord
  2
EX_WBOX
  0
BLOCK_RECORD
  5
A0
330
1
100
AcDbSymbolTableRecord
100
AcDbBlockTableRecord
  2
EX_INTEGRAL
  0
BLOCK_RECORD
  5
A3
330
1
100
AcDbSymbolTableRecord
100
AcDbBlockTableRecord
  2
SYM-1
  0
BLOCK_RECORD
  5
A6
330
1
100
AcDbSymbolTableRecord
100
AcDbBlockTableRecord
  2
SYM-2
  0
BLOCK_RECORD
  5
A9
330
1
100
AcDbSymbolTableRecord
100
AcDbBlockTableRecord
  2
SYM-3
  0
BLOCK_RECORD
  5
AC
330
1
100
AcDbSymbolTableRecord
100
AcDbBlockTableRecord
  2
SYM-4
  0
BLOCK_RECORD
  5
AF
330
1
100
AcDbSymbolTableRecord
100
AcDbBlockTableRecord
  2
SYM-5
  0
BLOCK_RECORD
  5
B2
330
1
100
AcDbSymbolTableRecord
100
AcDbBlockTableRecord
  2
SYM-6
  0
BLOCK_RECORD
  5
B5
330
1
100
AcDbSymbolTableRecord
100
AcDbBlockTableRecord
  2
SYM-7
  0
BLOCK_RECORD
  5
B8
330
1
100
AcDbSymbolTableRecord
100
AcDbBlockTableRecord
  2
SYM-8
  0
BLOCK_RECORD
  5
BB
330
1
100
AcDbSymbolTableRecord
100
AcDbBlockTableRecord
  2
SYM-9
  0
BLOCK_RECORD
  5
BE
330
1
100
AcDbSymbolTableRecord
100
AcDbBlockTableRecord
  2
SYM-10
  0
BLOCK_RECORD
  5
C1
330
1
100
AcDbSymbolTableRecord
100
AcDbBlockTableRecord
  2
SYM-11
  0
BLOCK_RECORD
  5
C4
330
1
100
AcDbSymbolTableRecord
100
AcDbBlockTableRecord
  2
SYM-12
  0
BLOCK_RECORD
  5
52C
330
1
100
AcDbSymbolTableRecord
100
AcDbBlockTableRecord
  2
*D27
  0
BLOCK_RECORD
  5
539
330
1
100
AcDbSymbolTableRecord
100
AcDbBlockTableRecord
  2
*D28
  0
BLOCK_RECORD
  5
546
330
1
100
AcDbSymbolTableRecord
100
AcDbBlockTableRecord
  2
*D29
  0
BLOCK_RECORD
  5
553
330
1
100
AcDbSymbolTableRecord
100
AcDbBlockTableRecord
  2
*D30
  0
BLOCK_RECORD
  5
560
330
1
100
AcDbSymbolTableRecord
100
AcDbBlockTableRecord
  2
*D31
  0
BLOCK_RECORD
  5
56D
330
1
100
AcDbSymbolTableRecord
100
AcDbBlockTableRecord
  2
*D32
  0
BLOCK_RECORD
  5
57A
330
1
100
AcDbSymbolTableRecord
100
AcDbBlockTableRecord
  2
*D33
  0
BLOCK_RECORD
  5
587
330
1
100
AcDbSymbolTableRecord
100
AcDbBlockTableRecord
  2
*D34
  0
BLOCK_RECORD
  5
594
330
1
100
AcDbSymbolTableRecord
100
AcDbBlockTableRecord
  2
*D35
  0
BLOCK_RECORD
  5
5A1
330
1
100
AcDbSymbolTableRecord
100
AcDbBlockTableRecord
  2
*D36
  0
ENDTAB
  0
ENDSEC
  0
SECTION
  2
BLOCKS
  0
BLOCK
  5
20
330
1F
100
AcDbEntity
  8
0
100
AcDbBlockBegin
  2
*MODEL_SPACE
 70
     0
 10
0.0
 20
0.0
 30
0.0
  3
*MODEL_SPACE
  1

  0
ENDBLK
  5
21
330
1F
100
AcDbEntity
  8
0
100
AcDbBlockEnd
  0
BLOCK
  5
1C
330
1B
100
AcDbEntity
 67
     1
  8
0
100
AcDbBlockBegin
  2
*PAPER_SPACE
 70
     0
 10
0.0
 20
0.0
 30
0.0
  3
*PAPER_SPACE
  1

  0
ENDBLK
  5
1D
330
1B
100
AcDbEntity
 67
     1
  8
0
100
AcDbBlockEnd
  0
BLOCK
  5
7A
330
79
100
AcDbEntity
  8
0
100
AcDbBlockBegin
  2
EX_NORM
 70
     0
 10
0.0
 20
0.0
 30
0.0
  3
EX_NORM
  1

  0
LINE
  5
C7
330
79
100
AcDbEntity
  8
0
  6
CONTINUOUS
 62
     0
100
AcDbLine
 10
0.0
 20
0.0
 30
0.0
 11
-1.0
 21
0.0
 31
0.0
  0
LINE
  5
C8
330
79
100
AcDbEntity
  8
0
  6
CONTINUOUS
 62
     0
100
AcDbLine
 10
0.0
 20
0.0
 30
0.0
 11
-1.0
 21
0.166666667
 31
0.0
  0
LINE
  5
C9
330
79
100
AcDbEntity
  8
0
  6
CONTINUOUS
 62
     0
100
AcDbLine
 10
0.0
 20
0.0
 30
0.0
 11
-1.0
 21
-0.166666667
 31
0.0
  0
ENDBLK
  5
7B
330
79
100
AcDbEntity
  8
0
100
AcDbBlockEnd
  0
BLOCK
  5
7D
330
7C
100
AcDbEntity
  8
0
100
AcDbBlockBegin
  2
EX_BNORM
 70
     0
 10
0.0
 20
0.0
 30
0.0
  3
EX_BNORM
  1

  0
LINE
  5
CA
330
7C
100
AcDbEntity
  8
0
  6
CONTINUOUS
 62
     0
100
AcDbLine
 10
0.0
 20
0.0
 30
0.0
 11
-1.0
 21
0.0
 31
0.0
  0
LINE
  5
CB
330
7C
100
AcDbEntity
  8
0
  6
CONTINUOUS
 62
     0
100
AcDbLine
 10
0.0
 20
0.0
 30
0.0
 11
-1.0
 21
0.166666667
 31
0.0
  0
LINE
  5
CC
330
7C
100
AcDbEntity
  8
0
  6
CONTINUOUS
 62
     0
100
AcDbLine
 10
0.0
 20
0.0
 30
0.0
 11
-1.0
 21
-0.166666667
 31
0.0
  0
LINE
  5
CD
330
7C
100
AcDbEntity
  8
0
  6
CONTINUOUS
 62
     0
100
AcDbLine
 10
0.0
 20
0.0
 30
0.0
 11
-1.0
 21
0.083333333
 31
0.0
  0
LINE
  5
CE
330
7C
100
AcDbEntity
  8
0
  6
CONTINUOUS
 62
     0
100
AcDbLine
 10
0.0
 20
0.0
 30
0.0
 11
-1.0
 21
-0.083333333
 31
0.0
  0
LINE
  5
CF
330
7C
100
AcDbEntity
  8
0
  6
CONTINUOUS
 62
     0
100
AcDbLine
 10
-1.0
 20
0.166666667
 30
0.0
 11
-1.0
 21
-0.166666667
 31
0.0
  0
ENDBLK
  5
7E
330
7C
100
AcDbEntity
  8
0
100
AcDbBlockEnd
  0
BLOCK
  5
80
330
7F
100
AcDbEntity
  8
0
100
AcDbBlockBegin
  2
EX_BCIR
 70
     0
 10
0.0
 20
0.0
 30
0.0
  3
EX_BCIR
  1

  0
LINE
  5
D0
330
7F
100
AcDbEntity
  8
0
  6
CONTINUOUS
 62
     0
100
AcDbLine
 10
0.0
 20
0.0
 30
0.0
 11
-1.0
 21
0.0
 31
0.0
  0
CIRCLE
  5
D1
330
7F
100
AcDbEntity
  8
0
  6
CONTINUOUS
 62
     0
100
AcDbCircle
 10
0.0
 20
0.0
 30
0.0
 40
0.5
  0
CIRCLE
  5
D2
330
7F
100
AcDbEntity
  8
0
  6
CONTINUOUS
 62
     0
100
AcDbCircle
 10
0.0
 20
0.0
 30
0.0
 40
0.25
  0
ENDBLK
  5
81
330
7F
100
AcDbEntity
  8
0
100
AcDbBlockEnd
  0
BLOCK
  5
83
330
82
100
AcDbEntity
  8
0
100
AcDbBlockBegin
  2
EX_RCIVIL
 70
     0
 10
0.0
 20
0.0
 30
0.0
  3
EX_RCIVIL
  1

  0
LINE
  5
D3
330
82
100
AcDbEntity
  8
0
  6
CONTINUOUS
 62
     0
100
AcDbLine
 10
0.0
 20
0.0
 30
0.0
 11
-1.0
 21
0.0
 31
0.0
  0
LINE
  5
D4
330
82
100
AcDbEntity
  8
0
  6
CONTINUOUS
 62
     0
100
AcDbLine
 10
-1.0
 20
-0.25
 30
0.0
 11
0.0
 21
-0.25
 31
0.0
  0
LINE
  5
D5
330
82
100
AcDbEntity
  8
0
  6
CONTINUOUS
 62
     0
100
AcDbLine
 10
-1.0
 20
-0.125
 30
0.0
 11
0.0
 21
-0.125
 31
0.0
  0
ENDBLK
  5
84
330
82
100
AcDbEntity
  8
0
100
AcDbBlockEnd
  0
BLOCK
  5
86
330
85
100
AcDbEntity
  8
0
100
AcDbBlockBegin
  2
EX_SLANT
 70
     0
 10
0.0
 20
0.0
 30
0.0
  3
EX_SLANT
  1

  0
LINE
  5
D6
330
85
100
AcDbEntity
  8
0
  6
CONTINUOUS
 62
     0
100
AcDbLine
 10
0.0
 20
0.0
 30
0.0
 11
-1.0
 21
0.0
 31
0.0
  0
LINE
  5
D7
330
85
100
AcDbEntity
  8
0
  6
CONTINUOUS
 62
     0
100
AcDbLine
 10
0.707106781
 20
0.707106781
 30
0.0
 11
-0.707106781
 21
-0.707106781
 31
0.0
  0
ENDBLK
  5
87
330
85
100
AcDbEntity
  8
0
100
AcDbBlockEnd
  0
BLOCK
  5
89
330
88
100
AcDbEntity
  8
0
100
AcDbBlockBegin
  2
EX_NONE
 70
     0
 10
0.0
 20
0.0
 30
0.0
  3
EX_NONE
  1

  0
LINE
  5
D8
330
88
100
AcDbEntity
  8
0
  6
CONTINUOUS
 62
     0
100
AcDbLine
 10
0.0
 20
0.0
 30
0.0
 11
-1.0
 21
0.0
 31
0.0
  0
ENDBLK
  5
8A
330
88
100
AcDbEntity
  8
0
100
AcDbBlockEnd
  0
BLOCK
  5
8C
330
8B
100
AcDbEntity
  8
0
100
AcDbBlockBegin
  2
EX_CIVIL
 70
     0
 10
0.0
 20
0.0
 30
0.0
  3
EX_CIVIL
  1

  0
LINE
  5
D9
330
8B
100
AcDbEntity
  8
0
  6
CONTINUOUS
 62
     0
100
AcDbLine
 10
0.0
 20
0.0
 30
0.0
 11
-1.0
 21
0.0
 31
0.0
  0
LINE
  5
DA
330
8B
100
AcDbEntity
  8
0
  6
CONTINUOUS
 62
     0
100
AcDbLine
 10
-1.0
 20
0.25
 30
0.0
 11
0.0
 21
0.25
 31
0.0
  0
LINE
  5
DB
330
8B
100
AcDbEntity
  8
0
  6
CONTINUOUS
 62
     0
100
AcDbLine
 10
-1.0
 20
0.125
 30
0.0
 11
0.0
 21
0.125
 31
0.0
  0
ENDBLK
  5
8D
330
8B
100
AcDbEntity
  8
0
100
AcDbBlockEnd
  0
BLOCK
  5
8F
330
8E
100
AcDbEntity
  8
0
100
AcDbBlockBegin
  2
EX_WCIR
 70
     0
 10
0.0
 20
0.0
 30
0.0
  3
EX_WCIR
  1

  0
LINE
  5
DC
330
8E
100
AcDbEntity
  8
0
  6
CONTINUOUS
 62
     0
100
AcDbLine
 10
0.0
 20
0.0
 30
0.0
 11
-1.0
 21
0.0
 31
0.0
  0
CIRCLE
  5
DD
330
8E
100
AcDbEntity
  8
0
  6
CONTINUOUS
 62
     0
100
AcDbCircle
 10
0.0
 20
0.0
 30
0.0
 40
0.5
  0
ENDBLK
  5
90
330
8E
100
AcDbEntity
  8
0
100
AcDbBlockEnd
  0
BLOCK
  5
92
330
91
100
AcDbEntity
  8
0
100
AcDbBlockBegin
  2
EX_WCIR2
 70
     0
 10
0.0
 20
0.0
 30
0.0
  3
EX_WCIR2
  1

  0
LINE
  5
DE
330
91
100
AcDbEntity
  8
0
  6
CONTINUOUS
 62
     0
100
AcDbLine
 10
-0.5
 20
0.0
 30
0.0
 11
-1.0
 21
0.0
 31
0.0
  0
CIRCLE
  5
DF
330
91
100
AcDbEntity
  8
0
  6
CONTINUOUS
 62
     0
100
AcDbCircle
 10
0.0
 20
0.0
 30
0.0
 40
0.5
  0
ENDBLK
  5
93
330
91
100
AcDbEntity
  8
0
100
AcDbBlockEnd
  0
BLOCK
  5
95
330
94
100
AcDbEntity
  8
0
100
AcDbBlockBegin
  2
EX_WNORM
 70
     0
 10
0.0
 20
0.0
 30
0.0
  3
EX_WNORM
  1

  0
LINE
  5
E0
330
94
100
AcDbEntity
  8
0
  6
CONTINUOUS
 62
     0
100
AcDbLine
 10
-1.0
 20
0.0
 30
0.0
 11
-1.0
 21
0.0
 31
0.0
  0
LINE
  5
E1
330
94
100
AcDbEntity
  8
0
  6
CONTINUOUS
 62
     0
100
AcDbLine
 10
0.0
 20
0.0
 30
0.0
 11
-1.0
 21
0.166666667
 31
0.0
  0
LINE
  5
E2
330
94
100
AcDbEntity
  8
0
  6
CONTINUOUS
 62
     0
100
AcDbLine
 10
0.0
 20
0.0
 30
0.0
 11
-1.0
 21
-0.166666667
 31
0.0
  0
LINE
  5
E3
330
94
100
AcDbEntity
  8
0
  6
CONTINUOUS
 62
     0
100
AcDbLine
 10
-1.0
 20
0.166666667
 30
0.0
 11
-1.0
 21
-0.166666667
 31
0.0
  0
ENDBLK
  5
96
330
94
100
AcDbEntity
  8
0
100
AcDbBlockEnd
  0
BLOCK
  5
98
330
97
100
AcDbEntity
  8
0
100
AcDbBlockBegin
  2
EX_NNORM
 70
     0
 10
0.0
 20
0.0
 30
0.0
  3
EX_NNORM
  1

  0
LINE
  5
E4
330
97
100
AcDbEntity
  8
0
  6
CONTINUOUS
 62
     0
100
AcDbLine
 10
0.0
 20
0.0
 30
0.0
 11
-1.0
 21
0.0
 31
0.0
  0
LINE
  5
E5
330
97
100
AcDbEntity
  8
0
  6
CONTINUOUS
 62
     0
100
AcDbLine
 10
0.0
 20
0.0
 30
0.0
 11
-1.0
 21
0.166666667
 31
0.0
  0
LINE
  5
E6
330
97
100
AcDbEntity
  8
0
  6
CONTINUOUS
 62
     0
100
AcDbLine
 10
0.0
 20
0.0
 30
0.0
 11
-1.0
 21
-0.166666667
 31
0.0
  0
LINE
  5
E7
330
97
100
AcDbEntity
  8
0
  6
CONTINUOUS
 62
     0
100
AcDbLine
 10
-1.0
 20
0.166666667
 30
0.0
 11
-1.0
 21
-0.166666667
 31
0.0
  0
ENDBLK
  5
99
330
97
100
AcDbEntity
  8
0
100
AcDbBlockEnd
  0
BLOCK
  5
9B
330
9A
100
AcDbEntity
  8
0
100
AcDbBlockBegin
  2
EX_BBOX
 70
     0
 10
0.0
 20
0.0
 30
0.0
  3
EX_BBOX
  1

  0
LINE
  5
E8
330
9A
100
AcDbEntity
  8
0
  6
CONTINUOUS
 62
     0
100
AcDbLine
 10
0.0
 20
0.0
 30
0.0
 11
-1.0
 21
0.0
 31
0.0
  0
LINE
  5
E9
330
9A
100
AcDbEntity
  8
0
  6
CONTINUOUS
 62
     0
100
AcDbLine
 10
-0.5
 20
0.5
 30
0.0
 11
0.5
 21
0.5
 31
0.0
  0
LINE
  5
EA
330
9A
100
AcDbEntity
  8
0
  6
CONTINUOUS
 62
     0
100
AcDbLine
 10
0.5
 20
0.5
 30
0.0
 11
0.5
 21
-0.5
 31
0.0
  0
LINE
  5
EB
330
9A
100
AcDbEntity
  8
0
  6
CONTINUOUS
 62
     0
100
AcDbLine
 10
0.5
 20
-0.5
 30
0.0
 11
-0.5
 21
-0.5
 31
0.0
  0
LINE
  5
EC
330
9A
100
AcDbEntity
  8
0
  6
CONTINUOUS
 62
     0
100
AcDbLine
 10
-0.5
 20
-0.5
 30
0.0
 11
-0.5
 21
0.5
 31
0.0
  0
LINE
  5
ED
330
9A
100
AcDbEntity
  8
0
  6
CONTINUOUS
 62
     0
100
AcDbLine
 10
-0.25
 20
0.25
 30
0.0
 11
0.25
 21
0.25
 31
0.0
  0
LINE
  5
EE
330
9A
100
AcDbEntity
  8
0
  6
CONTINUOUS
 62
     0
100
AcDbLine
 10
0.25
 20
0.25
 30
0.0
 11
0.25
 21
-0.25
 31
0.0
  0
LINE
  5
EF
330
9A
100
AcDbEntity
  8
0
  6
CONTINUOUS
 62
     0
100
AcDbLine
 10
0.25
 20
-0.25
 30
0.0
 11
-0.25
 21
-0.25
 31
0.0
  0
LINE
  5
F0
330
9A
100
AcDbEntity
  8
0
  6
CONTINUOUS
 62
     0
100
AcDbLine
 10
-0.25
 20
-0.25
 30
0.0
 11
-0.25
 21
0.25
 31
0.0
  0
ENDBLK
  5
9C
330
9A
100
AcDbEntity
  8
0
100
AcDbBlockEnd
  0
BLOCK
  5
9E
330
9D
100
AcDbEntity
  8
0
100
AcDbBlockBegin
  2
EX_WBOX
 70
     0
 10
0.0
 20
0.0
 30
0.0
  3
EX_WBOX
  1

  0
LINE
  5
F1
330
9D
100
AcDbEntity
  8
0
  6
CONTINUOUS
 62
     0
100
AcDbLine
 10
-0.5
 20
0.0
 30
0.0
 11
-1.0
 21
0.0
 31
0.0
  0
LINE
  5
F2
330
9D
100
AcDbEntity
  8
0
  6
CONTINUOUS
 62
     0
100
AcDbLine
 10
-0.5
 20
0.5
 30
0.0
 11
0.5
 21
0.5
 31
0.0
  0
LINE
  5
F3
330
9D
100
AcDbEntity
  8
0
  6
CONTINUOUS
 62
     0
100
AcDbLine
 10
0.5
 20
0.5
 30
0.0
 11
0.5
 21
-0.5
 31
0.0
  0
LINE
  5
F4
330
9D
100
AcDbEntity
  8
0
  6
CONTINUOUS
 62
     0
100
AcDbLine
 10
0.5
 20
-0.5
 30
0.0
 11
-0.5
 21
-0.5
 31
0.0
  0
LINE
  5
F5
330
9D
100
AcDbEntity
  8
0
  6
CONTINUOUS
 62
     0
100
AcDbLine
 10
-0.5
 20
-0.5
 30
0.0
 11
-0.5
 21
0.5
 31
0.0
  0
ENDBLK
  5
9F
330
9D
100
AcDbEntity
  8
0
100
AcDbBlockEnd
  0
BLOCK
  5
A1
330
A0
100
AcDbEntity
  8
0
100
AcDbBlockBegin
  2
EX_INTEGRAL
 70
     0
 10
0.0
 20
0.0
 30
0.0
  3
EX_INTEGRAL
  1

  0
LINE
  5
F6
330
A0
100
AcDbEntity
  8
0
  6
CONTINUOUS
 62
     0
100
AcDbLine
 10
0.0
 20
0.0
 30
0.0
 11
-1.0
 21
0.0
 31
0.0
  0
ARC
  5
F7
330
A0
100
AcDbEntity
  8
0
  6
CONTINUOUS
 62
     0
100
AcDbCircle
 10
0.542115
 20
0.164992
 30
0.0
 40
0.56667
100
AcDbArc
 50
73.07249033629006
 51
196.9275130221199
  0
ARC
  5
F8
330
A0
100
AcDbEntity
  8
0
  6
CONTINUOUS
 62
     0
100
AcDbCircle
 10
-0.542115
 20
-0.164992
 30
0.0
 40
0.56667
100
AcDbArc
 50
253.0724869220464
 51
16.9275130559125
  0
ENDBLK
  5
A2
330
A0
100
AcDbEntity
  8
0
100
AcDbBlockEnd
  0
BLOCK
  5
A4
330
A3
100
AcDbEntity
  8
0
100
AcDbBlockBegin
  2
SYM-1
 70
     0
 10
0.0
 20
0.0
 30
0.0
  3
SYM-1
  1

  0
CIRCLE
  5
F9
330
A3
100
AcDbEntity
  8
0
  6
CONTINUOUS
 62
     7
100
AcDbCircle
 10
1690.000000000043
 20
2355.500000000048
 30
0.0
 40
10.50000000000041
  0
CIRCLE
  5
FA
330
A3
100
AcDbEntity
  8
0
  6
CONTINUOUS
 62
     7
100
AcDbCircle
 10
1690.000000000043
 20
2355.500000000048
 30
0.0
 40
8.66025403784441
  0
LINE
  5
FB
330
A3
100
AcDbEntity
  8
0
  6
CONTINUOUS
 62
     7
100
AcDbLine
 10
1681.339745962198
 20
2360.500000000048
 30
0.0
 11
1681.339745962198
 21
2350.500000000049
 31
0.0
  0
LINE
  5
FC
330
A3
100
AcDbEntity
  8
0
  6
CONTINUOUS
 62
     7
100
AcDbLine
 10
1681.339745962198
 20
2350.500000000049
 30
0.0
 11
1690.000000000043
 21
2345.500000000048
 31
0.0
  0
LINE
  5
FD
330
A3
100
AcDbEntity
  8
0
  6
CONTINUOUS
 62
     7
100
AcDbLine
 10
1690.000000000043
 20
2345.500000000048
 30
0.0
 11
1698.660254037885
 21
2350.500000000049
 31
0.0
  0
LINE
  5
FE
330
A3
100
AcDbEntity
  8
0
  6
CONTINUOUS
 62
     7
100
AcDbLine
 10
1698.660254037885
 20
2360.500000000048
 30
0.0
 11
1690.000000000043
 21
2365.500000000049
 31
0.0
  0
LINE
  5
FF
330
A3
100
AcDbEntity
  8
0
  6
CONTINUOUS
 62
     7
100
AcDbLine
 10
1690.000000000043
 20
2365.500000000049
 30
0.0
 11
1681.339745962198
 21
2360.500000000048
 31
0.0
  0
CIRCLE
  5
100
330
A3
100
AcDbEntity
  8
0
  6
CONTINUOUS
 62
     7
100
AcDbCircle
 10
1690.000000000043
 20
2355.500000000048
 30
0.0
 40
5.0
  0
CIRCLE
  5
101
330
A3
100
AcDbEntity
  8
0
  6
CONTINUOUS
 62
     7
100
AcDbCircle
 10
1690.000000000043
 20
2355.500000000048
 30
0.0
 40
4.0
  0
LINE
  5
102
330
A3
100
AcDbEntity
  8
0
  6
CONTINUOUS
 62
     7
100
AcDbLine
 10
1698.660254037885
 20
2350.500000000049
 30
0.0
 11
1698.660254037885
 21
2360.500000000048
 31
0.0
  0
ENDBLK
  5
A5
330
A3
100
AcDbEntity
  8
0
100
AcDbBlockEnd
  0
BLOCK
  5
A7
330
A6
100
AcDbEntity
  8
0
100
AcDbBlockBegin
  2
SYM-2
 70
     0
 10
0.0
 20
0.0
 30
0.0
  3
SYM-2
  1

  0
CIRCLE
  5
103
330
A6
100
AcDbEntity
  8
0
  6
CONTINUOUS
 62
     7
100
AcDbCircle
 10
1690.000000000043
 20
1830.500000000048
 30
0.0
 40
10.50000000000041
  0
CIRCLE
  5
104
330
A6
100
AcDbEntity
  8
0
  6
CONTINUOUS
 62
     7
100
AcDbCircle
 10
1690.000000000043
 20
1830.500000000048
 30
0.0
 40
8.66025403784441
  0
LINE
  5
105
330
A6
100
AcDbEntity
  8
0
  6
CONTINUOUS
 62
     7
100
AcDbLine
 10
1681.339745962198
 20
1835.500000000048
 30
0.0
 11
1681.339745962198
 21
1825.500000000049
 31
0.0
  0
LINE
  5
106
330
A6
100
AcDbEntity
  8
0
  6
CONTINUOUS
 62
     7
100
AcDbLine
 10
1681.339745962198
 20
1825.500000000049
 30
0.0
 11
1690.000000000043
 21
1820.500000000048
 31
0.0
  0
LINE
  5
107
330
A6
100
AcDbEntity
  8
0
  6
CONTINUOUS
 62
     7
100
AcDbLine
 10
1690.000000000043
 20
1820.500000000048
 30
0.0
 11
1698.660254037885
 21
1825.500000000049
 31
0.0
  0
LINE
  5
108
330
A6
100
AcDbEntity
  8
0
  6
CONTINUOUS
 62
     7
100
AcDbLine
 10
1698.660254037885
 20
1835.500000000048
 30
0.0
 11
1690.000000000043
 21
1840.500000000049
 31
0.0
  0
LINE
  5
109
330
A6
100
AcDbEntity
  8
0
  6
CONTINUOUS
 62
     7
100
AcDbLine
 10
1690.000000000043
 20
1840.500000000049
 30
0.0
 11
1681.339745962198
 21
1835.500000000048
 31
0.0
  0
CIRCLE
  5
10A
330
A6
100
AcDbEntity
  8
0
  6
CONTINUOUS
 62
     7
100
AcDbCircle
 10
1690.000000000043
 20
1830.500000000048
 30
0.0
 40
5.0
  0
CIRCLE
  5
10B
330
A6
100
AcDbEntity
  8
0
  6
CONTINUOUS
 62
     7
100
AcDbCircle
 10
1690.000000000043
 20
1830.500000000048
 30
0.0
 40
4.0
  0
LINE
  5
10C
330
A6
100
AcDbEntity
  8
0
  6
CONTINUOUS
 62
     7
100
AcDbLine
 10
1698.660254037885
 20
1825.500000000049
 30
0.0
 11
1698.660254037885
 21
1835.500000000048
 31
0.0
  0
ENDBLK
  5
A8
330
A6
100
AcDbEntity
  8
0
100
AcDbBlockEnd
  0
BLOCK
  5
AA
330
A9
100
AcDbEntity
  8
0
100
AcDbBlockBegin
  2
SYM-3
 70
     0
 10
0.0
 20
0.0
 30
0.0
  3
SYM-3
  1

  0
CIRCLE
  5
10D
330
A9
100
AcDbEntity
  8
0
  6
CONTINUOUS
 62
     7
100
AcDbCircle
 10
1690.000000000043
 20
1305.500000000068
 30
0.0
 40
10.50000000000041
  0
CIRCLE
  5
10E
330
A9
100
AcDbEntity
  8
0
  6
CONTINUOUS
 62
     7
100
AcDbCircle
 10
1690.000000000043
 20
1305.500000000068
 30
0.0
 40
8.66025403784441
  0
LINE
  5
10F
330
A9
100
AcDbEntity
  8
0
  6
CONTINUOUS
 62
     7
100
AcDbLine
 10
1681.339745962198
 20
1310.500000000068
 30
0.0
 11
1681.339745962198
 21
1300.500000000069
 31
0.0
  0
LINE
  5
110
330
A9
100
AcDbEntity
  8
0
  6
CONTINUOUS
 62
     7
100
AcDbLine
 10
1681.339745962198
 20
1300.500000000069
 30
0.0
 11
1690.000000000043
 21
1295.500000000068
 31
0.0
  0
LINE
  5
111
330
A9
100
AcDbEntity
  8
0
  6
CONTINUOUS
 62
     7
100
AcDbLine
 10
1690.000000000043
 20
1295.500000000068
 30
0.0
 11
1698.660254037885
 21
1300.500000000069
 31
0.0
  0
LINE
  5
112
330
A9
100
AcDbEntity
  8
0
  6
CONTINUOUS
 62
     7
100
AcDbLine
 10
1698.660254037885
 20
1310.500000000068
 30
0.0
 11
1690.000000000043
 21
1315.500000000069
 31
0.0
  0
LINE
  5
113
330
A9
100
AcDbEntity
  8
0
  6
CONTINUOUS
 62
     7
100
AcDbLine
 10
1690.000000000043
 20
1315.500000000069
 30
0.0
 11
1681.339745962198
 21
1310.500000000068
 31
0.0
  0
CIRCLE
  5
114
330
A9
100
AcDbEntity
  8
0
  6
CONTINUOUS
 62
     7
100
AcDbCircle
 10
1690.000000000043
 20
1305.500000000068
 30
0.0
 40
5.0
  0
CIRCLE
  5
115
330
A9
100
AcDbEntity
  8
0
  6
CONTINUOUS
 62
     7
100
AcDbCircle
 10
1690.000000000043
 20
1305.500000000068
 30
0.0
 40
4.0
  0
LINE
  5
116
330
A9
100
AcDbEntity
  8
0
  6
CONTINUOUS
 62
     7
100
AcDbLine
 10
1698.660254037885
 20
1300.500000000069
 30
0.0
 11
1698.660254037885
 21
1310.500000000068
 31
0.0
  0
ENDBLK
  5
AB
330
A9
100
AcDbEntity
  8
0
100
AcDbBlockEnd
  0
BLOCK
  5
AD
330
AC
100
AcDbEntity
  8
0
100
AcDbBlockBegin
  2
SYM-4
 70
     0
 10
0.0
 20
0.0
 30
0.0
  3
SYM-4
  1

  0
CIRCLE
  5
117
330
AC
100
AcDbEntity
  8
0
  6
CONTINUOUS
 62
     7
100
AcDbCircle
 10
1165.000000000042
 20
1305.500000000098
 30
0.0
 40
10.50000000000041
  0
CIRCLE
  5
118
330
AC
100
AcDbEntity
  8
0
  6
CONTINUOUS
 62
     7
100
AcDbCircle
 10
1165.000000000042
 20
1305.500000000098
 30
0.0
 40
8.66025403784441
  0
LINE
  5
119
330
AC
100
AcDbEntity
  8
0
  6
CONTINUOUS
 62
     7
100
AcDbLine
 10
1156.339745962198
 20
1310.500000000098
 30
0.0
 11
1156.339745962198
 21
1300.500000000099
 31
0.0
  0
LINE
  5
11A
330
AC
100
AcDbEntity
  8
0
  6
CONTINUOUS
 62
     7
100
AcDbLine
 10
1156.339745962198
 20
1300.500000000099
 30
0.0
 11
1165.000000000042
 21
1295.500000000098
 31
0.0
  0
LINE
  5
11B
330
AC
100
AcDbEntity
  8
0
  6
CONTINUOUS
 62
     7
100
AcDbLine
 10
1165.000000000042
 20
1295.500000000098
 30
0.0
 11
1173.660254037885
 21
1300.500000000099
 31
0.0
  0
LINE
  5
11C
330
AC
100
AcDbEntity
  8
0
  6
CONTINUOUS
 62
     7
100
AcDbLine
 10
1173.660254037885
 20
1310.500000000098
 30
0.0
 11
1165.000000000042
 21
1315.500000000099
 31
0.0
  0
LINE
  5
11D
330
AC
100
AcDbEntity
  8
0
  6
CONTINUOUS
 62
     7
100
AcDbLine
 10
1165.000000000042
 20
1315.500000000099
 30
0.0
 11
1156.339745962198
 21
1310.500000000098
 31
0.0
  0
CIRCLE
  5
11E
330
AC
100
AcDbEntity
  8
0
  6
CONTINUOUS
 62
     7
100
AcDbCircle
 10
1165.000000000042
 20
1305.500000000098
 30
0.0
 40
5.0
  0
CIRCLE
  5
11F
330
AC
100
AcDbEntity
  8
0
  6
CONTINUOUS
 62
     7
100
AcDbCircle
 10
1165.000000000042
 20
1305.500000000098
 30
0.0
 40
4.0
  0
LINE
  5
120
330
AC
100
AcDbEntity
  8
0
  6
CONTINUOUS
 62
     7
100
AcDbLine
 10
1173.660254037885
 20
1300.500000000099
 30
0.0
 11
1173.660254037885
 21
1310.500000000098
 31
0.0
  0
ENDBLK
  5
AE
330
AC
100
AcDbEntity
  8
0
100
AcDbBlockEnd
  0
BLOCK
  5
B0
330
AF
100
AcDbEntity
  8
0
100
AcDbBlockBegin
  2
SYM-5
 70
     0
 10
0.0
 20
0.0
 30
0.0
  3
SYM-5
  1

  0
LINE
  5
121
330
AF
100
AcDbEntity
  8
0
  6
CONTINUOUS
 62
     7
100
AcDbLine
 10
2212.101515190076
 20
2350.500000000016
 30
0.0
 11
2211.101515190076
 21
2351.500000000018
 31
0.0
  0
LINE
  5
122
330
AF
100
AcDbEntity
  8
0
  6
CONTINUOUS
 62
     7
100
AcDbLine
 10
2212.101515190076
 20
2360.500000000018
 30
0.0
 11
2211.101515190076
 21
2359.500000000018
 31
0.0
  0
LINE
  5
123
330
AF
100
AcDbEntity
  8
0
  6
CONTINUOUS
 62
     7
100
AcDbLine
 10
2211.101515190076
 20
2351.500000000018
 30
0.0
 11
2211.101515190076
 21
2359.500000000018
 31
0.0
  0
LINE
  5
124
330
AF
100
AcDbEntity
  8
0
  6
CONTINUOUS
 62
     7
100
AcDbLine
 10
2215.301515190074
 20
2360.500000000018
 30
0.0
 11
2212.101515190076
 21
2360.500000000018
 31
0.0
  0
LINE
  5
125
330
AF
100
AcDbEntity
  8
0
  6
CONTINUOUS
 62
     7
100
AcDbLine
 10
2215.301515190074
 20
2350.500000000016
 30
0.0
 11
2212.101515190076
 21
2350.500000000016
 31
0.0
  0
LINE
  5
126
330
AF
100
AcDbEntity
  8
0
  6
CONTINUOUS
 62
     7
100
AcDbLine
 10
2223.701515190078
 20
2360.500000000018
 30
0.0
 11
2216.225515190076
 21
2360.500000000018
 31
0.0
  0
LINE
  5
127
330
AF
100
AcDbEntity
  8
0
  6
CONTINUOUS
 62
     7
100
AcDbLine
 10
2223.701515190078
 20
2350.500000000016
 30
0.0
 11
2216.225515190076
 21
2350.500000000016
 31
0.0
  0
LINE
  5
128
330
AF
100
AcDbEntity
  8
0
  6
CONTINUOUS
 62
     7
100
AcDbLine
 10
2223.701515190078
 20
2365.500000000016
 30
0.0
 11
2216.225515190076
 21
2365.500000000016
 31
0.0
  0
LINE
  5
129
330
AF
100
AcDbEntity
  8
0
  6
CONTINUOUS
 62
     7
100
AcDbLine
 10
2223.701515190078
 20
2345.500000000018
 30
0.0
 11
2216.225515190076
 21
2345.500000000018
 31
0.0
  0
ARC
  5
12A
330
AF
100
AcDbEntity
  8
0
  6
CONTINUOUS
 62
     7
100
AcDbCircle
 10
2219.145549822111
 20
2363.000000000018
 30
0.0
 40
3.844034632034633
100
AcDbArc
 50
139.4313750265994
 51
220.5686249734146
  0
ARC
  5
12B
330
AF
100
AcDbEntity
  8
0
  6
CONTINUOUS
 62
     7
100
AcDbCircle
 10
2229.291653718215
 20
2355.500000000018
 30
0.0
 40
13.99013852813853
100
AcDbArc
 50
159.0597243938601
 51
200.9402756061523
  0
ARC
  5
12C
330
AF
100
AcDbEntity
  8
0
  6
CONTINUOUS
 62
     7
100
AcDbCircle
 10
2219.145549822111
 20
2348.000000000018
 30
0.0
 40
3.844034632034633
100
AcDbArc
 50
139.4313750265994
 51
220.5686249734146
  0
LINE
  5
12D
330
AF
100
AcDbEntity
  8
0
  6
CONTINUOUS
 62
     7
100
AcDbLine
 10
2215.301515190074
 20
2363.000000000018
 30
0.0
 11
2215.301515190074
 21
2348.000000000018
 31
0.0
  0
LINE
  5
12E
330
AF
100
AcDbEntity
  8
0
  6
CONTINUOUS
 62
     7
100
AcDbLine
 10
2223.701515190078
 20
2345.000000000018
 30
0.0
 11
2223.701515190078
 21
2366.000000000018
 31
0.0
  0
LINE
  5
12F
330
AF
100
AcDbEntity
  8
0
  6
CONTINUOUS
 62
     7
100
AcDbLine
 10
2223.701515190078
 20
2366.000000000018
 30
0.0
 11
2225.701515190076
 21
2366.000000000018
 31
0.0
  0
LINE
  5
130
330
AF
100
AcDbEntity
  8
0
  6
CONTINUOUS
 62
     7
100
AcDbLine
 10
2223.701515190078
 20
2345.000000000018
 30
0.0
 11
2225.701515190076
 21
2345.000000000018
 31
0.0
  0
LINE
  5
131
330
AF
100
AcDbEntity
  8
0
  6
CONTINUOUS
 62
     7
100
AcDbLine
 10
2246.797515190075
 20
2350.500000000016
 30
0.0
 11
2225.701515190076
 21
2350.500000000016
 31
0.0
  0
LINE
  5
132
330
AF
100
AcDbEntity
  8
0
  6
CONTINUOUS
 62
     7
100
AcDbLine
 10
2246.797515190075
 20
2360.500000000018
 30
0.0
 11
2225.701515190076
 21
2360.500000000018
 31
0.0
  0
LINE
  5
133
330
AF
100
AcDbEntity
  8
0
  6
CONTINUOUS
 62
     7
100
AcDbLine
 10
2236.101515190076
 20
2360.500000000018
 30
0.0
 11
2236.101515190076
 21
2350.500000000016
 31
0.0
  0
LINE
  5
134
330
AF
100
AcDbEntity
  8
0
  6
CONTINUOUS
 62
     7
100
AcDbLine
 10
2243.441515190073
 20
2365.50000000002
 30
0.0
 11
2241.101515190076
 21
2367.780000000019
 31
0.0
  0
LINE
  5
135
330
AF
100
AcDbEntity
  8
0
  6
CONTINUOUS
 62
     7
100
AcDbLine
 10
2241.101515190083
 20
2367.621320343585
 30
0.0
 11
2241.181885405663
 21
2367.701690559166
 31
0.0
  0
LINE
  5
136
330
AF
100
AcDbEntity
  8
0
  6
CONTINUOUS
 62
     7
100
AcDbLine
 10
2241.101515190076
 20
2366.914213562393
 30
0.0
 11
2241.54003039874
 21
2367.352728771053
 31
0.0
  0
LINE
  5
137
330
AF
100
AcDbEntity
  8
0
  6
CONTINUOUS
 62
     7
100
AcDbLine
 10
2241.101515190081
 20
2366.207106781212
 30
0.0
 11
2241.898175391807
 21
2367.003766982933
 31
0.0
  0
LINE
  5
138
330
AF
100
AcDbEntity
  8
0
  6
CONTINUOUS
 62
     7
100
AcDbLine
 10
2241.101515190064
 20
2365.500000000007
 30
0.0
 11
2242.256320384868
 21
2366.654805194808
 31
0.0
  0
LINE
  5
139
330
AF
100
AcDbEntity
  8
0
  6
CONTINUOUS
 62
     7
100
AcDbLine
 10
2241.808621971245
 20
2365.500000000002
 30
0.0
 11
2242.614465377943
 21
2366.305843406697
 31
0.0
  0
LINE
  5
13A
330
AF
100
AcDbEntity
  8
0
  6
CONTINUOUS
 62
     7
100
AcDbLine
 10
2242.515728752438
 20
2365.500000000007
 30
0.0
 11
2242.972610371005
 21
2365.956881618577
 31
0.0
  0
LINE
  5
13B
330
AF
100
AcDbEntity
  8
0
  6
CONTINUOUS
 62
     7
100
AcDbLine
 10
2243.222835533632
 20
2365.500000000015
 30
0.0
 11
2243.330755364073
 21
2365.607919830454
 31
0.0
  0
LINE
  5
13C
330
AF
100
AcDbEntity
  8
0
  6
CONTINUOUS
 62
     7
100
AcDbLine
 10
2241.101515190076
 20
2365.500000000016
 30
0.0
 11
2246.797515190075
 21
2365.500000000016
 31
0.0
  0
ARC
  5
13D
330
AF
100
AcDbEntity
  8
0
  6
CONTINUOUS
 62
     7
100
AcDbCircle
 10
2242.710594735531
 20
2363.000000000018
 30
0.0
 40
4.790920454545454
100
AcDbArc
 50
328.5455606612239
 51
31.45443933877169
  0
LINE
  5
13E
330
AF
100
AcDbEntity
  8
0
  6
CONTINUOUS
 62
     7
100
AcDbLine
 10
2247.501515190074
 20
2348.000000000018
 30
0.0
 11
2247.501515190074
 21
2363.000000000018
 31
0.0
  0
ARC
  5
13F
330
AF
100
AcDbEntity
  8
0
  6
CONTINUOUS
 62
     7
100
AcDbCircle
 10
2229.393833371892
 20
2355.500000000018
 30
0.0
 40
18.10768181818181
100
AcDbArc
 50
343.9708781133803
 51
16.02912188661214
  0
ARC
  5
140
330
AF
100
AcDbEntity
  8
0
  6
CONTINUOUS
 62
     7
100
AcDbCircle
 10
2242.710594735531
 20
2348.000000000018
 30
0.0
 40
4.790920454545454
100
AcDbArc
 50
328.5455606612239
 51
31.45443933877169
  0
LINE
  5
141
330
AF
100
AcDbEntity
  8
0
  6
CONTINUOUS
 62
     7
100
AcDbLine
 10
2241.101515190076
 20
2345.500000000018
 30
0.0
 11
2246.797515190075
 21
2345.500000000018
 31
0.0
  0
LINE
  5
142
330
AF
100
AcDbEntity
  8
0
  6
CONTINUOUS
 62
     7
100
AcDbLine
 10
2241.101515190076
 20
2343.160000000018
 30
0.0
 11
2243.381515190076
 21
2345.500000000018
 31
0.0
  0
LINE
  5
143
330
AF
100
AcDbEntity
  8
0
  6
CONTINUOUS
 62
     7
100
AcDbLine
 10
2243.222835533635
 20
2345.500000000018
 30
0.0
 11
2243.303205749237
 21
2345.419629784416
 31
0.0
  0
LINE
  5
144
330
AF
100
AcDbEntity
  8
0
  6
CONTINUOUS
 62
     7
100
AcDbLine
 10
2242.51572875244
 20
2345.500000000027
 30
0.0
 11
2242.954243961115
 21
2345.061484791353
 31
0.0
  0
LINE
  5
145
330
AF
100
AcDbEntity
  8
0
  6
CONTINUOUS
 62
     7
100
AcDbLine
 10
2241.808621971261
 20
2345.50000000002
 30
0.0
 11
2242.605282172993
 21
2344.703339798289
 31
0.0
  0
LINE
  5
146
330
AF
100
AcDbEntity
  8
0
  6
CONTINUOUS
 62
     7
100
AcDbLine
 10
2241.101515190065
 20
2345.500000000027
 30
0.0
 11
2242.256320384879
 21
2344.345194805213
 31
0.0
  0
LINE
  5
147
330
AF
100
AcDbEntity
  8
0
  6
CONTINUOUS
 62
     7
100
AcDbLine
 10
2241.101515190076
 20
2344.792893218835
 30
0.0
 11
2241.90735859676
 21
2343.987049812147
 31
0.0
  0
LINE
  5
148
330
AF
100
AcDbEntity
  8
0
  6
CONTINUOUS
 62
     7
100
AcDbLine
 10
2241.101515190069
 20
2344.085786437654
 30
0.0
 11
2241.558396808637
 21
2343.628904819085
 31
0.0
  0
LINE
  5
149
330
AF
100
AcDbEntity
  8
0
  6
CONTINUOUS
 62
     7
100
AcDbLine
 10
2241.101515190063
 20
2343.378679656471
 30
0.0
 11
2241.209435020528
 21
2343.270759826009
 31
0.0
  0
LINE
  5
14A
330
AF
100
AcDbEntity
  8
0
  6
CONTINUOUS
 62
     7
100
AcDbLine
 10
2211.101515190076
 20
2359.500000000018
 30
0.0
 11
2215.301515190074
 21
2359.500000000018
 31
0.0
  0
LINE
  5
14B
330
AF
100
AcDbEntity
  8
0
  6
CONTINUOUS
 62
     7
100
AcDbLine
 10
2212.101515190076
 20
2350.500000000016
 30
0.0
 11
2212.101515190076
 21
2360.500000000018
 31
0.0
  0
LINE
  5
14C
330
AF
100
AcDbEntity
  8
0
  6
CONTINUOUS
 62
     7
100
AcDbLine
 10
2211.101515190076
 20
2351.500000000018
 30
0.0
 11
2215.301515190074
 21
2351.500000000018
 31
0.0
  0
LINE
  5
14D
330
AF
100
AcDbEntity
  8
0
  6
CONTINUOUS
 62
     7
100
AcDbLine
 10
2225.701515190076
 20
2351.500000000018
 30
0.0
 11
2236.101515190076
 21
2351.500000000018
 31
0.0
  0
LINE
  5
14E
330
AF
100
AcDbEntity
  8
0
  6
CONTINUOUS
 62
     7
100
AcDbLine
 10
2225.701515190076
 20
2359.500000000018
 30
0.0
 11
2236.101515190076
 21
2359.500000000018
 31
0.0
  0
LINE
  5
14F
330
AF
100
AcDbEntity
  8
0
  6
CONTINUOUS
 62
     7
100
AcDbLine
 10
2236.101515190076
 20
2359.500000000018
 30
0.0
 11
2237.101515190079
 21
2360.500000000018
 31
0.0
  0
LINE
  5
150
330
AF
100
AcDbEntity
  8
0
  6
CONTINUOUS
 62
     7
100
AcDbLine
 10
2236.101515190076
 20
2351.500000000018
 30
0.0
 11
2237.101515190079
 21
2350.500000000016
 31
0.0
  0
ENDBLK
  5
B1
330
AF
100
AcDbEntity
  8
0
100
AcDbBlockEnd
  0
BLOCK
  5
B3
330
B2
100
AcDbEntity
  8
0
100
AcDbBlockBegin
  2
SYM-6
 70
     0
 10
0.0
 20
0.0
 30
0.0
  3
SYM-6
  1

  0
ELLIPSE
  5
151
330
B2
100
AcDbEntity
  8
0
  6
CONTINUOUS
 62
     7
100
AcDbEllipse
 10
2233.384848523378
 20
2339.420000000016
 30
0.0
 11
-1.067183248068677E-15
 21
-5.809475019310011
 31
0.0
210
0.0
220
0.0
230
1.0
 40
0.774596669241632
 41
0.0
 42
6.283185307179586
  0
LINE
  5
152
330
B2
100
AcDbEntity
  8
0
  6
CONTINUOUS
 62
     7
100
AcDbLine
 10
2232.197606429675
 20
2333.816361864718
 30
0.0
 11
2229.478930445378
 21
2336.535037849017
 31
0.0
  0
LINE
  5
153
330
B2
100
AcDbEntity
  8
0
  6
CONTINUOUS
 62
     7
100
AcDbLine
 10
2233.793636645975
 20
2333.634545210816
 30
0.0
 11
2228.943560400774
 21
2338.484621455917
 31
0.0
  0
LINE
  5
154
330
B2
100
AcDbEntity
  8
0
  6
CONTINUOUS
 62
     7
100
AcDbLine
 10
2234.894979345577
 20
2333.947416073517
 30
0.0
 11
2228.902877872879
 21
2339.939517546218
 31
0.0
  0
LINE
  5
155
330
B2
100
AcDbEntity
  8
0
  6
CONTINUOUS
 62
     7
100
AcDbLine
 10
2237.774143930176
 20
2338.139319300817
 30
0.0
 11
2231.327014147276
 21
2344.586449083716
 31
0.0
  0
LINE
  5
156
330
B2
100
AcDbEntity
  8
0
  6
CONTINUOUS
 62
     7
100
AcDbLine
 10
2237.884813675076
 20
2339.442863118218
 30
0.0
 11
2232.277004574075
 21
2345.050672219217
 31
0.0
  0
LINE
  5
157
330
B2
100
AcDbEntity
  8
0
  6
CONTINUOUS
 62
     7
100
AcDbLine
 10
2237.707638706575
 20
2341.034251649116
 30
0.0
 11
2233.514839714377
 21
2345.227050641317
 31
0.0
  0
LINE
  5
158
330
B2
100
AcDbEntity
  8
0
  6
CONTINUOUS
 62
     7
100
AcDbLine
 10
2237.481948028476
 20
2337.017301640117
 30
0.0
 11
2230.55854987717
 21
2343.940699791428
 31
0.0
  0
LINE
  5
159
330
B2
100
AcDbEntity
  8
0
  6
CONTINUOUS
 62
     7
100
AcDbLine
 10
2237.044894305875
 20
2336.040141800317
 30
0.0
 11
2229.934943428106
 21
2343.150092678405
 31
0.0
  0
LINE
  5
15A
330
B2
100
AcDbEntity
  8
0
  6
CONTINUOUS
 62
     7
100
AcDbLine
 10
2236.474534051275
 20
2335.196288492616
 30
0.0
 11
2229.444643510753
 21
2342.22617903282
 31
0.0
  0
LINE
  5
15B
330
B2
100
AcDbEntity
  8
0
  6
CONTINUOUS
 62
     7
100
AcDbLine
 10
2235.766073064278
 20
2334.490535917217
 30
0.0
 11
2229.092444326085
 21
2341.164164655405
 31
0.0
  0
ENDBLK
  5
B4
330
B2
100
AcDbEntity
  8
0
100
AcDbBlockEnd
  0
BLOCK
  5
B6
330
B5
100
AcDbEntity
  8
0
100
AcDbBlockBegin
  2
SYM-7
 70
     0
 10
0.0
 20
0.0
 30
0.0
  3
SYM-7
  1

  0
LINE
  5
15C
330
B5
100
AcDbEntity
  8
0
  6
CONTINUOUS
 62
     7
100
AcDbLine
 10
2235.766073064244
 20
1326.509464082784
 30
0.0
 11
2229.092444326076
 21
1319.835835344617
 31
0.0
  0
LINE
  5
15D
330
B5
100
AcDbEntity
  8
0
  6
CONTINUOUS
 62
     7
100
AcDbLine
 10
2236.474534051152
 20
1325.803711507577
 30
0.0
 11
2229.444643510878
 21
1318.773820967017
 31
0.0
  0
LINE
  5
15E
330
B5
100
AcDbEntity
  8
0
  6
CONTINUOUS
 62
     7
100
AcDbLine
 10
2237.044894305874
 20
1324.959858199713
 30
0.0
 11
2229.934943427976
 21
1317.849907321817
 31
0.0
  0
LINE
  5
15F
330
B5
100
AcDbEntity
  8
0
  6
CONTINUOUS
 62
     7
100
AcDbLine
 10
2237.481948028488
 20
1323.982698359924
 30
0.0
 11
2230.558549877175
 21
1317.059300208618
 31
0.0
  0
LINE
  5
160
330
B5
100
AcDbEntity
  8
0
  6
CONTINUOUS
 62
     7
100
AcDbLine
 10
2237.707638706575
 20
1319.965748350917
 30
0.0
 11
2233.514839714377
 21
1315.772949358717
 31
0.0
  0
LINE
  5
161
330
B5
100
AcDbEntity
  8
0
  6
CONTINUOUS
 62
     7
100
AcDbLine
 10
2237.884813675076
 20
1321.557136881817
 30
0.0
 11
2232.277004574075
 21
1315.949327780818
 31
0.0
  0
LINE
  5
162
330
B5
100
AcDbEntity
  8
0
  6
CONTINUOUS
 62
     7
100
AcDbLine
 10
2237.774143930176
 20
1322.860680699218
 30
0.0
 11
2231.327014147276
 21
1316.413550916317
 31
0.0
  0
LINE
  5
163
330
B5
100
AcDbEntity
  8
0
  6
CONTINUOUS
 62
     7
100
AcDbLine
 10
2234.894979345577
 20
1327.052583926517
 30
0.0
 11
2228.902877872879
 21
1321.060482453818
 31
0.0
  0
LINE
  5
164
330
B5
100
AcDbEntity
  8
0
  6
CONTINUOUS
 62
     7
100
AcDbLine
 10
2233.793636645975
 20
1327.365454789218
 30
0.0
 11
2228.943560400774
 21
1322.515378544118
 31
0.0
  0
LINE
  5
165
330
B5
100
AcDbEntity
  8
0
  6
CONTINUOUS
 62
     7
100
AcDbLine
 10
2232.197606429675
 20
1327.183638135317
 30
0.0
 11
2229.478930445378
 21
1324.464962151017
 31
0.0
  0
ELLIPSE
  5
166
330
B5
100
AcDbEntity
  8
0
  6
CONTINUOUS
 62
     7
100
AcDbEllipse
 10
2233.384848523378
 20
1321.580000000017
 30
0.0
 11
-2.224197421612835E-15
 21
5.809475019310011
 31
0.0
210
0.0
220
0.0
230
1.0
 40
0.774596669241632
 41
0.0
 42
6.283185307179586
  0
ENDBLK
  5
B7
330
B5
100
AcDbEntity
  8
0
100
AcDbBlockEnd
  0
BLOCK
  5
B9
330
B8
100
AcDbEntity
  8
0
100
AcDbBlockBegin
  2
SYM-8
 70
     0
 10
0.0
 20
0.0
 30
0.0
  3
SYM-8
  1

  0
LINE
  5
167
330
B8
100
AcDbEntity
  8
0
  6
CONTINUOUS
 62
     7
100
AcDbLine
 10
2236.101515190076
 20
1301.500000000016
 30
0.0
 11
2237.101515190079
 21
1300.500000000017
 31
0.0
  0
LINE
  5
168
330
B8
100
AcDbEntity
  8
0
  6
CONTINUOUS
 62
     7
100
AcDbLine
 10
2236.101515190076
 20
1309.500000000017
 30
0.0
 11
2237.101515190079
 21
1310.500000000017
 31
0.0
  0
LINE
  5
169
330
B8
100
AcDbEntity
  8
0
  6
CONTINUOUS
 62
     7
100
AcDbLine
 10
2225.701515190076
 20
1309.500000000017
 30
0.0
 11
2236.101515190076
 21
1309.500000000017
 31
0.0
  0
LINE
  5
16A
330
B8
100
AcDbEntity
  8
0
  6
CONTINUOUS
 62
     7
100
AcDbLine
 10
2225.701515190076
 20
1301.500000000016
 30
0.0
 11
2236.101515190076
 21
1301.500000000016
 31
0.0
  0
LINE
  5
16B
330
B8
100
AcDbEntity
  8
0
  6
CONTINUOUS
 62
     7
100
AcDbLine
 10
2211.101515190076
 20
1301.500000000016
 30
0.0
 11
2217.301515190073
 21
1301.500000000016
 31
0.0
  0
LINE
  5
16C
330
B8
100
AcDbEntity
  8
0
  6
CONTINUOUS
 62
     7
100
AcDbLine
 10
2212.101515190076
 20
1300.500000000017
 30
0.0
 11
2212.101515190076
 21
1310.500000000017
 31
0.0
  0
LINE
  5
16D
330
B8
100
AcDbEntity
  8
0
  6
CONTINUOUS
 62
     7
100
AcDbLine
 10
2211.101515190076
 20
1309.500000000017
 30
0.0
 11
2217.301515190073
 21
1309.500000000017
 31
0.0
  0
LINE
  5
16E
330
B8
100
AcDbEntity
  8
0
  6
CONTINUOUS
 62
     7
100
AcDbLine
 10
2241.101515190076
 20
1315.500000000017
 30
0.0
 11
2246.797515190075
 21
1315.500000000017
 31
0.0
  0
LINE
  5
16F
330
B8
100
AcDbEntity
  8
0
  6
CONTINUOUS
 62
     7
100
AcDbLine
 10
2243.441515190073
 20
1315.500000000018
 30
0.0
 11
2241.101515190076
 21
1317.780000000018
 31
0.0
  0
LINE
  5
170
330
B8
100
AcDbEntity
  8
0
  6
CONTINUOUS
 62
     7
100
AcDbLine
 10
2241.101515190087
 20
1317.621320343589
 30
0.0
 11
2241.181885405668
 21
1317.701690559168
 31
0.0
  0
LINE
  5
171
330
B8
100
AcDbEntity
  8
0
  6
CONTINUOUS
 62
     7
100
AcDbLine
 10
2241.10151519008
 20
1316.914213562395
 30
0.0
 11
2241.540030398731
 21
1317.352728771046
 31
0.0
  0
LINE
  5
172
330
B8
100
AcDbEntity
  8
0
  6
CONTINUOUS
 62
     7
100
AcDbLine
 10
2241.101515190076
 20
1316.207106781203
 30
0.0
 11
2241.898175391807
 21
1317.003766982936
 31
0.0
  0
LINE
  5
173
330
B8
100
AcDbEntity
  8
0
  6
CONTINUOUS
 62
     7
100
AcDbLine
 10
2241.101515190056
 20
1315.499999999997
 30
0.0
 11
2242.256320384872
 21
1316.654805194813
 31
0.0
  0
LINE
  5
174
330
B8
100
AcDbEntity
  8
0
  6
CONTINUOUS
 62
     7
100
AcDbLine
 10
2241.80862197125
 20
1315.500000000003
 30
0.0
 11
2242.614465377934
 21
1316.30584340669
 31
0.0
  0
LINE
  5
175
330
B8
100
AcDbEntity
  8
0
  6
CONTINUOUS
 62
     7
100
AcDbLine
 10
2242.515728752443
 20
1315.500000000011
 30
0.0
 11
2242.97261037101
 21
1315.956881618579
 31
0.0
  0
LINE
  5
176
330
B8
100
AcDbEntity
  8
0
  6
CONTINUOUS
 62
     7
100
AcDbLine
 10
2243.222835533625
 20
1315.500000000006
 30
0.0
 11
2243.330755364077
 21
1315.607919830458
 31
0.0
  0
LINE
  5
177
330
B8
100
AcDbEntity
  8
0
  6
CONTINUOUS
 62
     7
100
AcDbLine
 10
2241.101515190072
 20
1293.378679656463
 30
0.0
 11
2241.209435020522
 21
1293.270759826011
 31
0.0
  0
LINE
  5
178
330
B8
100
AcDbEntity
  8
0
  6
CONTINUOUS
 62
     7
100
AcDbLine
 10
2241.101515190076
 20
1293.160000000018
 30
0.0
 11
2243.381515190076
 21
1295.500000000017
 31
0.0
  0
LINE
  5
179
330
B8
100
AcDbEntity
  8
0
  6
CONTINUOUS
 62
     7
100
AcDbLine
 10
2243.222835533629
 20
1295.500000000022
 30
0.0
 11
2243.303205749235
 21
1295.419629784419
 31
0.0
  0
LINE
  5
17A
330
B8
100
AcDbEntity
  8
0
  6
CONTINUOUS
 62
     7
100
AcDbLine
 10
2242.515728752448
 20
1295.500000000017
 30
0.0
 11
2242.954243961109
 21
1295.061484791355
 31
0.0
  0
LINE
  5
17B
330
B8
100
AcDbEntity
  8
0
  6
CONTINUOUS
 62
     7
100
AcDbLine
 10
2241.808621971255
 20
1295.500000000024
 30
0.0
 11
2242.605282172999
 21
1294.70333979828
 31
0.0
  0
LINE
  5
17C
330
B8
100
AcDbEntity
  8
0
  6
CONTINUOUS
 62
     7
100
AcDbLine
 10
2241.101515190063
 20
1295.500000000031
 30
0.0
 11
2242.256320384879
 21
1294.345194805215
 31
0.0
  0
LINE
  5
17D
330
B8
100
AcDbEntity
  8
0
  6
CONTINUOUS
 62
     7
100
AcDbLine
 10
2241.101515190069
 20
1294.792893218837
 30
0.0
 11
2241.907358596753
 21
1293.987049812151
 31
0.0
  0
LINE
  5
17E
330
B8
100
AcDbEntity
  8
0
  6
CONTINUOUS
 62
     7
100
AcDbLine
 10
2241.101515190076
 20
1294.085786437645
 30
0.0
 11
2241.558396808644
 21
1293.628904819077
 31
0.0
  0
LINE
  5
17F
330
B8
100
AcDbEntity
  8
0
  6
CONTINUOUS
 62
     7
100
AcDbLine
 10
2241.101515190076
 20
1295.500000000017
 30
0.0
 11
2246.797515190075
 21
1295.500000000017
 31
0.0
  0
ARC
  5
180
330
B8
100
AcDbEntity
  8
0
  6
CONTINUOUS
 62
     7
100
AcDbCircle
 10
2242.710594735531
 20
1298.000000000017
 30
0.0
 40
4.790920454545454
100
AcDbArc
 50
328.5455606612213
 51
31.45443933877633
  0
LINE
  5
181
330
B8
100
AcDbEntity
  8
0
  6
CONTINUOUS
 62
     7
100
AcDbLine
 10
2247.501515190074
 20
1298.000000000017
 30
0.0
 11
2247.501515190074
 21
1313.000000000017
 31
0.0
  0
ARC
  5
182
330
B8
100
AcDbEntity
  8
0
  6
CONTINUOUS
 62
     7
100
AcDbCircle
 10
2229.393833371892
 20
1305.500000000017
 30
0.0
 40
18.10768181818181
100
AcDbArc
 50
343.9708781133889
 51
16.02912188661214
  0
ARC
  5
183
330
B8
100
AcDbEntity
  8
0
  6
CONTINUOUS
 62
     7
100
AcDbCircle
 10
2242.710594735531
 20
1313.000000000017
 30
0.0
 40
4.790920454545454
100
AcDbArc
 50
328.5455606612239
 51
31.45443933877633
  0
LINE
  5
184
330
B8
100
AcDbEntity
  8
0
  6
CONTINUOUS
 62
     7
100
AcDbLine
 10
2236.101515190076
 20
1310.500000000017
 30
0.0
 11
2236.101515190076
 21
1300.500000000017
 31
0.0
  0
LINE
  5
185
330
B8
100
AcDbEntity
  8
0
  6
CONTINUOUS
 62
     7
100
AcDbLine
 10
2246.797515190075
 20
1300.500000000017
 30
0.0
 11
2218.225515190074
 21
1300.500000000017
 31
0.0
  0
LINE
  5
186
330
B8
100
AcDbEntity
  8
0
  6
CONTINUOUS
 62
     7
100
AcDbLine
 10
2246.797515190075
 20
1310.500000000017
 30
0.0
 11
2218.225515190074
 21
1310.500000000017
 31
0.0
  0
LINE
  5
187
330
B8
100
AcDbEntity
  8
0
  6
CONTINUOUS
 62
     7
100
AcDbLine
 10
2212.101515190076
 20
1300.500000000017
 30
0.0
 11
2211.101515190076
 21
1301.500000000016
 31
0.0
  0
LINE
  5
188
330
B8
100
AcDbEntity
  8
0
  6
CONTINUOUS
 62
     7
100
AcDbLine
 10
2212.101515190076
 20
1310.500000000017
 30
0.0
 11
2211.101515190076
 21
1309.500000000017
 31
0.0
  0
LINE
  5
189
330
B8
100
AcDbEntity
  8
0
  6
CONTINUOUS
 62
     7
100
AcDbLine
 10
2211.101515190076
 20
1301.500000000016
 30
0.0
 11
2211.101515190076
 21
1309.500000000017
 31
0.0
  0
LINE
  5
18A
330
B8
100
AcDbEntity
  8
0
  6
CONTINUOUS
 62
     7
100
AcDbLine
 10
2217.301515190073
 20
1310.500000000017
 30
0.0
 11
2212.101515190076
 21
1310.500000000017
 31
0.0
  0
LINE
  5
18B
330
B8
100
AcDbEntity
  8
0
  6
CONTINUOUS
 62
     7
100
AcDbLine
 10
2217.301515190073
 20
1300.500000000017
 30
0.0
 11
2212.101515190076
 21
1300.500000000017
 31
0.0
  0
LINE
  5
18C
330
B8
100
AcDbEntity
  8
0
  6
CONTINUOUS
 62
     7
100
AcDbLine
 10
2225.701515190076
 20
1315.500000000017
 30
0.0
 11
2218.225515190074
 21
1315.500000000017
 31
0.0
  0
LINE
  5
18D
330
B8
100
AcDbEntity
  8
0
  6
CONTINUOUS
 62
     7
100
AcDbLine
 10
2225.701515190076
 20
1295.500000000017
 30
0.0
 11
2218.225515190074
 21
1295.500000000017
 31
0.0
  0
ARC
  5
18E
330
B8
100
AcDbEntity
  8
0
  6
CONTINUOUS
 62
     7
100
AcDbCircle
 10
2221.145549822113
 20
1313.000000000017
 30
0.0
 40
3.844034632034633
100
AcDbArc
 50
139.4313750266288
 51
220.5686249733687
  0
ARC
  5
18F
330
B8
100
AcDbEntity
  8
0
  6
CONTINUOUS
 62
     7
100
AcDbCircle
 10
2231.291653718213
 20
1305.500000000017
 30
0.0
 40
13.99013852813853
100
AcDbArc
 50
159.0597243938583
 51
200.9402756061408
  0
ARC
  5
190
330
B8
100
AcDbEntity
  8
0
  6
CONTINUOUS
 62
     7
100
AcDbCircle
 10
2221.145549822113
 20
1298.000000000016
 30
0.0
 40
3.844034632034633
100
AcDbArc
 50
139.4313750266313
 51
220.5686249733714
  0
LINE
  5
191
330
B8
100
AcDbEntity
  8
0
  6
CONTINUOUS
 62
     7
100
AcDbLine
 10
2217.301515190073
 20
1313.000000000017
 30
0.0
 11
2217.301515190073
 21
1298.000000000016
 31
0.0
  0
ENDBLK
  5
BA
330
B8
100
AcDbEntity
  8
0
100
AcDbBlockEnd
  0
BLOCK
  5
BC
330
BB
100
AcDbEntity
  8
0
100
AcDbBlockBegin
  2
SYM-9
 70
     0
 10
0.0
 20
0.0
 30
0.0
  3
SYM-9
  1

  0
ELLIPSE
  5
192
330
BB
100
AcDbEntity
  8
0
  6
CONTINUOUS
 62
     7
100
AcDbEllipse
 10
656.0800000000862
 20
742.2166666666559
 30
0.0
 11
-5.809475019310011
 21
7.114554987124514E-16
 31
0.0
210
0.0
220
0.0
230
1.0
 40
0.774596669241632
 41
0.0
 42
6.283185307179586
  0
LINE
  5
193
330
BB
100
AcDbEntity
  8
0
  6
CONTINUOUS
 62
     7
100
AcDbLine
 10
661.6836381353859
 20
743.4039087603567
 30
0.0
 11
658.9649621510862
 21
746.1225847446565
 31
0.0
  0
LINE
  5
194
330
BB
100
AcDbEntity
  8
0
  6
CONTINUOUS
 62
     7
100
AcDbLine
 10
661.8654547892866
 20
741.8078785440563
 30
0.0
 11
657.0153785441861
 21
746.6579547892559
 31
0.0
  0
LINE
  5
195
330
BB
100
AcDbEntity
  8
0
  6
CONTINUOUS
 62
     7
100
AcDbLine
 10
661.5525839265865
 20
740.7065358444563
 30
0.0
 11
655.5604824538867
 21
746.6986373171565
 31
0.0
  0
LINE
  5
196
330
BB
100
AcDbEntity
  8
0
  6
CONTINUOUS
 62
     7
100
AcDbLine
 10
657.3606806992866
 20
737.8273712598562
 30
0.0
 11
650.9135509163862
 21
744.2745010427559
 31
0.0
  0
LINE
  5
197
330
BB
100
AcDbEntity
  8
0
  6
CONTINUOUS
 62
     7
100
AcDbLine
 10
656.0571368818864
 20
737.716701514956
 30
0.0
 11
650.449327780886
 21
743.3245106159563
 31
0.0
  0
LINE
  5
198
330
BB
100
AcDbEntity
  8
0
  6
CONTINUOUS
 62
     7
100
AcDbLine
 10
654.4657483509864
 20
737.8938764834568
 30
0.0
 11
650.2729493587857
 21
742.0866754756569
 31
0.0
  0
LINE
  5
199
330
BB
100
AcDbEntity
  8
0
  6
CONTINUOUS
 62
     7
100
AcDbLine
 10
661.0094640828866
 20
739.835442125756
 30
0.0
 11
654.3358353446946
 21
746.509070863948
 31
0.0
  0
LINE
  5
19A
330
BB
100
AcDbEntity
  8
0
  6
CONTINUOUS
 62
     7
100
AcDbLine
 10
660.3037115074867
 20
739.1269811387567
 30
0.0
 11
653.2738209672852
 21
746.156871679282
 31
0.0
  0
LINE
  5
19B
330
BB
100
AcDbEntity
  8
0
  6
CONTINUOUS
 62
     7
100
AcDbLine
 10
659.4598581997861
 20
738.5566208841562
 30
0.0
 11
652.3499073217044
 21
745.6665717619314
 31
0.0
  0
LINE
  5
19C
330
BB
100
AcDbEntity
  8
0
  6
CONTINUOUS
 62
     7
100
AcDbLine
 10
658.4826983599869
 20
738.1195671615571
 30
0.0
 11
651.5593002086753
 21
745.0429653128642
 31
0.0
  0
ENDBLK
  5
BD
330
BB
100
AcDbEntity
  8
0
100
AcDbBlockEnd
  0
BLOCK
  5
BF
330
BE
100
AcDbEntity
  8
0
100
AcDbBlockBegin
  2
SYM-10
 70
     0
 10
0.0
 20
0.0
 30
0.0
  3
SYM-10
  1

  0
LINE
  5
19D
330
BE
100
AcDbEntity
  8
0
  6
CONTINUOUS
 62
     7
100
AcDbLine
 10
636.0000000000855
 20
764.4999999999561
 30
0.0
 11
636.0000000000855
 21
760.2999999999568
 31
0.0
  0
LINE
  5
19E
330
BE
100
AcDbEntity
  8
0
  6
CONTINUOUS
 62
     7
100
AcDbLine
 10
644.0000000000854
 20
764.4999999999561
 30
0.0
 11
644.0000000000854
 21
760.2999999999568
 31
0.0
  0
LINE
  5
19F
330
BE
100
AcDbEntity
  8
0
  6
CONTINUOUS
 62
     7
100
AcDbLine
 10
645.0000000000855
 20
760.2999999999568
 30
0.0
 11
645.0000000000855
 21
763.4999999999566
 31
0.0
  0
LINE
  5
1A0
330
BE
100
AcDbEntity
  8
0
  6
CONTINUOUS
 62
     7
100
AcDbLine
 10
635.0000000000855
 20
760.2999999999568
 30
0.0
 11
635.0000000000855
 21
763.4999999999566
 31
0.0
  0
LINE
  5
1A1
330
BE
100
AcDbEntity
  8
0
  6
CONTINUOUS
 62
     7
100
AcDbLine
 10
645.0000000000855
 20
751.8999999999565
 30
0.0
 11
645.0000000000855
 21
759.3759999999568
 31
0.0
  0
LINE
  5
1A2
330
BE
100
AcDbEntity
  8
0
  6
CONTINUOUS
 62
     7
100
AcDbLine
 10
635.0000000000855
 20
751.8999999999565
 30
0.0
 11
635.0000000000855
 21
759.3759999999568
 31
0.0
  0
LINE
  5
1A3
330
BE
100
AcDbEntity
  8
0
  6
CONTINUOUS
 62
     7
100
AcDbLine
 10
644.0000000000899
 20
764.4999999999561
 30
0.0
 11
636.000000000091
 21
764.4999999999561
 31
0.0
  0
LINE
  5
1A4
330
BE
100
AcDbEntity
  8
0
  6
CONTINUOUS
 62
     7
100
AcDbLine
 10
645.000000000091
 20
763.4999999999566
 30
0.0
 11
635.00000000009
 21
763.4999999999566
 31
0.0
  0
LINE
  5
1A5
330
BE
100
AcDbEntity
  8
0
  6
CONTINUOUS
 62
     7
100
AcDbLine
 10
635.00000000009
 20
763.4999999999566
 30
0.0
 11
636.000000000091
 21
764.4999999999561
 31
0.0
  0
LINE
  5
1A6
330
BE
100
AcDbEntity
  8
0
  6
CONTINUOUS
 62
     7
100
AcDbLine
 10
645.000000000091
 20
763.4999999999566
 30
0.0
 11
644.0000000000899
 21
764.4999999999561
 31
0.0
  0
LINE
  5
1A7
330
BE
100
AcDbEntity
  8
0
  6
CONTINUOUS
 62
     7
100
AcDbLine
 10
650.0000000000854
 20
751.8999999999565
 30
0.0
 11
650.0000000000854
 21
759.3759999999568
 31
0.0
  0
LINE
  5
1A8
330
BE
100
AcDbEntity
  8
0
  6
CONTINUOUS
 62
     7
100
AcDbLine
 10
630.0000000000864
 20
751.8999999999565
 30
0.0
 11
630.0000000000864
 21
759.3759999999568
 31
0.0
  0
ARC
  5
1A9
330
BE
100
AcDbEntity
  8
0
  6
CONTINUOUS
 62
     7
100
AcDbCircle
 10
647.5000000000855
 20
756.4559653679217
 30
0.0
 40
3.844034632034633
100
AcDbArc
 50
49.43137502657837
 51
130.5686249733964
  0
ARC
  5
1AA
330
BE
100
AcDbEntity
  8
0
  6
CONTINUOUS
 62
     7
100
AcDbCircle
 10
640.0000000000855
 20
746.3098614718185
 30
0.0
 40
13.99013852813853
100
AcDbArc
 50
69.0597243938585
 51
110.9402756061383
  0
ARC
  5
1AB
330
BE
100
AcDbEntity
  8
0
  6
CONTINUOUS
 62
     7
100
AcDbCircle
 10
632.5000000000855
 20
756.4559653679217
 30
0.0
 40
3.844034632034633
100
AcDbArc
 50
49.43137502657837
 51
130.5686249733964
  0
LINE
  5
1AC
330
BE
100
AcDbEntity
  8
0
  6
CONTINUOUS
 62
     7
100
AcDbLine
 10
647.5000000000855
 20
760.2999999999568
 30
0.0
 11
632.5000000000855
 21
760.2999999999568
 31
0.0
  0
LINE
  5
1AD
330
BE
100
AcDbEntity
  8
0
  6
CONTINUOUS
 62
     7
100
AcDbLine
 10
650.5000000000855
 20
751.8999999999565
 30
0.0
 11
650.5000000000855
 21
749.8999999999558
 31
0.0
  0
LINE
  5
1AE
330
BE
100
AcDbEntity
  8
0
  6
CONTINUOUS
 62
     7
100
AcDbLine
 10
629.5000000000855
 20
751.8999999999565
 30
0.0
 11
650.5000000000855
 21
751.8999999999565
 31
0.0
  0
LINE
  5
1AF
330
BE
100
AcDbEntity
  8
0
  6
CONTINUOUS
 62
     7
100
AcDbLine
 10
629.5000000000855
 20
751.8999999999565
 30
0.0
 11
629.5000000000855
 21
749.8999999999558
 31
0.0
  0
LINE
  5
1B0
330
BE
100
AcDbEntity
  8
0
  6
CONTINUOUS
 62
     7
100
AcDbLine
 10
635.0000000000855
 20
728.8039999999561
 30
0.0
 11
635.0000000000855
 21
749.8999999999558
 31
0.0
  0
LINE
  5
1B1
330
BE
100
AcDbEntity
  8
0
  6
CONTINUOUS
 62
     7
100
AcDbLine
 10
636.0000000000855
 20
749.8999999999567
 30
0.0
 11
636.0000000000855
 21
739.4999999999565
 31
0.0
  0
LINE
  5
1B2
330
BE
100
AcDbEntity
  8
0
  6
CONTINUOUS
 62
     7
100
AcDbLine
 10
644.0000000000854
 20
749.8999999999567
 30
0.0
 11
644.0000000000854
 21
739.4999999999565
 31
0.0
  0
LINE
  5
1B3
330
BE
100
AcDbEntity
  8
0
  6
CONTINUOUS
 62
     7
100
AcDbLine
 10
645.0000000000855
 20
728.8039999999561
 30
0.0
 11
645.0000000000855
 21
749.8999999999558
 31
0.0
  0
LINE
  5
1B4
330
BE
100
AcDbEntity
  8
0
  6
CONTINUOUS
 62
     7
100
AcDbLine
 10
645.0000000000855
 20
739.4999999999565
 30
0.0
 11
635.0000000000855
 21
739.4999999999565
 31
0.0
  0
LINE
  5
1B5
330
BE
100
AcDbEntity
  8
0
  6
CONTINUOUS
 62
     7
100
AcDbLine
 10
644.0000000000854
 20
739.4999999999565
 30
0.0
 11
645.0000000000855
 21
738.4999999999561
 31
0.0
  0
LINE
  5
1B6
330
BE
100
AcDbEntity
  8
0
  6
CONTINUOUS
 62
     7
100
AcDbLine
 10
636.0000000000855
 20
739.4999999999565
 30
0.0
 11
635.0000000000855
 21
738.4999999999561
 31
0.0
  0
ARC
  5
1B7
330
BE
100
AcDbEntity
  8
0
  6
CONTINUOUS
 62
     7
100
AcDbCircle
 10
647.5000000000855
 20
732.8909204545018
 30
0.0
 40
4.790920454545454
100
AcDbArc
 50
238.5455606612269
 51
301.4544393387824
  0
ARC
  5
1B8
330
BE
100
AcDbEntity
  8
0
  6
CONTINUOUS
 62
     7
100
AcDbCircle
 10
640.0000000000855
 20
746.2076818181382
 30
0.0
 40
18.10768181818181
100
AcDbArc
 50
253.9708781133897
 51
286.0291218866135
  0
ARC
  5
1B9
330
BE
100
AcDbEntity
  8
0
  6
CONTINUOUS
 62
     7
100
AcDbCircle
 10
632.5000000000855
 20
732.8909204545018
 30
0.0
 40
4.790920454545454
100
AcDbArc
 50
238.5455606612384
 51
301.4544393387824
  0
LINE
  5
1BA
330
BE
100
AcDbEntity
  8
0
  6
CONTINUOUS
 62
     7
100
AcDbLine
 10
630.0000000000864
 20
734.4999999999561
 30
0.0
 11
630.0000000000864
 21
728.8039999999561
 31
0.0
  0
LINE
  5
1BB
330
BE
100
AcDbEntity
  8
0
  6
CONTINUOUS
 62
     7
100
AcDbLine
 10
650.0000000000854
 20
734.4999999999561
 30
0.0
 11
650.0000000000854
 21
728.8039999999561
 31
0.0
  0
LINE
  5
1BC
330
BE
100
AcDbEntity
  8
0
  6
CONTINUOUS
 62
     7
100
AcDbLine
 10
632.5000000000855
 20
728.0999999999565
 30
0.0
 11
647.5000000000855
 21
728.0999999999565
 31
0.0
  0
LINE
  5
1BD
330
BE
100
AcDbEntity
  8
0
  6
CONTINUOUS
 62
     7
100
AcDbLine
 10
650.0000000000882
 20
732.1599999999564
 30
0.0
 11
652.280000000086
 21
734.4999999999561
 31
0.0
  0
LINE
  5
1BE
330
BE
100
AcDbEntity
  8
0
  6
CONTINUOUS
 62
     7
100
AcDbLine
 10
652.1213203436364
 20
734.4999999999652
 30
0.0
 11
652.20169055925
 21
734.4196297843516
 31
0.0
  0
LINE
  5
1BF
330
BE
100
AcDbEntity
  8
0
  6
CONTINUOUS
 62
     7
100
AcDbLine
 10
651.4142135624434
 20
734.4999999999724
 30
0.0
 11
651.8527287711286
 21
734.0614847912864
 31
0.0
  0
LINE
  5
1C0
330
BE
100
AcDbEntity
  8
0
  6
CONTINUOUS
 62
     7
100
AcDbLine
 10
650.7071067812622
 20
734.499999999967
 30
0.0
 11
651.5037669830062
 21
733.7033397982228
 31
0.0
  0
LINE
  5
1C1
330
BE
100
AcDbEntity
  8
0
  6
CONTINUOUS
 62
     7
100
AcDbLine
 10
650.0000000000919
 20
734.4999999999502
 30
0.0
 11
651.1548051948956
 21
733.3451948051459
 31
0.0
  0
LINE
  5
1C2
330
BE
100
AcDbEntity
  8
0
  6
CONTINUOUS
 62
     7
100
AcDbLine
 10
650.0000000000973
 20
733.7928932187567
 30
0.0
 11
650.8058434067716
 21
732.9870498120824
 31
0.0
  0
LINE
  5
1C3
330
BE
100
AcDbEntity
  8
0
  6
CONTINUOUS
 62
     7
100
AcDbLine
 10
650.0000000000936
 20
733.0857864375755
 30
0.0
 11
650.456881618662
 21
732.6289048190066
 31
0.0
  0
LINE
  5
1C4
330
BE
100
AcDbEntity
  8
0
  6
CONTINUOUS
 62
     7
100
AcDbLine
 10
650.0000000000882
 20
732.3786796563943
 30
0.0
 11
650.1079198305397
 21
732.2707598259419
 31
0.0
  0
LINE
  5
1C5
330
BE
100
AcDbEntity
  8
0
  6
CONTINUOUS
 62
     7
100
AcDbLine
 10
627.6600000000863
 20
734.4999999999542
 30
0.0
 11
630.0000000000864
 21
732.2199999999555
 31
0.0
  0
LINE
  5
1C6
330
BE
100
AcDbEntity
  8
0
  6
CONTINUOUS
 62
     7
100
AcDbLine
 10
627.7707598260886
 20
734.3920801695197
 30
0.0
 11
627.8786796565182
 21
734.4999999999479
 31
0.0
  0
LINE
  5
1C7
330
BE
100
AcDbEntity
  8
0
  6
CONTINUOUS
 62
     7
100
AcDbLine
 10
628.1289048191538
 20
734.0431183813969
 30
0.0
 11
628.5857864377103
 21
734.4999999999542
 31
0.0
  0
LINE
  5
1C8
330
BE
100
AcDbEntity
  8
0
  6
CONTINUOUS
 62
     7
100
AcDbLine
 10
628.4870498122181
 20
733.6941565932746
 30
0.0
 11
629.2928932189151
 21
734.4999999999724
 31
0.0
  0
LINE
  5
1C9
330
BE
100
AcDbEntity
  8
0
  6
CONTINUOUS
 62
     7
100
AcDbLine
 10
628.8451948052934
 20
733.345194805164
 30
0.0
 11
630.0000000000855
 21
734.4999999999557
 31
0.0
  0
LINE
  5
1CA
330
BE
100
AcDbEntity
  8
0
  6
CONTINUOUS
 62
     7
100
AcDbLine
 10
629.2033397983569
 20
732.9962330170417
 30
0.0
 11
630.0000000000782
 21
733.7928932187621
 31
0.0
  0
LINE
  5
1CB
330
BE
100
AcDbEntity
  8
0
  6
CONTINUOUS
 62
     7
100
AcDbLine
 10
629.5614847914221
 20
732.6472712289197
 30
0.0
 11
630.0000000000837
 21
733.085786437581
 31
0.0
  0
LINE
  5
1CC
330
BE
100
AcDbEntity
  8
0
  6
CONTINUOUS
 62
     7
100
AcDbLine
 10
629.9196297844865
 20
732.2983094407971
 30
0.0
 11
630.0000000000773
 21
732.3786796563879
 31
0.0
  0
ENDBLK
  5
C0
330
BE
100
AcDbEntity
  8
0
100
AcDbBlockEnd
  0
BLOCK
  5
C2
330
C1
100
AcDbEntity
  8
0
100
AcDbBlockBegin
  2
SYM-11
 70
     0
 10
0.0
 20
0.0
 30
0.0
  3
SYM-11
  1

  0
ELLIPSE
  5
1CD
330
C1
100
AcDbEntity
  8
0
  6
CONTINUOUS
 62
     7
100
AcDbEllipse
 10
1673.920000000072
 20
742.2166666666559
 30
0.0
 11
-5.809475019310011
 21
7.114554987124514E-16
 31
0.0
210
0.0
220
0.0
230
1.0
 40
0.774596669241632
 41
0.0
 42
6.283185307179586
  0
LINE
  5
1CE
330
C1
100
AcDbEntity
  8
0
  6
CONTINUOUS
 62
     7
100
AcDbLine
 10
1668.316361864771
 20
743.4039087603567
 30
0.0
 11
1671.035037849072
 21
746.1225847446565
 31
0.0
  0
LINE
  5
1CF
330
C1
100
AcDbEntity
  8
0
  6
CONTINUOUS
 62
     7
100
AcDbLine
 10
1668.134545210871
 20
741.8078785440563
 30
0.0
 11
1672.98462145597
 21
746.6579547892559
 31
0.0
  0
LINE
  5
1D0
330
C1
100
AcDbEntity
  8
0
  6
CONTINUOUS
 62
     7
100
AcDbLine
 10
1668.447416073571
 20
740.7065358444563
 30
0.0
 11
1674.439517546272
 21
746.6986373171565
 31
0.0
  0
LINE
  5
1D1
330
C1
100
AcDbEntity
  8
0
  6
CONTINUOUS
 62
     7
100
AcDbLine
 10
1672.639319300871
 20
737.8273712598562
 30
0.0
 11
1679.086449083773
 21
744.2745010427559
 31
0.0
  0
LINE
  5
1D2
330
C1
100
AcDbEntity
  8
0
  6
CONTINUOUS
 62
     7
100
AcDbLine
 10
1673.942863118271
 20
737.716701514956
 30
0.0
 11
1679.550672219273
 21
743.3245106159563
 31
0.0
  0
LINE
  5
1D3
330
C1
100
AcDbEntity
  8
0
  6
CONTINUOUS
 62
     7
100
AcDbLine
 10
1675.534251649171
 20
737.8938764834568
 30
0.0
 11
1679.727050641371
 21
742.0866754756569
 31
0.0
  0
LINE
  5
1D4
330
C1
100
AcDbEntity
  8
0
  6
CONTINUOUS
 62
     7
100
AcDbLine
 10
1668.990535917271
 20
739.835442125756
 30
0.0
 11
1675.664164655465
 21
746.509070863948
 31
0.0
  0
LINE
  5
1D5
330
C1
100
AcDbEntity
  8
0
  6
CONTINUOUS
 62
     7
100
AcDbLine
 10
1669.696288492671
 20
739.1269811387567
 30
0.0
 11
1676.726179032875
 21
746.1568716792809
 31
0.0
  0
LINE
  5
1D6
330
C1
100
AcDbEntity
  8
0
  6
CONTINUOUS
 62
     7
100
AcDbLine
 10
1670.540141800373
 20
738.5566208841562
 30
0.0
 11
1677.650092678454
 21
745.6665717619314
 31
0.0
  0
LINE
  5
1D7
330
C1
100
AcDbEntity
  8
0
  6
CONTINUOUS
 62
     7
100
AcDbLine
 10
1671.517301640172
 20
738.1195671615571
 30
0.0
 11
1678.440699791481
 21
745.0429653128655
 31
0.0
  0
ENDBLK
  5
C3
330
C1
100
AcDbEntity
  8
0
100
AcDbBlockEnd
  0
BLOCK
  5
C5
330
C4
100
AcDbEntity
  8
0
100
AcDbBlockBegin
  2
SYM-12
 70
     0
 10
0.0
 20
0.0
 30
0.0
  3
SYM-12
  1

  0
LINE
  5
1D8
330
C4
100
AcDbEntity
  8
0
  6
CONTINUOUS
 62
     7
100
AcDbLine
 10
1685.000000000072
 20
763.4999999999566
 30
0.0
 11
1695.000000000073
 21
763.4999999999566
 31
0.0
  0
LINE
  5
1D9
330
C4
100
AcDbEntity
  8
0
  6
CONTINUOUS
 62
     7
100
AcDbLine
 10
1685.000000000072
 20
763.4999999999566
 30
0.0
 11
1686.000000000073
 21
764.4999999999561
 31
0.0
  0
LINE
  5
1DA
330
C4
100
AcDbEntity
  8
0
  6
CONTINUOUS
 62
     7
100
AcDbLine
 10
1695.000000000073
 20
763.4999999999566
 30
0.0
 11
1694.000000000072
 21
764.4999999999561
 31
0.0
  0
LINE
  5
1DB
330
C4
100
AcDbEntity
  8
0
  6
CONTINUOUS
 62
     7
100
AcDbLine
 10
1686.000000000073
 20
764.4999999999561
 30
0.0
 11
1694.000000000072
 21
764.4999999999561
 31
0.0
  0
LINE
  5
1DC
330
C4
100
AcDbEntity
  8
0
  6
CONTINUOUS
 62
     7
100
AcDbLine
 10
1686.000000000073
 20
764.4999999999561
 30
0.0
 11
1686.000000000073
 21
760.2999999999568
 31
0.0
  0
LINE
  5
1DD
330
C4
100
AcDbEntity
  8
0
  6
CONTINUOUS
 62
     7
100
AcDbLine
 10
1694.000000000072
 20
764.4999999999561
 30
0.0
 11
1694.000000000072
 21
760.2999999999568
 31
0.0
  0
LINE
  5
1DE
330
C4
100
AcDbEntity
  8
0
  6
CONTINUOUS
 62
     7
100
AcDbLine
 10
1695.000000000073
 20
760.2999999999568
 30
0.0
 11
1695.000000000073
 21
763.4999999999566
 31
0.0
  0
LINE
  5
1DF
330
C4
100
AcDbEntity
  8
0
  6
CONTINUOUS
 62
     7
100
AcDbLine
 10
1685.000000000072
 20
760.2999999999568
 30
0.0
 11
1685.000000000072
 21
763.4999999999566
 31
0.0
  0
LINE
  5
1E0
330
C4
100
AcDbEntity
  8
0
  6
CONTINUOUS
 62
     7
100
AcDbLine
 10
1695.000000000073
 20
751.8999999999565
 30
0.0
 11
1695.000000000073
 21
759.3759999999568
 31
0.0
  0
LINE
  5
1E1
330
C4
100
AcDbEntity
  8
0
  6
CONTINUOUS
 62
     7
100
AcDbLine
 10
1685.000000000072
 20
751.8999999999565
 30
0.0
 11
1685.000000000072
 21
759.3759999999568
 31
0.0
  0
LINE
  5
1E2
330
C4
100
AcDbEntity
  8
0
  6
CONTINUOUS
 62
     7
100
AcDbLine
 10
1680.000000000073
 20
751.8999999999565
 30
0.0
 11
1680.000000000073
 21
759.3759999999568
 31
0.0
  0
ARC
  5
1E3
330
C4
100
AcDbEntity
  8
0
  6
CONTINUOUS
 62
     7
100
AcDbCircle
 10
1697.500000000072
 20
756.4559653679217
 30
0.0
 40
3.844034632034633
100
AcDbArc
 50
49.4313750266144
 51
130.5686249733918
  0
ARC
  5
1E4
330
C4
100
AcDbEntity
  8
0
  6
CONTINUOUS
 62
     7
100
AcDbCircle
 10
1690.000000000072
 20
746.3098614718185
 30
0.0
 40
13.99013852813853
100
AcDbArc
 50
69.05972439385523
 51
110.9402756061494
  0
ARC
  5
1E5
330
C4
100
AcDbEntity
  8
0
  6
CONTINUOUS
 62
     7
100
AcDbCircle
 10
1682.500000000072
 20
756.4559653679217
 30
0.0
 40
3.844034632034633
100
AcDbArc
 50
49.4313750266144
 51
130.5686249733918
  0
LINE
  5
1E6
330
C4
100
AcDbEntity
  8
0
  6
CONTINUOUS
 62
     7
100
AcDbLine
 10
1697.500000000072
 20
760.2999999999568
 30
0.0
 11
1682.500000000072
 21
760.2999999999568
 31
0.0
  0
LINE
  5
1E7
330
C4
100
AcDbEntity
  8
0
  6
CONTINUOUS
 62
     7
100
AcDbLine
 10
1679.500000000072
 20
751.8999999999565
 30
0.0
 11
1700.500000000073
 21
751.8999999999565
 31
0.0
  0
LINE
  5
1E8
330
C4
100
AcDbEntity
  8
0
  6
CONTINUOUS
 62
     7
100
AcDbLine
 10
1700.000000000072
 20
751.8999999999565
 30
0.0
 11
1700.000000000072
 21
759.3759999999568
 31
0.0
  0
LINE
  5
1E9
330
C4
100
AcDbEntity
  8
0
  6
CONTINUOUS
 62
     7
100
AcDbLine
 10
1679.500000000072
 20
751.8999999999565
 30
0.0
 11
1679.500000000072
 21
749.8999999999558
 31
0.0
  0
LINE
  5
1EA
330
C4
100
AcDbEntity
  8
0
  6
CONTINUOUS
 62
     7
100
AcDbLine
 10
1700.500000000073
 20
751.8999999999565
 30
0.0
 11
1700.500000000073
 21
749.8999999999558
 31
0.0
  0
LINE
  5
1EB
330
C4
100
AcDbEntity
  8
0
  6
CONTINUOUS
 62
     7
100
AcDbLine
 10
1685.000000000072
 20
728.8039999999561
 30
0.0
 11
1685.000000000072
 21
749.8999999999558
 31
0.0
  0
LINE
  5
1EC
330
C4
100
AcDbEntity
  8
0
  6
CONTINUOUS
 62
     7
100
AcDbLine
 10
1686.000000000073
 20
749.8999999999567
 30
0.0
 11
1686.000000000073
 21
739.4999999999565
 31
0.0
  0
LINE
  5
1ED
330
C4
100
AcDbEntity
  8
0
  6
CONTINUOUS
 62
     7
100
AcDbLine
 10
1694.000000000072
 20
749.8999999999567
 30
0.0
 11
1694.000000000072
 21
739.4999999999565
 31
0.0
  0
LINE
  5
1EE
330
C4
100
AcDbEntity
  8
0
  6
CONTINUOUS
 62
     7
100
AcDbLine
 10
1695.000000000073
 20
728.8039999999561
 30
0.0
 11
1695.000000000073
 21
749.8999999999558
 31
0.0
  0
LINE
  5
1EF
330
C4
100
AcDbEntity
  8
0
  6
CONTINUOUS
 62
     7
100
AcDbLine
 10
1694.000000000072
 20
739.4999999999565
 30
0.0
 11
1695.000000000073
 21
738.4999999999561
 31
0.0
  0
LINE
  5
1F0
330
C4
100
AcDbEntity
  8
0
  6
CONTINUOUS
 62
     7
100
AcDbLine
 10
1695.000000000073
 20
739.4999999999565
 30
0.0
 11
1685.000000000072
 21
739.4999999999565
 31
0.0
  0
LINE
  5
1F1
330
C4
100
AcDbEntity
  8
0
  6
CONTINUOUS
 62
     7
100
AcDbLine
 10
1686.000000000073
 20
739.4999999999565
 30
0.0
 11
1685.000000000072
 21
738.4999999999561
 31
0.0
  0
ARC
  5
1F2
330
C4
100
AcDbEntity
  8
0
  6
CONTINUOUS
 62
     7
100
AcDbCircle
 10
1690.000000000072
 20
746.2076818181382
 30
0.0
 40
18.10768181818181
100
AcDbArc
 50
253.9708781133825
 51
286.0291218866138
  0
ARC
  5
1F3
330
C4
100
AcDbEntity
  8
0
  6
CONTINUOUS
 62
     7
100
AcDbCircle
 10
1697.500000000072
 20
732.8909204545018
 30
0.0
 40
4.790920454545454
100
AcDbArc
 50
238.5455606612373
 51
301.4544393387538
  0
LINE
  5
1F4
330
C4
100
AcDbEntity
  8
0
  6
CONTINUOUS
 62
     7
100
AcDbLine
 10
1700.000000000072
 20
734.4999999999561
 30
0.0
 11
1700.000000000072
 21
728.8039999999561
 31
0.0
  0
LINE
  5
1F5
330
C4
100
AcDbEntity
  8
0
  6
CONTINUOUS
 62
     7
100
AcDbLine
 10
1682.500000000072
 20
728.0999999999565
 30
0.0
 11
1697.500000000072
 21
728.0999999999565
 31
0.0
  0
ARC
  5
1F6
330
C4
100
AcDbEntity
  8
0
  6
CONTINUOUS
 62
     7
100
AcDbCircle
 10
1682.500000000072
 20
732.8909204545018
 30
0.0
 40
4.790920454545454
100
AcDbArc
 50
238.5455606612373
 51
301.4544393387538
  0
LINE
  5
1F7
330
C4
100
AcDbEntity
  8
0
  6
CONTINUOUS
 62
     7
100
AcDbLine
 10
1680.000000000073
 20
734.4999999999561
 30
0.0
 11
1680.000000000073
 21
728.8039999999561
 31
0.0
  0
LINE
  5
1F8
330
C4
100
AcDbEntity
  8
0
  6
CONTINUOUS
 62
     7
100
AcDbLine
 10
1700.000000000076
 20
733.0857864375796
 30
0.0
 11
1700.456881618645
 21
732.6289048190122
 31
0.0
  0
LINE
  5
1F9
330
C4
100
AcDbEntity
  8
0
  6
CONTINUOUS
 62
     7
100
AcDbLine
 10
1700.00000000007
 20
733.7928932187731
 30
0.0
 11
1700.805843406745
 21
732.9870498120979
 31
0.0
  0
LINE
  5
1FA
330
C4
100
AcDbEntity
  8
0
  6
CONTINUOUS
 62
     7
100
AcDbLine
 10
1700.000000000075
 20
734.4999999999542
 30
0.0
 11
1701.154805194867
 21
733.3451948051621
 31
0.0
  0
LINE
  5
1FB
330
C4
100
AcDbEntity
  8
0
  6
CONTINUOUS
 62
     7
100
AcDbLine
 10
1700.707106781257
 20
734.4999999999587
 30
0.0
 11
1701.50376698299
 21
733.703339798227
 31
0.0
  0
LINE
  5
1FC
330
C4
100
AcDbEntity
  8
0
  6
CONTINUOUS
 62
     7
100
AcDbLine
 10
1701.414213562439
 20
734.4999999999638
 30
0.0
 11
1701.852728771112
 21
734.0614847912909
 31
0.0
  0
LINE
  5
1FD
330
C4
100
AcDbEntity
  8
0
  6
CONTINUOUS
 62
     7
100
AcDbLine
 10
1700.000000000075
 20
732.1599999999564
 30
0.0
 11
1702.280000000075
 21
734.4999999999561
 31
0.0
  0
LINE
  5
1FE
330
C4
100
AcDbEntity
  8
0
  6
CONTINUOUS
 62
     7
100
AcDbLine
 10
1700.00000000006
 20
732.3786796564096
 30
0.0
 11
1700.107919830524
 21
732.2707598259474
 31
0.0
  0
LINE
  5
1FF
330
C4
100
AcDbEntity
  8
0
  6
CONTINUOUS
 62
     7
100
AcDbLine
 10
1702.12132034362
 20
734.4999999999693
 30
0.0
 11
1702.201690559222
 21
734.4196297843662
 31
0.0
  0
LINE
  5
200
330
C4
100
AcDbEntity
  8
0
  6
CONTINUOUS
 62
     7
100
AcDbLine
 10
1678.081855007006
 20
734.0889617880755
 30
0.0
 11
1678.492893218884
 21
734.4999999999529
 31
0.0
  0
LINE
  5
201
330
C4
100
AcDbEntity
  8
0
  6
CONTINUOUS
 62
     7
100
AcDbLine
 10
1678.440000000071
 20
733.7399999999536
 30
0.0
 11
1679.200000000076
 21
734.4999999999587
 31
0.0
  0
LINE
  5
202
330
C4
100
AcDbEntity
  8
0
  6
CONTINUOUS
 62
     7
100
AcDbLine
 10
1678.798144993136
 20
733.3910382118308
 30
0.0
 11
1679.907106781247
 21
734.4999999999425
 31
0.0
  0
LINE
  5
203
330
C4
100
AcDbEntity
  8
0
  6
CONTINUOUS
 62
     7
100
AcDbLine
 10
1679.156289986223
 20
733.042076423732
 30
0.0
 11
1680.000000000059
 21
733.885786437568
 31
0.0
  0
LINE
  5
204
330
C4
100
AcDbEntity
  8
0
  6
CONTINUOUS
 62
     7
100
AcDbLine
 10
1679.514434979286
 20
732.6931146356089
 30
0.0
 11
1680.000000000075
 21
733.178679656399
 31
0.0
  0
LINE
  5
205
330
C4
100
AcDbEntity
  8
0
  6
CONTINUOUS
 62
     7
100
AcDbLine
 10
1679.872579972351
 20
732.3441528474866
 30
0.0
 11
1680.000000000069
 21
732.4715728752054
 31
0.0
  0
LINE
  5
206
330
C4
100
AcDbEntity
  8
0
  6
CONTINUOUS
 62
     7
100
AcDbLine
 10
1677.660000000072
 20
734.4999999999542
 30
0.0
 11
1680.000000000073
 21
732.2199999999555
 31
0.0
  0
LINE
  5
207
330
C4
100
AcDbEntity
  8
0
  6
CONTINUOUS
 62
     7
100
AcDbLine
 10
1677.723710013932
 20
734.4379235761864
 30
0.0
 11
1677.785786437703
 21
734.4999999999584
 31
0.0
  0
ENDBLK
  5
C6
330
C4
100
AcDbEntity
  8
0
100
AcDbBlockEnd
  0
BLOCK
  5
52D
330
52C
100
AcDbEntity
  8
0
100
AcDbBlockBegin
  2
*D27
 70
     1
 10
0.0
 20
0.0
 30
0.0
  3
*D27
  1

  0
LINE
  5
52F
330
52C
100
AcDbEntity
  8
LAY-20
  6
CONTINUOUS
 62
     4
100
AcDbLine
 10
2136.1015151901
 20
2422.500000000001
 30
0.0
 11
1966.1015151901
 21
2422.500000000001
 31
0.0
  0
LINE
  5
530
330
52C
100
AcDbEntity
  8
LAY-20
  6
CONTINUOUS
 62
     4
100
AcDbLine
 10
2136.1015151901
 20
1238.500000000001
 30
0.0
 11
1966.1015151901
 21
1238.500000000001
 31
0.0
  0
LINE
  5
531
330
52C
100
AcDbEntity
  8
LAY-20
  6
CONTINUOUS
 62
     4
100
AcDbLine
 10
1981.1015151901
 20
2397.500000000001
 30
0.0
 11
1981.1015151901
 21
1263.500000000001
 31
0.0
  0
INSERT
  5
532
330
52C
100
AcDbEntity
  8
LAY-20
 62
     4
100
AcDbBlockReference
  2
EX_BNORM
 10
1981.1015151901
 20
2422.500000000001
 30
0.0
 41
25.0
 42
25.0
 43
25.0
 50
90.0
  0
INSERT
  5
533
330
52C
100
AcDbEntity
  8
LAY-20
 62
     4
100
AcDbBlockReference
  2
EX_BNORM
 10
1981.1015151901
 20
1238.500000000001
 30
0.0
 41
25.0
 42
25.0
 43
25.0
 50
270.0
  0
MTEXT
  5
534
330
52C
100
AcDbEntity
  8
LAY-20
 62
     7
100
AcDbMText
 10
1956.1015151901
 20
1830.500000000001
 30
0.0
 40
31.181104
 41
0.0
 71
     5
 72
     1
  1
1184
  7
EXCADDIM1
 11
0.0
 21
1.0
 31
0.0
  0
POINT
  5
535
330
52C
100
AcDbEntity
  8
DEFPOINTS
 62
     0
100
AcDbPoint
 10
2151.1015151901
 20
2422.500000000001
 30
0.0
  0
POINT
  5
536
330
52C
100
AcDbEntity
  8
DEFPOINTS
 62
     0
100
AcDbPoint
 10
2151.1015151901
 20
1238.500000000001
 30
0.0
  0
POINT
  5
537
330
52C
100
AcDbEntity
  8
DEFPOINTS
 62
     0
100
AcDbPoint
 10
1981.1015151901
 20
1238.500000000001
 30
0.0
  0
ENDBLK
  5
52E
330
52C
100
AcDbEntity
  8
0
100
AcDbBlockEnd
  0
BLOCK
  5
53A
330
539
100
AcDbEntity
  8
0
100
AcDbBlockBegin
  2
*D28
 70
     1
 10
0.0
 20
0.0
 30
0.0
  3
*D28
  1

  0
LINE
  5
53C
330
539
100
AcDbEntity
  8
LAY-20
  6
CONTINUOUS
 62
     4
100
AcDbLine
 10
2136.101515190078
 20
1254.500000000016
 30
0.0
 11
2036.1015151901
 21
1254.500000000017
 31
0.0
  0
LINE
  5
53D
330
539
100
AcDbEntity
  8
LAY-20
  6
CONTINUOUS
 62
     4
100
AcDbLine
 10
2136.101515190078
 20
2406.500000000019
 30
0.0
 11
2036.1015151901
 21
2406.500000000019
 31
0.0
  0
LINE
  5
53E
330
539
100
AcDbEntity
  8
LAY-20
  6
CONTINUOUS
 62
     4
100
AcDbLine
 10
2051.1015151901
 20
1279.500000000017
 30
0.0
 11
2051.1015151901
 21
2381.500000000019
 31
0.0
  0
INSERT
  5
53F
330
539
100
AcDbEntity
  8
LAY-20
 62
     4
100
AcDbBlockReference
  2
EX_BNORM
 10
2051.1015151901
 20
1254.500000000017
 30
0.0
 41
25.0
 42
25.0
 43
25.0
 50
270.0
  0
INSERT
  5
540
330
539
100
AcDbEntity
  8
LAY-20
 62
     4
100
AcDbBlockReference
  2
EX_BNORM
 10
2051.1015151901
 20
2406.500000000019
 30
0.0
 41
25.0
 42
25.0
 43
25.0
 50
90.0
  0
MTEXT
  5
541
330
539
100
AcDbEntity
  8
LAY-20
 62
     7
100
AcDbMText
 10
2026.1015151901
 20
1830.500000000018
 30
0.0
 40
31.181104
 41
0.0
 71
     5
 72
     1
  1
1152
  7
EXCADDIM1
 11
0.0
 21
1.0
 31
0.0
  0
POINT
  5
542
330
539
100
AcDbEntity
  8
DEFPOINTS
 62
     0
100
AcDbPoint
 10
2151.101515190078
 20
1254.500000000016
 30
0.0
  0
POINT
  5
543
330
539
100
AcDbEntity
  8
DEFPOINTS
 62
     0
100
AcDbPoint
 10
2151.101515190078
 20
2406.500000000019
 30
0.0
  0
POINT
  5
544
330
539
100
AcDbEntity
  8
DEFPOINTS
 62
     0
100
AcDbPoint
 10
2051.1015151901
 20
2406.500000000019
 30
0.0
  0
ENDBLK
  5
53B
330
539
100
AcDbEntity
  8
0
100
AcDbBlockEnd
  0
BLOCK
  5
547
330
546
100
AcDbEntity
  8
0
100
AcDbBlockBegin
  2
*D29
 70
     1
 10
0.0
 20
0.0
 30
0.0
  3
*D29
  1

  0
LINE
  5
549
330
546
100
AcDbEntity
  8
LAY-20
  6
CONTINUOUS
 62
     4
100
AcDbLine
 10
2286.1015151901
 20
2330.499999999901
 30
0.0
 11
2386.1015151901
 21
2330.499999999901
 31
0.0
  0
LINE
  5
54A
330
546
100
AcDbEntity
  8
LAY-20
  6
CONTINUOUS
 62
     4
100
AcDbLine
 10
2286.1015151901
 20
1330.5
 30
0.0
 11
2386.1015151901
 21
1330.5
 31
0.0
  0
LINE
  5
54B
330
546
100
AcDbEntity
  8
LAY-20
  6
CONTINUOUS
 62
     4
100
AcDbLine
 10
2371.1015151901
 20
2305.499999999901
 30
0.0
 11
2371.1015151901
 21
1355.5
 31
0.0
  0
INSERT
  5
54C
330
546
100
AcDbEntity
  8
LAY-20
 62
     4
100
AcDbBlockReference
  2
EX_BNORM
 10
2371.1015151901
 20
2330.499999999901
 30
0.0
 41
25.0
 42
25.0
 43
25.0
 50
90.0
  0
INSERT
  5
54D
330
546
100
AcDbEntity
  8
LAY-20
 62
     4
100
AcDbBlockReference
  2
EX_BNORM
 10
2371.1015151901
 20
1330.5
 30
0.0
 41
25.0
 42
25.0
 43
25.0
 50
270.0
  0
MTEXT
  5
54E
330
546
100
AcDbEntity
  8
LAY-20
 62
     7
100
AcDbMText
 10
2346.1015151901
 20
1830.499999999951
 30
0.0
 40
31.181104
 41
0.0
 71
     5
 72
     1
  1
1000
  7
EXCADDIM1
 11
0.0
 21
1.0
 31
0.0
  0
POINT
  5
54F
330
546
100
AcDbEntity
  8
DEFPOINTS
 62
     0
100
AcDbPoint
 10
2271.1015151901
 20
2330.499999999901
 30
0.0
  0
POINT
  5
550
330
546
100
AcDbEntity
  8
DEFPOINTS
 62
     0
100
AcDbPoint
 10
2271.1015151901
 20
1330.5
 30
0.0
  0
POINT
  5
551
330
546
100
AcDbEntity
  8
DEFPOINTS
 62
     0
100
AcDbPoint
 10
2371.1015151901
 20
1330.5
 30
0.0
  0
ENDBLK
  5
548
330
546
100
AcDbEntity
  8
0
100
AcDbBlockEnd
  0
BLOCK
  5
554
330
553
100
AcDbEntity
  8
0
100
AcDbBlockBegin
  2
*D30
 70
     1
 10
0.0
 20
0.0
 30
0.0
  3
*D30
  1

  0
LINE
  5
556
330
553
100
AcDbEntity
  8
LAY-20
  6
CONTINUOUS
 62
     4
100
AcDbLine
 10
2209.8015151901
 20
2413.7
 30
0.0
 11
2456.101515190101
 21
2413.7
 31
0.0
  0
LINE
  5
557
330
553
100
AcDbEntity
  8
LAY-20
  6
CONTINUOUS
 62
     4
100
AcDbLine
 10
2209.8015151901
 20
1247.3
 30
0.0
 11
2456.101515190101
 21
1247.3
 31
0.0
  0
LINE
  5
558
330
553
100
AcDbEntity
  8
LAY-20
  6
CONTINUOUS
 62
     4
100
AcDbLine
 10
2441.101515190101
 20
2388.7
 30
0.0
 11
2441.101515190101
 21
1272.3
 31
0.0
  0
INSERT
  5
559
330
553
100
AcDbEntity
  8
LAY-20
 62
     4
100
AcDbBlockReference
  2
EX_BNORM
 10
2441.101515190101
 20
2413.7
 30
0.0
 41
25.0
 42
25.0
 43
25.0
 50
90.0
  0
INSERT
  5
55A
330
553
100
AcDbEntity
  8
LAY-20
 62
     4
100
AcDbBlockReference
  2
EX_BNORM
 10
2441.101515190101
 20
1247.3
 30
0.0
 41
25.0
 42
25.0
 43
25.0
 50
270.0
  0
MTEXT
  5
55B
330
553
100
AcDbEntity
  8
LAY-20
 62
     7
100
AcDbMText
 10
2416.101515190101
 20
1830.5
 30
0.0
 40
31.181104
 41
0.0
 71
     5
 72
     1
  1
1166
  7
EXCADDIM1
 11
0.0
 21
1.0
 31
0.0
  0
POINT
  5
55C
330
553
100
AcDbEntity
  8
DEFPOINTS
 62
     0
100
AcDbPoint
 10
2194.8015151901
 20
2413.7
 30
0.0
  0
POINT
  5
55D
330
553
100
AcDbEntity
  8
DEFPOINTS
 62
     0
100
AcDbPoint
 10
2194.8015151901
 20
1247.3
 30
0.0
  0
POINT
  5
55E
330
553
100
AcDbEntity
  8
DEFPOINTS
 62
     0
100
AcDbPoint
 10
2441.101515190101
 20
1247.3
 30
0.0
  0
ENDBLK
  5
555
330
553
100
AcDbEntity
  8
0
100
AcDbBlockEnd
  0
BLOCK
  5
561
330
560
100
AcDbEntity
  8
0
100
AcDbBlockBegin
  2
*D31
 70
     1
 10
0.0
 20
0.0
 30
0.0
  3
*D31
  1

  0
LINE
  5
563
330
560
100
AcDbEntity
  8
LAY-20
  6
CONTINUOUS
 62
     4
100
AcDbLine
 10
610.0000000000902
 20
839.499999999907
 30
0.0
 11
610.00000000009
 21
1009.5
 31
0.0
  0
LINE
  5
564
330
560
100
AcDbEntity
  8
LAY-20
  6
CONTINUOUS
 62
     4
100
AcDbLine
 10
1720.0000000001
 20
839.499999999907
 30
0.0
 11
1720.0000000001
 21
1009.5
 31
0.0
  0
LINE
  5
565
330
560
100
AcDbEntity
  8
LAY-20
  6
CONTINUOUS
 62
     4
100
AcDbLine
 10
635.00000000009
 20
994.5000000000002
 30
0.0
 11
1695.0000000001
 21
994.5000000000002
 31
0.0
  0
INSERT
  5
566
330
560
100
AcDbEntity
  8
LAY-20
 62
     4
100
AcDbBlockReference
  2
EX_BNORM
 10
610.00000000009
 20
994.5000000000002
 30
0.0
 41
25.0
 42
25.0
 43
25.0
 50
180.0
  0
INSERT
  5
567
330
560
100
AcDbEntity
  8
LAY-20
 62
     4
100
AcDbBlockReference
  2
EX_BNORM
 10
1720.0000000001
 20
994.5000000000002
 30
0.0
 41
25.0
 42
25.0
 43
25.0
  0
MTEXT
  5
568
330
560
100
AcDbEntity
  8
LAY-20
 62
     7
100
AcDbMText
 10
1165.000000000095
 20
1019.5
 30
0.0
 40
31.181104
 41
0.0
 71
     5
 72
     1
  1
1110
  7
EXCADDIM1
  0
POINT
  5
569
330
560
100
AcDbEntity
  8
DEFPOINTS
 62
     0
100
AcDbPoint
 10
610.0000000000902
 20
824.499999999907
 30
0.0
  0
POINT
  5
56A
330
560
100
AcDbEntity
  8
DEFPOINTS
 62
     0
100
AcDbPoint
 10
1720.0000000001
 20
824.499999999907
 30
0.0
  0
POINT
  5
56B
330
560
100
AcDbEntity
  8
DEFPOINTS
 62
     0
100
AcDbPoint
 10
1720.0000000001
 20
994.5000000000002
 30
0.0
  0
ENDBLK
  5
562
330
560
100
AcDbEntity
  8
0
100
AcDbBlockEnd
  0
BLOCK
  5
56E
330
56D
100
AcDbEntity
  8
0
100
AcDbBlockBegin
  2
*D32
 70
     1
 10
0.0
 20
0.0
 30
0.0
  3
*D32
  1

  0
LINE
  5
570
330
56D
100
AcDbEntity
  8
LAY-20
  6
CONTINUOUS
 62
     4
100
AcDbLine
 10
983.999999999945
 20
839.4999999999561
 30
0.0
 11
983.999999999945
 21
939.4999999999602
 31
0.0
  0
LINE
  5
571
330
56D
100
AcDbEntity
  8
LAY-20
  6
CONTINUOUS
 62
     4
100
AcDbLine
 10
626.0000000000756
 20
839.4999999999561
 30
0.0
 11
626.0000000000756
 21
939.4999999999602
 31
0.0
  0
LINE
  5
572
330
56D
100
AcDbEntity
  8
LAY-20
  6
CONTINUOUS
 62
     4
100
AcDbLine
 10
958.999999999945
 20
924.4999999999602
 30
0.0
 11
651.0000000000756
 21
924.4999999999602
 31
0.0
  0
INSERT
  5
573
330
56D
100
AcDbEntity
  8
LAY-20
 62
     4
100
AcDbBlockReference
  2
EX_BNORM
 10
983.999999999945
 20
924.4999999999602
 30
0.0
 41
25.0
 42
25.0
 43
25.0
  0
INSERT
  5
574
330
56D
100
AcDbEntity
  8
LAY-20
 62
     4
100
AcDbBlockReference
  2
EX_BNORM
 10
626.0000000000756
 20
924.4999999999602
 30
0.0
 41
25.0
 42
25.0
 43
25.0
 50
180.0
  0
MTEXT
  5
575
330
56D
100
AcDbEntity
  8
LAY-20
 62
     7
100
AcDbMText
 10
805.0000000000105
 20
949.4999999999601
 30
0.0
 40
31.181104
 41
0.0
 71
     5
 72
     1
  1
358
  7
EXCADDIM1
  0
POINT
  5
576
330
56D
100
AcDbEntity
  8
DEFPOINTS
 62
     0
100
AcDbPoint
 10
983.999999999945
 20
824.4999999999561
 30
0.0
  0
POINT
  5
577
330
56D
100
AcDbEntity
  8
DEFPOINTS
 62
     0
100
AcDbPoint
 10
626.0000000000756
 20
824.4999999999561
 30
0.0
  0
POINT
  5
578
330
56D
100
AcDbEntity
  8
DEFPOINTS
 62
     0
100
AcDbPoint
 10
626.0000000000756
 20
924.4999999999602
 30
0.0
  0
ENDBLK
  5
56F
330
56D
100
AcDbEntity
  8
0
100
AcDbBlockEnd
  0
BLOCK
  5
57B
330
57A
100
AcDbEntity
  8
0
100
AcDbBlockBegin
  2
*D33
 70
     1
 10
0.0
 20
0.0
 30
0.0
  3
*D33
  1

  0
LINE
  5
57D
330
57A
100
AcDbEntity
  8
LAY-20
  6
CONTINUOUS
 62
     4
100
AcDbLine
 10
665.0000000001
 20
689.499999999907
 30
0.0
 11
665.0000000001
 21
589.4999999999602
 31
0.0
  0
LINE
  5
57E
330
57A
100
AcDbEntity
  8
LAY-20
  6
CONTINUOUS
 62
     4
100
AcDbLine
 10
1665.0000000001
 20
689.499999999907
 30
0.0
 11
1665.0000000001
 21
589.4999999999602
 31
0.0
  0
LINE
  5
57F
330
57A
100
AcDbEntity
  8
LAY-20
  6
CONTINUOUS
 62
     4
100
AcDbLine
 10
690.0000000001
 20
604.4999999999602
 30
0.0
 11
1640.0000000001
 21
604.4999999999602
 31
0.0
  0
INSERT
  5
580
330
57A
100
AcDbEntity
  8
LAY-20
 62
     4
100
AcDbBlockReference
  2
EX_BNORM
 10
665.0000000001
 20
604.4999999999602
 30
0.0
 41
25.0
 42
25.0
 43
25.0
 50
180.0
  0
INSERT
  5
581
330
57A
100
AcDbEntity
  8
LAY-20
 62
     4
100
AcDbBlockReference
  2
EX_BNORM
 10
1665.0000000001
 20
604.4999999999602
 30
0.0
 41
25.0
 42
25.0
 43
25.0
  0
MTEXT
  5
582
330
57A
100
AcDbEntity
  8
LAY-20
 62
     7
100
AcDbMText
 10
1165.0000000001
 20
629.4999999999602
 30
0.0
 40
31.181104
 41
0.0
 71
     5
 72
     1
  1
1000
  7
EXCADDIM1
  0
POINT
  5
583
330
57A
100
AcDbEntity
  8
DEFPOINTS
 62
     0
100
AcDbPoint
 10
665.0000000001
 20
704.499999999907
 30
0.0
  0
POINT
  5
584
330
57A
100
AcDbEntity
  8
DEFPOINTS
 62
     0
100
AcDbPoint
 10
1665.0000000001
 20
704.499999999907
 30
0.0
  0
POINT
  5
585
330
57A
100
AcDbEntity
  8
DEFPOINTS
 62
     0
100
AcDbPoint
 10
1665.0000000001
 20
604.4999999999602
 30
0.0
  0
ENDBLK
  5
57C
330
57A
100
AcDbEntity
  8
0
100
AcDbBlockEnd
  0
BLOCK
  5
588
330
587
100
AcDbEntity
  8
0
100
AcDbBlockBegin
  2
*D34
 70
     1
 10
0.0
 20
0.0
 30
0.0
  3
*D34
  1

  0
LINE
  5
58A
330
587
100
AcDbEntity
  8
LAY-20
  6
CONTINUOUS
 62
     4
100
AcDbLine
 10
1735.0000000001
 20
824.499999999907
 30
0.0
 11
1862.5
 21
824.499999999907
 31
0.0
  0
LINE
  5
58B
330
587
100
AcDbEntity
  8
LAY-20
  6
CONTINUOUS
 62
     4
100
AcDbLine
 10
1723.2000000001
 20
734.499999999907
 30
0.0
 11
1862.5
 21
734.499999999907
 31
0.0
  0
LINE
  5
58C
330
587
100
AcDbEntity
  8
LAY-20
  6
CONTINUOUS
 62
     4
100
AcDbLine
 10
1847.5
 20
799.499999999907
 30
0.0
 11
1847.5
 21
759.499999999907
 31
0.0
  0
INSERT
  5
58D
330
587
100
AcDbEntity
  8
LAY-20
 62
     4
100
AcDbBlockReference
  2
EX_BNORM
 10
1847.5
 20
824.499999999907
 30
0.0
 41
25.0
 42
25.0
 43
25.0
 50
90.0
  0
INSERT
  5
58E
330
587
100
AcDbEntity
  8
LAY-20
 62
     4
100
AcDbBlockReference
  2
EX_BNORM
 10
1847.5
 20
734.499999999907
 30
0.0
 41
25.0
 42
25.0
 43
25.0
 50
270.0
  0
MTEXT
  5
58F
330
587
100
AcDbEntity
  8
LAY-20
 62
     7
100
AcDbMText
 10
1822.5
 20
779.499999999907
 30
0.0
 40
31.181104
 41
0.0
 71
     5
 72
     1
  1
90
  7
EXCADDIM1
 11
0.0
 21
1.0
 31
0.0
  0
POINT
  5
590
330
587
100
AcDbEntity
  8
DEFPOINTS
 62
     0
100
AcDbPoint
 10
1720.0000000001
 20
824.499999999907
 30
0.0
  0
POINT
  5
591
330
587
100
AcDbEntity
  8
DEFPOINTS
 62
     0
100
AcDbPoint
 10
1708.2000000001
 20
734.499999999907
 30
0.0
  0
POINT
  5
592
330
587
100
AcDbEntity
  8
DEFPOINTS
 62
     0
100
AcDbPoint
 10
1847.5
 20
734.499999999907
 30
0.0
  0
ENDBLK
  5
589
330
587
100
AcDbEntity
  8
0
100
AcDbBlockEnd
  0
BLOCK
  5
595
330
594
100
AcDbEntity
  8
0
100
AcDbBlockBegin
  2
*D35
 70
     1
 10
0.0
 20
0.0
 30
0.0
  3
*D35
  1

  0
LINE
  5
597
330
594
100
AcDbEntity
  8
LAY-20
  6
CONTINUOUS
 62
     4
100
AcDbLine
 10
618.8000000000799
 20
722.4999999999602
 30
0.0
 11
618.80000000008
 21
519.4999999999598
 31
0.0
  0
LINE
  5
598
330
594
100
AcDbEntity
  8
LAY-20
  6
CONTINUOUS
 62
     4
100
AcDbLine
 10
1711.2000000001
 20
722.4999999999602
 30
0.0
 11
1711.2000000001
 21
519.4999999999598
 31
0.0
  0
LINE
  5
599
330
594
100
AcDbEntity
  8
LAY-20
  6
CONTINUOUS
 62
     4
100
AcDbLine
 10
643.80000000008
 20
534.4999999999598
 30
0.0
 11
1686.2000000001
 21
534.4999999999598
 31
0.0
  0
INSERT
  5
59A
330
594
100
AcDbEntity
  8
LAY-20
 62
     4
100
AcDbBlockReference
  2
EX_BNORM
 10
618.80000000008
 20
534.4999999999598
 30
0.0
 41
25.0
 42
25.0
 43
25.0
 50
180.0
  0
INSERT
  5
59B
330
594
100
AcDbEntity
  8
LAY-20
 62
     4
100
AcDbBlockReference
  2
EX_BNORM
 10
1711.2000000001
 20
534.4999999999598
 30
0.0
 41
25.0
 42
25.0
 43
25.0
  0
MTEXT
  5
59C
330
594
100
AcDbEntity
  8
LAY-20
 62
     7
100
AcDbMText
 10
1165.00000000009
 20
559.4999999999598
 30
0.0
 40
31.181104
 41
0.0
 71
     5
 72
     1
  1
1092
  7
EXCADDIM1
  0
POINT
  5
59D
330
594
100
AcDbEntity
  8
DEFPOINTS
 62
     0
100
AcDbPoint
 10
618.8000000000799
 20
737.4999999999602
 30
0.0
  0
POINT
  5
59E
330
594
100
AcDbEntity
  8
DEFPOINTS
 62
     0
100
AcDbPoint
 10
1711.2000000001
 20
737.4999999999602
 30
0.0
  0
POINT
  5
59F
330
594
100
AcDbEntity
  8
DEFPOINTS
 62
     0
100
AcDbPoint
 10
1711.2000000001
 20
534.4999999999598
 30
0.0
  0
ENDBLK
  5
596
330
594
100
AcDbEntity
  8
0
100
AcDbBlockEnd
  0
BLOCK
  5
5A2
330
5A1
100
AcDbEntity
  8
0
100
AcDbBlockBegin
  2
*D36
 70
     1
 10
0.0
 20
0.0
 30
0.0
  3
*D36
  1

  0
LINE
  5
5A4
330
5A1
100
AcDbEntity
  8
LAY-20
  6
CONTINUOUS
 62
     4
100
AcDbLine
 10
1272.0
 20
819.9999999998797
 30
0.0
 11
1272.0
 21
824.4999999998797
 31
0.0
  0
LINE
  5
5A5
330
5A1
100
AcDbEntity
  8
LAY-20
  6
CONTINUOUS
 62
     4
100
AcDbLine
 10
1272.0
 20
794.9999999998797
 30
0.0
 11
1272.0
 21
769.9999999998797
 31
0.0
  0
LINE
  5
5A6
330
5A1
100
AcDbEntity
  8
LAY-20
  6
CONTINUOUS
 62
     4
100
AcDbLine
 10
1272.0
 20
849.4999999998797
 30
0.0
 11
1272.0
 21
874.4999999998797
 31
0.0
  0
INSERT
  5
5A7
330
5A1
100
AcDbEntity
  8
LAY-20
 62
     4
100
AcDbBlockReference
  2
EX_BNORM
 10
1272.0
 20
819.9999999998797
 30
0.0
 41
25.0
 42
25.0
 43
25.0
 50
90.0
  0
INSERT
  5
5A8
330
5A1
100
AcDbEntity
  8
LAY-20
 62
     4
100
AcDbBlockReference
  2
EX_BNORM
 10
1272.0
 20
824.4999999998797
 30
0.0
 41
25.0
 42
25.0
 43
25.0
 50
270.0
  0
MTEXT
  5
5A9
330
5A1
100
AcDbEntity
  8
LAY-20
 62
     7
100
AcDbMText
 10
1247.0
 20
889.499999999879
 30
0.0
 40
31.181104
 41
0.0
 71
     5
 72
     1
  1
4.5
  7
EXCADDIM1
 11
0.0
 21
1.0
 31
0.0
  0
POINT
  5
5AA
330
5A1
100
AcDbEntity
  8
DEFPOINTS
 62
     0
100
AcDbPoint
 10
1272.0
 20
819.9999999998797
 30
0.0
  0
POINT
  5
5AB
330
5A1
100
AcDbEntity
  8
DEFPOINTS
 62
     0
100
AcDbPoint
 10
1272.0
 20
824.4999999998797
 30
0.0
  0
POINT
  5
5AC
330
5A1
100
AcDbEntity
  8
DEFPOINTS
 62
     0
100
AcDbPoint
 10
1272.0
 20
824.4999999998797
 30
0.0
  0
ENDBLK
  5
5A3
330
5A1
100
AcDbEntity
  8
0
100
AcDbBlockEnd
  0
ENDSEC
  0
SECTION
  2
ENTITIES
  0
INSERT
  5
208
330
1F
100
AcDbEntity
  8
LAY-10
  6
CONTINUOUS
 62
     0
100
AcDbBlockReference
  2
SYM-1
 10
0.0
 20
0.0
 30
0.0
  0
INSERT
  5
209
330
1F
100
AcDbEntity
  8
LAY-10
  6
CONTINUOUS
 62
     0
100
AcDbBlockReference
  2
SYM-2
 10
0.0
 20
0.0
 30
0.0
  0
INSERT
  5
20A
330
1F
100
AcDbEntity
  8
LAY-10
  6
CONTINUOUS
 62
     0
100
AcDbBlockReference
  2
SYM-3
 10
0.0
 20
0.0
 30
0.0
  0
INSERT
  5
20B
330
1F
100
AcDbEntity
  8
LAY-10
  6
CONTINUOUS
 62
     0
100
AcDbBlockReference
  2
SYM-4
 10
0.0
 20
0.0
 30
0.0
  0
INSERT
  5
20C
330
1F
100
AcDbEntity
  8
LAY-10
  6
CONTINUOUS
 62
     0
100
AcDbBlockReference
  2
SYM-5
 10
0.0
 20
0.0
 30
0.0
  0
INSERT
  5
20D
330
1F
100
AcDbEntity
  8
LAY-10
  6
CONTINUOUS
 62
     0
100
AcDbBlockReference
  2
SYM-6
 10
0.0
 20
0.0
 30
0.0
  0
INSERT
  5
20E
330
1F
100
AcDbEntity
  8
LAY-10
  6
CONTINUOUS
 62
     0
100
AcDbBlockReference
  2
SYM-7
 10
0.0
 20
0.0
 30
0.0
  0
INSERT
  5
20F
330
1F
100
AcDbEntity
  8
LAY-10
  6
CONTINUOUS
 62
     0
100
AcDbBlockReference
  2
SYM-8
 10
0.0
 20
0.0
 30
0.0
  0
INSERT
  5
210
330
1F
100
AcDbEntity
  8
LAY-10
  6
CONTINUOUS
 62
     0
100
AcDbBlockReference
  2
SYM-9
 10
0.0
 20
0.0
 30
0.0
  0
INSERT
  5
211
330
1F
100
AcDbEntity
  8
LAY-10
  6
CONTINUOUS
 62
     0
100
AcDbBlockReference
  2
SYM-10
 10
0.0
 20
0.0
 30
0.0
  0
INSERT
  5
212
330
1F
100
AcDbEntity
  8
LAY-10
  6
CONTINUOUS
 62
     0
100
AcDbBlockReference
  2
SYM-11
 10
0.0
 20
0.0
 30
0.0
  0
INSERT
  5
213
330
1F
100
AcDbEntity
  8
LAY-10
  6
CONTINUOUS
 62
     0
100
AcDbBlockReference
  2
SYM-12
 10
0.0
 20
0.0
 30
0.0
  0
LINE
  5
214
330
1F
100
AcDbEntity
  8
LAY-10
  6
CONTINUOUS
 62
     7
100
AcDbLine
 10
2155.601515190099
 20
1295.5
 30
0.0
 11
2171.6215151901
 21
1295.5
 31
0.0
  0
LINE
  5
215
330
1F
100
AcDbEntity
  8
LAY-10
  6
CONTINUOUS
 62
     7
100
AcDbLine
 10
2173.6015151901
 20
1264.640000000101
 30
0.0
 11
2173.6015151901
 21
1294.360000000001
 31
0.0
  0
LINE
  5
216
330
1F
100
AcDbEntity
  8
LAY-10
  6
CONTINUOUS
 62
     7
100
AcDbLine
 10
2155.601515190099
 20
2365.499999999955
 30
0.0
 11
2171.6215151901
 21
2365.499999999955
 31
0.0
  0
LINE
  5
217
330
1F
100
AcDbEntity
  8
LAY-10
  6
CONTINUOUS
 62
     7
100
AcDbLine
 10
2173.6015151901
 20
2396.359999999856
 30
0.0
 11
2173.6015151901
 21
2366.639999999955
 31
0.0
  0
LINE
  5
218
330
1F
100
AcDbEntity
  8
LAY-10
  6
CONTINUOUS
 62
     7
100
AcDbLine
 10
1154.999999999983
 20
819.9999999998768
 30
0.0
 11
1154.999999999983
 21
803.9799999998772
 31
0.0
  0
LINE
  5
219
330
1F
100
AcDbEntity
  8
LAY-10
  6
CONTINUOUS
 62
     7
100
AcDbLine
 10
1174.999999999983
 20
819.9999999998768
 30
0.0
 11
1174.999999999983
 21
803.9799999998772
 31
0.0
  0
ARC
  5
21A
330
1F
100
AcDbEntity
  8
LAY-10
  6
CONTINUOUS
 62
     7
100
AcDbCircle
 10
1164.999999999983
 20
828.2425252524022
 30
0.0
 40
26.24252525252526
100
AcDbArc
 50
247.6005879524137
 51
292.3994120475866
  0
LINE
  5
21B
330
1F
100
AcDbEntity
  8
LAY-10
  6
CONTINUOUS
 62
     7
100
AcDbLine
 10
1146.499999999983
 20
819.9999999998768
 30
0.0
 11
1146.499999999983
 21
803.9799999998772
 31
0.0
  0
ARC
  5
21C
330
1F
100
AcDbEntity
  8
LAY-10
  6
CONTINUOUS
 62
     7
100
AcDbCircle
 10
1150.749999999983
 20
807.5512373736146
 30
0.0
 40
5.55123737373727
100
AcDbArc
 50
220.0400382874338
 51
319.9599617125664
  0
LINE
  5
21D
330
1F
100
AcDbEntity
  8
LAY-10
  6
CONTINUOUS
 62
     7
100
AcDbLine
 10
1183.499999999983
 20
819.9999999998768
 30
0.0
 11
1183.499999999983
 21
803.9799999998772
 31
0.0
  0
ARC
  5
21E
330
1F
100
AcDbEntity
  8
LAY-10
  6
CONTINUOUS
 62
     7
100
AcDbCircle
 10
1179.249999999983
 20
807.5512373736146
 30
0.0
 40
5.55123737373741
100
AcDbArc
 50
220.0400382874356
 51
319.9599617125647
  0
LINE
  5
21F
330
1F
100
AcDbEntity
  8
LAY-10
  6
CONTINUOUS
 62
     7
100
AcDbLine
 10
1151.499999999983
 20
801.9999999998768
 30
0.0
 11
1178.499999999983
 21
801.9999999998768
 31
0.0
  0
LINE
  5
220
330
1F
100
AcDbEntity
  8
LAY-10
  6
CONTINUOUS
 62
     7
100
AcDbLine
 10
794.9999999999727
 20
819.9999999998768
 30
0.0
 11
794.9999999999727
 21
803.9799999998772
 31
0.0
  0
LINE
  5
221
330
1F
100
AcDbEntity
  8
LAY-10
  6
CONTINUOUS
 62
     7
100
AcDbLine
 10
814.9999999999727
 20
819.9999999998768
 30
0.0
 11
814.9999999999727
 21
803.9799999998772
 31
0.0
  0
ARC
  5
222
330
1F
100
AcDbEntity
  8
LAY-10
  6
CONTINUOUS
 62
     7
100
AcDbCircle
 10
804.9999999999727
 20
828.2425252524022
 30
0.0
 40
26.24252525252526
100
AcDbArc
 50
247.6005879524137
 51
292.3994120475866
  0
LINE
  5
223
330
1F
100
AcDbEntity
  8
LAY-10
  6
CONTINUOUS
 62
     7
100
AcDbLine
 10
786.4999999999727
 20
819.9999999998768
 30
0.0
 11
786.4999999999727
 21
803.9799999998772
 31
0.0
  0
ARC
  5
224
330
1F
100
AcDbEntity
  8
LAY-10
  6
CONTINUOUS
 62
     7
100
AcDbCircle
 10
790.7499999999727
 20
807.5512373736146
 30
0.0
 40
5.55123737373727
100
AcDbArc
 50
220.0400382874338
 51
319.9599617125664
  0
LINE
  5
225
330
1F
100
AcDbEntity
  8
LAY-10
  6
CONTINUOUS
 62
     7
100
AcDbLine
 10
823.4999999999732
 20
819.9999999998768
 30
0.0
 11
823.4999999999732
 21
803.9799999998772
 31
0.0
  0
ARC
  5
226
330
1F
100
AcDbEntity
  8
LAY-10
  6
CONTINUOUS
 62
     7
100
AcDbCircle
 10
819.2499999999728
 20
807.5512373736146
 30
0.0
 40
5.55123737373741
100
AcDbArc
 50
220.0400382874356
 51
319.9599617125647
  0
LINE
  5
227
330
1F
100
AcDbEntity
  8
LAY-10
  6
CONTINUOUS
 62
     7
100
AcDbLine
 10
791.4999999999727
 20
801.9999999998768
 30
0.0
 11
818.4999999999732
 21
801.9999999998768
 31
0.0
  0
LINE
  5
228
330
1F
100
AcDbEntity
  8
LAY-10
  6
CONTINUOUS
 62
     7
100
AcDbLine
 10
1535.000000000109
 20
819.9999999998766
 30
0.0
 11
1535.000000000109
 21
803.9799999998771
 31
0.0
  0
LINE
  5
229
330
1F
100
AcDbEntity
  8
LAY-10
  6
CONTINUOUS
 62
     7
100
AcDbLine
 10
1515.000000000109
 20
819.9999999998766
 30
0.0
 11
1515.000000000109
 21
803.9799999998771
 31
0.0
  0
ARC
  5
22A
330
1F
100
AcDbEntity
  8
LAY-10
  6
CONTINUOUS
 62
     7
100
AcDbCircle
 10
1525.000000000109
 20
828.2425252524021
 30
0.0
 40
26.24252525252526
100
AcDbArc
 50
247.6005879524136
 51
292.3994120475865
  0
LINE
  5
22B
330
1F
100
AcDbEntity
  8
LAY-10
  6
CONTINUOUS
 62
     7
100
AcDbLine
 10
1543.500000000109
 20
819.9999999998766
 30
0.0
 11
1543.500000000109
 21
803.9799999998771
 31
0.0
  0
ARC
  5
22C
330
1F
100
AcDbEntity
  8
LAY-10
  6
CONTINUOUS
 62
     7
100
AcDbCircle
 10
1539.250000000109
 20
807.5512373736145
 30
0.0
 40
5.55123737373727
100
AcDbArc
 50
220.0400382874338
 51
319.9599617125654
  0
LINE
  5
22D
330
1F
100
AcDbEntity
  8
LAY-10
  6
CONTINUOUS
 62
     7
100
AcDbLine
 10
1506.500000000108
 20
819.9999999998766
 30
0.0
 11
1506.500000000108
 21
803.9799999998771
 31
0.0
  0
ARC
  5
22E
330
1F
100
AcDbEntity
  8
LAY-10
  6
CONTINUOUS
 62
     7
100
AcDbCircle
 10
1510.750000000109
 20
807.5512373736145
 30
0.0
 40
5.55123737373741
100
AcDbArc
 50
220.0400382874356
 51
319.9599617125635
  0
LINE
  5
22F
330
1F
100
AcDbEntity
  8
LAY-10
  6
CONTINUOUS
 62
     7
100
AcDbLine
 10
1538.500000000109
 20
801.9999999998766
 30
0.0
 11
1511.500000000108
 21
801.9999999998766
 31
0.0
  0
LINE
  5
230
330
1F
100
AcDbEntity
  8
LAY-10
  6
HIDDEN
 62
     7
100
AcDbLine
 10
1049.500000000041
 20
1251.300000000045
 30
0.0
 11
1049.500000000041
 21
1287.300000000045
 31
0.0
  0
LINE
  5
231
330
1F
100
AcDbEntity
  8
LAY-10
  6
HIDDEN
 62
     7
100
AcDbLine
 10
1049.500000000041
 20
1251.300000000045
 30
0.0
 11
1080.500000000039
 21
1251.300000000045
 31
0.0
  0
LINE
  5
232
330
1F
100
AcDbEntity
  8
LAY-10
  6
HIDDEN
 62
     7
100
AcDbLine
 10
1080.500000000039
 20
1251.300000000045
 30
0.0
 11
1080.50000000004
 21
1287.408633541085
 31
0.0
  0
LINE
  5
233
330
1F
100
AcDbEntity
  8
LAY-10
  6
HIDDEN
 62
     7
100
AcDbLine
 10
1033.80000000004
 20
1287.408633541085
 30
0.0
 11
1091.80000000004
 21
1287.408633541085
 31
0.0
  0
LINE
  5
234
330
1F
100
AcDbEntity
  8
LAY-10
  6
CONTINUOUS
 62
     7
100
AcDbLine
 10
610.0000000000505
 20
2422.5
 30
0.0
 11
625.0000000000505
 21
2407.5
 31
0.0
  0
LINE
  5
235
330
1F
100
AcDbEntity
  8
LAY-10
  6
CONTINUOUS
 62
     7
100
AcDbLine
 10
625.0000000000505
 20
1253.5
 30
0.0
 11
610.0000000000505
 21
1238.5
 31
0.0
  0
LINE
  5
236
330
1F
100
AcDbEntity
  8
LAY-10
  6
CONTINUOUS
 62
     7
100
AcDbLine
 10
1705.000000000031
 20
2407.5
 30
0.0
 11
1720.000000000032
 21
2422.5
 31
0.0
  0
LINE
  5
237
330
1F
100
AcDbEntity
  8
LAY-10
  6
CONTINUOUS
 62
     7
100
AcDbLine
 10
1705.000000000031
 20
1253.5
 30
0.0
 11
1720.000000000032
 21
1238.500000000001
 31
0.0
  0
LINE
  5
238
330
1F
100
AcDbEntity
  8
LAY-10
  6
CONTINUOUS
 62
     7
100
AcDbLine
 10
1705.000000000031
 20
1253.499999999999
 30
0.0
 11
625.0000000000505
 21
1253.5
 31
0.0
  0
LINE
  5
239
330
1F
100
AcDbEntity
  8
LAY-10
  6
CONTINUOUS
 62
     7
100
AcDbLine
 10
610.0000000000505
 20
1238.5
 30
0.0
 11
1720.000000000032
 21
1238.499999999999
 31
0.0
  0
LINE
  5
23A
330
1F
100
AcDbEntity
  8
LAY-10
  6
CONTINUOUS
 62
     7
100
AcDbLine
 10
610.0000000000505
 20
2422.5
 30
0.0
 11
1720.000000000032
 21
2422.5
 31
0.0
  0
LINE
  5
23B
330
1F
100
AcDbEntity
  8
LAY-10
  6
CONTINUOUS
 62
     7
100
AcDbLine
 10
625.0000000000505
 20
1253.5
 30
0.0
 11
625.0000000000505
 21
2407.5
 31
0.0
  0
LINE
  5
23C
330
1F
100
AcDbEntity
  8
LAY-10
  6
CONTINUOUS
 62
     7
100
AcDbLine
 10
1705.000000000031
 20
2407.5
 30
0.0
 11
1705.000000000031
 21
1253.499999999999
 31
0.0
  0
LINE
  5
23D
330
1F
100
AcDbEntity
  8
LAY-10
  6
CONTINUOUS
 62
     7
100
AcDbLine
 10
1720.000000000032
 20
1238.5
 30
0.0
 11
1720.000000000032
 21
2422.5
 31
0.0
  0
LINE
  5
23E
330
1F
100
AcDbEntity
  8
LAY-10
  6
CONTINUOUS
 62
     7
100
AcDbLine
 10
610.0000000000505
 20
1238.5
 30
0.0
 11
610.0000000000505
 21
2422.5
 31
0.0
  0
LINE
  5
23F
330
1F
100
AcDbEntity
  8
LAY-10
  6
CONTINUOUS
 62
     7
100
AcDbLine
 10
1705.000000000031
 20
2407.5
 30
0.0
 11
625.0000000000505
 21
2407.5
 31
0.0
  0
LINE
  5
240
330
1F
100
AcDbEntity
  8
LAY-10
  6
CONTINUOUS
 62
     7
100
AcDbLine
 10
626.0000000000277
 20
1254.5
 30
0.0
 11
626.0000000000277
 21
2406.500000000002
 31
0.0
  0
LINE
  5
241
330
1F
100
AcDbEntity
  8
LAY-10
  6
CONTINUOUS
 62
     7
100
AcDbLine
 10
626.0000000000277
 20
2406.500000000002
 30
0.0
 11
984.0000000000273
 21
2406.500000000002
 31
0.0
  0
LINE
  5
242
330
1F
100
AcDbEntity
  8
LAY-10
  6
CONTINUOUS
 62
     7
100
AcDbLine
 10
1702.00000000002
 20
1293.5
 30
0.0
 11
1702.00000000002
 21
2367.5
 31
0.0
  0
LINE
  5
243
330
1F
100
AcDbEntity
  8
LAY-10
  6
CONTINUOUS
 62
     7
100
AcDbLine
 10
919.5000000000296
 20
2422.499999999999
 30
0.0
 11
919.5000000000296
 21
2451.398484809836
 31
0.0
  0
LINE
  5
244
330
1F
100
AcDbEntity
  8
LAY-10
  6
CONTINUOUS
 62
     7
100
AcDbLine
 10
910.5000000000286
 20
2422.499999999999
 30
0.0
 11
910.5000000000286
 21
2451.398484809836
 31
0.0
  0
LINE
  5
245
330
1F
100
AcDbEntity
  8
LAY-10
  6
CONTINUOUS
 62
     7
100
AcDbLine
 10
919.5000000000296
 20
2451.398484809836
 30
0.0
 11
910.5000000000286
 21
2451.398484809836
 31
0.0
  0
LINE
  5
246
330
1F
100
AcDbEntity
  8
LAY-10
  6
CONTINUOUS
 62
     7
100
AcDbLine
 10
1410.50000000003
 20
2422.499999999999
 30
0.0
 11
1410.50000000003
 21
2451.398484809836
 31
0.0
  0
LINE
  5
247
330
1F
100
AcDbEntity
  8
LAY-10
  6
CONTINUOUS
 62
     7
100
AcDbLine
 10
1419.50000000003
 20
2422.499999999999
 30
0.0
 11
1419.50000000003
 21
2451.398484809836
 31
0.0
  0
LINE
  5
248
330
1F
100
AcDbEntity
  8
LAY-10
  6
CONTINUOUS
 62
     7
100
AcDbLine
 10
1410.50000000003
 20
2451.398484809836
 30
0.0
 11
1419.50000000003
 21
2451.398484809836
 31
0.0
  0
LINE
  5
249
330
1F
100
AcDbEntity
  8
LAY-10
  6
CONTINUOUS
 62
     7
100
AcDbLine
 10
919.5000000000296
 20
1238.500000000002
 30
0.0
 11
919.5000000000296
 21
1209.601515190165
 31
0.0
  0
LINE
  5
24A
330
1F
100
AcDbEntity
  8
LAY-10
  6
CONTINUOUS
 62
     7
100
AcDbLine
 10
910.5000000000286
 20
1238.500000000002
 30
0.0
 11
910.5000000000286
 21
1209.601515190165
 31
0.0
  0
LINE
  5
24B
330
1F
100
AcDbEntity
  8
LAY-10
  6
CONTINUOUS
 62
     7
100
AcDbLine
 10
919.5000000000296
 20
1209.601515190165
 30
0.0
 11
910.5000000000286
 21
1209.601515190165
 31
0.0
  0
LINE
  5
24C
330
1F
100
AcDbEntity
  8
LAY-10
  6
CONTINUOUS
 62
     7
100
AcDbLine
 10
1410.50000000003
 20
1238.500000000002
 30
0.0
 11
1410.50000000003
 21
1209.601515190165
 31
0.0
  0
LINE
  5
24D
330
1F
100
AcDbEntity
  8
LAY-10
  6
CONTINUOUS
 62
     7
100
AcDbLine
 10
1419.500000000031
 20
1238.500000000002
 30
0.0
 11
1419.50000000003
 21
1209.601515190165
 31
0.0
  0
LINE
  5
24E
330
1F
100
AcDbEntity
  8
LAY-10
  6
CONTINUOUS
 62
     7
100
AcDbLine
 10
1410.50000000003
 20
1209.601515190165
 30
0.0
 11
1419.50000000003
 21
1209.601515190165
 31
0.0
  0
LINE
  5
24F
330
1F
100
AcDbEntity
  8
LAY-10
  6
CONTINUOUS
 62
     7
100
AcDbLine
 10
1719.999999999999
 20
2076.0
 30
0.0
 11
1748.898484809836
 21
2076.0
 31
0.0
  0
LINE
  5
250
330
1F
100
AcDbEntity
  8
LAY-10
  6
CONTINUOUS
 62
     7
100
AcDbLine
 10
1719.999999999999
 20
2085.000000000001
 30
0.0
 11
1748.898484809836
 21
2085.000000000001
 31
0.0
  0
LINE
  5
251
330
1F
100
AcDbEntity
  8
LAY-10
  6
CONTINUOUS
 62
     7
100
AcDbLine
 10
1748.898484809836
 20
2076.0
 30
0.0
 11
1748.898484809836
 21
2085.000000000001
 31
0.0
  0
LINE
  5
252
330
1F
100
AcDbEntity
  8
LAY-10
  6
CONTINUOUS
 62
     7
100
AcDbLine
 10
1719.999999999999
 20
1585.0
 30
0.0
 11
1748.898484809836
 21
1585.0
 31
0.0
  0
LINE
  5
253
330
1F
100
AcDbEntity
  8
LAY-10
  6
CONTINUOUS
 62
     7
100
AcDbLine
 10
1719.999999999999
 20
1575.999999999999
 30
0.0
 11
1748.898484809836
 21
1576.0
 31
0.0
  0
LINE
  5
254
330
1F
100
AcDbEntity
  8
LAY-10
  6
CONTINUOUS
 62
     7
100
AcDbLine
 10
1748.898484809836
 20
1585.0
 30
0.0
 11
1748.898484809836
 21
1576.0
 31
0.0
  0
LINE
  5
255
330
1F
100
AcDbEntity
  8
LAY-10
  6
CONTINUOUS
 62
     7
100
AcDbLine
 10
610.0000000000605
 20
2076.0
 30
0.0
 11
581.1015151902234
 21
2076.0
 31
0.0
  0
LINE
  5
256
330
1F
100
AcDbEntity
  8
LAY-10
  6
CONTINUOUS
 62
     7
100
AcDbLine
 10
610.0000000000605
 20
2085.000000000001
 30
0.0
 11
581.1015151902234
 21
2085.000000000001
 31
0.0
  0
LINE
  5
257
330
1F
100
AcDbEntity
  8
LAY-10
  6
CONTINUOUS
 62
     7
100
AcDbLine
 10
581.1015151902234
 20
2076.0
 30
0.0
 11
581.1015151902234
 21
2085.000000000001
 31
0.0
  0
LINE
  5
258
330
1F
100
AcDbEntity
  8
LAY-10
  6
CONTINUOUS
 62
     7
100
AcDbLine
 10
610.0000000000609
 20
1585.0
 30
0.0
 11
581.1015151902238
 21
1585.0
 31
0.0
  0
LINE
  5
259
330
1F
100
AcDbEntity
  8
LAY-10
  6
CONTINUOUS
 62
     7
100
AcDbLine
 10
610.0000000000609
 20
1575.999999999999
 30
0.0
 11
581.1015151902238
 21
1575.999999999999
 31
0.0
  0
LINE
  5
25A
330
1F
100
AcDbEntity
  8
LAY-10
  6
CONTINUOUS
 62
     7
100
AcDbLine
 10
581.1015151902238
 20
1585.0
 30
0.0
 11
581.1015151902238
 21
1575.999999999999
 31
0.0
  0
LINE
  5
25B
330
1F
100
AcDbEntity
  8
LAY-10
  6
CONTINUOUS
 62
     7
100
AcDbLine
 10
1563.999999999997
 20
2149.000000000045
 30
0.0
 11
1525.999999999997
 21
2149.000000000046
 31
0.0
  0
LINE
  5
25C
330
1F
100
AcDbEntity
  8
LAY-10
  6
CONTINUOUS
 62
     7
100
AcDbLine
 10
1553.999999999997
 20
2174.000000000047
 30
0.0
 11
1553.999999999997
 21
2154.000000000046
 31
0.0
  0
LINE
  5
25D
330
1F
100
AcDbEntity
  8
LAY-10
  6
CONTINUOUS
 62
     7
100
AcDbLine
 10
1579.699999999998
 20
2174.000000000047
 30
0.0
 11
1553.999999999997
 21
2174.000000000047
 31
0.0
  0
LINE
  5
25E
330
1F
100
AcDbEntity
  8
LAY-10
  6
CONTINUOUS
 62
     7
100
AcDbLine
 10
1563.999999999997
 20
2184.000000000045
 30
0.0
 11
1563.999999999997
 21
2174.000000000047
 31
0.0
  0
LINE
  5
25F
330
1F
100
AcDbEntity
  8
LAY-10
  6
CONTINUOUS
 62
     7
100
AcDbLine
 10
1579.699999999998
 20
2174.000000000047
 30
0.0
 11
1579.699999999998
 21
2154.000000000046
 31
0.0
  0
LINE
  5
260
330
1F
100
AcDbEntity
  8
LAY-10
  6
CONTINUOUS
 62
     7
100
AcDbLine
 10
1579.699999999998
 20
2154.000000000046
 30
0.0
 11
1553.999999999997
 21
2154.000000000046
 31
0.0
  0
LINE
  5
261
330
1F
100
AcDbEntity
  8
LAY-10
  6
CONTINUOUS
 62
     7
100
AcDbLine
 10
1569.999999999997
 20
2149.000000000045
 30
0.0
 11
1569.999999999997
 21
2154.000000000046
 31
0.0
  0
ARC
  5
262
330
1F
100
AcDbEntity
  8
LAY-10
  6
CONTINUOUS
 62
     7
100
AcDbCircle
 10
1563.999999999997
 20
2149.000000000045
 30
0.0
 40
6.000000000000005
100
AcDbArc
 50
270.0000000000002
 51
0.0
  0
LINE
  5
263
330
1F
100
AcDbEntity
  8
LAY-10
  6
CONTINUOUS
 62
     7
100
AcDbLine
 10
1563.999999999997
 20
2143.000000000048
 30
0.0
 11
1525.999999999997
 21
2143.000000000048
 31
0.0
  0
ARC
  5
264
330
1F
100
AcDbEntity
  8
LAY-10
  6
CONTINUOUS
 62
     7
100
AcDbCircle
 10
1525.999999999997
 20
2143.000000000048
 30
0.0
 40
6.000000000000005
100
AcDbArc
 50
90.00000000000001
 51
180.0
  0
LINE
  5
265
330
1F
100
AcDbEntity
  8
LAY-10
  6
CONTINUOUS
 62
     7
100
AcDbLine
 10
1563.999999999997
 20
2055.000000000045
 30
0.0
 11
1525.999999999997
 21
2055.000000000046
 31
0.0
  0
LINE
  5
266
330
1F
100
AcDbEntity
  8
LAY-10
  6
CONTINUOUS
 62
     7
100
AcDbLine
 10
1563.999999999997
 20
2049.000000000045
 30
0.0
 11
1525.999999999997
 21
2049.000000000046
 31
0.0
  0
ARC
  5
267
330
1F
100
AcDbEntity
  8
LAY-10
  6
CONTINUOUS
 62
     7
100
AcDbCircle
 10
1525.999999999997
 20
2055.000000000046
 30
0.0
 40
6.000000000000005
100
AcDbArc
 50
180.0
 51
270.0000000000002
  0
ARC
  5
268
330
1F
100
AcDbEntity
  8
LAY-10
  6
CONTINUOUS
 62
     7
100
AcDbCircle
 10
1563.999999999997
 20
2049.000000000045
 30
0.0
 40
6.000000000000005
100
AcDbArc
 50
0.0
 51
90.00000000000001
  0
LINE
  5
269
330
1F
100
AcDbEntity
  8
LAY-10
  6
CONTINUOUS
 62
     7
100
AcDbLine
 10
1563.999999999997
 20
2014.000000000046
 30
0.0
 11
1563.999999999997
 21
2024.000000000045
 31
0.0
  0
LINE
  5
26A
330
1F
100
AcDbEntity
  8
LAY-10
  6
CONTINUOUS
 62
     7
100
AcDbLine
 10
1569.999999999997
 20
2049.000000000045
 30
0.0
 11
1569.999999999997
 21
2044.000000000046
 31
0.0
  0
LINE
  5
26B
330
1F
100
AcDbEntity
  8
LAY-10
  6
CONTINUOUS
 62
     7
100
AcDbLine
 10
1579.699999999998
 20
2044.000000000046
 30
0.0
 11
1553.999999999997
 21
2044.000000000046
 31
0.0
  0
LINE
  5
26C
330
1F
100
AcDbEntity
  8
LAY-10
  6
CONTINUOUS
 62
     7
100
AcDbLine
 10
1553.999999999997
 20
2024.000000000045
 30
0.0
 11
1553.999999999997
 21
2044.000000000046
 31
0.0
  0
LINE
  5
26D
330
1F
100
AcDbEntity
  8
LAY-10
  6
CONTINUOUS
 62
     7
100
AcDbLine
 10
1579.699999999998
 20
2024.000000000045
 30
0.0
 11
1553.999999999997
 21
2024.000000000045
 31
0.0
  0
LINE
  5
26E
330
1F
100
AcDbEntity
  8
LAY-10
  6
CONTINUOUS
 62
     7
100
AcDbLine
 10
1569.999999999997
 20
2014.000000000046
 30
0.0
 11
1563.999999999997
 21
2014.000000000046
 31
0.0
  0
LINE
  5
26F
330
1F
100
AcDbEntity
  8
LAY-10
  6
CONTINUOUS
 62
     7
100
AcDbLine
 10
1570.999999999997
 20
2044.000000000046
 30
0.0
 11
1570.999999999997
 21
2024.000000000045
 31
0.0
  0
LINE
  5
270
330
1F
100
AcDbEntity
  8
LAY-10
  6
CONTINUOUS
 62
     7
100
AcDbLine
 10
1570.999999999997
 20
2154.000000000046
 30
0.0
 11
1570.999999999997
 21
2174.000000000047
 31
0.0
  0
LINE
  5
271
330
1F
100
AcDbEntity
  8
LAY-10
  6
CONTINUOUS
 62
     7
100
AcDbLine
 10
1562.999999999996
 20
2174.000000000047
 30
0.0
 11
1562.999999999996
 21
2154.000000000046
 31
0.0
  0
LINE
  5
272
330
1F
100
AcDbEntity
  8
LAY-10
  6
CONTINUOUS
 62
     7
100
AcDbLine
 10
1562.999999999996
 20
2044.000000000046
 30
0.0
 11
1562.999999999996
 21
2024.000000000045
 31
0.0
  0
LINE
  5
273
330
1F
100
AcDbEntity
  8
LAY-10
  6
CONTINUOUS
 62
     7
100
AcDbLine
 10
1579.699999999998
 20
2044.000000000046
 30
0.0
 11
1579.699999999998
 21
2024.000000000045
 31
0.0
  0
LINE
  5
274
330
1F
100
AcDbEntity
  8
LAY-10
  6
CONTINUOUS
 62
     7
100
AcDbLine
 10
1563.999999999997
 20
2154.000000000046
 30
0.0
 11
1563.999999999997
 21
2149.000000000045
 31
0.0
  0
LINE
  5
275
330
1F
100
AcDbEntity
  8
LAY-10
  6
CONTINUOUS
 62
     7
100
AcDbLine
 10
1569.999999999997
 20
2174.000000000047
 30
0.0
 11
1569.999999999997
 21
2184.000000000045
 31
0.0
  0
LINE
  5
276
330
1F
100
AcDbEntity
  8
LAY-10
  6
CONTINUOUS
 62
     7
100
AcDbLine
 10
1563.999999999997
 20
2044.000000000046
 30
0.0
 11
1563.999999999997
 21
2049.000000000045
 31
0.0
  0
LINE
  5
277
330
1F
100
AcDbEntity
  8
LAY-10
  6
CONTINUOUS
 62
     7
100
AcDbLine
 10
1519.999999999999
 20
2055.0
 30
0.0
 11
1519.999999999999
 21
2143.000000000048
 31
0.0
  0
LINE
  5
278
330
1F
100
AcDbEntity
  8
LAY-10
  6
CONTINUOUS
 62
     7
100
AcDbLine
 10
1525.999999999997
 20
2055.0
 30
0.0
 11
1525.999999999997
 21
2143.000000000048
 31
0.0
  0
LINE
  5
279
330
1F
100
AcDbEntity
  8
LAY-10
  6
CONTINUOUS
 62
     7
100
AcDbLine
 10
1563.999999999997
 20
1511.999999999956
 30
0.0
 11
1525.999999999997
 21
1511.999999999955
 31
0.0
  0
LINE
  5
27A
330
1F
100
AcDbEntity
  8
LAY-10
  6
CONTINUOUS
 62
     7
100
AcDbLine
 10
1553.999999999997
 20
1486.999999999953
 30
0.0
 11
1553.999999999997
 21
1506.999999999955
 31
0.0
  0
LINE
  5
27B
330
1F
100
AcDbEntity
  8
LAY-10
  6
CONTINUOUS
 62
     7
100
AcDbLine
 10
1579.699999999998
 20
1486.999999999953
 30
0.0
 11
1553.999999999997
 21
1486.999999999953
 31
0.0
  0
LINE
  5
27C
330
1F
100
AcDbEntity
  8
LAY-10
  6
CONTINUOUS
 62
     7
100
AcDbLine
 10
1563.999999999997
 20
1476.999999999956
 30
0.0
 11
1563.999999999997
 21
1486.999999999953
 31
0.0
  0
LINE
  5
27D
330
1F
100
AcDbEntity
  8
LAY-10
  6
CONTINUOUS
 62
     7
100
AcDbLine
 10
1579.699999999998
 20
1486.999999999953
 30
0.0
 11
1579.699999999998
 21
1506.999999999955
 31
0.0
  0
LINE
  5
27E
330
1F
100
AcDbEntity
  8
LAY-10
  6
CONTINUOUS
 62
     7
100
AcDbLine
 10
1579.699999999998
 20
1506.999999999955
 30
0.0
 11
1553.999999999997
 21
1506.999999999955
 31
0.0
  0
LINE
  5
27F
330
1F
100
AcDbEntity
  8
LAY-10
  6
CONTINUOUS
 62
     7
100
AcDbLine
 10
1569.999999999997
 20
1511.999999999956
 30
0.0
 11
1569.999999999997
 21
1506.999999999955
 31
0.0
  0
ARC
  5
280
330
1F
100
AcDbEntity
  8
LAY-10
  6
CONTINUOUS
 62
     7
100
AcDbCircle
 10
1563.999999999997
 20
1511.999999999956
 30
0.0
 40
6.000000000000005
100
AcDbArc
 50
0.0
 51
90.00000000000001
  0
LINE
  5
281
330
1F
100
AcDbEntity
  8
LAY-10
  6
CONTINUOUS
 62
     7
100
AcDbLine
 10
1563.999999999997
 20
1517.999999999952
 30
0.0
 11
1525.999999999997
 21
1517.999999999952
 31
0.0
  0
ARC
  5
282
330
1F
100
AcDbEntity
  8
LAY-10
  6
CONTINUOUS
 62
     7
100
AcDbCircle
 10
1525.999999999997
 20
1517.999999999952
 30
0.0
 40
6.000000000000005
100
AcDbArc
 50
180.0
 51
270.0000000000002
  0
LINE
  5
283
330
1F
100
AcDbEntity
  8
LAY-10
  6
CONTINUOUS
 62
     7
100
AcDbLine
 10
1563.999999999997
 20
1605.999999999956
 30
0.0
 11
1525.999999999997
 21
1605.999999999955
 31
0.0
  0
LINE
  5
284
330
1F
100
AcDbEntity
  8
LAY-10
  6
CONTINUOUS
 62
     7
100
AcDbLine
 10
1563.999999999997
 20
1611.999999999956
 30
0.0
 11
1525.999999999997
 21
1611.999999999955
 31
0.0
  0
ARC
  5
285
330
1F
100
AcDbEntity
  8
LAY-10
  6
CONTINUOUS
 62
     7
100
AcDbCircle
 10
1525.999999999997
 20
1605.999999999955
 30
0.0
 40
6.000000000000005
100
AcDbArc
 50
90.00000000000001
 51
180.0
  0
ARC
  5
286
330
1F
100
AcDbEntity
  8
LAY-10
  6
CONTINUOUS
 62
     7
100
AcDbCircle
 10
1563.999999999997
 20
1611.999999999956
 30
0.0
 40
6.000000000000005
100
AcDbArc
 50
270.0000000000002
 51
0.0
  0
LINE
  5
287
330
1F
100
AcDbEntity
  8
LAY-10
  6
CONTINUOUS
 62
     7
100
AcDbLine
 10
1563.999999999997
 20
1646.999999999955
 30
0.0
 11
1563.999999999997
 21
1636.999999999955
 31
0.0
  0
LINE
  5
288
330
1F
100
AcDbEntity
  8
LAY-10
  6
CONTINUOUS
 62
     7
100
AcDbLine
 10
1569.999999999997
 20
1611.999999999956
 30
0.0
 11
1569.999999999997
 21
1616.999999999955
 31
0.0
  0
LINE
  5
289
330
1F
100
AcDbEntity
  8
LAY-10
  6
CONTINUOUS
 62
     7
100
AcDbLine
 10
1579.699999999998
 20
1616.999999999955
 30
0.0
 11
1553.999999999997
 21
1616.999999999955
 31
0.0
  0
LINE
  5
28A
330
1F
100
AcDbEntity
  8
LAY-10
  6
CONTINUOUS
 62
     7
100
AcDbLine
 10
1553.999999999997
 20
1636.999999999955
 30
0.0
 11
1553.999999999997
 21
1616.999999999955
 31
0.0
  0
LINE
  5
28B
330
1F
100
AcDbEntity
  8
LAY-10
  6
CONTINUOUS
 62
     7
100
AcDbLine
 10
1579.699999999998
 20
1636.999999999955
 30
0.0
 11
1553.999999999997
 21
1636.999999999955
 31
0.0
  0
LINE
  5
28C
330
1F
100
AcDbEntity
  8
LAY-10
  6
CONTINUOUS
 62
     7
100
AcDbLine
 10
1569.999999999997
 20
1646.999999999955
 30
0.0
 11
1563.999999999997
 21
1646.999999999955
 31
0.0
  0
LINE
  5
28D
330
1F
100
AcDbEntity
  8
LAY-10
  6
CONTINUOUS
 62
     7
100
AcDbLine
 10
1570.999999999997
 20
1616.999999999955
 30
0.0
 11
1570.999999999997
 21
1636.999999999955
 31
0.0
  0
LINE
  5
28E
330
1F
100
AcDbEntity
  8
LAY-10
  6
CONTINUOUS
 62
     7
100
AcDbLine
 10
1570.999999999997
 20
1506.999999999955
 30
0.0
 11
1570.999999999997
 21
1486.999999999953
 31
0.0
  0
LINE
  5
28F
330
1F
100
AcDbEntity
  8
LAY-10
  6
CONTINUOUS
 62
     7
100
AcDbLine
 10
1562.999999999996
 20
1486.999999999953
 30
0.0
 11
1562.999999999996
 21
1506.999999999955
 31
0.0
  0
LINE
  5
290
330
1F
100
AcDbEntity
  8
LAY-10
  6
CONTINUOUS
 62
     7
100
AcDbLine
 10
1562.999999999996
 20
1616.999999999955
 30
0.0
 11
1562.999999999996
 21
1636.999999999955
 31
0.0
  0
LINE
  5
291
330
1F
100
AcDbEntity
  8
LAY-10
  6
CONTINUOUS
 62
     7
100
AcDbLine
 10
1579.699999999998
 20
1616.999999999955
 30
0.0
 11
1579.699999999998
 21
1636.999999999955
 31
0.0
  0
LINE
  5
292
330
1F
100
AcDbEntity
  8
LAY-10
  6
CONTINUOUS
 62
     7
100
AcDbLine
 10
1563.999999999997
 20
1506.999999999955
 30
0.0
 11
1563.999999999997
 21
1511.999999999956
 31
0.0
  0
LINE
  5
293
330
1F
100
AcDbEntity
  8
LAY-10
  6
CONTINUOUS
 62
     7
100
AcDbLine
 10
1569.999999999997
 20
1486.999999999953
 30
0.0
 11
1569.999999999997
 21
1476.999999999956
 31
0.0
  0
LINE
  5
294
330
1F
100
AcDbEntity
  8
LAY-10
  6
CONTINUOUS
 62
     7
100
AcDbLine
 10
1563.999999999997
 20
1616.999999999955
 30
0.0
 11
1563.999999999997
 21
1611.999999999956
 31
0.0
  0
LINE
  5
295
330
1F
100
AcDbEntity
  8
LAY-10
  6
CONTINUOUS
 62
     7
100
AcDbLine
 10
1519.999999999999
 20
1606.000000000001
 30
0.0
 11
1519.999999999999
 21
1517.999999999952
 31
0.0
  0
LINE
  5
296
330
1F
100
AcDbEntity
  8
LAY-10
  6
CONTINUOUS
 62
     7
100
AcDbLine
 10
1525.999999999997
 20
1606.000000000001
 30
0.0
 11
1525.999999999997
 21
1517.999999999952
 31
0.0
  0
LINE
  5
297
330
1F
100
AcDbEntity
  8
LAY-10
  6
CONTINUOUS
 62
     7
100
AcDbLine
 10
999.4000000000001
 20
1253.5
 30
0.0
 11
1330.6
 21
2407.5
 31
0.0
  0
LINE
  5
298
330
1F
100
AcDbEntity
  8
LAY-10
  6
CONTINUOUS
 62
     7
100
AcDbLine
 10
986.0000000000377
 20
2406.500000000002
 30
0.0
 11
1330.312998266898
 21
2406.500000000002
 31
0.0
  0
LINE
  5
299
330
1F
100
AcDbEntity
  8
LAY-10
  6
CONTINUOUS
 62
     7
100
AcDbLine
 10
1705.000000000031
 20
2370.500000000001
 30
0.0
 11
1319.980935875217
 21
2370.500000000001
 31
0.0
  0
LINE
  5
29A
330
1F
100
AcDbEntity
  8
LAY-10
  6
CONTINUOUS
 62
     7
100
AcDbLine
 10
1702.00000000002
 20
2367.5
 30
0.0
 11
1319.11993067591
 21
2367.5
 31
0.0
  0
LINE
  5
29B
330
1F
100
AcDbEntity
  8
LAY-10
  6
CONTINUOUS
 62
     7
100
AcDbLine
 10
1702.00000000002
 20
1293.5
 30
0.0
 11
1010.88006932409
 21
1293.5
 31
0.0
  0
LINE
  5
29C
330
1F
100
AcDbEntity
  8
LAY-10
  6
CONTINUOUS
 62
     7
100
AcDbLine
 10
1705.000000000031
 20
1290.5
 30
0.0
 11
1010.019064124784
 21
1290.5
 31
0.0
  0
LINE
  5
29D
330
1F
100
AcDbEntity
  8
LAY-10
  6
CONTINUOUS
 62
     7
100
AcDbLine
 10
626.0000000000282
 20
1254.5
 30
0.0
 11
984.0000000000277
 21
1254.5
 31
0.0
  0
LINE
  5
29E
330
1F
100
AcDbEntity
  8
LAY-10
  6
CONTINUOUS
 62
     7
100
AcDbLine
 10
984.0000000000277
 20
1254.5
 30
0.0
 11
984.0000000000277
 21
2406.500000000002
 31
0.0
  0
LINE
  5
29F
330
1F
100
AcDbEntity
  8
LAY-10
  6
CONTINUOUS
 62
     7
100
AcDbLine
 10
986.0000000000377
 20
1254.499999999999
 30
0.0
 11
999.6870017331021
 21
1254.499999999999
 31
0.0
  0
LINE
  5
2A0
330
1F
100
AcDbEntity
  8
LAY-10
  6
CONTINUOUS
 62
     7
100
AcDbLine
 10
986.0000000000377
 20
1254.499999999999
 30
0.0
 11
986.0000000000377
 21
2406.500000000002
 31
0.0
  0
LINE
  5
2A1
330
1F
100
AcDbEntity
  8
LAY-10
  6
CONTINUOUS
 62
     7
100
AcDbLine
 10
1569.999999999997
 20
1476.999999999955
 30
0.0
 11
1563.999999999997
 21
1476.999999999955
 31
0.0
  0
LINE
  5
2A2
330
1F
100
AcDbEntity
  8
LAY-10
  6
CONTINUOUS
 62
     7
100
AcDbLine
 10
1569.999999999997
 20
1636.999999999955
 30
0.0
 11
1569.999999999997
 21
1647.0
 31
0.0
  0
LINE
  5
2A3
330
1F
100
AcDbEntity
  8
LAY-10
  6
CONTINUOUS
 62
     7
100
AcDbLine
 10
1569.999999999997
 20
2024.000000000045
 30
0.0
 11
1569.999999999997
 21
2014.0
 31
0.0
  0
LINE
  5
2A4
330
1F
100
AcDbEntity
  8
LAY-10
  6
CONTINUOUS
 62
     7
100
AcDbLine
 10
1570.0
 20
2184.000000000045
 30
0.0
 11
1563.999999999997
 21
2184.000000000045
 31
0.0
  0
LINE
  5
2A5
330
1F
100
AcDbEntity
  8
LAY-10
  6
CONTINUOUS
 62
     7
100
AcDbLine
 10
687.4999999997599
 20
2346.822330470699
 30
0.0
 11
669.8223304704608
 21
2364.499999999999
 31
0.0
  0
LINE
  5
2A6
330
1F
100
AcDbEntity
  8
LAY-10
  6
CONTINUOUS
 62
     7
100
AcDbLine
 10
687.4999999978583
 20
2399.855339058799
 30
0.0
 11
694.1446609391696
 21
2406.5
 31
0.0
  0
LINE
  5
2A7
330
1F
100
AcDbEntity
  8
LAY-10
  6
CONTINUOUS
 62
     7
100
AcDbLine
 10
722.8553390578609
 20
2346.822330469902
 30
0.0
 11
705.1776695288592
 21
2364.499999999501
 31
0.0
  0
LINE
  5
2A8
330
1F
100
AcDbEntity
  8
LAY-10
  6
CONTINUOUS
 62
     7
100
AcDbLine
 10
722.8553390578583
 20
2382.177669529202
 30
0.0
 11
705.1776695288564
 21
2399.855339058901
 31
0.0
  0
LINE
  5
2A9
330
1F
100
AcDbEntity
  8
LAY-10
  6
CONTINUOUS
 62
     7
100
AcDbLine
 10
687.4999999988595
 20
2364.499999999499
 30
0.0
 11
705.1776695288573
 21
2382.177669529201
 31
0.0
  0
LINE
  5
2AA
330
1F
100
AcDbEntity
  8
LAY-10
  6
CONTINUOUS
 62
     7
100
AcDbLine
 10
669.8223304708582
 20
2399.855339057799
 30
0.0
 11
687.5000000001584
 21
2382.177669528499
 31
0.0
  0
LINE
  5
2AB
330
1F
100
AcDbEntity
  8
LAY-10
  6
CONTINUOUS
 62
     7
100
AcDbLine
 10
740.53300858906
 20
2382.177669529999
 30
0.0
 11
727.0000000000601
 21
2368.64466094077
 31
0.0
  0
LINE
  5
2AC
330
1F
100
AcDbEntity
  8
LAY-10
  6
CONTINUOUS
 62
     7
100
AcDbLine
 10
634.4669914120597
 20
2364.499999998998
 30
0.0
 11
652.1446609413607
 21
2346.822330469698
 31
0.0
  0
LINE
  5
2AD
330
1F
100
AcDbEntity
  8
LAY-10
  6
CONTINUOUS
 62
     7
100
AcDbLine
 10
652.1446609407595
 20
2382.177669529097
 30
0.0
 11
634.4669914114594
 21
2399.855339058396
 31
0.0
  0
LINE
  5
2AE
330
1F
100
AcDbEntity
  8
LAY-10
  6
CONTINUOUS
 62
     7
100
AcDbLine
 10
669.8223304707591
 20
2382.177669529398
 30
0.0
 11
652.1446609410606
 21
2364.499999999398
 31
0.0
  0
LINE
  5
2AF
330
1F
100
AcDbEntity
  8
LAY-10
  6
CONTINUOUS
 62
     7
100
AcDbLine
 10
722.8553390593598
 20
2293.789321881999
 30
0.0
 11
740.53300858906
 21
2311.466991411999
 31
0.0
  0
LINE
  5
2B0
330
1F
100
AcDbEntity
  8
LAY-10
  6
CONTINUOUS
 62
     7
100
AcDbLine
 10
740.53300858906
 20
2346.822330470999
 30
0.0
 11
722.8553390593598
 21
2329.144660940999
 31
0.0
  0
LINE
  5
2B1
330
1F
100
AcDbEntity
  8
LAY-10
  6
CONTINUOUS
 62
     7
100
AcDbLine
 10
835.5660171788935
 20
2406.5
 30
0.0
 11
828.9213562386298
 21
2399.855339059999
 31
0.0
  0
LINE
  5
2B2
330
1F
100
AcDbEntity
  8
LAY-10
  6
CONTINUOUS
 62
     7
100
AcDbLine
 10
800.2106781192236
 20
2406.5
 30
0.0
 11
793.5660171789597
 21
2399.855339059999
 31
0.0
  0
LINE
  5
2B3
330
1F
100
AcDbEntity
  8
LAY-10
  6
CONTINUOUS
 62
     7
100
AcDbLine
 10
764.8553390595472
 20
2406.5
 30
0.0
 11
758.2106781186595
 21
2399.855339058999
 31
0.0
  0
LINE
  5
2B4
330
1F
100
AcDbEntity
  8
LAY-10
  6
CONTINUOUS
 62
     7
100
AcDbLine
 10
626.0000000000601
 20
2196.933982824054
 30
0.0
 11
634.46699141086
 21
2205.400974234998
 31
0.0
  0
LINE
  5
2B5
330
1F
100
AcDbEntity
  8
LAY-10
  6
CONTINUOUS
 62
     7
100
AcDbLine
 10
634.46699141086
 20
2223.078643763998
 30
0.0
 11
652.1446609405604
 21
2205.400974234998
 31
0.0
  0
LINE
  5
2B6
330
1F
100
AcDbEntity
  8
LAY-10
  6
CONTINUOUS
 62
     7
100
AcDbLine
 10
652.1446609405604
 20
2223.078643763998
 30
0.0
 11
669.8223304702598
 21
2240.756313293999
 31
0.0
  0
LINE
  5
2B7
330
1F
100
AcDbEntity
  8
LAY-10
  6
CONTINUOUS
 62
     7
100
AcDbLine
 10
669.8223304703598
 20
2293.789321881999
 30
0.0
 11
687.49999999996
 21
2276.111652352999
 31
0.0
  0
LINE
  5
2B8
330
1F
100
AcDbEntity
  8
LAY-10
  6
CONTINUOUS
 62
     7
100
AcDbLine
 10
705.1776695296595
 20
2311.466991411998
 30
0.0
 11
687.49999999996
 21
2293.789321881999
 31
0.0
  0
LINE
  5
2B9
330
1F
100
AcDbEntity
  8
LAY-10
  6
CONTINUOUS
 62
     7
100
AcDbLine
 10
669.8223304703598
 20
2311.466991411999
 30
0.0
 11
652.1446609406595
 21
2293.789321881999
 31
0.0
  0
LINE
  5
2BA
330
1F
100
AcDbEntity
  8
LAY-10
  6
CONTINUOUS
 62
     7
100
AcDbLine
 10
705.1776695296595
 20
2293.789321881999
 30
0.0
 11
722.8553390593598
 21
2276.111652352999
 31
0.0
  0
LINE
  5
2BB
330
1F
100
AcDbEntity
  8
LAY-10
  6
CONTINUOUS
 62
     7
100
AcDbLine
 10
687.49999999996
 20
2258.433982822999
 30
0.0
 11
705.1776695296595
 21
2276.111652352999
 31
0.0
  0
LINE
  5
2BC
330
1F
100
AcDbEntity
  8
LAY-10
  6
CONTINUOUS
 62
     7
100
AcDbLine
 10
669.8223304702598
 20
2258.433982822999
 30
0.0
 11
687.49999999996
 21
2240.756313293999
 31
0.0
  0
LINE
  5
2BD
330
1F
100
AcDbEntity
  8
LAY-10
  6
CONTINUOUS
 62
     7
100
AcDbLine
 10
652.1446609405604
 20
2276.111652352998
 30
0.0
 11
634.4669914109601
 21
2293.789321881999
 31
0.0
  0
LINE
  5
2BE
330
1F
100
AcDbEntity
  8
LAY-10
  6
CONTINUOUS
 62
     7
100
AcDbLine
 10
634.4669914109601
 20
2311.466991411999
 30
0.0
 11
626.0000000000601
 21
2303.000000000955
 31
0.0
  0
LINE
  5
2BF
330
1F
100
AcDbEntity
  8
LAY-10
  6
CONTINUOUS
 62
     7
100
AcDbLine
 10
634.4669914109601
 20
2276.111652352998
 30
0.0
 11
626.0000000000601
 21
2267.644660941954
 31
0.0
  0
LINE
  5
2C0
330
1F
100
AcDbEntity
  8
LAY-10
  6
CONTINUOUS
 62
     7
100
AcDbLine
 10
634.4669914109601
 20
2258.433982822999
 30
0.0
 11
652.1446609405604
 21
2240.756313293999
 31
0.0
  0
LINE
  5
2C1
330
1F
100
AcDbEntity
  8
LAY-10
  6
CONTINUOUS
 62
     7
100
AcDbLine
 10
669.8223304702598
 20
2276.111652352998
 30
0.0
 11
652.1446609405604
 21
2258.433982822999
 31
0.0
  0
LINE
  5
2C2
330
1F
100
AcDbEntity
  8
LAY-10
  6
CONTINUOUS
 62
     7
100
AcDbLine
 10
634.46699141086
 20
2240.756313293998
 30
0.0
 11
626.0000000000601
 21
2232.289321883054
 31
0.0
  0
LINE
  5
2C3
330
1F
100
AcDbEntity
  8
LAY-10
  6
CONTINUOUS
 62
     7
100
AcDbLine
 10
758.2106781187596
 20
2382.177669529999
 30
0.0
 11
740.53300858906
 21
2399.855339059999
 31
0.0
  0
LINE
  5
2C4
330
1F
100
AcDbEntity
  8
LAY-10
  6
CONTINUOUS
 62
     7
100
AcDbLine
 10
740.53300858906
 20
2364.5
 30
0.0
 11
758.2106781187596
 21
2346.822330470999
 31
0.0
  0
LINE
  5
2C5
330
1F
100
AcDbEntity
  8
LAY-10
  6
CONTINUOUS
 62
     7
100
AcDbLine
 10
705.1776695297596
 20
2329.144660940999
 30
0.0
 11
722.8553390593598
 21
2311.466991411999
 31
0.0
  0
LINE
  5
2C6
330
1F
100
AcDbEntity
  8
LAY-10
  6
CONTINUOUS
 62
     7
100
AcDbLine
 10
705.1776695297596
 20
2346.822330470999
 30
0.0
 11
687.50000000006
 21
2329.144660940999
 31
0.0
  0
LINE
  5
2C7
330
1F
100
AcDbEntity
  8
LAY-10
  6
CONTINUOUS
 62
     7
100
AcDbLine
 10
740.53300858906
 20
2329.144660940999
 30
0.0
 11
758.2106781187596
 21
2311.466991411999
 31
0.0
  0
LINE
  5
2C8
330
1F
100
AcDbEntity
  8
LAY-10
  6
CONTINUOUS
 62
     7
100
AcDbLine
 10
758.2106781187596
 20
2364.5
 30
0.0
 11
775.8883476483599
 21
2382.177669529999
 31
0.0
  0
LINE
  5
2C9
330
1F
100
AcDbEntity
  8
LAY-10
  6
CONTINUOUS
 62
     7
100
AcDbLine
 10
758.2106781187596
 20
2329.144660940999
 30
0.0
 11
775.8883476483599
 21
2346.822330470999
 31
0.0
  0
LINE
  5
2CA
330
1F
100
AcDbEntity
  8
LAY-10
  6
CONTINUOUS
 62
     7
100
AcDbLine
 10
775.8883476483599
 20
2364.5
 30
0.0
 11
793.5660171780603
 21
2346.822330470999
 31
0.0
  0
LINE
  5
2CB
330
1F
100
AcDbEntity
  8
LAY-10
  6
CONTINUOUS
 62
     7
100
AcDbLine
 10
687.49999999996
 20
2311.466991411998
 30
0.0
 11
669.8223304703598
 21
2329.144660941
 31
0.0
  0
LINE
  5
2CC
330
1F
100
AcDbEntity
  8
LAY-10
  6
CONTINUOUS
 62
     7
100
AcDbLine
 10
652.1446609406595
 20
2311.466991411999
 30
0.0
 11
634.4669914109601
 21
2329.144660941
 31
0.0
  0
LINE
  5
2CD
330
1F
100
AcDbEntity
  8
LAY-10
  6
CONTINUOUS
 62
     7
100
AcDbLine
 10
669.8223304703598
 20
2346.822330470999
 30
0.0
 11
652.1446609406595
 21
2329.144660941
 31
0.0
  0
LINE
  5
2CE
330
1F
100
AcDbEntity
  8
LAY-10
  6
CONTINUOUS
 62
     7
100
AcDbLine
 10
634.4669914110601
 20
2346.822330471998
 30
0.0
 11
626.0000000000601
 21
2338.355339060854
 31
0.0
  0
LINE
  5
2CF
330
1F
100
AcDbEntity
  8
LAY-10
  6
CONTINUOUS
 62
     7
100
AcDbLine
 10
729.5000000007641
 20
2406.5
 30
0.0
 11
722.8553390585558
 21
2399.855339058203
 31
0.0
  0
LINE
  5
2D0
330
1F
100
AcDbEntity
  8
LAY-10
  6
CONTINUOUS
 62
     7
100
AcDbLine
 10
634.4669914123598
 20
2382.177669528396
 30
0.0
 11
626.0000000000347
 21
2373.710678115925
 31
0.0
  0
LINE
  5
2D1
330
1F
100
AcDbEntity
  8
LAY-10
  6
CONTINUOUS
 62
     7
100
AcDbLine
 10
652.1446609405594
 20
2399.855339057196
 30
0.0
 11
658.7893218830224
 21
2406.499999999997
 31
0.0
  0
LINE
  5
2D2
330
1F
100
AcDbEntity
  8
LAY-10
  6
CONTINUOUS
 62
     7
100
AcDbLine
 10
820.6135105768352
 20
2390.485515190865
 30
0.0
 11
811.24368670786
 21
2399.855339059999
 31
0.0
  0
LINE
  5
2D3
330
1F
100
AcDbEntity
  8
LAY-10
  6
CONTINUOUS
 62
     7
100
AcDbLine
 10
815.5000000000601
 20
2385.499999999999
 30
0.0
 11
817.1063000128635
 21
2385.499999999999
 31
0.0
  0
LINE
  5
2D4
330
1F
100
AcDbEntity
  8
LAY-10
  6
CONTINUOUS
 62
     7
100
AcDbLine
 10
815.5000000000601
 20
2377.500000000001
 30
0.0
 11
817.1063000128635
 21
2377.500000000001
 31
0.0
  0
LINE
  5
2D5
330
1F
100
AcDbEntity
  8
LAY-10
  6
CONTINUOUS
 62
     7
100
AcDbLine
 10
815.5000000000601
 20
2377.500000000001
 30
0.0
 11
815.5000000000601
 21
2385.499999999999
 31
0.0
  0
LINE
  5
2D6
330
1F
100
AcDbEntity
  8
LAY-10
  6
CONTINUOUS
 62
     7
100
AcDbLine
 10
805.0000000000603
 20
2388.0
 30
0.0
 11
809.0000000000601
 21
2381.5
 31
0.0
  0
LINE
  5
2D7
330
1F
100
AcDbEntity
  8
LAY-10
  6
CONTINUOUS
 62
     7
100
AcDbLine
 10
809.0000000000601
 20
2381.5
 30
0.0
 11
805.0000000000603
 21
2375.0
 31
0.0
  0
LINE
  5
2D8
330
1F
100
AcDbEntity
  8
LAY-10
  6
CONTINUOUS
 62
     7
100
AcDbLine
 10
805.0000000000603
 20
2375.0
 30
0.0
 11
801.0000000000601
 21
2381.5
 31
0.0
  0
LINE
  5
2D9
330
1F
100
AcDbEntity
  8
LAY-10
  6
CONTINUOUS
 62
     7
100
AcDbLine
 10
801.0000000000601
 20
2381.5
 30
0.0
 11
805.0000000000603
 21
2388.0
 31
0.0
  0
CIRCLE
  5
2DA
330
1F
100
AcDbEntity
  8
LAY-10
  6
CONTINUOUS
 62
     7
100
AcDbCircle
 10
805.0000000000603
 20
2381.5
 30
0.0
 40
13.00000000000001
  0
LINE
  5
2DB
330
1F
100
AcDbEntity
  8
LAY-10
  6
CONTINUOUS
 62
     7
100
AcDbLine
 10
1047.49999999977
 20
2346.822330470699
 30
0.0
 11
1029.822330470471
 21
2364.499999999999
 31
0.0
  0
LINE
  5
2DC
330
1F
100
AcDbEntity
  8
LAY-10
  6
CONTINUOUS
 62
     7
100
AcDbLine
 10
1047.499999997868
 20
2399.855339058799
 30
0.0
 11
1054.14466093918
 21
2406.5
 31
0.0
  0
LINE
  5
2DD
330
1F
100
AcDbEntity
  8
LAY-10
  6
CONTINUOUS
 62
     7
100
AcDbLine
 10
1082.855339057871
 20
2346.822330469902
 30
0.0
 11
1065.177669528869
 21
2364.499999999501
 31
0.0
  0
LINE
  5
2DE
330
1F
100
AcDbEntity
  8
LAY-10
  6
CONTINUOUS
 62
     7
100
AcDbLine
 10
1082.855339057868
 20
2382.177669529202
 30
0.0
 11
1065.177669528866
 21
2399.855339058901
 31
0.0
  0
LINE
  5
2DF
330
1F
100
AcDbEntity
  8
LAY-10
  6
CONTINUOUS
 62
     7
100
AcDbLine
 10
1047.499999998869
 20
2364.499999999499
 30
0.0
 11
1065.177669528867
 21
2382.177669529201
 31
0.0
  0
LINE
  5
2E0
330
1F
100
AcDbEntity
  8
LAY-10
  6
CONTINUOUS
 62
     7
100
AcDbLine
 10
1029.822330470868
 20
2399.855339057799
 30
0.0
 11
1047.500000000168
 21
2382.177669528499
 31
0.0
  0
LINE
  5
2E1
330
1F
100
AcDbEntity
  8
LAY-10
  6
CONTINUOUS
 62
     7
100
AcDbLine
 10
1100.53300858907
 20
2382.177669529999
 30
0.0
 11
1087.00000000007
 21
2368.64466094077
 31
0.0
  0
LINE
  5
2E2
330
1F
100
AcDbEntity
  8
LAY-10
  6
CONTINUOUS
 62
     7
100
AcDbLine
 10
994.4669914120698
 20
2364.499999998998
 30
0.0
 11
1012.144660941371
 21
2346.822330469698
 31
0.0
  0
LINE
  5
2E3
330
1F
100
AcDbEntity
  8
LAY-10
  6
CONTINUOUS
 62
     7
100
AcDbLine
 10
1012.14466094077
 20
2382.177669529097
 30
0.0
 11
994.4669914114695
 21
2399.855339058396
 31
0.0
  0
LINE
  5
2E4
330
1F
100
AcDbEntity
  8
LAY-10
  6
CONTINUOUS
 62
     7
100
AcDbLine
 10
1029.822330470769
 20
2382.177669529398
 30
0.0
 11
1012.144660941071
 21
2364.499999999398
 31
0.0
  0
LINE
  5
2E5
330
1F
100
AcDbEntity
  8
LAY-10
  6
CONTINUOUS
 62
     7
100
AcDbLine
 10
1082.85533905937
 20
2293.789321881999
 30
0.0
 11
1100.53300858907
 21
2311.466991411999
 31
0.0
  0
LINE
  5
2E6
330
1F
100
AcDbEntity
  8
LAY-10
  6
CONTINUOUS
 62
     7
100
AcDbLine
 10
1100.53300858907
 20
2346.822330470999
 30
0.0
 11
1082.85533905937
 21
2329.144660940999
 31
0.0
  0
LINE
  5
2E7
330
1F
100
AcDbEntity
  8
LAY-10
  6
CONTINUOUS
 62
     7
100
AcDbLine
 10
1195.566017178904
 20
2406.5
 30
0.0
 11
1188.92135623864
 21
2399.855339059999
 31
0.0
  0
LINE
  5
2E8
330
1F
100
AcDbEntity
  8
LAY-10
  6
CONTINUOUS
 62
     7
100
AcDbLine
 10
1160.210678119234
 20
2406.5
 30
0.0
 11
1153.56601717897
 21
2399.855339059999
 31
0.0
  0
LINE
  5
2E9
330
1F
100
AcDbEntity
  8
LAY-10
  6
CONTINUOUS
 62
     7
100
AcDbLine
 10
1124.855339059557
 20
2406.5
 30
0.0
 11
1118.210678118669
 21
2399.855339058999
 31
0.0
  0
LINE
  5
2EA
330
1F
100
AcDbEntity
  8
LAY-10
  6
CONTINUOUS
 62
     7
100
AcDbLine
 10
986.0000000000701
 20
2196.933982824054
 30
0.0
 11
994.46699141087
 21
2205.400974234998
 31
0.0
  0
LINE
  5
2EB
330
1F
100
AcDbEntity
  8
LAY-10
  6
CONTINUOUS
 62
     7
100
AcDbLine
 10
994.46699141087
 20
2223.078643763998
 30
0.0
 11
1012.14466094057
 21
2205.400974234998
 31
0.0
  0
LINE
  5
2EC
330
1F
100
AcDbEntity
  8
LAY-10
  6
CONTINUOUS
 62
     7
100
AcDbLine
 10
1012.14466094057
 20
2223.078643763998
 30
0.0
 11
1029.82233047027
 21
2240.756313293999
 31
0.0
  0
LINE
  5
2ED
330
1F
100
AcDbEntity
  8
LAY-10
  6
CONTINUOUS
 62
     7
100
AcDbLine
 10
1029.82233047037
 20
2293.789321881999
 30
0.0
 11
1047.49999999997
 21
2276.111652352999
 31
0.0
  0
LINE
  5
2EE
330
1F
100
AcDbEntity
  8
LAY-10
  6
CONTINUOUS
 62
     7
100
AcDbLine
 10
1065.177669529669
 20
2311.466991411998
 30
0.0
 11
1047.49999999997
 21
2293.789321881999
 31
0.0
  0
LINE
  5
2EF
330
1F
100
AcDbEntity
  8
LAY-10
  6
CONTINUOUS
 62
     7
100
AcDbLine
 10
1029.82233047037
 20
2311.466991411999
 30
0.0
 11
1012.144660940669
 21
2293.789321881999
 31
0.0
  0
LINE
  5
2F0
330
1F
100
AcDbEntity
  8
LAY-10
  6
CONTINUOUS
 62
     7
100
AcDbLine
 10
1065.177669529669
 20
2293.789321881999
 30
0.0
 11
1082.85533905937
 21
2276.111652352999
 31
0.0
  0
LINE
  5
2F1
330
1F
100
AcDbEntity
  8
LAY-10
  6
CONTINUOUS
 62
     7
100
AcDbLine
 10
1047.49999999997
 20
2258.433982822999
 30
0.0
 11
1065.177669529669
 21
2276.111652352999
 31
0.0
  0
LINE
  5
2F2
330
1F
100
AcDbEntity
  8
LAY-10
  6
CONTINUOUS
 62
     7
100
AcDbLine
 10
1029.82233047027
 20
2258.433982822999
 30
0.0
 11
1047.49999999997
 21
2240.756313293999
 31
0.0
  0
LINE
  5
2F3
330
1F
100
AcDbEntity
  8
LAY-10
  6
CONTINUOUS
 62
     7
100
AcDbLine
 10
1012.14466094057
 20
2276.111652352998
 30
0.0
 11
994.4669914109701
 21
2293.789321881999
 31
0.0
  0
LINE
  5
2F4
330
1F
100
AcDbEntity
  8
LAY-10
  6
CONTINUOUS
 62
     7
100
AcDbLine
 10
994.4669914109701
 20
2311.466991411999
 30
0.0
 11
986.0000000000701
 21
2303.000000000955
 31
0.0
  0
LINE
  5
2F5
330
1F
100
AcDbEntity
  8
LAY-10
  6
CONTINUOUS
 62
     7
100
AcDbLine
 10
994.4669914109701
 20
2276.111652352998
 30
0.0
 11
986.0000000000701
 21
2267.644660941954
 31
0.0
  0
LINE
  5
2F6
330
1F
100
AcDbEntity
  8
LAY-10
  6
CONTINUOUS
 62
     7
100
AcDbLine
 10
994.4669914109701
 20
2258.433982822999
 30
0.0
 11
1012.14466094057
 21
2240.756313293999
 31
0.0
  0
LINE
  5
2F7
330
1F
100
AcDbEntity
  8
LAY-10
  6
CONTINUOUS
 62
     7
100
AcDbLine
 10
1029.82233047027
 20
2276.111652352998
 30
0.0
 11
1012.14466094057
 21
2258.433982822999
 31
0.0
  0
LINE
  5
2F8
330
1F
100
AcDbEntity
  8
LAY-10
  6
CONTINUOUS
 62
     7
100
AcDbLine
 10
994.46699141087
 20
2240.756313293998
 30
0.0
 11
986.0000000000701
 21
2232.289321883054
 31
0.0
  0
LINE
  5
2F9
330
1F
100
AcDbEntity
  8
LAY-10
  6
CONTINUOUS
 62
     7
100
AcDbLine
 10
1118.210678118769
 20
2382.177669529999
 30
0.0
 11
1100.53300858907
 21
2399.855339059999
 31
0.0
  0
LINE
  5
2FA
330
1F
100
AcDbEntity
  8
LAY-10
  6
CONTINUOUS
 62
     7
100
AcDbLine
 10
1100.53300858907
 20
2364.5
 30
0.0
 11
1118.210678118769
 21
2346.822330470999
 31
0.0
  0
LINE
  5
2FB
330
1F
100
AcDbEntity
  8
LAY-10
  6
CONTINUOUS
 62
     7
100
AcDbLine
 10
1065.177669529769
 20
2329.144660940999
 30
0.0
 11
1082.85533905937
 21
2311.466991411999
 31
0.0
  0
LINE
  5
2FC
330
1F
100
AcDbEntity
  8
LAY-10
  6
CONTINUOUS
 62
     7
100
AcDbLine
 10
1065.177669529769
 20
2346.822330470999
 30
0.0
 11
1047.50000000007
 21
2329.144660940999
 31
0.0
  0
LINE
  5
2FD
330
1F
100
AcDbEntity
  8
LAY-10
  6
CONTINUOUS
 62
     7
100
AcDbLine
 10
1100.53300858907
 20
2329.144660940999
 30
0.0
 11
1118.210678118769
 21
2311.466991411999
 31
0.0
  0
LINE
  5
2FE
330
1F
100
AcDbEntity
  8
LAY-10
  6
CONTINUOUS
 62
     7
100
AcDbLine
 10
1118.210678118769
 20
2364.5
 30
0.0
 11
1135.88834764837
 21
2382.177669529999
 31
0.0
  0
LINE
  5
2FF
330
1F
100
AcDbEntity
  8
LAY-10
  6
CONTINUOUS
 62
     7
100
AcDbLine
 10
1118.210678118769
 20
2329.144660940999
 30
0.0
 11
1135.88834764837
 21
2346.822330470999
 31
0.0
  0
LINE
  5
300
330
1F
100
AcDbEntity
  8
LAY-10
  6
CONTINUOUS
 62
     7
100
AcDbLine
 10
1135.88834764837
 20
2364.5
 30
0.0
 11
1153.56601717807
 21
2346.822330470999
 31
0.0
  0
LINE
  5
301
330
1F
100
AcDbEntity
  8
LAY-10
  6
CONTINUOUS
 62
     7
100
AcDbLine
 10
1047.49999999997
 20
2311.466991411998
 30
0.0
 11
1029.82233047037
 21
2329.144660941
 31
0.0
  0
LINE
  5
302
330
1F
100
AcDbEntity
  8
LAY-10
  6
CONTINUOUS
 62
     7
100
AcDbLine
 10
1012.144660940669
 20
2311.466991411999
 30
0.0
 11
994.4669914109701
 21
2329.144660941
 31
0.0
  0
LINE
  5
303
330
1F
100
AcDbEntity
  8
LAY-10
  6
CONTINUOUS
 62
     7
100
AcDbLine
 10
1029.82233047037
 20
2346.822330470999
 30
0.0
 11
1012.144660940669
 21
2329.144660941
 31
0.0
  0
LINE
  5
304
330
1F
100
AcDbEntity
  8
LAY-10
  6
CONTINUOUS
 62
     7
100
AcDbLine
 10
994.4669914110701
 20
2346.822330471998
 30
0.0
 11
986.0000000000701
 21
2338.355339060854
 31
0.0
  0
LINE
  5
305
330
1F
100
AcDbEntity
  8
LAY-10
  6
CONTINUOUS
 62
     7
100
AcDbLine
 10
1089.500000000774
 20
2406.5
 30
0.0
 11
1082.855339058566
 21
2399.855339058203
 31
0.0
  0
LINE
  5
306
330
1F
100
AcDbEntity
  8
LAY-10
  6
CONTINUOUS
 62
     7
100
AcDbLine
 10
994.4669914123699
 20
2382.177669528396
 30
0.0
 11
986.0000000000447
 21
2373.710678115925
 31
0.0
  0
LINE
  5
307
330
1F
100
AcDbEntity
  8
LAY-10
  6
CONTINUOUS
 62
     7
100
AcDbLine
 10
1012.144660940569
 20
2399.855339057196
 30
0.0
 11
1018.789321883032
 21
2406.499999999997
 31
0.0
  0
LINE
  5
308
330
1F
100
AcDbEntity
  8
LAY-10
  6
CONTINUOUS
 62
     7
100
AcDbLine
 10
1180.613510576845
 20
2390.485515190865
 30
0.0
 11
1171.24368670787
 21
2399.855339059999
 31
0.0
  0
LINE
  5
309
330
1F
100
AcDbEntity
  8
LAY-10
  6
CONTINUOUS
 62
     7
100
AcDbLine
 10
1175.50000000007
 20
2385.499999999999
 30
0.0
 11
1177.106300012873
 21
2385.499999999999
 31
0.0
  0
LINE
  5
30A
330
1F
100
AcDbEntity
  8
LAY-10
  6
CONTINUOUS
 62
     7
100
AcDbLine
 10
1175.50000000007
 20
2377.500000000001
 30
0.0
 11
1177.106300012873
 21
2377.500000000001
 31
0.0
  0
LINE
  5
30B
330
1F
100
AcDbEntity
  8
LAY-10
  6
CONTINUOUS
 62
     7
100
AcDbLine
 10
1175.50000000007
 20
2377.500000000001
 30
0.0
 11
1175.50000000007
 21
2385.499999999999
 31
0.0
  0
LINE
  5
30C
330
1F
100
AcDbEntity
  8
LAY-10
  6
CONTINUOUS
 62
     7
100
AcDbLine
 10
1165.00000000007
 20
2388.0
 30
0.0
 11
1169.00000000007
 21
2381.5
 31
0.0
  0
LINE
  5
30D
330
1F
100
AcDbEntity
  8
LAY-10
  6
CONTINUOUS
 62
     7
100
AcDbLine
 10
1169.00000000007
 20
2381.5
 30
0.0
 11
1165.00000000007
 21
2375.0
 31
0.0
  0
LINE
  5
30E
330
1F
100
AcDbEntity
  8
LAY-10
  6
CONTINUOUS
 62
     7
100
AcDbLine
 10
1165.00000000007
 20
2375.0
 30
0.0
 11
1161.00000000007
 21
2381.5
 31
0.0
  0
LINE
  5
30F
330
1F
100
AcDbEntity
  8
LAY-10
  6
CONTINUOUS
 62
     7
100
AcDbLine
 10
1161.00000000007
 20
2381.5
 30
0.0
 11
1165.00000000007
 21
2388.0
 31
0.0
  0
CIRCLE
  5
310
330
1F
100
AcDbEntity
  8
LAY-10
  6
CONTINUOUS
 62
     7
100
AcDbCircle
 10
1165.00000000007
 20
2381.5
 30
0.0
 40
13.00000000000001
  0
ARC
  5
311
330
1F
100
AcDbEntity
  8
LAY-10
  6
CONTINUOUS
 62
     7
100
AcDbCircle
 10
1165.00000000007
 20
2381.5
 30
0.0
 40
12.75000000000001
100
AcDbArc
 50
18.28388994040363
 51
341.7161100595978
  0
ARC
  5
312
330
1F
100
AcDbEntity
  8
LAY-10
  6
CONTINUOUS
 62
     7
100
AcDbCircle
 10
805.0000000000603
 20
2381.5
 30
0.0
 40
12.75000000000001
100
AcDbArc
 50
18.28388994040363
 51
341.7161100595978
  0
LINE
  5
313
330
1F
100
AcDbEntity
  8
LAY-10
  6
CONTINUOUS
 62
     7
100
AcDbLine
 10
792.1669502568502
 20
2383.576736451334
 30
0.0
 11
775.8883476484599
 21
2399.855339059999
 31
0.0
  0
LINE
  5
314
330
1F
100
AcDbEntity
  8
LAY-10
  6
CONTINUOUS
 62
     7
100
AcDbLine
 10
1152.16695025686
 20
2383.576736451334
 30
0.0
 11
1135.88834764847
 21
2399.855339059999
 31
0.0
  0
LINE
  5
315
330
1F
100
AcDbEntity
  8
LAY-10
  6
CONTINUOUS
 62
     7
100
AcDbLine
 10
922.5000000003002
 20
1314.177669529301
 30
0.0
 11
940.1776695295996
 21
1296.500000000001
 31
0.0
  0
LINE
  5
316
330
1F
100
AcDbEntity
  8
LAY-10
  6
CONTINUOUS
 62
     7
100
AcDbLine
 10
922.5000000022021
 20
1261.144660941201
 30
0.0
 11
915.8553390608905
 21
1254.5
 31
0.0
  0
LINE
  5
317
330
1F
100
AcDbEntity
  8
LAY-10
  6
CONTINUOUS
 62
     7
100
AcDbLine
 10
887.1446609421993
 20
1314.177669530098
 30
0.0
 11
904.8223304712011
 21
1296.500000000499
 31
0.0
  0
LINE
  5
318
330
1F
100
AcDbEntity
  8
LAY-10
  6
CONTINUOUS
 62
     7
100
AcDbLine
 10
887.144660942202
 20
1278.822330470798
 30
0.0
 11
904.8223304712038
 21
1261.144660941099
 31
0.0
  0
LINE
  5
319
330
1F
100
AcDbEntity
  8
LAY-10
  6
CONTINUOUS
 62
     7
100
AcDbLine
 10
922.5000000012006
 20
1296.500000000501
 30
0.0
 11
904.822330471203
 21
1278.822330470799
 31
0.0
  0
LINE
  5
31A
330
1F
100
AcDbEntity
  8
LAY-10
  6
CONTINUOUS
 62
     7
100
AcDbLine
 10
940.177669529202
 20
1261.144660942201
 30
0.0
 11
922.4999999999019
 21
1278.822330471501
 31
0.0
  0
LINE
  5
31B
330
1F
100
AcDbEntity
  8
LAY-10
  6
CONTINUOUS
 62
     7
100
AcDbLine
 10
869.4669914110001
 20
1278.822330470001
 30
0.0
 11
883.0000000000001
 21
1292.35533905923
 31
0.0
  0
LINE
  5
31C
330
1F
100
AcDbEntity
  8
LAY-10
  6
CONTINUOUS
 62
     7
100
AcDbLine
 10
975.5330085880007
 20
1296.500000001002
 30
0.0
 11
957.8553390586995
 21
1314.177669530302
 31
0.0
  0
LINE
  5
31D
330
1F
100
AcDbEntity
  8
LAY-10
  6
CONTINUOUS
 62
     7
100
AcDbLine
 10
957.8553390593007
 20
1278.822330470903
 30
0.0
 11
975.533008588601
 21
1261.144660941604
 31
0.0
  0
LINE
  5
31E
330
1F
100
AcDbEntity
  8
LAY-10
  6
CONTINUOUS
 62
     7
100
AcDbLine
 10
940.1776695293012
 20
1278.822330470602
 30
0.0
 11
957.8553390589997
 21
1296.500000000602
 31
0.0
  0
LINE
  5
31F
330
1F
100
AcDbEntity
  8
LAY-10
  6
CONTINUOUS
 62
     7
100
AcDbLine
 10
887.1446609407004
 20
1367.210678118001
 30
0.0
 11
869.4669914110001
 21
1349.533008588001
 31
0.0
  0
LINE
  5
320
330
1F
100
AcDbEntity
  8
LAY-10
  6
CONTINUOUS
 62
     7
100
AcDbLine
 10
869.4669914110001
 20
1314.177669529001
 30
0.0
 11
887.1446609407004
 21
1331.855339059001
 31
0.0
  0
LINE
  5
321
330
1F
100
AcDbEntity
  8
LAY-10
  6
CONTINUOUS
 62
     7
100
AcDbLine
 10
774.4339828211668
 20
1254.5
 30
0.0
 11
781.0786437614305
 21
1261.144660940001
 31
0.0
  0
LINE
  5
322
330
1F
100
AcDbEntity
  8
LAY-10
  6
CONTINUOUS
 62
     7
100
AcDbLine
 10
809.7893218808366
 20
1254.5
 30
0.0
 11
816.4339828211007
 21
1261.144660940001
 31
0.0
  0
LINE
  5
323
330
1F
100
AcDbEntity
  8
LAY-10
  6
CONTINUOUS
 62
     7
100
AcDbLine
 10
845.1446609405131
 20
1254.5
 30
0.0
 11
851.7893218814007
 21
1261.144660941001
 31
0.0
  0
LINE
  5
324
330
1F
100
AcDbEntity
  8
LAY-10
  6
CONTINUOUS
 62
     7
100
AcDbLine
 10
984.0000000000001
 20
1464.066017175946
 30
0.0
 11
975.5330085892002
 21
1455.599025765002
 31
0.0
  0
LINE
  5
325
330
1F
100
AcDbEntity
  8
LAY-10
  6
CONTINUOUS
 62
     7
100
AcDbLine
 10
975.5330085892002
 20
1437.921356236002
 30
0.0
 11
957.8553390594999
 21
1455.599025765002
 31
0.0
  0
LINE
  5
326
330
1F
100
AcDbEntity
  8
LAY-10
  6
CONTINUOUS
 62
     7
100
AcDbLine
 10
957.8553390594999
 20
1437.921356236002
 30
0.0
 11
940.1776695298005
 21
1420.243686706001
 31
0.0
  0
LINE
  5
327
330
1F
100
AcDbEntity
  8
LAY-10
  6
CONTINUOUS
 62
     7
100
AcDbLine
 10
940.1776695297004
 20
1367.210678118001
 30
0.0
 11
922.5000000001002
 21
1384.888347647001
 31
0.0
  0
LINE
  5
328
330
1F
100
AcDbEntity
  8
LAY-10
  6
CONTINUOUS
 62
     7
100
AcDbLine
 10
904.8223304704007
 20
1349.533008588002
 30
0.0
 11
922.5000000001002
 21
1367.210678118001
 31
0.0
  0
LINE
  5
329
330
1F
100
AcDbEntity
  8
LAY-10
  6
CONTINUOUS
 62
     7
100
AcDbLine
 10
940.1776695297004
 20
1349.533008588001
 30
0.0
 11
957.8553390594008
 21
1367.210678118001
 31
0.0
  0
LINE
  5
32A
330
1F
100
AcDbEntity
  8
LAY-10
  6
CONTINUOUS
 62
     7
100
AcDbLine
 10
904.8223304704007
 20
1367.210678118001
 30
0.0
 11
887.1446609407004
 21
1384.888347647001
 31
0.0
  0
LINE
  5
32B
330
1F
100
AcDbEntity
  8
LAY-10
  6
CONTINUOUS
 62
     7
100
AcDbLine
 10
922.5000000001002
 20
1402.566017177001
 30
0.0
 11
904.8223304704007
 21
1384.888347647001
 31
0.0
  0
LINE
  5
32C
330
1F
100
AcDbEntity
  8
LAY-10
  6
CONTINUOUS
 62
     7
100
AcDbLine
 10
940.1776695298005
 20
1402.566017177001
 30
0.0
 11
922.5000000001002
 21
1420.243686706001
 31
0.0
  0
LINE
  5
32D
330
1F
100
AcDbEntity
  8
LAY-10
  6
CONTINUOUS
 62
     7
100
AcDbLine
 10
957.8553390594999
 20
1384.888347647002
 30
0.0
 11
975.5330085891002
 21
1367.210678118001
 31
0.0
  0
LINE
  5
32E
330
1F
100
AcDbEntity
  8
LAY-10
  6
CONTINUOUS
 62
     7
100
AcDbLine
 10
975.5330085891002
 20
1349.533008588001
 30
0.0
 11
984.0000000000001
 21
1357.999999999045
 31
0.0
  0
LINE
  5
32F
330
1F
100
AcDbEntity
  8
LAY-10
  6
CONTINUOUS
 62
     7
100
AcDbLine
 10
975.5330085891002
 20
1384.888347647002
 30
0.0
 11
984.0000000000001
 21
1393.355339058046
 31
0.0
  0
LINE
  5
330
330
1F
100
AcDbEntity
  8
LAY-10
  6
CONTINUOUS
 62
     7
100
AcDbLine
 10
975.5330085891002
 20
1402.566017177001
 30
0.0
 11
957.8553390594999
 21
1420.243686706001
 31
0.0
  0
LINE
  5
331
330
1F
100
AcDbEntity
  8
LAY-10
  6
CONTINUOUS
 62
     7
100
AcDbLine
 10
940.1776695298005
 20
1384.888347647002
 30
0.0
 11
957.8553390594999
 21
1402.566017177001
 31
0.0
  0
LINE
  5
332
330
1F
100
AcDbEntity
  8
LAY-10
  6
CONTINUOUS
 62
     7
100
AcDbLine
 10
975.5330085892002
 20
1420.243686706002
 30
0.0
 11
984.0000000000001
 21
1428.710678116946
 31
0.0
  0
LINE
  5
333
330
1F
100
AcDbEntity
  8
LAY-10
  6
CONTINUOUS
 62
     7
100
AcDbLine
 10
851.7893218813007
 20
1278.822330470001
 30
0.0
 11
869.4669914110001
 21
1261.144660940001
 31
0.0
  0
LINE
  5
334
330
1F
100
AcDbEntity
  8
LAY-10
  6
CONTINUOUS
 62
     7
100
AcDbLine
 10
869.4669914110001
 20
1296.5
 30
0.0
 11
851.7893218813007
 21
1314.177669529001
 31
0.0
  0
LINE
  5
335
330
1F
100
AcDbEntity
  8
LAY-10
  6
CONTINUOUS
 62
     7
100
AcDbLine
 10
904.8223304703007
 20
1331.855339059001
 30
0.0
 11
887.1446609407004
 21
1349.533008588001
 31
0.0
  0
LINE
  5
336
330
1F
100
AcDbEntity
  8
LAY-10
  6
CONTINUOUS
 62
     7
100
AcDbLine
 10
904.8223304703007
 20
1314.177669529001
 30
0.0
 11
922.5000000000001
 21
1331.855339059001
 31
0.0
  0
LINE
  5
337
330
1F
100
AcDbEntity
  8
LAY-10
  6
CONTINUOUS
 62
     7
100
AcDbLine
 10
869.4669914110001
 20
1331.855339059001
 30
0.0
 11
851.7893218813007
 21
1349.533008588001
 31
0.0
  0
LINE
  5
338
330
1F
100
AcDbEntity
  8
LAY-10
  6
CONTINUOUS
 62
     7
100
AcDbLine
 10
851.7893218813007
 20
1296.5
 30
0.0
 11
834.1116523517004
 21
1278.822330470001
 31
0.0
  0
LINE
  5
339
330
1F
100
AcDbEntity
  8
LAY-10
  6
CONTINUOUS
 62
     7
100
AcDbLine
 10
851.7893218813007
 20
1331.855339059001
 30
0.0
 11
834.1116523517004
 21
1314.177669529001
 31
0.0
  0
LINE
  5
33A
330
1F
100
AcDbEntity
  8
LAY-10
  6
CONTINUOUS
 62
     7
100
AcDbLine
 10
834.1116523517004
 20
1296.5
 30
0.0
 11
816.4339828220001
 21
1314.177669529001
 31
0.0
  0
LINE
  5
33B
330
1F
100
AcDbEntity
  8
LAY-10
  6
CONTINUOUS
 62
     7
100
AcDbLine
 10
922.5000000001002
 20
1349.533008588002
 30
0.0
 11
940.1776695297004
 21
1331.855339059
 31
0.0
  0
LINE
  5
33C
330
1F
100
AcDbEntity
  8
LAY-10
  6
CONTINUOUS
 62
     7
100
AcDbLine
 10
957.8553390594008
 20
1349.533008588001
 30
0.0
 11
975.5330085891002
 21
1331.855339059
 31
0.0
  0
LINE
  5
33D
330
1F
100
AcDbEntity
  8
LAY-10
  6
CONTINUOUS
 62
     7
100
AcDbLine
 10
940.1776695297004
 20
1314.177669529001
 30
0.0
 11
957.8553390594008
 21
1331.855339059
 31
0.0
  0
LINE
  5
33E
330
1F
100
AcDbEntity
  8
LAY-10
  6
CONTINUOUS
 62
     7
100
AcDbLine
 10
975.5330085890001
 20
1314.177669528002
 30
0.0
 11
984.0000000000001
 21
1322.644660939146
 31
0.0
  0
LINE
  5
33F
330
1F
100
AcDbEntity
  8
LAY-10
  6
CONTINUOUS
 62
     7
100
AcDbLine
 10
880.4999999992962
 20
1254.5
 30
0.0
 11
887.1446609415045
 21
1261.144660941797
 31
0.0
  0
LINE
  5
340
330
1F
100
AcDbEntity
  8
LAY-10
  6
CONTINUOUS
 62
     7
100
AcDbLine
 10
975.5330085877006
 20
1278.822330471604
 30
0.0
 11
984.0000000000256
 21
1287.289321884075
 31
0.0
  0
LINE
  5
341
330
1F
100
AcDbEntity
  8
LAY-10
  6
CONTINUOUS
 62
     7
100
AcDbLine
 10
957.8553390595008
 20
1261.144660942804
 30
0.0
 11
951.2106781170379
 21
1254.500000000003
 31
0.0
  0
LINE
  5
342
330
1F
100
AcDbEntity
  8
LAY-10
  6
CONTINUOUS
 62
     7
100
AcDbLine
 10
789.3864894232252
 20
1270.514484809135
 30
0.0
 11
798.7563132922004
 21
1261.144660940001
 31
0.0
  0
LINE
  5
343
330
1F
100
AcDbEntity
  8
LAY-10
  6
CONTINUOUS
 62
     7
100
AcDbLine
 10
805.0000000000001
 20
1273.0
 30
0.0
 11
801.0000000000002
 21
1279.5
 31
0.0
  0
LINE
  5
344
330
1F
100
AcDbEntity
  8
LAY-10
  6
CONTINUOUS
 62
     7
100
AcDbLine
 10
801.0000000000002
 20
1279.5
 30
0.0
 11
805.0000000000001
 21
1286.0
 31
0.0
  0
LINE
  5
345
330
1F
100
AcDbEntity
  8
LAY-10
  6
CONTINUOUS
 62
     7
100
AcDbLine
 10
805.0000000000001
 20
1286.0
 30
0.0
 11
809.0000000000001
 21
1279.5
 31
0.0
  0
LINE
  5
346
330
1F
100
AcDbEntity
  8
LAY-10
  6
CONTINUOUS
 62
     7
100
AcDbLine
 10
809.0000000000001
 20
1279.5
 30
0.0
 11
805.0000000000001
 21
1273.0
 31
0.0
  0
CIRCLE
  5
347
330
1F
100
AcDbEntity
  8
LAY-10
  6
CONTINUOUS
 62
     7
100
AcDbCircle
 10
805.0000000000001
 20
1279.5
 30
0.0
 40
13.00000000000001
  0
LINE
  5
348
330
1F
100
AcDbEntity
  8
LAY-10
  6
CONTINUOUS
 62
     7
100
AcDbLine
 10
817.83304974321
 20
1277.423263548666
 30
0.0
 11
834.1116523516004
 21
1261.144660940001
 31
0.0
  0
LINE
  5
349
330
1F
100
AcDbEntity
  8
LAY-10
  6
CONTINUOUS
 62
     7
100
AcDbLine
 10
815.5000000000007
 20
1275.500000000001
 30
0.0
 11
817.1063000128039
 21
1275.500000000001
 31
0.0
  0
LINE
  5
34A
330
1F
100
AcDbEntity
  8
LAY-10
  6
CONTINUOUS
 62
     7
100
AcDbLine
 10
815.5000000000007
 20
1283.499999999999
 30
0.0
 11
817.1063000128039
 21
1283.499999999999
 31
0.0
  0
LINE
  5
34B
330
1F
100
AcDbEntity
  8
LAY-10
  6
CONTINUOUS
 62
     7
100
AcDbLine
 10
815.5000000000007
 20
1283.499999999999
 30
0.0
 11
815.5000000000007
 21
1275.500000000001
 31
0.0
  0
ARC
  5
34C
330
1F
100
AcDbEntity
  8
LAY-10
  6
CONTINUOUS
 62
     7
100
AcDbCircle
 10
805.0000000000007
 20
1279.5
 30
0.0
 40
12.75000000000001
100
AcDbArc
 50
18.28388994040196
 51
341.716110059596
  0
LINE
  5
34D
330
1F
100
AcDbEntity
  8
LAY-10
  6
CONTINUOUS
 62
     7
100
AcDbLine
 10
2195.630297546748
 20
2406.499999999981
 30
0.0
 11
2197.601515190097
 21
2404.720683687916
 31
0.0
  0
LINE
  5
34E
330
1F
100
AcDbEntity
  8
LAY-10
  6
CONTINUOUS
 62
     7
100
AcDbLine
 10
2197.601515190097
 20
2376.500000000004
 30
0.0
 11
2195.601515190097
 21
2376.500000000004
 31
0.0
  0
LINE
  5
34F
330
1F
100
AcDbEntity
  8
LAY-10
  6
CONTINUOUS
 62
     7
100
AcDbLine
 10
2195.601515190097
 20
2378.241709098659
 30
0.0
 11
2197.536747521938
 21
2376.500000000004
 31
0.0
  0
LINE
  5
350
330
1F
100
AcDbEntity
  8
LAY-10
  6
CONTINUOUS
 62
     7
100
AcDbLine
 10
2195.601515190097
 20
2376.827495536286
 30
0.0
 11
2195.9653991193
 21
2376.500000000004
 31
0.0
  0
LINE
  5
351
330
1F
100
AcDbEntity
  8
LAY-10
  6
CONTINUOUS
 62
     7
100
AcDbLine
 10
2195.601515190094
 20
2377.534602317476
 30
0.0
 11
2196.751073320618
 21
2376.500000000004
 31
0.0
  0
LINE
  5
352
330
1F
100
AcDbEntity
  8
LAY-10
  6
CONTINUOUS
 62
     7
100
AcDbLine
 10
2197.183130454843
 20
2406.499999999981
 30
0.0
 11
2197.601515190097
 21
2406.133452858588
 31
0.0
  0
LINE
  5
353
330
1F
100
AcDbEntity
  8
LAY-10
  6
CONTINUOUS
 62
     7
100
AcDbLine
 10
2196.413666615733
 20
2406.499999999981
 30
0.0
 11
2197.601515190097
 21
2405.427790469105
 31
0.0
  0
LINE
  5
354
330
1F
100
AcDbEntity
  8
LAY-10
  6
CONTINUOUS
 62
     7
100
AcDbLine
 10
2195.601515190094
 20
2378.948815879849
 30
0.0
 11
2197.601515190097
 21
2377.148815879847
 31
0.0
  0
LINE
  5
355
330
1F
100
AcDbEntity
  8
LAY-10
  6
CONTINUOUS
 62
     7
100
AcDbLine
 10
2195.601515190097
 20
2379.655922661032
 30
0.0
 11
2197.601515190094
 21
2377.855922661036
 31
0.0
  0
LINE
  5
356
330
1F
100
AcDbEntity
  8
LAY-10
  6
CONTINUOUS
 62
     7
100
AcDbLine
 10
2195.601515190094
 20
2380.363029442224
 30
0.0
 11
2197.601515190097
 21
2378.563029442221
 31
0.0
  0
LINE
  5
357
330
1F
100
AcDbEntity
  8
LAY-10
  6
CONTINUOUS
 62
     7
100
AcDbLine
 10
2195.601515190097
 20
2381.070136223407
 30
0.0
 11
2197.601515190094
 21
2379.270136223409
 31
0.0
  0
LINE
  5
358
330
1F
100
AcDbEntity
  8
LAY-10
  6
CONTINUOUS
 62
     7
100
AcDbLine
 10
2195.601515190094
 20
2381.777243004596
 30
0.0
 11
2197.601515190097
 21
2379.977243004591
 31
0.0
  0
LINE
  5
359
330
1F
100
AcDbEntity
  8
LAY-10
  6
CONTINUOUS
 62
     7
100
AcDbLine
 10
2195.601515190097
 20
2382.484349785778
 30
0.0
 11
2197.601515190094
 21
2380.684349785782
 31
0.0
  0
LINE
  5
35A
330
1F
100
AcDbEntity
  8
LAY-10
  6
CONTINUOUS
 62
     7
100
AcDbLine
 10
2195.601515190094
 20
2383.191456566968
 30
0.0
 11
2197.601515190097
 21
2381.391456566965
 31
0.0
  0
LINE
  5
35B
330
1F
100
AcDbEntity
  8
LAY-10
  6
CONTINUOUS
 62
     7
100
AcDbLine
 10
2195.601515190097
 20
2383.898563348152
 30
0.0
 11
2197.601515190094
 21
2382.098563348155
 31
0.0
  0
LINE
  5
35C
330
1F
100
AcDbEntity
  8
LAY-10
  6
CONTINUOUS
 62
     7
100
AcDbLine
 10
2195.601515190094
 20
2384.605670129341
 30
0.0
 11
2197.601515190097
 21
2382.805670129338
 31
0.0
  0
LINE
  5
35D
330
1F
100
AcDbEntity
  8
LAY-10
  6
CONTINUOUS
 62
     7
100
AcDbLine
 10
2195.601515190097
 20
2385.312776910524
 30
0.0
 11
2197.601515190094
 21
2383.512776910529
 31
0.0
  0
LINE
  5
35E
330
1F
100
AcDbEntity
  8
LAY-10
  6
CONTINUOUS
 62
     7
100
AcDbLine
 10
2195.601515190094
 20
2386.019883691715
 30
0.0
 11
2197.601515190098
 21
2384.219883691712
 31
0.0
  0
LINE
  5
35F
330
1F
100
AcDbEntity
  8
LAY-10
  6
CONTINUOUS
 62
     7
100
AcDbLine
 10
2195.601515190097
 20
2386.726990472898
 30
0.0
 11
2197.601515190094
 21
2384.926990472902
 31
0.0
  0
LINE
  5
360
330
1F
100
AcDbEntity
  8
LAY-10
  6
CONTINUOUS
 62
     7
100
AcDbLine
 10
2195.601515190094
 20
2387.434097254086
 30
0.0
 11
2197.601515190098
 21
2385.634097254084
 31
0.0
  0
LINE
  5
361
330
1F
100
AcDbEntity
  8
LAY-10
  6
CONTINUOUS
 62
     7
100
AcDbLine
 10
2195.601515190097
 20
2388.14120403527
 30
0.0
 11
2197.601515190094
 21
2386.341204035273
 31
0.0
  0
LINE
  5
362
330
1F
100
AcDbEntity
  8
LAY-10
  6
CONTINUOUS
 62
     7
100
AcDbLine
 10
2195.601515190094
 20
2388.848310816459
 30
0.0
 11
2197.601515190098
 21
2387.048310816458
 31
0.0
  0
LINE
  5
363
330
1F
100
AcDbEntity
  8
LAY-10
  6
CONTINUOUS
 62
     7
100
AcDbLine
 10
2195.601515190097
 20
2389.555417597644
 30
0.0
 11
2197.601515190094
 21
2387.755417597647
 31
0.0
  0
LINE
  5
364
330
1F
100
AcDbEntity
  8
LAY-10
  6
CONTINUOUS
 62
     7
100
AcDbLine
 10
2195.601515190094
 20
2390.262524378832
 30
0.0
 11
2197.601515190098
 21
2388.46252437883
 31
0.0
  0
LINE
  5
365
330
1F
100
AcDbEntity
  8
LAY-10
  6
CONTINUOUS
 62
     7
100
AcDbLine
 10
2195.601515190097
 20
2390.969631160017
 30
0.0
 11
2197.601515190095
 21
2389.169631160021
 31
0.0
  0
LINE
  5
366
330
1F
100
AcDbEntity
  8
LAY-10
  6
CONTINUOUS
 62
     7
100
AcDbLine
 10
2195.601515190094
 20
2391.676737941207
 30
0.0
 11
2197.601515190098
 21
2389.876737941204
 31
0.0
  0
LINE
  5
367
330
1F
100
AcDbEntity
  8
LAY-10
  6
CONTINUOUS
 62
     7
100
AcDbLine
 10
2195.601515190097
 20
2392.383844722391
 30
0.0
 11
2197.601515190095
 21
2390.583844722391
 31
0.0
  0
LINE
  5
368
330
1F
100
AcDbEntity
  8
LAY-10
  6
CONTINUOUS
 62
     7
100
AcDbLine
 10
2195.601515190094
 20
2393.090951503578
 30
0.0
 11
2197.601515190098
 21
2391.290951503575
 31
0.0
  0
LINE
  5
369
330
1F
100
AcDbEntity
  8
LAY-10
  6
CONTINUOUS
 62
     7
100
AcDbLine
 10
2195.601515190097
 20
2393.798058284765
 30
0.0
 11
2197.601515190095
 21
2391.998058284765
 31
0.0
  0
LINE
  5
36A
330
1F
100
AcDbEntity
  8
LAY-10
  6
CONTINUOUS
 62
     7
100
AcDbLine
 10
2195.601515190094
 20
2394.505165065952
 30
0.0
 11
2197.601515190098
 21
2392.70516506595
 31
0.0
  0
LINE
  5
36B
330
1F
100
AcDbEntity
  8
LAY-10
  6
CONTINUOUS
 62
     7
100
AcDbLine
 10
2195.601515190097
 20
2395.212271847136
 30
0.0
 11
2197.601515190095
 21
2393.412271847138
 31
0.0
  0
LINE
  5
36C
330
1F
100
AcDbEntity
  8
LAY-10
  6
CONTINUOUS
 62
     7
100
AcDbLine
 10
2195.601515190094
 20
2395.919378628324
 30
0.0
 11
2197.601515190098
 21
2394.119378628323
 31
0.0
  0
LINE
  5
36D
330
1F
100
AcDbEntity
  8
LAY-10
  6
CONTINUOUS
 62
     7
100
AcDbLine
 10
2195.601515190097
 20
2396.626485409511
 30
0.0
 11
2197.601515190095
 21
2394.826485409512
 31
0.0
  0
LINE
  5
36E
330
1F
100
AcDbEntity
  8
LAY-10
  6
CONTINUOUS
 62
     7
100
AcDbLine
 10
2195.601515190094
 20
2397.333592190698
 30
0.0
 11
2197.601515190098
 21
2395.533592190696
 31
0.0
  0
LINE
  5
36F
330
1F
100
AcDbEntity
  8
LAY-10
  6
CONTINUOUS
 62
     7
100
AcDbLine
 10
2195.601515190097
 20
2398.040698971882
 30
0.0
 11
2197.601515190095
 21
2396.240698971884
 31
0.0
  0
LINE
  5
370
330
1F
100
AcDbEntity
  8
LAY-10
  6
CONTINUOUS
 62
     7
100
AcDbLine
 10
2195.601515190094
 20
2398.74780575307
 30
0.0
 11
2197.601515190097
 21
2396.946259014751
 31
0.0
  0
LINE
  5
371
330
1F
100
AcDbEntity
  8
LAY-10
  6
CONTINUOUS
 62
     7
100
AcDbLine
 10
2195.601515190097
 20
2399.454912534256
 30
0.0
 11
2197.603465298973
 21
2397.652962425379
 31
0.0
  0
LINE
  5
372
330
1F
100
AcDbEntity
  8
LAY-10
  6
CONTINUOUS
 62
     7
100
AcDbLine
 10
2195.601515190094
 20
2400.162019315444
 30
0.0
 11
2197.601515190097
 21
2398.356722657238
 31
0.0
  0
LINE
  5
373
330
1F
100
AcDbEntity
  8
LAY-10
  6
CONTINUOUS
 62
     7
100
AcDbLine
 10
2195.601515190097
 20
2400.869126096627
 30
0.0
 11
2197.601515190097
 21
2399.063829438425
 31
0.0
  0
LINE
  5
374
330
1F
100
AcDbEntity
  8
LAY-10
  6
CONTINUOUS
 62
     7
100
AcDbLine
 10
2195.601515190094
 20
2401.576232877816
 30
0.0
 11
2197.601515190097
 21
2399.770936219611
 31
0.0
  0
LINE
  5
375
330
1F
100
AcDbEntity
  8
LAY-10
  6
CONTINUOUS
 62
     7
100
AcDbLine
 10
2195.601515190097
 20
2402.283339659
 30
0.0
 11
2197.601515190097
 21
2400.478043000799
 31
0.0
  0
LINE
  5
376
330
1F
100
AcDbEntity
  8
LAY-10
  6
CONTINUOUS
 62
     7
100
AcDbLine
 10
2195.601515190094
 20
2402.990446440191
 30
0.0
 11
2197.601515190097
 21
2401.185149781984
 31
0.0
  0
LINE
  5
377
330
1F
100
AcDbEntity
  8
LAY-10
  6
CONTINUOUS
 62
     7
100
AcDbLine
 10
2195.601515190097
 20
2403.697553221374
 30
0.0
 11
2197.601515190097
 21
2401.892256563171
 31
0.0
  0
LINE
  5
378
330
1F
100
AcDbEntity
  8
LAY-10
  6
CONTINUOUS
 62
     7
100
AcDbLine
 10
2195.601515190094
 20
2404.404660002562
 30
0.0
 11
2197.601515190097
 21
2402.599363344357
 31
0.0
  0
LINE
  5
379
330
1F
100
AcDbEntity
  8
LAY-10
  6
CONTINUOUS
 62
     7
100
AcDbLine
 10
2195.601515190097
 20
2405.111766783746
 30
0.0
 11
2197.601515190097
 21
2403.306470125545
 31
0.0
  0
LINE
  5
37A
330
1F
100
AcDbEntity
  8
LAY-10
  6
CONTINUOUS
 62
     7
100
AcDbLine
 10
2195.601515190094
 20
2405.818873564936
 30
0.0
 11
2197.601515190097
 21
2404.013576906732
 31
0.0
  0
ARC
  5
37B
330
1F
100
AcDbEntity
  8
LAY-10
  6
CONTINUOUS
 62
     7
100
AcDbCircle
 10
2194.601515190098
 20
2368.499999999981
 30
0.0
 40
2.0
100
AcDbArc
 50
180.0
 51
270.0000000000002
  0
LINE
  5
37C
330
1F
100
AcDbEntity
  8
LAY-10
  6
CONTINUOUS
 62
     7
100
AcDbLine
 10
2195.601515190098
 20
2366.499999999981
 30
0.0
 11
2194.601515190098
 21
2366.499999999981
 31
0.0
  0
LINE
  5
37D
330
1F
100
AcDbEntity
  8
LAY-10
  6
CONTINUOUS
 62
     7
100
AcDbLine
 10
2188.101515190098
 20
2403.499999999981
 30
0.0
 11
2157.601515190099
 21
2403.499999999981
 31
0.0
  0
LINE
  5
37E
330
1F
100
AcDbEntity
  8
LAY-10
  6
CONTINUOUS
 62
     7
100
AcDbLine
 10
2197.601515190096
 20
2406.499999999981
 30
0.0
 11
2151.101515190096
 21
2406.499999999981
 31
0.0
  0
ARC
  5
37F
330
1F
100
AcDbEntity
  8
LAY-10
  6
CONTINUOUS
 62
     7
100
AcDbCircle
 10
2171.396241966057
 20
2394.819262294956
 30
0.0
 40
2.690186363068871
100
AcDbArc
 50
34.94048644236481
 51
85.19648987661802
  0
ARC
  5
380
330
1F
100
AcDbEntity
  8
LAY-10
  6
CONTINUOUS
 62
     7
100
AcDbCircle
 10
2171.396241966057
 20
2368.180737704874
 30
0.0
 40
2.690186363068871
100
AcDbArc
 50
274.803510123379
 51
325.0595135576035
  0
LINE
  5
381
330
1F
100
AcDbEntity
  8
LAY-10
  6
CONTINUOUS
 62
     7
100
AcDbLine
 10
2155.601515190099
 20
2397.499999999934
 30
0.0
 11
2171.6215151901
 21
2397.499999999934
 31
0.0
  0
LINE
  5
382
330
1F
100
AcDbEntity
  8
LAY-10
  6
CONTINUOUS
 62
     7
100
AcDbLine
 10
2155.601515190099
 20
2381.499999999915
 30
0.0
 11
2171.6215151901
 21
2381.499999999915
 31
0.0
  0
ARC
  5
383
330
1F
100
AcDbEntity
  8
LAY-10
  6
CONTINUOUS
 62
     7
100
AcDbCircle
 10
2126.167811928358
 20
2395.86417263313
 30
0.0
 40
47.66936747686547
100
AcDbArc
 50
342.4625442095373
 51
354.3004070848737
  0
ARC
  5
384
330
1F
100
AcDbEntity
  8
LAY-10
  6
CONTINUOUS
 62
     7
100
AcDbCircle
 10
2162.157175818121
 20
2391.065456521615
 30
0.0
 40
11.44452137582097
100
AcDbArc
 50
0.3231317747390464
 51
34.21070402948217
  0
ARC
  5
385
330
1F
100
AcDbEntity
  8
LAY-10
  6
CONTINUOUS
 62
     7
100
AcDbCircle
 10
2126.167811928358
 20
2367.1358273667
 30
0.0
 40
47.66936747686547
100
AcDbArc
 50
5.69959291512632
 51
17.53745579046277
  0
ARC
  5
386
330
1F
100
AcDbEntity
  8
LAY-10
  6
CONTINUOUS
 62
     7
100
AcDbCircle
 10
2162.157175818121
 20
2371.934543478216
 30
0.0
 40
11.44452137582097
100
AcDbArc
 50
325.7892959705179
 51
359.6768682252611
  0
ARC
  5
387
330
1F
100
AcDbEntity
  8
LAY-10
  6
CONTINUOUS
 62
     7
100
AcDbCircle
 10
2188.101515190098
 20
2398.999999999981
 30
0.0
 40
4.5
100
AcDbArc
 50
0.0
 51
90.00000000000001
  0
ARC
  5
388
330
1F
100
AcDbEntity
  8
LAY-10
  6
CONTINUOUS
 62
     7
100
AcDbCircle
 10
2157.601515190098
 20
2405.49999999998
 30
0.0
 40
2.0
100
AcDbArc
 50
180.0
 51
270.0000000000002
  0
LINE
  5
389
330
1F
100
AcDbEntity
  8
LAY-10
  6
CONTINUOUS
 62
     7
100
AcDbLine
 10
2237.901515190078
 20
2349.500000000018
 30
0.0
 11
2241.101515190076
 21
2349.500000000018
 31
0.0
  0
LINE
  5
38A
330
1F
100
AcDbEntity
  8
LAY-10
  6
CONTINUOUS
 62
     7
100
AcDbLine
 10
2237.901515190078
 20
2361.500000000018
 30
0.0
 11
2241.101515190076
 21
2361.500000000018
 31
0.0
  0
LINE
  5
38B
330
1F
100
AcDbEntity
  8
LAY-10
  6
CONTINUOUS
 62
     7
100
AcDbLine
 10
2228.901515190076
 20
2349.500000000018
 30
0.0
 11
2225.701515190076
 21
2349.500000000018
 31
0.0
  0
LINE
  5
38C
330
1F
100
AcDbEntity
  8
LAY-10
  6
CONTINUOUS
 62
     7
100
AcDbLine
 10
2228.901515190076
 20
2361.500000000018
 30
0.0
 11
2225.701515190076
 21
2361.500000000018
 31
0.0
  0
LINE
  5
38D
330
1F
100
AcDbEntity
  8
LAY-10
  6
CONTINUOUS
 62
     7
100
AcDbLine
 10
2237.901515190078
 20
2367.500000000018
 30
0.0
 11
2228.701515190075
 21
2367.500000000018
 31
0.0
  0
LINE
  5
38E
330
1F
100
AcDbEntity
  8
LAY-10
  6
CONTINUOUS
 62
     7
100
AcDbLine
 10
2237.901515190078
 20
2364.500000000018
 30
0.0
 11
2228.901515190076
 21
2364.500000000018
 31
0.0
  0
ARC
  5
38F
330
1F
100
AcDbEntity
  8
LAY-10
  6
CONTINUOUS
 62
     7
100
AcDbCircle
 10
2238.101515190076
 20
2370.700000000019
 30
0.0
 40
3.000000000000003
100
AcDbArc
 50
0.0
 51
90.00000000000001
  0
ARC
  5
390
330
1F
100
AcDbEntity
  8
LAY-10
  6
CONTINUOUS
 62
     7
100
AcDbCircle
 10
2228.701515190075
 20
2364.500000000018
 30
0.0
 40
3.000000000000003
100
AcDbArc
 50
90.00000000000001
 51
180.0
  0
LINE
  5
391
330
1F
100
AcDbEntity
  8
LAY-10
  6
CONTINUOUS
 62
     7
100
AcDbLine
 10
2237.901515190078
 20
2333.500000000018
 30
0.0
 11
2228.901515190076
 21
2333.500000000018
 31
0.0
  0
LINE
  5
392
330
1F
100
AcDbEntity
  8
LAY-10
  6
CONTINUOUS
 62
     7
100
AcDbLine
 10
2244.10151519007
 20
2337.499999999927
 30
0.0
 11
2244.10151519007
 21
2345.499999999975
 31
0.0
  0
ARC
  5
393
330
1F
100
AcDbEntity
  8
LAY-10
  6
CONTINUOUS
 62
     7
100
AcDbCircle
 10
2248.10151519007
 20
2337.499999999927
 30
0.0
 40
4.0
100
AcDbArc
 50
180.0
 51
270.0000000000002
  0
LINE
  5
394
330
1F
100
AcDbEntity
  8
LAY-10
  6
CONTINUOUS
 62
     7
100
AcDbLine
 10
2248.10151519007
 20
2333.499999999927
 30
0.0
 11
2269.101515190069
 21
2333.499999999927
 31
0.0
  0
LINE
  5
395
330
1F
100
AcDbEntity
  8
LAY-10
  6
CONTINUOUS
 62
     7
100
AcDbLine
 10
2271.101515190069
 20
2330.499999999927
 30
0.0
 11
2271.101515190069
 21
2331.499999999927
 31
0.0
  0
ARC
  5
396
330
1F
100
AcDbEntity
  8
LAY-10
  6
CONTINUOUS
 62
     7
100
AcDbCircle
 10
2269.101515190069
 20
2331.499999999927
 30
0.0
 40
2.0
100
AcDbArc
 50
0.0
 51
90.00000000000001
  0
LINE
  5
397
330
1F
100
AcDbEntity
  8
LAY-10
  6
CONTINUOUS
 62
     7
100
AcDbLine
 10
2271.101515190069
 20
2330.500000000018
 30
0.0
 11
2228.901515190076
 21
2330.500000000018
 31
0.0
  0
LINE
  5
398
330
1F
100
AcDbEntity
  8
LAY-10
  6
CONTINUOUS
 62
     7
100
AcDbLine
 10
2228.901515190076
 20
2320.500000000016
 30
0.0
 11
2258.901515190076
 21
2320.500000000016
 31
0.0
  0
LINE
  5
399
330
1F
100
AcDbEntity
  8
LAY-10
  6
CONTINUOUS
 62
     7
100
AcDbLine
 10
2235.901515190074
 20
2317.500000000018
 30
0.0
 11
2256.901515190076
 21
2317.500000000018
 31
0.0
  0
LINE
  5
39A
330
1F
100
AcDbEntity
  8
LAY-10
  6
CONTINUOUS
 62
     7
100
AcDbLine
 10
2228.901515190076
 20
2290.500000000018
 30
0.0
 11
2229.901515190075
 21
2290.500000000018
 31
0.0
  0
LINE
  5
39B
330
1F
100
AcDbEntity
  8
LAY-10
  6
CONTINUOUS
 62
     7
100
AcDbLine
 10
2258.901515190076
 20
2320.500000000016
 30
0.0
 11
2258.901515190076
 21
2319.500000000016
 31
0.0
  0
ARC
  5
39C
330
1F
100
AcDbEntity
  8
LAY-10
  6
CONTINUOUS
 62
     7
100
AcDbCircle
 10
2256.901515190076
 20
2319.500000000016
 30
0.0
 40
2.0
100
AcDbArc
 50
270.0000000000002
 51
0.0
  0
ARC
  5
39D
330
1F
100
AcDbEntity
  8
LAY-10
  6
CONTINUOUS
 62
     7
100
AcDbCircle
 10
2229.901515190075
 20
2292.500000000018
 30
0.0
 40
2.0
100
AcDbArc
 50
270.0000000000002
 51
0.0
  0
ARC
  5
39E
330
1F
100
AcDbEntity
  8
LAY-10
  6
CONTINUOUS
 62
     7
100
AcDbCircle
 10
2235.901515190074
 20
2313.500000000016
 30
0.0
 40
4.0
100
AcDbArc
 50
90.00000000000001
 51
180.0
  0
LINE
  5
39F
330
1F
100
AcDbEntity
  8
LAY-10
  6
CONTINUOUS
 62
     7
100
AcDbLine
 10
2203.961515190074
 20
2373.700000000015
 30
0.0
 11
2206.301515190076
 21
2375.980000000018
 31
0.0
  0
LINE
  5
3A0
330
1F
100
AcDbEntity
  8
LAY-10
  6
CONTINUOUS
 62
     7
100
AcDbLine
 10
2206.221144974475
 20
2375.901690559178
 30
0.0
 11
2206.30151519008
 21
2375.821320343577
 31
0.0
  0
LINE
  5
3A1
330
1F
100
AcDbEntity
  8
LAY-10
  6
CONTINUOUS
 62
     7
100
AcDbLine
 10
2205.862999981409
 20
2375.552728771058
 30
0.0
 11
2206.301515190069
 21
2375.114213562392
 31
0.0
  0
LINE
  5
3A2
330
1F
100
AcDbEntity
  8
LAY-10
  6
CONTINUOUS
 62
     7
100
AcDbLine
 10
2205.504854988333
 20
2375.203766982945
 30
0.0
 11
2206.30151519008
 21
2374.4071067812
 31
0.0
  0
LINE
  5
3A3
330
1F
100
AcDbEntity
  8
LAY-10
  6
CONTINUOUS
 62
     7
100
AcDbLine
 10
2205.146709995271
 20
2374.854805194824
 30
0.0
 11
2206.301515190085
 21
2373.700000000008
 31
0.0
  0
LINE
  5
3A4
330
1F
100
AcDbEntity
  8
LAY-10
  6
CONTINUOUS
 62
     7
100
AcDbLine
 10
2204.788565002204
 20
2374.505843406701
 30
0.0
 11
2205.594408408892
 21
2373.700000000015
 31
0.0
  0
LINE
  5
3A5
330
1F
100
AcDbEntity
  8
LAY-10
  6
CONTINUOUS
 62
     7
100
AcDbLine
 10
2204.430420009128
 20
2374.15688161859
 30
0.0
 11
2204.8873016277
 21
2373.700000000023
 31
0.0
  0
LINE
  5
3A6
330
1F
100
AcDbEntity
  8
LAY-10
  6
CONTINUOUS
 62
     7
100
AcDbLine
 10
2204.072275016063
 20
2373.807919830469
 30
0.0
 11
2204.180194846515
 21
2373.700000000015
 31
0.0
  0
LINE
  5
3A7
330
1F
100
AcDbEntity
  8
LAY-10
  6
CONTINUOUS
 62
     7
100
AcDbLine
 10
2237.301515190077
 20
2376.100000000017
 30
0.0
 11
2239.95043997505
 21
2373.062515003039
 31
0.0
  0
LINE
  5
3A8
330
1F
100
AcDbEntity
  8
LAY-10
  6
CONTINUOUS
 62
     7
100
AcDbLine
 10
2237.301515190066
 20
2375.821320343571
 30
0.0
 11
2237.431333735934
 21
2375.951138889436
 31
0.0
  0
LINE
  5
3A9
330
1F
100
AcDbEntity
  8
LAY-10
  6
CONTINUOUS
 62
     7
100
AcDbLine
 10
2237.301515190071
 20
2375.114213562385
 30
0.0
 11
2237.7607283364
 21
2375.573426708714
 31
0.0
  0
LINE
  5
3AA
330
1F
100
AcDbEntity
  8
LAY-10
  6
CONTINUOUS
 62
     7
100
AcDbLine
 10
2237.301515190065
 20
2374.407106781193
 30
0.0
 11
2238.090122936886
 21
2375.195714528016
 31
0.0
  0
LINE
  5
3AB
330
1F
100
AcDbEntity
  8
LAY-10
  6
CONTINUOUS
 62
     7
100
AcDbLine
 10
2237.301515190081
 20
2373.700000000023
 30
0.0
 11
2238.419517537373
 21
2374.818002347316
 31
0.0
  0
LINE
  5
3AC
330
1F
100
AcDbEntity
  8
LAY-10
  6
CONTINUOUS
 62
     7
100
AcDbLine
 10
2238.008621971263
 20
2373.700000000019
 30
0.0
 11
2238.748912137863
 21
2374.440290166618
 31
0.0
  0
LINE
  5
3AD
330
1F
100
AcDbEntity
  8
LAY-10
  6
CONTINUOUS
 62
     7
100
AcDbLine
 10
2238.662761580447
 20
2373.647032828017
 30
0.0
 11
2239.078306738341
 21
2374.062577985907
 31
0.0
  0
LINE
  5
3AE
330
1F
100
AcDbEntity
  8
LAY-10
  6
CONTINUOUS
 62
     7
100
AcDbLine
 10
2239.210381883957
 20
2373.487546350341
 30
0.0
 11
2239.407701338828
 21
2373.684865805208
 31
0.0
  0
LINE
  5
3AF
330
1F
100
AcDbEntity
  8
LAY-10
  6
CONTINUOUS
 62
     7
100
AcDbLine
 10
2239.680677065853
 20
2373.250734751045
 30
0.0
 11
2239.737095939317
 21
2373.30715362451
 31
0.0
  0
LINE
  5
3B0
330
1F
100
AcDbEntity
  8
LAY-10
  6
CONTINUOUS
 62
     7
100
AcDbLine
 10
2237.301515190077
 20
2409.700000000019
 30
0.0
 11
2237.301515190077
 21
2373.700000000015
 31
0.0
  0
LINE
  5
3B1
330
1F
100
AcDbEntity
  8
LAY-10
  6
CONTINUOUS
 62
     7
100
AcDbLine
 10
2206.301515190076
 20
2409.700000000019
 30
0.0
 11
2206.301515190076
 21
2373.700000000015
 31
0.0
  0
LINE
  5
3B2
330
1F
100
AcDbEntity
  8
LAY-10
  6
CONTINUOUS
 62
     7
100
AcDbLine
 10
2206.301515190076
 20
2409.700000000019
 30
0.0
 11
2237.301515190077
 21
2409.700000000019
 31
0.0
  0
LINE
  5
3B3
330
1F
100
AcDbEntity
  8
LAY-10
  6
CONTINUOUS
 62
     7
100
AcDbLine
 10
2241.101515190076
 20
2320.500000000016
 30
0.0
 11
2241.101515190076
 21
2370.700000000019
 31
0.0
  0
LINE
  5
3B4
330
1F
100
AcDbEntity
  8
LAY-10
  6
CONTINUOUS
 62
     7
100
AcDbLine
 10
2237.901515190078
 20
2350.500000000016
 30
0.0
 11
2237.901515190078
 21
2320.500000000016
 31
0.0
  0
LINE
  5
3B5
330
1F
100
AcDbEntity
  8
LAY-10
  6
CONTINUOUS
 62
     7
100
AcDbLine
 10
2228.901515190076
 20
2360.500000000018
 30
0.0
 11
2228.901515190076
 21
2364.500000000018
 31
0.0
  0
LINE
  5
3B6
330
1F
100
AcDbEntity
  8
LAY-10
  6
CONTINUOUS
 62
     7
100
AcDbLine
 10
2237.901515190078
 20
2360.500000000018
 30
0.0
 11
2237.901515190078
 21
2370.500000000018
 31
0.0
  0
LINE
  5
3B7
330
1F
100
AcDbEntity
  8
LAY-10
  6
CONTINUOUS
 62
     7
100
AcDbLine
 10
2200.601515190099
 20
2370.500000000018
 30
0.0
 11
2237.901515190078
 21
2370.500000000018
 31
0.0
  0
LINE
  5
3B8
330
1F
100
AcDbEntity
  8
LAY-10
  6
CONTINUOUS
 62
     7
100
AcDbLine
 10
2200.8015151901
 20
2373.700000000015
 30
0.0
 11
2238.101515190076
 21
2373.700000000015
 31
0.0
  0
ARC
  5
3B9
330
1F
100
AcDbEntity
  8
LAY-10
  6
CONTINUOUS
 62
     7
100
AcDbCircle
 10
2194.601515190076
 20
2407.500000000018
 30
0.0
 40
3.000000000000003
100
AcDbArc
 50
0.0
 51
90.00000000000001
  0
ARC
  5
3BA
330
1F
100
AcDbEntity
  8
LAY-10
  6
CONTINUOUS
 62
     7
100
AcDbCircle
 10
2194.801515190074
 20
2407.700000000015
 30
0.0
 40
6.000000000000006
100
AcDbArc
 50
0.0
 51
90.00000000000001
  0
ARC
  5
3BB
330
1F
100
AcDbEntity
  8
LAY-10
  6
CONTINUOUS
 62
     7
100
AcDbCircle
 10
2200.601515190076
 20
2373.500000000018
 30
0.0
 40
3.000000000000003
100
AcDbArc
 50
180.0
 51
270.0000000000002
  0
LINE
  5
3BC
330
1F
100
AcDbEntity
  8
LAY-10
  6
CONTINUOUS
 62
     7
100
AcDbLine
 10
2194.801515190074
 20
2413.700000000015
 30
0.0
 11
2154.101515190078
 21
2413.700000000015
 31
0.0
  0
LINE
  5
3BD
330
1F
100
AcDbEntity
  8
LAY-10
  6
CONTINUOUS
 62
     7
100
AcDbLine
 10
2154.101515190078
 20
2410.500000000016
 30
0.0
 11
2194.601515190076
 21
2410.500000000016
 31
0.0
  0
LINE
  5
3BE
330
1F
100
AcDbEntity
  8
LAY-10
  6
CONTINUOUS
 62
     7
100
AcDbLine
 10
2238.49999999991
 20
2451.398484809852
 30
0.0
 11
2203.144660940584
 21
2416.043145750526
 31
0.0
  0
LINE
  5
3BF
330
1F
100
AcDbEntity
  8
LAY-10
  6
CONTINUOUS
 62
     7
100
AcDbLine
 10
2238.49999999991
 20
2451.398484809852
 30
0.0
 11
2244.156854249402
 21
2445.741630560358
 31
0.0
  0
LINE
  5
3C0
330
1F
100
AcDbEntity
  8
LAY-10
  6
CONTINUOUS
 62
     7
100
AcDbLine
 10
2244.156854249402
 20
2445.741630560358
 30
0.0
 11
2208.801515190077
 21
2410.386291501032
 31
0.0
  0
ARC
  5
3C1
330
1F
100
AcDbEntity
  8
LAY-10
  6
CONTINUOUS
 62
     7
100
AcDbCircle
 10
2208.801515190074
 20
2410.386291501032
 30
0.0
 40
8.0
100
AcDbArc
 50
134.9999999999862
 51
180.0
  0
LINE
  5
3C2
330
1F
100
AcDbEntity
  8
LAY-10
  6
CONTINUOUS
 62
     7
100
AcDbLine
 10
2200.801515190076
 20
2410.386291501
 30
0.0
 11
2200.801515190076
 21
2373.700000000015
 31
0.0
  0
LINE
  5
3C3
330
1F
100
AcDbEntity
  8
LAY-10
  6
CONTINUOUS
 62
     7
100
AcDbLine
 10
2151.101515190078
 20
2407.500000000018
 30
0.0
 11
2151.101515190078
 21
2422.500000000018
 31
0.0
  0
LINE
  5
3C4
330
1F
100
AcDbEntity
  8
LAY-10
  6
CONTINUOUS
 62
     7
100
AcDbLine
 10
2151.101515190078
 20
2422.500000000018
 30
0.0
 11
2154.101515190078
 21
2422.500000000018
 31
0.0
  0
LINE
  5
3C5
330
1F
100
AcDbEntity
  8
LAY-10
  6
CONTINUOUS
 62
     7
100
AcDbLine
 10
2166.101515190078
 20
2407.500000000018
 30
0.0
 11
2166.101515190078
 21
2410.500000000016
 31
0.0
  0
LINE
  5
3C6
330
1F
100
AcDbEntity
  8
LAY-10
  6
CONTINUOUS
 62
     7
100
AcDbLine
 10
2154.101515190078
 20
2410.500000000016
 30
0.0
 11
2154.101515190078
 21
2422.500000000018
 31
0.0
  0
LINE
  5
3C7
330
1F
100
AcDbEntity
  8
LAY-10
  6
CONTINUOUS
 62
     7
100
AcDbLine
 10
2151.101515190078
 20
2407.500000000018
 30
0.0
 11
2166.101515190078
 21
2407.500000000018
 31
0.0
  0
LINE
  5
3C8
330
1F
100
AcDbEntity
  8
LAY-10
  6
CONTINUOUS
 62
     7
100
AcDbLine
 10
2151.101515190078
 20
1253.500000000016
 30
0.0
 11
2166.101515190078
 21
1253.500000000016
 31
0.0
  0
LINE
  5
3C9
330
1F
100
AcDbEntity
  8
LAY-10
  6
CONTINUOUS
 62
     7
100
AcDbLine
 10
2151.101515190078
 20
1253.500000000016
 30
0.0
 11
2151.101515190078
 21
1238.500000000016
 31
0.0
  0
LINE
  5
3CA
330
1F
100
AcDbEntity
  8
LAY-10
  6
CONTINUOUS
 62
     7
100
AcDbLine
 10
2154.101515190078
 20
1250.500000000017
 30
0.0
 11
2154.101515190078
 21
1238.500000000016
 31
0.0
  0
LINE
  5
3CB
330
1F
100
AcDbEntity
  8
LAY-10
  6
CONTINUOUS
 62
     7
100
AcDbLine
 10
2166.101515190078
 20
1253.500000000016
 30
0.0
 11
2166.101515190078
 21
1250.500000000017
 31
0.0
  0
LINE
  5
3CC
330
1F
100
AcDbEntity
  8
LAY-10
  6
CONTINUOUS
 62
     7
100
AcDbLine
 10
2151.101515190078
 20
1238.500000000016
 30
0.0
 11
2154.101515190078
 21
1238.500000000016
 31
0.0
  0
LINE
  5
3CD
330
1F
100
AcDbEntity
  8
LAY-10
  6
CONTINUOUS
 62
     7
100
AcDbLine
 10
2200.801515190076
 20
1250.613708499001
 30
0.0
 11
2200.801515190074
 21
1253.300000000067
 31
0.0
  0
LINE
  5
3CE
330
1F
100
AcDbEntity
  8
LAY-10
  6
CONTINUOUS
 62
     7
100
AcDbLine
 10
2238.499999999911
 20
1209.601515190181
 30
0.0
 11
2244.156854249402
 21
1215.258369439674
 31
0.0
  0
LINE
  5
3CF
330
1F
100
AcDbEntity
  8
LAY-10
  6
CONTINUOUS
 62
     7
100
AcDbLine
 10
2244.156854249402
 20
1215.258369439674
 30
0.0
 11
2208.801515190077
 21
1250.613708499001
 31
0.0
  0
ARC
  5
3D0
330
1F
100
AcDbEntity
  8
LAY-10
  6
CONTINUOUS
 62
     7
100
AcDbCircle
 10
2208.801515190077
 20
1250.613708499001
 30
0.0
 40
8.0
100
AcDbArc
 50
180.0
 51
224.9999999999919
  0
LINE
  5
3D1
330
1F
100
AcDbEntity
  8
LAY-10
  6
CONTINUOUS
 62
     7
100
AcDbLine
 10
2238.499999999911
 20
1209.601515190181
 30
0.0
 11
2203.144660940584
 21
1244.95685424951
 31
0.0
  0
LINE
  5
3D2
330
1F
100
AcDbEntity
  8
LAY-10
  6
CONTINUOUS
 62
     7
100
AcDbLine
 10
2200.801515190074
 20
1253.300000000067
 30
0.0
 11
2200.801515190076
 21
1287.300000000016
 31
0.0
  0
LINE
  5
3D3
330
1F
100
AcDbEntity
  8
LAY-10
  6
CONTINUOUS
 62
     7
100
AcDbLine
 10
2154.101515190078
 20
1250.500000000017
 30
0.0
 11
2194.601515190076
 21
1250.500000000017
 31
0.0
  0
ARC
  5
3D4
330
1F
100
AcDbEntity
  8
LAY-10
  6
CONTINUOUS
 62
     7
100
AcDbCircle
 10
2200.601515190076
 20
1287.500000000015
 30
0.0
 40
3.000000000000003
100
AcDbArc
 50
90.00000000000001
 51
180.0
  0
ARC
  5
3D5
330
1F
100
AcDbEntity
  8
LAY-10
  6
CONTINUOUS
 62
     7
100
AcDbCircle
 10
2194.801515190074
 20
1253.300000000017
 30
0.0
 40
6.000000000000006
100
AcDbArc
 50
270.0000000000002
 51
0.0
  0
ARC
  5
3D6
330
1F
100
AcDbEntity
  8
LAY-10
  6
CONTINUOUS
 62
     7
100
AcDbCircle
 10
2194.601515190076
 20
1253.500000000016
 30
0.0
 40
3.000000000000003
100
AcDbArc
 50
270.0000000000002
 51
0.0
  0
LINE
  5
3D7
330
1F
100
AcDbEntity
  8
LAY-10
  6
CONTINUOUS
 62
     7
100
AcDbLine
 10
2194.801515190074
 20
1247.300000000016
 30
0.0
 11
2154.101515190078
 21
1247.300000000016
 31
0.0
  0
LINE
  5
3D8
330
1F
100
AcDbEntity
  8
LAY-10
  6
CONTINUOUS
 62
     7
100
AcDbLine
 10
2241.101515190076
 20
1340.500000000017
 30
0.0
 11
2241.101515190076
 21
1290.300000000017
 31
0.0
  0
LINE
  5
3D9
330
1F
100
AcDbEntity
  8
LAY-10
  6
CONTINUOUS
 62
     7
100
AcDbLine
 10
2206.221144974485
 20
1285.098309440869
 30
0.0
 11
2206.301515190064
 21
1285.178679656449
 31
0.0
  0
LINE
  5
3DA
330
1F
100
AcDbEntity
  8
LAY-10
  6
CONTINUOUS
 62
     7
100
AcDbLine
 10
2205.86299998141
 20
1285.447271228979
 30
0.0
 11
2206.301515190074
 21
1285.885786437642
 31
0.0
  0
LINE
  5
3DB
330
1F
100
AcDbEntity
  8
LAY-10
  6
CONTINUOUS
 62
     7
100
AcDbLine
 10
2205.504854988349
 20
1285.796233017102
 30
0.0
 11
2206.301515190057
 21
1286.592893218812
 31
0.0
  0
LINE
  5
3DC
330
1F
100
AcDbEntity
  8
LAY-10
  6
CONTINUOUS
 62
     7
100
AcDbLine
 10
2205.146709995282
 20
1286.145194805225
 30
0.0
 11
2206.301515190074
 21
1287.300000000016
 31
0.0
  0
LINE
  5
3DD
330
1F
100
AcDbEntity
  8
LAY-10
  6
CONTINUOUS
 62
     7
100
AcDbLine
 10
2204.788565002205
 20
1286.494156593337
 30
0.0
 11
2205.594408408881
 21
1287.300000000011
 31
0.0
  0
LINE
  5
3DE
330
1F
100
AcDbEntity
  8
LAY-10
  6
CONTINUOUS
 62
     7
100
AcDbLine
 10
2204.430420009142
 20
1286.843118381457
 30
0.0
 11
2204.8873016277
 21
1287.300000000016
 31
0.0
  0
LINE
  5
3DF
330
1F
100
AcDbEntity
  8
LAY-10
  6
CONTINUOUS
 62
     7
100
AcDbLine
 10
2204.072275016078
 20
1287.19208016958
 30
0.0
 11
2204.180194846515
 21
1287.30000000002
 31
0.0
  0
LINE
  5
3E0
330
1F
100
AcDbEntity
  8
LAY-10
  6
CONTINUOUS
 62
     7
100
AcDbLine
 10
2203.961515190074
 20
1287.300000000016
 30
0.0
 11
2206.301515190076
 21
1285.020000000017
 31
0.0
  0
LINE
  5
3E1
330
1F
100
AcDbEntity
  8
LAY-10
  6
CONTINUOUS
 62
     7
100
AcDbLine
 10
2237.301515190077
 20
1285.178679656457
 30
0.0
 11
2237.431333735924
 21
1285.048861110613
 31
0.0
  0
LINE
  5
3E2
330
1F
100
AcDbEntity
  8
LAY-10
  6
CONTINUOUS
 62
     7
100
AcDbLine
 10
2237.301515190094
 20
1285.885786437628
 30
0.0
 11
2237.760728336411
 21
1285.426573291313
 31
0.0
  0
LINE
  5
3E3
330
1F
100
AcDbEntity
  8
LAY-10
  6
CONTINUOUS
 62
     7
100
AcDbLine
 10
2237.301515190086
 20
1286.592893218822
 30
0.0
 11
2238.090122936901
 21
1285.804285472011
 31
0.0
  0
LINE
  5
3E4
330
1F
100
AcDbEntity
  8
LAY-10
  6
CONTINUOUS
 62
     7
100
AcDbLine
 10
2237.301515190081
 20
1287.300000000014
 30
0.0
 11
2238.419517537384
 21
1286.181997652709
 31
0.0
  0
LINE
  5
3E5
330
1F
100
AcDbEntity
  8
LAY-10
  6
CONTINUOUS
 62
     7
100
AcDbLine
 10
2238.008621971273
 20
1287.300000000007
 30
0.0
 11
2238.748912137862
 21
1286.55970983342
 31
0.0
  0
LINE
  5
3E6
330
1F
100
AcDbEntity
  8
LAY-10
  6
CONTINUOUS
 62
     7
100
AcDbLine
 10
2238.662761580447
 20
1287.35296717202
 30
0.0
 11
2239.07830673835
 21
1286.937422014118
 31
0.0
  0
LINE
  5
3E7
330
1F
100
AcDbEntity
  8
LAY-10
  6
CONTINUOUS
 62
     7
100
AcDbLine
 10
2239.210381883957
 20
1287.512453649695
 30
0.0
 11
2239.407701338838
 21
1287.315134194816
 31
0.0
  0
LINE
  5
3E8
330
1F
100
AcDbEntity
  8
LAY-10
  6
CONTINUOUS
 62
     7
100
AcDbLine
 10
2239.680677065853
 20
1287.74926524899
 30
0.0
 11
2239.737095939325
 21
1287.692846375514
 31
0.0
  0
LINE
  5
3E9
330
1F
100
AcDbEntity
  8
LAY-10
  6
CONTINUOUS
 62
     7
100
AcDbLine
 10
2237.301515190077
 20
1284.900000000016
 30
0.0
 11
2239.95043997505
 21
1287.937484996994
 31
0.0
  0
LINE
  5
3EA
330
1F
100
AcDbEntity
  8
LAY-10
  6
CONTINUOUS
 62
     7
100
AcDbLine
 10
2206.301515190076
 20
1251.300000000017
 30
0.0
 11
2237.301515190077
 21
1251.300000000017
 31
0.0
  0
LINE
  5
3EB
330
1F
100
AcDbEntity
  8
LAY-10
  6
CONTINUOUS
 62
     7
100
AcDbLine
 10
2237.301515190077
 20
1251.300000000017
 30
0.0
 11
2237.301515190077
 21
1287.300000000017
 31
0.0
  0
LINE
  5
3EC
330
1F
100
AcDbEntity
  8
LAY-10
  6
CONTINUOUS
 62
     7
100
AcDbLine
 10
2206.301515190076
 20
1251.300000000017
 30
0.0
 11
2206.301515190076
 21
1287.300000000016
 31
0.0
  0
ARC
  5
3ED
330
1F
100
AcDbEntity
  8
LAY-10
  6
CONTINUOUS
 62
     7
100
AcDbCircle
 10
2235.901515190074
 20
1347.500000000018
 30
0.0
 40
4.0
100
AcDbArc
 50
180.0
 51
270.0000000000002
  0
ARC
  5
3EE
330
1F
100
AcDbEntity
  8
LAY-10
  6
CONTINUOUS
 62
     7
100
AcDbCircle
 10
2256.901515190076
 20
1341.500000000016
 30
0.0
 40
2.0
100
AcDbArc
 50
0.0
 51
90.00000000000001
  0
LINE
  5
3EF
330
1F
100
AcDbEntity
  8
LAY-10
  6
CONTINUOUS
 62
     7
100
AcDbLine
 10
2258.901515190076
 20
1340.500000000017
 30
0.0
 11
2258.901515190076
 21
1341.500000000016
 31
0.0
  0
LINE
  5
3F0
330
1F
100
AcDbEntity
  8
LAY-10
  6
CONTINUOUS
 62
     7
100
AcDbLine
 10
2235.901515190074
 20
1343.500000000018
 30
0.0
 11
2256.901515190076
 21
1343.500000000018
 31
0.0
  0
LINE
  5
3F1
330
1F
100
AcDbEntity
  8
LAY-10
  6
CONTINUOUS
 62
     7
100
AcDbLine
 10
2228.901515190076
 20
1340.500000000017
 30
0.0
 11
2258.901515190076
 21
1340.500000000017
 31
0.0
  0
LINE
  5
3F2
330
1F
100
AcDbEntity
  8
LAY-10
  6
CONTINUOUS
 62
     7
100
AcDbLine
 10
2271.101515190068
 20
1330.500000000017
 30
0.0
 11
2228.901515190076
 21
1330.500000000017
 31
0.0
  0
ARC
  5
3F3
330
1F
100
AcDbEntity
  8
LAY-10
  6
CONTINUOUS
 62
     7
100
AcDbCircle
 10
2269.101515190068
 20
1329.500000000109
 30
0.0
 40
2.0
100
AcDbArc
 50
270.0000000000002
 51
0.0
  0
LINE
  5
3F4
330
1F
100
AcDbEntity
  8
LAY-10
  6
CONTINUOUS
 62
     7
100
AcDbLine
 10
2271.101515190068
 20
1330.500000000108
 30
0.0
 11
2271.101515190068
 21
1329.500000000109
 31
0.0
  0
LINE
  5
3F5
330
1F
100
AcDbEntity
  8
LAY-10
  6
CONTINUOUS
 62
     7
100
AcDbLine
 10
2248.10151519007
 20
1327.500000000108
 30
0.0
 11
2269.101515190068
 21
1327.500000000108
 31
0.0
  0
LINE
  5
3F6
330
1F
100
AcDbEntity
  8
LAY-10
  6
CONTINUOUS
 62
     7
100
AcDbLine
 10
2237.901515190078
 20
1300.500000000017
 30
0.0
 11
2237.901515190078
 21
1290.500000000017
 31
0.0
  0
LINE
  5
3F7
330
1F
100
AcDbEntity
  8
LAY-10
  6
CONTINUOUS
 62
     7
100
AcDbLine
 10
2237.901515190078
 20
1310.500000000017
 30
0.0
 11
2237.901515190078
 21
1340.500000000017
 31
0.0
  0
LINE
  5
3F8
330
1F
100
AcDbEntity
  8
LAY-10
  6
CONTINUOUS
 62
     7
100
AcDbLine
 10
2200.601515190076
 20
1290.500000000017
 30
0.0
 11
2237.901515190078
 21
1290.500000000017
 31
0.0
  0
LINE
  5
3F9
330
1F
100
AcDbEntity
  8
LAY-10
  6
CONTINUOUS
 62
     7
100
AcDbLine
 10
2200.801515190076
 20
1287.300000000017
 30
0.0
 11
2238.101515190076
 21
1287.300000000017
 31
0.0
  0
ARC
  5
3FA
330
1F
100
AcDbEntity
  8
LAY-10
  6
CONTINUOUS
 62
     7
100
AcDbCircle
 10
2248.10151519007
 20
1323.500000000109
 30
0.0
 40
4.0
100
AcDbArc
 50
90.00000000000001
 51
180.0
  0
LINE
  5
3FB
330
1F
100
AcDbEntity
  8
LAY-10
  6
CONTINUOUS
 62
     7
100
AcDbLine
 10
2244.10151519007
 20
1323.500000000109
 30
0.0
 11
2244.10151519007
 21
1315.50000000006
 31
0.0
  0
LINE
  5
3FC
330
1F
100
AcDbEntity
  8
LAY-10
  6
CONTINUOUS
 62
     7
100
AcDbLine
 10
2237.901515190078
 20
1327.500000000018
 30
0.0
 11
2228.901515190076
 21
1327.500000000018
 31
0.0
  0
ARC
  5
3FD
330
1F
100
AcDbEntity
  8
LAY-10
  6
CONTINUOUS
 62
     7
100
AcDbCircle
 10
2238.101515190076
 20
1290.300000000017
 30
0.0
 40
3.000000000000003
100
AcDbArc
 50
270.0000000000002
 51
0.0
  0
LINE
  5
3FE
330
1F
100
AcDbEntity
  8
LAY-10
  6
CONTINUOUS
 62
     7
100
AcDbLine
 10
2237.901515190078
 20
1293.500000000019
 30
0.0
 11
2228.701515190075
 21
1293.500000000019
 31
0.0
  0
ARC
  5
3FF
330
1F
100
AcDbEntity
  8
LAY-10
  6
CONTINUOUS
 62
     7
100
AcDbCircle
 10
2228.701515190075
 20
1296.500000000017
 30
0.0
 40
3.000000000000003
100
AcDbArc
 50
180.0
 51
270.0000000000002
  0
LINE
  5
400
330
1F
100
AcDbEntity
  8
LAY-10
  6
CONTINUOUS
 62
     7
100
AcDbLine
 10
2237.901515190078
 20
1296.500000000017
 30
0.0
 11
2228.901515190076
 21
1296.500000000017
 31
0.0
  0
LINE
  5
401
330
1F
100
AcDbEntity
  8
LAY-10
  6
CONTINUOUS
 62
     7
100
AcDbLine
 10
2228.901515190076
 20
1299.500000000016
 30
0.0
 11
2225.701515190076
 21
1299.500000000016
 31
0.0
  0
LINE
  5
402
330
1F
100
AcDbEntity
  8
LAY-10
  6
CONTINUOUS
 62
     7
100
AcDbLine
 10
2228.901515190076
 20
1311.500000000017
 30
0.0
 11
2225.701515190076
 21
1311.500000000017
 31
0.0
  0
LINE
  5
403
330
1F
100
AcDbEntity
  8
LAY-10
  6
CONTINUOUS
 62
     7
100
AcDbLine
 10
2237.901515190078
 20
1299.500000000016
 30
0.0
 11
2241.101515190076
 21
1299.500000000016
 31
0.0
  0
LINE
  5
404
330
1F
100
AcDbEntity
  8
LAY-10
  6
CONTINUOUS
 62
     7
100
AcDbLine
 10
2237.901515190078
 20
1311.500000000017
 30
0.0
 11
2241.101515190076
 21
1311.500000000017
 31
0.0
  0
LINE
  5
405
330
1F
100
AcDbEntity
  8
LAY-10
  6
CONTINUOUS
 62
     7
100
AcDbLine
 10
2228.901515190076
 20
1300.500000000017
 30
0.0
 11
2228.901515190076
 21
1296.500000000017
 31
0.0
  0
ARC
  5
406
330
1F
100
AcDbEntity
  8
LAY-10
  6
CONTINUOUS
 62
     7
100
AcDbCircle
 10
2157.601515190098
 20
1255.499999999976
 30
0.0
 40
2.0
100
AcDbArc
 50
90.00000000000009
 51
180.0000000000002
  0
ARC
  5
407
330
1F
100
AcDbEntity
  8
LAY-10
  6
CONTINUOUS
 62
     7
100
AcDbCircle
 10
2162.157175818121
 20
1289.065456521741
 30
0.0
 40
11.44452137582097
100
AcDbArc
 50
0.3231317747390464
 51
34.21070402948217
  0
ARC
  5
408
330
1F
100
AcDbEntity
  8
LAY-10
  6
CONTINUOUS
 62
     7
100
AcDbCircle
 10
2126.167811928358
 20
1293.864172633255
 30
0.0
 40
47.66936747686547
100
AcDbArc
 50
342.4625442095373
 51
354.3004070848737
  0
ARC
  5
409
330
1F
100
AcDbEntity
  8
LAY-10
  6
CONTINUOUS
 62
     7
100
AcDbCircle
 10
2162.157175818121
 20
1269.934543478342
 30
0.0
 40
11.44452137582097
100
AcDbArc
 50
325.7892959705179
 51
359.6768682252611
  0
ARC
  5
40A
330
1F
100
AcDbEntity
  8
LAY-10
  6
CONTINUOUS
 62
     7
100
AcDbCircle
 10
2126.167811928358
 20
1265.135827366827
 30
0.0
 40
47.66936747686547
100
AcDbArc
 50
5.69959291512632
 51
17.53745579046277
  0
LINE
  5
40B
330
1F
100
AcDbEntity
  8
LAY-10
  6
CONTINUOUS
 62
     7
100
AcDbLine
 10
2155.601515190099
 20
1279.500000000041
 30
0.0
 11
2171.6215151901
 21
1279.500000000041
 31
0.0
  0
LINE
  5
40C
330
1F
100
AcDbEntity
  8
LAY-10
  6
CONTINUOUS
 62
     7
100
AcDbLine
 10
2155.601515190099
 20
1263.500000000024
 30
0.0
 11
2171.6215151901
 21
1263.500000000024
 31
0.0
  0
ARC
  5
40D
330
1F
100
AcDbEntity
  8
LAY-10
  6
CONTINUOUS
 62
     7
100
AcDbCircle
 10
2171.396241966057
 20
1292.819262295082
 30
0.0
 40
2.690186363068871
100
AcDbArc
 50
34.94048644238069
 51
85.19648987662049
  0
ARC
  5
40E
330
1F
100
AcDbEntity
  8
LAY-10
  6
CONTINUOUS
 62
     7
100
AcDbCircle
 10
2171.396241966057
 20
1266.180737705001
 30
0.0
 40
2.690186363068871
100
AcDbArc
 50
274.8035101233804
 51
325.0595135576195
  0
LINE
  5
40F
330
1F
100
AcDbEntity
  8
LAY-10
  6
CONTINUOUS
 62
     7
100
AcDbLine
 10
2197.601515190096
 20
1254.499999999975
 30
0.0
 11
2151.101515190096
 21
1254.499999999975
 31
0.0
  0
LINE
  5
410
330
1F
100
AcDbEntity
  8
LAY-10
  6
CONTINUOUS
 62
     7
100
AcDbLine
 10
2188.101515190098
 20
1257.499999999975
 30
0.0
 11
2157.601515190099
 21
1257.499999999975
 31
0.0
  0
LINE
  5
411
330
1F
100
AcDbEntity
  8
LAY-10
  6
CONTINUOUS
 62
     7
100
AcDbLine
 10
2197.601515190098
 20
1255.18112643502
 30
0.0
 11
2195.601515190096
 21
1256.986423093224
 31
0.0
  0
LINE
  5
412
330
1F
100
AcDbEntity
  8
LAY-10
  6
CONTINUOUS
 62
     7
100
AcDbLine
 10
2197.601515190096
 20
1255.888233216209
 30
0.0
 11
2195.601515190096
 21
1257.693529874412
 31
0.0
  0
LINE
  5
413
330
1F
100
AcDbEntity
  8
LAY-10
  6
CONTINUOUS
 62
     7
100
AcDbLine
 10
2197.601515190098
 20
1256.595339997395
 30
0.0
 11
2195.601515190096
 21
1258.4006366556
 31
0.0
  0
LINE
  5
414
330
1F
100
AcDbEntity
  8
LAY-10
  6
CONTINUOUS
 62
     7
100
AcDbLine
 10
2197.601515190096
 20
1257.302446778583
 30
0.0
 11
2195.601515190096
 21
1259.107743436786
 31
0.0
  0
LINE
  5
415
330
1F
100
AcDbEntity
  8
LAY-10
  6
CONTINUOUS
 62
     7
100
AcDbLine
 10
2197.601515190098
 20
1258.009553559766
 30
0.0
 11
2195.601515190096
 21
1259.814850217971
 31
0.0
  0
LINE
  5
416
330
1F
100
AcDbEntity
  8
LAY-10
  6
CONTINUOUS
 62
     7
100
AcDbLine
 10
2197.601515190096
 20
1258.716660340955
 30
0.0
 11
2195.601515190096
 21
1260.521956999157
 31
0.0
  0
LINE
  5
417
330
1F
100
AcDbEntity
  8
LAY-10
  6
CONTINUOUS
 62
     7
100
AcDbLine
 10
2197.601515190098
 20
1259.423767122141
 30
0.0
 11
2195.601515190096
 21
1261.229063780345
 31
0.0
  0
LINE
  5
418
330
1F
100
AcDbEntity
  8
LAY-10
  6
CONTINUOUS
 62
     7
100
AcDbLine
 10
2197.601515190096
 20
1260.130873903329
 30
0.0
 11
2195.601515190096
 21
1261.93617056153
 31
0.0
  0
LINE
  5
419
330
1F
100
AcDbEntity
  8
LAY-10
  6
CONTINUOUS
 62
     7
100
AcDbLine
 10
2197.601515190098
 20
1260.837980684512
 30
0.0
 11
2195.601515190096
 21
1262.64327734272
 31
0.0
  0
LINE
  5
41A
330
1F
100
AcDbEntity
  8
LAY-10
  6
CONTINUOUS
 62
     7
100
AcDbLine
 10
2197.601515190096
 20
1261.5450874657
 30
0.0
 11
2195.599565081219
 21
1263.347037574576
 31
0.0
  0
LINE
  5
41B
330
1F
100
AcDbEntity
  8
LAY-10
  6
CONTINUOUS
 62
     7
100
AcDbLine
 10
2197.601515190098
 20
1262.252194246887
 30
0.0
 11
2195.601515190096
 21
1264.053740985205
 31
0.0
  0
LINE
  5
41C
330
1F
100
AcDbEntity
  8
LAY-10
  6
CONTINUOUS
 62
     7
100
AcDbLine
 10
2197.601515190096
 20
1262.959301028074
 30
0.0
 11
2195.601515190097
 21
1264.759301028073
 31
0.0
  0
LINE
  5
41D
330
1F
100
AcDbEntity
  8
LAY-10
  6
CONTINUOUS
 62
     7
100
AcDbLine
 10
2197.601515190098
 20
1263.666407809258
 30
0.0
 11
2195.601515190094
 21
1265.466407809261
 31
0.0
  0
LINE
  5
41E
330
1F
100
AcDbEntity
  8
LAY-10
  6
CONTINUOUS
 62
     7
100
AcDbLine
 10
2197.601515190096
 20
1264.373514590446
 30
0.0
 11
2195.601515190097
 21
1266.173514590444
 31
0.0
  0
LINE
  5
41F
330
1F
100
AcDbEntity
  8
LAY-10
  6
CONTINUOUS
 62
     7
100
AcDbLine
 10
2197.601515190098
 20
1265.080621371633
 30
0.0
 11
2195.601515190094
 21
1266.880621371633
 31
0.0
  0
LINE
  5
420
330
1F
100
AcDbEntity
  8
LAY-10
  6
CONTINUOUS
 62
     7
100
AcDbLine
 10
2197.601515190096
 20
1265.78772815282
 30
0.0
 11
2195.601515190097
 21
1267.587728152819
 31
0.0
  0
LINE
  5
421
330
1F
100
AcDbEntity
  8
LAY-10
  6
CONTINUOUS
 62
     7
100
AcDbLine
 10
2197.601515190098
 20
1266.494834934004
 30
0.0
 11
2195.601515190094
 21
1268.294834934006
 31
0.0
  0
LINE
  5
422
330
1F
100
AcDbEntity
  8
LAY-10
  6
CONTINUOUS
 62
     7
100
AcDbLine
 10
2197.601515190096
 20
1267.201941715192
 30
0.0
 11
2195.601515190097
 21
1269.001941715191
 31
0.0
  0
LINE
  5
423
330
1F
100
AcDbEntity
  8
LAY-10
  6
CONTINUOUS
 62
     7
100
AcDbLine
 10
2197.601515190098
 20
1267.909048496378
 30
0.0
 11
2195.601515190094
 21
1269.709048496381
 31
0.0
  0
LINE
  5
424
330
1F
100
AcDbEntity
  8
LAY-10
  6
CONTINUOUS
 62
     7
100
AcDbLine
 10
2197.601515190096
 20
1268.616155277566
 30
0.0
 11
2195.601515190097
 21
1270.416155277564
 31
0.0
  0
LINE
  5
425
330
1F
100
AcDbEntity
  8
LAY-10
  6
CONTINUOUS
 62
     7
100
AcDbLine
 10
2197.601515190098
 20
1269.32326205875
 30
0.0
 11
2195.601515190094
 21
1271.123262058753
 31
0.0
  0
LINE
  5
426
330
1F
100
AcDbEntity
  8
LAY-10
  6
CONTINUOUS
 62
     7
100
AcDbLine
 10
2197.601515190096
 20
1270.030368839938
 30
0.0
 11
2195.601515190097
 21
1271.830368839936
 31
0.0
  0
LINE
  5
427
330
1F
100
AcDbEntity
  8
LAY-10
  6
CONTINUOUS
 62
     7
100
AcDbLine
 10
2197.601515190098
 20
1270.737475621124
 30
0.0
 11
2195.601515190094
 21
1272.537475621127
 31
0.0
  0
LINE
  5
428
330
1F
100
AcDbEntity
  8
LAY-10
  6
CONTINUOUS
 62
     7
100
AcDbLine
 10
2197.601515190096
 20
1271.444582402312
 30
0.0
 11
2195.601515190098
 21
1273.24458240231
 31
0.0
  0
LINE
  5
429
330
1F
100
AcDbEntity
  8
LAY-10
  6
CONTINUOUS
 62
     7
100
AcDbLine
 10
2197.601515190098
 20
1272.151689183496
 30
0.0
 11
2195.601515190094
 21
1273.951689183498
 31
0.0
  0
LINE
  5
42A
330
1F
100
AcDbEntity
  8
LAY-10
  6
CONTINUOUS
 62
     7
100
AcDbLine
 10
2197.601515190096
 20
1272.858795964687
 30
0.0
 11
2195.601515190098
 21
1274.658795964682
 31
0.0
  0
LINE
  5
42B
330
1F
100
AcDbEntity
  8
LAY-10
  6
CONTINUOUS
 62
     7
100
AcDbLine
 10
2197.601515190098
 20
1273.56590274587
 30
0.0
 11
2195.601515190094
 21
1275.365902745873
 31
0.0
  0
LINE
  5
42C
330
1F
100
AcDbEntity
  8
LAY-10
  6
CONTINUOUS
 62
     7
100
AcDbLine
 10
2197.601515190096
 20
1274.273009527058
 30
0.0
 11
2195.601515190098
 21
1276.073009527056
 31
0.0
  0
LINE
  5
42D
330
1F
100
AcDbEntity
  8
LAY-10
  6
CONTINUOUS
 62
     7
100
AcDbLine
 10
2197.601515190098
 20
1274.980116308242
 30
0.0
 11
2195.601515190094
 21
1276.780116308244
 31
0.0
  0
LINE
  5
42E
330
1F
100
AcDbEntity
  8
LAY-10
  6
CONTINUOUS
 62
     7
100
AcDbLine
 10
2197.601515190096
 20
1275.687223089433
 30
0.0
 11
2195.601515190098
 21
1277.487223089428
 31
0.0
  0
LINE
  5
42F
330
1F
100
AcDbEntity
  8
LAY-10
  6
CONTINUOUS
 62
     7
100
AcDbLine
 10
2197.601515190098
 20
1276.394329870615
 30
0.0
 11
2195.601515190096
 21
1278.194329870619
 31
0.0
  0
LINE
  5
430
330
1F
100
AcDbEntity
  8
LAY-10
  6
CONTINUOUS
 62
     7
100
AcDbLine
 10
2197.601515190096
 20
1277.101436651804
 30
0.0
 11
2195.601515190098
 21
1278.901436651801
 31
0.0
  0
LINE
  5
431
330
1F
100
AcDbEntity
  8
LAY-10
  6
CONTINUOUS
 62
     7
100
AcDbLine
 10
2197.601515190098
 20
1277.808543432988
 30
0.0
 11
2195.601515190096
 21
1279.608543432991
 31
0.0
  0
LINE
  5
432
330
1F
100
AcDbEntity
  8
LAY-10
  6
CONTINUOUS
 62
     7
100
AcDbLine
 10
2197.601515190096
 20
1278.515650214178
 30
0.0
 11
2195.601515190098
 21
1280.315650214175
 31
0.0
  0
LINE
  5
433
330
1F
100
AcDbEntity
  8
LAY-10
  6
CONTINUOUS
 62
     7
100
AcDbLine
 10
2197.601515190098
 20
1279.222756995361
 30
0.0
 11
2195.601515190096
 21
1281.022756995364
 31
0.0
  0
LINE
  5
434
330
1F
100
AcDbEntity
  8
LAY-10
  6
CONTINUOUS
 62
     7
100
AcDbLine
 10
2197.601515190096
 20
1279.92986377655
 30
0.0
 11
2195.601515190098
 21
1281.729863776547
 31
0.0
  0
LINE
  5
435
330
1F
100
AcDbEntity
  8
LAY-10
  6
CONTINUOUS
 62
     7
100
AcDbLine
 10
2197.601515190098
 20
1280.636970557734
 30
0.0
 11
2195.601515190096
 21
1282.436970557736
 31
0.0
  0
LINE
  5
436
330
1F
100
AcDbEntity
  8
LAY-10
  6
CONTINUOUS
 62
     7
100
AcDbLine
 10
2197.601515190096
 20
1281.344077338924
 30
0.0
 11
2195.601515190098
 21
1283.144077338919
 31
0.0
  0
LINE
  5
437
330
1F
100
AcDbEntity
  8
LAY-10
  6
CONTINUOUS
 62
     7
100
AcDbLine
 10
2197.601515190098
 20
1282.051184120107
 30
0.0
 11
2195.601515190096
 21
1283.85118412011
 31
0.0
  0
LINE
  5
438
330
1F
100
AcDbEntity
  8
LAY-10
  6
CONTINUOUS
 62
     7
100
AcDbLine
 10
2196.78936376446
 20
1254.499999999975
 30
0.0
 11
2195.601515190096
 21
1255.572209530851
 31
0.0
  0
LINE
  5
439
330
1F
100
AcDbEntity
  8
LAY-10
  6
CONTINUOUS
 62
     7
100
AcDbLine
 10
2196.01989992535
 20
1254.499999999975
 30
0.0
 11
2195.601515190096
 21
1254.866547141368
 31
0.0
  0
LINE
  5
43A
330
1F
100
AcDbEntity
  8
LAY-10
  6
CONTINUOUS
 62
     7
100
AcDbLine
 10
2197.601515190098
 20
1283.46539768248
 30
0.0
 11
2196.451957059574
 21
1284.499999999952
 31
0.0
  0
LINE
  5
43B
330
1F
100
AcDbEntity
  8
LAY-10
  6
CONTINUOUS
 62
     7
100
AcDbLine
 10
2197.601515190096
 20
1284.17250446367
 30
0.0
 11
2197.237631260892
 21
1284.499999999952
 31
0.0
  0
LINE
  5
43C
330
1F
100
AcDbEntity
  8
LAY-10
  6
CONTINUOUS
 62
     7
100
AcDbLine
 10
2197.601515190096
 20
1282.758290901296
 30
0.0
 11
2195.666282858254
 21
1284.499999999952
 31
0.0
  0
ARC
  5
43D
330
1F
100
AcDbEntity
  8
LAY-10
  6
CONTINUOUS
 62
     7
100
AcDbCircle
 10
2188.101515190098
 20
1261.999999999975
 30
0.0
 40
4.5
100
AcDbArc
 50
270.0000000000002
 51
0.0000000000001719
  0
LINE
  5
43E
330
1F
100
AcDbEntity
  8
LAY-10
  6
CONTINUOUS
 62
     7
100
AcDbLine
 10
2195.601515190098
 20
1294.499999999976
 30
0.0
 11
2194.601515190098
 21
1294.499999999976
 31
0.0
  0
ARC
  5
43F
330
1F
100
AcDbEntity
  8
LAY-10
  6
CONTINUOUS
 62
     7
100
AcDbCircle
 10
2194.601515190098
 20
1292.499999999975
 30
0.0
 40
2.0
100
AcDbArc
 50
90.00000000000009
 51
180.0000000000002
  0
LINE
  5
440
330
1F
100
AcDbEntity
  8
LAY-10
  6
CONTINUOUS
 62
     7
100
AcDbLine
 10
2195.601515190096
 20
1284.499999999952
 30
0.0
 11
2197.601515190096
 21
1284.499999999952
 31
0.0
  0
LINE
  5
441
330
1F
100
AcDbEntity
  8
LAY-10
  6
CONTINUOUS
 62
     7
100
AcDbLine
 10
2197.572732833444
 20
1254.499999999975
 30
0.0
 11
2195.601515190096
 21
1256.279316312039
 31
0.0
  0
LINE
  5
442
330
1F
100
AcDbEntity
  8
LAY-10
  6
CONTINUOUS
 62
     7
100
AcDbLine
 10
2195.601515190096
 20
1254.499999999975
 30
0.0
 11
2195.601515190096
 21
2406.499999999981
 31
0.0
  0
LINE
  5
443
330
1F
100
AcDbEntity
  8
LAY-10
  6
CONTINUOUS
 62
     7
100
AcDbLine
 10
2192.601515190098
 20
2399.000000000001
 30
0.0
 11
2192.601515190098
 21
1262.000000000001
 31
0.0
  0
LINE
  5
444
330
1F
100
AcDbEntity
  8
LAY-10
  6
CONTINUOUS
 62
     7
100
AcDbLine
 10
2155.601515190096
 20
1254.499999999975
 30
0.0
 11
2155.601515190096
 21
2406.49999999998
 31
0.0
  0
LINE
  5
445
330
1F
100
AcDbEntity
  8
LAY-10
  6
CONTINUOUS
 62
     7
100
AcDbLine
 10
2151.101515190096
 20
1254.499999999975
 30
0.0
 11
2151.101515190096
 21
2406.49999999998
 31
0.0
  0
LINE
  5
446
330
1F
100
AcDbEntity
  8
LAY-10
  6
CONTINUOUS
 62
     7
100
AcDbLine
 10
2258.901515190076
 20
1341.500000000016
 30
0.0
 11
2258.901515190076
 21
2319.500000000016
 31
0.0
  0
LINE
  5
447
330
1F
100
AcDbEntity
  8
LAY-10
  6
CONTINUOUS
 62
     7
100
AcDbLine
 10
2231.901515190073
 20
1347.500000000018
 30
0.0
 11
2231.901515190073
 21
2313.500000000016
 31
0.0
  0
LINE
  5
448
330
1F
100
AcDbEntity
  8
LAY-10
  6
CONTINUOUS
 62
     7
100
AcDbLine
 10
2225.701515190076
 20
2366.000000000001
 30
0.0
 11
2225.701515190076
 21
1296.500000000017
 31
0.0
  0
LINE
  5
449
330
1F
100
AcDbEntity
  8
LAY-10
  6
CONTINUOUS
 62
     7
100
AcDbLine
 10
2228.901515190076
 20
2350.500000000016
 30
0.0
 11
2228.901515190076
 21
1310.500000000017
 31
0.0
  0
LINE
  5
44A
330
1F
100
AcDbEntity
  8
LAY-10
  6
CONTINUOUS
 62
     7
100
AcDbLine
 10
2197.601515190076
 20
2407.500000000019
 30
0.0
 11
2197.601515190076
 21
1253.500000000016
 31
0.0
  0
ARC
  5
44B
330
1F
100
AcDbEntity
  8
LAY-10
  6
CONTINUOUS
 62
     7
100
AcDbCircle
 10
2222.701515190078
 20
2052.000000000037
 30
0.0
 40
3.000000000000003
100
AcDbArc
 50
0.0
 51
180.0
  0
ARC
  5
44C
330
1F
100
AcDbEntity
  8
LAY-10
  6
CONTINUOUS
 62
     7
100
AcDbCircle
 10
2222.701515190078
 20
2146.000000000037
 30
0.0
 40
3.000000000000003
100
AcDbArc
 50
180.0
 51
0.0
  0
LINE
  5
44D
330
1F
100
AcDbEntity
  8
LAY-10
  6
CONTINUOUS
 62
     7
100
AcDbLine
 10
2219.701515190075
 20
2014.000000000039
 30
0.0
 11
2225.701515190076
 21
2014.000000000039
 31
0.0
  0
LINE
  5
44E
330
1F
100
AcDbEntity
  8
LAY-10
  6
CONTINUOUS
 62
     7
100
AcDbLine
 10
2219.701515190075
 20
2184.300000000037
 30
0.0
 11
2225.701515190076
 21
2184.300000000037
 31
0.0
  0
LINE
  5
44F
330
1F
100
AcDbEntity
  8
LAY-10
  6
CONTINUOUS
 62
     7
100
AcDbLine
 10
2217.701515190073
 20
2044.000000000039
 30
0.0
 11
2225.701515190076
 21
2044.000000000039
 31
0.0
  0
LINE
  5
450
330
1F
100
AcDbEntity
  8
LAY-10
  6
CONTINUOUS
 62
     7
100
AcDbLine
 10
2217.701515190073
 20
2024.000000000039
 30
0.0
 11
2217.701515190073
 21
2044.000000000039
 31
0.0
  0
LINE
  5
451
330
1F
100
AcDbEntity
  8
LAY-10
  6
CONTINUOUS
 62
     7
100
AcDbLine
 10
2217.701515190073
 20
2154.000000000039
 30
0.0
 11
2217.701515190073
 21
2174.000000000039
 31
0.0
  0
LINE
  5
452
330
1F
100
AcDbEntity
  8
LAY-10
  6
CONTINUOUS
 62
     7
100
AcDbLine
 10
2219.701515190075
 20
2014.000000000039
 30
0.0
 11
2219.701515190075
 21
2024.000000000039
 31
0.0
  0
LINE
  5
453
330
1F
100
AcDbEntity
  8
LAY-10
  6
CONTINUOUS
 62
     7
100
AcDbLine
 10
2219.701515190075
 20
2044.000000000039
 30
0.0
 11
2219.701515190075
 21
2154.000000000039
 31
0.0
  0
LINE
  5
454
330
1F
100
AcDbEntity
  8
LAY-10
  6
CONTINUOUS
 62
     7
100
AcDbLine
 10
2219.701515190075
 20
2174.000000000039
 30
0.0
 11
2219.701515190075
 21
2184.300000000037
 31
0.0
  0
LINE
  5
455
330
1F
100
AcDbEntity
  8
LAY-10
  6
CONTINUOUS
 62
     7
100
AcDbLine
 10
2217.701515190073
 20
2154.000000000039
 30
0.0
 11
2225.701515190076
 21
2154.000000000039
 31
0.0
  0
LINE
  5
456
330
1F
100
AcDbEntity
  8
LAY-10
  6
CONTINUOUS
 62
     7
100
AcDbLine
 10
2217.701515190073
 20
2174.000000000039
 30
0.0
 11
2225.701515190076
 21
2174.000000000039
 31
0.0
  0
LINE
  5
457
330
1F
100
AcDbEntity
  8
LAY-10
  6
CONTINUOUS
 62
     7
100
AcDbLine
 10
2217.701515190073
 20
2024.000000000039
 30
0.0
 11
2225.701515190076
 21
2024.000000000039
 31
0.0
  0
LINE
  5
458
330
1F
100
AcDbEntity
  8
LAY-10
  6
CONTINUOUS
 62
     7
100
AcDbLine
 10
2224.701515190076
 20
2044.000000000039
 30
0.0
 11
2224.701515190076
 21
2024.000000000039
 31
0.0
  0
LINE
  5
459
330
1F
100
AcDbEntity
  8
LAY-10
  6
CONTINUOUS
 62
     7
100
AcDbLine
 10
2224.701515190076
 20
2174.000000000039
 30
0.0
 11
2224.701515190076
 21
2154.000000000039
 31
0.0
  0
ARC
  5
45A
330
1F
100
AcDbEntity
  8
LAY-10
  6
CONTINUOUS
 62
     7
100
AcDbCircle
 10
2222.701515190078
 20
1609.000000000062
 30
0.0
 40
3.000000000000003
100
AcDbArc
 50
180.0
 51
0.0
  0
ARC
  5
45B
330
1F
100
AcDbEntity
  8
LAY-10
  6
CONTINUOUS
 62
     7
100
AcDbCircle
 10
2222.701515190078
 20
1515.000000000061
 30
0.0
 40
3.000000000000003
100
AcDbArc
 50
0.0
 51
180.0
  0
LINE
  5
45C
330
1F
100
AcDbEntity
  8
LAY-10
  6
CONTINUOUS
 62
     7
100
AcDbLine
 10
2219.701515190075
 20
1647.00000000006
 30
0.0
 11
2225.701515190076
 21
1647.00000000006
 31
0.0
  0
LINE
  5
45D
330
1F
100
AcDbEntity
  8
LAY-10
  6
CONTINUOUS
 62
     7
100
AcDbLine
 10
2219.701515190075
 20
1476.700000000062
 30
0.0
 11
2225.701515190076
 21
1476.700000000062
 31
0.0
  0
LINE
  5
45E
330
1F
100
AcDbEntity
  8
LAY-10
  6
CONTINUOUS
 62
     7
100
AcDbLine
 10
2217.701515190073
 20
1617.00000000006
 30
0.0
 11
2225.701515190076
 21
1617.00000000006
 31
0.0
  0
LINE
  5
45F
330
1F
100
AcDbEntity
  8
LAY-10
  6
CONTINUOUS
 62
     7
100
AcDbLine
 10
2217.701515190073
 20
1637.00000000006
 30
0.0
 11
2217.701515190073
 21
1617.00000000006
 31
0.0
  0
LINE
  5
460
330
1F
100
AcDbEntity
  8
LAY-10
  6
CONTINUOUS
 62
     7
100
AcDbLine
 10
2217.701515190073
 20
1507.00000000006
 30
0.0
 11
2217.701515190073
 21
1487.00000000006
 31
0.0
  0
LINE
  5
461
330
1F
100
AcDbEntity
  8
LAY-10
  6
CONTINUOUS
 62
     7
100
AcDbLine
 10
2219.701515190075
 20
1647.00000000006
 30
0.0
 11
2219.701515190075
 21
1637.00000000006
 31
0.0
  0
LINE
  5
462
330
1F
100
AcDbEntity
  8
LAY-10
  6
CONTINUOUS
 62
     7
100
AcDbLine
 10
2219.701515190075
 20
1617.00000000006
 30
0.0
 11
2219.701515190075
 21
1507.00000000006
 31
0.0
  0
LINE
  5
463
330
1F
100
AcDbEntity
  8
LAY-10
  6
CONTINUOUS
 62
     7
100
AcDbLine
 10
2219.701515190075
 20
1487.00000000006
 30
0.0
 11
2219.701515190075
 21
1476.700000000062
 31
0.0
  0
LINE
  5
464
330
1F
100
AcDbEntity
  8
LAY-10
  6
CONTINUOUS
 62
     7
100
AcDbLine
 10
2217.701515190073
 20
1507.00000000006
 30
0.0
 11
2225.701515190076
 21
1507.00000000006
 31
0.0
  0
LINE
  5
465
330
1F
100
AcDbEntity
  8
LAY-10
  6
CONTINUOUS
 62
     7
100
AcDbLine
 10
2217.701515190073
 20
1487.00000000006
 30
0.0
 11
2225.701515190076
 21
1487.00000000006
 31
0.0
  0
LINE
  5
466
330
1F
100
AcDbEntity
  8
LAY-10
  6
CONTINUOUS
 62
     7
100
AcDbLine
 10
2217.701515190073
 20
1637.00000000006
 30
0.0
 11
2225.701515190076
 21
1637.00000000006
 31
0.0
  0
LINE
  5
467
330
1F
100
AcDbEntity
  8
LAY-10
  6
CONTINUOUS
 62
     7
100
AcDbLine
 10
2224.701515190076
 20
1617.00000000006
 30
0.0
 11
2224.701515190076
 21
1637.00000000006
 31
0.0
  0
LINE
  5
468
330
1F
100
AcDbEntity
  8
LAY-10
  6
CONTINUOUS
 62
     7
100
AcDbLine
 10
2224.701515190076
 20
1487.00000000006
 30
0.0
 11
2224.701515190076
 21
1507.00000000006
 31
0.0
  0
LINE
  5
469
330
1F
100
AcDbEntity
  8
LAY-10
  6
CONTINUOUS
 62
     7
100
AcDbLine
 10
1705.00000000009
 20
824.499999999907
 30
0.0
 11
1720.00000000009
 21
824.499999999907
 31
0.0
  0
LINE
  5
46A
330
1F
100
AcDbEntity
  8
LAY-10
  6
CONTINUOUS
 62
     7
100
AcDbLine
 10
1720.000000000072
 20
824.4999999999561
 30
0.0
 11
1720.000000000072
 21
821.4999999999561
 31
0.0
  0
LINE
  5
46B
330
1F
100
AcDbEntity
  8
LAY-10
  6
CONTINUOUS
 62
     7
100
AcDbLine
 10
1705.000000000072
 20
809.4999999999561
 30
0.0
 11
1708.000000000073
 21
809.4999999999561
 31
0.0
  0
LINE
  5
46C
330
1F
100
AcDbEntity
  8
LAY-10
  6
CONTINUOUS
 62
     7
100
AcDbLine
 10
1708.000000000073
 20
821.4999999999561
 30
0.0
 11
1720.000000000072
 21
821.4999999999561
 31
0.0
  0
LINE
  5
46D
330
1F
100
AcDbEntity
  8
LAY-10
  6
CONTINUOUS
 62
     7
100
AcDbLine
 10
1705.000000000072
 20
824.4999999999561
 30
0.0
 11
1705.000000000072
 21
809.4999999999561
 31
0.0
  0
LINE
  5
46E
330
1F
100
AcDbEntity
  8
LAY-10
  6
HIDDEN
 62
     7
100
AcDbLine
 10
1565.000000000083
 20
734.499999999957
 30
0.0
 11
1655.00000000009
 21
734.499999999957
 31
0.0
  0
LINE
  5
46F
330
1F
100
AcDbEntity
  8
LAY-10
  6
HIDDEN
 62
     7
100
AcDbLine
 10
1565.000000000083
 20
716.6999999999578
 30
0.0
 11
1565.000000000083
 21
734.499999999957
 31
0.0
  0
ARC
  5
470
330
1F
100
AcDbEntity
  8
LAY-10
  6
CONTINUOUS
 62
     7
100
AcDbCircle
 10
1648.000000000071
 20
739.6999999999568
 30
0.0
 40
4.0
100
AcDbArc
 50
0.0
 51
90.00000000000001
  0
ARC
  5
471
330
1F
100
AcDbEntity
  8
LAY-10
  6
CONTINUOUS
 62
     7
100
AcDbCircle
 10
1627.000000000072
 20
745.6999999999568
 30
0.0
 40
2.0
100
AcDbArc
 50
180.0
 51
270.0000000000002
  0
ARC
  5
472
330
1F
100
AcDbEntity
  8
LAY-10
  6
CONTINUOUS
 62
     7
100
AcDbCircle
 10
1654.000000000072
 20
718.6999999999568
 30
0.0
 40
2.0
100
AcDbArc
 50
180.0
 51
270.0000000000002
  0
LINE
  5
473
330
1F
100
AcDbEntity
  8
LAY-10
  6
CONTINUOUS
 62
     7
100
AcDbLine
 10
1655.000000000072
 20
716.6999999999567
 30
0.0
 11
1654.000000000072
 21
716.6999999999567
 31
0.0
  0
LINE
  5
474
330
1F
100
AcDbEntity
  8
LAY-10
  6
CONTINUOUS
 62
     7
100
AcDbLine
 10
1625.000000000074
 20
746.6999999999567
 30
0.0
 11
1625.000000000074
 21
745.6999999999568
 31
0.0
  0
LINE
  5
475
330
1F
100
AcDbEntity
  8
LAY-10
  6
CONTINUOUS
 62
     7
100
AcDbLine
 10
1652.000000000073
 20
739.6999999999568
 30
0.0
 11
1652.000000000073
 21
718.6999999999568
 31
0.0
  0
LINE
  5
476
330
1F
100
AcDbEntity
  8
LAY-10
  6
CONTINUOUS
 62
     7
100
AcDbLine
 10
1655.000000000072
 20
746.6999999999567
 30
0.0
 11
1655.000000000072
 21
716.6999999999567
 31
0.0
  0
LINE
  5
477
330
1F
100
AcDbEntity
  8
LAY-10
  6
CONTINUOUS
 62
     7
100
AcDbLine
 10
1665.000000000081
 20
704.4999999999507
 30
0.0
 11
1665.000000000081
 21
734.499999999957
 31
0.0
  0
LINE
  5
478
330
1F
100
AcDbEntity
  8
LAY-10
  6
CONTINUOUS
 62
     7
100
AcDbLine
 10
1665.000000000081
 20
704.4999999999507
 30
0.0
 11
1565.000000000081
 21
704.4999999999525
 31
0.0
  0
LINE
  5
479
330
1F
100
AcDbEntity
  8
LAY-10
  6
CONTINUOUS
 62
     7
100
AcDbLine
 10
1565.000000000081
 20
704.4999999999525
 30
0.0
 11
1565.000000000081
 21
716.6999999999567
 31
0.0
  0
LINE
  5
47A
330
1F
100
AcDbEntity
  8
LAY-10
  6
CONTINUOUS
 62
     7
100
AcDbLine
 10
1655.000000000072
 20
734.4999999999561
 30
0.0
 11
1708.200000000073
 21
734.4999999999561
 31
0.0
  0
LINE
  5
47B
330
1F
100
AcDbEntity
  8
LAY-10
  6
CONTINUOUS
 62
     7
100
AcDbLine
 10
1708.000000000073
 20
821.4999999999561
 30
0.0
 11
1708.000000000073
 21
737.6999999999568
 31
0.0
  0
LINE
  5
47C
330
1F
100
AcDbEntity
  8
LAY-10
  6
CONTINUOUS
 62
     7
100
AcDbLine
 10
1695.000000000073
 20
737.6999999999558
 30
0.0
 11
1708.000000000073
 21
737.6999999999558
 31
0.0
  0
LINE
  5
47D
330
1F
100
AcDbEntity
  8
LAY-10
  6
CONTINUOUS
 62
     7
100
AcDbLine
 10
1685.000000000072
 20
737.6999999999558
 30
0.0
 11
1655.000000000072
 21
737.6999999999558
 31
0.0
  0
LINE
  5
47E
330
1F
100
AcDbEntity
  8
LAY-10
  6
CONTINUOUS
 62
     7
100
AcDbLine
 10
1523.209132620151
 20
755.898623537392
 30
0.0
 11
1566.909132620155
 21
755.898623537392
 31
0.0
  0
ARC
  5
47F
330
1F
100
AcDbEntity
  8
LAY-10
  6
CONTINUOUS
 62
     7
100
AcDbCircle
 10
1567.000000000073
 20
752.8999999999556
 30
0.0
 40
3.000000000000003
100
AcDbArc
 50
0.0
 51
91.73570458884814
  0
ARC
  5
480
330
1F
100
AcDbEntity
  8
LAY-10
  6
CONTINUOUS
 62
     7
100
AcDbCircle
 10
1567.000891001043
 20
752.8991089989865
 30
0.0
 40
2.999108999030569
100
AcDbArc
 50
270.0000000000002
 51
0.0
  0
LINE
  5
481
330
1F
100
AcDbEntity
  8
LAY-10
  6
CONTINUOUS
 62
     7
100
AcDbLine
 10
1668.000000000072
 20
737.6999999999558
 30
0.0
 11
1668.000000000072
 21
746.6999999999567
 31
0.0
  0
ARC
  5
482
330
1F
100
AcDbEntity
  8
LAY-10
  6
CONTINUOUS
 62
     7
100
AcDbCircle
 10
1708.200000000073
 20
737.499999999957
 30
0.0
 40
3.000000000000003
100
AcDbArc
 50
270.0000000000002
 51
0.0
  0
LINE
  5
483
330
1F
100
AcDbEntity
  8
LAY-10
  6
CONTINUOUS
 62
     7
100
AcDbLine
 10
1702.000000000072
 20
737.6999999999558
 30
0.0
 11
1702.000000000072
 21
746.8999999999558
 31
0.0
  0
LINE
  5
484
330
1F
100
AcDbEntity
  8
LAY-10
  6
CONTINUOUS
 62
     7
100
AcDbLine
 10
1711.200000000074
 20
737.499999999957
 30
0.0
 11
1711.200000000074
 21
821.4999999999561
 31
0.0
  0
LINE
  5
485
330
1F
100
AcDbEntity
  8
LAY-10
  6
CONTINUOUS
 62
     7
100
AcDbLine
 10
1570.000000000073
 20
750.8999999999558
 30
0.0
 11
1570.000000000073
 21
752.8999999999556
 31
0.0
  0
LINE
  5
486
330
1F
100
AcDbEntity
  8
LAY-10
  6
CONTINUOUS
 62
     7
100
AcDbLine
 10
1580.000000000073
 20
750.8999999999571
 30
0.0
 11
1580.000000000073
 21
749.8999999999558
 31
0.0
  0
LINE
  5
487
330
1F
100
AcDbEntity
  8
LAY-10
  6
CONTINUOUS
 62
     7
100
AcDbLine
 10
1571.000000000073
 20
750.8999999999558
 30
0.0
 11
1580.000000000073
 21
750.8999999999571
 31
0.0
  0
LINE
  5
488
330
1F
100
AcDbEntity
  8
LAY-10
  6
CONTINUOUS
 62
     7
100
AcDbLine
 10
1571.000000000073
 20
752.8999999999556
 30
0.0
 11
1571.000000000073
 21
750.8999999999558
 31
0.0
  0
ARC
  5
489
330
1F
100
AcDbEntity
  8
LAY-10
  6
CONTINUOUS
 62
     7
100
AcDbCircle
 10
1571.000000000073
 20
750.8999999999558
 30
0.0
 40
1.0
100
AcDbArc
 50
180.0
 51
270.0000000000002
  0
ARC
  5
48A
330
1F
100
AcDbEntity
  8
LAY-10
  6
CONTINUOUS
 62
     7
100
AcDbCircle
 10
1567.000000000073
 20
752.8999999999556
 30
0.0
 40
4.0
100
AcDbArc
 50
0.0
 51
131.439421679092
  0
CIRCLE
  5
48B
330
1F
100
AcDbEntity
  8
LAY-10
  6
CONTINUOUS
 62
     7
100
AcDbCircle
 10
1523.300000000074
 20
752.8999999999556
 30
0.0
 40
3.000000000000003
  0
ARC
  5
48C
330
1F
100
AcDbEntity
  8
LAY-10
  6
CONTINUOUS
 62
     7
100
AcDbCircle
 10
1699.000000000072
 20
746.899999999958
 30
0.0
 40
3.000000000000003
100
AcDbArc
 50
0.0
 51
90.00000000000001
  0
LINE
  5
48D
330
1F
100
AcDbEntity
  8
LAY-10
  6
CONTINUOUS
 62
     7
100
AcDbLine
 10
1696.000000000074
 20
746.6999999999567
 30
0.0
 11
1695.000000000071
 21
746.6999999999567
 31
0.0
  0
LINE
  5
48E
330
1F
100
AcDbEntity
  8
LAY-10
  6
CONTINUOUS
 62
     7
100
AcDbLine
 10
1684.000000000072
 20
746.6999999999567
 30
0.0
 11
1685.000000000072
 21
746.6999999999567
 31
0.0
  0
LINE
  5
48F
330
1F
100
AcDbEntity
  8
LAY-10
  6
CONTINUOUS
 62
     7
100
AcDbLine
 10
1699.000000000072
 20
737.6999999999558
 30
0.0
 11
1699.000000000072
 21
746.6999999999567
 31
0.0
  0
LINE
  5
490
330
1F
100
AcDbEntity
  8
LAY-10
  6
CONTINUOUS
 62
     7
100
AcDbLine
 10
1696.000000000074
 20
746.6999999999567
 30
0.0
 11
1699.000000000072
 21
746.6999999999567
 31
0.0
  0
LINE
  5
491
330
1F
100
AcDbEntity
  8
LAY-10
  6
CONTINUOUS
 62
     7
100
AcDbLine
 10
1696.000000000074
 20
746.6999999999567
 30
0.0
 11
1696.000000000074
 21
749.8999999999558
 31
0.0
  0
LINE
  5
492
330
1F
100
AcDbEntity
  8
LAY-10
  6
CONTINUOUS
 62
     7
100
AcDbLine
 10
1684.000000000072
 20
746.6999999999567
 30
0.0
 11
1684.000000000072
 21
749.8999999999558
 31
0.0
  0
LINE
  5
493
330
1F
100
AcDbEntity
  8
LAY-10
  6
CONTINUOUS
 62
     7
100
AcDbLine
 10
1696.000000000074
 20
737.6999999999558
 30
0.0
 11
1696.000000000074
 21
734.4999999999561
 31
0.0
  0
LINE
  5
494
330
1F
100
AcDbEntity
  8
LAY-10
  6
CONTINUOUS
 62
     7
100
AcDbLine
 10
1684.000000000072
 20
737.6999999999558
 30
0.0
 11
1684.000000000072
 21
734.4999999999561
 31
0.0
  0
LINE
  5
495
330
1F
100
AcDbEntity
  8
LAY-10
  6
CONTINUOUS
 62
     7
100
AcDbLine
 10
1666.500000000073
 20
746.6999999999567
 30
0.0
 11
1684.000000000072
 21
746.6999999999567
 31
0.0
  0
LINE
  5
496
330
1F
100
AcDbEntity
  8
LAY-10
  6
CONTINUOUS
 62
     7
100
AcDbLine
 10
1668.000000000072
 20
746.6999999999567
 30
0.0
 11
1665.000000000073
 21
746.6999999999567
 31
0.0
  0
LINE
  5
497
330
1F
100
AcDbEntity
  8
LAY-10
  6
CONTINUOUS
 62
     7
100
AcDbLine
 10
1665.000000000073
 20
734.4999999999561
 30
0.0
 11
1665.000000000073
 21
746.6999999999567
 31
0.0
  0
LINE
  5
498
330
1F
100
AcDbEntity
  8
LAY-10
  6
CONTINUOUS
 62
     7
100
AcDbLine
 10
610.00000000009
 20
824.499999999907
 30
0.0
 11
625.00000000009
 21
824.499999999907
 31
0.0
  0
LINE
  5
499
330
1F
100
AcDbEntity
  8
LAY-10
  6
CONTINUOUS
 62
     7
100
AcDbLine
 10
610.0000000000855
 20
824.4999999999561
 30
0.0
 11
610.0000000000855
 21
821.4999999999561
 31
0.0
  0
LINE
  5
49A
330
1F
100
AcDbEntity
  8
LAY-10
  6
CONTINUOUS
 62
     7
100
AcDbLine
 10
625.0000000000855
 20
809.4999999999561
 30
0.0
 11
622.0000000000846
 21
809.4999999999561
 31
0.0
  0
LINE
  5
49B
330
1F
100
AcDbEntity
  8
LAY-10
  6
CONTINUOUS
 62
     7
100
AcDbLine
 10
622.0000000000846
 20
821.4999999999561
 30
0.0
 11
610.0000000000855
 21
821.4999999999561
 31
0.0
  0
LINE
  5
49C
330
1F
100
AcDbEntity
  8
LAY-10
  6
CONTINUOUS
 62
     7
100
AcDbLine
 10
625.0000000000855
 20
824.4999999999561
 30
0.0
 11
625.0000000000855
 21
809.4999999999561
 31
0.0
  0
LINE
  5
49D
330
1F
100
AcDbEntity
  8
LAY-10
  6
HIDDEN
 62
     7
100
AcDbLine
 10
765.0000000000973
 20
716.6999999999578
 30
0.0
 11
765.0000000000973
 21
734.499999999957
 31
0.0
  0
ARC
  5
49E
330
1F
100
AcDbEntity
  8
LAY-10
  6
CONTINUOUS
 62
     7
100
AcDbCircle
 10
682.0000000000855
 20
739.6999999999568
 30
0.0
 40
4.0
100
AcDbArc
 50
90.00000000000001
 51
180.0
  0
ARC
  5
49F
330
1F
100
AcDbEntity
  8
LAY-10
  6
CONTINUOUS
 62
     7
100
AcDbCircle
 10
703.0000000000855
 20
745.6999999999564
 30
0.0
 40
2.0
100
AcDbArc
 50
270.0000000000002
 51
0.0
  0
ARC
  5
4A0
330
1F
100
AcDbEntity
  8
LAY-10
  6
CONTINUOUS
 62
     7
100
AcDbCircle
 10
676.0000000000864
 20
718.6999999999559
 30
0.0
 40
2.0
100
AcDbArc
 50
270.0000000000002
 51
0.0
  0
LINE
  5
4A1
330
1F
100
AcDbEntity
  8
LAY-10
  6
CONTINUOUS
 62
     7
100
AcDbLine
 10
705.0000000000854
 20
746.6999999999555
 30
0.0
 11
705.0000000000854
 21
745.6999999999564
 31
0.0
  0
LINE
  5
4A2
330
1F
100
AcDbEntity
  8
LAY-10
  6
CONTINUOUS
 62
     7
100
AcDbLine
 10
678.0000000000855
 20
739.6999999999568
 30
0.0
 11
678.0000000000855
 21
718.6999999999559
 31
0.0
  0
LINE
  5
4A3
330
1F
100
AcDbEntity
  8
LAY-10
  6
CONTINUOUS
 62
     7
100
AcDbLine
 10
675.0000000000854
 20
746.6999999999555
 30
0.0
 11
675.0000000000854
 21
716.6999999999559
 31
0.0
  0
LINE
  5
4A4
330
1F
100
AcDbEntity
  8
LAY-10
  6
CONTINUOUS
 62
     7
100
AcDbLine
 10
765.0000000000983
 20
704.4999999999525
 30
0.0
 11
765.000000000099
 21
716.6999999999567
 31
0.0
  0
LINE
  5
4A5
330
1F
100
AcDbEntity
  8
LAY-10
  6
CONTINUOUS
 62
     7
100
AcDbLine
 10
665.0000000000981
 20
704.4999999999507
 30
0.0
 11
765.0000000000983
 21
704.4999999999525
 31
0.0
  0
LINE
  5
4A6
330
1F
100
AcDbEntity
  8
LAY-10
  6
CONTINUOUS
 62
     7
100
AcDbLine
 10
665.0000000000981
 20
704.4999999999507
 30
0.0
 11
665.000000000099
 21
734.499999999957
 31
0.0
  0
LINE
  5
4A7
330
1F
100
AcDbEntity
  8
LAY-10
  6
CONTINUOUS
 62
     7
100
AcDbLine
 10
622.0000000000864
 20
821.4999999999561
 30
0.0
 11
622.0000000000864
 21
737.6999999999568
 31
0.0
  0
LINE
  5
4A8
330
1F
100
AcDbEntity
  8
LAY-10
  6
CONTINUOUS
 62
     7
100
AcDbLine
 10
645.0000000000855
 20
737.6999999999558
 30
0.0
 11
675.0000000000854
 21
737.6999999999558
 31
0.0
  0
LINE
  5
4A9
330
1F
100
AcDbEntity
  8
LAY-10
  6
CONTINUOUS
 62
     7
100
AcDbLine
 10
675.0000000000854
 20
734.4999999999561
 30
0.0
 11
621.8000000000857
 21
734.4999999999561
 31
0.0
  0
ARC
  5
4AA
330
1F
100
AcDbEntity
  8
LAY-10
  6
CONTINUOUS
 62
     7
100
AcDbCircle
 10
762.9991089991137
 20
752.8991089989865
 30
0.0
 40
2.999108999030569
100
AcDbArc
 50
180.0
 51
270.0000000000002
  0
LINE
  5
4AB
330
1F
100
AcDbEntity
  8
LAY-10
  6
CONTINUOUS
 62
     7
100
AcDbLine
 10
806.7908673800057
 20
755.898623537392
 30
0.0
 11
763.0908673800022
 21
755.898623537392
 31
0.0
  0
ARC
  5
4AC
330
1F
100
AcDbEntity
  8
LAY-10
  6
CONTINUOUS
 62
     7
100
AcDbCircle
 10
763.0000000000837
 20
752.8999999999556
 30
0.0
 40
3.000000000000003
100
AcDbArc
 50
88.26429541116052
 51
180.0
  0
LINE
  5
4AD
330
1F
100
AcDbEntity
  8
LAY-10
  6
CONTINUOUS
 62
     7
100
AcDbLine
 10
662.0000000000864
 20
737.6999999999558
 30
0.0
 11
662.0000000000864
 21
746.6999999999567
 31
0.0
  0
ARC
  5
4AE
330
1F
100
AcDbEntity
  8
LAY-10
  6
CONTINUOUS
 62
     7
100
AcDbCircle
 10
621.8000000000857
 20
737.499999999956
 30
0.0
 40
3.000000000000003
100
AcDbArc
 50
180.0
 51
270.0000000000002
  0
LINE
  5
4AF
330
1F
100
AcDbEntity
  8
LAY-10
  6
CONTINUOUS
 62
     7
100
AcDbLine
 10
760.0000000000828
 20
750.8999999999558
 30
0.0
 11
760.0000000000828
 21
752.8999999999556
 31
0.0
  0
LINE
  5
4B0
330
1F
100
AcDbEntity
  8
LAY-10
  6
CONTINUOUS
 62
     7
100
AcDbLine
 10
750.0000000000837
 20
750.8999999999571
 30
0.0
 11
750.0000000000837
 21
749.8999999999558
 31
0.0
  0
LINE
  5
4B1
330
1F
100
AcDbEntity
  8
LAY-10
  6
CONTINUOUS
 62
     7
100
AcDbLine
 10
759.0000000000828
 20
750.8999999999558
 30
0.0
 11
750.0000000000837
 21
750.8999999999571
 31
0.0
  0
LINE
  5
4B2
330
1F
100
AcDbEntity
  8
LAY-10
  6
CONTINUOUS
 62
     7
100
AcDbLine
 10
759.0000000000828
 20
752.8999999999556
 30
0.0
 11
759.0000000000828
 21
750.8999999999558
 31
0.0
  0
ARC
  5
4B3
330
1F
100
AcDbEntity
  8
LAY-10
  6
CONTINUOUS
 62
     7
100
AcDbCircle
 10
759.0000000000828
 20
750.8999999999558
 30
0.0
 40
1.0
100
AcDbArc
 50
270.0000000000002
 51
0.0
  0
ARC
  5
4B4
330
1F
100
AcDbEntity
  8
LAY-10
  6
CONTINUOUS
 62
     7
100
AcDbCircle
 10
763.0000000000837
 20
752.8999999999556
 30
0.0
 40
4.0
100
AcDbArc
 50
48.56057832088622
 51
180.0
  0
CIRCLE
  5
4B5
330
1F
100
AcDbEntity
  8
LAY-10
  6
CONTINUOUS
 62
     7
100
AcDbCircle
 10
806.7000000000844
 20
752.8999999999556
 30
0.0
 40
3.000000000000003
  0
LINE
  5
4B6
330
1F
100
AcDbEntity
  8
LAY-10
  6
CONTINUOUS
 62
     7
100
AcDbLine
 10
618.8000000000848
 20
737.499999999956
 30
0.0
 11
618.8000000000848
 21
821.4999999999561
 31
0.0
  0
ARC
  5
4B7
330
1F
100
AcDbEntity
  8
LAY-10
  6
CONTINUOUS
 62
     7
100
AcDbCircle
 10
631.0000000000855
 20
746.8999999999558
 30
0.0
 40
3.000000000000003
100
AcDbArc
 50
90.00000000000001
 51
180.0
  0
LINE
  5
4B8
330
1F
100
AcDbEntity
  8
LAY-10
  6
CONTINUOUS
 62
     7
100
AcDbLine
 10
622.0000000000864
 20
737.6999999999558
 30
0.0
 11
635.0000000000855
 21
737.6999999999558
 31
0.0
  0
LINE
  5
4B9
330
1F
100
AcDbEntity
  8
LAY-10
  6
CONTINUOUS
 62
     7
100
AcDbLine
 10
631.0000000000855
 20
737.6999999999558
 30
0.0
 11
631.0000000000855
 21
746.6999999999555
 31
0.0
  0
LINE
  5
4BA
330
1F
100
AcDbEntity
  8
LAY-10
  6
CONTINUOUS
 62
     7
100
AcDbLine
 10
628.0000000000863
 20
737.6999999999558
 30
0.0
 11
628.0000000000863
 21
746.8999999999558
 31
0.0
  0
LINE
  5
4BB
330
1F
100
AcDbEntity
  8
LAY-10
  6
CONTINUOUS
 62
     7
100
AcDbLine
 10
635.0000000000855
 20
746.6999999999555
 30
0.0
 11
631.0000000000855
 21
746.6999999999555
 31
0.0
  0
LINE
  5
4BC
330
1F
100
AcDbEntity
  8
LAY-10
  6
CONTINUOUS
 62
     7
100
AcDbLine
 10
634.0000000000846
 20
746.6999999999555
 30
0.0
 11
634.0000000000846
 21
749.8999999999558
 31
0.0
  0
LINE
  5
4BD
330
1F
100
AcDbEntity
  8
LAY-10
  6
CONTINUOUS
 62
     7
100
AcDbLine
 10
646.0000000000855
 20
746.6999999999555
 30
0.0
 11
646.0000000000855
 21
749.8999999999558
 31
0.0
  0
LINE
  5
4BE
330
1F
100
AcDbEntity
  8
LAY-10
  6
CONTINUOUS
 62
     7
100
AcDbLine
 10
634.0000000000846
 20
737.6999999999558
 30
0.0
 11
634.0000000000846
 21
734.4999999999561
 31
0.0
  0
LINE
  5
4BF
330
1F
100
AcDbEntity
  8
LAY-10
  6
CONTINUOUS
 62
     7
100
AcDbLine
 10
646.0000000000855
 20
737.6999999999558
 30
0.0
 11
646.0000000000855
 21
734.4999999999561
 31
0.0
  0
LINE
  5
4C0
330
1F
100
AcDbEntity
  8
LAY-10
  6
CONTINUOUS
 62
     7
100
AcDbLine
 10
665.0000000000854
 20
734.4999999999561
 30
0.0
 11
665.0000000000854
 21
746.6999999999555
 31
0.0
  0
LINE
  5
4C1
330
1F
100
AcDbEntity
  8
LAY-10
  6
HIDDEN
 62
     7
100
AcDbLine
 10
765.0000000001
 20
734.500000000007
 30
0.0
 11
675.0000000000899
 21
734.500000000007
 31
0.0
  0
LINE
  5
4C2
330
1F
100
AcDbEntity
  8
LAY-10
  6
CONTINUOUS
 62
     7
100
AcDbLine
 10
1700.500000000073
 20
749.8999999999558
 30
0.0
 11
629.5000000000855
 21
749.8999999999558
 31
0.0
  0
POLYLINE
  5
4C3
330
1F
100
AcDbEntity
  8
LAY-10
  6
CONTINUOUS
 62
     7
100
AcDb2dPolyline
 66
     1
 10
0.0
 20
0.0
 30
0.0
 70
   128
  0
VERTEX
  5
4C4
330
4C3
100
AcDbEntity
  8
LAY-10
  6
CONTINUOUS
 62
     7
100
AcDbVertex
100
AcDb2dVertex
 10
682.0000000000855
 20
743.6999999999559
 30
0.0
  0
VERTEX
  5
4C5
330
4C3
100
AcDbEntity
  8
LAY-10
  6
CONTINUOUS
 62
     7
100
AcDbVertex
100
AcDb2dVertex
 10
811.5000000000856
 20
743.6999999999568
 30
0.0
  0
VERTEX
  5
4C6
330
4C3
100
AcDbEntity
  8
LAY-10
  6
CONTINUOUS
 62
     7
100
AcDbVertex
100
AcDb2dVertex
 10
1648.000000000071
 20
743.6999999999568
 30
0.0
  0
SEQEND
  5
4C7
330
4C3
100
AcDbEntity
  8
LAY-10
  6
CONTINUOUS
 62
     7
  0
LINE
  5
4C8
330
1F
100
AcDbEntity
  8
LAY-10
  6
CONTINUOUS
 62
     7
100
AcDbLine
 10
645.0000000000855
 20
746.6999999999555
 30
0.0
 11
1665.000000000073
 21
746.6999999999567
 31
0.0
  0
LINE
  5
4C9
330
1F
100
AcDbEntity
  8
LAY-10
  6
CONTINUOUS
 62
     7
100
AcDbLine
 10
1654.000000000072
 20
716.6999999999567
 30
0.0
 11
675.0000000000864
 21
716.6999999999559
 31
0.0
  0
ARC
  5
4CA
330
1F
100
AcDbEntity
  8
LAY-10
  6
CONTINUOUS
 62
     7
100
AcDbCircle
 10
1306.00000000002
 20
780.9999999998895
 30
0.0
 40
2.0
100
AcDbArc
 50
90.00000000000001
 51
180.0
  0
ARC
  5
4CB
330
1F
100
AcDbEntity
  8
LAY-10
  6
CONTINUOUS
 62
     7
100
AcDbCircle
 10
1343.000000000019
 20
817.9999999998895
 30
0.0
 40
2.0
100
AcDbArc
 50
90.00000000000001
 51
180.0
  0
ARC
  5
4CC
330
1F
100
AcDbEntity
  8
LAY-10
  6
CONTINUOUS
 62
     7
100
AcDbCircle
 10
1336.50000000002
 20
787.4999999998895
 30
0.0
 40
4.5
100
AcDbArc
 50
270.0000000000002
 51
0.0
  0
LINE
  5
4CD
330
1F
100
AcDbEntity
  8
LAY-10
  6
CONTINUOUS
 62
     7
100
AcDbLine
 10
1341.00000000002
 20
787.4999999998895
 30
0.0
 11
1341.00000000002
 21
817.9999999998895
 31
0.0
  0
LINE
  5
4CE
330
1F
100
AcDbEntity
  8
LAY-10
  6
CONTINUOUS
 62
     7
100
AcDbLine
 10
1304.000000000018
 20
779.9999999998895
 30
0.0
 11
1304.000000000018
 21
780.9999999998895
 31
0.0
  0
LINE
  5
4CF
330
1F
100
AcDbEntity
  8
LAY-10
  6
CONTINUOUS
 62
     7
100
AcDbLine
 10
1344.00000000002
 20
779.9999999998895
 30
0.0
 11
1344.00000000002
 21
824.4999999998795
 31
0.0
  0
ARC
  5
4D0
330
1F
100
AcDbEntity
  8
LAY-10
  6
CONTINUOUS
 62
     7
100
AcDbCircle
 10
1024.000000000043
 20
780.9999999998895
 30
0.0
 40
2.0
100
AcDbArc
 50
0.0
 51
90.00000000000001
  0
ARC
  5
4D1
330
1F
100
AcDbEntity
  8
LAY-10
  6
CONTINUOUS
 62
     7
100
AcDbCircle
 10
987.0000000000431
 20
817.9999999998895
 30
0.0
 40
2.0
100
AcDbArc
 50
0.0
 51
90.00000000000001
  0
ARC
  5
4D2
330
1F
100
AcDbEntity
  8
LAY-10
  6
CONTINUOUS
 62
     7
100
AcDbCircle
 10
993.500000000043
 20
787.4999999998895
 30
0.0
 40
4.5
100
AcDbArc
 50
180.0
 51
270.0000000000002
  0
LINE
  5
4D3
330
1F
100
AcDbEntity
  8
LAY-10
  6
CONTINUOUS
 62
     7
100
AcDbLine
 10
989.0000000000421
 20
787.4999999998895
 30
0.0
 11
989.0000000000421
 21
817.9999999998895
 31
0.0
  0
LINE
  5
4D4
330
1F
100
AcDbEntity
  8
LAY-10
  6
CONTINUOUS
 62
     7
100
AcDbLine
 10
1026.000000000044
 20
779.9999999998895
 30
0.0
 11
1026.000000000044
 21
780.9999999998895
 31
0.0
  0
LINE
  5
4D5
330
1F
100
AcDbEntity
  8
LAY-10
  6
CONTINUOUS
 62
     7
100
AcDbLine
 10
986.000000000043
 20
779.9999999998895
 30
0.0
 11
986.000000000043
 21
824.4999999998795
 31
0.0
  0
LINE
  5
4D6
330
1F
100
AcDbEntity
  8
LAY-10
  6
CONTINUOUS
 62
     7
100
AcDbLine
 10
1708.000000000073
 20
777.9999999998902
 30
0.0
 11
622.0000000000864
 21
777.9999999998902
 31
0.0
  0
LINE
  5
4D7
330
1F
100
AcDbEntity
  8
LAY-10
  6
CONTINUOUS
 62
     7
100
AcDbLine
 10
622.00000000009
 20
779.9999999998903
 30
0.0
 11
1708.000000000073
 21
779.9999999998903
 31
0.0
  0
LINE
  5
4D8
330
1F
100
AcDbEntity
  8
LAY-10
  6
CONTINUOUS
 62
     7
100
AcDbLine
 10
1336.50000000003
 20
782.999999999885
 30
0.0
 11
993.5000000000703
 21
782.999999999885
 31
0.0
  0
LINE
  5
4D9
330
1F
100
AcDbEntity
  8
LAY-10
  6
CONTINUOUS
 62
     7
100
AcDbLine
 10
986.0000000000612
 20
819.9999999998804
 30
0.0
 11
1343.999999999982
 21
819.9999999998804
 31
0.0
  0
LINE
  5
4DA
330
1F
100
AcDbEntity
  8
LAY-10
  6
CONTINUOUS
 62
     7
100
AcDbLine
 10
1343.999999999982
 20
824.4999999998805
 30
0.0
 11
986.0000000000612
 21
824.4999999998805
 31
0.0
  0
ARC
  5
4DB
330
1F
100
AcDbEntity
  8
LAY-10
  6
CONTINUOUS
 62
     7
100
AcDbCircle
 10
946.0000000000095
 20
780.9999999998895
 30
0.0
 40
2.0
100
AcDbArc
 50
90.00000000000001
 51
180.0
  0
ARC
  5
4DC
330
1F
100
AcDbEntity
  8
LAY-10
  6
CONTINUOUS
 62
     7
100
AcDbCircle
 10
983.0000000000093
 20
817.9999999998895
 30
0.0
 40
2.0
100
AcDbArc
 50
90.00000000000001
 51
180.0
  0
ARC
  5
4DD
330
1F
100
AcDbEntity
  8
LAY-10
  6
CONTINUOUS
 62
     7
100
AcDbCircle
 10
976.5000000000095
 20
787.4999999998895
 30
0.0
 40
4.5
100
AcDbArc
 50
270.0000000000002
 51
0.0
  0
LINE
  5
4DE
330
1F
100
AcDbEntity
  8
LAY-10
  6
CONTINUOUS
 62
     7
100
AcDbLine
 10
981.0000000000102
 20
787.4999999998895
 30
0.0
 11
981.0000000000102
 21
817.9999999998895
 31
0.0
  0
LINE
  5
4DF
330
1F
100
AcDbEntity
  8
LAY-10
  6
CONTINUOUS
 62
     7
100
AcDbLine
 10
944.0000000000084
 20
779.9999999998895
 30
0.0
 11
944.0000000000084
 21
780.9999999998895
 31
0.0
  0
LINE
  5
4E0
330
1F
100
AcDbEntity
  8
LAY-10
  6
CONTINUOUS
 62
     7
100
AcDbLine
 10
984.0000000000095
 20
779.9999999998895
 30
0.0
 11
984.0000000000095
 21
824.4999999998795
 31
0.0
  0
ARC
  5
4E1
330
1F
100
AcDbEntity
  8
LAY-10
  6
CONTINUOUS
 62
     7
100
AcDbCircle
 10
664.000000000033
 20
780.9999999998895
 30
0.0
 40
2.0
100
AcDbArc
 50
0.0
 51
90.00000000000001
  0
ARC
  5
4E2
330
1F
100
AcDbEntity
  8
LAY-10
  6
CONTINUOUS
 62
     7
100
AcDbCircle
 10
627.0000000000331
 20
817.9999999998895
 30
0.0
 40
2.0
100
AcDbArc
 50
0.0
 51
90.00000000000001
  0
ARC
  5
4E3
330
1F
100
AcDbEntity
  8
LAY-10
  6
CONTINUOUS
 62
     7
100
AcDbCircle
 10
633.500000000033
 20
787.4999999998895
 30
0.0
 40
4.5
100
AcDbArc
 50
180.0
 51
270.0000000000002
  0
LINE
  5
4E4
330
1F
100
AcDbEntity
  8
LAY-10
  6
CONTINUOUS
 62
     7
100
AcDbLine
 10
629.0000000000321
 20
787.4999999998895
 30
0.0
 11
629.0000000000321
 21
817.9999999998895
 31
0.0
  0
LINE
  5
4E5
330
1F
100
AcDbEntity
  8
LAY-10
  6
CONTINUOUS
 62
     7
100
AcDbLine
 10
666.0000000000339
 20
779.9999999998895
 30
0.0
 11
666.0000000000339
 21
780.9999999998895
 31
0.0
  0
LINE
  5
4E6
330
1F
100
AcDbEntity
  8
LAY-10
  6
CONTINUOUS
 62
     7
100
AcDbLine
 10
626.000000000033
 20
779.9999999998895
 30
0.0
 11
626.000000000033
 21
824.4999999998795
 31
0.0
  0
LINE
  5
4E7
330
1F
100
AcDbEntity
  8
LAY-10
  6
CONTINUOUS
 62
     7
100
AcDbLine
 10
976.5000000000205
 20
782.999999999885
 30
0.0
 11
633.5000000000603
 21
782.999999999885
 31
0.0
  0
LINE
  5
4E8
330
1F
100
AcDbEntity
  8
LAY-10
  6
CONTINUOUS
 62
     7
100
AcDbLine
 10
626.0000000000512
 20
819.9999999998804
 30
0.0
 11
983.999999999972
 21
819.9999999998804
 31
0.0
  0
LINE
  5
4E9
330
1F
100
AcDbEntity
  8
LAY-10
  6
CONTINUOUS
 62
     7
100
AcDbLine
 10
983.999999999972
 20
824.4999999998805
 30
0.0
 11
626.0000000000512
 21
824.4999999998805
 31
0.0
  0
ARC
  5
4EA
330
1F
100
AcDbEntity
  8
LAY-10
  6
CONTINUOUS
 62
     7
100
AcDbCircle
 10
1384.000000000072
 20
780.9999999998895
 30
0.0
 40
2.0
100
AcDbArc
 50
0.0
 51
90.00000000000001
  0
ARC
  5
4EB
330
1F
100
AcDbEntity
  8
LAY-10
  6
CONTINUOUS
 62
     7
100
AcDbCircle
 10
1347.000000000073
 20
817.9999999998895
 30
0.0
 40
2.0
100
AcDbArc
 50
0.0
 51
90.00000000000001
  0
ARC
  5
4EC
330
1F
100
AcDbEntity
  8
LAY-10
  6
CONTINUOUS
 62
     7
100
AcDbCircle
 10
1353.500000000072
 20
787.4999999998895
 30
0.0
 40
4.5
100
AcDbArc
 50
180.0
 51
270.0
  0
LINE
  5
4ED
330
1F
100
AcDbEntity
  8
LAY-10
  6
CONTINUOUS
 62
     7
100
AcDbLine
 10
1349.000000000072
 20
787.4999999998895
 30
0.0
 11
1349.000000000072
 21
817.9999999998895
 31
0.0
  0
LINE
  5
4EE
330
1F
100
AcDbEntity
  8
LAY-10
  6
CONTINUOUS
 62
     7
100
AcDbLine
 10
1386.000000000073
 20
779.9999999998895
 30
0.0
 11
1386.000000000073
 21
780.9999999998895
 31
0.0
  0
LINE
  5
4EF
330
1F
100
AcDbEntity
  8
LAY-10
  6
CONTINUOUS
 62
     7
100
AcDbLine
 10
1346.000000000072
 20
779.9999999998895
 30
0.0
 11
1346.000000000072
 21
824.4999999998795
 31
0.0
  0
ARC
  5
4F0
330
1F
100
AcDbEntity
  8
LAY-10
  6
CONTINUOUS
 62
     7
100
AcDbCircle
 10
1666.000000000049
 20
780.9999999998894
 30
0.0
 40
2.0
100
AcDbArc
 50
90.00000000000001
 51
180.0
  0
ARC
  5
4F1
330
1F
100
AcDbEntity
  8
LAY-10
  6
CONTINUOUS
 62
     7
100
AcDbCircle
 10
1703.000000000049
 20
817.9999999998894
 30
0.0
 40
2.0
100
AcDbArc
 50
90.00000000000001
 51
180.0
  0
ARC
  5
4F2
330
1F
100
AcDbEntity
  8
LAY-10
  6
CONTINUOUS
 62
     7
100
AcDbCircle
 10
1696.500000000049
 20
787.4999999998894
 30
0.0
 40
4.5
100
AcDbArc
 50
270.0
 51
0.0
  0
LINE
  5
4F3
330
1F
100
AcDbEntity
  8
LAY-10
  6
CONTINUOUS
 62
     7
100
AcDbLine
 10
1701.00000000005
 20
787.4999999998894
 30
0.0
 11
1701.00000000005
 21
817.9999999998894
 31
0.0
  0
LINE
  5
4F4
330
1F
100
AcDbEntity
  8
LAY-10
  6
CONTINUOUS
 62
     7
100
AcDbLine
 10
1664.000000000048
 20
779.9999999998894
 30
0.0
 11
1664.000000000048
 21
780.9999999998894
 31
0.0
  0
LINE
  5
4F5
330
1F
100
AcDbEntity
  8
LAY-10
  6
CONTINUOUS
 62
     7
100
AcDbLine
 10
1704.000000000049
 20
779.9999999998894
 30
0.0
 11
1704.000000000049
 21
824.4999999998794
 31
0.0
  0
LINE
  5
4F6
330
1F
100
AcDbEntity
  8
LAY-10
  6
CONTINUOUS
 62
     7
100
AcDbLine
 10
1353.500000000061
 20
782.999999999885
 30
0.0
 11
1696.500000000022
 21
782.9999999998848
 31
0.0
  0
LINE
  5
4F7
330
1F
100
AcDbEntity
  8
LAY-10
  6
CONTINUOUS
 62
     7
100
AcDbLine
 10
1704.000000000031
 20
819.9999999998803
 30
0.0
 11
1346.00000000011
 21
819.9999999998804
 31
0.0
  0
LINE
  5
4F8
330
1F
100
AcDbEntity
  8
LAY-10
  6
CONTINUOUS
 62
     7
100
AcDbLine
 10
1346.00000000011
 20
824.4999999998805
 30
0.0
 11
1704.000000000031
 21
824.4999999998803
 31
0.0
  0
LINE
  5
4F9
330
1F
100
AcDbEntity
  8
LAY-10
  6
CONTINUOUS
 62
     7
100
AcDbLine
 10
2206.301515190076
 20
1280.613708499001
 30
0.0
 11
2200.801515190076
 21
1280.613708499001
 31
0.0
  0
LINE
  5
4FA
330
1F
100
AcDbEntity
  8
LAY-10
  6
CONTINUOUS
 62
     7
100
AcDbLine
 10
2208.801515190077
 20
1250.613708499001
 30
0.0
 11
2208.801515190077
 21
1251.300000000017
 31
0.0
  0
LINE
  5
4FB
330
1F
100
AcDbEntity
  8
LAY-10
  6
CONTINUOUS
 62
     7
100
AcDbLine
 10
2206.301515190076
 20
2380.386291501034
 30
0.0
 11
2200.801515190076
 21
2380.386291501034
 31
0.0
  0
LINE
  5
4FC
330
1F
100
AcDbEntity
  8
LAY-10
  6
CONTINUOUS
 62
     7
100
AcDbLine
 10
2208.801515190077
 20
2410.386291501032
 30
0.0
 11
2208.801515190077
 21
2409.700000000019
 31
0.0
  0
ARC
  5
4FD
330
1F
100
AcDbEntity
  8
LAY-10
  6
CONTINUOUS
 62
     7
100
AcDbCircle
 10
1719.200000000071
 20
778.8137084988978
 30
0.0
 40
8.0
100
AcDbArc
 50
180.0
 51
224.9999999999971
  0
LINE
  5
4FE
330
1F
100
AcDbEntity
  8
LAY-10
  6
CONTINUOUS
 62
     7
100
AcDbLine
 10
1748.898484809907
 20
737.8015151900792
 30
0.0
 11
1754.555339059398
 21
743.458369439571
 31
0.0
  0
LINE
  5
4FF
330
1F
100
AcDbEntity
  8
LAY-10
  6
CONTINUOUS
 62
     7
100
AcDbLine
 10
1748.898484809907
 20
737.8015151900792
 30
0.0
 11
1713.543145750579
 21
773.1568542494063
 31
0.0
  0
LINE
  5
500
330
1F
100
AcDbEntity
  8
LAY-10
  6
CONTINUOUS
 62
     7
100
AcDbLine
 10
1754.555339059398
 20
743.458369439571
 30
0.0
 11
1719.200000000071
 21
778.8137084988978
 31
0.0
  0
LINE
  5
501
330
1F
100
AcDbEntity
  8
LAY-10
  6
CONTINUOUS
 62
     7
100
AcDbLine
 10
1719.200000000071
 20
778.8137084988978
 30
0.0
 11
1719.200000000071
 21
805.4999999999137
 31
0.0
  0
LINE
  5
502
330
1F
100
AcDbEntity
  8
LAY-10
  6
CONTINUOUS
 62
     7
100
AcDbLine
 10
1719.200000000071
 20
805.4999999999137
 30
0.0
 11
1711.20000000007
 21
805.4999999999137
 31
0.0
  0
ARC
  5
503
330
1F
100
AcDbEntity
  8
LAY-10
  6
CONTINUOUS
 62
     7
100
AcDbCircle
 10
610.8000000000757
 20
778.8137084988978
 30
0.0
 40
8.0
100
AcDbArc
 50
315.0000000000145
 51
0.0
  0
LINE
  5
504
330
1F
100
AcDbEntity
  8
LAY-10
  6
CONTINUOUS
 62
     7
100
AcDbLine
 10
610.8000000000757
 20
805.4999999999137
 30
0.0
 11
618.8000000000765
 21
805.4999999999137
 31
0.0
  0
LINE
  5
505
330
1F
100
AcDbEntity
  8
LAY-10
  6
CONTINUOUS
 62
     7
100
AcDbLine
 10
610.8000000000757
 20
778.8137084988978
 30
0.0
 11
610.8000000000757
 21
805.4999999999137
 31
0.0
  0
LINE
  5
506
330
1F
100
AcDbEntity
  8
LAY-10
  6
CONTINUOUS
 62
     7
100
AcDbLine
 10
581.1015151902411
 20
737.8015151900792
 30
0.0
 11
616.4568542495681
 21
773.1568542494063
 31
0.0
  0
LINE
  5
507
330
1F
100
AcDbEntity
  8
LAY-10
  6
CONTINUOUS
 62
     7
100
AcDbLine
 10
581.1015151902411
 20
737.8015151900792
 30
0.0
 11
575.4446609407487
 21
743.458369439571
 31
0.0
  0
LINE
  5
508
330
1F
100
AcDbEntity
  8
LAY-10
  6
CONTINUOUS
 62
     7
100
AcDbLine
 10
575.4446609407487
 20
743.458369439571
 30
0.0
 11
610.8000000000757
 21
778.8137084988978
 31
0.0
  0
LINE
  5
509
330
1F
100
AcDbEntity
  8
LAY-10
  6
CONTINUOUS
 62
     7
100
AcDbLine
 10
2228.901515190076
 20
1370.50000000002
 30
0.0
 11
2229.901515190075
 21
1370.50000000002
 31
0.0
  0
ARC
  5
50A
330
1F
100
AcDbEntity
  8
LAY-10
  6
CONTINUOUS
 62
     7
100
AcDbCircle
 10
2229.901515190075
 20
1368.50000000002
 30
0.0
 40
2.0
100
AcDbArc
 50
0.0
 51
90.00000000000001
  0
LINE
  5
50B
330
1F
100
AcDbEntity
  8
LAY-10
  6
CENTER
 62
     2
100
AcDbLine
 10
1165.00000000003
 20
1194.6015151901
 30
0.0
 11
1165.00000000003
 21
2466.3984848099
 31
0.0
  0
LINE
  5
50C
330
1F
100
AcDbEntity
  8
LAY-10
  6
CENTER
 62
     2
100
AcDbLine
 10
1065.00000000005
 20
1287.354316770599
 30
0.0
 11
1065.00000000005
 21
1245.5543167706
 31
0.0
  0
LINE
  5
50D
330
1F
100
AcDbEntity
  8
LAY-10
  6
CENTER
 62
     2
100
AcDbLine
 10
1180.000000000019
 20
1305.500000000045
 30
0.0
 11
1148.00000000002
 21
1305.500000000045
 31
0.0
  0
LINE
  5
50E
330
1F
100
AcDbEntity
  8
LAY-10
  6
CENTER
 62
     2
100
AcDbLine
 10
1703.400000000069
 20
1305.500000000025
 30
0.0
 11
1675.000000000069
 21
1305.500000000025
 31
0.0
  0
LINE
  5
50F
330
1F
100
AcDbEntity
  8
LAY-10
  6
CENTER
 62
     2
100
AcDbLine
 10
1690.000000000068
 20
1290.500000000025
 30
0.0
 11
1690.000000000069
 21
1322.500000000023
 31
0.0
  0
LINE
  5
510
330
1F
100
AcDbEntity
  8
LAY-10
  6
CENTER
 62
     2
100
AcDbLine
 10
1689.999999999995
 20
1817.100000000044
 30
0.0
 11
1689.999999999995
 21
1845.500000000045
 31
0.0
  0
LINE
  5
511
330
1F
100
AcDbEntity
  8
LAY-10
  6
CENTER
 62
     2
100
AcDbLine
 10
1704.999999999995
 20
2355.500000000048
 30
0.0
 11
1672.999999999996
 21
2355.500000000049
 31
0.0
  0
LINE
  5
512
330
1F
100
AcDbEntity
  8
LAY-10
  6
CENTER
 62
     2
100
AcDbLine
 10
1689.999999999995
 20
2368.900000000049
 30
0.0
 11
1689.999999999995
 21
2340.500000000049
 31
0.0
  0
LINE
  5
513
330
1F
100
AcDbEntity
  8
LAY-10
  6
CENTER
 62
     2
100
AcDbLine
 10
566.1015151901697
 20
1830.500000000001
 30
0.0
 11
1763.8984848099
 21
1830.500000000001
 31
0.0
  0
LINE
  5
514
330
1F
100
AcDbEntity
  8
LAY-10
  6
CENTER
 62
     2
100
AcDbLine
 10
915.0000000000296
 20
2422.499999999999
 30
0.0
 11
915.0000000000296
 21
2464.299999999998
 31
0.0
  0
LINE
  5
515
330
1F
100
AcDbEntity
  8
LAY-10
  6
CENTER
 62
     2
100
AcDbLine
 10
1415.00000000003
 20
2422.499999999999
 30
0.0
 11
1415.00000000003
 21
2464.299999999998
 31
0.0
  0
LINE
  5
516
330
1F
100
AcDbEntity
  8
LAY-10
  6
CENTER
 62
     2
100
AcDbLine
 10
915.0000000000296
 20
1238.500000000002
 30
0.0
 11
915.0000000000296
 21
1196.700000000003
 31
0.0
  0
LINE
  5
517
330
1F
100
AcDbEntity
  8
LAY-10
  6
CENTER
 62
     2
100
AcDbLine
 10
1415.00000000003
 20
1238.500000000002
 30
0.0
 11
1415.00000000003
 21
1196.700000000003
 31
0.0
  0
LINE
  5
518
330
1F
100
AcDbEntity
  8
LAY-10
  6
CENTER
 62
     2
100
AcDbLine
 10
1719.999999999999
 20
2080.5
 30
0.0
 11
1761.799999999998
 21
2080.5
 31
0.0
  0
LINE
  5
519
330
1F
100
AcDbEntity
  8
LAY-10
  6
CENTER
 62
     2
100
AcDbLine
 10
1719.999999999999
 20
1580.5
 30
0.0
 11
1761.799999999998
 21
1580.500000000001
 31
0.0
  0
LINE
  5
51A
330
1F
100
AcDbEntity
  8
LAY-10
  6
CENTER
 62
     2
100
AcDbLine
 10
610.0000000000605
 20
2080.5
 30
0.0
 11
568.2000000000612
 21
2080.5
 31
0.0
  0
LINE
  5
51B
330
1F
100
AcDbEntity
  8
LAY-10
  6
CENTER
 62
     2
100
AcDbLine
 10
610.0000000000609
 20
1580.5
 30
0.0
 11
568.2000000000617
 21
1580.5
 31
0.0
  0
LINE
  5
51C
330
1F
100
AcDbEntity
  8
LAY-10
  6
CENTER
 62
     2
100
AcDbLine
 10
805.0000000000603
 20
2400.1
 30
0.0
 11
805.0000000000603
 21
2361.2
 31
0.0
  0
LINE
  5
51D
330
1F
100
AcDbEntity
  8
LAY-10
  6
CENTER
 62
     2
100
AcDbLine
 10
786.47500000006
 20
2381.499999999998
 30
0.0
 11
823.97500000006
 21
2381.499999999998
 31
0.0
  0
LINE
  5
51E
330
1F
100
AcDbEntity
  8
LAY-10
  6
CENTER
 62
     2
100
AcDbLine
 10
1146.47500000007
 20
2381.499999999998
 30
0.0
 11
1183.97500000007
 21
2381.499999999998
 31
0.0
  0
LINE
  5
51F
330
1F
100
AcDbEntity
  8
LAY-10
  6
CENTER
 62
     2
100
AcDbLine
 10
805.0000000000001
 20
1260.9
 30
0.0
 11
805.0000000000001
 21
1299.8
 31
0.0
  0
LINE
  5
520
330
1F
100
AcDbEntity
  8
LAY-10
  6
CENTER
 62
     2
100
AcDbLine
 10
823.5250000000002
 20
1279.500000000002
 30
0.0
 11
786.0250000000002
 21
1279.500000000002
 31
0.0
  0
LINE
  5
521
330
1F
100
AcDbEntity
  8
LAY-10
  6
CENTER
 62
     2
100
AcDbLine
 10
2121.003030380242
 20
1830.500000000019
 30
0.0
 11
2289.803030380242
 21
1830.500000000019
 31
0.0
  0
LINE
  5
522
330
1F
100
AcDbEntity
  8
LAY-10
  6
CENTER
 62
     2
100
AcDbLine
 10
2221.801515190075
 20
2416.800000000013
 30
0.0
 11
2221.801515190075
 21
2368.300000000017
 31
0.0
  0
LINE
  5
523
330
1F
100
AcDbEntity
  8
LAY-10
  6
CENTER
 62
     2
100
AcDbLine
 10
2203.003030380237
 20
2355.500000000018
 30
0.0
 11
2254.20303038024
 21
2355.500000000018
 31
0.0
  0
LINE
  5
524
330
1F
100
AcDbEntity
  8
LAY-10
  6
CENTER
 62
     2
100
AcDbLine
 10
2203.003030380237
 20
1305.500000000017
 30
0.0
 11
2254.20303038024
 21
1305.500000000017
 31
0.0
  0
LINE
  5
525
330
1F
100
AcDbEntity
  8
LAY-10
  6
CENTER
 62
     2
100
AcDbLine
 10
2221.801515190075
 20
1244.200000000017
 30
0.0
 11
2221.801515190075
 21
1292.700000000018
 31
0.0
  0
LINE
  5
526
330
1F
100
AcDbEntity
  8
LAY-10
  6
CENTER
 62
     2
100
AcDbLine
 10
1165.000000000041
 20
854.5984848098641
 30
0.0
 11
1165.000000000041
 21
685.5984848098649
 31
0.0
  0
LINE
  5
527
330
1F
100
AcDbEntity
  8
LAY-10
  6
CENTER
 62
     2
100
AcDbLine
 10
1690.000000000072
 20
768.2699999999575
 30
0.0
 11
1690.000000000072
 21
716.879999999957
 31
0.0
  0
LINE
  5
528
330
1F
100
AcDbEntity
  8
LAY-10
  6
CENTER
 62
     2
100
AcDbLine
 10
640.0000000000855
 20
772.598484809794
 30
0.0
 11
640.0000000000855
 21
721.398484809794
 31
0.0
  0
DIMENSION
  5
52A
330
1F
100
AcDbEntity
  8
LAY-20
  6
CONTINUOUS
 62
     4
100
AcDbDimension
  2
*D27
 10
1981.1015151901
 20
1238.500000000001
 30
0.0
 11
1956.1015151901
 21
1830.500000000001
 31
0.0
 70
   160
  3
ISO-25
100
AcDbAlignedDimension
 13
2151.1015151901
 23
2422.500000000001
 33
0.0
 14
2151.1015151901
 24
1238.500000000001
 34
0.0
 50
90.0
100
AcDbRotatedDimension
1001
ACAD
1000
DSTYLE
1002
{
1070
   270
1070
     2
1070
     6
1000
EX_BNORM
1070
     7
1000
EX_BNORM
1070
    41
1040
25.0
1070
    42
1040
15.0
1070
    44
1040
15.0
1070
    73
1070
     0
1070
    74
1070
     0
1070
    75
1070
     0
1070
    76
1070
     0
1070
    77
1070
     1
1070
    78
1070
     8
1070
   140
1040
31.181104
1070
   147
1040
0.0
1070
   173
1070
     1
1070
   176
1070
     4
1070
   177
1070
     4
1070
   178
1070
     7
1070
   271
1070
     1
1070
   277
1070
     2
1070
   279
1070
     2
1070
   280
1070
     0
1070
   287
1070
     5
1070
   340
1005
529
1002
}
  0
DIMENSION
  5
538
330
1F
100
AcDbEntity
  8
LAY-20
  6
CONTINUOUS
 62
     4
100
AcDbDimension
  2
*D28
 10
2051.1015151901
 20
2406.500000000019
 30
0.0
 11
2026.1015151901
 21
1830.500000000018
 31
0.0
 70
   160
  3
ISO-25
100
AcDbAlignedDimension
 13
2151.101515190078
 23
1254.500000000016
 33
0.0
 14
2151.101515190078
 24
2406.500000000019
 34
0.0
 50
90.0
100
AcDbRotatedDimension
1001
ACAD
1000
DSTYLE
1002
{
1070
   270
1070
     2
1070
     6
1000
EX_BNORM
1070
     7
1000
EX_BNORM
1070
    41
1040
25.0
1070
    42
1040
15.0
1070
    44
1040
15.0
1070
    73
1070
     0
1070
    74
1070
     0
1070
    75
1070
     0
1070
    76
1070
     0
1070
    77
1070
     1
1070
    78
1070
     8
1070
   140
1040
31.181104
1070
   147
1040
0.0
1070
   173
1070
     1
1070
   176
1070
     4
1070
   177
1070
     4
1070
   178
1070
     7
1070
   271
1070
     1
1070
   277
1070
     2
1070
   279
1070
     2
1070
   280
1070
     0
1070
   287
1070
     5
1070
   340
1005
529
1002
}
  0
DIMENSION
  5
545
330
1F
100
AcDbEntity
  8
LAY-20
  6
CONTINUOUS
 62
     4
100
AcDbDimension
  2
*D29
 10
2371.1015151901
 20
1330.5
 30
0.0
 11
2346.1015151901
 21
1830.499999999951
 31
0.0
 70
   160
  3
ISO-25
100
AcDbAlignedDimension
 13
2271.1015151901
 23
2330.499999999901
 33
0.0
 14
2271.1015151901
 24
1330.5
 34
0.0
 50
90.0
100
AcDbRotatedDimension
1001
ACAD
1000
DSTYLE
1002
{
1070
   270
1070
     2
1070
     6
1000
EX_BNORM
1070
     7
1000
EX_BNORM
1070
    41
1040
25.0
1070
    42
1040
15.0
1070
    44
1040
15.0
1070
    73
1070
     0
1070
    74
1070
     0
1070
    75
1070
     0
1070
    76
1070
     0
1070
    77
1070
     1
1070
    78
1070
     8
1070
   140
1040
31.181104
1070
   147
1040
0.0
1070
   173
1070
     1
1070
   176
1070
     4
1070
   177
1070
     4
1070
   178
1070
     7
1070
   271
1070
     1
1070
   277
1070
     2
1070
   279
1070
     2
1070
   280
1070
     0
1070
   287
1070
     5
1070
   340
1005
529
1002
}
  0
DIMENSION
  5
552
330
1F
100
AcDbEntity
  8
LAY-20
  6
CONTINUOUS
 62
     4
100
AcDbDimension
  2
*D30
 10
2441.101515190101
 20
1247.3
 30
0.0
 11
2416.101515190101
 21
1830.5
 31
0.0
 70
   160
  3
ISO-25
100
AcDbAlignedDimension
 13
2194.8015151901
 23
2413.7
 33
0.0
 14
2194.8015151901
 24
1247.3
 34
0.0
 50
90.0
100
AcDbRotatedDimension
1001
ACAD
1000
DSTYLE
1002
{
1070
   270
1070
     2
1070
     6
1000
EX_BNORM
1070
     7
1000
EX_BNORM
1070
    41
1040
25.0
1070
    42
1040
15.0
1070
    44
1040
15.0
1070
    73
1070
     0
1070
    74
1070
     0
1070
    75
1070
     0
1070
    76
1070
     0
1070
    77
1070
     1
1070
    78
1070
     0
1070
   140
1040
31.181104
1070
   147
1040
0.0
1070
   173
1070
     1
1070
   176
1070
     4
1070
   177
1070
     4
1070
   178
1070
     7
1070
   271
1070
     0
1070
   277
1070
     2
1070
   279
1070
     2
1070
   280
1070
     0
1070
   287
1070
     5
1070
   340
1005
529
1002
}
  0
DIMENSION
  5
55F
330
1F
100
AcDbEntity
  8
LAY-20
  6
CONTINUOUS
 62
     4
100
AcDbDimension
  2
*D31
 10
1720.0000000001
 20
994.5000000000002
 30
0.0
 11
1165.000000000095
 21
1019.5
 31
0.0
 70
   160
  3
ISO-25
100
AcDbAlignedDimension
 13
610.0000000000902
 23
824.499999999907
 33
0.0
 14
1720.0000000001
 24
824.499999999907
 34
0.0
100
AcDbRotatedDimension
1001
ACAD
1000
DSTYLE
1002
{
1070
   270
1070
     2
1070
     6
1000
EX_BNORM
1070
     7
1000
EX_BNORM
1070
    41
1040
25.0
1070
    42
1040
15.0
1070
    44
1040
15.0
1070
    73
1070
     0
1070
    74
1070
     0
1070
    75
1070
     0
1070
    76
1070
     0
1070
    77
1070
     1
1070
    78
1070
     8
1070
   140
1040
31.181104
1070
   147
1040
0.0
1070
   173
1070
     1
1070
   176
1070
     4
1070
   177
1070
     4
1070
   178
1070
     7
1070
   271
1070
     1
1070
   277
1070
     2
1070
   279
1070
     2
1070
   280
1070
     0
1070
   287
1070
     5
1070
   340
1005
529
1002
}
  0
DIMENSION
  5
56C
330
1F
100
AcDbEntity
  8
LAY-20
  6
CONTINUOUS
 62
     4
100
AcDbDimension
  2
*D32
 10
626.0000000000756
 20
924.4999999999602
 30
0.0
 11
805.0000000000105
 21
949.4999999999601
 31
0.0
 70
   160
  3
ISO-25
100
AcDbAlignedDimension
 13
983.999999999945
 23
824.4999999999561
 33
0.0
 14
626.0000000000756
 24
824.4999999999561
 34
0.0
100
AcDbRotatedDimension
1001
ACAD
1000
DSTYLE
1002
{
1070
   270
1070
     2
1070
     6
1000
EX_BNORM
1070
     7
1000
EX_BNORM
1070
    41
1040
25.0
1070
    42
1040
15.0
1070
    44
1040
15.0
1070
    73
1070
     0
1070
    74
1070
     0
1070
    75
1070
     0
1070
    76
1070
     0
1070
    77
1070
     1
1070
    78
1070
     8
1070
   140
1040
31.181104
1070
   147
1040
0.0
1070
   173
1070
     1
1070
   176
1070
     4
1070
   177
1070
     4
1070
   178
1070
     7
1070
   271
1070
     1
1070
   277
1070
     2
1070
   279
1070
     2
1070
   280
1070
     0
1070
   287
1070
     5
1070
   340
1005
529
1002
}
  0
DIMENSION
  5
579
330
1F
100
AcDbEntity
  8
LAY-20
  6
CONTINUOUS
 62
     4
100
AcDbDimension
  2
*D33
 10
1665.0000000001
 20
604.4999999999602
 30
0.0
 11
1165.0000000001
 21
629.4999999999602
 31
0.0
 70
   160
  3
ISO-25
100
AcDbAlignedDimension
 13
665.0000000001
 23
704.499999999907
 33
0.0
 14
1665.0000000001
 24
704.499999999907
 34
0.0
100
AcDbRotatedDimension
1001
ACAD
1000
DSTYLE
1002
{
1070
   270
1070
     2
1070
     6
1000
EX_BNORM
1070
     7
1000
EX_BNORM
1070
    41
1040
25.0
1070
    42
1040
15.0
1070
    44
1040
15.0
1070
    73
1070
     0
1070
    74
1070
     0
1070
    75
1070
     0
1070
    76
1070
     0
1070
    77
1070
     1
1070
    78
1070
     8
1070
   140
1040
31.181104
1070
   147
1040
0.0
1070
   173
1070
     1
1070
   176
1070
     4
1070
   177
1070
     4
1070
   178
1070
     7
1070
   271
1070
     1
1070
   277
1070
     2
1070
   279
1070
     2
1070
   280
1070
     0
1070
   287
1070
     5
1070
   340
1005
529
1002
}
  0
DIMENSION
  5
586
330
1F
100
AcDbEntity
  8
LAY-20
  6
CONTINUOUS
 62
     4
100
AcDbDimension
  2
*D34
 10
1847.5
 20
734.499999999907
 30
0.0
 11
1822.5
 21
779.499999999907
 31
0.0
 70
   160
  3
ISO-25
100
AcDbAlignedDimension
 13
1720.0000000001
 23
824.499999999907
 33
0.0
 14
1708.2000000001
 24
734.499999999907
 34
0.0
 50
90.0
100
AcDbRotatedDimension
1001
ACAD
1000
DSTYLE
1002
{
1070
   270
1070
     2
1070
     6
1000
EX_BNORM
1070
     7
1000
EX_BNORM
1070
    41
1040
25.0
1070
    42
1040
15.0
1070
    44
1040
15.0
1070
    73
1070
     0
1070
    74
1070
     0
1070
    75
1070
     0
1070
    76
1070
     0
1070
    77
1070
     1
1070
    78
1070
     8
1070
   140
1040
31.181104
1070
   147
1040
0.0
1070
   173
1070
     1
1070
   176
1070
     4
1070
   177
1070
     4
1070
   178
1070
     7
1070
   271
1070
     1
1070
   277
1070
     2
1070
   279
1070
     2
1070
   280
1070
     0
1070
   287
1070
     5
1070
   340
1005
529
1002
}
  0
DIMENSION
  5
593
330
1F
100
AcDbEntity
  8
LAY-20
  6
CONTINUOUS
 62
     4
100
AcDbDimension
  2
*D35
 10
1711.2000000001
 20
534.4999999999598
 30
0.0
 11
1165.00000000009
 21
559.4999999999598
 31
0.0
 70
   160
  3
ISO-25
100
AcDbAlignedDimension
 13
618.8000000000799
 23
737.4999999999602
 33
0.0
 14
1711.2000000001
 24
737.4999999999602
 34
0.0
100
AcDbRotatedDimension
1001
ACAD
1000
DSTYLE
1002
{
1070
   270
1070
     2
1070
     6
1000
EX_BNORM
1070
     7
1000
EX_BNORM
1070
    41
1040
25.0
1070
    42
1040
15.0
1070
    44
1040
15.0
1070
    73
1070
     0
1070
    74
1070
     0
1070
    75
1070
     0
1070
    76
1070
     0
1070
    77
1070
     1
1070
    78
1070
     0
1070
   140
1040
31.181104
1070
   147
1040
0.0
1070
   173
1070
     1
1070
   176
1070
     4
1070
   177
1070
     4
1070
   178
1070
     7
1070
   271
1070
     0
1070
   277
1070
     2
1070
   279
1070
     2
1070
   280
1070
     0
1070
   287
1070
     5
1070
   340
1005
529
1002
}
  0
DIMENSION
  5
5A0
330
1F
100
AcDbEntity
  8
LAY-20
  6
CONTINUOUS
 62
     4
100
AcDbDimension
  2
*D36
 10
1272.0
 20
824.4999999998797
 30
0.0
 11
1247.0
 21
889.499999999879
 31
0.0
 70
   160
  3
ISO-25
100
AcDbAlignedDimension
 13
1272.0
 23
819.9999999998797
 33
0.0
 14
1272.0
 24
824.4999999998797
 34
0.0
 50
90.0
100
AcDbRotatedDimension
1001
ACAD
1000
DSTYLE
1002
{
1070
   270
1070
     2
1070
     6
1000
EX_BNORM
1070
     7
1000
EX_BNORM
1070
    41
1040
25.0
1070
    42
1040
0.0
1070
    44
1040
0.0
1070
    73
1070
     0
1070
    74
1070
     0
1070
    75
1070
     1
1070
    76
1070
     1
1070
    77
1070
     1
1070
    78
1070
     8
1070
   140
1040
31.181104
1070
   147
1040
0.0
1070
   173
1070
     1
1070
   176
1070
     4
1070
   177
1070
     4
1070
   178
1070
     7
1070
   271
1070
     1
1070
   277
1070
     2
1070
   279
1070
     2
1070
   280
1070
     2
1070
   287
1070
     5
1070
   340
1005
529
1002
}
  0
LINE
  5
5AD
330
1F
100
AcDbEntity
  8
LAY-255
  6
CONTINUOUS
 62
     7
100
AcDbLine
 10
3850.0
 20
219.9999999999999
 30
0.0
 11
2850.0
 21
219.9999999999999
 31
0.0
  0
LINE
  5
5AE
330
1F
100
AcDbEntity
  8
LAY-255
  6
CONTINUOUS
 62
     7
100
AcDbLine
 10
2888.0
 20
160.0
 30
0.0
 11
2968.0
 21
210.0
 31
0.0
  0
LINE
  5
5AF
330
1F
100
AcDbEntity
  8
LAY-255
  6
CONTINUOUS
 62
     7
100
AcDbLine
 10
2968.0
 20
210.0
 30
0.0
 11
3048.0
 21
160.0
 31
0.0
  0
LINE
  5
5B0
330
1F
100
AcDbEntity
  8
LAY-255
  6
CONTINUOUS
 62
     7
100
AcDbLine
 10
3048.0
 20
160.0
 30
0.0
 11
2968.0
 21
110.0
 31
0.0
  0
LINE
  5
5B1
330
1F
100
AcDbEntity
  8
LAY-255
  6
CONTINUOUS
 62
     7
100
AcDbLine
 10
2968.0
 20
110.0
 30
0.0
 11
2888.0
 21
160.0
 31
0.0
  0
LINE
  5
5B2
330
1F
100
AcDbEntity
  8
LAY-255
  6
CONTINUOUS
 62
     7
100
AcDbLine
 10
50.0
 20
100.0
 30
0.0
 11
3850.0
 21
100.0
 31
0.0
  0
LINE
  5
5B3
330
1F
100
AcDbEntity
  8
LAY-255
  6
CONTINUOUS
 62
     7
100
AcDbLine
 10
50.0
 20
2800.0
 30
0.0
 11
3850.0
 21
2800.0
 31
0.0
  0
LINE
  5
5B4
330
1F
100
AcDbEntity
  8
LAY-255
  6
CONTINUOUS
 62
     7
100
AcDbLine
 10
50.0
 20
100.0
 30
0.0
 11
50.0
 21
2800.0
 31
0.0
  0
LINE
  5
5B5
330
1F
100
AcDbEntity
  8
LAY-255
  6
CONTINUOUS
 62
     7
100
AcDbLine
 10
3850.0
 20
100.0
 30
0.0
 11
3850.0
 21
2800.0
 31
0.0
  0
LINE
  5
5B6
330
1F
100
AcDbEntity
  8
LAY-255
  6
CONTINUOUS
 62
     4
100
AcDbLine
 10
2850.0
 20
279.9999999999999
 30
0.0
 11
3850.0
 21
279.9999999999999
 31
0.0
  0
LINE
  5
5B7
330
1F
100
AcDbEntity
  8
LAY-255
  6
CONTINUOUS
 62
     7
100
AcDbLine
 10
2850.0
 20
100.0
 30
0.0
 11
2850.0
 21
670.0
 31
0.0
  0
POINT
  5
5B8
330
1F
100
AcDbEntity
  8
LAY-255
  6
CONTINUOUS
 62
     7
100
AcDbPoint
 10
2890.0
 20
399.9999999999999
 30
0.0
  0
LINE
  5
5B9
330
1F
100
AcDbEntity
  8
LAY-255
  6
CONTINUOUS
 62
     4
100
AcDbLine
 10
3350.0
 20
279.9999999999999
 30
0.0
 11
3350.0
 21
220.0
 31
0.0
  0
LINE
  5
5BA
330
1F
100
AcDbEntity
  8
LAY-255
  6
CONTINUOUS
 62
     7
100
AcDbLine
 10
3850.0
 20
670.0
 30
0.0
 11
2850.0
 21
670.0
 31
0.0
  0
LINE
  5
5BB
330
1F
100
AcDbEntity
  8
LAY-255
  6
CONTINUOUS
 62
     4
100
AcDbLine
 10
3830.0
 20
549.9999999999999
 30
0.0
 11
2870.0
 21
549.9999999999999
 31
0.0
  0
LINE
  5
5BC
330
1F
100
AcDbEntity
  8
LAY-255
  6
CONTINUOUS
 62
     4
100
AcDbLine
 10
3830.0
 20
610.0
 30
0.0
 11
2870.0
 21
610.0
 31
0.0
  0
POINT
  5
5BD
330
1F
100
AcDbEntity
  8
LAY-255
  6
CONTINUOUS
 62
     7
100
AcDbPoint
 10
2890.0
 20
499.9999999999999
 30
0.0
  0
POINT
  5
5BE
330
1F
100
AcDbEntity
  8
LAY-255
  6
CONTINUOUS
 62
     7
100
AcDbPoint
 10
3000.0
 20
559.9999999999999
 30
0.0
  0
POINT
  5
5BF
330
1F
100
AcDbEntity
  8
LAY-255
  6
CONTINUOUS
 62
     7
100
AcDbPoint
 10
3000.0
 20
620.0
 30
0.0
  0
POINT
  5
5C0
330
1F
100
AcDbEntity
  8
LAY-255
  6
CONTINUOUS
 62
     7
100
AcDbPoint
 10
2890.0
 20
349.9999999999999
 30
0.0
  0
POINT
  5
5C1
330
1F
100
AcDbEntity
  8
LAY-255
  6
CONTINUOUS
 62
     7
100
AcDbPoint
 10
2890.0
 20
449.9999999999999
 30
0.0
  0
POINT
  5
5C2
330
1F
100
AcDbEntity
  8
LAY-255
  6
CONTINUOUS
 62
     7
100
AcDbPoint
 10
2890.0
 20
299.9999999999998
 30
0.0
  0
TEXT
  5
5C3
330
1F
100
AcDbEntity
  8
LAY-255
  6
CONTINUOUS
 62
     7
100
AcDbText
 10
3081.3837890625
 20
155.4375
 30
0.0
 40
51.5625
  1
福西鋳物株式会社
 41
1.342691999659091
  7
EXCADSTD
100
AcDbText
  0
TEXT
  5
5C4
330
1F
100
AcDbEntity
  8
LAY-255
  6
CONTINUOUS
 62
     7
100
AcDbText
 10
3085.09375
 20
119.8125
 30
0.0
 40
17.1875
  1
ＦＵＫＵＮＩＳＨＩ
 41
1.204799226045263
  7
EXCADSTD
100
AcDbText
  0
TEXT
  5
5C5
330
1F
100
AcDbEntity
  8
LAY-255
  6
CONTINUOUS
 62
     7
100
AcDbText
 10
3327.191964285714
 20
119.8125
 30
0.0
 40
17.1875
  1
ＦＯＵＮＤＲＹ
 41
1.243252752978497
  7
EXCADSTD
100
AcDbText
  0
TEXT
  5
5C6
330
1F
100
AcDbEntity
  8
LAY-255
  6
CONTINUOUS
 62
     7
100
AcDbText
 10
3519.945914381009
 20
119.8125
 30
0.0
 40
17.1875
  1
ＣＯ.,ＬＴＤ.
 41
1.243831036226633
  7
EXCADSTD
100
AcDbText
  0
TEXT
  5
5C7
330
1F
100
AcDbEntity
  8
LAY-255
  6
CONTINUOUS
 62
     7
100
AcDbText
 10
2940.34375
 20
137.1875
 30
0.0
 40
51.5625
  1
S
 41
0.7582677563636363
  7
EXCADSTD
100
AcDbText
  0
TEXT
  5
5C8
330
1F
100
AcDbEntity
  8
LAY-255
  6
CONTINUOUS
 62
     7
100
AcDbText
 10
2971.046875
 20
137.4941037736
 30
0.0
 40
51.5625
  1
F
 41
0.7440945272727272
  7
EXCADSTD
100
AcDbText
  0
TEXT
  5
5C9
330
1F
100
AcDbEntity
  8
LAY-255
  6
CONTINUOUS
 62
     7
100
AcDbText
 10
3371.0546875
 20
244.2187499999999
 30
0.0
 40
25.78125
  1
縮尺
 41
1.080708718181818
  7
EXCADSTD
100
AcDbText
  0
TEXT
  5
5CA
330
1F
100
AcDbEntity
  8
LAY-255
  6
CONTINUOUS
 62
     7
100
AcDbText
 10
2872.65625
 20
565.6249999999999
 30
0.0
 40
34.375
  1
型式
 41
1.056348480681818
  7
EXCADSTD
100
AcDbText
  0
TEXT
  5
5CB
330
1F
100
AcDbEntity
  8
LAY-255
  6
CONTINUOUS
 62
     7
100
AcDbText
 10
2874.21875
 20
625.625
 30
0.0
 40
34.375
  1
品名
 41
0.9788386340909091
  7
EXCADSTD
100
AcDbText
  0
TEXT
  5
5CC
330
1F
100
AcDbEntity
  8
LAY-255
  6
CONTINUOUS
 62
     7
100
AcDbText
 10
2871.5234375
 20
244.2187499999999
 30
0.0
 40
25.78125
  1
作成日
 41
1.000629973818182
  7
EXCADSTD
100
AcDbText
  0
TEXT
  5
5CD
330
1F
100
AcDbEntity
  8
LAY-255
  6
CONTINUOUS
 62
     7
100
AcDbText
 10
2891.40625
 20
505.6249999999999
 30
0.0
 40
34.375
  1
材質：スチール
 41
1.029301719225037
  7
EXCADSTD
100
AcDbText
  0
TEXT
  5
5CE
330
1F
100
AcDbEntity
  8
LAY-255
  6
CONTINUOUS
 62
     7
100
AcDbText
 10
2892.03125
 20
405.6249999999999
 30
0.0
 40
34.375
  1
適用荷重：歩行用
 41
1.015410627012987
  7
EXCADSTD
100
AcDbText
  0
TEXT
  5
5CF
330
1F
100
AcDbEntity
  8
LAY-255
  6
CONTINUOUS
 62
     7
100
AcDbText
 10
2893.75
 20
455.6249999999999
 30
0.0
 40
34.375
  1
受枠目地：ステンレス鋼
 41
1.012216953889409
  7
EXCADSTD
100
AcDbText
  0
TEXT
  5
5D0
330
1F
100
AcDbEntity
  8
LAY-255
  6
CONTINUOUS
 62
     7
100
AcDbText
 10
3001.5625
 20
625.625
 30
0.0
 40
34.375
  1
縞鋼板製マシンハッチ
 41
1.016284949586777
  7
EXCADSTD
100
AcDbText
  0
TEXT
  5
5D1
330
1F
100
AcDbEntity
  8
LAY-255
  6
CONTINUOUS
 62
     7
100
AcDbText
 10
3007.5
 20
565.6249999999999
 30
0.0
 40
34.375
  1
ＳＦ－１００ＣＭＰ－１型
 41
1.00449418439108
  7
EXCADSTD
100
AcDbText
  0
TEXT
  5
5D2
330
1F
100
AcDbEntity
  8
LAY-255
  6
CONTINUOUS
 62
     7
100
AcDbText
 10
3008.90625
 20
235.6249999999999
 30
0.0
 40
34.375
  1
０９／０３／０６
 41
0.9779528072727273
  7
EXCADSTD
100
AcDbText
  0
TEXT
  5
5D3
330
1F
100
AcDbEntity
  8
LAY-255
  6
CONTINUOUS
 62
     7
100
AcDbText
 10
3482.8125
 20
235.6249999999999
 30
0.0
 40
34.375
  1
１：１０
 41
0.9243863385026738
  7
EXCADSTD
100
AcDbText
  0
ENDSEC
  0
SECTION
  2
OBJECTS
  0
DICTIONARY
  5
C
330
0
100
AcDbDictionary
  3
ACAD_GROUP
350
D
  3
ACAD_LAYOUT
350
1A
  3
ACAD_MATERIAL
350
43
  3
ACAD_MLEADERSTYLE
350
6B
  3
ACAD_MLINESTYLE
350
17
  3
ACAD_PLOTSETTINGS
350
19
  3
ACAD_SCALELIST
350
47
  3
ACAD_VISUALSTYLE
350
2A
  3
ACDBHEADERROUNDTRIPXREC
350
5D4
  3
ACDBVARIABLEDICTIONARY
350
5F5
  0
DICTIONARY
  5
600
330
8
100
AcDbDictionary
280
     1
  3
ACAD_XREC_ROUNDTRIP
360
601
  0
DICTIONARY
  5
D
102
{ACAD_REACTORS
330
C
102
}
330
C
100
AcDbDictionary
  0
DICTIONARY
  5
1A
102
{ACAD_REACTORS
330
C
102
}
330
C
100
AcDbDictionary
  0
DICTIONARY
  5
43
102
{ACAD_REACTORS
330
C
102
}
330
C
100
AcDbDictionary
  3
BYBLOCK
350
45
  3
BYLAYER
350
44
  3
GLOBAL
350
46
  0
DICTIONARY
  5
6B
102
{ACAD_REACTORS
330
C
102
}
330
C
100
AcDbDictionary
  3
STANDARD
350
6C
  0
DICTIONARY
  5
17
102
{ACAD_REACTORS
330
C
102
}
330
C
100
AcDbDictionary
  3
STANDARD
350
18
  0
DICTIONARY
  5
19
102
{ACAD_REACTORS
330
C
102
}
330
C
100
AcDbDictionary
  0
DICTIONARY
  5
47
102
{ACAD_REACTORS
330
C
102
}
330
C
100
AcDbDictionary
  3
A0
350
48
  3
A1
350
49
  3
A2
350
4A
  3
A3
350
4B
  3
A4
350
4C
  3
A5
350
4D
  3
A6
350
4E
  3
A7
350
4F
  3
A8
350
50
  3
A9
350
51
  3
B0
350
52
  3
B1
350
53
  3
B2
350
54
  3
B3
350
55
  3
B4
350
56
  3
B5
350
57
  3
B6
350
58
  3
B7
350
59
  3
B8
350
5A
  3
B9
350
5B
  3
C0
350
5C
  3
C1
350
5D
  3
C2
350
5E
  3
C3
350
5F
  3
C4
350
60
  3
C5
350
61
  3
C6
350
62
  3
C7
350
63
  3
C8
350
64
  3
C9
350
65
  3
D0
350
66
  3
D1
350
67
  3
D2
350
68
  0
DICTIONARY
  5
2A
102
{ACAD_REACTORS
330
C
102
}
330
C
100
AcDbDictionary
  3
2DWIREFRAME
350
2F
  3
BASIC
350
32
  3
BRIGHTEN
350
36
  3
COLORCHANGE
350
3A
  3
CONCEPTUAL
350
34
  3
DIM
350
35
  3
EDGECOLOROFF
350
3D
  3
FACEPATTERN
350
39
  3
FLAT
350
2B
  3
FLATWITHEDGES
350
2C
  3
GOURAUD
350
2D
  3
GOURAUDWITHEDGES
350
2E
  3
HIDDEN
350
31
  3
JITTEROFF
350
3B
  3
LINEPATTERN
350
38
  3
OVERHANGOFF
350
3C
  3
REALISTIC
350
33
  3
SHADED
350
42
  3
SHADED_WITH_EDGES
350
41
  3
SHADES_OF_GRAY
350
3E
  3
SKETCHY
350
3F
  3
THICKEN
350
37
  3
WIREFRAME
350
30
  3
X-RAY
350
40
  0
DICTIONARY
  5
5D4
102
{ACAD_REACTORS
330
C
102
}
330
C
100
AcDbDictionary
  3
CEPSNID
350
5DE
  3
CEPSNTYPE
350
5DD
  3
DIMSTYLEDATA
350
5F4
  3
FINGERPRINTGUID
350
5DF
  3
HYPERLINKBASE
350
5D7
  3
INSUNITS
350
5DC
  3
LAYOUTDICT
350
5D9
  3
LWETCUNION
350
5DB
  3
PLOTSETDICT
350
5DA
  3
PSVPSCALE
350
5E1
  3
PUCSBASE
350
5E4
  3
PUCSORGBACK
350
5EA
  3
PUCSORGBOTTOM
350
5E6
  3
PUCSORGFRONT
350
5E9
  3
PUCSORGLEFT
350
5E7
  3
PUCSORGRIGHT
350
5E8
  3
PUCSORGTOP
350
5E5
  3
PUCSORTHOREF
350
5E2
  3
PUCSORTHOVIEW
350
5E3
  3
STYLESHEET
350
5D8
  3
TSTACKALIGN
350
5D5
  3
TSTACKSIZE
350
5D6
  3
UCSBASE
350
5ED
  3
UCSORGBACK
350
5F3
  3
UCSORGBOTTOM
350
5EF
  3
UCSORGFRONT
350
5F2
  3
UCSORGLEFT
350
5F0
  3
UCSORGRIGHT
350
5F1
  3
UCSORGTOP
350
5EE
  3
UCSORTHOREF
350
5EB
  3
UCSORTHOVIEW
350
5EC
  3
VERSIONGUID
350
5E0
  0
DICTIONARY
  5
5F5
102
{ACAD_REACTORS
330
C
102
}
330
C
100
AcDbDictionary
  3
CANNOSCALE
350
602
  3
CENTEREXE
350
5FC
  3
CENTERLTYPEFILE
350
5FD
  3
CMLEADERSTYLE
350
5F7
  3
CTABLESTYLE
350
5F6
  3
DIMASSOC
350
5FE
  3
HIDETEXT
350
5FF
  3
MSLTSCALE
350
603
  3
PSOLHEIGHT
350
5F9
  3
PSOLWIDTH
350
5F8
  0
XRECORD
  5
601
102
{ACAD_REACTORS
330
600
102
}
330
600
100
AcDbXrecord
102
VTR_0.000_0.000_1.000_1.000_VISUALSTYLE
340
2F
102
VTR_0.000_0.000_1.000_1.000_GRIDDISPLAY
 70
     3
102
VTR_0.000_0.000_1.000_1.000_GRIDMAJOR
 70
     5
102
VTR_0.000_0.000_1.000_1.000_DEFAULTLIGHTING
280
     1
102
VTR_0.000_0.000_1.000_1.000_DEFAULTLIGHTINGTYPE
 70
     1
102
VTR_0.000_0.000_1.000_1.000_BRIGHTNESS
141
0.0
102
VTR_0.000_0.000_1.000_1.000_CONTRAST
142
0.0
  0
MATERIAL
  5
45
102
{ACAD_REACTORS
330
43
102
}
102
{ACAD_XDICTIONARY
360
606
102
}
330
43
100
AcDbMaterial
  1
BYBLOCK
  0
MATERIAL
  5
44
102
{ACAD_REACTORS
330
43
102
}
102
{ACAD_XDICTIONARY
360
604
102
}
330
43
100
AcDbMaterial
  1
BYLAYER
  0
MATERIAL
  5
46
102
{ACAD_REACTORS
330
43
102
}
102
{ACAD_XDICTIONARY
360
608
102
}
330
43
100
AcDbMaterial
  1
GLOBAL
  0
ACAD_PROXY_OBJECT
  5
6C
102
{ACAD_REACTORS
330
6B
102
}
330
6B
100
AcDbProxyObject
 90
      499
 91
      505
 93
      610
310
40901902A4063FBFFFFFE0000000000000020400000000000020404214DD185B99185C990000000000000104090141901A00000000000004100000000000000041025764000000000000039000
340
14
340
0
340
11
340
0
 94
        0
1001
ACAD_MLEADERVER
1070
     2
  0
MLINESTYLE
  5
18
102
{ACAD_REACTORS
330
17
102
}
330
17
100
AcDbMlineStyle
  2
Standard
 70
     0
  3

 62
   256
 51
90.0
 52
90.0
 71
     2
 49
0.5
 62
   256
  6
BYLAYER
 49
-0.5
 62
   256
  6
BYLAYER
  0
ACAD_PROXY_OBJECT
  5
48
102
{ACAD_REACTORS
330
47
102
}
330
47
100
AcDbProxyObject
 90
      499
 91
      503
 93
       41
310
903313A31580
  0
ACAD_PROXY_OBJECT
  5
49
102
{ACAD_REACTORS
330
47
102
}
330
47
100
AcDbProxyObject
 90
      499
 91
      503
 93
      105
310
903313A324000000000000004000
  0
ACAD_PROXY_OBJECT
  5
4A
102
{ACAD_REACTORS
330
47
102
}
330
47
100
AcDbProxyObject
 90
      499
 91
      503
 93
      105
310
903313A344000000000000104000
  0
ACAD_PROXY_OBJECT
  5
4B
102
{ACAD_REACTORS
330
47
102
}
330
47
100
AcDbProxyObject
 90
      499
 91
      503
 93
      105
310
903313A354000000000000144000
  0
ACAD_PROXY_OBJECT
  5
4C
102
{ACAD_REACTORS
330
47
102
}
330
47
100
AcDbProxyObject
 90
      499
 91
      503
 93
      105
310
903313A384000000000000204000
  0
ACAD_PROXY_OBJECT
  5
4D
102
{ACAD_REACTORS
330
47
102
}
330
47
100
AcDbProxyObject
 90
      499
 91
      503
 93
      113
310
904313A31304000000000000244000
  0
ACAD_PROXY_OBJECT
  5
4E
102
{ACAD_REACTORS
330
47
102
}
330
47
100
AcDbProxyObject
 90
      499
 91
      503
 93
      113
310
904313A31364000000000000304000
  0
ACAD_PROXY_OBJECT
  5
4F
102
{ACAD_REACTORS
330
47
102
}
330
47
100
AcDbProxyObject
 90
      499
 91
      503
 93
      113
310
904313A32304000000000000344000
  0
ACAD_PROXY_OBJECT
  5
50
102
{ACAD_REACTORS
330
47
102
}
330
47
100
AcDbProxyObject
 90
      499
 91
      503
 93
      113
310
904313A333040000000000003E4000
  0
ACAD_PROXY_OBJECT
  5
51
102
{ACAD_REACTORS
330
47
102
}
330
47
100
AcDbProxyObject
 90
      499
 91
      503
 93
      113
310
904313A34304000000000000444000
  0
ACAD_PROXY_OBJECT
  5
52
102
{ACAD_REACTORS
330
47
102
}
330
47
100
AcDbProxyObject
 90
      499
 91
      503
 93
      113
310
904313A35304000000000000494000
  0
ACAD_PROXY_OBJECT
  5
53
102
{ACAD_REACTORS
330
47
102
}
330
47
100
AcDbProxyObject
 90
      499
 91
      503
 93
      121
310
905313A3130304000000000000594000
  0
ACAD_PROXY_OBJECT
  5
54
102
{ACAD_REACTORS
330
47
102
}
330
47
100
AcDbProxyObject
 90
      499
 91
      503
 93
      105
310
903323A310000000000000010100
  0
ACAD_PROXY_OBJECT
  5
55
102
{ACAD_REACTORS
330
47
102
}
330
47
100
AcDbProxyObject
 90
      499
 91
      503
 93
      105
310
903343A310000000000000410100
  0
ACAD_PROXY_OBJECT
  5
56
102
{ACAD_REACTORS
330
47
102
}
330
47
100
AcDbProxyObject
 90
      499
 91
      503
 93
      105
310
903383A310000000000000810100
  0
ACAD_PROXY_OBJECT
  5
57
102
{ACAD_REACTORS
330
47
102
}
330
47
100
AcDbProxyObject
 90
      499
 91
      503
 93
      113
310
90431303A310000000000000910100
  0
ACAD_PROXY_OBJECT
  5
58
102
{ACAD_REACTORS
330
47
102
}
330
47
100
AcDbProxyObject
 90
      499
 91
      503
 93
      121
310
9053130303A310000000000001650100
  0
ACAD_PROXY_OBJECT
  5
59
102
{ACAD_REACTORS
330
47
102
}
330
47
100
AcDbProxyObject
 90
      499
 91
      503
 93
      257
310
90E312F31323822203D2031272D3022000000000000200FC000000000000284000
  0
ACAD_PROXY_OBJECT
  5
5A
102
{ACAD_REACTORS
330
47
102
}
330
47
100
AcDbProxyObject
 90
      499
 91
      503
 93
      249
310
90D312F363422203D2031272D3022000000000000240FC000000000000284000
  0
ACAD_PROXY_OBJECT
  5
5B
102
{ACAD_REACTORS
330
47
102
}
330
47
100
AcDbProxyObject
 90
      499
 91
      503
 93
      249
310
90D312F333222203D2031272D3022000000000000280FC000000000000284000
  0
ACAD_PROXY_OBJECT
  5
5C
102
{ACAD_REACTORS
330
47
102
}
330
47
100
AcDbProxyObject
 90
      499
 91
      503
 93
      249
310
90D312F313622203D2031272D30220000000000002C0FC000000000000284000
  0
ACAD_PROXY_OBJECT
  5
5D
102
{ACAD_REACTORS
330
47
102
}
330
47
100
AcDbProxyObject
 90
      499
 91
      503
 93
      249
310
90D332F333222203D2031272D30220000000000002E0FC000000000000284000
  0
ACAD_PROXY_OBJECT
  5
5E
102
{ACAD_REACTORS
330
47
102
}
330
47
100
AcDbProxyObject
 90
      499
 91
      503
 93
      241
310
90C312F3822203D2031272D3022000000000000300FC000000000000284000
  0
ACAD_PROXY_OBJECT
  5
5F
102
{ACAD_REACTORS
330
47
102
}
330
47
100
AcDbProxyObject
 90
      499
 91
      503
 93
      249
310
90D332F313622203D2031272D3022000000000000320FC000000000000284000
  0
ACAD_PROXY_OBJECT
  5
60
102
{ACAD_REACTORS
330
47
102
}
330
47
100
AcDbProxyObject
 90
      499
 91
      503
 93
      241
310
90C312F3422203D2031272D3022000000000000340FC000000000000284000
  0
ACAD_PROXY_OBJECT
  5
61
102
{ACAD_REACTORS
330
47
102
}
330
47
100
AcDbProxyObject
 90
      499
 91
      503
 93
      241
310
90C332F3822203D2031272D3022000000000000360FC000000000000284000
  0
ACAD_PROXY_OBJECT
  5
62
102
{ACAD_REACTORS
330
47
102
}
330
47
100
AcDbProxyObject
 90
      499
 91
      503
 93
      241
310
90C312F3222203D2031272D3022000000000000380FC000000000000284000
  0
ACAD_PROXY_OBJECT
  5
63
102
{ACAD_REACTORS
330
47
102
}
330
47
100
AcDbProxyObject
 90
      499
 91
      503
 93
      241
310
90C332F3422203D2031272D30220000000000003A0FC000000000000284000
  0
ACAD_PROXY_OBJECT
  5
64
102
{ACAD_REACTORS
330
47
102
}
330
47
100
AcDbProxyObject
 90
      499
 91
      503
 93
      161
310
90A3122203D2031272D30224000000000000284000
  0
ACAD_PROXY_OBJECT
  5
65
102
{ACAD_REACTORS
330
47
102
}
330
47
100
AcDbProxyObject
 90
      499
 91
      503
 93
      257
310
90E312D312F3222203D2031272D30220000000000003E0FC000000000000284000
  0
ACAD_PROXY_OBJECT
  5
66
102
{ACAD_REACTORS
330
47
102
}
330
47
100
AcDbProxyObject
 90
      499
 91
      503
 93
      225
310
90A3322203D2031272D302200000000000002100000000000000284000
  0
ACAD_PROXY_OBJECT
  5
67
102
{ACAD_REACTORS
330
47
102
}
330
47
100
AcDbProxyObject
 90
      499
 91
      503
 93
      225
310
90A3622203D2031272D302200000000000006100000000000000284000
  0
ACAD_PROXY_OBJECT
  5
68
102
{ACAD_REACTORS
330
47
102
}
330
47
100
AcDbProxyObject
 90
      499
 91
      503
 93
      249
310
90D31272D3022203D2031272D30220000000000000A100000000000000284000
  0
ACAD_PROXY_OBJECT
  5
2F
102
{ACAD_REACTORS
330
2A
102
}
330
2A
100
AcDbProxyObject
 90
      499
 91
      501
 93
      436
310
42CC9915DA5C99599C985B595049028333333333333E33F0000000000000F90107901411070040501600405405064090741402480A0340
1001
ACAD
1000
AcDbSavedByObjectVersion
1070
     0
  0
ACAD_PROXY_OBJECT
  5
32
102
{ACAD_REACTORS
330
2A
102
}
330
2A
100
AcDbProxyObject
 90
      499
 91
      501
 93
      388
310
4150985CDA58D07406404333333333333E33F0000000000000F90107A41107004050150841D405064090741402480A0350
1001
ACAD
1000
AcDbSavedByObjectVersion
1070
     0
  0
ACAD_PROXY_OBJECT
  5
36
102
{ACAD_REACTORS
330
2A
102
}
330
2A
100
AcDbProxyObject
 90
      499
 91
      501
 93
      428
310
42109C9A59DA1D195B90C409028333333333333E33F0000000000000F9010790141107004050150841D405064090741402480A029950
1001
ACAD
1000
AcDbSavedByObjectVersion
1070
     0
  0
ACAD_PROXY_OBJECT
  5
3A
102
{ACAD_REACTORS
330
2A
102
}
330
2A
100
AcDbProxyObject
 90
      499
 91
      501
 93
      452
310
42D0DBDB1BDC90DA185B99D95104090240C333333333333E33F0000000000000F90108901411070040501508421405064090741402480A0350
1001
ACAD
1000
AcDbSavedByObjectVersion
1070
     0
  0
ACAD_PROXY_OBJECT
  5
34
102
{ACAD_REACTORS
330
2A
102
}
330
2A
100
AcDbProxyObject
 90
      499
 91
      501
 93
      500
310
4290DBDB98D95C1D1D585B10940D028333333333333E33F0000000000000F90107902409070040501000000000018199010841D405064090740C02480A0340
1001
ACAD
1000
AcDbSavedByObjectVersion
1070
     0
  0
ACAD_PROXY_OBJECT
  5
35
102
{ACAD_REACTORS
330
2A
102
}
330
2A
100
AcDbProxyObject
 90
      499
 91
      501
 93
      412
310
40D11A5B50B409028333333333333E33F0000000000000F9010790141107004050150841D405064090741402480A02677FFFFFD0
1001
ACAD
1000
AcDbSavedByObjectVersion
1070
     0
  0
ACAD_PROXY_OBJECT
  5
3D
102
{ACAD_REACTORS
330
2A
102
}
330
2A
100
AcDbProxyObject
 90
      499
 91
      501
 93
      452
310
43115919D950DBDB1BDC93D999916409028333333333333E33F0000000000000F9010790141107004050150841D405064090741402480A0350
1001
ACAD
1000
AcDbSavedByObjectVersion
1070
     0
  0
ACAD_PROXY_OBJECT
  5
39
102
{ACAD_REACTORS
330
2A
102
}
330
2A
100
AcDbProxyObject
 90
      499
 91
      501
 93
      444
310
42D19858D95C185D1D195C9B90F409028333333333333E33F0000000000000F9010790141107004050150841D405064090741402480A0350
1001
ACAD
1000
AcDbSavedByObjectVersion
1070
     0
  0
ACAD_PROXY_OBJECT
  5
2B
102
{ACAD_REACTORS
330
2A
102
}
330
2A
100
AcDbProxyObject
 90
      499
 91
      501
 93
      380
310
41119B185D240901404333333333333E33F0000000000000F9010740A907004050150841D405064090741402480A1B50
1001
ACAD
1000
AcDbSavedByObjectVersion
1070
     0
  0
ACAD_PROXY_OBJECT
  5
2C
102
{ACAD_REACTORS
330
2A
102
}
330
2A
100
AcDbProxyObject
 90
      499
 91
      501
 93
      468
310
43519B185D15DA5D1A115919D95CD0140901404333333333333E33F0000000000000F90107409019070040501600405405064090741402480A1B50
1001
ACAD
1000
AcDbSavedByObjectVersion
1070
     0
  0
ACAD_PROXY_OBJECT
  5
2D
102
{ACAD_REACTORS
330
2A
102
}
330
2A
100
AcDbProxyObject
 90
      499
 91
      501
 93
      404
310
41D1DBDD5C985D5910240902404333333333333E33F0000000000000F9010740A9070040501641D405064090741402480A1B50
1001
ACAD
1000
AcDbSavedByObjectVersion
1070
     0
  0
ACAD_PROXY_OBJECT
  5
2E
102
{ACAD_REACTORS
330
2A
102
}
330
2A
100
AcDbProxyObject
 90
      499
 91
      501
 93
      492
310
4411DBDD5C985D5915DA5D1A115919D95CD0340902404333333333333E33F0000000000000F90107409019070040501600405405064090741402480A1B50
1001
ACAD
1000
AcDbSavedByObjectVersion
1070
     0
  0
ACAD_PROXY_OBJECT
  5
31
102
{ACAD_REACTORS
330
2A
102
}
330
2A
100
AcDbProxyObject
 90
      499
 91
      501
 93
      476
310
41921A5919195B90640502408333333333333E33F0000000000000F901079024090700405020000000000001110200405405064090740C02480A0340
1001
ACAD
1000
AcDbSavedByObjectVersion
1070
     0
  0
ACAD_PROXY_OBJECT
  5
3B
102
{ACAD_REACTORS
330
2A
102
}
330
2A
100
AcDbProxyObject
 90
      499
 91
      501
 93
      428
310
42529A5D1D195C93D999914409028333333333333E33F0000000000000F9010790141107004050150A41D405064090741402480A0350
1001
ACAD
1000
AcDbSavedByObjectVersion
1070
     0
  0
ACAD_PROXY_OBJECT
  5
38
102
{ACAD_REACTORS
330
2A
102
}
330
2A
100
AcDbProxyObject
 90
      499
 91
      501
 93
      444
310
42D31A5B995C185D1D195C9B90E409028333333333333E33F0000000000000F9010790141107004050750841D405064090741402483A0350
1001
ACAD
1000
AcDbSavedByObjectVersion
1070
     0
  0
ACAD_PROXY_OBJECT
  5
3C
102
{ACAD_REACTORS
330
2A
102
}
330
2A
100
AcDbProxyObject
 90
      499
 91
      501
 93
      444
310
42D3DD995C9A185B99D3D999915409028333333333333E33F0000000000000F9010790141107004050150941D405064090741402480A0350
1001
ACAD
1000
AcDbSavedByObjectVersion
1070
     0
  0
ACAD_PROXY_OBJECT
  5
33
102
{ACAD_REACTORS
330
2A
102
}
330
2A
100
AcDbProxyObject
 90
      499
 91
      501
 93
      428
310
425499585B1A5CDD1A58D08409038333333333333E33F0000000000000F9010740A907004050150800405405064090740C02480A1B40
1001
ACAD
1000
AcDbSavedByObjectVersion
1070
     0
  0
ACAD_PROXY_OBJECT
  5
42
102
{ACAD_REACTORS
330
2A
102
}
330
2A
100
AcDbProxyObject
 90
      499
 91
      501
 93
      420
310
4194DA1859195911B40902404333333333333E33F0000000000000F9010740A41107004050150800405405064090840C02480A0B40
1001
ACAD
1000
AcDbSavedByObjectVersion
1070
     0
  0
ACAD_PROXY_OBJECT
  5
41
102
{ACAD_REACTORS
330
2A
102
}
330
2A
100
AcDbProxyObject
 90
      499
 91
      501
 93
      516
310
4454DA18591959081DDA5D1A08195919D95CD1A40902404333333333333E33F0000000000000F901074090142907004050250800405405064090740C02480A0B40
1001
ACAD
1000
AcDbSavedByObjectVersion
1070
     0
  0
ACAD_PROXY_OBJECT
  5
3E
102
{ACAD_REACTORS
330
2A
102
}
330
2A
100
AcDbProxyObject
 90
      499
 91
      501
 93
      532
310
4394DA1859195CC81BD98811DC985E5174090240C333333333333E33F0000000000000F901079024090741D01000000000000111010841D405064090740C02480A0340
1001
ACAD
1000
AcDbSavedByObjectVersion
1070
     0
  0
ACAD_PROXY_OBJECT
  5
3F
102
{ACAD_REACTORS
330
2A
102
}
330
2A
100
AcDbProxyObject
 90
      499
 91
      501
 93
      476
310
41D4DAD95D18DA1E51840502408333333333333E33F0000000000000F901079024090741D01000000000000111010B41D405064090741802480A0340
1001
ACAD
1000
AcDbSavedByObjectVersion
1070
     0
  0
ACAD_PROXY_OBJECT
  5
37
102
{ACAD_REACTORS
330
2A
102
}
330
2A
100
AcDbProxyObject
 90
      499
 91
      501
 93
      412
310
41D51A1A58DAD95B90D409028333333333333E33F0000000000000F9010790141107004050150C41D405064090741402480A0350
1001
ACAD
1000
AcDbSavedByObjectVersion
1070
     0
  0
ACAD_PROXY_OBJECT
  5
30
102
{ACAD_REACTORS
330
2A
102
}
330
2A
100
AcDbProxyObject
 90
      499
 91
      501
 93
      420
310
4255DA5C99599C985B595059028333333333333E33F0000000000000F90107901411070040501600405405064090740C02480A0340
1001
ACAD
1000
AcDbSavedByObjectVersion
1070
     0
  0
ACAD_PROXY_OBJECT
  5
40
102
{ACAD_REACTORS
330
2A
102
}
330
2A
100
AcDbProxyObject
 90
      499
 91
      501
 93
      404
310
41560B54985E51940902404000000000000E03F0000000000000F9010740501907004050150841D405064090740C02480A1B40
1001
ACAD
1000
AcDbSavedByObjectVersion
1070
     0
  0
XRECORD
  5
5DE
102
{ACAD_REACTORS
330
5D4
102
}
330
5D4
100
AcDbXrecord
340
0
  0
XRECORD
  5
5DD
102
{ACAD_REACTORS
330
5D4
102
}
330
5D4
100
AcDbXrecord
 90
        0
  0
XRECORD
  5
5F4
102
{ACAD_REACTORS
330
5D4
102
}
330
5D4
100
AcDbXrecord
1000
DSTYLE
1002
{
1070
   340
340
11
1002
}
  0
XRECORD
  5
5DF
102
{ACAD_REACTORS
330
5D4
102
}
330
5D4
100
AcDbXrecord
  1
{aea7db54-a637-4406-b346-54609cef704a}
  0
XRECORD
  5
5D7
102
{ACAD_REACTORS
330
5D4
102
}
330
5D4
100
AcDbXrecord
  1

  0
XRECORD
  5
5DC
102
{ACAD_REACTORS
330
5D4
102
}
330
5D4
100
AcDbXrecord
 90
        4
  0
XRECORD
  5
5D9
102
{ACAD_REACTORS
330
5D4
102
}
330
5D4
100
AcDbXrecord
340
1A
  0
XRECORD
  5
5DB
102
{ACAD_REACTORS
330
5D4
102
}
330
5D4
100
AcDbXrecord
 90
    10781
  0
XRECORD
  5
5DA
102
{ACAD_REACTORS
330
5D4
102
}
330
5D4
100
AcDbXrecord
340
19
  0
XRECORD
  5
5E1
102
{ACAD_REACTORS
330
5D4
102
}
330
5D4
100
AcDbXrecord
 40
0.0
  0
XRECORD
  5
5E4
102
{ACAD_REACTORS
330
5D4
102
}
330
5D4
100
AcDbXrecord
340
0
  0
XRECORD
  5
5EA
102
{ACAD_REACTORS
330
5D4
102
}
330
5D4
100
AcDbXrecord
 10
0.0
 20
0.0
 30
0.0
  0
XRECORD
  5
5E6
102
{ACAD_REACTORS
330
5D4
102
}
330
5D4
100
AcDbXrecord
 10
0.0
 20
0.0
 30
0.0
  0
XRECORD
  5
5E9
102
{ACAD_REACTORS
330
5D4
102
}
330
5D4
100
AcDbXrecord
 10
0.0
 20
0.0
 30
0.0
  0
XRECORD
  5
5E7
102
{ACAD_REACTORS
330
5D4
102
}
330
5D4
100
AcDbXrecord
 10
0.0
 20
0.0
 30
0.0
  0
XRECORD
  5
5E8
102
{ACAD_REACTORS
330
5D4
102
}
330
5D4
100
AcDbXrecord
 10
0.0
 20
0.0
 30
0.0
  0
XRECORD
  5
5E5
102
{ACAD_REACTORS
330
5D4
102
}
330
5D4
100
AcDbXrecord
 10
0.0
 20
0.0
 30
0.0
  0
XRECORD
  5
5E2
102
{ACAD_REACTORS
330
5D4
102
}
330
5D4
100
AcDbXrecord
340
0
  0
XRECORD
  5
5E3
102
{ACAD_REACTORS
330
5D4
102
}
330
5D4
100
AcDbXrecord
 70
     0
  0
XRECORD
  5
5D8
102
{ACAD_REACTORS
330
5D4
102
}
330
5D4
100
AcDbXrecord
  1

  0
XRECORD
  5
5D5
102
{ACAD_REACTORS
330
5D4
102
}
330
5D4
100
AcDbXrecord
 90
        1
  0
XRECORD
  5
5D6
102
{ACAD_REACTORS
330
5D4
102
}
330
5D4
100
AcDbXrecord
 90
       70
  0
XRECORD
  5
5ED
102
{ACAD_REACTORS
330
5D4
102
}
330
5D4
100
AcDbXrecord
340
0
  0
XRECORD
  5
5F3
102
{ACAD_REACTORS
330
5D4
102
}
330
5D4
100
AcDbXrecord
 10
0.0
 20
0.0
 30
0.0
  0
XRECORD
  5
5EF
102
{ACAD_REACTORS
330
5D4
102
}
330
5D4
100
AcDbXrecord
 10
0.0
 20
0.0
 30
0.0
  0
XRECORD
  5
5F2
102
{ACAD_REACTORS
330
5D4
102
}
330
5D4
100
AcDbXrecord
 10
0.0
 20
0.0
 30
0.0
  0
XRECORD
  5
5F0
102
{ACAD_REACTORS
330
5D4
102
}
330
5D4
100
AcDbXrecord
 10
0.0
 20
0.0
 30
0.0
  0
XRECORD
  5
5F1
102
{ACAD_REACTORS
330
5D4
102
}
330
5D4
100
AcDbXrecord
 10
0.0
 20
0.0
 30
0.0
  0
XRECORD
  5
5EE
102
{ACAD_REACTORS
330
5D4
102
}
330
5D4
100
AcDbXrecord
 10
0.0
 20
0.0
 30
0.0
  0
XRECORD
  5
5EB
102
{ACAD_REACTORS
330
5D4
102
}
330
5D4
100
AcDbXrecord
340
0
  0
XRECORD
  5
5EC
102
{ACAD_REACTORS
330
5D4
102
}
330
5D4
100
AcDbXrecord
 70
     0
  0
XRECORD
  5
5E0
102
{ACAD_REACTORS
330
5D4
102
}
330
5D4
100
AcDbXrecord
  1
{FAEB1C32-E019-11D5-929B-00C0DF256EC4}
  0
DICTIONARYVAR
  5
602
102
{ACAD_REACTORS
330
5F5
102
}
330
5F5
100
DictionaryVariables
280
     0
  1
1:1
  0
DICTIONARYVAR
  5
5FC
102
{ACAD_REACTORS
330
5F5
102
}
330
5F5
100
DictionaryVariables
280
     0
  1
3.500000
  0
DICTIONARYVAR
  5
5FD
102
{ACAD_REACTORS
330
5F5
102
}
330
5F5
100
DictionaryVariables
280
     0
  1
acadiso.lin
  0
DICTIONARYVAR
  5
5F7
102
{ACAD_REACTORS
330
5F5
102
}
330
5F5
100
DictionaryVariables
280
     0
  1
Standard
  0
DICTIONARYVAR
  5
5F6
102
{ACAD_REACTORS
330
5F5
102
}
330
5F5
100
DictionaryVariables
280
     0
  1
Standard
  0
DICTIONARYVAR
  5
5FE
102
{ACAD_REACTORS
330
5F5
102
}
330
5F5
100
DictionaryVariables
280
     0
  1
2
  0
DICTIONARYVAR
  5
5FF
102
{ACAD_REACTORS
330
5F5
102
}
330
5F5
100
DictionaryVariables
280
     0
  1
1
  0
DICTIONARYVAR
  5
603
102
{ACAD_REACTORS
330
5F5
102
}
330
5F5
100
DictionaryVariables
280
     0
  1
1
  0
DICTIONARYVAR
  5
5F9
102
{ACAD_REACTORS
330
5F5
102
}
330
5F5
100
DictionaryVariables
280
     0
  1
80.000000
  0
DICTIONARYVAR
  5
5F8
102
{ACAD_REACTORS
330
5F5
102
}
330
5F5
100
DictionaryVariables
280
     0
  1
5.000000
  0
DICTIONARY
  5
606
330
45
100
AcDbDictionary
280
     1
  3
ACAD_XREC_ROUNDTRIP
360
607
  0
DICTIONARY
  5
604
330
44
100
AcDbDictionary
280
     1
  3
ACAD_XREC_ROUNDTRIP
360
605
  0
DICTIONARY
  5
608
330
46
100
AcDbDictionary
280
     1
  3
ACAD_XREC_ROUNDTRIP
360
609
  0
XRECORD
  5
607
102
{ACAD_REACTORS
330
606
102
}
330
606
100
AcDbXrecord
102
MATERIAL
148
0.0
149
0.0
149
0.0
 93
        0
 94
      127
282
     0
 72
     1
 77
     1
171
     1
175
     1
179
     1
273
     0
  0
XRECORD
  5
605
102
{ACAD_REACTORS
330
604
102
}
330
604
100
AcDbXrecord
102
MATERIAL
148
0.0
149
0.0
149
0.0
 93
        0
 94
      127
282
     0
 72
     1
 77
     1
171
     1
175
     1
179
     1
273
     0
  0
XRECORD
  5
609
102
{ACAD_REACTORS
330
608
102
}
330
608
100
AcDbXrecord
102
MATERIAL
148
0.0
149
0.0
149
0.0
 93
        0
 94
      127
282
     0
 72
     1
 77
     1
171
     1
175
     1
179
     1
273
     0
  0
ENDSEC
  0
EOF
