  0
SECTION
  2
HEADER
  9
$ACADVER
  1
AC1014
  9
$ACADMAINTVER
 70
     9
  9
$DWGCODEPAGE
  3
ANSI_932
  9
$INSBASE
 10
0.0
 20
0.0
 30
0.0
  9
$EXTMIN
 10
50.0
 20
100.0
 30
0.0
  9
$EXTMAX
 10
3850.0
 20
2800.0
 30
0.0
  9
$LIMMIN
 10
0.0
 20
0.0
  9
$LIMMAX
 10
420.0
 20
297.0
  9
$ORTHOMODE
 70
     0
  9
$REGENMODE
 70
     1
  9
$FILLMODE
 70
     1
  9
$QTEXTMODE
 70
     0
  9
$MIRRTEXT
 70
     1
  9
$DRAGMODE
 70
     2
  9
$LTSCALE
 40
0.2
  9
$OSMODE
 70
    37
  9
$ATTMODE
 70
     1
  9
$TEXTSIZE
 40
2.5
  9
$TRACEWID
 40
1.0
  9
$TEXTSTYLE
  7
STANDARD
  9
$CLAYER
  8
LAY-10
  9
$CELTYPE
  6
BYLAYER
  9
$CECOLOR
 62
   256
  9
$CELTSCALE
 40
1.0
  9
$DELOBJ
 70
     1
  9
$DISPSILH
 70
     0
  9
$DIMSCALE
 40
1.0
  9
$DIMASZ
 40
2.5
  9
$DIMEXO
 40
0.625
  9
$DIMDLI
 40
3.75
  9
$DIMRND
 40
0.0
  9
$DIMDLE
 40
0.0
  9
$DIMEXE
 40
1.25
  9
$DIMTP
 40
0.0
  9
$DIMTM
 40
0.0
  9
$DIMTXT
 40
2.5
  9
$DIMCEN
 40
2.5
  9
$DIMTSZ
 40
0.0
  9
$DIMTOL
 70
     0
  9
$DIMLIM
 70
     0
  9
$DIMTIH
 70
     0
  9
$DIMTOH
 70
     0
  9
$DIMSE1
 70
     0
  9
$DIMSE2
 70
     0
  9
$DIMTAD
 70
     1
  9
$DIMZIN
 70
     8
  9
$DIMBLK
  1

  9
$DIMASO
 70
     1
  9
$DIMSHO
 70
     1
  9
$DIMPOST
  1

  9
$DIMAPOST
  1

  9
$DIMALT
 70
     0
  9
$DIMALTD
 70
     3
  9
$DIMALTF
 40
0.03937007874016
  9
$DIMLFAC
 40
1.0
  9
$DIMTOFL
 70
     1
  9
$DIMTVP
 40
0.0
  9
$DIMTIX
 70
     0
  9
$DIMSOXD
 70
     0
  9
$DIMSAH
 70
     0
  9
$DIMBLK1
  1

  9
$DIMBLK2
  1

  9
$DIMSTYLE
  2
ISO-25
  9
$DIMCLRD
 70
     0
  9
$DIMCLRE
 70
     0
  9
$DIMCLRT
 70
     0
  9
$DIMTFAC
 40
1.0
  9
$DIMGAP
 40
0.625
  9
$DIMJUST
 70
     0
  9
$DIMSD1
 70
     0
  9
$DIMSD2
 70
     0
  9
$DIMTOLJ
 70
     0
  9
$DIMTZIN
 70
     8
  9
$DIMALTZ
 70
     0
  9
$DIMALTTZ
 70
     0
  9
$DIMFIT
 70
     3
  9
$DIMUPT
 70
     0
  9
$DIMUNIT
 70
     2
  9
$DIMDEC
 70
     2
  9
$DIMTDEC
 70
     2
  9
$DIMALTU
 70
     2
  9
$DIMALTTD
 70
     3
  9
$DIMTXSTY
  7
STANDARD
  9
$DIMAUNIT
 70
     0
  9
$LUNITS
 70
     2
  9
$LUPREC
 70
     4
  9
$SKETCHINC
 40
1.0
  9
$FILLETRAD
 40
10.0
  9
$AUNITS
 70
     0
  9
$AUPREC
 70
     0
  9
$MENU
  1
.
  9
$ELEVATION
 40
0.0
  9
$PELEVATION
 40
0.0
  9
$THICKNESS
 40
0.0
  9
$LIMCHECK
 70
     0
  9
$CHAMFERA
 40
0.0
  9
$CHAMFERB
 40
0.0
  9
$CHAMFERC
 40
0.0
  9
$CHAMFERD
 40
0.0
  9
$SKPOLY
 70
     0
  9
$TDCREATE
 40
2459229.333701597
  9
$TDUPDATE
 40
2459229.333702303
  9
$TDINDWG
 40
0.0000000116
  9
$TDUSRTIMER
 40
0.0000000116
  9
$USRTIMER
 70
     1
  9
$ANGBASE
 50
0.0
  9
$ANGDIR
 70
     0
  9
$PDMODE
 70
     0
  9
$PDSIZE
 40
0.0
  9
$PLINEWID
 40
0.0
  9
$COORDS
 70
     1
  9
$SPLFRAME
 70
     0
  9
$SPLINETYPE
 70
     6
  9
$SPLINESEGS
 70
     8
  9
$ATTDIA
 70
     0
  9
$ATTREQ
 70
     1
  9
$HANDLING
 70
     1
  9
$HANDSEED
  5
5CD
  9
$SURFTAB1
 70
     6
  9
$SURFTAB2
 70
     6
  9
$SURFTYPE
 70
     6
  9
$SURFU
 70
     6
  9
$SURFV
 70
     6
  9
$UCSNAME
  2

  9
$UCSORG
 10
0.0
 20
0.0
 30
0.0
  9
$UCSXDIR
 10
1.0
 20
0.0
 30
0.0
  9
$UCSYDIR
 10
0.0
 20
1.0
 30
0.0
  9
$PUCSNAME
  2

  9
$PUCSORG
 10
0.0
 20
0.0
 30
0.0
  9
$PUCSXDIR
 10
1.0
 20
0.0
 30
0.0
  9
$PUCSYDIR
 10
0.0
 20
1.0
 30
0.0
  9
$USERI1
 70
     0
  9
$USERI2
 70
     0
  9
$USERI3
 70
     0
  9
$USERI4
 70
     0
  9
$USERI5
 70
     0
  9
$USERR1
 40
0.0
  9
$USERR2
 40
0.0
  9
$USERR3
 40
0.0
  9
$USERR4
 40
0.0
  9
$USERR5
 40
0.0
  9
$WORLDVIEW
 70
     1
  9
$SHADEDGE
 70
     3
  9
$SHADEDIF
 70
    70
  9
$TILEMODE
 70
     1
  9
$MAXACTVP
 70
    64
  9
$PINSBASE
 10
0.0
 20
0.0
 30
0.0
  9
$PLIMCHECK
 70
     0
  9
$PEXTMIN
 10
1.000000000000000E+20
 20
1.000000000000000E+20
 30
1.000000000000000E+20
  9
$PEXTMAX
 10
-1.000000000000000E+20
 20
-1.000000000000000E+20
 30
-1.000000000000000E+20
  9
$PLIMMIN
 10
0.0
 20
0.0
  9
$PLIMMAX
 10
420.0
 20
297.0
  9
$UNITMODE
 70
     0
  9
$VISRETAIN
 70
     1
  9
$PLINEGEN
 70
     0
  9
$PSLTSCALE
 70
     1
  9
$TREEDEPTH
 70
  3020
  9
$PICKSTYLE
 70
     1
  9
$CMLSTYLE
  2
STANDARD
  9
$CMLJUST
 70
     0
  9
$CMLSCALE
 40
20.0
  9
$PROXYGRAPHICS
 70
     1
  9
$MEASUREMENT
 70
     1
  0
ENDSEC
  0
SECTION
  2
CLASSES
  0
CLASS
  1
ACDBDICTIONARYWDFLT
  2
AcDbDictionaryWithDefault
  3
ObjectDBX Classes
 90
        0
280
     0
281
     0
  0
CLASS
  1
VISUALSTYLE
  2
AcDbVisualStyle
  3
ObjectDBX Classes
 90
     4095
280
     0
281
     0
  0
CLASS
  1
MATERIAL
  2
AcDbMaterial
  3
ObjectDBX Classes
 90
     1153
280
     0
281
     0
  0
CLASS
  1
SCALE
  2
AcDbScale
  3
ObjectDBX Classes
 90
     1153
280
     0
281
     0
  0
CLASS
  1
TABLESTYLE
  2
AcDbTableStyle
  3
ObjectDBX Classes
 90
     4095
280
     0
281
     0
  0
CLASS
  1
MLEADERSTYLE
  2
AcDbMLeaderStyle
  3
ACDB_MLEADERSTYLE_CLASS
 90
     4095
280
     0
281
     0
  0
CLASS
  1
SUN
  2
AcDbSun
  3
SCENEOE
 90
     1153
280
     0
281
     0
  0
CLASS
  1
DICTIONARYVAR
  2
AcDbDictionaryVar
  3
ObjectDBX Classes
 90
        0
280
     0
281
     0
  0
CLASS
  1
XRECORD
  2
AcDbXrecord
  3
ObjectDBX Classes
 90
        0
280
     0
281
     0
  0
CLASS
  1
LWPOLYLINE
  2
AcDbPolyline
  3
ObjectDBX Classes
 90
        0
280
     0
281
     1
  0
CLASS
  1
HATCH
  2
AcDbHatch
  3
ObjectDBX Classes
 90
        0
280
     0
281
     1
  0
CLASS
  1
ACDBPLACEHOLDER
  2
AcDbPlaceHolder
  3
ObjectDBX Classes
 90
        0
280
     0
281
     0
  0
CLASS
  1
LAYOUT
  2
AcDbLayout
  3
ObjectDBX Classes
 90
        0
280
     0
281
     0
  0
ENDSEC
  0
SECTION
  2
TABLES
  0
TABLE
  2
VPORT
  5
8
102
{ACAD_XDICTIONARY
360
5C2
102
}
330
0
100
AcDbSymbolTable
 70
     1
  0
VPORT
  5
29
330
8
100
AcDbSymbolTableRecord
100
AcDbViewportTableRecord
  2
*ACTIVE
 70
     0
 10
0.0
 20
0.0
 11
1.0
 21
1.0
 12
1950.0
 22
1450.0
 13
0.0
 23
0.0
 14
10.0
 24
10.0
 15
10.0
 25
10.0
 16
0.0
 26
0.0
 36
1.0
 17
0.0
 27
0.0
 37
0.0
 40
2700.0
 41
1.407407407407408
 42
50.0
 43
0.0
 44
0.0
 50
0.0
 51
0.0
 71
     0
 72
  1000
 73
     1
 74
     3
 75
     0
 76
     0
 77
     0
 78
     0
  0
ENDTAB
  0
TABLE
  2
LTYPE
  5
5
330
0
100
AcDbSymbolTable
 70
     6
  0
LTYPE
  5
14
330
5
100
AcDbSymbolTableRecord
100
AcDbLinetypeTableRecord
  2
BYBLOCK
 70
     0
  3

 72
    65
 73
     0
 40
0.0
  0
LTYPE
  5
15
330
5
100
AcDbSymbolTableRecord
100
AcDbLinetypeTableRecord
  2
BYLAYER
 70
     0
  3

 72
    65
 73
     0
 40
0.0
  0
LTYPE
  5
16
330
5
100
AcDbSymbolTableRecord
100
AcDbLinetypeTableRecord
  2
CONTINUOUS
 70
     0
  3
Solid line
 72
    65
 73
     0
 40
0.0
  0
LTYPE
  5
6E
330
5
100
AcDbSymbolTableRecord
100
AcDbLinetypeTableRecord
  2
HIDDEN
 70
     0
  3
Hidden __ __ __ __ __ __ __ __ __ __ __ __ __ __
 72
    65
 73
     2
 40
9.524999999999999
 49
6.35
 74
     0
 49
-3.175
 74
     0
  0
LTYPE
  5
6F
330
5
100
AcDbSymbolTableRecord
100
AcDbLinetypeTableRecord
  2
CENTER
 70
     0
  3
Center ____ _ ____ _ ____ _ ____ _ ____ _ ____
 72
    65
 73
     4
 40
50.8
 49
31.75
 74
     0
 49
-6.35
 74
     0
 49
6.35
 74
     0
 49
-6.35
 74
     0
  0
LTYPE
  5
70
330
5
100
AcDbSymbolTableRecord
100
AcDbLinetypeTableRecord
  2
PHANTOM
 70
     0
  3
Phantom ______  __  __  ______  __  __  ______ 
 72
    65
 73
     6
 40
63.50000000000001
 49
31.75
 74
     0
 49
-6.35
 74
     0
 49
6.35
 74
     0
 49
-6.35
 74
     0
 49
6.35
 74
     0
 49
-6.35
 74
     0
  0
LTYPE
  5
71
330
5
100
AcDbSymbolTableRecord
100
AcDbLinetypeTableRecord
  2
ACAD_ISO06W100
 70
     0
  3
ISO long-dash triple-dot ____ ... ____ ... ____
 72
    65
 73
     8
 40
36.0
 49
24.0
 74
     0
 49
-3.0
 74
     0
 49
0.0
 74
     0
 49
-3.0
 74
     0
 49
0.0
 74
     0
 49
-3.0
 74
     0
 49
0.0
 74
     0
 49
-3.0
 74
     0
  0
LTYPE
  5
72
330
5
100
AcDbSymbolTableRecord
100
AcDbLinetypeTableRecord
  2
ACAD_ISO15W100
 70
     0
  3
ISO double-dash triple-dot __ __ . . . __ __ . .
 72
    65
 73
    10
 40
39.0
 49
12.0
 74
     0
 49
-3.0
 74
     0
 49
12.0
 74
     0
 49
-3.0
 74
     0
 49
0.0
 74
     0
 49
-3.0
 74
     0
 49
0.0
 74
     0
 49
-3.0
 74
     0
 49
0.0
 74
     0
 49
-3.0
 74
     0
  0
ENDTAB
  0
TABLE
  2
LAYER
  5
2
330
0
100
AcDbSymbolTable
 70
     6
  0
LAYER
  5
10
330
2
100
AcDbSymbolTableRecord
100
AcDbLayerTableRecord
  2
0
 70
     0
 62
     7
  6
CONTINUOUS
  0
LAYER
  5
75
330
2
100
AcDbSymbolTableRecord
100
AcDbLayerTableRecord
  2
LAY-10
 70
     0
 62
     7
  6
CONTINUOUS
  0
LAYER
  5
76
330
2
100
AcDbSymbolTableRecord
100
AcDbLayerTableRecord
  2
LAY-11
 70
     0
 62
     7
  6
CONTINUOUS
  0
LAYER
  5
77
330
2
100
AcDbSymbolTableRecord
100
AcDbLayerTableRecord
  2
LAY-20
 70
     0
 62
     7
  6
CONTINUOUS
  0
LAYER
  5
78
330
2
100
AcDbSymbolTableRecord
100
AcDbLayerTableRecord
  2
LAY-255
 70
     0
 62
     7
  6
CONTINUOUS
  0
LAYER
  5
1B0
330
2
100
AcDbSymbolTableRecord
100
AcDbLayerTableRecord
  2
DEFPOINTS
 70
     0
 62
     7
  6
CONTINUOUS
  0
ENDTAB
  0
TABLE
  2
STYLE
  5
3
330
0
100
AcDbSymbolTable
 70
     4
  0
STYLE
  5
11
330
3
100
AcDbSymbolTableRecord
100
AcDbTextStyleTableRecord
  2
STANDARD
 70
     0
 40
0.0
 41
1.0
 50
0.0
 71
     0
 42
2.5
  3
simplex
  4
bigfont
  0
STYLE
  5
73
330
3
100
AcDbSymbolTableRecord
100
AcDbTextStyleTableRecord
  2
EXCADSTD
 70
     0
 40
0.0
 41
1.0
 50
0.0
 71
     0
 42
2.5
  3
simplex
  4
bigfont
  0
STYLE
  5
74
330
3
100
AcDbSymbolTableRecord
100
AcDbTextStyleTableRecord
  2
EXCADVERT
 70
     4
 40
0.0
 41
1.0
 50
0.0
 71
     0
 42
2.5
  3
simplex
  4
bigfont
  0
STYLE
  5
1AE
330
3
100
AcDbSymbolTableRecord
100
AcDbTextStyleTableRecord
  2
EXCADDIM1
 70
     0
 40
0.0
 41
0.84
 50
0.0
 71
     0
 42
2.5
  3
simplex
  4
bigfont
  0
ENDTAB
  0
TABLE
  2
VIEW
  5
6
330
0
100
AcDbSymbolTable
 70
     0
  0
ENDTAB
  0
TABLE
  2
UCS
  5
7
330
0
100
AcDbSymbolTable
 70
     0
  0
ENDTAB
  0
TABLE
  2
APPID
  5
9
330
0
100
AcDbSymbolTable
 70
     2
  0
APPID
  5
12
330
9
100
AcDbSymbolTableRecord
100
AcDbRegAppTableRecord
  2
ACAD
 70
     0
  0
APPID
  5
5CC
330
9
100
AcDbSymbolTableRecord
100
AcDbRegAppTableRecord
  2
ACAD_MLEADERVER
 70
     0
  0
ENDTAB
  0
TABLE
  2
DIMSTYLE
  5
A
330
0
100
AcDbSymbolTable
 70
     1
  0
DIMSTYLE
105
27
102
{ACAD_REACTORS
330
1AF
330
1BD
330
1CA
330
1D7
330
521
330
52E
330
53B
330
548
330
555
330
562
102
}
330
A
100
AcDbSymbolTableRecord
100
AcDbDimStyleTableRecord
  2
ISO-25
 70
     0
  3

  4

  5

  6

  7

 40
1.0
 41
2.5
 42
0.625
 43
3.75
 44
1.25
 45
0.0
 46
0.0
 47
0.0
 48
0.0
140
2.5
141
2.5
142
0.0
143
0.03937007874016
144
1.0
145
0.0
146
1.0
147
0.625
 71
     0
 72
     0
 73
     0
 74
     0
 75
     0
 76
     0
 77
     1
 78
     8
170
     0
171
     3
172
     1
173
     0
174
     0
175
     0
176
     0
177
     0
178
     0
270
     2
271
     2
272
     2
273
     2
274
     3
340
11
275
     0
280
     0
281
     0
282
     0
283
     0
284
     8
285
     0
286
     0
287
     5
288
     0
  0
ENDTAB
  0
TABLE
  2
BLOCK_RECORD
  5
1
330
0
100
AcDbSymbolTable
 70
    28
  0
BLOCK_RECORD
  5
1F
330
1
100
AcDbSymbolTableRecord
100
AcDbBlockTableRecord
  2
*MODEL_SPACE
  0
BLOCK_RECORD
  5
1B
330
1
100
AcDbSymbolTableRecord
100
AcDbBlockTableRecord
  2
*PAPER_SPACE
  0
BLOCK_RECORD
  5
79
330
1
100
AcDbSymbolTableRecord
100
AcDbBlockTableRecord
  2
EX_NORM
  0
BLOCK_RECORD
  5
7C
330
1
100
AcDbSymbolTableRecord
100
AcDbBlockTableRecord
  2
EX_BNORM
  0
BLOCK_RECORD
  5
7F
330
1
100
AcDbSymbolTableRecord
100
AcDbBlockTableRecord
  2
EX_BCIR
  0
BLOCK_RECORD
  5
82
330
1
100
AcDbSymbolTableRecord
100
AcDbBlockTableRecord
  2
EX_RCIVIL
  0
BLOCK_RECORD
  5
85
330
1
100
AcDbSymbolTableRecord
100
AcDbBlockTableRecord
  2
EX_SLANT
  0
BLOCK_RECORD
  5
88
330
1
100
AcDbSymbolTableRecord
100
AcDbBlockTableRecord
  2
EX_NONE
  0
BLOCK_RECORD
  5
8B
330
1
100
AcDbSymbolTableRecord
100
AcDbBlockTableRecord
  2
EX_CIVIL
  0
BLOCK_RECORD
  5
8E
330
1
100
AcDbSymbolTableRecord
100
AcDbBlockTableRecord
  2
EX_WCIR
  0
BLOCK_RECORD
  5
91
330
1
100
AcDbSymbolTableRecord
100
AcDbBlockTableRecord
  2
EX_WCIR2
  0
BLOCK_RECORD
  5
94
330
1
100
AcDbSymbolTableRecord
100
AcDbBlockTableRecord
  2
EX_WNORM
  0
BLOCK_RECORD
  5
97
330
1
100
AcDbSymbolTableRecord
100
AcDbBlockTableRecord
  2
EX_NNORM
  0
BLOCK_RECORD
  5
9A
330
1
100
AcDbSymbolTableRecord
100
AcDbBlockTableRecord
  2
EX_BBOX
  0
BLOCK_RECORD
  5
9D
330
1
100
AcDbSymbolTableRecord
100
AcDbBlockTableRecord
  2
EX_WBOX
  0
BLOCK_RECORD
  5
A0
330
1
100
AcDbSymbolTableRecord
100
AcDbBlockTableRecord
  2
EX_INTEGRAL
  0
BLOCK_RECORD
  5
A3
330
1
100
AcDbSymbolTableRecord
100
AcDbBlockTableRecord
  2
SYM-1
  0
BLOCK_RECORD
  5
A6
330
1
100
AcDbSymbolTableRecord
100
AcDbBlockTableRecord
  2
SYM-2
  0
BLOCK_RECORD
  5
A9
330
1
100
AcDbSymbolTableRecord
100
AcDbBlockTableRecord
  2
SYM-3
  0
BLOCK_RECORD
  5
AC
330
1
100
AcDbSymbolTableRecord
100
AcDbBlockTableRecord
  2
SYM-4
  0
BLOCK_RECORD
  5
1B1
330
1
100
AcDbSymbolTableRecord
100
AcDbBlockTableRecord
  2
*D19
  0
BLOCK_RECORD
  5
1BE
330
1
100
AcDbSymbolTableRecord
100
AcDbBlockTableRecord
  2
*D20
  0
BLOCK_RECORD
  5
1CB
330
1
100
AcDbSymbolTableRecord
100
AcDbBlockTableRecord
  2
*D21
  0
BLOCK_RECORD
  5
1D8
330
1
100
AcDbSymbolTableRecord
100
AcDbBlockTableRecord
  2
*D22
  0
BLOCK_RECORD
  5
522
330
1
100
AcDbSymbolTableRecord
100
AcDbBlockTableRecord
  2
*D23
  0
BLOCK_RECORD
  5
52F
330
1
100
AcDbSymbolTableRecord
100
AcDbBlockTableRecord
  2
*D24
  0
BLOCK_RECORD
  5
53C
330
1
100
AcDbSymbolTableRecord
100
AcDbBlockTableRecord
  2
*D25
  0
BLOCK_RECORD
  5
549
330
1
100
AcDbSymbolTableRecord
100
AcDbBlockTableRecord
  2
*D26
  0
BLOCK_RECORD
  5
556
330
1
100
AcDbSymbolTableRecord
100
AcDbBlockTableRecord
  2
*D27
  0
BLOCK_RECORD
  5
563
330
1
100
AcDbSymbolTableRecord
100
AcDbBlockTableRecord
  2
*D28
  0
ENDTAB
  0
ENDSEC
  0
SECTION
  2
BLOCKS
  0
BLOCK
  5
20
330
1F
100
AcDbEntity
  8
0
100
AcDbBlockBegin
  2
*MODEL_SPACE
 70
     0
 10
0.0
 20
0.0
 30
0.0
  3
*MODEL_SPACE
  1

  0
ENDBLK
  5
21
330
1F
100
AcDbEntity
  8
0
100
AcDbBlockEnd
  0
BLOCK
  5
1C
330
1B
100
AcDbEntity
 67
     1
  8
0
100
AcDbBlockBegin
  2
*PAPER_SPACE
 70
     0
 10
0.0
 20
0.0
 30
0.0
  3
*PAPER_SPACE
  1

  0
ENDBLK
  5
1D
330
1B
100
AcDbEntity
 67
     1
  8
0
100
AcDbBlockEnd
  0
BLOCK
  5
7A
330
79
100
AcDbEntity
  8
0
100
AcDbBlockBegin
  2
EX_NORM
 70
     0
 10
0.0
 20
0.0
 30
0.0
  3
EX_NORM
  1

  0
LINE
  5
AF
330
79
100
AcDbEntity
  8
0
  6
CONTINUOUS
 62
     0
100
AcDbLine
 10
0.0
 20
0.0
 30
0.0
 11
-1.0
 21
0.0
 31
0.0
  0
LINE
  5
B0
330
79
100
AcDbEntity
  8
0
  6
CONTINUOUS
 62
     0
100
AcDbLine
 10
0.0
 20
0.0
 30
0.0
 11
-1.0
 21
0.166666667
 31
0.0
  0
LINE
  5
B1
330
79
100
AcDbEntity
  8
0
  6
CONTINUOUS
 62
     0
100
AcDbLine
 10
0.0
 20
0.0
 30
0.0
 11
-1.0
 21
-0.166666667
 31
0.0
  0
ENDBLK
  5
7B
330
79
100
AcDbEntity
  8
0
100
AcDbBlockEnd
  0
BLOCK
  5
7D
330
7C
100
AcDbEntity
  8
0
100
AcDbBlockBegin
  2
EX_BNORM
 70
     0
 10
0.0
 20
0.0
 30
0.0
  3
EX_BNORM
  1

  0
LINE
  5
B2
330
7C
100
AcDbEntity
  8
0
  6
CONTINUOUS
 62
     0
100
AcDbLine
 10
0.0
 20
0.0
 30
0.0
 11
-1.0
 21
0.0
 31
0.0
  0
LINE
  5
B3
330
7C
100
AcDbEntity
  8
0
  6
CONTINUOUS
 62
     0
100
AcDbLine
 10
0.0
 20
0.0
 30
0.0
 11
-1.0
 21
0.166666667
 31
0.0
  0
LINE
  5
B4
330
7C
100
AcDbEntity
  8
0
  6
CONTINUOUS
 62
     0
100
AcDbLine
 10
0.0
 20
0.0
 30
0.0
 11
-1.0
 21
-0.166666667
 31
0.0
  0
LINE
  5
B5
330
7C
100
AcDbEntity
  8
0
  6
CONTINUOUS
 62
     0
100
AcDbLine
 10
0.0
 20
0.0
 30
0.0
 11
-1.0
 21
0.083333333
 31
0.0
  0
LINE
  5
B6
330
7C
100
AcDbEntity
  8
0
  6
CONTINUOUS
 62
     0
100
AcDbLine
 10
0.0
 20
0.0
 30
0.0
 11
-1.0
 21
-0.083333333
 31
0.0
  0
LINE
  5
B7
330
7C
100
AcDbEntity
  8
0
  6
CONTINUOUS
 62
     0
100
AcDbLine
 10
-1.0
 20
0.166666667
 30
0.0
 11
-1.0
 21
-0.166666667
 31
0.0
  0
ENDBLK
  5
7E
330
7C
100
AcDbEntity
  8
0
100
AcDbBlockEnd
  0
BLOCK
  5
80
330
7F
100
AcDbEntity
  8
0
100
AcDbBlockBegin
  2
EX_BCIR
 70
     0
 10
0.0
 20
0.0
 30
0.0
  3
EX_BCIR
  1

  0
LINE
  5
B8
330
7F
100
AcDbEntity
  8
0
  6
CONTINUOUS
 62
     0
100
AcDbLine
 10
0.0
 20
0.0
 30
0.0
 11
-1.0
 21
0.0
 31
0.0
  0
CIRCLE
  5
B9
330
7F
100
AcDbEntity
  8
0
  6
CONTINUOUS
 62
     0
100
AcDbCircle
 10
0.0
 20
0.0
 30
0.0
 40
0.5
  0
CIRCLE
  5
BA
330
7F
100
AcDbEntity
  8
0
  6
CONTINUOUS
 62
     0
100
AcDbCircle
 10
0.0
 20
0.0
 30
0.0
 40
0.25
  0
ENDBLK
  5
81
330
7F
100
AcDbEntity
  8
0
100
AcDbBlockEnd
  0
BLOCK
  5
83
330
82
100
AcDbEntity
  8
0
100
AcDbBlockBegin
  2
EX_RCIVIL
 70
     0
 10
0.0
 20
0.0
 30
0.0
  3
EX_RCIVIL
  1

  0
LINE
  5
BB
330
82
100
AcDbEntity
  8
0
  6
CONTINUOUS
 62
     0
100
AcDbLine
 10
0.0
 20
0.0
 30
0.0
 11
-1.0
 21
0.0
 31
0.0
  0
LINE
  5
BC
330
82
100
AcDbEntity
  8
0
  6
CONTINUOUS
 62
     0
100
AcDbLine
 10
-1.0
 20
-0.25
 30
0.0
 11
0.0
 21
-0.25
 31
0.0
  0
LINE
  5
BD
330
82
100
AcDbEntity
  8
0
  6
CONTINUOUS
 62
     0
100
AcDbLine
 10
-1.0
 20
-0.125
 30
0.0
 11
0.0
 21
-0.125
 31
0.0
  0
ENDBLK
  5
84
330
82
100
AcDbEntity
  8
0
100
AcDbBlockEnd
  0
BLOCK
  5
86
330
85
100
AcDbEntity
  8
0
100
AcDbBlockBegin
  2
EX_SLANT
 70
     0
 10
0.0
 20
0.0
 30
0.0
  3
EX_SLANT
  1

  0
LINE
  5
BE
330
85
100
AcDbEntity
  8
0
  6
CONTINUOUS
 62
     0
100
AcDbLine
 10
0.0
 20
0.0
 30
0.0
 11
-1.0
 21
0.0
 31
0.0
  0
LINE
  5
BF
330
85
100
AcDbEntity
  8
0
  6
CONTINUOUS
 62
     0
100
AcDbLine
 10
0.707106781
 20
0.707106781
 30
0.0
 11
-0.707106781
 21
-0.707106781
 31
0.0
  0
ENDBLK
  5
87
330
85
100
AcDbEntity
  8
0
100
AcDbBlockEnd
  0
BLOCK
  5
89
330
88
100
AcDbEntity
  8
0
100
AcDbBlockBegin
  2
EX_NONE
 70
     0
 10
0.0
 20
0.0
 30
0.0
  3
EX_NONE
  1

  0
LINE
  5
C0
330
88
100
AcDbEntity
  8
0
  6
CONTINUOUS
 62
     0
100
AcDbLine
 10
0.0
 20
0.0
 30
0.0
 11
-1.0
 21
0.0
 31
0.0
  0
ENDBLK
  5
8A
330
88
100
AcDbEntity
  8
0
100
AcDbBlockEnd
  0
BLOCK
  5
8C
330
8B
100
AcDbEntity
  8
0
100
AcDbBlockBegin
  2
EX_CIVIL
 70
     0
 10
0.0
 20
0.0
 30
0.0
  3
EX_CIVIL
  1

  0
LINE
  5
C1
330
8B
100
AcDbEntity
  8
0
  6
CONTINUOUS
 62
     0
100
AcDbLine
 10
0.0
 20
0.0
 30
0.0
 11
-1.0
 21
0.0
 31
0.0
  0
LINE
  5
C2
330
8B
100
AcDbEntity
  8
0
  6
CONTINUOUS
 62
     0
100
AcDbLine
 10
-1.0
 20
0.25
 30
0.0
 11
0.0
 21
0.25
 31
0.0
  0
LINE
  5
C3
330
8B
100
AcDbEntity
  8
0
  6
CONTINUOUS
 62
     0
100
AcDbLine
 10
-1.0
 20
0.125
 30
0.0
 11
0.0
 21
0.125
 31
0.0
  0
ENDBLK
  5
8D
330
8B
100
AcDbEntity
  8
0
100
AcDbBlockEnd
  0
BLOCK
  5
8F
330
8E
100
AcDbEntity
  8
0
100
AcDbBlockBegin
  2
EX_WCIR
 70
     0
 10
0.0
 20
0.0
 30
0.0
  3
EX_WCIR
  1

  0
LINE
  5
C4
330
8E
100
AcDbEntity
  8
0
  6
CONTINUOUS
 62
     0
100
AcDbLine
 10
0.0
 20
0.0
 30
0.0
 11
-1.0
 21
0.0
 31
0.0
  0
CIRCLE
  5
C5
330
8E
100
AcDbEntity
  8
0
  6
CONTINUOUS
 62
     0
100
AcDbCircle
 10
0.0
 20
0.0
 30
0.0
 40
0.5
  0
ENDBLK
  5
90
330
8E
100
AcDbEntity
  8
0
100
AcDbBlockEnd
  0
BLOCK
  5
92
330
91
100
AcDbEntity
  8
0
100
AcDbBlockBegin
  2
EX_WCIR2
 70
     0
 10
0.0
 20
0.0
 30
0.0
  3
EX_WCIR2
  1

  0
LINE
  5
C6
330
91
100
AcDbEntity
  8
0
  6
CONTINUOUS
 62
     0
100
AcDbLine
 10
-0.5
 20
0.0
 30
0.0
 11
-1.0
 21
0.0
 31
0.0
  0
CIRCLE
  5
C7
330
91
100
AcDbEntity
  8
0
  6
CONTINUOUS
 62
     0
100
AcDbCircle
 10
0.0
 20
0.0
 30
0.0
 40
0.5
  0
ENDBLK
  5
93
330
91
100
AcDbEntity
  8
0
100
AcDbBlockEnd
  0
BLOCK
  5
95
330
94
100
AcDbEntity
  8
0
100
AcDbBlockBegin
  2
EX_WNORM
 70
     0
 10
0.0
 20
0.0
 30
0.0
  3
EX_WNORM
  1

  0
LINE
  5
C8
330
94
100
AcDbEntity
  8
0
  6
CONTINUOUS
 62
     0
100
AcDbLine
 10
-1.0
 20
0.0
 30
0.0
 11
-1.0
 21
0.0
 31
0.0
  0
LINE
  5
C9
330
94
100
AcDbEntity
  8
0
  6
CONTINUOUS
 62
     0
100
AcDbLine
 10
0.0
 20
0.0
 30
0.0
 11
-1.0
 21
0.166666667
 31
0.0
  0
LINE
  5
CA
330
94
100
AcDbEntity
  8
0
  6
CONTINUOUS
 62
     0
100
AcDbLine
 10
0.0
 20
0.0
 30
0.0
 11
-1.0
 21
-0.166666667
 31
0.0
  0
LINE
  5
CB
330
94
100
AcDbEntity
  8
0
  6
CONTINUOUS
 62
     0
100
AcDbLine
 10
-1.0
 20
0.166666667
 30
0.0
 11
-1.0
 21
-0.166666667
 31
0.0
  0
ENDBLK
  5
96
330
94
100
AcDbEntity
  8
0
100
AcDbBlockEnd
  0
BLOCK
  5
98
330
97
100
AcDbEntity
  8
0
100
AcDbBlockBegin
  2
EX_NNORM
 70
     0
 10
0.0
 20
0.0
 30
0.0
  3
EX_NNORM
  1

  0
LINE
  5
CC
330
97
100
AcDbEntity
  8
0
  6
CONTINUOUS
 62
     0
100
AcDbLine
 10
0.0
 20
0.0
 30
0.0
 11
-1.0
 21
0.0
 31
0.0
  0
LINE
  5
CD
330
97
100
AcDbEntity
  8
0
  6
CONTINUOUS
 62
     0
100
AcDbLine
 10
0.0
 20
0.0
 30
0.0
 11
-1.0
 21
0.166666667
 31
0.0
  0
LINE
  5
CE
330
97
100
AcDbEntity
  8
0
  6
CONTINUOUS
 62
     0
100
AcDbLine
 10
0.0
 20
0.0
 30
0.0
 11
-1.0
 21
-0.166666667
 31
0.0
  0
LINE
  5
CF
330
97
100
AcDbEntity
  8
0
  6
CONTINUOUS
 62
     0
100
AcDbLine
 10
-1.0
 20
0.166666667
 30
0.0
 11
-1.0
 21
-0.166666667
 31
0.0
  0
ENDBLK
  5
99
330
97
100
AcDbEntity
  8
0
100
AcDbBlockEnd
  0
BLOCK
  5
9B
330
9A
100
AcDbEntity
  8
0
100
AcDbBlockBegin
  2
EX_BBOX
 70
     0
 10
0.0
 20
0.0
 30
0.0
  3
EX_BBOX
  1

  0
LINE
  5
D0
330
9A
100
AcDbEntity
  8
0
  6
CONTINUOUS
 62
     0
100
AcDbLine
 10
0.0
 20
0.0
 30
0.0
 11
-1.0
 21
0.0
 31
0.0
  0
LINE
  5
D1
330
9A
100
AcDbEntity
  8
0
  6
CONTINUOUS
 62
     0
100
AcDbLine
 10
-0.5
 20
0.5
 30
0.0
 11
0.5
 21
0.5
 31
0.0
  0
LINE
  5
D2
330
9A
100
AcDbEntity
  8
0
  6
CONTINUOUS
 62
     0
100
AcDbLine
 10
0.5
 20
0.5
 30
0.0
 11
0.5
 21
-0.5
 31
0.0
  0
LINE
  5
D3
330
9A
100
AcDbEntity
  8
0
  6
CONTINUOUS
 62
     0
100
AcDbLine
 10
0.5
 20
-0.5
 30
0.0
 11
-0.5
 21
-0.5
 31
0.0
  0
LINE
  5
D4
330
9A
100
AcDbEntity
  8
0
  6
CONTINUOUS
 62
     0
100
AcDbLine
 10
-0.5
 20
-0.5
 30
0.0
 11
-0.5
 21
0.5
 31
0.0
  0
LINE
  5
D5
330
9A
100
AcDbEntity
  8
0
  6
CONTINUOUS
 62
     0
100
AcDbLine
 10
-0.25
 20
0.25
 30
0.0
 11
0.25
 21
0.25
 31
0.0
  0
LINE
  5
D6
330
9A
100
AcDbEntity
  8
0
  6
CONTINUOUS
 62
     0
100
AcDbLine
 10
0.25
 20
0.25
 30
0.0
 11
0.25
 21
-0.25
 31
0.0
  0
LINE
  5
D7
330
9A
100
AcDbEntity
  8
0
  6
CONTINUOUS
 62
     0
100
AcDbLine
 10
0.25
 20
-0.25
 30
0.0
 11
-0.25
 21
-0.25
 31
0.0
  0
LINE
  5
D8
330
9A
100
AcDbEntity
  8
0
  6
CONTINUOUS
 62
     0
100
AcDbLine
 10
-0.25
 20
-0.25
 30
0.0
 11
-0.25
 21
0.25
 31
0.0
  0
ENDBLK
  5
9C
330
9A
100
AcDbEntity
  8
0
100
AcDbBlockEnd
  0
BLOCK
  5
9E
330
9D
100
AcDbEntity
  8
0
100
AcDbBlockBegin
  2
EX_WBOX
 70
     0
 10
0.0
 20
0.0
 30
0.0
  3
EX_WBOX
  1

  0
LINE
  5
D9
330
9D
100
AcDbEntity
  8
0
  6
CONTINUOUS
 62
     0
100
AcDbLine
 10
-0.5
 20
0.0
 30
0.0
 11
-1.0
 21
0.0
 31
0.0
  0
LINE
  5
DA
330
9D
100
AcDbEntity
  8
0
  6
CONTINUOUS
 62
     0
100
AcDbLine
 10
-0.5
 20
0.5
 30
0.0
 11
0.5
 21
0.5
 31
0.0
  0
LINE
  5
DB
330
9D
100
AcDbEntity
  8
0
  6
CONTINUOUS
 62
     0
100
AcDbLine
 10
0.5
 20
0.5
 30
0.0
 11
0.5
 21
-0.5
 31
0.0
  0
LINE
  5
DC
330
9D
100
AcDbEntity
  8
0
  6
CONTINUOUS
 62
     0
100
AcDbLine
 10
0.5
 20
-0.5
 30
0.0
 11
-0.5
 21
-0.5
 31
0.0
  0
LINE
  5
DD
330
9D
100
AcDbEntity
  8
0
  6
CONTINUOUS
 62
     0
100
AcDbLine
 10
-0.5
 20
-0.5
 30
0.0
 11
-0.5
 21
0.5
 31
0.0
  0
ENDBLK
  5
9F
330
9D
100
AcDbEntity
  8
0
100
AcDbBlockEnd
  0
BLOCK
  5
A1
330
A0
100
AcDbEntity
  8
0
100
AcDbBlockBegin
  2
EX_INTEGRAL
 70
     0
 10
0.0
 20
0.0
 30
0.0
  3
EX_INTEGRAL
  1

  0
LINE
  5
DE
330
A0
100
AcDbEntity
  8
0
  6
CONTINUOUS
 62
     0
100
AcDbLine
 10
0.0
 20
0.0
 30
0.0
 11
-1.0
 21
0.0
 31
0.0
  0
ARC
  5
DF
330
A0
100
AcDbEntity
  8
0
  6
CONTINUOUS
 62
     0
100
AcDbCircle
 10
0.542115
 20
0.164992
 30
0.0
 40
0.56667
100
AcDbArc
 50
73.07249033629006
 51
196.9275130221199
  0
ARC
  5
E0
330
A0
100
AcDbEntity
  8
0
  6
CONTINUOUS
 62
     0
100
AcDbCircle
 10
-0.542115
 20
-0.164992
 30
0.0
 40
0.56667
100
AcDbArc
 50
253.0724869220464
 51
16.9275130559125
  0
ENDBLK
  5
A2
330
A0
100
AcDbEntity
  8
0
100
AcDbBlockEnd
  0
BLOCK
  5
A4
330
A3
100
AcDbEntity
  8
0
100
AcDbBlockBegin
  2
SYM-1
 70
     0
 10
0.0
 20
0.0
 30
0.0
  3
SYM-1
  1

  0
LINE
  5
E1
330
A3
100
AcDbEntity
  8
0
  6
CONTINUOUS
 62
     7
100
AcDbLine
 10
2299.664557874278
 20
2062.090535917217
 30
0.0
 11
2292.990929136085
 21
2068.764164655405
 31
0.0
  0
LINE
  5
E2
330
A3
100
AcDbEntity
  8
0
  6
CONTINUOUS
 62
     7
100
AcDbLine
 10
2300.373018861275
 20
2062.796288492616
 30
0.0
 11
2293.343128320753
 21
2069.82617903282
 31
0.0
  0
LINE
  5
E3
330
A3
100
AcDbEntity
  8
0
  6
CONTINUOUS
 62
     7
100
AcDbLine
 10
2300.943379115875
 20
2063.640141800316
 30
0.0
 11
2293.833428238106
 21
2070.750092678403
 31
0.0
  0
LINE
  5
E4
330
A3
100
AcDbEntity
  8
0
  6
CONTINUOUS
 62
     7
100
AcDbLine
 10
2301.380432838475
 20
2064.617301640116
 30
0.0
 11
2294.457034687169
 21
2071.540699791427
 31
0.0
  0
LINE
  5
E5
330
A3
100
AcDbEntity
  8
0
  6
CONTINUOUS
 62
     7
100
AcDbLine
 10
2301.606123516575
 20
2068.634251649116
 30
0.0
 11
2297.413324524376
 21
2072.827050641316
 31
0.0
  0
LINE
  5
E6
330
A3
100
AcDbEntity
  8
0
  6
CONTINUOUS
 62
     7
100
AcDbLine
 10
2301.783298485075
 20
2067.042863118218
 30
0.0
 11
2296.175489384075
 21
2072.650672219216
 31
0.0
  0
LINE
  5
E7
330
A3
100
AcDbEntity
  8
0
  6
CONTINUOUS
 62
     7
100
AcDbLine
 10
2301.672628740177
 20
2065.739319300817
 30
0.0
 11
2295.225498957275
 21
2072.186449083715
 31
0.0
  0
LINE
  5
E8
330
A3
100
AcDbEntity
  8
0
  6
CONTINUOUS
 62
     7
100
AcDbLine
 10
2298.793464155576
 20
2061.547416073517
 30
0.0
 11
2292.801362682878
 21
2067.539517546217
 31
0.0
  0
LINE
  5
E9
330
A3
100
AcDbEntity
  8
0
  6
CONTINUOUS
 62
     7
100
AcDbLine
 10
2297.692121455975
 20
2061.234545210816
 30
0.0
 11
2292.842045210774
 21
2066.084621455916
 31
0.0
  0
LINE
  5
EA
330
A3
100
AcDbEntity
  8
0
  6
CONTINUOUS
 62
     7
100
AcDbLine
 10
2296.096091239674
 20
2061.416361864717
 30
0.0
 11
2293.377415255377
 21
2064.135037849016
 31
0.0
  0
ELLIPSE
  5
EB
330
A3
100
AcDbEntity
  8
0
  6
CONTINUOUS
 62
     7
100
AcDbEllipse
 10
2297.283333333377
 20
2067.020000000016
 30
0.0
 11
-1.067183248068677E-15
 21
-5.809475019310011
 31
0.0
210
0.0
220
0.0
230
1.0
 40
0.774596669241632
 41
0.0
 42
6.283185307179586
  0
ENDBLK
  5
A5
330
A3
100
AcDbEntity
  8
0
100
AcDbBlockEnd
  0
BLOCK
  5
A7
330
A6
100
AcDbEntity
  8
0
100
AcDbBlockBegin
  2
SYM-2
 70
     0
 10
0.0
 20
0.0
 30
0.0
  3
SYM-2
  1

  0
LINE
  5
EC
330
A6
100
AcDbEntity
  8
0
  6
CONTINUOUS
 62
     7
100
AcDbLine
 10
2300.000000000076
 20
2079.100000000018
 30
0.0
 11
2301.000000000079
 21
2078.100000000016
 31
0.0
  0
LINE
  5
ED
330
A6
100
AcDbEntity
  8
0
  6
CONTINUOUS
 62
     7
100
AcDbLine
 10
2300.000000000076
 20
2087.100000000018
 30
0.0
 11
2301.000000000079
 21
2088.100000000018
 31
0.0
  0
LINE
  5
EE
330
A6
100
AcDbEntity
  8
0
  6
CONTINUOUS
 62
     7
100
AcDbLine
 10
2289.600000000075
 20
2087.100000000018
 30
0.0
 11
2300.000000000076
 21
2087.100000000018
 31
0.0
  0
LINE
  5
EF
330
A6
100
AcDbEntity
  8
0
  6
CONTINUOUS
 62
     7
100
AcDbLine
 10
2289.600000000075
 20
2079.100000000018
 30
0.0
 11
2300.000000000076
 21
2079.100000000018
 31
0.0
  0
LINE
  5
F0
330
A6
100
AcDbEntity
  8
0
  6
CONTINUOUS
 62
     7
100
AcDbLine
 10
2275.000000000075
 20
2079.100000000018
 30
0.0
 11
2279.200000000075
 21
2079.100000000018
 31
0.0
  0
LINE
  5
F1
330
A6
100
AcDbEntity
  8
0
  6
CONTINUOUS
 62
     7
100
AcDbLine
 10
2276.000000000075
 20
2078.100000000016
 30
0.0
 11
2276.000000000075
 21
2088.100000000018
 31
0.0
  0
LINE
  5
F2
330
A6
100
AcDbEntity
  8
0
  6
CONTINUOUS
 62
     7
100
AcDbLine
 10
2275.000000000075
 20
2087.100000000018
 30
0.0
 11
2279.200000000075
 21
2087.100000000018
 31
0.0
  0
LINE
  5
F3
330
A6
100
AcDbEntity
  8
0
  6
CONTINUOUS
 62
     7
100
AcDbLine
 10
2305.000000000062
 20
2070.97867965647
 30
0.0
 11
2305.107919830527
 21
2070.870759826009
 31
0.0
  0
LINE
  5
F4
330
A6
100
AcDbEntity
  8
0
  6
CONTINUOUS
 62
     7
100
AcDbLine
 10
2305.000000000069
 20
2071.685786437653
 30
0.0
 11
2305.456881618636
 21
2071.228904819084
 31
0.0
  0
LINE
  5
F5
330
A6
100
AcDbEntity
  8
0
  6
CONTINUOUS
 62
     7
100
AcDbLine
 10
2305.000000000075
 20
2072.392893218835
 30
0.0
 11
2305.805843406759
 21
2071.587049812147
 31
0.0
  0
LINE
  5
F6
330
A6
100
AcDbEntity
  8
0
  6
CONTINUOUS
 62
     7
100
AcDbLine
 10
2305.000000000065
 20
2073.100000000027
 30
0.0
 11
2306.15480519488
 21
2071.945194805213
 31
0.0
  0
LINE
  5
F7
330
A6
100
AcDbEntity
  8
0
  6
CONTINUOUS
 62
     7
100
AcDbLine
 10
2305.707106781261
 20
2073.100000000019
 30
0.0
 11
2306.503766982992
 21
2072.303339798288
 31
0.0
  0
LINE
  5
F8
330
A6
100
AcDbEntity
  8
0
  6
CONTINUOUS
 62
     7
100
AcDbLine
 10
2306.414213562439
 20
2073.100000000027
 30
0.0
 11
2306.852728771115
 21
2072.661484791352
 31
0.0
  0
LINE
  5
F9
330
A6
100
AcDbEntity
  8
0
  6
CONTINUOUS
 62
     7
100
AcDbLine
 10
2307.121320343634
 20
2073.100000000018
 30
0.0
 11
2307.201690559237
 21
2073.019629784415
 31
0.0
  0
LINE
  5
FA
330
A6
100
AcDbEntity
  8
0
  6
CONTINUOUS
 62
     7
100
AcDbLine
 10
2305.000000000076
 20
2070.760000000017
 30
0.0
 11
2307.280000000076
 21
2073.100000000018
 31
0.0
  0
LINE
  5
FB
330
A6
100
AcDbEntity
  8
0
  6
CONTINUOUS
 62
     7
100
AcDbLine
 10
2305.000000000075
 20
2073.100000000018
 30
0.0
 11
2310.696000000074
 21
2073.100000000018
 31
0.0
  0
ARC
  5
FC
330
A6
100
AcDbEntity
  8
0
  6
CONTINUOUS
 62
     7
100
AcDbCircle
 10
2306.609079545531
 20
2075.600000000018
 30
0.0
 40
4.790920454545454
100
AcDbArc
 50
328.5455606612239
 51
31.45443933877169
  0
ARC
  5
FD
330
A6
100
AcDbEntity
  8
0
  6
CONTINUOUS
 62
     7
100
AcDbCircle
 10
2293.292318181892
 20
2083.100000000018
 30
0.0
 40
18.10768181818181
100
AcDbArc
 50
343.9708781133803
 51
16.02912188661214
  0
LINE
  5
FE
330
A6
100
AcDbEntity
  8
0
  6
CONTINUOUS
 62
     7
100
AcDbLine
 10
2311.400000000074
 20
2075.600000000018
 30
0.0
 11
2311.400000000074
 21
2090.600000000018
 31
0.0
  0
ARC
  5
FF
330
A6
100
AcDbEntity
  8
0
  6
CONTINUOUS
 62
     7
100
AcDbCircle
 10
2306.609079545531
 20
2090.600000000018
 30
0.0
 40
4.790920454545454
100
AcDbArc
 50
328.5455606612239
 51
31.45443933877169
  0
LINE
  5
100
330
A6
100
AcDbEntity
  8
0
  6
CONTINUOUS
 62
     7
100
AcDbLine
 10
2305.000000000075
 20
2093.100000000016
 30
0.0
 11
2310.696000000074
 21
2093.100000000016
 31
0.0
  0
LINE
  5
101
330
A6
100
AcDbEntity
  8
0
  6
CONTINUOUS
 62
     7
100
AcDbLine
 10
2307.121320343631
 20
2093.100000000014
 30
0.0
 11
2307.229240174073
 21
2093.207919830454
 31
0.0
  0
LINE
  5
102
330
A6
100
AcDbEntity
  8
0
  6
CONTINUOUS
 62
     7
100
AcDbLine
 10
2306.414213562437
 20
2093.100000000007
 30
0.0
 11
2306.871095181006
 21
2093.556881618576
 31
0.0
  0
LINE
  5
103
330
A6
100
AcDbEntity
  8
0
  6
CONTINUOUS
 62
     7
100
AcDbLine
 10
2305.707106781244
 20
2093.100000000001
 30
0.0
 11
2306.512950187942
 21
2093.905843406696
 31
0.0
  0
LINE
  5
104
330
A6
100
AcDbEntity
  8
0
  6
CONTINUOUS
 62
     7
100
AcDbLine
 10
2305.000000000064
 20
2093.100000000007
 30
0.0
 11
2306.154805194867
 21
2094.254805194808
 31
0.0
  0
LINE
  5
105
330
A6
100
AcDbEntity
  8
0
  6
CONTINUOUS
 62
     7
100
AcDbLine
 10
2305.00000000008
 20
2093.807106781212
 30
0.0
 11
2305.796660201806
 21
2094.603766982932
 31
0.0
  0
LINE
  5
106
330
A6
100
AcDbEntity
  8
0
  6
CONTINUOUS
 62
     7
100
AcDbLine
 10
2305.000000000076
 20
2094.514213562393
 30
0.0
 11
2305.438515208739
 21
2094.952728771053
 31
0.0
  0
LINE
  5
107
330
A6
100
AcDbEntity
  8
0
  6
CONTINUOUS
 62
     7
100
AcDbLine
 10
2305.000000000082
 20
2095.221320343585
 30
0.0
 11
2305.080370215662
 21
2095.301690559166
 31
0.0
  0
LINE
  5
108
330
A6
100
AcDbEntity
  8
0
  6
CONTINUOUS
 62
     7
100
AcDbLine
 10
2307.340000000073
 20
2093.100000000019
 30
0.0
 11
2305.000000000075
 21
2095.380000000018
 31
0.0
  0
LINE
  5
109
330
A6
100
AcDbEntity
  8
0
  6
CONTINUOUS
 62
     7
100
AcDbLine
 10
2300.000000000076
 20
2088.100000000018
 30
0.0
 11
2300.000000000076
 21
2078.100000000016
 31
0.0
  0
LINE
  5
10A
330
A6
100
AcDbEntity
  8
0
  6
CONTINUOUS
 62
     7
100
AcDbLine
 10
2310.696000000074
 20
2088.100000000018
 30
0.0
 11
2289.600000000075
 21
2088.100000000018
 31
0.0
  0
LINE
  5
10B
330
A6
100
AcDbEntity
  8
0
  6
CONTINUOUS
 62
     7
100
AcDbLine
 10
2310.696000000074
 20
2078.100000000016
 30
0.0
 11
2289.600000000075
 21
2078.100000000016
 31
0.0
  0
LINE
  5
10C
330
A6
100
AcDbEntity
  8
0
  6
CONTINUOUS
 62
     7
100
AcDbLine
 10
2287.600000000077
 20
2072.600000000018
 30
0.0
 11
2289.600000000075
 21
2072.600000000018
 31
0.0
  0
LINE
  5
10D
330
A6
100
AcDbEntity
  8
0
  6
CONTINUOUS
 62
     7
100
AcDbLine
 10
2287.600000000077
 20
2093.600000000018
 30
0.0
 11
2289.600000000075
 21
2093.600000000018
 31
0.0
  0
LINE
  5
10E
330
A6
100
AcDbEntity
  8
0
  6
CONTINUOUS
 62
     7
100
AcDbLine
 10
2287.600000000077
 20
2072.600000000018
 30
0.0
 11
2287.600000000077
 21
2093.600000000018
 31
0.0
  0
LINE
  5
10F
330
A6
100
AcDbEntity
  8
0
  6
CONTINUOUS
 62
     7
100
AcDbLine
 10
2279.200000000075
 20
2090.600000000018
 30
0.0
 11
2279.200000000075
 21
2075.600000000018
 31
0.0
  0
ARC
  5
110
330
A6
100
AcDbEntity
  8
0
  6
CONTINUOUS
 62
     7
100
AcDbCircle
 10
2283.044034632111
 20
2075.600000000018
 30
0.0
 40
3.844034632034633
100
AcDbArc
 50
139.4313750265994
 51
220.5686249734146
  0
ARC
  5
111
330
A6
100
AcDbEntity
  8
0
  6
CONTINUOUS
 62
     7
100
AcDbCircle
 10
2293.190138528214
 20
2083.100000000018
 30
0.0
 40
13.99013852813853
100
AcDbArc
 50
159.0597243938601
 51
200.9402756061523
  0
ARC
  5
112
330
A6
100
AcDbEntity
  8
0
  6
CONTINUOUS
 62
     7
100
AcDbCircle
 10
2283.044034632111
 20
2090.600000000018
 30
0.0
 40
3.844034632034633
100
AcDbArc
 50
139.4313750265994
 51
220.5686249734146
  0
LINE
  5
113
330
A6
100
AcDbEntity
  8
0
  6
CONTINUOUS
 62
     7
100
AcDbLine
 10
2287.600000000077
 20
2073.100000000018
 30
0.0
 11
2280.124000000076
 21
2073.100000000018
 31
0.0
  0
LINE
  5
114
330
A6
100
AcDbEntity
  8
0
  6
CONTINUOUS
 62
     7
100
AcDbLine
 10
2287.600000000077
 20
2093.100000000016
 30
0.0
 11
2280.124000000076
 21
2093.100000000016
 31
0.0
  0
LINE
  5
115
330
A6
100
AcDbEntity
  8
0
  6
CONTINUOUS
 62
     7
100
AcDbLine
 10
2287.600000000077
 20
2078.100000000016
 30
0.0
 11
2280.124000000076
 21
2078.100000000016
 31
0.0
  0
LINE
  5
116
330
A6
100
AcDbEntity
  8
0
  6
CONTINUOUS
 62
     7
100
AcDbLine
 10
2287.600000000077
 20
2088.100000000018
 30
0.0
 11
2280.124000000076
 21
2088.100000000018
 31
0.0
  0
LINE
  5
117
330
A6
100
AcDbEntity
  8
0
  6
CONTINUOUS
 62
     7
100
AcDbLine
 10
2279.200000000075
 20
2078.100000000016
 30
0.0
 11
2276.000000000075
 21
2078.100000000016
 31
0.0
  0
LINE
  5
118
330
A6
100
AcDbEntity
  8
0
  6
CONTINUOUS
 62
     7
100
AcDbLine
 10
2279.200000000075
 20
2088.100000000018
 30
0.0
 11
2276.000000000075
 21
2088.100000000018
 31
0.0
  0
LINE
  5
119
330
A6
100
AcDbEntity
  8
0
  6
CONTINUOUS
 62
     7
100
AcDbLine
 10
2275.000000000075
 20
2079.100000000018
 30
0.0
 11
2275.000000000075
 21
2087.100000000018
 31
0.0
  0
LINE
  5
11A
330
A6
100
AcDbEntity
  8
0
  6
CONTINUOUS
 62
     7
100
AcDbLine
 10
2276.000000000075
 20
2088.100000000018
 30
0.0
 11
2275.000000000075
 21
2087.100000000018
 31
0.0
  0
LINE
  5
11B
330
A6
100
AcDbEntity
  8
0
  6
CONTINUOUS
 62
     7
100
AcDbLine
 10
2276.000000000075
 20
2078.100000000016
 30
0.0
 11
2275.000000000075
 21
2079.100000000018
 31
0.0
  0
ENDBLK
  5
A8
330
A6
100
AcDbEntity
  8
0
100
AcDbBlockEnd
  0
BLOCK
  5
AA
330
A9
100
AcDbEntity
  8
0
100
AcDbBlockBegin
  2
SYM-3
 70
     0
 10
0.0
 20
0.0
 30
0.0
  3
SYM-3
  1

  0
LINE
  5
11C
330
A9
100
AcDbEntity
  8
0
  6
CONTINUOUS
 62
     7
100
AcDbLine
 10
2299.664557874244
 20
1454.109464082783
 30
0.0
 11
2292.990929136075
 21
1447.435835344616
 31
0.0
  0
LINE
  5
11D
330
A9
100
AcDbEntity
  8
0
  6
CONTINUOUS
 62
     7
100
AcDbLine
 10
2300.373018861152
 20
1453.403711507576
 30
0.0
 11
2293.343128320878
 21
1446.373820967016
 31
0.0
  0
LINE
  5
11E
330
A9
100
AcDbEntity
  8
0
  6
CONTINUOUS
 62
     7
100
AcDbLine
 10
2300.943379115873
 20
1452.559858199712
 30
0.0
 11
2293.833428237975
 21
1445.449907321816
 31
0.0
  0
LINE
  5
11F
330
A9
100
AcDbEntity
  8
0
  6
CONTINUOUS
 62
     7
100
AcDbLine
 10
2301.380432838488
 20
1451.582698359923
 30
0.0
 11
2294.457034687175
 21
1444.659300208616
 31
0.0
  0
LINE
  5
120
330
A9
100
AcDbEntity
  8
0
  6
CONTINUOUS
 62
     7
100
AcDbLine
 10
2301.606123516575
 20
1447.565748350916
 30
0.0
 11
2297.413324524376
 21
1443.372949358716
 31
0.0
  0
LINE
  5
121
330
A9
100
AcDbEntity
  8
0
  6
CONTINUOUS
 62
     7
100
AcDbLine
 10
2301.783298485075
 20
1449.157136881816
 30
0.0
 11
2296.175489384075
 21
1443.549327780816
 31
0.0
  0
LINE
  5
122
330
A9
100
AcDbEntity
  8
0
  6
CONTINUOUS
 62
     7
100
AcDbLine
 10
2301.672628740177
 20
1450.460680699217
 30
0.0
 11
2295.225498957275
 21
1444.013550916316
 31
0.0
  0
LINE
  5
123
330
A9
100
AcDbEntity
  8
0
  6
CONTINUOUS
 62
     7
100
AcDbLine
 10
2298.793464155576
 20
1454.652583926516
 30
0.0
 11
2292.801362682878
 21
1448.660482453816
 31
0.0
  0
LINE
  5
124
330
A9
100
AcDbEntity
  8
0
  6
CONTINUOUS
 62
     7
100
AcDbLine
 10
2297.692121455975
 20
1454.965454789217
 30
0.0
 11
2292.842045210774
 21
1450.115378544117
 31
0.0
  0
LINE
  5
125
330
A9
100
AcDbEntity
  8
0
  6
CONTINUOUS
 62
     7
100
AcDbLine
 10
2296.096091239674
 20
1454.783638135315
 30
0.0
 11
2293.377415255377
 21
1452.064962151017
 31
0.0
  0
ELLIPSE
  5
126
330
A9
100
AcDbEntity
  8
0
  6
CONTINUOUS
 62
     7
100
AcDbEllipse
 10
2297.283333333377
 20
1449.180000000017
 30
0.0
 11
-2.224197421612835E-15
 21
5.809475019310011
 31
0.0
210
0.0
220
0.0
230
1.0
 40
0.774596669241632
 41
0.0
 42
6.283185307179586
  0
ENDBLK
  5
AB
330
A9
100
AcDbEntity
  8
0
100
AcDbBlockEnd
  0
BLOCK
  5
AD
330
AC
100
AcDbEntity
  8
0
100
AcDbBlockBegin
  2
SYM-4
 70
     0
 10
0.0
 20
0.0
 30
0.0
  3
SYM-4
  1

  0
LINE
  5
127
330
AC
100
AcDbEntity
  8
0
  6
CONTINUOUS
 62
     7
100
AcDbLine
 10
2300.000000000076
 20
1429.100000000015
 30
0.0
 11
2301.000000000079
 21
1428.100000000016
 31
0.0
  0
LINE
  5
128
330
AC
100
AcDbEntity
  8
0
  6
CONTINUOUS
 62
     7
100
AcDbLine
 10
2300.000000000076
 20
1437.100000000015
 30
0.0
 11
2301.000000000079
 21
1438.100000000015
 31
0.0
  0
LINE
  5
129
330
AC
100
AcDbEntity
  8
0
  6
CONTINUOUS
 62
     7
100
AcDbLine
 10
2289.600000000075
 20
1437.100000000015
 30
0.0
 11
2300.000000000076
 21
1437.100000000015
 31
0.0
  0
LINE
  5
12A
330
AC
100
AcDbEntity
  8
0
  6
CONTINUOUS
 62
     7
100
AcDbLine
 10
2289.600000000075
 20
1429.100000000015
 30
0.0
 11
2300.000000000076
 21
1429.100000000015
 31
0.0
  0
LINE
  5
12B
330
AC
100
AcDbEntity
  8
0
  6
CONTINUOUS
 62
     7
100
AcDbLine
 10
2275.000000000075
 20
1429.100000000015
 30
0.0
 11
2281.200000000073
 21
1429.100000000015
 31
0.0
  0
LINE
  5
12C
330
AC
100
AcDbEntity
  8
0
  6
CONTINUOUS
 62
     7
100
AcDbLine
 10
2276.000000000075
 20
1428.100000000016
 30
0.0
 11
2276.000000000075
 21
1438.100000000015
 31
0.0
  0
LINE
  5
12D
330
AC
100
AcDbEntity
  8
0
  6
CONTINUOUS
 62
     7
100
AcDbLine
 10
2275.000000000075
 20
1437.100000000015
 30
0.0
 11
2281.200000000073
 21
1437.100000000015
 31
0.0
  0
LINE
  5
12E
330
AC
100
AcDbEntity
  8
0
  6
CONTINUOUS
 62
     7
100
AcDbLine
 10
2305.000000000075
 20
1443.100000000016
 30
0.0
 11
2310.696000000074
 21
1443.100000000016
 31
0.0
  0
LINE
  5
12F
330
AC
100
AcDbEntity
  8
0
  6
CONTINUOUS
 62
     7
100
AcDbLine
 10
2307.340000000073
 20
1443.100000000018
 30
0.0
 11
2305.000000000075
 21
1445.380000000016
 31
0.0
  0
LINE
  5
130
330
AC
100
AcDbEntity
  8
0
  6
CONTINUOUS
 62
     7
100
AcDbLine
 10
2305.000000000088
 20
1445.221320343587
 30
0.0
 11
2305.080370215668
 21
1445.301690559167
 31
0.0
  0
LINE
  5
131
330
AC
100
AcDbEntity
  8
0
  6
CONTINUOUS
 62
     7
100
AcDbLine
 10
2305.00000000008
 20
1444.514213562393
 30
0.0
 11
2305.438515208731
 21
1444.952728771045
 31
0.0
  0
LINE
  5
132
330
AC
100
AcDbEntity
  8
0
  6
CONTINUOUS
 62
     7
100
AcDbLine
 10
2305.000000000075
 20
1443.807106781201
 30
0.0
 11
2305.796660201806
 21
1444.603766982934
 31
0.0
  0
LINE
  5
133
330
AC
100
AcDbEntity
  8
0
  6
CONTINUOUS
 62
     7
100
AcDbLine
 10
2305.000000000055
 20
1443.099999999996
 30
0.0
 11
2306.154805194872
 21
1444.254805194812
 31
0.0
  0
LINE
  5
134
330
AC
100
AcDbEntity
  8
0
  6
CONTINUOUS
 62
     7
100
AcDbLine
 10
2305.70710678125
 20
1443.100000000002
 30
0.0
 11
2306.512950187933
 21
1443.905843406688
 31
0.0
  0
LINE
  5
135
330
AC
100
AcDbEntity
  8
0
  6
CONTINUOUS
 62
     7
100
AcDbLine
 10
2306.414213562442
 20
1443.100000000009
 30
0.0
 11
2306.871095181009
 21
1443.556881618578
 31
0.0
  0
LINE
  5
136
330
AC
100
AcDbEntity
  8
0
  6
CONTINUOUS
 62
     7
100
AcDbLine
 10
2307.121320343624
 20
1443.100000000005
 30
0.0
 11
2307.229240174076
 21
1443.207919830457
 31
0.0
  0
LINE
  5
137
330
AC
100
AcDbEntity
  8
0
  6
CONTINUOUS
 62
     7
100
AcDbLine
 10
2305.000000000071
 20
1420.978679656461
 30
0.0
 11
2305.107919830521
 21
1420.87075982601
 31
0.0
  0
LINE
  5
138
330
AC
100
AcDbEntity
  8
0
  6
CONTINUOUS
 62
     7
100
AcDbLine
 10
2305.000000000076
 20
1420.760000000016
 30
0.0
 11
2307.280000000076
 21
1423.100000000015
 31
0.0
  0
LINE
  5
139
330
AC
100
AcDbEntity
  8
0
  6
CONTINUOUS
 62
     7
100
AcDbLine
 10
2307.121320343629
 20
1423.10000000002
 30
0.0
 11
2307.201690559234
 21
1423.019629784417
 31
0.0
  0
LINE
  5
13A
330
AC
100
AcDbEntity
  8
0
  6
CONTINUOUS
 62
     7
100
AcDbLine
 10
2306.414213562448
 20
1423.100000000015
 30
0.0
 11
2306.852728771108
 21
1422.661484791353
 31
0.0
  0
LINE
  5
13B
330
AC
100
AcDbEntity
  8
0
  6
CONTINUOUS
 62
     7
100
AcDbLine
 10
2305.707106781254
 20
1423.100000000023
 30
0.0
 11
2306.503766982999
 21
1422.303339798279
 31
0.0
  0
LINE
  5
13C
330
AC
100
AcDbEntity
  8
0
  6
CONTINUOUS
 62
     7
100
AcDbLine
 10
2305.000000000062
 20
1423.100000000029
 30
0.0
 11
2306.15480519488
 21
1421.945194805214
 31
0.0
  0
LINE
  5
13D
330
AC
100
AcDbEntity
  8
0
  6
CONTINUOUS
 62
     7
100
AcDbLine
 10
2305.000000000069
 20
1422.392893218835
 30
0.0
 11
2305.805843406753
 21
1421.587049812149
 31
0.0
  0
LINE
  5
13E
330
AC
100
AcDbEntity
  8
0
  6
CONTINUOUS
 62
     7
100
AcDbLine
 10
2305.000000000075
 20
1421.685786437643
 30
0.0
 11
2305.456881618644
 21
1421.228904819075
 31
0.0
  0
LINE
  5
13F
330
AC
100
AcDbEntity
  8
0
  6
CONTINUOUS
 62
     7
100
AcDbLine
 10
2305.000000000075
 20
1423.100000000015
 30
0.0
 11
2310.696000000074
 21
1423.100000000015
 31
0.0
  0
ARC
  5
140
330
AC
100
AcDbEntity
  8
0
  6
CONTINUOUS
 62
     7
100
AcDbCircle
 10
2306.609079545531
 20
1425.600000000016
 30
0.0
 40
4.790920454545454
100
AcDbArc
 50
328.5455606612213
 51
31.45443933877633
  0
LINE
  5
141
330
AC
100
AcDbEntity
  8
0
  6
CONTINUOUS
 62
     7
100
AcDbLine
 10
2311.400000000074
 20
1425.600000000016
 30
0.0
 11
2311.400000000074
 21
1440.600000000015
 31
0.0
  0
ARC
  5
142
330
AC
100
AcDbEntity
  8
0
  6
CONTINUOUS
 62
     7
100
AcDbCircle
 10
2293.292318181892
 20
1433.100000000015
 30
0.0
 40
18.10768181818181
100
AcDbArc
 50
343.9708781133889
 51
16.02912188661214
  0
ARC
  5
143
330
AC
100
AcDbEntity
  8
0
  6
CONTINUOUS
 62
     7
100
AcDbCircle
 10
2306.609079545531
 20
1440.600000000015
 30
0.0
 40
4.790920454545454
100
AcDbArc
 50
328.5455606612239
 51
31.45443933877633
  0
LINE
  5
144
330
AC
100
AcDbEntity
  8
0
  6
CONTINUOUS
 62
     7
100
AcDbLine
 10
2300.000000000076
 20
1438.100000000015
 30
0.0
 11
2300.000000000076
 21
1428.100000000016
 31
0.0
  0
LINE
  5
145
330
AC
100
AcDbEntity
  8
0
  6
CONTINUOUS
 62
     7
100
AcDbLine
 10
2310.696000000074
 20
1428.100000000016
 30
0.0
 11
2282.124000000074
 21
1428.100000000016
 31
0.0
  0
LINE
  5
146
330
AC
100
AcDbEntity
  8
0
  6
CONTINUOUS
 62
     7
100
AcDbLine
 10
2310.696000000074
 20
1438.100000000015
 30
0.0
 11
2282.124000000074
 21
1438.100000000015
 31
0.0
  0
LINE
  5
147
330
AC
100
AcDbEntity
  8
0
  6
CONTINUOUS
 62
     7
100
AcDbLine
 10
2276.000000000075
 20
1428.100000000016
 30
0.0
 11
2275.000000000075
 21
1429.100000000015
 31
0.0
  0
LINE
  5
148
330
AC
100
AcDbEntity
  8
0
  6
CONTINUOUS
 62
     7
100
AcDbLine
 10
2276.000000000075
 20
1438.100000000015
 30
0.0
 11
2275.000000000075
 21
1437.100000000015
 31
0.0
  0
LINE
  5
149
330
AC
100
AcDbEntity
  8
0
  6
CONTINUOUS
 62
     7
100
AcDbLine
 10
2275.000000000075
 20
1429.100000000015
 30
0.0
 11
2275.000000000075
 21
1437.100000000015
 31
0.0
  0
LINE
  5
14A
330
AC
100
AcDbEntity
  8
0
  6
CONTINUOUS
 62
     7
100
AcDbLine
 10
2281.200000000073
 20
1438.100000000015
 30
0.0
 11
2276.000000000075
 21
1438.100000000015
 31
0.0
  0
LINE
  5
14B
330
AC
100
AcDbEntity
  8
0
  6
CONTINUOUS
 62
     7
100
AcDbLine
 10
2281.200000000073
 20
1428.100000000016
 30
0.0
 11
2276.000000000075
 21
1428.100000000016
 31
0.0
  0
LINE
  5
14C
330
AC
100
AcDbEntity
  8
0
  6
CONTINUOUS
 62
     7
100
AcDbLine
 10
2289.600000000075
 20
1443.100000000015
 30
0.0
 11
2282.124000000074
 21
1443.100000000015
 31
0.0
  0
LINE
  5
14D
330
AC
100
AcDbEntity
  8
0
  6
CONTINUOUS
 62
     7
100
AcDbLine
 10
2289.600000000075
 20
1423.100000000015
 30
0.0
 11
2282.124000000074
 21
1423.100000000015
 31
0.0
  0
ARC
  5
14E
330
AC
100
AcDbEntity
  8
0
  6
CONTINUOUS
 62
     7
100
AcDbCircle
 10
2285.044034632112
 20
1440.600000000015
 30
0.0
 40
3.844034632034633
100
AcDbArc
 50
139.4313750266288
 51
220.5686249733687
  0
ARC
  5
14F
330
AC
100
AcDbEntity
  8
0
  6
CONTINUOUS
 62
     7
100
AcDbCircle
 10
2295.190138528212
 20
1433.100000000015
 30
0.0
 40
13.99013852813853
100
AcDbArc
 50
159.0597243938583
 51
200.9402756061408
  0
ARC
  5
150
330
AC
100
AcDbEntity
  8
0
  6
CONTINUOUS
 62
     7
100
AcDbCircle
 10
2285.044034632112
 20
1425.600000000015
 30
0.0
 40
3.844034632034633
100
AcDbArc
 50
139.4313750266313
 51
220.5686249733714
  0
LINE
  5
151
330
AC
100
AcDbEntity
  8
0
  6
CONTINUOUS
 62
     7
100
AcDbLine
 10
2281.200000000073
 20
1440.600000000015
 30
0.0
 11
2281.200000000073
 21
1425.600000000015
 31
0.0
  0
ENDBLK
  5
AE
330
AC
100
AcDbEntity
  8
0
100
AcDbBlockEnd
  0
BLOCK
  5
1B2
330
1B1
100
AcDbEntity
  8
0
100
AcDbBlockBegin
  2
*D19
 70
     1
 10
0.0
 20
0.0
 30
0.0
  3
*D19
  1

  0
LINE
  5
1B4
330
1B1
100
AcDbEntity
  8
LAY-10
  6
CONTINUOUS
 62
     4
100
AcDbLine
 10
560.0000000000401
 20
904.2000000000003
 30
0.0
 11
560.00000000004
 21
771.1999999999998
 31
0.0
  0
LINE
  5
1B5
330
1B1
100
AcDbEntity
  8
LAY-10
  6
CONTINUOUS
 62
     4
100
AcDbLine
 10
1759.99999999998
 20
904.2000000000003
 30
0.0
 11
1759.99999999998
 21
771.1999999999998
 31
0.0
  0
LINE
  5
1B6
330
1B1
100
AcDbEntity
  8
LAY-10
  6
CONTINUOUS
 62
     4
100
AcDbLine
 10
585.00000000004
 20
786.1999999999998
 30
0.0
 11
1734.99999999998
 21
786.1999999999998
 31
0.0
  0
INSERT
  5
1B7
330
1B1
100
AcDbEntity
  8
LAY-10
 62
     4
100
AcDbBlockReference
  2
EX_BNORM
 10
560.00000000004
 20
786.1999999999998
 30
0.0
 41
25.0
 42
25.0
 43
25.0
 50
180.0
  0
INSERT
  5
1B8
330
1B1
100
AcDbEntity
  8
LAY-10
 62
     4
100
AcDbBlockReference
  2
EX_BNORM
 10
1759.99999999998
 20
786.1999999999998
 30
0.0
 41
25.0
 42
25.0
 43
25.0
  0
MTEXT
  5
1B9
330
1B1
100
AcDbEntity
  8
LAY-10
 62
     7
100
AcDbMText
 10
1160.00000000001
 20
811.1999999999998
 30
0.0
 40
31.181104
 41
0.0
 71
     5
 72
     1
  1
1200
  7
EXCADDIM1
  0
POINT
  5
1BA
330
1B1
100
AcDbEntity
  8
DEFPOINTS
 62
     0
100
AcDbPoint
 10
560.0000000000401
 20
922.2000000000244
 30
0.0
  0
POINT
  5
1BB
330
1B1
100
AcDbEntity
  8
DEFPOINTS
 62
     0
100
AcDbPoint
 10
1759.99999999998
 20
922.2000000000244
 30
0.0
  0
POINT
  5
1BC
330
1B1
100
AcDbEntity
  8
DEFPOINTS
 62
     0
100
AcDbPoint
 10
1759.99999999998
 20
786.1999999999998
 30
0.0
  0
ENDBLK
  5
1B3
330
1B1
100
AcDbEntity
  8
0
100
AcDbBlockEnd
  0
BLOCK
  5
1BF
330
1BE
100
AcDbEntity
  8
0
100
AcDbBlockBegin
  2
*D20
 70
     1
 10
0.0
 20
0.0
 30
0.0
  3
*D20
  1

  0
LINE
  5
1C1
330
1BE
100
AcDbEntity
  8
LAY-10
  6
CONTINUOUS
 62
     4
100
AcDbLine
 10
505.00000000003
 20
1021.199999999976
 30
0.0
 11
505.00000000003
 21
1191.2
 31
0.0
  0
LINE
  5
1C2
330
1BE
100
AcDbEntity
  8
LAY-10
  6
CONTINUOUS
 62
     4
100
AcDbLine
 10
1814.99999999998
 20
1021.199999999976
 30
0.0
 11
1814.99999999998
 21
1191.2
 31
0.0
  0
LINE
  5
1C3
330
1BE
100
AcDbEntity
  8
LAY-10
  6
CONTINUOUS
 62
     4
100
AcDbLine
 10
530.00000000003
 20
1176.2
 30
0.0
 11
1789.99999999998
 21
1176.2
 31
0.0
  0
INSERT
  5
1C4
330
1BE
100
AcDbEntity
  8
LAY-10
 62
     4
100
AcDbBlockReference
  2
EX_BNORM
 10
505.00000000003
 20
1176.2
 30
0.0
 41
25.0
 42
25.0
 43
25.0
 50
180.0
  0
INSERT
  5
1C5
330
1BE
100
AcDbEntity
  8
LAY-10
 62
     4
100
AcDbBlockReference
  2
EX_BNORM
 10
1814.99999999998
 20
1176.2
 30
0.0
 41
25.0
 42
25.0
 43
25.0
  0
MTEXT
  5
1C6
330
1BE
100
AcDbEntity
  8
LAY-10
 62
     7
100
AcDbMText
 10
1160.000000000005
 20
1201.2
 30
0.0
 40
31.181104
 41
0.0
 71
     5
 72
     1
  1
1310
  7
EXCADDIM1
  0
POINT
  5
1C7
330
1BE
100
AcDbEntity
  8
DEFPOINTS
 62
     0
100
AcDbPoint
 10
505.00000000003
 20
1006.199999999976
 30
0.0
  0
POINT
  5
1C8
330
1BE
100
AcDbEntity
  8
DEFPOINTS
 62
     0
100
AcDbPoint
 10
1814.99999999998
 20
1006.199999999976
 30
0.0
  0
POINT
  5
1C9
330
1BE
100
AcDbEntity
  8
DEFPOINTS
 62
     0
100
AcDbPoint
 10
1814.99999999998
 20
1176.2
 30
0.0
  0
ENDBLK
  5
1C0
330
1BE
100
AcDbEntity
  8
0
100
AcDbBlockEnd
  0
BLOCK
  5
1CC
330
1CB
100
AcDbEntity
  8
0
100
AcDbBlockBegin
  2
*D21
 70
     1
 10
0.0
 20
0.0
 30
0.0
  3
*D21
  1

  0
LINE
  5
1CE
330
1CB
100
AcDbEntity
  8
LAY-10
  6
CONTINUOUS
 62
     4
100
AcDbLine
 10
521.0000000000213
 20
1021.200000000003
 30
0.0
 11
521.0000000000213
 21
1121.2
 31
0.0
  0
LINE
  5
1CF
330
1CB
100
AcDbEntity
  8
LAY-10
  6
CONTINUOUS
 62
     4
100
AcDbLine
 10
946.0000000000213
 20
1021.200000000003
 30
0.0
 11
946.0000000000213
 21
1121.2
 31
0.0
  0
LINE
  5
1D0
330
1CB
100
AcDbEntity
  8
LAY-10
  6
CONTINUOUS
 62
     4
100
AcDbLine
 10
546.0000000000213
 20
1106.2
 30
0.0
 11
921.0000000000213
 21
1106.2
 31
0.0
  0
INSERT
  5
1D1
330
1CB
100
AcDbEntity
  8
LAY-10
 62
     4
100
AcDbBlockReference
  2
EX_BNORM
 10
521.0000000000213
 20
1106.2
 30
0.0
 41
25.0
 42
25.0
 43
25.0
 50
180.0
  0
INSERT
  5
1D2
330
1CB
100
AcDbEntity
  8
LAY-10
 62
     4
100
AcDbBlockReference
  2
EX_BNORM
 10
946.0000000000213
 20
1106.2
 30
0.0
 41
25.0
 42
25.0
 43
25.0
  0
MTEXT
  5
1D3
330
1CB
100
AcDbEntity
  8
LAY-10
 62
     7
100
AcDbMText
 10
733.5000000000213
 20
1131.2
 30
0.0
 40
31.181104
 41
0.0
 71
     5
 72
     1
  1
425
  7
EXCADDIM1
  0
POINT
  5
1D4
330
1CB
100
AcDbEntity
  8
DEFPOINTS
 62
     0
100
AcDbPoint
 10
521.0000000000213
 20
1006.200000000003
 30
0.0
  0
POINT
  5
1D5
330
1CB
100
AcDbEntity
  8
DEFPOINTS
 62
     0
100
AcDbPoint
 10
946.0000000000213
 20
1006.200000000003
 30
0.0
  0
POINT
  5
1D6
330
1CB
100
AcDbEntity
  8
DEFPOINTS
 62
     0
100
AcDbPoint
 10
946.0000000000213
 20
1106.2
 30
0.0
  0
ENDBLK
  5
1CD
330
1CB
100
AcDbEntity
  8
0
100
AcDbBlockEnd
  0
BLOCK
  5
1D9
330
1D8
100
AcDbEntity
  8
0
100
AcDbBlockBegin
  2
*D22
 70
     1
 10
0.0
 20
0.0
 30
0.0
  3
*D22
  1

  0
LINE
  5
1DB
330
1D8
100
AcDbEntity
  8
LAY-10
  6
CONTINUOUS
 62
     4
100
AcDbLine
 10
1829.99999999998
 20
1006.199999999976
 30
0.0
 11
1965.0
 21
1006.199999999976
 31
0.0
  0
LINE
  5
1DC
330
1D8
100
AcDbEntity
  8
LAY-10
  6
CONTINUOUS
 62
     4
100
AcDbLine
 10
1818.19999999998
 20
916.1999999999762
 30
0.0
 11
1965.0
 21
916.1999999999762
 31
0.0
  0
LINE
  5
1DD
330
1D8
100
AcDbEntity
  8
LAY-10
  6
CONTINUOUS
 62
     4
100
AcDbLine
 10
1950.0
 20
981.1999999999762
 30
0.0
 11
1950.0
 21
941.1999999999762
 31
0.0
  0
INSERT
  5
1DE
330
1D8
100
AcDbEntity
  8
LAY-10
 62
     4
100
AcDbBlockReference
  2
EX_BNORM
 10
1950.0
 20
1006.199999999976
 30
0.0
 41
25.0
 42
25.0
 43
25.0
 50
90.0
  0
INSERT
  5
1DF
330
1D8
100
AcDbEntity
  8
LAY-10
 62
     4
100
AcDbBlockReference
  2
EX_BNORM
 10
1950.0
 20
916.1999999999762
 30
0.0
 41
25.0
 42
25.0
 43
25.0
 50
270.0
  0
MTEXT
  5
1E0
330
1D8
100
AcDbEntity
  8
LAY-10
 62
     7
100
AcDbMText
 10
1925.0
 20
961.1999999999758
 30
0.0
 40
31.181104
 41
0.0
 71
     5
 72
     1
  1
90
  7
EXCADDIM1
 11
0.0
 21
1.0
 31
0.0
  0
POINT
  5
1E1
330
1D8
100
AcDbEntity
  8
DEFPOINTS
 62
     0
100
AcDbPoint
 10
1814.99999999998
 20
1006.199999999976
 30
0.0
  0
POINT
  5
1E2
330
1D8
100
AcDbEntity
  8
DEFPOINTS
 62
     0
100
AcDbPoint
 10
1803.19999999998
 20
916.1999999999762
 30
0.0
  0
POINT
  5
1E3
330
1D8
100
AcDbEntity
  8
DEFPOINTS
 62
     0
100
AcDbPoint
 10
1950.0
 20
916.1999999999762
 30
0.0
  0
ENDBLK
  5
1DA
330
1D8
100
AcDbEntity
  8
0
100
AcDbBlockEnd
  0
BLOCK
  5
523
330
522
100
AcDbEntity
  8
0
100
AcDbBlockBegin
  2
*D23
 70
     1
 10
0.0
 20
0.0
 30
0.0
  3
*D23
  1

  0
LINE
  5
525
330
522
100
AcDbEntity
  8
LAY-20
  6
CONTINUOUS
 62
     4
100
AcDbLine
 10
1806.2
 20
904.2000000000003
 30
0.0
 11
1806.2
 21
701.1999999999998
 31
0.0
  0
LINE
  5
526
330
522
100
AcDbEntity
  8
LAY-20
  6
CONTINUOUS
 62
     4
100
AcDbLine
 10
513.80000000003
 20
904.2000000000003
 30
0.0
 11
513.80000000003
 21
701.1999999999998
 31
0.0
  0
LINE
  5
527
330
522
100
AcDbEntity
  8
LAY-20
  6
CONTINUOUS
 62
     4
100
AcDbLine
 10
1781.2
 20
716.1999999999998
 30
0.0
 11
538.80000000003
 21
716.1999999999998
 31
0.0
  0
INSERT
  5
528
330
522
100
AcDbEntity
  8
LAY-20
 62
     4
100
AcDbBlockReference
  2
EX_BNORM
 10
1806.2
 20
716.1999999999998
 30
0.0
 41
25.0
 42
25.0
 43
25.0
  0
INSERT
  5
529
330
522
100
AcDbEntity
  8
LAY-20
 62
     4
100
AcDbBlockReference
  2
EX_BNORM
 10
513.80000000003
 20
716.1999999999998
 30
0.0
 41
25.0
 42
25.0
 43
25.0
 50
180.0
  0
MTEXT
  5
52A
330
522
100
AcDbEntity
  8
LAY-20
 62
     7
100
AcDbMText
 10
1160.000000000015
 20
741.1999999999998
 30
0.0
 40
31.181104
 41
0.0
 71
     5
 72
     1
  1
1292
  7
EXCADDIM1
  0
POINT
  5
52B
330
522
100
AcDbEntity
  8
DEFPOINTS
 62
     0
100
AcDbPoint
 10
1806.2
 20
919.2000000000003
 30
0.0
  0
POINT
  5
52C
330
522
100
AcDbEntity
  8
DEFPOINTS
 62
     0
100
AcDbPoint
 10
513.80000000003
 20
919.2000000000003
 30
0.0
  0
POINT
  5
52D
330
522
100
AcDbEntity
  8
DEFPOINTS
 62
     0
100
AcDbPoint
 10
513.80000000003
 20
716.1999999999998
 30
0.0
  0
ENDBLK
  5
524
330
522
100
AcDbEntity
  8
0
100
AcDbBlockEnd
  0
BLOCK
  5
530
330
52F
100
AcDbEntity
  8
0
100
AcDbBlockBegin
  2
*D24
 70
     1
 10
0.0
 20
0.0
 30
0.0
  3
*D24
  1

  0
LINE
  5
532
330
52F
100
AcDbEntity
  8
LAY-20
  6
CONTINUOUS
 62
     4
100
AcDbLine
 10
2200.0000000001
 20
2150.099999999999
 30
0.0
 11
2030.0000000001
 21
2150.099999999999
 31
0.0
  0
LINE
  5
533
330
52F
100
AcDbEntity
  8
LAY-20
  6
CONTINUOUS
 62
     4
100
AcDbLine
 10
2200.0000000001
 20
1366.099999999999
 30
0.0
 11
2030.0000000001
 21
1366.099999999999
 31
0.0
  0
LINE
  5
534
330
52F
100
AcDbEntity
  8
LAY-20
  6
CONTINUOUS
 62
     4
100
AcDbLine
 10
2045.0000000001
 20
2125.099999999999
 30
0.0
 11
2045.0000000001
 21
1391.099999999999
 31
0.0
  0
INSERT
  5
535
330
52F
100
AcDbEntity
  8
LAY-20
 62
     4
100
AcDbBlockReference
  2
EX_BNORM
 10
2045.0000000001
 20
2150.099999999999
 30
0.0
 41
25.0
 42
25.0
 43
25.0
 50
90.0
  0
INSERT
  5
536
330
52F
100
AcDbEntity
  8
LAY-20
 62
     4
100
AcDbBlockReference
  2
EX_BNORM
 10
2045.0000000001
 20
1366.099999999999
 30
0.0
 41
25.0
 42
25.0
 43
25.0
 50
270.0
  0
MTEXT
  5
537
330
52F
100
AcDbEntity
  8
LAY-20
 62
     7
100
AcDbMText
 10
2020.0000000001
 20
1758.099999999999
 30
0.0
 40
31.181104
 41
0.0
 71
     5
 72
     1
  1
784
  7
EXCADDIM1
 11
0.0
 21
1.0
 31
0.0
  0
POINT
  5
538
330
52F
100
AcDbEntity
  8
DEFPOINTS
 62
     0
100
AcDbPoint
 10
2215.0000000001
 20
2150.099999999999
 30
0.0
  0
POINT
  5
539
330
52F
100
AcDbEntity
  8
DEFPOINTS
 62
     0
100
AcDbPoint
 10
2215.0000000001
 20
1366.099999999999
 30
0.0
  0
POINT
  5
53A
330
52F
100
AcDbEntity
  8
DEFPOINTS
 62
     0
100
AcDbPoint
 10
2045.0000000001
 20
1366.099999999999
 30
0.0
  0
ENDBLK
  5
531
330
52F
100
AcDbEntity
  8
0
100
AcDbBlockEnd
  0
BLOCK
  5
53D
330
53C
100
AcDbEntity
  8
0
100
AcDbBlockBegin
  2
*D25
 70
     1
 10
0.0
 20
0.0
 30
0.0
  3
*D25
  1

  0
LINE
  5
53F
330
53C
100
AcDbEntity
  8
LAY-20
  6
CONTINUOUS
 62
     4
100
AcDbLine
 10
2200.000000000078
 20
1382.100000000015
 30
0.0
 11
2100.0000000001
 21
1382.100000000015
 31
0.0
  0
LINE
  5
540
330
53C
100
AcDbEntity
  8
LAY-20
  6
CONTINUOUS
 62
     4
100
AcDbLine
 10
2200.000000000078
 20
2134.100000000018
 30
0.0
 11
2100.0000000001
 21
2134.100000000018
 31
0.0
  0
LINE
  5
541
330
53C
100
AcDbEntity
  8
LAY-20
  6
CONTINUOUS
 62
     4
100
AcDbLine
 10
2115.0000000001
 20
1407.100000000015
 30
0.0
 11
2115.0000000001
 21
2109.100000000018
 31
0.0
  0
INSERT
  5
542
330
53C
100
AcDbEntity
  8
LAY-20
 62
     4
100
AcDbBlockReference
  2
EX_BNORM
 10
2115.0000000001
 20
1382.100000000015
 30
0.0
 41
25.0
 42
25.0
 43
25.0
 50
270.0
  0
INSERT
  5
543
330
53C
100
AcDbEntity
  8
LAY-20
 62
     4
100
AcDbBlockReference
  2
EX_BNORM
 10
2115.0000000001
 20
2134.100000000018
 30
0.0
 41
25.0
 42
25.0
 43
25.0
 50
90.0
  0
MTEXT
  5
544
330
53C
100
AcDbEntity
  8
LAY-20
 62
     7
100
AcDbMText
 10
2090.0000000001
 20
1758.100000000017
 30
0.0
 40
31.181104
 41
0.0
 71
     5
 72
     1
  1
752
  7
EXCADDIM1
 11
0.0
 21
1.0
 31
0.0
  0
POINT
  5
545
330
53C
100
AcDbEntity
  8
DEFPOINTS
 62
     0
100
AcDbPoint
 10
2215.000000000078
 20
1382.100000000015
 30
0.0
  0
POINT
  5
546
330
53C
100
AcDbEntity
  8
DEFPOINTS
 62
     0
100
AcDbPoint
 10
2215.000000000078
 20
2134.100000000018
 30
0.0
  0
POINT
  5
547
330
53C
100
AcDbEntity
  8
DEFPOINTS
 62
     0
100
AcDbPoint
 10
2115.0000000001
 20
2134.100000000018
 30
0.0
  0
ENDBLK
  5
53E
330
53C
100
AcDbEntity
  8
0
100
AcDbBlockEnd
  0
BLOCK
  5
54A
330
549
100
AcDbEntity
  8
0
100
AcDbBlockBegin
  2
*D26
 70
     1
 10
0.0
 20
0.0
 30
0.0
  3
*D26
  1

  0
LINE
  5
54C
330
549
100
AcDbEntity
  8
LAY-20
  6
CONTINUOUS
 62
     4
100
AcDbLine
 10
2350.0000000001
 20
2058.099999999899
 30
0.0
 11
2450.0000000001
 21
2058.099999999899
 31
0.0
  0
LINE
  5
54D
330
549
100
AcDbEntity
  8
LAY-20
  6
CONTINUOUS
 62
     4
100
AcDbLine
 10
2350.0000000001
 20
1458.099999999999
 30
0.0
 11
2450.0000000001
 21
1458.099999999999
 31
0.0
  0
LINE
  5
54E
330
549
100
AcDbEntity
  8
LAY-20
  6
CONTINUOUS
 62
     4
100
AcDbLine
 10
2435.0000000001
 20
2033.099999999899
 30
0.0
 11
2435.0000000001
 21
1483.099999999999
 31
0.0
  0
INSERT
  5
54F
330
549
100
AcDbEntity
  8
LAY-20
 62
     4
100
AcDbBlockReference
  2
EX_BNORM
 10
2435.0000000001
 20
2058.099999999899
 30
0.0
 41
25.0
 42
25.0
 43
25.0
 50
90.0
  0
INSERT
  5
550
330
549
100
AcDbEntity
  8
LAY-20
 62
     4
100
AcDbBlockReference
  2
EX_BNORM
 10
2435.0000000001
 20
1458.099999999999
 30
0.0
 41
25.0
 42
25.0
 43
25.0
 50
270.0
  0
MTEXT
  5
551
330
549
100
AcDbEntity
  8
LAY-20
 62
     7
100
AcDbMText
 10
2410.0000000001
 20
1758.099999999949
 30
0.0
 40
31.181104
 41
0.0
 71
     5
 72
     1
  1
600
  7
EXCADDIM1
 11
0.0
 21
1.0
 31
0.0
  0
POINT
  5
552
330
549
100
AcDbEntity
  8
DEFPOINTS
 62
     0
100
AcDbPoint
 10
2335.0000000001
 20
2058.099999999899
 30
0.0
  0
POINT
  5
553
330
549
100
AcDbEntity
  8
DEFPOINTS
 62
     0
100
AcDbPoint
 10
2335.0000000001
 20
1458.099999999999
 30
0.0
  0
POINT
  5
554
330
549
100
AcDbEntity
  8
DEFPOINTS
 62
     0
100
AcDbPoint
 10
2435.0000000001
 20
1458.099999999999
 30
0.0
  0
ENDBLK
  5
54B
330
549
100
AcDbEntity
  8
0
100
AcDbBlockEnd
  0
BLOCK
  5
557
330
556
100
AcDbEntity
  8
0
100
AcDbBlockBegin
  2
*D27
 70
     1
 10
0.0
 20
0.0
 30
0.0
  3
*D27
  1

  0
LINE
  5
559
330
556
100
AcDbEntity
  8
LAY-20
  6
CONTINUOUS
 62
     4
100
AcDbLine
 10
2273.7000000001
 20
2141.299999999999
 30
0.0
 11
2520.000000000101
 21
2141.299999999999
 31
0.0
  0
LINE
  5
55A
330
556
100
AcDbEntity
  8
LAY-20
  6
CONTINUOUS
 62
     4
100
AcDbLine
 10
2273.7000000001
 20
1374.9
 30
0.0
 11
2520.000000000101
 21
1374.9
 31
0.0
  0
LINE
  5
55B
330
556
100
AcDbEntity
  8
LAY-20
  6
CONTINUOUS
 62
     4
100
AcDbLine
 10
2505.000000000101
 20
2116.299999999999
 30
0.0
 11
2505.000000000101
 21
1399.9
 31
0.0
  0
INSERT
  5
55C
330
556
100
AcDbEntity
  8
LAY-20
 62
     4
100
AcDbBlockReference
  2
EX_BNORM
 10
2505.000000000101
 20
2141.299999999999
 30
0.0
 41
25.0
 42
25.0
 43
25.0
 50
90.0
  0
INSERT
  5
55D
330
556
100
AcDbEntity
  8
LAY-20
 62
     4
100
AcDbBlockReference
  2
EX_BNORM
 10
2505.000000000101
 20
1374.9
 30
0.0
 41
25.0
 42
25.0
 43
25.0
 50
270.0
  0
MTEXT
  5
55E
330
556
100
AcDbEntity
  8
LAY-20
 62
     7
100
AcDbMText
 10
2480.000000000101
 20
1758.099999999999
 30
0.0
 40
31.181104
 41
0.0
 71
     5
 72
     1
  1
766
  7
EXCADDIM1
 11
0.0
 21
1.0
 31
0.0
  0
POINT
  5
55F
330
556
100
AcDbEntity
  8
DEFPOINTS
 62
     0
100
AcDbPoint
 10
2258.7000000001
 20
2141.299999999999
 30
0.0
  0
POINT
  5
560
330
556
100
AcDbEntity
  8
DEFPOINTS
 62
     0
100
AcDbPoint
 10
2258.7000000001
 20
1374.9
 30
0.0
  0
POINT
  5
561
330
556
100
AcDbEntity
  8
DEFPOINTS
 62
     0
100
AcDbPoint
 10
2505.000000000101
 20
1374.9
 30
0.0
  0
ENDBLK
  5
558
330
556
100
AcDbEntity
  8
0
100
AcDbBlockEnd
  0
BLOCK
  5
564
330
563
100
AcDbEntity
  8
0
100
AcDbBlockBegin
  2
*D28
 70
     1
 10
0.0
 20
0.0
 30
0.0
  3
*D28
  1

  0
LINE
  5
566
330
563
100
AcDbEntity
  8
LAY-20
  6
CONTINUOUS
 62
     4
100
AcDbLine
 10
1292.0
 20
1001.7
 30
0.0
 11
1292.0
 21
1006.2
 31
0.0
  0
LINE
  5
567
330
563
100
AcDbEntity
  8
LAY-20
  6
CONTINUOUS
 62
     4
100
AcDbLine
 10
1292.0
 20
976.7000000000002
 30
0.0
 11
1292.0
 21
951.7000000000002
 31
0.0
  0
LINE
  5
568
330
563
100
AcDbEntity
  8
LAY-20
  6
CONTINUOUS
 62
     4
100
AcDbLine
 10
1292.0
 20
1031.2
 30
0.0
 11
1292.0
 21
1056.2
 31
0.0
  0
INSERT
  5
569
330
563
100
AcDbEntity
  8
LAY-20
 62
     4
100
AcDbBlockReference
  2
EX_BNORM
 10
1292.0
 20
1001.7
 30
0.0
 41
25.0
 42
25.0
 43
25.0
 50
90.0
  0
INSERT
  5
56A
330
563
100
AcDbEntity
  8
LAY-20
 62
     4
100
AcDbBlockReference
  2
EX_BNORM
 10
1292.0
 20
1006.2
 30
0.0
 41
25.0
 42
25.0
 43
25.0
 50
270.0
  0
MTEXT
  5
56B
330
563
100
AcDbEntity
  8
LAY-20
 62
     7
100
AcDbMText
 10
1267.0
 20
1071.2
 30
0.0
 40
31.181104
 41
0.0
 71
     5
 72
     1
  1
4.5
  7
EXCADDIM1
 11
0.0
 21
1.0
 31
0.0
  0
POINT
  5
56C
330
563
100
AcDbEntity
  8
DEFPOINTS
 62
     0
100
AcDbPoint
 10
1292.0
 20
1001.7
 30
0.0
  0
POINT
  5
56D
330
563
100
AcDbEntity
  8
DEFPOINTS
 62
     0
100
AcDbPoint
 10
1292.0
 20
1006.2
 30
0.0
  0
POINT
  5
56E
330
563
100
AcDbEntity
  8
DEFPOINTS
 62
     0
100
AcDbPoint
 10
1292.0
 20
1006.2
 30
0.0
  0
ENDBLK
  5
565
330
563
100
AcDbEntity
  8
0
100
AcDbBlockEnd
  0
ENDSEC
  0
SECTION
  2
ENTITIES
  0
INSERT
  5
152
330
1F
100
AcDbEntity
  8
LAY-10
  6
CONTINUOUS
 62
     0
100
AcDbBlockReference
  2
SYM-1
 10
0.0
 20
0.0
 30
0.0
  0
INSERT
  5
153
330
1F
100
AcDbEntity
  8
LAY-10
  6
CONTINUOUS
 62
     0
100
AcDbBlockReference
  2
SYM-2
 10
0.0
 20
0.0
 30
0.0
  0
INSERT
  5
154
330
1F
100
AcDbEntity
  8
LAY-10
  6
CONTINUOUS
 62
     0
100
AcDbBlockReference
  2
SYM-3
 10
0.0
 20
0.0
 30
0.0
  0
INSERT
  5
155
330
1F
100
AcDbEntity
  8
LAY-10
  6
CONTINUOUS
 62
     0
100
AcDbBlockReference
  2
SYM-4
 10
0.0
 20
0.0
 30
0.0
  0
LINE
  5
156
330
1F
100
AcDbEntity
  8
LAY-10
  6
CONTINUOUS
 62
     7
100
AcDbLine
 10
520.0000000000327
 20
1006.200000000003
 30
0.0
 11
520.0000000000327
 21
991.2000000000044
 31
0.0
  0
LINE
  5
157
330
1F
100
AcDbEntity
  8
LAY-10
  6
CONTINUOUS
 62
     7
100
AcDbLine
 10
517.0000000000327
 20
1003.200000000004
 30
0.0
 11
505.0000000000327
 21
1003.200000000004
 31
0.0
  0
LINE
  5
158
330
1F
100
AcDbEntity
  8
LAY-10
  6
CONTINUOUS
 62
     7
100
AcDbLine
 10
520.0000000000327
 20
991.2000000000044
 30
0.0
 11
517.0000000000327
 21
991.2000000000044
 31
0.0
  0
LINE
  5
159
330
1F
100
AcDbEntity
  8
LAY-10
  6
CONTINUOUS
 62
     7
100
AcDbLine
 10
505.0000000000327
 20
1006.200000000003
 30
0.0
 11
505.0000000000327
 21
1003.200000000004
 31
0.0
  0
LINE
  5
15A
330
1F
100
AcDbEntity
  8
LAY-10
  6
CONTINUOUS
 62
     7
100
AcDbLine
 10
520.0000000000327
 20
1006.200000000003
 30
0.0
 11
505.0000000000327
 21
1006.200000000003
 31
0.0
  0
LINE
  5
15B
330
1F
100
AcDbEntity
  8
LAY-10
  6
CONTINUOUS
 62
     7
100
AcDbLine
 10
570.0000000000327
 20
928.4000000000033
 30
0.0
 11
570.0000000000327
 21
898.4000000000033
 31
0.0
  0
LINE
  5
15C
330
1F
100
AcDbEntity
  8
LAY-10
  6
CONTINUOUS
 62
     7
100
AcDbLine
 10
573.0000000000309
 20
921.4000000000042
 30
0.0
 11
573.0000000000309
 21
900.4000000000042
 31
0.0
  0
LINE
  5
15D
330
1F
100
AcDbEntity
  8
LAY-10
  6
CONTINUOUS
 62
     7
100
AcDbLine
 10
600.0000000000327
 20
928.4000000000033
 30
0.0
 11
600.0000000000327
 21
927.4000000000033
 31
0.0
  0
ARC
  5
15E
330
1F
100
AcDbEntity
  8
LAY-10
  6
CONTINUOUS
 62
     7
100
AcDbCircle
 10
571.0000000000309
 20
900.4000000000042
 30
0.0
 40
2.0
100
AcDbArc
 50
270.0000000000002
 51
0.0
  0
ARC
  5
15F
330
1F
100
AcDbEntity
  8
LAY-10
  6
CONTINUOUS
 62
     7
100
AcDbCircle
 10
598.0000000000327
 20
927.4000000000033
 30
0.0
 40
2.0
100
AcDbArc
 50
270.0000000000002
 51
0.0
  0
ARC
  5
160
330
1F
100
AcDbEntity
  8
LAY-10
  6
CONTINUOUS
 62
     7
100
AcDbCircle
 10
577.0000000000327
 20
921.4000000000042
 30
0.0
 40
4.0
100
AcDbArc
 50
90.00000000000001
 51
180.0
  0
LINE
  5
161
330
1F
100
AcDbEntity
  8
LAY-10
  6
CONTINUOUS
 62
     7
100
AcDbLine
 10
1800.000000000029
 20
1006.200000000002
 30
0.0
 11
1800.000000000029
 21
991.2000000000021
 31
0.0
  0
LINE
  5
162
330
1F
100
AcDbEntity
  8
LAY-10
  6
CONTINUOUS
 62
     7
100
AcDbLine
 10
1800.000000000029
 20
1006.200000000002
 30
0.0
 11
1815.000000000029
 21
1006.200000000002
 31
0.0
  0
LINE
  5
163
330
1F
100
AcDbEntity
  8
LAY-10
  6
CONTINUOUS
 62
     7
100
AcDbLine
 10
1803.000000000029
 20
1003.200000000003
 30
0.0
 11
1815.000000000029
 21
1003.200000000003
 31
0.0
  0
LINE
  5
164
330
1F
100
AcDbEntity
  8
LAY-10
  6
CONTINUOUS
 62
     7
100
AcDbLine
 10
1800.000000000029
 20
991.2000000000021
 30
0.0
 11
1803.000000000029
 21
991.2000000000021
 31
0.0
  0
LINE
  5
165
330
1F
100
AcDbEntity
  8
LAY-10
  6
CONTINUOUS
 62
     7
100
AcDbLine
 10
1815.000000000029
 20
1006.200000000002
 30
0.0
 11
1815.000000000029
 21
1003.200000000003
 31
0.0
  0
LINE
  5
166
330
1F
100
AcDbEntity
  8
LAY-10
  6
CONTINUOUS
 62
     7
100
AcDbLine
 10
1750.000000000029
 20
928.4000000000033
 30
0.0
 11
1750.000000000029
 21
898.4000000000043
 31
0.0
  0
LINE
  5
167
330
1F
100
AcDbEntity
  8
LAY-10
  6
CONTINUOUS
 62
     7
100
AcDbLine
 10
1747.000000000029
 20
921.4000000000033
 30
0.0
 11
1747.000000000029
 21
900.4000000000042
 31
0.0
  0
LINE
  5
168
330
1F
100
AcDbEntity
  8
LAY-10
  6
CONTINUOUS
 62
     7
100
AcDbLine
 10
1720.000000000029
 20
928.4000000000033
 30
0.0
 11
1720.000000000029
 21
927.4000000000042
 31
0.0
  0
ARC
  5
169
330
1F
100
AcDbEntity
  8
LAY-10
  6
CONTINUOUS
 62
     7
100
AcDbCircle
 10
1749.000000000029
 20
900.4000000000042
 30
0.0
 40
2.0
100
AcDbArc
 50
180.0
 51
270.0000000000002
  0
ARC
  5
16A
330
1F
100
AcDbEntity
  8
LAY-10
  6
CONTINUOUS
 62
     7
100
AcDbCircle
 10
1722.000000000029
 20
927.4000000000042
 30
0.0
 40
2.0
100
AcDbArc
 50
180.0
 51
270.0000000000002
  0
ARC
  5
16B
330
1F
100
AcDbEntity
  8
LAY-10
  6
CONTINUOUS
 62
     7
100
AcDbCircle
 10
1743.000000000029
 20
921.4000000000033
 30
0.0
 40
4.0
100
AcDbArc
 50
0.0
 51
90.00000000000001
  0
LINE
  5
16C
330
1F
100
AcDbEntity
  8
LAY-10
  6
CONTINUOUS
 62
     7
100
AcDbLine
 10
524.5000000000309
 20
933.6000000000041
 30
0.0
 11
545.5000000000327
 21
933.6000000000041
 31
0.0
  0
LINE
  5
16D
330
1F
100
AcDbEntity
  8
LAY-10
  6
CONTINUOUS
 62
     7
100
AcDbLine
 10
545.5000000000327
 20
933.6000000000041
 30
0.0
 11
545.5000000000327
 21
931.600000000004
 31
0.0
  0
LINE
  5
16E
330
1F
100
AcDbEntity
  8
LAY-10
  6
CONTINUOUS
 62
     7
100
AcDbLine
 10
524.5000000000309
 20
933.6000000000041
 30
0.0
 11
524.5000000000309
 21
931.600000000004
 31
0.0
  0
LINE
  5
16F
330
1F
100
AcDbEntity
  8
LAY-10
  6
CONTINUOUS
 62
     7
100
AcDbLine
 10
545.0000000000309
 20
933.6000000000041
 30
0.0
 11
545.0000000000309
 21
941.0760000000037
 31
0.0
  0
LINE
  5
170
330
1F
100
AcDbEntity
  8
LAY-10
  6
CONTINUOUS
 62
     7
100
AcDbLine
 10
525.0000000000327
 20
933.6000000000041
 30
0.0
 11
525.0000000000327
 21
941.0760000000037
 31
0.0
  0
ARC
  5
171
330
1F
100
AcDbEntity
  8
LAY-10
  6
CONTINUOUS
 62
     7
100
AcDbCircle
 10
542.5000000000309
 20
938.1559653679687
 30
0.0
 40
3.844034632034633
100
AcDbArc
 50
49.43137502658949
 51
130.5686249733964
  0
ARC
  5
172
330
1F
100
AcDbEntity
  8
LAY-10
  6
CONTINUOUS
 62
     7
100
AcDbCircle
 10
535.0000000000327
 20
928.0098614718654
 30
0.0
 40
13.99013852813853
100
AcDbArc
 50
69.0597243938637
 51
110.9402756061452
  0
ARC
  5
173
330
1F
100
AcDbEntity
  8
LAY-10
  6
CONTINUOUS
 62
     7
100
AcDbCircle
 10
527.5000000000291
 20
938.1559653679687
 30
0.0
 40
3.844034632034633
100
AcDbArc
 50
49.43137502658278
 51
130.5686249733802
  0
LINE
  5
174
330
1F
100
AcDbEntity
  8
LAY-10
  6
CONTINUOUS
 62
     7
100
AcDbLine
 10
542.5000000000309
 20
942.0000000000036
 30
0.0
 11
527.5000000000291
 21
942.0000000000036
 31
0.0
  0
LINE
  5
175
330
1F
100
AcDbEntity
  8
LAY-10
  6
CONTINUOUS
 62
     7
100
AcDbLine
 10
1774.500000000029
 20
933.6000000000041
 30
0.0
 11
1795.500000000031
 21
933.6000000000041
 31
0.0
  0
LINE
  5
176
330
1F
100
AcDbEntity
  8
LAY-10
  6
CONTINUOUS
 62
     7
100
AcDbLine
 10
1795.500000000031
 20
933.6000000000041
 30
0.0
 11
1795.500000000031
 21
931.600000000004
 31
0.0
  0
LINE
  5
177
330
1F
100
AcDbEntity
  8
LAY-10
  6
CONTINUOUS
 62
     7
100
AcDbLine
 10
1774.500000000029
 20
933.6000000000041
 30
0.0
 11
1774.500000000029
 21
931.600000000004
 31
0.0
  0
LINE
  5
178
330
1F
100
AcDbEntity
  8
LAY-10
  6
CONTINUOUS
 62
     7
100
AcDbLine
 10
1795.000000000029
 20
933.6000000000041
 30
0.0
 11
1795.000000000029
 21
941.0760000000046
 31
0.0
  0
LINE
  5
179
330
1F
100
AcDbEntity
  8
LAY-10
  6
CONTINUOUS
 62
     7
100
AcDbLine
 10
1775.000000000031
 20
933.6000000000041
 30
0.0
 11
1775.000000000031
 21
941.0760000000046
 31
0.0
  0
ARC
  5
17A
330
1F
100
AcDbEntity
  8
LAY-10
  6
CONTINUOUS
 62
     7
100
AcDbCircle
 10
1792.500000000029
 20
938.1559653679687
 30
0.0
 40
3.844034632034633
100
AcDbArc
 50
49.43137502657321
 51
130.5686249734077
  0
ARC
  5
17B
330
1F
100
AcDbEntity
  8
LAY-10
  6
CONTINUOUS
 62
     7
100
AcDbCircle
 10
1785.000000000029
 20
928.0098614718654
 30
0.0
 40
13.99013852813853
100
AcDbArc
 50
69.05972439386198
 51
110.9402756061418
  0
ARC
  5
17C
330
1F
100
AcDbEntity
  8
LAY-10
  6
CONTINUOUS
 62
     7
100
AcDbCircle
 10
1777.500000000029
 20
938.1559653679687
 30
0.0
 40
3.844034632034633
100
AcDbArc
 50
49.43137502660484
 51
130.5686249733852
  0
LINE
  5
17D
330
1F
100
AcDbEntity
  8
LAY-10
  6
CONTINUOUS
 62
     7
100
AcDbLine
 10
1792.500000000029
 20
942.0000000000036
 30
0.0
 11
1777.500000000029
 21
942.0000000000036
 31
0.0
  0
LINE
  5
17E
330
1F
100
AcDbEntity
  8
LAY-10
  6
CONTINUOUS
 62
     7
100
AcDbLine
 10
522.7707598260349
 20
916.0920801695665
 30
0.0
 11
522.8786796564855
 21
916.200000000018
 31
0.0
  0
LINE
  5
17F
330
1F
100
AcDbEntity
  8
LAY-10
  6
CONTINUOUS
 62
     7
100
AcDbLine
 10
523.1289048190993
 20
915.7431183814442
 30
0.0
 11
523.5857864376667
 21
916.2000000000126
 31
0.0
  0
LINE
  5
180
330
1F
100
AcDbEntity
  8
LAY-10
  6
CONTINUOUS
 62
     7
100
AcDbLine
 10
523.4870498121636
 20
915.3941565933219
 30
0.0
 11
524.2928932188606
 21
916.2000000000189
 31
0.0
  0
LINE
  5
181
330
1F
100
AcDbEntity
  8
LAY-10
  6
CONTINUOUS
 62
     7
100
AcDbLine
 10
523.8451948052389
 20
915.0451948052114
 30
0.0
 11
525.0000000000309
 21
916.2000000000025
 31
0.0
  0
LINE
  5
182
330
1F
100
AcDbEntity
  8
LAY-10
  6
CONTINUOUS
 62
     7
100
AcDbLine
 10
524.2033397983032
 20
914.6962330170891
 30
0.0
 11
525.0000000000236
 21
915.4928932188096
 31
0.0
  0
LINE
  5
183
330
1F
100
AcDbEntity
  8
LAY-10
  6
CONTINUOUS
 62
     7
100
AcDbLine
 10
524.5614847913675
 20
914.3472712289658
 30
0.0
 11
525.00000000004
 21
914.7857864376402
 31
0.0
  0
LINE
  5
184
330
1F
100
AcDbEntity
  8
LAY-10
  6
CONTINUOUS
 62
     7
100
AcDbLine
 10
524.9196297844319
 20
913.9983094408435
 30
0.0
 11
525.0000000000218
 21
914.0786796564353
 31
0.0
  0
LINE
  5
185
330
1F
100
AcDbEntity
  8
LAY-10
  6
CONTINUOUS
 62
     7
100
AcDbLine
 10
547.1213203435836
 20
916.2000000000126
 30
0.0
 11
547.2016905591972
 21
916.1196297843981
 31
0.0
  0
LINE
  5
186
330
1F
100
AcDbEntity
  8
LAY-10
  6
CONTINUOUS
 62
     7
100
AcDbLine
 10
546.4142135623897
 20
916.2000000000189
 30
0.0
 11
546.8527287710749
 21
915.7614847913337
 31
0.0
  0
LINE
  5
187
330
1F
100
AcDbEntity
  8
LAY-10
  6
CONTINUOUS
 62
     7
100
AcDbLine
 10
545.7071067812085
 20
916.2000000000135
 30
0.0
 11
546.5037669829653
 21
915.4033397982585
 31
0.0
  0
LINE
  5
188
330
1F
100
AcDbEntity
  8
LAY-10
  6
CONTINUOUS
 62
     7
100
AcDbLine
 10
545.0000000000273
 20
916.200000000008
 30
0.0
 11
546.1548051948412
 21
915.0451948051941
 31
0.0
  0
LINE
  5
189
330
1F
100
AcDbEntity
  8
LAY-10
  6
CONTINUOUS
 62
     7
100
AcDbLine
 10
545.0000000000327
 20
915.4928932188159
 30
0.0
 11
545.8058434067189
 21
914.6870498121298
 31
0.0
  0
LINE
  5
18A
330
1F
100
AcDbEntity
  8
LAY-10
  6
CONTINUOUS
 62
     7
100
AcDbLine
 10
545.00000000004
 20
914.7857864376228
 30
0.0
 11
545.4568816185965
 21
914.3289048190655
 31
0.0
  0
LINE
  5
18B
330
1F
100
AcDbEntity
  8
LAY-10
  6
CONTINUOUS
 62
     7
100
AcDbLine
 10
545.0000000000346
 20
914.0786796564407
 30
0.0
 11
545.1079198304869
 21
913.9707598259893
 31
0.0
  0
LINE
  5
18C
330
1F
100
AcDbEntity
  8
LAY-10
  6
CONTINUOUS
 62
     7
100
AcDbLine
 10
1772.770759826017
 20
916.0920801695502
 30
0.0
 11
1772.878679656467
 21
916.2000000000025
 31
0.0
  0
LINE
  5
18D
330
1F
100
AcDbEntity
  8
LAY-10
  6
CONTINUOUS
 62
     7
100
AcDbLine
 10
1773.128904819079
 20
915.7431183814278
 30
0.0
 11
1773.585786437649
 21
916.1999999999972
 31
0.0
  0
LINE
  5
18E
330
1F
100
AcDbEntity
  8
LAY-10
  6
CONTINUOUS
 62
     7
100
AcDbLine
 10
1773.487049812156
 20
915.3941565933173
 30
0.0
 11
1774.292893218842
 21
916.2000000000035
 31
0.0
  0
LINE
  5
18F
330
1F
100
AcDbEntity
  8
LAY-10
  6
CONTINUOUS
 62
     7
100
AcDbLine
 10
1773.845194805221
 20
915.045194805195
 30
0.0
 11
1775.000000000024
 21
916.199999999998
 31
0.0
  0
LINE
  5
190
330
1F
100
AcDbEntity
  8
LAY-10
  6
CONTINUOUS
 62
     7
100
AcDbLine
 10
1774.203339798285
 20
914.6962330170727
 30
0.0
 11
1775.000000000029
 21
915.4928932188168
 31
0.0
  0
LINE
  5
191
330
1F
100
AcDbEntity
  8
LAY-10
  6
CONTINUOUS
 62
     7
100
AcDbLine
 10
1774.561484791348
 20
914.3472712289504
 30
0.0
 11
1775.000000000022
 21
914.7857864376238
 31
0.0
  0
LINE
  5
192
330
1F
100
AcDbEntity
  8
LAY-10
  6
CONTINUOUS
 62
     7
100
AcDbLine
 10
1774.919629784425
 20
913.998309440839
 30
0.0
 11
1775.000000000027
 21
914.0786796564425
 31
0.0
  0
LINE
  5
193
330
1F
100
AcDbEntity
  8
LAY-10
  6
CONTINUOUS
 62
     7
100
AcDbLine
 10
1797.121320343576
 20
916.2000000000171
 30
0.0
 11
1797.201690559179
 21
916.1196297844145
 31
0.0
  0
LINE
  5
194
330
1F
100
AcDbEntity
  8
LAY-10
  6
CONTINUOUS
 62
     7
100
AcDbLine
 10
1796.414213562397
 20
916.2000000000116
 30
0.0
 11
1796.85272877107
 21
915.7614847913374
 31
0.0
  0
LINE
  5
195
330
1F
100
AcDbEntity
  8
LAY-10
  6
CONTINUOUS
 62
     7
100
AcDbLine
 10
1795.707106781214
 20
916.2000000000063
 30
0.0
 11
1796.503766982947
 21
915.4033397982739
 31
0.0
  0
LINE
  5
196
330
1F
100
AcDbEntity
  8
LAY-10
  6
CONTINUOUS
 62
     7
100
AcDbLine
 10
1795.000000000033
 20
916.2000000000007
 30
0.0
 11
1796.154805194825
 21
915.0451948052097
 31
0.0
  0
LINE
  5
197
330
1F
100
AcDbEntity
  8
LAY-10
  6
CONTINUOUS
 62
     7
100
AcDbLine
 10
1795.000000000027
 20
915.4928932188204
 30
0.0
 11
1795.805843406703
 21
914.6870498121452
 31
0.0
  0
LINE
  5
198
330
1F
100
AcDbEntity
  8
LAY-10
  6
CONTINUOUS
 62
     7
100
AcDbLine
 10
1795.000000000035
 20
914.7857864376274
 30
0.0
 11
1795.456881618591
 21
914.3289048190701
 31
0.0
  0
LINE
  5
199
330
1F
100
AcDbEntity
  8
LAY-10
  6
CONTINUOUS
 62
     7
100
AcDbLine
 10
1795.000000000016
 20
914.078679656458
 30
0.0
 11
1795.107919830469
 21
913.9707598260056
 31
0.0
  0
LINE
  5
19A
330
1F
100
AcDbEntity
  8
LAY-10
  6
CONTINUOUS
 62
     7
100
AcDbLine
 10
1763.316361864732
 20
925.103908760404
 30
0.0
 11
1766.035037849031
 21
927.8225847447029
 31
0.0
  0
LINE
  5
19B
330
1F
100
AcDbEntity
  8
LAY-10
  6
CONTINUOUS
 62
     7
100
AcDbLine
 10
1763.134545210831
 20
923.5078785441038
 30
0.0
 11
1767.984621455931
 21
928.3579547893032
 31
0.0
  0
LINE
  5
19C
330
1F
100
AcDbEntity
  8
LAY-10
  6
CONTINUOUS
 62
     7
100
AcDbLine
 10
1763.447416073532
 20
922.4065358445032
 30
0.0
 11
1769.439517546232
 21
928.3986373172038
 31
0.0
  0
LINE
  5
19D
330
1F
100
AcDbEntity
  8
LAY-10
  6
CONTINUOUS
 62
     7
100
AcDbLine
 10
1767.639319300832
 20
919.5273712599038
 30
0.0
 11
1774.086449083732
 21
925.9745010428032
 31
0.0
  0
LINE
  5
19E
330
1F
100
AcDbEntity
  8
LAY-10
  6
CONTINUOUS
 62
     7
100
AcDbLine
 10
1768.942863118233
 20
919.4167015150033
 30
0.0
 11
1774.550672219231
 21
925.0245106160037
 31
0.0
  0
LINE
  5
19F
330
1F
100
AcDbEntity
  8
LAY-10
  6
CONTINUOUS
 62
     7
100
AcDbLine
 10
1770.534251649131
 20
919.5938764835037
 30
0.0
 11
1774.727050641332
 21
923.7866754757033
 31
0.0
  0
LINE
  5
1A0
330
1F
100
AcDbEntity
  8
LAY-10
  6
CONTINUOUS
 62
     7
100
AcDbLine
 10
1763.990535917264
 20
921.5354421258371
 30
0.0
 11
1770.664164655433
 21
928.2090708640035
 31
0.0
  0
LINE
  5
1A1
330
1F
100
AcDbEntity
  8
LAY-10
  6
CONTINUOUS
 62
     7
100
AcDbLine
 10
1764.69628849247
 20
920.82698113893
 30
0.0
 11
1771.726179033032
 21
927.8568716792034
 31
0.0
  0
LINE
  5
1A2
330
1F
100
AcDbEntity
  8
LAY-10
  6
CONTINUOUS
 62
     7
100
AcDbLine
 10
1765.540141800332
 20
920.2566208842092
 30
0.0
 11
1772.650092678232
 21
927.3665717621034
 31
0.0
  0
LINE
  5
1A3
330
1F
100
AcDbEntity
  8
LAY-10
  6
CONTINUOUS
 62
     7
100
AcDbLine
 10
1766.517301640121
 20
919.8195671615936
 30
0.0
 11
1773.440699791432
 21
926.742965312904
 31
0.0
  0
LINE
  5
1A4
330
1F
100
AcDbEntity
  8
LAY-10
  6
CONTINUOUS
 62
     7
100
AcDbLine
 10
556.6836381353296
 20
925.103908760404
 30
0.0
 11
553.9649621510307
 21
927.8225847447029
 31
0.0
  0
LINE
  5
1A5
330
1F
100
AcDbEntity
  8
LAY-10
  6
CONTINUOUS
 62
     7
100
AcDbLine
 10
556.8654547892293
 20
923.5078785441038
 30
0.0
 11
552.0153785441289
 21
928.3579547893032
 31
0.0
  0
LINE
  5
1A6
330
1F
100
AcDbEntity
  8
LAY-10
  6
CONTINUOUS
 62
     7
100
AcDbLine
 10
556.5525839265301
 20
922.4065358445032
 30
0.0
 11
550.5604824538295
 21
928.3986373172038
 31
0.0
  0
LINE
  5
1A7
330
1F
100
AcDbEntity
  8
LAY-10
  6
CONTINUOUS
 62
     7
100
AcDbLine
 10
552.3606806992302
 20
919.5273712599038
 30
0.0
 11
545.9135509163298
 21
925.9745010428032
 31
0.0
  0
LINE
  5
1A8
330
1F
100
AcDbEntity
  8
LAY-10
  6
CONTINUOUS
 62
     7
100
AcDbLine
 10
551.0571368818291
 20
919.4167015150033
 30
0.0
 11
545.4493277808306
 21
925.0245106160037
 31
0.0
  0
LINE
  5
1A9
330
1F
100
AcDbEntity
  8
LAY-10
  6
CONTINUOUS
 62
     7
100
AcDbLine
 10
549.4657483509291
 20
919.5938764835037
 30
0.0
 11
545.2729493587303
 21
923.7866754757033
 31
0.0
  0
LINE
  5
1AA
330
1F
100
AcDbEntity
  8
LAY-10
  6
CONTINUOUS
 62
     7
100
AcDbLine
 10
556.0094640828302
 20
921.5354421258036
 30
0.0
 11
549.3358353446386
 21
928.2090708639948
 31
0.0
  0
LINE
  5
1AB
330
1F
100
AcDbEntity
  8
LAY-10
  6
CONTINUOUS
 62
     7
100
AcDbLine
 10
555.3037115074294
 20
920.8269811388036
 30
0.0
 11
548.2738209672248
 21
927.8568716793266
 31
0.0
  0
LINE
  5
1AC
330
1F
100
AcDbEntity
  8
LAY-10
  6
CONTINUOUS
 62
     7
100
AcDbLine
 10
554.4598581997307
 20
920.2566208842036
 30
0.0
 11
547.3499073216436
 21
927.3665717619747
 31
0.0
  0
LINE
  5
1AD
330
1F
100
AcDbEntity
  8
LAY-10
  6
CONTINUOUS
 62
     7
100
AcDbLine
 10
553.4826983599305
 20
919.8195671616031
 30
0.0
 11
546.5593002086198
 21
926.7429653129111
 31
0.0
  0
DIMENSION
  5
1AF
330
1F
100
AcDbEntity
  8
LAY-10
  6
CONTINUOUS
 62
     4
100
AcDbDimension
  2
*D19
 10
1759.99999999998
 20
786.1999999999998
 30
0.0
 11
1160.00000000001
 21
811.1999999999998
 31
0.0
 70
   160
  3
ISO-25
100
AcDbAlignedDimension
 13
560.0000000000401
 23
922.2000000000244
 33
0.0
 14
1759.99999999998
 24
922.2000000000244
 34
0.0
100
AcDbRotatedDimension
1001
ACAD
1000
DSTYLE
1002
{
1070
   270
1070
     2
1070
     6
1000
EX_BNORM
1070
     7
1000
EX_BNORM
1070
    41
1040
25.0
1070
    42
1040
18.0000000000241
1070
    44
1040
15.0
1070
    73
1070
     0
1070
    74
1070
     0
1070
    75
1070
     0
1070
    76
1070
     0
1070
    77
1070
     1
1070
    78
1070
     8
1070
   140
1040
31.181104
1070
   147
1040
0.0
1070
   173
1070
     1
1070
   176
1070
     4
1070
   177
1070
     4
1070
   178
1070
     7
1070
   271
1070
     1
1070
   277
1070
     2
1070
   279
1070
     2
1070
   280
1070
     0
1070
   287
1070
     5
1070
   340
1005
1AE
1002
}
  0
DIMENSION
  5
1BD
330
1F
100
AcDbEntity
  8
LAY-10
  6
CONTINUOUS
 62
     4
100
AcDbDimension
  2
*D20
 10
1814.99999999998
 20
1176.2
 30
0.0
 11
1160.000000000005
 21
1201.2
 31
0.0
 70
   160
  3
ISO-25
100
AcDbAlignedDimension
 13
505.00000000003
 23
1006.199999999976
 33
0.0
 14
1814.99999999998
 24
1006.199999999976
 34
0.0
100
AcDbRotatedDimension
1001
ACAD
1000
DSTYLE
1002
{
1070
   270
1070
     2
1070
     6
1000
EX_BNORM
1070
     7
1000
EX_BNORM
1070
    41
1040
25.0
1070
    42
1040
15.0
1070
    44
1040
15.0
1070
    73
1070
     0
1070
    74
1070
     0
1070
    75
1070
     0
1070
    76
1070
     0
1070
    77
1070
     1
1070
    78
1070
     8
1070
   140
1040
31.181104
1070
   147
1040
0.0
1070
   173
1070
     1
1070
   176
1070
     4
1070
   177
1070
     4
1070
   178
1070
     7
1070
   271
1070
     1
1070
   277
1070
     2
1070
   279
1070
     2
1070
   280
1070
     0
1070
   287
1070
     5
1070
   340
1005
1AE
1002
}
  0
DIMENSION
  5
1CA
330
1F
100
AcDbEntity
  8
LAY-10
  6
CONTINUOUS
 62
     4
100
AcDbDimension
  2
*D21
 10
946.0000000000213
 20
1106.2
 30
0.0
 11
733.5000000000213
 21
1131.2
 31
0.0
 70
   160
  3
ISO-25
100
AcDbAlignedDimension
 13
521.0000000000213
 23
1006.200000000003
 33
0.0
 14
946.0000000000213
 24
1006.200000000003
 34
0.0
100
AcDbRotatedDimension
1001
ACAD
1000
DSTYLE
1002
{
1070
   270
1070
     2
1070
     6
1000
EX_BNORM
1070
     7
1000
EX_BNORM
1070
    41
1040
25.0
1070
    42
1040
15.0
1070
    44
1040
15.0
1070
    73
1070
     0
1070
    74
1070
     0
1070
    75
1070
     0
1070
    76
1070
     0
1070
    77
1070
     1
1070
    78
1070
     8
1070
   140
1040
31.181104
1070
   147
1040
0.0
1070
   173
1070
     1
1070
   176
1070
     4
1070
   177
1070
     4
1070
   178
1070
     7
1070
   271
1070
     1
1070
   277
1070
     2
1070
   279
1070
     2
1070
   280
1070
     0
1070
   287
1070
     5
1070
   340
1005
1AE
1002
}
  0
DIMENSION
  5
1D7
330
1F
100
AcDbEntity
  8
LAY-10
  6
CONTINUOUS
 62
     4
100
AcDbDimension
  2
*D22
 10
1950.0
 20
916.1999999999762
 30
0.0
 11
1925.0
 21
961.1999999999758
 31
0.0
 70
   160
  3
ISO-25
100
AcDbAlignedDimension
 13
1814.99999999998
 23
1006.199999999976
 33
0.0
 14
1803.19999999998
 24
916.1999999999762
 34
0.0
 50
90.0
100
AcDbRotatedDimension
1001
ACAD
1000
DSTYLE
1002
{
1070
   270
1070
     2
1070
     6
1000
EX_BNORM
1070
     7
1000
EX_BNORM
1070
    41
1040
25.0
1070
    42
1040
15.0
1070
    44
1040
15.0
1070
    73
1070
     0
1070
    74
1070
     0
1070
    75
1070
     0
1070
    76
1070
     0
1070
    77
1070
     1
1070
    78
1070
     8
1070
   140
1040
31.181104
1070
   147
1040
0.0
1070
   173
1070
     1
1070
   176
1070
     4
1070
   177
1070
     4
1070
   178
1070
     7
1070
   271
1070
     1
1070
   277
1070
     2
1070
   279
1070
     2
1070
   280
1070
     0
1070
   287
1070
     5
1070
   340
1005
1AE
1002
}
  0
LINE
  5
1E4
330
1F
100
AcDbEntity
  8
LAY-10
  6
CONTINUOUS
 62
     7
100
AcDbLine
 10
2219.5000000001
 20
1423.099999999999
 30
0.0
 11
2235.5200000001
 21
1423.099999999999
 31
0.0
  0
LINE
  5
1E5
330
1F
100
AcDbEntity
  8
LAY-10
  6
CONTINUOUS
 62
     7
100
AcDbLine
 10
2237.5000000001
 20
1392.240000000099
 30
0.0
 11
2237.5000000001
 21
1421.96
 31
0.0
  0
LINE
  5
1E6
330
1F
100
AcDbEntity
  8
LAY-10
  6
CONTINUOUS
 62
     7
100
AcDbLine
 10
2219.5000000001
 20
2093.099999999955
 30
0.0
 11
2235.5200000001
 21
2093.099999999955
 31
0.0
  0
LINE
  5
1E7
330
1F
100
AcDbEntity
  8
LAY-10
  6
CONTINUOUS
 62
     7
100
AcDbLine
 10
2237.5000000001
 20
2123.959999999855
 30
0.0
 11
2237.5000000001
 21
2094.239999999954
 31
0.0
  0
LINE
  5
1E8
330
1F
100
AcDbEntity
  8
LAY-10
  6
CONTINUOUS
 62
     7
100
AcDbLine
 10
1169.999999999989
 20
1001.699999999977
 30
0.0
 11
1169.999999999989
 21
985.6799999999772
 31
0.0
  0
LINE
  5
1E9
330
1F
100
AcDbEntity
  8
LAY-10
  6
CONTINUOUS
 62
     7
100
AcDbLine
 10
1149.999999999989
 20
1001.699999999977
 30
0.0
 11
1149.999999999989
 21
985.6799999999772
 31
0.0
  0
ARC
  5
1EA
330
1F
100
AcDbEntity
  8
LAY-10
  6
CONTINUOUS
 62
     7
100
AcDbCircle
 10
1159.999999999989
 20
1009.942525252502
 30
0.0
 40
26.24252525252526
100
AcDbArc
 50
247.6005879524136
 51
292.399412047586
  0
LINE
  5
1EB
330
1F
100
AcDbEntity
  8
LAY-10
  6
CONTINUOUS
 62
     7
100
AcDbLine
 10
1178.499999999988
 20
1001.699999999977
 30
0.0
 11
1178.499999999988
 21
985.6799999999772
 31
0.0
  0
ARC
  5
1EC
330
1F
100
AcDbEntity
  8
LAY-10
  6
CONTINUOUS
 62
     7
100
AcDbCircle
 10
1174.249999999989
 20
989.2512373737146
 30
0.0
 40
5.55123737373727
100
AcDbArc
 50
220.0400382874323
 51
319.9599617125654
  0
LINE
  5
1ED
330
1F
100
AcDbEntity
  8
LAY-10
  6
CONTINUOUS
 62
     7
100
AcDbLine
 10
1141.499999999988
 20
1001.699999999977
 30
0.0
 11
1141.499999999988
 21
985.6799999999772
 31
0.0
  0
ARC
  5
1EE
330
1F
100
AcDbEntity
  8
LAY-10
  6
CONTINUOUS
 62
     7
100
AcDbCircle
 10
1145.749999999989
 20
989.2512373737146
 30
0.0
 40
5.55123737373741
100
AcDbArc
 50
220.0400382874341
 51
319.959961712565
  0
LINE
  5
1EF
330
1F
100
AcDbEntity
  8
LAY-10
  6
CONTINUOUS
 62
     7
100
AcDbLine
 10
1173.499999999988
 20
983.6999999999767
 30
0.0
 11
1146.499999999988
 21
983.6999999999767
 31
0.0
  0
LINE
  5
1F0
330
1F
100
AcDbEntity
  8
LAY-10
  6
CONTINUOUS
 62
     7
100
AcDbLine
 10
743.4999999999789
 20
1001.699999999977
 30
0.0
 11
743.4999999999789
 21
985.6799999999772
 31
0.0
  0
LINE
  5
1F1
330
1F
100
AcDbEntity
  8
LAY-10
  6
CONTINUOUS
 62
     7
100
AcDbLine
 10
723.4999999999789
 20
1001.699999999977
 30
0.0
 11
723.4999999999789
 21
985.6799999999772
 31
0.0
  0
ARC
  5
1F2
330
1F
100
AcDbEntity
  8
LAY-10
  6
CONTINUOUS
 62
     7
100
AcDbCircle
 10
733.4999999999789
 20
1009.942525252502
 30
0.0
 40
26.24252525252526
100
AcDbArc
 50
247.6005879524136
 51
292.399412047586
  0
LINE
  5
1F3
330
1F
100
AcDbEntity
  8
LAY-10
  6
CONTINUOUS
 62
     7
100
AcDbLine
 10
751.9999999999784
 20
1001.699999999977
 30
0.0
 11
751.9999999999784
 21
985.6799999999772
 31
0.0
  0
ARC
  5
1F4
330
1F
100
AcDbEntity
  8
LAY-10
  6
CONTINUOUS
 62
     7
100
AcDbCircle
 10
747.7499999999789
 20
989.2512373737146
 30
0.0
 40
5.55123737373727
100
AcDbArc
 50
220.0400382874323
 51
319.9599617125654
  0
LINE
  5
1F5
330
1F
100
AcDbEntity
  8
LAY-10
  6
CONTINUOUS
 62
     7
100
AcDbLine
 10
714.999999999978
 20
1001.699999999977
 30
0.0
 11
714.999999999978
 21
985.6799999999772
 31
0.0
  0
ARC
  5
1F6
330
1F
100
AcDbEntity
  8
LAY-10
  6
CONTINUOUS
 62
     7
100
AcDbCircle
 10
719.2499999999786
 20
989.2512373737146
 30
0.0
 40
5.55123737373741
100
AcDbArc
 50
220.0400382874341
 51
319.959961712565
  0
LINE
  5
1F7
330
1F
100
AcDbEntity
  8
LAY-10
  6
CONTINUOUS
 62
     7
100
AcDbLine
 10
746.9999999999784
 20
983.6999999999767
 30
0.0
 11
719.999999999978
 21
983.6999999999767
 31
0.0
  0
LINE
  5
1F8
330
1F
100
AcDbEntity
  8
LAY-10
  6
CONTINUOUS
 62
     7
100
AcDbLine
 10
1596.499999999989
 20
1001.699999999977
 30
0.0
 11
1596.499999999989
 21
985.6799999999772
 31
0.0
  0
LINE
  5
1F9
330
1F
100
AcDbEntity
  8
LAY-10
  6
CONTINUOUS
 62
     7
100
AcDbLine
 10
1576.499999999989
 20
1001.699999999977
 30
0.0
 11
1576.499999999989
 21
985.6799999999772
 31
0.0
  0
ARC
  5
1FA
330
1F
100
AcDbEntity
  8
LAY-10
  6
CONTINUOUS
 62
     7
100
AcDbCircle
 10
1586.499999999989
 20
1009.942525252502
 30
0.0
 40
26.24252525252526
100
AcDbArc
 50
247.6005879524136
 51
292.399412047586
  0
LINE
  5
1FB
330
1F
100
AcDbEntity
  8
LAY-10
  6
CONTINUOUS
 62
     7
100
AcDbLine
 10
1604.999999999989
 20
1001.699999999977
 30
0.0
 11
1604.999999999989
 21
985.6799999999772
 31
0.0
  0
ARC
  5
1FC
330
1F
100
AcDbEntity
  8
LAY-10
  6
CONTINUOUS
 62
     7
100
AcDbCircle
 10
1600.749999999989
 20
989.2512373737146
 30
0.0
 40
5.55123737373727
100
AcDbArc
 50
220.0400382874323
 51
319.9599617125654
  0
LINE
  5
1FD
330
1F
100
AcDbEntity
  8
LAY-10
  6
CONTINUOUS
 62
     7
100
AcDbLine
 10
1567.999999999988
 20
1001.699999999977
 30
0.0
 11
1567.999999999988
 21
985.6799999999772
 31
0.0
  0
ARC
  5
1FE
330
1F
100
AcDbEntity
  8
LAY-10
  6
CONTINUOUS
 62
     7
100
AcDbCircle
 10
1572.249999999989
 20
989.2512373737146
 30
0.0
 40
5.55123737373741
100
AcDbArc
 50
220.0400382874341
 51
319.959961712565
  0
LINE
  5
1FF
330
1F
100
AcDbEntity
  8
LAY-10
  6
CONTINUOUS
 62
     7
100
AcDbLine
 10
1599.999999999989
 20
983.6999999999767
 30
0.0
 11
1572.999999999988
 21
983.6999999999767
 31
0.0
  0
LINE
  5
200
330
1F
100
AcDbEntity
  8
LAY-10
  6
HIDDEN
 62
     7
100
AcDbLine
 10
1075.500000000118
 20
1378.900000000051
 30
0.0
 11
1075.50000000012
 21
1415.00863354109
 31
0.0
  0
LINE
  5
201
330
1F
100
AcDbEntity
  8
LAY-10
  6
HIDDEN
 62
     7
100
AcDbLine
 10
1044.50000000012
 20
1378.900000000051
 30
0.0
 11
1044.50000000012
 21
1414.90000000005
 31
0.0
  0
LINE
  5
202
330
1F
100
AcDbEntity
  8
LAY-10
  6
HIDDEN
 62
     7
100
AcDbLine
 10
1044.50000000012
 20
1378.900000000051
 30
0.0
 11
1075.500000000118
 21
1378.900000000051
 31
0.0
  0
LINE
  5
203
330
1F
100
AcDbEntity
  8
LAY-10
  6
CONTINUOUS
 62
     7
100
AcDbLine
 10
1146.9666666668
 20
1533.433333333293
 30
0.0
 11
1147.9666666668
 21
1532.433333333293
 31
0.0
  0
LINE
  5
204
330
1F
100
AcDbEntity
  8
LAY-10
  6
CONTINUOUS
 62
     7
100
AcDbLine
 10
1800.000000000109
 20
2135.100000000007
 30
0.0
 11
1815.000000000111
 21
2150.100000000007
 31
0.0
  0
LINE
  5
205
330
1F
100
AcDbEntity
  8
LAY-10
  6
CONTINUOUS
 62
     7
100
AcDbLine
 10
505.000000000131
 20
2150.100000000007
 30
0.0
 11
520.000000000131
 21
2135.100000000007
 31
0.0
  0
LINE
  5
206
330
1F
100
AcDbEntity
  8
LAY-10
  6
CONTINUOUS
 62
     7
100
AcDbLine
 10
505.000000000131
 20
2150.100000000007
 30
0.0
 11
1815.000000000111
 21
2150.100000000007
 31
0.0
  0
LINE
  5
207
330
1F
100
AcDbEntity
  8
LAY-10
  6
CONTINUOUS
 62
     7
100
AcDbLine
 10
1800.000000000109
 20
2135.100000000007
 30
0.0
 11
520.000000000131
 21
2135.100000000007
 31
0.0
  0
LINE
  5
208
330
1F
100
AcDbEntity
  8
LAY-10
  6
CONTINUOUS
 62
     7
100
AcDbLine
 10
1800.000000000109
 20
1381.100000000006
 30
0.0
 11
1815.000000000111
 21
1366.100000000007
 31
0.0
  0
LINE
  5
209
330
1F
100
AcDbEntity
  8
LAY-10
  6
CONTINUOUS
 62
     7
100
AcDbLine
 10
520.000000000131
 20
1381.100000000006
 30
0.0
 11
505.000000000131
 21
1366.100000000006
 31
0.0
  0
LINE
  5
20A
330
1F
100
AcDbEntity
  8
LAY-10
  6
CONTINUOUS
 62
     7
100
AcDbLine
 10
1800.000000000109
 20
1381.100000000004
 30
0.0
 11
520.000000000131
 21
1381.100000000006
 31
0.0
  0
LINE
  5
20B
330
1F
100
AcDbEntity
  8
LAY-10
  6
CONTINUOUS
 62
     7
100
AcDbLine
 10
505.000000000131
 20
1366.100000000006
 30
0.0
 11
1815.000000000111
 21
1366.100000000004
 31
0.0
  0
LINE
  5
20C
330
1F
100
AcDbEntity
  8
LAY-10
  6
CONTINUOUS
 62
     7
100
AcDbLine
 10
1800.000000000109
 20
2135.100000000007
 30
0.0
 11
1800.000000000109
 21
1381.100000000004
 31
0.0
  0
LINE
  5
20D
330
1F
100
AcDbEntity
  8
LAY-10
  6
CONTINUOUS
 62
     7
100
AcDbLine
 10
1815.000000000111
 20
1366.100000000006
 30
0.0
 11
1815.000000000111
 21
2150.100000000007
 31
0.0
  0
LINE
  5
20E
330
1F
100
AcDbEntity
  8
LAY-10
  6
CONTINUOUS
 62
     7
100
AcDbLine
 10
520.000000000131
 20
1381.100000000006
 30
0.0
 11
520.000000000131
 21
2135.100000000007
 31
0.0
  0
LINE
  5
20F
330
1F
100
AcDbEntity
  8
LAY-10
  6
CONTINUOUS
 62
     7
100
AcDbLine
 10
505.000000000131
 20
1366.100000000006
 30
0.0
 11
505.000000000131
 21
2150.100000000007
 31
0.0
  0
LINE
  5
210
330
1F
100
AcDbEntity
  8
LAY-10
  6
CONTINUOUS
 62
     7
100
AcDbLine
 10
520.8333333334594
 20
2134.099999999904
 30
0.0
 11
520.8333333334594
 21
1382.099999999904
 31
0.0
  0
LINE
  5
211
330
1F
100
AcDbEntity
  8
LAY-10
  6
CONTINUOUS
 62
     7
100
AcDbLine
 10
945.8333333334594
 20
1382.099999999904
 30
0.0
 11
945.8333333334594
 21
2134.099999999906
 31
0.0
  0
LINE
  5
212
330
1F
100
AcDbEntity
  8
LAY-10
  6
CONTINUOUS
 62
     7
100
AcDbLine
 10
945.8333333334594
 20
2134.099999999906
 30
0.0
 11
520.8333333334594
 21
2134.099999999904
 31
0.0
  0
LINE
  5
213
330
1F
100
AcDbEntity
  8
LAY-10
  6
CONTINUOUS
 62
     7
100
AcDbLine
 10
520.8333333334594
 20
1382.099999999904
 30
0.0
 11
945.8333333334594
 21
1382.099999999904
 31
0.0
  0
LINE
  5
214
330
1F
100
AcDbEntity
  8
LAY-10
  6
CONTINUOUS
 62
     7
100
AcDbLine
 10
947.500000000131
 20
2134.099999999904
 30
0.0
 11
947.500000000131
 21
1382.099999999904
 31
0.0
  0
LINE
  5
215
330
1F
100
AcDbEntity
  8
LAY-10
  6
CONTINUOUS
 62
     7
100
AcDbLine
 10
1797.000000000131
 20
1421.099999999936
 30
0.0
 11
1797.000000000131
 21
2095.099999999936
 31
0.0
  0
LINE
  5
216
330
1F
100
AcDbEntity
  8
LAY-10
  6
CONTINUOUS
 62
     7
100
AcDbLine
 10
1659.000000000109
 20
1808.099999999981
 30
0.0
 11
1621.000000000109
 21
1808.099999999982
 31
0.0
  0
LINE
  5
217
330
1F
100
AcDbEntity
  8
LAY-10
  6
CONTINUOUS
 62
     7
100
AcDbLine
 10
1649.000000000107
 20
1833.099999999984
 30
0.0
 11
1649.000000000107
 21
1813.099999999982
 31
0.0
  0
LINE
  5
218
330
1F
100
AcDbEntity
  8
LAY-10
  6
CONTINUOUS
 62
     7
100
AcDbLine
 10
1674.70000000011
 20
1833.099999999984
 30
0.0
 11
1649.000000000107
 21
1833.099999999984
 31
0.0
  0
LINE
  5
219
330
1F
100
AcDbEntity
  8
LAY-10
  6
CONTINUOUS
 62
     7
100
AcDbLine
 10
1659.000000000109
 20
1843.099999999981
 30
0.0
 11
1659.000000000109
 21
1833.099999999984
 31
0.0
  0
LINE
  5
21A
330
1F
100
AcDbEntity
  8
LAY-10
  6
CONTINUOUS
 62
     7
100
AcDbLine
 10
1674.70000000011
 20
1833.099999999984
 30
0.0
 11
1674.70000000011
 21
1813.099999999982
 31
0.0
  0
LINE
  5
21B
330
1F
100
AcDbEntity
  8
LAY-10
  6
CONTINUOUS
 62
     7
100
AcDbLine
 10
1674.70000000011
 20
1813.099999999982
 30
0.0
 11
1649.000000000107
 21
1813.099999999982
 31
0.0
  0
LINE
  5
21C
330
1F
100
AcDbEntity
  8
LAY-10
  6
CONTINUOUS
 62
     7
100
AcDbLine
 10
1665.000000000109
 20
1808.099999999981
 30
0.0
 11
1665.000000000109
 21
1813.099999999982
 31
0.0
  0
ARC
  5
21D
330
1F
100
AcDbEntity
  8
LAY-10
  6
CONTINUOUS
 62
     7
100
AcDbCircle
 10
1659.000000000109
 20
1808.099999999981
 30
0.0
 40
6.000000000000005
100
AcDbArc
 50
270.0000000000002
 51
0.0
  0
LINE
  5
21E
330
1F
100
AcDbEntity
  8
LAY-10
  6
CONTINUOUS
 62
     7
100
AcDbLine
 10
1659.000000000109
 20
1802.099999999984
 30
0.0
 11
1621.000000000109
 21
1802.099999999984
 31
0.0
  0
ARC
  5
21F
330
1F
100
AcDbEntity
  8
LAY-10
  6
CONTINUOUS
 62
     7
100
AcDbCircle
 10
1621.000000000109
 20
1802.099999999984
 30
0.0
 40
6.000000000000005
100
AcDbArc
 50
90.00000000000001
 51
180.0
  0
LINE
  5
220
330
1F
100
AcDbEntity
  8
LAY-10
  6
CONTINUOUS
 62
     7
100
AcDbLine
 10
1659.000000000109
 20
1714.099999999981
 30
0.0
 11
1621.000000000109
 21
1714.099999999983
 31
0.0
  0
LINE
  5
221
330
1F
100
AcDbEntity
  8
LAY-10
  6
CONTINUOUS
 62
     7
100
AcDbLine
 10
1659.000000000109
 20
1708.099999999981
 30
0.0
 11
1621.000000000109
 21
1708.099999999982
 31
0.0
  0
ARC
  5
222
330
1F
100
AcDbEntity
  8
LAY-10
  6
CONTINUOUS
 62
     7
100
AcDbCircle
 10
1621.000000000109
 20
1714.099999999983
 30
0.0
 40
6.000000000000005
100
AcDbArc
 50
180.0
 51
270.0000000000002
  0
ARC
  5
223
330
1F
100
AcDbEntity
  8
LAY-10
  6
CONTINUOUS
 62
     7
100
AcDbCircle
 10
1659.000000000109
 20
1708.099999999981
 30
0.0
 40
6.000000000000005
100
AcDbArc
 50
0.0
 51
90.00000000000001
  0
LINE
  5
224
330
1F
100
AcDbEntity
  8
LAY-10
  6
CONTINUOUS
 62
     7
100
AcDbLine
 10
1659.000000000109
 20
1673.099999999982
 30
0.0
 11
1659.000000000109
 21
1683.099999999981
 31
0.0
  0
LINE
  5
225
330
1F
100
AcDbEntity
  8
LAY-10
  6
CONTINUOUS
 62
     7
100
AcDbLine
 10
1665.000000000109
 20
1708.099999999981
 30
0.0
 11
1665.000000000109
 21
1703.099999999982
 31
0.0
  0
LINE
  5
226
330
1F
100
AcDbEntity
  8
LAY-10
  6
CONTINUOUS
 62
     7
100
AcDbLine
 10
1674.70000000011
 20
1703.099999999982
 30
0.0
 11
1649.000000000107
 21
1703.099999999982
 31
0.0
  0
LINE
  5
227
330
1F
100
AcDbEntity
  8
LAY-10
  6
CONTINUOUS
 62
     7
100
AcDbLine
 10
1649.000000000107
 20
1683.099999999981
 30
0.0
 11
1649.000000000107
 21
1703.099999999982
 31
0.0
  0
LINE
  5
228
330
1F
100
AcDbEntity
  8
LAY-10
  6
CONTINUOUS
 62
     7
100
AcDbLine
 10
1674.70000000011
 20
1683.099999999981
 30
0.0
 11
1649.000000000107
 21
1683.099999999981
 31
0.0
  0
LINE
  5
229
330
1F
100
AcDbEntity
  8
LAY-10
  6
CONTINUOUS
 62
     7
100
AcDbLine
 10
1665.000000000109
 20
1673.099999999982
 30
0.0
 11
1659.000000000109
 21
1673.099999999982
 31
0.0
  0
LINE
  5
22A
330
1F
100
AcDbEntity
  8
LAY-10
  6
CONTINUOUS
 62
     7
100
AcDbLine
 10
1666.000000000109
 20
1703.099999999982
 30
0.0
 11
1666.000000000109
 21
1683.099999999981
 31
0.0
  0
LINE
  5
22B
330
1F
100
AcDbEntity
  8
LAY-10
  6
CONTINUOUS
 62
     7
100
AcDbLine
 10
1666.000000000109
 20
1813.099999999982
 30
0.0
 11
1666.000000000109
 21
1833.099999999984
 31
0.0
  0
LINE
  5
22C
330
1F
100
AcDbEntity
  8
LAY-10
  6
CONTINUOUS
 62
     7
100
AcDbLine
 10
1658.000000000106
 20
1833.099999999984
 30
0.0
 11
1658.000000000106
 21
1813.099999999982
 31
0.0
  0
LINE
  5
22D
330
1F
100
AcDbEntity
  8
LAY-10
  6
CONTINUOUS
 62
     7
100
AcDbLine
 10
1658.000000000106
 20
1703.099999999982
 30
0.0
 11
1658.000000000106
 21
1683.099999999981
 31
0.0
  0
LINE
  5
22E
330
1F
100
AcDbEntity
  8
LAY-10
  6
CONTINUOUS
 62
     7
100
AcDbLine
 10
1674.70000000011
 20
1703.099999999982
 30
0.0
 11
1674.70000000011
 21
1683.099999999981
 31
0.0
  0
LINE
  5
22F
330
1F
100
AcDbEntity
  8
LAY-10
  6
CONTINUOUS
 62
     7
100
AcDbLine
 10
1659.000000000109
 20
1813.099999999982
 30
0.0
 11
1659.000000000109
 21
1808.099999999981
 31
0.0
  0
LINE
  5
230
330
1F
100
AcDbEntity
  8
LAY-10
  6
CONTINUOUS
 62
     7
100
AcDbLine
 10
1665.000000000109
 20
1833.099999999984
 30
0.0
 11
1665.000000000109
 21
1843.099999999981
 31
0.0
  0
LINE
  5
231
330
1F
100
AcDbEntity
  8
LAY-10
  6
CONTINUOUS
 62
     7
100
AcDbLine
 10
1659.000000000109
 20
1703.099999999982
 30
0.0
 11
1659.000000000109
 21
1708.099999999981
 31
0.0
  0
LINE
  5
232
330
1F
100
AcDbEntity
  8
LAY-10
  6
CONTINUOUS
 62
     7
100
AcDbLine
 10
1615.000000000109
 20
1714.099999999976
 30
0.0
 11
1615.000000000109
 21
1802.099999999984
 31
0.0
  0
LINE
  5
233
330
1F
100
AcDbEntity
  8
LAY-10
  6
CONTINUOUS
 62
     7
100
AcDbLine
 10
1621.000000000109
 20
1714.099999999976
 30
0.0
 11
1621.000000000109
 21
1802.099999999984
 31
0.0
  0
LINE
  5
234
330
1F
100
AcDbEntity
  8
LAY-10
  6
CONTINUOUS
 62
     7
100
AcDbLine
 10
1155.500000000111
 20
1366.099999999827
 30
0.0
 11
1155.500000000111
 21
1337.20151518999
 31
0.0
  0
LINE
  5
235
330
1F
100
AcDbEntity
  8
LAY-10
  6
CONTINUOUS
 62
     7
100
AcDbLine
 10
1164.500000000111
 20
1366.099999999827
 30
0.0
 11
1164.500000000111
 21
1337.20151518999
 31
0.0
  0
LINE
  5
236
330
1F
100
AcDbEntity
  8
LAY-10
  6
CONTINUOUS
 62
     7
100
AcDbLine
 10
1155.500000000111
 20
1337.20151518999
 30
0.0
 11
1164.500000000111
 21
1337.20151518999
 31
0.0
  0
LINE
  5
237
330
1F
100
AcDbEntity
  8
LAY-10
  6
CONTINUOUS
 62
     7
100
AcDbLine
 10
664.5000000001091
 20
1366.099999999827
 30
0.0
 11
664.5000000001091
 21
1337.20151518999
 31
0.0
  0
LINE
  5
238
330
1F
100
AcDbEntity
  8
LAY-10
  6
CONTINUOUS
 62
     7
100
AcDbLine
 10
655.500000000109
 20
1366.099999999827
 30
0.0
 11
655.500000000109
 21
1337.20151518999
 31
0.0
  0
LINE
  5
239
330
1F
100
AcDbEntity
  8
LAY-10
  6
CONTINUOUS
 62
     7
100
AcDbLine
 10
664.5000000001091
 20
1337.20151518999
 30
0.0
 11
655.500000000109
 21
1337.20151518999
 31
0.0
  0
LINE
  5
23A
330
1F
100
AcDbEntity
  8
LAY-10
  6
CONTINUOUS
 62
     7
100
AcDbLine
 10
1655.500000000051
 20
1366.099999999827
 30
0.0
 11
1655.500000000051
 21
1337.20151518999
 31
0.0
  0
LINE
  5
23B
330
1F
100
AcDbEntity
  8
LAY-10
  6
CONTINUOUS
 62
     7
100
AcDbLine
 10
1664.500000000051
 20
1366.099999999827
 30
0.0
 11
1664.500000000051
 21
1337.20151518999
 31
0.0
  0
LINE
  5
23C
330
1F
100
AcDbEntity
  8
LAY-10
  6
CONTINUOUS
 62
     7
100
AcDbLine
 10
1655.500000000051
 20
1337.20151518999
 30
0.0
 11
1664.500000000051
 21
1337.20151518999
 31
0.0
  0
LINE
  5
23D
330
1F
100
AcDbEntity
  8
LAY-10
  6
CONTINUOUS
 62
     7
100
AcDbLine
 10
1155.500000000111
 20
2150.100000000023
 30
0.0
 11
1155.500000000111
 21
2178.99848480986
 31
0.0
  0
LINE
  5
23E
330
1F
100
AcDbEntity
  8
LAY-10
  6
CONTINUOUS
 62
     7
100
AcDbLine
 10
1164.500000000111
 20
2150.100000000023
 30
0.0
 11
1164.500000000111
 21
2178.99848480986
 31
0.0
  0
LINE
  5
23F
330
1F
100
AcDbEntity
  8
LAY-10
  6
CONTINUOUS
 62
     7
100
AcDbLine
 10
1155.500000000111
 20
2178.99848480986
 30
0.0
 11
1164.500000000111
 21
2178.99848480986
 31
0.0
  0
LINE
  5
240
330
1F
100
AcDbEntity
  8
LAY-10
  6
CONTINUOUS
 62
     7
100
AcDbLine
 10
664.5000000001091
 20
2150.100000000023
 30
0.0
 11
664.5000000001091
 21
2178.99848480986
 31
0.0
  0
LINE
  5
241
330
1F
100
AcDbEntity
  8
LAY-10
  6
CONTINUOUS
 62
     7
100
AcDbLine
 10
655.500000000109
 20
2150.100000000023
 30
0.0
 11
655.500000000109
 21
2178.99848480986
 31
0.0
  0
LINE
  5
242
330
1F
100
AcDbEntity
  8
LAY-10
  6
CONTINUOUS
 62
     7
100
AcDbLine
 10
664.5000000001091
 20
2178.99848480986
 30
0.0
 11
655.500000000109
 21
2178.99848480986
 31
0.0
  0
LINE
  5
243
330
1F
100
AcDbEntity
  8
LAY-10
  6
CONTINUOUS
 62
     7
100
AcDbLine
 10
1655.500000000051
 20
2150.100000000023
 30
0.0
 11
1655.500000000051
 21
2178.99848480986
 31
0.0
  0
LINE
  5
244
330
1F
100
AcDbEntity
  8
LAY-10
  6
CONTINUOUS
 62
     7
100
AcDbLine
 10
1664.500000000051
 20
2150.100000000023
 30
0.0
 11
1664.500000000051
 21
2178.99848480986
 31
0.0
  0
LINE
  5
245
330
1F
100
AcDbEntity
  8
LAY-10
  6
CONTINUOUS
 62
     7
100
AcDbLine
 10
1655.500000000051
 20
2178.99848480986
 30
0.0
 11
1664.500000000051
 21
2178.99848480986
 31
0.0
  0
LINE
  5
246
330
1F
100
AcDbEntity
  8
LAY-10
  6
CONTINUOUS
 62
     7
100
AcDbLine
 10
1814.999999999978
 20
2003.599999999857
 30
0.0
 11
1843.898484809815
 21
2003.599999999857
 31
0.0
  0
LINE
  5
247
330
1F
100
AcDbEntity
  8
LAY-10
  6
CONTINUOUS
 62
     7
100
AcDbLine
 10
1814.999999999978
 20
2012.599999999858
 30
0.0
 11
1843.898484809815
 21
2012.599999999858
 31
0.0
  0
LINE
  5
248
330
1F
100
AcDbEntity
  8
LAY-10
  6
CONTINUOUS
 62
     7
100
AcDbLine
 10
1843.898484809815
 20
2003.599999999857
 30
0.0
 11
1843.898484809815
 21
2012.599999999858
 31
0.0
  0
LINE
  5
249
330
1F
100
AcDbEntity
  8
LAY-10
  6
CONTINUOUS
 62
     7
100
AcDbLine
 10
1814.999999999978
 20
1512.599999999895
 30
0.0
 11
1843.898484809815
 21
1512.599999999895
 31
0.0
  0
LINE
  5
24A
330
1F
100
AcDbEntity
  8
LAY-10
  6
CONTINUOUS
 62
     7
100
AcDbLine
 10
1814.999999999978
 20
1503.599999999894
 30
0.0
 11
1843.898484809815
 21
1503.599999999894
 31
0.0
  0
LINE
  5
24B
330
1F
100
AcDbEntity
  8
LAY-10
  6
CONTINUOUS
 62
     7
100
AcDbLine
 10
1843.898484809815
 20
1512.599999999895
 30
0.0
 11
1843.898484809815
 21
1503.599999999894
 31
0.0
  0
CIRCLE
  5
24C
330
1F
100
AcDbEntity
  8
LAY-10
  6
CONTINUOUS
 62
     7
100
AcDbCircle
 10
1785.000000000153
 20
1433.099999999924
 30
0.0
 40
10.50000000000041
  0
CIRCLE
  5
24D
330
1F
100
AcDbEntity
  8
LAY-10
  6
CONTINUOUS
 62
     7
100
AcDbCircle
 10
1785.000000000153
 20
1433.099999999924
 30
0.0
 40
8.66025403784441
  0
LINE
  5
24E
330
1F
100
AcDbEntity
  8
LAY-10
  6
CONTINUOUS
 62
     7
100
AcDbLine
 10
1776.339745962308
 20
1438.099999999924
 30
0.0
 11
1776.339745962308
 21
1428.099999999925
 31
0.0
  0
LINE
  5
24F
330
1F
100
AcDbEntity
  8
LAY-10
  6
CONTINUOUS
 62
     7
100
AcDbLine
 10
1776.339745962308
 20
1428.099999999925
 30
0.0
 11
1785.000000000153
 21
1423.099999999924
 31
0.0
  0
LINE
  5
250
330
1F
100
AcDbEntity
  8
LAY-10
  6
CONTINUOUS
 62
     7
100
AcDbLine
 10
1785.000000000153
 20
1423.099999999924
 30
0.0
 11
1793.660254037997
 21
1428.099999999925
 31
0.0
  0
LINE
  5
251
330
1F
100
AcDbEntity
  8
LAY-10
  6
CONTINUOUS
 62
     7
100
AcDbLine
 10
1793.660254037997
 20
1438.099999999924
 30
0.0
 11
1785.000000000153
 21
1443.099999999925
 31
0.0
  0
LINE
  5
252
330
1F
100
AcDbEntity
  8
LAY-10
  6
CONTINUOUS
 62
     7
100
AcDbLine
 10
1785.000000000153
 20
1443.099999999925
 30
0.0
 11
1776.339745962308
 21
1438.099999999924
 31
0.0
  0
CIRCLE
  5
253
330
1F
100
AcDbEntity
  8
LAY-10
  6
CONTINUOUS
 62
     7
100
AcDbCircle
 10
1785.000000000153
 20
1433.099999999924
 30
0.0
 40
5.0
  0
CIRCLE
  5
254
330
1F
100
AcDbEntity
  8
LAY-10
  6
CONTINUOUS
 62
     7
100
AcDbCircle
 10
1785.000000000153
 20
1433.099999999924
 30
0.0
 40
4.0
  0
LINE
  5
255
330
1F
100
AcDbEntity
  8
LAY-10
  6
CONTINUOUS
 62
     7
100
AcDbLine
 10
1793.660254037997
 20
1428.099999999925
 30
0.0
 11
1793.660254037997
 21
1438.099999999924
 31
0.0
  0
CIRCLE
  5
256
330
1F
100
AcDbEntity
  8
LAY-10
  6
CONTINUOUS
 62
     7
100
AcDbCircle
 10
1785.000000000109
 20
1758.099999999854
 30
0.0
 40
10.50000000000041
  0
CIRCLE
  5
257
330
1F
100
AcDbEntity
  8
LAY-10
  6
CONTINUOUS
 62
     7
100
AcDbCircle
 10
1785.000000000109
 20
1758.099999999854
 30
0.0
 40
8.66025403784441
  0
LINE
  5
258
330
1F
100
AcDbEntity
  8
LAY-10
  6
CONTINUOUS
 62
     7
100
AcDbLine
 10
1793.660254037954
 20
1763.099999999854
 30
0.0
 11
1793.660254037954
 21
1753.099999999855
 31
0.0
  0
LINE
  5
259
330
1F
100
AcDbEntity
  8
LAY-10
  6
CONTINUOUS
 62
     7
100
AcDbLine
 10
1793.660254037954
 20
1753.099999999855
 30
0.0
 11
1785.000000000109
 21
1748.099999999854
 31
0.0
  0
LINE
  5
25A
330
1F
100
AcDbEntity
  8
LAY-10
  6
CONTINUOUS
 62
     7
100
AcDbLine
 10
1785.000000000109
 20
1748.099999999854
 30
0.0
 11
1776.339745962267
 21
1753.099999999855
 31
0.0
  0
LINE
  5
25B
330
1F
100
AcDbEntity
  8
LAY-10
  6
CONTINUOUS
 62
     7
100
AcDbLine
 10
1776.339745962267
 20
1763.099999999854
 30
0.0
 11
1785.000000000109
 21
1768.099999999855
 31
0.0
  0
LINE
  5
25C
330
1F
100
AcDbEntity
  8
LAY-10
  6
CONTINUOUS
 62
     7
100
AcDbLine
 10
1785.000000000109
 20
1768.099999999855
 30
0.0
 11
1793.660254037954
 21
1763.099999999854
 31
0.0
  0
CIRCLE
  5
25D
330
1F
100
AcDbEntity
  8
LAY-10
  6
CONTINUOUS
 62
     7
100
AcDbCircle
 10
1785.000000000109
 20
1758.099999999854
 30
0.0
 40
5.0
  0
CIRCLE
  5
25E
330
1F
100
AcDbEntity
  8
LAY-10
  6
CONTINUOUS
 62
     7
100
AcDbCircle
 10
1785.000000000109
 20
1758.099999999854
 30
0.0
 40
4.0
  0
LINE
  5
25F
330
1F
100
AcDbEntity
  8
LAY-10
  6
CONTINUOUS
 62
     7
100
AcDbLine
 10
1776.339745962267
 20
1753.099999999855
 30
0.0
 11
1776.339745962267
 21
1763.099999999854
 31
0.0
  0
CIRCLE
  5
260
330
1F
100
AcDbEntity
  8
LAY-10
  6
CONTINUOUS
 62
     7
100
AcDbCircle
 10
1785.000000000153
 20
2083.099999999904
 30
0.0
 40
10.50000000000041
  0
CIRCLE
  5
261
330
1F
100
AcDbEntity
  8
LAY-10
  6
CONTINUOUS
 62
     7
100
AcDbCircle
 10
1785.000000000153
 20
2083.099999999904
 30
0.0
 40
8.66025403784441
  0
LINE
  5
262
330
1F
100
AcDbEntity
  8
LAY-10
  6
CONTINUOUS
 62
     7
100
AcDbLine
 10
1776.339745962308
 20
2088.099999999904
 30
0.0
 11
1776.339745962308
 21
2078.099999999905
 31
0.0
  0
LINE
  5
263
330
1F
100
AcDbEntity
  8
LAY-10
  6
CONTINUOUS
 62
     7
100
AcDbLine
 10
1776.339745962308
 20
2078.099999999905
 30
0.0
 11
1785.000000000153
 21
2073.099999999904
 31
0.0
  0
LINE
  5
264
330
1F
100
AcDbEntity
  8
LAY-10
  6
CONTINUOUS
 62
     7
100
AcDbLine
 10
1785.000000000153
 20
2073.099999999904
 30
0.0
 11
1793.660254037997
 21
2078.099999999905
 31
0.0
  0
LINE
  5
265
330
1F
100
AcDbEntity
  8
LAY-10
  6
CONTINUOUS
 62
     7
100
AcDbLine
 10
1793.660254037997
 20
2088.099999999904
 30
0.0
 11
1785.000000000153
 21
2093.099999999905
 31
0.0
  0
LINE
  5
266
330
1F
100
AcDbEntity
  8
LAY-10
  6
CONTINUOUS
 62
     7
100
AcDbLine
 10
1785.000000000153
 20
2093.099999999905
 30
0.0
 11
1776.339745962308
 21
2088.099999999904
 31
0.0
  0
CIRCLE
  5
267
330
1F
100
AcDbEntity
  8
LAY-10
  6
CONTINUOUS
 62
     7
100
AcDbCircle
 10
1785.000000000153
 20
2083.099999999904
 30
0.0
 40
5.0
  0
CIRCLE
  5
268
330
1F
100
AcDbEntity
  8
LAY-10
  6
CONTINUOUS
 62
     7
100
AcDbCircle
 10
1785.000000000153
 20
2083.099999999904
 30
0.0
 40
4.0
  0
LINE
  5
269
330
1F
100
AcDbEntity
  8
LAY-10
  6
CONTINUOUS
 62
     7
100
AcDbLine
 10
1793.660254037997
 20
2078.099999999905
 30
0.0
 11
1793.660254037997
 21
2088.099999999904
 31
0.0
  0
CIRCLE
  5
26A
330
1F
100
AcDbEntity
  8
LAY-10
  6
CONTINUOUS
 62
     7
100
AcDbCircle
 10
1368.333333333554
 20
1433.09999999981
 30
0.0
 40
10.50000000000041
  0
CIRCLE
  5
26B
330
1F
100
AcDbEntity
  8
LAY-10
  6
CONTINUOUS
 62
     7
100
AcDbCircle
 10
1368.333333333554
 20
1433.09999999981
 30
0.0
 40
8.66025403784441
  0
LINE
  5
26C
330
1F
100
AcDbEntity
  8
LAY-10
  6
CONTINUOUS
 62
     7
100
AcDbLine
 10
1359.67307929571
 20
1428.09999999981
 30
0.0
 11
1359.67307929571
 21
1438.099999999809
 31
0.0
  0
LINE
  5
26D
330
1F
100
AcDbEntity
  8
LAY-10
  6
CONTINUOUS
 62
     7
100
AcDbLine
 10
1359.67307929571
 20
1438.099999999809
 30
0.0
 11
1368.333333333554
 21
1443.09999999981
 31
0.0
  0
LINE
  5
26E
330
1F
100
AcDbEntity
  8
LAY-10
  6
CONTINUOUS
 62
     7
100
AcDbLine
 10
1368.333333333554
 20
1443.09999999981
 30
0.0
 11
1376.993587371397
 21
1438.099999999809
 31
0.0
  0
LINE
  5
26F
330
1F
100
AcDbEntity
  8
LAY-10
  6
CONTINUOUS
 62
     7
100
AcDbLine
 10
1376.993587371397
 20
1428.09999999981
 30
0.0
 11
1368.333333333554
 21
1423.099999999809
 31
0.0
  0
LINE
  5
270
330
1F
100
AcDbEntity
  8
LAY-10
  6
CONTINUOUS
 62
     7
100
AcDbLine
 10
1368.333333333554
 20
1423.099999999809
 30
0.0
 11
1359.67307929571
 21
1428.09999999981
 31
0.0
  0
CIRCLE
  5
271
330
1F
100
AcDbEntity
  8
LAY-10
  6
CONTINUOUS
 62
     7
100
AcDbCircle
 10
1368.333333333554
 20
1433.09999999981
 30
0.0
 40
5.0
  0
CIRCLE
  5
272
330
1F
100
AcDbEntity
  8
LAY-10
  6
CONTINUOUS
 62
     7
100
AcDbCircle
 10
1368.333333333554
 20
1433.09999999981
 30
0.0
 40
4.0
  0
LINE
  5
273
330
1F
100
AcDbEntity
  8
LAY-10
  6
CONTINUOUS
 62
     7
100
AcDbLine
 10
1376.993587371397
 20
1438.099999999809
 30
0.0
 11
1376.993587371397
 21
1428.09999999981
 31
0.0
  0
LINE
  5
274
330
1F
100
AcDbEntity
  8
LAY-10
  6
CONTINUOUS
 62
     7
100
AcDbLine
 10
505.0000000001819
 20
2003.599999999857
 30
0.0
 11
476.1015151903448
 21
2003.599999999857
 31
0.0
  0
LINE
  5
275
330
1F
100
AcDbEntity
  8
LAY-10
  6
CONTINUOUS
 62
     7
100
AcDbLine
 10
505.0000000001819
 20
2012.599999999858
 30
0.0
 11
476.1015151903448
 21
2012.599999999858
 31
0.0
  0
LINE
  5
276
330
1F
100
AcDbEntity
  8
LAY-10
  6
CONTINUOUS
 62
     7
100
AcDbLine
 10
476.1015151903448
 20
2003.599999999857
 30
0.0
 11
476.1015151903448
 21
2012.599999999858
 31
0.0
  0
LINE
  5
277
330
1F
100
AcDbEntity
  8
LAY-10
  6
CONTINUOUS
 62
     7
100
AcDbLine
 10
505.0000000001819
 20
1512.599999999895
 30
0.0
 11
476.1015151903448
 21
1512.599999999895
 31
0.0
  0
LINE
  5
278
330
1F
100
AcDbEntity
  8
LAY-10
  6
CONTINUOUS
 62
     7
100
AcDbLine
 10
505.0000000001819
 20
1503.599999999894
 30
0.0
 11
476.1015151903448
 21
1503.599999999894
 31
0.0
  0
LINE
  5
279
330
1F
100
AcDbEntity
  8
LAY-10
  6
CONTINUOUS
 62
     7
100
AcDbLine
 10
476.1015151903448
 20
1512.599999999895
 30
0.0
 11
476.1015151903448
 21
1503.599999999894
 31
0.0
  0
LINE
  5
27A
330
1F
100
AcDbEntity
  8
LAY-10
  6
HIDDEN
 62
     7
100
AcDbLine
 10
1078.054316770655
 20
1414.954316770574
 30
0.0
 11
1041.945683229616
 21
1414.954316770576
 31
0.0
  0
LINE
  5
27B
330
1F
100
AcDbEntity
  8
LAY-10
  6
CONTINUOUS
 62
     7
100
AcDbLine
 10
994.7212919984424
 20
1381.100000000005
 30
0.0
 11
1325.2787080018
 21
2135.1
 31
0.0
  0
LINE
  5
27C
330
1F
100
AcDbEntity
  8
LAY-10
  6
CONTINUOUS
 62
     7
100
AcDbLine
 10
947.500000000131
 20
1382.099999999904
 30
0.0
 11
995.1596970594103
 21
1382.099999999904
 31
0.0
  0
LINE
  5
27D
330
1F
100
AcDbEntity
  8
LAY-10
  6
CONTINUOUS
 62
     7
100
AcDbLine
 10
1800.000000000109
 20
1418.100000000006
 30
0.0
 11
1010.942279255902
 21
1418.100000000006
 31
0.0
  0
LINE
  5
27E
330
1F
100
AcDbEntity
  8
LAY-10
  6
CONTINUOUS
 62
     7
100
AcDbLine
 10
1797.000000000131
 20
1421.099999999976
 30
0.0
 11
1012.257494438926
 21
1421.099999999976
 31
0.0
  0
LINE
  5
27F
330
1F
100
AcDbEntity
  8
LAY-10
  6
CONTINUOUS
 62
     7
100
AcDbLine
 10
1324.840302940746
 20
2134.099999999906
 30
0.0
 11
947.500000000131
 21
2134.099999999904
 31
0.0
  0
LINE
  5
280
330
1F
100
AcDbEntity
  8
LAY-10
  6
CONTINUOUS
 62
     7
100
AcDbLine
 10
1800.000000000109
 20
2098.100000000007
 30
0.0
 11
1309.057720744343
 21
2098.100000000005
 31
0.0
  0
LINE
  5
281
330
1F
100
AcDbEntity
  8
LAY-10
  6
CONTINUOUS
 62
     7
100
AcDbLine
 10
1797.000000000131
 20
2095.099999999936
 30
0.0
 11
1307.742505561275
 21
2095.099999999936
 31
0.0
  0
LINE
  5
282
330
1F
100
AcDbEntity
  8
LAY-10
  6
CONTINUOUS
 62
     7
100
AcDbLine
 10
1665.000000000109
 20
1683.099999999981
 30
0.0
 11
1665.000000000109
 21
1673.1
 31
0.0
  0
LINE
  5
283
330
1F
100
AcDbEntity
  8
LAY-10
  6
CONTINUOUS
 62
     7
100
AcDbLine
 10
1665.0000000001
 20
1843.099999999981
 30
0.0
 11
1659.000000000109
 21
1843.099999999981
 31
0.0
  0
CIRCLE
  5
284
330
1F
100
AcDbEntity
  8
LAY-10
  6
CONTINUOUS
 62
     7
100
AcDbCircle
 10
1368.333333333554
 20
2083.100000000201
 30
0.0
 40
10.50000000000041
  0
CIRCLE
  5
285
330
1F
100
AcDbEntity
  8
LAY-10
  6
CONTINUOUS
 62
     7
100
AcDbCircle
 10
1368.333333333554
 20
2083.100000000201
 30
0.0
 40
8.66025403784441
  0
LINE
  5
286
330
1F
100
AcDbEntity
  8
LAY-10
  6
CONTINUOUS
 62
     7
100
AcDbLine
 10
1359.67307929571
 20
2088.1000000002
 30
0.0
 11
1359.67307929571
 21
2078.100000000201
 31
0.0
  0
LINE
  5
287
330
1F
100
AcDbEntity
  8
LAY-10
  6
CONTINUOUS
 62
     7
100
AcDbLine
 10
1359.67307929571
 20
2078.100000000201
 30
0.0
 11
1368.333333333554
 21
2073.1000000002
 31
0.0
  0
LINE
  5
288
330
1F
100
AcDbEntity
  8
LAY-10
  6
CONTINUOUS
 62
     7
100
AcDbLine
 10
1368.333333333554
 20
2073.1000000002
 30
0.0
 11
1376.993587371397
 21
2078.100000000201
 31
0.0
  0
LINE
  5
289
330
1F
100
AcDbEntity
  8
LAY-10
  6
CONTINUOUS
 62
     7
100
AcDbLine
 10
1376.993587371397
 20
2088.1000000002
 30
0.0
 11
1368.333333333554
 21
2093.100000000201
 31
0.0
  0
LINE
  5
28A
330
1F
100
AcDbEntity
  8
LAY-10
  6
CONTINUOUS
 62
     7
100
AcDbLine
 10
1368.333333333554
 20
2093.100000000201
 30
0.0
 11
1359.67307929571
 21
2088.1000000002
 31
0.0
  0
CIRCLE
  5
28B
330
1F
100
AcDbEntity
  8
LAY-10
  6
CONTINUOUS
 62
     7
100
AcDbCircle
 10
1368.333333333554
 20
2083.100000000201
 30
0.0
 40
5.0
  0
CIRCLE
  5
28C
330
1F
100
AcDbEntity
  8
LAY-10
  6
CONTINUOUS
 62
     7
100
AcDbCircle
 10
1368.333333333554
 20
2083.100000000201
 30
0.0
 40
4.0
  0
LINE
  5
28D
330
1F
100
AcDbEntity
  8
LAY-10
  6
CONTINUOUS
 62
     7
100
AcDbLine
 10
1376.993587371397
 20
2078.100000000201
 30
0.0
 11
1376.993587371397
 21
2088.1000000002
 31
0.0
  0
LINE
  5
28E
330
1F
100
AcDbEntity
  8
LAY-10
  6
CONTINUOUS
 62
     7
100
AcDbLine
 10
2288.600000000075
 20
1833.100000000018
 30
0.0
 11
2288.600000000075
 21
1813.100000000018
 31
0.0
  0
LINE
  5
28F
330
1F
100
AcDbEntity
  8
LAY-10
  6
CONTINUOUS
 62
     7
100
AcDbLine
 10
2288.600000000075
 20
1703.100000000018
 30
0.0
 11
2288.600000000075
 21
1683.100000000018
 31
0.0
  0
LINE
  5
290
330
1F
100
AcDbEntity
  8
LAY-10
  6
CONTINUOUS
 62
     7
100
AcDbLine
 10
2281.600000000073
 20
1683.100000000018
 30
0.0
 11
2289.600000000075
 21
1683.100000000018
 31
0.0
  0
LINE
  5
291
330
1F
100
AcDbEntity
  8
LAY-10
  6
CONTINUOUS
 62
     7
100
AcDbLine
 10
2281.600000000073
 20
1833.100000000018
 30
0.0
 11
2289.600000000075
 21
1833.100000000018
 31
0.0
  0
LINE
  5
292
330
1F
100
AcDbEntity
  8
LAY-10
  6
CONTINUOUS
 62
     7
100
AcDbLine
 10
2281.600000000073
 20
1813.100000000018
 30
0.0
 11
2289.600000000075
 21
1813.100000000018
 31
0.0
  0
LINE
  5
293
330
1F
100
AcDbEntity
  8
LAY-10
  6
CONTINUOUS
 62
     7
100
AcDbLine
 10
2283.600000000074
 20
1833.100000000018
 30
0.0
 11
2283.600000000074
 21
1843.400000000015
 31
0.0
  0
LINE
  5
294
330
1F
100
AcDbEntity
  8
LAY-10
  6
CONTINUOUS
 62
     7
100
AcDbLine
 10
2283.600000000074
 20
1703.100000000018
 30
0.0
 11
2283.600000000074
 21
1813.100000000018
 31
0.0
  0
LINE
  5
295
330
1F
100
AcDbEntity
  8
LAY-10
  6
CONTINUOUS
 62
     7
100
AcDbLine
 10
2283.600000000074
 20
1673.100000000018
 30
0.0
 11
2283.600000000074
 21
1683.100000000018
 31
0.0
  0
LINE
  5
296
330
1F
100
AcDbEntity
  8
LAY-10
  6
CONTINUOUS
 62
     7
100
AcDbLine
 10
2281.600000000073
 20
1813.100000000018
 30
0.0
 11
2281.600000000073
 21
1833.100000000018
 31
0.0
  0
LINE
  5
297
330
1F
100
AcDbEntity
  8
LAY-10
  6
CONTINUOUS
 62
     7
100
AcDbLine
 10
2281.600000000073
 20
1683.100000000018
 30
0.0
 11
2281.600000000073
 21
1703.100000000018
 31
0.0
  0
LINE
  5
298
330
1F
100
AcDbEntity
  8
LAY-10
  6
CONTINUOUS
 62
     7
100
AcDbLine
 10
2281.600000000073
 20
1703.100000000018
 30
0.0
 11
2289.600000000075
 21
1703.100000000018
 31
0.0
  0
LINE
  5
299
330
1F
100
AcDbEntity
  8
LAY-10
  6
CONTINUOUS
 62
     7
100
AcDbLine
 10
2283.600000000074
 20
1843.400000000015
 30
0.0
 11
2289.600000000075
 21
1843.400000000015
 31
0.0
  0
LINE
  5
29A
330
1F
100
AcDbEntity
  8
LAY-10
  6
CONTINUOUS
 62
     7
100
AcDbLine
 10
2283.600000000074
 20
1673.100000000018
 30
0.0
 11
2289.600000000075
 21
1673.100000000018
 31
0.0
  0
ARC
  5
29B
330
1F
100
AcDbEntity
  8
LAY-10
  6
CONTINUOUS
 62
     7
100
AcDbCircle
 10
2286.600000000077
 20
1805.100000000016
 30
0.0
 40
3.000000000000003
100
AcDbArc
 50
180.0
 51
0.0
  0
ARC
  5
29C
330
1F
100
AcDbEntity
  8
LAY-10
  6
CONTINUOUS
 62
     7
100
AcDbCircle
 10
2286.600000000077
 20
1711.100000000016
 30
0.0
 40
3.000000000000003
100
AcDbArc
 50
0.0
 51
180.0
  0
LINE
  5
29D
330
1F
100
AcDbEntity
  8
LAY-10
  6
CONTINUOUS
 62
     7
100
AcDbLine
 10
2215.000000000079
 20
1381.100000000015
 30
0.0
 11
2230.000000000079
 21
1381.100000000015
 31
0.0
  0
LINE
  5
29E
330
1F
100
AcDbEntity
  8
LAY-10
  6
CONTINUOUS
 62
     7
100
AcDbLine
 10
2215.000000000079
 20
1381.100000000015
 30
0.0
 11
2215.000000000079
 21
1366.100000000015
 31
0.0
  0
LINE
  5
29F
330
1F
100
AcDbEntity
  8
LAY-10
  6
CONTINUOUS
 62
     7
100
AcDbLine
 10
2218.000000000078
 20
1378.100000000015
 30
0.0
 11
2218.000000000078
 21
1366.100000000015
 31
0.0
  0
LINE
  5
2A0
330
1F
100
AcDbEntity
  8
LAY-10
  6
CONTINUOUS
 62
     7
100
AcDbLine
 10
2230.000000000079
 20
1381.100000000015
 30
0.0
 11
2230.000000000079
 21
1378.100000000015
 31
0.0
  0
LINE
  5
2A1
330
1F
100
AcDbEntity
  8
LAY-10
  6
CONTINUOUS
 62
     7
100
AcDbLine
 10
2215.000000000079
 20
1366.100000000015
 30
0.0
 11
2218.000000000078
 21
1366.100000000015
 31
0.0
  0
LINE
  5
2A2
330
1F
100
AcDbEntity
  8
LAY-10
  6
CONTINUOUS
 62
     7
100
AcDbLine
 10
2264.700000000076
 20
1378.213708499
 30
0.0
 11
2264.700000000073
 21
1380.900000000066
 31
0.0
  0
LINE
  5
2A3
330
1F
100
AcDbEntity
  8
LAY-10
  6
CONTINUOUS
 62
     7
100
AcDbLine
 10
2302.398484809911
 20
1337.20151519018
 30
0.0
 11
2308.055339059402
 21
1342.858369439673
 31
0.0
  0
LINE
  5
2A4
330
1F
100
AcDbEntity
  8
LAY-10
  6
CONTINUOUS
 62
     7
100
AcDbLine
 10
2308.055339059402
 20
1342.858369439673
 30
0.0
 11
2272.700000000077
 21
1378.213708499
 31
0.0
  0
ARC
  5
2A5
330
1F
100
AcDbEntity
  8
LAY-10
  6
CONTINUOUS
 62
     7
100
AcDbCircle
 10
2272.700000000077
 20
1378.213708499
 30
0.0
 40
8.0
100
AcDbArc
 50
180.0
 51
224.9999999999919
  0
LINE
  5
2A6
330
1F
100
AcDbEntity
  8
LAY-10
  6
CONTINUOUS
 62
     7
100
AcDbLine
 10
2302.398484809911
 20
1337.20151519018
 30
0.0
 11
2267.043145750583
 21
1372.556854249508
 31
0.0
  0
LINE
  5
2A7
330
1F
100
AcDbEntity
  8
LAY-10
  6
CONTINUOUS
 62
     7
100
AcDbLine
 10
2264.700000000073
 20
1380.900000000066
 30
0.0
 11
2264.700000000076
 21
1414.900000000014
 31
0.0
  0
LINE
  5
2A8
330
1F
100
AcDbEntity
  8
LAY-10
  6
CONTINUOUS
 62
     7
100
AcDbLine
 10
2218.000000000078
 20
1378.100000000015
 30
0.0
 11
2258.500000000076
 21
1378.100000000015
 31
0.0
  0
ARC
  5
2A9
330
1F
100
AcDbEntity
  8
LAY-10
  6
CONTINUOUS
 62
     7
100
AcDbCircle
 10
2264.500000000076
 20
1415.100000000014
 30
0.0
 40
3.000000000000003
100
AcDbArc
 50
90.00000000000001
 51
180.0
  0
ARC
  5
2AA
330
1F
100
AcDbEntity
  8
LAY-10
  6
CONTINUOUS
 62
     7
100
AcDbCircle
 10
2258.700000000074
 20
1380.900000000016
 30
0.0
 40
6.000000000000006
100
AcDbArc
 50
270.0000000000002
 51
0.0
  0
ARC
  5
2AB
330
1F
100
AcDbEntity
  8
LAY-10
  6
CONTINUOUS
 62
     7
100
AcDbCircle
 10
2258.500000000076
 20
1381.100000000015
 30
0.0
 40
3.000000000000003
100
AcDbArc
 50
270.0000000000002
 51
0.0
  0
LINE
  5
2AC
330
1F
100
AcDbEntity
  8
LAY-10
  6
CONTINUOUS
 62
     7
100
AcDbLine
 10
2258.700000000074
 20
1374.900000000014
 30
0.0
 11
2218.000000000078
 21
1374.900000000014
 31
0.0
  0
LINE
  5
2AD
330
1F
100
AcDbEntity
  8
LAY-10
  6
CONTINUOUS
 62
     7
100
AcDbLine
 10
2305.000000000075
 20
1468.100000000016
 30
0.0
 11
2305.000000000075
 21
1417.900000000016
 31
0.0
  0
LINE
  5
2AE
330
1F
100
AcDbEntity
  8
LAY-10
  6
CONTINUOUS
 62
     7
100
AcDbLine
 10
2270.119629784485
 20
1412.698309440868
 30
0.0
 11
2270.200000000065
 21
1412.778679656448
 31
0.0
  0
LINE
  5
2AF
330
1F
100
AcDbEntity
  8
LAY-10
  6
CONTINUOUS
 62
     7
100
AcDbLine
 10
2269.76148479141
 20
1413.047271228977
 30
0.0
 11
2270.200000000073
 21
1413.485786437641
 31
0.0
  0
LINE
  5
2B0
330
1F
100
AcDbEntity
  8
LAY-10
  6
CONTINUOUS
 62
     7
100
AcDbLine
 10
2269.403339798348
 20
1413.396233017101
 30
0.0
 11
2270.200000000057
 21
1414.192893218811
 31
0.0
  0
LINE
  5
2B1
330
1F
100
AcDbEntity
  8
LAY-10
  6
CONTINUOUS
 62
     7
100
AcDbLine
 10
2269.045194805281
 20
1413.745194805225
 30
0.0
 11
2270.200000000073
 21
1414.900000000014
 31
0.0
  0
LINE
  5
2B2
330
1F
100
AcDbEntity
  8
LAY-10
  6
CONTINUOUS
 62
     7
100
AcDbLine
 10
2268.687049812205
 20
1414.094156593335
 30
0.0
 11
2269.492893218881
 21
1414.900000000009
 31
0.0
  0
LINE
  5
2B3
330
1F
100
AcDbEntity
  8
LAY-10
  6
CONTINUOUS
 62
     7
100
AcDbLine
 10
2268.328904819141
 20
1414.443118381456
 30
0.0
 11
2268.7857864377
 21
1414.900000000014
 31
0.0
  0
LINE
  5
2B4
330
1F
100
AcDbEntity
  8
LAY-10
  6
CONTINUOUS
 62
     7
100
AcDbLine
 10
2267.970759826078
 20
1414.792080169579
 30
0.0
 11
2268.078679656516
 21
1414.900000000019
 31
0.0
  0
LINE
  5
2B5
330
1F
100
AcDbEntity
  8
LAY-10
  6
CONTINUOUS
 62
     7
100
AcDbLine
 10
2267.860000000074
 20
1414.900000000014
 30
0.0
 11
2270.200000000076
 21
1412.620000000016
 31
0.0
  0
LINE
  5
2B6
330
1F
100
AcDbEntity
  8
LAY-10
  6
CONTINUOUS
 62
     7
100
AcDbLine
 10
2301.200000000078
 20
1412.778679656456
 30
0.0
 11
2301.329818545925
 21
1412.648861110611
 31
0.0
  0
LINE
  5
2B7
330
1F
100
AcDbEntity
  8
LAY-10
  6
CONTINUOUS
 62
     7
100
AcDbLine
 10
2301.200000000093
 20
1413.485786437627
 30
0.0
 11
2301.659213146411
 21
1413.026573291311
 31
0.0
  0
LINE
  5
2B8
330
1F
100
AcDbEntity
  8
LAY-10
  6
CONTINUOUS
 62
     7
100
AcDbLine
 10
2301.200000000086
 20
1414.19289321882
 30
0.0
 11
2301.9886077469
 21
1413.404285472009
 31
0.0
  0
LINE
  5
2B9
330
1F
100
AcDbEntity
  8
LAY-10
  6
CONTINUOUS
 62
     7
100
AcDbLine
 10
2301.200000000081
 20
1414.900000000012
 30
0.0
 11
2302.318002347385
 21
1413.781997652709
 31
0.0
  0
LINE
  5
2BA
330
1F
100
AcDbEntity
  8
LAY-10
  6
CONTINUOUS
 62
     7
100
AcDbLine
 10
2301.907106781273
 20
1414.900000000005
 30
0.0
 11
2302.647396947862
 21
1414.159709833418
 31
0.0
  0
LINE
  5
2BB
330
1F
100
AcDbEntity
  8
LAY-10
  6
CONTINUOUS
 62
     7
100
AcDbLine
 10
2302.561246390448
 20
1414.952967172018
 30
0.0
 11
2302.976791548349
 21
1414.537422014116
 31
0.0
  0
LINE
  5
2BC
330
1F
100
AcDbEntity
  8
LAY-10
  6
CONTINUOUS
 62
     7
100
AcDbLine
 10
2303.108866693957
 20
1415.112453649694
 30
0.0
 11
2303.306186148837
 21
1414.915134194815
 31
0.0
  0
LINE
  5
2BD
330
1F
100
AcDbEntity
  8
LAY-10
  6
CONTINUOUS
 62
     7
100
AcDbLine
 10
2303.579161875853
 20
1415.349265248988
 30
0.0
 11
2303.635580749324
 21
1415.292846375513
 31
0.0
  0
LINE
  5
2BE
330
1F
100
AcDbEntity
  8
LAY-10
  6
CONTINUOUS
 62
     7
100
AcDbLine
 10
2301.200000000078
 20
1412.500000000014
 30
0.0
 11
2303.84892478505
 21
1415.537484996992
 31
0.0
  0
LINE
  5
2BF
330
1F
100
AcDbEntity
  8
LAY-10
  6
CONTINUOUS
 62
     7
100
AcDbLine
 10
2270.200000000076
 20
1378.900000000017
 30
0.0
 11
2301.200000000078
 21
1378.900000000017
 31
0.0
  0
LINE
  5
2C0
330
1F
100
AcDbEntity
  8
LAY-10
  6
CONTINUOUS
 62
     7
100
AcDbLine
 10
2301.200000000078
 20
1378.900000000017
 30
0.0
 11
2301.200000000078
 21
1414.900000000017
 31
0.0
  0
LINE
  5
2C1
330
1F
100
AcDbEntity
  8
LAY-10
  6
CONTINUOUS
 62
     7
100
AcDbLine
 10
2270.200000000076
 20
1378.900000000017
 30
0.0
 11
2270.200000000076
 21
1414.900000000014
 31
0.0
  0
ARC
  5
2C2
330
1F
100
AcDbEntity
  8
LAY-10
  6
CONTINUOUS
 62
     7
100
AcDbCircle
 10
2299.800000000073
 20
1475.100000000016
 30
0.0
 40
4.0
100
AcDbArc
 50
180.0
 51
270.0000000000002
  0
ARC
  5
2C3
330
1F
100
AcDbEntity
  8
LAY-10
  6
CONTINUOUS
 62
     7
100
AcDbCircle
 10
2320.800000000075
 20
1469.100000000016
 30
0.0
 40
2.0
100
AcDbArc
 50
0.0
 51
90.00000000000001
  0
LINE
  5
2C4
330
1F
100
AcDbEntity
  8
LAY-10
  6
CONTINUOUS
 62
     7
100
AcDbLine
 10
2322.800000000075
 20
1468.100000000016
 30
0.0
 11
2322.800000000075
 21
1469.100000000016
 31
0.0
  0
LINE
  5
2C5
330
1F
100
AcDbEntity
  8
LAY-10
  6
CONTINUOUS
 62
     7
100
AcDbLine
 10
2299.800000000073
 20
1471.100000000016
 30
0.0
 11
2320.800000000075
 21
1471.100000000016
 31
0.0
  0
LINE
  5
2C6
330
1F
100
AcDbEntity
  8
LAY-10
  6
CONTINUOUS
 62
     7
100
AcDbLine
 10
2292.800000000075
 20
1468.100000000016
 30
0.0
 11
2322.800000000075
 21
1468.100000000016
 31
0.0
  0
LINE
  5
2C7
330
1F
100
AcDbEntity
  8
LAY-10
  6
CONTINUOUS
 62
     7
100
AcDbLine
 10
2335.000000000068
 20
1458.100000000016
 30
0.0
 11
2292.800000000075
 21
1458.100000000016
 31
0.0
  0
ARC
  5
2C8
330
1F
100
AcDbEntity
  8
LAY-10
  6
CONTINUOUS
 62
     7
100
AcDbCircle
 10
2333.000000000068
 20
1457.100000000108
 30
0.0
 40
2.0
100
AcDbArc
 50
270.0000000000002
 51
0.0
  0
LINE
  5
2C9
330
1F
100
AcDbEntity
  8
LAY-10
  6
CONTINUOUS
 62
     7
100
AcDbLine
 10
2335.000000000068
 20
1458.100000000108
 30
0.0
 11
2335.000000000068
 21
1457.100000000108
 31
0.0
  0
LINE
  5
2CA
330
1F
100
AcDbEntity
  8
LAY-10
  6
CONTINUOUS
 62
     7
100
AcDbLine
 10
2312.00000000007
 20
1455.100000000107
 30
0.0
 11
2333.000000000068
 21
1455.100000000107
 31
0.0
  0
LINE
  5
2CB
330
1F
100
AcDbEntity
  8
LAY-10
  6
CONTINUOUS
 62
     7
100
AcDbLine
 10
2301.800000000078
 20
1428.100000000016
 30
0.0
 11
2301.800000000078
 21
1418.100000000016
 31
0.0
  0
LINE
  5
2CC
330
1F
100
AcDbEntity
  8
LAY-10
  6
CONTINUOUS
 62
     7
100
AcDbLine
 10
2301.800000000078
 20
1438.100000000015
 30
0.0
 11
2301.800000000078
 21
1468.100000000016
 31
0.0
  0
LINE
  5
2CD
330
1F
100
AcDbEntity
  8
LAY-10
  6
CONTINUOUS
 62
     7
100
AcDbLine
 10
2264.500000000076
 20
1418.100000000016
 30
0.0
 11
2301.800000000078
 21
1418.100000000016
 31
0.0
  0
LINE
  5
2CE
330
1F
100
AcDbEntity
  8
LAY-10
  6
CONTINUOUS
 62
     7
100
AcDbLine
 10
2264.700000000076
 20
1414.900000000017
 30
0.0
 11
2302.000000000077
 21
1414.900000000017
 31
0.0
  0
ARC
  5
2CF
330
1F
100
AcDbEntity
  8
LAY-10
  6
CONTINUOUS
 62
     7
100
AcDbCircle
 10
2312.00000000007
 20
1451.100000000108
 30
0.0
 40
4.0
100
AcDbArc
 50
90.00000000000001
 51
180.0
  0
LINE
  5
2D0
330
1F
100
AcDbEntity
  8
LAY-10
  6
CONTINUOUS
 62
     7
100
AcDbLine
 10
2308.00000000007
 20
1451.100000000108
 30
0.0
 11
2308.00000000007
 21
1443.100000000059
 31
0.0
  0
LINE
  5
2D1
330
1F
100
AcDbEntity
  8
LAY-10
  6
CONTINUOUS
 62
     7
100
AcDbLine
 10
2301.800000000078
 20
1455.100000000016
 30
0.0
 11
2292.800000000075
 21
1455.100000000016
 31
0.0
  0
ARC
  5
2D2
330
1F
100
AcDbEntity
  8
LAY-10
  6
CONTINUOUS
 62
     7
100
AcDbCircle
 10
2302.000000000077
 20
1417.900000000016
 30
0.0
 40
3.000000000000003
100
AcDbArc
 50
270.0000000000002
 51
0.0
  0
LINE
  5
2D3
330
1F
100
AcDbEntity
  8
LAY-10
  6
CONTINUOUS
 62
     7
100
AcDbLine
 10
2301.800000000078
 20
1421.100000000017
 30
0.0
 11
2292.600000000075
 21
1421.100000000017
 31
0.0
  0
ARC
  5
2D4
330
1F
100
AcDbEntity
  8
LAY-10
  6
CONTINUOUS
 62
     7
100
AcDbCircle
 10
2292.600000000075
 20
1424.100000000016
 30
0.0
 40
3.000000000000003
100
AcDbArc
 50
180.0
 51
270.0000000000002
  0
LINE
  5
2D5
330
1F
100
AcDbEntity
  8
LAY-10
  6
CONTINUOUS
 62
     7
100
AcDbLine
 10
2301.800000000078
 20
1424.100000000016
 30
0.0
 11
2292.800000000075
 21
1424.100000000016
 31
0.0
  0
LINE
  5
2D6
330
1F
100
AcDbEntity
  8
LAY-10
  6
CONTINUOUS
 62
     7
100
AcDbLine
 10
2292.800000000075
 20
1427.100000000015
 30
0.0
 11
2289.600000000075
 21
1427.100000000015
 31
0.0
  0
LINE
  5
2D7
330
1F
100
AcDbEntity
  8
LAY-10
  6
CONTINUOUS
 62
     7
100
AcDbLine
 10
2292.800000000075
 20
1439.100000000016
 30
0.0
 11
2289.600000000075
 21
1439.100000000016
 31
0.0
  0
LINE
  5
2D8
330
1F
100
AcDbEntity
  8
LAY-10
  6
CONTINUOUS
 62
     7
100
AcDbLine
 10
2301.800000000078
 20
1427.100000000015
 30
0.0
 11
2305.000000000075
 21
1427.100000000015
 31
0.0
  0
LINE
  5
2D9
330
1F
100
AcDbEntity
  8
LAY-10
  6
CONTINUOUS
 62
     7
100
AcDbLine
 10
2301.800000000078
 20
1439.100000000016
 30
0.0
 11
2305.000000000075
 21
1439.100000000016
 31
0.0
  0
LINE
  5
2DA
330
1F
100
AcDbEntity
  8
LAY-10
  6
CONTINUOUS
 62
     7
100
AcDbLine
 10
2292.800000000075
 20
1428.100000000016
 30
0.0
 11
2292.800000000075
 21
1424.100000000016
 31
0.0
  0
ARC
  5
2DB
330
1F
100
AcDbEntity
  8
LAY-10
  6
CONTINUOUS
 62
     7
100
AcDbCircle
 10
2221.500000000098
 20
1383.099999999974
 30
0.0
 40
2.0
100
AcDbArc
 50
90.00000000000009
 51
180.0000000000002
  0
ARC
  5
2DC
330
1F
100
AcDbEntity
  8
LAY-10
  6
CONTINUOUS
 62
     7
100
AcDbCircle
 10
2226.05566062812
 20
1416.665456521739
 30
0.0
 40
11.44452137582097
100
AcDbArc
 50
0.3231317747390464
 51
34.21070402948217
  0
ARC
  5
2DD
330
1F
100
AcDbEntity
  8
LAY-10
  6
CONTINUOUS
 62
     7
100
AcDbCircle
 10
2190.066296738358
 20
1421.464172633255
 30
0.0
 40
47.66936747686547
100
AcDbArc
 50
342.4625442095373
 51
354.3004070848737
  0
ARC
  5
2DE
330
1F
100
AcDbEntity
  8
LAY-10
  6
CONTINUOUS
 62
     7
100
AcDbCircle
 10
2226.05566062812
 20
1397.534543478341
 30
0.0
 40
11.44452137582097
100
AcDbArc
 50
325.7892959705179
 51
359.6768682252611
  0
ARC
  5
2DF
330
1F
100
AcDbEntity
  8
LAY-10
  6
CONTINUOUS
 62
     7
100
AcDbCircle
 10
2190.066296738358
 20
1392.735827366826
 30
0.0
 40
47.66936747686547
100
AcDbArc
 50
5.69959291512632
 51
17.53745579046277
  0
LINE
  5
2E0
330
1F
100
AcDbEntity
  8
LAY-10
  6
CONTINUOUS
 62
     7
100
AcDbLine
 10
2219.5000000001
 20
1407.10000000004
 30
0.0
 11
2235.5200000001
 21
1407.10000000004
 31
0.0
  0
LINE
  5
2E1
330
1F
100
AcDbEntity
  8
LAY-10
  6
CONTINUOUS
 62
     7
100
AcDbLine
 10
2219.5000000001
 20
1391.100000000022
 30
0.0
 11
2235.5200000001
 21
1391.100000000022
 31
0.0
  0
ARC
  5
2E2
330
1F
100
AcDbEntity
  8
LAY-10
  6
CONTINUOUS
 62
     7
100
AcDbCircle
 10
2235.294726776056
 20
1420.419262295081
 30
0.0
 40
2.690186363068871
100
AcDbArc
 50
34.94048644238069
 51
85.19648987662049
  0
ARC
  5
2E3
330
1F
100
AcDbEntity
  8
LAY-10
  6
CONTINUOUS
 62
     7
100
AcDbCircle
 10
2235.294726776056
 20
1393.780737704999
 30
0.0
 40
2.690186363068871
100
AcDbArc
 50
274.8035101233804
 51
325.0595135576195
  0
LINE
  5
2E4
330
1F
100
AcDbEntity
  8
LAY-10
  6
CONTINUOUS
 62
     7
100
AcDbLine
 10
2261.500000000095
 20
1382.099999999975
 30
0.0
 11
2215.000000000095
 21
1382.099999999975
 31
0.0
  0
LINE
  5
2E5
330
1F
100
AcDbEntity
  8
LAY-10
  6
CONTINUOUS
 62
     7
100
AcDbLine
 10
2252.000000000098
 20
1385.099999999975
 30
0.0
 11
2221.500000000099
 21
1385.099999999975
 31
0.0
  0
LINE
  5
2E6
330
1F
100
AcDbEntity
  8
LAY-10
  6
CONTINUOUS
 62
     7
100
AcDbLine
 10
2261.500000000098
 20
1382.781126435019
 30
0.0
 11
2259.500000000095
 21
1384.586423093222
 31
0.0
  0
LINE
  5
2E7
330
1F
100
AcDbEntity
  8
LAY-10
  6
CONTINUOUS
 62
     7
100
AcDbLine
 10
2261.500000000095
 20
1383.488233216209
 30
0.0
 11
2259.500000000095
 21
1385.29352987441
 31
0.0
  0
LINE
  5
2E8
330
1F
100
AcDbEntity
  8
LAY-10
  6
CONTINUOUS
 62
     7
100
AcDbLine
 10
2261.500000000098
 20
1384.195339997393
 30
0.0
 11
2259.500000000095
 21
1386.000636655599
 31
0.0
  0
LINE
  5
2E9
330
1F
100
AcDbEntity
  8
LAY-10
  6
CONTINUOUS
 62
     7
100
AcDbLine
 10
2261.500000000095
 20
1384.902446778581
 30
0.0
 11
2259.500000000095
 21
1386.707743436784
 31
0.0
  0
LINE
  5
2EA
330
1F
100
AcDbEntity
  8
LAY-10
  6
CONTINUOUS
 62
     7
100
AcDbLine
 10
2261.500000000098
 20
1385.609553559764
 30
0.0
 11
2259.500000000095
 21
1387.41485021797
 31
0.0
  0
LINE
  5
2EB
330
1F
100
AcDbEntity
  8
LAY-10
  6
CONTINUOUS
 62
     7
100
AcDbLine
 10
2261.500000000095
 20
1386.316660340954
 30
0.0
 11
2259.500000000095
 21
1388.121956999156
 31
0.0
  0
LINE
  5
2EC
330
1F
100
AcDbEntity
  8
LAY-10
  6
CONTINUOUS
 62
     7
100
AcDbLine
 10
2261.500000000098
 20
1387.023767122139
 30
0.0
 11
2259.500000000095
 21
1388.829063780345
 31
0.0
  0
LINE
  5
2ED
330
1F
100
AcDbEntity
  8
LAY-10
  6
CONTINUOUS
 62
     7
100
AcDbLine
 10
2261.500000000095
 20
1387.730873903327
 30
0.0
 11
2259.500000000095
 21
1389.53617056153
 31
0.0
  0
LINE
  5
2EE
330
1F
100
AcDbEntity
  8
LAY-10
  6
CONTINUOUS
 62
     7
100
AcDbLine
 10
2261.500000000098
 20
1388.437980684512
 30
0.0
 11
2259.500000000095
 21
1390.243277342718
 31
0.0
  0
LINE
  5
2EF
330
1F
100
AcDbEntity
  8
LAY-10
  6
CONTINUOUS
 62
     7
100
AcDbLine
 10
2261.500000000095
 20
1389.145087465699
 30
0.0
 11
2259.498049891219
 21
1390.947037574576
 31
0.0
  0
LINE
  5
2F0
330
1F
100
AcDbEntity
  8
LAY-10
  6
CONTINUOUS
 62
     7
100
AcDbLine
 10
2261.500000000098
 20
1389.852194246885
 30
0.0
 11
2259.500000000095
 21
1391.653740985204
 31
0.0
  0
LINE
  5
2F1
330
1F
100
AcDbEntity
  8
LAY-10
  6
CONTINUOUS
 62
     7
100
AcDbLine
 10
2261.500000000095
 20
1390.559301028073
 30
0.0
 11
2259.500000000097
 21
1392.359301028071
 31
0.0
  0
LINE
  5
2F2
330
1F
100
AcDbEntity
  8
LAY-10
  6
CONTINUOUS
 62
     7
100
AcDbLine
 10
2261.500000000098
 20
1391.266407809258
 30
0.0
 11
2259.500000000094
 21
1393.066407809259
 31
0.0
  0
LINE
  5
2F3
330
1F
100
AcDbEntity
  8
LAY-10
  6
CONTINUOUS
 62
     7
100
AcDbLine
 10
2261.500000000095
 20
1391.973514590445
 30
0.0
 11
2259.500000000097
 21
1393.773514590443
 31
0.0
  0
LINE
  5
2F4
330
1F
100
AcDbEntity
  8
LAY-10
  6
CONTINUOUS
 62
     7
100
AcDbLine
 10
2261.500000000098
 20
1392.680621371631
 30
0.0
 11
2259.500000000094
 21
1394.480621371632
 31
0.0
  0
LINE
  5
2F5
330
1F
100
AcDbEntity
  8
LAY-10
  6
CONTINUOUS
 62
     7
100
AcDbLine
 10
2261.500000000095
 20
1393.387728152819
 30
0.0
 11
2259.500000000097
 21
1395.187728152817
 31
0.0
  0
LINE
  5
2F6
330
1F
100
AcDbEntity
  8
LAY-10
  6
CONTINUOUS
 62
     7
100
AcDbLine
 10
2261.500000000098
 20
1394.094834934003
 30
0.0
 11
2259.500000000094
 21
1395.894834934004
 31
0.0
  0
LINE
  5
2F7
330
1F
100
AcDbEntity
  8
LAY-10
  6
CONTINUOUS
 62
     7
100
AcDbLine
 10
2261.500000000095
 20
1394.801941715192
 30
0.0
 11
2259.500000000097
 21
1396.60194171519
 31
0.0
  0
LINE
  5
2F8
330
1F
100
AcDbEntity
  8
LAY-10
  6
CONTINUOUS
 62
     7
100
AcDbLine
 10
2261.500000000098
 20
1395.509048496377
 30
0.0
 11
2259.500000000094
 21
1397.30904849638
 31
0.0
  0
LINE
  5
2F9
330
1F
100
AcDbEntity
  8
LAY-10
  6
CONTINUOUS
 62
     7
100
AcDbLine
 10
2261.500000000095
 20
1396.216155277564
 30
0.0
 11
2259.500000000097
 21
1398.016155277563
 31
0.0
  0
LINE
  5
2FA
330
1F
100
AcDbEntity
  8
LAY-10
  6
CONTINUOUS
 62
     7
100
AcDbLine
 10
2261.500000000098
 20
1396.923262058749
 30
0.0
 11
2259.500000000094
 21
1398.723262058752
 31
0.0
  0
LINE
  5
2FB
330
1F
100
AcDbEntity
  8
LAY-10
  6
CONTINUOUS
 62
     7
100
AcDbLine
 10
2261.500000000095
 20
1397.630368839937
 30
0.0
 11
2259.500000000097
 21
1399.430368839936
 31
0.0
  0
LINE
  5
2FC
330
1F
100
AcDbEntity
  8
LAY-10
  6
CONTINUOUS
 62
     7
100
AcDbLine
 10
2261.500000000098
 20
1398.337475621123
 30
0.0
 11
2259.500000000094
 21
1400.137475621126
 31
0.0
  0
LINE
  5
2FD
330
1F
100
AcDbEntity
  8
LAY-10
  6
CONTINUOUS
 62
     7
100
AcDbLine
 10
2261.500000000095
 20
1399.044582402312
 30
0.0
 11
2259.500000000098
 21
1400.844582402308
 31
0.0
  0
LINE
  5
2FE
330
1F
100
AcDbEntity
  8
LAY-10
  6
CONTINUOUS
 62
     7
100
AcDbLine
 10
2261.500000000098
 20
1399.751689183496
 30
0.0
 11
2259.500000000094
 21
1401.551689183498
 31
0.0
  0
LINE
  5
2FF
330
1F
100
AcDbEntity
  8
LAY-10
  6
CONTINUOUS
 62
     7
100
AcDbLine
 10
2261.500000000095
 20
1400.458795964685
 30
0.0
 11
2259.500000000098
 21
1402.258795964681
 31
0.0
  0
LINE
  5
300
330
1F
100
AcDbEntity
  8
LAY-10
  6
CONTINUOUS
 62
     7
100
AcDbLine
 10
2261.500000000098
 20
1401.165902745868
 30
0.0
 11
2259.500000000094
 21
1402.965902745871
 31
0.0
  0
LINE
  5
301
330
1F
100
AcDbEntity
  8
LAY-10
  6
CONTINUOUS
 62
     7
100
AcDbLine
 10
2261.500000000095
 20
1401.873009527058
 30
0.0
 11
2259.500000000098
 21
1403.673009527054
 31
0.0
  0
LINE
  5
302
330
1F
100
AcDbEntity
  8
LAY-10
  6
CONTINUOUS
 62
     7
100
AcDbLine
 10
2261.500000000098
 20
1402.580116308241
 30
0.0
 11
2259.500000000094
 21
1404.380116308243
 31
0.0
  0
LINE
  5
303
330
1F
100
AcDbEntity
  8
LAY-10
  6
CONTINUOUS
 62
     7
100
AcDbLine
 10
2261.500000000095
 20
1403.287223089431
 30
0.0
 11
2259.500000000098
 21
1405.087223089427
 31
0.0
  0
LINE
  5
304
330
1F
100
AcDbEntity
  8
LAY-10
  6
CONTINUOUS
 62
     7
100
AcDbLine
 10
2261.500000000098
 20
1403.994329870614
 30
0.0
 11
2259.500000000095
 21
1405.794329870617
 31
0.0
  0
LINE
  5
305
330
1F
100
AcDbEntity
  8
LAY-10
  6
CONTINUOUS
 62
     7
100
AcDbLine
 10
2261.500000000095
 20
1404.701436651803
 30
0.0
 11
2259.500000000098
 21
1406.501436651799
 31
0.0
  0
LINE
  5
306
330
1F
100
AcDbEntity
  8
LAY-10
  6
CONTINUOUS
 62
     7
100
AcDbLine
 10
2261.500000000098
 20
1405.408543432987
 30
0.0
 11
2259.500000000095
 21
1407.20854343299
 31
0.0
  0
LINE
  5
307
330
1F
100
AcDbEntity
  8
LAY-10
  6
CONTINUOUS
 62
     7
100
AcDbLine
 10
2261.500000000095
 20
1406.115650214177
 30
0.0
 11
2259.500000000098
 21
1407.915650214174
 31
0.0
  0
LINE
  5
308
330
1F
100
AcDbEntity
  8
LAY-10
  6
CONTINUOUS
 62
     7
100
AcDbLine
 10
2261.500000000098
 20
1406.822756995359
 30
0.0
 11
2259.500000000095
 21
1408.622756995363
 31
0.0
  0
LINE
  5
309
330
1F
100
AcDbEntity
  8
LAY-10
  6
CONTINUOUS
 62
     7
100
AcDbLine
 10
2261.500000000095
 20
1407.529863776549
 30
0.0
 11
2259.500000000098
 21
1409.329863776546
 31
0.0
  0
LINE
  5
30A
330
1F
100
AcDbEntity
  8
LAY-10
  6
CONTINUOUS
 62
     7
100
AcDbLine
 10
2261.500000000098
 20
1408.236970557733
 30
0.0
 11
2259.500000000095
 21
1410.036970557735
 31
0.0
  0
LINE
  5
30B
330
1F
100
AcDbEntity
  8
LAY-10
  6
CONTINUOUS
 62
     7
100
AcDbLine
 10
2261.500000000095
 20
1408.944077338923
 30
0.0
 11
2259.500000000098
 21
1410.744077338919
 31
0.0
  0
LINE
  5
30C
330
1F
100
AcDbEntity
  8
LAY-10
  6
CONTINUOUS
 62
     7
100
AcDbLine
 10
2261.500000000098
 20
1409.651184120105
 30
0.0
 11
2259.500000000095
 21
1411.451184120108
 31
0.0
  0
LINE
  5
30D
330
1F
100
AcDbEntity
  8
LAY-10
  6
CONTINUOUS
 62
     7
100
AcDbLine
 10
2260.68784857446
 20
1382.099999999975
 30
0.0
 11
2259.500000000095
 21
1383.172209530851
 31
0.0
  0
LINE
  5
30E
330
1F
100
AcDbEntity
  8
LAY-10
  6
CONTINUOUS
 62
     7
100
AcDbLine
 10
2259.918384735349
 20
1382.099999999975
 30
0.0
 11
2259.500000000095
 21
1382.466547141367
 31
0.0
  0
LINE
  5
30F
330
1F
100
AcDbEntity
  8
LAY-10
  6
CONTINUOUS
 62
     7
100
AcDbLine
 10
2261.500000000098
 20
1411.06539768248
 30
0.0
 11
2260.350441869574
 21
1412.099999999951
 31
0.0
  0
LINE
  5
310
330
1F
100
AcDbEntity
  8
LAY-10
  6
CONTINUOUS
 62
     7
100
AcDbLine
 10
2261.500000000095
 20
1411.772504463668
 30
0.0
 11
2261.136116070892
 21
1412.099999999951
 31
0.0
  0
LINE
  5
311
330
1F
100
AcDbEntity
  8
LAY-10
  6
CONTINUOUS
 62
     7
100
AcDbLine
 10
2261.500000000095
 20
1410.358290901296
 30
0.0
 11
2259.564767668254
 21
1412.099999999951
 31
0.0
  0
ARC
  5
312
330
1F
100
AcDbEntity
  8
LAY-10
  6
CONTINUOUS
 62
     7
100
AcDbCircle
 10
2252.000000000098
 20
1389.599999999975
 30
0.0
 40
4.5
100
AcDbArc
 50
270.0000000000002
 51
0.0000000000001719
  0
LINE
  5
313
330
1F
100
AcDbEntity
  8
LAY-10
  6
CONTINUOUS
 62
     7
100
AcDbLine
 10
2259.500000000098
 20
1422.099999999975
 30
0.0
 11
2258.500000000098
 21
1422.099999999975
 31
0.0
  0
ARC
  5
314
330
1F
100
AcDbEntity
  8
LAY-10
  6
CONTINUOUS
 62
     7
100
AcDbCircle
 10
2258.500000000098
 20
1420.099999999975
 30
0.0
 40
2.0
100
AcDbArc
 50
90.00000000000009
 51
180.0000000000002
  0
LINE
  5
315
330
1F
100
AcDbEntity
  8
LAY-10
  6
CONTINUOUS
 62
     7
100
AcDbLine
 10
2259.500000000095
 20
1412.099999999951
 30
0.0
 11
2261.500000000095
 21
1412.099999999951
 31
0.0
  0
LINE
  5
316
330
1F
100
AcDbEntity
  8
LAY-10
  6
CONTINUOUS
 62
     7
100
AcDbLine
 10
2261.471217643444
 20
1382.099999999975
 30
0.0
 11
2259.500000000095
 21
1383.879316312038
 31
0.0
  0
LINE
  5
317
330
1F
100
AcDbEntity
  8
LAY-10
  6
CONTINUOUS
 62
     7
100
AcDbLine
 10
2272.700000000077
 20
1378.213708499
 30
0.0
 11
2272.700000000077
 21
1378.900000000017
 31
0.0
  0
LINE
  5
318
330
1F
100
AcDbEntity
  8
LAY-10
  6
CONTINUOUS
 62
     7
100
AcDbLine
 10
2270.200000000076
 20
1408.213708499
 30
0.0
 11
2264.700000000076
 21
1408.213708499
 31
0.0
  0
LINE
  5
319
330
1F
100
AcDbEntity
  8
LAY-10
  6
CONTINUOUS
 62
     7
100
AcDbLine
 10
2215.000000000079
 20
2135.100000000018
 30
0.0
 11
2230.000000000079
 21
2135.100000000018
 31
0.0
  0
LINE
  5
31A
330
1F
100
AcDbEntity
  8
LAY-10
  6
CONTINUOUS
 62
     7
100
AcDbLine
 10
2218.000000000078
 20
2138.100000000016
 30
0.0
 11
2218.000000000078
 21
2150.100000000018
 31
0.0
  0
LINE
  5
31B
330
1F
100
AcDbEntity
  8
LAY-10
  6
CONTINUOUS
 62
     7
100
AcDbLine
 10
2230.000000000079
 20
2135.100000000018
 30
0.0
 11
2230.000000000079
 21
2138.100000000016
 31
0.0
  0
LINE
  5
31C
330
1F
100
AcDbEntity
  8
LAY-10
  6
CONTINUOUS
 62
     7
100
AcDbLine
 10
2215.000000000079
 20
2150.100000000018
 30
0.0
 11
2218.000000000078
 21
2150.100000000018
 31
0.0
  0
LINE
  5
31D
330
1F
100
AcDbEntity
  8
LAY-10
  6
CONTINUOUS
 62
     7
100
AcDbLine
 10
2215.000000000079
 20
2135.100000000018
 30
0.0
 11
2215.000000000079
 21
2150.100000000018
 31
0.0
  0
LINE
  5
31E
330
1F
100
AcDbEntity
  8
LAY-10
  6
CONTINUOUS
 62
     7
100
AcDbLine
 10
2264.700000000076
 20
2137.986291501
 30
0.0
 11
2264.700000000076
 21
2101.300000000015
 31
0.0
  0
ARC
  5
31F
330
1F
100
AcDbEntity
  8
LAY-10
  6
CONTINUOUS
 62
     7
100
AcDbCircle
 10
2272.700000000073
 20
2137.986291501032
 30
0.0
 40
8.0
100
AcDbArc
 50
134.9999999999862
 51
180.0
  0
LINE
  5
320
330
1F
100
AcDbEntity
  8
LAY-10
  6
CONTINUOUS
 62
     7
100
AcDbLine
 10
2308.055339059402
 20
2173.341630560358
 30
0.0
 11
2272.700000000077
 21
2137.986291501032
 31
0.0
  0
LINE
  5
321
330
1F
100
AcDbEntity
  8
LAY-10
  6
CONTINUOUS
 62
     7
100
AcDbLine
 10
2302.39848480991
 20
2178.998484809851
 30
0.0
 11
2308.055339059402
 21
2173.341630560358
 31
0.0
  0
LINE
  5
322
330
1F
100
AcDbEntity
  8
LAY-10
  6
CONTINUOUS
 62
     7
100
AcDbLine
 10
2302.39848480991
 20
2178.998484809851
 30
0.0
 11
2267.043145750583
 21
2143.643145750525
 31
0.0
  0
LINE
  5
323
330
1F
100
AcDbEntity
  8
LAY-10
  6
CONTINUOUS
 62
     7
100
AcDbLine
 10
2218.000000000078
 20
2138.100000000016
 30
0.0
 11
2258.500000000076
 21
2138.100000000016
 31
0.0
  0
LINE
  5
324
330
1F
100
AcDbEntity
  8
LAY-10
  6
CONTINUOUS
 62
     7
100
AcDbLine
 10
2258.700000000074
 20
2141.300000000015
 30
0.0
 11
2218.000000000078
 21
2141.300000000015
 31
0.0
  0
ARC
  5
325
330
1F
100
AcDbEntity
  8
LAY-10
  6
CONTINUOUS
 62
     7
100
AcDbCircle
 10
2264.500000000076
 20
2101.100000000018
 30
0.0
 40
3.000000000000003
100
AcDbArc
 50
180.0
 51
270.0000000000002
  0
ARC
  5
326
330
1F
100
AcDbEntity
  8
LAY-10
  6
CONTINUOUS
 62
     7
100
AcDbCircle
 10
2258.700000000074
 20
2135.300000000015
 30
0.0
 40
6.000000000000006
100
AcDbArc
 50
0.0
 51
90.00000000000001
  0
ARC
  5
327
330
1F
100
AcDbEntity
  8
LAY-10
  6
CONTINUOUS
 62
     7
100
AcDbCircle
 10
2258.500000000076
 20
2135.100000000018
 30
0.0
 40
3.000000000000003
100
AcDbArc
 50
0.0
 51
90.00000000000001
  0
LINE
  5
328
330
1F
100
AcDbEntity
  8
LAY-10
  6
CONTINUOUS
 62
     7
100
AcDbLine
 10
2264.7000000001
 20
2101.300000000015
 30
0.0
 11
2302.000000000077
 21
2101.300000000015
 31
0.0
  0
LINE
  5
329
330
1F
100
AcDbEntity
  8
LAY-10
  6
CONTINUOUS
 62
     7
100
AcDbLine
 10
2264.5000000001
 20
2098.100000000018
 30
0.0
 11
2301.800000000078
 21
2098.100000000018
 31
0.0
  0
LINE
  5
32A
330
1F
100
AcDbEntity
  8
LAY-10
  6
CONTINUOUS
 62
     7
100
AcDbLine
 10
2301.800000000078
 20
2088.100000000018
 30
0.0
 11
2301.800000000078
 21
2098.100000000018
 31
0.0
  0
LINE
  5
32B
330
1F
100
AcDbEntity
  8
LAY-10
  6
CONTINUOUS
 62
     7
100
AcDbLine
 10
2292.800000000075
 20
2088.100000000018
 30
0.0
 11
2292.800000000075
 21
2092.100000000018
 31
0.0
  0
LINE
  5
32C
330
1F
100
AcDbEntity
  8
LAY-10
  6
CONTINUOUS
 62
     7
100
AcDbLine
 10
2301.800000000078
 20
2078.100000000016
 30
0.0
 11
2301.800000000078
 21
2048.100000000016
 31
0.0
  0
LINE
  5
32D
330
1F
100
AcDbEntity
  8
LAY-10
  6
CONTINUOUS
 62
     7
100
AcDbLine
 10
2305.000000000075
 20
2048.100000000016
 30
0.0
 11
2305.000000000075
 21
2098.300000000018
 31
0.0
  0
LINE
  5
32E
330
1F
100
AcDbEntity
  8
LAY-10
  6
CONTINUOUS
 62
     7
100
AcDbLine
 10
2270.200000000076
 20
2137.300000000018
 30
0.0
 11
2301.200000000078
 21
2137.300000000018
 31
0.0
  0
LINE
  5
32F
330
1F
100
AcDbEntity
  8
LAY-10
  6
CONTINUOUS
 62
     7
100
AcDbLine
 10
2270.200000000076
 20
2137.300000000018
 30
0.0
 11
2270.200000000076
 21
2101.300000000015
 31
0.0
  0
LINE
  5
330
330
1F
100
AcDbEntity
  8
LAY-10
  6
CONTINUOUS
 62
     7
100
AcDbLine
 10
2301.200000000078
 20
2137.300000000018
 30
0.0
 11
2301.200000000078
 21
2101.300000000015
 31
0.0
  0
LINE
  5
331
330
1F
100
AcDbEntity
  8
LAY-10
  6
CONTINUOUS
 62
     7
100
AcDbLine
 10
2303.579161875853
 20
2100.850734751045
 30
0.0
 11
2303.635580749317
 21
2100.907153624509
 31
0.0
  0
LINE
  5
332
330
1F
100
AcDbEntity
  8
LAY-10
  6
CONTINUOUS
 62
     7
100
AcDbLine
 10
2303.108866693957
 20
2101.087546350341
 30
0.0
 11
2303.306186148827
 21
2101.284865805207
 31
0.0
  0
LINE
  5
333
330
1F
100
AcDbEntity
  8
LAY-10
  6
CONTINUOUS
 62
     7
100
AcDbLine
 10
2302.561246390448
 20
2101.247032828015
 30
0.0
 11
2302.976791548341
 21
2101.662577985907
 31
0.0
  0
LINE
  5
334
330
1F
100
AcDbEntity
  8
LAY-10
  6
CONTINUOUS
 62
     7
100
AcDbLine
 10
2301.907106781262
 20
2101.300000000018
 30
0.0
 11
2302.647396947862
 21
2102.040290166618
 31
0.0
  0
LINE
  5
335
330
1F
100
AcDbEntity
  8
LAY-10
  6
CONTINUOUS
 62
     7
100
AcDbLine
 10
2301.200000000081
 20
2101.300000000022
 30
0.0
 11
2302.318002347373
 21
2102.418002347315
 31
0.0
  0
LINE
  5
336
330
1F
100
AcDbEntity
  8
LAY-10
  6
CONTINUOUS
 62
     7
100
AcDbLine
 10
2301.200000000065
 20
2102.007106781192
 30
0.0
 11
2301.988607746886
 21
2102.795714528015
 31
0.0
  0
LINE
  5
337
330
1F
100
AcDbEntity
  8
LAY-10
  6
CONTINUOUS
 62
     7
100
AcDbLine
 10
2301.20000000007
 20
2102.714213562384
 30
0.0
 11
2301.6592131464
 21
2103.173426708713
 31
0.0
  0
LINE
  5
338
330
1F
100
AcDbEntity
  8
LAY-10
  6
CONTINUOUS
 62
     7
100
AcDbLine
 10
2301.200000000066
 20
2103.421320343569
 30
0.0
 11
2301.329818545933
 21
2103.551138889435
 31
0.0
  0
LINE
  5
339
330
1F
100
AcDbEntity
  8
LAY-10
  6
CONTINUOUS
 62
     7
100
AcDbLine
 10
2301.200000000078
 20
2103.700000000016
 30
0.0
 11
2303.84892478505
 21
2100.662515003039
 31
0.0
  0
LINE
  5
33A
330
1F
100
AcDbEntity
  8
LAY-10
  6
CONTINUOUS
 62
     7
100
AcDbLine
 10
2267.970759826063
 20
2101.407919830469
 30
0.0
 11
2268.078679656516
 21
2101.300000000015
 31
0.0
  0
LINE
  5
33B
330
1F
100
AcDbEntity
  8
LAY-10
  6
CONTINUOUS
 62
     7
100
AcDbLine
 10
2268.328904819129
 20
2101.756881618589
 30
0.0
 11
2268.7857864377
 21
2101.300000000022
 31
0.0
  0
LINE
  5
33C
330
1F
100
AcDbEntity
  8
LAY-10
  6
CONTINUOUS
 62
     7
100
AcDbLine
 10
2268.687049812204
 20
2102.105843406701
 30
0.0
 11
2269.492893218892
 21
2101.300000000015
 31
0.0
  0
LINE
  5
33D
330
1F
100
AcDbEntity
  8
LAY-10
  6
CONTINUOUS
 62
     7
100
AcDbLine
 10
2269.04519480527
 20
2102.454805194823
 30
0.0
 11
2270.200000000084
 21
2101.300000000007
 31
0.0
  0
LINE
  5
33E
330
1F
100
AcDbEntity
  8
LAY-10
  6
CONTINUOUS
 62
     7
100
AcDbLine
 10
2269.403339798333
 20
2102.803766982944
 30
0.0
 11
2270.200000000079
 21
2102.0071067812
 31
0.0
  0
LINE
  5
33F
330
1F
100
AcDbEntity
  8
LAY-10
  6
CONTINUOUS
 62
     7
100
AcDbLine
 10
2269.761484791409
 20
2103.152728771057
 30
0.0
 11
2270.200000000069
 21
2102.714213562392
 31
0.0
  0
LINE
  5
340
330
1F
100
AcDbEntity
  8
LAY-10
  6
CONTINUOUS
 62
     7
100
AcDbLine
 10
2270.119629784474
 20
2103.501690559177
 30
0.0
 11
2270.200000000079
 21
2103.421320343577
 31
0.0
  0
LINE
  5
341
330
1F
100
AcDbEntity
  8
LAY-10
  6
CONTINUOUS
 62
     7
100
AcDbLine
 10
2267.860000000074
 20
2101.300000000015
 30
0.0
 11
2270.200000000076
 21
2103.580000000017
 31
0.0
  0
ARC
  5
342
330
1F
100
AcDbEntity
  8
LAY-10
  6
CONTINUOUS
 62
     7
100
AcDbCircle
 10
2299.800000000073
 20
2041.100000000016
 30
0.0
 40
4.0
100
AcDbArc
 50
90.00000000000001
 51
180.0
  0
ARC
  5
343
330
1F
100
AcDbEntity
  8
LAY-10
  6
CONTINUOUS
 62
     7
100
AcDbCircle
 10
2293.800000000075
 20
2020.100000000018
 30
0.0
 40
2.0
100
AcDbArc
 50
270.0000000000002
 51
0.0
  0
ARC
  5
344
330
1F
100
AcDbEntity
  8
LAY-10
  6
CONTINUOUS
 62
     7
100
AcDbCircle
 10
2320.800000000075
 20
2047.100000000016
 30
0.0
 40
2.0
100
AcDbArc
 50
270.0000000000002
 51
0.0
  0
LINE
  5
345
330
1F
100
AcDbEntity
  8
LAY-10
  6
CONTINUOUS
 62
     7
100
AcDbLine
 10
2322.800000000075
 20
2048.100000000016
 30
0.0
 11
2322.800000000075
 21
2047.100000000016
 31
0.0
  0
LINE
  5
346
330
1F
100
AcDbEntity
  8
LAY-10
  6
CONTINUOUS
 62
     7
100
AcDbLine
 10
2292.800000000075
 20
2018.100000000018
 30
0.0
 11
2293.800000000075
 21
2018.100000000018
 31
0.0
  0
LINE
  5
347
330
1F
100
AcDbEntity
  8
LAY-10
  6
CONTINUOUS
 62
     7
100
AcDbLine
 10
2299.800000000073
 20
2045.100000000018
 30
0.0
 11
2320.800000000075
 21
2045.100000000018
 31
0.0
  0
LINE
  5
348
330
1F
100
AcDbEntity
  8
LAY-10
  6
CONTINUOUS
 62
     7
100
AcDbLine
 10
2292.800000000075
 20
2048.100000000016
 30
0.0
 11
2322.800000000075
 21
2048.100000000016
 31
0.0
  0
LINE
  5
349
330
1F
100
AcDbEntity
  8
LAY-10
  6
CONTINUOUS
 62
     7
100
AcDbLine
 10
2335.000000000069
 20
2058.100000000018
 30
0.0
 11
2292.800000000075
 21
2058.100000000018
 31
0.0
  0
ARC
  5
34A
330
1F
100
AcDbEntity
  8
LAY-10
  6
CONTINUOUS
 62
     7
100
AcDbCircle
 10
2333.000000000069
 20
2059.099999999927
 30
0.0
 40
2.0
100
AcDbArc
 50
0.0
 51
90.00000000000001
  0
LINE
  5
34B
330
1F
100
AcDbEntity
  8
LAY-10
  6
CONTINUOUS
 62
     7
100
AcDbLine
 10
2335.000000000069
 20
2058.099999999927
 30
0.0
 11
2335.000000000069
 21
2059.099999999927
 31
0.0
  0
LINE
  5
34C
330
1F
100
AcDbEntity
  8
LAY-10
  6
CONTINUOUS
 62
     7
100
AcDbLine
 10
2312.00000000007
 20
2061.099999999927
 30
0.0
 11
2333.000000000069
 21
2061.099999999927
 31
0.0
  0
ARC
  5
34D
330
1F
100
AcDbEntity
  8
LAY-10
  6
CONTINUOUS
 62
     7
100
AcDbCircle
 10
2312.00000000007
 20
2065.099999999927
 30
0.0
 40
4.0
100
AcDbArc
 50
180.0
 51
270.0000000000002
  0
LINE
  5
34E
330
1F
100
AcDbEntity
  8
LAY-10
  6
CONTINUOUS
 62
     7
100
AcDbLine
 10
2308.00000000007
 20
2065.099999999927
 30
0.0
 11
2308.00000000007
 21
2073.099999999974
 31
0.0
  0
LINE
  5
34F
330
1F
100
AcDbEntity
  8
LAY-10
  6
CONTINUOUS
 62
     7
100
AcDbLine
 10
2301.800000000078
 20
2061.100000000018
 30
0.0
 11
2292.800000000075
 21
2061.100000000018
 31
0.0
  0
ARC
  5
350
330
1F
100
AcDbEntity
  8
LAY-10
  6
CONTINUOUS
 62
     7
100
AcDbCircle
 10
2292.600000000075
 20
2092.100000000018
 30
0.0
 40
3.000000000000003
100
AcDbArc
 50
90.00000000000001
 51
180.0
  0
ARC
  5
351
330
1F
100
AcDbEntity
  8
LAY-10
  6
CONTINUOUS
 62
     7
100
AcDbCircle
 10
2302.000000000077
 20
2098.300000000018
 30
0.0
 40
3.000000000000003
100
AcDbArc
 50
0.0
 51
90.00000000000001
  0
LINE
  5
352
330
1F
100
AcDbEntity
  8
LAY-10
  6
CONTINUOUS
 62
     7
100
AcDbLine
 10
2301.800000000078
 20
2092.100000000018
 30
0.0
 11
2292.800000000075
 21
2092.100000000018
 31
0.0
  0
LINE
  5
353
330
1F
100
AcDbEntity
  8
LAY-10
  6
CONTINUOUS
 62
     7
100
AcDbLine
 10
2301.800000000078
 20
2095.100000000018
 30
0.0
 11
2292.600000000075
 21
2095.100000000018
 31
0.0
  0
LINE
  5
354
330
1F
100
AcDbEntity
  8
LAY-10
  6
CONTINUOUS
 62
     7
100
AcDbLine
 10
2292.800000000075
 20
2089.100000000018
 30
0.0
 11
2289.600000000075
 21
2089.100000000018
 31
0.0
  0
LINE
  5
355
330
1F
100
AcDbEntity
  8
LAY-10
  6
CONTINUOUS
 62
     7
100
AcDbLine
 10
2292.800000000075
 20
2077.100000000018
 30
0.0
 11
2289.600000000075
 21
2077.100000000018
 31
0.0
  0
LINE
  5
356
330
1F
100
AcDbEntity
  8
LAY-10
  6
CONTINUOUS
 62
     7
100
AcDbLine
 10
2301.800000000078
 20
2089.100000000018
 30
0.0
 11
2305.000000000075
 21
2089.100000000018
 31
0.0
  0
LINE
  5
357
330
1F
100
AcDbEntity
  8
LAY-10
  6
CONTINUOUS
 62
     7
100
AcDbLine
 10
2301.800000000078
 20
2077.100000000018
 30
0.0
 11
2305.000000000075
 21
2077.100000000018
 31
0.0
  0
ARC
  5
358
330
1F
100
AcDbEntity
  8
LAY-10
  6
CONTINUOUS
 62
     7
100
AcDbCircle
 10
2221.500000000098
 20
2133.09999999998
 30
0.0
 40
2.0
100
AcDbArc
 50
180.0
 51
270.0000000000002
  0
ARC
  5
359
330
1F
100
AcDbEntity
  8
LAY-10
  6
CONTINUOUS
 62
     7
100
AcDbCircle
 10
2252.000000000098
 20
2126.59999999998
 30
0.0
 40
4.5
100
AcDbArc
 50
0.0
 51
90.00000000000001
  0
ARC
  5
35A
330
1F
100
AcDbEntity
  8
LAY-10
  6
CONTINUOUS
 62
     7
100
AcDbCircle
 10
2226.05566062812
 20
2099.534543478216
 30
0.0
 40
11.44452137582097
100
AcDbArc
 50
325.7892959705179
 51
359.6768682252611
  0
ARC
  5
35B
330
1F
100
AcDbEntity
  8
LAY-10
  6
CONTINUOUS
 62
     7
100
AcDbCircle
 10
2190.066296738358
 20
2094.7358273667
 30
0.0
 40
47.66936747686547
100
AcDbArc
 50
5.69959291512632
 51
17.53745579046277
  0
ARC
  5
35C
330
1F
100
AcDbEntity
  8
LAY-10
  6
CONTINUOUS
 62
     7
100
AcDbCircle
 10
2226.05566062812
 20
2118.665456521613
 30
0.0
 40
11.44452137582097
100
AcDbArc
 50
0.3231317747390464
 51
34.21070402948217
  0
ARC
  5
35D
330
1F
100
AcDbEntity
  8
LAY-10
  6
CONTINUOUS
 62
     7
100
AcDbCircle
 10
2190.066296738358
 20
2123.464172633129
 30
0.0
 40
47.66936747686547
100
AcDbArc
 50
342.4625442095373
 51
354.3004070848737
  0
LINE
  5
35E
330
1F
100
AcDbEntity
  8
LAY-10
  6
CONTINUOUS
 62
     7
100
AcDbLine
 10
2219.5000000001
 20
2109.099999999915
 30
0.0
 11
2235.5200000001
 21
2109.099999999915
 31
0.0
  0
LINE
  5
35F
330
1F
100
AcDbEntity
  8
LAY-10
  6
CONTINUOUS
 62
     7
100
AcDbLine
 10
2219.5000000001
 20
2125.099999999933
 30
0.0
 11
2235.5200000001
 21
2125.099999999933
 31
0.0
  0
ARC
  5
360
330
1F
100
AcDbEntity
  8
LAY-10
  6
CONTINUOUS
 62
     7
100
AcDbCircle
 10
2235.294726776056
 20
2095.780737704874
 30
0.0
 40
2.690186363068871
100
AcDbArc
 50
274.803510123379
 51
325.0595135576035
  0
ARC
  5
361
330
1F
100
AcDbEntity
  8
LAY-10
  6
CONTINUOUS
 62
     7
100
AcDbCircle
 10
2235.294726776056
 20
2122.419262294956
 30
0.0
 40
2.690186363068871
100
AcDbArc
 50
34.94048644236481
 51
85.19648987661802
  0
LINE
  5
362
330
1F
100
AcDbEntity
  8
LAY-10
  6
CONTINUOUS
 62
     7
100
AcDbLine
 10
2261.500000000095
 20
2134.09999999998
 30
0.0
 11
2215.000000000095
 21
2134.09999999998
 31
0.0
  0
LINE
  5
363
330
1F
100
AcDbEntity
  8
LAY-10
  6
CONTINUOUS
 62
     7
100
AcDbLine
 10
2252.000000000098
 20
2131.09999999998
 30
0.0
 11
2221.500000000099
 21
2131.09999999998
 31
0.0
  0
LINE
  5
364
330
1F
100
AcDbEntity
  8
LAY-10
  6
CONTINUOUS
 62
     7
100
AcDbLine
 10
2259.500000000098
 20
2094.09999999998
 30
0.0
 11
2258.500000000098
 21
2094.09999999998
 31
0.0
  0
ARC
  5
365
330
1F
100
AcDbEntity
  8
LAY-10
  6
CONTINUOUS
 62
     7
100
AcDbCircle
 10
2258.500000000098
 20
2096.09999999998
 30
0.0
 40
2.0
100
AcDbArc
 50
180.0
 51
270.0000000000002
  0
LINE
  5
366
330
1F
100
AcDbEntity
  8
LAY-10
  6
CONTINUOUS
 62
     7
100
AcDbLine
 10
2259.500000000094
 20
2133.418873564935
 30
0.0
 11
2261.500000000096
 21
2131.613576906731
 31
0.0
  0
LINE
  5
367
330
1F
100
AcDbEntity
  8
LAY-10
  6
CONTINUOUS
 62
     7
100
AcDbLine
 10
2259.500000000096
 20
2132.711766783746
 30
0.0
 11
2261.500000000096
 21
2130.906470125545
 31
0.0
  0
LINE
  5
368
330
1F
100
AcDbEntity
  8
LAY-10
  6
CONTINUOUS
 62
     7
100
AcDbLine
 10
2259.500000000094
 20
2132.004660002562
 30
0.0
 11
2261.500000000096
 21
2130.199363344356
 31
0.0
  0
LINE
  5
369
330
1F
100
AcDbEntity
  8
LAY-10
  6
CONTINUOUS
 62
     7
100
AcDbLine
 10
2259.500000000096
 20
2131.297553221373
 30
0.0
 11
2261.500000000096
 21
2129.49225656317
 31
0.0
  0
LINE
  5
36A
330
1F
100
AcDbEntity
  8
LAY-10
  6
CONTINUOUS
 62
     7
100
AcDbLine
 10
2259.500000000094
 20
2130.59044644019
 30
0.0
 11
2261.500000000096
 21
2128.785149781984
 31
0.0
  0
LINE
  5
36B
330
1F
100
AcDbEntity
  8
LAY-10
  6
CONTINUOUS
 62
     7
100
AcDbLine
 10
2259.500000000096
 20
2129.883339659
 30
0.0
 11
2261.500000000096
 21
2128.078043000798
 31
0.0
  0
LINE
  5
36C
330
1F
100
AcDbEntity
  8
LAY-10
  6
CONTINUOUS
 62
     7
100
AcDbLine
 10
2259.500000000094
 20
2129.176232877815
 30
0.0
 11
2261.500000000096
 21
2127.37093621961
 31
0.0
  0
LINE
  5
36D
330
1F
100
AcDbEntity
  8
LAY-10
  6
CONTINUOUS
 62
     7
100
AcDbLine
 10
2259.500000000096
 20
2128.469126096626
 30
0.0
 11
2261.500000000096
 21
2126.663829438425
 31
0.0
  0
LINE
  5
36E
330
1F
100
AcDbEntity
  8
LAY-10
  6
CONTINUOUS
 62
     7
100
AcDbLine
 10
2259.500000000094
 20
2127.762019315443
 30
0.0
 11
2261.500000000096
 21
2125.956722657237
 31
0.0
  0
LINE
  5
36F
330
1F
100
AcDbEntity
  8
LAY-10
  6
CONTINUOUS
 62
     7
100
AcDbLine
 10
2259.500000000096
 20
2127.054912534255
 30
0.0
 11
2261.501950108973
 21
2125.252962425378
 31
0.0
  0
LINE
  5
370
330
1F
100
AcDbEntity
  8
LAY-10
  6
CONTINUOUS
 62
     7
100
AcDbLine
 10
2259.500000000094
 20
2126.347805753069
 30
0.0
 11
2261.500000000096
 21
2124.546259014751
 31
0.0
  0
LINE
  5
371
330
1F
100
AcDbEntity
  8
LAY-10
  6
CONTINUOUS
 62
     7
100
AcDbLine
 10
2259.500000000096
 20
2125.640698971882
 30
0.0
 11
2261.500000000095
 21
2123.840698971883
 31
0.0
  0
LINE
  5
372
330
1F
100
AcDbEntity
  8
LAY-10
  6
CONTINUOUS
 62
     7
100
AcDbLine
 10
2259.500000000094
 20
2124.933592190697
 30
0.0
 11
2261.500000000098
 21
2123.133592190696
 31
0.0
  0
LINE
  5
373
330
1F
100
AcDbEntity
  8
LAY-10
  6
CONTINUOUS
 62
     7
100
AcDbLine
 10
2259.500000000096
 20
2124.226485409509
 30
0.0
 11
2261.500000000095
 21
2122.426485409511
 31
0.0
  0
LINE
  5
374
330
1F
100
AcDbEntity
  8
LAY-10
  6
CONTINUOUS
 62
     7
100
AcDbLine
 10
2259.500000000094
 20
2123.519378628323
 30
0.0
 11
2261.500000000098
 21
2121.719378628322
 31
0.0
  0
LINE
  5
375
330
1F
100
AcDbEntity
  8
LAY-10
  6
CONTINUOUS
 62
     7
100
AcDbLine
 10
2259.500000000096
 20
2122.812271847135
 30
0.0
 11
2261.500000000095
 21
2121.012271847138
 31
0.0
  0
LINE
  5
376
330
1F
100
AcDbEntity
  8
LAY-10
  6
CONTINUOUS
 62
     7
100
AcDbLine
 10
2259.500000000094
 20
2122.105165065951
 30
0.0
 11
2261.500000000098
 21
2120.30516506595
 31
0.0
  0
LINE
  5
377
330
1F
100
AcDbEntity
  8
LAY-10
  6
CONTINUOUS
 62
     7
100
AcDbLine
 10
2259.500000000096
 20
2121.398058284763
 30
0.0
 11
2261.500000000095
 21
2119.598058284764
 31
0.0
  0
LINE
  5
378
330
1F
100
AcDbEntity
  8
LAY-10
  6
CONTINUOUS
 62
     7
100
AcDbLine
 10
2259.500000000094
 20
2120.690951503578
 30
0.0
 11
2261.500000000098
 21
2118.890951503575
 31
0.0
  0
LINE
  5
379
330
1F
100
AcDbEntity
  8
LAY-10
  6
CONTINUOUS
 62
     7
100
AcDbLine
 10
2259.500000000096
 20
2119.98384472239
 30
0.0
 11
2261.500000000095
 21
2118.183844722391
 31
0.0
  0
LINE
  5
37A
330
1F
100
AcDbEntity
  8
LAY-10
  6
CONTINUOUS
 62
     7
100
AcDbLine
 10
2259.500000000094
 20
2119.276737941205
 30
0.0
 11
2261.500000000098
 21
2117.476737941202
 31
0.0
  0
LINE
  5
37B
330
1F
100
AcDbEntity
  8
LAY-10
  6
CONTINUOUS
 62
     7
100
AcDbLine
 10
2259.500000000096
 20
2118.569631160017
 30
0.0
 11
2261.500000000095
 21
2116.769631160019
 31
0.0
  0
LINE
  5
37C
330
1F
100
AcDbEntity
  8
LAY-10
  6
CONTINUOUS
 62
     7
100
AcDbLine
 10
2259.500000000094
 20
2117.862524378832
 30
0.0
 11
2261.500000000098
 21
2116.062524378829
 31
0.0
  0
LINE
  5
37D
330
1F
100
AcDbEntity
  8
LAY-10
  6
CONTINUOUS
 62
     7
100
AcDbLine
 10
2259.500000000096
 20
2117.155417597643
 30
0.0
 11
2261.500000000094
 21
2115.355417597646
 31
0.0
  0
LINE
  5
37E
330
1F
100
AcDbEntity
  8
LAY-10
  6
CONTINUOUS
 62
     7
100
AcDbLine
 10
2259.500000000094
 20
2116.448310816459
 30
0.0
 11
2261.500000000098
 21
2114.648310816457
 31
0.0
  0
LINE
  5
37F
330
1F
100
AcDbEntity
  8
LAY-10
  6
CONTINUOUS
 62
     7
100
AcDbLine
 10
2259.500000000096
 20
2115.741204035269
 30
0.0
 11
2261.500000000094
 21
2113.941204035273
 31
0.0
  0
LINE
  5
380
330
1F
100
AcDbEntity
  8
LAY-10
  6
CONTINUOUS
 62
     7
100
AcDbLine
 10
2259.500000000094
 20
2115.034097254085
 30
0.0
 11
2261.500000000098
 21
2113.234097254083
 31
0.0
  0
LINE
  5
381
330
1F
100
AcDbEntity
  8
LAY-10
  6
CONTINUOUS
 62
     7
100
AcDbLine
 10
2259.500000000096
 20
2114.326990472897
 30
0.0
 11
2261.500000000094
 21
2112.526990472901
 31
0.0
  0
LINE
  5
382
330
1F
100
AcDbEntity
  8
LAY-10
  6
CONTINUOUS
 62
     7
100
AcDbLine
 10
2259.500000000094
 20
2113.619883691714
 30
0.0
 11
2261.500000000098
 21
2111.819883691711
 31
0.0
  0
LINE
  5
383
330
1F
100
AcDbEntity
  8
LAY-10
  6
CONTINUOUS
 62
     7
100
AcDbLine
 10
2259.500000000096
 20
2112.912776910523
 30
0.0
 11
2261.500000000094
 21
2111.112776910528
 31
0.0
  0
LINE
  5
384
330
1F
100
AcDbEntity
  8
LAY-10
  6
CONTINUOUS
 62
     7
100
AcDbLine
 10
2259.500000000094
 20
2112.20567012934
 30
0.0
 11
2261.500000000096
 21
2110.405670129338
 31
0.0
  0
LINE
  5
385
330
1F
100
AcDbEntity
  8
LAY-10
  6
CONTINUOUS
 62
     7
100
AcDbLine
 10
2259.500000000096
 20
2111.498563348151
 30
0.0
 11
2261.500000000094
 21
2109.698563348154
 31
0.0
  0
LINE
  5
386
330
1F
100
AcDbEntity
  8
LAY-10
  6
CONTINUOUS
 62
     7
100
AcDbLine
 10
2259.500000000094
 20
2110.791456566967
 30
0.0
 11
2261.500000000096
 21
2108.991456566964
 31
0.0
  0
LINE
  5
387
330
1F
100
AcDbEntity
  8
LAY-10
  6
CONTINUOUS
 62
     7
100
AcDbLine
 10
2259.500000000096
 20
2110.084349785778
 30
0.0
 11
2261.500000000094
 21
2108.284349785781
 31
0.0
  0
LINE
  5
388
330
1F
100
AcDbEntity
  8
LAY-10
  6
CONTINUOUS
 62
     7
100
AcDbLine
 10
2259.500000000094
 20
2109.377243004596
 30
0.0
 11
2261.500000000096
 21
2107.577243004591
 31
0.0
  0
LINE
  5
389
330
1F
100
AcDbEntity
  8
LAY-10
  6
CONTINUOUS
 62
     7
100
AcDbLine
 10
2259.500000000096
 20
2108.670136223405
 30
0.0
 11
2261.500000000094
 21
2106.870136223409
 31
0.0
  0
LINE
  5
38A
330
1F
100
AcDbEntity
  8
LAY-10
  6
CONTINUOUS
 62
     7
100
AcDbLine
 10
2259.500000000094
 20
2107.963029442222
 30
0.0
 11
2261.500000000096
 21
2106.163029442219
 31
0.0
  0
LINE
  5
38B
330
1F
100
AcDbEntity
  8
LAY-10
  6
CONTINUOUS
 62
     7
100
AcDbLine
 10
2259.500000000096
 20
2107.255922661032
 30
0.0
 11
2261.500000000094
 21
2105.455922661035
 31
0.0
  0
LINE
  5
38C
330
1F
100
AcDbEntity
  8
LAY-10
  6
CONTINUOUS
 62
     7
100
AcDbLine
 10
2259.500000000094
 20
2106.548815879849
 30
0.0
 11
2261.500000000096
 21
2104.748815879846
 31
0.0
  0
LINE
  5
38D
330
1F
100
AcDbEntity
  8
LAY-10
  6
CONTINUOUS
 62
     7
100
AcDbLine
 10
2260.312151425733
 20
2134.09999999998
 30
0.0
 11
2261.500000000096
 21
2133.027790469105
 31
0.0
  0
LINE
  5
38E
330
1F
100
AcDbEntity
  8
LAY-10
  6
CONTINUOUS
 62
     7
100
AcDbLine
 10
2261.081615264843
 20
2134.09999999998
 30
0.0
 11
2261.500000000096
 21
2133.733452858587
 31
0.0
  0
LINE
  5
38F
330
1F
100
AcDbEntity
  8
LAY-10
  6
CONTINUOUS
 62
     7
100
AcDbLine
 10
2259.500000000094
 20
2105.134602317476
 30
0.0
 11
2260.649558130618
 21
2104.100000000003
 31
0.0
  0
LINE
  5
390
330
1F
100
AcDbEntity
  8
LAY-10
  6
CONTINUOUS
 62
     7
100
AcDbLine
 10
2259.500000000096
 20
2104.427495536285
 30
0.0
 11
2259.8638839293
 21
2104.100000000003
 31
0.0
  0
LINE
  5
391
330
1F
100
AcDbEntity
  8
LAY-10
  6
CONTINUOUS
 62
     7
100
AcDbLine
 10
2259.500000000096
 20
2105.841709098659
 30
0.0
 11
2261.435232331938
 21
2104.100000000003
 31
0.0
  0
LINE
  5
392
330
1F
100
AcDbEntity
  8
LAY-10
  6
CONTINUOUS
 62
     7
100
AcDbLine
 10
2261.500000000096
 20
2104.100000000003
 30
0.0
 11
2259.500000000096
 21
2104.100000000003
 31
0.0
  0
LINE
  5
393
330
1F
100
AcDbEntity
  8
LAY-10
  6
CONTINUOUS
 62
     7
100
AcDbLine
 10
2259.528782356747
 20
2134.09999999998
 30
0.0
 11
2261.500000000096
 21
2132.320683687916
 31
0.0
  0
LINE
  5
394
330
1F
100
AcDbEntity
  8
LAY-10
  6
CONTINUOUS
 62
     7
100
AcDbLine
 10
2270.200000000076
 20
2107.986291501034
 30
0.0
 11
2264.700000000076
 21
2107.986291501034
 31
0.0
  0
LINE
  5
395
330
1F
100
AcDbEntity
  8
LAY-10
  6
CONTINUOUS
 62
     7
100
AcDbLine
 10
2272.700000000077
 20
2137.986291501032
 30
0.0
 11
2272.700000000077
 21
2137.300000000018
 31
0.0
  0
LINE
  5
396
330
1F
100
AcDbEntity
  8
LAY-10
  6
CONTINUOUS
 62
     7
100
AcDbLine
 10
2261.500000000076
 20
2135.100000000019
 30
0.0
 11
2261.500000000076
 21
1381.100000000015
 31
0.0
  0
LINE
  5
397
330
1F
100
AcDbEntity
  8
LAY-10
  6
CONTINUOUS
 62
     7
100
AcDbLine
 10
2292.800000000075
 20
2078.100000000016
 30
0.0
 11
2292.800000000075
 21
1438.100000000015
 31
0.0
  0
LINE
  5
398
330
1F
100
AcDbEntity
  8
LAY-10
  6
CONTINUOUS
 62
     7
100
AcDbLine
 10
2289.600000000075
 20
2093.599999999999
 30
0.0
 11
2289.600000000075
 21
1424.100000000017
 31
0.0
  0
LINE
  5
399
330
1F
100
AcDbEntity
  8
LAY-10
  6
CONTINUOUS
 62
     7
100
AcDbLine
 10
2295.800000000073
 20
1475.100000000016
 30
0.0
 11
2295.800000000073
 21
2041.100000000016
 31
0.0
  0
LINE
  5
39A
330
1F
100
AcDbEntity
  8
LAY-10
  6
CONTINUOUS
 62
     7
100
AcDbLine
 10
2322.800000000075
 20
1469.100000000016
 30
0.0
 11
2322.800000000075
 21
2047.100000000016
 31
0.0
  0
LINE
  5
39B
330
1F
100
AcDbEntity
  8
LAY-10
  6
CONTINUOUS
 62
     7
100
AcDbLine
 10
2215.000000000095
 20
1382.099999999975
 30
0.0
 11
2215.000000000095
 21
2134.099999999979
 31
0.0
  0
LINE
  5
39C
330
1F
100
AcDbEntity
  8
LAY-10
  6
CONTINUOUS
 62
     7
100
AcDbLine
 10
2219.500000000095
 20
1382.099999999975
 30
0.0
 11
2219.500000000095
 21
2134.099999999979
 31
0.0
  0
LINE
  5
39D
330
1F
100
AcDbEntity
  8
LAY-10
  6
CONTINUOUS
 62
     7
100
AcDbLine
 10
2256.500000000098
 20
2126.599999999999
 30
0.0
 11
2256.500000000098
 21
1389.6
 31
0.0
  0
LINE
  5
39E
330
1F
100
AcDbEntity
  8
LAY-10
  6
CONTINUOUS
 62
     7
100
AcDbLine
 10
2259.500000000095
 20
1382.099999999975
 30
0.0
 11
2259.500000000095
 21
2134.09999999998
 31
0.0
  0
LINE
  5
39F
330
1F
100
AcDbEntity
  8
LAY-10
  6
CONTINUOUS
 62
     7
100
AcDbLine
 10
1794.000000000031
 20
919.4000000000034
 30
0.0
 11
1794.000000000031
 21
928.4000000000033
 31
0.0
  0
ARC
  5
3A0
330
1F
100
AcDbEntity
  8
LAY-10
  6
CONTINUOUS
 62
     7
100
AcDbCircle
 10
1794.000000000031
 20
928.6000000000041
 30
0.0
 40
3.000000000000003
100
AcDbArc
 50
0.0
 51
90.00000000000001
  0
LINE
  5
3A1
330
1F
100
AcDbEntity
  8
LAY-10
  6
CONTINUOUS
 62
     7
100
AcDbLine
 10
1797.000000000029
 20
919.4000000000034
 30
0.0
 11
1797.000000000029
 21
928.6000000000041
 31
0.0
  0
LINE
  5
3A2
330
1F
100
AcDbEntity
  8
LAY-10
  6
CONTINUOUS
 62
     7
100
AcDbLine
 10
1779.000000000031
 20
919.4000000000042
 30
0.0
 11
1779.000000000031
 21
916.2000000000035
 31
0.0
  0
LINE
  5
3A3
330
1F
100
AcDbEntity
  8
LAY-10
  6
CONTINUOUS
 62
     7
100
AcDbLine
 10
1779.000000000031
 20
928.4000000000043
 30
0.0
 11
1779.000000000031
 21
931.600000000004
 31
0.0
  0
LINE
  5
3A4
330
1F
100
AcDbEntity
  8
LAY-10
  6
CONTINUOUS
 62
     7
100
AcDbLine
 10
1791.000000000029
 20
928.4000000000043
 30
0.0
 11
1791.000000000029
 21
931.600000000004
 31
0.0
  0
LINE
  5
3A5
330
1F
100
AcDbEntity
  8
LAY-10
  6
CONTINUOUS
 62
     7
100
AcDbLine
 10
1791.000000000029
 20
919.4000000000042
 30
0.0
 11
1791.000000000029
 21
916.2000000000035
 31
0.0
  0
ARC
  5
3A6
330
1F
100
AcDbEntity
  8
LAY-10
  6
CONTINUOUS
 62
     7
100
AcDbCircle
 10
1803.20000000003
 20
919.2000000000044
 30
0.0
 40
3.000000000000003
100
AcDbArc
 50
270.0000000000002
 51
0.0
  0
LINE
  5
3A7
330
1F
100
AcDbEntity
  8
LAY-10
  6
CONTINUOUS
 62
     7
100
AcDbLine
 10
1763.000000000031
 20
919.4000000000034
 30
0.0
 11
1763.000000000031
 21
928.4000000000033
 31
0.0
  0
LINE
  5
3A8
330
1F
100
AcDbEntity
  8
LAY-10
  6
CONTINUOUS
 62
     7
100
AcDbLine
 10
1760.000000000031
 20
916.2000000000044
 30
0.0
 11
1760.000000000031
 21
928.4000000000033
 31
0.0
  0
LINE
  5
3A9
330
1F
100
AcDbEntity
  8
LAY-10
  6
CONTINUOUS
 62
     7
100
AcDbLine
 10
1780.000000000029
 20
919.4000000000034
 30
0.0
 11
1750.000000000029
 21
919.4000000000034
 31
0.0
  0
LINE
  5
3AA
330
1F
100
AcDbEntity
  8
LAY-10
  6
CONTINUOUS
 62
     7
100
AcDbLine
 10
1794.000000000031
 20
928.4000000000033
 30
0.0
 11
1790.000000000031
 21
928.4000000000033
 31
0.0
  0
LINE
  5
3AB
330
1F
100
AcDbEntity
  8
LAY-10
  6
CONTINUOUS
 62
     7
100
AcDbLine
 10
1790.000000000029
 20
919.4000000000034
 30
0.0
 11
1803.000000000029
 21
919.4000000000034
 31
0.0
  0
LINE
  5
3AC
330
1F
100
AcDbEntity
  8
LAY-10
  6
CONTINUOUS
 62
     7
100
AcDbLine
 10
1750.000000000029
 20
916.2000000000044
 30
0.0
 11
1803.20000000003
 21
916.2000000000044
 31
0.0
  0
LINE
  5
3AD
330
1F
100
AcDbEntity
  8
LAY-10
  6
CONTINUOUS
 62
     7
100
AcDbLine
 10
523.0000000000327
 20
919.4000000000042
 30
0.0
 11
523.0000000000327
 21
928.6000000000041
 31
0.0
  0
LINE
  5
3AE
330
1F
100
AcDbEntity
  8
LAY-10
  6
CONTINUOUS
 62
     7
100
AcDbLine
 10
526.0000000000309
 20
919.4000000000042
 30
0.0
 11
526.0000000000309
 21
928.4000000000033
 31
0.0
  0
ARC
  5
3AF
330
1F
100
AcDbEntity
  8
LAY-10
  6
CONTINUOUS
 62
     7
100
AcDbCircle
 10
526.0000000000309
 20
928.6000000000041
 30
0.0
 40
3.000000000000003
100
AcDbArc
 50
90.00000000000001
 51
180.0
  0
LINE
  5
3B0
330
1F
100
AcDbEntity
  8
LAY-10
  6
CONTINUOUS
 62
     7
100
AcDbLine
 10
529.0000000000327
 20
919.4000000000042
 30
0.0
 11
529.0000000000327
 21
916.2000000000035
 31
0.0
  0
LINE
  5
3B1
330
1F
100
AcDbEntity
  8
LAY-10
  6
CONTINUOUS
 62
     7
100
AcDbLine
 10
529.0000000000327
 20
928.4000000000033
 30
0.0
 11
529.0000000000327
 21
931.6000000000031
 31
0.0
  0
LINE
  5
3B2
330
1F
100
AcDbEntity
  8
LAY-10
  6
CONTINUOUS
 62
     7
100
AcDbLine
 10
541.0000000000309
 20
928.4000000000033
 30
0.0
 11
541.0000000000309
 21
931.6000000000031
 31
0.0
  0
LINE
  5
3B3
330
1F
100
AcDbEntity
  8
LAY-10
  6
CONTINUOUS
 62
     7
100
AcDbLine
 10
541.0000000000309
 20
919.4000000000042
 30
0.0
 11
541.0000000000309
 21
916.2000000000035
 31
0.0
  0
ARC
  5
3B4
330
1F
100
AcDbEntity
  8
LAY-10
  6
CONTINUOUS
 62
     7
100
AcDbCircle
 10
516.800000000032
 20
919.2000000000044
 30
0.0
 40
3.000000000000003
100
AcDbArc
 50
180.0
 51
270.0000000000002
  0
LINE
  5
3B5
330
1F
100
AcDbEntity
  8
LAY-10
  6
CONTINUOUS
 62
     7
100
AcDbLine
 10
557.0000000000309
 20
928.4000000000024
 30
0.0
 11
557.0000000000309
 21
919.4000000000034
 31
0.0
  0
LINE
  5
3B6
330
1F
100
AcDbEntity
  8
LAY-10
  6
CONTINUOUS
 62
     7
100
AcDbLine
 10
560.0000000000309
 20
916.2000000000044
 30
0.0
 11
560.0000000000309
 21
928.4000000000033
 31
0.0
  0
LINE
  5
3B7
330
1F
100
AcDbEntity
  8
LAY-10
  6
CONTINUOUS
 62
     7
100
AcDbLine
 10
540.0000000000309
 20
919.4000000000042
 30
0.0
 11
570.0000000000327
 21
919.4000000000042
 31
0.0
  0
LINE
  5
3B8
330
1F
100
AcDbEntity
  8
LAY-10
  6
CONTINUOUS
 62
     7
100
AcDbLine
 10
530.0000000000309
 20
928.4000000000033
 30
0.0
 11
526.0000000000309
 21
928.4000000000033
 31
0.0
  0
LINE
  5
3B9
330
1F
100
AcDbEntity
  8
LAY-10
  6
CONTINUOUS
 62
     7
100
AcDbLine
 10
570.0000000000327
 20
916.2000000000044
 30
0.0
 11
516.800000000032
 21
916.2000000000044
 31
0.0
  0
LINE
  5
3BA
330
1F
100
AcDbEntity
  8
LAY-10
  6
CONTINUOUS
 62
     7
100
AcDbLine
 10
517.0000000000327
 20
919.4000000000042
 30
0.0
 11
530.0000000000309
 21
919.4000000000042
 31
0.0
  0
LINE
  5
3BB
330
1F
100
AcDbEntity
  8
LAY-10
  6
CONTINUOUS
 62
     7
100
AcDbLine
 10
577.0000000000327
 20
925.4000000000042
 30
0.0
 11
656.5000000000308
 21
925.4000000000042
 31
0.0
  0
LINE
  5
3BC
330
1F
100
AcDbEntity
  8
LAY-10
  6
CONTINUOUS
 62
     7
100
AcDbLine
 10
1780.000000000029
 20
928.4000000000033
 30
0.0
 11
540.0000000000327
 21
928.4000000000033
 31
0.0
  0
LINE
  5
3BD
330
1F
100
AcDbEntity
  8
LAY-10
  6
CONTINUOUS
 62
     7
100
AcDbLine
 10
570.0000000000327
 20
898.4000000000033
 30
0.0
 11
1750.000000000029
 21
898.4000000000033
 31
0.0
  0
LINE
  5
3BE
330
1F
100
AcDbEntity
  8
LAY-10
  6
CONTINUOUS
 62
     7
100
AcDbLine
 10
524.5000000000309
 20
931.600000000004
 30
0.0
 11
1795.500000000031
 21
931.600000000004
 31
0.0
  0
LINE
  5
3BF
330
1F
100
AcDbEntity
  8
LAY-10
  6
CONTINUOUS
 62
     7
100
AcDbLine
 10
1743.000000000029
 20
925.4000000000042
 30
0.0
 11
656.5000000000308
 21
925.4000000000042
 31
0.0
  0
LINE
  5
3C0
330
1F
100
AcDbEntity
  8
LAY-10
  6
CONTINUOUS
 62
     7
100
AcDbLine
 10
1790.000000000029
 20
933.6000000000041
 30
0.0
 11
1790.000000000029
 21
941.0760000000037
 31
0.0
  0
LINE
  5
3C1
330
1F
100
AcDbEntity
  8
LAY-10
  6
CONTINUOUS
 62
     7
100
AcDbLine
 10
1780.000000000029
 20
933.6000000000041
 30
0.0
 11
1780.000000000029
 21
941.0760000000037
 31
0.0
  0
LINE
  5
3C2
330
1F
100
AcDbEntity
  8
LAY-10
  6
CONTINUOUS
 62
     7
100
AcDbLine
 10
1780.000000000029
 20
942.0000000000036
 30
0.0
 11
1780.000000000029
 21
945.2000000000044
 31
0.0
  0
LINE
  5
3C3
330
1F
100
AcDbEntity
  8
LAY-10
  6
CONTINUOUS
 62
     7
100
AcDbLine
 10
1781.000000000029
 20
946.2000000000044
 30
0.0
 11
1789.000000000029
 21
946.2000000000044
 31
0.0
  0
LINE
  5
3C4
330
1F
100
AcDbEntity
  8
LAY-10
  6
CONTINUOUS
 62
     7
100
AcDbLine
 10
1780.000000000029
 20
945.2000000000044
 30
0.0
 11
1781.000000000029
 21
946.2000000000044
 31
0.0
  0
LINE
  5
3C5
330
1F
100
AcDbEntity
  8
LAY-10
  6
CONTINUOUS
 62
     7
100
AcDbLine
 10
1790.000000000029
 20
942.0000000000036
 30
0.0
 11
1790.000000000029
 21
945.2000000000044
 31
0.0
  0
LINE
  5
3C6
330
1F
100
AcDbEntity
  8
LAY-10
  6
CONTINUOUS
 62
     7
100
AcDbLine
 10
1790.000000000029
 20
945.2000000000044
 30
0.0
 11
1789.000000000029
 21
946.2000000000044
 31
0.0
  0
ARC
  5
3C7
330
1F
100
AcDbEntity
  8
LAY-10
  6
CONTINUOUS
 62
     7
100
AcDbCircle
 10
1785.000000000029
 20
927.9076818181858
 30
0.0
 40
18.10768181818181
100
AcDbArc
 50
253.9708781133887
 51
286.0291218866089
  0
LINE
  5
3C8
330
1F
100
AcDbEntity
  8
LAY-10
  6
CONTINUOUS
 62
     7
100
AcDbLine
 10
1777.500000000031
 20
909.8000000000038
 30
0.0
 11
1792.500000000029
 21
909.8000000000038
 31
0.0
  0
ARC
  5
3C9
330
1F
100
AcDbEntity
  8
LAY-10
  6
CONTINUOUS
 62
     7
100
AcDbCircle
 10
1777.500000000031
 20
914.5909204545496
 30
0.0
 40
4.790920454545454
100
AcDbArc
 50
238.5455606612232
 51
301.4544393387644
  0
LINE
  5
3CA
330
1F
100
AcDbEntity
  8
LAY-10
  6
CONTINUOUS
 62
     7
100
AcDbLine
 10
1775.000000000031
 20
916.2000000000044
 30
0.0
 11
1775.000000000031
 21
910.5040000000045
 31
0.0
  0
LINE
  5
3CB
330
1F
100
AcDbEntity
  8
LAY-10
  6
CONTINUOUS
 62
     7
100
AcDbLine
 10
1772.660000000031
 20
916.2000000000025
 30
0.0
 11
1775.000000000031
 21
913.9200000000028
 31
0.0
  0
ARC
  5
3CC
330
1F
100
AcDbEntity
  8
LAY-10
  6
CONTINUOUS
 62
     7
100
AcDbCircle
 10
1792.500000000029
 20
914.5909204545496
 30
0.0
 40
4.790920454545454
100
AcDbArc
 50
238.545560661226
 51
301.4544393387861
  0
LINE
  5
3CD
330
1F
100
AcDbEntity
  8
LAY-10
  6
CONTINUOUS
 62
     7
100
AcDbLine
 10
1795.000000000029
 20
916.2000000000044
 30
0.0
 11
1795.000000000029
 21
910.5040000000045
 31
0.0
  0
LINE
  5
3CE
330
1F
100
AcDbEntity
  8
LAY-10
  6
CONTINUOUS
 62
     7
100
AcDbLine
 10
1795.000000000031
 20
913.8600000000042
 30
0.0
 11
1797.280000000032
 21
916.2000000000044
 31
0.0
  0
LINE
  5
3CF
330
1F
100
AcDbEntity
  8
LAY-10
  6
CONTINUOUS
 62
     7
100
AcDbLine
 10
1780.000000000029
 20
910.5040000000045
 30
0.0
 11
1780.000000000029
 21
931.600000000004
 31
0.0
  0
LINE
  5
3D0
330
1F
100
AcDbEntity
  8
LAY-10
  6
CONTINUOUS
 62
     7
100
AcDbLine
 10
1790.000000000029
 20
910.5040000000045
 30
0.0
 11
1790.000000000029
 21
931.600000000004
 31
0.0
  0
LINE
  5
3D1
330
1F
100
AcDbEntity
  8
LAY-10
  6
CONTINUOUS
 62
     7
100
AcDbLine
 10
1790.000000000029
 20
921.2000000000035
 30
0.0
 11
1780.000000000029
 21
921.2000000000035
 31
0.0
  0
ARC
  5
3D2
330
1F
100
AcDbEntity
  8
LAY-10
  6
CONTINUOUS
 62
     7
100
AcDbCircle
 10
535.0000000000327
 20
927.9076818181858
 30
0.0
 40
18.10768181818181
100
AcDbArc
 50
253.9708781133856
 51
286.0291218866075
  0
LINE
  5
3D3
330
1F
100
AcDbEntity
  8
LAY-10
  6
CONTINUOUS
 62
     7
100
AcDbLine
 10
527.5000000000327
 20
909.8000000000038
 30
0.0
 11
542.5000000000309
 21
909.8000000000038
 31
0.0
  0
ARC
  5
3D4
330
1F
100
AcDbEntity
  8
LAY-10
  6
CONTINUOUS
 62
     7
100
AcDbCircle
 10
527.5000000000327
 20
914.5909204545496
 30
0.0
 40
4.790920454545454
100
AcDbArc
 50
238.5455606612283
 51
301.4544393387621
  0
LINE
  5
3D5
330
1F
100
AcDbEntity
  8
LAY-10
  6
CONTINUOUS
 62
     7
100
AcDbLine
 10
525.0000000000327
 20
916.2000000000044
 30
0.0
 11
525.0000000000327
 21
910.5040000000045
 31
0.0
  0
LINE
  5
3D6
330
1F
100
AcDbEntity
  8
LAY-10
  6
CONTINUOUS
 62
     7
100
AcDbLine
 10
522.6600000000308
 20
916.2000000000018
 30
0.0
 11
525.0000000000327
 21
913.9200000000028
 31
0.0
  0
ARC
  5
3D7
330
1F
100
AcDbEntity
  8
LAY-10
  6
CONTINUOUS
 62
     7
100
AcDbCircle
 10
542.5000000000309
 20
914.5909204545496
 30
0.0
 40
4.790920454545454
100
AcDbArc
 50
238.5455606612255
 51
301.4544393387848
  0
LINE
  5
3D8
330
1F
100
AcDbEntity
  8
LAY-10
  6
CONTINUOUS
 62
     7
100
AcDbLine
 10
545.0000000000309
 20
916.2000000000044
 30
0.0
 11
545.0000000000309
 21
910.5040000000045
 31
0.0
  0
LINE
  5
3D9
330
1F
100
AcDbEntity
  8
LAY-10
  6
CONTINUOUS
 62
     7
100
AcDbLine
 10
545.0000000000327
 20
913.8600000000042
 30
0.0
 11
547.2800000000334
 21
916.2000000000044
 31
0.0
  0
LINE
  5
3DA
330
1F
100
AcDbEntity
  8
LAY-10
  6
CONTINUOUS
 62
     7
100
AcDbLine
 10
540.0000000000309
 20
910.5040000000045
 30
0.0
 11
540.0000000000309
 21
931.600000000004
 31
0.0
  0
LINE
  5
3DB
330
1F
100
AcDbEntity
  8
LAY-10
  6
CONTINUOUS
 62
     7
100
AcDbLine
 10
530.0000000000309
 20
910.5040000000045
 30
0.0
 11
530.0000000000309
 21
931.600000000004
 31
0.0
  0
LINE
  5
3DC
330
1F
100
AcDbEntity
  8
LAY-10
  6
CONTINUOUS
 62
     7
100
AcDbLine
 10
540.0000000000309
 20
921.2000000000035
 30
0.0
 11
530.0000000000309
 21
921.2000000000035
 31
0.0
  0
LINE
  5
3DD
330
1F
100
AcDbEntity
  8
LAY-10
  6
CONTINUOUS
 62
     7
100
AcDbLine
 10
540.0000000000309
 20
933.6000000000041
 30
0.0
 11
540.0000000000309
 21
941.0760000000037
 31
0.0
  0
LINE
  5
3DE
330
1F
100
AcDbEntity
  8
LAY-10
  6
CONTINUOUS
 62
     7
100
AcDbLine
 10
530.0000000000309
 20
933.6000000000041
 30
0.0
 11
530.0000000000309
 21
941.0760000000037
 31
0.0
  0
LINE
  5
3DF
330
1F
100
AcDbEntity
  8
LAY-10
  6
CONTINUOUS
 62
     7
100
AcDbLine
 10
530.0000000000309
 20
942.0000000000036
 30
0.0
 11
530.0000000000309
 21
945.2000000000035
 31
0.0
  0
LINE
  5
3E0
330
1F
100
AcDbEntity
  8
LAY-10
  6
CONTINUOUS
 62
     7
100
AcDbLine
 10
531.0000000000309
 20
946.2000000000035
 30
0.0
 11
539.0000000000309
 21
946.2000000000035
 31
0.0
  0
LINE
  5
3E1
330
1F
100
AcDbEntity
  8
LAY-10
  6
CONTINUOUS
 62
     7
100
AcDbLine
 10
530.0000000000309
 20
945.2000000000035
 30
0.0
 11
531.0000000000309
 21
946.2000000000035
 31
0.0
  0
LINE
  5
3E2
330
1F
100
AcDbEntity
  8
LAY-10
  6
CONTINUOUS
 62
     7
100
AcDbLine
 10
540.0000000000309
 20
942.0000000000036
 30
0.0
 11
540.0000000000309
 21
945.2000000000035
 31
0.0
  0
LINE
  5
3E3
330
1F
100
AcDbEntity
  8
LAY-10
  6
CONTINUOUS
 62
     7
100
AcDbLine
 10
540.0000000000309
 20
945.2000000000035
 30
0.0
 11
539.0000000000309
 21
946.2000000000035
 31
0.0
  0
ELLIPSE
  5
3E4
330
1F
100
AcDbEntity
  8
LAY-10
  6
CONTINUOUS
 62
     7
100
AcDbEllipse
 10
1768.920000000031
 20
923.9166666667035
 30
0.0
 11
-5.80947501931002
 21
7.114554987124524E-16
 31
0.0
210
0.0
220
0.0
230
1.0
 40
0.7745966692416307
 41
0.0
 42
6.283185307179586
  0
ELLIPSE
  5
3E5
330
1F
100
AcDbEntity
  8
LAY-10
  6
CONTINUOUS
 62
     7
100
AcDbEllipse
 10
551.0800000000309
 20
923.9166666667035
 30
0.0
 11
-5.80947501931002
 21
7.114554987124524E-16
 31
0.0
210
0.0
220
0.0
230
1.0
 40
0.7745966692416307
 41
0.0
 42
6.283185307179586
  0
LINE
  5
3E6
330
1F
100
AcDbEntity
  8
LAY-10
  6
CONTINUOUS
 62
     7
100
AcDbLine
 10
1780.000000000029
 20
945.2000000000044
 30
0.0
 11
1790.000000000029
 21
945.2000000000044
 31
0.0
  0
LINE
  5
3E7
330
1F
100
AcDbEntity
  8
LAY-10
  6
CONTINUOUS
 62
     7
100
AcDbLine
 10
1789.000000000029
 20
946.2000000000044
 30
0.0
 11
1789.000000000029
 21
942.0000000000036
 31
0.0
  0
LINE
  5
3E8
330
1F
100
AcDbEntity
  8
LAY-10
  6
CONTINUOUS
 62
     7
100
AcDbLine
 10
1781.000000000029
 20
946.2000000000044
 30
0.0
 11
1781.000000000029
 21
942.0000000000036
 31
0.0
  0
LINE
  5
3E9
330
1F
100
AcDbEntity
  8
LAY-10
  6
CONTINUOUS
 62
     7
100
AcDbLine
 10
1781.000000000029
 20
931.600000000004
 30
0.0
 11
1781.000000000029
 21
921.2000000000035
 31
0.0
  0
LINE
  5
3EA
330
1F
100
AcDbEntity
  8
LAY-10
  6
CONTINUOUS
 62
     7
100
AcDbLine
 10
1789.000000000029
 20
931.600000000004
 30
0.0
 11
1789.000000000029
 21
921.2000000000035
 31
0.0
  0
LINE
  5
3EB
330
1F
100
AcDbEntity
  8
LAY-10
  6
CONTINUOUS
 62
     7
100
AcDbLine
 10
1781.000000000029
 20
921.2000000000035
 30
0.0
 11
1780.000000000029
 21
920.2000000000044
 31
0.0
  0
LINE
  5
3EC
330
1F
100
AcDbEntity
  8
LAY-10
  6
CONTINUOUS
 62
     7
100
AcDbLine
 10
1789.000000000029
 20
921.2000000000035
 30
0.0
 11
1790.000000000029
 21
920.2000000000044
 31
0.0
  0
LINE
  5
3ED
330
1F
100
AcDbEntity
  8
LAY-10
  6
CONTINUOUS
 62
     7
100
AcDbLine
 10
530.0000000000309
 20
945.2000000000035
 30
0.0
 11
540.0000000000309
 21
945.2000000000035
 31
0.0
  0
LINE
  5
3EE
330
1F
100
AcDbEntity
  8
LAY-10
  6
CONTINUOUS
 62
     7
100
AcDbLine
 10
531.0000000000309
 20
946.2000000000035
 30
0.0
 11
531.0000000000309
 21
942.0000000000036
 31
0.0
  0
LINE
  5
3EF
330
1F
100
AcDbEntity
  8
LAY-10
  6
CONTINUOUS
 62
     7
100
AcDbLine
 10
531.0000000000309
 20
931.600000000004
 30
0.0
 11
531.0000000000309
 21
921.2000000000035
 31
0.0
  0
LINE
  5
3F0
330
1F
100
AcDbEntity
  8
LAY-10
  6
CONTINUOUS
 62
     7
100
AcDbLine
 10
539.0000000000309
 20
931.600000000004
 30
0.0
 11
539.0000000000309
 21
921.2000000000035
 31
0.0
  0
LINE
  5
3F1
330
1F
100
AcDbEntity
  8
LAY-10
  6
CONTINUOUS
 62
     7
100
AcDbLine
 10
539.0000000000309
 20
946.2000000000035
 30
0.0
 11
539.0000000000309
 21
942.0000000000036
 31
0.0
  0
LINE
  5
3F2
330
1F
100
AcDbEntity
  8
LAY-10
  6
CONTINUOUS
 62
     7
100
AcDbLine
 10
539.0000000000309
 20
921.2000000000035
 30
0.0
 11
540.0000000000309
 21
920.2000000000035
 31
0.0
  0
LINE
  5
3F3
330
1F
100
AcDbEntity
  8
LAY-10
  6
CONTINUOUS
 62
     7
100
AcDbLine
 10
531.0000000000309
 20
921.2000000000035
 30
0.0
 11
530.0000000000309
 21
920.2000000000035
 31
0.0
  0
LINE
  5
3F4
330
1F
100
AcDbEntity
  8
LAY-10
  6
CONTINUOUS
 62
     7
100
AcDbLine
 10
1803.000000000029
 20
1003.200000000003
 30
0.0
 11
1803.000000000029
 21
919.4000000000034
 31
0.0
  0
LINE
  5
3F5
330
1F
100
AcDbEntity
  8
LAY-10
  6
CONTINUOUS
 62
     7
100
AcDbLine
 10
1806.20000000003
 20
919.2000000000036
 30
0.0
 11
1806.20000000003
 21
1003.200000000003
 31
0.0
  0
LINE
  5
3F6
330
1F
100
AcDbEntity
  8
LAY-10
  6
CONTINUOUS
 62
     7
100
AcDbLine
 10
513.800000000032
 20
919.2000000000036
 30
0.0
 11
513.800000000032
 21
1003.200000000003
 31
0.0
  0
LINE
  5
3F7
330
1F
100
AcDbEntity
  8
LAY-10
  6
CONTINUOUS
 62
     7
100
AcDbLine
 10
517.0000000000327
 20
1003.200000000004
 30
0.0
 11
517.0000000000327
 21
919.4000000000051
 31
0.0
  0
CIRCLE
  5
3F8
330
1F
100
AcDbEntity
  8
LAY-10
  6
CONTINUOUS
 62
     7
100
AcDbCircle
 10
1618.300000000033
 20
934.6000000000032
 30
0.0
 40
3.000000000000003
  0
LINE
  5
3F9
330
1F
100
AcDbEntity
  8
LAY-10
  6
CONTINUOUS
 62
     7
100
AcDbLine
 10
1662.000891001001
 20
937.5982179980647
 30
0.0
 11
1662.200000000031
 21
937.5982179980647
 31
0.0
  0
ARC
  5
3FA
330
1F
100
AcDbEntity
  8
LAY-10
  6
CONTINUOUS
 62
     7
100
AcDbCircle
 10
1662.000000000032
 20
934.6000000000032
 30
0.0
 40
4.0
100
AcDbArc
 50
0.0
 51
131.4394216791113
  0
ARC
  5
3FB
330
1F
100
AcDbEntity
  8
LAY-10
  6
CONTINUOUS
 62
     7
100
AcDbCircle
 10
1666.00000000003
 20
932.6000000000031
 30
0.0
 40
1.0
100
AcDbArc
 50
180.0
 51
270.0000000000002
  0
LINE
  5
3FC
330
1F
100
AcDbEntity
  8
LAY-10
  6
CONTINUOUS
 62
     7
100
AcDbLine
 10
1666.00000000003
 20
934.6000000000032
 30
0.0
 11
1666.00000000003
 21
932.6000000000031
 31
0.0
  0
LINE
  5
3FD
330
1F
100
AcDbEntity
  8
LAY-10
  6
CONTINUOUS
 62
     7
100
AcDbLine
 10
1666.00000000003
 20
932.6000000000031
 30
0.0
 11
1675.00000000003
 21
932.600000000004
 31
0.0
  0
LINE
  5
3FE
330
1F
100
AcDbEntity
  8
LAY-10
  6
CONTINUOUS
 62
     7
100
AcDbLine
 10
1675.00000000003
 20
932.600000000004
 30
0.0
 11
1675.00000000003
 21
931.600000000004
 31
0.0
  0
LINE
  5
3FF
330
1F
100
AcDbEntity
  8
LAY-10
  6
CONTINUOUS
 62
     7
100
AcDbLine
 10
1665.00000000003
 20
932.6000000000031
 30
0.0
 11
1665.00000000003
 21
934.6000000000032
 31
0.0
  0
LINE
  5
400
330
1F
100
AcDbEntity
  8
LAY-10
  6
CONTINUOUS
 62
     7
100
AcDbLine
 10
1618.209132620107
 20
937.5986235374404
 30
0.0
 11
1662.090867379956
 21
937.5986235374394
 31
0.0
  0
ARC
  5
401
330
1F
100
AcDbEntity
  8
LAY-10
  6
CONTINUOUS
 62
     7
100
AcDbCircle
 10
1662.000000000032
 20
934.6000000000032
 30
0.0
 40
3.000000000000003
100
AcDbArc
 50
270.0000000000002
 51
91.7357045889959
  0
LINE
  5
402
330
1F
100
AcDbEntity
  8
LAY-10
  6
HIDDEN
 62
     7
100
AcDbLine
 10
710.0000000000264
 20
898.4000000000069
 30
0.0
 11
710.0000000000264
 21
916.2000000000063
 31
0.0
  0
LINE
  5
403
330
1F
100
AcDbEntity
  8
LAY-10
  6
CONTINUOUS
 62
     7
100
AcDbLine
 10
710.0000000000299
 20
886.2000000000007
 30
0.0
 11
710.0000000000299
 21
898.400000000006
 31
0.0
  0
LINE
  5
404
330
1F
100
AcDbEntity
  8
LAY-10
  6
CONTINUOUS
 62
     7
100
AcDbLine
 10
610.00000000003
 20
886.2000000000007
 30
0.0
 11
710.0000000000299
 21
886.2000000000007
 31
0.0
  0
LINE
  5
405
330
1F
100
AcDbEntity
  8
LAY-10
  6
CONTINUOUS
 62
     7
100
AcDbLine
 10
610.00000000003
 20
886.2000000000007
 30
0.0
 11
610.00000000003
 21
898.4000000000033
 31
0.0
  0
LINE
  5
406
330
1F
100
AcDbEntity
  8
LAY-10
  6
HIDDEN
 62
     7
100
AcDbLine
 10
710.0000000000264
 20
916.2000000000063
 30
0.0
 11
610.00000000003
 21
916.2000000000063
 31
0.0
  0
LINE
  5
407
330
1F
100
AcDbEntity
  8
LAY-10
  6
HIDDEN
 62
     7
100
AcDbLine
 10
610.0000000000266
 20
898.4000000000069
 30
0.0
 11
610.0000000000266
 21
916.2000000000063
 31
0.0
  0
LINE
  5
408
330
1F
100
AcDbEntity
  8
LAY-10
  6
HIDDEN
 62
     7
100
AcDbLine
 10
1610.000000000035
 20
898.4000000000066
 30
0.0
 11
1610.000000000035
 21
916.2000000000057
 31
0.0
  0
LINE
  5
409
330
1F
100
AcDbEntity
  8
LAY-10
  6
CONTINUOUS
 62
     7
100
AcDbLine
 10
1610.000000000032
 20
886.2000000000003
 30
0.0
 11
1610.000000000032
 21
898.4000000000055
 31
0.0
  0
LINE
  5
40A
330
1F
100
AcDbEntity
  8
LAY-10
  6
CONTINUOUS
 62
     7
100
AcDbLine
 10
1710.000000000032
 20
886.2000000000003
 30
0.0
 11
1610.000000000032
 21
886.2000000000003
 31
0.0
  0
LINE
  5
40B
330
1F
100
AcDbEntity
  8
LAY-10
  6
CONTINUOUS
 62
     7
100
AcDbLine
 10
1710.000000000032
 20
886.2000000000007
 30
0.0
 11
1710.000000000032
 21
898.4000000000033
 31
0.0
  0
LINE
  5
40C
330
1F
100
AcDbEntity
  8
LAY-10
  6
HIDDEN
 62
     7
100
AcDbLine
 10
1610.000000000035
 20
916.2000000000057
 30
0.0
 11
1710.000000000032
 21
916.2000000000057
 31
0.0
  0
LINE
  5
40D
330
1F
100
AcDbEntity
  8
LAY-10
  6
HIDDEN
 62
     7
100
AcDbLine
 10
1710.000000000035
 20
898.4000000000066
 30
0.0
 11
1710.000000000035
 21
916.2000000000057
 31
0.0
  0
CIRCLE
  5
40E
330
1F
100
AcDbEntity
  8
LAY-10
  6
CONTINUOUS
 62
     7
100
AcDbCircle
 10
701.7000000001276
 20
934.6000000000032
 30
0.0
 40
3.000000000000003
  0
LINE
  5
40F
330
1F
100
AcDbEntity
  8
LAY-10
  6
CONTINUOUS
 62
     7
100
AcDbLine
 10
657.9991089991595
 20
937.5982179980647
 30
0.0
 11
657.8000000001297
 21
937.5982179980647
 31
0.0
  0
ARC
  5
410
330
1F
100
AcDbEntity
  8
LAY-10
  6
CONTINUOUS
 62
     7
100
AcDbCircle
 10
658.0000000001287
 20
934.6000000000032
 30
0.0
 40
4.0
100
AcDbArc
 50
48.56057832088977
 51
180.0
  0
ARC
  5
411
330
1F
100
AcDbEntity
  8
LAY-10
  6
CONTINUOUS
 62
     7
100
AcDbCircle
 10
654.0000000001305
 20
932.6000000000031
 30
0.0
 40
1.0
100
AcDbArc
 50
270.0
 51
0.0
  0
LINE
  5
412
330
1F
100
AcDbEntity
  8
LAY-10
  6
CONTINUOUS
 62
     7
100
AcDbLine
 10
654.0000000001305
 20
934.6000000000032
 30
0.0
 11
654.0000000001305
 21
932.6000000000031
 31
0.0
  0
LINE
  5
413
330
1F
100
AcDbEntity
  8
LAY-10
  6
CONTINUOUS
 62
     7
100
AcDbLine
 10
654.0000000001305
 20
932.6000000000031
 30
0.0
 11
645.0000000001305
 21
932.600000000004
 31
0.0
  0
LINE
  5
414
330
1F
100
AcDbEntity
  8
LAY-10
  6
CONTINUOUS
 62
     7
100
AcDbLine
 10
645.0000000001305
 20
932.600000000004
 30
0.0
 11
645.0000000001305
 21
931.600000000004
 31
0.0
  0
LINE
  5
415
330
1F
100
AcDbEntity
  8
LAY-10
  6
CONTINUOUS
 62
     7
100
AcDbLine
 10
655.0000000001305
 20
932.6000000000031
 30
0.0
 11
655.0000000001305
 21
934.6000000000032
 31
0.0
  0
LINE
  5
416
330
1F
100
AcDbEntity
  8
LAY-10
  6
CONTINUOUS
 62
     7
100
AcDbLine
 10
701.7908673800534
 20
937.5986235374404
 30
0.0
 11
657.9091326202047
 21
937.5986235374394
 31
0.0
  0
ARC
  5
417
330
1F
100
AcDbEntity
  8
LAY-10
  6
CONTINUOUS
 62
     7
100
AcDbCircle
 10
658.0000000001287
 20
934.6000000000032
 30
0.0
 40
3.000000000000003
100
AcDbArc
 50
88.26429541100414
 51
270.0
  0
LINE
  5
418
330
1F
100
AcDbEntity
  8
LAY-10
  6
CONTINUOUS
 62
     7
100
AcDbLine
 10
582.3333333331896
 20
2074.422330470639
 30
0.0
 11
564.6556638038903
 21
2092.099999999939
 31
0.0
  0
LINE
  5
419
330
1F
100
AcDbEntity
  8
LAY-10
  6
CONTINUOUS
 62
     7
100
AcDbLine
 10
582.3333333312878
 20
2127.455339058739
 30
0.0
 11
588.9779942725993
 21
2134.099999999939
 31
0.0
  0
LINE
  5
41A
330
1F
100
AcDbEntity
  8
LAY-10
  6
CONTINUOUS
 62
     7
100
AcDbLine
 10
617.6886723912905
 20
2074.422330469842
 30
0.0
 11
600.0110028622887
 21
2092.099999999441
 31
0.0
  0
LINE
  5
41B
330
1F
100
AcDbEntity
  8
LAY-10
  6
CONTINUOUS
 62
     7
100
AcDbLine
 10
617.6886723912878
 20
2109.777669529142
 30
0.0
 11
600.011002862286
 21
2127.455339058841
 31
0.0
  0
LINE
  5
41C
330
1F
100
AcDbEntity
  8
LAY-10
  6
CONTINUOUS
 62
     7
100
AcDbLine
 10
582.3333333322892
 20
2092.099999999439
 30
0.0
 11
600.0110028622869
 21
2109.777669529141
 31
0.0
  0
LINE
  5
41D
330
1F
100
AcDbEntity
  8
LAY-10
  6
CONTINUOUS
 62
     7
100
AcDbLine
 10
564.6556638042878
 20
2127.455339057738
 30
0.0
 11
582.3333333335879
 21
2109.777669528439
 31
0.0
  0
LINE
  5
41E
330
1F
100
AcDbEntity
  8
LAY-10
  6
CONTINUOUS
 62
     7
100
AcDbLine
 10
635.3663419224897
 20
2109.777669529939
 30
0.0
 11
621.8333333334897
 21
2096.24466094071
 31
0.0
  0
LINE
  5
41F
330
1F
100
AcDbEntity
  8
LAY-10
  6
CONTINUOUS
 62
     7
100
AcDbLine
 10
529.3003247454892
 20
2092.099999998938
 30
0.0
 11
546.9779942747903
 21
2074.422330469639
 31
0.0
  0
LINE
  5
420
330
1F
100
AcDbEntity
  8
LAY-10
  6
CONTINUOUS
 62
     7
100
AcDbLine
 10
546.9779942741891
 20
2109.777669529037
 30
0.0
 11
529.3003247448889
 21
2127.455339058336
 31
0.0
  0
LINE
  5
421
330
1F
100
AcDbEntity
  8
LAY-10
  6
CONTINUOUS
 62
     7
100
AcDbLine
 10
564.6556638041886
 20
2109.777669529338
 30
0.0
 11
546.9779942744901
 21
2092.099999999338
 31
0.0
  0
LINE
  5
422
330
1F
100
AcDbEntity
  8
LAY-10
  6
CONTINUOUS
 62
     7
100
AcDbLine
 10
617.6886723927894
 20
2021.389321881938
 30
0.0
 11
635.3663419224897
 21
2039.066991411939
 31
0.0
  0
LINE
  5
423
330
1F
100
AcDbEntity
  8
LAY-10
  6
CONTINUOUS
 62
     7
100
AcDbLine
 10
635.3663419224897
 20
2074.422330470939
 30
0.0
 11
617.6886723927894
 21
2056.744660940939
 31
0.0
  0
LINE
  5
424
330
1F
100
AcDbEntity
  8
LAY-10
  6
CONTINUOUS
 62
     7
100
AcDbLine
 10
730.3993505123233
 20
2134.099999999939
 30
0.0
 11
723.7546895720595
 21
2127.455339059939
 31
0.0
  0
LINE
  5
425
330
1F
100
AcDbEntity
  8
LAY-10
  6
CONTINUOUS
 62
     7
100
AcDbLine
 10
695.0440114526534
 20
2134.099999999939
 30
0.0
 11
688.3993505123892
 21
2127.455339059939
 31
0.0
  0
LINE
  5
426
330
1F
100
AcDbEntity
  8
LAY-10
  6
CONTINUOUS
 62
     7
100
AcDbLine
 10
659.6886723929767
 20
2134.099999999939
 30
0.0
 11
653.0440114520891
 21
2127.455339058939
 31
0.0
  0
LINE
  5
427
330
1F
100
AcDbEntity
  8
LAY-10
  6
CONTINUOUS
 62
     7
100
AcDbLine
 10
520.8333333334897
 20
1924.533982823994
 30
0.0
 11
529.3003247442896
 21
1933.000974234938
 31
0.0
  0
LINE
  5
428
330
1F
100
AcDbEntity
  8
LAY-10
  6
CONTINUOUS
 62
     7
100
AcDbLine
 10
529.3003247442896
 20
1950.678643763938
 30
0.0
 11
546.9779942739899
 21
1933.000974234938
 31
0.0
  0
LINE
  5
429
330
1F
100
AcDbEntity
  8
LAY-10
  6
CONTINUOUS
 62
     7
100
AcDbLine
 10
546.9779942739899
 20
1950.678643763938
 30
0.0
 11
564.6556638036893
 21
1968.356313293939
 31
0.0
  0
LINE
  5
42A
330
1F
100
AcDbEntity
  8
LAY-10
  6
CONTINUOUS
 62
     7
100
AcDbLine
 10
564.6556638037894
 20
2021.389321881939
 30
0.0
 11
582.3333333333896
 21
2003.711652352939
 31
0.0
  0
LINE
  5
42B
330
1F
100
AcDbEntity
  8
LAY-10
  6
CONTINUOUS
 62
     7
100
AcDbLine
 10
600.0110028630891
 20
2039.066991411938
 30
0.0
 11
582.3333333333896
 21
2021.389321881938
 31
0.0
  0
LINE
  5
42C
330
1F
100
AcDbEntity
  8
LAY-10
  6
CONTINUOUS
 62
     7
100
AcDbLine
 10
564.6556638037894
 20
2039.066991411938
 30
0.0
 11
546.977994274089
 21
2021.389321881939
 31
0.0
  0
LINE
  5
42D
330
1F
100
AcDbEntity
  8
LAY-10
  6
CONTINUOUS
 62
     7
100
AcDbLine
 10
600.0110028630891
 20
2021.389321881938
 30
0.0
 11
617.6886723927894
 21
2003.711652352939
 31
0.0
  0
LINE
  5
42E
330
1F
100
AcDbEntity
  8
LAY-10
  6
CONTINUOUS
 62
     7
100
AcDbLine
 10
582.3333333333896
 20
1986.033982822938
 30
0.0
 11
600.0110028630891
 21
2003.711652352939
 31
0.0
  0
LINE
  5
42F
330
1F
100
AcDbEntity
  8
LAY-10
  6
CONTINUOUS
 62
     7
100
AcDbLine
 10
564.6556638036893
 20
1986.033982822938
 30
0.0
 11
582.3333333333896
 21
1968.356313293939
 31
0.0
  0
LINE
  5
430
330
1F
100
AcDbEntity
  8
LAY-10
  6
CONTINUOUS
 62
     7
100
AcDbLine
 10
546.9779942739899
 20
2003.711652352938
 30
0.0
 11
529.3003247443896
 21
2021.389321881939
 31
0.0
  0
LINE
  5
431
330
1F
100
AcDbEntity
  8
LAY-10
  6
CONTINUOUS
 62
     7
100
AcDbLine
 10
529.3003247443896
 20
2039.066991411938
 30
0.0
 11
520.8333333334897
 21
2030.600000000895
 31
0.0
  0
LINE
  5
432
330
1F
100
AcDbEntity
  8
LAY-10
  6
CONTINUOUS
 62
     7
100
AcDbLine
 10
529.3003247443896
 20
2003.711652352938
 30
0.0
 11
520.8333333334897
 21
1995.244660941894
 31
0.0
  0
LINE
  5
433
330
1F
100
AcDbEntity
  8
LAY-10
  6
CONTINUOUS
 62
     7
100
AcDbLine
 10
529.3003247443896
 20
1986.033982822938
 30
0.0
 11
546.9779942739899
 21
1968.356313293939
 31
0.0
  0
LINE
  5
434
330
1F
100
AcDbEntity
  8
LAY-10
  6
CONTINUOUS
 62
     7
100
AcDbLine
 10
564.6556638036893
 20
2003.711652352938
 30
0.0
 11
546.9779942739899
 21
1986.033982822938
 31
0.0
  0
LINE
  5
435
330
1F
100
AcDbEntity
  8
LAY-10
  6
CONTINUOUS
 62
     7
100
AcDbLine
 10
529.3003247442896
 20
1968.356313293938
 30
0.0
 11
520.8333333334897
 21
1959.889321882994
 31
0.0
  0
LINE
  5
436
330
1F
100
AcDbEntity
  8
LAY-10
  6
CONTINUOUS
 62
     7
100
AcDbLine
 10
653.0440114521891
 20
2109.777669529939
 30
0.0
 11
635.3663419224897
 21
2127.455339059939
 31
0.0
  0
LINE
  5
437
330
1F
100
AcDbEntity
  8
LAY-10
  6
CONTINUOUS
 62
     7
100
AcDbLine
 10
635.3663419224897
 20
2092.099999999939
 30
0.0
 11
653.0440114521891
 21
2074.422330470939
 31
0.0
  0
LINE
  5
438
330
1F
100
AcDbEntity
  8
LAY-10
  6
CONTINUOUS
 62
     7
100
AcDbLine
 10
600.0110028631891
 20
2056.744660940939
 30
0.0
 11
617.6886723927894
 21
2039.066991411939
 31
0.0
  0
LINE
  5
439
330
1F
100
AcDbEntity
  8
LAY-10
  6
CONTINUOUS
 62
     7
100
AcDbLine
 10
600.0110028631891
 20
2074.422330470939
 30
0.0
 11
582.3333333334897
 21
2056.744660940939
 31
0.0
  0
LINE
  5
43A
330
1F
100
AcDbEntity
  8
LAY-10
  6
CONTINUOUS
 62
     7
100
AcDbLine
 10
635.3663419224897
 20
2056.744660940939
 30
0.0
 11
653.0440114521891
 21
2039.066991411939
 31
0.0
  0
LINE
  5
43B
330
1F
100
AcDbEntity
  8
LAY-10
  6
CONTINUOUS
 62
     7
100
AcDbLine
 10
653.0440114521891
 20
2092.099999999939
 30
0.0
 11
670.7216809817894
 21
2109.777669529939
 31
0.0
  0
LINE
  5
43C
330
1F
100
AcDbEntity
  8
LAY-10
  6
CONTINUOUS
 62
     7
100
AcDbLine
 10
653.0440114521891
 20
2056.744660940939
 30
0.0
 11
670.7216809817894
 21
2074.422330470939
 31
0.0
  0
LINE
  5
43D
330
1F
100
AcDbEntity
  8
LAY-10
  6
CONTINUOUS
 62
     7
100
AcDbLine
 10
670.7216809817894
 20
2092.099999999939
 30
0.0
 11
688.3993505114896
 21
2074.422330470939
 31
0.0
  0
LINE
  5
43E
330
1F
100
AcDbEntity
  8
LAY-10
  6
CONTINUOUS
 62
     7
100
AcDbLine
 10
582.3333333333896
 20
2039.066991411938
 30
0.0
 11
564.6556638037894
 21
2056.744660940939
 31
0.0
  0
LINE
  5
43F
330
1F
100
AcDbEntity
  8
LAY-10
  6
CONTINUOUS
 62
     7
100
AcDbLine
 10
546.977994274089
 20
2039.066991411938
 30
0.0
 11
529.3003247443896
 21
2056.744660940939
 31
0.0
  0
LINE
  5
440
330
1F
100
AcDbEntity
  8
LAY-10
  6
CONTINUOUS
 62
     7
100
AcDbLine
 10
564.6556638037894
 20
2074.422330470939
 30
0.0
 11
546.977994274089
 21
2056.744660940939
 31
0.0
  0
LINE
  5
441
330
1F
100
AcDbEntity
  8
LAY-10
  6
CONTINUOUS
 62
     7
100
AcDbLine
 10
529.3003247444897
 20
2074.422330471938
 30
0.0
 11
520.8333333334897
 21
2065.955339060794
 31
0.0
  0
LINE
  5
442
330
1F
100
AcDbEntity
  8
LAY-10
  6
CONTINUOUS
 62
     7
100
AcDbLine
 10
624.3333333341936
 20
2134.099999999939
 30
0.0
 11
617.6886723919854
 21
2127.455339058143
 31
0.0
  0
LINE
  5
443
330
1F
100
AcDbEntity
  8
LAY-10
  6
CONTINUOUS
 62
     7
100
AcDbLine
 10
529.3003247457893
 20
2109.777669528336
 30
0.0
 11
520.8333333334642
 21
2101.310678115866
 31
0.0
  0
LINE
  5
444
330
1F
100
AcDbEntity
  8
LAY-10
  6
CONTINUOUS
 62
     7
100
AcDbLine
 10
546.977994273989
 20
2127.455339057136
 30
0.0
 11
553.6226552164519
 21
2134.099999999937
 31
0.0
  0
LINE
  5
445
330
1F
100
AcDbEntity
  8
LAY-10
  6
CONTINUOUS
 62
     7
100
AcDbLine
 10
687.9060213096457
 20
2110.270998731892
 30
0.0
 11
670.7216809818894
 21
2127.455339059939
 31
0.0
  0
LINE
  5
446
330
1F
100
AcDbEntity
  8
LAY-10
  6
CONTINUOUS
 62
     7
100
AcDbLine
 10
715.4468439102644
 20
2118.085515190804
 30
0.0
 11
706.0770200412896
 21
2127.455339059939
 31
0.0
  0
LINE
  5
447
330
1F
100
AcDbEntity
  8
LAY-10
  6
CONTINUOUS
 62
     7
100
AcDbLine
 10
743.8333333334697
 20
2113.099999999939
 30
0.0
 11
745.439633346273
 21
2113.099999999939
 31
0.0
  0
LINE
  5
448
330
1F
100
AcDbEntity
  8
LAY-10
  6
CONTINUOUS
 62
     7
100
AcDbLine
 10
743.8333333334697
 20
2105.09999999994
 30
0.0
 11
745.439633346273
 21
2105.09999999994
 31
0.0
  0
LINE
  5
449
330
1F
100
AcDbEntity
  8
LAY-10
  6
CONTINUOUS
 62
     7
100
AcDbLine
 10
743.8333333334697
 20
2105.09999999994
 30
0.0
 11
743.8333333334697
 21
2113.099999999939
 31
0.0
  0
LINE
  5
44A
330
1F
100
AcDbEntity
  8
LAY-10
  6
CONTINUOUS
 62
     7
100
AcDbLine
 10
733.3333333334697
 20
2115.599999999939
 30
0.0
 11
737.3333333334697
 21
2109.099999999939
 31
0.0
  0
LINE
  5
44B
330
1F
100
AcDbEntity
  8
LAY-10
  6
CONTINUOUS
 62
     7
100
AcDbLine
 10
737.3333333334697
 20
2109.099999999939
 30
0.0
 11
733.3333333334697
 21
2102.59999999994
 31
0.0
  0
LINE
  5
44C
330
1F
100
AcDbEntity
  8
LAY-10
  6
CONTINUOUS
 62
     7
100
AcDbLine
 10
733.3333333334697
 20
2102.59999999994
 30
0.0
 11
729.3333333334696
 21
2109.099999999939
 31
0.0
  0
LINE
  5
44D
330
1F
100
AcDbEntity
  8
LAY-10
  6
CONTINUOUS
 62
     7
100
AcDbLine
 10
729.3333333334696
 20
2109.099999999939
 30
0.0
 11
733.3333333334697
 21
2115.599999999939
 31
0.0
  0
CIRCLE
  5
44E
330
1F
100
AcDbEntity
  8
LAY-10
  6
CONTINUOUS
 62
     7
100
AcDbCircle
 10
733.3333333334692
 20
2109.09999999994
 30
0.0
 40
13.00000000000001
  0
LINE
  5
44F
330
1F
100
AcDbEntity
  8
LAY-10
  6
CONTINUOUS
 62
     7
100
AcDbLine
 10
688.3993505123892
 20
2092.100000000939
 30
0.0
 11
706.0770200419895
 21
2109.777669530939
 31
0.0
  0
LINE
  5
450
330
1F
100
AcDbEntity
  8
LAY-10
  6
CONTINUOUS
 62
     7
100
AcDbLine
 10
1008.99999999986
 20
2074.422330470639
 30
0.0
 11
991.3223304705605
 21
2092.099999999939
 31
0.0
  0
LINE
  5
451
330
1F
100
AcDbEntity
  8
LAY-10
  6
CONTINUOUS
 62
     7
100
AcDbLine
 10
1008.999999997958
 20
2127.455339058739
 30
0.0
 11
1015.644660939269
 21
2134.099999999939
 31
0.0
  0
LINE
  5
452
330
1F
100
AcDbEntity
  8
LAY-10
  6
CONTINUOUS
 62
     7
100
AcDbLine
 10
1044.35533905796
 20
2074.422330469842
 30
0.0
 11
1026.677669528959
 21
2092.099999999441
 31
0.0
  0
LINE
  5
453
330
1F
100
AcDbEntity
  8
LAY-10
  6
CONTINUOUS
 62
     7
100
AcDbLine
 10
1044.355339057958
 20
2109.777669529142
 30
0.0
 11
1026.677669528956
 21
2127.455339058841
 31
0.0
  0
LINE
  5
454
330
1F
100
AcDbEntity
  8
LAY-10
  6
CONTINUOUS
 62
     7
100
AcDbLine
 10
1008.999999998959
 20
2092.099999999439
 30
0.0
 11
1026.677669528957
 21
2109.777669529141
 31
0.0
  0
LINE
  5
455
330
1F
100
AcDbEntity
  8
LAY-10
  6
CONTINUOUS
 62
     7
100
AcDbLine
 10
991.3223304709578
 20
2127.455339057738
 30
0.0
 11
1009.000000000258
 21
2109.777669528439
 31
0.0
  0
LINE
  5
456
330
1F
100
AcDbEntity
  8
LAY-10
  6
CONTINUOUS
 62
     7
100
AcDbLine
 10
1062.03300858916
 20
2109.777669529939
 30
0.0
 11
1048.50000000016
 21
2096.24466094071
 31
0.0
  0
LINE
  5
457
330
1F
100
AcDbEntity
  8
LAY-10
  6
CONTINUOUS
 62
     7
100
AcDbLine
 10
955.9669914121594
 20
2092.099999998938
 30
0.0
 11
973.6446609414603
 21
2074.422330469639
 31
0.0
  0
LINE
  5
458
330
1F
100
AcDbEntity
  8
LAY-10
  6
CONTINUOUS
 62
     7
100
AcDbLine
 10
973.6446609408591
 20
2109.777669529037
 30
0.0
 11
955.9669914115591
 21
2127.455339058336
 31
0.0
  0
LINE
  5
459
330
1F
100
AcDbEntity
  8
LAY-10
  6
CONTINUOUS
 62
     7
100
AcDbLine
 10
991.3223304708587
 20
2109.777669529338
 30
0.0
 11
973.6446609411602
 21
2092.099999999338
 31
0.0
  0
LINE
  5
45A
330
1F
100
AcDbEntity
  8
LAY-10
  6
CONTINUOUS
 62
     7
100
AcDbLine
 10
1044.355339059459
 20
2021.389321881938
 30
0.0
 11
1062.03300858916
 21
2039.066991411939
 31
0.0
  0
LINE
  5
45B
330
1F
100
AcDbEntity
  8
LAY-10
  6
CONTINUOUS
 62
     7
100
AcDbLine
 10
1062.03300858916
 20
2074.422330470939
 30
0.0
 11
1044.355339059459
 21
2056.744660940939
 31
0.0
  0
LINE
  5
45C
330
1F
100
AcDbEntity
  8
LAY-10
  6
CONTINUOUS
 62
     7
100
AcDbLine
 10
1157.066017178993
 20
2134.099999999939
 30
0.0
 11
1150.421356238729
 21
2127.455339059939
 31
0.0
  0
LINE
  5
45D
330
1F
100
AcDbEntity
  8
LAY-10
  6
CONTINUOUS
 62
     7
100
AcDbLine
 10
1121.710678119323
 20
2134.099999999939
 30
0.0
 11
1115.066017179059
 21
2127.455339059939
 31
0.0
  0
LINE
  5
45E
330
1F
100
AcDbEntity
  8
LAY-10
  6
CONTINUOUS
 62
     7
100
AcDbLine
 10
1086.355339059647
 20
2134.099999999939
 30
0.0
 11
1079.710678118759
 21
2127.455339058939
 31
0.0
  0
LINE
  5
45F
330
1F
100
AcDbEntity
  8
LAY-10
  6
CONTINUOUS
 62
     7
100
AcDbLine
 10
947.5000000001597
 20
1924.533982823994
 30
0.0
 11
955.9669914109596
 21
1933.000974234938
 31
0.0
  0
LINE
  5
460
330
1F
100
AcDbEntity
  8
LAY-10
  6
CONTINUOUS
 62
     7
100
AcDbLine
 10
955.9669914109596
 20
1950.678643763938
 30
0.0
 11
973.64466094066
 21
1933.000974234938
 31
0.0
  0
LINE
  5
461
330
1F
100
AcDbEntity
  8
LAY-10
  6
CONTINUOUS
 62
     7
100
AcDbLine
 10
973.64466094066
 20
1950.678643763938
 30
0.0
 11
991.3223304703594
 21
1968.356313293939
 31
0.0
  0
LINE
  5
462
330
1F
100
AcDbEntity
  8
LAY-10
  6
CONTINUOUS
 62
     7
100
AcDbLine
 10
991.3223304704594
 20
2021.389321881939
 30
0.0
 11
1009.00000000006
 21
2003.711652352939
 31
0.0
  0
LINE
  5
463
330
1F
100
AcDbEntity
  8
LAY-10
  6
CONTINUOUS
 62
     7
100
AcDbLine
 10
1026.677669529759
 20
2039.066991411938
 30
0.0
 11
1009.00000000006
 21
2021.389321881938
 31
0.0
  0
LINE
  5
464
330
1F
100
AcDbEntity
  8
LAY-10
  6
CONTINUOUS
 62
     7
100
AcDbLine
 10
991.3223304704594
 20
2039.066991411938
 30
0.0
 11
973.6446609407591
 21
2021.389321881939
 31
0.0
  0
LINE
  5
465
330
1F
100
AcDbEntity
  8
LAY-10
  6
CONTINUOUS
 62
     7
100
AcDbLine
 10
1026.677669529759
 20
2021.389321881938
 30
0.0
 11
1044.355339059459
 21
2003.711652352939
 31
0.0
  0
LINE
  5
466
330
1F
100
AcDbEntity
  8
LAY-10
  6
CONTINUOUS
 62
     7
100
AcDbLine
 10
1009.00000000006
 20
1986.033982822938
 30
0.0
 11
1026.677669529759
 21
2003.711652352939
 31
0.0
  0
LINE
  5
467
330
1F
100
AcDbEntity
  8
LAY-10
  6
CONTINUOUS
 62
     7
100
AcDbLine
 10
991.3223304703594
 20
1986.033982822938
 30
0.0
 11
1009.00000000006
 21
1968.356313293939
 31
0.0
  0
LINE
  5
468
330
1F
100
AcDbEntity
  8
LAY-10
  6
CONTINUOUS
 62
     7
100
AcDbLine
 10
973.64466094066
 20
2003.711652352938
 30
0.0
 11
955.9669914110597
 21
2021.389321881939
 31
0.0
  0
LINE
  5
469
330
1F
100
AcDbEntity
  8
LAY-10
  6
CONTINUOUS
 62
     7
100
AcDbLine
 10
955.9669914110597
 20
2039.066991411938
 30
0.0
 11
947.5000000001597
 21
2030.600000000895
 31
0.0
  0
LINE
  5
46A
330
1F
100
AcDbEntity
  8
LAY-10
  6
CONTINUOUS
 62
     7
100
AcDbLine
 10
955.9669914110597
 20
2003.711652352938
 30
0.0
 11
947.5000000001597
 21
1995.244660941894
 31
0.0
  0
LINE
  5
46B
330
1F
100
AcDbEntity
  8
LAY-10
  6
CONTINUOUS
 62
     7
100
AcDbLine
 10
955.9669914110597
 20
1986.033982822938
 30
0.0
 11
973.64466094066
 21
1968.356313293939
 31
0.0
  0
LINE
  5
46C
330
1F
100
AcDbEntity
  8
LAY-10
  6
CONTINUOUS
 62
     7
100
AcDbLine
 10
991.3223304703594
 20
2003.711652352938
 30
0.0
 11
973.64466094066
 21
1986.033982822938
 31
0.0
  0
LINE
  5
46D
330
1F
100
AcDbEntity
  8
LAY-10
  6
CONTINUOUS
 62
     7
100
AcDbLine
 10
955.9669914109596
 20
1968.356313293938
 30
0.0
 11
947.5000000001597
 21
1959.889321882994
 31
0.0
  0
LINE
  5
46E
330
1F
100
AcDbEntity
  8
LAY-10
  6
CONTINUOUS
 62
     7
100
AcDbLine
 10
1079.710678118859
 20
2109.777669529939
 30
0.0
 11
1062.03300858916
 21
2127.455339059939
 31
0.0
  0
LINE
  5
46F
330
1F
100
AcDbEntity
  8
LAY-10
  6
CONTINUOUS
 62
     7
100
AcDbLine
 10
1062.03300858916
 20
2092.099999999939
 30
0.0
 11
1079.710678118859
 21
2074.422330470939
 31
0.0
  0
LINE
  5
470
330
1F
100
AcDbEntity
  8
LAY-10
  6
CONTINUOUS
 62
     7
100
AcDbLine
 10
1026.677669529859
 20
2056.744660940939
 30
0.0
 11
1044.355339059459
 21
2039.066991411939
 31
0.0
  0
LINE
  5
471
330
1F
100
AcDbEntity
  8
LAY-10
  6
CONTINUOUS
 62
     7
100
AcDbLine
 10
1026.677669529859
 20
2074.422330470939
 30
0.0
 11
1009.00000000016
 21
2056.744660940939
 31
0.0
  0
LINE
  5
472
330
1F
100
AcDbEntity
  8
LAY-10
  6
CONTINUOUS
 62
     7
100
AcDbLine
 10
1062.03300858916
 20
2056.744660940939
 30
0.0
 11
1079.710678118859
 21
2039.066991411939
 31
0.0
  0
LINE
  5
473
330
1F
100
AcDbEntity
  8
LAY-10
  6
CONTINUOUS
 62
     7
100
AcDbLine
 10
1079.710678118859
 20
2092.099999999939
 30
0.0
 11
1097.388347648459
 21
2109.777669529939
 31
0.0
  0
LINE
  5
474
330
1F
100
AcDbEntity
  8
LAY-10
  6
CONTINUOUS
 62
     7
100
AcDbLine
 10
1079.710678118859
 20
2056.744660940939
 30
0.0
 11
1097.388347648459
 21
2074.422330470939
 31
0.0
  0
LINE
  5
475
330
1F
100
AcDbEntity
  8
LAY-10
  6
CONTINUOUS
 62
     7
100
AcDbLine
 10
1097.388347648459
 20
2092.099999999939
 30
0.0
 11
1115.06601717816
 21
2074.422330470939
 31
0.0
  0
LINE
  5
476
330
1F
100
AcDbEntity
  8
LAY-10
  6
CONTINUOUS
 62
     7
100
AcDbLine
 10
1009.00000000006
 20
2039.066991411938
 30
0.0
 11
991.3223304704594
 21
2056.744660940939
 31
0.0
  0
LINE
  5
477
330
1F
100
AcDbEntity
  8
LAY-10
  6
CONTINUOUS
 62
     7
100
AcDbLine
 10
973.6446609407591
 20
2039.066991411938
 30
0.0
 11
955.9669914110597
 21
2056.744660940939
 31
0.0
  0
LINE
  5
478
330
1F
100
AcDbEntity
  8
LAY-10
  6
CONTINUOUS
 62
     7
100
AcDbLine
 10
991.3223304704594
 20
2074.422330470939
 30
0.0
 11
973.6446609407591
 21
2056.744660940939
 31
0.0
  0
LINE
  5
479
330
1F
100
AcDbEntity
  8
LAY-10
  6
CONTINUOUS
 62
     7
100
AcDbLine
 10
955.9669914111597
 20
2074.422330471938
 30
0.0
 11
947.5000000001597
 21
2065.955339060794
 31
0.0
  0
LINE
  5
47A
330
1F
100
AcDbEntity
  8
LAY-10
  6
CONTINUOUS
 62
     7
100
AcDbLine
 10
1051.000000000864
 20
2134.099999999939
 30
0.0
 11
1044.355339058655
 21
2127.455339058143
 31
0.0
  0
LINE
  5
47B
330
1F
100
AcDbEntity
  8
LAY-10
  6
CONTINUOUS
 62
     7
100
AcDbLine
 10
955.9669914124595
 20
2109.777669528336
 30
0.0
 11
947.5000000001343
 21
2101.310678115866
 31
0.0
  0
LINE
  5
47C
330
1F
100
AcDbEntity
  8
LAY-10
  6
CONTINUOUS
 62
     7
100
AcDbLine
 10
973.644660940659
 20
2127.455339057136
 30
0.0
 11
980.2893218831219
 21
2134.099999999937
 31
0.0
  0
LINE
  5
47D
330
1F
100
AcDbEntity
  8
LAY-10
  6
CONTINUOUS
 62
     7
100
AcDbLine
 10
1114.572687976316
 20
2110.270998731892
 30
0.0
 11
1097.388347648559
 21
2127.455339059939
 31
0.0
  0
LINE
  5
47E
330
1F
100
AcDbEntity
  8
LAY-10
  6
CONTINUOUS
 62
     7
100
AcDbLine
 10
1142.113510576934
 20
2118.085515190804
 30
0.0
 11
1132.74368670796
 21
2127.455339059939
 31
0.0
  0
LINE
  5
47F
330
1F
100
AcDbEntity
  8
LAY-10
  6
CONTINUOUS
 62
     7
100
AcDbLine
 10
1170.50000000014
 20
2113.099999999939
 30
0.0
 11
1172.106300012943
 21
2113.099999999939
 31
0.0
  0
LINE
  5
480
330
1F
100
AcDbEntity
  8
LAY-10
  6
CONTINUOUS
 62
     7
100
AcDbLine
 10
1170.50000000014
 20
2105.09999999994
 30
0.0
 11
1172.106300012943
 21
2105.09999999994
 31
0.0
  0
LINE
  5
481
330
1F
100
AcDbEntity
  8
LAY-10
  6
CONTINUOUS
 62
     7
100
AcDbLine
 10
1170.50000000014
 20
2105.09999999994
 30
0.0
 11
1170.50000000014
 21
2113.099999999939
 31
0.0
  0
LINE
  5
482
330
1F
100
AcDbEntity
  8
LAY-10
  6
CONTINUOUS
 62
     7
100
AcDbLine
 10
1160.00000000014
 20
2115.599999999939
 30
0.0
 11
1164.00000000014
 21
2109.099999999939
 31
0.0
  0
LINE
  5
483
330
1F
100
AcDbEntity
  8
LAY-10
  6
CONTINUOUS
 62
     7
100
AcDbLine
 10
1164.00000000014
 20
2109.099999999939
 30
0.0
 11
1160.00000000014
 21
2102.59999999994
 31
0.0
  0
LINE
  5
484
330
1F
100
AcDbEntity
  8
LAY-10
  6
CONTINUOUS
 62
     7
100
AcDbLine
 10
1160.00000000014
 20
2102.59999999994
 30
0.0
 11
1156.00000000014
 21
2109.099999999939
 31
0.0
  0
LINE
  5
485
330
1F
100
AcDbEntity
  8
LAY-10
  6
CONTINUOUS
 62
     7
100
AcDbLine
 10
1156.00000000014
 20
2109.099999999939
 30
0.0
 11
1160.00000000014
 21
2115.599999999939
 31
0.0
  0
CIRCLE
  5
486
330
1F
100
AcDbEntity
  8
LAY-10
  6
CONTINUOUS
 62
     7
100
AcDbCircle
 10
1160.000000000139
 20
2109.09999999994
 30
0.0
 40
13.00000000000001
  0
LINE
  5
487
330
1F
100
AcDbEntity
  8
LAY-10
  6
CONTINUOUS
 62
     7
100
AcDbLine
 10
1115.066017179059
 20
2092.100000000939
 30
0.0
 11
1132.743686708659
 21
2109.777669530939
 31
0.0
  0
LINE
  5
488
330
1F
100
AcDbEntity
  8
LAY-10
  6
CONTINUOUS
 62
     7
100
AcDbLine
 10
884.3333333337307
 20
1441.777669529161
 30
0.0
 11
902.01100286303
 21
1424.099999999861
 31
0.0
  0
LINE
  5
489
330
1F
100
AcDbEntity
  8
LAY-10
  6
CONTINUOUS
 62
     7
100
AcDbLine
 10
884.3333333356325
 20
1388.74466094106
 30
0.0
 11
877.688672394321
 21
1382.09999999986
 31
0.0
  0
LINE
  5
48A
330
1F
100
AcDbEntity
  8
LAY-10
  6
CONTINUOUS
 62
     7
100
AcDbLine
 10
848.9779942756297
 20
1441.777669529958
 30
0.0
 11
866.6556638046316
 21
1424.100000000359
 31
0.0
  0
LINE
  5
48B
330
1F
100
AcDbEntity
  8
LAY-10
  6
CONTINUOUS
 62
     7
100
AcDbLine
 10
848.9779942756326
 20
1406.422330470657
 30
0.0
 11
866.6556638046343
 21
1388.744660940959
 31
0.0
  0
LINE
  5
48C
330
1F
100
AcDbEntity
  8
LAY-10
  6
CONTINUOUS
 62
     7
100
AcDbLine
 10
884.3333333346311
 20
1424.100000000361
 30
0.0
 11
866.6556638046334
 21
1406.422330470659
 31
0.0
  0
LINE
  5
48D
330
1F
100
AcDbEntity
  8
LAY-10
  6
CONTINUOUS
 62
     7
100
AcDbLine
 10
902.0110028626325
 20
1388.744660942061
 30
0.0
 11
884.3333333333323
 21
1406.422330471361
 31
0.0
  0
LINE
  5
48E
330
1F
100
AcDbEntity
  8
LAY-10
  6
CONTINUOUS
 62
     7
100
AcDbLine
 10
831.3003247444306
 20
1406.422330469861
 30
0.0
 11
844.8333333334307
 21
1419.95533905909
 31
0.0
  0
LINE
  5
48F
330
1F
100
AcDbEntity
  8
LAY-10
  6
CONTINUOUS
 62
     7
100
AcDbLine
 10
937.3663419214311
 20
1424.100000000862
 30
0.0
 11
919.6886723921301
 21
1441.777669530161
 31
0.0
  0
LINE
  5
490
330
1F
100
AcDbEntity
  8
LAY-10
  6
CONTINUOUS
 62
     7
100
AcDbLine
 10
919.6886723927312
 20
1406.422330470763
 30
0.0
 11
937.3663419220313
 21
1388.744660941464
 31
0.0
  0
LINE
  5
491
330
1F
100
AcDbEntity
  8
LAY-10
  6
CONTINUOUS
 62
     7
100
AcDbLine
 10
902.0110028627317
 20
1406.422330470462
 30
0.0
 11
919.6886723924302
 21
1424.100000000462
 31
0.0
  0
LINE
  5
492
330
1F
100
AcDbEntity
  8
LAY-10
  6
CONTINUOUS
 62
     7
100
AcDbLine
 10
848.9779942741309
 20
1494.810678117861
 30
0.0
 11
831.3003247444306
 21
1477.133008587861
 31
0.0
  0
LINE
  5
493
330
1F
100
AcDbEntity
  8
LAY-10
  6
CONTINUOUS
 62
     7
100
AcDbLine
 10
831.3003247444306
 20
1441.777669528861
 30
0.0
 11
848.9779942741309
 21
1459.455339058861
 31
0.0
  0
LINE
  5
494
330
1F
100
AcDbEntity
  8
LAY-10
  6
CONTINUOUS
 62
     7
100
AcDbLine
 10
736.267316154597
 20
1382.09999999986
 30
0.0
 11
742.9119770948606
 21
1388.744660939861
 31
0.0
  0
LINE
  5
495
330
1F
100
AcDbEntity
  8
LAY-10
  6
CONTINUOUS
 62
     7
100
AcDbLine
 10
771.6226552142668
 20
1382.09999999986
 30
0.0
 11
778.267316154531
 21
1388.744660939861
 31
0.0
  0
LINE
  5
496
330
1F
100
AcDbEntity
  8
LAY-10
  6
CONTINUOUS
 62
     7
100
AcDbLine
 10
806.9779942739435
 20
1382.09999999986
 30
0.0
 11
813.6226552148312
 21
1388.744660940861
 31
0.0
  0
LINE
  5
497
330
1F
100
AcDbEntity
  8
LAY-10
  6
CONTINUOUS
 62
     7
100
AcDbLine
 10
945.8333333334306
 20
1591.666017175806
 30
0.0
 11
937.3663419226307
 21
1583.199025764862
 31
0.0
  0
LINE
  5
498
330
1F
100
AcDbEntity
  8
LAY-10
  6
CONTINUOUS
 62
     7
100
AcDbLine
 10
937.3663419226307
 20
1565.521356235862
 30
0.0
 11
919.6886723929305
 21
1583.199025764862
 31
0.0
  0
LINE
  5
499
330
1F
100
AcDbEntity
  8
LAY-10
  6
CONTINUOUS
 62
     7
100
AcDbLine
 10
919.6886723929305
 20
1565.521356235862
 30
0.0
 11
902.0110028632309
 21
1547.843686705861
 31
0.0
  0
LINE
  5
49A
330
1F
100
AcDbEntity
  8
LAY-10
  6
CONTINUOUS
 62
     7
100
AcDbLine
 10
902.0110028631309
 20
1494.810678117861
 30
0.0
 11
884.3333333335306
 21
1512.48834764686
 31
0.0
  0
LINE
  5
49B
330
1F
100
AcDbEntity
  8
LAY-10
  6
CONTINUOUS
 62
     7
100
AcDbLine
 10
866.6556638038312
 20
1477.133008587862
 30
0.0
 11
884.3333333335306
 21
1494.810678117861
 31
0.0
  0
LINE
  5
49C
330
1F
100
AcDbEntity
  8
LAY-10
  6
CONTINUOUS
 62
     7
100
AcDbLine
 10
902.0110028631309
 20
1477.133008587861
 30
0.0
 11
919.6886723928312
 21
1494.810678117861
 31
0.0
  0
LINE
  5
49D
330
1F
100
AcDbEntity
  8
LAY-10
  6
CONTINUOUS
 62
     7
100
AcDbLine
 10
866.6556638038312
 20
1494.810678117861
 30
0.0
 11
848.9779942741309
 21
1512.48834764686
 31
0.0
  0
LINE
  5
49E
330
1F
100
AcDbEntity
  8
LAY-10
  6
CONTINUOUS
 62
     7
100
AcDbLine
 10
884.3333333335306
 20
1530.166017176861
 30
0.0
 11
866.6556638038312
 21
1512.48834764686
 31
0.0
  0
LINE
  5
49F
330
1F
100
AcDbEntity
  8
LAY-10
  6
CONTINUOUS
 62
     7
100
AcDbLine
 10
902.0110028632309
 20
1530.166017176861
 30
0.0
 11
884.3333333335306
 21
1547.843686705861
 31
0.0
  0
LINE
  5
4A0
330
1F
100
AcDbEntity
  8
LAY-10
  6
CONTINUOUS
 62
     7
100
AcDbLine
 10
919.6886723929305
 20
1512.488347646861
 30
0.0
 11
937.3663419225306
 21
1494.810678117861
 31
0.0
  0
LINE
  5
4A1
330
1F
100
AcDbEntity
  8
LAY-10
  6
CONTINUOUS
 62
     7
100
AcDbLine
 10
937.3663419225306
 20
1477.133008587861
 30
0.0
 11
945.8333333334306
 21
1485.599999998905
 31
0.0
  0
LINE
  5
4A2
330
1F
100
AcDbEntity
  8
LAY-10
  6
CONTINUOUS
 62
     7
100
AcDbLine
 10
937.3663419225306
 20
1512.488347646861
 30
0.0
 11
945.8333333334306
 21
1520.955339057905
 31
0.0
  0
LINE
  5
4A3
330
1F
100
AcDbEntity
  8
LAY-10
  6
CONTINUOUS
 62
     7
100
AcDbLine
 10
937.3663419225306
 20
1530.166017176861
 30
0.0
 11
919.6886723929305
 21
1547.843686705861
 31
0.0
  0
LINE
  5
4A4
330
1F
100
AcDbEntity
  8
LAY-10
  6
CONTINUOUS
 62
     7
100
AcDbLine
 10
902.0110028632309
 20
1512.488347646861
 30
0.0
 11
919.6886723929305
 21
1530.166017176861
 31
0.0
  0
LINE
  5
4A5
330
1F
100
AcDbEntity
  8
LAY-10
  6
CONTINUOUS
 62
     7
100
AcDbLine
 10
937.3663419226307
 20
1547.843686705862
 30
0.0
 11
945.8333333334306
 21
1556.310678116806
 31
0.0
  0
LINE
  5
4A6
330
1F
100
AcDbEntity
  8
LAY-10
  6
CONTINUOUS
 62
     7
100
AcDbLine
 10
813.6226552147311
 20
1406.422330469861
 30
0.0
 11
831.3003247444306
 21
1388.744660939861
 31
0.0
  0
LINE
  5
4A7
330
1F
100
AcDbEntity
  8
LAY-10
  6
CONTINUOUS
 62
     7
100
AcDbLine
 10
831.3003247444306
 20
1424.09999999986
 30
0.0
 11
813.6226552147311
 21
1441.777669528861
 31
0.0
  0
LINE
  5
4A8
330
1F
100
AcDbEntity
  8
LAY-10
  6
CONTINUOUS
 62
     7
100
AcDbLine
 10
866.6556638037312
 20
1459.455339058861
 30
0.0
 11
848.9779942741309
 21
1477.133008587861
 31
0.0
  0
LINE
  5
4A9
330
1F
100
AcDbEntity
  8
LAY-10
  6
CONTINUOUS
 62
     7
100
AcDbLine
 10
866.6556638037312
 20
1441.777669528861
 30
0.0
 11
884.3333333334306
 21
1459.455339058861
 31
0.0
  0
LINE
  5
4AA
330
1F
100
AcDbEntity
  8
LAY-10
  6
CONTINUOUS
 62
     7
100
AcDbLine
 10
831.3003247444306
 20
1459.455339058861
 30
0.0
 11
813.6226552147311
 21
1477.133008587861
 31
0.0
  0
LINE
  5
4AB
330
1F
100
AcDbEntity
  8
LAY-10
  6
CONTINUOUS
 62
     7
100
AcDbLine
 10
813.6226552147311
 20
1424.09999999986
 30
0.0
 11
795.9449856851309
 21
1406.422330469861
 31
0.0
  0
LINE
  5
4AC
330
1F
100
AcDbEntity
  8
LAY-10
  6
CONTINUOUS
 62
     7
100
AcDbLine
 10
813.6226552147311
 20
1459.455339058861
 30
0.0
 11
795.9449856851309
 21
1441.777669528861
 31
0.0
  0
LINE
  5
4AD
330
1F
100
AcDbEntity
  8
LAY-10
  6
CONTINUOUS
 62
     7
100
AcDbLine
 10
795.9449856851309
 20
1424.09999999986
 30
0.0
 11
778.2673161554305
 21
1441.777669528861
 31
0.0
  0
LINE
  5
4AE
330
1F
100
AcDbEntity
  8
LAY-10
  6
CONTINUOUS
 62
     7
100
AcDbLine
 10
884.3333333335306
 20
1477.133008587862
 30
0.0
 11
902.0110028631309
 21
1459.45533905886
 31
0.0
  0
LINE
  5
4AF
330
1F
100
AcDbEntity
  8
LAY-10
  6
CONTINUOUS
 62
     7
100
AcDbLine
 10
919.6886723928312
 20
1477.133008587861
 30
0.0
 11
937.3663419225306
 21
1459.45533905886
 31
0.0
  0
LINE
  5
4B0
330
1F
100
AcDbEntity
  8
LAY-10
  6
CONTINUOUS
 62
     7
100
AcDbLine
 10
902.0110028631309
 20
1441.777669528861
 30
0.0
 11
919.6886723928312
 21
1459.45533905886
 31
0.0
  0
LINE
  5
4B1
330
1F
100
AcDbEntity
  8
LAY-10
  6
CONTINUOUS
 62
     7
100
AcDbLine
 10
937.3663419224306
 20
1441.777669527862
 30
0.0
 11
945.8333333334306
 21
1450.244660939006
 31
0.0
  0
LINE
  5
4B2
330
1F
100
AcDbEntity
  8
LAY-10
  6
CONTINUOUS
 62
     7
100
AcDbLine
 10
842.3333333327266
 20
1382.09999999986
 30
0.0
 11
848.9779942749349
 21
1388.744660941656
 31
0.0
  0
LINE
  5
4B3
330
1F
100
AcDbEntity
  8
LAY-10
  6
CONTINUOUS
 62
     7
100
AcDbLine
 10
937.3663419211309
 20
1406.422330471464
 30
0.0
 11
945.833333333456
 21
1414.889321883934
 31
0.0
  0
LINE
  5
4B4
330
1F
100
AcDbEntity
  8
LAY-10
  6
CONTINUOUS
 62
     7
100
AcDbLine
 10
919.6886723929313
 20
1388.744660942663
 30
0.0
 11
913.0440114504684
 21
1382.099999999862
 31
0.0
  0
LINE
  5
4B5
330
1F
100
AcDbEntity
  8
LAY-10
  6
CONTINUOUS
 62
     7
100
AcDbLine
 10
778.7606453572746
 20
1405.929001267908
 30
0.0
 11
795.9449856850308
 21
1388.744660939861
 31
0.0
  0
LINE
  5
4B6
330
1F
100
AcDbEntity
  8
LAY-10
  6
CONTINUOUS
 62
     7
100
AcDbLine
 10
751.2198227566557
 20
1398.114484808995
 30
0.0
 11
760.5896466256306
 21
1388.744660939861
 31
0.0
  0
LINE
  5
4B7
330
1F
100
AcDbEntity
  8
LAY-10
  6
CONTINUOUS
 62
     7
100
AcDbLine
 10
733.3333333334506
 20
1400.59999999986
 30
0.0
 11
729.3333333334506
 21
1407.09999999986
 31
0.0
  0
LINE
  5
4B8
330
1F
100
AcDbEntity
  8
LAY-10
  6
CONTINUOUS
 62
     7
100
AcDbLine
 10
729.3333333334506
 20
1407.09999999986
 30
0.0
 11
733.3333333334506
 21
1413.59999999986
 31
0.0
  0
LINE
  5
4B9
330
1F
100
AcDbEntity
  8
LAY-10
  6
CONTINUOUS
 62
     7
100
AcDbLine
 10
733.3333333334506
 20
1413.59999999986
 30
0.0
 11
737.3333333334506
 21
1407.09999999986
 31
0.0
  0
LINE
  5
4BA
330
1F
100
AcDbEntity
  8
LAY-10
  6
CONTINUOUS
 62
     7
100
AcDbLine
 10
737.3333333334506
 20
1407.09999999986
 30
0.0
 11
733.3333333334506
 21
1400.59999999986
 31
0.0
  0
CIRCLE
  5
4BB
330
1F
100
AcDbEntity
  8
LAY-10
  6
CONTINUOUS
 62
     7
100
AcDbCircle
 10
733.333333333451
 20
1407.09999999986
 30
0.0
 40
13.00000000000001
  0
LINE
  5
4BC
330
1F
100
AcDbEntity
  8
LAY-10
  6
CONTINUOUS
 62
     7
100
AcDbLine
 10
778.267316154531
 20
1424.099999998861
 30
0.0
 11
760.5896466249308
 21
1406.422330468861
 31
0.0
  0
LINE
  5
4BD
330
1F
100
AcDbEntity
  8
LAY-10
  6
CONTINUOUS
 62
     7
100
AcDbLine
 10
743.8333333334513
 20
1403.099999999861
 30
0.0
 11
745.4396333462546
 21
1403.099999999861
 31
0.0
  0
LINE
  5
4BE
330
1F
100
AcDbEntity
  8
LAY-10
  6
CONTINUOUS
 62
     7
100
AcDbLine
 10
743.8333333334513
 20
1411.099999999859
 30
0.0
 11
745.4396333462546
 21
1411.099999999859
 31
0.0
  0
LINE
  5
4BF
330
1F
100
AcDbEntity
  8
LAY-10
  6
CONTINUOUS
 62
     7
100
AcDbLine
 10
743.8333333334513
 20
1411.099999999859
 30
0.0
 11
743.8333333334513
 21
1403.099999999861
 31
0.0
  0
ARC
  5
4C0
330
1F
100
AcDbEntity
  8
LAY-10
  6
CONTINUOUS
 62
     7
100
AcDbCircle
 10
733.3333333334508
 20
1407.09999999986
 30
0.0
 40
12.75000000000001
100
AcDbArc
 50
18.2838899404031
 51
341.716110059598
  0
ARC
  5
4C1
330
1F
100
AcDbEntity
  8
LAY-10
  6
CONTINUOUS
 62
     7
100
AcDbCircle
 10
733.3333333334692
 20
2109.09999999994
 30
0.0
 40
12.75000000000001
100
AcDbArc
 50
18.28388994040104
 51
341.7161100595952
  0
ARC
  5
4C2
330
1F
100
AcDbEntity
  8
LAY-10
  6
CONTINUOUS
 62
     7
100
AcDbCircle
 10
1160.000000000139
 20
2109.09999999994
 30
0.0
 40
12.75000000000001
100
AcDbArc
 50
18.28388994040104
 51
341.7161100595952
  0
LINE
  5
4C3
330
1F
100
AcDbEntity
  8
LAY-10
  6
CONTINUOUS
 62
     7
100
AcDbLine
 10
476.1015151901975
 20
919.5015151901466
 30
0.0
 11
511.4568542495253
 21
954.8568542494746
 31
0.0
  0
LINE
  5
4C4
330
1F
100
AcDbEntity
  8
LAY-10
  6
CONTINUOUS
 62
     7
100
AcDbLine
 10
476.1015151901975
 20
919.5015151901466
 30
0.0
 11
470.444660940706
 21
925.158369439639
 31
0.0
  0
LINE
  5
4C5
330
1F
100
AcDbEntity
  8
LAY-10
  6
CONTINUOUS
 62
     7
100
AcDbLine
 10
470.444660940706
 20
925.158369439639
 30
0.0
 11
505.800000000032
 21
960.5137084989651
 31
0.0
  0
LINE
  5
4C6
330
1F
100
AcDbEntity
  8
LAY-10
  6
CONTINUOUS
 62
     7
100
AcDbLine
 10
505.800000000032
 20
960.5137084989651
 30
0.0
 11
505.800000000032
 21
987.1999999999812
 31
0.0
  0
LINE
  5
4C7
330
1F
100
AcDbEntity
  8
LAY-10
  6
CONTINUOUS
 62
     7
100
AcDbLine
 10
505.800000000032
 20
987.1999999999812
 30
0.0
 11
513.800000000032
 21
987.1999999999812
 31
0.0
  0
ARC
  5
4C8
330
1F
100
AcDbEntity
  8
LAY-10
  6
CONTINUOUS
 62
     7
100
AcDbCircle
 10
505.800000000032
 20
960.5137084989651
 30
0.0
 40
8.0
100
AcDbArc
 50
315.0000000000102
 51
0.0
  0
LINE
  5
4C9
330
1F
100
AcDbEntity
  8
LAY-10
  6
CONTINUOUS
 62
     7
100
AcDbLine
 10
1843.898484809864
 20
919.5015151901466
 30
0.0
 11
1808.543145750536
 21
954.8568542494736
 31
0.0
  0
LINE
  5
4CA
330
1F
100
AcDbEntity
  8
LAY-10
  6
CONTINUOUS
 62
     7
100
AcDbLine
 10
1849.555339059356
 20
925.158369439639
 30
0.0
 11
1814.20000000003
 21
960.5137084989651
 31
0.0
  0
LINE
  5
4CB
330
1F
100
AcDbEntity
  8
LAY-10
  6
CONTINUOUS
 62
     7
100
AcDbLine
 10
1843.898484809864
 20
919.5015151901466
 30
0.0
 11
1849.555339059356
 21
925.158369439639
 31
0.0
  0
LINE
  5
4CC
330
1F
100
AcDbEntity
  8
LAY-10
  6
CONTINUOUS
 62
     7
100
AcDbLine
 10
1814.20000000003
 20
960.5137084989651
 30
0.0
 11
1814.20000000003
 21
987.1999999999804
 31
0.0
  0
LINE
  5
4CD
330
1F
100
AcDbEntity
  8
LAY-10
  6
CONTINUOUS
 62
     7
100
AcDbLine
 10
1814.20000000003
 20
987.1999999999804
 30
0.0
 11
1806.20000000003
 21
987.1999999999804
 31
0.0
  0
ARC
  5
4CE
330
1F
100
AcDbEntity
  8
LAY-10
  6
CONTINUOUS
 62
     7
100
AcDbCircle
 10
1814.20000000003
 20
960.5137084989651
 30
0.0
 40
8.0
100
AcDbArc
 50
180.0
 51
224.9999999999978
  0
ARC
  5
4CF
330
1F
100
AcDbEntity
  8
LAY-10
  6
CONTINUOUS
 62
     7
100
AcDbCircle
 10
1334.500000000059
 20
962.6999999999896
 30
0.0
 40
2.0
100
AcDbArc
 50
90.00000000000001
 51
180.0
  0
ARC
  5
4D0
330
1F
100
AcDbEntity
  8
LAY-10
  6
CONTINUOUS
 62
     7
100
AcDbCircle
 10
1371.500000000058
 20
999.6999999999895
 30
0.0
 40
2.0
100
AcDbArc
 50
90.00000000000001
 51
180.0
  0
ARC
  5
4D1
330
1F
100
AcDbEntity
  8
LAY-10
  6
CONTINUOUS
 62
     7
100
AcDbCircle
 10
1365.000000000058
 20
969.1999999999895
 30
0.0
 40
4.5
100
AcDbArc
 50
270.0
 51
0.0
  0
LINE
  5
4D2
330
1F
100
AcDbEntity
  8
LAY-10
  6
CONTINUOUS
 62
     7
100
AcDbLine
 10
1369.50000000006
 20
969.1999999999895
 30
0.0
 11
1369.50000000006
 21
999.6999999999895
 31
0.0
  0
LINE
  5
4D3
330
1F
100
AcDbEntity
  8
LAY-10
  6
CONTINUOUS
 62
     7
100
AcDbLine
 10
1332.500000000058
 20
961.6999999999895
 30
0.0
 11
1332.500000000058
 21
962.6999999999896
 31
0.0
  0
LINE
  5
4D4
330
1F
100
AcDbEntity
  8
LAY-10
  6
CONTINUOUS
 62
     7
100
AcDbLine
 10
1372.500000000058
 20
961.6999999999895
 30
0.0
 11
1372.500000000058
 21
1006.19999999998
 31
0.0
  0
ARC
  5
4D5
330
1F
100
AcDbEntity
  8
LAY-10
  6
CONTINUOUS
 62
     7
100
AcDbCircle
 10
985.4999999999919
 20
962.6999999999896
 30
0.0
 40
2.0
100
AcDbArc
 50
0.0
 51
90.00000000000001
  0
ARC
  5
4D6
330
1F
100
AcDbEntity
  8
LAY-10
  6
CONTINUOUS
 62
     7
100
AcDbCircle
 10
948.4999999999924
 20
999.6999999999896
 30
0.0
 40
2.0
100
AcDbArc
 50
0.0
 51
90.00000000000001
  0
ARC
  5
4D7
330
1F
100
AcDbEntity
  8
LAY-10
  6
CONTINUOUS
 62
     7
100
AcDbCircle
 10
954.9999999999922
 20
969.1999999999896
 30
0.0
 40
4.5
100
AcDbArc
 50
180.0
 51
270.0
  0
LINE
  5
4D8
330
1F
100
AcDbEntity
  8
LAY-10
  6
CONTINUOUS
 62
     7
100
AcDbLine
 10
950.4999999999912
 20
969.1999999999896
 30
0.0
 11
950.4999999999916
 21
999.6999999999896
 31
0.0
  0
LINE
  5
4D9
330
1F
100
AcDbEntity
  8
LAY-10
  6
CONTINUOUS
 62
     7
100
AcDbLine
 10
987.4999999999933
 20
961.6999999999896
 30
0.0
 11
987.4999999999933
 21
962.6999999999896
 31
0.0
  0
LINE
  5
4DA
330
1F
100
AcDbEntity
  8
LAY-10
  6
CONTINUOUS
 62
     7
100
AcDbLine
 10
947.4999999999922
 20
961.6999999999896
 30
0.0
 11
947.4999999999922
 21
1006.19999999998
 31
0.0
  0
LINE
  5
4DB
330
1F
100
AcDbEntity
  8
LAY-10
  6
CONTINUOUS
 62
     7
100
AcDbLine
 10
954.999999999981
 20
964.699999999985
 30
0.0
 11
1365.000000000031
 21
964.6999999999849
 31
0.0
  0
LINE
  5
4DC
330
1F
100
AcDbEntity
  8
LAY-10
  6
CONTINUOUS
 62
     7
100
AcDbLine
 10
1372.50000000004
 20
1001.69999999998
 30
0.0
 11
947.5000000000297
 21
1001.69999999998
 31
0.0
  0
LINE
  5
4DD
330
1F
100
AcDbEntity
  8
LAY-10
  6
CONTINUOUS
 62
     7
100
AcDbLine
 10
947.5000000000297
 20
1006.19999999998
 30
0.0
 11
1372.50000000004
 21
1006.19999999998
 31
0.0
  0
LINE
  5
4DE
330
1F
100
AcDbEntity
  8
LAY-10
  6
CONTINUOUS
 62
     7
100
AcDbLine
 10
517.0000000000327
 20
961.69999999999
 30
0.0
 11
1803.000000000029
 21
961.6999999999902
 31
0.0
  0
LINE
  5
4DF
330
1F
100
AcDbEntity
  8
LAY-10
  6
CONTINUOUS
 62
     7
100
AcDbLine
 10
1803.000000000029
 20
959.69999999999
 30
0.0
 11
517.0000000000327
 21
959.6999999999898
 31
0.0
  0
ARC
  5
4E0
330
1F
100
AcDbEntity
  8
LAY-10
  6
CONTINUOUS
 62
     7
100
AcDbCircle
 10
908.0000000000487
 20
962.6999999999896
 30
0.0
 40
2.0
100
AcDbArc
 50
90.00000000000001
 51
180.0
  0
ARC
  5
4E1
330
1F
100
AcDbEntity
  8
LAY-10
  6
CONTINUOUS
 62
     7
100
AcDbCircle
 10
945.0000000000484
 20
999.6999999999895
 30
0.0
 40
2.0
100
AcDbArc
 50
90.00000000000001
 51
180.0
  0
ARC
  5
4E2
330
1F
100
AcDbEntity
  8
LAY-10
  6
CONTINUOUS
 62
     7
100
AcDbCircle
 10
938.5000000000485
 20
969.1999999999895
 30
0.0
 40
4.5
100
AcDbArc
 50
270.0
 51
0.0
  0
LINE
  5
4E3
330
1F
100
AcDbEntity
  8
LAY-10
  6
CONTINUOUS
 62
     7
100
AcDbLine
 10
943.0000000000496
 20
969.1999999999895
 30
0.0
 11
943.0000000000496
 21
999.6999999999895
 31
0.0
  0
LINE
  5
4E4
330
1F
100
AcDbEntity
  8
LAY-10
  6
CONTINUOUS
 62
     7
100
AcDbLine
 10
906.0000000000475
 20
961.6999999999895
 30
0.0
 11
906.0000000000475
 21
962.6999999999896
 31
0.0
  0
LINE
  5
4E5
330
1F
100
AcDbEntity
  8
LAY-10
  6
CONTINUOUS
 62
     7
100
AcDbLine
 10
946.0000000000485
 20
961.6999999999895
 30
0.0
 11
946.0000000000485
 21
1006.19999999998
 31
0.0
  0
ARC
  5
4E6
330
1F
100
AcDbEntity
  8
LAY-10
  6
CONTINUOUS
 62
     7
100
AcDbCircle
 10
558.9999999999819
 20
962.6999999999896
 30
0.0
 40
2.0
100
AcDbArc
 50
0.0
 51
90.00000000000001
  0
ARC
  5
4E7
330
1F
100
AcDbEntity
  8
LAY-10
  6
CONTINUOUS
 62
     7
100
AcDbCircle
 10
521.9999999999824
 20
999.6999999999896
 30
0.0
 40
2.0
100
AcDbArc
 50
0.0
 51
90.00000000000001
  0
ARC
  5
4E8
330
1F
100
AcDbEntity
  8
LAY-10
  6
CONTINUOUS
 62
     7
100
AcDbCircle
 10
528.4999999999822
 20
969.1999999999896
 30
0.0
 40
4.5
100
AcDbArc
 50
180.0
 51
270.0
  0
LINE
  5
4E9
330
1F
100
AcDbEntity
  8
LAY-10
  6
CONTINUOUS
 62
     7
100
AcDbLine
 10
523.9999999999812
 20
969.1999999999896
 30
0.0
 11
523.9999999999816
 21
999.6999999999896
 31
0.0
  0
LINE
  5
4EA
330
1F
100
AcDbEntity
  8
LAY-10
  6
CONTINUOUS
 62
     7
100
AcDbLine
 10
560.9999999999833
 20
961.6999999999896
 30
0.0
 11
560.9999999999833
 21
962.6999999999896
 31
0.0
  0
LINE
  5
4EB
330
1F
100
AcDbEntity
  8
LAY-10
  6
CONTINUOUS
 62
     7
100
AcDbLine
 10
520.9999999999822
 20
961.6999999999896
 30
0.0
 11
520.9999999999822
 21
1006.19999999998
 31
0.0
  0
LINE
  5
4EC
330
1F
100
AcDbEntity
  8
LAY-10
  6
CONTINUOUS
 62
     7
100
AcDbLine
 10
528.499999999971
 20
964.699999999985
 30
0.0
 11
938.5000000000213
 21
964.6999999999849
 31
0.0
  0
LINE
  5
4ED
330
1F
100
AcDbEntity
  8
LAY-10
  6
CONTINUOUS
 62
     7
100
AcDbLine
 10
946.0000000000304
 20
1001.69999999998
 30
0.0
 11
521.0000000000197
 21
1001.69999999998
 31
0.0
  0
LINE
  5
4EE
330
1F
100
AcDbEntity
  8
LAY-10
  6
CONTINUOUS
 62
     7
100
AcDbLine
 10
521.0000000000197
 20
1006.19999999998
 30
0.0
 11
946.0000000000304
 21
1006.19999999998
 31
0.0
  0
ARC
  5
4EF
330
1F
100
AcDbEntity
  8
LAY-10
  6
CONTINUOUS
 62
     7
100
AcDbCircle
 10
1761.000000000059
 20
962.6999999999896
 30
0.0
 40
2.0
100
AcDbArc
 50
90.00000000000001
 51
180.0
  0
ARC
  5
4F0
330
1F
100
AcDbEntity
  8
LAY-10
  6
CONTINUOUS
 62
     7
100
AcDbCircle
 10
1798.000000000059
 20
999.6999999999895
 30
0.0
 40
2.0
100
AcDbArc
 50
90.00000000000001
 51
180.0
  0
ARC
  5
4F1
330
1F
100
AcDbEntity
  8
LAY-10
  6
CONTINUOUS
 62
     7
100
AcDbCircle
 10
1791.500000000058
 20
969.1999999999895
 30
0.0
 40
4.5
100
AcDbArc
 50
270.0
 51
0.0
  0
LINE
  5
4F2
330
1F
100
AcDbEntity
  8
LAY-10
  6
CONTINUOUS
 62
     7
100
AcDbLine
 10
1796.00000000006
 20
969.1999999999895
 30
0.0
 11
1796.00000000006
 21
999.6999999999895
 31
0.0
  0
LINE
  5
4F3
330
1F
100
AcDbEntity
  8
LAY-10
  6
CONTINUOUS
 62
     7
100
AcDbLine
 10
1759.000000000058
 20
961.6999999999895
 30
0.0
 11
1759.000000000058
 21
962.6999999999896
 31
0.0
  0
LINE
  5
4F4
330
1F
100
AcDbEntity
  8
LAY-10
  6
CONTINUOUS
 62
     7
100
AcDbLine
 10
1799.000000000058
 20
961.6999999999895
 30
0.0
 11
1799.000000000058
 21
1006.19999999998
 31
0.0
  0
ARC
  5
4F5
330
1F
100
AcDbEntity
  8
LAY-10
  6
CONTINUOUS
 62
     7
100
AcDbCircle
 10
1411.999999999992
 20
962.6999999999896
 30
0.0
 40
2.0
100
AcDbArc
 50
0.0
 51
90.00000000000001
  0
ARC
  5
4F6
330
1F
100
AcDbEntity
  8
LAY-10
  6
CONTINUOUS
 62
     7
100
AcDbCircle
 10
1374.999999999992
 20
999.6999999999896
 30
0.0
 40
2.0
100
AcDbArc
 50
0.0
 51
90.00000000000001
  0
ARC
  5
4F7
330
1F
100
AcDbEntity
  8
LAY-10
  6
CONTINUOUS
 62
     7
100
AcDbCircle
 10
1381.499999999992
 20
969.1999999999896
 30
0.0
 40
4.5
100
AcDbArc
 50
180.0
 51
270.0
  0
LINE
  5
4F8
330
1F
100
AcDbEntity
  8
LAY-10
  6
CONTINUOUS
 62
     7
100
AcDbLine
 10
1376.999999999991
 20
969.1999999999896
 30
0.0
 11
1376.999999999992
 21
999.6999999999896
 31
0.0
  0
LINE
  5
4F9
330
1F
100
AcDbEntity
  8
LAY-10
  6
CONTINUOUS
 62
     7
100
AcDbLine
 10
1413.999999999993
 20
961.6999999999896
 30
0.0
 11
1413.999999999993
 21
962.6999999999896
 31
0.0
  0
LINE
  5
4FA
330
1F
100
AcDbEntity
  8
LAY-10
  6
CONTINUOUS
 62
     7
100
AcDbLine
 10
1373.999999999992
 20
961.6999999999896
 30
0.0
 11
1373.999999999992
 21
1006.19999999998
 31
0.0
  0
LINE
  5
4FB
330
1F
100
AcDbEntity
  8
LAY-10
  6
CONTINUOUS
 62
     7
100
AcDbLine
 10
1381.499999999981
 20
964.699999999985
 30
0.0
 11
1791.500000000031
 21
964.6999999999849
 31
0.0
  0
LINE
  5
4FC
330
1F
100
AcDbEntity
  8
LAY-10
  6
CONTINUOUS
 62
     7
100
AcDbLine
 10
1799.00000000004
 20
1001.69999999998
 30
0.0
 11
1374.00000000003
 21
1001.69999999998
 31
0.0
  0
LINE
  5
4FD
330
1F
100
AcDbEntity
  8
LAY-10
  6
CONTINUOUS
 62
     7
100
AcDbLine
 10
1374.00000000003
 20
1006.19999999998
 30
0.0
 11
1799.00000000004
 21
1006.19999999998
 31
0.0
  0
ARC
  5
4FE
330
1F
100
AcDbEntity
  8
LAY-10
  6
CONTINUOUS
 62
     7
100
AcDbCircle
 10
2293.800000000075
 20
1496.100000000018
 30
0.0
 40
2.0
100
AcDbArc
 50
0.0
 51
90.00000000000001
  0
LINE
  5
4FF
330
1F
100
AcDbEntity
  8
LAY-10
  6
CONTINUOUS
 62
     7
100
AcDbLine
 10
2292.800000000075
 20
1498.100000000018
 30
0.0
 11
2293.800000000075
 21
1498.100000000018
 31
0.0
  0
LINE
  5
500
330
1F
100
AcDbEntity
  8
LAY-10
  6
CENTER
 62
     2
100
AcDbLine
 10
1160.00000000008
 20
1322.201515190156
 30
0.0
 11
1160.00000000008
 21
2193.998484809856
 31
0.0
  0
LINE
  5
501
330
1F
100
AcDbEntity
  8
LAY-10
  6
CENTER
 62
     2
100
AcDbLine
 10
1060.000000000129
 20
1414.954316770604
 30
0.0
 11
1060.000000000129
 21
1373.154316770605
 31
0.0
  0
LINE
  5
502
330
1F
100
AcDbEntity
  8
LAY-10
  6
CENTER
 62
     2
100
AcDbLine
 10
461.1015151902302
 20
1758.100000000005
 30
0.0
 11
1858.89848481003
 21
1758.100000000005
 31
0.0
  0
LINE
  5
503
330
1F
100
AcDbEntity
  8
LAY-10
  6
CENTER
 62
     2
100
AcDbLine
 10
505.0000000001819
 20
1508.099999999895
 30
0.0
 11
463.2000000001827
 21
1508.099999999895
 31
0.0
  0
LINE
  5
504
330
1F
100
AcDbEntity
  8
LAY-10
  6
CENTER
 62
     2
100
AcDbLine
 10
505.0000000001819
 20
2008.099999999857
 30
0.0
 11
463.2000000001827
 21
2008.099999999857
 31
0.0
  0
LINE
  5
505
330
1F
100
AcDbEntity
  8
LAY-10
  6
CENTER
 62
     2
100
AcDbLine
 10
660.0000000001091
 20
2150.100000000023
 30
0.0
 11
660.0000000001091
 21
2191.900000000022
 31
0.0
  0
LINE
  5
506
330
1F
100
AcDbEntity
  8
LAY-10
  6
CENTER
 62
     2
100
AcDbLine
 10
1660.000000000051
 20
2150.100000000023
 30
0.0
 11
1660.000000000051
 21
2191.900000000022
 31
0.0
  0
LINE
  5
507
330
1F
100
AcDbEntity
  8
LAY-10
  6
CENTER
 62
     2
100
AcDbLine
 10
1814.999999999978
 20
2008.099999999857
 30
0.0
 11
1856.799999999977
 21
2008.099999999857
 31
0.0
  0
LINE
  5
508
330
1F
100
AcDbEntity
  8
LAY-10
  6
CENTER
 62
     2
100
AcDbLine
 10
1814.999999999978
 20
1508.099999999895
 30
0.0
 11
1856.799999999977
 21
1508.099999999895
 31
0.0
  0
LINE
  5
509
330
1F
100
AcDbEntity
  8
LAY-10
  6
CENTER
 62
     2
100
AcDbLine
 10
1660.000000000051
 20
1366.099999999827
 30
0.0
 11
1660.000000000051
 21
1324.299999999827
 31
0.0
  0
LINE
  5
50A
330
1F
100
AcDbEntity
  8
LAY-10
  6
CENTER
 62
     2
100
AcDbLine
 10
660.0000000001091
 20
1366.099999999827
 30
0.0
 11
660.0000000001091
 21
1324.299999999827
 31
0.0
  0
LINE
  5
50B
330
1F
100
AcDbEntity
  8
LAY-10
  6
CENTER
 62
     2
100
AcDbLine
 10
1353.333333333554
 20
1433.09999999981
 30
0.0
 11
1385.333333333552
 21
1433.099999999809
 31
0.0
  0
LINE
  5
50C
330
1F
100
AcDbEntity
  8
LAY-10
  6
CENTER
 62
     2
100
AcDbLine
 10
1368.333333333554
 20
1419.699999999809
 30
0.0
 11
1368.333333333554
 21
1448.099999999809
 31
0.0
  0
LINE
  5
50D
330
1F
100
AcDbEntity
  8
LAY-10
  6
CENTER
 62
     2
100
AcDbLine
 10
1798.40000000018
 20
1433.099999999881
 30
0.0
 11
1770.000000000178
 21
1433.099999999881
 31
0.0
  0
LINE
  5
50E
330
1F
100
AcDbEntity
  8
LAY-10
  6
CENTER
 62
     2
100
AcDbLine
 10
1785.000000000178
 20
1418.099999999881
 30
0.0
 11
1785.000000000178
 21
1450.09999999988
 31
0.0
  0
LINE
  5
50F
330
1F
100
AcDbEntity
  8
LAY-10
  6
CENTER
 62
     2
100
AcDbLine
 10
1785.000000000109
 20
1771.499999999854
 30
0.0
 11
1785.000000000109
 21
1743.099999999855
 31
0.0
  0
LINE
  5
510
330
1F
100
AcDbEntity
  8
LAY-10
  6
CENTER
 62
     2
100
AcDbLine
 10
1785.000000000106
 20
2096.499999999905
 30
0.0
 11
1785.000000000106
 21
2068.099999999905
 31
0.0
  0
LINE
  5
511
330
1F
100
AcDbEntity
  8
LAY-10
  6
CENTER
 62
     2
100
AcDbLine
 10
1800.000000000106
 20
2083.099999999904
 30
0.0
 11
1768.000000000106
 21
2083.099999999905
 31
0.0
  0
LINE
  5
512
330
1F
100
AcDbEntity
  8
LAY-10
  6
CENTER
 62
     2
100
AcDbLine
 10
1353.333333333554
 20
2083.1000000002
 30
0.0
 11
1385.333333333552
 21
2083.100000000201
 31
0.0
  0
LINE
  5
513
330
1F
100
AcDbEntity
  8
LAY-10
  6
CENTER
 62
     2
100
AcDbLine
 10
1368.333333333554
 20
2096.500000000201
 30
0.0
 11
1368.333333333554
 21
2068.100000000201
 31
0.0
  0
LINE
  5
514
330
1F
100
AcDbEntity
  8
LAY-10
  6
CENTER
 62
     2
100
AcDbLine
 10
2184.901515190242
 20
1758.100000000018
 30
0.0
 11
2353.701515190241
 21
1758.100000000018
 31
0.0
  0
LINE
  5
515
330
1F
100
AcDbEntity
  8
LAY-10
  6
CENTER
 62
     2
100
AcDbLine
 10
2266.901515190236
 20
1433.100000000015
 30
0.0
 11
2318.10151519024
 21
1433.100000000015
 31
0.0
  0
LINE
  5
516
330
1F
100
AcDbEntity
  8
LAY-10
  6
CENTER
 62
     2
100
AcDbLine
 10
2285.700000000075
 20
1371.800000000017
 30
0.0
 11
2285.700000000075
 21
1420.300000000016
 31
0.0
  0
LINE
  5
517
330
1F
100
AcDbEntity
  8
LAY-10
  6
CENTER
 62
     2
100
AcDbLine
 10
2266.901515190236
 20
2083.100000000018
 30
0.0
 11
2318.10151519024
 21
2083.100000000018
 31
0.0
  0
LINE
  5
518
330
1F
100
AcDbEntity
  8
LAY-10
  6
CENTER
 62
     2
100
AcDbLine
 10
2285.700000000075
 20
2144.400000000013
 30
0.0
 11
2285.700000000075
 21
2095.900000000017
 31
0.0
  0
LINE
  5
519
330
1F
100
AcDbEntity
  8
LAY-10
  6
CENTER
 62
     2
100
AcDbLine
 10
1785.000000000029
 20
950.4000000000042
 30
0.0
 11
1785.000000000029
 21
903.3300000000045
 31
0.0
  0
LINE
  5
51A
330
1F
100
AcDbEntity
  8
LAY-10
  6
CENTER
 62
     2
100
AcDbLine
 10
535.0000000000327
 20
950.4000000000042
 30
0.0
 11
535.0000000000327
 21
903.3300000000045
 31
0.0
  0
LINE
  5
51B
330
1F
100
AcDbEntity
  8
LAY-10
  6
CENTER
 62
     2
100
AcDbLine
 10
1160.000000000031
 20
1040.200000000003
 30
0.0
 11
1160.000000000031
 21
871.4000000000042
 31
0.0
  0
LINE
  5
51C
330
1F
100
AcDbEntity
  8
LAY-10
  6
CENTER
 62
     2
100
AcDbLine
 10
714.8083333334696
 20
2109.099999999938
 30
0.0
 11
752.3083333334696
 21
2109.099999999938
 31
0.0
  0
LINE
  5
51D
330
1F
100
AcDbEntity
  8
LAY-10
  6
CENTER
 62
     2
100
AcDbLine
 10
733.3333333334697
 20
2125.1974596215
 30
0.0
 11
733.3333333334697
 21
2088.79999999994
 31
0.0
  0
LINE
  5
51E
330
1F
100
AcDbEntity
  8
LAY-10
  6
CENTER
 62
     2
100
AcDbLine
 10
1141.47500000014
 20
2109.099999999938
 30
0.0
 11
1178.97500000014
 21
2109.099999999938
 31
0.0
  0
LINE
  5
51F
330
1F
100
AcDbEntity
  8
LAY-10
  6
CENTER
 62
     2
100
AcDbLine
 10
751.8583333334507
 20
1407.099999999862
 30
0.0
 11
714.3583333334507
 21
1407.099999999862
 31
0.0
  0
LINE
  5
520
330
1F
100
AcDbEntity
  8
LAY-10
  6
CENTER
 62
     2
100
AcDbLine
 10
733.3333333334506
 20
1391.0025403783
 30
0.0
 11
733.3333333334506
 21
1427.399999999859
 31
0.0
  0
DIMENSION
  5
521
330
1F
100
AcDbEntity
  8
LAY-20
  6
CONTINUOUS
 62
     4
100
AcDbDimension
  2
*D23
 10
513.80000000003
 20
716.1999999999998
 30
0.0
 11
1160.000000000015
 21
741.1999999999998
 31
0.0
 70
   160
  3
ISO-25
100
AcDbAlignedDimension
 13
1806.2
 23
919.2000000000003
 33
0.0
 14
513.80000000003
 24
919.2000000000003
 34
0.0
100
AcDbRotatedDimension
1001
ACAD
1000
DSTYLE
1002
{
1070
   270
1070
     2
1070
     6
1000
EX_BNORM
1070
     7
1000
EX_BNORM
1070
    41
1040
25.0
1070
    42
1040
15.0
1070
    44
1040
15.0
1070
    73
1070
     0
1070
    74
1070
     0
1070
    75
1070
     0
1070
    76
1070
     0
1070
    77
1070
     1
1070
    78
1070
     0
1070
   140
1040
31.181104
1070
   147
1040
0.0
1070
   173
1070
     1
1070
   176
1070
     4
1070
   177
1070
     4
1070
   178
1070
     7
1070
   271
1070
     0
1070
   277
1070
     2
1070
   279
1070
     2
1070
   280
1070
     0
1070
   287
1070
     5
1070
   340
1005
1AE
1002
}
  0
DIMENSION
  5
52E
330
1F
100
AcDbEntity
  8
LAY-20
  6
CONTINUOUS
 62
     4
100
AcDbDimension
  2
*D24
 10
2045.0000000001
 20
1366.099999999999
 30
0.0
 11
2020.0000000001
 21
1758.099999999999
 31
0.0
 70
   160
  3
ISO-25
100
AcDbAlignedDimension
 13
2215.0000000001
 23
2150.099999999999
 33
0.0
 14
2215.0000000001
 24
1366.099999999999
 34
0.0
 50
90.0
100
AcDbRotatedDimension
1001
ACAD
1000
DSTYLE
1002
{
1070
   270
1070
     2
1070
     6
1000
EX_BNORM
1070
     7
1000
EX_BNORM
1070
    41
1040
25.0
1070
    42
1040
15.0
1070
    44
1040
15.0
1070
    73
1070
     0
1070
    74
1070
     0
1070
    75
1070
     0
1070
    76
1070
     0
1070
    77
1070
     1
1070
    78
1070
     8
1070
   140
1040
31.181104
1070
   147
1040
0.0
1070
   173
1070
     1
1070
   176
1070
     4
1070
   177
1070
     4
1070
   178
1070
     7
1070
   271
1070
     1
1070
   277
1070
     2
1070
   279
1070
     2
1070
   280
1070
     0
1070
   287
1070
     5
1070
   340
1005
1AE
1002
}
  0
DIMENSION
  5
53B
330
1F
100
AcDbEntity
  8
LAY-20
  6
CONTINUOUS
 62
     4
100
AcDbDimension
  2
*D25
 10
2115.0000000001
 20
2134.100000000018
 30
0.0
 11
2090.0000000001
 21
1758.100000000017
 31
0.0
 70
   160
  3
ISO-25
100
AcDbAlignedDimension
 13
2215.000000000078
 23
1382.100000000015
 33
0.0
 14
2215.000000000078
 24
2134.100000000018
 34
0.0
 50
90.0
100
AcDbRotatedDimension
1001
ACAD
1000
DSTYLE
1002
{
1070
   270
1070
     2
1070
     6
1000
EX_BNORM
1070
     7
1000
EX_BNORM
1070
    41
1040
25.0
1070
    42
1040
15.0
1070
    44
1040
15.0
1070
    73
1070
     0
1070
    74
1070
     0
1070
    75
1070
     0
1070
    76
1070
     0
1070
    77
1070
     1
1070
    78
1070
     8
1070
   140
1040
31.181104
1070
   147
1040
0.0
1070
   173
1070
     1
1070
   176
1070
     4
1070
   177
1070
     4
1070
   178
1070
     7
1070
   271
1070
     1
1070
   277
1070
     2
1070
   279
1070
     2
1070
   280
1070
     0
1070
   287
1070
     5
1070
   340
1005
1AE
1002
}
  0
DIMENSION
  5
548
330
1F
100
AcDbEntity
  8
LAY-20
  6
CONTINUOUS
 62
     4
100
AcDbDimension
  2
*D26
 10
2435.0000000001
 20
1458.099999999999
 30
0.0
 11
2410.0000000001
 21
1758.099999999949
 31
0.0
 70
   160
  3
ISO-25
100
AcDbAlignedDimension
 13
2335.0000000001
 23
2058.099999999899
 33
0.0
 14
2335.0000000001
 24
1458.099999999999
 34
0.0
 50
90.0
100
AcDbRotatedDimension
1001
ACAD
1000
DSTYLE
1002
{
1070
   270
1070
     2
1070
     6
1000
EX_BNORM
1070
     7
1000
EX_BNORM
1070
    41
1040
25.0
1070
    42
1040
15.0
1070
    44
1040
15.0
1070
    73
1070
     0
1070
    74
1070
     0
1070
    75
1070
     0
1070
    76
1070
     0
1070
    77
1070
     1
1070
    78
1070
     8
1070
   140
1040
31.181104
1070
   147
1040
0.0
1070
   173
1070
     1
1070
   176
1070
     4
1070
   177
1070
     4
1070
   178
1070
     7
1070
   271
1070
     1
1070
   277
1070
     2
1070
   279
1070
     2
1070
   280
1070
     0
1070
   287
1070
     5
1070
   340
1005
1AE
1002
}
  0
DIMENSION
  5
555
330
1F
100
AcDbEntity
  8
LAY-20
  6
CONTINUOUS
 62
     4
100
AcDbDimension
  2
*D27
 10
2505.000000000101
 20
1374.9
 30
0.0
 11
2480.000000000101
 21
1758.099999999999
 31
0.0
 70
   160
  3
ISO-25
100
AcDbAlignedDimension
 13
2258.7000000001
 23
2141.299999999999
 33
0.0
 14
2258.7000000001
 24
1374.9
 34
0.0
 50
90.0
100
AcDbRotatedDimension
1001
ACAD
1000
DSTYLE
1002
{
1070
   270
1070
     2
1070
     6
1000
EX_BNORM
1070
     7
1000
EX_BNORM
1070
    41
1040
25.0
1070
    42
1040
15.0
1070
    44
1040
15.0
1070
    73
1070
     0
1070
    74
1070
     0
1070
    75
1070
     0
1070
    76
1070
     0
1070
    77
1070
     1
1070
    78
1070
     0
1070
   140
1040
31.181104
1070
   147
1040
0.0
1070
   173
1070
     1
1070
   176
1070
     4
1070
   177
1070
     4
1070
   178
1070
     7
1070
   271
1070
     0
1070
   277
1070
     2
1070
   279
1070
     2
1070
   280
1070
     0
1070
   287
1070
     5
1070
   340
1005
1AE
1002
}
  0
DIMENSION
  5
562
330
1F
100
AcDbEntity
  8
LAY-20
  6
CONTINUOUS
 62
     4
100
AcDbDimension
  2
*D28
 10
1292.0
 20
1006.2
 30
0.0
 11
1267.0
 21
1071.2
 31
0.0
 70
   160
  3
ISO-25
100
AcDbAlignedDimension
 13
1292.0
 23
1001.7
 33
0.0
 14
1292.0
 24
1006.2
 34
0.0
 50
90.0
100
AcDbRotatedDimension
1001
ACAD
1000
DSTYLE
1002
{
1070
   270
1070
     2
1070
     6
1000
EX_BNORM
1070
     7
1000
EX_BNORM
1070
    41
1040
25.0
1070
    42
1040
0.0
1070
    44
1040
0.0
1070
    73
1070
     0
1070
    74
1070
     0
1070
    75
1070
     1
1070
    76
1070
     1
1070
    77
1070
     1
1070
    78
1070
     8
1070
   140
1040
31.181104
1070
   147
1040
0.0
1070
   173
1070
     1
1070
   176
1070
     4
1070
   177
1070
     4
1070
   178
1070
     7
1070
   271
1070
     1
1070
   277
1070
     2
1070
   279
1070
     2
1070
   280
1070
     2
1070
   287
1070
     5
1070
   340
1005
1AE
1002
}
  0
LINE
  5
56F
330
1F
100
AcDbEntity
  8
LAY-255
  6
CONTINUOUS
 62
     7
100
AcDbLine
 10
3850.0
 20
219.9999999999999
 30
0.0
 11
2850.0
 21
219.9999999999999
 31
0.0
  0
LINE
  5
570
330
1F
100
AcDbEntity
  8
LAY-255
  6
CONTINUOUS
 62
     7
100
AcDbLine
 10
2888.0
 20
160.0
 30
0.0
 11
2968.0
 21
210.0
 31
0.0
  0
LINE
  5
571
330
1F
100
AcDbEntity
  8
LAY-255
  6
CONTINUOUS
 62
     7
100
AcDbLine
 10
2968.0
 20
210.0
 30
0.0
 11
3048.0
 21
160.0
 31
0.0
  0
LINE
  5
572
330
1F
100
AcDbEntity
  8
LAY-255
  6
CONTINUOUS
 62
     7
100
AcDbLine
 10
3048.0
 20
160.0
 30
0.0
 11
2968.0
 21
110.0
 31
0.0
  0
LINE
  5
573
330
1F
100
AcDbEntity
  8
LAY-255
  6
CONTINUOUS
 62
     7
100
AcDbLine
 10
2968.0
 20
110.0
 30
0.0
 11
2888.0
 21
160.0
 31
0.0
  0
LINE
  5
574
330
1F
100
AcDbEntity
  8
LAY-255
  6
CONTINUOUS
 62
     7
100
AcDbLine
 10
50.0
 20
100.0
 30
0.0
 11
3850.0
 21
100.0
 31
0.0
  0
LINE
  5
575
330
1F
100
AcDbEntity
  8
LAY-255
  6
CONTINUOUS
 62
     7
100
AcDbLine
 10
50.0
 20
2800.0
 30
0.0
 11
3850.0
 21
2800.0
 31
0.0
  0
LINE
  5
576
330
1F
100
AcDbEntity
  8
LAY-255
  6
CONTINUOUS
 62
     7
100
AcDbLine
 10
50.0
 20
100.0
 30
0.0
 11
50.0
 21
2800.0
 31
0.0
  0
LINE
  5
577
330
1F
100
AcDbEntity
  8
LAY-255
  6
CONTINUOUS
 62
     7
100
AcDbLine
 10
3850.0
 20
100.0
 30
0.0
 11
3850.0
 21
2800.0
 31
0.0
  0
LINE
  5
578
330
1F
100
AcDbEntity
  8
LAY-255
  6
CONTINUOUS
 62
     4
100
AcDbLine
 10
2850.0
 20
279.9999999999999
 30
0.0
 11
3850.0
 21
279.9999999999999
 31
0.0
  0
LINE
  5
579
330
1F
100
AcDbEntity
  8
LAY-255
  6
CONTINUOUS
 62
     7
100
AcDbLine
 10
2850.0
 20
100.0
 30
0.0
 11
2850.0
 21
670.0
 31
0.0
  0
POINT
  5
57A
330
1F
100
AcDbEntity
  8
LAY-255
  6
CONTINUOUS
 62
     7
100
AcDbPoint
 10
2890.0
 20
399.9999999999999
 30
0.0
  0
LINE
  5
57B
330
1F
100
AcDbEntity
  8
LAY-255
  6
CONTINUOUS
 62
     4
100
AcDbLine
 10
3350.0
 20
279.9999999999999
 30
0.0
 11
3350.0
 21
220.0
 31
0.0
  0
LINE
  5
57C
330
1F
100
AcDbEntity
  8
LAY-255
  6
CONTINUOUS
 62
     7
100
AcDbLine
 10
3850.0
 20
670.0
 30
0.0
 11
2850.0
 21
670.0
 31
0.0
  0
LINE
  5
57D
330
1F
100
AcDbEntity
  8
LAY-255
  6
CONTINUOUS
 62
     4
100
AcDbLine
 10
3830.0
 20
549.9999999999999
 30
0.0
 11
2870.0
 21
549.9999999999999
 31
0.0
  0
LINE
  5
57E
330
1F
100
AcDbEntity
  8
LAY-255
  6
CONTINUOUS
 62
     4
100
AcDbLine
 10
3830.0
 20
610.0
 30
0.0
 11
2870.0
 21
610.0
 31
0.0
  0
POINT
  5
57F
330
1F
100
AcDbEntity
  8
LAY-255
  6
CONTINUOUS
 62
     7
100
AcDbPoint
 10
2890.0
 20
499.9999999999999
 30
0.0
  0
POINT
  5
580
330
1F
100
AcDbEntity
  8
LAY-255
  6
CONTINUOUS
 62
     7
100
AcDbPoint
 10
3000.0
 20
559.9999999999999
 30
0.0
  0
POINT
  5
581
330
1F
100
AcDbEntity
  8
LAY-255
  6
CONTINUOUS
 62
     7
100
AcDbPoint
 10
3000.0
 20
620.0
 30
0.0
  0
POINT
  5
582
330
1F
100
AcDbEntity
  8
LAY-255
  6
CONTINUOUS
 62
     7
100
AcDbPoint
 10
2890.0
 20
349.9999999999999
 30
0.0
  0
POINT
  5
583
330
1F
100
AcDbEntity
  8
LAY-255
  6
CONTINUOUS
 62
     7
100
AcDbPoint
 10
2890.0
 20
449.9999999999999
 30
0.0
  0
POINT
  5
584
330
1F
100
AcDbEntity
  8
LAY-255
  6
CONTINUOUS
 62
     7
100
AcDbPoint
 10
2890.0
 20
299.9999999999998
 30
0.0
  0
TEXT
  5
585
330
1F
100
AcDbEntity
  8
LAY-255
  6
CONTINUOUS
 62
     7
100
AcDbText
 10
3081.3837890625
 20
155.4375
 30
0.0
 40
51.5625
  1
福西鋳物株式会社
 41
1.342691999659091
  7
EXCADSTD
100
AcDbText
  0
TEXT
  5
586
330
1F
100
AcDbEntity
  8
LAY-255
  6
CONTINUOUS
 62
     7
100
AcDbText
 10
3085.09375
 20
119.8125
 30
0.0
 40
17.1875
  1
ＦＵＫＵＮＩＳＨＩ
 41
1.204799226045263
  7
EXCADSTD
100
AcDbText
  0
TEXT
  5
587
330
1F
100
AcDbEntity
  8
LAY-255
  6
CONTINUOUS
 62
     7
100
AcDbText
 10
3327.191964285714
 20
119.8125
 30
0.0
 40
17.1875
  1
ＦＯＵＮＤＲＹ
 41
1.243252752978497
  7
EXCADSTD
100
AcDbText
  0
TEXT
  5
588
330
1F
100
AcDbEntity
  8
LAY-255
  6
CONTINUOUS
 62
     7
100
AcDbText
 10
3519.945914381009
 20
119.8125
 30
0.0
 40
17.1875
  1
ＣＯ.,ＬＴＤ.
 41
1.243831036226633
  7
EXCADSTD
100
AcDbText
  0
TEXT
  5
589
330
1F
100
AcDbEntity
  8
LAY-255
  6
CONTINUOUS
 62
     7
100
AcDbText
 10
2940.34375
 20
137.1875
 30
0.0
 40
51.5625
  1
S
 41
0.7582677563636363
  7
EXCADSTD
100
AcDbText
  0
TEXT
  5
58A
330
1F
100
AcDbEntity
  8
LAY-255
  6
CONTINUOUS
 62
     7
100
AcDbText
 10
2971.046875
 20
137.4941037736
 30
0.0
 40
51.5625
  1
F
 41
0.7440945272727272
  7
EXCADSTD
100
AcDbText
  0
TEXT
  5
58B
330
1F
100
AcDbEntity
  8
LAY-255
  6
CONTINUOUS
 62
     7
100
AcDbText
 10
3371.0546875
 20
244.2187499999999
 30
0.0
 40
25.78125
  1
縮尺
 41
1.080708718181818
  7
EXCADSTD
100
AcDbText
  0
TEXT
  5
58C
330
1F
100
AcDbEntity
  8
LAY-255
  6
CONTINUOUS
 62
     7
100
AcDbText
 10
2872.65625
 20
565.6249999999999
 30
0.0
 40
34.375
  1
型式
 41
1.056348480681818
  7
EXCADSTD
100
AcDbText
  0
TEXT
  5
58D
330
1F
100
AcDbEntity
  8
LAY-255
  6
CONTINUOUS
 62
     7
100
AcDbText
 10
2874.21875
 20
625.625
 30
0.0
 40
34.375
  1
品名
 41
0.9788386340909091
  7
EXCADSTD
100
AcDbText
  0
TEXT
  5
58E
330
1F
100
AcDbEntity
  8
LAY-255
  6
CONTINUOUS
 62
     7
100
AcDbText
 10
2871.5234375
 20
244.2187499999999
 30
0.0
 40
25.78125
  1
作成日
 41
1.000629973818182
  7
EXCADSTD
100
AcDbText
  0
TEXT
  5
58F
330
1F
100
AcDbEntity
  8
LAY-255
  6
CONTINUOUS
 62
     7
100
AcDbText
 10
2891.40625
 20
505.6249999999999
 30
0.0
 40
34.375
  1
材質：スチール
 41
1.029301719225037
  7
EXCADSTD
100
AcDbText
  0
TEXT
  5
590
330
1F
100
AcDbEntity
  8
LAY-255
  6
CONTINUOUS
 62
     7
100
AcDbText
 10
2892.03125
 20
405.6249999999999
 30
0.0
 40
34.375
  1
適用荷重：歩行用
 41
1.015410627012987
  7
EXCADSTD
100
AcDbText
  0
TEXT
  5
591
330
1F
100
AcDbEntity
  8
LAY-255
  6
CONTINUOUS
 62
     7
100
AcDbText
 10
2893.75
 20
455.6249999999999
 30
0.0
 40
34.375
  1
受枠目地：ステンレス鋼
 41
1.012216953889409
  7
EXCADSTD
100
AcDbText
  0
TEXT
  5
592
330
1F
100
AcDbEntity
  8
LAY-255
  6
CONTINUOUS
 62
     7
100
AcDbText
 10
3001.5625
 20
625.625
 30
0.0
 40
34.375
  1
縞鋼板製マシンハッチ
 41
1.016284949586777
  7
EXCADSTD
100
AcDbText
  0
TEXT
  5
593
330
1F
100
AcDbEntity
  8
LAY-255
  6
CONTINUOUS
 62
     7
100
AcDbText
 10
3008.90625
 20
235.6249999999999
 30
0.0
 40
34.375
  1
０９／０３／０６
 41
0.9779528072727273
  7
EXCADSTD
100
AcDbText
  0
TEXT
  5
594
330
1F
100
AcDbEntity
  8
LAY-255
  6
CONTINUOUS
 62
     7
100
AcDbText
 10
3007.5
 20
565.6249999999999
 30
0.0
 40
34.375
  1
ＳＦ－６０×１２０ＣＭＰ－１型
 41
1.005180326315789
  7
EXCADSTD
100
AcDbText
  0
TEXT
  5
595
330
1F
100
AcDbEntity
  8
LAY-255
  6
CONTINUOUS
 62
     7
100
AcDbText
 10
3482.8125
 20
235.6249999999999
 30
0.0
 40
34.375
  1
１：１０
 41
0.9243863385026738
  7
EXCADSTD
100
AcDbText
  0
ENDSEC
  0
SECTION
  2
OBJECTS
  0
DICTIONARY
  5
C
330
0
100
AcDbDictionary
  3
ACAD_GROUP
350
D
  3
ACAD_LAYOUT
350
1A
  3
ACAD_MATERIAL
350
43
  3
ACAD_MLEADERSTYLE
350
6B
  3
ACAD_MLINESTYLE
350
17
  3
ACAD_PLOTSETTINGS
350
19
  3
ACAD_SCALELIST
350
47
  3
ACAD_VISUALSTYLE
350
2A
  3
ACDBHEADERROUNDTRIPXREC
350
596
  3
ACDBVARIABLEDICTIONARY
350
5B7
  0
DICTIONARY
  5
5C2
330
8
100
AcDbDictionary
280
     1
  3
ACAD_XREC_ROUNDTRIP
360
5C3
  0
DICTIONARY
  5
D
102
{ACAD_REACTORS
330
C
102
}
330
C
100
AcDbDictionary
  0
DICTIONARY
  5
1A
102
{ACAD_REACTORS
330
C
102
}
330
C
100
AcDbDictionary
  0
DICTIONARY
  5
43
102
{ACAD_REACTORS
330
C
102
}
330
C
100
AcDbDictionary
  3
BYBLOCK
350
45
  3
BYLAYER
350
44
  3
GLOBAL
350
46
  0
DICTIONARY
  5
6B
102
{ACAD_REACTORS
330
C
102
}
330
C
100
AcDbDictionary
  3
STANDARD
350
6C
  0
DICTIONARY
  5
17
102
{ACAD_REACTORS
330
C
102
}
330
C
100
AcDbDictionary
  3
STANDARD
350
18
  0
DICTIONARY
  5
19
102
{ACAD_REACTORS
330
C
102
}
330
C
100
AcDbDictionary
  0
DICTIONARY
  5
47
102
{ACAD_REACTORS
330
C
102
}
330
C
100
AcDbDictionary
  3
A0
350
48
  3
A1
350
49
  3
A2
350
4A
  3
A3
350
4B
  3
A4
350
4C
  3
A5
350
4D
  3
A6
350
4E
  3
A7
350
4F
  3
A8
350
50
  3
A9
350
51
  3
B0
350
52
  3
B1
350
53
  3
B2
350
54
  3
B3
350
55
  3
B4
350
56
  3
B5
350
57
  3
B6
350
58
  3
B7
350
59
  3
B8
350
5A
  3
B9
350
5B
  3
C0
350
5C
  3
C1
350
5D
  3
C2
350
5E
  3
C3
350
5F
  3
C4
350
60
  3
C5
350
61
  3
C6
350
62
  3
C7
350
63
  3
C8
350
64
  3
C9
350
65
  3
D0
350
66
  3
D1
350
67
  3
D2
350
68
  0
DICTIONARY
  5
2A
102
{ACAD_REACTORS
330
C
102
}
330
C
100
AcDbDictionary
  3
2DWIREFRAME
350
2F
  3
BASIC
350
32
  3
BRIGHTEN
350
36
  3
COLORCHANGE
350
3A
  3
CONCEPTUAL
350
34
  3
DIM
350
35
  3
EDGECOLOROFF
350
3D
  3
FACEPATTERN
350
39
  3
FLAT
350
2B
  3
FLATWITHEDGES
350
2C
  3
GOURAUD
350
2D
  3
GOURAUDWITHEDGES
350
2E
  3
HIDDEN
350
31
  3
JITTEROFF
350
3B
  3
LINEPATTERN
350
38
  3
OVERHANGOFF
350
3C
  3
REALISTIC
350
33
  3
SHADED
350
42
  3
SHADED_WITH_EDGES
350
41
  3
SHADES_OF_GRAY
350
3E
  3
SKETCHY
350
3F
  3
THICKEN
350
37
  3
WIREFRAME
350
30
  3
X-RAY
350
40
  0
DICTIONARY
  5
596
102
{ACAD_REACTORS
330
C
102
}
330
C
100
AcDbDictionary
  3
CEPSNID
350
5A0
  3
CEPSNTYPE
350
59F
  3
DIMSTYLEDATA
350
5B6
  3
FINGERPRINTGUID
350
5A1
  3
HYPERLINKBASE
350
599
  3
INSUNITS
350
59E
  3
LAYOUTDICT
350
59B
  3
LWETCUNION
350
59D
  3
PLOTSETDICT
350
59C
  3
PSVPSCALE
350
5A3
  3
PUCSBASE
350
5A6
  3
PUCSORGBACK
350
5AC
  3
PUCSORGBOTTOM
350
5A8
  3
PUCSORGFRONT
350
5AB
  3
PUCSORGLEFT
350
5A9
  3
PUCSORGRIGHT
350
5AA
  3
PUCSORGTOP
350
5A7
  3
PUCSORTHOREF
350
5A4
  3
PUCSORTHOVIEW
350
5A5
  3
STYLESHEET
350
59A
  3
TSTACKALIGN
350
597
  3
TSTACKSIZE
350
598
  3
UCSBASE
350
5AF
  3
UCSORGBACK
350
5B5
  3
UCSORGBOTTOM
350
5B1
  3
UCSORGFRONT
350
5B4
  3
UCSORGLEFT
350
5B2
  3
UCSORGRIGHT
350
5B3
  3
UCSORGTOP
350
5B0
  3
UCSORTHOREF
350
5AD
  3
UCSORTHOVIEW
350
5AE
  3
VERSIONGUID
350
5A2
  0
DICTIONARY
  5
5B7
102
{ACAD_REACTORS
330
C
102
}
330
C
100
AcDbDictionary
  3
CANNOSCALE
350
5C4
  3
CENTEREXE
350
5BE
  3
CENTERLTYPEFILE
350
5BF
  3
CMLEADERSTYLE
350
5B9
  3
CTABLESTYLE
350
5B8
  3
DIMASSOC
350
5C0
  3
HIDETEXT
350
5C1
  3
MSLTSCALE
350
5C5
  3
PSOLHEIGHT
350
5BB
  3
PSOLWIDTH
350
5BA
  0
XRECORD
  5
5C3
102
{ACAD_REACTORS
330
5C2
102
}
330
5C2
100
AcDbXrecord
102
VTR_0.000_0.000_1.000_1.000_VISUALSTYLE
340
2F
102
VTR_0.000_0.000_1.000_1.000_GRIDDISPLAY
 70
     3
102
VTR_0.000_0.000_1.000_1.000_GRIDMAJOR
 70
     5
102
VTR_0.000_0.000_1.000_1.000_DEFAULTLIGHTING
280
     1
102
VTR_0.000_0.000_1.000_1.000_DEFAULTLIGHTINGTYPE
 70
     1
102
VTR_0.000_0.000_1.000_1.000_BRIGHTNESS
141
0.0
102
VTR_0.000_0.000_1.000_1.000_CONTRAST
142
0.0
  0
MATERIAL
  5
45
102
{ACAD_REACTORS
330
43
102
}
102
{ACAD_XDICTIONARY
360
5C8
102
}
330
43
100
AcDbMaterial
  1
BYBLOCK
  0
MATERIAL
  5
44
102
{ACAD_REACTORS
330
43
102
}
102
{ACAD_XDICTIONARY
360
5C6
102
}
330
43
100
AcDbMaterial
  1
BYLAYER
  0
MATERIAL
  5
46
102
{ACAD_REACTORS
330
43
102
}
102
{ACAD_XDICTIONARY
360
5CA
102
}
330
43
100
AcDbMaterial
  1
GLOBAL
  0
ACAD_PROXY_OBJECT
  5
6C
102
{ACAD_REACTORS
330
6B
102
}
330
6B
100
AcDbProxyObject
 90
      499
 91
      505
 93
      610
310
40901902A4063FBFFFFFE0000000000000020400000000000020404214DD185B99185C990000000000000104090141901A00000000000004100000000000000041025764000000000000039000
340
14
340
0
340
11
340
0
 94
        0
1001
ACAD_MLEADERVER
1070
     2
  0
MLINESTYLE
  5
18
102
{ACAD_REACTORS
330
17
102
}
330
17
100
AcDbMlineStyle
  2
Standard
 70
     0
  3

 62
   256
 51
90.0
 52
90.0
 71
     2
 49
0.5
 62
   256
  6
BYLAYER
 49
-0.5
 62
   256
  6
BYLAYER
  0
ACAD_PROXY_OBJECT
  5
48
102
{ACAD_REACTORS
330
47
102
}
330
47
100
AcDbProxyObject
 90
      499
 91
      503
 93
       41
310
903313A31580
  0
ACAD_PROXY_OBJECT
  5
49
102
{ACAD_REACTORS
330
47
102
}
330
47
100
AcDbProxyObject
 90
      499
 91
      503
 93
      105
310
903313A324000000000000004000
  0
ACAD_PROXY_OBJECT
  5
4A
102
{ACAD_REACTORS
330
47
102
}
330
47
100
AcDbProxyObject
 90
      499
 91
      503
 93
      105
310
903313A344000000000000104000
  0
ACAD_PROXY_OBJECT
  5
4B
102
{ACAD_REACTORS
330
47
102
}
330
47
100
AcDbProxyObject
 90
      499
 91
      503
 93
      105
310
903313A354000000000000144000
  0
ACAD_PROXY_OBJECT
  5
4C
102
{ACAD_REACTORS
330
47
102
}
330
47
100
AcDbProxyObject
 90
      499
 91
      503
 93
      105
310
903313A384000000000000204000
  0
ACAD_PROXY_OBJECT
  5
4D
102
{ACAD_REACTORS
330
47
102
}
330
47
100
AcDbProxyObject
 90
      499
 91
      503
 93
      113
310
904313A31304000000000000244000
  0
ACAD_PROXY_OBJECT
  5
4E
102
{ACAD_REACTORS
330
47
102
}
330
47
100
AcDbProxyObject
 90
      499
 91
      503
 93
      113
310
904313A31364000000000000304000
  0
ACAD_PROXY_OBJECT
  5
4F
102
{ACAD_REACTORS
330
47
102
}
330
47
100
AcDbProxyObject
 90
      499
 91
      503
 93
      113
310
904313A32304000000000000344000
  0
ACAD_PROXY_OBJECT
  5
50
102
{ACAD_REACTORS
330
47
102
}
330
47
100
AcDbProxyObject
 90
      499
 91
      503
 93
      113
310
904313A333040000000000003E4000
  0
ACAD_PROXY_OBJECT
  5
51
102
{ACAD_REACTORS
330
47
102
}
330
47
100
AcDbProxyObject
 90
      499
 91
      503
 93
      113
310
904313A34304000000000000444000
  0
ACAD_PROXY_OBJECT
  5
52
102
{ACAD_REACTORS
330
47
102
}
330
47
100
AcDbProxyObject
 90
      499
 91
      503
 93
      113
310
904313A35304000000000000494000
  0
ACAD_PROXY_OBJECT
  5
53
102
{ACAD_REACTORS
330
47
102
}
330
47
100
AcDbProxyObject
 90
      499
 91
      503
 93
      121
310
905313A3130304000000000000594000
  0
ACAD_PROXY_OBJECT
  5
54
102
{ACAD_REACTORS
330
47
102
}
330
47
100
AcDbProxyObject
 90
      499
 91
      503
 93
      105
310
903323A310000000000000010100
  0
ACAD_PROXY_OBJECT
  5
55
102
{ACAD_REACTORS
330
47
102
}
330
47
100
AcDbProxyObject
 90
      499
 91
      503
 93
      105
310
903343A310000000000000410100
  0
ACAD_PROXY_OBJECT
  5
56
102
{ACAD_REACTORS
330
47
102
}
330
47
100
AcDbProxyObject
 90
      499
 91
      503
 93
      105
310
903383A310000000000000810100
  0
ACAD_PROXY_OBJECT
  5
57
102
{ACAD_REACTORS
330
47
102
}
330
47
100
AcDbProxyObject
 90
      499
 91
      503
 93
      113
310
90431303A310000000000000910100
  0
ACAD_PROXY_OBJECT
  5
58
102
{ACAD_REACTORS
330
47
102
}
330
47
100
AcDbProxyObject
 90
      499
 91
      503
 93
      121
310
9053130303A310000000000001650100
  0
ACAD_PROXY_OBJECT
  5
59
102
{ACAD_REACTORS
330
47
102
}
330
47
100
AcDbProxyObject
 90
      499
 91
      503
 93
      257
310
90E312F31323822203D2031272D3022000000000000200FC000000000000284000
  0
ACAD_PROXY_OBJECT
  5
5A
102
{ACAD_REACTORS
330
47
102
}
330
47
100
AcDbProxyObject
 90
      499
 91
      503
 93
      249
310
90D312F363422203D2031272D3022000000000000240FC000000000000284000
  0
ACAD_PROXY_OBJECT
  5
5B
102
{ACAD_REACTORS
330
47
102
}
330
47
100
AcDbProxyObject
 90
      499
 91
      503
 93
      249
310
90D312F333222203D2031272D3022000000000000280FC000000000000284000
  0
ACAD_PROXY_OBJECT
  5
5C
102
{ACAD_REACTORS
330
47
102
}
330
47
100
AcDbProxyObject
 90
      499
 91
      503
 93
      249
310
90D312F313622203D2031272D30220000000000002C0FC000000000000284000
  0
ACAD_PROXY_OBJECT
  5
5D
102
{ACAD_REACTORS
330
47
102
}
330
47
100
AcDbProxyObject
 90
      499
 91
      503
 93
      249
310
90D332F333222203D2031272D30220000000000002E0FC000000000000284000
  0
ACAD_PROXY_OBJECT
  5
5E
102
{ACAD_REACTORS
330
47
102
}
330
47
100
AcDbProxyObject
 90
      499
 91
      503
 93
      241
310
90C312F3822203D2031272D3022000000000000300FC000000000000284000
  0
ACAD_PROXY_OBJECT
  5
5F
102
{ACAD_REACTORS
330
47
102
}
330
47
100
AcDbProxyObject
 90
      499
 91
      503
 93
      249
310
90D332F313622203D2031272D3022000000000000320FC000000000000284000
  0
ACAD_PROXY_OBJECT
  5
60
102
{ACAD_REACTORS
330
47
102
}
330
47
100
AcDbProxyObject
 90
      499
 91
      503
 93
      241
310
90C312F3422203D2031272D3022000000000000340FC000000000000284000
  0
ACAD_PROXY_OBJECT
  5
61
102
{ACAD_REACTORS
330
47
102
}
330
47
100
AcDbProxyObject
 90
      499
 91
      503
 93
      241
310
90C332F3822203D2031272D3022000000000000360FC000000000000284000
  0
ACAD_PROXY_OBJECT
  5
62
102
{ACAD_REACTORS
330
47
102
}
330
47
100
AcDbProxyObject
 90
      499
 91
      503
 93
      241
310
90C312F3222203D2031272D3022000000000000380FC000000000000284000
  0
ACAD_PROXY_OBJECT
  5
63
102
{ACAD_REACTORS
330
47
102
}
330
47
100
AcDbProxyObject
 90
      499
 91
      503
 93
      241
310
90C332F3422203D2031272D30220000000000003A0FC000000000000284000
  0
ACAD_PROXY_OBJECT
  5
64
102
{ACAD_REACTORS
330
47
102
}
330
47
100
AcDbProxyObject
 90
      499
 91
      503
 93
      161
310
90A3122203D2031272D30224000000000000284000
  0
ACAD_PROXY_OBJECT
  5
65
102
{ACAD_REACTORS
330
47
102
}
330
47
100
AcDbProxyObject
 90
      499
 91
      503
 93
      257
310
90E312D312F3222203D2031272D30220000000000003E0FC000000000000284000
  0
ACAD_PROXY_OBJECT
  5
66
102
{ACAD_REACTORS
330
47
102
}
330
47
100
AcDbProxyObject
 90
      499
 91
      503
 93
      225
310
90A3322203D2031272D302200000000000002100000000000000284000
  0
ACAD_PROXY_OBJECT
  5
67
102
{ACAD_REACTORS
330
47
102
}
330
47
100
AcDbProxyObject
 90
      499
 91
      503
 93
      225
310
90A3622203D2031272D302200000000000006100000000000000284000
  0
ACAD_PROXY_OBJECT
  5
68
102
{ACAD_REACTORS
330
47
102
}
330
47
100
AcDbProxyObject
 90
      499
 91
      503
 93
      249
310
90D31272D3022203D2031272D30220000000000000A100000000000000284000
  0
ACAD_PROXY_OBJECT
  5
2F
102
{ACAD_REACTORS
330
2A
102
}
330
2A
100
AcDbProxyObject
 90
      499
 91
      501
 93
      436
310
42CC9915DA5C99599C985B595049028333333333333E33F0000000000000F90107901411070040501600405405064090741402480A0340
1001
ACAD
1000
AcDbSavedByObjectVersion
1070
     0
  0
ACAD_PROXY_OBJECT
  5
32
102
{ACAD_REACTORS
330
2A
102
}
330
2A
100
AcDbProxyObject
 90
      499
 91
      501
 93
      388
310
4150985CDA58D07406404333333333333E33F0000000000000F90107A41107004050150841D405064090741402480A0350
1001
ACAD
1000
AcDbSavedByObjectVersion
1070
     0
  0
ACAD_PROXY_OBJECT
  5
36
102
{ACAD_REACTORS
330
2A
102
}
330
2A
100
AcDbProxyObject
 90
      499
 91
      501
 93
      428
310
42109C9A59DA1D195B90C409028333333333333E33F0000000000000F9010790141107004050150841D405064090741402480A029950
1001
ACAD
1000
AcDbSavedByObjectVersion
1070
     0
  0
ACAD_PROXY_OBJECT
  5
3A
102
{ACAD_REACTORS
330
2A
102
}
330
2A
100
AcDbProxyObject
 90
      499
 91
      501
 93
      452
310
42D0DBDB1BDC90DA185B99D95104090240C333333333333E33F0000000000000F90108901411070040501508421405064090741402480A0350
1001
ACAD
1000
AcDbSavedByObjectVersion
1070
     0
  0
ACAD_PROXY_OBJECT
  5
34
102
{ACAD_REACTORS
330
2A
102
}
330
2A
100
AcDbProxyObject
 90
      499
 91
      501
 93
      500
310
4290DBDB98D95C1D1D585B10940D028333333333333E33F0000000000000F90107902409070040501000000000018199010841D405064090740C02480A0340
1001
ACAD
1000
AcDbSavedByObjectVersion
1070
     0
  0
ACAD_PROXY_OBJECT
  5
35
102
{ACAD_REACTORS
330
2A
102
}
330
2A
100
AcDbProxyObject
 90
      499
 91
      501
 93
      412
310
40D11A5B50B409028333333333333E33F0000000000000F9010790141107004050150841D405064090741402480A02677FFFFFD0
1001
ACAD
1000
AcDbSavedByObjectVersion
1070
     0
  0
ACAD_PROXY_OBJECT
  5
3D
102
{ACAD_REACTORS
330
2A
102
}
330
2A
100
AcDbProxyObject
 90
      499
 91
      501
 93
      452
310
43115919D950DBDB1BDC93D999916409028333333333333E33F0000000000000F9010790141107004050150841D405064090741402480A0350
1001
ACAD
1000
AcDbSavedByObjectVersion
1070
     0
  0
ACAD_PROXY_OBJECT
  5
39
102
{ACAD_REACTORS
330
2A
102
}
330
2A
100
AcDbProxyObject
 90
      499
 91
      501
 93
      444
310
42D19858D95C185D1D195C9B90F409028333333333333E33F0000000000000F9010790141107004050150841D405064090741402480A0350
1001
ACAD
1000
AcDbSavedByObjectVersion
1070
     0
  0
ACAD_PROXY_OBJECT
  5
2B
102
{ACAD_REACTORS
330
2A
102
}
330
2A
100
AcDbProxyObject
 90
      499
 91
      501
 93
      380
310
41119B185D240901404333333333333E33F0000000000000F9010740A907004050150841D405064090741402480A1B50
1001
ACAD
1000
AcDbSavedByObjectVersion
1070
     0
  0
ACAD_PROXY_OBJECT
  5
2C
102
{ACAD_REACTORS
330
2A
102
}
330
2A
100
AcDbProxyObject
 90
      499
 91
      501
 93
      468
310
43519B185D15DA5D1A115919D95CD0140901404333333333333E33F0000000000000F90107409019070040501600405405064090741402480A1B50
1001
ACAD
1000
AcDbSavedByObjectVersion
1070
     0
  0
ACAD_PROXY_OBJECT
  5
2D
102
{ACAD_REACTORS
330
2A
102
}
330
2A
100
AcDbProxyObject
 90
      499
 91
      501
 93
      404
310
41D1DBDD5C985D5910240902404333333333333E33F0000000000000F9010740A9070040501641D405064090741402480A1B50
1001
ACAD
1000
AcDbSavedByObjectVersion
1070
     0
  0
ACAD_PROXY_OBJECT
  5
2E
102
{ACAD_REACTORS
330
2A
102
}
330
2A
100
AcDbProxyObject
 90
      499
 91
      501
 93
      492
310
4411DBDD5C985D5915DA5D1A115919D95CD0340902404333333333333E33F0000000000000F90107409019070040501600405405064090741402480A1B50
1001
ACAD
1000
AcDbSavedByObjectVersion
1070
     0
  0
ACAD_PROXY_OBJECT
  5
31
102
{ACAD_REACTORS
330
2A
102
}
330
2A
100
AcDbProxyObject
 90
      499
 91
      501
 93
      476
310
41921A5919195B90640502408333333333333E33F0000000000000F901079024090700405020000000000001110200405405064090740C02480A0340
1001
ACAD
1000
AcDbSavedByObjectVersion
1070
     0
  0
ACAD_PROXY_OBJECT
  5
3B
102
{ACAD_REACTORS
330
2A
102
}
330
2A
100
AcDbProxyObject
 90
      499
 91
      501
 93
      428
310
42529A5D1D195C93D999914409028333333333333E33F0000000000000F9010790141107004050150A41D405064090741402480A0350
1001
ACAD
1000
AcDbSavedByObjectVersion
1070
     0
  0
ACAD_PROXY_OBJECT
  5
38
102
{ACAD_REACTORS
330
2A
102
}
330
2A
100
AcDbProxyObject
 90
      499
 91
      501
 93
      444
310
42D31A5B995C185D1D195C9B90E409028333333333333E33F0000000000000F9010790141107004050750841D405064090741402483A0350
1001
ACAD
1000
AcDbSavedByObjectVersion
1070
     0
  0
ACAD_PROXY_OBJECT
  5
3C
102
{ACAD_REACTORS
330
2A
102
}
330
2A
100
AcDbProxyObject
 90
      499
 91
      501
 93
      444
310
42D3DD995C9A185B99D3D999915409028333333333333E33F0000000000000F9010790141107004050150941D405064090741402480A0350
1001
ACAD
1000
AcDbSavedByObjectVersion
1070
     0
  0
ACAD_PROXY_OBJECT
  5
33
102
{ACAD_REACTORS
330
2A
102
}
330
2A
100
AcDbProxyObject
 90
      499
 91
      501
 93
      428
310
425499585B1A5CDD1A58D08409038333333333333E33F0000000000000F9010740A907004050150800405405064090740C02480A1B40
1001
ACAD
1000
AcDbSavedByObjectVersion
1070
     0
  0
ACAD_PROXY_OBJECT
  5
42
102
{ACAD_REACTORS
330
2A
102
}
330
2A
100
AcDbProxyObject
 90
      499
 91
      501
 93
      420
310
4194DA1859195911B40902404333333333333E33F0000000000000F9010740A41107004050150800405405064090840C02480A0B40
1001
ACAD
1000
AcDbSavedByObjectVersion
1070
     0
  0
ACAD_PROXY_OBJECT
  5
41
102
{ACAD_REACTORS
330
2A
102
}
330
2A
100
AcDbProxyObject
 90
      499
 91
      501
 93
      516
310
4454DA18591959081DDA5D1A08195919D95CD1A40902404333333333333E33F0000000000000F901074090142907004050250800405405064090740C02480A0B40
1001
ACAD
1000
AcDbSavedByObjectVersion
1070
     0
  0
ACAD_PROXY_OBJECT
  5
3E
102
{ACAD_REACTORS
330
2A
102
}
330
2A
100
AcDbProxyObject
 90
      499
 91
      501
 93
      532
310
4394DA1859195CC81BD98811DC985E5174090240C333333333333E33F0000000000000F901079024090741D01000000000000111010841D405064090740C02480A0340
1001
ACAD
1000
AcDbSavedByObjectVersion
1070
     0
  0
ACAD_PROXY_OBJECT
  5
3F
102
{ACAD_REACTORS
330
2A
102
}
330
2A
100
AcDbProxyObject
 90
      499
 91
      501
 93
      476
310
41D4DAD95D18DA1E51840502408333333333333E33F0000000000000F901079024090741D01000000000000111010B41D405064090741802480A0340
1001
ACAD
1000
AcDbSavedByObjectVersion
1070
     0
  0
ACAD_PROXY_OBJECT
  5
37
102
{ACAD_REACTORS
330
2A
102
}
330
2A
100
AcDbProxyObject
 90
      499
 91
      501
 93
      412
310
41D51A1A58DAD95B90D409028333333333333E33F0000000000000F9010790141107004050150C41D405064090741402480A0350
1001
ACAD
1000
AcDbSavedByObjectVersion
1070
     0
  0
ACAD_PROXY_OBJECT
  5
30
102
{ACAD_REACTORS
330
2A
102
}
330
2A
100
AcDbProxyObject
 90
      499
 91
      501
 93
      420
310
4255DA5C99599C985B595059028333333333333E33F0000000000000F90107901411070040501600405405064090740C02480A0340
1001
ACAD
1000
AcDbSavedByObjectVersion
1070
     0
  0
ACAD_PROXY_OBJECT
  5
40
102
{ACAD_REACTORS
330
2A
102
}
330
2A
100
AcDbProxyObject
 90
      499
 91
      501
 93
      404
310
41560B54985E51940902404000000000000E03F0000000000000F9010740501907004050150841D405064090740C02480A1B40
1001
ACAD
1000
AcDbSavedByObjectVersion
1070
     0
  0
XRECORD
  5
5A0
102
{ACAD_REACTORS
330
596
102
}
330
596
100
AcDbXrecord
340
0
  0
XRECORD
  5
59F
102
{ACAD_REACTORS
330
596
102
}
330
596
100
AcDbXrecord
 90
        0
  0
XRECORD
  5
5B6
102
{ACAD_REACTORS
330
596
102
}
330
596
100
AcDbXrecord
1000
DSTYLE
1002
{
1070
   340
340
11
1002
}
  0
XRECORD
  5
5A1
102
{ACAD_REACTORS
330
596
102
}
330
596
100
AcDbXrecord
  1
{648d09ed-5bb6-4453-9dd9-82dcda7f30db}
  0
XRECORD
  5
599
102
{ACAD_REACTORS
330
596
102
}
330
596
100
AcDbXrecord
  1

  0
XRECORD
  5
59E
102
{ACAD_REACTORS
330
596
102
}
330
596
100
AcDbXrecord
 90
        4
  0
XRECORD
  5
59B
102
{ACAD_REACTORS
330
596
102
}
330
596
100
AcDbXrecord
340
1A
  0
XRECORD
  5
59D
102
{ACAD_REACTORS
330
596
102
}
330
596
100
AcDbXrecord
 90
    10781
  0
XRECORD
  5
59C
102
{ACAD_REACTORS
330
596
102
}
330
596
100
AcDbXrecord
340
19
  0
XRECORD
  5
5A3
102
{ACAD_REACTORS
330
596
102
}
330
596
100
AcDbXrecord
 40
0.0
  0
XRECORD
  5
5A6
102
{ACAD_REACTORS
330
596
102
}
330
596
100
AcDbXrecord
340
0
  0
XRECORD
  5
5AC
102
{ACAD_REACTORS
330
596
102
}
330
596
100
AcDbXrecord
 10
0.0
 20
0.0
 30
0.0
  0
XRECORD
  5
5A8
102
{ACAD_REACTORS
330
596
102
}
330
596
100
AcDbXrecord
 10
0.0
 20
0.0
 30
0.0
  0
XRECORD
  5
5AB
102
{ACAD_REACTORS
330
596
102
}
330
596
100
AcDbXrecord
 10
0.0
 20
0.0
 30
0.0
  0
XRECORD
  5
5A9
102
{ACAD_REACTORS
330
596
102
}
330
596
100
AcDbXrecord
 10
0.0
 20
0.0
 30
0.0
  0
XRECORD
  5
5AA
102
{ACAD_REACTORS
330
596
102
}
330
596
100
AcDbXrecord
 10
0.0
 20
0.0
 30
0.0
  0
XRECORD
  5
5A7
102
{ACAD_REACTORS
330
596
102
}
330
596
100
AcDbXrecord
 10
0.0
 20
0.0
 30
0.0
  0
XRECORD
  5
5A4
102
{ACAD_REACTORS
330
596
102
}
330
596
100
AcDbXrecord
340
0
  0
XRECORD
  5
5A5
102
{ACAD_REACTORS
330
596
102
}
330
596
100
AcDbXrecord
 70
     0
  0
XRECORD
  5
59A
102
{ACAD_REACTORS
330
596
102
}
330
596
100
AcDbXrecord
  1

  0
XRECORD
  5
597
102
{ACAD_REACTORS
330
596
102
}
330
596
100
AcDbXrecord
 90
        1
  0
XRECORD
  5
598
102
{ACAD_REACTORS
330
596
102
}
330
596
100
AcDbXrecord
 90
       70
  0
XRECORD
  5
5AF
102
{ACAD_REACTORS
330
596
102
}
330
596
100
AcDbXrecord
340
0
  0
XRECORD
  5
5B5
102
{ACAD_REACTORS
330
596
102
}
330
596
100
AcDbXrecord
 10
0.0
 20
0.0
 30
0.0
  0
XRECORD
  5
5B1
102
{ACAD_REACTORS
330
596
102
}
330
596
100
AcDbXrecord
 10
0.0
 20
0.0
 30
0.0
  0
XRECORD
  5
5B4
102
{ACAD_REACTORS
330
596
102
}
330
596
100
AcDbXrecord
 10
0.0
 20
0.0
 30
0.0
  0
XRECORD
  5
5B2
102
{ACAD_REACTORS
330
596
102
}
330
596
100
AcDbXrecord
 10
0.0
 20
0.0
 30
0.0
  0
XRECORD
  5
5B3
102
{ACAD_REACTORS
330
596
102
}
330
596
100
AcDbXrecord
 10
0.0
 20
0.0
 30
0.0
  0
XRECORD
  5
5B0
102
{ACAD_REACTORS
330
596
102
}
330
596
100
AcDbXrecord
 10
0.0
 20
0.0
 30
0.0
  0
XRECORD
  5
5AD
102
{ACAD_REACTORS
330
596
102
}
330
596
100
AcDbXrecord
340
0
  0
XRECORD
  5
5AE
102
{ACAD_REACTORS
330
596
102
}
330
596
100
AcDbXrecord
 70
     0
  0
XRECORD
  5
5A2
102
{ACAD_REACTORS
330
596
102
}
330
596
100
AcDbXrecord
  1
{FAEB1C32-E019-11D5-929B-00C0DF256EC4}
  0
DICTIONARYVAR
  5
5C4
102
{ACAD_REACTORS
330
5B7
102
}
330
5B7
100
DictionaryVariables
280
     0
  1
1:1
  0
DICTIONARYVAR
  5
5BE
102
{ACAD_REACTORS
330
5B7
102
}
330
5B7
100
DictionaryVariables
280
     0
  1
3.500000
  0
DICTIONARYVAR
  5
5BF
102
{ACAD_REACTORS
330
5B7
102
}
330
5B7
100
DictionaryVariables
280
     0
  1
acadiso.lin
  0
DICTIONARYVAR
  5
5B9
102
{ACAD_REACTORS
330
5B7
102
}
330
5B7
100
DictionaryVariables
280
     0
  1
Standard
  0
DICTIONARYVAR
  5
5B8
102
{ACAD_REACTORS
330
5B7
102
}
330
5B7
100
DictionaryVariables
280
     0
  1
Standard
  0
DICTIONARYVAR
  5
5C0
102
{ACAD_REACTORS
330
5B7
102
}
330
5B7
100
DictionaryVariables
280
     0
  1
2
  0
DICTIONARYVAR
  5
5C1
102
{ACAD_REACTORS
330
5B7
102
}
330
5B7
100
DictionaryVariables
280
     0
  1
1
  0
DICTIONARYVAR
  5
5C5
102
{ACAD_REACTORS
330
5B7
102
}
330
5B7
100
DictionaryVariables
280
     0
  1
1
  0
DICTIONARYVAR
  5
5BB
102
{ACAD_REACTORS
330
5B7
102
}
330
5B7
100
DictionaryVariables
280
     0
  1
80.000000
  0
DICTIONARYVAR
  5
5BA
102
{ACAD_REACTORS
330
5B7
102
}
330
5B7
100
DictionaryVariables
280
     0
  1
5.000000
  0
DICTIONARY
  5
5C8
330
45
100
AcDbDictionary
280
     1
  3
ACAD_XREC_ROUNDTRIP
360
5C9
  0
DICTIONARY
  5
5C6
330
44
100
AcDbDictionary
280
     1
  3
ACAD_XREC_ROUNDTRIP
360
5C7
  0
DICTIONARY
  5
5CA
330
46
100
AcDbDictionary
280
     1
  3
ACAD_XREC_ROUNDTRIP
360
5CB
  0
XRECORD
  5
5C9
102
{ACAD_REACTORS
330
5C8
102
}
330
5C8
100
AcDbXrecord
102
MATERIAL
148
0.0
149
0.0
149
0.0
 93
        0
 94
      127
282
     0
 72
     1
 77
     1
171
     1
175
     1
179
     1
273
     0
  0
XRECORD
  5
5C7
102
{ACAD_REACTORS
330
5C6
102
}
330
5C6
100
AcDbXrecord
102
MATERIAL
148
0.0
149
0.0
149
0.0
 93
        0
 94
      127
282
     0
 72
     1
 77
     1
171
     1
175
     1
179
     1
273
     0
  0
XRECORD
  5
5CB
102
{ACAD_REACTORS
330
5CA
102
}
330
5CA
100
AcDbXrecord
102
MATERIAL
148
0.0
149
0.0
149
0.0
 93
        0
 94
      127
282
     0
 72
     1
 77
     1
171
     1
175
     1
179
     1
273
     0
  0
ENDSEC
  0
EOF
