  0
SECTION
  2
HEADER
  9
$ACADVER
  1
AC1014
  9
$ACADMAINTVER
 70
     9
  9
$DWGCODEPAGE
  3
ANSI_932
  9
$INSBASE
 10
0.0
 20
0.0
 30
0.0
  9
$EXTMIN
 10
50.0
 20
100.0
 30
0.0
  9
$EXTMAX
 10
3850.0
 20
2800.0
 30
0.0
  9
$LIMMIN
 10
0.0
 20
0.0
  9
$LIMMAX
 10
420.0
 20
297.0
  9
$ORTHOMODE
 70
     0
  9
$REGENMODE
 70
     1
  9
$FILLMODE
 70
     1
  9
$QTEXTMODE
 70
     0
  9
$MIRRTEXT
 70
     1
  9
$DRAGMODE
 70
     2
  9
$LTSCALE
 40
0.2
  9
$OSMODE
 70
    37
  9
$ATTMODE
 70
     1
  9
$TEXTSIZE
 40
2.5
  9
$TRACEWID
 40
1.0
  9
$TEXTSTYLE
  7
STANDARD
  9
$CLAYER
  8
LAY-10
  9
$CELTYPE
  6
BYLAYER
  9
$CECOLOR
 62
   256
  9
$CELTSCALE
 40
1.0
  9
$DELOBJ
 70
     1
  9
$DISPSILH
 70
     0
  9
$DIMSCALE
 40
1.0
  9
$DIMASZ
 40
2.5
  9
$DIMEXO
 40
0.625
  9
$DIMDLI
 40
3.75
  9
$DIMRND
 40
0.0
  9
$DIMDLE
 40
0.0
  9
$DIMEXE
 40
1.25
  9
$DIMTP
 40
0.0
  9
$DIMTM
 40
0.0
  9
$DIMTXT
 40
2.5
  9
$DIMCEN
 40
2.5
  9
$DIMTSZ
 40
0.0
  9
$DIMTOL
 70
     0
  9
$DIMLIM
 70
     0
  9
$DIMTIH
 70
     0
  9
$DIMTOH
 70
     0
  9
$DIMSE1
 70
     0
  9
$DIMSE2
 70
     0
  9
$DIMTAD
 70
     1
  9
$DIMZIN
 70
     8
  9
$DIMBLK
  1

  9
$DIMASO
 70
     1
  9
$DIMSHO
 70
     1
  9
$DIMPOST
  1

  9
$DIMAPOST
  1

  9
$DIMALT
 70
     0
  9
$DIMALTD
 70
     3
  9
$DIMALTF
 40
0.03937007874016
  9
$DIMLFAC
 40
1.0
  9
$DIMTOFL
 70
     1
  9
$DIMTVP
 40
0.0
  9
$DIMTIX
 70
     0
  9
$DIMSOXD
 70
     0
  9
$DIMSAH
 70
     0
  9
$DIMBLK1
  1

  9
$DIMBLK2
  1

  9
$DIMSTYLE
  2
ISO-25
  9
$DIMCLRD
 70
     0
  9
$DIMCLRE
 70
     0
  9
$DIMCLRT
 70
     0
  9
$DIMTFAC
 40
1.0
  9
$DIMGAP
 40
0.625
  9
$DIMJUST
 70
     0
  9
$DIMSD1
 70
     0
  9
$DIMSD2
 70
     0
  9
$DIMTOLJ
 70
     0
  9
$DIMTZIN
 70
     8
  9
$DIMALTZ
 70
     0
  9
$DIMALTTZ
 70
     0
  9
$DIMFIT
 70
     3
  9
$DIMUPT
 70
     0
  9
$DIMUNIT
 70
     2
  9
$DIMDEC
 70
     2
  9
$DIMTDEC
 70
     2
  9
$DIMALTU
 70
     2
  9
$DIMALTTD
 70
     3
  9
$DIMTXSTY
  7
STANDARD
  9
$DIMAUNIT
 70
     0
  9
$LUNITS
 70
     2
  9
$LUPREC
 70
     4
  9
$SKETCHINC
 40
1.0
  9
$FILLETRAD
 40
10.0
  9
$AUNITS
 70
     0
  9
$AUPREC
 70
     0
  9
$MENU
  1
.
  9
$ELEVATION
 40
0.0
  9
$PELEVATION
 40
0.0
  9
$THICKNESS
 40
0.0
  9
$LIMCHECK
 70
     0
  9
$CHAMFERA
 40
0.0
  9
$CHAMFERB
 40
0.0
  9
$CHAMFERC
 40
0.0
  9
$CHAMFERD
 40
0.0
  9
$SKPOLY
 70
     0
  9
$TDCREATE
 40
2459229.333703611
  9
$TDUPDATE
 40
2459229.333704259
  9
$TDINDWG
 40
0.0000000116
  9
$TDUSRTIMER
 40
0.0000000116
  9
$USRTIMER
 70
     1
  9
$ANGBASE
 50
0.0
  9
$ANGDIR
 70
     0
  9
$PDMODE
 70
     0
  9
$PDSIZE
 40
0.0
  9
$PLINEWID
 40
0.0
  9
$COORDS
 70
     1
  9
$SPLFRAME
 70
     0
  9
$SPLINETYPE
 70
     6
  9
$SPLINESEGS
 70
     8
  9
$ATTDIA
 70
     0
  9
$ATTREQ
 70
     1
  9
$HANDLING
 70
     1
  9
$HANDSEED
  5
590
  9
$SURFTAB1
 70
     6
  9
$SURFTAB2
 70
     6
  9
$SURFTYPE
 70
     6
  9
$SURFU
 70
     6
  9
$SURFV
 70
     6
  9
$UCSNAME
  2

  9
$UCSORG
 10
0.0
 20
0.0
 30
0.0
  9
$UCSXDIR
 10
1.0
 20
0.0
 30
0.0
  9
$UCSYDIR
 10
0.0
 20
1.0
 30
0.0
  9
$PUCSNAME
  2

  9
$PUCSORG
 10
0.0
 20
0.0
 30
0.0
  9
$PUCSXDIR
 10
1.0
 20
0.0
 30
0.0
  9
$PUCSYDIR
 10
0.0
 20
1.0
 30
0.0
  9
$USERI1
 70
     0
  9
$USERI2
 70
     0
  9
$USERI3
 70
     0
  9
$USERI4
 70
     0
  9
$USERI5
 70
     0
  9
$USERR1
 40
0.0
  9
$USERR2
 40
0.0
  9
$USERR3
 40
0.0
  9
$USERR4
 40
0.0
  9
$USERR5
 40
0.0
  9
$WORLDVIEW
 70
     1
  9
$SHADEDGE
 70
     3
  9
$SHADEDIF
 70
    70
  9
$TILEMODE
 70
     1
  9
$MAXACTVP
 70
    64
  9
$PINSBASE
 10
0.0
 20
0.0
 30
0.0
  9
$PLIMCHECK
 70
     0
  9
$PEXTMIN
 10
1.000000000000000E+20
 20
1.000000000000000E+20
 30
1.000000000000000E+20
  9
$PEXTMAX
 10
-1.000000000000000E+20
 20
-1.000000000000000E+20
 30
-1.000000000000000E+20
  9
$PLIMMIN
 10
0.0
 20
0.0
  9
$PLIMMAX
 10
420.0
 20
297.0
  9
$UNITMODE
 70
     0
  9
$VISRETAIN
 70
     1
  9
$PLINEGEN
 70
     0
  9
$PSLTSCALE
 70
     1
  9
$TREEDEPTH
 70
  3020
  9
$PICKSTYLE
 70
     1
  9
$CMLSTYLE
  2
STANDARD
  9
$CMLJUST
 70
     0
  9
$CMLSCALE
 40
20.0
  9
$PROXYGRAPHICS
 70
     1
  9
$MEASUREMENT
 70
     1
  0
ENDSEC
  0
SECTION
  2
CLASSES
  0
CLASS
  1
ACDBDICTIONARYWDFLT
  2
AcDbDictionaryWithDefault
  3
ObjectDBX Classes
 90
        0
280
     0
281
     0
  0
CLASS
  1
VISUALSTYLE
  2
AcDbVisualStyle
  3
ObjectDBX Classes
 90
     4095
280
     0
281
     0
  0
CLASS
  1
MATERIAL
  2
AcDbMaterial
  3
ObjectDBX Classes
 90
     1153
280
     0
281
     0
  0
CLASS
  1
SCALE
  2
AcDbScale
  3
ObjectDBX Classes
 90
     1153
280
     0
281
     0
  0
CLASS
  1
TABLESTYLE
  2
AcDbTableStyle
  3
ObjectDBX Classes
 90
     4095
280
     0
281
     0
  0
CLASS
  1
MLEADERSTYLE
  2
AcDbMLeaderStyle
  3
ACDB_MLEADERSTYLE_CLASS
 90
     4095
280
     0
281
     0
  0
CLASS
  1
SUN
  2
AcDbSun
  3
SCENEOE
 90
     1153
280
     0
281
     0
  0
CLASS
  1
DICTIONARYVAR
  2
AcDbDictionaryVar
  3
ObjectDBX Classes
 90
        0
280
     0
281
     0
  0
CLASS
  1
XRECORD
  2
AcDbXrecord
  3
ObjectDBX Classes
 90
        0
280
     0
281
     0
  0
CLASS
  1
LWPOLYLINE
  2
AcDbPolyline
  3
ObjectDBX Classes
 90
        0
280
     0
281
     1
  0
CLASS
  1
HATCH
  2
AcDbHatch
  3
ObjectDBX Classes
 90
        0
280
     0
281
     1
  0
CLASS
  1
ACDBPLACEHOLDER
  2
AcDbPlaceHolder
  3
ObjectDBX Classes
 90
        0
280
     0
281
     0
  0
CLASS
  1
LAYOUT
  2
AcDbLayout
  3
ObjectDBX Classes
 90
        0
280
     0
281
     0
  0
ENDSEC
  0
SECTION
  2
TABLES
  0
TABLE
  2
VPORT
  5
8
102
{ACAD_XDICTIONARY
360
585
102
}
330
0
100
AcDbSymbolTable
 70
     1
  0
VPORT
  5
29
330
8
100
AcDbSymbolTableRecord
100
AcDbViewportTableRecord
  2
*ACTIVE
 70
     0
 10
0.0
 20
0.0
 11
1.0
 21
1.0
 12
1950.0
 22
1450.0
 13
0.0
 23
0.0
 14
10.0
 24
10.0
 15
10.0
 25
10.0
 16
0.0
 26
0.0
 36
1.0
 17
0.0
 27
0.0
 37
0.0
 40
2700.0
 41
1.407407407407408
 42
50.0
 43
0.0
 44
0.0
 50
0.0
 51
0.0
 71
     0
 72
  1000
 73
     1
 74
     3
 75
     0
 76
     0
 77
     0
 78
     0
  0
ENDTAB
  0
TABLE
  2
LTYPE
  5
5
330
0
100
AcDbSymbolTable
 70
     6
  0
LTYPE
  5
14
330
5
100
AcDbSymbolTableRecord
100
AcDbLinetypeTableRecord
  2
BYBLOCK
 70
     0
  3

 72
    65
 73
     0
 40
0.0
  0
LTYPE
  5
15
330
5
100
AcDbSymbolTableRecord
100
AcDbLinetypeTableRecord
  2
BYLAYER
 70
     0
  3

 72
    65
 73
     0
 40
0.0
  0
LTYPE
  5
16
330
5
100
AcDbSymbolTableRecord
100
AcDbLinetypeTableRecord
  2
CONTINUOUS
 70
     0
  3
Solid line
 72
    65
 73
     0
 40
0.0
  0
LTYPE
  5
6E
330
5
100
AcDbSymbolTableRecord
100
AcDbLinetypeTableRecord
  2
HIDDEN
 70
     0
  3
Hidden __ __ __ __ __ __ __ __ __ __ __ __ __ __
 72
    65
 73
     2
 40
9.524999999999999
 49
6.35
 74
     0
 49
-3.175
 74
     0
  0
LTYPE
  5
6F
330
5
100
AcDbSymbolTableRecord
100
AcDbLinetypeTableRecord
  2
CENTER
 70
     0
  3
Center ____ _ ____ _ ____ _ ____ _ ____ _ ____
 72
    65
 73
     4
 40
50.8
 49
31.75
 74
     0
 49
-6.35
 74
     0
 49
6.35
 74
     0
 49
-6.35
 74
     0
  0
LTYPE
  5
70
330
5
100
AcDbSymbolTableRecord
100
AcDbLinetypeTableRecord
  2
PHANTOM
 70
     0
  3
Phantom ______  __  __  ______  __  __  ______ 
 72
    65
 73
     6
 40
63.50000000000001
 49
31.75
 74
     0
 49
-6.35
 74
     0
 49
6.35
 74
     0
 49
-6.35
 74
     0
 49
6.35
 74
     0
 49
-6.35
 74
     0
  0
LTYPE
  5
71
330
5
100
AcDbSymbolTableRecord
100
AcDbLinetypeTableRecord
  2
ACAD_ISO06W100
 70
     0
  3
ISO long-dash triple-dot ____ ... ____ ... ____
 72
    65
 73
     8
 40
36.0
 49
24.0
 74
     0
 49
-3.0
 74
     0
 49
0.0
 74
     0
 49
-3.0
 74
     0
 49
0.0
 74
     0
 49
-3.0
 74
     0
 49
0.0
 74
     0
 49
-3.0
 74
     0
  0
LTYPE
  5
72
330
5
100
AcDbSymbolTableRecord
100
AcDbLinetypeTableRecord
  2
ACAD_ISO15W100
 70
     0
  3
ISO double-dash triple-dot __ __ . . . __ __ . .
 72
    65
 73
    10
 40
39.0
 49
12.0
 74
     0
 49
-3.0
 74
     0
 49
12.0
 74
     0
 49
-3.0
 74
     0
 49
0.0
 74
     0
 49
-3.0
 74
     0
 49
0.0
 74
     0
 49
-3.0
 74
     0
 49
0.0
 74
     0
 49
-3.0
 74
     0
  0
ENDTAB
  0
TABLE
  2
LAYER
  5
2
330
0
100
AcDbSymbolTable
 70
     6
  0
LAYER
  5
10
330
2
100
AcDbSymbolTableRecord
100
AcDbLayerTableRecord
  2
0
 70
     0
 62
     7
  6
CONTINUOUS
  0
LAYER
  5
75
330
2
100
AcDbSymbolTableRecord
100
AcDbLayerTableRecord
  2
LAY-10
 70
     0
 62
     7
  6
CONTINUOUS
  0
LAYER
  5
76
330
2
100
AcDbSymbolTableRecord
100
AcDbLayerTableRecord
  2
LAY-11
 70
     0
 62
     7
  6
CONTINUOUS
  0
LAYER
  5
77
330
2
100
AcDbSymbolTableRecord
100
AcDbLayerTableRecord
  2
LAY-20
 70
     0
 62
     7
  6
CONTINUOUS
  0
LAYER
  5
78
330
2
100
AcDbSymbolTableRecord
100
AcDbLayerTableRecord
  2
LAY-255
 70
     0
 62
     7
  6
CONTINUOUS
  0
LAYER
  5
4B0
330
2
100
AcDbSymbolTableRecord
100
AcDbLayerTableRecord
  2
DEFPOINTS
 70
     0
 62
     7
  6
CONTINUOUS
  0
ENDTAB
  0
TABLE
  2
STYLE
  5
3
330
0
100
AcDbSymbolTable
 70
     4
  0
STYLE
  5
11
330
3
100
AcDbSymbolTableRecord
100
AcDbTextStyleTableRecord
  2
STANDARD
 70
     0
 40
0.0
 41
1.0
 50
0.0
 71
     0
 42
2.5
  3
simplex
  4
bigfont
  0
STYLE
  5
73
330
3
100
AcDbSymbolTableRecord
100
AcDbTextStyleTableRecord
  2
EXCADSTD
 70
     0
 40
0.0
 41
1.0
 50
0.0
 71
     0
 42
2.5
  3
simplex
  4
bigfont
  0
STYLE
  5
74
330
3
100
AcDbSymbolTableRecord
100
AcDbTextStyleTableRecord
  2
EXCADVERT
 70
     4
 40
0.0
 41
1.0
 50
0.0
 71
     0
 42
2.5
  3
simplex
  4
bigfont
  0
STYLE
  5
4AE
330
3
100
AcDbSymbolTableRecord
100
AcDbTextStyleTableRecord
  2
EXCADDIM1
 70
     0
 40
0.0
 41
0.84
 50
0.0
 71
     0
 42
2.5
  3
simplex
  4
bigfont
  0
ENDTAB
  0
TABLE
  2
VIEW
  5
6
330
0
100
AcDbSymbolTable
 70
     0
  0
ENDTAB
  0
TABLE
  2
UCS
  5
7
330
0
100
AcDbSymbolTable
 70
     0
  0
ENDTAB
  0
TABLE
  2
APPID
  5
9
330
0
100
AcDbSymbolTable
 70
     2
  0
APPID
  5
12
330
9
100
AcDbSymbolTableRecord
100
AcDbRegAppTableRecord
  2
ACAD
 70
     0
  0
APPID
  5
58F
330
9
100
AcDbSymbolTableRecord
100
AcDbRegAppTableRecord
  2
ACAD_MLEADERVER
 70
     0
  0
ENDTAB
  0
TABLE
  2
DIMSTYLE
  5
A
330
0
100
AcDbSymbolTable
 70
     1
  0
DIMSTYLE
105
27
102
{ACAD_REACTORS
330
4AF
330
4BD
330
4CA
330
4D7
330
4E4
330
4F1
330
4FE
330
50B
330
518
330
525
102
}
330
A
100
AcDbSymbolTableRecord
100
AcDbDimStyleTableRecord
  2
ISO-25
 70
     0
  3

  4

  5

  6

  7

 40
1.0
 41
2.5
 42
0.625
 43
3.75
 44
1.25
 45
0.0
 46
0.0
 47
0.0
 48
0.0
140
2.5
141
2.5
142
0.0
143
0.03937007874016
144
1.0
145
0.0
146
1.0
147
0.625
 71
     0
 72
     0
 73
     0
 74
     0
 75
     0
 76
     0
 77
     1
 78
     8
170
     0
171
     3
172
     1
173
     0
174
     0
175
     0
176
     0
177
     0
178
     0
270
     2
271
     2
272
     2
273
     2
274
     3
340
11
275
     0
280
     0
281
     0
282
     0
283
     0
284
     8
285
     0
286
     0
287
     5
288
     0
  0
ENDTAB
  0
TABLE
  2
BLOCK_RECORD
  5
1
330
0
100
AcDbSymbolTable
 70
    36
  0
BLOCK_RECORD
  5
1F
330
1
100
AcDbSymbolTableRecord
100
AcDbBlockTableRecord
  2
*MODEL_SPACE
  0
BLOCK_RECORD
  5
1B
330
1
100
AcDbSymbolTableRecord
100
AcDbBlockTableRecord
  2
*PAPER_SPACE
  0
BLOCK_RECORD
  5
79
330
1
100
AcDbSymbolTableRecord
100
AcDbBlockTableRecord
  2
EX_NORM
  0
BLOCK_RECORD
  5
7C
330
1
100
AcDbSymbolTableRecord
100
AcDbBlockTableRecord
  2
EX_BNORM
  0
BLOCK_RECORD
  5
7F
330
1
100
AcDbSymbolTableRecord
100
AcDbBlockTableRecord
  2
EX_BCIR
  0
BLOCK_RECORD
  5
82
330
1
100
AcDbSymbolTableRecord
100
AcDbBlockTableRecord
  2
EX_RCIVIL
  0
BLOCK_RECORD
  5
85
330
1
100
AcDbSymbolTableRecord
100
AcDbBlockTableRecord
  2
EX_SLANT
  0
BLOCK_RECORD
  5
88
330
1
100
AcDbSymbolTableRecord
100
AcDbBlockTableRecord
  2
EX_NONE
  0
BLOCK_RECORD
  5
8B
330
1
100
AcDbSymbolTableRecord
100
AcDbBlockTableRecord
  2
EX_CIVIL
  0
BLOCK_RECORD
  5
8E
330
1
100
AcDbSymbolTableRecord
100
AcDbBlockTableRecord
  2
EX_WCIR
  0
BLOCK_RECORD
  5
91
330
1
100
AcDbSymbolTableRecord
100
AcDbBlockTableRecord
  2
EX_WCIR2
  0
BLOCK_RECORD
  5
94
330
1
100
AcDbSymbolTableRecord
100
AcDbBlockTableRecord
  2
EX_WNORM
  0
BLOCK_RECORD
  5
97
330
1
100
AcDbSymbolTableRecord
100
AcDbBlockTableRecord
  2
EX_NNORM
  0
BLOCK_RECORD
  5
9A
330
1
100
AcDbSymbolTableRecord
100
AcDbBlockTableRecord
  2
EX_BBOX
  0
BLOCK_RECORD
  5
9D
330
1
100
AcDbSymbolTableRecord
100
AcDbBlockTableRecord
  2
EX_WBOX
  0
BLOCK_RECORD
  5
A0
330
1
100
AcDbSymbolTableRecord
100
AcDbBlockTableRecord
  2
EX_INTEGRAL
  0
BLOCK_RECORD
  5
A3
330
1
100
AcDbSymbolTableRecord
100
AcDbBlockTableRecord
  2
SYM-1
  0
BLOCK_RECORD
  5
A6
330
1
100
AcDbSymbolTableRecord
100
AcDbBlockTableRecord
  2
SYM-2
  0
BLOCK_RECORD
  5
A9
330
1
100
AcDbSymbolTableRecord
100
AcDbBlockTableRecord
  2
SYM-3
  0
BLOCK_RECORD
  5
AC
330
1
100
AcDbSymbolTableRecord
100
AcDbBlockTableRecord
  2
SYM-4
  0
BLOCK_RECORD
  5
AF
330
1
100
AcDbSymbolTableRecord
100
AcDbBlockTableRecord
  2
SYM-5
  0
BLOCK_RECORD
  5
B2
330
1
100
AcDbSymbolTableRecord
100
AcDbBlockTableRecord
  2
SYM-6
  0
BLOCK_RECORD
  5
B5
330
1
100
AcDbSymbolTableRecord
100
AcDbBlockTableRecord
  2
SYM-7
  0
BLOCK_RECORD
  5
B8
330
1
100
AcDbSymbolTableRecord
100
AcDbBlockTableRecord
  2
SYM-8
  0
BLOCK_RECORD
  5
BB
330
1
100
AcDbSymbolTableRecord
100
AcDbBlockTableRecord
  2
SYM-9
  0
BLOCK_RECORD
  5
BE
330
1
100
AcDbSymbolTableRecord
100
AcDbBlockTableRecord
  2
SYM-10
  0
BLOCK_RECORD
  5
C1
330
1
100
AcDbSymbolTableRecord
100
AcDbBlockTableRecord
  2
SYM-11
  0
BLOCK_RECORD
  5
C4
330
1
100
AcDbSymbolTableRecord
100
AcDbBlockTableRecord
  2
SYM-12
  0
BLOCK_RECORD
  5
4B1
330
1
100
AcDbSymbolTableRecord
100
AcDbBlockTableRecord
  2
*D27
  0
BLOCK_RECORD
  5
4BE
330
1
100
AcDbSymbolTableRecord
100
AcDbBlockTableRecord
  2
*D28
  0
BLOCK_RECORD
  5
4CB
330
1
100
AcDbSymbolTableRecord
100
AcDbBlockTableRecord
  2
*D29
  0
BLOCK_RECORD
  5
4D8
330
1
100
AcDbSymbolTableRecord
100
AcDbBlockTableRecord
  2
*D30
  0
BLOCK_RECORD
  5
4E5
330
1
100
AcDbSymbolTableRecord
100
AcDbBlockTableRecord
  2
*D31
  0
BLOCK_RECORD
  5
4F2
330
1
100
AcDbSymbolTableRecord
100
AcDbBlockTableRecord
  2
*D32
  0
BLOCK_RECORD
  5
4FF
330
1
100
AcDbSymbolTableRecord
100
AcDbBlockTableRecord
  2
*D33
  0
BLOCK_RECORD
  5
50C
330
1
100
AcDbSymbolTableRecord
100
AcDbBlockTableRecord
  2
*D34
  0
BLOCK_RECORD
  5
519
330
1
100
AcDbSymbolTableRecord
100
AcDbBlockTableRecord
  2
*D35
  0
BLOCK_RECORD
  5
526
330
1
100
AcDbSymbolTableRecord
100
AcDbBlockTableRecord
  2
*D36
  0
ENDTAB
  0
ENDSEC
  0
SECTION
  2
BLOCKS
  0
BLOCK
  5
20
330
1F
100
AcDbEntity
  8
0
100
AcDbBlockBegin
  2
*MODEL_SPACE
 70
     0
 10
0.0
 20
0.0
 30
0.0
  3
*MODEL_SPACE
  1

  0
ENDBLK
  5
21
330
1F
100
AcDbEntity
  8
0
100
AcDbBlockEnd
  0
BLOCK
  5
1C
330
1B
100
AcDbEntity
 67
     1
  8
0
100
AcDbBlockBegin
  2
*PAPER_SPACE
 70
     0
 10
0.0
 20
0.0
 30
0.0
  3
*PAPER_SPACE
  1

  0
ENDBLK
  5
1D
330
1B
100
AcDbEntity
 67
     1
  8
0
100
AcDbBlockEnd
  0
BLOCK
  5
7A
330
79
100
AcDbEntity
  8
0
100
AcDbBlockBegin
  2
EX_NORM
 70
     0
 10
0.0
 20
0.0
 30
0.0
  3
EX_NORM
  1

  0
LINE
  5
C7
330
79
100
AcDbEntity
  8
0
  6
CONTINUOUS
 62
     0
100
AcDbLine
 10
0.0
 20
0.0
 30
0.0
 11
-1.0
 21
0.0
 31
0.0
  0
LINE
  5
C8
330
79
100
AcDbEntity
  8
0
  6
CONTINUOUS
 62
     0
100
AcDbLine
 10
0.0
 20
0.0
 30
0.0
 11
-1.0
 21
0.166666667
 31
0.0
  0
LINE
  5
C9
330
79
100
AcDbEntity
  8
0
  6
CONTINUOUS
 62
     0
100
AcDbLine
 10
0.0
 20
0.0
 30
0.0
 11
-1.0
 21
-0.166666667
 31
0.0
  0
ENDBLK
  5
7B
330
79
100
AcDbEntity
  8
0
100
AcDbBlockEnd
  0
BLOCK
  5
7D
330
7C
100
AcDbEntity
  8
0
100
AcDbBlockBegin
  2
EX_BNORM
 70
     0
 10
0.0
 20
0.0
 30
0.0
  3
EX_BNORM
  1

  0
LINE
  5
CA
330
7C
100
AcDbEntity
  8
0
  6
CONTINUOUS
 62
     0
100
AcDbLine
 10
0.0
 20
0.0
 30
0.0
 11
-1.0
 21
0.0
 31
0.0
  0
LINE
  5
CB
330
7C
100
AcDbEntity
  8
0
  6
CONTINUOUS
 62
     0
100
AcDbLine
 10
0.0
 20
0.0
 30
0.0
 11
-1.0
 21
0.166666667
 31
0.0
  0
LINE
  5
CC
330
7C
100
AcDbEntity
  8
0
  6
CONTINUOUS
 62
     0
100
AcDbLine
 10
0.0
 20
0.0
 30
0.0
 11
-1.0
 21
-0.166666667
 31
0.0
  0
LINE
  5
CD
330
7C
100
AcDbEntity
  8
0
  6
CONTINUOUS
 62
     0
100
AcDbLine
 10
0.0
 20
0.0
 30
0.0
 11
-1.0
 21
0.083333333
 31
0.0
  0
LINE
  5
CE
330
7C
100
AcDbEntity
  8
0
  6
CONTINUOUS
 62
     0
100
AcDbLine
 10
0.0
 20
0.0
 30
0.0
 11
-1.0
 21
-0.083333333
 31
0.0
  0
LINE
  5
CF
330
7C
100
AcDbEntity
  8
0
  6
CONTINUOUS
 62
     0
100
AcDbLine
 10
-1.0
 20
0.166666667
 30
0.0
 11
-1.0
 21
-0.166666667
 31
0.0
  0
ENDBLK
  5
7E
330
7C
100
AcDbEntity
  8
0
100
AcDbBlockEnd
  0
BLOCK
  5
80
330
7F
100
AcDbEntity
  8
0
100
AcDbBlockBegin
  2
EX_BCIR
 70
     0
 10
0.0
 20
0.0
 30
0.0
  3
EX_BCIR
  1

  0
LINE
  5
D0
330
7F
100
AcDbEntity
  8
0
  6
CONTINUOUS
 62
     0
100
AcDbLine
 10
0.0
 20
0.0
 30
0.0
 11
-1.0
 21
0.0
 31
0.0
  0
CIRCLE
  5
D1
330
7F
100
AcDbEntity
  8
0
  6
CONTINUOUS
 62
     0
100
AcDbCircle
 10
0.0
 20
0.0
 30
0.0
 40
0.5
  0
CIRCLE
  5
D2
330
7F
100
AcDbEntity
  8
0
  6
CONTINUOUS
 62
     0
100
AcDbCircle
 10
0.0
 20
0.0
 30
0.0
 40
0.25
  0
ENDBLK
  5
81
330
7F
100
AcDbEntity
  8
0
100
AcDbBlockEnd
  0
BLOCK
  5
83
330
82
100
AcDbEntity
  8
0
100
AcDbBlockBegin
  2
EX_RCIVIL
 70
     0
 10
0.0
 20
0.0
 30
0.0
  3
EX_RCIVIL
  1

  0
LINE
  5
D3
330
82
100
AcDbEntity
  8
0
  6
CONTINUOUS
 62
     0
100
AcDbLine
 10
0.0
 20
0.0
 30
0.0
 11
-1.0
 21
0.0
 31
0.0
  0
LINE
  5
D4
330
82
100
AcDbEntity
  8
0
  6
CONTINUOUS
 62
     0
100
AcDbLine
 10
-1.0
 20
-0.25
 30
0.0
 11
0.0
 21
-0.25
 31
0.0
  0
LINE
  5
D5
330
82
100
AcDbEntity
  8
0
  6
CONTINUOUS
 62
     0
100
AcDbLine
 10
-1.0
 20
-0.125
 30
0.0
 11
0.0
 21
-0.125
 31
0.0
  0
ENDBLK
  5
84
330
82
100
AcDbEntity
  8
0
100
AcDbBlockEnd
  0
BLOCK
  5
86
330
85
100
AcDbEntity
  8
0
100
AcDbBlockBegin
  2
EX_SLANT
 70
     0
 10
0.0
 20
0.0
 30
0.0
  3
EX_SLANT
  1

  0
LINE
  5
D6
330
85
100
AcDbEntity
  8
0
  6
CONTINUOUS
 62
     0
100
AcDbLine
 10
0.0
 20
0.0
 30
0.0
 11
-1.0
 21
0.0
 31
0.0
  0
LINE
  5
D7
330
85
100
AcDbEntity
  8
0
  6
CONTINUOUS
 62
     0
100
AcDbLine
 10
0.707106781
 20
0.707106781
 30
0.0
 11
-0.707106781
 21
-0.707106781
 31
0.0
  0
ENDBLK
  5
87
330
85
100
AcDbEntity
  8
0
100
AcDbBlockEnd
  0
BLOCK
  5
89
330
88
100
AcDbEntity
  8
0
100
AcDbBlockBegin
  2
EX_NONE
 70
     0
 10
0.0
 20
0.0
 30
0.0
  3
EX_NONE
  1

  0
LINE
  5
D8
330
88
100
AcDbEntity
  8
0
  6
CONTINUOUS
 62
     0
100
AcDbLine
 10
0.0
 20
0.0
 30
0.0
 11
-1.0
 21
0.0
 31
0.0
  0
ENDBLK
  5
8A
330
88
100
AcDbEntity
  8
0
100
AcDbBlockEnd
  0
BLOCK
  5
8C
330
8B
100
AcDbEntity
  8
0
100
AcDbBlockBegin
  2
EX_CIVIL
 70
     0
 10
0.0
 20
0.0
 30
0.0
  3
EX_CIVIL
  1

  0
LINE
  5
D9
330
8B
100
AcDbEntity
  8
0
  6
CONTINUOUS
 62
     0
100
AcDbLine
 10
0.0
 20
0.0
 30
0.0
 11
-1.0
 21
0.0
 31
0.0
  0
LINE
  5
DA
330
8B
100
AcDbEntity
  8
0
  6
CONTINUOUS
 62
     0
100
AcDbLine
 10
-1.0
 20
0.25
 30
0.0
 11
0.0
 21
0.25
 31
0.0
  0
LINE
  5
DB
330
8B
100
AcDbEntity
  8
0
  6
CONTINUOUS
 62
     0
100
AcDbLine
 10
-1.0
 20
0.125
 30
0.0
 11
0.0
 21
0.125
 31
0.0
  0
ENDBLK
  5
8D
330
8B
100
AcDbEntity
  8
0
100
AcDbBlockEnd
  0
BLOCK
  5
8F
330
8E
100
AcDbEntity
  8
0
100
AcDbBlockBegin
  2
EX_WCIR
 70
     0
 10
0.0
 20
0.0
 30
0.0
  3
EX_WCIR
  1

  0
LINE
  5
DC
330
8E
100
AcDbEntity
  8
0
  6
CONTINUOUS
 62
     0
100
AcDbLine
 10
0.0
 20
0.0
 30
0.0
 11
-1.0
 21
0.0
 31
0.0
  0
CIRCLE
  5
DD
330
8E
100
AcDbEntity
  8
0
  6
CONTINUOUS
 62
     0
100
AcDbCircle
 10
0.0
 20
0.0
 30
0.0
 40
0.5
  0
ENDBLK
  5
90
330
8E
100
AcDbEntity
  8
0
100
AcDbBlockEnd
  0
BLOCK
  5
92
330
91
100
AcDbEntity
  8
0
100
AcDbBlockBegin
  2
EX_WCIR2
 70
     0
 10
0.0
 20
0.0
 30
0.0
  3
EX_WCIR2
  1

  0
LINE
  5
DE
330
91
100
AcDbEntity
  8
0
  6
CONTINUOUS
 62
     0
100
AcDbLine
 10
-0.5
 20
0.0
 30
0.0
 11
-1.0
 21
0.0
 31
0.0
  0
CIRCLE
  5
DF
330
91
100
AcDbEntity
  8
0
  6
CONTINUOUS
 62
     0
100
AcDbCircle
 10
0.0
 20
0.0
 30
0.0
 40
0.5
  0
ENDBLK
  5
93
330
91
100
AcDbEntity
  8
0
100
AcDbBlockEnd
  0
BLOCK
  5
95
330
94
100
AcDbEntity
  8
0
100
AcDbBlockBegin
  2
EX_WNORM
 70
     0
 10
0.0
 20
0.0
 30
0.0
  3
EX_WNORM
  1

  0
LINE
  5
E0
330
94
100
AcDbEntity
  8
0
  6
CONTINUOUS
 62
     0
100
AcDbLine
 10
-1.0
 20
0.0
 30
0.0
 11
-1.0
 21
0.0
 31
0.0
  0
LINE
  5
E1
330
94
100
AcDbEntity
  8
0
  6
CONTINUOUS
 62
     0
100
AcDbLine
 10
0.0
 20
0.0
 30
0.0
 11
-1.0
 21
0.166666667
 31
0.0
  0
LINE
  5
E2
330
94
100
AcDbEntity
  8
0
  6
CONTINUOUS
 62
     0
100
AcDbLine
 10
0.0
 20
0.0
 30
0.0
 11
-1.0
 21
-0.166666667
 31
0.0
  0
LINE
  5
E3
330
94
100
AcDbEntity
  8
0
  6
CONTINUOUS
 62
     0
100
AcDbLine
 10
-1.0
 20
0.166666667
 30
0.0
 11
-1.0
 21
-0.166666667
 31
0.0
  0
ENDBLK
  5
96
330
94
100
AcDbEntity
  8
0
100
AcDbBlockEnd
  0
BLOCK
  5
98
330
97
100
AcDbEntity
  8
0
100
AcDbBlockBegin
  2
EX_NNORM
 70
     0
 10
0.0
 20
0.0
 30
0.0
  3
EX_NNORM
  1

  0
LINE
  5
E4
330
97
100
AcDbEntity
  8
0
  6
CONTINUOUS
 62
     0
100
AcDbLine
 10
0.0
 20
0.0
 30
0.0
 11
-1.0
 21
0.0
 31
0.0
  0
LINE
  5
E5
330
97
100
AcDbEntity
  8
0
  6
CONTINUOUS
 62
     0
100
AcDbLine
 10
0.0
 20
0.0
 30
0.0
 11
-1.0
 21
0.166666667
 31
0.0
  0
LINE
  5
E6
330
97
100
AcDbEntity
  8
0
  6
CONTINUOUS
 62
     0
100
AcDbLine
 10
0.0
 20
0.0
 30
0.0
 11
-1.0
 21
-0.166666667
 31
0.0
  0
LINE
  5
E7
330
97
100
AcDbEntity
  8
0
  6
CONTINUOUS
 62
     0
100
AcDbLine
 10
-1.0
 20
0.166666667
 30
0.0
 11
-1.0
 21
-0.166666667
 31
0.0
  0
ENDBLK
  5
99
330
97
100
AcDbEntity
  8
0
100
AcDbBlockEnd
  0
BLOCK
  5
9B
330
9A
100
AcDbEntity
  8
0
100
AcDbBlockBegin
  2
EX_BBOX
 70
     0
 10
0.0
 20
0.0
 30
0.0
  3
EX_BBOX
  1

  0
LINE
  5
E8
330
9A
100
AcDbEntity
  8
0
  6
CONTINUOUS
 62
     0
100
AcDbLine
 10
0.0
 20
0.0
 30
0.0
 11
-1.0
 21
0.0
 31
0.0
  0
LINE
  5
E9
330
9A
100
AcDbEntity
  8
0
  6
CONTINUOUS
 62
     0
100
AcDbLine
 10
-0.5
 20
0.5
 30
0.0
 11
0.5
 21
0.5
 31
0.0
  0
LINE
  5
EA
330
9A
100
AcDbEntity
  8
0
  6
CONTINUOUS
 62
     0
100
AcDbLine
 10
0.5
 20
0.5
 30
0.0
 11
0.5
 21
-0.5
 31
0.0
  0
LINE
  5
EB
330
9A
100
AcDbEntity
  8
0
  6
CONTINUOUS
 62
     0
100
AcDbLine
 10
0.5
 20
-0.5
 30
0.0
 11
-0.5
 21
-0.5
 31
0.0
  0
LINE
  5
EC
330
9A
100
AcDbEntity
  8
0
  6
CONTINUOUS
 62
     0
100
AcDbLine
 10
-0.5
 20
-0.5
 30
0.0
 11
-0.5
 21
0.5
 31
0.0
  0
LINE
  5
ED
330
9A
100
AcDbEntity
  8
0
  6
CONTINUOUS
 62
     0
100
AcDbLine
 10
-0.25
 20
0.25
 30
0.0
 11
0.25
 21
0.25
 31
0.0
  0
LINE
  5
EE
330
9A
100
AcDbEntity
  8
0
  6
CONTINUOUS
 62
     0
100
AcDbLine
 10
0.25
 20
0.25
 30
0.0
 11
0.25
 21
-0.25
 31
0.0
  0
LINE
  5
EF
330
9A
100
AcDbEntity
  8
0
  6
CONTINUOUS
 62
     0
100
AcDbLine
 10
0.25
 20
-0.25
 30
0.0
 11
-0.25
 21
-0.25
 31
0.0
  0
LINE
  5
F0
330
9A
100
AcDbEntity
  8
0
  6
CONTINUOUS
 62
     0
100
AcDbLine
 10
-0.25
 20
-0.25
 30
0.0
 11
-0.25
 21
0.25
 31
0.0
  0
ENDBLK
  5
9C
330
9A
100
AcDbEntity
  8
0
100
AcDbBlockEnd
  0
BLOCK
  5
9E
330
9D
100
AcDbEntity
  8
0
100
AcDbBlockBegin
  2
EX_WBOX
 70
     0
 10
0.0
 20
0.0
 30
0.0
  3
EX_WBOX
  1

  0
LINE
  5
F1
330
9D
100
AcDbEntity
  8
0
  6
CONTINUOUS
 62
     0
100
AcDbLine
 10
-0.5
 20
0.0
 30
0.0
 11
-1.0
 21
0.0
 31
0.0
  0
LINE
  5
F2
330
9D
100
AcDbEntity
  8
0
  6
CONTINUOUS
 62
     0
100
AcDbLine
 10
-0.5
 20
0.5
 30
0.0
 11
0.5
 21
0.5
 31
0.0
  0
LINE
  5
F3
330
9D
100
AcDbEntity
  8
0
  6
CONTINUOUS
 62
     0
100
AcDbLine
 10
0.5
 20
0.5
 30
0.0
 11
0.5
 21
-0.5
 31
0.0
  0
LINE
  5
F4
330
9D
100
AcDbEntity
  8
0
  6
CONTINUOUS
 62
     0
100
AcDbLine
 10
0.5
 20
-0.5
 30
0.0
 11
-0.5
 21
-0.5
 31
0.0
  0
LINE
  5
F5
330
9D
100
AcDbEntity
  8
0
  6
CONTINUOUS
 62
     0
100
AcDbLine
 10
-0.5
 20
-0.5
 30
0.0
 11
-0.5
 21
0.5
 31
0.0
  0
ENDBLK
  5
9F
330
9D
100
AcDbEntity
  8
0
100
AcDbBlockEnd
  0
BLOCK
  5
A1
330
A0
100
AcDbEntity
  8
0
100
AcDbBlockBegin
  2
EX_INTEGRAL
 70
     0
 10
0.0
 20
0.0
 30
0.0
  3
EX_INTEGRAL
  1

  0
LINE
  5
F6
330
A0
100
AcDbEntity
  8
0
  6
CONTINUOUS
 62
     0
100
AcDbLine
 10
0.0
 20
0.0
 30
0.0
 11
-1.0
 21
0.0
 31
0.0
  0
ARC
  5
F7
330
A0
100
AcDbEntity
  8
0
  6
CONTINUOUS
 62
     0
100
AcDbCircle
 10
0.542115
 20
0.164992
 30
0.0
 40
0.56667
100
AcDbArc
 50
73.07249033629006
 51
196.9275130221199
  0
ARC
  5
F8
330
A0
100
AcDbEntity
  8
0
  6
CONTINUOUS
 62
     0
100
AcDbCircle
 10
-0.542115
 20
-0.164992
 30
0.0
 40
0.56667
100
AcDbArc
 50
253.0724869220464
 51
16.9275130559125
  0
ENDBLK
  5
A2
330
A0
100
AcDbEntity
  8
0
100
AcDbBlockEnd
  0
BLOCK
  5
A4
330
A3
100
AcDbEntity
  8
0
100
AcDbBlockBegin
  2
SYM-1
 70
     0
 10
0.0
 20
0.0
 30
0.0
  3
SYM-1
  1

  0
CIRCLE
  5
F9
330
A3
100
AcDbEntity
  8
0
  6
CONTINUOUS
 62
     7
100
AcDbCircle
 10
1413.000000000022
 20
2106.463158225611
 30
0.0
 40
10.50000000000041
  0
CIRCLE
  5
FA
330
A3
100
AcDbEntity
  8
0
  6
CONTINUOUS
 62
     7
100
AcDbCircle
 10
1413.000000000022
 20
2106.463158225611
 30
0.0
 40
8.66025403784441
  0
LINE
  5
FB
330
A3
100
AcDbEntity
  8
0
  6
CONTINUOUS
 62
     7
100
AcDbLine
 10
1404.339745962178
 20
2111.463158225611
 30
0.0
 11
1404.339745962178
 21
2101.463158225612
 31
0.0
  0
LINE
  5
FC
330
A3
100
AcDbEntity
  8
0
  6
CONTINUOUS
 62
     7
100
AcDbLine
 10
1404.339745962178
 20
2101.463158225612
 30
0.0
 11
1413.000000000022
 21
2096.463158225611
 31
0.0
  0
LINE
  5
FD
330
A3
100
AcDbEntity
  8
0
  6
CONTINUOUS
 62
     7
100
AcDbLine
 10
1413.000000000022
 20
2096.463158225611
 30
0.0
 11
1421.660254037865
 21
2101.463158225612
 31
0.0
  0
LINE
  5
FE
330
A3
100
AcDbEntity
  8
0
  6
CONTINUOUS
 62
     7
100
AcDbLine
 10
1421.660254037865
 20
2111.463158225611
 30
0.0
 11
1413.000000000022
 21
2116.463158225612
 31
0.0
  0
LINE
  5
FF
330
A3
100
AcDbEntity
  8
0
  6
CONTINUOUS
 62
     7
100
AcDbLine
 10
1413.000000000022
 20
2116.463158225612
 30
0.0
 11
1404.339745962178
 21
2111.463158225611
 31
0.0
  0
CIRCLE
  5
100
330
A3
100
AcDbEntity
  8
0
  6
CONTINUOUS
 62
     7
100
AcDbCircle
 10
1413.000000000022
 20
2106.463158225611
 30
0.0
 40
5.0
  0
CIRCLE
  5
101
330
A3
100
AcDbEntity
  8
0
  6
CONTINUOUS
 62
     7
100
AcDbCircle
 10
1413.000000000022
 20
2106.463158225611
 30
0.0
 40
4.0
  0
LINE
  5
102
330
A3
100
AcDbEntity
  8
0
  6
CONTINUOUS
 62
     7
100
AcDbLine
 10
1421.660254037865
 20
2101.463158225612
 30
0.0
 11
1421.660254037865
 21
2111.463158225611
 31
0.0
  0
ENDBLK
  5
A5
330
A3
100
AcDbEntity
  8
0
100
AcDbBlockEnd
  0
BLOCK
  5
A7
330
A6
100
AcDbEntity
  8
0
100
AcDbBlockBegin
  2
SYM-2
 70
     0
 10
0.0
 20
0.0
 30
0.0
  3
SYM-2
  1

  0
CIRCLE
  5
103
330
A6
100
AcDbEntity
  8
0
  6
CONTINUOUS
 62
     7
100
AcDbCircle
 10
1413.000000000022
 20
1356.46315822563
 30
0.0
 40
10.50000000000041
  0
CIRCLE
  5
104
330
A6
100
AcDbEntity
  8
0
  6
CONTINUOUS
 62
     7
100
AcDbCircle
 10
1413.000000000022
 20
1356.46315822563
 30
0.0
 40
8.66025403784441
  0
LINE
  5
105
330
A6
100
AcDbEntity
  8
0
  6
CONTINUOUS
 62
     7
100
AcDbLine
 10
1404.339745962178
 20
1361.46315822563
 30
0.0
 11
1404.339745962178
 21
1351.463158225631
 31
0.0
  0
LINE
  5
106
330
A6
100
AcDbEntity
  8
0
  6
CONTINUOUS
 62
     7
100
AcDbLine
 10
1404.339745962178
 20
1351.463158225631
 30
0.0
 11
1413.000000000022
 21
1346.46315822563
 31
0.0
  0
LINE
  5
107
330
A6
100
AcDbEntity
  8
0
  6
CONTINUOUS
 62
     7
100
AcDbLine
 10
1413.000000000022
 20
1346.46315822563
 30
0.0
 11
1421.660254037865
 21
1351.463158225631
 31
0.0
  0
LINE
  5
108
330
A6
100
AcDbEntity
  8
0
  6
CONTINUOUS
 62
     7
100
AcDbLine
 10
1421.660254037865
 20
1361.46315822563
 30
0.0
 11
1413.000000000022
 21
1366.463158225631
 31
0.0
  0
LINE
  5
109
330
A6
100
AcDbEntity
  8
0
  6
CONTINUOUS
 62
     7
100
AcDbLine
 10
1413.000000000022
 20
1366.463158225631
 30
0.0
 11
1404.339745962178
 21
1361.46315822563
 31
0.0
  0
CIRCLE
  5
10A
330
A6
100
AcDbEntity
  8
0
  6
CONTINUOUS
 62
     7
100
AcDbCircle
 10
1413.000000000022
 20
1356.46315822563
 30
0.0
 40
5.0
  0
CIRCLE
  5
10B
330
A6
100
AcDbEntity
  8
0
  6
CONTINUOUS
 62
     7
100
AcDbCircle
 10
1413.000000000022
 20
1356.46315822563
 30
0.0
 40
4.0
  0
LINE
  5
10C
330
A6
100
AcDbEntity
  8
0
  6
CONTINUOUS
 62
     7
100
AcDbLine
 10
1421.660254037865
 20
1351.463158225631
 30
0.0
 11
1421.660254037865
 21
1361.46315822563
 31
0.0
  0
ENDBLK
  5
A8
330
A6
100
AcDbEntity
  8
0
100
AcDbBlockEnd
  0
BLOCK
  5
AA
330
A9
100
AcDbEntity
  8
0
100
AcDbBlockBegin
  2
SYM-3
 70
     0
 10
0.0
 20
0.0
 30
0.0
  3
SYM-3
  1

  0
CIRCLE
  5
10D
330
A9
100
AcDbEntity
  8
0
  6
CONTINUOUS
 62
     7
100
AcDbCircle
 10
1037.999999999947
 20
1356.463158225614
 30
0.0
 40
10.50000000000041
  0
CIRCLE
  5
10E
330
A9
100
AcDbEntity
  8
0
  6
CONTINUOUS
 62
     7
100
AcDbCircle
 10
1037.999999999947
 20
1356.463158225614
 30
0.0
 40
8.66025403784441
  0
LINE
  5
10F
330
A9
100
AcDbEntity
  8
0
  6
CONTINUOUS
 62
     7
100
AcDbLine
 10
1046.660254037791
 20
1351.463158225614
 30
0.0
 11
1046.660254037791
 21
1361.463158225613
 31
0.0
  0
LINE
  5
110
330
A9
100
AcDbEntity
  8
0
  6
CONTINUOUS
 62
     7
100
AcDbLine
 10
1046.660254037791
 20
1361.463158225613
 30
0.0
 11
1037.999999999947
 21
1366.463158225614
 31
0.0
  0
LINE
  5
111
330
A9
100
AcDbEntity
  8
0
  6
CONTINUOUS
 62
     7
100
AcDbLine
 10
1037.999999999947
 20
1366.463158225614
 30
0.0
 11
1029.339745962104
 21
1361.463158225613
 31
0.0
  0
LINE
  5
112
330
A9
100
AcDbEntity
  8
0
  6
CONTINUOUS
 62
     7
100
AcDbLine
 10
1029.339745962104
 20
1351.463158225614
 30
0.0
 11
1037.999999999947
 21
1346.463158225613
 31
0.0
  0
LINE
  5
113
330
A9
100
AcDbEntity
  8
0
  6
CONTINUOUS
 62
     7
100
AcDbLine
 10
1037.999999999947
 20
1346.463158225613
 30
0.0
 11
1046.660254037791
 21
1351.463158225614
 31
0.0
  0
CIRCLE
  5
114
330
A9
100
AcDbEntity
  8
0
  6
CONTINUOUS
 62
     7
100
AcDbCircle
 10
1037.999999999947
 20
1356.463158225614
 30
0.0
 40
5.0
  0
CIRCLE
  5
115
330
A9
100
AcDbEntity
  8
0
  6
CONTINUOUS
 62
     7
100
AcDbCircle
 10
1037.999999999947
 20
1356.463158225614
 30
0.0
 40
4.0
  0
LINE
  5
116
330
A9
100
AcDbEntity
  8
0
  6
CONTINUOUS
 62
     7
100
AcDbLine
 10
1029.339745962104
 20
1361.463158225613
 30
0.0
 11
1029.339745962104
 21
1351.463158225614
 31
0.0
  0
ENDBLK
  5
AB
330
A9
100
AcDbEntity
  8
0
100
AcDbBlockEnd
  0
BLOCK
  5
AD
330
AC
100
AcDbEntity
  8
0
100
AcDbBlockBegin
  2
SYM-4
 70
     0
 10
0.0
 20
0.0
 30
0.0
  3
SYM-4
  1

  0
CIRCLE
  5
117
330
AC
100
AcDbEntity
  8
0
  6
CONTINUOUS
 62
     7
100
AcDbCircle
 10
1412.999999999998
 20
1731.46315822569
 30
0.0
 40
10.50000000000041
  0
CIRCLE
  5
118
330
AC
100
AcDbEntity
  8
0
  6
CONTINUOUS
 62
     7
100
AcDbCircle
 10
1412.999999999998
 20
1731.46315822569
 30
0.0
 40
8.66025403784441
  0
LINE
  5
119
330
AC
100
AcDbEntity
  8
0
  6
CONTINUOUS
 62
     7
100
AcDbLine
 10
1417.999999999998
 20
1740.123412263534
 30
0.0
 11
1407.999999999999
 21
1740.123412263534
 31
0.0
  0
LINE
  5
11A
330
AC
100
AcDbEntity
  8
0
  6
CONTINUOUS
 62
     7
100
AcDbLine
 10
1407.999999999999
 20
1740.123412263534
 30
0.0
 11
1402.999999999998
 21
1731.46315822569
 31
0.0
  0
LINE
  5
11B
330
AC
100
AcDbEntity
  8
0
  6
CONTINUOUS
 62
     7
100
AcDbLine
 10
1402.999999999998
 20
1731.46315822569
 30
0.0
 11
1407.999999999999
 21
1722.802904187847
 31
0.0
  0
LINE
  5
11C
330
AC
100
AcDbEntity
  8
0
  6
CONTINUOUS
 62
     7
100
AcDbLine
 10
1417.999999999998
 20
1722.802904187847
 30
0.0
 11
1422.999999999999
 21
1731.46315822569
 31
0.0
  0
LINE
  5
11D
330
AC
100
AcDbEntity
  8
0
  6
CONTINUOUS
 62
     7
100
AcDbLine
 10
1422.999999999999
 20
1731.46315822569
 30
0.0
 11
1417.999999999998
 21
1740.123412263534
 31
0.0
  0
CIRCLE
  5
11E
330
AC
100
AcDbEntity
  8
0
  6
CONTINUOUS
 62
     7
100
AcDbCircle
 10
1412.999999999998
 20
1731.46315822569
 30
0.0
 40
5.0
  0
CIRCLE
  5
11F
330
AC
100
AcDbEntity
  8
0
  6
CONTINUOUS
 62
     7
100
AcDbCircle
 10
1412.999999999998
 20
1731.46315822569
 30
0.0
 40
4.0
  0
LINE
  5
120
330
AC
100
AcDbEntity
  8
0
  6
CONTINUOUS
 62
     7
100
AcDbLine
 10
1407.999999999999
 20
1722.802904187847
 30
0.0
 11
1417.999999999998
 21
1722.802904187847
 31
0.0
  0
ENDBLK
  5
AE
330
AC
100
AcDbEntity
  8
0
100
AcDbBlockEnd
  0
BLOCK
  5
B0
330
AF
100
AcDbEntity
  8
0
100
AcDbBlockBegin
  2
SYM-5
 70
     0
 10
0.0
 20
0.0
 30
0.0
  3
SYM-5
  1

  0
LINE
  5
121
330
AF
100
AcDbEntity
  8
0
  6
CONTINUOUS
 62
     7
100
AcDbLine
 10
1906.266073064278
 20
2085.453694142817
 30
0.0
 11
1899.592444326085
 21
2092.127322881005
 31
0.0
  0
LINE
  5
122
330
AF
100
AcDbEntity
  8
0
  6
CONTINUOUS
 62
     7
100
AcDbLine
 10
1906.974534051275
 20
2086.159446718216
 30
0.0
 11
1899.944643510753
 21
2093.18933725842
 31
0.0
  0
LINE
  5
123
330
AF
100
AcDbEntity
  8
0
  6
CONTINUOUS
 62
     7
100
AcDbLine
 10
1907.544894305875
 20
2087.003300025916
 30
0.0
 11
1900.434943428106
 21
2094.113250904004
 31
0.0
  0
LINE
  5
124
330
AF
100
AcDbEntity
  8
0
  6
CONTINUOUS
 62
     7
100
AcDbLine
 10
1907.981948028476
 20
2087.980459865717
 30
0.0
 11
1901.05854987717
 21
2094.903858017027
 31
0.0
  0
LINE
  5
125
330
AF
100
AcDbEntity
  8
0
  6
CONTINUOUS
 62
     7
100
AcDbLine
 10
1908.207638706575
 20
2091.997409874716
 30
0.0
 11
1904.014839714376
 21
2096.190208866917
 31
0.0
  0
LINE
  5
126
330
AF
100
AcDbEntity
  8
0
  6
CONTINUOUS
 62
     7
100
AcDbLine
 10
1908.384813675076
 20
2090.406021343818
 30
0.0
 11
1902.777004574075
 21
2096.013830444816
 31
0.0
  0
LINE
  5
127
330
AF
100
AcDbEntity
  8
0
  6
CONTINUOUS
 62
     7
100
AcDbLine
 10
1908.274143930177
 20
2089.102477526417
 30
0.0
 11
1901.827014147276
 21
2095.549607309315
 31
0.0
  0
LINE
  5
128
330
AF
100
AcDbEntity
  8
0
  6
CONTINUOUS
 62
     7
100
AcDbLine
 10
1905.394979345577
 20
2084.910574299117
 30
0.0
 11
1899.402877872879
 21
2090.902675771817
 31
0.0
  0
LINE
  5
129
330
AF
100
AcDbEntity
  8
0
  6
CONTINUOUS
 62
     7
100
AcDbLine
 10
1904.293636645975
 20
2084.597703436416
 30
0.0
 11
1899.443560400775
 21
2089.447779681516
 31
0.0
  0
LINE
  5
12A
330
AF
100
AcDbEntity
  8
0
  6
CONTINUOUS
 62
     7
100
AcDbLine
 10
1902.697606429675
 20
2084.779520090317
 30
0.0
 11
1899.978930445378
 21
2087.498196074616
 31
0.0
  0
ELLIPSE
  5
12B
330
AF
100
AcDbEntity
  8
0
  6
CONTINUOUS
 62
     7
100
AcDbEllipse
 10
1903.884848523377
 20
2090.383158225616
 30
0.0
 11
-1.067183248068677E-15
 21
-5.809475019310011
 31
0.0
210
0.0
220
0.0
230
1.0
 40
0.774596669241632
 41
0.0
 42
6.283185307179586
  0
ENDBLK
  5
B1
330
AF
100
AcDbEntity
  8
0
100
AcDbBlockEnd
  0
BLOCK
  5
B3
330
B2
100
AcDbEntity
  8
0
100
AcDbBlockBegin
  2
SYM-6
 70
     0
 10
0.0
 20
0.0
 30
0.0
  3
SYM-6
  1

  0
LINE
  5
12C
330
B2
100
AcDbEntity
  8
0
  6
CONTINUOUS
 62
     7
100
AcDbLine
 10
1906.266073064244
 20
1377.472622308383
 30
0.0
 11
1899.592444326075
 21
1370.798993570216
 31
0.0
  0
LINE
  5
12D
330
B2
100
AcDbEntity
  8
0
  6
CONTINUOUS
 62
     7
100
AcDbLine
 10
1906.974534051152
 20
1376.766869733176
 30
0.0
 11
1899.944643510878
 21
1369.736979192617
 31
0.0
  0
LINE
  5
12E
330
B2
100
AcDbEntity
  8
0
  6
CONTINUOUS
 62
     7
100
AcDbLine
 10
1907.544894305873
 20
1375.923016425312
 30
0.0
 11
1900.434943427975
 21
1368.813065547416
 31
0.0
  0
LINE
  5
12F
330
B2
100
AcDbEntity
  8
0
  6
CONTINUOUS
 62
     7
100
AcDbLine
 10
1907.981948028488
 20
1374.945856585523
 30
0.0
 11
1901.058549877175
 21
1368.022458434216
 31
0.0
  0
LINE
  5
130
330
B2
100
AcDbEntity
  8
0
  6
CONTINUOUS
 62
     7
100
AcDbLine
 10
1908.207638706575
 20
1370.928906576517
 30
0.0
 11
1904.014839714376
 21
1366.736107584317
 31
0.0
  0
LINE
  5
131
330
B2
100
AcDbEntity
  8
0
  6
CONTINUOUS
 62
     7
100
AcDbLine
 10
1908.384813675076
 20
1372.520295107416
 30
0.0
 11
1902.777004574075
 21
1366.912486006417
 31
0.0
  0
LINE
  5
132
330
B2
100
AcDbEntity
  8
0
  6
CONTINUOUS
 62
     7
100
AcDbLine
 10
1908.274143930177
 20
1373.823838924817
 30
0.0
 11
1901.827014147276
 21
1367.376709141916
 31
0.0
  0
LINE
  5
133
330
B2
100
AcDbEntity
  8
0
  6
CONTINUOUS
 62
     7
100
AcDbLine
 10
1905.394979345577
 20
1378.015742152116
 30
0.0
 11
1899.402877872879
 21
1372.023640679417
 31
0.0
  0
LINE
  5
134
330
B2
100
AcDbEntity
  8
0
  6
CONTINUOUS
 62
     7
100
AcDbLine
 10
1904.293636645975
 20
1378.328613014817
 30
0.0
 11
1899.443560400775
 21
1373.478536769717
 31
0.0
  0
LINE
  5
135
330
B2
100
AcDbEntity
  8
0
  6
CONTINUOUS
 62
     7
100
AcDbLine
 10
1902.697606429675
 20
1378.146796360916
 30
0.0
 11
1899.978930445378
 21
1375.428120376617
 31
0.0
  0
ELLIPSE
  5
136
330
B2
100
AcDbEntity
  8
0
  6
CONTINUOUS
 62
     7
100
AcDbEllipse
 10
1903.884848523377
 20
1372.543158225616
 30
0.0
 11
-2.224197421612835E-15
 21
5.809475019310011
 31
0.0
210
0.0
220
0.0
230
1.0
 40
0.774596669241632
 41
0.0
 42
6.283185307179586
  0
ENDBLK
  5
B4
330
B2
100
AcDbEntity
  8
0
100
AcDbBlockEnd
  0
BLOCK
  5
B6
330
B5
100
AcDbEntity
  8
0
100
AcDbBlockBegin
  2
SYM-7
 70
     0
 10
0.0
 20
0.0
 30
0.0
  3
SYM-7
  1

  0
LINE
  5
137
330
B5
100
AcDbEntity
  8
0
  6
CONTINUOUS
 62
     7
100
AcDbLine
 10
1906.601515190076
 20
2102.463158225618
 30
0.0
 11
1907.601515190079
 21
2101.463158225616
 31
0.0
  0
LINE
  5
138
330
B5
100
AcDbEntity
  8
0
  6
CONTINUOUS
 62
     7
100
AcDbLine
 10
1906.601515190076
 20
2110.463158225618
 30
0.0
 11
1907.601515190079
 21
2111.463158225618
 31
0.0
  0
LINE
  5
139
330
B5
100
AcDbEntity
  8
0
  6
CONTINUOUS
 62
     7
100
AcDbLine
 10
1896.201515190076
 20
2110.463158225618
 30
0.0
 11
1906.601515190076
 21
2110.463158225618
 31
0.0
  0
LINE
  5
13A
330
B5
100
AcDbEntity
  8
0
  6
CONTINUOUS
 62
     7
100
AcDbLine
 10
1896.201515190076
 20
2102.463158225618
 30
0.0
 11
1906.601515190076
 21
2102.463158225618
 31
0.0
  0
LINE
  5
13B
330
B5
100
AcDbEntity
  8
0
  6
CONTINUOUS
 62
     7
100
AcDbLine
 10
1881.601515190075
 20
2102.463158225618
 30
0.0
 11
1885.801515190075
 21
2102.463158225618
 31
0.0
  0
LINE
  5
13C
330
B5
100
AcDbEntity
  8
0
  6
CONTINUOUS
 62
     7
100
AcDbLine
 10
1882.601515190075
 20
2101.463158225616
 30
0.0
 11
1882.601515190075
 21
2111.463158225618
 31
0.0
  0
LINE
  5
13D
330
B5
100
AcDbEntity
  8
0
  6
CONTINUOUS
 62
     7
100
AcDbLine
 10
1881.601515190075
 20
2110.463158225618
 30
0.0
 11
1885.801515190075
 21
2110.463158225618
 31
0.0
  0
LINE
  5
13E
330
B5
100
AcDbEntity
  8
0
  6
CONTINUOUS
 62
     7
100
AcDbLine
 10
1911.601515190063
 20
2094.341837882071
 30
0.0
 11
1911.709435020528
 21
2094.233918051609
 31
0.0
  0
LINE
  5
13F
330
B5
100
AcDbEntity
  8
0
  6
CONTINUOUS
 62
     7
100
AcDbLine
 10
1911.601515190069
 20
2095.048944663254
 30
0.0
 11
1912.058396808636
 21
2094.592063044684
 31
0.0
  0
LINE
  5
140
330
B5
100
AcDbEntity
  8
0
  6
CONTINUOUS
 62
     7
100
AcDbLine
 10
1911.601515190075
 20
2095.756051444435
 30
0.0
 11
1912.40735859676
 21
2094.950208037747
 31
0.0
  0
LINE
  5
141
330
B5
100
AcDbEntity
  8
0
  6
CONTINUOUS
 62
     7
100
AcDbLine
 10
1911.601515190065
 20
2096.463158225627
 30
0.0
 11
1912.75632038488
 21
2095.308353030813
 31
0.0
  0
LINE
  5
142
330
B5
100
AcDbEntity
  8
0
  6
CONTINUOUS
 62
     7
100
AcDbLine
 10
1912.308621971261
 20
2096.46315822562
 30
0.0
 11
1913.105282172992
 21
2095.666498023888
 31
0.0
  0
LINE
  5
143
330
B5
100
AcDbEntity
  8
0
  6
CONTINUOUS
 62
     7
100
AcDbLine
 10
1913.01572875244
 20
2096.463158225627
 30
0.0
 11
1913.454243961116
 21
2096.024643016953
 31
0.0
  0
LINE
  5
144
330
B5
100
AcDbEntity
  8
0
  6
CONTINUOUS
 62
     7
100
AcDbLine
 10
1913.722835533634
 20
2096.463158225618
 30
0.0
 11
1913.803205749237
 21
2096.382788010015
 31
0.0
  0
LINE
  5
145
330
B5
100
AcDbEntity
  8
0
  6
CONTINUOUS
 62
     7
100
AcDbLine
 10
1911.601515190076
 20
2094.123158225618
 30
0.0
 11
1913.881515190076
 21
2096.463158225618
 31
0.0
  0
LINE
  5
146
330
B5
100
AcDbEntity
  8
0
  6
CONTINUOUS
 62
     7
100
AcDbLine
 10
1911.601515190075
 20
2096.463158225618
 30
0.0
 11
1917.297515190074
 21
2096.463158225618
 31
0.0
  0
ARC
  5
147
330
B5
100
AcDbEntity
  8
0
  6
CONTINUOUS
 62
     7
100
AcDbCircle
 10
1913.210594735531
 20
2098.963158225618
 30
0.0
 40
4.790920454545454
100
AcDbArc
 50
328.5455606612239
 51
31.45443933877169
  0
ARC
  5
148
330
B5
100
AcDbEntity
  8
0
  6
CONTINUOUS
 62
     7
100
AcDbCircle
 10
1899.893833371892
 20
2106.463158225618
 30
0.0
 40
18.10768181818181
100
AcDbArc
 50
343.9708781133803
 51
16.02912188661214
  0
LINE
  5
149
330
B5
100
AcDbEntity
  8
0
  6
CONTINUOUS
 62
     7
100
AcDbLine
 10
1918.001515190074
 20
2098.963158225618
 30
0.0
 11
1918.001515190074
 21
2113.963158225618
 31
0.0
  0
ARC
  5
14A
330
B5
100
AcDbEntity
  8
0
  6
CONTINUOUS
 62
     7
100
AcDbCircle
 10
1913.210594735531
 20
2113.963158225618
 30
0.0
 40
4.790920454545454
100
AcDbArc
 50
328.5455606612239
 51
31.45443933877169
  0
LINE
  5
14B
330
B5
100
AcDbEntity
  8
0
  6
CONTINUOUS
 62
     7
100
AcDbLine
 10
1911.601515190075
 20
2116.463158225616
 30
0.0
 11
1917.297515190074
 21
2116.463158225616
 31
0.0
  0
LINE
  5
14C
330
B5
100
AcDbEntity
  8
0
  6
CONTINUOUS
 62
     7
100
AcDbLine
 10
1913.722835533632
 20
2116.463158225614
 30
0.0
 11
1913.830755364073
 21
2116.571078056054
 31
0.0
  0
LINE
  5
14D
330
B5
100
AcDbEntity
  8
0
  6
CONTINUOUS
 62
     7
100
AcDbLine
 10
1913.015728752438
 20
2116.463158225607
 30
0.0
 11
1913.472610371006
 21
2116.920039844176
 31
0.0
  0
LINE
  5
14E
330
B5
100
AcDbEntity
  8
0
  6
CONTINUOUS
 62
     7
100
AcDbLine
 10
1912.308621971245
 20
2116.463158225602
 30
0.0
 11
1913.114465377943
 21
2117.269001632297
 31
0.0
  0
LINE
  5
14F
330
B5
100
AcDbEntity
  8
0
  6
CONTINUOUS
 62
     7
100
AcDbLine
 10
1911.601515190064
 20
2116.463158225607
 30
0.0
 11
1912.756320384867
 21
2117.617963420408
 31
0.0
  0
LINE
  5
150
330
B5
100
AcDbEntity
  8
0
  6
CONTINUOUS
 62
     7
100
AcDbLine
 10
1911.601515190081
 20
2117.170265006812
 30
0.0
 11
1912.398175391807
 21
2117.966925208532
 31
0.0
  0
LINE
  5
151
330
B5
100
AcDbEntity
  8
0
  6
CONTINUOUS
 62
     7
100
AcDbLine
 10
1911.601515190076
 20
2117.877371787993
 30
0.0
 11
1912.04003039874
 21
2118.315886996653
 31
0.0
  0
LINE
  5
152
330
B5
100
AcDbEntity
  8
0
  6
CONTINUOUS
 62
     7
100
AcDbLine
 10
1911.601515190083
 20
2118.584478569185
 30
0.0
 11
1911.681885405663
 21
2118.664848784766
 31
0.0
  0
LINE
  5
153
330
B5
100
AcDbEntity
  8
0
  6
CONTINUOUS
 62
     7
100
AcDbLine
 10
1913.941515190074
 20
2116.46315822562
 30
0.0
 11
1911.601515190075
 21
2118.743158225619
 31
0.0
  0
LINE
  5
154
330
B5
100
AcDbEntity
  8
0
  6
CONTINUOUS
 62
     7
100
AcDbLine
 10
1906.601515190076
 20
2111.463158225618
 30
0.0
 11
1906.601515190076
 21
2101.463158225616
 31
0.0
  0
LINE
  5
155
330
B5
100
AcDbEntity
  8
0
  6
CONTINUOUS
 62
     7
100
AcDbLine
 10
1917.297515190074
 20
2111.463158225618
 30
0.0
 11
1896.201515190076
 21
2111.463158225618
 31
0.0
  0
LINE
  5
156
330
B5
100
AcDbEntity
  8
0
  6
CONTINUOUS
 62
     7
100
AcDbLine
 10
1917.297515190074
 20
2101.463158225616
 30
0.0
 11
1896.201515190076
 21
2101.463158225616
 31
0.0
  0
LINE
  5
157
330
B5
100
AcDbEntity
  8
0
  6
CONTINUOUS
 62
     7
100
AcDbLine
 10
1894.201515190078
 20
2095.963158225618
 30
0.0
 11
1896.201515190076
 21
2095.963158225618
 31
0.0
  0
LINE
  5
158
330
B5
100
AcDbEntity
  8
0
  6
CONTINUOUS
 62
     7
100
AcDbLine
 10
1894.201515190078
 20
2116.963158225618
 30
0.0
 11
1896.201515190076
 21
2116.963158225618
 31
0.0
  0
LINE
  5
159
330
B5
100
AcDbEntity
  8
0
  6
CONTINUOUS
 62
     7
100
AcDbLine
 10
1894.201515190078
 20
2095.963158225618
 30
0.0
 11
1894.201515190078
 21
2116.963158225618
 31
0.0
  0
LINE
  5
15A
330
B5
100
AcDbEntity
  8
0
  6
CONTINUOUS
 62
     7
100
AcDbLine
 10
1885.801515190075
 20
2113.963158225618
 30
0.0
 11
1885.801515190075
 21
2098.963158225618
 31
0.0
  0
ARC
  5
15B
330
B5
100
AcDbEntity
  8
0
  6
CONTINUOUS
 62
     7
100
AcDbCircle
 10
1889.645549822111
 20
2098.963158225618
 30
0.0
 40
3.844034632034633
100
AcDbArc
 50
139.4313750265994
 51
220.5686249734146
  0
ARC
  5
15C
330
B5
100
AcDbEntity
  8
0
  6
CONTINUOUS
 62
     7
100
AcDbCircle
 10
1899.791653718214
 20
2106.463158225618
 30
0.0
 40
13.99013852813853
100
AcDbArc
 50
159.0597243938601
 51
200.9402756061523
  0
ARC
  5
15D
330
B5
100
AcDbEntity
  8
0
  6
CONTINUOUS
 62
     7
100
AcDbCircle
 10
1889.645549822111
 20
2113.963158225618
 30
0.0
 40
3.844034632034633
100
AcDbArc
 50
139.4313750265994
 51
220.5686249734146
  0
LINE
  5
15E
330
B5
100
AcDbEntity
  8
0
  6
CONTINUOUS
 62
     7
100
AcDbLine
 10
1894.201515190078
 20
2096.463158225618
 30
0.0
 11
1886.725515190076
 21
2096.463158225618
 31
0.0
  0
LINE
  5
15F
330
B5
100
AcDbEntity
  8
0
  6
CONTINUOUS
 62
     7
100
AcDbLine
 10
1894.201515190078
 20
2116.463158225616
 30
0.0
 11
1886.725515190076
 21
2116.463158225616
 31
0.0
  0
LINE
  5
160
330
B5
100
AcDbEntity
  8
0
  6
CONTINUOUS
 62
     7
100
AcDbLine
 10
1894.201515190078
 20
2101.463158225616
 30
0.0
 11
1886.725515190076
 21
2101.463158225616
 31
0.0
  0
LINE
  5
161
330
B5
100
AcDbEntity
  8
0
  6
CONTINUOUS
 62
     7
100
AcDbLine
 10
1894.201515190078
 20
2111.463158225618
 30
0.0
 11
1886.725515190076
 21
2111.463158225618
 31
0.0
  0
LINE
  5
162
330
B5
100
AcDbEntity
  8
0
  6
CONTINUOUS
 62
     7
100
AcDbLine
 10
1885.801515190075
 20
2101.463158225616
 30
0.0
 11
1882.601515190075
 21
2101.463158225616
 31
0.0
  0
LINE
  5
163
330
B5
100
AcDbEntity
  8
0
  6
CONTINUOUS
 62
     7
100
AcDbLine
 10
1885.801515190075
 20
2111.463158225618
 30
0.0
 11
1882.601515190075
 21
2111.463158225618
 31
0.0
  0
LINE
  5
164
330
B5
100
AcDbEntity
  8
0
  6
CONTINUOUS
 62
     7
100
AcDbLine
 10
1881.601515190075
 20
2102.463158225618
 30
0.0
 11
1881.601515190075
 21
2110.463158225618
 31
0.0
  0
LINE
  5
165
330
B5
100
AcDbEntity
  8
0
  6
CONTINUOUS
 62
     7
100
AcDbLine
 10
1882.601515190075
 20
2111.463158225618
 30
0.0
 11
1881.601515190075
 21
2110.463158225618
 31
0.0
  0
LINE
  5
166
330
B5
100
AcDbEntity
  8
0
  6
CONTINUOUS
 62
     7
100
AcDbLine
 10
1882.601515190075
 20
2101.463158225616
 30
0.0
 11
1881.601515190075
 21
2102.463158225618
 31
0.0
  0
ENDBLK
  5
B7
330
B5
100
AcDbEntity
  8
0
100
AcDbBlockEnd
  0
BLOCK
  5
B9
330
B8
100
AcDbEntity
  8
0
100
AcDbBlockBegin
  2
SYM-8
 70
     0
 10
0.0
 20
0.0
 30
0.0
  3
SYM-8
  1

  0
LINE
  5
167
330
B8
100
AcDbEntity
  8
0
  6
CONTINUOUS
 62
     7
100
AcDbLine
 10
1906.601515190076
 20
1352.463158225615
 30
0.0
 11
1907.601515190079
 21
1351.463158225616
 31
0.0
  0
LINE
  5
168
330
B8
100
AcDbEntity
  8
0
  6
CONTINUOUS
 62
     7
100
AcDbLine
 10
1906.601515190076
 20
1360.463158225615
 30
0.0
 11
1907.601515190079
 21
1361.463158225616
 31
0.0
  0
LINE
  5
169
330
B8
100
AcDbEntity
  8
0
  6
CONTINUOUS
 62
     7
100
AcDbLine
 10
1896.201515190076
 20
1360.463158225615
 30
0.0
 11
1906.601515190076
 21
1360.463158225615
 31
0.0
  0
LINE
  5
16A
330
B8
100
AcDbEntity
  8
0
  6
CONTINUOUS
 62
     7
100
AcDbLine
 10
1896.201515190076
 20
1352.463158225615
 30
0.0
 11
1906.601515190076
 21
1352.463158225615
 31
0.0
  0
LINE
  5
16B
330
B8
100
AcDbEntity
  8
0
  6
CONTINUOUS
 62
     7
100
AcDbLine
 10
1881.601515190075
 20
1352.463158225615
 30
0.0
 11
1887.801515190073
 21
1352.463158225615
 31
0.0
  0
LINE
  5
16C
330
B8
100
AcDbEntity
  8
0
  6
CONTINUOUS
 62
     7
100
AcDbLine
 10
1882.601515190075
 20
1351.463158225616
 30
0.0
 11
1882.601515190075
 21
1361.463158225616
 31
0.0
  0
LINE
  5
16D
330
B8
100
AcDbEntity
  8
0
  6
CONTINUOUS
 62
     7
100
AcDbLine
 10
1881.601515190075
 20
1360.463158225615
 30
0.0
 11
1887.801515190073
 21
1360.463158225615
 31
0.0
  0
LINE
  5
16E
330
B8
100
AcDbEntity
  8
0
  6
CONTINUOUS
 62
     7
100
AcDbLine
 10
1911.601515190075
 20
1366.463158225616
 30
0.0
 11
1917.297515190074
 21
1366.463158225616
 31
0.0
  0
LINE
  5
16F
330
B8
100
AcDbEntity
  8
0
  6
CONTINUOUS
 62
     7
100
AcDbLine
 10
1913.941515190074
 20
1366.463158225618
 30
0.0
 11
1911.601515190075
 21
1368.743158225617
 31
0.0
  0
LINE
  5
170
330
B8
100
AcDbEntity
  8
0
  6
CONTINUOUS
 62
     7
100
AcDbLine
 10
1911.601515190088
 20
1368.584478569187
 30
0.0
 11
1911.681885405668
 21
1368.664848784767
 31
0.0
  0
LINE
  5
171
330
B8
100
AcDbEntity
  8
0
  6
CONTINUOUS
 62
     7
100
AcDbLine
 10
1911.60151519008
 20
1367.877371787994
 30
0.0
 11
1912.040030398731
 21
1368.315886996645
 31
0.0
  0
LINE
  5
172
330
B8
100
AcDbEntity
  8
0
  6
CONTINUOUS
 62
     7
100
AcDbLine
 10
1911.601515190075
 20
1367.170265006802
 30
0.0
 11
1912.398175391807
 21
1367.966925208535
 31
0.0
  0
LINE
  5
173
330
B8
100
AcDbEntity
  8
0
  6
CONTINUOUS
 62
     7
100
AcDbLine
 10
1911.601515190055
 20
1366.463158225596
 30
0.0
 11
1912.756320384872
 21
1367.617963420412
 31
0.0
  0
LINE
  5
174
330
B8
100
AcDbEntity
  8
0
  6
CONTINUOUS
 62
     7
100
AcDbLine
 10
1912.30862197125
 20
1366.463158225603
 30
0.0
 11
1913.114465377934
 21
1367.269001632289
 31
0.0
  0
LINE
  5
175
330
B8
100
AcDbEntity
  8
0
  6
CONTINUOUS
 62
     7
100
AcDbLine
 10
1913.015728752442
 20
1366.46315822561
 30
0.0
 11
1913.47261037101
 21
1366.920039844179
 31
0.0
  0
LINE
  5
176
330
B8
100
AcDbEntity
  8
0
  6
CONTINUOUS
 62
     7
100
AcDbLine
 10
1913.722835533624
 20
1366.463158225605
 30
0.0
 11
1913.830755364077
 21
1366.571078056057
 31
0.0
  0
LINE
  5
177
330
B8
100
AcDbEntity
  8
0
  6
CONTINUOUS
 62
     7
100
AcDbLine
 10
1911.601515190072
 20
1344.341837882062
 30
0.0
 11
1911.709435020521
 21
1344.23391805161
 31
0.0
  0
LINE
  5
178
330
B8
100
AcDbEntity
  8
0
  6
CONTINUOUS
 62
     7
100
AcDbLine
 10
1911.601515190076
 20
1344.123158225616
 30
0.0
 11
1913.881515190076
 21
1346.463158225616
 31
0.0
  0
LINE
  5
179
330
B8
100
AcDbEntity
  8
0
  6
CONTINUOUS
 62
     7
100
AcDbLine
 10
1913.722835533629
 20
1346.463158225621
 30
0.0
 11
1913.803205749234
 21
1346.382788010018
 31
0.0
  0
LINE
  5
17A
330
B8
100
AcDbEntity
  8
0
  6
CONTINUOUS
 62
     7
100
AcDbLine
 10
1913.015728752448
 20
1346.463158225616
 30
0.0
 11
1913.454243961108
 21
1346.024643016954
 31
0.0
  0
LINE
  5
17B
330
B8
100
AcDbEntity
  8
0
  6
CONTINUOUS
 62
     7
100
AcDbLine
 10
1912.308621971255
 20
1346.463158225623
 30
0.0
 11
1913.105282172999
 21
1345.666498023879
 31
0.0
  0
LINE
  5
17C
330
B8
100
AcDbEntity
  8
0
  6
CONTINUOUS
 62
     7
100
AcDbLine
 10
1911.601515190063
 20
1346.463158225629
 30
0.0
 11
1912.75632038488
 21
1345.308353030814
 31
0.0
  0
LINE
  5
17D
330
B8
100
AcDbEntity
  8
0
  6
CONTINUOUS
 62
     7
100
AcDbLine
 10
1911.601515190069
 20
1345.756051444436
 30
0.0
 11
1912.407358596753
 21
1344.950208037749
 31
0.0
  0
LINE
  5
17E
330
B8
100
AcDbEntity
  8
0
  6
CONTINUOUS
 62
     7
100
AcDbLine
 10
1911.601515190075
 20
1345.048944663244
 30
0.0
 11
1912.058396808645
 21
1344.592063044675
 31
0.0
  0
LINE
  5
17F
330
B8
100
AcDbEntity
  8
0
  6
CONTINUOUS
 62
     7
100
AcDbLine
 10
1911.601515190075
 20
1346.463158225616
 30
0.0
 11
1917.297515190074
 21
1346.463158225616
 31
0.0
  0
ARC
  5
180
330
B8
100
AcDbEntity
  8
0
  6
CONTINUOUS
 62
     7
100
AcDbCircle
 10
1913.210594735531
 20
1348.963158225616
 30
0.0
 40
4.790920454545454
100
AcDbArc
 50
328.5455606612213
 51
31.45443933877633
  0
LINE
  5
181
330
B8
100
AcDbEntity
  8
0
  6
CONTINUOUS
 62
     7
100
AcDbLine
 10
1918.001515190074
 20
1348.963158225616
 30
0.0
 11
1918.001515190074
 21
1363.963158225615
 31
0.0
  0
ARC
  5
182
330
B8
100
AcDbEntity
  8
0
  6
CONTINUOUS
 62
     7
100
AcDbCircle
 10
1899.893833371892
 20
1356.463158225615
 30
0.0
 40
18.10768181818181
100
AcDbArc
 50
343.9708781133889
 51
16.02912188661214
  0
ARC
  5
183
330
B8
100
AcDbEntity
  8
0
  6
CONTINUOUS
 62
     7
100
AcDbCircle
 10
1913.210594735531
 20
1363.963158225615
 30
0.0
 40
4.790920454545454
100
AcDbArc
 50
328.5455606612239
 51
31.45443933877633
  0
LINE
  5
184
330
B8
100
AcDbEntity
  8
0
  6
CONTINUOUS
 62
     7
100
AcDbLine
 10
1906.601515190076
 20
1361.463158225616
 30
0.0
 11
1906.601515190076
 21
1351.463158225616
 31
0.0
  0
LINE
  5
185
330
B8
100
AcDbEntity
  8
0
  6
CONTINUOUS
 62
     7
100
AcDbLine
 10
1917.297515190074
 20
1351.463158225616
 30
0.0
 11
1888.725515190074
 21
1351.463158225616
 31
0.0
  0
LINE
  5
186
330
B8
100
AcDbEntity
  8
0
  6
CONTINUOUS
 62
     7
100
AcDbLine
 10
1917.297515190074
 20
1361.463158225616
 30
0.0
 11
1888.725515190074
 21
1361.463158225616
 31
0.0
  0
LINE
  5
187
330
B8
100
AcDbEntity
  8
0
  6
CONTINUOUS
 62
     7
100
AcDbLine
 10
1882.601515190075
 20
1351.463158225616
 30
0.0
 11
1881.601515190075
 21
1352.463158225615
 31
0.0
  0
LINE
  5
188
330
B8
100
AcDbEntity
  8
0
  6
CONTINUOUS
 62
     7
100
AcDbLine
 10
1882.601515190075
 20
1361.463158225616
 30
0.0
 11
1881.601515190075
 21
1360.463158225615
 31
0.0
  0
LINE
  5
189
330
B8
100
AcDbEntity
  8
0
  6
CONTINUOUS
 62
     7
100
AcDbLine
 10
1881.601515190075
 20
1352.463158225615
 30
0.0
 11
1881.601515190075
 21
1360.463158225615
 31
0.0
  0
LINE
  5
18A
330
B8
100
AcDbEntity
  8
0
  6
CONTINUOUS
 62
     7
100
AcDbLine
 10
1887.801515190073
 20
1361.463158225616
 30
0.0
 11
1882.601515190075
 21
1361.463158225616
 31
0.0
  0
LINE
  5
18B
330
B8
100
AcDbEntity
  8
0
  6
CONTINUOUS
 62
     7
100
AcDbLine
 10
1887.801515190073
 20
1351.463158225616
 30
0.0
 11
1882.601515190075
 21
1351.463158225616
 31
0.0
  0
LINE
  5
18C
330
B8
100
AcDbEntity
  8
0
  6
CONTINUOUS
 62
     7
100
AcDbLine
 10
1896.201515190076
 20
1366.463158225615
 30
0.0
 11
1888.725515190074
 21
1366.463158225615
 31
0.0
  0
LINE
  5
18D
330
B8
100
AcDbEntity
  8
0
  6
CONTINUOUS
 62
     7
100
AcDbLine
 10
1896.201515190076
 20
1346.463158225616
 30
0.0
 11
1888.725515190074
 21
1346.463158225616
 31
0.0
  0
ARC
  5
18E
330
B8
100
AcDbEntity
  8
0
  6
CONTINUOUS
 62
     7
100
AcDbCircle
 10
1891.645549822113
 20
1363.963158225615
 30
0.0
 40
3.844034632034633
100
AcDbArc
 50
139.4313750266288
 51
220.5686249733687
  0
ARC
  5
18F
330
B8
100
AcDbEntity
  8
0
  6
CONTINUOUS
 62
     7
100
AcDbCircle
 10
1901.791653718213
 20
1356.463158225615
 30
0.0
 40
13.99013852813853
100
AcDbArc
 50
159.0597243938583
 51
200.9402756061408
  0
ARC
  5
190
330
B8
100
AcDbEntity
  8
0
  6
CONTINUOUS
 62
     7
100
AcDbCircle
 10
1891.645549822113
 20
1348.963158225615
 30
0.0
 40
3.844034632034633
100
AcDbArc
 50
139.4313750266313
 51
220.5686249733714
  0
LINE
  5
191
330
B8
100
AcDbEntity
  8
0
  6
CONTINUOUS
 62
     7
100
AcDbLine
 10
1887.801515190073
 20
1363.963158225615
 30
0.0
 11
1887.801515190073
 21
1348.963158225615
 31
0.0
  0
ENDBLK
  5
BA
330
B8
100
AcDbEntity
  8
0
100
AcDbBlockEnd
  0
BLOCK
  5
BC
330
BB
100
AcDbEntity
  8
0
100
AcDbBlockBegin
  2
SYM-9
 70
     0
 10
0.0
 20
0.0
 30
0.0
  3
SYM-9
  1

  0
ELLIPSE
  5
192
330
BB
100
AcDbEntity
  8
0
  6
CONTINUOUS
 62
     7
100
AcDbEllipse
 10
679.0799999999865
 20
805.2305686998562
 30
0.0
 11
-5.809475019310011
 21
7.114554987124514E-16
 31
0.0
210
0.0
220
0.0
230
1.0
 40
0.774596669241632
 41
0.0
 42
6.283185307179586
  0
LINE
  5
193
330
BB
100
AcDbEntity
  8
0
  6
CONTINUOUS
 62
     7
100
AcDbLine
 10
684.6836381352861
 20
806.4178107935568
 30
0.0
 11
681.9649621509865
 21
809.1364867778566
 31
0.0
  0
LINE
  5
194
330
BB
100
AcDbEntity
  8
0
  6
CONTINUOUS
 62
     7
100
AcDbLine
 10
684.8654547891869
 20
804.8217805772566
 30
0.0
 11
680.0153785440864
 21
809.671856822456
 31
0.0
  0
LINE
  5
195
330
BB
100
AcDbEntity
  8
0
  6
CONTINUOUS
 62
     7
100
AcDbLine
 10
684.5525839264867
 20
803.7204378776564
 30
0.0
 11
678.560482453787
 21
809.7125393503566
 31
0.0
  0
LINE
  5
196
330
BB
100
AcDbEntity
  8
0
  6
CONTINUOUS
 62
     7
100
AcDbLine
 10
680.3606806991868
 20
800.8412732930566
 30
0.0
 11
673.9135509162863
 21
807.288403075956
 31
0.0
  0
LINE
  5
197
330
BB
100
AcDbEntity
  8
0
  6
CONTINUOUS
 62
     7
100
AcDbLine
 10
679.0571368817866
 20
800.7306035481561
 30
0.0
 11
673.4493277807862
 21
806.3384126491565
 31
0.0
  0
LINE
  5
198
330
BB
100
AcDbEntity
  8
0
  6
CONTINUOUS
 62
     7
100
AcDbLine
 10
677.4657483508867
 20
800.9077785166569
 30
0.0
 11
673.2729493586859
 21
805.100577508857
 31
0.0
  0
LINE
  5
199
330
BB
100
AcDbEntity
  8
0
  6
CONTINUOUS
 62
     7
100
AcDbLine
 10
684.0094640827868
 20
802.8493441589563
 30
0.0
 11
677.3358353445948
 21
809.5229728971481
 31
0.0
  0
LINE
  5
19A
330
BB
100
AcDbEntity
  8
0
  6
CONTINUOUS
 62
     7
100
AcDbLine
 10
683.303711507387
 20
802.1408831719568
 30
0.0
 11
676.2738209671854
 21
809.1707737124821
 31
0.0
  0
LINE
  5
19B
330
BB
100
AcDbEntity
  8
0
  6
CONTINUOUS
 62
     7
100
AcDbLine
 10
682.4598581996863
 20
801.5705229173564
 30
0.0
 11
675.3499073216046
 21
808.6804737951315
 31
0.0
  0
LINE
  5
19C
330
BB
100
AcDbEntity
  8
0
  6
CONTINUOUS
 62
     7
100
AcDbLine
 10
681.4826983598871
 20
801.1334691947573
 30
0.0
 11
674.5593002085755
 21
808.0568673460643
 31
0.0
  0
ENDBLK
  5
BD
330
BB
100
AcDbEntity
  8
0
100
AcDbBlockEnd
  0
BLOCK
  5
BF
330
BE
100
AcDbEntity
  8
0
100
AcDbBlockBegin
  2
SYM-10
 70
     0
 10
0.0
 20
0.0
 30
0.0
  3
SYM-10
  1

  0
LINE
  5
19D
330
BE
100
AcDbEntity
  8
0
  6
CONTINUOUS
 62
     7
100
AcDbLine
 10
658.9999999999857
 20
827.5139020331562
 30
0.0
 11
658.9999999999857
 21
823.3139020331569
 31
0.0
  0
LINE
  5
19E
330
BE
100
AcDbEntity
  8
0
  6
CONTINUOUS
 62
     7
100
AcDbLine
 10
666.9999999999857
 20
827.5139020331562
 30
0.0
 11
666.9999999999857
 21
823.3139020331569
 31
0.0
  0
LINE
  5
19F
330
BE
100
AcDbEntity
  8
0
  6
CONTINUOUS
 62
     7
100
AcDbLine
 10
667.9999999999856
 20
823.3139020331569
 30
0.0
 11
667.9999999999856
 21
826.5139020331567
 31
0.0
  0
LINE
  5
1A0
330
BE
100
AcDbEntity
  8
0
  6
CONTINUOUS
 62
     7
100
AcDbLine
 10
657.9999999999856
 20
823.3139020331569
 30
0.0
 11
657.9999999999856
 21
826.5139020331567
 31
0.0
  0
LINE
  5
1A1
330
BE
100
AcDbEntity
  8
0
  6
CONTINUOUS
 62
     7
100
AcDbLine
 10
667.9999999999856
 20
814.9139020331569
 30
0.0
 11
667.9999999999856
 21
822.3899020331569
 31
0.0
  0
LINE
  5
1A2
330
BE
100
AcDbEntity
  8
0
  6
CONTINUOUS
 62
     7
100
AcDbLine
 10
657.9999999999856
 20
814.9139020331569
 30
0.0
 11
657.9999999999856
 21
822.3899020331569
 31
0.0
  0
LINE
  5
1A3
330
BE
100
AcDbEntity
  8
0
  6
CONTINUOUS
 62
     7
100
AcDbLine
 10
666.9999999999902
 20
827.5139020331562
 30
0.0
 11
658.9999999999912
 21
827.5139020331562
 31
0.0
  0
LINE
  5
1A4
330
BE
100
AcDbEntity
  8
0
  6
CONTINUOUS
 62
     7
100
AcDbLine
 10
667.9999999999911
 20
826.5139020331567
 30
0.0
 11
657.9999999999901
 21
826.5139020331567
 31
0.0
  0
LINE
  5
1A5
330
BE
100
AcDbEntity
  8
0
  6
CONTINUOUS
 62
     7
100
AcDbLine
 10
657.9999999999901
 20
826.5139020331567
 30
0.0
 11
658.9999999999912
 21
827.5139020331562
 31
0.0
  0
LINE
  5
1A6
330
BE
100
AcDbEntity
  8
0
  6
CONTINUOUS
 62
     7
100
AcDbLine
 10
667.9999999999911
 20
826.5139020331567
 30
0.0
 11
666.9999999999902
 21
827.5139020331562
 31
0.0
  0
LINE
  5
1A7
330
BE
100
AcDbEntity
  8
0
  6
CONTINUOUS
 62
     7
100
AcDbLine
 10
672.9999999999856
 20
814.9139020331569
 30
0.0
 11
672.9999999999856
 21
822.3899020331569
 31
0.0
  0
LINE
  5
1A8
330
BE
100
AcDbEntity
  8
0
  6
CONTINUOUS
 62
     7
100
AcDbLine
 10
652.9999999999866
 20
814.9139020331569
 30
0.0
 11
652.9999999999866
 21
822.3899020331569
 31
0.0
  0
ARC
  5
1A9
330
BE
100
AcDbEntity
  8
0
  6
CONTINUOUS
 62
     7
100
AcDbCircle
 10
670.4999999999856
 20
819.4698674011221
 30
0.0
 40
3.844034632034633
100
AcDbArc
 50
49.43137502657837
 51
130.5686249733964
  0
ARC
  5
1AA
330
BE
100
AcDbEntity
  8
0
  6
CONTINUOUS
 62
     7
100
AcDbCircle
 10
662.9999999999856
 20
809.3237635050186
 30
0.0
 40
13.99013852813853
100
AcDbArc
 50
69.0597243938585
 51
110.9402756061383
  0
ARC
  5
1AB
330
BE
100
AcDbEntity
  8
0
  6
CONTINUOUS
 62
     7
100
AcDbCircle
 10
655.4999999999856
 20
819.4698674011221
 30
0.0
 40
3.844034632034633
100
AcDbArc
 50
49.43137502657837
 51
130.5686249733964
  0
LINE
  5
1AC
330
BE
100
AcDbEntity
  8
0
  6
CONTINUOUS
 62
     7
100
AcDbLine
 10
670.4999999999856
 20
823.3139020331569
 30
0.0
 11
655.4999999999856
 21
823.3139020331569
 31
0.0
  0
LINE
  5
1AD
330
BE
100
AcDbEntity
  8
0
  6
CONTINUOUS
 62
     7
100
AcDbLine
 10
673.4999999999857
 20
814.9139020331569
 30
0.0
 11
673.4999999999857
 21
812.9139020331559
 31
0.0
  0
LINE
  5
1AE
330
BE
100
AcDbEntity
  8
0
  6
CONTINUOUS
 62
     7
100
AcDbLine
 10
652.4999999999858
 20
814.9139020331569
 30
0.0
 11
673.4999999999857
 21
814.9139020331569
 31
0.0
  0
LINE
  5
1AF
330
BE
100
AcDbEntity
  8
0
  6
CONTINUOUS
 62
     7
100
AcDbLine
 10
652.4999999999858
 20
814.9139020331569
 30
0.0
 11
652.4999999999858
 21
812.9139020331559
 31
0.0
  0
LINE
  5
1B0
330
BE
100
AcDbEntity
  8
0
  6
CONTINUOUS
 62
     7
100
AcDbLine
 10
657.9999999999856
 20
791.8179020331564
 30
0.0
 11
657.9999999999856
 21
812.9139020331559
 31
0.0
  0
LINE
  5
1B1
330
BE
100
AcDbEntity
  8
0
  6
CONTINUOUS
 62
     7
100
AcDbLine
 10
658.9999999999857
 20
812.9139020331568
 30
0.0
 11
658.9999999999857
 21
802.5139020331568
 31
0.0
  0
LINE
  5
1B2
330
BE
100
AcDbEntity
  8
0
  6
CONTINUOUS
 62
     7
100
AcDbLine
 10
666.9999999999857
 20
812.9139020331568
 30
0.0
 11
666.9999999999857
 21
802.5139020331568
 31
0.0
  0
LINE
  5
1B3
330
BE
100
AcDbEntity
  8
0
  6
CONTINUOUS
 62
     7
100
AcDbLine
 10
667.9999999999856
 20
791.8179020331564
 30
0.0
 11
667.9999999999856
 21
812.9139020331559
 31
0.0
  0
LINE
  5
1B4
330
BE
100
AcDbEntity
  8
0
  6
CONTINUOUS
 62
     7
100
AcDbLine
 10
667.9999999999856
 20
802.5139020331568
 30
0.0
 11
657.9999999999856
 21
802.5139020331568
 31
0.0
  0
LINE
  5
1B5
330
BE
100
AcDbEntity
  8
0
  6
CONTINUOUS
 62
     7
100
AcDbLine
 10
666.9999999999857
 20
802.5139020331568
 30
0.0
 11
667.9999999999856
 21
801.5139020331562
 31
0.0
  0
LINE
  5
1B6
330
BE
100
AcDbEntity
  8
0
  6
CONTINUOUS
 62
     7
100
AcDbLine
 10
658.9999999999857
 20
802.5139020331568
 30
0.0
 11
657.9999999999856
 21
801.5139020331562
 31
0.0
  0
ARC
  5
1B7
330
BE
100
AcDbEntity
  8
0
  6
CONTINUOUS
 62
     7
100
AcDbCircle
 10
670.4999999999856
 20
795.904822487702
 30
0.0
 40
4.790920454545454
100
AcDbArc
 50
238.5455606612269
 51
301.4544393387824
  0
ARC
  5
1B8
330
BE
100
AcDbEntity
  8
0
  6
CONTINUOUS
 62
     7
100
AcDbCircle
 10
662.9999999999856
 20
809.2215838513386
 30
0.0
 40
18.10768181818181
100
AcDbArc
 50
253.9708781133897
 51
286.0291218866135
  0
ARC
  5
1B9
330
BE
100
AcDbEntity
  8
0
  6
CONTINUOUS
 62
     7
100
AcDbCircle
 10
655.4999999999856
 20
795.904822487702
 30
0.0
 40
4.790920454545454
100
AcDbArc
 50
238.5455606612384
 51
301.4544393387824
  0
LINE
  5
1BA
330
BE
100
AcDbEntity
  8
0
  6
CONTINUOUS
 62
     7
100
AcDbLine
 10
652.9999999999866
 20
797.5139020331562
 30
0.0
 11
652.9999999999866
 21
791.8179020331564
 31
0.0
  0
LINE
  5
1BB
330
BE
100
AcDbEntity
  8
0
  6
CONTINUOUS
 62
     7
100
AcDbLine
 10
672.9999999999856
 20
797.5139020331562
 30
0.0
 11
672.9999999999856
 21
791.8179020331564
 31
0.0
  0
LINE
  5
1BC
330
BE
100
AcDbEntity
  8
0
  6
CONTINUOUS
 62
     7
100
AcDbLine
 10
655.4999999999856
 20
791.1139020331566
 30
0.0
 11
670.4999999999856
 21
791.1139020331566
 31
0.0
  0
LINE
  5
1BD
330
BE
100
AcDbEntity
  8
0
  6
CONTINUOUS
 62
     7
100
AcDbLine
 10
672.9999999999884
 20
795.1739020331565
 30
0.0
 11
675.2799999999862
 21
797.5139020331562
 31
0.0
  0
LINE
  5
1BE
330
BE
100
AcDbEntity
  8
0
  6
CONTINUOUS
 62
     7
100
AcDbLine
 10
675.1213203435367
 20
797.5139020331653
 30
0.0
 11
675.2016905591502
 21
797.4335318175517
 31
0.0
  0
LINE
  5
1BF
330
BE
100
AcDbEntity
  8
0
  6
CONTINUOUS
 62
     7
100
AcDbLine
 10
674.4142135623435
 20
797.5139020331727
 30
0.0
 11
674.8527287710289
 21
797.0753868244865
 31
0.0
  0
LINE
  5
1C0
330
BE
100
AcDbEntity
  8
0
  6
CONTINUOUS
 62
     7
100
AcDbLine
 10
673.7071067811623
 20
797.5139020331671
 30
0.0
 11
674.5037669829065
 21
796.7172418314232
 31
0.0
  0
LINE
  5
1C1
330
BE
100
AcDbEntity
  8
0
  6
CONTINUOUS
 62
     7
100
AcDbLine
 10
672.9999999999922
 20
797.5139020331503
 30
0.0
 11
674.1548051947958
 21
796.359096838346
 31
0.0
  0
LINE
  5
1C2
330
BE
100
AcDbEntity
  8
0
  6
CONTINUOUS
 62
     7
100
AcDbLine
 10
672.9999999999975
 20
796.8067952519568
 30
0.0
 11
673.8058434066718
 21
796.0009518452825
 31
0.0
  0
LINE
  5
1C3
330
BE
100
AcDbEntity
  8
0
  6
CONTINUOUS
 62
     7
100
AcDbLine
 10
672.9999999999939
 20
796.0996884707756
 30
0.0
 11
673.4568816185623
 21
795.642806852207
 31
0.0
  0
LINE
  5
1C4
330
BE
100
AcDbEntity
  8
0
  6
CONTINUOUS
 62
     7
100
AcDbLine
 10
672.9999999999884
 20
795.3925816895944
 30
0.0
 11
673.10791983044
 21
795.284661859142
 31
0.0
  0
LINE
  5
1C5
330
BE
100
AcDbEntity
  8
0
  6
CONTINUOUS
 62
     7
100
AcDbLine
 10
650.6599999999863
 20
797.5139020331545
 30
0.0
 11
652.9999999999866
 21
795.2339020331556
 31
0.0
  0
LINE
  5
1C6
330
BE
100
AcDbEntity
  8
0
  6
CONTINUOUS
 62
     7
100
AcDbLine
 10
650.7707598259886
 20
797.4059822027198
 30
0.0
 11
650.8786796564183
 21
797.513902033148
 31
0.0
  0
LINE
  5
1C7
330
BE
100
AcDbEntity
  8
0
  6
CONTINUOUS
 62
     7
100
AcDbLine
 10
651.1289048190539
 20
797.057020414597
 30
0.0
 11
651.5857864376104
 21
797.5139020331545
 31
0.0
  0
LINE
  5
1C8
330
BE
100
AcDbEntity
  8
0
  6
CONTINUOUS
 62
     7
100
AcDbLine
 10
651.4870498121184
 20
796.7080586264747
 30
0.0
 11
652.2928932188154
 21
797.5139020331727
 31
0.0
  0
LINE
  5
1C9
330
BE
100
AcDbEntity
  8
0
  6
CONTINUOUS
 62
     7
100
AcDbLine
 10
651.8451948051935
 20
796.3590968383642
 30
0.0
 11
652.9999999999856
 21
797.5139020331558
 31
0.0
  0
LINE
  5
1CA
330
BE
100
AcDbEntity
  8
0
  6
CONTINUOUS
 62
     7
100
AcDbLine
 10
652.203339798257
 20
796.0101350502418
 30
0.0
 11
652.9999999999785
 21
796.8067952519624
 31
0.0
  0
LINE
  5
1CB
330
BE
100
AcDbEntity
  8
0
  6
CONTINUOUS
 62
     7
100
AcDbLine
 10
652.5614847913223
 20
795.6611732621201
 30
0.0
 11
652.9999999999839
 21
796.0996884707811
 31
0.0
  0
LINE
  5
1CC
330
BE
100
AcDbEntity
  8
0
  6
CONTINUOUS
 62
     7
100
AcDbLine
 10
652.9196297843868
 20
795.3122114739972
 30
0.0
 11
652.9999999999775
 21
795.392581689588
 31
0.0
  0
ENDBLK
  5
C0
330
BE
100
AcDbEntity
  8
0
100
AcDbBlockEnd
  0
BLOCK
  5
C2
330
C1
100
AcDbEntity
  8
0
100
AcDbBlockBegin
  2
SYM-11
 70
     0
 10
0.0
 20
0.0
 30
0.0
  3
SYM-11
  1

  0
ELLIPSE
  5
1CD
330
C1
100
AcDbEntity
  8
0
  6
CONTINUOUS
 62
     7
100
AcDbEllipse
 10
1396.919999999972
 20
805.2305686998562
 30
0.0
 11
-5.809475019310011
 21
7.114554987124514E-16
 31
0.0
210
0.0
220
0.0
230
1.0
 40
0.774596669241632
 41
0.0
 42
6.283185307179586
  0
LINE
  5
1CE
330
C1
100
AcDbEntity
  8
0
  6
CONTINUOUS
 62
     7
100
AcDbLine
 10
1391.316361864671
 20
806.4178107935568
 30
0.0
 11
1394.035037848972
 21
809.1364867778566
 31
0.0
  0
LINE
  5
1CF
330
C1
100
AcDbEntity
  8
0
  6
CONTINUOUS
 62
     7
100
AcDbLine
 10
1391.134545210771
 20
804.8217805772566
 30
0.0
 11
1395.98462145587
 21
809.671856822456
 31
0.0
  0
LINE
  5
1D0
330
C1
100
AcDbEntity
  8
0
  6
CONTINUOUS
 62
     7
100
AcDbLine
 10
1391.447416073471
 20
803.7204378776564
 30
0.0
 11
1397.439517546172
 21
809.7125393503566
 31
0.0
  0
LINE
  5
1D1
330
C1
100
AcDbEntity
  8
0
  6
CONTINUOUS
 62
     7
100
AcDbLine
 10
1395.639319300771
 20
800.8412732930566
 30
0.0
 11
1402.086449083673
 21
807.288403075956
 31
0.0
  0
LINE
  5
1D2
330
C1
100
AcDbEntity
  8
0
  6
CONTINUOUS
 62
     7
100
AcDbLine
 10
1396.942863118171
 20
800.7306035481561
 30
0.0
 11
1402.550672219173
 21
806.3384126491565
 31
0.0
  0
LINE
  5
1D3
330
C1
100
AcDbEntity
  8
0
  6
CONTINUOUS
 62
     7
100
AcDbLine
 10
1398.534251649071
 20
800.9077785166569
 30
0.0
 11
1402.727050641271
 21
805.100577508857
 31
0.0
  0
LINE
  5
1D4
330
C1
100
AcDbEntity
  8
0
  6
CONTINUOUS
 62
     7
100
AcDbLine
 10
1391.990535917171
 20
802.8493441589563
 30
0.0
 11
1398.664164655365
 21
809.5229728971481
 31
0.0
  0
LINE
  5
1D5
330
C1
100
AcDbEntity
  8
0
  6
CONTINUOUS
 62
     7
100
AcDbLine
 10
1392.696288492571
 20
802.1408831719568
 30
0.0
 11
1399.726179032775
 21
809.1707737124813
 31
0.0
  0
LINE
  5
1D6
330
C1
100
AcDbEntity
  8
0
  6
CONTINUOUS
 62
     7
100
AcDbLine
 10
1393.540141800273
 20
801.5705229173564
 30
0.0
 11
1400.650092678354
 21
808.6804737951315
 31
0.0
  0
LINE
  5
1D7
330
C1
100
AcDbEntity
  8
0
  6
CONTINUOUS
 62
     7
100
AcDbLine
 10
1394.517301640072
 20
801.1334691947573
 30
0.0
 11
1401.440699791381
 21
808.0568673460658
 31
0.0
  0
ENDBLK
  5
C3
330
C1
100
AcDbEntity
  8
0
100
AcDbBlockEnd
  0
BLOCK
  5
C5
330
C4
100
AcDbEntity
  8
0
100
AcDbBlockBegin
  2
SYM-12
 70
     0
 10
0.0
 20
0.0
 30
0.0
  3
SYM-12
  1

  0
LINE
  5
1D8
330
C4
100
AcDbEntity
  8
0
  6
CONTINUOUS
 62
     7
100
AcDbLine
 10
1407.999999999972
 20
826.5139020331567
 30
0.0
 11
1417.999999999973
 21
826.5139020331567
 31
0.0
  0
LINE
  5
1D9
330
C4
100
AcDbEntity
  8
0
  6
CONTINUOUS
 62
     7
100
AcDbLine
 10
1407.999999999972
 20
826.5139020331567
 30
0.0
 11
1408.999999999973
 21
827.5139020331562
 31
0.0
  0
LINE
  5
1DA
330
C4
100
AcDbEntity
  8
0
  6
CONTINUOUS
 62
     7
100
AcDbLine
 10
1417.999999999973
 20
826.5139020331567
 30
0.0
 11
1416.999999999972
 21
827.5139020331562
 31
0.0
  0
LINE
  5
1DB
330
C4
100
AcDbEntity
  8
0
  6
CONTINUOUS
 62
     7
100
AcDbLine
 10
1408.999999999973
 20
827.5139020331562
 30
0.0
 11
1416.999999999972
 21
827.5139020331562
 31
0.0
  0
LINE
  5
1DC
330
C4
100
AcDbEntity
  8
0
  6
CONTINUOUS
 62
     7
100
AcDbLine
 10
1408.999999999973
 20
827.5139020331562
 30
0.0
 11
1408.999999999973
 21
823.3139020331569
 31
0.0
  0
LINE
  5
1DD
330
C4
100
AcDbEntity
  8
0
  6
CONTINUOUS
 62
     7
100
AcDbLine
 10
1416.999999999972
 20
827.5139020331562
 30
0.0
 11
1416.999999999972
 21
823.3139020331569
 31
0.0
  0
LINE
  5
1DE
330
C4
100
AcDbEntity
  8
0
  6
CONTINUOUS
 62
     7
100
AcDbLine
 10
1417.999999999973
 20
823.3139020331569
 30
0.0
 11
1417.999999999973
 21
826.5139020331567
 31
0.0
  0
LINE
  5
1DF
330
C4
100
AcDbEntity
  8
0
  6
CONTINUOUS
 62
     7
100
AcDbLine
 10
1407.999999999972
 20
823.3139020331569
 30
0.0
 11
1407.999999999972
 21
826.5139020331567
 31
0.0
  0
LINE
  5
1E0
330
C4
100
AcDbEntity
  8
0
  6
CONTINUOUS
 62
     7
100
AcDbLine
 10
1417.999999999973
 20
814.9139020331569
 30
0.0
 11
1417.999999999973
 21
822.3899020331569
 31
0.0
  0
LINE
  5
1E1
330
C4
100
AcDbEntity
  8
0
  6
CONTINUOUS
 62
     7
100
AcDbLine
 10
1407.999999999972
 20
814.9139020331569
 30
0.0
 11
1407.999999999972
 21
822.3899020331569
 31
0.0
  0
LINE
  5
1E2
330
C4
100
AcDbEntity
  8
0
  6
CONTINUOUS
 62
     7
100
AcDbLine
 10
1402.999999999973
 20
814.9139020331569
 30
0.0
 11
1402.999999999973
 21
822.3899020331569
 31
0.0
  0
ARC
  5
1E3
330
C4
100
AcDbEntity
  8
0
  6
CONTINUOUS
 62
     7
100
AcDbCircle
 10
1420.499999999972
 20
819.4698674011221
 30
0.0
 40
3.844034632034633
100
AcDbArc
 50
49.4313750266144
 51
130.5686249733918
  0
ARC
  5
1E4
330
C4
100
AcDbEntity
  8
0
  6
CONTINUOUS
 62
     7
100
AcDbCircle
 10
1412.999999999972
 20
809.3237635050186
 30
0.0
 40
13.99013852813853
100
AcDbArc
 50
69.05972439385523
 51
110.9402756061494
  0
ARC
  5
1E5
330
C4
100
AcDbEntity
  8
0
  6
CONTINUOUS
 62
     7
100
AcDbCircle
 10
1405.499999999972
 20
819.4698674011221
 30
0.0
 40
3.844034632034633
100
AcDbArc
 50
49.4313750266144
 51
130.5686249733918
  0
LINE
  5
1E6
330
C4
100
AcDbEntity
  8
0
  6
CONTINUOUS
 62
     7
100
AcDbLine
 10
1420.499999999972
 20
823.3139020331569
 30
0.0
 11
1405.499999999972
 21
823.3139020331569
 31
0.0
  0
LINE
  5
1E7
330
C4
100
AcDbEntity
  8
0
  6
CONTINUOUS
 62
     7
100
AcDbLine
 10
1402.499999999972
 20
814.9139020331569
 30
0.0
 11
1423.499999999973
 21
814.9139020331569
 31
0.0
  0
LINE
  5
1E8
330
C4
100
AcDbEntity
  8
0
  6
CONTINUOUS
 62
     7
100
AcDbLine
 10
1422.999999999972
 20
814.9139020331569
 30
0.0
 11
1422.999999999972
 21
822.3899020331569
 31
0.0
  0
LINE
  5
1E9
330
C4
100
AcDbEntity
  8
0
  6
CONTINUOUS
 62
     7
100
AcDbLine
 10
1402.499999999972
 20
814.9139020331569
 30
0.0
 11
1402.499999999972
 21
812.9139020331559
 31
0.0
  0
LINE
  5
1EA
330
C4
100
AcDbEntity
  8
0
  6
CONTINUOUS
 62
     7
100
AcDbLine
 10
1423.499999999973
 20
814.9139020331569
 30
0.0
 11
1423.499999999973
 21
812.9139020331559
 31
0.0
  0
LINE
  5
1EB
330
C4
100
AcDbEntity
  8
0
  6
CONTINUOUS
 62
     7
100
AcDbLine
 10
1407.999999999972
 20
791.8179020331564
 30
0.0
 11
1407.999999999972
 21
812.9139020331559
 31
0.0
  0
LINE
  5
1EC
330
C4
100
AcDbEntity
  8
0
  6
CONTINUOUS
 62
     7
100
AcDbLine
 10
1408.999999999973
 20
812.9139020331568
 30
0.0
 11
1408.999999999973
 21
802.5139020331568
 31
0.0
  0
LINE
  5
1ED
330
C4
100
AcDbEntity
  8
0
  6
CONTINUOUS
 62
     7
100
AcDbLine
 10
1416.999999999972
 20
812.9139020331568
 30
0.0
 11
1416.999999999972
 21
802.5139020331568
 31
0.0
  0
LINE
  5
1EE
330
C4
100
AcDbEntity
  8
0
  6
CONTINUOUS
 62
     7
100
AcDbLine
 10
1417.999999999973
 20
791.8179020331564
 30
0.0
 11
1417.999999999973
 21
812.9139020331559
 31
0.0
  0
LINE
  5
1EF
330
C4
100
AcDbEntity
  8
0
  6
CONTINUOUS
 62
     7
100
AcDbLine
 10
1416.999999999972
 20
802.5139020331568
 30
0.0
 11
1417.999999999973
 21
801.5139020331562
 31
0.0
  0
LINE
  5
1F0
330
C4
100
AcDbEntity
  8
0
  6
CONTINUOUS
 62
     7
100
AcDbLine
 10
1417.999999999973
 20
802.5139020331568
 30
0.0
 11
1407.999999999972
 21
802.5139020331568
 31
0.0
  0
LINE
  5
1F1
330
C4
100
AcDbEntity
  8
0
  6
CONTINUOUS
 62
     7
100
AcDbLine
 10
1408.999999999973
 20
802.5139020331568
 30
0.0
 11
1407.999999999972
 21
801.5139020331562
 31
0.0
  0
ARC
  5
1F2
330
C4
100
AcDbEntity
  8
0
  6
CONTINUOUS
 62
     7
100
AcDbCircle
 10
1412.999999999972
 20
809.2215838513386
 30
0.0
 40
18.10768181818181
100
AcDbArc
 50
253.9708781133825
 51
286.0291218866138
  0
ARC
  5
1F3
330
C4
100
AcDbEntity
  8
0
  6
CONTINUOUS
 62
     7
100
AcDbCircle
 10
1420.499999999972
 20
795.904822487702
 30
0.0
 40
4.790920454545454
100
AcDbArc
 50
238.5455606612373
 51
301.4544393387538
  0
LINE
  5
1F4
330
C4
100
AcDbEntity
  8
0
  6
CONTINUOUS
 62
     7
100
AcDbLine
 10
1422.999999999972
 20
797.5139020331562
 30
0.0
 11
1422.999999999972
 21
791.8179020331564
 31
0.0
  0
LINE
  5
1F5
330
C4
100
AcDbEntity
  8
0
  6
CONTINUOUS
 62
     7
100
AcDbLine
 10
1405.499999999972
 20
791.1139020331566
 30
0.0
 11
1420.499999999972
 21
791.1139020331566
 31
0.0
  0
ARC
  5
1F6
330
C4
100
AcDbEntity
  8
0
  6
CONTINUOUS
 62
     7
100
AcDbCircle
 10
1405.499999999972
 20
795.904822487702
 30
0.0
 40
4.790920454545454
100
AcDbArc
 50
238.5455606612373
 51
301.4544393387538
  0
LINE
  5
1F7
330
C4
100
AcDbEntity
  8
0
  6
CONTINUOUS
 62
     7
100
AcDbLine
 10
1402.999999999973
 20
797.5139020331562
 30
0.0
 11
1402.999999999973
 21
791.8179020331564
 31
0.0
  0
LINE
  5
1F8
330
C4
100
AcDbEntity
  8
0
  6
CONTINUOUS
 62
     7
100
AcDbLine
 10
1422.999999999976
 20
796.0996884707797
 30
0.0
 11
1423.456881618545
 21
795.6428068522123
 31
0.0
  0
LINE
  5
1F9
330
C4
100
AcDbEntity
  8
0
  6
CONTINUOUS
 62
     7
100
AcDbLine
 10
1422.99999999997
 20
796.8067952519732
 30
0.0
 11
1423.805843406645
 21
796.000951845298
 31
0.0
  0
LINE
  5
1FA
330
C4
100
AcDbEntity
  8
0
  6
CONTINUOUS
 62
     7
100
AcDbLine
 10
1422.999999999975
 20
797.5139020331545
 30
0.0
 11
1424.154805194767
 21
796.3590968383625
 31
0.0
  0
LINE
  5
1FB
330
C4
100
AcDbEntity
  8
0
  6
CONTINUOUS
 62
     7
100
AcDbLine
 10
1423.707106781157
 20
797.5139020331591
 30
0.0
 11
1424.50376698289
 21
796.7172418314271
 31
0.0
  0
LINE
  5
1FC
330
C4
100
AcDbEntity
  8
0
  6
CONTINUOUS
 62
     7
100
AcDbLine
 10
1424.414213562339
 20
797.513902033164
 30
0.0
 11
1424.852728771012
 21
797.075386824491
 31
0.0
  0
LINE
  5
1FD
330
C4
100
AcDbEntity
  8
0
  6
CONTINUOUS
 62
     7
100
AcDbLine
 10
1422.999999999975
 20
795.1739020331565
 30
0.0
 11
1425.279999999975
 21
797.5139020331562
 31
0.0
  0
LINE
  5
1FE
330
C4
100
AcDbEntity
  8
0
  6
CONTINUOUS
 62
     7
100
AcDbLine
 10
1422.99999999996
 20
795.39258168961
 30
0.0
 11
1423.107919830424
 21
795.2846618591475
 31
0.0
  0
LINE
  5
1FF
330
C4
100
AcDbEntity
  8
0
  6
CONTINUOUS
 62
     7
100
AcDbLine
 10
1425.12132034352
 20
797.5139020331694
 30
0.0
 11
1425.201690559122
 21
797.4335318175663
 31
0.0
  0
LINE
  5
200
330
C4
100
AcDbEntity
  8
0
  6
CONTINUOUS
 62
     7
100
AcDbLine
 10
1401.081855006906
 20
797.1028638212756
 30
0.0
 11
1401.492893218784
 21
797.513902033153
 31
0.0
  0
LINE
  5
201
330
C4
100
AcDbEntity
  8
0
  6
CONTINUOUS
 62
     7
100
AcDbLine
 10
1401.439999999971
 20
796.7539020331537
 30
0.0
 11
1402.199999999976
 21
797.5139020331591
 31
0.0
  0
LINE
  5
202
330
C4
100
AcDbEntity
  8
0
  6
CONTINUOUS
 62
     7
100
AcDbLine
 10
1401.798144993036
 20
796.404940245031
 30
0.0
 11
1402.907106781146
 21
797.5139020331426
 31
0.0
  0
LINE
  5
203
330
C4
100
AcDbEntity
  8
0
  6
CONTINUOUS
 62
     7
100
AcDbLine
 10
1402.156289986123
 20
796.0559784569324
 30
0.0
 11
1402.999999999959
 21
796.8996884707681
 31
0.0
  0
LINE
  5
204
330
C4
100
AcDbEntity
  8
0
  6
CONTINUOUS
 62
     7
100
AcDbLine
 10
1402.514434979186
 20
795.707016668809
 30
0.0
 11
1402.999999999976
 21
796.1925816895991
 31
0.0
  0
LINE
  5
205
330
C4
100
AcDbEntity
  8
0
  6
CONTINUOUS
 62
     7
100
AcDbLine
 10
1402.872579972251
 20
795.3580548806867
 30
0.0
 11
1402.999999999969
 21
795.4854749084058
 31
0.0
  0
LINE
  5
206
330
C4
100
AcDbEntity
  8
0
  6
CONTINUOUS
 62
     7
100
AcDbLine
 10
1400.659999999972
 20
797.5139020331545
 30
0.0
 11
1402.999999999973
 21
795.2339020331556
 31
0.0
  0
LINE
  5
207
330
C4
100
AcDbEntity
  8
0
  6
CONTINUOUS
 62
     7
100
AcDbLine
 10
1400.723710013832
 20
797.4518256093866
 30
0.0
 11
1400.785786437603
 21
797.5139020331585
 31
0.0
  0
ENDBLK
  5
C6
330
C4
100
AcDbEntity
  8
0
100
AcDbBlockEnd
  0
BLOCK
  5
4B2
330
4B1
100
AcDbEntity
  8
0
100
AcDbBlockBegin
  2
*D27
 70
     1
 10
0.0
 20
0.0
 30
0.0
  3
*D27
  1

  0
LINE
  5
4B4
330
4B1
100
AcDbEntity
  8
LAY-20
  6
CONTINUOUS
 62
     4
100
AcDbLine
 10
1806.6015151901
 20
2173.4631582256
 30
0.0
 11
1636.6015151901
 21
2173.4631582256
 31
0.0
  0
LINE
  5
4B5
330
4B1
100
AcDbEntity
  8
LAY-20
  6
CONTINUOUS
 62
     4
100
AcDbLine
 10
1806.6015151901
 20
1289.4631582256
 30
0.0
 11
1636.6015151901
 21
1289.4631582256
 31
0.0
  0
LINE
  5
4B6
330
4B1
100
AcDbEntity
  8
LAY-20
  6
CONTINUOUS
 62
     4
100
AcDbLine
 10
1651.6015151901
 20
2148.4631582256
 30
0.0
 11
1651.6015151901
 21
1314.4631582256
 31
0.0
  0
INSERT
  5
4B7
330
4B1
100
AcDbEntity
  8
LAY-20
 62
     4
100
AcDbBlockReference
  2
EX_BNORM
 10
1651.6015151901
 20
2173.4631582256
 30
0.0
 41
25.0
 42
25.0
 43
25.0
 50
90.0
  0
INSERT
  5
4B8
330
4B1
100
AcDbEntity
  8
LAY-20
 62
     4
100
AcDbBlockReference
  2
EX_BNORM
 10
1651.6015151901
 20
1289.4631582256
 30
0.0
 41
25.0
 42
25.0
 43
25.0
 50
270.0
  0
MTEXT
  5
4B9
330
4B1
100
AcDbEntity
  8
LAY-20
 62
     7
100
AcDbMText
 10
1626.6015151901
 20
1731.4631582256
 30
0.0
 40
31.181104
 41
0.0
 71
     5
 72
     1
  1
884
  7
EXCADDIM1
 11
0.0
 21
1.0
 31
0.0
  0
POINT
  5
4BA
330
4B1
100
AcDbEntity
  8
DEFPOINTS
 62
     0
100
AcDbPoint
 10
1821.6015151901
 20
2173.4631582256
 30
0.0
  0
POINT
  5
4BB
330
4B1
100
AcDbEntity
  8
DEFPOINTS
 62
     0
100
AcDbPoint
 10
1821.6015151901
 20
1289.4631582256
 30
0.0
  0
POINT
  5
4BC
330
4B1
100
AcDbEntity
  8
DEFPOINTS
 62
     0
100
AcDbPoint
 10
1651.6015151901
 20
1289.4631582256
 30
0.0
  0
ENDBLK
  5
4B3
330
4B1
100
AcDbEntity
  8
0
100
AcDbBlockEnd
  0
BLOCK
  5
4BF
330
4BE
100
AcDbEntity
  8
0
100
AcDbBlockBegin
  2
*D28
 70
     1
 10
0.0
 20
0.0
 30
0.0
  3
*D28
  1

  0
LINE
  5
4C1
330
4BE
100
AcDbEntity
  8
LAY-20
  6
CONTINUOUS
 62
     4
100
AcDbLine
 10
1806.601515190078
 20
1305.463158225615
 30
0.0
 11
1706.6015151901
 21
1305.463158225615
 31
0.0
  0
LINE
  5
4C2
330
4BE
100
AcDbEntity
  8
LAY-20
  6
CONTINUOUS
 62
     4
100
AcDbLine
 10
1806.601515190078
 20
2157.463158225618
 30
0.0
 11
1706.6015151901
 21
2157.463158225618
 31
0.0
  0
LINE
  5
4C3
330
4BE
100
AcDbEntity
  8
LAY-20
  6
CONTINUOUS
 62
     4
100
AcDbLine
 10
1721.6015151901
 20
1330.463158225615
 30
0.0
 11
1721.6015151901
 21
2132.463158225618
 31
0.0
  0
INSERT
  5
4C4
330
4BE
100
AcDbEntity
  8
LAY-20
 62
     4
100
AcDbBlockReference
  2
EX_BNORM
 10
1721.6015151901
 20
1305.463158225615
 30
0.0
 41
25.0
 42
25.0
 43
25.0
 50
270.0
  0
INSERT
  5
4C5
330
4BE
100
AcDbEntity
  8
LAY-20
 62
     4
100
AcDbBlockReference
  2
EX_BNORM
 10
1721.6015151901
 20
2157.463158225618
 30
0.0
 41
25.0
 42
25.0
 43
25.0
 50
90.0
  0
MTEXT
  5
4C6
330
4BE
100
AcDbEntity
  8
LAY-20
 62
     7
100
AcDbMText
 10
1696.6015151901
 20
1731.463158225617
 30
0.0
 40
31.181104
 41
0.0
 71
     5
 72
     1
  1
852
  7
EXCADDIM1
 11
0.0
 21
1.0
 31
0.0
  0
POINT
  5
4C7
330
4BE
100
AcDbEntity
  8
DEFPOINTS
 62
     0
100
AcDbPoint
 10
1821.601515190078
 20
1305.463158225615
 30
0.0
  0
POINT
  5
4C8
330
4BE
100
AcDbEntity
  8
DEFPOINTS
 62
     0
100
AcDbPoint
 10
1821.601515190078
 20
2157.463158225618
 30
0.0
  0
POINT
  5
4C9
330
4BE
100
AcDbEntity
  8
DEFPOINTS
 62
     0
100
AcDbPoint
 10
1721.6015151901
 20
2157.463158225618
 30
0.0
  0
ENDBLK
  5
4C0
330
4BE
100
AcDbEntity
  8
0
100
AcDbBlockEnd
  0
BLOCK
  5
4CC
330
4CB
100
AcDbEntity
  8
0
100
AcDbBlockBegin
  2
*D29
 70
     1
 10
0.0
 20
0.0
 30
0.0
  3
*D29
  1

  0
LINE
  5
4CE
330
4CB
100
AcDbEntity
  8
LAY-20
  6
CONTINUOUS
 62
     4
100
AcDbLine
 10
1956.6015151901
 20
2081.4631582255
 30
0.0
 11
2056.6015151901
 21
2081.4631582255
 31
0.0
  0
LINE
  5
4CF
330
4CB
100
AcDbEntity
  8
LAY-20
  6
CONTINUOUS
 62
     4
100
AcDbLine
 10
1956.6015151901
 20
1381.4631582256
 30
0.0
 11
2056.6015151901
 21
1381.4631582256
 31
0.0
  0
LINE
  5
4D0
330
4CB
100
AcDbEntity
  8
LAY-20
  6
CONTINUOUS
 62
     4
100
AcDbLine
 10
2041.6015151901
 20
2056.4631582255
 30
0.0
 11
2041.6015151901
 21
1406.4631582256
 31
0.0
  0
INSERT
  5
4D1
330
4CB
100
AcDbEntity
  8
LAY-20
 62
     4
100
AcDbBlockReference
  2
EX_BNORM
 10
2041.6015151901
 20
2081.4631582255
 30
0.0
 41
25.0
 42
25.0
 43
25.0
 50
90.0
  0
INSERT
  5
4D2
330
4CB
100
AcDbEntity
  8
LAY-20
 62
     4
100
AcDbBlockReference
  2
EX_BNORM
 10
2041.6015151901
 20
1381.4631582256
 30
0.0
 41
25.0
 42
25.0
 43
25.0
 50
270.0
  0
MTEXT
  5
4D3
330
4CB
100
AcDbEntity
  8
LAY-20
 62
     7
100
AcDbMText
 10
2016.6015151901
 20
1731.46315822555
 30
0.0
 40
31.181104
 41
0.0
 71
     5
 72
     1
  1
700
  7
EXCADDIM1
 11
0.0
 21
1.0
 31
0.0
  0
POINT
  5
4D4
330
4CB
100
AcDbEntity
  8
DEFPOINTS
 62
     0
100
AcDbPoint
 10
1941.6015151901
 20
2081.4631582255
 30
0.0
  0
POINT
  5
4D5
330
4CB
100
AcDbEntity
  8
DEFPOINTS
 62
     0
100
AcDbPoint
 10
1941.6015151901
 20
1381.4631582256
 30
0.0
  0
POINT
  5
4D6
330
4CB
100
AcDbEntity
  8
DEFPOINTS
 62
     0
100
AcDbPoint
 10
2041.6015151901
 20
1381.4631582256
 30
0.0
  0
ENDBLK
  5
4CD
330
4CB
100
AcDbEntity
  8
0
100
AcDbBlockEnd
  0
BLOCK
  5
4D9
330
4D8
100
AcDbEntity
  8
0
100
AcDbBlockBegin
  2
*D30
 70
     1
 10
0.0
 20
0.0
 30
0.0
  3
*D30
  1

  0
LINE
  5
4DB
330
4D8
100
AcDbEntity
  8
LAY-20
  6
CONTINUOUS
 62
     4
100
AcDbLine
 10
1880.3015151901
 20
2164.6631582256
 30
0.0
 11
2126.601515190101
 21
2164.6631582256
 31
0.0
  0
LINE
  5
4DC
330
4D8
100
AcDbEntity
  8
LAY-20
  6
CONTINUOUS
 62
     4
100
AcDbLine
 10
1880.3015151901
 20
1298.2631582256
 30
0.0
 11
2126.601515190101
 21
1298.2631582256
 31
0.0
  0
LINE
  5
4DD
330
4D8
100
AcDbEntity
  8
LAY-20
  6
CONTINUOUS
 62
     4
100
AcDbLine
 10
2111.601515190101
 20
2139.6631582256
 30
0.0
 11
2111.601515190101
 21
1323.2631582256
 31
0.0
  0
INSERT
  5
4DE
330
4D8
100
AcDbEntity
  8
LAY-20
 62
     4
100
AcDbBlockReference
  2
EX_BNORM
 10
2111.601515190101
 20
2164.6631582256
 30
0.0
 41
25.0
 42
25.0
 43
25.0
 50
90.0
  0
INSERT
  5
4DF
330
4D8
100
AcDbEntity
  8
LAY-20
 62
     4
100
AcDbBlockReference
  2
EX_BNORM
 10
2111.601515190101
 20
1298.2631582256
 30
0.0
 41
25.0
 42
25.0
 43
25.0
 50
270.0
  0
MTEXT
  5
4E0
330
4D8
100
AcDbEntity
  8
LAY-20
 62
     7
100
AcDbMText
 10
2086.601515190101
 20
1731.4631582256
 30
0.0
 40
31.181104
 41
0.0
 71
     5
 72
     1
  1
866
  7
EXCADDIM1
 11
0.0
 21
1.0
 31
0.0
  0
POINT
  5
4E1
330
4D8
100
AcDbEntity
  8
DEFPOINTS
 62
     0
100
AcDbPoint
 10
1865.3015151901
 20
2164.6631582256
 30
0.0
  0
POINT
  5
4E2
330
4D8
100
AcDbEntity
  8
DEFPOINTS
 62
     0
100
AcDbPoint
 10
1865.3015151901
 20
1298.2631582256
 30
0.0
  0
POINT
  5
4E3
330
4D8
100
AcDbEntity
  8
DEFPOINTS
 62
     0
100
AcDbPoint
 10
2111.601515190101
 20
1298.2631582256
 30
0.0
  0
ENDBLK
  5
4DA
330
4D8
100
AcDbEntity
  8
0
100
AcDbBlockEnd
  0
BLOCK
  5
4E6
330
4E5
100
AcDbEntity
  8
0
100
AcDbBlockBegin
  2
*D31
 70
     1
 10
0.0
 20
0.0
 30
0.0
  3
*D31
  1

  0
LINE
  5
4E8
330
4E5
100
AcDbEntity
  8
LAY-20
  6
CONTINUOUS
 62
     4
100
AcDbLine
 10
632.9999999999905
 20
902.5139020331071
 30
0.0
 11
632.9999999999905
 21
1072.5139020332
 31
0.0
  0
LINE
  5
4E9
330
4E5
100
AcDbEntity
  8
LAY-20
  6
CONTINUOUS
 62
     4
100
AcDbLine
 10
1443.0
 20
902.5139020331071
 30
0.0
 11
1443.0
 21
1072.5139020332
 31
0.0
  0
LINE
  5
4EA
330
4E5
100
AcDbEntity
  8
LAY-20
  6
CONTINUOUS
 62
     4
100
AcDbLine
 10
657.9999999999905
 20
1057.5139020332
 30
0.0
 11
1418.0
 21
1057.5139020332
 31
0.0
  0
INSERT
  5
4EB
330
4E5
100
AcDbEntity
  8
LAY-20
 62
     4
100
AcDbBlockReference
  2
EX_BNORM
 10
632.9999999999905
 20
1057.5139020332
 30
0.0
 41
25.0
 42
25.0
 43
25.0
 50
180.0
  0
INSERT
  5
4EC
330
4E5
100
AcDbEntity
  8
LAY-20
 62
     4
100
AcDbBlockReference
  2
EX_BNORM
 10
1443.0
 20
1057.5139020332
 30
0.0
 41
25.0
 42
25.0
 43
25.0
  0
MTEXT
  5
4ED
330
4E5
100
AcDbEntity
  8
LAY-20
 62
     7
100
AcDbMText
 10
1037.999999999995
 20
1082.5139020332
 30
0.0
 40
31.181104
 41
0.0
 71
     5
 72
     1
  1
810
  7
EXCADDIM1
  0
POINT
  5
4EE
330
4E5
100
AcDbEntity
  8
DEFPOINTS
 62
     0
100
AcDbPoint
 10
632.9999999999905
 20
887.5139020331071
 30
0.0
  0
POINT
  5
4EF
330
4E5
100
AcDbEntity
  8
DEFPOINTS
 62
     0
100
AcDbPoint
 10
1443.0
 20
887.5139020331071
 30
0.0
  0
POINT
  5
4F0
330
4E5
100
AcDbEntity
  8
DEFPOINTS
 62
     0
100
AcDbPoint
 10
1443.0
 20
1057.5139020332
 30
0.0
  0
ENDBLK
  5
4E7
330
4E5
100
AcDbEntity
  8
0
100
AcDbBlockEnd
  0
BLOCK
  5
4F3
330
4F2
100
AcDbEntity
  8
0
100
AcDbBlockBegin
  2
*D32
 70
     1
 10
0.0
 20
0.0
 30
0.0
  3
*D32
  1

  0
LINE
  5
4F5
330
4F2
100
AcDbEntity
  8
LAY-20
  6
CONTINUOUS
 62
     4
100
AcDbLine
 10
1036.999999999975
 20
902.5139020331562
 30
0.0
 11
1036.999999999975
 21
1002.51390203316
 31
0.0
  0
LINE
  5
4F6
330
4F2
100
AcDbEntity
  8
LAY-20
  6
CONTINUOUS
 62
     4
100
AcDbLine
 10
648.9999999999759
 20
902.5139020331562
 30
0.0
 11
648.9999999999759
 21
1002.51390203316
 31
0.0
  0
LINE
  5
4F7
330
4F2
100
AcDbEntity
  8
LAY-20
  6
CONTINUOUS
 62
     4
100
AcDbLine
 10
1011.999999999975
 20
987.5139020331603
 30
0.0
 11
673.9999999999759
 21
987.5139020331603
 31
0.0
  0
INSERT
  5
4F8
330
4F2
100
AcDbEntity
  8
LAY-20
 62
     4
100
AcDbBlockReference
  2
EX_BNORM
 10
1036.999999999975
 20
987.5139020331603
 30
0.0
 41
25.0
 42
25.0
 43
25.0
  0
INSERT
  5
4F9
330
4F2
100
AcDbEntity
  8
LAY-20
 62
     4
100
AcDbBlockReference
  2
EX_BNORM
 10
648.9999999999759
 20
987.5139020331603
 30
0.0
 41
25.0
 42
25.0
 43
25.0
 50
180.0
  0
MTEXT
  5
4FA
330
4F2
100
AcDbEntity
  8
LAY-20
 62
     7
100
AcDbMText
 10
842.9999999999758
 20
1012.51390203316
 30
0.0
 40
31.181104
 41
0.0
 71
     5
 72
     1
  1
388
  7
EXCADDIM1
  0
POINT
  5
4FB
330
4F2
100
AcDbEntity
  8
DEFPOINTS
 62
     0
100
AcDbPoint
 10
1036.999999999975
 20
887.5139020331562
 30
0.0
  0
POINT
  5
4FC
330
4F2
100
AcDbEntity
  8
DEFPOINTS
 62
     0
100
AcDbPoint
 10
648.9999999999759
 20
887.5139020331562
 30
0.0
  0
POINT
  5
4FD
330
4F2
100
AcDbEntity
  8
DEFPOINTS
 62
     0
100
AcDbPoint
 10
648.9999999999759
 20
987.5139020331603
 30
0.0
  0
ENDBLK
  5
4F4
330
4F2
100
AcDbEntity
  8
0
100
AcDbBlockEnd
  0
BLOCK
  5
500
330
4FF
100
AcDbEntity
  8
0
100
AcDbBlockBegin
  2
*D33
 70
     1
 10
0.0
 20
0.0
 30
0.0
  3
*D33
  1

  0
LINE
  5
502
330
4FF
100
AcDbEntity
  8
LAY-20
  6
CONTINUOUS
 62
     4
100
AcDbLine
 10
688.0000000000002
 20
752.5139020331071
 30
0.0
 11
688.0000000000002
 21
652.5139020331603
 31
0.0
  0
LINE
  5
503
330
4FF
100
AcDbEntity
  8
LAY-20
  6
CONTINUOUS
 62
     4
100
AcDbLine
 10
1388.0
 20
752.5139020331071
 30
0.0
 11
1388.0
 21
652.5139020331603
 31
0.0
  0
LINE
  5
504
330
4FF
100
AcDbEntity
  8
LAY-20
  6
CONTINUOUS
 62
     4
100
AcDbLine
 10
713.0000000000002
 20
667.5139020331603
 30
0.0
 11
1363.0
 21
667.5139020331603
 31
0.0
  0
INSERT
  5
505
330
4FF
100
AcDbEntity
  8
LAY-20
 62
     4
100
AcDbBlockReference
  2
EX_BNORM
 10
688.0000000000002
 20
667.5139020331603
 30
0.0
 41
25.0
 42
25.0
 43
25.0
 50
180.0
  0
INSERT
  5
506
330
4FF
100
AcDbEntity
  8
LAY-20
 62
     4
100
AcDbBlockReference
  2
EX_BNORM
 10
1388.0
 20
667.5139020331603
 30
0.0
 41
25.0
 42
25.0
 43
25.0
  0
MTEXT
  5
507
330
4FF
100
AcDbEntity
  8
LAY-20
 62
     7
100
AcDbMText
 10
1038.0
 20
692.5139020331603
 30
0.0
 40
31.181104
 41
0.0
 71
     5
 72
     1
  1
700
  7
EXCADDIM1
  0
POINT
  5
508
330
4FF
100
AcDbEntity
  8
DEFPOINTS
 62
     0
100
AcDbPoint
 10
688.0000000000002
 20
767.5139020331071
 30
0.0
  0
POINT
  5
509
330
4FF
100
AcDbEntity
  8
DEFPOINTS
 62
     0
100
AcDbPoint
 10
1388.0
 20
767.5139020331071
 30
0.0
  0
POINT
  5
50A
330
4FF
100
AcDbEntity
  8
DEFPOINTS
 62
     0
100
AcDbPoint
 10
1388.0
 20
667.5139020331603
 30
0.0
  0
ENDBLK
  5
501
330
4FF
100
AcDbEntity
  8
0
100
AcDbBlockEnd
  0
BLOCK
  5
50D
330
50C
100
AcDbEntity
  8
0
100
AcDbBlockBegin
  2
*D34
 70
     1
 10
0.0
 20
0.0
 30
0.0
  3
*D34
  1

  0
LINE
  5
50F
330
50C
100
AcDbEntity
  8
LAY-20
  6
CONTINUOUS
 62
     4
100
AcDbLine
 10
1458.0
 20
887.5139020331071
 30
0.0
 11
1585.4999999999
 21
887.5139020331071
 31
0.0
  0
LINE
  5
510
330
50C
100
AcDbEntity
  8
LAY-20
  6
CONTINUOUS
 62
     4
100
AcDbLine
 10
1446.2
 20
797.5139020331071
 30
0.0
 11
1585.4999999999
 21
797.5139020331071
 31
0.0
  0
LINE
  5
511
330
50C
100
AcDbEntity
  8
LAY-20
  6
CONTINUOUS
 62
     4
100
AcDbLine
 10
1570.4999999999
 20
862.5139020331071
 30
0.0
 11
1570.4999999999
 21
822.5139020331071
 31
0.0
  0
INSERT
  5
512
330
50C
100
AcDbEntity
  8
LAY-20
 62
     4
100
AcDbBlockReference
  2
EX_BNORM
 10
1570.4999999999
 20
887.5139020331071
 30
0.0
 41
25.0
 42
25.0
 43
25.0
 50
90.0
  0
INSERT
  5
513
330
50C
100
AcDbEntity
  8
LAY-20
 62
     4
100
AcDbBlockReference
  2
EX_BNORM
 10
1570.4999999999
 20
797.5139020331071
 30
0.0
 41
25.0
 42
25.0
 43
25.0
 50
270.0
  0
MTEXT
  5
514
330
50C
100
AcDbEntity
  8
LAY-20
 62
     7
100
AcDbMText
 10
1545.499999999901
 20
842.5139020331071
 30
0.0
 40
31.181104
 41
0.0
 71
     5
 72
     1
  1
90
  7
EXCADDIM1
 11
0.0
 21
1.0
 31
0.0
  0
POINT
  5
515
330
50C
100
AcDbEntity
  8
DEFPOINTS
 62
     0
100
AcDbPoint
 10
1443.0
 20
887.5139020331071
 30
0.0
  0
POINT
  5
516
330
50C
100
AcDbEntity
  8
DEFPOINTS
 62
     0
100
AcDbPoint
 10
1431.2
 20
797.5139020331071
 30
0.0
  0
POINT
  5
517
330
50C
100
AcDbEntity
  8
DEFPOINTS
 62
     0
100
AcDbPoint
 10
1570.4999999999
 20
797.5139020331071
 30
0.0
  0
ENDBLK
  5
50E
330
50C
100
AcDbEntity
  8
0
100
AcDbBlockEnd
  0
BLOCK
  5
51A
330
519
100
AcDbEntity
  8
0
100
AcDbBlockBegin
  2
*D35
 70
     1
 10
0.0
 20
0.0
 30
0.0
  3
*D35
  1

  0
LINE
  5
51C
330
519
100
AcDbEntity
  8
LAY-20
  6
CONTINUOUS
 62
     4
100
AcDbLine
 10
641.7999999999802
 20
785.5139020331603
 30
0.0
 11
641.7999999999802
 21
582.5139020331599
 31
0.0
  0
LINE
  5
51D
330
519
100
AcDbEntity
  8
LAY-20
  6
CONTINUOUS
 62
     4
100
AcDbLine
 10
1434.2
 20
785.5139020331603
 30
0.0
 11
1434.2
 21
582.5139020331599
 31
0.0
  0
LINE
  5
51E
330
519
100
AcDbEntity
  8
LAY-20
  6
CONTINUOUS
 62
     4
100
AcDbLine
 10
666.7999999999802
 20
597.5139020331599
 30
0.0
 11
1409.2
 21
597.5139020331599
 31
0.0
  0
INSERT
  5
51F
330
519
100
AcDbEntity
  8
LAY-20
 62
     4
100
AcDbBlockReference
  2
EX_BNORM
 10
641.7999999999802
 20
597.5139020331599
 30
0.0
 41
25.0
 42
25.0
 43
25.0
 50
180.0
  0
INSERT
  5
520
330
519
100
AcDbEntity
  8
LAY-20
 62
     4
100
AcDbBlockReference
  2
EX_BNORM
 10
1434.2
 20
597.5139020331599
 30
0.0
 41
25.0
 42
25.0
 43
25.0
  0
MTEXT
  5
521
330
519
100
AcDbEntity
  8
LAY-20
 62
     7
100
AcDbMText
 10
1037.99999999999
 20
622.5139020331599
 30
0.0
 40
31.181104
 41
0.0
 71
     5
 72
     1
  1
792
  7
EXCADDIM1
  0
POINT
  5
522
330
519
100
AcDbEntity
  8
DEFPOINTS
 62
     0
100
AcDbPoint
 10
641.7999999999802
 20
800.5139020331603
 30
0.0
  0
POINT
  5
523
330
519
100
AcDbEntity
  8
DEFPOINTS
 62
     0
100
AcDbPoint
 10
1434.2
 20
800.5139020331603
 30
0.0
  0
POINT
  5
524
330
519
100
AcDbEntity
  8
DEFPOINTS
 62
     0
100
AcDbPoint
 10
1434.2
 20
597.5139020331599
 30
0.0
  0
ENDBLK
  5
51B
330
519
100
AcDbEntity
  8
0
100
AcDbBlockEnd
  0
BLOCK
  5
527
330
526
100
AcDbEntity
  8
0
100
AcDbBlockBegin
  2
*D36
 70
     1
 10
0.0
 20
0.0
 30
0.0
  3
*D36
  1

  0
LINE
  5
529
330
526
100
AcDbEntity
  8
LAY-20
  6
CONTINUOUS
 62
     4
100
AcDbLine
 10
1324.0
 20
883.01390203308
 30
0.0
 11
1324.0
 21
887.5139020330801
 31
0.0
  0
LINE
  5
52A
330
526
100
AcDbEntity
  8
LAY-20
  6
CONTINUOUS
 62
     4
100
AcDbLine
 10
1324.0
 20
858.01390203308
 30
0.0
 11
1324.0
 21
833.01390203308
 31
0.0
  0
LINE
  5
52B
330
526
100
AcDbEntity
  8
LAY-20
  6
CONTINUOUS
 62
     4
100
AcDbLine
 10
1324.0
 20
912.5139020330801
 30
0.0
 11
1324.0
 21
937.5139020330801
 31
0.0
  0
INSERT
  5
52C
330
526
100
AcDbEntity
  8
LAY-20
 62
     4
100
AcDbBlockReference
  2
EX_BNORM
 10
1324.0
 20
883.01390203308
 30
0.0
 41
25.0
 42
25.0
 43
25.0
 50
90.0
  0
INSERT
  5
52D
330
526
100
AcDbEntity
  8
LAY-20
 62
     4
100
AcDbBlockReference
  2
EX_BNORM
 10
1324.0
 20
887.5139020330801
 30
0.0
 41
25.0
 42
25.0
 43
25.0
 50
270.0
  0
MTEXT
  5
52E
330
526
100
AcDbEntity
  8
LAY-20
 62
     7
100
AcDbMText
 10
1299.0
 20
952.5139020330796
 30
0.0
 40
31.181104
 41
0.0
 71
     5
 72
     1
  1
4.5
  7
EXCADDIM1
 11
0.0
 21
1.0
 31
0.0
  0
POINT
  5
52F
330
526
100
AcDbEntity
  8
DEFPOINTS
 62
     0
100
AcDbPoint
 10
1324.0
 20
883.01390203308
 30
0.0
  0
POINT
  5
530
330
526
100
AcDbEntity
  8
DEFPOINTS
 62
     0
100
AcDbPoint
 10
1324.0
 20
887.5139020330801
 30
0.0
  0
POINT
  5
531
330
526
100
AcDbEntity
  8
DEFPOINTS
 62
     0
100
AcDbPoint
 10
1324.0
 20
887.5139020330801
 30
0.0
  0
ENDBLK
  5
528
330
526
100
AcDbEntity
  8
0
100
AcDbBlockEnd
  0
ENDSEC
  0
SECTION
  2
ENTITIES
  0
INSERT
  5
208
330
1F
100
AcDbEntity
  8
LAY-10
  6
CONTINUOUS
 62
     0
100
AcDbBlockReference
  2
SYM-1
 10
0.0
 20
0.0
 30
0.0
  0
INSERT
  5
209
330
1F
100
AcDbEntity
  8
LAY-10
  6
CONTINUOUS
 62
     0
100
AcDbBlockReference
  2
SYM-2
 10
0.0
 20
0.0
 30
0.0
  0
INSERT
  5
20A
330
1F
100
AcDbEntity
  8
LAY-10
  6
CONTINUOUS
 62
     0
100
AcDbBlockReference
  2
SYM-3
 10
0.0
 20
0.0
 30
0.0
  0
INSERT
  5
20B
330
1F
100
AcDbEntity
  8
LAY-10
  6
CONTINUOUS
 62
     0
100
AcDbBlockReference
  2
SYM-4
 10
0.0
 20
0.0
 30
0.0
  0
INSERT
  5
20C
330
1F
100
AcDbEntity
  8
LAY-10
  6
CONTINUOUS
 62
     0
100
AcDbBlockReference
  2
SYM-5
 10
0.0
 20
0.0
 30
0.0
  0
INSERT
  5
20D
330
1F
100
AcDbEntity
  8
LAY-10
  6
CONTINUOUS
 62
     0
100
AcDbBlockReference
  2
SYM-6
 10
0.0
 20
0.0
 30
0.0
  0
INSERT
  5
20E
330
1F
100
AcDbEntity
  8
LAY-10
  6
CONTINUOUS
 62
     0
100
AcDbBlockReference
  2
SYM-7
 10
0.0
 20
0.0
 30
0.0
  0
INSERT
  5
20F
330
1F
100
AcDbEntity
  8
LAY-10
  6
CONTINUOUS
 62
     0
100
AcDbBlockReference
  2
SYM-8
 10
0.0
 20
0.0
 30
0.0
  0
INSERT
  5
210
330
1F
100
AcDbEntity
  8
LAY-10
  6
CONTINUOUS
 62
     0
100
AcDbBlockReference
  2
SYM-9
 10
0.0
 20
0.0
 30
0.0
  0
INSERT
  5
211
330
1F
100
AcDbEntity
  8
LAY-10
  6
CONTINUOUS
 62
     0
100
AcDbBlockReference
  2
SYM-10
 10
0.0
 20
0.0
 30
0.0
  0
INSERT
  5
212
330
1F
100
AcDbEntity
  8
LAY-10
  6
CONTINUOUS
 62
     0
100
AcDbBlockReference
  2
SYM-11
 10
0.0
 20
0.0
 30
0.0
  0
INSERT
  5
213
330
1F
100
AcDbEntity
  8
LAY-10
  6
CONTINUOUS
 62
     0
100
AcDbBlockReference
  2
SYM-12
 10
0.0
 20
0.0
 30
0.0
  0
LINE
  5
214
330
1F
100
AcDbEntity
  8
LAY-10
  6
CONTINUOUS
 62
     7
100
AcDbLine
 10
1826.1015151901
 20
1346.4631582256
 30
0.0
 11
1842.1215151901
 21
1346.4631582256
 31
0.0
  0
LINE
  5
215
330
1F
100
AcDbEntity
  8
LAY-10
  6
CONTINUOUS
 62
     7
100
AcDbLine
 10
1844.1015151901
 20
1315.6031582257
 30
0.0
 11
1844.1015151901
 21
1345.3231582256
 31
0.0
  0
LINE
  5
216
330
1F
100
AcDbEntity
  8
LAY-10
  6
CONTINUOUS
 62
     7
100
AcDbLine
 10
1826.1015151901
 20
2116.463158225555
 30
0.0
 11
1842.1215151901
 21
2116.463158225555
 31
0.0
  0
LINE
  5
217
330
1F
100
AcDbEntity
  8
LAY-10
  6
CONTINUOUS
 62
     7
100
AcDbLine
 10
1844.1015151901
 20
2147.323158225456
 30
0.0
 11
1844.1015151901
 21
2117.603158225555
 31
0.0
  0
LINE
  5
218
330
1F
100
AcDbEntity
  8
LAY-10
  6
CONTINUOUS
 62
     7
100
AcDbLine
 10
832.9999999999428
 20
883.0139020330771
 30
0.0
 11
832.9999999999428
 21
866.9939020330776
 31
0.0
  0
LINE
  5
219
330
1F
100
AcDbEntity
  8
LAY-10
  6
CONTINUOUS
 62
     7
100
AcDbLine
 10
852.9999999999428
 20
883.0139020330771
 30
0.0
 11
852.9999999999428
 21
866.9939020330776
 31
0.0
  0
ARC
  5
21A
330
1F
100
AcDbEntity
  8
LAY-10
  6
CONTINUOUS
 62
     7
100
AcDbCircle
 10
842.9999999999428
 20
891.2564272856025
 30
0.0
 40
26.24252525252526
100
AcDbArc
 50
247.6005879524137
 51
292.3994120475866
  0
LINE
  5
21B
330
1F
100
AcDbEntity
  8
LAY-10
  6
CONTINUOUS
 62
     7
100
AcDbLine
 10
824.499999999943
 20
883.0139020330771
 30
0.0
 11
824.499999999943
 21
866.9939020330776
 31
0.0
  0
ARC
  5
21C
330
1F
100
AcDbEntity
  8
LAY-10
  6
CONTINUOUS
 62
     7
100
AcDbCircle
 10
828.7499999999428
 20
870.565139406815
 30
0.0
 40
5.55123737373727
100
AcDbArc
 50
220.0400382874338
 51
319.9599617125664
  0
LINE
  5
21D
330
1F
100
AcDbEntity
  8
LAY-10
  6
CONTINUOUS
 62
     7
100
AcDbLine
 10
861.4999999999435
 20
883.0139020330771
 30
0.0
 11
861.4999999999435
 21
866.9939020330776
 31
0.0
  0
ARC
  5
21E
330
1F
100
AcDbEntity
  8
LAY-10
  6
CONTINUOUS
 62
     7
100
AcDbCircle
 10
857.2499999999429
 20
870.565139406815
 30
0.0
 40
5.55123737373741
100
AcDbArc
 50
220.0400382874356
 51
319.9599617125647
  0
LINE
  5
21F
330
1F
100
AcDbEntity
  8
LAY-10
  6
CONTINUOUS
 62
     7
100
AcDbLine
 10
829.499999999943
 20
865.0139020330772
 30
0.0
 11
856.4999999999435
 21
865.0139020330772
 31
0.0
  0
LINE
  5
220
330
1F
100
AcDbEntity
  8
LAY-10
  6
CONTINUOUS
 62
     7
100
AcDbLine
 10
1242.999999999939
 20
883.0139020330771
 30
0.0
 11
1242.999999999939
 21
866.9939020330776
 31
0.0
  0
LINE
  5
221
330
1F
100
AcDbEntity
  8
LAY-10
  6
CONTINUOUS
 62
     7
100
AcDbLine
 10
1222.999999999939
 20
883.0139020330771
 30
0.0
 11
1222.999999999939
 21
866.9939020330776
 31
0.0
  0
ARC
  5
222
330
1F
100
AcDbEntity
  8
LAY-10
  6
CONTINUOUS
 62
     7
100
AcDbCircle
 10
1232.999999999939
 20
891.2564272856025
 30
0.0
 40
26.24252525252526
100
AcDbArc
 50
247.6005879524136
 51
292.3994120475865
  0
LINE
  5
223
330
1F
100
AcDbEntity
  8
LAY-10
  6
CONTINUOUS
 62
     7
100
AcDbLine
 10
1251.499999999939
 20
883.0139020330771
 30
0.0
 11
1251.499999999939
 21
866.9939020330776
 31
0.0
  0
ARC
  5
224
330
1F
100
AcDbEntity
  8
LAY-10
  6
CONTINUOUS
 62
     7
100
AcDbCircle
 10
1247.249999999939
 20
870.5651394068145
 30
0.0
 40
5.55123737373727
100
AcDbArc
 50
220.0400382874338
 51
319.9599617125668
  0
LINE
  5
225
330
1F
100
AcDbEntity
  8
LAY-10
  6
CONTINUOUS
 62
     7
100
AcDbLine
 10
1214.499999999939
 20
883.0139020330771
 30
0.0
 11
1214.499999999939
 21
866.9939020330776
 31
0.0
  0
ARC
  5
226
330
1F
100
AcDbEntity
  8
LAY-10
  6
CONTINUOUS
 62
     7
100
AcDbCircle
 10
1218.749999999939
 20
870.5651394068145
 30
0.0
 40
5.55123737373741
100
AcDbArc
 50
220.0400382874347
 51
319.9599617125635
  0
LINE
  5
227
330
1F
100
AcDbEntity
  8
LAY-10
  6
CONTINUOUS
 62
     7
100
AcDbLine
 10
1246.499999999939
 20
865.0139020330772
 30
0.0
 11
1219.499999999939
 21
865.0139020330772
 31
0.0
  0
LINE
  5
228
330
1F
100
AcDbEntity
  8
LAY-10
  6
HIDDEN
 62
     7
100
AcDbLine
 10
953.4999999999877
 20
1302.263158225677
 30
0.0
 11
953.4999999999895
 21
1338.371791766716
 31
0.0
  0
LINE
  5
229
330
1F
100
AcDbEntity
  8
LAY-10
  6
HIDDEN
 62
     7
100
AcDbLine
 10
906.7999999999888
 20
1338.371791766716
 30
0.0
 11
964.7999999999888
 21
1338.371791766716
 31
0.0
  0
LINE
  5
22A
330
1F
100
AcDbEntity
  8
LAY-10
  6
HIDDEN
 62
     7
100
AcDbLine
 10
922.4999999999905
 20
1302.263158225677
 30
0.0
 11
922.4999999999905
 21
1338.263158225676
 31
0.0
  0
LINE
  5
22B
330
1F
100
AcDbEntity
  8
LAY-10
  6
HIDDEN
 62
     7
100
AcDbLine
 10
922.4999999999905
 20
1302.263158225677
 30
0.0
 11
953.4999999999877
 21
1302.263158225677
 31
0.0
  0
LINE
  5
22C
330
1F
100
AcDbEntity
  8
LAY-10
  6
CONTINUOUS
 62
     7
100
AcDbLine
 10
1427.99999999998
 20
2158.463158225633
 30
0.0
 11
1442.999999999981
 21
2173.463158225633
 31
0.0
  0
LINE
  5
22D
330
1F
100
AcDbEntity
  8
LAY-10
  6
CONTINUOUS
 62
     7
100
AcDbLine
 10
632.9999999999995
 20
2173.463158225633
 30
0.0
 11
647.9999999999995
 21
2158.463158225633
 31
0.0
  0
LINE
  5
22E
330
1F
100
AcDbEntity
  8
LAY-10
  6
CONTINUOUS
 62
     7
100
AcDbLine
 10
632.9999999999995
 20
2173.463158225633
 30
0.0
 11
1442.999999999981
 21
2173.463158225633
 31
0.0
  0
LINE
  5
22F
330
1F
100
AcDbEntity
  8
LAY-10
  6
CONTINUOUS
 62
     7
100
AcDbLine
 10
1427.99999999998
 20
2158.463158225633
 30
0.0
 11
647.9999999999995
 21
2158.463158225633
 31
0.0
  0
LINE
  5
230
330
1F
100
AcDbEntity
  8
LAY-10
  6
CONTINUOUS
 62
     7
100
AcDbLine
 10
1427.99999999998
 20
1304.463158225632
 30
0.0
 11
1442.999999999981
 21
1289.463158225633
 31
0.0
  0
LINE
  5
231
330
1F
100
AcDbEntity
  8
LAY-10
  6
CONTINUOUS
 62
     7
100
AcDbLine
 10
647.9999999999995
 20
1304.463158225632
 30
0.0
 11
632.9999999999995
 21
1289.463158225632
 31
0.0
  0
LINE
  5
232
330
1F
100
AcDbEntity
  8
LAY-10
  6
CONTINUOUS
 62
     7
100
AcDbLine
 10
1427.99999999998
 20
1304.46315822563
 30
0.0
 11
647.9999999999995
 21
1304.463158225632
 31
0.0
  0
LINE
  5
233
330
1F
100
AcDbEntity
  8
LAY-10
  6
CONTINUOUS
 62
     7
100
AcDbLine
 10
632.9999999999995
 20
1289.463158225632
 30
0.0
 11
1442.999999999981
 21
1289.46315822563
 31
0.0
  0
LINE
  5
234
330
1F
100
AcDbEntity
  8
LAY-10
  6
CONTINUOUS
 62
     7
100
AcDbLine
 10
1427.99999999998
 20
2158.463158225633
 30
0.0
 11
1427.99999999998
 21
1304.46315822563
 31
0.0
  0
LINE
  5
235
330
1F
100
AcDbEntity
  8
LAY-10
  6
CONTINUOUS
 62
     7
100
AcDbLine
 10
1442.999999999981
 20
1289.463158225632
 30
0.0
 11
1442.999999999981
 21
2173.463158225633
 31
0.0
  0
LINE
  5
236
330
1F
100
AcDbEntity
  8
LAY-10
  6
CONTINUOUS
 62
     7
100
AcDbLine
 10
647.9999999999995
 20
1304.463158225632
 30
0.0
 11
647.9999999999995
 21
2158.463158225633
 31
0.0
  0
LINE
  5
237
330
1F
100
AcDbEntity
  8
LAY-10
  6
CONTINUOUS
 62
     7
100
AcDbLine
 10
632.9999999999995
 20
1289.463158225632
 30
0.0
 11
632.9999999999995
 21
2173.463158225633
 31
0.0
  0
LINE
  5
238
330
1F
100
AcDbEntity
  8
LAY-10
  6
CONTINUOUS
 62
     7
100
AcDbLine
 10
648.9999999999873
 20
2157.463158225564
 30
0.0
 11
1036.999999999987
 21
2157.463158225564
 31
0.0
  0
LINE
  5
239
330
1F
100
AcDbEntity
  8
LAY-10
  6
CONTINUOUS
 62
     7
100
AcDbLine
 10
648.9999999999873
 20
1305.463158225562
 30
0.0
 11
648.9999999999873
 21
2157.463158225564
 31
0.0
  0
LINE
  5
23A
330
1F
100
AcDbEntity
  8
LAY-10
  6
CONTINUOUS
 62
     7
100
AcDbLine
 10
1425.0
 20
1344.463158225562
 30
0.0
 11
1425.0
 21
2118.463158225562
 31
0.0
  0
LINE
  5
23B
330
1F
100
AcDbEntity
  8
LAY-10
  6
CONTINUOUS
 62
     7
100
AcDbLine
 10
1286.999999999977
 20
1781.463158225607
 30
0.0
 11
1248.999999999977
 21
1781.463158225609
 31
0.0
  0
LINE
  5
23C
330
1F
100
AcDbEntity
  8
LAY-10
  6
CONTINUOUS
 62
     7
100
AcDbLine
 10
1276.999999999977
 20
1806.46315822561
 30
0.0
 11
1276.999999999977
 21
1786.463158225609
 31
0.0
  0
LINE
  5
23D
330
1F
100
AcDbEntity
  8
LAY-10
  6
CONTINUOUS
 62
     7
100
AcDbLine
 10
1302.699999999978
 20
1806.46315822561
 30
0.0
 11
1276.999999999977
 21
1806.46315822561
 31
0.0
  0
LINE
  5
23E
330
1F
100
AcDbEntity
  8
LAY-10
  6
CONTINUOUS
 62
     7
100
AcDbLine
 10
1286.999999999977
 20
1816.463158225607
 30
0.0
 11
1286.999999999977
 21
1806.46315822561
 31
0.0
  0
LINE
  5
23F
330
1F
100
AcDbEntity
  8
LAY-10
  6
CONTINUOUS
 62
     7
100
AcDbLine
 10
1302.699999999978
 20
1806.46315822561
 30
0.0
 11
1302.699999999978
 21
1786.463158225609
 31
0.0
  0
LINE
  5
240
330
1F
100
AcDbEntity
  8
LAY-10
  6
CONTINUOUS
 62
     7
100
AcDbLine
 10
1302.699999999978
 20
1786.463158225609
 30
0.0
 11
1276.999999999977
 21
1786.463158225609
 31
0.0
  0
LINE
  5
241
330
1F
100
AcDbEntity
  8
LAY-10
  6
CONTINUOUS
 62
     7
100
AcDbLine
 10
1292.999999999977
 20
1781.463158225607
 30
0.0
 11
1292.999999999977
 21
1786.463158225609
 31
0.0
  0
ARC
  5
242
330
1F
100
AcDbEntity
  8
LAY-10
  6
CONTINUOUS
 62
     7
100
AcDbCircle
 10
1286.999999999977
 20
1781.463158225607
 30
0.0
 40
6.000000000000005
100
AcDbArc
 50
270.0000000000002
 51
0.0
  0
LINE
  5
243
330
1F
100
AcDbEntity
  8
LAY-10
  6
CONTINUOUS
 62
     7
100
AcDbLine
 10
1286.999999999977
 20
1775.46315822561
 30
0.0
 11
1248.999999999977
 21
1775.46315822561
 31
0.0
  0
ARC
  5
244
330
1F
100
AcDbEntity
  8
LAY-10
  6
CONTINUOUS
 62
     7
100
AcDbCircle
 10
1248.999999999977
 20
1775.46315822561
 30
0.0
 40
6.000000000000005
100
AcDbArc
 50
90.00000000000001
 51
180.0
  0
LINE
  5
245
330
1F
100
AcDbEntity
  8
LAY-10
  6
CONTINUOUS
 62
     7
100
AcDbLine
 10
1286.999999999977
 20
1687.463158225607
 30
0.0
 11
1248.999999999977
 21
1687.463158225609
 31
0.0
  0
LINE
  5
246
330
1F
100
AcDbEntity
  8
LAY-10
  6
CONTINUOUS
 62
     7
100
AcDbLine
 10
1286.999999999977
 20
1681.463158225607
 30
0.0
 11
1248.999999999977
 21
1681.463158225609
 31
0.0
  0
ARC
  5
247
330
1F
100
AcDbEntity
  8
LAY-10
  6
CONTINUOUS
 62
     7
100
AcDbCircle
 10
1248.999999999977
 20
1687.463158225609
 30
0.0
 40
6.000000000000005
100
AcDbArc
 50
180.0
 51
270.0000000000002
  0
ARC
  5
248
330
1F
100
AcDbEntity
  8
LAY-10
  6
CONTINUOUS
 62
     7
100
AcDbCircle
 10
1286.999999999977
 20
1681.463158225607
 30
0.0
 40
6.000000000000005
100
AcDbArc
 50
0.0
 51
90.00000000000001
  0
LINE
  5
249
330
1F
100
AcDbEntity
  8
LAY-10
  6
CONTINUOUS
 62
     7
100
AcDbLine
 10
1286.999999999977
 20
1646.463158225609
 30
0.0
 11
1286.999999999977
 21
1656.463158225608
 31
0.0
  0
LINE
  5
24A
330
1F
100
AcDbEntity
  8
LAY-10
  6
CONTINUOUS
 62
     7
100
AcDbLine
 10
1292.999999999977
 20
1681.463158225607
 30
0.0
 11
1292.999999999977
 21
1676.463158225609
 31
0.0
  0
LINE
  5
24B
330
1F
100
AcDbEntity
  8
LAY-10
  6
CONTINUOUS
 62
     7
100
AcDbLine
 10
1302.699999999978
 20
1676.463158225609
 30
0.0
 11
1276.999999999977
 21
1676.463158225609
 31
0.0
  0
LINE
  5
24C
330
1F
100
AcDbEntity
  8
LAY-10
  6
CONTINUOUS
 62
     7
100
AcDbLine
 10
1276.999999999977
 20
1656.463158225608
 30
0.0
 11
1276.999999999977
 21
1676.463158225609
 31
0.0
  0
LINE
  5
24D
330
1F
100
AcDbEntity
  8
LAY-10
  6
CONTINUOUS
 62
     7
100
AcDbLine
 10
1302.699999999978
 20
1656.463158225608
 30
0.0
 11
1276.999999999977
 21
1656.463158225608
 31
0.0
  0
LINE
  5
24E
330
1F
100
AcDbEntity
  8
LAY-10
  6
CONTINUOUS
 62
     7
100
AcDbLine
 10
1292.999999999977
 20
1646.463158225609
 30
0.0
 11
1286.999999999977
 21
1646.463158225609
 31
0.0
  0
LINE
  5
24F
330
1F
100
AcDbEntity
  8
LAY-10
  6
CONTINUOUS
 62
     7
100
AcDbLine
 10
1293.999999999977
 20
1676.463158225609
 30
0.0
 11
1293.999999999977
 21
1656.463158225608
 31
0.0
  0
LINE
  5
250
330
1F
100
AcDbEntity
  8
LAY-10
  6
CONTINUOUS
 62
     7
100
AcDbLine
 10
1293.999999999977
 20
1786.463158225609
 30
0.0
 11
1293.999999999977
 21
1806.46315822561
 31
0.0
  0
LINE
  5
251
330
1F
100
AcDbEntity
  8
LAY-10
  6
CONTINUOUS
 62
     7
100
AcDbLine
 10
1285.999999999976
 20
1806.46315822561
 30
0.0
 11
1285.999999999976
 21
1786.463158225609
 31
0.0
  0
LINE
  5
252
330
1F
100
AcDbEntity
  8
LAY-10
  6
CONTINUOUS
 62
     7
100
AcDbLine
 10
1285.999999999976
 20
1676.463158225609
 30
0.0
 11
1285.999999999976
 21
1656.463158225608
 31
0.0
  0
LINE
  5
253
330
1F
100
AcDbEntity
  8
LAY-10
  6
CONTINUOUS
 62
     7
100
AcDbLine
 10
1302.699999999978
 20
1676.463158225609
 30
0.0
 11
1302.699999999978
 21
1656.463158225608
 31
0.0
  0
LINE
  5
254
330
1F
100
AcDbEntity
  8
LAY-10
  6
CONTINUOUS
 62
     7
100
AcDbLine
 10
1286.999999999977
 20
1786.463158225609
 30
0.0
 11
1286.999999999977
 21
1781.463158225607
 31
0.0
  0
LINE
  5
255
330
1F
100
AcDbEntity
  8
LAY-10
  6
CONTINUOUS
 62
     7
100
AcDbLine
 10
1292.999999999977
 20
1806.46315822561
 30
0.0
 11
1292.999999999977
 21
1816.463158225607
 31
0.0
  0
LINE
  5
256
330
1F
100
AcDbEntity
  8
LAY-10
  6
CONTINUOUS
 62
     7
100
AcDbLine
 10
1286.999999999977
 20
1676.463158225609
 30
0.0
 11
1286.999999999977
 21
1681.463158225607
 31
0.0
  0
LINE
  5
257
330
1F
100
AcDbEntity
  8
LAY-10
  6
CONTINUOUS
 62
     7
100
AcDbLine
 10
1248.999999999977
 20
1687.46315822558
 30
0.0
 11
1248.999999999977
 21
1775.46315822561
 31
0.0
  0
LINE
  5
258
330
1F
100
AcDbEntity
  8
LAY-10
  6
CONTINUOUS
 62
     7
100
AcDbLine
 10
1242.999999999978
 20
1687.46315822558
 30
0.0
 11
1242.999999999978
 21
1775.46315822561
 31
0.0
  0
LINE
  5
259
330
1F
100
AcDbEntity
  8
LAY-10
  6
CONTINUOUS
 62
     7
100
AcDbLine
 10
1283.499999999951
 20
2173.46315822563
 30
0.0
 11
1283.499999999951
 21
2202.361643035467
 31
0.0
  0
LINE
  5
25A
330
1F
100
AcDbEntity
  8
LAY-10
  6
CONTINUOUS
 62
     7
100
AcDbLine
 10
1292.499999999952
 20
2173.46315822563
 30
0.0
 11
1292.499999999952
 21
2202.361643035467
 31
0.0
  0
LINE
  5
25B
330
1F
100
AcDbEntity
  8
LAY-10
  6
CONTINUOUS
 62
     7
100
AcDbLine
 10
1283.499999999951
 20
2202.361643035467
 30
0.0
 11
1292.499999999952
 21
2202.361643035467
 31
0.0
  0
LINE
  5
25C
330
1F
100
AcDbEntity
  8
LAY-10
  6
CONTINUOUS
 62
     7
100
AcDbLine
 10
792.4999999999484
 20
2173.46315822563
 30
0.0
 11
792.4999999999484
 21
2202.361643035467
 31
0.0
  0
LINE
  5
25D
330
1F
100
AcDbEntity
  8
LAY-10
  6
CONTINUOUS
 62
     7
100
AcDbLine
 10
783.4999999999475
 20
2173.46315822563
 30
0.0
 11
783.4999999999475
 21
2202.361643035467
 31
0.0
  0
LINE
  5
25E
330
1F
100
AcDbEntity
  8
LAY-10
  6
CONTINUOUS
 62
     7
100
AcDbLine
 10
792.4999999999484
 20
2202.361643035467
 30
0.0
 11
783.4999999999475
 21
2202.361643035467
 31
0.0
  0
LINE
  5
25F
330
1F
100
AcDbEntity
  8
LAY-10
  6
CONTINUOUS
 62
     7
100
AcDbLine
 10
1283.499999999951
 20
1289.463158225634
 30
0.0
 11
1283.499999999951
 21
1260.564673415797
 31
0.0
  0
LINE
  5
260
330
1F
100
AcDbEntity
  8
LAY-10
  6
CONTINUOUS
 62
     7
100
AcDbLine
 10
1292.499999999952
 20
1289.463158225634
 30
0.0
 11
1292.499999999952
 21
1260.564673415797
 31
0.0
  0
LINE
  5
261
330
1F
100
AcDbEntity
  8
LAY-10
  6
CONTINUOUS
 62
     7
100
AcDbLine
 10
1283.499999999951
 20
1260.564673415797
 30
0.0
 11
1292.499999999952
 21
1260.564673415797
 31
0.0
  0
LINE
  5
262
330
1F
100
AcDbEntity
  8
LAY-10
  6
CONTINUOUS
 62
     7
100
AcDbLine
 10
792.4999999999488
 20
1289.463158225633
 30
0.0
 11
792.4999999999488
 21
1260.564673415796
 31
0.0
  0
LINE
  5
263
330
1F
100
AcDbEntity
  8
LAY-10
  6
CONTINUOUS
 62
     7
100
AcDbLine
 10
783.4999999999479
 20
1289.463158225633
 30
0.0
 11
783.4999999999479
 21
1260.564673415796
 31
0.0
  0
LINE
  5
264
330
1F
100
AcDbEntity
  8
LAY-10
  6
CONTINUOUS
 62
     7
100
AcDbLine
 10
792.4999999999488
 20
1260.564673415796
 30
0.0
 11
783.4999999999479
 21
1260.564673415796
 31
0.0
  0
LINE
  5
265
330
1F
100
AcDbEntity
  8
LAY-10
  6
CONTINUOUS
 62
     7
100
AcDbLine
 10
1442.999999999959
 20
1485.963158225679
 30
0.0
 11
1471.898484809796
 21
1485.963158225679
 31
0.0
  0
LINE
  5
266
330
1F
100
AcDbEntity
  8
LAY-10
  6
CONTINUOUS
 62
     7
100
AcDbLine
 10
1442.999999999959
 20
1476.963158225678
 30
0.0
 11
1471.898484809796
 21
1476.963158225678
 31
0.0
  0
LINE
  5
267
330
1F
100
AcDbEntity
  8
LAY-10
  6
CONTINUOUS
 62
     7
100
AcDbLine
 10
1471.898484809796
 20
1485.963158225679
 30
0.0
 11
1471.898484809796
 21
1476.963158225678
 31
0.0
  0
LINE
  5
268
330
1F
100
AcDbEntity
  8
LAY-10
  6
CONTINUOUS
 62
     7
100
AcDbLine
 10
1442.999999999959
 20
1976.963158225681
 30
0.0
 11
1471.898484809796
 21
1976.963158225681
 31
0.0
  0
LINE
  5
269
330
1F
100
AcDbEntity
  8
LAY-10
  6
CONTINUOUS
 62
     7
100
AcDbLine
 10
1442.999999999959
 20
1985.963158225682
 30
0.0
 11
1471.898484809796
 21
1985.963158225682
 31
0.0
  0
LINE
  5
26A
330
1F
100
AcDbEntity
  8
LAY-10
  6
CONTINUOUS
 62
     7
100
AcDbLine
 10
1471.898484809796
 20
1976.963158225681
 30
0.0
 11
1471.898484809796
 21
1985.963158225682
 31
0.0
  0
LINE
  5
26B
330
1F
100
AcDbEntity
  8
LAY-10
  6
CONTINUOUS
 62
     7
100
AcDbLine
 10
632.9999999999397
 20
1485.963158225679
 30
0.0
 11
604.1015151901026
 21
1485.963158225679
 31
0.0
  0
LINE
  5
26C
330
1F
100
AcDbEntity
  8
LAY-10
  6
CONTINUOUS
 62
     7
100
AcDbLine
 10
632.9999999999397
 20
1476.963158225678
 30
0.0
 11
604.1015151901026
 21
1476.963158225678
 31
0.0
  0
LINE
  5
26D
330
1F
100
AcDbEntity
  8
LAY-10
  6
CONTINUOUS
 62
     7
100
AcDbLine
 10
604.1015151901026
 20
1485.963158225679
 30
0.0
 11
604.1015151901026
 21
1476.963158225678
 31
0.0
  0
LINE
  5
26E
330
1F
100
AcDbEntity
  8
LAY-10
  6
CONTINUOUS
 62
     7
100
AcDbLine
 10
632.9999999999397
 20
1976.963158225681
 30
0.0
 11
604.1015151901026
 21
1976.963158225681
 31
0.0
  0
LINE
  5
26F
330
1F
100
AcDbEntity
  8
LAY-10
  6
CONTINUOUS
 62
     7
100
AcDbLine
 10
632.9999999999397
 20
1985.963158225682
 30
0.0
 11
604.1015151901026
 21
1985.963158225682
 31
0.0
  0
LINE
  5
270
330
1F
100
AcDbEntity
  8
LAY-10
  6
CONTINUOUS
 62
     7
100
AcDbLine
 10
604.1015151901026
 20
1976.963158225681
 30
0.0
 11
604.1015151901026
 21
1985.963158225682
 31
0.0
  0
LINE
  5
271
330
1F
100
AcDbEntity
  8
LAY-10
  6
CONTINUOUS
 62
     7
100
AcDbLine
 10
880.0499999999001
 20
1304.4631582256
 30
0.0
 11
1195.9499999999
 21
2158.4631582256
 31
0.0
  0
LINE
  5
272
330
1F
100
AcDbEntity
  8
LAY-10
  6
CONTINUOUS
 62
     7
100
AcDbLine
 10
648.9999999999873
 20
1305.463158225562
 30
0.0
 11
880.4199063230712
 21
1305.463158225562
 31
0.0
  0
LINE
  5
273
330
1F
100
AcDbEntity
  8
LAY-10
  6
CONTINUOUS
 62
     7
100
AcDbLine
 10
1427.99999999998
 20
1341.463158225632
 30
0.0
 11
893.7365339577576
 21
1341.463158225632
 31
0.0
  0
LINE
  5
274
330
1F
100
AcDbEntity
  8
LAY-10
  6
CONTINUOUS
 62
     7
100
AcDbLine
 10
1425.0
 20
1344.463158225562
 30
0.0
 11
894.8462529272999
 21
1344.463158225562
 31
0.0
  0
LINE
  5
275
330
1F
100
AcDbEntity
  8
LAY-10
  6
CONTINUOUS
 62
     7
100
AcDbLine
 10
1036.999999999987
 20
1728.759771078003
 30
0.0
 11
1036.999999999987
 21
2157.463158225564
 31
0.0
  0
LINE
  5
276
330
1F
100
AcDbEntity
  8
LAY-10
  6
CONTINUOUS
 62
     7
100
AcDbLine
 10
1038.999999999987
 20
1734.166545373667
 30
0.0
 11
1038.999999999987
 21
2157.463158225564
 31
0.0
  0
LINE
  5
277
330
1F
100
AcDbEntity
  8
LAY-10
  6
CONTINUOUS
 62
     7
100
AcDbLine
 10
1427.99999999998
 20
2121.463158225633
 30
0.0
 11
1182.263466042067
 21
2121.463158225633
 31
0.0
  0
LINE
  5
278
330
1F
100
AcDbEntity
  8
LAY-10
  6
CONTINUOUS
 62
     7
100
AcDbLine
 10
1038.999999999987
 20
2157.463158225564
 30
0.0
 11
1195.580093676702
 21
2157.463158225564
 31
0.0
  0
LINE
  5
279
330
1F
100
AcDbEntity
  8
LAY-10
  6
CONTINUOUS
 62
     7
100
AcDbLine
 10
1425.0
 20
2118.463158225562
 30
0.0
 11
1181.153747072486
 21
2118.463158225562
 31
0.0
  0
LINE
  5
27A
330
1F
100
AcDbEntity
  8
LAY-10
  6
CONTINUOUS
 62
     7
100
AcDbLine
 10
1293.0
 20
1816.463158225607
 30
0.0
 11
1286.999999999977
 21
1816.463158225607
 31
0.0
  0
LINE
  5
27B
330
1F
100
AcDbEntity
  8
LAY-10
  6
CONTINUOUS
 62
     7
100
AcDbLine
 10
1292.999999999977
 20
1656.463158225608
 30
0.0
 11
1292.999999999977
 21
1646.4631582256
 31
0.0
  0
LINE
  5
27C
330
1F
100
AcDbEntity
  8
LAY-10
  6
CONTINUOUS
 62
     7
100
AcDbLine
 10
842.9999999999901
 20
2138.963158225654
 30
0.0
 11
838.9999999999901
 21
2132.463158225654
 31
0.0
  0
LINE
  5
27D
330
1F
100
AcDbEntity
  8
LAY-10
  6
CONTINUOUS
 62
     7
100
AcDbLine
 10
842.9999999999901
 20
2125.963158225654
 30
0.0
 11
846.9999999999902
 21
2132.463158225654
 31
0.0
  0
ARC
  5
27E
330
1F
100
AcDbEntity
  8
LAY-10
  6
CONTINUOUS
 62
     7
100
AcDbCircle
 10
842.9999999999901
 20
2132.463158225654
 30
0.0
 40
12.75000000000001
100
AcDbArc
 50
18.2838899404031
 51
341.7161100595971
  0
LINE
  5
27F
330
1F
100
AcDbEntity
  8
LAY-10
  6
CONTINUOUS
 62
     7
100
AcDbLine
 10
853.4999999999901
 20
2136.463158225653
 30
0.0
 11
853.4999999999901
 21
2128.463158225655
 31
0.0
  0
LINE
  5
280
330
1F
100
AcDbEntity
  8
LAY-10
  6
CONTINUOUS
 62
     7
100
AcDbLine
 10
853.4999999999901
 20
2136.463158225653
 30
0.0
 11
855.1063000127934
 21
2136.463158225653
 31
0.0
  0
LINE
  5
281
330
1F
100
AcDbEntity
  8
LAY-10
  6
CONTINUOUS
 62
     7
100
AcDbLine
 10
853.4999999999901
 20
2128.463158225655
 30
0.0
 11
855.1063000127934
 21
2128.463158225655
 31
0.0
  0
CIRCLE
  5
282
330
1F
100
AcDbEntity
  8
LAY-10
  6
CONTINUOUS
 62
     7
100
AcDbCircle
 10
842.9999999999901
 20
2132.463158225649
 30
0.0
 40
13.00000000000001
  0
LINE
  5
283
330
1F
100
AcDbEntity
  8
LAY-10
  6
CONTINUOUS
 62
     7
100
AcDbLine
 10
842.9999999999901
 20
2125.963158225632
 30
0.0
 11
838.9999999999901
 21
2132.463158225632
 31
0.0
  0
LINE
  5
284
330
1F
100
AcDbEntity
  8
LAY-10
  6
CONTINUOUS
 62
     7
100
AcDbLine
 10
842.9999999999901
 20
2138.963158225632
 30
0.0
 11
846.9999999999902
 21
2132.463158225632
 31
0.0
  0
LINE
  5
285
330
1F
100
AcDbEntity
  8
LAY-10
  6
CONTINUOUS
 62
     7
100
AcDbLine
 10
830.0074985393132
 20
2128.904639589131
 30
0.0
 11
816.5660171772898
 21
2115.463158226348
 31
0.0
  0
LINE
  5
286
330
1F
100
AcDbEntity
  8
LAY-10
  6
CONTINUOUS
 62
     7
100
AcDbLine
 10
816.0726879761461
 20
2133.634156957602
 30
0.0
 11
798.8883476483899
 21
2150.818497285648
 31
0.0
  0
LINE
  5
287
330
1F
100
AcDbEntity
  8
LAY-10
  6
CONTINUOUS
 62
     7
100
AcDbLine
 10
675.1446609404894
 20
2150.818497282846
 30
0.0
 11
681.7893218829523
 21
2157.463158225646
 31
0.0
  0
LINE
  5
288
330
1F
100
AcDbEntity
  8
LAY-10
  6
CONTINUOUS
 62
     7
100
AcDbLine
 10
657.4669914122896
 20
2133.140827754045
 30
0.0
 11
648.9999999999646
 21
2124.673836341574
 31
0.0
  0
LINE
  5
289
330
1F
100
AcDbEntity
  8
LAY-10
  6
CONTINUOUS
 62
     7
100
AcDbLine
 10
752.5000000006941
 20
2157.463158225649
 30
0.0
 11
745.8553390584857
 21
2150.818497283853
 31
0.0
  0
LINE
  5
28A
330
1F
100
AcDbEntity
  8
LAY-10
  6
CONTINUOUS
 62
     7
100
AcDbLine
 10
657.4669914109901
 20
2097.785488697647
 30
0.0
 11
648.9999999999901
 21
2089.318497286503
 31
0.0
  0
LINE
  5
28B
330
1F
100
AcDbEntity
  8
LAY-10
  6
CONTINUOUS
 62
     7
100
AcDbLine
 10
692.8223304702898
 20
2097.785488696648
 30
0.0
 11
675.1446609405895
 21
2080.107819166648
 31
0.0
  0
LINE
  5
28C
330
1F
100
AcDbEntity
  8
LAY-10
  6
CONTINUOUS
 62
     7
100
AcDbLine
 10
675.1446609405895
 20
2062.430149637647
 30
0.0
 11
657.46699141089
 21
2080.107819166648
 31
0.0
  0
LINE
  5
28D
330
1F
100
AcDbEntity
  8
LAY-10
  6
CONTINUOUS
 62
     7
100
AcDbLine
 10
710.4999999998901
 20
2062.430149637647
 30
0.0
 11
692.8223304702898
 21
2080.107819166648
 31
0.0
  0
LINE
  5
28E
330
1F
100
AcDbEntity
  8
LAY-10
  6
CONTINUOUS
 62
     7
100
AcDbLine
 10
798.8883476482898
 20
2115.463158225649
 30
0.0
 11
816.5660171779901
 21
2097.785488696648
 31
0.0
  0
LINE
  5
28F
330
1F
100
AcDbEntity
  8
LAY-10
  6
CONTINUOUS
 62
     7
100
AcDbLine
 10
781.2106781186895
 20
2080.107819166648
 30
0.0
 11
798.8883476482898
 21
2097.785488696648
 31
0.0
  0
LINE
  5
290
330
1F
100
AcDbEntity
  8
LAY-10
  6
CONTINUOUS
 62
     7
100
AcDbLine
 10
781.2106781186895
 20
2115.463158225649
 30
0.0
 11
798.8883476482898
 21
2133.140827755648
 31
0.0
  0
LINE
  5
291
330
1F
100
AcDbEntity
  8
LAY-10
  6
CONTINUOUS
 62
     7
100
AcDbLine
 10
763.5330085889901
 20
2080.107819166648
 30
0.0
 11
781.2106781186895
 21
2062.430149637648
 31
0.0
  0
LINE
  5
292
330
1F
100
AcDbEntity
  8
LAY-10
  6
CONTINUOUS
 62
     7
100
AcDbLine
 10
728.1776695296895
 20
2097.785488696648
 30
0.0
 11
710.4999999999901
 21
2080.107819166648
 31
0.0
  0
LINE
  5
293
330
1F
100
AcDbEntity
  8
LAY-10
  6
CONTINUOUS
 62
     7
100
AcDbLine
 10
728.1776695296895
 20
2080.107819166648
 30
0.0
 11
745.8553390592898
 21
2062.430149637648
 31
0.0
  0
LINE
  5
294
330
1F
100
AcDbEntity
  8
LAY-10
  6
CONTINUOUS
 62
     7
100
AcDbLine
 10
763.5330085889901
 20
2115.463158225649
 30
0.0
 11
781.2106781186895
 21
2097.785488696648
 31
0.0
  0
LINE
  5
295
330
1F
100
AcDbEntity
  8
LAY-10
  6
CONTINUOUS
 62
     7
100
AcDbLine
 10
781.2106781186895
 20
2133.140827755648
 30
0.0
 11
763.5330085889901
 21
2150.818497285648
 31
0.0
  0
LINE
  5
296
330
1F
100
AcDbEntity
  8
LAY-10
  6
CONTINUOUS
 62
     7
100
AcDbLine
 10
657.46699141079
 20
1991.719471519646
 30
0.0
 11
648.9999999999901
 21
1983.252480108703
 31
0.0
  0
LINE
  5
297
330
1F
100
AcDbEntity
  8
LAY-10
  6
CONTINUOUS
 62
     7
100
AcDbLine
 10
692.8223304701897
 20
2027.074810578647
 30
0.0
 11
675.1446609404903
 21
2009.397141048647
 31
0.0
  0
LINE
  5
298
330
1F
100
AcDbEntity
  8
LAY-10
  6
CONTINUOUS
 62
     7
100
AcDbLine
 10
657.46699141089
 20
2009.397141048647
 30
0.0
 11
675.1446609404903
 21
1991.719471519647
 31
0.0
  0
LINE
  5
299
330
1F
100
AcDbEntity
  8
LAY-10
  6
CONTINUOUS
 62
     7
100
AcDbLine
 10
657.46699141089
 20
2027.074810578647
 30
0.0
 11
648.9999999999901
 21
2018.607819167603
 31
0.0
  0
LINE
  5
29A
330
1F
100
AcDbEntity
  8
LAY-10
  6
CONTINUOUS
 62
     7
100
AcDbLine
 10
657.46699141089
 20
2062.430149637647
 30
0.0
 11
648.9999999999901
 21
2053.963158226604
 31
0.0
  0
LINE
  5
29B
330
1F
100
AcDbEntity
  8
LAY-10
  6
CONTINUOUS
 62
     7
100
AcDbLine
 10
675.1446609404903
 20
2027.074810578647
 30
0.0
 11
657.46699141089
 21
2044.752480107648
 31
0.0
  0
LINE
  5
29C
330
1F
100
AcDbEntity
  8
LAY-10
  6
CONTINUOUS
 62
     7
100
AcDbLine
 10
692.8223304701897
 20
2009.397141048647
 30
0.0
 11
710.4999999998901
 21
1991.719471519647
 31
0.0
  0
LINE
  5
29D
330
1F
100
AcDbEntity
  8
LAY-10
  6
CONTINUOUS
 62
     7
100
AcDbLine
 10
710.4999999998901
 20
2009.397141048647
 30
0.0
 11
728.1776695295895
 21
2027.074810578648
 31
0.0
  0
LINE
  5
29E
330
1F
100
AcDbEntity
  8
LAY-10
  6
CONTINUOUS
 62
     7
100
AcDbLine
 10
728.1776695295895
 20
2044.752480107648
 30
0.0
 11
745.8553390592898
 21
2027.074810578648
 31
0.0
  0
LINE
  5
29F
330
1F
100
AcDbEntity
  8
LAY-10
  6
CONTINUOUS
 62
     7
100
AcDbLine
 10
692.8223304702898
 20
2062.430149637647
 30
0.0
 11
675.1446609405895
 21
2044.752480107648
 31
0.0
  0
LINE
  5
2A0
330
1F
100
AcDbEntity
  8
LAY-10
  6
CONTINUOUS
 62
     7
100
AcDbLine
 10
728.1776695295895
 20
2062.430149637647
 30
0.0
 11
710.4999999998901
 21
2044.752480107648
 31
0.0
  0
LINE
  5
2A1
330
1F
100
AcDbEntity
  8
LAY-10
  6
CONTINUOUS
 62
     7
100
AcDbLine
 10
692.8223304702898
 20
2044.752480107648
 30
0.0
 11
710.4999999998901
 21
2027.074810578648
 31
0.0
  0
LINE
  5
2A2
330
1F
100
AcDbEntity
  8
LAY-10
  6
CONTINUOUS
 62
     7
100
AcDbLine
 10
675.1446609404903
 20
1974.041801989647
 30
0.0
 11
692.8223304701897
 21
1991.719471519647
 31
0.0
  0
LINE
  5
2A3
330
1F
100
AcDbEntity
  8
LAY-10
  6
CONTINUOUS
 62
     7
100
AcDbLine
 10
657.46699141079
 20
1974.041801989647
 30
0.0
 11
675.1446609404903
 21
1956.364132460647
 31
0.0
  0
LINE
  5
2A4
330
1F
100
AcDbEntity
  8
LAY-10
  6
CONTINUOUS
 62
     7
100
AcDbLine
 10
648.9999999999901
 20
1947.897141049702
 30
0.0
 11
657.46699141079
 21
1956.364132460647
 31
0.0
  0
LINE
  5
2A5
330
1F
100
AcDbEntity
  8
LAY-10
  6
CONTINUOUS
 62
     7
100
AcDbLine
 10
787.8553390594772
 20
2157.463158225649
 30
0.0
 11
781.2106781185895
 21
2150.818497284648
 31
0.0
  0
LINE
  5
2A6
330
1F
100
AcDbEntity
  8
LAY-10
  6
CONTINUOUS
 62
     7
100
AcDbLine
 10
823.2106781191534
 20
2157.463158225649
 30
0.0
 11
816.5660171788898
 21
2150.818497285648
 31
0.0
  0
LINE
  5
2A7
330
1F
100
AcDbEntity
  8
LAY-10
  6
CONTINUOUS
 62
     7
100
AcDbLine
 10
763.5330085889901
 20
2097.785488696648
 30
0.0
 11
745.8553390592898
 21
2080.107819166648
 31
0.0
  0
LINE
  5
2A8
330
1F
100
AcDbEntity
  8
LAY-10
  6
CONTINUOUS
 62
     7
100
AcDbLine
 10
745.8553390592898
 20
2044.752480107648
 30
0.0
 11
763.5330085889901
 21
2062.430149637648
 31
0.0
  0
LINE
  5
2A9
330
1F
100
AcDbEntity
  8
LAY-10
  6
CONTINUOUS
 62
     7
100
AcDbLine
 10
692.822330470689
 20
2133.140827755047
 30
0.0
 11
675.1446609409905
 21
2115.463158225047
 31
0.0
  0
LINE
  5
2AA
330
1F
100
AcDbEntity
  8
LAY-10
  6
CONTINUOUS
 62
     7
100
AcDbLine
 10
675.1446609406895
 20
2133.140827754746
 30
0.0
 11
657.4669914113892
 21
2150.818497284045
 31
0.0
  0
LINE
  5
2AB
330
1F
100
AcDbEntity
  8
LAY-10
  6
CONTINUOUS
 62
     7
100
AcDbLine
 10
657.4669914119895
 20
2115.463158224647
 30
0.0
 11
675.1446609412907
 21
2097.785488695347
 31
0.0
  0
LINE
  5
2AC
330
1F
100
AcDbEntity
  8
LAY-10
  6
CONTINUOUS
 62
     7
100
AcDbLine
 10
763.5330085889901
 20
2133.140827755648
 30
0.0
 11
749.9999999999901
 21
2119.607819166419
 31
0.0
  0
LINE
  5
2AD
330
1F
100
AcDbEntity
  8
LAY-10
  6
CONTINUOUS
 62
     7
100
AcDbLine
 10
692.8223304707882
 20
2150.818497283448
 30
0.0
 11
710.5000000000883
 21
2133.140827754148
 31
0.0
  0
LINE
  5
2AE
330
1F
100
AcDbEntity
  8
LAY-10
  6
CONTINUOUS
 62
     7
100
AcDbLine
 10
710.4999999987896
 20
2115.463158225149
 30
0.0
 11
728.1776695287872
 21
2133.14082775485
 31
0.0
  0
LINE
  5
2AF
330
1F
100
AcDbEntity
  8
LAY-10
  6
CONTINUOUS
 62
     7
100
AcDbLine
 10
745.8553390577882
 20
2133.140827754852
 30
0.0
 11
728.1776695287864
 21
2150.81849728455
 31
0.0
  0
LINE
  5
2B0
330
1F
100
AcDbEntity
  8
LAY-10
  6
CONTINUOUS
 62
     7
100
AcDbLine
 10
745.855339057791
 20
2097.785488695551
 30
0.0
 11
728.1776695287891
 21
2115.46315822515
 31
0.0
  0
LINE
  5
2B1
330
1F
100
AcDbEntity
  8
LAY-10
  6
CONTINUOUS
 62
     7
100
AcDbLine
 10
710.4999999977881
 20
2150.818497284448
 30
0.0
 11
717.1446609390997
 21
2157.463158225649
 31
0.0
  0
LINE
  5
2B2
330
1F
100
AcDbEntity
  8
LAY-10
  6
CONTINUOUS
 62
     7
100
AcDbLine
 10
710.49999999969
 20
2097.785488696348
 30
0.0
 11
692.8223304703906
 21
2115.463158225648
 31
0.0
  0
LINE
  5
2B3
330
1F
100
AcDbEntity
  8
LAY-10
  6
CONTINUOUS
 62
     7
100
AcDbLine
 10
858.5660171788232
 20
2157.463158225649
 30
0.0
 11
851.9213562385596
 21
2150.818497285648
 31
0.0
  0
LINE
  5
2B4
330
1F
100
AcDbEntity
  8
LAY-10
  6
CONTINUOUS
 62
     7
100
AcDbLine
 10
839.9595718076754
 20
2145.102612185666
 30
0.0
 11
834.2436867077896
 21
2150.818497285648
 31
0.0
  0
LINE
  5
2B5
330
1F
100
AcDbEntity
  8
LAY-10
  6
CONTINUOUS
 62
     7
100
AcDbLine
 10
1065.1446609405
 20
2150.818497282846
 30
0.0
 11
1071.789321882962
 21
2157.463158225646
 31
0.0
  0
LINE
  5
2B6
330
1F
100
AcDbEntity
  8
LAY-10
  6
CONTINUOUS
 62
     7
100
AcDbLine
 10
1047.4669914123
 20
2133.140827754045
 30
0.0
 11
1038.999999999975
 21
2124.673836341574
 31
0.0
  0
LINE
  5
2B7
330
1F
100
AcDbEntity
  8
LAY-10
  6
CONTINUOUS
 62
     7
100
AcDbLine
 10
1142.500000000704
 20
2157.463158225649
 30
0.0
 11
1135.855339058496
 21
2150.818497283853
 31
0.0
  0
LINE
  5
2B8
330
1F
100
AcDbEntity
  8
LAY-10
  6
CONTINUOUS
 62
     7
100
AcDbLine
 10
1047.466991411
 20
2097.785488697647
 30
0.0
 11
1039.0
 21
2089.318497286503
 31
0.0
  0
LINE
  5
2B9
330
1F
100
AcDbEntity
  8
LAY-10
  6
CONTINUOUS
 62
     7
100
AcDbLine
 10
1082.8223304703
 20
2097.785488696648
 30
0.0
 11
1065.1446609406
 21
2080.107819166648
 31
0.0
  0
LINE
  5
2BA
330
1F
100
AcDbEntity
  8
LAY-10
  6
CONTINUOUS
 62
     7
100
AcDbLine
 10
1065.1446609406
 20
2062.430149637647
 30
0.0
 11
1047.4669914109
 21
2080.107819166648
 31
0.0
  0
LINE
  5
2BB
330
1F
100
AcDbEntity
  8
LAY-10
  6
CONTINUOUS
 62
     7
100
AcDbLine
 10
1100.4999999999
 20
2062.430149637647
 30
0.0
 11
1082.8223304703
 21
2080.107819166648
 31
0.0
  0
LINE
  5
2BC
330
1F
100
AcDbEntity
  8
LAY-10
  6
CONTINUOUS
 62
     7
100
AcDbLine
 10
1118.1776695297
 20
2097.785488696648
 30
0.0
 11
1100.5
 21
2080.107819166648
 31
0.0
  0
LINE
  5
2BD
330
1F
100
AcDbEntity
  8
LAY-10
  6
CONTINUOUS
 62
     7
100
AcDbLine
 10
1118.1776695297
 20
2080.107819166648
 30
0.0
 11
1135.8553390593
 21
2062.430149637648
 31
0.0
  0
LINE
  5
2BE
330
1F
100
AcDbEntity
  8
LAY-10
  6
CONTINUOUS
 62
     7
100
AcDbLine
 10
1153.533008589
 20
2115.463158225649
 30
0.0
 11
1171.2106781187
 21
2097.785488696648
 31
0.0
  0
LINE
  5
2BF
330
1F
100
AcDbEntity
  8
LAY-10
  6
CONTINUOUS
 62
     7
100
AcDbLine
 10
1171.2106781187
 20
2133.140827755648
 30
0.0
 11
1153.533008589
 21
2150.818497285648
 31
0.0
  0
LINE
  5
2C0
330
1F
100
AcDbEntity
  8
LAY-10
  6
CONTINUOUS
 62
     7
100
AcDbLine
 10
1047.4669914108
 20
1991.719471519646
 30
0.0
 11
1039.0
 21
1983.252480108703
 31
0.0
  0
LINE
  5
2C1
330
1F
100
AcDbEntity
  8
LAY-10
  6
CONTINUOUS
 62
     7
100
AcDbLine
 10
1082.8223304702
 20
2027.074810578647
 30
0.0
 11
1065.1446609405
 21
2009.397141048647
 31
0.0
  0
LINE
  5
2C2
330
1F
100
AcDbEntity
  8
LAY-10
  6
CONTINUOUS
 62
     7
100
AcDbLine
 10
1047.4669914109
 20
2009.397141048647
 30
0.0
 11
1065.1446609405
 21
1991.719471519647
 31
0.0
  0
LINE
  5
2C3
330
1F
100
AcDbEntity
  8
LAY-10
  6
CONTINUOUS
 62
     7
100
AcDbLine
 10
1047.4669914109
 20
2027.074810578647
 30
0.0
 11
1039.0
 21
2018.607819167603
 31
0.0
  0
LINE
  5
2C4
330
1F
100
AcDbEntity
  8
LAY-10
  6
CONTINUOUS
 62
     7
100
AcDbLine
 10
1047.4669914109
 20
2062.430149637647
 30
0.0
 11
1039.0
 21
2053.963158226604
 31
0.0
  0
LINE
  5
2C5
330
1F
100
AcDbEntity
  8
LAY-10
  6
CONTINUOUS
 62
     7
100
AcDbLine
 10
1065.1446609405
 20
2027.074810578647
 30
0.0
 11
1047.4669914109
 21
2044.752480107648
 31
0.0
  0
LINE
  5
2C6
330
1F
100
AcDbEntity
  8
LAY-10
  6
CONTINUOUS
 62
     7
100
AcDbLine
 10
1082.8223304702
 20
2009.397141048647
 30
0.0
 11
1100.4999999999
 21
1991.719471519647
 31
0.0
  0
LINE
  5
2C7
330
1F
100
AcDbEntity
  8
LAY-10
  6
CONTINUOUS
 62
     7
100
AcDbLine
 10
1100.4999999999
 20
2009.397141048647
 30
0.0
 11
1118.1776695296
 21
2027.074810578648
 31
0.0
  0
LINE
  5
2C8
330
1F
100
AcDbEntity
  8
LAY-10
  6
CONTINUOUS
 62
     7
100
AcDbLine
 10
1118.1776695296
 20
2044.752480107648
 30
0.0
 11
1135.8553390593
 21
2027.074810578648
 31
0.0
  0
LINE
  5
2C9
330
1F
100
AcDbEntity
  8
LAY-10
  6
CONTINUOUS
 62
     7
100
AcDbLine
 10
1082.8223304703
 20
2062.430149637647
 30
0.0
 11
1065.1446609406
 21
2044.752480107648
 31
0.0
  0
LINE
  5
2CA
330
1F
100
AcDbEntity
  8
LAY-10
  6
CONTINUOUS
 62
     7
100
AcDbLine
 10
1118.1776695296
 20
2062.430149637647
 30
0.0
 11
1100.4999999999
 21
2044.752480107648
 31
0.0
  0
LINE
  5
2CB
330
1F
100
AcDbEntity
  8
LAY-10
  6
CONTINUOUS
 62
     7
100
AcDbLine
 10
1082.8223304703
 20
2044.752480107648
 30
0.0
 11
1100.4999999999
 21
2027.074810578648
 31
0.0
  0
LINE
  5
2CC
330
1F
100
AcDbEntity
  8
LAY-10
  6
CONTINUOUS
 62
     7
100
AcDbLine
 10
1065.1446609405
 20
1974.041801989647
 30
0.0
 11
1082.8223304702
 21
1991.719471519647
 31
0.0
  0
LINE
  5
2CD
330
1F
100
AcDbEntity
  8
LAY-10
  6
CONTINUOUS
 62
     7
100
AcDbLine
 10
1047.4669914108
 20
1974.041801989647
 30
0.0
 11
1065.1446609405
 21
1956.364132460647
 31
0.0
  0
LINE
  5
2CE
330
1F
100
AcDbEntity
  8
LAY-10
  6
CONTINUOUS
 62
     7
100
AcDbLine
 10
1039.0
 20
1947.897141049702
 30
0.0
 11
1047.4669914108
 21
1956.364132460647
 31
0.0
  0
LINE
  5
2CF
330
1F
100
AcDbEntity
  8
LAY-10
  6
CONTINUOUS
 62
     7
100
AcDbLine
 10
1177.855339059487
 20
2157.463158225649
 30
0.0
 11
1171.2106781186
 21
2150.818497284648
 31
0.0
  0
LINE
  5
2D0
330
1F
100
AcDbEntity
  8
LAY-10
  6
CONTINUOUS
 62
     7
100
AcDbLine
 10
1153.533008589
 20
2097.785488696648
 30
0.0
 11
1135.8553390593
 21
2080.107819166648
 31
0.0
  0
LINE
  5
2D1
330
1F
100
AcDbEntity
  8
LAY-10
  6
CONTINUOUS
 62
     7
100
AcDbLine
 10
1135.8553390593
 20
2044.752480107648
 30
0.0
 11
1153.533008589
 21
2062.430149637648
 31
0.0
  0
LINE
  5
2D2
330
1F
100
AcDbEntity
  8
LAY-10
  6
CONTINUOUS
 62
     7
100
AcDbLine
 10
1082.822330470699
 20
2133.140827755047
 30
0.0
 11
1065.144660941001
 21
2115.463158225047
 31
0.0
  0
LINE
  5
2D3
330
1F
100
AcDbEntity
  8
LAY-10
  6
CONTINUOUS
 62
     7
100
AcDbLine
 10
1065.1446609407
 20
2133.140827754746
 30
0.0
 11
1047.466991411399
 21
2150.818497284045
 31
0.0
  0
LINE
  5
2D4
330
1F
100
AcDbEntity
  8
LAY-10
  6
CONTINUOUS
 62
     7
100
AcDbLine
 10
1047.466991412
 20
2115.463158224647
 30
0.0
 11
1065.144660941301
 21
2097.785488695347
 31
0.0
  0
LINE
  5
2D5
330
1F
100
AcDbEntity
  8
LAY-10
  6
CONTINUOUS
 62
     7
100
AcDbLine
 10
1153.533008589
 20
2133.140827755648
 30
0.0
 11
1140.0
 21
2119.607819166419
 31
0.0
  0
LINE
  5
2D6
330
1F
100
AcDbEntity
  8
LAY-10
  6
CONTINUOUS
 62
     7
100
AcDbLine
 10
1082.822330470798
 20
2150.818497283448
 30
0.0
 11
1100.500000000098
 21
2133.140827754148
 31
0.0
  0
LINE
  5
2D7
330
1F
100
AcDbEntity
  8
LAY-10
  6
CONTINUOUS
 62
     7
100
AcDbLine
 10
1100.4999999988
 20
2115.463158225149
 30
0.0
 11
1118.177669528797
 21
2133.14082775485
 31
0.0
  0
LINE
  5
2D8
330
1F
100
AcDbEntity
  8
LAY-10
  6
CONTINUOUS
 62
     7
100
AcDbLine
 10
1135.855339057798
 20
2133.140827754852
 30
0.0
 11
1118.177669528797
 21
2150.81849728455
 31
0.0
  0
LINE
  5
2D9
330
1F
100
AcDbEntity
  8
LAY-10
  6
CONTINUOUS
 62
     7
100
AcDbLine
 10
1135.855339057801
 20
2097.785488695551
 30
0.0
 11
1118.177669528799
 21
2115.46315822515
 31
0.0
  0
LINE
  5
2DA
330
1F
100
AcDbEntity
  8
LAY-10
  6
CONTINUOUS
 62
     7
100
AcDbLine
 10
1100.499999997798
 20
2150.818497284448
 30
0.0
 11
1107.14466093911
 21
2157.463158225649
 31
0.0
  0
LINE
  5
2DB
330
1F
100
AcDbEntity
  8
LAY-10
  6
CONTINUOUS
 62
     7
100
AcDbLine
 10
1100.4999999997
 20
2097.785488696348
 30
0.0
 11
1082.822330470401
 21
2115.463158225648
 31
0.0
  0
LINE
  5
2DC
330
1F
100
AcDbEntity
  8
LAY-10
  6
CONTINUOUS
 62
     7
100
AcDbLine
 10
1191.978956005725
 20
2147.727888928272
 30
0.0
 11
1188.8883476484
 21
2150.818497285648
 31
0.0
  0
LINE
  5
2DD
330
1F
100
AcDbEntity
  8
LAY-10
  6
CONTINUOUS
 62
     7
100
AcDbLine
 10
1171.2106781187
 20
2115.463158225649
 30
0.0
 11
1185.229784022176
 21
2129.482264129442
 31
0.0
  0
LINE
  5
2DE
330
1F
100
AcDbEntity
  8
LAY-10
  6
CONTINUOUS
 62
     7
100
AcDbLine
 10
1153.533008589
 20
2080.107819166648
 30
0.0
 11
1163.338683481135
 21
2070.302144274902
 31
0.0
  0
LINE
  5
2DF
330
1F
100
AcDbEntity
  8
LAY-10
  6
CONTINUOUS
 62
     7
100
AcDbLine
 10
843.0000000000001
 20
1323.963158225545
 30
0.0
 11
847.0
 21
1330.463158225546
 31
0.0
  0
LINE
  5
2E0
330
1F
100
AcDbEntity
  8
LAY-10
  6
CONTINUOUS
 62
     7
100
AcDbLine
 10
843.0000000000001
 20
1336.963158225546
 30
0.0
 11
839.0
 21
1330.463158225546
 31
0.0
  0
ARC
  5
2E1
330
1F
100
AcDbEntity
  8
LAY-10
  6
CONTINUOUS
 62
     7
100
AcDbCircle
 10
843.0000000000001
 20
1330.463158225546
 30
0.0
 40
12.75000000000001
100
AcDbArc
 50
198.2838899404032
 51
161.7161100595971
  0
LINE
  5
2E2
330
1F
100
AcDbEntity
  8
LAY-10
  6
CONTINUOUS
 62
     7
100
AcDbLine
 10
832.5
 20
1326.463158225547
 30
0.0
 11
832.5
 21
1334.463158225545
 31
0.0
  0
LINE
  5
2E3
330
1F
100
AcDbEntity
  8
LAY-10
  6
CONTINUOUS
 62
     7
100
AcDbLine
 10
832.5
 20
1326.463158225547
 30
0.0
 11
830.8936999871967
 21
1326.463158225547
 31
0.0
  0
LINE
  5
2E4
330
1F
100
AcDbEntity
  8
LAY-10
  6
CONTINUOUS
 62
     7
100
AcDbLine
 10
832.5
 20
1334.463158225545
 30
0.0
 11
830.8936999871967
 21
1334.463158225545
 31
0.0
  0
CIRCLE
  5
2E5
330
1F
100
AcDbEntity
  8
LAY-10
  6
CONTINUOUS
 62
     7
100
AcDbCircle
 10
843.0000000000001
 20
1330.463158225551
 30
0.0
 40
13.00000000000001
  0
LINE
  5
2E6
330
1F
100
AcDbEntity
  8
LAY-10
  6
CONTINUOUS
 62
     7
100
AcDbLine
 10
843.0000000000001
 20
1336.963158225568
 30
0.0
 11
847.0
 21
1330.463158225568
 31
0.0
  0
LINE
  5
2E7
330
1F
100
AcDbEntity
  8
LAY-10
  6
CONTINUOUS
 62
     7
100
AcDbLine
 10
843.0000000000001
 20
1323.963158225568
 30
0.0
 11
839.0
 21
1330.463158225568
 31
0.0
  0
LINE
  5
2E8
330
1F
100
AcDbEntity
  8
LAY-10
  6
CONTINUOUS
 62
     7
100
AcDbLine
 10
855.992501460677
 20
1334.021676862069
 30
0.0
 11
869.4339828227004
 21
1347.463158224852
 31
0.0
  0
LINE
  5
2E9
330
1F
100
AcDbEntity
  8
LAY-10
  6
CONTINUOUS
 62
     7
100
AcDbLine
 10
887.1116523517003
 20
1347.463158225551
 30
0.0
 11
869.4339828220001
 21
1365.140827754552
 31
0.0
  0
LINE
  5
2EA
330
1F
100
AcDbEntity
  8
LAY-10
  6
CONTINUOUS
 62
     7
100
AcDbLine
 10
904.7893218813006
 20
1382.818497284552
 30
0.0
 11
887.1116523517003
 21
1365.140827754552
 31
0.0
  0
LINE
  5
2EB
330
1F
100
AcDbEntity
  8
LAY-10
  6
CONTINUOUS
 62
     7
100
AcDbLine
 10
862.7893218808367
 20
1305.463158225551
 30
0.0
 11
869.4339828211005
 21
1312.107819165552
 31
0.0
  0
LINE
  5
2EC
330
1F
100
AcDbEntity
  8
LAY-10
  6
CONTINUOUS
 62
     7
100
AcDbLine
 10
827.4339828211669
 20
1305.463158225551
 30
0.0
 11
834.0786437614306
 21
1312.107819165552
 31
0.0
  0
LINE
  5
2ED
330
1F
100
AcDbEntity
  8
LAY-10
  6
CONTINUOUS
 62
     7
100
AcDbLine
 10
846.0404281923147
 20
1317.823704265534
 30
0.0
 11
851.7563132922005
 21
1312.107819165552
 31
0.0
  0
LINE
  5
2EE
330
1F
100
AcDbEntity
  8
LAY-10
  6
CONTINUOUS
 62
     7
100
AcDbLine
 10
890.7702159775068
 20
1333.444052321441
 30
0.0
 11
887.1116523517003
 21
1329.785488695552
 31
0.0
  0
LINE
  5
2EF
330
1F
100
AcDbEntity
  8
LAY-10
  6
CONTINUOUS
 62
     7
100
AcDbLine
 10
869.927312023844
 20
1329.292159493598
 30
0.0
 11
884.0210439941299
 21
1315.198427523074
 31
0.0
  0
LINE
  5
2F0
330
1F
100
AcDbEntity
  8
LAY-10
  6
CONTINUOUS
 62
     7
100
AcDbLine
 10
912.6613165187194
 20
1392.624172176444
 30
0.0
 11
904.7893218813006
 21
1400.496166813552
 31
0.0
  0
LINE
  5
2F1
330
1F
100
AcDbEntity
  8
LAY-10
  6
CONTINUOUS
 62
     7
100
AcDbLine
 10
1895.201515190076
 20
1806.463158225618
 30
0.0
 11
1895.201515190076
 21
1786.463158225618
 31
0.0
  0
LINE
  5
2F2
330
1F
100
AcDbEntity
  8
LAY-10
  6
CONTINUOUS
 62
     7
100
AcDbLine
 10
1895.201515190076
 20
1676.463158225618
 30
0.0
 11
1895.201515190076
 21
1656.463158225618
 31
0.0
  0
LINE
  5
2F3
330
1F
100
AcDbEntity
  8
LAY-10
  6
CONTINUOUS
 62
     7
100
AcDbLine
 10
1888.201515190073
 20
1656.463158225618
 30
0.0
 11
1896.201515190076
 21
1656.463158225618
 31
0.0
  0
LINE
  5
2F4
330
1F
100
AcDbEntity
  8
LAY-10
  6
CONTINUOUS
 62
     7
100
AcDbLine
 10
1888.201515190073
 20
1806.463158225618
 30
0.0
 11
1896.201515190076
 21
1806.463158225618
 31
0.0
  0
LINE
  5
2F5
330
1F
100
AcDbEntity
  8
LAY-10
  6
CONTINUOUS
 62
     7
100
AcDbLine
 10
1888.201515190073
 20
1786.463158225618
 30
0.0
 11
1896.201515190076
 21
1786.463158225618
 31
0.0
  0
LINE
  5
2F6
330
1F
100
AcDbEntity
  8
LAY-10
  6
CONTINUOUS
 62
     7
100
AcDbLine
 10
1890.201515190075
 20
1806.463158225618
 30
0.0
 11
1890.201515190075
 21
1816.763158225615
 31
0.0
  0
LINE
  5
2F7
330
1F
100
AcDbEntity
  8
LAY-10
  6
CONTINUOUS
 62
     7
100
AcDbLine
 10
1890.201515190075
 20
1676.463158225618
 30
0.0
 11
1890.201515190075
 21
1786.463158225618
 31
0.0
  0
LINE
  5
2F8
330
1F
100
AcDbEntity
  8
LAY-10
  6
CONTINUOUS
 62
     7
100
AcDbLine
 10
1890.201515190075
 20
1646.463158225618
 30
0.0
 11
1890.201515190075
 21
1656.463158225618
 31
0.0
  0
LINE
  5
2F9
330
1F
100
AcDbEntity
  8
LAY-10
  6
CONTINUOUS
 62
     7
100
AcDbLine
 10
1888.201515190073
 20
1786.463158225618
 30
0.0
 11
1888.201515190073
 21
1806.463158225618
 31
0.0
  0
LINE
  5
2FA
330
1F
100
AcDbEntity
  8
LAY-10
  6
CONTINUOUS
 62
     7
100
AcDbLine
 10
1888.201515190073
 20
1656.463158225618
 30
0.0
 11
1888.201515190073
 21
1676.463158225618
 31
0.0
  0
LINE
  5
2FB
330
1F
100
AcDbEntity
  8
LAY-10
  6
CONTINUOUS
 62
     7
100
AcDbLine
 10
1888.201515190073
 20
1676.463158225618
 30
0.0
 11
1896.201515190076
 21
1676.463158225618
 31
0.0
  0
LINE
  5
2FC
330
1F
100
AcDbEntity
  8
LAY-10
  6
CONTINUOUS
 62
     7
100
AcDbLine
 10
1890.201515190075
 20
1816.763158225615
 30
0.0
 11
1896.201515190076
 21
1816.763158225615
 31
0.0
  0
LINE
  5
2FD
330
1F
100
AcDbEntity
  8
LAY-10
  6
CONTINUOUS
 62
     7
100
AcDbLine
 10
1890.201515190075
 20
1646.463158225618
 30
0.0
 11
1896.201515190076
 21
1646.463158225618
 31
0.0
  0
ARC
  5
2FE
330
1F
100
AcDbEntity
  8
LAY-10
  6
CONTINUOUS
 62
     7
100
AcDbCircle
 10
1893.201515190078
 20
1778.463158225616
 30
0.0
 40
3.000000000000003
100
AcDbArc
 50
180.0
 51
0.0
  0
ARC
  5
2FF
330
1F
100
AcDbEntity
  8
LAY-10
  6
CONTINUOUS
 62
     7
100
AcDbCircle
 10
1893.201515190078
 20
1684.463158225616
 30
0.0
 40
3.000000000000003
100
AcDbArc
 50
0.0
 51
180.0
  0
LINE
  5
300
330
1F
100
AcDbEntity
  8
LAY-10
  6
CONTINUOUS
 62
     7
100
AcDbLine
 10
1821.601515190079
 20
2158.463158225618
 30
0.0
 11
1836.601515190079
 21
2158.463158225618
 31
0.0
  0
LINE
  5
301
330
1F
100
AcDbEntity
  8
LAY-10
  6
CONTINUOUS
 62
     7
100
AcDbLine
 10
1824.601515190078
 20
2161.463158225616
 30
0.0
 11
1824.601515190078
 21
2173.463158225618
 31
0.0
  0
LINE
  5
302
330
1F
100
AcDbEntity
  8
LAY-10
  6
CONTINUOUS
 62
     7
100
AcDbLine
 10
1836.601515190079
 20
2158.463158225618
 30
0.0
 11
1836.601515190079
 21
2161.463158225616
 31
0.0
  0
LINE
  5
303
330
1F
100
AcDbEntity
  8
LAY-10
  6
CONTINUOUS
 62
     7
100
AcDbLine
 10
1821.601515190079
 20
2173.463158225618
 30
0.0
 11
1824.601515190078
 21
2173.463158225618
 31
0.0
  0
LINE
  5
304
330
1F
100
AcDbEntity
  8
LAY-10
  6
CONTINUOUS
 62
     7
100
AcDbLine
 10
1821.601515190079
 20
2158.463158225618
 30
0.0
 11
1821.601515190079
 21
2173.463158225618
 31
0.0
  0
LINE
  5
305
330
1F
100
AcDbEntity
  8
LAY-10
  6
CONTINUOUS
 62
     7
100
AcDbLine
 10
1871.301515190076
 20
2161.3494497266
 30
0.0
 11
1871.301515190076
 21
2124.663158225615
 31
0.0
  0
ARC
  5
306
330
1F
100
AcDbEntity
  8
LAY-10
  6
CONTINUOUS
 62
     7
100
AcDbCircle
 10
1879.301515190073
 20
2161.349449726632
 30
0.0
 40
8.0
100
AcDbArc
 50
134.9999999999862
 51
180.0
  0
LINE
  5
307
330
1F
100
AcDbEntity
  8
LAY-10
  6
CONTINUOUS
 62
     7
100
AcDbLine
 10
1914.656854249402
 20
2196.704788785958
 30
0.0
 11
1879.301515190077
 21
2161.349449726632
 31
0.0
  0
LINE
  5
308
330
1F
100
AcDbEntity
  8
LAY-10
  6
CONTINUOUS
 62
     7
100
AcDbLine
 10
1908.99999999991
 20
2202.361643035451
 30
0.0
 11
1914.656854249402
 21
2196.704788785958
 31
0.0
  0
LINE
  5
309
330
1F
100
AcDbEntity
  8
LAY-10
  6
CONTINUOUS
 62
     7
100
AcDbLine
 10
1908.99999999991
 20
2202.361643035451
 30
0.0
 11
1873.644660940584
 21
2167.006303976125
 31
0.0
  0
LINE
  5
30A
330
1F
100
AcDbEntity
  8
LAY-10
  6
CONTINUOUS
 62
     7
100
AcDbLine
 10
1824.601515190078
 20
2161.463158225616
 30
0.0
 11
1865.101515190076
 21
2161.463158225616
 31
0.0
  0
LINE
  5
30B
330
1F
100
AcDbEntity
  8
LAY-10
  6
CONTINUOUS
 62
     7
100
AcDbLine
 10
1865.301515190074
 20
2164.663158225615
 30
0.0
 11
1824.601515190078
 21
2164.663158225615
 31
0.0
  0
ARC
  5
30C
330
1F
100
AcDbEntity
  8
LAY-10
  6
CONTINUOUS
 62
     7
100
AcDbCircle
 10
1871.101515190076
 20
2124.463158225618
 30
0.0
 40
3.000000000000003
100
AcDbArc
 50
180.0
 51
270.0000000000002
  0
ARC
  5
30D
330
1F
100
AcDbEntity
  8
LAY-10
  6
CONTINUOUS
 62
     7
100
AcDbCircle
 10
1865.301515190074
 20
2158.663158225615
 30
0.0
 40
6.000000000000006
100
AcDbArc
 50
0.0
 51
90.00000000000001
  0
ARC
  5
30E
330
1F
100
AcDbEntity
  8
LAY-10
  6
CONTINUOUS
 62
     7
100
AcDbCircle
 10
1865.101515190076
 20
2158.463158225618
 30
0.0
 40
3.000000000000003
100
AcDbArc
 50
0.0
 51
90.00000000000001
  0
LINE
  5
30F
330
1F
100
AcDbEntity
  8
LAY-10
  6
CONTINUOUS
 62
     7
100
AcDbLine
 10
1871.3015151901
 20
2124.663158225615
 30
0.0
 11
1908.601515190077
 21
2124.663158225615
 31
0.0
  0
LINE
  5
310
330
1F
100
AcDbEntity
  8
LAY-10
  6
CONTINUOUS
 62
     7
100
AcDbLine
 10
1871.1015151901
 20
2121.463158225618
 30
0.0
 11
1908.401515190078
 21
2121.463158225618
 31
0.0
  0
LINE
  5
311
330
1F
100
AcDbEntity
  8
LAY-10
  6
CONTINUOUS
 62
     7
100
AcDbLine
 10
1908.401515190078
 20
2111.463158225618
 30
0.0
 11
1908.401515190078
 21
2121.463158225618
 31
0.0
  0
LINE
  5
312
330
1F
100
AcDbEntity
  8
LAY-10
  6
CONTINUOUS
 62
     7
100
AcDbLine
 10
1899.401515190076
 20
2111.463158225618
 30
0.0
 11
1899.401515190076
 21
2115.463158225618
 31
0.0
  0
LINE
  5
313
330
1F
100
AcDbEntity
  8
LAY-10
  6
CONTINUOUS
 62
     7
100
AcDbLine
 10
1908.401515190078
 20
2101.463158225616
 30
0.0
 11
1908.401515190078
 21
2071.463158225616
 31
0.0
  0
LINE
  5
314
330
1F
100
AcDbEntity
  8
LAY-10
  6
CONTINUOUS
 62
     7
100
AcDbLine
 10
1911.601515190075
 20
2071.463158225616
 30
0.0
 11
1911.601515190075
 21
2121.663158225619
 31
0.0
  0
LINE
  5
315
330
1F
100
AcDbEntity
  8
LAY-10
  6
CONTINUOUS
 62
     7
100
AcDbLine
 10
1876.801515190076
 20
2160.663158225619
 30
0.0
 11
1907.801515190078
 21
2160.663158225619
 31
0.0
  0
LINE
  5
316
330
1F
100
AcDbEntity
  8
LAY-10
  6
CONTINUOUS
 62
     7
100
AcDbLine
 10
1876.801515190076
 20
2160.663158225619
 30
0.0
 11
1876.801515190076
 21
2124.663158225615
 31
0.0
  0
LINE
  5
317
330
1F
100
AcDbEntity
  8
LAY-10
  6
CONTINUOUS
 62
     7
100
AcDbLine
 10
1907.801515190078
 20
2160.663158225619
 30
0.0
 11
1907.801515190078
 21
2124.663158225615
 31
0.0
  0
LINE
  5
318
330
1F
100
AcDbEntity
  8
LAY-10
  6
CONTINUOUS
 62
     7
100
AcDbLine
 10
1910.180677065853
 20
2124.213892976645
 30
0.0
 11
1910.237095939317
 21
2124.270311850109
 31
0.0
  0
LINE
  5
319
330
1F
100
AcDbEntity
  8
LAY-10
  6
CONTINUOUS
 62
     7
100
AcDbLine
 10
1909.710381883958
 20
2124.450704575941
 30
0.0
 11
1909.907701338828
 21
2124.648024030807
 31
0.0
  0
LINE
  5
31A
330
1F
100
AcDbEntity
  8
LAY-10
  6
CONTINUOUS
 62
     7
100
AcDbLine
 10
1909.162761580448
 20
2124.610191053615
 30
0.0
 11
1909.578306738342
 21
2125.025736211507
 31
0.0
  0
LINE
  5
31B
330
1F
100
AcDbEntity
  8
LAY-10
  6
CONTINUOUS
 62
     7
100
AcDbLine
 10
1908.508621971263
 20
2124.663158225619
 30
0.0
 11
1909.248912137863
 21
2125.403448392218
 31
0.0
  0
LINE
  5
31C
330
1F
100
AcDbEntity
  8
LAY-10
  6
CONTINUOUS
 62
     7
100
AcDbLine
 10
1907.801515190081
 20
2124.663158225622
 30
0.0
 11
1908.919517537373
 21
2125.781160572916
 31
0.0
  0
LINE
  5
31D
330
1F
100
AcDbEntity
  8
LAY-10
  6
CONTINUOUS
 62
     7
100
AcDbLine
 10
1907.801515190065
 20
2125.370265006793
 30
0.0
 11
1908.590122936886
 21
2126.158872753615
 31
0.0
  0
LINE
  5
31E
330
1F
100
AcDbEntity
  8
LAY-10
  6
CONTINUOUS
 62
     7
100
AcDbLine
 10
1907.801515190071
 20
2126.077371787985
 30
0.0
 11
1908.2607283364
 21
2126.536584934313
 31
0.0
  0
LINE
  5
31F
330
1F
100
AcDbEntity
  8
LAY-10
  6
CONTINUOUS
 62
     7
100
AcDbLine
 10
1907.801515190066
 20
2126.78447856917
 30
0.0
 11
1907.931333735933
 21
2126.914297115035
 31
0.0
  0
LINE
  5
320
330
1F
100
AcDbEntity
  8
LAY-10
  6
CONTINUOUS
 62
     7
100
AcDbLine
 10
1907.801515190078
 20
2127.063158225616
 30
0.0
 11
1910.45043997505
 21
2124.025673228639
 31
0.0
  0
LINE
  5
321
330
1F
100
AcDbEntity
  8
LAY-10
  6
CONTINUOUS
 62
     7
100
AcDbLine
 10
1874.572275016064
 20
2124.771078056069
 30
0.0
 11
1874.680194846516
 21
2124.663158225615
 31
0.0
  0
LINE
  5
322
330
1F
100
AcDbEntity
  8
LAY-10
  6
CONTINUOUS
 62
     7
100
AcDbLine
 10
1874.930420009129
 20
2125.12003984419
 30
0.0
 11
1875.3873016277
 21
2124.663158225622
 31
0.0
  0
LINE
  5
323
330
1F
100
AcDbEntity
  8
LAY-10
  6
CONTINUOUS
 62
     7
100
AcDbLine
 10
1875.288565002204
 20
2125.469001632301
 30
0.0
 11
1876.094408408892
 21
2124.663158225615
 31
0.0
  0
LINE
  5
324
330
1F
100
AcDbEntity
  8
LAY-10
  6
CONTINUOUS
 62
     7
100
AcDbLine
 10
1875.64670999527
 20
2125.817963420423
 30
0.0
 11
1876.801515190084
 21
2124.663158225608
 31
0.0
  0
LINE
  5
325
330
1F
100
AcDbEntity
  8
LAY-10
  6
CONTINUOUS
 62
     7
100
AcDbLine
 10
1876.004854988334
 20
2126.166925208544
 30
0.0
 11
1876.80151519008
 21
2125.3702650068
 31
0.0
  0
LINE
  5
326
330
1F
100
AcDbEntity
  8
LAY-10
  6
CONTINUOUS
 62
     7
100
AcDbLine
 10
1876.362999981409
 20
2126.515886996657
 30
0.0
 11
1876.80151519007
 21
2126.077371787992
 31
0.0
  0
LINE
  5
327
330
1F
100
AcDbEntity
  8
LAY-10
  6
CONTINUOUS
 62
     7
100
AcDbLine
 10
1876.721144974474
 20
2126.864848784778
 30
0.0
 11
1876.80151519008
 21
2126.784478569177
 31
0.0
  0
LINE
  5
328
330
1F
100
AcDbEntity
  8
LAY-10
  6
CONTINUOUS
 62
     7
100
AcDbLine
 10
1874.461515190074
 20
2124.663158225615
 30
0.0
 11
1876.801515190076
 21
2126.943158225617
 31
0.0
  0
ARC
  5
329
330
1F
100
AcDbEntity
  8
LAY-10
  6
CONTINUOUS
 62
     7
100
AcDbCircle
 10
1906.401515190074
 20
2064.463158225616
 30
0.0
 40
4.0
100
AcDbArc
 50
90.00000000000001
 51
180.0
  0
ARC
  5
32A
330
1F
100
AcDbEntity
  8
LAY-10
  6
CONTINUOUS
 62
     7
100
AcDbCircle
 10
1900.401515190076
 20
2043.463158225618
 30
0.0
 40
2.0
100
AcDbArc
 50
270.0000000000002
 51
0.0
  0
ARC
  5
32B
330
1F
100
AcDbEntity
  8
LAY-10
  6
CONTINUOUS
 62
     7
100
AcDbCircle
 10
1927.401515190076
 20
2070.463158225616
 30
0.0
 40
2.0
100
AcDbArc
 50
270.0000000000002
 51
0.0
  0
LINE
  5
32C
330
1F
100
AcDbEntity
  8
LAY-10
  6
CONTINUOUS
 62
     7
100
AcDbLine
 10
1929.401515190076
 20
2071.463158225616
 30
0.0
 11
1929.401515190076
 21
2070.463158225616
 31
0.0
  0
LINE
  5
32D
330
1F
100
AcDbEntity
  8
LAY-10
  6
CONTINUOUS
 62
     7
100
AcDbLine
 10
1899.401515190076
 20
2041.463158225618
 30
0.0
 11
1900.401515190076
 21
2041.463158225618
 31
0.0
  0
LINE
  5
32E
330
1F
100
AcDbEntity
  8
LAY-10
  6
CONTINUOUS
 62
     7
100
AcDbLine
 10
1906.401515190074
 20
2068.463158225618
 30
0.0
 11
1927.401515190076
 21
2068.463158225618
 31
0.0
  0
LINE
  5
32F
330
1F
100
AcDbEntity
  8
LAY-10
  6
CONTINUOUS
 62
     7
100
AcDbLine
 10
1899.401515190076
 20
2071.463158225616
 30
0.0
 11
1929.401515190076
 21
2071.463158225616
 31
0.0
  0
LINE
  5
330
330
1F
100
AcDbEntity
  8
LAY-10
  6
CONTINUOUS
 62
     7
100
AcDbLine
 10
1941.601515190069
 20
2081.463158225618
 30
0.0
 11
1899.401515190076
 21
2081.463158225618
 31
0.0
  0
ARC
  5
331
330
1F
100
AcDbEntity
  8
LAY-10
  6
CONTINUOUS
 62
     7
100
AcDbCircle
 10
1939.601515190069
 20
2082.463158225527
 30
0.0
 40
2.0
100
AcDbArc
 50
0.0
 51
90.00000000000001
  0
LINE
  5
332
330
1F
100
AcDbEntity
  8
LAY-10
  6
CONTINUOUS
 62
     7
100
AcDbLine
 10
1941.601515190069
 20
2081.463158225527
 30
0.0
 11
1941.601515190069
 21
2082.463158225527
 31
0.0
  0
LINE
  5
333
330
1F
100
AcDbEntity
  8
LAY-10
  6
CONTINUOUS
 62
     7
100
AcDbLine
 10
1918.60151519007
 20
2084.463158225527
 30
0.0
 11
1939.601515190069
 21
2084.463158225527
 31
0.0
  0
ARC
  5
334
330
1F
100
AcDbEntity
  8
LAY-10
  6
CONTINUOUS
 62
     7
100
AcDbCircle
 10
1918.60151519007
 20
2088.463158225527
 30
0.0
 40
4.0
100
AcDbArc
 50
180.0
 51
270.0000000000002
  0
LINE
  5
335
330
1F
100
AcDbEntity
  8
LAY-10
  6
CONTINUOUS
 62
     7
100
AcDbLine
 10
1914.60151519007
 20
2088.463158225527
 30
0.0
 11
1914.60151519007
 21
2096.463158225574
 31
0.0
  0
LINE
  5
336
330
1F
100
AcDbEntity
  8
LAY-10
  6
CONTINUOUS
 62
     7
100
AcDbLine
 10
1908.401515190078
 20
2084.463158225618
 30
0.0
 11
1899.401515190076
 21
2084.463158225618
 31
0.0
  0
ARC
  5
337
330
1F
100
AcDbEntity
  8
LAY-10
  6
CONTINUOUS
 62
     7
100
AcDbCircle
 10
1899.201515190075
 20
2115.463158225618
 30
0.0
 40
3.000000000000003
100
AcDbArc
 50
90.00000000000001
 51
180.0
  0
ARC
  5
338
330
1F
100
AcDbEntity
  8
LAY-10
  6
CONTINUOUS
 62
     7
100
AcDbCircle
 10
1908.601515190077
 20
2121.663158225619
 30
0.0
 40
3.000000000000003
100
AcDbArc
 50
0.0
 51
90.00000000000001
  0
LINE
  5
339
330
1F
100
AcDbEntity
  8
LAY-10
  6
CONTINUOUS
 62
     7
100
AcDbLine
 10
1908.401515190078
 20
2115.463158225618
 30
0.0
 11
1899.401515190076
 21
2115.463158225618
 31
0.0
  0
LINE
  5
33A
330
1F
100
AcDbEntity
  8
LAY-10
  6
CONTINUOUS
 62
     7
100
AcDbLine
 10
1908.401515190078
 20
2118.463158225618
 30
0.0
 11
1899.201515190075
 21
2118.463158225618
 31
0.0
  0
LINE
  5
33B
330
1F
100
AcDbEntity
  8
LAY-10
  6
CONTINUOUS
 62
     7
100
AcDbLine
 10
1899.401515190076
 20
2112.463158225618
 30
0.0
 11
1896.201515190076
 21
2112.463158225618
 31
0.0
  0
LINE
  5
33C
330
1F
100
AcDbEntity
  8
LAY-10
  6
CONTINUOUS
 62
     7
100
AcDbLine
 10
1899.401515190076
 20
2100.463158225618
 30
0.0
 11
1896.201515190076
 21
2100.463158225618
 31
0.0
  0
LINE
  5
33D
330
1F
100
AcDbEntity
  8
LAY-10
  6
CONTINUOUS
 62
     7
100
AcDbLine
 10
1908.401515190078
 20
2112.463158225618
 30
0.0
 11
1911.601515190075
 21
2112.463158225618
 31
0.0
  0
LINE
  5
33E
330
1F
100
AcDbEntity
  8
LAY-10
  6
CONTINUOUS
 62
     7
100
AcDbLine
 10
1908.401515190078
 20
2100.463158225618
 30
0.0
 11
1911.601515190075
 21
2100.463158225618
 31
0.0
  0
ARC
  5
33F
330
1F
100
AcDbEntity
  8
LAY-10
  6
CONTINUOUS
 62
     7
100
AcDbCircle
 10
1828.101515190099
 20
2156.463158225581
 30
0.0
 40
2.0
100
AcDbArc
 50
180.0
 51
270.0000000000002
  0
ARC
  5
340
330
1F
100
AcDbEntity
  8
LAY-10
  6
CONTINUOUS
 62
     7
100
AcDbCircle
 10
1858.601515190099
 20
2149.963158225581
 30
0.0
 40
4.5
100
AcDbArc
 50
0.0
 51
90.00000000000001
  0
ARC
  5
341
330
1F
100
AcDbEntity
  8
LAY-10
  6
CONTINUOUS
 62
     7
100
AcDbCircle
 10
1832.657175818121
 20
2122.897701703816
 30
0.0
 40
11.44452137582097
100
AcDbArc
 50
325.7892959705179
 51
359.6768682252611
  0
ARC
  5
342
330
1F
100
AcDbEntity
  8
LAY-10
  6
CONTINUOUS
 62
     7
100
AcDbCircle
 10
1796.667811928358
 20
2118.0989855923
 30
0.0
 40
47.66936747686547
100
AcDbArc
 50
5.69959291512632
 51
17.53745579046277
  0
ARC
  5
343
330
1F
100
AcDbEntity
  8
LAY-10
  6
CONTINUOUS
 62
     7
100
AcDbCircle
 10
1832.657175818121
 20
2142.028614747213
 30
0.0
 40
11.44452137582097
100
AcDbArc
 50
0.3231317747390464
 51
34.21070402948217
  0
ARC
  5
344
330
1F
100
AcDbEntity
  8
LAY-10
  6
CONTINUOUS
 62
     7
100
AcDbCircle
 10
1796.667811928358
 20
2146.82733085873
 30
0.0
 40
47.66936747686547
100
AcDbArc
 50
342.4625442095373
 51
354.3004070848737
  0
LINE
  5
345
330
1F
100
AcDbEntity
  8
LAY-10
  6
CONTINUOUS
 62
     7
100
AcDbLine
 10
1826.1015151901
 20
2132.463158225515
 30
0.0
 11
1842.1215151901
 21
2132.463158225515
 31
0.0
  0
LINE
  5
346
330
1F
100
AcDbEntity
  8
LAY-10
  6
CONTINUOUS
 62
     7
100
AcDbLine
 10
1826.1015151901
 20
2148.463158225533
 30
0.0
 11
1842.1215151901
 21
2148.463158225533
 31
0.0
  0
ARC
  5
347
330
1F
100
AcDbEntity
  8
LAY-10
  6
CONTINUOUS
 62
     7
100
AcDbCircle
 10
1841.896241966056
 20
2119.143895930474
 30
0.0
 40
2.690186363068871
100
AcDbArc
 50
274.803510123379
 51
325.0595135576035
  0
ARC
  5
348
330
1F
100
AcDbEntity
  8
LAY-10
  6
CONTINUOUS
 62
     7
100
AcDbCircle
 10
1841.896241966056
 20
2145.782420520556
 30
0.0
 40
2.690186363068871
100
AcDbArc
 50
34.94048644236481
 51
85.19648987661802
  0
LINE
  5
349
330
1F
100
AcDbEntity
  8
LAY-10
  6
CONTINUOUS
 62
     7
100
AcDbLine
 10
1868.101515190096
 20
2157.463158225581
 30
0.0
 11
1821.601515190096
 21
2157.463158225581
 31
0.0
  0
LINE
  5
34A
330
1F
100
AcDbEntity
  8
LAY-10
  6
CONTINUOUS
 62
     7
100
AcDbLine
 10
1858.601515190098
 20
2154.463158225581
 30
0.0
 11
1828.101515190099
 21
2154.463158225581
 31
0.0
  0
LINE
  5
34B
330
1F
100
AcDbEntity
  8
LAY-10
  6
CONTINUOUS
 62
     7
100
AcDbLine
 10
1866.101515190099
 20
2117.463158225581
 30
0.0
 11
1865.101515190099
 21
2117.463158225581
 31
0.0
  0
ARC
  5
34C
330
1F
100
AcDbEntity
  8
LAY-10
  6
CONTINUOUS
 62
     7
100
AcDbCircle
 10
1865.101515190099
 20
2119.463158225581
 30
0.0
 40
2.0
100
AcDbArc
 50
180.0
 51
270.0000000000002
  0
LINE
  5
34D
330
1F
100
AcDbEntity
  8
LAY-10
  6
CONTINUOUS
 62
     7
100
AcDbLine
 10
1866.101515190094
 20
2156.782031790535
 30
0.0
 11
1868.101515190097
 21
2154.976735132332
 31
0.0
  0
LINE
  5
34E
330
1F
100
AcDbEntity
  8
LAY-10
  6
CONTINUOUS
 62
     7
100
AcDbLine
 10
1866.101515190097
 20
2156.074925009346
 30
0.0
 11
1868.101515190097
 21
2154.269628351145
 31
0.0
  0
LINE
  5
34F
330
1F
100
AcDbEntity
  8
LAY-10
  6
CONTINUOUS
 62
     7
100
AcDbLine
 10
1866.101515190094
 20
2155.367818228162
 30
0.0
 11
1868.101515190097
 21
2153.562521569957
 31
0.0
  0
LINE
  5
350
330
1F
100
AcDbEntity
  8
LAY-10
  6
CONTINUOUS
 62
     7
100
AcDbLine
 10
1866.101515190097
 20
2154.660711446973
 30
0.0
 11
1868.101515190097
 21
2152.855414788771
 31
0.0
  0
LINE
  5
351
330
1F
100
AcDbEntity
  8
LAY-10
  6
CONTINUOUS
 62
     7
100
AcDbLine
 10
1866.101515190094
 20
2153.95360466579
 30
0.0
 11
1868.101515190097
 21
2152.148308007584
 31
0.0
  0
LINE
  5
352
330
1F
100
AcDbEntity
  8
LAY-10
  6
CONTINUOUS
 62
     7
100
AcDbLine
 10
1866.101515190097
 20
2153.2464978846
 30
0.0
 11
1868.101515190097
 21
2151.441201226398
 31
0.0
  0
LINE
  5
353
330
1F
100
AcDbEntity
  8
LAY-10
  6
CONTINUOUS
 62
     7
100
AcDbLine
 10
1866.101515190094
 20
2152.539391103415
 30
0.0
 11
1868.101515190097
 21
2150.73409444521
 31
0.0
  0
LINE
  5
354
330
1F
100
AcDbEntity
  8
LAY-10
  6
CONTINUOUS
 62
     7
100
AcDbLine
 10
1866.101515190097
 20
2151.832284322227
 30
0.0
 11
1868.101515190097
 21
2150.026987664025
 31
0.0
  0
LINE
  5
355
330
1F
100
AcDbEntity
  8
LAY-10
  6
CONTINUOUS
 62
     7
100
AcDbLine
 10
1866.101515190094
 20
2151.125177541044
 30
0.0
 11
1868.101515190097
 21
2149.319880882837
 31
0.0
  0
LINE
  5
356
330
1F
100
AcDbEntity
  8
LAY-10
  6
CONTINUOUS
 62
     7
100
AcDbLine
 10
1866.101515190097
 20
2150.418070759855
 30
0.0
 11
1868.103465298973
 21
2148.616120650979
 31
0.0
  0
LINE
  5
357
330
1F
100
AcDbEntity
  8
LAY-10
  6
CONTINUOUS
 62
     7
100
AcDbLine
 10
1866.101515190094
 20
2149.710963978669
 30
0.0
 11
1868.101515190097
 21
2147.909417240351
 31
0.0
  0
LINE
  5
358
330
1F
100
AcDbEntity
  8
LAY-10
  6
CONTINUOUS
 62
     7
100
AcDbLine
 10
1866.101515190097
 20
2149.003857197482
 30
0.0
 11
1868.101515190095
 21
2147.203857197484
 31
0.0
  0
LINE
  5
359
330
1F
100
AcDbEntity
  8
LAY-10
  6
CONTINUOUS
 62
     7
100
AcDbLine
 10
1866.101515190094
 20
2148.296750416297
 30
0.0
 11
1868.101515190099
 21
2146.496750416296
 31
0.0
  0
LINE
  5
35A
330
1F
100
AcDbEntity
  8
LAY-10
  6
CONTINUOUS
 62
     7
100
AcDbLine
 10
1866.101515190097
 20
2147.589643635109
 30
0.0
 11
1868.101515190095
 21
2145.789643635111
 31
0.0
  0
LINE
  5
35B
330
1F
100
AcDbEntity
  8
LAY-10
  6
CONTINUOUS
 62
     7
100
AcDbLine
 10
1866.101515190094
 20
2146.882536853924
 30
0.0
 11
1868.101515190099
 21
2145.082536853923
 31
0.0
  0
LINE
  5
35C
330
1F
100
AcDbEntity
  8
LAY-10
  6
CONTINUOUS
 62
     7
100
AcDbLine
 10
1866.101515190097
 20
2146.175430072735
 30
0.0
 11
1868.101515190095
 21
2144.375430072738
 31
0.0
  0
LINE
  5
35D
330
1F
100
AcDbEntity
  8
LAY-10
  6
CONTINUOUS
 62
     7
100
AcDbLine
 10
1866.101515190094
 20
2145.468323291551
 30
0.0
 11
1868.101515190099
 21
2143.66832329155
 31
0.0
  0
LINE
  5
35E
330
1F
100
AcDbEntity
  8
LAY-10
  6
CONTINUOUS
 62
     7
100
AcDbLine
 10
1866.101515190097
 20
2144.761216510364
 30
0.0
 11
1868.101515190095
 21
2142.961216510364
 31
0.0
  0
LINE
  5
35F
330
1F
100
AcDbEntity
  8
LAY-10
  6
CONTINUOUS
 62
     7
100
AcDbLine
 10
1866.101515190094
 20
2144.054109729178
 30
0.0
 11
1868.101515190099
 21
2142.254109729175
 31
0.0
  0
LINE
  5
360
330
1F
100
AcDbEntity
  8
LAY-10
  6
CONTINUOUS
 62
     7
100
AcDbLine
 10
1866.101515190097
 20
2143.34700294799
 30
0.0
 11
1868.101515190095
 21
2141.547002947991
 31
0.0
  0
LINE
  5
361
330
1F
100
AcDbEntity
  8
LAY-10
  6
CONTINUOUS
 62
     7
100
AcDbLine
 10
1866.101515190094
 20
2142.639896166806
 30
0.0
 11
1868.101515190099
 21
2140.839896166803
 31
0.0
  0
LINE
  5
362
330
1F
100
AcDbEntity
  8
LAY-10
  6
CONTINUOUS
 62
     7
100
AcDbLine
 10
1866.101515190097
 20
2141.932789385617
 30
0.0
 11
1868.101515190095
 21
2140.13278938562
 31
0.0
  0
LINE
  5
363
330
1F
100
AcDbEntity
  8
LAY-10
  6
CONTINUOUS
 62
     7
100
AcDbLine
 10
1866.101515190094
 20
2141.225682604432
 30
0.0
 11
1868.101515190099
 21
2139.425682604429
 31
0.0
  0
LINE
  5
364
330
1F
100
AcDbEntity
  8
LAY-10
  6
CONTINUOUS
 62
     7
100
AcDbLine
 10
1866.101515190097
 20
2140.518575823244
 30
0.0
 11
1868.101515190094
 21
2138.718575823246
 31
0.0
  0
LINE
  5
365
330
1F
100
AcDbEntity
  8
LAY-10
  6
CONTINUOUS
 62
     7
100
AcDbLine
 10
1866.101515190094
 20
2139.811469042059
 30
0.0
 11
1868.101515190099
 21
2138.011469042057
 31
0.0
  0
LINE
  5
366
330
1F
100
AcDbEntity
  8
LAY-10
  6
CONTINUOUS
 62
     7
100
AcDbLine
 10
1866.101515190097
 20
2139.104362260869
 30
0.0
 11
1868.101515190094
 21
2137.304362260873
 31
0.0
  0
LINE
  5
367
330
1F
100
AcDbEntity
  8
LAY-10
  6
CONTINUOUS
 62
     7
100
AcDbLine
 10
1866.101515190094
 20
2138.397255479686
 30
0.0
 11
1868.101515190099
 21
2136.597255479684
 31
0.0
  0
LINE
  5
368
330
1F
100
AcDbEntity
  8
LAY-10
  6
CONTINUOUS
 62
     7
100
AcDbLine
 10
1866.101515190097
 20
2137.690148698497
 30
0.0
 11
1868.101515190094
 21
2135.890148698501
 31
0.0
  0
LINE
  5
369
330
1F
100
AcDbEntity
  8
LAY-10
  6
CONTINUOUS
 62
     7
100
AcDbLine
 10
1866.101515190094
 20
2136.983041917314
 30
0.0
 11
1868.101515190099
 21
2135.183041917311
 31
0.0
  0
LINE
  5
36A
330
1F
100
AcDbEntity
  8
LAY-10
  6
CONTINUOUS
 62
     7
100
AcDbLine
 10
1866.101515190097
 20
2136.275935136124
 30
0.0
 11
1868.101515190094
 21
2134.475935136128
 31
0.0
  0
LINE
  5
36B
330
1F
100
AcDbEntity
  8
LAY-10
  6
CONTINUOUS
 62
     7
100
AcDbLine
 10
1866.101515190094
 20
2135.568828354941
 30
0.0
 11
1868.101515190097
 21
2133.768828354938
 31
0.0
  0
LINE
  5
36C
330
1F
100
AcDbEntity
  8
LAY-10
  6
CONTINUOUS
 62
     7
100
AcDbLine
 10
1866.101515190097
 20
2134.861721573751
 30
0.0
 11
1868.101515190094
 21
2133.061721573755
 31
0.0
  0
LINE
  5
36D
330
1F
100
AcDbEntity
  8
LAY-10
  6
CONTINUOUS
 62
     7
100
AcDbLine
 10
1866.101515190094
 20
2134.154614792567
 30
0.0
 11
1868.101515190097
 21
2132.354614792564
 31
0.0
  0
LINE
  5
36E
330
1F
100
AcDbEntity
  8
LAY-10
  6
CONTINUOUS
 62
     7
100
AcDbLine
 10
1866.101515190097
 20
2133.447508011378
 30
0.0
 11
1868.101515190094
 21
2131.647508011381
 31
0.0
  0
LINE
  5
36F
330
1F
100
AcDbEntity
  8
LAY-10
  6
CONTINUOUS
 62
     7
100
AcDbLine
 10
1866.101515190094
 20
2132.740401230196
 30
0.0
 11
1868.101515190097
 21
2130.940401230191
 31
0.0
  0
LINE
  5
370
330
1F
100
AcDbEntity
  8
LAY-10
  6
CONTINUOUS
 62
     7
100
AcDbLine
 10
1866.101515190097
 20
2132.033294449006
 30
0.0
 11
1868.101515190094
 21
2130.233294449009
 31
0.0
  0
LINE
  5
371
330
1F
100
AcDbEntity
  8
LAY-10
  6
CONTINUOUS
 62
     7
100
AcDbLine
 10
1866.101515190094
 20
2131.326187667823
 30
0.0
 11
1868.101515190097
 21
2129.52618766782
 31
0.0
  0
LINE
  5
372
330
1F
100
AcDbEntity
  8
LAY-10
  6
CONTINUOUS
 62
     7
100
AcDbLine
 10
1866.101515190097
 20
2130.619080886632
 30
0.0
 11
1868.101515190094
 21
2128.819080886636
 31
0.0
  0
LINE
  5
373
330
1F
100
AcDbEntity
  8
LAY-10
  6
CONTINUOUS
 62
     7
100
AcDbLine
 10
1866.101515190094
 20
2129.911974105449
 30
0.0
 11
1868.101515190097
 21
2128.111974105446
 31
0.0
  0
LINE
  5
374
330
1F
100
AcDbEntity
  8
LAY-10
  6
CONTINUOUS
 62
     7
100
AcDbLine
 10
1866.913666615733
 20
2157.463158225581
 30
0.0
 11
1868.101515190097
 21
2156.390948694705
 31
0.0
  0
LINE
  5
375
330
1F
100
AcDbEntity
  8
LAY-10
  6
CONTINUOUS
 62
     7
100
AcDbLine
 10
1867.683130454843
 20
2157.463158225581
 30
0.0
 11
1868.101515190097
 21
2157.096611084187
 31
0.0
  0
LINE
  5
376
330
1F
100
AcDbEntity
  8
LAY-10
  6
CONTINUOUS
 62
     7
100
AcDbLine
 10
1866.101515190094
 20
2128.497760543076
 30
0.0
 11
1867.251073320618
 21
2127.463158225603
 31
0.0
  0
LINE
  5
377
330
1F
100
AcDbEntity
  8
LAY-10
  6
CONTINUOUS
 62
     7
100
AcDbLine
 10
1866.101515190097
 20
2127.790653761886
 30
0.0
 11
1866.4653991193
 21
2127.463158225603
 31
0.0
  0
LINE
  5
378
330
1F
100
AcDbEntity
  8
LAY-10
  6
CONTINUOUS
 62
     7
100
AcDbLine
 10
1866.101515190097
 20
2129.204867324259
 30
0.0
 11
1868.036747521938
 21
2127.463158225603
 31
0.0
  0
LINE
  5
379
330
1F
100
AcDbEntity
  8
LAY-10
  6
CONTINUOUS
 62
     7
100
AcDbLine
 10
1868.101515190097
 20
2127.463158225603
 30
0.0
 11
1866.101515190097
 21
2127.463158225603
 31
0.0
  0
LINE
  5
37A
330
1F
100
AcDbEntity
  8
LAY-10
  6
CONTINUOUS
 62
     7
100
AcDbLine
 10
1866.130297546748
 20
2157.463158225581
 30
0.0
 11
1868.101515190097
 21
2155.683841913517
 31
0.0
  0
LINE
  5
37B
330
1F
100
AcDbEntity
  8
LAY-10
  6
CONTINUOUS
 62
     7
100
AcDbLine
 10
1876.801515190076
 20
2131.349449726634
 30
0.0
 11
1871.301515190076
 21
2131.349449726634
 31
0.0
  0
LINE
  5
37C
330
1F
100
AcDbEntity
  8
LAY-10
  6
CONTINUOUS
 62
     7
100
AcDbLine
 10
1879.301515190077
 20
2161.349449726632
 30
0.0
 11
1879.301515190077
 21
2160.663158225619
 31
0.0
  0
LINE
  5
37D
330
1F
100
AcDbEntity
  8
LAY-10
  6
CONTINUOUS
 62
     7
100
AcDbLine
 10
1821.601515190079
 20
1304.463158225615
 30
0.0
 11
1836.601515190079
 21
1304.463158225615
 31
0.0
  0
LINE
  5
37E
330
1F
100
AcDbEntity
  8
LAY-10
  6
CONTINUOUS
 62
     7
100
AcDbLine
 10
1821.601515190079
 20
1304.463158225615
 30
0.0
 11
1821.601515190079
 21
1289.463158225615
 31
0.0
  0
LINE
  5
37F
330
1F
100
AcDbEntity
  8
LAY-10
  6
CONTINUOUS
 62
     7
100
AcDbLine
 10
1824.601515190078
 20
1301.463158225616
 30
0.0
 11
1824.601515190078
 21
1289.463158225615
 31
0.0
  0
LINE
  5
380
330
1F
100
AcDbEntity
  8
LAY-10
  6
CONTINUOUS
 62
     7
100
AcDbLine
 10
1836.601515190079
 20
1304.463158225615
 30
0.0
 11
1836.601515190079
 21
1301.463158225616
 31
0.0
  0
LINE
  5
381
330
1F
100
AcDbEntity
  8
LAY-10
  6
CONTINUOUS
 62
     7
100
AcDbLine
 10
1821.601515190079
 20
1289.463158225615
 30
0.0
 11
1824.601515190078
 21
1289.463158225615
 31
0.0
  0
LINE
  5
382
330
1F
100
AcDbEntity
  8
LAY-10
  6
CONTINUOUS
 62
     7
100
AcDbLine
 10
1871.301515190076
 20
1301.5768667246
 30
0.0
 11
1871.301515190073
 21
1304.263158225667
 31
0.0
  0
LINE
  5
383
330
1F
100
AcDbEntity
  8
LAY-10
  6
CONTINUOUS
 62
     7
100
AcDbLine
 10
1908.999999999912
 20
1260.56467341578
 30
0.0
 11
1914.656854249402
 21
1266.221527665273
 31
0.0
  0
LINE
  5
384
330
1F
100
AcDbEntity
  8
LAY-10
  6
CONTINUOUS
 62
     7
100
AcDbLine
 10
1914.656854249402
 20
1266.221527665273
 30
0.0
 11
1879.301515190077
 21
1301.5768667246
 31
0.0
  0
ARC
  5
385
330
1F
100
AcDbEntity
  8
LAY-10
  6
CONTINUOUS
 62
     7
100
AcDbCircle
 10
1879.301515190077
 20
1301.5768667246
 30
0.0
 40
8.0
100
AcDbArc
 50
180.0
 51
224.9999999999919
  0
LINE
  5
386
330
1F
100
AcDbEntity
  8
LAY-10
  6
CONTINUOUS
 62
     7
100
AcDbLine
 10
1908.999999999912
 20
1260.56467341578
 30
0.0
 11
1873.644660940584
 21
1295.920012475108
 31
0.0
  0
LINE
  5
387
330
1F
100
AcDbEntity
  8
LAY-10
  6
CONTINUOUS
 62
     7
100
AcDbLine
 10
1871.301515190073
 20
1304.263158225667
 30
0.0
 11
1871.301515190076
 21
1338.263158225615
 31
0.0
  0
LINE
  5
388
330
1F
100
AcDbEntity
  8
LAY-10
  6
CONTINUOUS
 62
     7
100
AcDbLine
 10
1824.601515190078
 20
1301.463158225616
 30
0.0
 11
1865.101515190076
 21
1301.463158225616
 31
0.0
  0
ARC
  5
389
330
1F
100
AcDbEntity
  8
LAY-10
  6
CONTINUOUS
 62
     7
100
AcDbCircle
 10
1871.101515190076
 20
1338.463158225615
 30
0.0
 40
3.000000000000003
100
AcDbArc
 50
90.00000000000001
 51
180.0
  0
ARC
  5
38A
330
1F
100
AcDbEntity
  8
LAY-10
  6
CONTINUOUS
 62
     7
100
AcDbCircle
 10
1865.301515190074
 20
1304.263158225617
 30
0.0
 40
6.000000000000006
100
AcDbArc
 50
270.0000000000002
 51
0.0
  0
ARC
  5
38B
330
1F
100
AcDbEntity
  8
LAY-10
  6
CONTINUOUS
 62
     7
100
AcDbCircle
 10
1865.101515190076
 20
1304.463158225615
 30
0.0
 40
3.000000000000003
100
AcDbArc
 50
270.0000000000002
 51
0.0
  0
LINE
  5
38C
330
1F
100
AcDbEntity
  8
LAY-10
  6
CONTINUOUS
 62
     7
100
AcDbLine
 10
1865.301515190074
 20
1298.263158225615
 30
0.0
 11
1824.601515190078
 21
1298.263158225615
 31
0.0
  0
LINE
  5
38D
330
1F
100
AcDbEntity
  8
LAY-10
  6
CONTINUOUS
 62
     7
100
AcDbLine
 10
1911.601515190075
 20
1391.463158225616
 30
0.0
 11
1911.601515190075
 21
1341.263158225617
 31
0.0
  0
LINE
  5
38E
330
1F
100
AcDbEntity
  8
LAY-10
  6
CONTINUOUS
 62
     7
100
AcDbLine
 10
1876.721144974485
 20
1336.061467666468
 30
0.0
 11
1876.801515190065
 21
1336.141837882048
 31
0.0
  0
LINE
  5
38F
330
1F
100
AcDbEntity
  8
LAY-10
  6
CONTINUOUS
 62
     7
100
AcDbLine
 10
1876.36299998141
 20
1336.410429454578
 30
0.0
 11
1876.801515190073
 21
1336.848944663241
 31
0.0
  0
LINE
  5
390
330
1F
100
AcDbEntity
  8
LAY-10
  6
CONTINUOUS
 62
     7
100
AcDbLine
 10
1876.004854988348
 20
1336.759391242701
 30
0.0
 11
1876.801515190057
 21
1337.556051444411
 31
0.0
  0
LINE
  5
391
330
1F
100
AcDbEntity
  8
LAY-10
  6
CONTINUOUS
 62
     7
100
AcDbLine
 10
1875.646709995281
 20
1337.108353030825
 30
0.0
 11
1876.801515190073
 21
1338.263158225615
 31
0.0
  0
LINE
  5
392
330
1F
100
AcDbEntity
  8
LAY-10
  6
CONTINUOUS
 62
     7
100
AcDbLine
 10
1875.288565002205
 20
1337.457314818935
 30
0.0
 11
1876.094408408881
 21
1338.263158225609
 31
0.0
  0
LINE
  5
393
330
1F
100
AcDbEntity
  8
LAY-10
  6
CONTINUOUS
 62
     7
100
AcDbLine
 10
1874.930420009142
 20
1337.806276607056
 30
0.0
 11
1875.3873016277
 21
1338.263158225615
 31
0.0
  0
LINE
  5
394
330
1F
100
AcDbEntity
  8
LAY-10
  6
CONTINUOUS
 62
     7
100
AcDbLine
 10
1874.572275016078
 20
1338.155238395179
 30
0.0
 11
1874.680194846516
 21
1338.263158225619
 31
0.0
  0
LINE
  5
395
330
1F
100
AcDbEntity
  8
LAY-10
  6
CONTINUOUS
 62
     7
100
AcDbLine
 10
1874.461515190074
 20
1338.263158225615
 30
0.0
 11
1876.801515190076
 21
1335.983158225616
 31
0.0
  0
LINE
  5
396
330
1F
100
AcDbEntity
  8
LAY-10
  6
CONTINUOUS
 62
     7
100
AcDbLine
 10
1907.801515190078
 20
1336.141837882057
 30
0.0
 11
1907.931333735925
 21
1336.012019336212
 31
0.0
  0
LINE
  5
397
330
1F
100
AcDbEntity
  8
LAY-10
  6
CONTINUOUS
 62
     7
100
AcDbLine
 10
1907.801515190093
 20
1336.848944663227
 30
0.0
 11
1908.260728336411
 21
1336.389731516911
 31
0.0
  0
LINE
  5
398
330
1F
100
AcDbEntity
  8
LAY-10
  6
CONTINUOUS
 62
     7
100
AcDbLine
 10
1907.801515190086
 20
1337.556051444421
 30
0.0
 11
1908.590122936901
 21
1336.767443697609
 31
0.0
  0
LINE
  5
399
330
1F
100
AcDbEntity
  8
LAY-10
  6
CONTINUOUS
 62
     7
100
AcDbLine
 10
1907.801515190081
 20
1338.263158225613
 30
0.0
 11
1908.919517537385
 21
1337.145155878309
 31
0.0
  0
LINE
  5
39A
330
1F
100
AcDbEntity
  8
LAY-10
  6
CONTINUOUS
 62
     7
100
AcDbLine
 10
1908.508621971273
 20
1338.263158225606
 30
0.0
 11
1909.248912137862
 21
1337.522868059018
 31
0.0
  0
LINE
  5
39B
330
1F
100
AcDbEntity
  8
LAY-10
  6
CONTINUOUS
 62
     7
100
AcDbLine
 10
1909.162761580448
 20
1338.316125397619
 30
0.0
 11
1909.57830673835
 21
1337.900580239716
 31
0.0
  0
LINE
  5
39C
330
1F
100
AcDbEntity
  8
LAY-10
  6
CONTINUOUS
 62
     7
100
AcDbLine
 10
1909.710381883958
 20
1338.475611875294
 30
0.0
 11
1909.907701338838
 21
1338.278292420415
 31
0.0
  0
LINE
  5
39D
330
1F
100
AcDbEntity
  8
LAY-10
  6
CONTINUOUS
 62
     7
100
AcDbLine
 10
1910.180677065853
 20
1338.712423474589
 30
0.0
 11
1910.237095939324
 21
1338.656004601113
 31
0.0
  0
LINE
  5
39E
330
1F
100
AcDbEntity
  8
LAY-10
  6
CONTINUOUS
 62
     7
100
AcDbLine
 10
1907.801515190078
 20
1335.863158225615
 30
0.0
 11
1910.45043997505
 21
1338.900643222593
 31
0.0
  0
LINE
  5
39F
330
1F
100
AcDbEntity
  8
LAY-10
  6
CONTINUOUS
 62
     7
100
AcDbLine
 10
1876.801515190076
 20
1302.263158225617
 30
0.0
 11
1907.801515190078
 21
1302.263158225617
 31
0.0
  0
LINE
  5
3A0
330
1F
100
AcDbEntity
  8
LAY-10
  6
CONTINUOUS
 62
     7
100
AcDbLine
 10
1907.801515190078
 20
1302.263158225617
 30
0.0
 11
1907.801515190078
 21
1338.263158225617
 31
0.0
  0
LINE
  5
3A1
330
1F
100
AcDbEntity
  8
LAY-10
  6
CONTINUOUS
 62
     7
100
AcDbLine
 10
1876.801515190076
 20
1302.263158225617
 30
0.0
 11
1876.801515190076
 21
1338.263158225615
 31
0.0
  0
ARC
  5
3A2
330
1F
100
AcDbEntity
  8
LAY-10
  6
CONTINUOUS
 62
     7
100
AcDbCircle
 10
1906.401515190074
 20
1398.463158225616
 30
0.0
 40
4.0
100
AcDbArc
 50
180.0
 51
270.0000000000002
  0
ARC
  5
3A3
330
1F
100
AcDbEntity
  8
LAY-10
  6
CONTINUOUS
 62
     7
100
AcDbCircle
 10
1927.401515190076
 20
1392.463158225616
 30
0.0
 40
2.0
100
AcDbArc
 50
0.0
 51
90.00000000000001
  0
LINE
  5
3A4
330
1F
100
AcDbEntity
  8
LAY-10
  6
CONTINUOUS
 62
     7
100
AcDbLine
 10
1929.401515190076
 20
1391.463158225616
 30
0.0
 11
1929.401515190076
 21
1392.463158225616
 31
0.0
  0
LINE
  5
3A5
330
1F
100
AcDbEntity
  8
LAY-10
  6
CONTINUOUS
 62
     7
100
AcDbLine
 10
1906.401515190074
 20
1394.463158225616
 30
0.0
 11
1927.401515190076
 21
1394.463158225616
 31
0.0
  0
LINE
  5
3A6
330
1F
100
AcDbEntity
  8
LAY-10
  6
CONTINUOUS
 62
     7
100
AcDbLine
 10
1899.401515190076
 20
1391.463158225616
 30
0.0
 11
1929.401515190076
 21
1391.463158225616
 31
0.0
  0
LINE
  5
3A7
330
1F
100
AcDbEntity
  8
LAY-10
  6
CONTINUOUS
 62
     7
100
AcDbLine
 10
1941.601515190068
 20
1381.463158225616
 30
0.0
 11
1899.401515190076
 21
1381.463158225616
 31
0.0
  0
ARC
  5
3A8
330
1F
100
AcDbEntity
  8
LAY-10
  6
CONTINUOUS
 62
     7
100
AcDbCircle
 10
1939.601515190068
 20
1380.463158225708
 30
0.0
 40
2.0
100
AcDbArc
 50
270.0000000000002
 51
0.0
  0
LINE
  5
3A9
330
1F
100
AcDbEntity
  8
LAY-10
  6
CONTINUOUS
 62
     7
100
AcDbLine
 10
1941.601515190068
 20
1381.463158225708
 30
0.0
 11
1941.601515190068
 21
1380.463158225708
 31
0.0
  0
LINE
  5
3AA
330
1F
100
AcDbEntity
  8
LAY-10
  6
CONTINUOUS
 62
     7
100
AcDbLine
 10
1918.60151519007
 20
1378.463158225707
 30
0.0
 11
1939.601515190068
 21
1378.463158225707
 31
0.0
  0
LINE
  5
3AB
330
1F
100
AcDbEntity
  8
LAY-10
  6
CONTINUOUS
 62
     7
100
AcDbLine
 10
1908.401515190078
 20
1351.463158225616
 30
0.0
 11
1908.401515190078
 21
1341.463158225616
 31
0.0
  0
LINE
  5
3AC
330
1F
100
AcDbEntity
  8
LAY-10
  6
CONTINUOUS
 62
     7
100
AcDbLine
 10
1908.401515190078
 20
1361.463158225616
 30
0.0
 11
1908.401515190078
 21
1391.463158225616
 31
0.0
  0
LINE
  5
3AD
330
1F
100
AcDbEntity
  8
LAY-10
  6
CONTINUOUS
 62
     7
100
AcDbLine
 10
1871.101515190076
 20
1341.463158225616
 30
0.0
 11
1908.401515190078
 21
1341.463158225616
 31
0.0
  0
LINE
  5
3AE
330
1F
100
AcDbEntity
  8
LAY-10
  6
CONTINUOUS
 62
     7
100
AcDbLine
 10
1871.301515190076
 20
1338.263158225617
 30
0.0
 11
1908.601515190077
 21
1338.263158225617
 31
0.0
  0
ARC
  5
3AF
330
1F
100
AcDbEntity
  8
LAY-10
  6
CONTINUOUS
 62
     7
100
AcDbCircle
 10
1918.60151519007
 20
1374.463158225708
 30
0.0
 40
4.0
100
AcDbArc
 50
90.00000000000001
 51
180.0
  0
LINE
  5
3B0
330
1F
100
AcDbEntity
  8
LAY-10
  6
CONTINUOUS
 62
     7
100
AcDbLine
 10
1914.60151519007
 20
1374.463158225708
 30
0.0
 11
1914.60151519007
 21
1366.46315822566
 31
0.0
  0
LINE
  5
3B1
330
1F
100
AcDbEntity
  8
LAY-10
  6
CONTINUOUS
 62
     7
100
AcDbLine
 10
1908.401515190078
 20
1378.463158225616
 30
0.0
 11
1899.401515190076
 21
1378.463158225616
 31
0.0
  0
ARC
  5
3B2
330
1F
100
AcDbEntity
  8
LAY-10
  6
CONTINUOUS
 62
     7
100
AcDbCircle
 10
1908.601515190077
 20
1341.263158225617
 30
0.0
 40
3.000000000000003
100
AcDbArc
 50
270.0000000000002
 51
0.0
  0
LINE
  5
3B3
330
1F
100
AcDbEntity
  8
LAY-10
  6
CONTINUOUS
 62
     7
100
AcDbLine
 10
1908.401515190078
 20
1344.463158225617
 30
0.0
 11
1899.201515190075
 21
1344.463158225617
 31
0.0
  0
ARC
  5
3B4
330
1F
100
AcDbEntity
  8
LAY-10
  6
CONTINUOUS
 62
     7
100
AcDbCircle
 10
1899.201515190075
 20
1347.463158225616
 30
0.0
 40
3.000000000000003
100
AcDbArc
 50
180.0
 51
270.0000000000002
  0
LINE
  5
3B5
330
1F
100
AcDbEntity
  8
LAY-10
  6
CONTINUOUS
 62
     7
100
AcDbLine
 10
1908.401515190078
 20
1347.463158225616
 30
0.0
 11
1899.401515190076
 21
1347.463158225616
 31
0.0
  0
LINE
  5
3B6
330
1F
100
AcDbEntity
  8
LAY-10
  6
CONTINUOUS
 62
     7
100
AcDbLine
 10
1899.401515190076
 20
1350.463158225615
 30
0.0
 11
1896.201515190076
 21
1350.463158225615
 31
0.0
  0
LINE
  5
3B7
330
1F
100
AcDbEntity
  8
LAY-10
  6
CONTINUOUS
 62
     7
100
AcDbLine
 10
1899.401515190076
 20
1362.463158225616
 30
0.0
 11
1896.201515190076
 21
1362.463158225616
 31
0.0
  0
LINE
  5
3B8
330
1F
100
AcDbEntity
  8
LAY-10
  6
CONTINUOUS
 62
     7
100
AcDbLine
 10
1908.401515190078
 20
1350.463158225615
 30
0.0
 11
1911.601515190075
 21
1350.463158225615
 31
0.0
  0
LINE
  5
3B9
330
1F
100
AcDbEntity
  8
LAY-10
  6
CONTINUOUS
 62
     7
100
AcDbLine
 10
1908.401515190078
 20
1362.463158225616
 30
0.0
 11
1911.601515190075
 21
1362.463158225616
 31
0.0
  0
LINE
  5
3BA
330
1F
100
AcDbEntity
  8
LAY-10
  6
CONTINUOUS
 62
     7
100
AcDbLine
 10
1899.401515190076
 20
1351.463158225616
 30
0.0
 11
1899.401515190076
 21
1347.463158225616
 31
0.0
  0
ARC
  5
3BB
330
1F
100
AcDbEntity
  8
LAY-10
  6
CONTINUOUS
 62
     7
100
AcDbCircle
 10
1828.101515190099
 20
1306.463158225575
 30
0.0
 40
2.0
100
AcDbArc
 50
90.00000000000009
 51
180.0000000000002
  0
ARC
  5
3BC
330
1F
100
AcDbEntity
  8
LAY-10
  6
CONTINUOUS
 62
     7
100
AcDbCircle
 10
1832.657175818121
 20
1340.028614747339
 30
0.0
 40
11.44452137582097
100
AcDbArc
 50
0.3231317747390464
 51
34.21070402948217
  0
ARC
  5
3BD
330
1F
100
AcDbEntity
  8
LAY-10
  6
CONTINUOUS
 62
     7
100
AcDbCircle
 10
1796.667811928358
 20
1344.827330858855
 30
0.0
 40
47.66936747686547
100
AcDbArc
 50
342.4625442095373
 51
354.3004070848737
  0
ARC
  5
3BE
330
1F
100
AcDbEntity
  8
LAY-10
  6
CONTINUOUS
 62
     7
100
AcDbCircle
 10
1832.657175818121
 20
1320.897701703941
 30
0.0
 40
11.44452137582097
100
AcDbArc
 50
325.7892959705179
 51
359.6768682252611
  0
ARC
  5
3BF
330
1F
100
AcDbEntity
  8
LAY-10
  6
CONTINUOUS
 62
     7
100
AcDbCircle
 10
1796.667811928358
 20
1316.098985592426
 30
0.0
 40
47.66936747686547
100
AcDbArc
 50
5.69959291512632
 51
17.53745579046277
  0
LINE
  5
3C0
330
1F
100
AcDbEntity
  8
LAY-10
  6
CONTINUOUS
 62
     7
100
AcDbLine
 10
1826.1015151901
 20
1330.46315822564
 30
0.0
 11
1842.1215151901
 21
1330.46315822564
 31
0.0
  0
LINE
  5
3C1
330
1F
100
AcDbEntity
  8
LAY-10
  6
CONTINUOUS
 62
     7
100
AcDbLine
 10
1826.1015151901
 20
1314.463158225622
 30
0.0
 11
1842.1215151901
 21
1314.463158225622
 31
0.0
  0
ARC
  5
3C2
330
1F
100
AcDbEntity
  8
LAY-10
  6
CONTINUOUS
 62
     7
100
AcDbCircle
 10
1841.896241966056
 20
1343.782420520682
 30
0.0
 40
2.690186363068871
100
AcDbArc
 50
34.94048644238069
 51
85.19648987662049
  0
ARC
  5
3C3
330
1F
100
AcDbEntity
  8
LAY-10
  6
CONTINUOUS
 62
     7
100
AcDbCircle
 10
1841.896241966056
 20
1317.143895930599
 30
0.0
 40
2.690186363068871
100
AcDbArc
 50
274.8035101233804
 51
325.0595135576195
  0
LINE
  5
3C4
330
1F
100
AcDbEntity
  8
LAY-10
  6
CONTINUOUS
 62
     7
100
AcDbLine
 10
1868.101515190096
 20
1305.463158225575
 30
0.0
 11
1821.601515190096
 21
1305.463158225575
 31
0.0
  0
LINE
  5
3C5
330
1F
100
AcDbEntity
  8
LAY-10
  6
CONTINUOUS
 62
     7
100
AcDbLine
 10
1858.601515190098
 20
1308.463158225575
 30
0.0
 11
1828.101515190099
 21
1308.463158225575
 31
0.0
  0
LINE
  5
3C6
330
1F
100
AcDbEntity
  8
LAY-10
  6
CONTINUOUS
 62
     7
100
AcDbLine
 10
1868.101515190099
 20
1306.144284660619
 30
0.0
 11
1866.101515190096
 21
1307.949581318823
 31
0.0
  0
LINE
  5
3C7
330
1F
100
AcDbEntity
  8
LAY-10
  6
CONTINUOUS
 62
     7
100
AcDbLine
 10
1868.101515190096
 20
1306.851391441809
 30
0.0
 11
1866.101515190096
 21
1308.65668810001
 31
0.0
  0
LINE
  5
3C8
330
1F
100
AcDbEntity
  8
LAY-10
  6
CONTINUOUS
 62
     7
100
AcDbLine
 10
1868.101515190099
 20
1307.558498222993
 30
0.0
 11
1866.101515190096
 21
1309.363794881199
 31
0.0
  0
LINE
  5
3C9
330
1F
100
AcDbEntity
  8
LAY-10
  6
CONTINUOUS
 62
     7
100
AcDbLine
 10
1868.101515190096
 20
1308.265605004182
 30
0.0
 11
1866.101515190096
 21
1310.070901662385
 31
0.0
  0
LINE
  5
3CA
330
1F
100
AcDbEntity
  8
LAY-10
  6
CONTINUOUS
 62
     7
100
AcDbLine
 10
1868.101515190099
 20
1308.972711785365
 30
0.0
 11
1866.101515190096
 21
1310.778008443571
 31
0.0
  0
LINE
  5
3CB
330
1F
100
AcDbEntity
  8
LAY-10
  6
CONTINUOUS
 62
     7
100
AcDbLine
 10
1868.101515190096
 20
1309.679818566555
 30
0.0
 11
1866.101515190096
 21
1311.485115224756
 31
0.0
  0
LINE
  5
3CC
330
1F
100
AcDbEntity
  8
LAY-10
  6
CONTINUOUS
 62
     7
100
AcDbLine
 10
1868.101515190099
 20
1310.38692534774
 30
0.0
 11
1866.101515190096
 21
1312.192222005945
 31
0.0
  0
LINE
  5
3CD
330
1F
100
AcDbEntity
  8
LAY-10
  6
CONTINUOUS
 62
     7
100
AcDbLine
 10
1868.101515190096
 20
1311.094032128928
 30
0.0
 11
1866.101515190096
 21
1312.89932878713
 31
0.0
  0
LINE
  5
3CE
330
1F
100
AcDbEntity
  8
LAY-10
  6
CONTINUOUS
 62
     7
100
AcDbLine
 10
1868.101515190099
 20
1311.801138910112
 30
0.0
 11
1866.101515190096
 21
1313.606435568318
 31
0.0
  0
LINE
  5
3CF
330
1F
100
AcDbEntity
  8
LAY-10
  6
CONTINUOUS
 62
     7
100
AcDbLine
 10
1868.101515190096
 20
1312.5082456913
 30
0.0
 11
1866.09956508122
 21
1314.310195800176
 31
0.0
  0
LINE
  5
3D0
330
1F
100
AcDbEntity
  8
LAY-10
  6
CONTINUOUS
 62
     7
100
AcDbLine
 10
1868.101515190099
 20
1313.215352472486
 30
0.0
 11
1866.101515190096
 21
1315.016899210805
 31
0.0
  0
LINE
  5
3D1
330
1F
100
AcDbEntity
  8
LAY-10
  6
CONTINUOUS
 62
     7
100
AcDbLine
 10
1868.101515190096
 20
1313.922459253673
 30
0.0
 11
1866.101515190098
 21
1315.722459253672
 31
0.0
  0
LINE
  5
3D2
330
1F
100
AcDbEntity
  8
LAY-10
  6
CONTINUOUS
 62
     7
100
AcDbLine
 10
1868.101515190099
 20
1314.629566034858
 30
0.0
 11
1866.101515190094
 21
1316.429566034859
 31
0.0
  0
LINE
  5
3D3
330
1F
100
AcDbEntity
  8
LAY-10
  6
CONTINUOUS
 62
     7
100
AcDbLine
 10
1868.101515190096
 20
1315.336672816045
 30
0.0
 11
1866.101515190098
 21
1317.136672816044
 31
0.0
  0
LINE
  5
3D4
330
1F
100
AcDbEntity
  8
LAY-10
  6
CONTINUOUS
 62
     7
100
AcDbLine
 10
1868.101515190099
 20
1316.043779597232
 30
0.0
 11
1866.101515190094
 21
1317.843779597232
 31
0.0
  0
LINE
  5
3D5
330
1F
100
AcDbEntity
  8
LAY-10
  6
CONTINUOUS
 62
     7
100
AcDbLine
 10
1868.101515190096
 20
1316.750886378419
 30
0.0
 11
1866.101515190098
 21
1318.550886378418
 31
0.0
  0
LINE
  5
3D6
330
1F
100
AcDbEntity
  8
LAY-10
  6
CONTINUOUS
 62
     7
100
AcDbLine
 10
1868.101515190099
 20
1317.457993159604
 30
0.0
 11
1866.101515190094
 21
1319.257993159605
 31
0.0
  0
LINE
  5
3D7
330
1F
100
AcDbEntity
  8
LAY-10
  6
CONTINUOUS
 62
     7
100
AcDbLine
 10
1868.101515190096
 20
1318.165099940792
 30
0.0
 11
1866.101515190098
 21
1319.96509994079
 31
0.0
  0
LINE
  5
3D8
330
1F
100
AcDbEntity
  8
LAY-10
  6
CONTINUOUS
 62
     7
100
AcDbLine
 10
1868.101515190099
 20
1318.872206721977
 30
0.0
 11
1866.101515190094
 21
1320.67220672198
 31
0.0
  0
LINE
  5
3D9
330
1F
100
AcDbEntity
  8
LAY-10
  6
CONTINUOUS
 62
     7
100
AcDbLine
 10
1868.101515190096
 20
1319.579313503165
 30
0.0
 11
1866.101515190098
 21
1321.379313503163
 31
0.0
  0
LINE
  5
3DA
330
1F
100
AcDbEntity
  8
LAY-10
  6
CONTINUOUS
 62
     7
100
AcDbLine
 10
1868.101515190099
 20
1320.286420284349
 30
0.0
 11
1866.101515190094
 21
1322.086420284352
 31
0.0
  0
LINE
  5
3DB
330
1F
100
AcDbEntity
  8
LAY-10
  6
CONTINUOUS
 62
     7
100
AcDbLine
 10
1868.101515190096
 20
1320.993527065538
 30
0.0
 11
1866.101515190098
 21
1322.793527065536
 31
0.0
  0
LINE
  5
3DC
330
1F
100
AcDbEntity
  8
LAY-10
  6
CONTINUOUS
 62
     7
100
AcDbLine
 10
1868.101515190099
 20
1321.700633846723
 30
0.0
 11
1866.101515190094
 21
1323.500633846726
 31
0.0
  0
LINE
  5
3DD
330
1F
100
AcDbEntity
  8
LAY-10
  6
CONTINUOUS
 62
     7
100
AcDbLine
 10
1868.101515190096
 20
1322.407740627912
 30
0.0
 11
1866.101515190099
 21
1324.207740627909
 31
0.0
  0
LINE
  5
3DE
330
1F
100
AcDbEntity
  8
LAY-10
  6
CONTINUOUS
 62
     7
100
AcDbLine
 10
1868.101515190099
 20
1323.114847409096
 30
0.0
 11
1866.101515190094
 21
1324.914847409098
 31
0.0
  0
LINE
  5
3DF
330
1F
100
AcDbEntity
  8
LAY-10
  6
CONTINUOUS
 62
     7
100
AcDbLine
 10
1868.101515190096
 20
1323.821954190286
 30
0.0
 11
1866.101515190099
 21
1325.621954190282
 31
0.0
  0
LINE
  5
3E0
330
1F
100
AcDbEntity
  8
LAY-10
  6
CONTINUOUS
 62
     7
100
AcDbLine
 10
1868.101515190099
 20
1324.529060971469
 30
0.0
 11
1866.101515190094
 21
1326.329060971472
 31
0.0
  0
LINE
  5
3E1
330
1F
100
AcDbEntity
  8
LAY-10
  6
CONTINUOUS
 62
     7
100
AcDbLine
 10
1868.101515190096
 20
1325.236167752658
 30
0.0
 11
1866.101515190099
 21
1327.036167752654
 31
0.0
  0
LINE
  5
3E2
330
1F
100
AcDbEntity
  8
LAY-10
  6
CONTINUOUS
 62
     7
100
AcDbLine
 10
1868.101515190099
 20
1325.943274533842
 30
0.0
 11
1866.101515190094
 21
1327.743274533844
 31
0.0
  0
LINE
  5
3E3
330
1F
100
AcDbEntity
  8
LAY-10
  6
CONTINUOUS
 62
     7
100
AcDbLine
 10
1868.101515190096
 20
1326.650381315032
 30
0.0
 11
1866.101515190099
 21
1328.450381315027
 31
0.0
  0
LINE
  5
3E4
330
1F
100
AcDbEntity
  8
LAY-10
  6
CONTINUOUS
 62
     7
100
AcDbLine
 10
1868.101515190099
 20
1327.357488096214
 30
0.0
 11
1866.101515190096
 21
1329.157488096218
 31
0.0
  0
LINE
  5
3E5
330
1F
100
AcDbEntity
  8
LAY-10
  6
CONTINUOUS
 62
     7
100
AcDbLine
 10
1868.101515190096
 20
1328.064594877404
 30
0.0
 11
1866.101515190099
 21
1329.8645948774
 31
0.0
  0
LINE
  5
3E6
330
1F
100
AcDbEntity
  8
LAY-10
  6
CONTINUOUS
 62
     7
100
AcDbLine
 10
1868.101515190099
 20
1328.771701658588
 30
0.0
 11
1866.101515190096
 21
1330.57170165859
 31
0.0
  0
LINE
  5
3E7
330
1F
100
AcDbEntity
  8
LAY-10
  6
CONTINUOUS
 62
     7
100
AcDbLine
 10
1868.101515190096
 20
1329.478808439777
 30
0.0
 11
1866.101515190099
 21
1331.278808439774
 31
0.0
  0
LINE
  5
3E8
330
1F
100
AcDbEntity
  8
LAY-10
  6
CONTINUOUS
 62
     7
100
AcDbLine
 10
1868.101515190099
 20
1330.185915220959
 30
0.0
 11
1866.101515190096
 21
1331.985915220963
 31
0.0
  0
LINE
  5
3E9
330
1F
100
AcDbEntity
  8
LAY-10
  6
CONTINUOUS
 62
     7
100
AcDbLine
 10
1868.101515190096
 20
1330.893022002149
 30
0.0
 11
1866.101515190099
 21
1332.693022002146
 31
0.0
  0
LINE
  5
3EA
330
1F
100
AcDbEntity
  8
LAY-10
  6
CONTINUOUS
 62
     7
100
AcDbLine
 10
1868.101515190099
 20
1331.600128783333
 30
0.0
 11
1866.101515190096
 21
1333.400128783335
 31
0.0
  0
LINE
  5
3EB
330
1F
100
AcDbEntity
  8
LAY-10
  6
CONTINUOUS
 62
     7
100
AcDbLine
 10
1868.101515190096
 20
1332.307235564523
 30
0.0
 11
1866.101515190099
 21
1334.107235564519
 31
0.0
  0
LINE
  5
3EC
330
1F
100
AcDbEntity
  8
LAY-10
  6
CONTINUOUS
 62
     7
100
AcDbLine
 10
1868.101515190099
 20
1333.014342345705
 30
0.0
 11
1866.101515190096
 21
1334.814342345709
 31
0.0
  0
LINE
  5
3ED
330
1F
100
AcDbEntity
  8
LAY-10
  6
CONTINUOUS
 62
     7
100
AcDbLine
 10
1867.28936376446
 20
1305.463158225575
 30
0.0
 11
1866.101515190096
 21
1306.535367756451
 31
0.0
  0
LINE
  5
3EE
330
1F
100
AcDbEntity
  8
LAY-10
  6
CONTINUOUS
 62
     7
100
AcDbLine
 10
1866.51989992535
 20
1305.463158225575
 30
0.0
 11
1866.101515190096
 21
1305.829705366968
 31
0.0
  0
LINE
  5
3EF
330
1F
100
AcDbEntity
  8
LAY-10
  6
CONTINUOUS
 62
     7
100
AcDbLine
 10
1868.101515190099
 20
1334.42855590808
 30
0.0
 11
1866.951957059574
 21
1335.463158225552
 31
0.0
  0
LINE
  5
3F0
330
1F
100
AcDbEntity
  8
LAY-10
  6
CONTINUOUS
 62
     7
100
AcDbLine
 10
1868.101515190096
 20
1335.135662689269
 30
0.0
 11
1867.737631260892
 21
1335.463158225552
 31
0.0
  0
LINE
  5
3F1
330
1F
100
AcDbEntity
  8
LAY-10
  6
CONTINUOUS
 62
     7
100
AcDbLine
 10
1868.101515190096
 20
1333.721449126896
 30
0.0
 11
1866.166282858255
 21
1335.463158225552
 31
0.0
  0
ARC
  5
3F2
330
1F
100
AcDbEntity
  8
LAY-10
  6
CONTINUOUS
 62
     7
100
AcDbCircle
 10
1858.601515190099
 20
1312.963158225575
 30
0.0
 40
4.5
100
AcDbArc
 50
270.0000000000002
 51
0.0000000000001719
  0
LINE
  5
3F3
330
1F
100
AcDbEntity
  8
LAY-10
  6
CONTINUOUS
 62
     7
100
AcDbLine
 10
1866.101515190099
 20
1345.463158225575
 30
0.0
 11
1865.101515190099
 21
1345.463158225575
 31
0.0
  0
ARC
  5
3F4
330
1F
100
AcDbEntity
  8
LAY-10
  6
CONTINUOUS
 62
     7
100
AcDbCircle
 10
1865.101515190099
 20
1343.463158225575
 30
0.0
 40
2.0
100
AcDbArc
 50
90.00000000000009
 51
180.0000000000002
  0
LINE
  5
3F5
330
1F
100
AcDbEntity
  8
LAY-10
  6
CONTINUOUS
 62
     7
100
AcDbLine
 10
1866.101515190096
 20
1335.463158225552
 30
0.0
 11
1868.101515190096
 21
1335.463158225552
 31
0.0
  0
LINE
  5
3F6
330
1F
100
AcDbEntity
  8
LAY-10
  6
CONTINUOUS
 62
     7
100
AcDbLine
 10
1868.072732833444
 20
1305.463158225575
 30
0.0
 11
1866.101515190096
 21
1307.242474537638
 31
0.0
  0
LINE
  5
3F7
330
1F
100
AcDbEntity
  8
LAY-10
  6
CONTINUOUS
 62
     7
100
AcDbLine
 10
1879.301515190077
 20
1301.5768667246
 30
0.0
 11
1879.301515190077
 21
1302.263158225617
 31
0.0
  0
LINE
  5
3F8
330
1F
100
AcDbEntity
  8
LAY-10
  6
CONTINUOUS
 62
     7
100
AcDbLine
 10
1876.801515190076
 20
1331.5768667246
 30
0.0
 11
1871.301515190076
 21
1331.5768667246
 31
0.0
  0
LINE
  5
3F9
330
1F
100
AcDbEntity
  8
LAY-10
  6
CONTINUOUS
 62
     7
100
AcDbLine
 10
1868.101515190076
 20
2158.463158225619
 30
0.0
 11
1868.101515190076
 21
1304.463158225615
 31
0.0
  0
LINE
  5
3FA
330
1F
100
AcDbEntity
  8
LAY-10
  6
CONTINUOUS
 62
     7
100
AcDbLine
 10
1899.401515190076
 20
2101.463158225616
 30
0.0
 11
1899.401515190076
 21
1361.463158225616
 31
0.0
  0
LINE
  5
3FB
330
1F
100
AcDbEntity
  8
LAY-10
  6
CONTINUOUS
 62
     7
100
AcDbLine
 10
1896.201515190076
 20
2116.9631582256
 30
0.0
 11
1896.201515190076
 21
1347.463158225617
 31
0.0
  0
LINE
  5
3FC
330
1F
100
AcDbEntity
  8
LAY-10
  6
CONTINUOUS
 62
     7
100
AcDbLine
 10
1902.401515190074
 20
1398.463158225616
 30
0.0
 11
1902.401515190074
 21
2064.463158225616
 31
0.0
  0
LINE
  5
3FD
330
1F
100
AcDbEntity
  8
LAY-10
  6
CONTINUOUS
 62
     7
100
AcDbLine
 10
1929.401515190076
 20
1392.463158225616
 30
0.0
 11
1929.401515190076
 21
2070.463158225616
 31
0.0
  0
LINE
  5
3FE
330
1F
100
AcDbEntity
  8
LAY-10
  6
CONTINUOUS
 62
     7
100
AcDbLine
 10
1821.601515190096
 20
1305.463158225575
 30
0.0
 11
1821.601515190096
 21
2157.46315822558
 31
0.0
  0
LINE
  5
3FF
330
1F
100
AcDbEntity
  8
LAY-10
  6
CONTINUOUS
 62
     7
100
AcDbLine
 10
1826.101515190096
 20
1305.463158225575
 30
0.0
 11
1826.101515190096
 21
2157.46315822558
 31
0.0
  0
LINE
  5
400
330
1F
100
AcDbEntity
  8
LAY-10
  6
CONTINUOUS
 62
     7
100
AcDbLine
 10
1863.101515190099
 20
2149.9631582256
 30
0.0
 11
1863.101515190099
 21
1312.9631582256
 31
0.0
  0
LINE
  5
401
330
1F
100
AcDbEntity
  8
LAY-10
  6
CONTINUOUS
 62
     7
100
AcDbLine
 10
1866.101515190096
 20
1305.463158225575
 30
0.0
 11
1866.101515190096
 21
2157.463158225581
 31
0.0
  0
ARC
  5
402
330
1F
100
AcDbEntity
  8
LAY-10
  6
CONTINUOUS
 62
     7
100
AcDbCircle
 10
998.9999999999799
 20
844.0139020330898
 30
0.0
 40
2.0
100
AcDbArc
 50
90.00000000000001
 51
180.0
  0
ARC
  5
403
330
1F
100
AcDbEntity
  8
LAY-10
  6
CONTINUOUS
 62
     7
100
AcDbCircle
 10
1035.99999999998
 20
881.01390203309
 30
0.0
 40
2.0
100
AcDbArc
 50
90.00000000000001
 51
180.0
  0
ARC
  5
404
330
1F
100
AcDbEntity
  8
LAY-10
  6
CONTINUOUS
 62
     7
100
AcDbCircle
 10
1029.49999999998
 20
850.5139020330898
 30
0.0
 40
4.5
100
AcDbArc
 50
270.0000000000002
 51
0.0
  0
LINE
  5
405
330
1F
100
AcDbEntity
  8
LAY-10
  6
CONTINUOUS
 62
     7
100
AcDbLine
 10
1033.99999999998
 20
850.5139020330898
 30
0.0
 11
1033.99999999998
 21
881.01390203309
 31
0.0
  0
LINE
  5
406
330
1F
100
AcDbEntity
  8
LAY-10
  6
CONTINUOUS
 62
     7
100
AcDbLine
 10
996.9999999999786
 20
843.0139020330898
 30
0.0
 11
996.9999999999786
 21
844.0139020330898
 31
0.0
  0
LINE
  5
407
330
1F
100
AcDbEntity
  8
LAY-10
  6
CONTINUOUS
 62
     7
100
AcDbLine
 10
1036.99999999998
 20
843.0139020330898
 30
0.0
 11
1036.99999999998
 21
887.5139020330798
 31
0.0
  0
ARC
  5
408
330
1F
100
AcDbEntity
  8
LAY-10
  6
CONTINUOUS
 62
     7
100
AcDbCircle
 10
1076.999999999902
 20
844.0139020330898
 30
0.0
 40
2.0
100
AcDbArc
 50
0.0
 51
90.00000000000001
  0
ARC
  5
409
330
1F
100
AcDbEntity
  8
LAY-10
  6
CONTINUOUS
 62
     7
100
AcDbCircle
 10
1039.999999999903
 20
881.01390203309
 30
0.0
 40
2.0
100
AcDbArc
 50
0.0
 51
90.00000000000001
  0
ARC
  5
40A
330
1F
100
AcDbEntity
  8
LAY-10
  6
CONTINUOUS
 62
     7
100
AcDbCircle
 10
1046.499999999902
 20
850.5139020330898
 30
0.0
 40
4.5
100
AcDbArc
 50
180.0
 51
270.0
  0
LINE
  5
40B
330
1F
100
AcDbEntity
  8
LAY-10
  6
CONTINUOUS
 62
     7
100
AcDbLine
 10
1041.999999999902
 20
850.5139020330898
 30
0.0
 11
1041.999999999902
 21
881.01390203309
 31
0.0
  0
LINE
  5
40C
330
1F
100
AcDbEntity
  8
LAY-10
  6
CONTINUOUS
 62
     7
100
AcDbLine
 10
1078.999999999904
 20
843.0139020330898
 30
0.0
 11
1078.999999999904
 21
844.0139020330898
 31
0.0
  0
LINE
  5
40D
330
1F
100
AcDbEntity
  8
LAY-10
  6
CONTINUOUS
 62
     7
100
AcDbLine
 10
1038.999999999902
 20
843.0139020330898
 30
0.0
 11
1038.999999999902
 21
887.5139020330798
 31
0.0
  0
LINE
  5
40E
330
1F
100
AcDbEntity
  8
LAY-10
  6
CONTINUOUS
 62
     7
100
AcDbLine
 10
632.9999999999902
 20
887.5139020331071
 30
0.0
 11
647.9999999999901
 21
887.5139020331071
 31
0.0
  0
LINE
  5
40F
330
1F
100
AcDbEntity
  8
LAY-10
  6
CONTINUOUS
 62
     7
100
AcDbLine
 10
632.9999999999857
 20
887.5139020331562
 30
0.0
 11
632.9999999999857
 21
884.5139020331562
 31
0.0
  0
LINE
  5
410
330
1F
100
AcDbEntity
  8
LAY-10
  6
CONTINUOUS
 62
     7
100
AcDbLine
 10
647.9999999999856
 20
872.5139020331562
 30
0.0
 11
644.9999999999848
 21
872.5139020331562
 31
0.0
  0
LINE
  5
411
330
1F
100
AcDbEntity
  8
LAY-10
  6
CONTINUOUS
 62
     7
100
AcDbLine
 10
644.9999999999848
 20
884.5139020331562
 30
0.0
 11
632.9999999999857
 21
884.5139020331562
 31
0.0
  0
LINE
  5
412
330
1F
100
AcDbEntity
  8
LAY-10
  6
CONTINUOUS
 62
     7
100
AcDbLine
 10
647.9999999999856
 20
887.5139020331562
 30
0.0
 11
647.9999999999856
 21
872.5139020331562
 31
0.0
  0
LINE
  5
413
330
1F
100
AcDbEntity
  8
LAY-10
  6
HIDDEN
 62
     7
100
AcDbLine
 10
787.9999999999975
 20
779.7139020331579
 30
0.0
 11
787.9999999999975
 21
797.5139020331571
 31
0.0
  0
ARC
  5
414
330
1F
100
AcDbEntity
  8
LAY-10
  6
CONTINUOUS
 62
     7
100
AcDbCircle
 10
704.9999999999858
 20
802.713902033157
 30
0.0
 40
4.0
100
AcDbArc
 50
90.00000000000001
 51
180.0
  0
ARC
  5
415
330
1F
100
AcDbEntity
  8
LAY-10
  6
CONTINUOUS
 62
     7
100
AcDbCircle
 10
725.9999999999857
 20
808.7139020331565
 30
0.0
 40
2.0
100
AcDbArc
 50
270.0000000000002
 51
0.0
  0
ARC
  5
416
330
1F
100
AcDbEntity
  8
LAY-10
  6
CONTINUOUS
 62
     7
100
AcDbCircle
 10
698.9999999999867
 20
781.713902033156
 30
0.0
 40
2.0
100
AcDbArc
 50
270.0000000000002
 51
0.0
  0
LINE
  5
417
330
1F
100
AcDbEntity
  8
LAY-10
  6
CONTINUOUS
 62
     7
100
AcDbLine
 10
727.9999999999856
 20
809.7139020331556
 30
0.0
 11
727.9999999999856
 21
808.7139020331565
 31
0.0
  0
LINE
  5
418
330
1F
100
AcDbEntity
  8
LAY-10
  6
CONTINUOUS
 62
     7
100
AcDbLine
 10
700.9999999999857
 20
802.713902033157
 30
0.0
 11
700.9999999999857
 21
781.713902033156
 31
0.0
  0
LINE
  5
419
330
1F
100
AcDbEntity
  8
LAY-10
  6
CONTINUOUS
 62
     7
100
AcDbLine
 10
697.9999999999856
 20
809.7139020331556
 30
0.0
 11
697.9999999999856
 21
779.713902033156
 31
0.0
  0
LINE
  5
41A
330
1F
100
AcDbEntity
  8
LAY-10
  6
CONTINUOUS
 62
     7
100
AcDbLine
 10
787.9999999999984
 20
767.5139020331526
 30
0.0
 11
787.9999999999992
 21
779.7139020331571
 31
0.0
  0
LINE
  5
41B
330
1F
100
AcDbEntity
  8
LAY-10
  6
CONTINUOUS
 62
     7
100
AcDbLine
 10
687.9999999999984
 20
767.5139020331508
 30
0.0
 11
787.9999999999984
 21
767.5139020331526
 31
0.0
  0
LINE
  5
41C
330
1F
100
AcDbEntity
  8
LAY-10
  6
CONTINUOUS
 62
     7
100
AcDbLine
 10
687.9999999999984
 20
767.5139020331508
 30
0.0
 11
687.9999999999992
 21
797.5139020331571
 31
0.0
  0
LINE
  5
41D
330
1F
100
AcDbEntity
  8
LAY-10
  6
CONTINUOUS
 62
     7
100
AcDbLine
 10
644.9999999999866
 20
884.5139020331562
 30
0.0
 11
644.9999999999866
 21
800.713902033157
 31
0.0
  0
LINE
  5
41E
330
1F
100
AcDbEntity
  8
LAY-10
  6
CONTINUOUS
 62
     7
100
AcDbLine
 10
667.9999999999856
 20
800.7139020331562
 30
0.0
 11
697.9999999999856
 21
800.7139020331562
 31
0.0
  0
LINE
  5
41F
330
1F
100
AcDbEntity
  8
LAY-10
  6
CONTINUOUS
 62
     7
100
AcDbLine
 10
697.9999999999856
 20
797.5139020331562
 30
0.0
 11
644.799999999986
 21
797.5139020331562
 31
0.0
  0
ARC
  5
420
330
1F
100
AcDbEntity
  8
LAY-10
  6
CONTINUOUS
 62
     7
100
AcDbCircle
 10
785.9991089990137
 20
815.9130110321867
 30
0.0
 40
2.999108999030569
100
AcDbArc
 50
180.0
 51
270.0000000000002
  0
LINE
  5
421
330
1F
100
AcDbEntity
  8
LAY-10
  6
CONTINUOUS
 62
     7
100
AcDbLine
 10
829.7908673799058
 20
818.9125255705922
 30
0.0
 11
786.0908673799023
 21
818.9125255705922
 31
0.0
  0
ARC
  5
422
330
1F
100
AcDbEntity
  8
LAY-10
  6
CONTINUOUS
 62
     7
100
AcDbCircle
 10
785.9999999999839
 20
815.913902033156
 30
0.0
 40
3.000000000000003
100
AcDbArc
 50
88.26429541116052
 51
180.0
  0
LINE
  5
423
330
1F
100
AcDbEntity
  8
LAY-10
  6
CONTINUOUS
 62
     7
100
AcDbLine
 10
684.9999999999866
 20
800.7139020331562
 30
0.0
 11
684.9999999999866
 21
809.7139020331571
 31
0.0
  0
ARC
  5
424
330
1F
100
AcDbEntity
  8
LAY-10
  6
CONTINUOUS
 62
     7
100
AcDbCircle
 10
644.799999999986
 20
800.5139020331563
 30
0.0
 40
3.000000000000003
100
AcDbArc
 50
180.0
 51
270.0000000000002
  0
LINE
  5
425
330
1F
100
AcDbEntity
  8
LAY-10
  6
CONTINUOUS
 62
     7
100
AcDbLine
 10
782.9999999999828
 20
813.9139020331559
 30
0.0
 11
782.9999999999828
 21
815.913902033156
 31
0.0
  0
LINE
  5
426
330
1F
100
AcDbEntity
  8
LAY-10
  6
CONTINUOUS
 62
     7
100
AcDbLine
 10
772.9999999999839
 20
813.9139020331572
 30
0.0
 11
772.9999999999839
 21
812.9139020331559
 31
0.0
  0
LINE
  5
427
330
1F
100
AcDbEntity
  8
LAY-10
  6
CONTINUOUS
 62
     7
100
AcDbLine
 10
781.999999999983
 20
813.9139020331559
 30
0.0
 11
772.9999999999839
 21
813.9139020331572
 31
0.0
  0
LINE
  5
428
330
1F
100
AcDbEntity
  8
LAY-10
  6
CONTINUOUS
 62
     7
100
AcDbLine
 10
781.999999999983
 20
815.913902033156
 30
0.0
 11
781.999999999983
 21
813.9139020331559
 31
0.0
  0
ARC
  5
429
330
1F
100
AcDbEntity
  8
LAY-10
  6
CONTINUOUS
 62
     7
100
AcDbCircle
 10
781.999999999983
 20
813.9139020331559
 30
0.0
 40
1.0
100
AcDbArc
 50
270.0000000000002
 51
0.0
  0
ARC
  5
42A
330
1F
100
AcDbEntity
  8
LAY-10
  6
CONTINUOUS
 62
     7
100
AcDbCircle
 10
785.9999999999839
 20
815.913902033156
 30
0.0
 40
4.0
100
AcDbArc
 50
48.56057832088622
 51
180.0
  0
CIRCLE
  5
42B
330
1F
100
AcDbEntity
  8
LAY-10
  6
CONTINUOUS
 62
     7
100
AcDbCircle
 10
829.6999999999846
 20
815.913902033156
 30
0.0
 40
3.000000000000003
  0
LINE
  5
42C
330
1F
100
AcDbEntity
  8
LAY-10
  6
CONTINUOUS
 62
     7
100
AcDbLine
 10
641.799999999985
 20
800.5139020331563
 30
0.0
 11
641.799999999985
 21
884.5139020331562
 31
0.0
  0
ARC
  5
42D
330
1F
100
AcDbEntity
  8
LAY-10
  6
CONTINUOUS
 62
     7
100
AcDbCircle
 10
653.9999999999857
 20
809.9139020331559
 30
0.0
 40
3.000000000000003
100
AcDbArc
 50
90.00000000000001
 51
180.0
  0
LINE
  5
42E
330
1F
100
AcDbEntity
  8
LAY-10
  6
CONTINUOUS
 62
     7
100
AcDbLine
 10
644.9999999999866
 20
800.7139020331562
 30
0.0
 11
657.9999999999856
 21
800.7139020331562
 31
0.0
  0
LINE
  5
42F
330
1F
100
AcDbEntity
  8
LAY-10
  6
CONTINUOUS
 62
     7
100
AcDbLine
 10
653.9999999999857
 20
800.7139020331562
 30
0.0
 11
653.9999999999857
 21
809.7139020331556
 31
0.0
  0
LINE
  5
430
330
1F
100
AcDbEntity
  8
LAY-10
  6
CONTINUOUS
 62
     7
100
AcDbLine
 10
650.9999999999866
 20
800.7139020331562
 30
0.0
 11
650.9999999999866
 21
809.9139020331559
 31
0.0
  0
LINE
  5
431
330
1F
100
AcDbEntity
  8
LAY-10
  6
CONTINUOUS
 62
     7
100
AcDbLine
 10
657.9999999999856
 20
809.7139020331556
 30
0.0
 11
653.9999999999857
 21
809.7139020331556
 31
0.0
  0
LINE
  5
432
330
1F
100
AcDbEntity
  8
LAY-10
  6
CONTINUOUS
 62
     7
100
AcDbLine
 10
656.9999999999848
 20
809.7139020331556
 30
0.0
 11
656.9999999999848
 21
812.9139020331559
 31
0.0
  0
LINE
  5
433
330
1F
100
AcDbEntity
  8
LAY-10
  6
CONTINUOUS
 62
     7
100
AcDbLine
 10
668.9999999999857
 20
809.7139020331556
 30
0.0
 11
668.9999999999857
 21
812.9139020331559
 31
0.0
  0
LINE
  5
434
330
1F
100
AcDbEntity
  8
LAY-10
  6
CONTINUOUS
 62
     7
100
AcDbLine
 10
656.9999999999848
 20
800.7139020331562
 30
0.0
 11
656.9999999999848
 21
797.5139020331562
 31
0.0
  0
LINE
  5
435
330
1F
100
AcDbEntity
  8
LAY-10
  6
CONTINUOUS
 62
     7
100
AcDbLine
 10
668.9999999999857
 20
800.7139020331562
 30
0.0
 11
668.9999999999857
 21
797.5139020331562
 31
0.0
  0
LINE
  5
436
330
1F
100
AcDbEntity
  8
LAY-10
  6
CONTINUOUS
 62
     7
100
AcDbLine
 10
687.9999999999856
 20
797.5139020331562
 30
0.0
 11
687.9999999999856
 21
809.7139020331556
 31
0.0
  0
LINE
  5
437
330
1F
100
AcDbEntity
  8
LAY-10
  6
HIDDEN
 62
     7
100
AcDbLine
 10
788.0000000000002
 20
797.5139020332072
 30
0.0
 11
697.9999999999901
 21
797.5139020332072
 31
0.0
  0
ARC
  5
438
330
1F
100
AcDbEntity
  8
LAY-10
  6
CONTINUOUS
 62
     7
100
AcDbCircle
 10
686.9999999999632
 20
844.0139020330898
 30
0.0
 40
2.0
100
AcDbArc
 50
0.0
 51
90.00000000000001
  0
ARC
  5
439
330
1F
100
AcDbEntity
  8
LAY-10
  6
CONTINUOUS
 62
     7
100
AcDbCircle
 10
649.9999999999633
 20
881.01390203309
 30
0.0
 40
2.0
100
AcDbArc
 50
0.0
 51
90.00000000000001
  0
ARC
  5
43A
330
1F
100
AcDbEntity
  8
LAY-10
  6
CONTINUOUS
 62
     7
100
AcDbCircle
 10
656.4999999999634
 20
850.5139020330898
 30
0.0
 40
4.5
100
AcDbArc
 50
180.0
 51
270.0000000000002
  0
LINE
  5
43B
330
1F
100
AcDbEntity
  8
LAY-10
  6
CONTINUOUS
 62
     7
100
AcDbLine
 10
651.9999999999624
 20
850.5139020330898
 30
0.0
 11
651.9999999999624
 21
881.01390203309
 31
0.0
  0
LINE
  5
43C
330
1F
100
AcDbEntity
  8
LAY-10
  6
CONTINUOUS
 62
     7
100
AcDbLine
 10
688.9999999999642
 20
843.0139020330898
 30
0.0
 11
688.9999999999642
 21
844.0139020330898
 31
0.0
  0
LINE
  5
43D
330
1F
100
AcDbEntity
  8
LAY-10
  6
CONTINUOUS
 62
     7
100
AcDbLine
 10
648.9999999999634
 20
843.0139020330898
 30
0.0
 11
648.9999999999634
 21
887.5139020330798
 31
0.0
  0
LINE
  5
43E
330
1F
100
AcDbEntity
  8
LAY-10
  6
CONTINUOUS
 62
     7
100
AcDbLine
 10
1029.499999999991
 20
846.0139020330854
 30
0.0
 11
656.4999999999907
 21
846.0139020330854
 31
0.0
  0
LINE
  5
43F
330
1F
100
AcDbEntity
  8
LAY-10
  6
CONTINUOUS
 62
     7
100
AcDbLine
 10
648.9999999999816
 20
883.0139020330807
 30
0.0
 11
1036.999999999942
 21
883.0139020330807
 31
0.0
  0
LINE
  5
440
330
1F
100
AcDbEntity
  8
LAY-10
  6
CONTINUOUS
 62
     7
100
AcDbLine
 10
1036.999999999942
 20
887.5139020330807
 30
0.0
 11
648.9999999999816
 21
887.5139020330807
 31
0.0
  0
LINE
  5
441
330
1F
100
AcDbEntity
  8
LAY-10
  6
CONTINUOUS
 62
     7
100
AcDbLine
 10
1427.99999999999
 20
887.5139020331071
 30
0.0
 11
1442.99999999999
 21
887.5139020331071
 31
0.0
  0
LINE
  5
442
330
1F
100
AcDbEntity
  8
LAY-10
  6
CONTINUOUS
 62
     7
100
AcDbLine
 10
1442.999999999972
 20
887.5139020331562
 30
0.0
 11
1442.999999999972
 21
884.5139020331562
 31
0.0
  0
LINE
  5
443
330
1F
100
AcDbEntity
  8
LAY-10
  6
CONTINUOUS
 62
     7
100
AcDbLine
 10
1427.999999999972
 20
872.5139020331562
 30
0.0
 11
1430.999999999973
 21
872.5139020331562
 31
0.0
  0
LINE
  5
444
330
1F
100
AcDbEntity
  8
LAY-10
  6
CONTINUOUS
 62
     7
100
AcDbLine
 10
1430.999999999973
 20
884.5139020331562
 30
0.0
 11
1442.999999999972
 21
884.5139020331562
 31
0.0
  0
LINE
  5
445
330
1F
100
AcDbEntity
  8
LAY-10
  6
CONTINUOUS
 62
     7
100
AcDbLine
 10
1427.999999999972
 20
887.5139020331562
 30
0.0
 11
1427.999999999972
 21
872.5139020331562
 31
0.0
  0
LINE
  5
446
330
1F
100
AcDbEntity
  8
LAY-10
  6
HIDDEN
 62
     7
100
AcDbLine
 10
1287.999999999983
 20
797.5139020331571
 30
0.0
 11
1377.99999999999
 21
797.5139020331571
 31
0.0
  0
LINE
  5
447
330
1F
100
AcDbEntity
  8
LAY-10
  6
HIDDEN
 62
     7
100
AcDbLine
 10
1287.999999999983
 20
779.7139020331579
 30
0.0
 11
1287.999999999983
 21
797.5139020331571
 31
0.0
  0
ARC
  5
448
330
1F
100
AcDbEntity
  8
LAY-10
  6
CONTINUOUS
 62
     7
100
AcDbCircle
 10
1370.999999999971
 20
802.713902033157
 30
0.0
 40
4.0
100
AcDbArc
 50
0.0
 51
90.00000000000001
  0
ARC
  5
449
330
1F
100
AcDbEntity
  8
LAY-10
  6
CONTINUOUS
 62
     7
100
AcDbCircle
 10
1349.999999999972
 20
808.713902033157
 30
0.0
 40
2.0
100
AcDbArc
 50
180.0
 51
270.0000000000002
  0
ARC
  5
44A
330
1F
100
AcDbEntity
  8
LAY-10
  6
CONTINUOUS
 62
     7
100
AcDbCircle
 10
1376.999999999972
 20
781.713902033157
 30
0.0
 40
2.0
100
AcDbArc
 50
180.0
 51
270.0000000000002
  0
LINE
  5
44B
330
1F
100
AcDbEntity
  8
LAY-10
  6
CONTINUOUS
 62
     7
100
AcDbLine
 10
1377.999999999972
 20
779.7139020331571
 30
0.0
 11
1376.999999999972
 21
779.7139020331571
 31
0.0
  0
LINE
  5
44C
330
1F
100
AcDbEntity
  8
LAY-10
  6
CONTINUOUS
 62
     7
100
AcDbLine
 10
1347.999999999974
 20
809.7139020331571
 30
0.0
 11
1347.999999999974
 21
808.713902033157
 31
0.0
  0
LINE
  5
44D
330
1F
100
AcDbEntity
  8
LAY-10
  6
CONTINUOUS
 62
     7
100
AcDbLine
 10
1374.999999999973
 20
802.713902033157
 30
0.0
 11
1374.999999999973
 21
781.713902033157
 31
0.0
  0
LINE
  5
44E
330
1F
100
AcDbEntity
  8
LAY-10
  6
CONTINUOUS
 62
     7
100
AcDbLine
 10
1377.999999999972
 20
809.7139020331571
 30
0.0
 11
1377.999999999972
 21
779.7139020331571
 31
0.0
  0
LINE
  5
44F
330
1F
100
AcDbEntity
  8
LAY-10
  6
CONTINUOUS
 62
     7
100
AcDbLine
 10
1387.999999999981
 20
767.5139020331508
 30
0.0
 11
1387.999999999981
 21
797.5139020331571
 31
0.0
  0
LINE
  5
450
330
1F
100
AcDbEntity
  8
LAY-10
  6
CONTINUOUS
 62
     7
100
AcDbLine
 10
1387.999999999981
 20
767.5139020331508
 30
0.0
 11
1287.999999999981
 21
767.5139020331526
 31
0.0
  0
LINE
  5
451
330
1F
100
AcDbEntity
  8
LAY-10
  6
CONTINUOUS
 62
     7
100
AcDbLine
 10
1287.999999999981
 20
767.5139020331526
 30
0.0
 11
1287.999999999981
 21
779.7139020331571
 31
0.0
  0
LINE
  5
452
330
1F
100
AcDbEntity
  8
LAY-10
  6
CONTINUOUS
 62
     7
100
AcDbLine
 10
1377.999999999972
 20
797.5139020331562
 30
0.0
 11
1431.199999999973
 21
797.5139020331562
 31
0.0
  0
LINE
  5
453
330
1F
100
AcDbEntity
  8
LAY-10
  6
CONTINUOUS
 62
     7
100
AcDbLine
 10
1430.999999999973
 20
884.5139020331562
 30
0.0
 11
1430.999999999973
 21
800.713902033157
 31
0.0
  0
LINE
  5
454
330
1F
100
AcDbEntity
  8
LAY-10
  6
CONTINUOUS
 62
     7
100
AcDbLine
 10
1417.999999999973
 20
800.7139020331562
 30
0.0
 11
1430.999999999973
 21
800.7139020331562
 31
0.0
  0
LINE
  5
455
330
1F
100
AcDbEntity
  8
LAY-10
  6
CONTINUOUS
 62
     7
100
AcDbLine
 10
1407.999999999972
 20
800.7139020331562
 30
0.0
 11
1377.999999999972
 21
800.7139020331562
 31
0.0
  0
LINE
  5
456
330
1F
100
AcDbEntity
  8
LAY-10
  6
CONTINUOUS
 62
     7
100
AcDbLine
 10
1246.209132620051
 20
818.9125255705922
 30
0.0
 11
1289.909132620055
 21
818.9125255705922
 31
0.0
  0
ARC
  5
457
330
1F
100
AcDbEntity
  8
LAY-10
  6
CONTINUOUS
 62
     7
100
AcDbCircle
 10
1289.999999999973
 20
815.913902033156
 30
0.0
 40
3.000000000000003
100
AcDbArc
 50
0.0
 51
91.73570458884814
  0
ARC
  5
458
330
1F
100
AcDbEntity
  8
LAY-10
  6
CONTINUOUS
 62
     7
100
AcDbCircle
 10
1290.000891000943
 20
815.9130110321867
 30
0.0
 40
2.999108999030569
100
AcDbArc
 50
270.0000000000002
 51
0.0
  0
LINE
  5
459
330
1F
100
AcDbEntity
  8
LAY-10
  6
CONTINUOUS
 62
     7
100
AcDbLine
 10
1390.999999999972
 20
800.7139020331562
 30
0.0
 11
1390.999999999972
 21
809.7139020331571
 31
0.0
  0
ARC
  5
45A
330
1F
100
AcDbEntity
  8
LAY-10
  6
CONTINUOUS
 62
     7
100
AcDbCircle
 10
1431.199999999973
 20
800.5139020331571
 30
0.0
 40
3.000000000000003
100
AcDbArc
 50
270.0000000000002
 51
0.0
  0
LINE
  5
45B
330
1F
100
AcDbEntity
  8
LAY-10
  6
CONTINUOUS
 62
     7
100
AcDbLine
 10
1424.999999999972
 20
800.7139020331562
 30
0.0
 11
1424.999999999972
 21
809.9139020331559
 31
0.0
  0
LINE
  5
45C
330
1F
100
AcDbEntity
  8
LAY-10
  6
CONTINUOUS
 62
     7
100
AcDbLine
 10
1434.199999999974
 20
800.5139020331571
 30
0.0
 11
1434.199999999974
 21
884.5139020331562
 31
0.0
  0
LINE
  5
45D
330
1F
100
AcDbEntity
  8
LAY-10
  6
CONTINUOUS
 62
     7
100
AcDbLine
 10
1292.999999999974
 20
813.9139020331559
 30
0.0
 11
1292.999999999974
 21
815.913902033156
 31
0.0
  0
LINE
  5
45E
330
1F
100
AcDbEntity
  8
LAY-10
  6
CONTINUOUS
 62
     7
100
AcDbLine
 10
1302.999999999974
 20
813.9139020331572
 30
0.0
 11
1302.999999999974
 21
812.9139020331559
 31
0.0
  0
LINE
  5
45F
330
1F
100
AcDbEntity
  8
LAY-10
  6
CONTINUOUS
 62
     7
100
AcDbLine
 10
1293.999999999973
 20
813.9139020331559
 30
0.0
 11
1302.999999999974
 21
813.9139020331572
 31
0.0
  0
LINE
  5
460
330
1F
100
AcDbEntity
  8
LAY-10
  6
CONTINUOUS
 62
     7
100
AcDbLine
 10
1293.999999999973
 20
815.913902033156
 30
0.0
 11
1293.999999999973
 21
813.9139020331559
 31
0.0
  0
ARC
  5
461
330
1F
100
AcDbEntity
  8
LAY-10
  6
CONTINUOUS
 62
     7
100
AcDbCircle
 10
1293.999999999973
 20
813.9139020331559
 30
0.0
 40
1.0
100
AcDbArc
 50
180.0
 51
270.0000000000002
  0
ARC
  5
462
330
1F
100
AcDbEntity
  8
LAY-10
  6
CONTINUOUS
 62
     7
100
AcDbCircle
 10
1289.999999999973
 20
815.913902033156
 30
0.0
 40
4.0
100
AcDbArc
 50
0.0
 51
131.439421679092
  0
CIRCLE
  5
463
330
1F
100
AcDbEntity
  8
LAY-10
  6
CONTINUOUS
 62
     7
100
AcDbCircle
 10
1246.299999999974
 20
815.913902033156
 30
0.0
 40
3.000000000000003
  0
ARC
  5
464
330
1F
100
AcDbEntity
  8
LAY-10
  6
CONTINUOUS
 62
     7
100
AcDbCircle
 10
1421.999999999972
 20
809.9139020331581
 30
0.0
 40
3.000000000000003
100
AcDbArc
 50
0.0
 51
90.00000000000001
  0
LINE
  5
465
330
1F
100
AcDbEntity
  8
LAY-10
  6
CONTINUOUS
 62
     7
100
AcDbLine
 10
1418.999999999974
 20
809.7139020331571
 30
0.0
 11
1417.999999999971
 21
809.7139020331571
 31
0.0
  0
LINE
  5
466
330
1F
100
AcDbEntity
  8
LAY-10
  6
CONTINUOUS
 62
     7
100
AcDbLine
 10
1406.999999999972
 20
809.7139020331571
 30
0.0
 11
1407.999999999972
 21
809.7139020331571
 31
0.0
  0
LINE
  5
467
330
1F
100
AcDbEntity
  8
LAY-10
  6
CONTINUOUS
 62
     7
100
AcDbLine
 10
1421.999999999972
 20
800.7139020331562
 30
0.0
 11
1421.999999999972
 21
809.7139020331571
 31
0.0
  0
LINE
  5
468
330
1F
100
AcDbEntity
  8
LAY-10
  6
CONTINUOUS
 62
     7
100
AcDbLine
 10
1418.999999999974
 20
809.7139020331571
 30
0.0
 11
1421.999999999972
 21
809.7139020331571
 31
0.0
  0
LINE
  5
469
330
1F
100
AcDbEntity
  8
LAY-10
  6
CONTINUOUS
 62
     7
100
AcDbLine
 10
1418.999999999974
 20
809.7139020331571
 30
0.0
 11
1418.999999999974
 21
812.9139020331559
 31
0.0
  0
LINE
  5
46A
330
1F
100
AcDbEntity
  8
LAY-10
  6
CONTINUOUS
 62
     7
100
AcDbLine
 10
1406.999999999972
 20
809.7139020331571
 30
0.0
 11
1406.999999999972
 21
812.9139020331559
 31
0.0
  0
LINE
  5
46B
330
1F
100
AcDbEntity
  8
LAY-10
  6
CONTINUOUS
 62
     7
100
AcDbLine
 10
1418.999999999974
 20
800.7139020331562
 30
0.0
 11
1418.999999999974
 21
797.5139020331562
 31
0.0
  0
LINE
  5
46C
330
1F
100
AcDbEntity
  8
LAY-10
  6
CONTINUOUS
 62
     7
100
AcDbLine
 10
1406.999999999972
 20
800.7139020331562
 30
0.0
 11
1406.999999999972
 21
797.5139020331562
 31
0.0
  0
LINE
  5
46D
330
1F
100
AcDbEntity
  8
LAY-10
  6
CONTINUOUS
 62
     7
100
AcDbLine
 10
1389.499999999973
 20
809.7139020331571
 30
0.0
 11
1406.999999999972
 21
809.7139020331571
 31
0.0
  0
LINE
  5
46E
330
1F
100
AcDbEntity
  8
LAY-10
  6
CONTINUOUS
 62
     7
100
AcDbLine
 10
1390.999999999972
 20
809.7139020331571
 30
0.0
 11
1387.999999999973
 21
809.7139020331571
 31
0.0
  0
LINE
  5
46F
330
1F
100
AcDbEntity
  8
LAY-10
  6
CONTINUOUS
 62
     7
100
AcDbLine
 10
1387.999999999973
 20
797.5139020331562
 30
0.0
 11
1387.999999999973
 21
809.7139020331571
 31
0.0
  0
ARC
  5
470
330
1F
100
AcDbEntity
  8
LAY-10
  6
CONTINUOUS
 62
     7
100
AcDbCircle
 10
1388.999999999919
 20
844.0139020330895
 30
0.0
 40
2.0
100
AcDbArc
 50
90.00000000000001
 51
180.0
  0
ARC
  5
471
330
1F
100
AcDbEntity
  8
LAY-10
  6
CONTINUOUS
 62
     7
100
AcDbCircle
 10
1425.999999999919
 20
881.0139020330894
 30
0.0
 40
2.0
100
AcDbArc
 50
90.00000000000001
 51
180.0
  0
ARC
  5
472
330
1F
100
AcDbEntity
  8
LAY-10
  6
CONTINUOUS
 62
     7
100
AcDbCircle
 10
1419.499999999919
 20
850.5139020330894
 30
0.0
 40
4.5
100
AcDbArc
 50
270.0
 51
0.0
  0
LINE
  5
473
330
1F
100
AcDbEntity
  8
LAY-10
  6
CONTINUOUS
 62
     7
100
AcDbLine
 10
1423.99999999992
 20
850.5139020330894
 30
0.0
 11
1423.99999999992
 21
881.0139020330894
 31
0.0
  0
LINE
  5
474
330
1F
100
AcDbEntity
  8
LAY-10
  6
CONTINUOUS
 62
     7
100
AcDbLine
 10
1386.999999999918
 20
843.0139020330894
 30
0.0
 11
1386.999999999918
 21
844.0139020330895
 31
0.0
  0
LINE
  5
475
330
1F
100
AcDbEntity
  8
LAY-10
  6
CONTINUOUS
 62
     7
100
AcDbLine
 10
1426.999999999919
 20
843.0139020330894
 30
0.0
 11
1426.999999999919
 21
887.5139020330798
 31
0.0
  0
LINE
  5
476
330
1F
100
AcDbEntity
  8
LAY-10
  6
CONTINUOUS
 62
     7
100
AcDbLine
 10
1046.499999999892
 20
846.0139020330854
 30
0.0
 11
1419.499999999892
 21
846.0139020330848
 31
0.0
  0
LINE
  5
477
330
1F
100
AcDbEntity
  8
LAY-10
  6
CONTINUOUS
 62
     7
100
AcDbLine
 10
1426.999999999901
 20
883.0139020330807
 30
0.0
 11
1038.99999999994
 21
883.0139020330807
 31
0.0
  0
LINE
  5
478
330
1F
100
AcDbEntity
  8
LAY-10
  6
CONTINUOUS
 62
     7
100
AcDbLine
 10
1038.99999999994
 20
887.5139020330807
 30
0.0
 11
1426.999999999901
 21
887.5139020330803
 31
0.0
  0
LINE
  5
479
330
1F
100
AcDbEntity
  8
LAY-10
  6
CONTINUOUS
 62
     7
100
AcDbLine
 10
1423.499999999973
 20
812.9139020331559
 30
0.0
 11
652.4999999999858
 21
812.9139020331559
 31
0.0
  0
POLYLINE
  5
47A
330
1F
100
AcDbEntity
  8
LAY-10
  6
CONTINUOUS
 62
     7
100
AcDb2dPolyline
 66
     1
 10
0.0
 20
0.0
 30
0.0
 70
   128
  0
VERTEX
  5
47B
330
47A
100
AcDbEntity
  8
LAY-10
  6
CONTINUOUS
 62
     7
100
AcDbVertex
100
AcDb2dVertex
 10
704.9999999999858
 20
806.713902033156
 30
0.0
  0
VERTEX
  5
47C
330
47A
100
AcDbEntity
  8
LAY-10
  6
CONTINUOUS
 62
     7
100
AcDbVertex
100
AcDb2dVertex
 10
834.4999999999857
 20
806.713902033157
 30
0.0
  0
VERTEX
  5
47D
330
47A
100
AcDbEntity
  8
LAY-10
  6
CONTINUOUS
 62
     7
100
AcDbVertex
100
AcDb2dVertex
 10
1370.999999999971
 20
806.713902033157
 30
0.0
  0
SEQEND
  5
47E
330
47A
100
AcDbEntity
  8
LAY-10
  6
CONTINUOUS
 62
     7
  0
LINE
  5
47F
330
1F
100
AcDbEntity
  8
LAY-10
  6
CONTINUOUS
 62
     7
100
AcDbLine
 10
667.9999999999856
 20
809.7139020331556
 30
0.0
 11
1387.999999999973
 21
809.7139020331571
 31
0.0
  0
LINE
  5
480
330
1F
100
AcDbEntity
  8
LAY-10
  6
CONTINUOUS
 62
     7
100
AcDbLine
 10
1376.999999999972
 20
779.7139020331571
 30
0.0
 11
697.9999999999866
 21
779.713902033156
 31
0.0
  0
LINE
  5
481
330
1F
100
AcDbEntity
  8
LAY-10
  6
CONTINUOUS
 62
     7
100
AcDbLine
 10
1430.999999999973
 20
841.0139020330903
 30
0.0
 11
644.9999999999866
 21
841.0139020330903
 31
0.0
  0
LINE
  5
482
330
1F
100
AcDbEntity
  8
LAY-10
  6
CONTINUOUS
 62
     7
100
AcDbLine
 10
644.9999999999903
 20
843.0139020330904
 30
0.0
 11
1430.999999999973
 21
843.0139020330904
 31
0.0
  0
ARC
  5
483
330
1F
100
AcDbEntity
  8
LAY-10
  6
CONTINUOUS
 62
     7
100
AcDbCircle
 10
1442.199999999971
 20
841.8276105320979
 30
0.0
 40
8.0
100
AcDbArc
 50
180.0
 51
224.9999999999971
  0
LINE
  5
484
330
1F
100
AcDbEntity
  8
LAY-10
  6
CONTINUOUS
 62
     7
100
AcDbLine
 10
1471.898484809807
 20
800.8154172232794
 30
0.0
 11
1477.555339059298
 21
806.4722714727714
 31
0.0
  0
LINE
  5
485
330
1F
100
AcDbEntity
  8
LAY-10
  6
CONTINUOUS
 62
     7
100
AcDbLine
 10
1471.898484809807
 20
800.8154172232794
 30
0.0
 11
1436.543145750479
 21
836.1707562826064
 31
0.0
  0
LINE
  5
486
330
1F
100
AcDbEntity
  8
LAY-10
  6
CONTINUOUS
 62
     7
100
AcDbLine
 10
1477.555339059298
 20
806.4722714727714
 30
0.0
 11
1442.199999999971
 21
841.8276105320979
 31
0.0
  0
LINE
  5
487
330
1F
100
AcDbEntity
  8
LAY-10
  6
CONTINUOUS
 62
     7
100
AcDbLine
 10
1442.199999999971
 20
841.8276105320979
 30
0.0
 11
1442.199999999971
 21
868.5139020331139
 31
0.0
  0
LINE
  5
488
330
1F
100
AcDbEntity
  8
LAY-10
  6
CONTINUOUS
 62
     7
100
AcDbLine
 10
1442.199999999971
 20
868.5139020331139
 30
0.0
 11
1434.19999999997
 21
868.5139020331139
 31
0.0
  0
ARC
  5
489
330
1F
100
AcDbEntity
  8
LAY-10
  6
CONTINUOUS
 62
     7
100
AcDbCircle
 10
633.7999999999759
 20
841.8276105320979
 30
0.0
 40
8.0
100
AcDbArc
 50
315.0000000000145
 51
0.0
  0
LINE
  5
48A
330
1F
100
AcDbEntity
  8
LAY-10
  6
CONTINUOUS
 62
     7
100
AcDbLine
 10
633.7999999999759
 20
868.5139020331139
 30
0.0
 11
641.7999999999768
 21
868.5139020331139
 31
0.0
  0
LINE
  5
48B
330
1F
100
AcDbEntity
  8
LAY-10
  6
CONTINUOUS
 62
     7
100
AcDbLine
 10
633.7999999999759
 20
841.8276105320979
 30
0.0
 11
633.7999999999759
 21
868.5139020331139
 31
0.0
  0
LINE
  5
48C
330
1F
100
AcDbEntity
  8
LAY-10
  6
CONTINUOUS
 62
     7
100
AcDbLine
 10
604.1015151901413
 20
800.8154172232794
 30
0.0
 11
639.4568542494683
 21
836.1707562826064
 31
0.0
  0
LINE
  5
48D
330
1F
100
AcDbEntity
  8
LAY-10
  6
CONTINUOUS
 62
     7
100
AcDbLine
 10
604.1015151901413
 20
800.8154172232794
 30
0.0
 11
598.4446609406489
 21
806.4722714727714
 31
0.0
  0
LINE
  5
48E
330
1F
100
AcDbEntity
  8
LAY-10
  6
CONTINUOUS
 62
     7
100
AcDbLine
 10
598.4446609406489
 20
806.4722714727714
 30
0.0
 11
633.7999999999759
 21
841.8276105320979
 31
0.0
  0
ARC
  5
48F
330
1F
100
AcDbEntity
  8
LAY-10
  6
CONTINUOUS
 62
     7
100
AcDbCircle
 10
1900.401515190076
 20
1419.463158225617
 30
0.0
 40
2.0
100
AcDbArc
 50
0.0
 51
90.00000000000001
  0
LINE
  5
490
330
1F
100
AcDbEntity
  8
LAY-10
  6
CONTINUOUS
 62
     7
100
AcDbLine
 10
1899.401515190076
 20
1421.463158225617
 30
0.0
 11
1900.401515190076
 21
1421.463158225617
 31
0.0
  0
LINE
  5
491
330
1F
100
AcDbEntity
  8
LAY-10
  6
CENTER
 62
     2
100
AcDbLine
 10
1037.99999999995
 20
1257.61541722328
 30
0.0
 11
1037.99999999995
 21
2217.361643035483
 31
0.0
  0
LINE
  5
492
330
1F
100
AcDbEntity
  8
LAY-10
  6
CENTER
 62
     2
100
AcDbLine
 10
614.5000000000098
 20
1731.463158225631
 30
0.0
 11
1465.50000000001
 21
1731.463158225632
 31
0.0
  0
LINE
  5
493
330
1F
100
AcDbEntity
  8
LAY-10
  6
CENTER
 62
     2
100
AcDbLine
 10
937.9999999999986
 20
1338.317474996231
 30
0.0
 11
937.9999999999986
 21
1296.517474996231
 31
0.0
  0
LINE
  5
494
330
1F
100
AcDbEntity
  8
LAY-10
  6
CENTER
 62
     2
100
AcDbLine
 10
1426.400000000048
 20
1356.463158225587
 30
0.0
 11
1398.000000000049
 21
1356.463158225587
 31
0.0
  0
LINE
  5
495
330
1F
100
AcDbEntity
  8
LAY-10
  6
CENTER
 62
     2
100
AcDbLine
 10
1413.000000000048
 20
1341.463158225587
 30
0.0
 11
1413.000000000049
 21
1373.463158225586
 31
0.0
  0
LINE
  5
496
330
1F
100
AcDbEntity
  8
LAY-10
  6
CENTER
 62
     2
100
AcDbLine
 10
1427.999999999975
 20
2106.463158225611
 30
0.0
 11
1395.999999999976
 21
2106.463158225612
 31
0.0
  0
LINE
  5
497
330
1F
100
AcDbEntity
  8
LAY-10
  6
CENTER
 62
     2
100
AcDbLine
 10
1412.999999999975
 20
2119.863158225611
 30
0.0
 11
1412.999999999975
 21
2091.463158225612
 31
0.0
  0
LINE
  5
498
330
1F
100
AcDbEntity
  8
LAY-10
  6
CENTER
 62
     2
100
AcDbLine
 10
1052.999999999947
 20
1356.463158225614
 30
0.0
 11
1020.999999999948
 21
1356.463158225613
 31
0.0
  0
LINE
  5
499
330
1F
100
AcDbEntity
  8
LAY-10
  6
CENTER
 62
     2
100
AcDbLine
 10
1412.999999999998
 20
1746.46315822569
 30
0.0
 11
1412.999999999999
 21
1714.46315822569
 31
0.0
  0
LINE
  5
49A
330
1F
100
AcDbEntity
  8
LAY-10
  6
CENTER
 62
     2
100
AcDbLine
 10
1287.999999999951
 20
2173.46315822563
 30
0.0
 11
1287.999999999951
 21
2215.263158225629
 31
0.0
  0
LINE
  5
49B
330
1F
100
AcDbEntity
  8
LAY-10
  6
CENTER
 62
     2
100
AcDbLine
 10
787.9999999999484
 20
2173.46315822563
 30
0.0
 11
787.9999999999484
 21
2215.263158225629
 31
0.0
  0
LINE
  5
49C
330
1F
100
AcDbEntity
  8
LAY-10
  6
CENTER
 62
     2
100
AcDbLine
 10
1287.999999999951
 20
1289.463158225634
 30
0.0
 11
1287.999999999951
 21
1247.663158225634
 31
0.0
  0
LINE
  5
49D
330
1F
100
AcDbEntity
  8
LAY-10
  6
CENTER
 62
     2
100
AcDbLine
 10
787.999999999949
 20
1289.463158225633
 30
0.0
 11
787.999999999949
 21
1247.663158225634
 31
0.0
  0
LINE
  5
49E
330
1F
100
AcDbEntity
  8
LAY-10
  6
CENTER
 62
     2
100
AcDbLine
 10
1442.999999999959
 20
1481.463158225679
 30
0.0
 11
1484.799999999959
 21
1481.463158225679
 31
0.0
  0
LINE
  5
49F
330
1F
100
AcDbEntity
  8
LAY-10
  6
CENTER
 62
     2
100
AcDbLine
 10
1442.999999999959
 20
1981.463158225681
 30
0.0
 11
1484.799999999959
 21
1981.463158225681
 31
0.0
  0
LINE
  5
4A0
330
1F
100
AcDbEntity
  8
LAY-10
  6
CENTER
 62
     2
100
AcDbLine
 10
632.9999999999397
 20
1481.463158225679
 30
0.0
 11
591.1999999999405
 21
1481.463158225679
 31
0.0
  0
LINE
  5
4A1
330
1F
100
AcDbEntity
  8
LAY-10
  6
CENTER
 62
     2
100
AcDbLine
 10
632.9999999999397
 20
1981.463158225681
 30
0.0
 11
591.1999999999405
 21
1981.463158225681
 31
0.0
  0
LINE
  5
4A2
330
1F
100
AcDbEntity
  8
LAY-10
  6
CENTER
 62
     2
100
AcDbLine
 10
824.4749999999897
 20
2132.46315822563
 30
0.0
 11
861.9749999999897
 21
2132.46315822563
 31
0.0
  0
LINE
  5
4A3
330
1F
100
AcDbEntity
  8
LAY-10
  6
CENTER
 62
     2
100
AcDbLine
 10
842.9999999999901
 20
2151.063158225699
 30
0.0
 11
842.9999999999901
 21
2112.1631582257
 31
0.0
  0
LINE
  5
4A4
330
1F
100
AcDbEntity
  8
LAY-10
  6
CENTER
 62
     2
100
AcDbLine
 10
861.5250000000005
 20
1330.46315822557
 30
0.0
 11
824.0250000000005
 21
1330.46315822557
 31
0.0
  0
LINE
  5
4A5
330
1F
100
AcDbEntity
  8
LAY-10
  6
CENTER
 62
     2
100
AcDbLine
 10
843.0000000000001
 20
1311.863158225501
 30
0.0
 11
843.0000000000001
 21
1350.7631582255
 31
0.0
  0
LINE
  5
4A6
330
1F
100
AcDbEntity
  8
LAY-10
  6
CENTER
 62
     2
100
AcDbLine
 10
1791.503030380242
 20
1731.463158225618
 30
0.0
 11
1960.303030380242
 21
1731.463158225618
 31
0.0
  0
LINE
  5
4A7
330
1F
100
AcDbEntity
  8
LAY-10
  6
CENTER
 62
     2
100
AcDbLine
 10
1873.503030380237
 20
2106.463158225618
 30
0.0
 11
1924.70303038024
 21
2106.463158225618
 31
0.0
  0
LINE
  5
4A8
330
1F
100
AcDbEntity
  8
LAY-10
  6
CENTER
 62
     2
100
AcDbLine
 10
1892.301515190075
 20
2167.763158225614
 30
0.0
 11
1892.301515190075
 21
2119.263158225617
 31
0.0
  0
LINE
  5
4A9
330
1F
100
AcDbEntity
  8
LAY-10
  6
CENTER
 62
     2
100
AcDbLine
 10
1873.503030380237
 20
1356.463158225615
 30
0.0
 11
1924.70303038024
 21
1356.463158225615
 31
0.0
  0
LINE
  5
4AA
330
1F
100
AcDbEntity
  8
LAY-10
  6
CENTER
 62
     2
100
AcDbLine
 10
1892.301515190075
 20
1295.163158225617
 30
0.0
 11
1892.301515190075
 21
1343.663158225617
 31
0.0
  0
LINE
  5
4AB
330
1F
100
AcDbEntity
  8
LAY-10
  6
CENTER
 62
     2
100
AcDbLine
 10
1037.999999999941
 20
917.6123868430642
 30
0.0
 11
1037.999999999941
 21
748.612386843065
 31
0.0
  0
LINE
  5
4AC
330
1F
100
AcDbEntity
  8
LAY-10
  6
CENTER
 62
     2
100
AcDbLine
 10
662.9999999999856
 20
835.612386842994
 30
0.0
 11
662.9999999999856
 21
784.4123868429944
 31
0.0
  0
LINE
  5
4AD
330
1F
100
AcDbEntity
  8
LAY-10
  6
CENTER
 62
     2
100
AcDbLine
 10
1412.999999999972
 20
831.2839020331576
 30
0.0
 11
1412.999999999972
 21
779.8939020331574
 31
0.0
  0
DIMENSION
  5
4AF
330
1F
100
AcDbEntity
  8
LAY-20
  6
CONTINUOUS
 62
     4
100
AcDbDimension
  2
*D27
 10
1651.6015151901
 20
1289.4631582256
 30
0.0
 11
1626.6015151901
 21
1731.4631582256
 31
0.0
 70
   160
  3
ISO-25
100
AcDbAlignedDimension
 13
1821.6015151901
 23
2173.4631582256
 33
0.0
 14
1821.6015151901
 24
1289.4631582256
 34
0.0
 50
90.0
100
AcDbRotatedDimension
1001
ACAD
1000
DSTYLE
1002
{
1070
   270
1070
     2
1070
     6
1000
EX_BNORM
1070
     7
1000
EX_BNORM
1070
    41
1040
25.0
1070
    42
1040
15.0
1070
    44
1040
15.0
1070
    73
1070
     0
1070
    74
1070
     0
1070
    75
1070
     0
1070
    76
1070
     0
1070
    77
1070
     1
1070
    78
1070
     8
1070
   140
1040
31.181104
1070
   147
1040
0.0
1070
   173
1070
     1
1070
   176
1070
     4
1070
   177
1070
     4
1070
   178
1070
     7
1070
   271
1070
     1
1070
   277
1070
     2
1070
   279
1070
     2
1070
   280
1070
     0
1070
   287
1070
     5
1070
   340
1005
4AE
1002
}
  0
DIMENSION
  5
4BD
330
1F
100
AcDbEntity
  8
LAY-20
  6
CONTINUOUS
 62
     4
100
AcDbDimension
  2
*D28
 10
1721.6015151901
 20
2157.463158225618
 30
0.0
 11
1696.6015151901
 21
1731.463158225617
 31
0.0
 70
   160
  3
ISO-25
100
AcDbAlignedDimension
 13
1821.601515190078
 23
1305.463158225615
 33
0.0
 14
1821.601515190078
 24
2157.463158225618
 34
0.0
 50
90.0
100
AcDbRotatedDimension
1001
ACAD
1000
DSTYLE
1002
{
1070
   270
1070
     2
1070
     6
1000
EX_BNORM
1070
     7
1000
EX_BNORM
1070
    41
1040
25.0
1070
    42
1040
15.0
1070
    44
1040
15.0
1070
    73
1070
     0
1070
    74
1070
     0
1070
    75
1070
     0
1070
    76
1070
     0
1070
    77
1070
     1
1070
    78
1070
     8
1070
   140
1040
31.181104
1070
   147
1040
0.0
1070
   173
1070
     1
1070
   176
1070
     4
1070
   177
1070
     4
1070
   178
1070
     7
1070
   271
1070
     1
1070
   277
1070
     2
1070
   279
1070
     2
1070
   280
1070
     0
1070
   287
1070
     5
1070
   340
1005
4AE
1002
}
  0
DIMENSION
  5
4CA
330
1F
100
AcDbEntity
  8
LAY-20
  6
CONTINUOUS
 62
     4
100
AcDbDimension
  2
*D29
 10
2041.6015151901
 20
1381.4631582256
 30
0.0
 11
2016.6015151901
 21
1731.46315822555
 31
0.0
 70
   160
  3
ISO-25
100
AcDbAlignedDimension
 13
1941.6015151901
 23
2081.4631582255
 33
0.0
 14
1941.6015151901
 24
1381.4631582256
 34
0.0
 50
90.0
100
AcDbRotatedDimension
1001
ACAD
1000
DSTYLE
1002
{
1070
   270
1070
     2
1070
     6
1000
EX_BNORM
1070
     7
1000
EX_BNORM
1070
    41
1040
25.0
1070
    42
1040
15.0
1070
    44
1040
15.0
1070
    73
1070
     0
1070
    74
1070
     0
1070
    75
1070
     0
1070
    76
1070
     0
1070
    77
1070
     1
1070
    78
1070
     8
1070
   140
1040
31.181104
1070
   147
1040
0.0
1070
   173
1070
     1
1070
   176
1070
     4
1070
   177
1070
     4
1070
   178
1070
     7
1070
   271
1070
     1
1070
   277
1070
     2
1070
   279
1070
     2
1070
   280
1070
     0
1070
   287
1070
     5
1070
   340
1005
4AE
1002
}
  0
DIMENSION
  5
4D7
330
1F
100
AcDbEntity
  8
LAY-20
  6
CONTINUOUS
 62
     4
100
AcDbDimension
  2
*D30
 10
2111.601515190101
 20
1298.2631582256
 30
0.0
 11
2086.601515190101
 21
1731.4631582256
 31
0.0
 70
   160
  3
ISO-25
100
AcDbAlignedDimension
 13
1865.3015151901
 23
2164.6631582256
 33
0.0
 14
1865.3015151901
 24
1298.2631582256
 34
0.0
 50
90.0
100
AcDbRotatedDimension
1001
ACAD
1000
DSTYLE
1002
{
1070
   270
1070
     2
1070
     6
1000
EX_BNORM
1070
     7
1000
EX_BNORM
1070
    41
1040
25.0
1070
    42
1040
15.0
1070
    44
1040
15.0
1070
    73
1070
     0
1070
    74
1070
     0
1070
    75
1070
     0
1070
    76
1070
     0
1070
    77
1070
     1
1070
    78
1070
     0
1070
   140
1040
31.181104
1070
   147
1040
0.0
1070
   173
1070
     1
1070
   176
1070
     4
1070
   177
1070
     4
1070
   178
1070
     7
1070
   271
1070
     0
1070
   277
1070
     2
1070
   279
1070
     2
1070
   280
1070
     0
1070
   287
1070
     5
1070
   340
1005
4AE
1002
}
  0
DIMENSION
  5
4E4
330
1F
100
AcDbEntity
  8
LAY-20
  6
CONTINUOUS
 62
     4
100
AcDbDimension
  2
*D31
 10
1443.0
 20
1057.5139020332
 30
0.0
 11
1037.999999999995
 21
1082.5139020332
 31
0.0
 70
   160
  3
ISO-25
100
AcDbAlignedDimension
 13
632.9999999999905
 23
887.5139020331071
 33
0.0
 14
1443.0
 24
887.5139020331071
 34
0.0
100
AcDbRotatedDimension
1001
ACAD
1000
DSTYLE
1002
{
1070
   270
1070
     2
1070
     6
1000
EX_BNORM
1070
     7
1000
EX_BNORM
1070
    41
1040
25.0
1070
    42
1040
15.0
1070
    44
1040
15.0
1070
    73
1070
     0
1070
    74
1070
     0
1070
    75
1070
     0
1070
    76
1070
     0
1070
    77
1070
     1
1070
    78
1070
     8
1070
   140
1040
31.181104
1070
   147
1040
0.0
1070
   173
1070
     1
1070
   176
1070
     4
1070
   177
1070
     4
1070
   178
1070
     7
1070
   271
1070
     1
1070
   277
1070
     2
1070
   279
1070
     2
1070
   280
1070
     0
1070
   287
1070
     5
1070
   340
1005
4AE
1002
}
  0
DIMENSION
  5
4F1
330
1F
100
AcDbEntity
  8
LAY-20
  6
CONTINUOUS
 62
     4
100
AcDbDimension
  2
*D32
 10
648.9999999999759
 20
987.5139020331603
 30
0.0
 11
842.9999999999758
 21
1012.51390203316
 31
0.0
 70
   160
  3
ISO-25
100
AcDbAlignedDimension
 13
1036.999999999975
 23
887.5139020331562
 33
0.0
 14
648.9999999999759
 24
887.5139020331562
 34
0.0
100
AcDbRotatedDimension
1001
ACAD
1000
DSTYLE
1002
{
1070
   270
1070
     2
1070
     6
1000
EX_BNORM
1070
     7
1000
EX_BNORM
1070
    41
1040
25.0
1070
    42
1040
15.0
1070
    44
1040
15.0
1070
    73
1070
     0
1070
    74
1070
     0
1070
    75
1070
     0
1070
    76
1070
     0
1070
    77
1070
     1
1070
    78
1070
     8
1070
   140
1040
31.181104
1070
   147
1040
0.0
1070
   173
1070
     1
1070
   176
1070
     4
1070
   177
1070
     4
1070
   178
1070
     7
1070
   271
1070
     1
1070
   277
1070
     2
1070
   279
1070
     2
1070
   280
1070
     0
1070
   287
1070
     5
1070
   340
1005
4AE
1002
}
  0
DIMENSION
  5
4FE
330
1F
100
AcDbEntity
  8
LAY-20
  6
CONTINUOUS
 62
     4
100
AcDbDimension
  2
*D33
 10
1388.0
 20
667.5139020331603
 30
0.0
 11
1038.0
 21
692.5139020331603
 31
0.0
 70
   160
  3
ISO-25
100
AcDbAlignedDimension
 13
688.0000000000002
 23
767.5139020331071
 33
0.0
 14
1388.0
 24
767.5139020331071
 34
0.0
100
AcDbRotatedDimension
1001
ACAD
1000
DSTYLE
1002
{
1070
   270
1070
     2
1070
     6
1000
EX_BNORM
1070
     7
1000
EX_BNORM
1070
    41
1040
25.0
1070
    42
1040
15.0
1070
    44
1040
15.0
1070
    73
1070
     0
1070
    74
1070
     0
1070
    75
1070
     0
1070
    76
1070
     0
1070
    77
1070
     1
1070
    78
1070
     8
1070
   140
1040
31.181104
1070
   147
1040
0.0
1070
   173
1070
     1
1070
   176
1070
     4
1070
   177
1070
     4
1070
   178
1070
     7
1070
   271
1070
     1
1070
   277
1070
     2
1070
   279
1070
     2
1070
   280
1070
     0
1070
   287
1070
     5
1070
   340
1005
4AE
1002
}
  0
DIMENSION
  5
50B
330
1F
100
AcDbEntity
  8
LAY-20
  6
CONTINUOUS
 62
     4
100
AcDbDimension
  2
*D34
 10
1570.4999999999
 20
797.5139020331071
 30
0.0
 11
1545.499999999901
 21
842.5139020331071
 31
0.0
 70
   160
  3
ISO-25
100
AcDbAlignedDimension
 13
1443.0
 23
887.5139020331071
 33
0.0
 14
1431.2
 24
797.5139020331071
 34
0.0
 50
90.0
100
AcDbRotatedDimension
1001
ACAD
1000
DSTYLE
1002
{
1070
   270
1070
     2
1070
     6
1000
EX_BNORM
1070
     7
1000
EX_BNORM
1070
    41
1040
25.0
1070
    42
1040
15.0
1070
    44
1040
15.0
1070
    73
1070
     0
1070
    74
1070
     0
1070
    75
1070
     0
1070
    76
1070
     0
1070
    77
1070
     1
1070
    78
1070
     8
1070
   140
1040
31.181104
1070
   147
1040
0.0
1070
   173
1070
     1
1070
   176
1070
     4
1070
   177
1070
     4
1070
   178
1070
     7
1070
   271
1070
     1
1070
   277
1070
     2
1070
   279
1070
     2
1070
   280
1070
     0
1070
   287
1070
     5
1070
   340
1005
4AE
1002
}
  0
DIMENSION
  5
518
330
1F
100
AcDbEntity
  8
LAY-20
  6
CONTINUOUS
 62
     4
100
AcDbDimension
  2
*D35
 10
1434.2
 20
597.5139020331599
 30
0.0
 11
1037.99999999999
 21
622.5139020331599
 31
0.0
 70
   160
  3
ISO-25
100
AcDbAlignedDimension
 13
641.7999999999802
 23
800.5139020331603
 33
0.0
 14
1434.2
 24
800.5139020331603
 34
0.0
100
AcDbRotatedDimension
1001
ACAD
1000
DSTYLE
1002
{
1070
   270
1070
     2
1070
     6
1000
EX_BNORM
1070
     7
1000
EX_BNORM
1070
    41
1040
25.0
1070
    42
1040
15.0
1070
    44
1040
15.0
1070
    73
1070
     0
1070
    74
1070
     0
1070
    75
1070
     0
1070
    76
1070
     0
1070
    77
1070
     1
1070
    78
1070
     0
1070
   140
1040
31.181104
1070
   147
1040
0.0
1070
   173
1070
     1
1070
   176
1070
     4
1070
   177
1070
     4
1070
   178
1070
     7
1070
   271
1070
     0
1070
   277
1070
     2
1070
   279
1070
     2
1070
   280
1070
     0
1070
   287
1070
     5
1070
   340
1005
4AE
1002
}
  0
DIMENSION
  5
525
330
1F
100
AcDbEntity
  8
LAY-20
  6
CONTINUOUS
 62
     4
100
AcDbDimension
  2
*D36
 10
1324.0
 20
887.5139020330801
 30
0.0
 11
1299.0
 21
952.5139020330796
 31
0.0
 70
   160
  3
ISO-25
100
AcDbAlignedDimension
 13
1324.0
 23
883.01390203308
 33
0.0
 14
1324.0
 24
887.5139020330801
 34
0.0
 50
90.0
100
AcDbRotatedDimension
1001
ACAD
1000
DSTYLE
1002
{
1070
   270
1070
     2
1070
     6
1000
EX_BNORM
1070
     7
1000
EX_BNORM
1070
    41
1040
25.0
1070
    42
1040
0.0
1070
    44
1040
0.0
1070
    73
1070
     0
1070
    74
1070
     0
1070
    75
1070
     1
1070
    76
1070
     1
1070
    77
1070
     1
1070
    78
1070
     8
1070
   140
1040
31.181104
1070
   147
1040
0.0
1070
   173
1070
     1
1070
   176
1070
     4
1070
   177
1070
     4
1070
   178
1070
     7
1070
   271
1070
     1
1070
   277
1070
     2
1070
   279
1070
     2
1070
   280
1070
     2
1070
   287
1070
     5
1070
   340
1005
4AE
1002
}
  0
LINE
  5
532
330
1F
100
AcDbEntity
  8
LAY-255
  6
CONTINUOUS
 62
     7
100
AcDbLine
 10
3850.0
 20
219.9999999999999
 30
0.0
 11
2850.0
 21
219.9999999999999
 31
0.0
  0
LINE
  5
533
330
1F
100
AcDbEntity
  8
LAY-255
  6
CONTINUOUS
 62
     7
100
AcDbLine
 10
2888.0
 20
160.0
 30
0.0
 11
2968.0
 21
210.0
 31
0.0
  0
LINE
  5
534
330
1F
100
AcDbEntity
  8
LAY-255
  6
CONTINUOUS
 62
     7
100
AcDbLine
 10
2968.0
 20
210.0
 30
0.0
 11
3048.0
 21
160.0
 31
0.0
  0
LINE
  5
535
330
1F
100
AcDbEntity
  8
LAY-255
  6
CONTINUOUS
 62
     7
100
AcDbLine
 10
3048.0
 20
160.0
 30
0.0
 11
2968.0
 21
110.0
 31
0.0
  0
LINE
  5
536
330
1F
100
AcDbEntity
  8
LAY-255
  6
CONTINUOUS
 62
     7
100
AcDbLine
 10
2968.0
 20
110.0
 30
0.0
 11
2888.0
 21
160.0
 31
0.0
  0
LINE
  5
537
330
1F
100
AcDbEntity
  8
LAY-255
  6
CONTINUOUS
 62
     7
100
AcDbLine
 10
50.0
 20
100.0
 30
0.0
 11
3850.0
 21
100.0
 31
0.0
  0
LINE
  5
538
330
1F
100
AcDbEntity
  8
LAY-255
  6
CONTINUOUS
 62
     7
100
AcDbLine
 10
50.0
 20
2800.0
 30
0.0
 11
3850.0
 21
2800.0
 31
0.0
  0
LINE
  5
539
330
1F
100
AcDbEntity
  8
LAY-255
  6
CONTINUOUS
 62
     7
100
AcDbLine
 10
50.0
 20
100.0
 30
0.0
 11
50.0
 21
2800.0
 31
0.0
  0
LINE
  5
53A
330
1F
100
AcDbEntity
  8
LAY-255
  6
CONTINUOUS
 62
     7
100
AcDbLine
 10
3850.0
 20
100.0
 30
0.0
 11
3850.0
 21
2800.0
 31
0.0
  0
LINE
  5
53B
330
1F
100
AcDbEntity
  8
LAY-255
  6
CONTINUOUS
 62
     4
100
AcDbLine
 10
2850.0
 20
279.9999999999999
 30
0.0
 11
3850.0
 21
279.9999999999999
 31
0.0
  0
LINE
  5
53C
330
1F
100
AcDbEntity
  8
LAY-255
  6
CONTINUOUS
 62
     7
100
AcDbLine
 10
2850.0
 20
100.0
 30
0.0
 11
2850.0
 21
670.0
 31
0.0
  0
POINT
  5
53D
330
1F
100
AcDbEntity
  8
LAY-255
  6
CONTINUOUS
 62
     7
100
AcDbPoint
 10
2890.0
 20
399.9999999999999
 30
0.0
  0
LINE
  5
53E
330
1F
100
AcDbEntity
  8
LAY-255
  6
CONTINUOUS
 62
     4
100
AcDbLine
 10
3350.0
 20
279.9999999999999
 30
0.0
 11
3350.0
 21
220.0
 31
0.0
  0
LINE
  5
53F
330
1F
100
AcDbEntity
  8
LAY-255
  6
CONTINUOUS
 62
     7
100
AcDbLine
 10
3850.0
 20
670.0
 30
0.0
 11
2850.0
 21
670.0
 31
0.0
  0
LINE
  5
540
330
1F
100
AcDbEntity
  8
LAY-255
  6
CONTINUOUS
 62
     4
100
AcDbLine
 10
3830.0
 20
549.9999999999999
 30
0.0
 11
2870.0
 21
549.9999999999999
 31
0.0
  0
LINE
  5
541
330
1F
100
AcDbEntity
  8
LAY-255
  6
CONTINUOUS
 62
     4
100
AcDbLine
 10
3830.0
 20
610.0
 30
0.0
 11
2870.0
 21
610.0
 31
0.0
  0
POINT
  5
542
330
1F
100
AcDbEntity
  8
LAY-255
  6
CONTINUOUS
 62
     7
100
AcDbPoint
 10
2890.0
 20
499.9999999999999
 30
0.0
  0
POINT
  5
543
330
1F
100
AcDbEntity
  8
LAY-255
  6
CONTINUOUS
 62
     7
100
AcDbPoint
 10
3000.0
 20
559.9999999999999
 30
0.0
  0
POINT
  5
544
330
1F
100
AcDbEntity
  8
LAY-255
  6
CONTINUOUS
 62
     7
100
AcDbPoint
 10
3000.0
 20
620.0
 30
0.0
  0
POINT
  5
545
330
1F
100
AcDbEntity
  8
LAY-255
  6
CONTINUOUS
 62
     7
100
AcDbPoint
 10
2890.0
 20
349.9999999999999
 30
0.0
  0
POINT
  5
546
330
1F
100
AcDbEntity
  8
LAY-255
  6
CONTINUOUS
 62
     7
100
AcDbPoint
 10
2890.0
 20
449.9999999999999
 30
0.0
  0
POINT
  5
547
330
1F
100
AcDbEntity
  8
LAY-255
  6
CONTINUOUS
 62
     7
100
AcDbPoint
 10
2890.0
 20
299.9999999999998
 30
0.0
  0
TEXT
  5
548
330
1F
100
AcDbEntity
  8
LAY-255
  6
CONTINUOUS
 62
     7
100
AcDbText
 10
3081.3837890625
 20
155.4375
 30
0.0
 40
51.5625
  1
福西鋳物株式会社
 41
1.342691999659091
  7
EXCADSTD
100
AcDbText
  0
TEXT
  5
549
330
1F
100
AcDbEntity
  8
LAY-255
  6
CONTINUOUS
 62
     7
100
AcDbText
 10
3085.09375
 20
119.8125
 30
0.0
 40
17.1875
  1
ＦＵＫＵＮＩＳＨＩ
 41
1.204799226045263
  7
EXCADSTD
100
AcDbText
  0
TEXT
  5
54A
330
1F
100
AcDbEntity
  8
LAY-255
  6
CONTINUOUS
 62
     7
100
AcDbText
 10
3327.191964285714
 20
119.8125
 30
0.0
 40
17.1875
  1
ＦＯＵＮＤＲＹ
 41
1.243252752978497
  7
EXCADSTD
100
AcDbText
  0
TEXT
  5
54B
330
1F
100
AcDbEntity
  8
LAY-255
  6
CONTINUOUS
 62
     7
100
AcDbText
 10
3519.945914381009
 20
119.8125
 30
0.0
 40
17.1875
  1
ＣＯ.,ＬＴＤ.
 41
1.243831036226633
  7
EXCADSTD
100
AcDbText
  0
TEXT
  5
54C
330
1F
100
AcDbEntity
  8
LAY-255
  6
CONTINUOUS
 62
     7
100
AcDbText
 10
2940.34375
 20
137.1875
 30
0.0
 40
51.5625
  1
S
 41
0.7582677563636363
  7
EXCADSTD
100
AcDbText
  0
TEXT
  5
54D
330
1F
100
AcDbEntity
  8
LAY-255
  6
CONTINUOUS
 62
     7
100
AcDbText
 10
2971.046875
 20
137.4941037736
 30
0.0
 40
51.5625
  1
F
 41
0.7440945272727272
  7
EXCADSTD
100
AcDbText
  0
TEXT
  5
54E
330
1F
100
AcDbEntity
  8
LAY-255
  6
CONTINUOUS
 62
     7
100
AcDbText
 10
3371.0546875
 20
244.2187499999999
 30
0.0
 40
25.78125
  1
縮尺
 41
1.080708718181818
  7
EXCADSTD
100
AcDbText
  0
TEXT
  5
54F
330
1F
100
AcDbEntity
  8
LAY-255
  6
CONTINUOUS
 62
     7
100
AcDbText
 10
2872.65625
 20
565.6249999999999
 30
0.0
 40
34.375
  1
型式
 41
1.056348480681818
  7
EXCADSTD
100
AcDbText
  0
TEXT
  5
550
330
1F
100
AcDbEntity
  8
LAY-255
  6
CONTINUOUS
 62
     7
100
AcDbText
 10
2874.21875
 20
625.625
 30
0.0
 40
34.375
  1
品名
 41
0.9788386340909091
  7
EXCADSTD
100
AcDbText
  0
TEXT
  5
551
330
1F
100
AcDbEntity
  8
LAY-255
  6
CONTINUOUS
 62
     7
100
AcDbText
 10
2871.5234375
 20
244.2187499999999
 30
0.0
 40
25.78125
  1
作成日
 41
1.000629973818182
  7
EXCADSTD
100
AcDbText
  0
TEXT
  5
552
330
1F
100
AcDbEntity
  8
LAY-255
  6
CONTINUOUS
 62
     7
100
AcDbText
 10
2891.40625
 20
505.6249999999999
 30
0.0
 40
34.375
  1
材質：スチール
 41
1.029301719225037
  7
EXCADSTD
100
AcDbText
  0
TEXT
  5
553
330
1F
100
AcDbEntity
  8
LAY-255
  6
CONTINUOUS
 62
     7
100
AcDbText
 10
2892.03125
 20
405.6249999999999
 30
0.0
 40
34.375
  1
適用荷重：歩行用
 41
1.015410627012987
  7
EXCADSTD
100
AcDbText
  0
TEXT
  5
554
330
1F
100
AcDbEntity
  8
LAY-255
  6
CONTINUOUS
 62
     7
100
AcDbText
 10
2893.75
 20
455.6249999999999
 30
0.0
 40
34.375
  1
受枠目地：ステンレス鋼
 41
1.012216953889409
  7
EXCADSTD
100
AcDbText
  0
TEXT
  5
555
330
1F
100
AcDbEntity
  8
LAY-255
  6
CONTINUOUS
 62
     7
100
AcDbText
 10
3007.5
 20
565.6249999999999
 30
0.0
 40
34.375
  1
ＳＦ－７０ＣＭＰ－１型
 41
1.0041805868791
  7
EXCADSTD
100
AcDbText
  0
TEXT
  5
556
330
1F
100
AcDbEntity
  8
LAY-255
  6
CONTINUOUS
 62
     7
100
AcDbText
 10
3001.5625
 20
625.625
 30
0.0
 40
34.375
  1
縞鋼板製マシンハッチ
 41
1.016284949586777
  7
EXCADSTD
100
AcDbText
  0
TEXT
  5
557
330
1F
100
AcDbEntity
  8
LAY-255
  6
CONTINUOUS
 62
     7
100
AcDbText
 10
3008.90625
 20
235.6249999999999
 30
0.0
 40
34.375
  1
０９／０３／０５
 41
0.9779528072727273
  7
EXCADSTD
100
AcDbText
  0
TEXT
  5
558
330
1F
100
AcDbEntity
  8
LAY-255
  6
CONTINUOUS
 62
     7
100
AcDbText
 10
3482.8125
 20
235.6249999999999
 30
0.0
 40
34.375
  1
１：１０
 41
0.9243863385026738
  7
EXCADSTD
100
AcDbText
  0
ENDSEC
  0
SECTION
  2
OBJECTS
  0
DICTIONARY
  5
C
330
0
100
AcDbDictionary
  3
ACAD_GROUP
350
D
  3
ACAD_LAYOUT
350
1A
  3
ACAD_MATERIAL
350
43
  3
ACAD_MLEADERSTYLE
350
6B
  3
ACAD_MLINESTYLE
350
17
  3
ACAD_PLOTSETTINGS
350
19
  3
ACAD_SCALELIST
350
47
  3
ACAD_VISUALSTYLE
350
2A
  3
ACDBHEADERROUNDTRIPXREC
350
559
  3
ACDBVARIABLEDICTIONARY
350
57A
  0
DICTIONARY
  5
585
330
8
100
AcDbDictionary
280
     1
  3
ACAD_XREC_ROUNDTRIP
360
586
  0
DICTIONARY
  5
D
102
{ACAD_REACTORS
330
C
102
}
330
C
100
AcDbDictionary
  0
DICTIONARY
  5
1A
102
{ACAD_REACTORS
330
C
102
}
330
C
100
AcDbDictionary
  0
DICTIONARY
  5
43
102
{ACAD_REACTORS
330
C
102
}
330
C
100
AcDbDictionary
  3
BYBLOCK
350
45
  3
BYLAYER
350
44
  3
GLOBAL
350
46
  0
DICTIONARY
  5
6B
102
{ACAD_REACTORS
330
C
102
}
330
C
100
AcDbDictionary
  3
STANDARD
350
6C
  0
DICTIONARY
  5
17
102
{ACAD_REACTORS
330
C
102
}
330
C
100
AcDbDictionary
  3
STANDARD
350
18
  0
DICTIONARY
  5
19
102
{ACAD_REACTORS
330
C
102
}
330
C
100
AcDbDictionary
  0
DICTIONARY
  5
47
102
{ACAD_REACTORS
330
C
102
}
330
C
100
AcDbDictionary
  3
A0
350
48
  3
A1
350
49
  3
A2
350
4A
  3
A3
350
4B
  3
A4
350
4C
  3
A5
350
4D
  3
A6
350
4E
  3
A7
350
4F
  3
A8
350
50
  3
A9
350
51
  3
B0
350
52
  3
B1
350
53
  3
B2
350
54
  3
B3
350
55
  3
B4
350
56
  3
B5
350
57
  3
B6
350
58
  3
B7
350
59
  3
B8
350
5A
  3
B9
350
5B
  3
C0
350
5C
  3
C1
350
5D
  3
C2
350
5E
  3
C3
350
5F
  3
C4
350
60
  3
C5
350
61
  3
C6
350
62
  3
C7
350
63
  3
C8
350
64
  3
C9
350
65
  3
D0
350
66
  3
D1
350
67
  3
D2
350
68
  0
DICTIONARY
  5
2A
102
{ACAD_REACTORS
330
C
102
}
330
C
100
AcDbDictionary
  3
2DWIREFRAME
350
2F
  3
BASIC
350
32
  3
BRIGHTEN
350
36
  3
COLORCHANGE
350
3A
  3
CONCEPTUAL
350
34
  3
DIM
350
35
  3
EDGECOLOROFF
350
3D
  3
FACEPATTERN
350
39
  3
FLAT
350
2B
  3
FLATWITHEDGES
350
2C
  3
GOURAUD
350
2D
  3
GOURAUDWITHEDGES
350
2E
  3
HIDDEN
350
31
  3
JITTEROFF
350
3B
  3
LINEPATTERN
350
38
  3
OVERHANGOFF
350
3C
  3
REALISTIC
350
33
  3
SHADED
350
42
  3
SHADED_WITH_EDGES
350
41
  3
SHADES_OF_GRAY
350
3E
  3
SKETCHY
350
3F
  3
THICKEN
350
37
  3
WIREFRAME
350
30
  3
X-RAY
350
40
  0
DICTIONARY
  5
559
102
{ACAD_REACTORS
330
C
102
}
330
C
100
AcDbDictionary
  3
CEPSNID
350
563
  3
CEPSNTYPE
350
562
  3
DIMSTYLEDATA
350
579
  3
FINGERPRINTGUID
350
564
  3
HYPERLINKBASE
350
55C
  3
INSUNITS
350
561
  3
LAYOUTDICT
350
55E
  3
LWETCUNION
350
560
  3
PLOTSETDICT
350
55F
  3
PSVPSCALE
350
566
  3
PUCSBASE
350
569
  3
PUCSORGBACK
350
56F
  3
PUCSORGBOTTOM
350
56B
  3
PUCSORGFRONT
350
56E
  3
PUCSORGLEFT
350
56C
  3
PUCSORGRIGHT
350
56D
  3
PUCSORGTOP
350
56A
  3
PUCSORTHOREF
350
567
  3
PUCSORTHOVIEW
350
568
  3
STYLESHEET
350
55D
  3
TSTACKALIGN
350
55A
  3
TSTACKSIZE
350
55B
  3
UCSBASE
350
572
  3
UCSORGBACK
350
578
  3
UCSORGBOTTOM
350
574
  3
UCSORGFRONT
350
577
  3
UCSORGLEFT
350
575
  3
UCSORGRIGHT
350
576
  3
UCSORGTOP
350
573
  3
UCSORTHOREF
350
570
  3
UCSORTHOVIEW
350
571
  3
VERSIONGUID
350
565
  0
DICTIONARY
  5
57A
102
{ACAD_REACTORS
330
C
102
}
330
C
100
AcDbDictionary
  3
CANNOSCALE
350
587
  3
CENTEREXE
350
581
  3
CENTERLTYPEFILE
350
582
  3
CMLEADERSTYLE
350
57C
  3
CTABLESTYLE
350
57B
  3
DIMASSOC
350
583
  3
HIDETEXT
350
584
  3
MSLTSCALE
350
588
  3
PSOLHEIGHT
350
57E
  3
PSOLWIDTH
350
57D
  0
XRECORD
  5
586
102
{ACAD_REACTORS
330
585
102
}
330
585
100
AcDbXrecord
102
VTR_0.000_0.000_1.000_1.000_VISUALSTYLE
340
2F
102
VTR_0.000_0.000_1.000_1.000_GRIDDISPLAY
 70
     3
102
VTR_0.000_0.000_1.000_1.000_GRIDMAJOR
 70
     5
102
VTR_0.000_0.000_1.000_1.000_DEFAULTLIGHTING
280
     1
102
VTR_0.000_0.000_1.000_1.000_DEFAULTLIGHTINGTYPE
 70
     1
102
VTR_0.000_0.000_1.000_1.000_BRIGHTNESS
141
0.0
102
VTR_0.000_0.000_1.000_1.000_CONTRAST
142
0.0
  0
MATERIAL
  5
45
102
{ACAD_REACTORS
330
43
102
}
102
{ACAD_XDICTIONARY
360
58B
102
}
330
43
100
AcDbMaterial
  1
BYBLOCK
  0
MATERIAL
  5
44
102
{ACAD_REACTORS
330
43
102
}
102
{ACAD_XDICTIONARY
360
589
102
}
330
43
100
AcDbMaterial
  1
BYLAYER
  0
MATERIAL
  5
46
102
{ACAD_REACTORS
330
43
102
}
102
{ACAD_XDICTIONARY
360
58D
102
}
330
43
100
AcDbMaterial
  1
GLOBAL
  0
ACAD_PROXY_OBJECT
  5
6C
102
{ACAD_REACTORS
330
6B
102
}
330
6B
100
AcDbProxyObject
 90
      499
 91
      505
 93
      610
310
40901902A4063FBFFFFFE0000000000000020400000000000020404214DD185B99185C990000000000000104090141901A00000000000004100000000000000041025764000000000000039000
340
14
340
0
340
11
340
0
 94
        0
1001
ACAD_MLEADERVER
1070
     2
  0
MLINESTYLE
  5
18
102
{ACAD_REACTORS
330
17
102
}
330
17
100
AcDbMlineStyle
  2
Standard
 70
     0
  3

 62
   256
 51
90.0
 52
90.0
 71
     2
 49
0.5
 62
   256
  6
BYLAYER
 49
-0.5
 62
   256
  6
BYLAYER
  0
ACAD_PROXY_OBJECT
  5
48
102
{ACAD_REACTORS
330
47
102
}
330
47
100
AcDbProxyObject
 90
      499
 91
      503
 93
       41
310
903313A31580
  0
ACAD_PROXY_OBJECT
  5
49
102
{ACAD_REACTORS
330
47
102
}
330
47
100
AcDbProxyObject
 90
      499
 91
      503
 93
      105
310
903313A324000000000000004000
  0
ACAD_PROXY_OBJECT
  5
4A
102
{ACAD_REACTORS
330
47
102
}
330
47
100
AcDbProxyObject
 90
      499
 91
      503
 93
      105
310
903313A344000000000000104000
  0
ACAD_PROXY_OBJECT
  5
4B
102
{ACAD_REACTORS
330
47
102
}
330
47
100
AcDbProxyObject
 90
      499
 91
      503
 93
      105
310
903313A354000000000000144000
  0
ACAD_PROXY_OBJECT
  5
4C
102
{ACAD_REACTORS
330
47
102
}
330
47
100
AcDbProxyObject
 90
      499
 91
      503
 93
      105
310
903313A384000000000000204000
  0
ACAD_PROXY_OBJECT
  5
4D
102
{ACAD_REACTORS
330
47
102
}
330
47
100
AcDbProxyObject
 90
      499
 91
      503
 93
      113
310
904313A31304000000000000244000
  0
ACAD_PROXY_OBJECT
  5
4E
102
{ACAD_REACTORS
330
47
102
}
330
47
100
AcDbProxyObject
 90
      499
 91
      503
 93
      113
310
904313A31364000000000000304000
  0
ACAD_PROXY_OBJECT
  5
4F
102
{ACAD_REACTORS
330
47
102
}
330
47
100
AcDbProxyObject
 90
      499
 91
      503
 93
      113
310
904313A32304000000000000344000
  0
ACAD_PROXY_OBJECT
  5
50
102
{ACAD_REACTORS
330
47
102
}
330
47
100
AcDbProxyObject
 90
      499
 91
      503
 93
      113
310
904313A333040000000000003E4000
  0
ACAD_PROXY_OBJECT
  5
51
102
{ACAD_REACTORS
330
47
102
}
330
47
100
AcDbProxyObject
 90
      499
 91
      503
 93
      113
310
904313A34304000000000000444000
  0
ACAD_PROXY_OBJECT
  5
52
102
{ACAD_REACTORS
330
47
102
}
330
47
100
AcDbProxyObject
 90
      499
 91
      503
 93
      113
310
904313A35304000000000000494000
  0
ACAD_PROXY_OBJECT
  5
53
102
{ACAD_REACTORS
330
47
102
}
330
47
100
AcDbProxyObject
 90
      499
 91
      503
 93
      121
310
905313A3130304000000000000594000
  0
ACAD_PROXY_OBJECT
  5
54
102
{ACAD_REACTORS
330
47
102
}
330
47
100
AcDbProxyObject
 90
      499
 91
      503
 93
      105
310
903323A310000000000000010100
  0
ACAD_PROXY_OBJECT
  5
55
102
{ACAD_REACTORS
330
47
102
}
330
47
100
AcDbProxyObject
 90
      499
 91
      503
 93
      105
310
903343A310000000000000410100
  0
ACAD_PROXY_OBJECT
  5
56
102
{ACAD_REACTORS
330
47
102
}
330
47
100
AcDbProxyObject
 90
      499
 91
      503
 93
      105
310
903383A310000000000000810100
  0
ACAD_PROXY_OBJECT
  5
57
102
{ACAD_REACTORS
330
47
102
}
330
47
100
AcDbProxyObject
 90
      499
 91
      503
 93
      113
310
90431303A310000000000000910100
  0
ACAD_PROXY_OBJECT
  5
58
102
{ACAD_REACTORS
330
47
102
}
330
47
100
AcDbProxyObject
 90
      499
 91
      503
 93
      121
310
9053130303A310000000000001650100
  0
ACAD_PROXY_OBJECT
  5
59
102
{ACAD_REACTORS
330
47
102
}
330
47
100
AcDbProxyObject
 90
      499
 91
      503
 93
      257
310
90E312F31323822203D2031272D3022000000000000200FC000000000000284000
  0
ACAD_PROXY_OBJECT
  5
5A
102
{ACAD_REACTORS
330
47
102
}
330
47
100
AcDbProxyObject
 90
      499
 91
      503
 93
      249
310
90D312F363422203D2031272D3022000000000000240FC000000000000284000
  0
ACAD_PROXY_OBJECT
  5
5B
102
{ACAD_REACTORS
330
47
102
}
330
47
100
AcDbProxyObject
 90
      499
 91
      503
 93
      249
310
90D312F333222203D2031272D3022000000000000280FC000000000000284000
  0
ACAD_PROXY_OBJECT
  5
5C
102
{ACAD_REACTORS
330
47
102
}
330
47
100
AcDbProxyObject
 90
      499
 91
      503
 93
      249
310
90D312F313622203D2031272D30220000000000002C0FC000000000000284000
  0
ACAD_PROXY_OBJECT
  5
5D
102
{ACAD_REACTORS
330
47
102
}
330
47
100
AcDbProxyObject
 90
      499
 91
      503
 93
      249
310
90D332F333222203D2031272D30220000000000002E0FC000000000000284000
  0
ACAD_PROXY_OBJECT
  5
5E
102
{ACAD_REACTORS
330
47
102
}
330
47
100
AcDbProxyObject
 90
      499
 91
      503
 93
      241
310
90C312F3822203D2031272D3022000000000000300FC000000000000284000
  0
ACAD_PROXY_OBJECT
  5
5F
102
{ACAD_REACTORS
330
47
102
}
330
47
100
AcDbProxyObject
 90
      499
 91
      503
 93
      249
310
90D332F313622203D2031272D3022000000000000320FC000000000000284000
  0
ACAD_PROXY_OBJECT
  5
60
102
{ACAD_REACTORS
330
47
102
}
330
47
100
AcDbProxyObject
 90
      499
 91
      503
 93
      241
310
90C312F3422203D2031272D3022000000000000340FC000000000000284000
  0
ACAD_PROXY_OBJECT
  5
61
102
{ACAD_REACTORS
330
47
102
}
330
47
100
AcDbProxyObject
 90
      499
 91
      503
 93
      241
310
90C332F3822203D2031272D3022000000000000360FC000000000000284000
  0
ACAD_PROXY_OBJECT
  5
62
102
{ACAD_REACTORS
330
47
102
}
330
47
100
AcDbProxyObject
 90
      499
 91
      503
 93
      241
310
90C312F3222203D2031272D3022000000000000380FC000000000000284000
  0
ACAD_PROXY_OBJECT
  5
63
102
{ACAD_REACTORS
330
47
102
}
330
47
100
AcDbProxyObject
 90
      499
 91
      503
 93
      241
310
90C332F3422203D2031272D30220000000000003A0FC000000000000284000
  0
ACAD_PROXY_OBJECT
  5
64
102
{ACAD_REACTORS
330
47
102
}
330
47
100
AcDbProxyObject
 90
      499
 91
      503
 93
      161
310
90A3122203D2031272D30224000000000000284000
  0
ACAD_PROXY_OBJECT
  5
65
102
{ACAD_REACTORS
330
47
102
}
330
47
100
AcDbProxyObject
 90
      499
 91
      503
 93
      257
310
90E312D312F3222203D2031272D30220000000000003E0FC000000000000284000
  0
ACAD_PROXY_OBJECT
  5
66
102
{ACAD_REACTORS
330
47
102
}
330
47
100
AcDbProxyObject
 90
      499
 91
      503
 93
      225
310
90A3322203D2031272D302200000000000002100000000000000284000
  0
ACAD_PROXY_OBJECT
  5
67
102
{ACAD_REACTORS
330
47
102
}
330
47
100
AcDbProxyObject
 90
      499
 91
      503
 93
      225
310
90A3622203D2031272D302200000000000006100000000000000284000
  0
ACAD_PROXY_OBJECT
  5
68
102
{ACAD_REACTORS
330
47
102
}
330
47
100
AcDbProxyObject
 90
      499
 91
      503
 93
      249
310
90D31272D3022203D2031272D30220000000000000A100000000000000284000
  0
ACAD_PROXY_OBJECT
  5
2F
102
{ACAD_REACTORS
330
2A
102
}
330
2A
100
AcDbProxyObject
 90
      499
 91
      501
 93
      436
310
42CC9915DA5C99599C985B595049028333333333333E33F0000000000000F90107901411070040501600405405064090741402480A0340
1001
ACAD
1000
AcDbSavedByObjectVersion
1070
     0
  0
ACAD_PROXY_OBJECT
  5
32
102
{ACAD_REACTORS
330
2A
102
}
330
2A
100
AcDbProxyObject
 90
      499
 91
      501
 93
      388
310
4150985CDA58D07406404333333333333E33F0000000000000F90107A41107004050150841D405064090741402480A0350
1001
ACAD
1000
AcDbSavedByObjectVersion
1070
     0
  0
ACAD_PROXY_OBJECT
  5
36
102
{ACAD_REACTORS
330
2A
102
}
330
2A
100
AcDbProxyObject
 90
      499
 91
      501
 93
      428
310
42109C9A59DA1D195B90C409028333333333333E33F0000000000000F9010790141107004050150841D405064090741402480A029950
1001
ACAD
1000
AcDbSavedByObjectVersion
1070
     0
  0
ACAD_PROXY_OBJECT
  5
3A
102
{ACAD_REACTORS
330
2A
102
}
330
2A
100
AcDbProxyObject
 90
      499
 91
      501
 93
      452
310
42D0DBDB1BDC90DA185B99D95104090240C333333333333E33F0000000000000F90108901411070040501508421405064090741402480A0350
1001
ACAD
1000
AcDbSavedByObjectVersion
1070
     0
  0
ACAD_PROXY_OBJECT
  5
34
102
{ACAD_REACTORS
330
2A
102
}
330
2A
100
AcDbProxyObject
 90
      499
 91
      501
 93
      500
310
4290DBDB98D95C1D1D585B10940D028333333333333E33F0000000000000F90107902409070040501000000000018199010841D405064090740C02480A0340
1001
ACAD
1000
AcDbSavedByObjectVersion
1070
     0
  0
ACAD_PROXY_OBJECT
  5
35
102
{ACAD_REACTORS
330
2A
102
}
330
2A
100
AcDbProxyObject
 90
      499
 91
      501
 93
      412
310
40D11A5B50B409028333333333333E33F0000000000000F9010790141107004050150841D405064090741402480A02677FFFFFD0
1001
ACAD
1000
AcDbSavedByObjectVersion
1070
     0
  0
ACAD_PROXY_OBJECT
  5
3D
102
{ACAD_REACTORS
330
2A
102
}
330
2A
100
AcDbProxyObject
 90
      499
 91
      501
 93
      452
310
43115919D950DBDB1BDC93D999916409028333333333333E33F0000000000000F9010790141107004050150841D405064090741402480A0350
1001
ACAD
1000
AcDbSavedByObjectVersion
1070
     0
  0
ACAD_PROXY_OBJECT
  5
39
102
{ACAD_REACTORS
330
2A
102
}
330
2A
100
AcDbProxyObject
 90
      499
 91
      501
 93
      444
310
42D19858D95C185D1D195C9B90F409028333333333333E33F0000000000000F9010790141107004050150841D405064090741402480A0350
1001
ACAD
1000
AcDbSavedByObjectVersion
1070
     0
  0
ACAD_PROXY_OBJECT
  5
2B
102
{ACAD_REACTORS
330
2A
102
}
330
2A
100
AcDbProxyObject
 90
      499
 91
      501
 93
      380
310
41119B185D240901404333333333333E33F0000000000000F9010740A907004050150841D405064090741402480A1B50
1001
ACAD
1000
AcDbSavedByObjectVersion
1070
     0
  0
ACAD_PROXY_OBJECT
  5
2C
102
{ACAD_REACTORS
330
2A
102
}
330
2A
100
AcDbProxyObject
 90
      499
 91
      501
 93
      468
310
43519B185D15DA5D1A115919D95CD0140901404333333333333E33F0000000000000F90107409019070040501600405405064090741402480A1B50
1001
ACAD
1000
AcDbSavedByObjectVersion
1070
     0
  0
ACAD_PROXY_OBJECT
  5
2D
102
{ACAD_REACTORS
330
2A
102
}
330
2A
100
AcDbProxyObject
 90
      499
 91
      501
 93
      404
310
41D1DBDD5C985D5910240902404333333333333E33F0000000000000F9010740A9070040501641D405064090741402480A1B50
1001
ACAD
1000
AcDbSavedByObjectVersion
1070
     0
  0
ACAD_PROXY_OBJECT
  5
2E
102
{ACAD_REACTORS
330
2A
102
}
330
2A
100
AcDbProxyObject
 90
      499
 91
      501
 93
      492
310
4411DBDD5C985D5915DA5D1A115919D95CD0340902404333333333333E33F0000000000000F90107409019070040501600405405064090741402480A1B50
1001
ACAD
1000
AcDbSavedByObjectVersion
1070
     0
  0
ACAD_PROXY_OBJECT
  5
31
102
{ACAD_REACTORS
330
2A
102
}
330
2A
100
AcDbProxyObject
 90
      499
 91
      501
 93
      476
310
41921A5919195B90640502408333333333333E33F0000000000000F901079024090700405020000000000001110200405405064090740C02480A0340
1001
ACAD
1000
AcDbSavedByObjectVersion
1070
     0
  0
ACAD_PROXY_OBJECT
  5
3B
102
{ACAD_REACTORS
330
2A
102
}
330
2A
100
AcDbProxyObject
 90
      499
 91
      501
 93
      428
310
42529A5D1D195C93D999914409028333333333333E33F0000000000000F9010790141107004050150A41D405064090741402480A0350
1001
ACAD
1000
AcDbSavedByObjectVersion
1070
     0
  0
ACAD_PROXY_OBJECT
  5
38
102
{ACAD_REACTORS
330
2A
102
}
330
2A
100
AcDbProxyObject
 90
      499
 91
      501
 93
      444
310
42D31A5B995C185D1D195C9B90E409028333333333333E33F0000000000000F9010790141107004050750841D405064090741402483A0350
1001
ACAD
1000
AcDbSavedByObjectVersion
1070
     0
  0
ACAD_PROXY_OBJECT
  5
3C
102
{ACAD_REACTORS
330
2A
102
}
330
2A
100
AcDbProxyObject
 90
      499
 91
      501
 93
      444
310
42D3DD995C9A185B99D3D999915409028333333333333E33F0000000000000F9010790141107004050150941D405064090741402480A0350
1001
ACAD
1000
AcDbSavedByObjectVersion
1070
     0
  0
ACAD_PROXY_OBJECT
  5
33
102
{ACAD_REACTORS
330
2A
102
}
330
2A
100
AcDbProxyObject
 90
      499
 91
      501
 93
      428
310
425499585B1A5CDD1A58D08409038333333333333E33F0000000000000F9010740A907004050150800405405064090740C02480A1B40
1001
ACAD
1000
AcDbSavedByObjectVersion
1070
     0
  0
ACAD_PROXY_OBJECT
  5
42
102
{ACAD_REACTORS
330
2A
102
}
330
2A
100
AcDbProxyObject
 90
      499
 91
      501
 93
      420
310
4194DA1859195911B40902404333333333333E33F0000000000000F9010740A41107004050150800405405064090840C02480A0B40
1001
ACAD
1000
AcDbSavedByObjectVersion
1070
     0
  0
ACAD_PROXY_OBJECT
  5
41
102
{ACAD_REACTORS
330
2A
102
}
330
2A
100
AcDbProxyObject
 90
      499
 91
      501
 93
      516
310
4454DA18591959081DDA5D1A08195919D95CD1A40902404333333333333E33F0000000000000F901074090142907004050250800405405064090740C02480A0B40
1001
ACAD
1000
AcDbSavedByObjectVersion
1070
     0
  0
ACAD_PROXY_OBJECT
  5
3E
102
{ACAD_REACTORS
330
2A
102
}
330
2A
100
AcDbProxyObject
 90
      499
 91
      501
 93
      532
310
4394DA1859195CC81BD98811DC985E5174090240C333333333333E33F0000000000000F901079024090741D01000000000000111010841D405064090740C02480A0340
1001
ACAD
1000
AcDbSavedByObjectVersion
1070
     0
  0
ACAD_PROXY_OBJECT
  5
3F
102
{ACAD_REACTORS
330
2A
102
}
330
2A
100
AcDbProxyObject
 90
      499
 91
      501
 93
      476
310
41D4DAD95D18DA1E51840502408333333333333E33F0000000000000F901079024090741D01000000000000111010B41D405064090741802480A0340
1001
ACAD
1000
AcDbSavedByObjectVersion
1070
     0
  0
ACAD_PROXY_OBJECT
  5
37
102
{ACAD_REACTORS
330
2A
102
}
330
2A
100
AcDbProxyObject
 90
      499
 91
      501
 93
      412
310
41D51A1A58DAD95B90D409028333333333333E33F0000000000000F9010790141107004050150C41D405064090741402480A0350
1001
ACAD
1000
AcDbSavedByObjectVersion
1070
     0
  0
ACAD_PROXY_OBJECT
  5
30
102
{ACAD_REACTORS
330
2A
102
}
330
2A
100
AcDbProxyObject
 90
      499
 91
      501
 93
      420
310
4255DA5C99599C985B595059028333333333333E33F0000000000000F90107901411070040501600405405064090740C02480A0340
1001
ACAD
1000
AcDbSavedByObjectVersion
1070
     0
  0
ACAD_PROXY_OBJECT
  5
40
102
{ACAD_REACTORS
330
2A
102
}
330
2A
100
AcDbProxyObject
 90
      499
 91
      501
 93
      404
310
41560B54985E51940902404000000000000E03F0000000000000F9010740501907004050150841D405064090740C02480A1B40
1001
ACAD
1000
AcDbSavedByObjectVersion
1070
     0
  0
XRECORD
  5
563
102
{ACAD_REACTORS
330
559
102
}
330
559
100
AcDbXrecord
340
0
  0
XRECORD
  5
562
102
{ACAD_REACTORS
330
559
102
}
330
559
100
AcDbXrecord
 90
        0
  0
XRECORD
  5
579
102
{ACAD_REACTORS
330
559
102
}
330
559
100
AcDbXrecord
1000
DSTYLE
1002
{
1070
   340
340
11
1002
}
  0
XRECORD
  5
564
102
{ACAD_REACTORS
330
559
102
}
330
559
100
AcDbXrecord
  1
{0c5cc24f-bcfe-434d-ba70-25a769c206df}
  0
XRECORD
  5
55C
102
{ACAD_REACTORS
330
559
102
}
330
559
100
AcDbXrecord
  1

  0
XRECORD
  5
561
102
{ACAD_REACTORS
330
559
102
}
330
559
100
AcDbXrecord
 90
        4
  0
XRECORD
  5
55E
102
{ACAD_REACTORS
330
559
102
}
330
559
100
AcDbXrecord
340
1A
  0
XRECORD
  5
560
102
{ACAD_REACTORS
330
559
102
}
330
559
100
AcDbXrecord
 90
    10781
  0
XRECORD
  5
55F
102
{ACAD_REACTORS
330
559
102
}
330
559
100
AcDbXrecord
340
19
  0
XRECORD
  5
566
102
{ACAD_REACTORS
330
559
102
}
330
559
100
AcDbXrecord
 40
0.0
  0
XRECORD
  5
569
102
{ACAD_REACTORS
330
559
102
}
330
559
100
AcDbXrecord
340
0
  0
XRECORD
  5
56F
102
{ACAD_REACTORS
330
559
102
}
330
559
100
AcDbXrecord
 10
0.0
 20
0.0
 30
0.0
  0
XRECORD
  5
56B
102
{ACAD_REACTORS
330
559
102
}
330
559
100
AcDbXrecord
 10
0.0
 20
0.0
 30
0.0
  0
XRECORD
  5
56E
102
{ACAD_REACTORS
330
559
102
}
330
559
100
AcDbXrecord
 10
0.0
 20
0.0
 30
0.0
  0
XRECORD
  5
56C
102
{ACAD_REACTORS
330
559
102
}
330
559
100
AcDbXrecord
 10
0.0
 20
0.0
 30
0.0
  0
XRECORD
  5
56D
102
{ACAD_REACTORS
330
559
102
}
330
559
100
AcDbXrecord
 10
0.0
 20
0.0
 30
0.0
  0
XRECORD
  5
56A
102
{ACAD_REACTORS
330
559
102
}
330
559
100
AcDbXrecord
 10
0.0
 20
0.0
 30
0.0
  0
XRECORD
  5
567
102
{ACAD_REACTORS
330
559
102
}
330
559
100
AcDbXrecord
340
0
  0
XRECORD
  5
568
102
{ACAD_REACTORS
330
559
102
}
330
559
100
AcDbXrecord
 70
     0
  0
XRECORD
  5
55D
102
{ACAD_REACTORS
330
559
102
}
330
559
100
AcDbXrecord
  1

  0
XRECORD
  5
55A
102
{ACAD_REACTORS
330
559
102
}
330
559
100
AcDbXrecord
 90
        1
  0
XRECORD
  5
55B
102
{ACAD_REACTORS
330
559
102
}
330
559
100
AcDbXrecord
 90
       70
  0
XRECORD
  5
572
102
{ACAD_REACTORS
330
559
102
}
330
559
100
AcDbXrecord
340
0
  0
XRECORD
  5
578
102
{ACAD_REACTORS
330
559
102
}
330
559
100
AcDbXrecord
 10
0.0
 20
0.0
 30
0.0
  0
XRECORD
  5
574
102
{ACAD_REACTORS
330
559
102
}
330
559
100
AcDbXrecord
 10
0.0
 20
0.0
 30
0.0
  0
XRECORD
  5
577
102
{ACAD_REACTORS
330
559
102
}
330
559
100
AcDbXrecord
 10
0.0
 20
0.0
 30
0.0
  0
XRECORD
  5
575
102
{ACAD_REACTORS
330
559
102
}
330
559
100
AcDbXrecord
 10
0.0
 20
0.0
 30
0.0
  0
XRECORD
  5
576
102
{ACAD_REACTORS
330
559
102
}
330
559
100
AcDbXrecord
 10
0.0
 20
0.0
 30
0.0
  0
XRECORD
  5
573
102
{ACAD_REACTORS
330
559
102
}
330
559
100
AcDbXrecord
 10
0.0
 20
0.0
 30
0.0
  0
XRECORD
  5
570
102
{ACAD_REACTORS
330
559
102
}
330
559
100
AcDbXrecord
340
0
  0
XRECORD
  5
571
102
{ACAD_REACTORS
330
559
102
}
330
559
100
AcDbXrecord
 70
     0
  0
XRECORD
  5
565
102
{ACAD_REACTORS
330
559
102
}
330
559
100
AcDbXrecord
  1
{FAEB1C32-E019-11D5-929B-00C0DF256EC4}
  0
DICTIONARYVAR
  5
587
102
{ACAD_REACTORS
330
57A
102
}
330
57A
100
DictionaryVariables
280
     0
  1
1:1
  0
DICTIONARYVAR
  5
581
102
{ACAD_REACTORS
330
57A
102
}
330
57A
100
DictionaryVariables
280
     0
  1
3.500000
  0
DICTIONARYVAR
  5
582
102
{ACAD_REACTORS
330
57A
102
}
330
57A
100
DictionaryVariables
280
     0
  1
acadiso.lin
  0
DICTIONARYVAR
  5
57C
102
{ACAD_REACTORS
330
57A
102
}
330
57A
100
DictionaryVariables
280
     0
  1
Standard
  0
DICTIONARYVAR
  5
57B
102
{ACAD_REACTORS
330
57A
102
}
330
57A
100
DictionaryVariables
280
     0
  1
Standard
  0
DICTIONARYVAR
  5
583
102
{ACAD_REACTORS
330
57A
102
}
330
57A
100
DictionaryVariables
280
     0
  1
2
  0
DICTIONARYVAR
  5
584
102
{ACAD_REACTORS
330
57A
102
}
330
57A
100
DictionaryVariables
280
     0
  1
1
  0
DICTIONARYVAR
  5
588
102
{ACAD_REACTORS
330
57A
102
}
330
57A
100
DictionaryVariables
280
     0
  1
1
  0
DICTIONARYVAR
  5
57E
102
{ACAD_REACTORS
330
57A
102
}
330
57A
100
DictionaryVariables
280
     0
  1
80.000000
  0
DICTIONARYVAR
  5
57D
102
{ACAD_REACTORS
330
57A
102
}
330
57A
100
DictionaryVariables
280
     0
  1
5.000000
  0
DICTIONARY
  5
58B
330
45
100
AcDbDictionary
280
     1
  3
ACAD_XREC_ROUNDTRIP
360
58C
  0
DICTIONARY
  5
589
330
44
100
AcDbDictionary
280
     1
  3
ACAD_XREC_ROUNDTRIP
360
58A
  0
DICTIONARY
  5
58D
330
46
100
AcDbDictionary
280
     1
  3
ACAD_XREC_ROUNDTRIP
360
58E
  0
XRECORD
  5
58C
102
{ACAD_REACTORS
330
58B
102
}
330
58B
100
AcDbXrecord
102
MATERIAL
148
0.0
149
0.0
149
0.0
 93
        0
 94
      127
282
     0
 72
     1
 77
     1
171
     1
175
     1
179
     1
273
     0
  0
XRECORD
  5
58A
102
{ACAD_REACTORS
330
589
102
}
330
589
100
AcDbXrecord
102
MATERIAL
148
0.0
149
0.0
149
0.0
 93
        0
 94
      127
282
     0
 72
     1
 77
     1
171
     1
175
     1
179
     1
273
     0
  0
XRECORD
  5
58E
102
{ACAD_REACTORS
330
58D
102
}
330
58D
100
AcDbXrecord
102
MATERIAL
148
0.0
149
0.0
149
0.0
 93
        0
 94
      127
282
     0
 72
     1
 77
     1
171
     1
175
     1
179
     1
273
     0
  0
ENDSEC
  0
EOF
