  0
SECTION
  2
HEADER
  9
$ACADVER
  1
AC1014
  9
$ACADMAINTVER
 70
     9
  9
$DWGCODEPAGE
  3
ANSI_932
  9
$INSBASE
 10
0.0
 20
0.0
 30
0.0
  9
$EXTMIN
 10
50.0
 20
100.0
 30
0.0
  9
$EXTMAX
 10
3850.0
 20
2800.0
 30
0.0
  9
$LIMMIN
 10
0.0
 20
0.0
  9
$LIMMAX
 10
420.0
 20
297.0
  9
$ORTHOMODE
 70
     0
  9
$REGENMODE
 70
     1
  9
$FILLMODE
 70
     1
  9
$QTEXTMODE
 70
     0
  9
$MIRRTEXT
 70
     1
  9
$DRAGMODE
 70
     2
  9
$LTSCALE
 40
0.2
  9
$OSMODE
 70
    37
  9
$ATTMODE
 70
     1
  9
$TEXTSIZE
 40
2.5
  9
$TRACEWID
 40
1.0
  9
$TEXTSTYLE
  7
STANDARD
  9
$CLAYER
  8
LAY-10
  9
$CELTYPE
  6
BYLAYER
  9
$CECOLOR
 62
   256
  9
$CELTSCALE
 40
1.0
  9
$DELOBJ
 70
     1
  9
$DISPSILH
 70
     0
  9
$DIMSCALE
 40
1.0
  9
$DIMASZ
 40
2.5
  9
$DIMEXO
 40
0.625
  9
$DIMDLI
 40
3.75
  9
$DIMRND
 40
0.0
  9
$DIMDLE
 40
0.0
  9
$DIMEXE
 40
1.25
  9
$DIMTP
 40
0.0
  9
$DIMTM
 40
0.0
  9
$DIMTXT
 40
2.5
  9
$DIMCEN
 40
2.5
  9
$DIMTSZ
 40
0.0
  9
$DIMTOL
 70
     0
  9
$DIMLIM
 70
     0
  9
$DIMTIH
 70
     0
  9
$DIMTOH
 70
     0
  9
$DIMSE1
 70
     0
  9
$DIMSE2
 70
     0
  9
$DIMTAD
 70
     1
  9
$DIMZIN
 70
     8
  9
$DIMBLK
  1

  9
$DIMASO
 70
     1
  9
$DIMSHO
 70
     1
  9
$DIMPOST
  1

  9
$DIMAPOST
  1

  9
$DIMALT
 70
     0
  9
$DIMALTD
 70
     3
  9
$DIMALTF
 40
0.03937007874016
  9
$DIMLFAC
 40
1.0
  9
$DIMTOFL
 70
     1
  9
$DIMTVP
 40
0.0
  9
$DIMTIX
 70
     0
  9
$DIMSOXD
 70
     0
  9
$DIMSAH
 70
     0
  9
$DIMBLK1
  1

  9
$DIMBLK2
  1

  9
$DIMSTYLE
  2
ISO-25
  9
$DIMCLRD
 70
     0
  9
$DIMCLRE
 70
     0
  9
$DIMCLRT
 70
     0
  9
$DIMTFAC
 40
1.0
  9
$DIMGAP
 40
0.625
  9
$DIMJUST
 70
     0
  9
$DIMSD1
 70
     0
  9
$DIMSD2
 70
     0
  9
$DIMTOLJ
 70
     0
  9
$DIMTZIN
 70
     8
  9
$DIMALTZ
 70
     0
  9
$DIMALTTZ
 70
     0
  9
$DIMFIT
 70
     3
  9
$DIMUPT
 70
     0
  9
$DIMUNIT
 70
     2
  9
$DIMDEC
 70
     2
  9
$DIMTDEC
 70
     2
  9
$DIMALTU
 70
     2
  9
$DIMALTTD
 70
     3
  9
$DIMTXSTY
  7
STANDARD
  9
$DIMAUNIT
 70
     0
  9
$LUNITS
 70
     2
  9
$LUPREC
 70
     4
  9
$SKETCHINC
 40
1.0
  9
$FILLETRAD
 40
10.0
  9
$AUNITS
 70
     0
  9
$AUPREC
 70
     0
  9
$MENU
  1
.
  9
$ELEVATION
 40
0.0
  9
$PELEVATION
 40
0.0
  9
$THICKNESS
 40
0.0
  9
$LIMCHECK
 70
     0
  9
$CHAMFERA
 40
0.0
  9
$CHAMFERB
 40
0.0
  9
$CHAMFERC
 40
0.0
  9
$CHAMFERD
 40
0.0
  9
$SKPOLY
 70
     0
  9
$TDCREATE
 40
2459229.333772453
  9
$TDUPDATE
 40
2459229.333773275
  9
$TDINDWG
 40
0.0000000116
  9
$TDUSRTIMER
 40
0.0000000116
  9
$USRTIMER
 70
     1
  9
$ANGBASE
 50
0.0
  9
$ANGDIR
 70
     0
  9
$PDMODE
 70
     0
  9
$PDSIZE
 40
0.0
  9
$PLINEWID
 40
0.0
  9
$COORDS
 70
     1
  9
$SPLFRAME
 70
     0
  9
$SPLINETYPE
 70
     6
  9
$SPLINESEGS
 70
     8
  9
$ATTDIA
 70
     0
  9
$ATTREQ
 70
     1
  9
$HANDLING
 70
     1
  9
$HANDSEED
  5
6B7
  9
$SURFTAB1
 70
     6
  9
$SURFTAB2
 70
     6
  9
$SURFTYPE
 70
     6
  9
$SURFU
 70
     6
  9
$SURFV
 70
     6
  9
$UCSNAME
  2

  9
$UCSORG
 10
0.0
 20
0.0
 30
0.0
  9
$UCSXDIR
 10
1.0
 20
0.0
 30
0.0
  9
$UCSYDIR
 10
0.0
 20
1.0
 30
0.0
  9
$PUCSNAME
  2

  9
$PUCSORG
 10
0.0
 20
0.0
 30
0.0
  9
$PUCSXDIR
 10
1.0
 20
0.0
 30
0.0
  9
$PUCSYDIR
 10
0.0
 20
1.0
 30
0.0
  9
$USERI1
 70
     0
  9
$USERI2
 70
     0
  9
$USERI3
 70
     0
  9
$USERI4
 70
     0
  9
$USERI5
 70
     0
  9
$USERR1
 40
0.0
  9
$USERR2
 40
0.0
  9
$USERR3
 40
0.0
  9
$USERR4
 40
0.0
  9
$USERR5
 40
0.0
  9
$WORLDVIEW
 70
     1
  9
$SHADEDGE
 70
     3
  9
$SHADEDIF
 70
    70
  9
$TILEMODE
 70
     1
  9
$MAXACTVP
 70
    64
  9
$PINSBASE
 10
0.0
 20
0.0
 30
0.0
  9
$PLIMCHECK
 70
     0
  9
$PEXTMIN
 10
1.000000000000000E+20
 20
1.000000000000000E+20
 30
1.000000000000000E+20
  9
$PEXTMAX
 10
-1.000000000000000E+20
 20
-1.000000000000000E+20
 30
-1.000000000000000E+20
  9
$PLIMMIN
 10
0.0
 20
0.0
  9
$PLIMMAX
 10
420.0
 20
297.0
  9
$UNITMODE
 70
     0
  9
$VISRETAIN
 70
     1
  9
$PLINEGEN
 70
     0
  9
$PSLTSCALE
 70
     1
  9
$TREEDEPTH
 70
  3020
  9
$PICKSTYLE
 70
     1
  9
$CMLSTYLE
  2
STANDARD
  9
$CMLJUST
 70
     0
  9
$CMLSCALE
 40
20.0
  9
$PROXYGRAPHICS
 70
     1
  9
$MEASUREMENT
 70
     1
  0
ENDSEC
  0
SECTION
  2
CLASSES
  0
CLASS
  1
ACDBDICTIONARYWDFLT
  2
AcDbDictionaryWithDefault
  3
ObjectDBX Classes
 90
        0
280
     0
281
     0
  0
CLASS
  1
VISUALSTYLE
  2
AcDbVisualStyle
  3
ObjectDBX Classes
 90
     4095
280
     0
281
     0
  0
CLASS
  1
MATERIAL
  2
AcDbMaterial
  3
ObjectDBX Classes
 90
     1153
280
     0
281
     0
  0
CLASS
  1
SCALE
  2
AcDbScale
  3
ObjectDBX Classes
 90
     1153
280
     0
281
     0
  0
CLASS
  1
TABLESTYLE
  2
AcDbTableStyle
  3
ObjectDBX Classes
 90
     4095
280
     0
281
     0
  0
CLASS
  1
MLEADERSTYLE
  2
AcDbMLeaderStyle
  3
ACDB_MLEADERSTYLE_CLASS
 90
     4095
280
     0
281
     0
  0
CLASS
  1
SUN
  2
AcDbSun
  3
SCENEOE
 90
     1153
280
     0
281
     0
  0
CLASS
  1
DICTIONARYVAR
  2
AcDbDictionaryVar
  3
ObjectDBX Classes
 90
        0
280
     0
281
     0
  0
CLASS
  1
XRECORD
  2
AcDbXrecord
  3
ObjectDBX Classes
 90
        0
280
     0
281
     0
  0
CLASS
  1
LWPOLYLINE
  2
AcDbPolyline
  3
ObjectDBX Classes
 90
        0
280
     0
281
     1
  0
CLASS
  1
HATCH
  2
AcDbHatch
  3
ObjectDBX Classes
 90
        0
280
     0
281
     1
  0
CLASS
  1
ACDBPLACEHOLDER
  2
AcDbPlaceHolder
  3
ObjectDBX Classes
 90
        0
280
     0
281
     0
  0
CLASS
  1
LAYOUT
  2
AcDbLayout
  3
ObjectDBX Classes
 90
        0
280
     0
281
     0
  0
ENDSEC
  0
SECTION
  2
TABLES
  0
TABLE
  2
VPORT
  5
8
102
{ACAD_XDICTIONARY
360
6AC
102
}
330
0
100
AcDbSymbolTable
 70
     1
  0
VPORT
  5
29
330
8
100
AcDbSymbolTableRecord
100
AcDbViewportTableRecord
  2
*ACTIVE
 70
     0
 10
0.0
 20
0.0
 11
1.0
 21
1.0
 12
1950.0
 22
1450.0
 13
0.0
 23
0.0
 14
10.0
 24
10.0
 15
10.0
 25
10.0
 16
0.0
 26
0.0
 36
1.0
 17
0.0
 27
0.0
 37
0.0
 40
2700.0
 41
1.407407407407408
 42
50.0
 43
0.0
 44
0.0
 50
0.0
 51
0.0
 71
     0
 72
  1000
 73
     1
 74
     3
 75
     0
 76
     0
 77
     0
 78
     0
  0
ENDTAB
  0
TABLE
  2
LTYPE
  5
5
330
0
100
AcDbSymbolTable
 70
     6
  0
LTYPE
  5
14
330
5
100
AcDbSymbolTableRecord
100
AcDbLinetypeTableRecord
  2
BYBLOCK
 70
     0
  3

 72
    65
 73
     0
 40
0.0
  0
LTYPE
  5
15
330
5
100
AcDbSymbolTableRecord
100
AcDbLinetypeTableRecord
  2
BYLAYER
 70
     0
  3

 72
    65
 73
     0
 40
0.0
  0
LTYPE
  5
16
330
5
100
AcDbSymbolTableRecord
100
AcDbLinetypeTableRecord
  2
CONTINUOUS
 70
     0
  3
Solid line
 72
    65
 73
     0
 40
0.0
  0
LTYPE
  5
6E
330
5
100
AcDbSymbolTableRecord
100
AcDbLinetypeTableRecord
  2
HIDDEN
 70
     0
  3
Hidden __ __ __ __ __ __ __ __ __ __ __ __ __ __
 72
    65
 73
     2
 40
9.524999999999999
 49
6.35
 74
     0
 49
-3.175
 74
     0
  0
LTYPE
  5
6F
330
5
100
AcDbSymbolTableRecord
100
AcDbLinetypeTableRecord
  2
CENTER
 70
     0
  3
Center ____ _ ____ _ ____ _ ____ _ ____ _ ____
 72
    65
 73
     4
 40
50.8
 49
31.75
 74
     0
 49
-6.35
 74
     0
 49
6.35
 74
     0
 49
-6.35
 74
     0
  0
LTYPE
  5
70
330
5
100
AcDbSymbolTableRecord
100
AcDbLinetypeTableRecord
  2
PHANTOM
 70
     0
  3
Phantom ______  __  __  ______  __  __  ______ 
 72
    65
 73
     6
 40
63.50000000000001
 49
31.75
 74
     0
 49
-6.35
 74
     0
 49
6.35
 74
     0
 49
-6.35
 74
     0
 49
6.35
 74
     0
 49
-6.35
 74
     0
  0
LTYPE
  5
71
330
5
100
AcDbSymbolTableRecord
100
AcDbLinetypeTableRecord
  2
ACAD_ISO06W100
 70
     0
  3
ISO long-dash triple-dot ____ ... ____ ... ____
 72
    65
 73
     8
 40
36.0
 49
24.0
 74
     0
 49
-3.0
 74
     0
 49
0.0
 74
     0
 49
-3.0
 74
     0
 49
0.0
 74
     0
 49
-3.0
 74
     0
 49
0.0
 74
     0
 49
-3.0
 74
     0
  0
LTYPE
  5
72
330
5
100
AcDbSymbolTableRecord
100
AcDbLinetypeTableRecord
  2
ACAD_ISO15W100
 70
     0
  3
ISO double-dash triple-dot __ __ . . . __ __ . .
 72
    65
 73
    10
 40
39.0
 49
12.0
 74
     0
 49
-3.0
 74
     0
 49
12.0
 74
     0
 49
-3.0
 74
     0
 49
0.0
 74
     0
 49
-3.0
 74
     0
 49
0.0
 74
     0
 49
-3.0
 74
     0
 49
0.0
 74
     0
 49
-3.0
 74
     0
  0
ENDTAB
  0
TABLE
  2
LAYER
  5
2
330
0
100
AcDbSymbolTable
 70
     6
  0
LAYER
  5
10
330
2
100
AcDbSymbolTableRecord
100
AcDbLayerTableRecord
  2
0
 70
     0
 62
     7
  6
CONTINUOUS
  0
LAYER
  5
75
330
2
100
AcDbSymbolTableRecord
100
AcDbLayerTableRecord
  2
LAY-10
 70
     0
 62
     7
  6
CONTINUOUS
  0
LAYER
  5
76
330
2
100
AcDbSymbolTableRecord
100
AcDbLayerTableRecord
  2
LAY-11
 70
     0
 62
     7
  6
CONTINUOUS
  0
LAYER
  5
77
330
2
100
AcDbSymbolTableRecord
100
AcDbLayerTableRecord
  2
LAY-20
 70
     0
 62
     7
  6
CONTINUOUS
  0
LAYER
  5
78
330
2
100
AcDbSymbolTableRecord
100
AcDbLayerTableRecord
  2
LAY-255
 70
     0
 62
     7
  6
CONTINUOUS
  0
LAYER
  5
204
330
2
100
AcDbSymbolTableRecord
100
AcDbLayerTableRecord
  2
DEFPOINTS
 70
     0
 62
     7
  6
CONTINUOUS
  0
ENDTAB
  0
TABLE
  2
STYLE
  5
3
330
0
100
AcDbSymbolTable
 70
     4
  0
STYLE
  5
11
330
3
100
AcDbSymbolTableRecord
100
AcDbTextStyleTableRecord
  2
STANDARD
 70
     0
 40
0.0
 41
1.0
 50
0.0
 71
     0
 42
2.5
  3
simplex
  4
bigfont
  0
STYLE
  5
73
330
3
100
AcDbSymbolTableRecord
100
AcDbTextStyleTableRecord
  2
EXCADSTD
 70
     0
 40
0.0
 41
1.0
 50
0.0
 71
     0
 42
2.5
  3
simplex
  4
bigfont
  0
STYLE
  5
74
330
3
100
AcDbSymbolTableRecord
100
AcDbTextStyleTableRecord
  2
EXCADVERT
 70
     4
 40
0.0
 41
1.0
 50
0.0
 71
     0
 42
2.5
  3
simplex
  4
bigfont
  0
STYLE
  5
202
330
3
100
AcDbSymbolTableRecord
100
AcDbTextStyleTableRecord
  2
EXCADDIM1
 70
     0
 40
0.0
 41
0.84
 50
0.0
 71
     0
 42
2.5
  3
simplex
  4
bigfont
  0
ENDTAB
  0
TABLE
  2
VIEW
  5
6
330
0
100
AcDbSymbolTable
 70
     0
  0
ENDTAB
  0
TABLE
  2
UCS
  5
7
330
0
100
AcDbSymbolTable
 70
     0
  0
ENDTAB
  0
TABLE
  2
APPID
  5
9
330
0
100
AcDbSymbolTable
 70
     2
  0
APPID
  5
12
330
9
100
AcDbSymbolTableRecord
100
AcDbRegAppTableRecord
  2
ACAD
 70
     0
  0
APPID
  5
6B6
330
9
100
AcDbSymbolTableRecord
100
AcDbRegAppTableRecord
  2
ACAD_MLEADERVER
 70
     0
  0
ENDTAB
  0
TABLE
  2
DIMSTYLE
  5
A
330
0
100
AcDbSymbolTable
 70
     1
  0
DIMSTYLE
105
27
102
{ACAD_REACTORS
330
203
330
211
330
21E
330
22B
330
60A
330
617
330
624
330
631
330
63E
330
64B
102
}
330
A
100
AcDbSymbolTableRecord
100
AcDbDimStyleTableRecord
  2
ISO-25
 70
     0
  3

  4

  5

  6

  7

 40
1.0
 41
2.5
 42
0.625
 43
3.75
 44
1.25
 45
0.0
 46
0.0
 47
0.0
 48
0.0
140
2.5
141
2.5
142
0.0
143
0.03937007874016
144
1.0
145
0.0
146
1.0
147
0.625
 71
     0
 72
     0
 73
     0
 74
     0
 75
     0
 76
     0
 77
     1
 78
     8
170
     0
171
     3
172
     1
173
     0
174
     0
175
     0
176
     0
177
     0
178
     0
270
     2
271
     2
272
     2
273
     2
274
     3
340
11
275
     0
280
     0
281
     0
282
     0
283
     0
284
     8
285
     0
286
     0
287
     5
288
     0
  0
ENDTAB
  0
TABLE
  2
BLOCK_RECORD
  5
1
330
0
100
AcDbSymbolTable
 70
    34
  0
BLOCK_RECORD
  5
1F
330
1
100
AcDbSymbolTableRecord
100
AcDbBlockTableRecord
  2
*MODEL_SPACE
  0
BLOCK_RECORD
  5
1B
330
1
100
AcDbSymbolTableRecord
100
AcDbBlockTableRecord
  2
*PAPER_SPACE
  0
BLOCK_RECORD
  5
79
330
1
100
AcDbSymbolTableRecord
100
AcDbBlockTableRecord
  2
EX_NORM
  0
BLOCK_RECORD
  5
7C
330
1
100
AcDbSymbolTableRecord
100
AcDbBlockTableRecord
  2
EX_BNORM
  0
BLOCK_RECORD
  5
7F
330
1
100
AcDbSymbolTableRecord
100
AcDbBlockTableRecord
  2
EX_BCIR
  0
BLOCK_RECORD
  5
82
330
1
100
AcDbSymbolTableRecord
100
AcDbBlockTableRecord
  2
EX_RCIVIL
  0
BLOCK_RECORD
  5
85
330
1
100
AcDbSymbolTableRecord
100
AcDbBlockTableRecord
  2
EX_SLANT
  0
BLOCK_RECORD
  5
88
330
1
100
AcDbSymbolTableRecord
100
AcDbBlockTableRecord
  2
EX_NONE
  0
BLOCK_RECORD
  5
8B
330
1
100
AcDbSymbolTableRecord
100
AcDbBlockTableRecord
  2
EX_CIVIL
  0
BLOCK_RECORD
  5
8E
330
1
100
AcDbSymbolTableRecord
100
AcDbBlockTableRecord
  2
EX_WCIR
  0
BLOCK_RECORD
  5
91
330
1
100
AcDbSymbolTableRecord
100
AcDbBlockTableRecord
  2
EX_WCIR2
  0
BLOCK_RECORD
  5
94
330
1
100
AcDbSymbolTableRecord
100
AcDbBlockTableRecord
  2
EX_WNORM
  0
BLOCK_RECORD
  5
97
330
1
100
AcDbSymbolTableRecord
100
AcDbBlockTableRecord
  2
EX_NNORM
  0
BLOCK_RECORD
  5
9A
330
1
100
AcDbSymbolTableRecord
100
AcDbBlockTableRecord
  2
EX_BBOX
  0
BLOCK_RECORD
  5
9D
330
1
100
AcDbSymbolTableRecord
100
AcDbBlockTableRecord
  2
EX_WBOX
  0
BLOCK_RECORD
  5
A0
330
1
100
AcDbSymbolTableRecord
100
AcDbBlockTableRecord
  2
EX_INTEGRAL
  0
BLOCK_RECORD
  5
A3
330
1
100
AcDbSymbolTableRecord
100
AcDbBlockTableRecord
  2
SYM-1
  0
BLOCK_RECORD
  5
A6
330
1
100
AcDbSymbolTableRecord
100
AcDbBlockTableRecord
  2
SYM-2
  0
BLOCK_RECORD
  5
A9
330
1
100
AcDbSymbolTableRecord
100
AcDbBlockTableRecord
  2
SYM-3
  0
BLOCK_RECORD
  5
AC
330
1
100
AcDbSymbolTableRecord
100
AcDbBlockTableRecord
  2
SYM-4
  0
BLOCK_RECORD
  5
AF
330
1
100
AcDbSymbolTableRecord
100
AcDbBlockTableRecord
  2
SYM-5
  0
BLOCK_RECORD
  5
B2
330
1
100
AcDbSymbolTableRecord
100
AcDbBlockTableRecord
  2
SYM-6
  0
BLOCK_RECORD
  5
B5
330
1
100
AcDbSymbolTableRecord
100
AcDbBlockTableRecord
  2
SYM-7
  0
BLOCK_RECORD
  5
B8
330
1
100
AcDbSymbolTableRecord
100
AcDbBlockTableRecord
  2
SYM-8
  0
BLOCK_RECORD
  5
BB
330
1
100
AcDbSymbolTableRecord
100
AcDbBlockTableRecord
  2
SYM-9
  0
BLOCK_RECORD
  5
BE
330
1
100
AcDbSymbolTableRecord
100
AcDbBlockTableRecord
  2
SYM-10
  0
BLOCK_RECORD
  5
205
330
1
100
AcDbSymbolTableRecord
100
AcDbBlockTableRecord
  2
*D25
  0
BLOCK_RECORD
  5
212
330
1
100
AcDbSymbolTableRecord
100
AcDbBlockTableRecord
  2
*D26
  0
BLOCK_RECORD
  5
21F
330
1
100
AcDbSymbolTableRecord
100
AcDbBlockTableRecord
  2
*D27
  0
BLOCK_RECORD
  5
22C
330
1
100
AcDbSymbolTableRecord
100
AcDbBlockTableRecord
  2
*D28
  0
BLOCK_RECORD
  5
60B
330
1
100
AcDbSymbolTableRecord
100
AcDbBlockTableRecord
  2
*D29
  0
BLOCK_RECORD
  5
618
330
1
100
AcDbSymbolTableRecord
100
AcDbBlockTableRecord
  2
*D30
  0
BLOCK_RECORD
  5
625
330
1
100
AcDbSymbolTableRecord
100
AcDbBlockTableRecord
  2
*D31
  0
BLOCK_RECORD
  5
632
330
1
100
AcDbSymbolTableRecord
100
AcDbBlockTableRecord
  2
*D32
  0
BLOCK_RECORD
  5
63F
330
1
100
AcDbSymbolTableRecord
100
AcDbBlockTableRecord
  2
*D33
  0
BLOCK_RECORD
  5
64C
330
1
100
AcDbSymbolTableRecord
100
AcDbBlockTableRecord
  2
*D34
  0
ENDTAB
  0
ENDSEC
  0
SECTION
  2
BLOCKS
  0
BLOCK
  5
20
330
1F
100
AcDbEntity
  8
0
100
AcDbBlockBegin
  2
*MODEL_SPACE
 70
     0
 10
0.0
 20
0.0
 30
0.0
  3
*MODEL_SPACE
  1

  0
ENDBLK
  5
21
330
1F
100
AcDbEntity
  8
0
100
AcDbBlockEnd
  0
BLOCK
  5
1C
330
1B
100
AcDbEntity
 67
     1
  8
0
100
AcDbBlockBegin
  2
*PAPER_SPACE
 70
     0
 10
0.0
 20
0.0
 30
0.0
  3
*PAPER_SPACE
  1

  0
ENDBLK
  5
1D
330
1B
100
AcDbEntity
 67
     1
  8
0
100
AcDbBlockEnd
  0
BLOCK
  5
7A
330
79
100
AcDbEntity
  8
0
100
AcDbBlockBegin
  2
EX_NORM
 70
     0
 10
0.0
 20
0.0
 30
0.0
  3
EX_NORM
  1

  0
LINE
  5
C1
330
79
100
AcDbEntity
  8
0
  6
CONTINUOUS
 62
     0
100
AcDbLine
 10
0.0
 20
0.0
 30
0.0
 11
-1.0
 21
0.0
 31
0.0
  0
LINE
  5
C2
330
79
100
AcDbEntity
  8
0
  6
CONTINUOUS
 62
     0
100
AcDbLine
 10
0.0
 20
0.0
 30
0.0
 11
-1.0
 21
0.166666667
 31
0.0
  0
LINE
  5
C3
330
79
100
AcDbEntity
  8
0
  6
CONTINUOUS
 62
     0
100
AcDbLine
 10
0.0
 20
0.0
 30
0.0
 11
-1.0
 21
-0.166666667
 31
0.0
  0
ENDBLK
  5
7B
330
79
100
AcDbEntity
  8
0
100
AcDbBlockEnd
  0
BLOCK
  5
7D
330
7C
100
AcDbEntity
  8
0
100
AcDbBlockBegin
  2
EX_BNORM
 70
     0
 10
0.0
 20
0.0
 30
0.0
  3
EX_BNORM
  1

  0
LINE
  5
C4
330
7C
100
AcDbEntity
  8
0
  6
CONTINUOUS
 62
     0
100
AcDbLine
 10
0.0
 20
0.0
 30
0.0
 11
-1.0
 21
0.0
 31
0.0
  0
LINE
  5
C5
330
7C
100
AcDbEntity
  8
0
  6
CONTINUOUS
 62
     0
100
AcDbLine
 10
0.0
 20
0.0
 30
0.0
 11
-1.0
 21
0.166666667
 31
0.0
  0
LINE
  5
C6
330
7C
100
AcDbEntity
  8
0
  6
CONTINUOUS
 62
     0
100
AcDbLine
 10
0.0
 20
0.0
 30
0.0
 11
-1.0
 21
-0.166666667
 31
0.0
  0
LINE
  5
C7
330
7C
100
AcDbEntity
  8
0
  6
CONTINUOUS
 62
     0
100
AcDbLine
 10
0.0
 20
0.0
 30
0.0
 11
-1.0
 21
0.083333333
 31
0.0
  0
LINE
  5
C8
330
7C
100
AcDbEntity
  8
0
  6
CONTINUOUS
 62
     0
100
AcDbLine
 10
0.0
 20
0.0
 30
0.0
 11
-1.0
 21
-0.083333333
 31
0.0
  0
LINE
  5
C9
330
7C
100
AcDbEntity
  8
0
  6
CONTINUOUS
 62
     0
100
AcDbLine
 10
-1.0
 20
0.166666667
 30
0.0
 11
-1.0
 21
-0.166666667
 31
0.0
  0
ENDBLK
  5
7E
330
7C
100
AcDbEntity
  8
0
100
AcDbBlockEnd
  0
BLOCK
  5
80
330
7F
100
AcDbEntity
  8
0
100
AcDbBlockBegin
  2
EX_BCIR
 70
     0
 10
0.0
 20
0.0
 30
0.0
  3
EX_BCIR
  1

  0
LINE
  5
CA
330
7F
100
AcDbEntity
  8
0
  6
CONTINUOUS
 62
     0
100
AcDbLine
 10
0.0
 20
0.0
 30
0.0
 11
-1.0
 21
0.0
 31
0.0
  0
CIRCLE
  5
CB
330
7F
100
AcDbEntity
  8
0
  6
CONTINUOUS
 62
     0
100
AcDbCircle
 10
0.0
 20
0.0
 30
0.0
 40
0.5
  0
CIRCLE
  5
CC
330
7F
100
AcDbEntity
  8
0
  6
CONTINUOUS
 62
     0
100
AcDbCircle
 10
0.0
 20
0.0
 30
0.0
 40
0.25
  0
ENDBLK
  5
81
330
7F
100
AcDbEntity
  8
0
100
AcDbBlockEnd
  0
BLOCK
  5
83
330
82
100
AcDbEntity
  8
0
100
AcDbBlockBegin
  2
EX_RCIVIL
 70
     0
 10
0.0
 20
0.0
 30
0.0
  3
EX_RCIVIL
  1

  0
LINE
  5
CD
330
82
100
AcDbEntity
  8
0
  6
CONTINUOUS
 62
     0
100
AcDbLine
 10
0.0
 20
0.0
 30
0.0
 11
-1.0
 21
0.0
 31
0.0
  0
LINE
  5
CE
330
82
100
AcDbEntity
  8
0
  6
CONTINUOUS
 62
     0
100
AcDbLine
 10
-1.0
 20
-0.25
 30
0.0
 11
0.0
 21
-0.25
 31
0.0
  0
LINE
  5
CF
330
82
100
AcDbEntity
  8
0
  6
CONTINUOUS
 62
     0
100
AcDbLine
 10
-1.0
 20
-0.125
 30
0.0
 11
0.0
 21
-0.125
 31
0.0
  0
ENDBLK
  5
84
330
82
100
AcDbEntity
  8
0
100
AcDbBlockEnd
  0
BLOCK
  5
86
330
85
100
AcDbEntity
  8
0
100
AcDbBlockBegin
  2
EX_SLANT
 70
     0
 10
0.0
 20
0.0
 30
0.0
  3
EX_SLANT
  1

  0
LINE
  5
D0
330
85
100
AcDbEntity
  8
0
  6
CONTINUOUS
 62
     0
100
AcDbLine
 10
0.0
 20
0.0
 30
0.0
 11
-1.0
 21
0.0
 31
0.0
  0
LINE
  5
D1
330
85
100
AcDbEntity
  8
0
  6
CONTINUOUS
 62
     0
100
AcDbLine
 10
0.707106781
 20
0.707106781
 30
0.0
 11
-0.707106781
 21
-0.707106781
 31
0.0
  0
ENDBLK
  5
87
330
85
100
AcDbEntity
  8
0
100
AcDbBlockEnd
  0
BLOCK
  5
89
330
88
100
AcDbEntity
  8
0
100
AcDbBlockBegin
  2
EX_NONE
 70
     0
 10
0.0
 20
0.0
 30
0.0
  3
EX_NONE
  1

  0
LINE
  5
D2
330
88
100
AcDbEntity
  8
0
  6
CONTINUOUS
 62
     0
100
AcDbLine
 10
0.0
 20
0.0
 30
0.0
 11
-1.0
 21
0.0
 31
0.0
  0
ENDBLK
  5
8A
330
88
100
AcDbEntity
  8
0
100
AcDbBlockEnd
  0
BLOCK
  5
8C
330
8B
100
AcDbEntity
  8
0
100
AcDbBlockBegin
  2
EX_CIVIL
 70
     0
 10
0.0
 20
0.0
 30
0.0
  3
EX_CIVIL
  1

  0
LINE
  5
D3
330
8B
100
AcDbEntity
  8
0
  6
CONTINUOUS
 62
     0
100
AcDbLine
 10
0.0
 20
0.0
 30
0.0
 11
-1.0
 21
0.0
 31
0.0
  0
LINE
  5
D4
330
8B
100
AcDbEntity
  8
0
  6
CONTINUOUS
 62
     0
100
AcDbLine
 10
-1.0
 20
0.25
 30
0.0
 11
0.0
 21
0.25
 31
0.0
  0
LINE
  5
D5
330
8B
100
AcDbEntity
  8
0
  6
CONTINUOUS
 62
     0
100
AcDbLine
 10
-1.0
 20
0.125
 30
0.0
 11
0.0
 21
0.125
 31
0.0
  0
ENDBLK
  5
8D
330
8B
100
AcDbEntity
  8
0
100
AcDbBlockEnd
  0
BLOCK
  5
8F
330
8E
100
AcDbEntity
  8
0
100
AcDbBlockBegin
  2
EX_WCIR
 70
     0
 10
0.0
 20
0.0
 30
0.0
  3
EX_WCIR
  1

  0
LINE
  5
D6
330
8E
100
AcDbEntity
  8
0
  6
CONTINUOUS
 62
     0
100
AcDbLine
 10
0.0
 20
0.0
 30
0.0
 11
-1.0
 21
0.0
 31
0.0
  0
CIRCLE
  5
D7
330
8E
100
AcDbEntity
  8
0
  6
CONTINUOUS
 62
     0
100
AcDbCircle
 10
0.0
 20
0.0
 30
0.0
 40
0.5
  0
ENDBLK
  5
90
330
8E
100
AcDbEntity
  8
0
100
AcDbBlockEnd
  0
BLOCK
  5
92
330
91
100
AcDbEntity
  8
0
100
AcDbBlockBegin
  2
EX_WCIR2
 70
     0
 10
0.0
 20
0.0
 30
0.0
  3
EX_WCIR2
  1

  0
LINE
  5
D8
330
91
100
AcDbEntity
  8
0
  6
CONTINUOUS
 62
     0
100
AcDbLine
 10
-0.5
 20
0.0
 30
0.0
 11
-1.0
 21
0.0
 31
0.0
  0
CIRCLE
  5
D9
330
91
100
AcDbEntity
  8
0
  6
CONTINUOUS
 62
     0
100
AcDbCircle
 10
0.0
 20
0.0
 30
0.0
 40
0.5
  0
ENDBLK
  5
93
330
91
100
AcDbEntity
  8
0
100
AcDbBlockEnd
  0
BLOCK
  5
95
330
94
100
AcDbEntity
  8
0
100
AcDbBlockBegin
  2
EX_WNORM
 70
     0
 10
0.0
 20
0.0
 30
0.0
  3
EX_WNORM
  1

  0
LINE
  5
DA
330
94
100
AcDbEntity
  8
0
  6
CONTINUOUS
 62
     0
100
AcDbLine
 10
-1.0
 20
0.0
 30
0.0
 11
-1.0
 21
0.0
 31
0.0
  0
LINE
  5
DB
330
94
100
AcDbEntity
  8
0
  6
CONTINUOUS
 62
     0
100
AcDbLine
 10
0.0
 20
0.0
 30
0.0
 11
-1.0
 21
0.166666667
 31
0.0
  0
LINE
  5
DC
330
94
100
AcDbEntity
  8
0
  6
CONTINUOUS
 62
     0
100
AcDbLine
 10
0.0
 20
0.0
 30
0.0
 11
-1.0
 21
-0.166666667
 31
0.0
  0
LINE
  5
DD
330
94
100
AcDbEntity
  8
0
  6
CONTINUOUS
 62
     0
100
AcDbLine
 10
-1.0
 20
0.166666667
 30
0.0
 11
-1.0
 21
-0.166666667
 31
0.0
  0
ENDBLK
  5
96
330
94
100
AcDbEntity
  8
0
100
AcDbBlockEnd
  0
BLOCK
  5
98
330
97
100
AcDbEntity
  8
0
100
AcDbBlockBegin
  2
EX_NNORM
 70
     0
 10
0.0
 20
0.0
 30
0.0
  3
EX_NNORM
  1

  0
LINE
  5
DE
330
97
100
AcDbEntity
  8
0
  6
CONTINUOUS
 62
     0
100
AcDbLine
 10
0.0
 20
0.0
 30
0.0
 11
-1.0
 21
0.0
 31
0.0
  0
LINE
  5
DF
330
97
100
AcDbEntity
  8
0
  6
CONTINUOUS
 62
     0
100
AcDbLine
 10
0.0
 20
0.0
 30
0.0
 11
-1.0
 21
0.166666667
 31
0.0
  0
LINE
  5
E0
330
97
100
AcDbEntity
  8
0
  6
CONTINUOUS
 62
     0
100
AcDbLine
 10
0.0
 20
0.0
 30
0.0
 11
-1.0
 21
-0.166666667
 31
0.0
  0
LINE
  5
E1
330
97
100
AcDbEntity
  8
0
  6
CONTINUOUS
 62
     0
100
AcDbLine
 10
-1.0
 20
0.166666667
 30
0.0
 11
-1.0
 21
-0.166666667
 31
0.0
  0
ENDBLK
  5
99
330
97
100
AcDbEntity
  8
0
100
AcDbBlockEnd
  0
BLOCK
  5
9B
330
9A
100
AcDbEntity
  8
0
100
AcDbBlockBegin
  2
EX_BBOX
 70
     0
 10
0.0
 20
0.0
 30
0.0
  3
EX_BBOX
  1

  0
LINE
  5
E2
330
9A
100
AcDbEntity
  8
0
  6
CONTINUOUS
 62
     0
100
AcDbLine
 10
0.0
 20
0.0
 30
0.0
 11
-1.0
 21
0.0
 31
0.0
  0
LINE
  5
E3
330
9A
100
AcDbEntity
  8
0
  6
CONTINUOUS
 62
     0
100
AcDbLine
 10
-0.5
 20
0.5
 30
0.0
 11
0.5
 21
0.5
 31
0.0
  0
LINE
  5
E4
330
9A
100
AcDbEntity
  8
0
  6
CONTINUOUS
 62
     0
100
AcDbLine
 10
0.5
 20
0.5
 30
0.0
 11
0.5
 21
-0.5
 31
0.0
  0
LINE
  5
E5
330
9A
100
AcDbEntity
  8
0
  6
CONTINUOUS
 62
     0
100
AcDbLine
 10
0.5
 20
-0.5
 30
0.0
 11
-0.5
 21
-0.5
 31
0.0
  0
LINE
  5
E6
330
9A
100
AcDbEntity
  8
0
  6
CONTINUOUS
 62
     0
100
AcDbLine
 10
-0.5
 20
-0.5
 30
0.0
 11
-0.5
 21
0.5
 31
0.0
  0
LINE
  5
E7
330
9A
100
AcDbEntity
  8
0
  6
CONTINUOUS
 62
     0
100
AcDbLine
 10
-0.25
 20
0.25
 30
0.0
 11
0.25
 21
0.25
 31
0.0
  0
LINE
  5
E8
330
9A
100
AcDbEntity
  8
0
  6
CONTINUOUS
 62
     0
100
AcDbLine
 10
0.25
 20
0.25
 30
0.0
 11
0.25
 21
-0.25
 31
0.0
  0
LINE
  5
E9
330
9A
100
AcDbEntity
  8
0
  6
CONTINUOUS
 62
     0
100
AcDbLine
 10
0.25
 20
-0.25
 30
0.0
 11
-0.25
 21
-0.25
 31
0.0
  0
LINE
  5
EA
330
9A
100
AcDbEntity
  8
0
  6
CONTINUOUS
 62
     0
100
AcDbLine
 10
-0.25
 20
-0.25
 30
0.0
 11
-0.25
 21
0.25
 31
0.0
  0
ENDBLK
  5
9C
330
9A
100
AcDbEntity
  8
0
100
AcDbBlockEnd
  0
BLOCK
  5
9E
330
9D
100
AcDbEntity
  8
0
100
AcDbBlockBegin
  2
EX_WBOX
 70
     0
 10
0.0
 20
0.0
 30
0.0
  3
EX_WBOX
  1

  0
LINE
  5
EB
330
9D
100
AcDbEntity
  8
0
  6
CONTINUOUS
 62
     0
100
AcDbLine
 10
-0.5
 20
0.0
 30
0.0
 11
-1.0
 21
0.0
 31
0.0
  0
LINE
  5
EC
330
9D
100
AcDbEntity
  8
0
  6
CONTINUOUS
 62
     0
100
AcDbLine
 10
-0.5
 20
0.5
 30
0.0
 11
0.5
 21
0.5
 31
0.0
  0
LINE
  5
ED
330
9D
100
AcDbEntity
  8
0
  6
CONTINUOUS
 62
     0
100
AcDbLine
 10
0.5
 20
0.5
 30
0.0
 11
0.5
 21
-0.5
 31
0.0
  0
LINE
  5
EE
330
9D
100
AcDbEntity
  8
0
  6
CONTINUOUS
 62
     0
100
AcDbLine
 10
0.5
 20
-0.5
 30
0.0
 11
-0.5
 21
-0.5
 31
0.0
  0
LINE
  5
EF
330
9D
100
AcDbEntity
  8
0
  6
CONTINUOUS
 62
     0
100
AcDbLine
 10
-0.5
 20
-0.5
 30
0.0
 11
-0.5
 21
0.5
 31
0.0
  0
ENDBLK
  5
9F
330
9D
100
AcDbEntity
  8
0
100
AcDbBlockEnd
  0
BLOCK
  5
A1
330
A0
100
AcDbEntity
  8
0
100
AcDbBlockBegin
  2
EX_INTEGRAL
 70
     0
 10
0.0
 20
0.0
 30
0.0
  3
EX_INTEGRAL
  1

  0
LINE
  5
F0
330
A0
100
AcDbEntity
  8
0
  6
CONTINUOUS
 62
     0
100
AcDbLine
 10
0.0
 20
0.0
 30
0.0
 11
-1.0
 21
0.0
 31
0.0
  0
ARC
  5
F1
330
A0
100
AcDbEntity
  8
0
  6
CONTINUOUS
 62
     0
100
AcDbCircle
 10
0.542115
 20
0.164992
 30
0.0
 40
0.56667
100
AcDbArc
 50
73.07249033629006
 51
196.9275130221199
  0
ARC
  5
F2
330
A0
100
AcDbEntity
  8
0
  6
CONTINUOUS
 62
     0
100
AcDbCircle
 10
-0.542115
 20
-0.164992
 30
0.0
 40
0.56667
100
AcDbArc
 50
253.0724869220464
 51
16.9275130559125
  0
ENDBLK
  5
A2
330
A0
100
AcDbEntity
  8
0
100
AcDbBlockEnd
  0
BLOCK
  5
A4
330
A3
100
AcDbEntity
  8
0
100
AcDbBlockBegin
  2
SYM-1
 70
     0
 10
0.0
 20
0.0
 30
0.0
  3
SYM-1
  1

  0
CIRCLE
  5
F3
330
A3
100
AcDbEntity
  8
0
  6
CONTINUOUS
 62
     7
100
AcDbCircle
 10
2294.281080329926
 20
2413.806706678933
 30
0.0
 40
10.50000000000041
  0
CIRCLE
  5
F4
330
A3
100
AcDbEntity
  8
0
  6
CONTINUOUS
 62
     7
100
AcDbCircle
 10
2294.281080329926
 20
2413.806706678933
 30
0.0
 40
8.66025403784441
  0
LINE
  5
F5
330
A3
100
AcDbEntity
  8
0
  6
CONTINUOUS
 62
     7
100
AcDbLine
 10
2285.620826292082
 20
2418.806706678933
 30
0.0
 11
2285.620826292082
 21
2408.806706678934
 31
0.0
  0
LINE
  5
F6
330
A3
100
AcDbEntity
  8
0
  6
CONTINUOUS
 62
     7
100
AcDbLine
 10
2285.620826292082
 20
2408.806706678934
 30
0.0
 11
2294.281080329926
 21
2403.806706678933
 31
0.0
  0
LINE
  5
F7
330
A3
100
AcDbEntity
  8
0
  6
CONTINUOUS
 62
     7
100
AcDbLine
 10
2294.281080329926
 20
2403.806706678933
 30
0.0
 11
2302.941334367763
 21
2408.806706678934
 31
0.0
  0
LINE
  5
F8
330
A3
100
AcDbEntity
  8
0
  6
CONTINUOUS
 62
     7
100
AcDbLine
 10
2302.941334367763
 20
2418.806706678933
 30
0.0
 11
2294.281080329926
 21
2423.806706678934
 31
0.0
  0
LINE
  5
F9
330
A3
100
AcDbEntity
  8
0
  6
CONTINUOUS
 62
     7
100
AcDbLine
 10
2294.281080329926
 20
2423.806706678934
 30
0.0
 11
2285.620826292082
 21
2418.806706678933
 31
0.0
  0
CIRCLE
  5
FA
330
A3
100
AcDbEntity
  8
0
  6
CONTINUOUS
 62
     7
100
AcDbCircle
 10
2294.281080329926
 20
2413.806706678933
 30
0.0
 40
5.0
  0
CIRCLE
  5
FB
330
A3
100
AcDbEntity
  8
0
  6
CONTINUOUS
 62
     7
100
AcDbCircle
 10
2294.281080329926
 20
2413.806706678933
 30
0.0
 40
4.0
  0
LINE
  5
FC
330
A3
100
AcDbEntity
  8
0
  6
CONTINUOUS
 62
     7
100
AcDbLine
 10
2302.941334367763
 20
2408.806706678934
 30
0.0
 11
2302.941334367763
 21
2418.806706678933
 31
0.0
  0
ENDBLK
  5
A5
330
A3
100
AcDbEntity
  8
0
100
AcDbBlockEnd
  0
BLOCK
  5
A7
330
A6
100
AcDbEntity
  8
0
100
AcDbBlockBegin
  2
SYM-2
 70
     0
 10
0.0
 20
0.0
 30
0.0
  3
SYM-2
  1

  0
CIRCLE
  5
FD
330
A6
100
AcDbEntity
  8
0
  6
CONTINUOUS
 62
     7
100
AcDbCircle
 10
2294.281080329926
 20
1363.806706678952
 30
0.0
 40
10.50000000000041
  0
CIRCLE
  5
FE
330
A6
100
AcDbEntity
  8
0
  6
CONTINUOUS
 62
     7
100
AcDbCircle
 10
2294.281080329926
 20
1363.806706678952
 30
0.0
 40
8.66025403784441
  0
LINE
  5
FF
330
A6
100
AcDbEntity
  8
0
  6
CONTINUOUS
 62
     7
100
AcDbLine
 10
2285.620826292082
 20
1368.806706678952
 30
0.0
 11
2285.620826292082
 21
1358.806706678954
 31
0.0
  0
LINE
  5
100
330
A6
100
AcDbEntity
  8
0
  6
CONTINUOUS
 62
     7
100
AcDbLine
 10
2285.620826292082
 20
1358.806706678954
 30
0.0
 11
2294.281080329926
 21
1353.806706678952
 31
0.0
  0
LINE
  5
101
330
A6
100
AcDbEntity
  8
0
  6
CONTINUOUS
 62
     7
100
AcDbLine
 10
2294.281080329926
 20
1353.806706678952
 30
0.0
 11
2302.941334367763
 21
1358.806706678954
 31
0.0
  0
LINE
  5
102
330
A6
100
AcDbEntity
  8
0
  6
CONTINUOUS
 62
     7
100
AcDbLine
 10
2302.941334367763
 20
1368.806706678952
 30
0.0
 11
2294.281080329926
 21
1373.806706678954
 31
0.0
  0
LINE
  5
103
330
A6
100
AcDbEntity
  8
0
  6
CONTINUOUS
 62
     7
100
AcDbLine
 10
2294.281080329926
 20
1373.806706678954
 30
0.0
 11
2285.620826292082
 21
1368.806706678952
 31
0.0
  0
CIRCLE
  5
104
330
A6
100
AcDbEntity
  8
0
  6
CONTINUOUS
 62
     7
100
AcDbCircle
 10
2294.281080329926
 20
1363.806706678952
 30
0.0
 40
5.0
  0
CIRCLE
  5
105
330
A6
100
AcDbEntity
  8
0
  6
CONTINUOUS
 62
     7
100
AcDbCircle
 10
2294.281080329926
 20
1363.806706678952
 30
0.0
 40
4.0
  0
LINE
  5
106
330
A6
100
AcDbEntity
  8
0
  6
CONTINUOUS
 62
     7
100
AcDbLine
 10
2302.941334367763
 20
1358.806706678954
 30
0.0
 11
2302.941334367763
 21
1368.806706678952
 31
0.0
  0
ENDBLK
  5
A8
330
A6
100
AcDbEntity
  8
0
100
AcDbBlockEnd
  0
BLOCK
  5
AA
330
A9
100
AcDbEntity
  8
0
100
AcDbBlockBegin
  2
SYM-3
 70
     0
 10
0.0
 20
0.0
 30
0.0
  3
SYM-3
  1

  0
CIRCLE
  5
107
330
A9
100
AcDbEntity
  8
0
  6
CONTINUOUS
 62
     7
100
AcDbCircle
 10
1781.781080329926
 20
2413.806706678933
 30
0.0
 40
10.50000000000041
  0
CIRCLE
  5
108
330
A9
100
AcDbEntity
  8
0
  6
CONTINUOUS
 62
     7
100
AcDbCircle
 10
1781.781080329926
 20
2413.806706678933
 30
0.0
 40
8.66025403784441
  0
LINE
  5
109
330
A9
100
AcDbEntity
  8
0
  6
CONTINUOUS
 62
     7
100
AcDbLine
 10
1773.120826292081
 20
2418.806706678933
 30
0.0
 11
1773.120826292081
 21
2408.806706678934
 31
0.0
  0
LINE
  5
10A
330
A9
100
AcDbEntity
  8
0
  6
CONTINUOUS
 62
     7
100
AcDbLine
 10
1773.120826292081
 20
2408.806706678934
 30
0.0
 11
1781.781080329926
 21
2403.806706678933
 31
0.0
  0
LINE
  5
10B
330
A9
100
AcDbEntity
  8
0
  6
CONTINUOUS
 62
     7
100
AcDbLine
 10
1781.781080329926
 20
2403.806706678933
 30
0.0
 11
1790.441334367766
 21
2408.806706678934
 31
0.0
  0
LINE
  5
10C
330
A9
100
AcDbEntity
  8
0
  6
CONTINUOUS
 62
     7
100
AcDbLine
 10
1790.441334367766
 20
2418.806706678933
 30
0.0
 11
1781.781080329926
 21
2423.806706678934
 31
0.0
  0
LINE
  5
10D
330
A9
100
AcDbEntity
  8
0
  6
CONTINUOUS
 62
     7
100
AcDbLine
 10
1781.781080329926
 20
2423.806706678934
 30
0.0
 11
1773.120826292081
 21
2418.806706678933
 31
0.0
  0
CIRCLE
  5
10E
330
A9
100
AcDbEntity
  8
0
  6
CONTINUOUS
 62
     7
100
AcDbCircle
 10
1781.781080329926
 20
2413.806706678933
 30
0.0
 40
5.0
  0
CIRCLE
  5
10F
330
A9
100
AcDbEntity
  8
0
  6
CONTINUOUS
 62
     7
100
AcDbCircle
 10
1781.781080329926
 20
2413.806706678933
 30
0.0
 40
4.0
  0
LINE
  5
110
330
A9
100
AcDbEntity
  8
0
  6
CONTINUOUS
 62
     7
100
AcDbLine
 10
1790.441334367766
 20
2408.806706678934
 30
0.0
 11
1790.441334367766
 21
2418.806706678933
 31
0.0
  0
ENDBLK
  5
AB
330
A9
100
AcDbEntity
  8
0
100
AcDbBlockEnd
  0
BLOCK
  5
AD
330
AC
100
AcDbEntity
  8
0
100
AcDbBlockBegin
  2
SYM-4
 70
     0
 10
0.0
 20
0.0
 30
0.0
  3
SYM-4
  1

  0
CIRCLE
  5
111
330
AC
100
AcDbEntity
  8
0
  6
CONTINUOUS
 62
     7
100
AcDbCircle
 10
1781.781080329926
 20
1363.806706678838
 30
0.0
 40
10.50000000000041
  0
CIRCLE
  5
112
330
AC
100
AcDbEntity
  8
0
  6
CONTINUOUS
 62
     7
100
AcDbCircle
 10
1781.781080329926
 20
1363.806706678838
 30
0.0
 40
8.66025403784441
  0
LINE
  5
113
330
AC
100
AcDbEntity
  8
0
  6
CONTINUOUS
 62
     7
100
AcDbLine
 10
1773.120826292082
 20
1358.806706678838
 30
0.0
 11
1773.120826292082
 21
1368.806706678837
 31
0.0
  0
LINE
  5
114
330
AC
100
AcDbEntity
  8
0
  6
CONTINUOUS
 62
     7
100
AcDbLine
 10
1773.120826292082
 20
1368.806706678837
 30
0.0
 11
1781.781080329926
 21
1373.806706678838
 31
0.0
  0
LINE
  5
115
330
AC
100
AcDbEntity
  8
0
  6
CONTINUOUS
 62
     7
100
AcDbLine
 10
1781.781080329926
 20
1373.806706678838
 30
0.0
 11
1790.441334367767
 21
1368.806706678837
 31
0.0
  0
LINE
  5
116
330
AC
100
AcDbEntity
  8
0
  6
CONTINUOUS
 62
     7
100
AcDbLine
 10
1790.441334367767
 20
1358.806706678838
 30
0.0
 11
1781.781080329926
 21
1353.806706678837
 31
0.0
  0
LINE
  5
117
330
AC
100
AcDbEntity
  8
0
  6
CONTINUOUS
 62
     7
100
AcDbLine
 10
1781.781080329926
 20
1353.806706678837
 30
0.0
 11
1773.120826292082
 21
1358.806706678838
 31
0.0
  0
CIRCLE
  5
118
330
AC
100
AcDbEntity
  8
0
  6
CONTINUOUS
 62
     7
100
AcDbCircle
 10
1781.781080329926
 20
1363.806706678838
 30
0.0
 40
5.0
  0
CIRCLE
  5
119
330
AC
100
AcDbEntity
  8
0
  6
CONTINUOUS
 62
     7
100
AcDbCircle
 10
1781.781080329926
 20
1363.806706678838
 30
0.0
 40
4.0
  0
LINE
  5
11A
330
AC
100
AcDbEntity
  8
0
  6
CONTINUOUS
 62
     7
100
AcDbLine
 10
1790.441334367767
 20
1368.806706678837
 30
0.0
 11
1790.441334367767
 21
1358.806706678838
 31
0.0
  0
ENDBLK
  5
AE
330
AC
100
AcDbEntity
  8
0
100
AcDbBlockEnd
  0
BLOCK
  5
B0
330
AF
100
AcDbEntity
  8
0
100
AcDbBlockBegin
  2
SYM-5
 70
     0
 10
0.0
 20
0.0
 30
0.0
  3
SYM-5
  1

  0
CIRCLE
  5
11B
330
AF
100
AcDbEntity
  8
0
  6
CONTINUOUS
 62
     7
100
AcDbCircle
 10
2294.281080330075
 20
1888.806706678922
 30
0.0
 40
10.50000000000041
  0
CIRCLE
  5
11C
330
AF
100
AcDbEntity
  8
0
  6
CONTINUOUS
 62
     7
100
AcDbCircle
 10
2294.281080330075
 20
1888.806706678922
 30
0.0
 40
8.66025403784441
  0
LINE
  5
11D
330
AF
100
AcDbEntity
  8
0
  6
CONTINUOUS
 62
     7
100
AcDbLine
 10
2302.94133436792
 20
1893.806706678922
 30
0.0
 11
2302.94133436792
 21
1883.806706678923
 31
0.0
  0
LINE
  5
11E
330
AF
100
AcDbEntity
  8
0
  6
CONTINUOUS
 62
     7
100
AcDbLine
 10
2302.94133436792
 20
1883.806706678923
 30
0.0
 11
2294.281080330075
 21
1878.806706678922
 31
0.0
  0
LINE
  5
11F
330
AF
100
AcDbEntity
  8
0
  6
CONTINUOUS
 62
     7
100
AcDbLine
 10
2294.281080330075
 20
1878.806706678922
 30
0.0
 11
2285.620826292235
 21
1883.806706678923
 31
0.0
  0
LINE
  5
120
330
AF
100
AcDbEntity
  8
0
  6
CONTINUOUS
 62
     7
100
AcDbLine
 10
2285.620826292235
 20
1893.806706678922
 30
0.0
 11
2294.281080330075
 21
1898.806706678923
 31
0.0
  0
LINE
  5
121
330
AF
100
AcDbEntity
  8
0
  6
CONTINUOUS
 62
     7
100
AcDbLine
 10
2294.281080330075
 20
1898.806706678923
 30
0.0
 11
2302.94133436792
 21
1893.806706678922
 31
0.0
  0
CIRCLE
  5
122
330
AF
100
AcDbEntity
  8
0
  6
CONTINUOUS
 62
     7
100
AcDbCircle
 10
2294.281080330075
 20
1888.806706678922
 30
0.0
 40
5.0
  0
CIRCLE
  5
123
330
AF
100
AcDbEntity
  8
0
  6
CONTINUOUS
 62
     7
100
AcDbCircle
 10
2294.281080330075
 20
1888.806706678922
 30
0.0
 40
4.0
  0
LINE
  5
124
330
AF
100
AcDbEntity
  8
0
  6
CONTINUOUS
 62
     7
100
AcDbLine
 10
2285.620826292235
 20
1883.806706678923
 30
0.0
 11
2285.620826292235
 21
1893.806706678922
 31
0.0
  0
ENDBLK
  5
B1
330
AF
100
AcDbEntity
  8
0
100
AcDbBlockEnd
  0
BLOCK
  5
B3
330
B2
100
AcDbEntity
  8
0
100
AcDbBlockBegin
  2
SYM-6
 70
     0
 10
0.0
 20
0.0
 30
0.0
  3
SYM-6
  1

  0
CIRCLE
  5
125
330
B2
100
AcDbEntity
  8
0
  6
CONTINUOUS
 62
     7
100
AcDbCircle
 10
1269.281080329826
 20
1363.806706678838
 30
0.0
 40
10.50000000000041
  0
CIRCLE
  5
126
330
B2
100
AcDbEntity
  8
0
  6
CONTINUOUS
 62
     7
100
AcDbCircle
 10
1269.281080329826
 20
1363.806706678838
 30
0.0
 40
8.66025403784441
  0
LINE
  5
127
330
B2
100
AcDbEntity
  8
0
  6
CONTINUOUS
 62
     7
100
AcDbLine
 10
1260.620826291982
 20
1358.806706678838
 30
0.0
 11
1260.620826291982
 21
1368.806706678837
 31
0.0
  0
LINE
  5
128
330
B2
100
AcDbEntity
  8
0
  6
CONTINUOUS
 62
     7
100
AcDbLine
 10
1260.620826291982
 20
1368.806706678837
 30
0.0
 11
1269.281080329826
 21
1373.806706678838
 31
0.0
  0
LINE
  5
129
330
B2
100
AcDbEntity
  8
0
  6
CONTINUOUS
 62
     7
100
AcDbLine
 10
1269.281080329826
 20
1373.806706678838
 30
0.0
 11
1277.941334367667
 21
1368.806706678837
 31
0.0
  0
LINE
  5
12A
330
B2
100
AcDbEntity
  8
0
  6
CONTINUOUS
 62
     7
100
AcDbLine
 10
1277.941334367667
 20
1358.806706678838
 30
0.0
 11
1269.281080329826
 21
1353.806706678837
 31
0.0
  0
LINE
  5
12B
330
B2
100
AcDbEntity
  8
0
  6
CONTINUOUS
 62
     7
100
AcDbLine
 10
1269.281080329826
 20
1353.806706678837
 30
0.0
 11
1260.620826291982
 21
1358.806706678838
 31
0.0
  0
CIRCLE
  5
12C
330
B2
100
AcDbEntity
  8
0
  6
CONTINUOUS
 62
     7
100
AcDbCircle
 10
1269.281080329826
 20
1363.806706678838
 30
0.0
 40
5.0
  0
CIRCLE
  5
12D
330
B2
100
AcDbEntity
  8
0
  6
CONTINUOUS
 62
     7
100
AcDbCircle
 10
1269.281080329826
 20
1363.806706678838
 30
0.0
 40
4.0
  0
LINE
  5
12E
330
B2
100
AcDbEntity
  8
0
  6
CONTINUOUS
 62
     7
100
AcDbLine
 10
1277.941334367667
 20
1368.806706678837
 30
0.0
 11
1277.941334367667
 21
1358.806706678838
 31
0.0
  0
ENDBLK
  5
B4
330
B2
100
AcDbEntity
  8
0
100
AcDbBlockEnd
  0
BLOCK
  5
B6
330
B5
100
AcDbEntity
  8
0
100
AcDbBlockBegin
  2
SYM-7
 70
     0
 10
0.0
 20
0.0
 30
0.0
  3
SYM-7
  1

  0
LINE
  5
12F
330
B5
100
AcDbEntity
  8
0
  6
CONTINUOUS
 62
     7
100
AcDbLine
 10
2818.945638204078
 20
2392.797242596117
 30
0.0
 11
2812.272009465885
 21
2399.470871334305
 31
0.0
  0
LINE
  5
130
330
B5
100
AcDbEntity
  8
0
  6
CONTINUOUS
 62
     7
100
AcDbLine
 10
2819.654099191076
 20
2393.502995171516
 30
0.0
 11
2812.624208650553
 21
2400.53288571172
 31
0.0
  0
LINE
  5
131
330
B5
100
AcDbEntity
  8
0
  6
CONTINUOUS
 62
     7
100
AcDbLine
 10
2820.224459445675
 20
2394.346848479217
 30
0.0
 11
2813.114508567906
 21
2401.456799357304
 31
0.0
  0
LINE
  5
132
330
B5
100
AcDbEntity
  8
0
  6
CONTINUOUS
 62
     7
100
AcDbLine
 10
2820.661513168276
 20
2395.324008319017
 30
0.0
 11
2813.73811501697
 21
2402.247406470328
 31
0.0
  0
LINE
  5
133
330
B5
100
AcDbEntity
  8
0
  6
CONTINUOUS
 62
     7
100
AcDbLine
 10
2820.887203846376
 20
2399.340958328016
 30
0.0
 11
2816.694404854177
 21
2403.533757320217
 31
0.0
  0
LINE
  5
134
330
B5
100
AcDbEntity
  8
0
  6
CONTINUOUS
 62
     7
100
AcDbLine
 10
2821.064378814875
 20
2397.749569797118
 30
0.0
 11
2815.456569713876
 21
2403.357378898117
 31
0.0
  0
LINE
  5
135
330
B5
100
AcDbEntity
  8
0
  6
CONTINUOUS
 62
     7
100
AcDbLine
 10
2820.953709069977
 20
2396.446025979717
 30
0.0
 11
2814.506579287076
 21
2402.893155762616
 31
0.0
  0
LINE
  5
136
330
B5
100
AcDbEntity
  8
0
  6
CONTINUOUS
 62
     7
100
AcDbLine
 10
2818.074544485377
 20
2392.254122752417
 30
0.0
 11
2812.082443012679
 21
2398.246224225118
 31
0.0
  0
LINE
  5
137
330
B5
100
AcDbEntity
  8
0
  6
CONTINUOUS
 62
     7
100
AcDbLine
 10
2816.973201785775
 20
2391.941251889716
 30
0.0
 11
2812.123125540575
 21
2396.791328134816
 31
0.0
  0
LINE
  5
138
330
B5
100
AcDbEntity
  8
0
  6
CONTINUOUS
 62
     7
100
AcDbLine
 10
2815.377171569475
 20
2392.123068543618
 30
0.0
 11
2812.658495585178
 21
2394.841744527916
 31
0.0
  0
ELLIPSE
  5
139
330
B5
100
AcDbEntity
  8
0
  6
CONTINUOUS
 62
     7
100
AcDbEllipse
 10
2816.564413663178
 20
2397.726706678916
 30
0.0
 11
-1.067183248068677E-15
 21
-5.809475019310011
 31
0.0
210
0.0
220
0.0
230
1.0
 40
0.774596669241632
 41
0.0
 42
6.283185307179586
  0
ENDBLK
  5
B7
330
B5
100
AcDbEntity
  8
0
100
AcDbBlockEnd
  0
BLOCK
  5
B9
330
B8
100
AcDbEntity
  8
0
100
AcDbBlockBegin
  2
SYM-8
 70
     0
 10
0.0
 20
0.0
 30
0.0
  3
SYM-8
  1

  0
LINE
  5
13A
330
B8
100
AcDbEntity
  8
0
  6
CONTINUOUS
 62
     7
100
AcDbLine
 10
2818.945638204044
 20
1384.816170761683
 30
0.0
 11
2812.272009465876
 21
1378.142542023516
 31
0.0
  0
LINE
  5
13B
330
B8
100
AcDbEntity
  8
0
  6
CONTINUOUS
 62
     7
100
AcDbLine
 10
2819.654099190953
 20
1384.110418186476
 30
0.0
 11
2812.624208650679
 21
1377.080527645917
 31
0.0
  0
LINE
  5
13C
330
B8
100
AcDbEntity
  8
0
  6
CONTINUOUS
 62
     7
100
AcDbLine
 10
2820.224459445674
 20
1383.266564878612
 30
0.0
 11
2813.114508567776
 21
1376.156614000716
 31
0.0
  0
LINE
  5
13D
330
B8
100
AcDbEntity
  8
0
  6
CONTINUOUS
 62
     7
100
AcDbLine
 10
2820.661513168289
 20
1382.289405038823
 30
0.0
 11
2813.738115016975
 21
1375.366006887517
 31
0.0
  0
LINE
  5
13E
330
B8
100
AcDbEntity
  8
0
  6
CONTINUOUS
 62
     7
100
AcDbLine
 10
2820.887203846376
 20
1378.272455029817
 30
0.0
 11
2816.694404854177
 21
1374.079656037616
 31
0.0
  0
LINE
  5
13F
330
B8
100
AcDbEntity
  8
0
  6
CONTINUOUS
 62
     7
100
AcDbLine
 10
2821.064378814875
 20
1379.863843560716
 30
0.0
 11
2815.456569713876
 21
1374.256034459717
 31
0.0
  0
LINE
  5
140
330
B8
100
AcDbEntity
  8
0
  6
CONTINUOUS
 62
     7
100
AcDbLine
 10
2820.953709069977
 20
1381.167387378117
 30
0.0
 11
2814.506579287076
 21
1374.720257595216
 31
0.0
  0
LINE
  5
141
330
B8
100
AcDbEntity
  8
0
  6
CONTINUOUS
 62
     7
100
AcDbLine
 10
2818.074544485377
 20
1385.359290605416
 30
0.0
 11
2812.082443012679
 21
1379.367189132717
 31
0.0
  0
LINE
  5
142
330
B8
100
AcDbEntity
  8
0
  6
CONTINUOUS
 62
     7
100
AcDbLine
 10
2816.973201785775
 20
1385.672161468117
 30
0.0
 11
2812.123125540575
 21
1380.822085223017
 31
0.0
  0
LINE
  5
143
330
B8
100
AcDbEntity
  8
0
  6
CONTINUOUS
 62
     7
100
AcDbLine
 10
2815.377171569475
 20
1385.490344814216
 30
0.0
 11
2812.658495585178
 21
1382.771668829917
 31
0.0
  0
ELLIPSE
  5
144
330
B8
100
AcDbEntity
  8
0
  6
CONTINUOUS
 62
     7
100
AcDbEllipse
 10
2816.564413663178
 20
1379.886706678917
 30
0.0
 11
-2.224197421612835E-15
 21
5.809475019310011
 31
0.0
210
0.0
220
0.0
230
1.0
 40
0.774596669241632
 41
0.0
 42
6.283185307179586
  0
ENDBLK
  5
BA
330
B8
100
AcDbEntity
  8
0
100
AcDbBlockEnd
  0
BLOCK
  5
BC
330
BB
100
AcDbEntity
  8
0
100
AcDbBlockBegin
  2
SYM-9
 70
     0
 10
0.0
 20
0.0
 30
0.0
  3
SYM-9
  1

  0
LINE
  5
145
330
BB
100
AcDbEntity
  8
0
  6
CONTINUOUS
 62
     7
100
AcDbLine
 10
2819.281080329877
 20
2409.806706678918
 30
0.0
 11
2820.281080329879
 21
2408.806706678916
 31
0.0
  0
LINE
  5
146
330
BB
100
AcDbEntity
  8
0
  6
CONTINUOUS
 62
     7
100
AcDbLine
 10
2819.281080329877
 20
2417.806706678918
 30
0.0
 11
2820.281080329879
 21
2418.806706678918
 31
0.0
  0
LINE
  5
147
330
BB
100
AcDbEntity
  8
0
  6
CONTINUOUS
 62
     7
100
AcDbLine
 10
2808.881080329876
 20
2417.806706678918
 30
0.0
 11
2819.281080329877
 21
2417.806706678918
 31
0.0
  0
LINE
  5
148
330
BB
100
AcDbEntity
  8
0
  6
CONTINUOUS
 62
     7
100
AcDbLine
 10
2808.881080329876
 20
2409.806706678918
 30
0.0
 11
2819.281080329877
 21
2409.806706678918
 31
0.0
  0
LINE
  5
149
330
BB
100
AcDbEntity
  8
0
  6
CONTINUOUS
 62
     7
100
AcDbLine
 10
2794.281080329876
 20
2409.806706678918
 30
0.0
 11
2798.481080329876
 21
2409.806706678918
 31
0.0
  0
LINE
  5
14A
330
BB
100
AcDbEntity
  8
0
  6
CONTINUOUS
 62
     7
100
AcDbLine
 10
2795.281080329876
 20
2408.806706678916
 30
0.0
 11
2795.281080329876
 21
2418.806706678918
 31
0.0
  0
LINE
  5
14B
330
BB
100
AcDbEntity
  8
0
  6
CONTINUOUS
 62
     7
100
AcDbLine
 10
2794.281080329876
 20
2417.806706678918
 30
0.0
 11
2798.481080329876
 21
2417.806706678918
 31
0.0
  0
LINE
  5
14C
330
BB
100
AcDbEntity
  8
0
  6
CONTINUOUS
 62
     7
100
AcDbLine
 10
2824.281080329863
 20
2401.685386335371
 30
0.0
 11
2824.389000160328
 21
2401.577466504909
 31
0.0
  0
LINE
  5
14D
330
BB
100
AcDbEntity
  8
0
  6
CONTINUOUS
 62
     7
100
AcDbLine
 10
2824.281080329869
 20
2402.392493116554
 30
0.0
 11
2824.737961948437
 21
2401.935611497985
 31
0.0
  0
LINE
  5
14E
330
BB
100
AcDbEntity
  8
0
  6
CONTINUOUS
 62
     7
100
AcDbLine
 10
2824.281080329876
 20
2403.099599897735
 30
0.0
 11
2825.08692373656
 21
2402.293756491047
 31
0.0
  0
LINE
  5
14F
330
BB
100
AcDbEntity
  8
0
  6
CONTINUOUS
 62
     7
100
AcDbLine
 10
2824.281080329866
 20
2403.806706678927
 30
0.0
 11
2825.435885524681
 21
2402.651901484113
 31
0.0
  0
LINE
  5
150
330
BB
100
AcDbEntity
  8
0
  6
CONTINUOUS
 62
     7
100
AcDbLine
 10
2824.988187111061
 20
2403.80670667892
 30
0.0
 11
2825.784847312792
 21
2403.010046477189
 31
0.0
  0
LINE
  5
151
330
BB
100
AcDbEntity
  8
0
  6
CONTINUOUS
 62
     7
100
AcDbLine
 10
2825.69529389224
 20
2403.806706678927
 30
0.0
 11
2826.133809100916
 21
2403.368191470253
 31
0.0
  0
LINE
  5
152
330
BB
100
AcDbEntity
  8
0
  6
CONTINUOUS
 62
     7
100
AcDbLine
 10
2826.402400673435
 20
2403.806706678918
 30
0.0
 11
2826.482770889037
 21
2403.726336463315
 31
0.0
  0
LINE
  5
153
330
BB
100
AcDbEntity
  8
0
  6
CONTINUOUS
 62
     7
100
AcDbLine
 10
2824.281080329877
 20
2401.466706678918
 30
0.0
 11
2826.561080329876
 21
2403.806706678918
 31
0.0
  0
LINE
  5
154
330
BB
100
AcDbEntity
  8
0
  6
CONTINUOUS
 62
     7
100
AcDbLine
 10
2824.281080329876
 20
2403.806706678918
 30
0.0
 11
2829.977080329875
 21
2403.806706678918
 31
0.0
  0
ARC
  5
155
330
BB
100
AcDbEntity
  8
0
  6
CONTINUOUS
 62
     7
100
AcDbCircle
 10
2825.890159875331
 20
2406.306706678918
 30
0.0
 40
4.790920454545454
100
AcDbArc
 50
328.5455606612239
 51
31.45443933877169
  0
ARC
  5
156
330
BB
100
AcDbEntity
  8
0
  6
CONTINUOUS
 62
     7
100
AcDbCircle
 10
2812.573398511693
 20
2413.806706678918
 30
0.0
 40
18.10768181818181
100
AcDbArc
 50
343.9708781133803
 51
16.02912188661214
  0
LINE
  5
157
330
BB
100
AcDbEntity
  8
0
  6
CONTINUOUS
 62
     7
100
AcDbLine
 10
2830.681080329874
 20
2406.306706678918
 30
0.0
 11
2830.681080329874
 21
2421.306706678918
 31
0.0
  0
ARC
  5
158
330
BB
100
AcDbEntity
  8
0
  6
CONTINUOUS
 62
     7
100
AcDbCircle
 10
2825.890159875331
 20
2421.306706678918
 30
0.0
 40
4.790920454545454
100
AcDbArc
 50
328.5455606612239
 51
31.45443933877169
  0
LINE
  5
159
330
BB
100
AcDbEntity
  8
0
  6
CONTINUOUS
 62
     7
100
AcDbLine
 10
2824.281080329876
 20
2423.806706678916
 30
0.0
 11
2829.977080329875
 21
2423.806706678916
 31
0.0
  0
LINE
  5
15A
330
BB
100
AcDbEntity
  8
0
  6
CONTINUOUS
 62
     7
100
AcDbLine
 10
2826.402400673432
 20
2423.806706678914
 30
0.0
 11
2826.510320503874
 21
2423.914626509354
 31
0.0
  0
LINE
  5
15B
330
BB
100
AcDbEntity
  8
0
  6
CONTINUOUS
 62
     7
100
AcDbLine
 10
2825.695293892238
 20
2423.806706678907
 30
0.0
 11
2826.152175510807
 21
2424.263588297476
 31
0.0
  0
LINE
  5
15C
330
BB
100
AcDbEntity
  8
0
  6
CONTINUOUS
 62
     7
100
AcDbLine
 10
2824.988187111045
 20
2423.806706678902
 30
0.0
 11
2825.794030517743
 21
2424.612550085597
 31
0.0
  0
LINE
  5
15D
330
BB
100
AcDbEntity
  8
0
  6
CONTINUOUS
 62
     7
100
AcDbLine
 10
2824.281080329864
 20
2423.806706678907
 30
0.0
 11
2825.435885524668
 21
2424.961511873708
 31
0.0
  0
LINE
  5
15E
330
BB
100
AcDbEntity
  8
0
  6
CONTINUOUS
 62
     7
100
AcDbLine
 10
2824.281080329881
 20
2424.513813460112
 30
0.0
 11
2825.077740531607
 21
2425.310473661832
 31
0.0
  0
LINE
  5
15F
330
BB
100
AcDbEntity
  8
0
  6
CONTINUOUS
 62
     7
100
AcDbLine
 10
2824.281080329877
 20
2425.220920241293
 30
0.0
 11
2824.71959553854
 21
2425.659435449953
 31
0.0
  0
LINE
  5
160
330
BB
100
AcDbEntity
  8
0
  6
CONTINUOUS
 62
     7
100
AcDbLine
 10
2824.281080329883
 20
2425.928027022485
 30
0.0
 11
2824.361450545463
 21
2426.008397238066
 31
0.0
  0
LINE
  5
161
330
BB
100
AcDbEntity
  8
0
  6
CONTINUOUS
 62
     7
100
AcDbLine
 10
2826.621080329874
 20
2423.80670667892
 30
0.0
 11
2824.281080329876
 21
2426.086706678919
 31
0.0
  0
LINE
  5
162
330
BB
100
AcDbEntity
  8
0
  6
CONTINUOUS
 62
     7
100
AcDbLine
 10
2819.281080329877
 20
2418.806706678918
 30
0.0
 11
2819.281080329877
 21
2408.806706678916
 31
0.0
  0
LINE
  5
163
330
BB
100
AcDbEntity
  8
0
  6
CONTINUOUS
 62
     7
100
AcDbLine
 10
2829.977080329875
 20
2418.806706678918
 30
0.0
 11
2808.881080329876
 21
2418.806706678918
 31
0.0
  0
LINE
  5
164
330
BB
100
AcDbEntity
  8
0
  6
CONTINUOUS
 62
     7
100
AcDbLine
 10
2829.977080329875
 20
2408.806706678916
 30
0.0
 11
2808.881080329876
 21
2408.806706678916
 31
0.0
  0
LINE
  5
165
330
BB
100
AcDbEntity
  8
0
  6
CONTINUOUS
 62
     7
100
AcDbLine
 10
2806.881080329878
 20
2403.306706678918
 30
0.0
 11
2808.881080329876
 21
2403.306706678918
 31
0.0
  0
LINE
  5
166
330
BB
100
AcDbEntity
  8
0
  6
CONTINUOUS
 62
     7
100
AcDbLine
 10
2806.881080329878
 20
2424.306706678918
 30
0.0
 11
2808.881080329876
 21
2424.306706678918
 31
0.0
  0
LINE
  5
167
330
BB
100
AcDbEntity
  8
0
  6
CONTINUOUS
 62
     7
100
AcDbLine
 10
2806.881080329878
 20
2403.306706678918
 30
0.0
 11
2806.881080329878
 21
2424.306706678918
 31
0.0
  0
LINE
  5
168
330
BB
100
AcDbEntity
  8
0
  6
CONTINUOUS
 62
     7
100
AcDbLine
 10
2798.481080329876
 20
2421.306706678918
 30
0.0
 11
2798.481080329876
 21
2406.306706678918
 31
0.0
  0
ARC
  5
169
330
BB
100
AcDbEntity
  8
0
  6
CONTINUOUS
 62
     7
100
AcDbCircle
 10
2802.325114961911
 20
2406.306706678918
 30
0.0
 40
3.844034632034633
100
AcDbArc
 50
139.4313750265994
 51
220.5686249734146
  0
ARC
  5
16A
330
BB
100
AcDbEntity
  8
0
  6
CONTINUOUS
 62
     7
100
AcDbCircle
 10
2812.471218858015
 20
2413.806706678918
 30
0.0
 40
13.99013852813853
100
AcDbArc
 50
159.0597243938601
 51
200.9402756061523
  0
ARC
  5
16B
330
BB
100
AcDbEntity
  8
0
  6
CONTINUOUS
 62
     7
100
AcDbCircle
 10
2802.325114961911
 20
2421.306706678918
 30
0.0
 40
3.844034632034633
100
AcDbArc
 50
139.4313750265994
 51
220.5686249734146
  0
LINE
  5
16C
330
BB
100
AcDbEntity
  8
0
  6
CONTINUOUS
 62
     7
100
AcDbLine
 10
2806.881080329878
 20
2403.806706678918
 30
0.0
 11
2799.405080329876
 21
2403.806706678918
 31
0.0
  0
LINE
  5
16D
330
BB
100
AcDbEntity
  8
0
  6
CONTINUOUS
 62
     7
100
AcDbLine
 10
2806.881080329878
 20
2423.806706678916
 30
0.0
 11
2799.405080329876
 21
2423.806706678916
 31
0.0
  0
LINE
  5
16E
330
BB
100
AcDbEntity
  8
0
  6
CONTINUOUS
 62
     7
100
AcDbLine
 10
2806.881080329878
 20
2408.806706678916
 30
0.0
 11
2799.405080329876
 21
2408.806706678916
 31
0.0
  0
LINE
  5
16F
330
BB
100
AcDbEntity
  8
0
  6
CONTINUOUS
 62
     7
100
AcDbLine
 10
2806.881080329878
 20
2418.806706678918
 30
0.0
 11
2799.405080329876
 21
2418.806706678918
 31
0.0
  0
LINE
  5
170
330
BB
100
AcDbEntity
  8
0
  6
CONTINUOUS
 62
     7
100
AcDbLine
 10
2798.481080329876
 20
2408.806706678916
 30
0.0
 11
2795.281080329876
 21
2408.806706678916
 31
0.0
  0
LINE
  5
171
330
BB
100
AcDbEntity
  8
0
  6
CONTINUOUS
 62
     7
100
AcDbLine
 10
2798.481080329876
 20
2418.806706678918
 30
0.0
 11
2795.281080329876
 21
2418.806706678918
 31
0.0
  0
LINE
  5
172
330
BB
100
AcDbEntity
  8
0
  6
CONTINUOUS
 62
     7
100
AcDbLine
 10
2794.281080329876
 20
2409.806706678918
 30
0.0
 11
2794.281080329876
 21
2417.806706678918
 31
0.0
  0
LINE
  5
173
330
BB
100
AcDbEntity
  8
0
  6
CONTINUOUS
 62
     7
100
AcDbLine
 10
2795.281080329876
 20
2418.806706678918
 30
0.0
 11
2794.281080329876
 21
2417.806706678918
 31
0.0
  0
LINE
  5
174
330
BB
100
AcDbEntity
  8
0
  6
CONTINUOUS
 62
     7
100
AcDbLine
 10
2795.281080329876
 20
2408.806706678916
 30
0.0
 11
2794.281080329876
 21
2409.806706678918
 31
0.0
  0
ENDBLK
  5
BD
330
BB
100
AcDbEntity
  8
0
100
AcDbBlockEnd
  0
BLOCK
  5
BF
330
BE
100
AcDbEntity
  8
0
100
AcDbBlockBegin
  2
SYM-10
 70
     0
 10
0.0
 20
0.0
 30
0.0
  3
SYM-10
  1

  0
LINE
  5
175
330
BE
100
AcDbEntity
  8
0
  6
CONTINUOUS
 62
     7
100
AcDbLine
 10
2819.281080329877
 20
1359.806706678915
 30
0.0
 11
2820.281080329879
 21
1358.806706678916
 31
0.0
  0
LINE
  5
176
330
BE
100
AcDbEntity
  8
0
  6
CONTINUOUS
 62
     7
100
AcDbLine
 10
2819.281080329877
 20
1367.806706678916
 30
0.0
 11
2820.281080329879
 21
1368.806706678916
 31
0.0
  0
LINE
  5
177
330
BE
100
AcDbEntity
  8
0
  6
CONTINUOUS
 62
     7
100
AcDbLine
 10
2808.881080329876
 20
1367.806706678916
 30
0.0
 11
2819.281080329877
 21
1367.806706678916
 31
0.0
  0
LINE
  5
178
330
BE
100
AcDbEntity
  8
0
  6
CONTINUOUS
 62
     7
100
AcDbLine
 10
2808.881080329876
 20
1359.806706678915
 30
0.0
 11
2819.281080329877
 21
1359.806706678915
 31
0.0
  0
LINE
  5
179
330
BE
100
AcDbEntity
  8
0
  6
CONTINUOUS
 62
     7
100
AcDbLine
 10
2794.281080329876
 20
1359.806706678915
 30
0.0
 11
2800.481080329874
 21
1359.806706678915
 31
0.0
  0
LINE
  5
17A
330
BE
100
AcDbEntity
  8
0
  6
CONTINUOUS
 62
     7
100
AcDbLine
 10
2795.281080329876
 20
1358.806706678916
 30
0.0
 11
2795.281080329876
 21
1368.806706678916
 31
0.0
  0
LINE
  5
17B
330
BE
100
AcDbEntity
  8
0
  6
CONTINUOUS
 62
     7
100
AcDbLine
 10
2794.281080329876
 20
1367.806706678916
 30
0.0
 11
2800.481080329874
 21
1367.806706678916
 31
0.0
  0
LINE
  5
17C
330
BE
100
AcDbEntity
  8
0
  6
CONTINUOUS
 62
     7
100
AcDbLine
 10
2824.281080329876
 20
1373.806706678916
 30
0.0
 11
2829.977080329875
 21
1373.806706678916
 31
0.0
  0
LINE
  5
17D
330
BE
100
AcDbEntity
  8
0
  6
CONTINUOUS
 62
     7
100
AcDbLine
 10
2826.621080329874
 20
1373.806706678918
 30
0.0
 11
2824.281080329876
 21
1376.086706678917
 31
0.0
  0
LINE
  5
17E
330
BE
100
AcDbEntity
  8
0
  6
CONTINUOUS
 62
     7
100
AcDbLine
 10
2824.281080329888
 20
1375.928027022488
 30
0.0
 11
2824.361450545468
 21
1376.008397238068
 31
0.0
  0
LINE
  5
17F
330
BE
100
AcDbEntity
  8
0
  6
CONTINUOUS
 62
     7
100
AcDbLine
 10
2824.28108032988
 20
1375.220920241295
 30
0.0
 11
2824.719595538532
 21
1375.659435449946
 31
0.0
  0
LINE
  5
180
330
BE
100
AcDbEntity
  8
0
  6
CONTINUOUS
 62
     7
100
AcDbLine
 10
2824.281080329876
 20
1374.513813460102
 30
0.0
 11
2825.077740531607
 21
1375.310473661835
 31
0.0
  0
LINE
  5
181
330
BE
100
AcDbEntity
  8
0
  6
CONTINUOUS
 62
     7
100
AcDbLine
 10
2824.281080329855
 20
1373.806706678897
 30
0.0
 11
2825.435885524672
 21
1374.961511873712
 31
0.0
  0
LINE
  5
182
330
BE
100
AcDbEntity
  8
0
  6
CONTINUOUS
 62
     7
100
AcDbLine
 10
2824.988187111051
 20
1373.806706678902
 30
0.0
 11
2825.794030517734
 21
1374.612550085589
 31
0.0
  0
LINE
  5
183
330
BE
100
AcDbEntity
  8
0
  6
CONTINUOUS
 62
     7
100
AcDbLine
 10
2825.695293892243
 20
1373.80670667891
 30
0.0
 11
2826.15217551081
 21
1374.263588297479
 31
0.0
  0
LINE
  5
184
330
BE
100
AcDbEntity
  8
0
  6
CONTINUOUS
 62
     7
100
AcDbLine
 10
2826.402400673425
 20
1373.806706678905
 30
0.0
 11
2826.510320503877
 21
1373.914626509358
 31
0.0
  0
LINE
  5
185
330
BE
100
AcDbEntity
  8
0
  6
CONTINUOUS
 62
     7
100
AcDbLine
 10
2824.281080329872
 20
1351.685386335362
 30
0.0
 11
2824.389000160321
 21
1351.57746650491
 31
0.0
  0
LINE
  5
186
330
BE
100
AcDbEntity
  8
0
  6
CONTINUOUS
 62
     7
100
AcDbLine
 10
2824.281080329877
 20
1351.466706678917
 30
0.0
 11
2826.561080329876
 21
1353.806706678916
 31
0.0
  0
LINE
  5
187
330
BE
100
AcDbEntity
  8
0
  6
CONTINUOUS
 62
     7
100
AcDbLine
 10
2826.402400673429
 20
1353.806706678921
 30
0.0
 11
2826.482770889035
 21
1353.726336463319
 31
0.0
  0
LINE
  5
188
330
BE
100
AcDbEntity
  8
0
  6
CONTINUOUS
 62
     7
100
AcDbLine
 10
2825.695293892248
 20
1353.806706678916
 30
0.0
 11
2826.133809100909
 21
1353.368191470254
 31
0.0
  0
LINE
  5
189
330
BE
100
AcDbEntity
  8
0
  6
CONTINUOUS
 62
     7
100
AcDbLine
 10
2824.988187111055
 20
1353.806706678924
 30
0.0
 11
2825.784847312799
 21
1353.010046477179
 31
0.0
  0
LINE
  5
18A
330
BE
100
AcDbEntity
  8
0
  6
CONTINUOUS
 62
     7
100
AcDbLine
 10
2824.281080329863
 20
1353.80670667893
 30
0.0
 11
2825.435885524681
 21
1352.651901484115
 31
0.0
  0
LINE
  5
18B
330
BE
100
AcDbEntity
  8
0
  6
CONTINUOUS
 62
     7
100
AcDbLine
 10
2824.281080329869
 20
1353.099599897736
 30
0.0
 11
2825.086923736554
 21
1352.29375649105
 31
0.0
  0
LINE
  5
18C
330
BE
100
AcDbEntity
  8
0
  6
CONTINUOUS
 62
     7
100
AcDbLine
 10
2824.281080329876
 20
1352.392493116544
 30
0.0
 11
2824.737961948445
 21
1351.935611497975
 31
0.0
  0
LINE
  5
18D
330
BE
100
AcDbEntity
  8
0
  6
CONTINUOUS
 62
     7
100
AcDbLine
 10
2824.281080329876
 20
1353.806706678916
 30
0.0
 11
2829.977080329875
 21
1353.806706678916
 31
0.0
  0
ARC
  5
18E
330
BE
100
AcDbEntity
  8
0
  6
CONTINUOUS
 62
     7
100
AcDbCircle
 10
2825.890159875331
 20
1356.306706678916
 30
0.0
 40
4.790920454545454
100
AcDbArc
 50
328.5455606612213
 51
31.45443933877633
  0
LINE
  5
18F
330
BE
100
AcDbEntity
  8
0
  6
CONTINUOUS
 62
     7
100
AcDbLine
 10
2830.681080329874
 20
1356.306706678916
 30
0.0
 11
2830.681080329874
 21
1371.306706678916
 31
0.0
  0
ARC
  5
190
330
BE
100
AcDbEntity
  8
0
  6
CONTINUOUS
 62
     7
100
AcDbCircle
 10
2812.573398511693
 20
1363.806706678916
 30
0.0
 40
18.10768181818181
100
AcDbArc
 50
343.9708781133889
 51
16.02912188661214
  0
ARC
  5
191
330
BE
100
AcDbEntity
  8
0
  6
CONTINUOUS
 62
     7
100
AcDbCircle
 10
2825.890159875331
 20
1371.306706678916
 30
0.0
 40
4.790920454545454
100
AcDbArc
 50
328.5455606612239
 51
31.45443933877633
  0
LINE
  5
192
330
BE
100
AcDbEntity
  8
0
  6
CONTINUOUS
 62
     7
100
AcDbLine
 10
2819.281080329877
 20
1368.806706678916
 30
0.0
 11
2819.281080329877
 21
1358.806706678916
 31
0.0
  0
LINE
  5
193
330
BE
100
AcDbEntity
  8
0
  6
CONTINUOUS
 62
     7
100
AcDbLine
 10
2829.977080329875
 20
1358.806706678916
 30
0.0
 11
2801.405080329875
 21
1358.806706678916
 31
0.0
  0
LINE
  5
194
330
BE
100
AcDbEntity
  8
0
  6
CONTINUOUS
 62
     7
100
AcDbLine
 10
2829.977080329875
 20
1368.806706678916
 30
0.0
 11
2801.405080329875
 21
1368.806706678916
 31
0.0
  0
LINE
  5
195
330
BE
100
AcDbEntity
  8
0
  6
CONTINUOUS
 62
     7
100
AcDbLine
 10
2795.281080329876
 20
1358.806706678916
 30
0.0
 11
2794.281080329876
 21
1359.806706678915
 31
0.0
  0
LINE
  5
196
330
BE
100
AcDbEntity
  8
0
  6
CONTINUOUS
 62
     7
100
AcDbLine
 10
2795.281080329876
 20
1368.806706678916
 30
0.0
 11
2794.281080329876
 21
1367.806706678916
 31
0.0
  0
LINE
  5
197
330
BE
100
AcDbEntity
  8
0
  6
CONTINUOUS
 62
     7
100
AcDbLine
 10
2794.281080329876
 20
1359.806706678915
 30
0.0
 11
2794.281080329876
 21
1367.806706678916
 31
0.0
  0
LINE
  5
198
330
BE
100
AcDbEntity
  8
0
  6
CONTINUOUS
 62
     7
100
AcDbLine
 10
2800.481080329874
 20
1368.806706678916
 30
0.0
 11
2795.281080329876
 21
1368.806706678916
 31
0.0
  0
LINE
  5
199
330
BE
100
AcDbEntity
  8
0
  6
CONTINUOUS
 62
     7
100
AcDbLine
 10
2800.481080329874
 20
1358.806706678916
 30
0.0
 11
2795.281080329876
 21
1358.806706678916
 31
0.0
  0
LINE
  5
19A
330
BE
100
AcDbEntity
  8
0
  6
CONTINUOUS
 62
     7
100
AcDbLine
 10
2808.881080329876
 20
1373.806706678916
 30
0.0
 11
2801.405080329875
 21
1373.806706678916
 31
0.0
  0
LINE
  5
19B
330
BE
100
AcDbEntity
  8
0
  6
CONTINUOUS
 62
     7
100
AcDbLine
 10
2808.881080329876
 20
1353.806706678916
 30
0.0
 11
2801.405080329875
 21
1353.806706678916
 31
0.0
  0
ARC
  5
19C
330
BE
100
AcDbEntity
  8
0
  6
CONTINUOUS
 62
     7
100
AcDbCircle
 10
2804.325114961913
 20
1371.306706678916
 30
0.0
 40
3.844034632034633
100
AcDbArc
 50
139.4313750266288
 51
220.5686249733687
  0
ARC
  5
19D
330
BE
100
AcDbEntity
  8
0
  6
CONTINUOUS
 62
     7
100
AcDbCircle
 10
2814.471218858013
 20
1363.806706678916
 30
0.0
 40
13.99013852813853
100
AcDbArc
 50
159.0597243938583
 51
200.9402756061408
  0
ARC
  5
19E
330
BE
100
AcDbEntity
  8
0
  6
CONTINUOUS
 62
     7
100
AcDbCircle
 10
2804.325114961913
 20
1356.306706678916
 30
0.0
 40
3.844034632034633
100
AcDbArc
 50
139.4313750266313
 51
220.5686249733714
  0
LINE
  5
19F
330
BE
100
AcDbEntity
  8
0
  6
CONTINUOUS
 62
     7
100
AcDbLine
 10
2800.481080329874
 20
1371.306706678916
 30
0.0
 11
2800.481080329874
 21
1356.306706678916
 31
0.0
  0
ENDBLK
  5
C0
330
BE
100
AcDbEntity
  8
0
100
AcDbBlockEnd
  0
BLOCK
  5
206
330
205
100
AcDbEntity
  8
0
100
AcDbBlockBegin
  2
*D25
 70
     1
 10
0.0
 20
0.0
 30
0.0
  3
*D25
  1

  0
LINE
  5
208
330
205
100
AcDbEntity
  8
LAY-10
  6
CONTINUOUS
 62
     4
100
AcDbLine
 10
269.2810803298402
 20
824.9067071557615
 30
0.0
 11
269.2810803298403
 21
691.9067066788998
 31
0.0
  0
LINE
  5
209
330
205
100
AcDbEntity
  8
LAY-10
  6
CONTINUOUS
 62
     4
100
AcDbLine
 10
2269.28108032978
 20
824.9067071557615
 30
0.0
 11
2269.28108032978
 21
691.9067066788998
 31
0.0
  0
LINE
  5
20A
330
205
100
AcDbEntity
  8
LAY-10
  6
CONTINUOUS
 62
     4
100
AcDbLine
 10
294.2810803298403
 20
706.9067066788998
 30
0.0
 11
2244.28108032978
 21
706.9067066788998
 31
0.0
  0
INSERT
  5
20B
330
205
100
AcDbEntity
  8
LAY-10
 62
     4
100
AcDbBlockReference
  2
EX_BNORM
 10
269.2810803298403
 20
706.9067066788998
 30
0.0
 41
25.0
 42
25.0
 43
25.0
 50
180.0
  0
INSERT
  5
20C
330
205
100
AcDbEntity
  8
LAY-10
 62
     4
100
AcDbBlockReference
  2
EX_BNORM
 10
2269.28108032978
 20
706.9067066788998
 30
0.0
 41
25.0
 42
25.0
 43
25.0
  0
MTEXT
  5
20D
330
205
100
AcDbEntity
  8
LAY-10
 62
     7
100
AcDbMText
 10
1269.28108032981
 20
731.9067066788998
 30
0.0
 40
31.181104
 41
0.0
 71
     5
 72
     1
  1
2000
  7
EXCADDIM1
  0
POINT
  5
20E
330
205
100
AcDbEntity
  8
DEFPOINTS
 62
     0
100
AcDbPoint
 10
269.2810803298402
 20
842.9067066789244
 30
0.0
  0
POINT
  5
20F
330
205
100
AcDbEntity
  8
DEFPOINTS
 62
     0
100
AcDbPoint
 10
2269.28108032978
 20
842.9067066789244
 30
0.0
  0
POINT
  5
210
330
205
100
AcDbEntity
  8
DEFPOINTS
 62
     0
100
AcDbPoint
 10
2269.28108032978
 20
706.9067066788998
 30
0.0
  0
ENDBLK
  5
207
330
205
100
AcDbEntity
  8
0
100
AcDbBlockEnd
  0
BLOCK
  5
213
330
212
100
AcDbEntity
  8
0
100
AcDbBlockBegin
  2
*D26
 70
     1
 10
0.0
 20
0.0
 30
0.0
  3
*D26
  1

  0
LINE
  5
215
330
212
100
AcDbEntity
  8
LAY-10
  6
CONTINUOUS
 62
     4
100
AcDbLine
 10
214.28108032983
 20
951.9067066788762
 30
0.0
 11
214.2810803298298
 21
1121.9067066789
 31
0.0
  0
LINE
  5
216
330
212
100
AcDbEntity
  8
LAY-10
  6
CONTINUOUS
 62
     4
100
AcDbLine
 10
2324.28108032978
 20
951.9067066788762
 30
0.0
 11
2324.28108032978
 21
1121.9067066789
 31
0.0
  0
LINE
  5
217
330
212
100
AcDbEntity
  8
LAY-10
  6
CONTINUOUS
 62
     4
100
AcDbLine
 10
239.2810803298298
 20
1106.9067066789
 30
0.0
 11
2299.28108032978
 21
1106.9067066789
 31
0.0
  0
INSERT
  5
218
330
212
100
AcDbEntity
  8
LAY-10
 62
     4
100
AcDbBlockReference
  2
EX_BNORM
 10
214.2810803298298
 20
1106.9067066789
 30
0.0
 41
25.0
 42
25.0
 43
25.0
 50
180.0
  0
INSERT
  5
219
330
212
100
AcDbEntity
  8
LAY-10
 62
     4
100
AcDbBlockReference
  2
EX_BNORM
 10
2324.28108032978
 20
1106.9067066789
 30
0.0
 41
25.0
 42
25.0
 43
25.0
  0
MTEXT
  5
21A
330
212
100
AcDbEntity
  8
LAY-10
 62
     7
100
AcDbMText
 10
1269.281080329805
 20
1131.9067066789
 30
0.0
 40
31.181104
 41
0.0
 71
     5
 72
     1
  1
2110
  7
EXCADDIM1
  0
POINT
  5
21B
330
212
100
AcDbEntity
  8
DEFPOINTS
 62
     0
100
AcDbPoint
 10
214.28108032983
 20
936.9067066788762
 30
0.0
  0
POINT
  5
21C
330
212
100
AcDbEntity
  8
DEFPOINTS
 62
     0
100
AcDbPoint
 10
2324.28108032978
 20
936.9067066788762
 30
0.0
  0
POINT
  5
21D
330
212
100
AcDbEntity
  8
DEFPOINTS
 62
     0
100
AcDbPoint
 10
2324.28108032978
 20
1106.9067066789
 30
0.0
  0
ENDBLK
  5
214
330
212
100
AcDbEntity
  8
0
100
AcDbBlockEnd
  0
BLOCK
  5
220
330
21F
100
AcDbEntity
  8
0
100
AcDbBlockBegin
  2
*D27
 70
     1
 10
0.0
 20
0.0
 30
0.0
  3
*D27
  1

  0
LINE
  5
222
330
21F
100
AcDbEntity
  8
LAY-10
  6
CONTINUOUS
 62
     4
100
AcDbLine
 10
230.2810803298613
 20
951.9067066789034
 30
0.0
 11
230.2810803298613
 21
1051.9067066789
 31
0.0
  0
LINE
  5
223
330
21F
100
AcDbEntity
  8
LAY-10
  6
CONTINUOUS
 62
     4
100
AcDbLine
 10
644.2810803297613
 20
951.9067066789034
 30
0.0
 11
644.2810803297613
 21
1051.9067066789
 31
0.0
  0
LINE
  5
224
330
21F
100
AcDbEntity
  8
LAY-10
  6
CONTINUOUS
 62
     4
100
AcDbLine
 10
255.2810803298613
 20
1036.9067066789
 30
0.0
 11
619.2810803297613
 21
1036.9067066789
 31
0.0
  0
INSERT
  5
225
330
21F
100
AcDbEntity
  8
LAY-10
 62
     4
100
AcDbBlockReference
  2
EX_BNORM
 10
230.2810803298613
 20
1036.9067066789
 30
0.0
 41
25.0
 42
25.0
 43
25.0
 50
180.0
  0
INSERT
  5
226
330
21F
100
AcDbEntity
  8
LAY-10
 62
     4
100
AcDbBlockReference
  2
EX_BNORM
 10
644.2810803297613
 20
1036.9067066789
 30
0.0
 41
25.0
 42
25.0
 43
25.0
  0
MTEXT
  5
227
330
21F
100
AcDbEntity
  8
LAY-10
 62
     7
100
AcDbMText
 10
437.2810803298113
 20
1061.9067066789
 30
0.0
 40
31.181104
 41
0.0
 71
     5
 72
     1
  1
414
  7
EXCADDIM1
  0
POINT
  5
228
330
21F
100
AcDbEntity
  8
DEFPOINTS
 62
     0
100
AcDbPoint
 10
230.2810803298613
 20
936.9067066789034
 30
0.0
  0
POINT
  5
229
330
21F
100
AcDbEntity
  8
DEFPOINTS
 62
     0
100
AcDbPoint
 10
644.2810803297613
 20
936.9067066789034
 30
0.0
  0
POINT
  5
22A
330
21F
100
AcDbEntity
  8
DEFPOINTS
 62
     0
100
AcDbPoint
 10
644.2810803297613
 20
1036.9067066789
 30
0.0
  0
ENDBLK
  5
221
330
21F
100
AcDbEntity
  8
0
100
AcDbBlockEnd
  0
BLOCK
  5
22D
330
22C
100
AcDbEntity
  8
0
100
AcDbBlockBegin
  2
*D28
 70
     1
 10
0.0
 20
0.0
 30
0.0
  3
*D28
  1

  0
LINE
  5
22F
330
22C
100
AcDbEntity
  8
LAY-10
  6
CONTINUOUS
 62
     4
100
AcDbLine
 10
2339.28108032978
 20
936.9067066788762
 30
0.0
 11
2474.2810803298
 21
936.9067066788762
 31
0.0
  0
LINE
  5
230
330
22C
100
AcDbEntity
  8
LAY-10
  6
CONTINUOUS
 62
     4
100
AcDbLine
 10
2327.48108032978
 20
836.9067066788762
 30
0.0
 11
2474.2810803298
 21
836.9067066788762
 31
0.0
  0
LINE
  5
231
330
22C
100
AcDbEntity
  8
LAY-10
  6
CONTINUOUS
 62
     4
100
AcDbLine
 10
2459.2810803298
 20
911.9067066788762
 30
0.0
 11
2459.2810803298
 21
861.9067066788762
 31
0.0
  0
INSERT
  5
232
330
22C
100
AcDbEntity
  8
LAY-10
 62
     4
100
AcDbBlockReference
  2
EX_BNORM
 10
2459.2810803298
 20
936.9067066788762
 30
0.0
 41
25.0
 42
25.0
 43
25.0
 50
90.0
  0
INSERT
  5
233
330
22C
100
AcDbEntity
  8
LAY-10
 62
     4
100
AcDbBlockReference
  2
EX_BNORM
 10
2459.2810803298
 20
836.9067066788762
 30
0.0
 41
25.0
 42
25.0
 43
25.0
 50
270.0
  0
MTEXT
  5
234
330
22C
100
AcDbEntity
  8
LAY-10
 62
     7
100
AcDbMText
 10
2434.2810803298
 20
886.9067066788758
 30
0.0
 40
31.181104
 41
0.0
 71
     5
 72
     1
  1
100
  7
EXCADDIM1
 11
0.0
 21
1.0
 31
0.0
  0
POINT
  5
235
330
22C
100
AcDbEntity
  8
DEFPOINTS
 62
     0
100
AcDbPoint
 10
2324.28108032978
 20
936.9067066788762
 30
0.0
  0
POINT
  5
236
330
22C
100
AcDbEntity
  8
DEFPOINTS
 62
     0
100
AcDbPoint
 10
2312.48108032978
 20
836.9067066788762
 30
0.0
  0
POINT
  5
237
330
22C
100
AcDbEntity
  8
DEFPOINTS
 62
     0
100
AcDbPoint
 10
2459.2810803298
 20
836.9067066788762
 30
0.0
  0
ENDBLK
  5
22E
330
22C
100
AcDbEntity
  8
0
100
AcDbBlockEnd
  0
BLOCK
  5
60C
330
60B
100
AcDbEntity
  8
0
100
AcDbBlockBegin
  2
*D29
 70
     1
 10
0.0
 20
0.0
 30
0.0
  3
*D29
  1

  0
LINE
  5
60E
330
60B
100
AcDbEntity
  8
LAY-20
  6
CONTINUOUS
 62
     4
100
AcDbLine
 10
2315.4810803298
 20
824.9067066789003
 30
0.0
 11
2315.4810803298
 21
621.9067066788998
 31
0.0
  0
LINE
  5
60F
330
60B
100
AcDbEntity
  8
LAY-20
  6
CONTINUOUS
 62
     4
100
AcDbLine
 10
223.08108032983
 20
824.9067066789003
 30
0.0
 11
223.08108032983
 21
621.9067066788998
 31
0.0
  0
LINE
  5
610
330
60B
100
AcDbEntity
  8
LAY-20
  6
CONTINUOUS
 62
     4
100
AcDbLine
 10
2290.4810803298
 20
636.9067066788998
 30
0.0
 11
248.08108032983
 21
636.9067066788998
 31
0.0
  0
INSERT
  5
611
330
60B
100
AcDbEntity
  8
LAY-20
 62
     4
100
AcDbBlockReference
  2
EX_BNORM
 10
2315.4810803298
 20
636.9067066788998
 30
0.0
 41
25.0
 42
25.0
 43
25.0
  0
INSERT
  5
612
330
60B
100
AcDbEntity
  8
LAY-20
 62
     4
100
AcDbBlockReference
  2
EX_BNORM
 10
223.08108032983
 20
636.9067066788998
 30
0.0
 41
25.0
 42
25.0
 43
25.0
 50
180.0
  0
MTEXT
  5
613
330
60B
100
AcDbEntity
  8
LAY-20
 62
     7
100
AcDbMText
 10
1269.281080329815
 20
661.9067066788997
 30
0.0
 40
31.181104
 41
0.0
 71
     5
 72
     1
  1
2092
  7
EXCADDIM1
  0
POINT
  5
614
330
60B
100
AcDbEntity
  8
DEFPOINTS
 62
     0
100
AcDbPoint
 10
2315.4810803298
 20
839.9067066789003
 30
0.0
  0
POINT
  5
615
330
60B
100
AcDbEntity
  8
DEFPOINTS
 62
     0
100
AcDbPoint
 10
223.08108032983
 20
839.9067066789003
 30
0.0
  0
POINT
  5
616
330
60B
100
AcDbEntity
  8
DEFPOINTS
 62
     0
100
AcDbPoint
 10
223.08108032983
 20
636.9067066788998
 30
0.0
  0
ENDBLK
  5
60D
330
60B
100
AcDbEntity
  8
0
100
AcDbBlockEnd
  0
BLOCK
  5
619
330
618
100
AcDbEntity
  8
0
100
AcDbBlockBegin
  2
*D30
 70
     1
 10
0.0
 20
0.0
 30
0.0
  3
*D30
  1

  0
LINE
  5
61B
330
618
100
AcDbEntity
  8
LAY-20
  6
CONTINUOUS
 62
     4
100
AcDbLine
 10
1401.2810803298
 20
932.4067066789003
 30
0.0
 11
1401.2810803298
 21
936.9067066788998
 31
0.0
  0
LINE
  5
61C
330
618
100
AcDbEntity
  8
LAY-20
  6
CONTINUOUS
 62
     4
100
AcDbLine
 10
1401.2810803298
 20
907.4067066789003
 30
0.0
 11
1401.2810803298
 21
882.4067066789003
 31
0.0
  0
LINE
  5
61D
330
618
100
AcDbEntity
  8
LAY-20
  6
CONTINUOUS
 62
     4
100
AcDbLine
 10
1401.2810803298
 20
961.9067066788998
 30
0.0
 11
1401.2810803298
 21
986.9067066788998
 31
0.0
  0
INSERT
  5
61E
330
618
100
AcDbEntity
  8
LAY-20
 62
     4
100
AcDbBlockReference
  2
EX_BNORM
 10
1401.2810803298
 20
932.4067066789003
 30
0.0
 41
25.0
 42
25.0
 43
25.0
 50
90.0
  0
INSERT
  5
61F
330
618
100
AcDbEntity
  8
LAY-20
 62
     4
100
AcDbBlockReference
  2
EX_BNORM
 10
1401.2810803298
 20
936.9067066788998
 30
0.0
 41
25.0
 42
25.0
 43
25.0
 50
270.0
  0
MTEXT
  5
620
330
618
100
AcDbEntity
  8
LAY-20
 62
     7
100
AcDbMText
 10
1376.2810803298
 20
1001.906706678899
 30
0.0
 40
31.181104
 41
0.0
 71
     5
 72
     1
  1
4.5
  7
EXCADDIM1
 11
0.0
 21
1.0
 31
0.0
  0
POINT
  5
621
330
618
100
AcDbEntity
  8
DEFPOINTS
 62
     0
100
AcDbPoint
 10
1401.2810803298
 20
932.4067066789003
 30
0.0
  0
POINT
  5
622
330
618
100
AcDbEntity
  8
DEFPOINTS
 62
     0
100
AcDbPoint
 10
1401.2810803298
 20
936.9067066788998
 30
0.0
  0
POINT
  5
623
330
618
100
AcDbEntity
  8
DEFPOINTS
 62
     0
100
AcDbPoint
 10
1401.2810803298
 20
936.9067066788998
 30
0.0
  0
ENDBLK
  5
61A
330
618
100
AcDbEntity
  8
0
100
AcDbBlockEnd
  0
BLOCK
  5
626
330
625
100
AcDbEntity
  8
0
100
AcDbBlockBegin
  2
*D31
 70
     1
 10
0.0
 20
0.0
 30
0.0
  3
*D31
  1

  0
LINE
  5
628
330
625
100
AcDbEntity
  8
LAY-20
  6
CONTINUOUS
 62
     4
100
AcDbLine
 10
2709.2810803299
 20
2480.8067066789
 30
0.0
 11
2539.2810803299
 21
2480.8067066789
 31
0.0
  0
LINE
  5
629
330
625
100
AcDbEntity
  8
LAY-20
  6
CONTINUOUS
 62
     4
100
AcDbLine
 10
2709.2810803299
 20
1296.8067066789
 30
0.0
 11
2539.2810803299
 21
1296.8067066789
 31
0.0
  0
LINE
  5
62A
330
625
100
AcDbEntity
  8
LAY-20
  6
CONTINUOUS
 62
     4
100
AcDbLine
 10
2554.2810803299
 20
2455.8067066789
 30
0.0
 11
2554.2810803299
 21
1321.8067066789
 31
0.0
  0
INSERT
  5
62B
330
625
100
AcDbEntity
  8
LAY-20
 62
     4
100
AcDbBlockReference
  2
EX_BNORM
 10
2554.2810803299
 20
2480.8067066789
 30
0.0
 41
25.0
 42
25.0
 43
25.0
 50
90.0
  0
INSERT
  5
62C
330
625
100
AcDbEntity
  8
LAY-20
 62
     4
100
AcDbBlockReference
  2
EX_BNORM
 10
2554.2810803299
 20
1296.8067066789
 30
0.0
 41
25.0
 42
25.0
 43
25.0
 50
270.0
  0
MTEXT
  5
62D
330
625
100
AcDbEntity
  8
LAY-20
 62
     7
100
AcDbMText
 10
2529.2810803299
 20
1888.8067066789
 30
0.0
 40
31.181104
 41
0.0
 71
     5
 72
     1
  1
1184
  7
EXCADDIM1
 11
0.0
 21
1.0
 31
0.0
  0
POINT
  5
62E
330
625
100
AcDbEntity
  8
DEFPOINTS
 62
     0
100
AcDbPoint
 10
2724.2810803299
 20
2480.8067066789
 30
0.0
  0
POINT
  5
62F
330
625
100
AcDbEntity
  8
DEFPOINTS
 62
     0
100
AcDbPoint
 10
2724.2810803299
 20
1296.8067066789
 30
0.0
  0
POINT
  5
630
330
625
100
AcDbEntity
  8
DEFPOINTS
 62
     0
100
AcDbPoint
 10
2554.2810803299
 20
1296.8067066789
 30
0.0
  0
ENDBLK
  5
627
330
625
100
AcDbEntity
  8
0
100
AcDbBlockEnd
  0
BLOCK
  5
633
330
632
100
AcDbEntity
  8
0
100
AcDbBlockBegin
  2
*D32
 70
     1
 10
0.0
 20
0.0
 30
0.0
  3
*D32
  1

  0
LINE
  5
635
330
632
100
AcDbEntity
  8
LAY-20
  6
CONTINUOUS
 62
     4
100
AcDbLine
 10
2709.281080329878
 20
1312.806706678916
 30
0.0
 11
2609.2810803299
 21
1312.806706678916
 31
0.0
  0
LINE
  5
636
330
632
100
AcDbEntity
  8
LAY-20
  6
CONTINUOUS
 62
     4
100
AcDbLine
 10
2709.281080329878
 20
2464.806706678918
 30
0.0
 11
2609.2810803299
 21
2464.806706678918
 31
0.0
  0
LINE
  5
637
330
632
100
AcDbEntity
  8
LAY-20
  6
CONTINUOUS
 62
     4
100
AcDbLine
 10
2624.2810803299
 20
1337.806706678916
 30
0.0
 11
2624.2810803299
 21
2439.806706678918
 31
0.0
  0
INSERT
  5
638
330
632
100
AcDbEntity
  8
LAY-20
 62
     4
100
AcDbBlockReference
  2
EX_BNORM
 10
2624.2810803299
 20
1312.806706678916
 30
0.0
 41
25.0
 42
25.0
 43
25.0
 50
270.0
  0
INSERT
  5
639
330
632
100
AcDbEntity
  8
LAY-20
 62
     4
100
AcDbBlockReference
  2
EX_BNORM
 10
2624.2810803299
 20
2464.806706678918
 30
0.0
 41
25.0
 42
25.0
 43
25.0
 50
90.0
  0
MTEXT
  5
63A
330
632
100
AcDbEntity
  8
LAY-20
 62
     7
100
AcDbMText
 10
2599.2810803299
 20
1888.806706678917
 30
0.0
 40
31.181104
 41
0.0
 71
     5
 72
     1
  1
1152
  7
EXCADDIM1
 11
0.0
 21
1.0
 31
0.0
  0
POINT
  5
63B
330
632
100
AcDbEntity
  8
DEFPOINTS
 62
     0
100
AcDbPoint
 10
2724.281080329878
 20
1312.806706678916
 30
0.0
  0
POINT
  5
63C
330
632
100
AcDbEntity
  8
DEFPOINTS
 62
     0
100
AcDbPoint
 10
2724.281080329878
 20
2464.806706678918
 30
0.0
  0
POINT
  5
63D
330
632
100
AcDbEntity
  8
DEFPOINTS
 62
     0
100
AcDbPoint
 10
2624.2810803299
 20
2464.806706678918
 30
0.0
  0
ENDBLK
  5
634
330
632
100
AcDbEntity
  8
0
100
AcDbBlockEnd
  0
BLOCK
  5
640
330
63F
100
AcDbEntity
  8
0
100
AcDbBlockBegin
  2
*D33
 70
     1
 10
0.0
 20
0.0
 30
0.0
  3
*D33
  1

  0
LINE
  5
642
330
63F
100
AcDbEntity
  8
LAY-20
  6
CONTINUOUS
 62
     4
100
AcDbLine
 10
2869.2810803299
 20
2388.8067066788
 30
0.0
 11
2969.2810803299
 21
2388.8067066788
 31
0.0
  0
LINE
  5
643
330
63F
100
AcDbEntity
  8
LAY-20
  6
CONTINUOUS
 62
     4
100
AcDbLine
 10
2869.2810803299
 20
1388.8067066789
 30
0.0
 11
2969.2810803299
 21
1388.8067066789
 31
0.0
  0
LINE
  5
644
330
63F
100
AcDbEntity
  8
LAY-20
  6
CONTINUOUS
 62
     4
100
AcDbLine
 10
2954.2810803299
 20
2363.8067066788
 30
0.0
 11
2954.2810803299
 21
1413.8067066789
 31
0.0
  0
INSERT
  5
645
330
63F
100
AcDbEntity
  8
LAY-20
 62
     4
100
AcDbBlockReference
  2
EX_BNORM
 10
2954.2810803299
 20
2388.8067066788
 30
0.0
 41
25.0
 42
25.0
 43
25.0
 50
90.0
  0
INSERT
  5
646
330
63F
100
AcDbEntity
  8
LAY-20
 62
     4
100
AcDbBlockReference
  2
EX_BNORM
 10
2954.2810803299
 20
1388.8067066789
 30
0.0
 41
25.0
 42
25.0
 43
25.0
 50
270.0
  0
MTEXT
  5
647
330
63F
100
AcDbEntity
  8
LAY-20
 62
     7
100
AcDbMText
 10
2929.2810803299
 20
1888.80670667885
 30
0.0
 40
31.181104
 41
0.0
 71
     5
 72
     1
  1
1000
  7
EXCADDIM1
 11
0.0
 21
1.0
 31
0.0
  0
POINT
  5
648
330
63F
100
AcDbEntity
  8
DEFPOINTS
 62
     0
100
AcDbPoint
 10
2854.2810803299
 20
2388.8067066788
 30
0.0
  0
POINT
  5
649
330
63F
100
AcDbEntity
  8
DEFPOINTS
 62
     0
100
AcDbPoint
 10
2854.2810803299
 20
1388.8067066789
 30
0.0
  0
POINT
  5
64A
330
63F
100
AcDbEntity
  8
DEFPOINTS
 62
     0
100
AcDbPoint
 10
2954.2810803299
 20
1388.8067066789
 30
0.0
  0
ENDBLK
  5
641
330
63F
100
AcDbEntity
  8
0
100
AcDbBlockEnd
  0
BLOCK
  5
64D
330
64C
100
AcDbEntity
  8
0
100
AcDbBlockBegin
  2
*D34
 70
     1
 10
0.0
 20
0.0
 30
0.0
  3
*D34
  1

  0
LINE
  5
64F
330
64C
100
AcDbEntity
  8
LAY-20
  6
CONTINUOUS
 62
     4
100
AcDbLine
 10
2792.9810803299
 20
2472.0067066789
 30
0.0
 11
3039.281080329901
 21
2472.0067066789
 31
0.0
  0
LINE
  5
650
330
64C
100
AcDbEntity
  8
LAY-20
  6
CONTINUOUS
 62
     4
100
AcDbLine
 10
2792.9810803299
 20
1305.6067066789
 30
0.0
 11
3039.281080329901
 21
1305.6067066789
 31
0.0
  0
LINE
  5
651
330
64C
100
AcDbEntity
  8
LAY-20
  6
CONTINUOUS
 62
     4
100
AcDbLine
 10
3024.281080329901
 20
2447.0067066789
 30
0.0
 11
3024.281080329901
 21
1330.6067066789
 31
0.0
  0
INSERT
  5
652
330
64C
100
AcDbEntity
  8
LAY-20
 62
     4
100
AcDbBlockReference
  2
EX_BNORM
 10
3024.281080329901
 20
2472.0067066789
 30
0.0
 41
25.0
 42
25.0
 43
25.0
 50
90.0
  0
INSERT
  5
653
330
64C
100
AcDbEntity
  8
LAY-20
 62
     4
100
AcDbBlockReference
  2
EX_BNORM
 10
3024.281080329901
 20
1305.6067066789
 30
0.0
 41
25.0
 42
25.0
 43
25.0
 50
270.0
  0
MTEXT
  5
654
330
64C
100
AcDbEntity
  8
LAY-20
 62
     7
100
AcDbMText
 10
2999.281080329901
 20
1888.8067066789
 30
0.0
 40
31.181104
 41
0.0
 71
     5
 72
     1
  1
1166
  7
EXCADDIM1
 11
0.0
 21
1.0
 31
0.0
  0
POINT
  5
655
330
64C
100
AcDbEntity
  8
DEFPOINTS
 62
     0
100
AcDbPoint
 10
2777.9810803299
 20
2472.0067066789
 30
0.0
  0
POINT
  5
656
330
64C
100
AcDbEntity
  8
DEFPOINTS
 62
     0
100
AcDbPoint
 10
2777.9810803299
 20
1305.6067066789
 30
0.0
  0
POINT
  5
657
330
64C
100
AcDbEntity
  8
DEFPOINTS
 62
     0
100
AcDbPoint
 10
3024.281080329901
 20
1305.6067066789
 30
0.0
  0
ENDBLK
  5
64E
330
64C
100
AcDbEntity
  8
0
100
AcDbBlockEnd
  0
ENDSEC
  0
SECTION
  2
ENTITIES
  0
INSERT
  5
1A0
330
1F
100
AcDbEntity
  8
LAY-10
  6
CONTINUOUS
 62
     0
100
AcDbBlockReference
  2
SYM-1
 10
0.0
 20
0.0
 30
0.0
  0
INSERT
  5
1A1
330
1F
100
AcDbEntity
  8
LAY-10
  6
CONTINUOUS
 62
     0
100
AcDbBlockReference
  2
SYM-2
 10
0.0
 20
0.0
 30
0.0
  0
INSERT
  5
1A2
330
1F
100
AcDbEntity
  8
LAY-10
  6
CONTINUOUS
 62
     0
100
AcDbBlockReference
  2
SYM-3
 10
0.0
 20
0.0
 30
0.0
  0
INSERT
  5
1A3
330
1F
100
AcDbEntity
  8
LAY-10
  6
CONTINUOUS
 62
     0
100
AcDbBlockReference
  2
SYM-4
 10
0.0
 20
0.0
 30
0.0
  0
INSERT
  5
1A4
330
1F
100
AcDbEntity
  8
LAY-10
  6
CONTINUOUS
 62
     0
100
AcDbBlockReference
  2
SYM-5
 10
0.0
 20
0.0
 30
0.0
  0
INSERT
  5
1A5
330
1F
100
AcDbEntity
  8
LAY-10
  6
CONTINUOUS
 62
     0
100
AcDbBlockReference
  2
SYM-6
 10
0.0
 20
0.0
 30
0.0
  0
INSERT
  5
1A6
330
1F
100
AcDbEntity
  8
LAY-10
  6
CONTINUOUS
 62
     0
100
AcDbBlockReference
  2
SYM-7
 10
0.0
 20
0.0
 30
0.0
  0
INSERT
  5
1A7
330
1F
100
AcDbEntity
  8
LAY-10
  6
CONTINUOUS
 62
     0
100
AcDbBlockReference
  2
SYM-8
 10
0.0
 20
0.0
 30
0.0
  0
INSERT
  5
1A8
330
1F
100
AcDbEntity
  8
LAY-10
  6
CONTINUOUS
 62
     0
100
AcDbBlockReference
  2
SYM-9
 10
0.0
 20
0.0
 30
0.0
  0
INSERT
  5
1A9
330
1F
100
AcDbEntity
  8
LAY-10
  6
CONTINUOUS
 62
     0
100
AcDbBlockReference
  2
SYM-10
 10
0.0
 20
0.0
 30
0.0
  0
LINE
  5
1AA
330
1F
100
AcDbEntity
  8
LAY-10
  6
CONTINUOUS
 62
     7
100
AcDbLine
 10
229.2810803298328
 20
936.9067066789034
 30
0.0
 11
229.2810803298328
 21
921.9067066789044
 31
0.0
  0
LINE
  5
1AB
330
1F
100
AcDbEntity
  8
LAY-10
  6
CONTINUOUS
 62
     7
100
AcDbLine
 10
226.2810803298328
 20
933.9067066789045
 30
0.0
 11
214.2810803298328
 21
933.9067066789045
 31
0.0
  0
LINE
  5
1AC
330
1F
100
AcDbEntity
  8
LAY-10
  6
CONTINUOUS
 62
     7
100
AcDbLine
 10
229.2810803298328
 20
921.9067066789044
 30
0.0
 11
226.2810803298328
 21
921.9067066789044
 31
0.0
  0
LINE
  5
1AD
330
1F
100
AcDbEntity
  8
LAY-10
  6
CONTINUOUS
 62
     7
100
AcDbLine
 10
214.2810803298328
 20
936.9067066789034
 30
0.0
 11
214.2810803298328
 21
933.9067066789045
 31
0.0
  0
LINE
  5
1AE
330
1F
100
AcDbEntity
  8
LAY-10
  6
CONTINUOUS
 62
     7
100
AcDbLine
 10
229.2810803298328
 20
936.9067066789034
 30
0.0
 11
214.2810803298328
 21
936.9067066789034
 31
0.0
  0
LINE
  5
1AF
330
1F
100
AcDbEntity
  8
LAY-10
  6
CONTINUOUS
 62
     7
100
AcDbLine
 10
279.2810803298327
 20
849.1067066789033
 30
0.0
 11
279.2810803298327
 21
819.1067066789033
 31
0.0
  0
LINE
  5
1B0
330
1F
100
AcDbEntity
  8
LAY-10
  6
CONTINUOUS
 62
     7
100
AcDbLine
 10
282.281080329831
 20
842.1067066789042
 30
0.0
 11
282.281080329831
 21
821.1067066789042
 31
0.0
  0
LINE
  5
1B1
330
1F
100
AcDbEntity
  8
LAY-10
  6
CONTINUOUS
 62
     7
100
AcDbLine
 10
309.2810803298327
 20
849.1067066789033
 30
0.0
 11
309.2810803298327
 21
848.1067066789033
 31
0.0
  0
ARC
  5
1B2
330
1F
100
AcDbEntity
  8
LAY-10
  6
CONTINUOUS
 62
     7
100
AcDbCircle
 10
280.281080329831
 20
821.1067066789042
 30
0.0
 40
2.0
100
AcDbArc
 50
270.0000000000002
 51
0.0
  0
ARC
  5
1B3
330
1F
100
AcDbEntity
  8
LAY-10
  6
CONTINUOUS
 62
     7
100
AcDbCircle
 10
307.2810803298328
 20
848.1067066789033
 30
0.0
 40
2.0
100
AcDbArc
 50
270.0000000000002
 51
0.0
  0
ARC
  5
1B4
330
1F
100
AcDbEntity
  8
LAY-10
  6
CONTINUOUS
 62
     7
100
AcDbCircle
 10
286.2810803298328
 20
842.1067066789042
 30
0.0
 40
4.0
100
AcDbArc
 50
90.00000000000001
 51
180.0
  0
LINE
  5
1B5
330
1F
100
AcDbEntity
  8
LAY-10
  6
CONTINUOUS
 62
     7
100
AcDbLine
 10
2309.281080329829
 20
936.9067066789021
 30
0.0
 11
2309.281080329829
 21
921.9067066789021
 31
0.0
  0
LINE
  5
1B6
330
1F
100
AcDbEntity
  8
LAY-10
  6
CONTINUOUS
 62
     7
100
AcDbLine
 10
2309.281080329829
 20
936.9067066789021
 30
0.0
 11
2324.281080329829
 21
936.9067066789021
 31
0.0
  0
LINE
  5
1B7
330
1F
100
AcDbEntity
  8
LAY-10
  6
CONTINUOUS
 62
     7
100
AcDbLine
 10
2312.281080329829
 20
933.9067066789025
 30
0.0
 11
2324.281080329829
 21
933.9067066789025
 31
0.0
  0
LINE
  5
1B8
330
1F
100
AcDbEntity
  8
LAY-10
  6
CONTINUOUS
 62
     7
100
AcDbLine
 10
2309.281080329829
 20
921.9067066789021
 30
0.0
 11
2312.281080329829
 21
921.9067066789021
 31
0.0
  0
LINE
  5
1B9
330
1F
100
AcDbEntity
  8
LAY-10
  6
CONTINUOUS
 62
     7
100
AcDbLine
 10
2324.281080329829
 20
936.9067066789021
 30
0.0
 11
2324.281080329829
 21
933.9067066789025
 31
0.0
  0
LINE
  5
1BA
330
1F
100
AcDbEntity
  8
LAY-10
  6
CONTINUOUS
 62
     7
100
AcDbLine
 10
2259.281080329829
 20
849.1067066789033
 30
0.0
 11
2259.281080329829
 21
819.1067066789043
 31
0.0
  0
LINE
  5
1BB
330
1F
100
AcDbEntity
  8
LAY-10
  6
CONTINUOUS
 62
     7
100
AcDbLine
 10
2256.281080329829
 20
842.1067066789033
 30
0.0
 11
2256.281080329829
 21
821.1067066789042
 31
0.0
  0
LINE
  5
1BC
330
1F
100
AcDbEntity
  8
LAY-10
  6
CONTINUOUS
 62
     7
100
AcDbLine
 10
2229.281080329829
 20
849.1067066789033
 30
0.0
 11
2229.281080329829
 21
848.1067066789042
 31
0.0
  0
ARC
  5
1BD
330
1F
100
AcDbEntity
  8
LAY-10
  6
CONTINUOUS
 62
     7
100
AcDbCircle
 10
2258.281080329829
 20
821.1067066789042
 30
0.0
 40
2.0
100
AcDbArc
 50
180.0
 51
270.0000000000002
  0
ARC
  5
1BE
330
1F
100
AcDbEntity
  8
LAY-10
  6
CONTINUOUS
 62
     7
100
AcDbCircle
 10
2231.281080329829
 20
848.1067066789042
 30
0.0
 40
2.0
100
AcDbArc
 50
180.0
 51
270.0000000000002
  0
ARC
  5
1BF
330
1F
100
AcDbEntity
  8
LAY-10
  6
CONTINUOUS
 62
     7
100
AcDbCircle
 10
2252.281080329829
 20
842.1067066789033
 30
0.0
 40
4.0
100
AcDbArc
 50
0.0
 51
90.00000000000001
  0
LINE
  5
1C0
330
1F
100
AcDbEntity
  8
LAY-10
  6
CONTINUOUS
 62
     7
100
AcDbLine
 10
233.781080329831
 20
854.3067066789041
 30
0.0
 11
254.7810803298329
 21
854.3067066789041
 31
0.0
  0
LINE
  5
1C1
330
1F
100
AcDbEntity
  8
LAY-10
  6
CONTINUOUS
 62
     7
100
AcDbLine
 10
254.7810803298329
 20
854.3067066789041
 30
0.0
 11
254.7810803298329
 21
852.306706678904
 31
0.0
  0
LINE
  5
1C2
330
1F
100
AcDbEntity
  8
LAY-10
  6
CONTINUOUS
 62
     7
100
AcDbLine
 10
233.781080329831
 20
854.3067066789041
 30
0.0
 11
233.781080329831
 21
852.306706678904
 31
0.0
  0
LINE
  5
1C3
330
1F
100
AcDbEntity
  8
LAY-10
  6
CONTINUOUS
 62
     7
100
AcDbLine
 10
254.281080329831
 20
854.3067066789041
 30
0.0
 11
254.281080329831
 21
861.7827066789037
 31
0.0
  0
LINE
  5
1C4
330
1F
100
AcDbEntity
  8
LAY-10
  6
CONTINUOUS
 62
     7
100
AcDbLine
 10
234.2810803298328
 20
854.3067066789041
 30
0.0
 11
234.2810803298328
 21
861.7827066789037
 31
0.0
  0
ARC
  5
1C5
330
1F
100
AcDbEntity
  8
LAY-10
  6
CONTINUOUS
 62
     7
100
AcDbCircle
 10
251.781080329831
 20
858.8626720468687
 30
0.0
 40
3.844034632034633
100
AcDbArc
 50
49.43137502658949
 51
130.5686249733964
  0
ARC
  5
1C6
330
1F
100
AcDbEntity
  8
LAY-10
  6
CONTINUOUS
 62
     7
100
AcDbCircle
 10
244.2810803298327
 20
848.7165681507654
 30
0.0
 40
13.99013852813853
100
AcDbArc
 50
69.0597243938637
 51
110.9402756061452
  0
ARC
  5
1C7
330
1F
100
AcDbEntity
  8
LAY-10
  6
CONTINUOUS
 62
     7
100
AcDbCircle
 10
236.7810803298292
 20
858.8626720468687
 30
0.0
 40
3.844034632034633
100
AcDbArc
 50
49.43137502658278
 51
130.5686249733802
  0
LINE
  5
1C8
330
1F
100
AcDbEntity
  8
LAY-10
  6
CONTINUOUS
 62
     7
100
AcDbLine
 10
251.781080329831
 20
862.7067066789036
 30
0.0
 11
236.7810803298292
 21
862.7067066789036
 31
0.0
  0
LINE
  5
1C9
330
1F
100
AcDbEntity
  8
LAY-10
  6
CONTINUOUS
 62
     7
100
AcDbLine
 10
2283.781080329829
 20
854.3067066789041
 30
0.0
 11
2304.781080329831
 21
854.3067066789041
 31
0.0
  0
LINE
  5
1CA
330
1F
100
AcDbEntity
  8
LAY-10
  6
CONTINUOUS
 62
     7
100
AcDbLine
 10
2304.781080329831
 20
854.3067066789041
 30
0.0
 11
2304.781080329831
 21
852.306706678904
 31
0.0
  0
LINE
  5
1CB
330
1F
100
AcDbEntity
  8
LAY-10
  6
CONTINUOUS
 62
     7
100
AcDbLine
 10
2283.781080329829
 20
854.3067066789041
 30
0.0
 11
2283.781080329829
 21
852.306706678904
 31
0.0
  0
LINE
  5
1CC
330
1F
100
AcDbEntity
  8
LAY-10
  6
CONTINUOUS
 62
     7
100
AcDbLine
 10
2304.281080329829
 20
854.3067066789041
 30
0.0
 11
2304.281080329829
 21
861.7827066789046
 31
0.0
  0
LINE
  5
1CD
330
1F
100
AcDbEntity
  8
LAY-10
  6
CONTINUOUS
 62
     7
100
AcDbLine
 10
2284.281080329831
 20
854.3067066789041
 30
0.0
 11
2284.281080329831
 21
861.7827066789046
 31
0.0
  0
ARC
  5
1CE
330
1F
100
AcDbEntity
  8
LAY-10
  6
CONTINUOUS
 62
     7
100
AcDbCircle
 10
2301.781080329829
 20
858.8626720468687
 30
0.0
 40
3.844034632034633
100
AcDbArc
 50
49.43137502657321
 51
130.5686249734077
  0
ARC
  5
1CF
330
1F
100
AcDbEntity
  8
LAY-10
  6
CONTINUOUS
 62
     7
100
AcDbCircle
 10
2294.281080329829
 20
848.7165681507654
 30
0.0
 40
13.99013852813853
100
AcDbArc
 50
69.05972439386198
 51
110.9402756061418
  0
ARC
  5
1D0
330
1F
100
AcDbEntity
  8
LAY-10
  6
CONTINUOUS
 62
     7
100
AcDbCircle
 10
2286.781080329829
 20
858.8626720468687
 30
0.0
 40
3.844034632034633
100
AcDbArc
 50
49.43137502660484
 51
130.5686249733852
  0
LINE
  5
1D1
330
1F
100
AcDbEntity
  8
LAY-10
  6
CONTINUOUS
 62
     7
100
AcDbLine
 10
2301.781080329829
 20
862.7067066789036
 30
0.0
 11
2286.781080329829
 21
862.7067066789036
 31
0.0
  0
LINE
  5
1D2
330
1F
100
AcDbEntity
  8
LAY-10
  6
CONTINUOUS
 62
     7
100
AcDbLine
 10
232.051840155835
 20
836.7987868484665
 30
0.0
 11
232.1597599862855
 21
836.906706678918
 31
0.0
  0
LINE
  5
1D3
330
1F
100
AcDbEntity
  8
LAY-10
  6
CONTINUOUS
 62
     7
100
AcDbLine
 10
232.4099851488993
 20
836.4498250603442
 30
0.0
 11
232.8668667674667
 21
836.9067066789125
 31
0.0
  0
LINE
  5
1D4
330
1F
100
AcDbEntity
  8
LAY-10
  6
CONTINUOUS
 62
     7
100
AcDbLine
 10
232.7681301419636
 20
836.1008632722219
 30
0.0
 11
233.5739735486607
 21
836.9067066789189
 31
0.0
  0
LINE
  5
1D5
330
1F
100
AcDbEntity
  8
LAY-10
  6
CONTINUOUS
 62
     7
100
AcDbLine
 10
233.1262751350389
 20
835.7519014841114
 30
0.0
 11
234.2810803298309
 21
836.9067066789025
 31
0.0
  0
LINE
  5
1D6
330
1F
100
AcDbEntity
  8
LAY-10
  6
CONTINUOUS
 62
     7
100
AcDbLine
 10
233.4844201281032
 20
835.4029396959891
 30
0.0
 11
234.2810803298237
 21
836.1995998977096
 31
0.0
  0
LINE
  5
1D7
330
1F
100
AcDbEntity
  8
LAY-10
  6
CONTINUOUS
 62
     7
100
AcDbLine
 10
233.8425651211676
 20
835.0539779078658
 30
0.0
 11
234.28108032984
 21
835.4924931165402
 31
0.0
  0
LINE
  5
1D8
330
1F
100
AcDbEntity
  8
LAY-10
  6
CONTINUOUS
 62
     7
100
AcDbLine
 10
234.200710114232
 20
834.7050161197435
 30
0.0
 11
234.2810803298218
 21
834.7853863353353
 31
0.0
  0
LINE
  5
1D9
330
1F
100
AcDbEntity
  8
LAY-10
  6
CONTINUOUS
 62
     7
100
AcDbLine
 10
256.4024006733837
 20
836.9067066789125
 30
0.0
 11
256.4827708889973
 21
836.826336463298
 31
0.0
  0
LINE
  5
1DA
330
1F
100
AcDbEntity
  8
LAY-10
  6
CONTINUOUS
 62
     7
100
AcDbLine
 10
255.6952938921897
 20
836.9067066789189
 30
0.0
 11
256.133809100875
 21
836.4681914702337
 31
0.0
  0
LINE
  5
1DB
330
1F
100
AcDbEntity
  8
LAY-10
  6
CONTINUOUS
 62
     7
100
AcDbLine
 10
254.9881871110085
 20
836.9067066789135
 30
0.0
 11
255.7848473127653
 21
836.1100464771584
 31
0.0
  0
LINE
  5
1DC
330
1F
100
AcDbEntity
  8
LAY-10
  6
CONTINUOUS
 62
     7
100
AcDbLine
 10
254.2810803298273
 20
836.906706678908
 30
0.0
 11
255.4358855246413
 21
835.7519014840941
 31
0.0
  0
LINE
  5
1DD
330
1F
100
AcDbEntity
  8
LAY-10
  6
CONTINUOUS
 62
     7
100
AcDbLine
 10
254.2810803298327
 20
836.1995998977159
 30
0.0
 11
255.086923736519
 21
835.3937564910298
 31
0.0
  0
LINE
  5
1DE
330
1F
100
AcDbEntity
  8
LAY-10
  6
CONTINUOUS
 62
     7
100
AcDbLine
 10
254.2810803298401
 20
835.4924931165228
 30
0.0
 11
254.7379619483966
 21
835.0356114979655
 31
0.0
  0
LINE
  5
1DF
330
1F
100
AcDbEntity
  8
LAY-10
  6
CONTINUOUS
 62
     7
100
AcDbLine
 10
254.2810803298346
 20
834.7853863353407
 30
0.0
 11
254.389000160287
 21
834.6774665048893
 31
0.0
  0
LINE
  5
1E0
330
1F
100
AcDbEntity
  8
LAY-10
  6
CONTINUOUS
 62
     7
100
AcDbLine
 10
2282.051840155817
 20
836.7987868484502
 30
0.0
 11
2282.159759986267
 21
836.9067066789025
 31
0.0
  0
LINE
  5
1E1
330
1F
100
AcDbEntity
  8
LAY-10
  6
CONTINUOUS
 62
     7
100
AcDbLine
 10
2282.409985148879
 20
836.4498250603278
 30
0.0
 11
2282.866866767449
 21
836.9067066788972
 31
0.0
  0
LINE
  5
1E2
330
1F
100
AcDbEntity
  8
LAY-10
  6
CONTINUOUS
 62
     7
100
AcDbLine
 10
2282.768130141957
 20
836.1008632722173
 30
0.0
 11
2283.573973548642
 21
836.9067066789034
 31
0.0
  0
LINE
  5
1E3
330
1F
100
AcDbEntity
  8
LAY-10
  6
CONTINUOUS
 62
     7
100
AcDbLine
 10
2283.126275135021
 20
835.751901484095
 30
0.0
 11
2284.281080329824
 21
836.906706678898
 31
0.0
  0
LINE
  5
1E4
330
1F
100
AcDbEntity
  8
LAY-10
  6
CONTINUOUS
 62
     7
100
AcDbLine
 10
2283.484420128085
 20
835.4029396959727
 30
0.0
 11
2284.281080329829
 21
836.1995998977168
 31
0.0
  0
LINE
  5
1E5
330
1F
100
AcDbEntity
  8
LAY-10
  6
CONTINUOUS
 62
     7
100
AcDbLine
 10
2283.842565121148
 20
835.0539779078504
 30
0.0
 11
2284.281080329822
 21
835.4924931165237
 31
0.0
  0
LINE
  5
1E6
330
1F
100
AcDbEntity
  8
LAY-10
  6
CONTINUOUS
 62
     7
100
AcDbLine
 10
2284.200710114224
 20
834.705016119739
 30
0.0
 11
2284.281080329828
 21
834.7853863353425
 31
0.0
  0
LINE
  5
1E7
330
1F
100
AcDbEntity
  8
LAY-10
  6
CONTINUOUS
 62
     7
100
AcDbLine
 10
2306.402400673377
 20
836.9067066789171
 30
0.0
 11
2306.482770888979
 21
836.8263364633145
 31
0.0
  0
LINE
  5
1E8
330
1F
100
AcDbEntity
  8
LAY-10
  6
CONTINUOUS
 62
     7
100
AcDbLine
 10
2305.695293892197
 20
836.9067066789116
 30
0.0
 11
2306.13380910087
 21
836.4681914702373
 31
0.0
  0
LINE
  5
1E9
330
1F
100
AcDbEntity
  8
LAY-10
  6
CONTINUOUS
 62
     7
100
AcDbLine
 10
2304.988187111014
 20
836.9067066789063
 30
0.0
 11
2305.784847312747
 21
836.1100464771739
 31
0.0
  0
LINE
  5
1EA
330
1F
100
AcDbEntity
  8
LAY-10
  6
CONTINUOUS
 62
     7
100
AcDbLine
 10
2304.281080329833
 20
836.9067066789007
 30
0.0
 11
2305.435885524625
 21
835.7519014841097
 31
0.0
  0
LINE
  5
1EB
330
1F
100
AcDbEntity
  8
LAY-10
  6
CONTINUOUS
 62
     7
100
AcDbLine
 10
2304.281080329828
 20
836.1995998977204
 30
0.0
 11
2305.086923736503
 21
835.3937564910452
 31
0.0
  0
LINE
  5
1EC
330
1F
100
AcDbEntity
  8
LAY-10
  6
CONTINUOUS
 62
     7
100
AcDbLine
 10
2304.281080329834
 20
835.4924931165274
 30
0.0
 11
2304.737961948391
 21
835.0356114979701
 31
0.0
  0
LINE
  5
1ED
330
1F
100
AcDbEntity
  8
LAY-10
  6
CONTINUOUS
 62
     7
100
AcDbLine
 10
2304.281080329816
 20
834.785386335358
 30
0.0
 11
2304.389000160269
 21
834.6774665049056
 31
0.0
  0
LINE
  5
1EE
330
1F
100
AcDbEntity
  8
LAY-10
  6
CONTINUOUS
 62
     7
100
AcDbLine
 10
2272.597442194533
 20
845.810615439304
 30
0.0
 11
2275.316118178831
 21
848.5292914236029
 31
0.0
  0
LINE
  5
1EF
330
1F
100
AcDbEntity
  8
LAY-10
  6
CONTINUOUS
 62
     7
100
AcDbLine
 10
2272.415625540631
 20
844.2145852230038
 30
0.0
 11
2277.265701785731
 21
849.0646614682032
 31
0.0
  0
LINE
  5
1F0
330
1F
100
AcDbEntity
  8
LAY-10
  6
CONTINUOUS
 62
     7
100
AcDbLine
 10
2272.728496403332
 20
843.1132425234032
 30
0.0
 11
2278.720597876032
 21
849.1053439961038
 31
0.0
  0
LINE
  5
1F1
330
1F
100
AcDbEntity
  8
LAY-10
  6
CONTINUOUS
 62
     7
100
AcDbLine
 10
2276.920399630631
 20
840.2340779388038
 30
0.0
 11
2283.367529413532
 21
846.6812077217032
 31
0.0
  0
LINE
  5
1F2
330
1F
100
AcDbEntity
  8
LAY-10
  6
CONTINUOUS
 62
     7
100
AcDbLine
 10
2278.223943448033
 20
840.1234081939033
 30
0.0
 11
2283.831752549031
 21
845.7312172949037
 31
0.0
  0
LINE
  5
1F3
330
1F
100
AcDbEntity
  8
LAY-10
  6
CONTINUOUS
 62
     7
100
AcDbLine
 10
2279.815331978931
 20
840.3005831624037
 30
0.0
 11
2284.008130971132
 21
844.4933821546033
 31
0.0
  0
LINE
  5
1F4
330
1F
100
AcDbEntity
  8
LAY-10
  6
CONTINUOUS
 62
     7
100
AcDbLine
 10
2273.271616247065
 20
842.2421488047371
 30
0.0
 11
2279.945244985233
 21
848.9157775429035
 31
0.0
  0
LINE
  5
1F5
330
1F
100
AcDbEntity
  8
LAY-10
  6
CONTINUOUS
 62
     7
100
AcDbLine
 10
2273.97736882227
 20
841.53368781783
 30
0.0
 11
2281.007259362832
 21
848.5635783581034
 31
0.0
  0
LINE
  5
1F6
330
1F
100
AcDbEntity
  8
LAY-10
  6
CONTINUOUS
 62
     7
100
AcDbLine
 10
2274.821222130132
 20
840.9633275631091
 30
0.0
 11
2281.931173008032
 21
848.0732784410034
 31
0.0
  0
LINE
  5
1F7
330
1F
100
AcDbEntity
  8
LAY-10
  6
CONTINUOUS
 62
     7
100
AcDbLine
 10
2275.798381969921
 20
840.5262738404936
 30
0.0
 11
2282.721780121232
 21
847.4496719918039
 31
0.0
  0
LINE
  5
1F8
330
1F
100
AcDbEntity
  8
LAY-10
  6
CONTINUOUS
 62
     7
100
AcDbLine
 10
265.9647184651297
 20
845.810615439304
 30
0.0
 11
263.2460424808307
 21
848.5292914236029
 31
0.0
  0
LINE
  5
1F9
330
1F
100
AcDbEntity
  8
LAY-10
  6
CONTINUOUS
 62
     7
100
AcDbLine
 10
266.1465351190293
 20
844.2145852230038
 30
0.0
 11
261.2964588739289
 21
849.0646614682032
 31
0.0
  0
LINE
  5
1FA
330
1F
100
AcDbEntity
  8
LAY-10
  6
CONTINUOUS
 62
     7
100
AcDbLine
 10
265.8336642563302
 20
843.1132425234032
 30
0.0
 11
259.8415627836296
 21
849.1053439961038
 31
0.0
  0
LINE
  5
1FB
330
1F
100
AcDbEntity
  8
LAY-10
  6
CONTINUOUS
 62
     7
100
AcDbLine
 10
261.6417610290302
 20
840.2340779388038
 30
0.0
 11
255.1946312461298
 21
846.6812077217032
 31
0.0
  0
LINE
  5
1FC
330
1F
100
AcDbEntity
  8
LAY-10
  6
CONTINUOUS
 62
     7
100
AcDbLine
 10
260.3382172116292
 20
840.1234081939033
 30
0.0
 11
254.7304081106306
 21
845.7312172949037
 31
0.0
  0
LINE
  5
1FD
330
1F
100
AcDbEntity
  8
LAY-10
  6
CONTINUOUS
 62
     7
100
AcDbLine
 10
258.7468286807291
 20
840.3005831624037
 30
0.0
 11
254.5540296885304
 21
844.4933821546033
 31
0.0
  0
LINE
  5
1FE
330
1F
100
AcDbEntity
  8
LAY-10
  6
CONTINUOUS
 62
     7
100
AcDbLine
 10
265.2905444126303
 20
842.2421488047036
 30
0.0
 11
258.6169156744385
 21
848.9157775428948
 31
0.0
  0
LINE
  5
1FF
330
1F
100
AcDbEntity
  8
LAY-10
  6
CONTINUOUS
 62
     7
100
AcDbLine
 10
264.5847918372294
 20
841.5336878177036
 30
0.0
 11
257.5549012970248
 21
848.5635783582266
 31
0.0
  0
LINE
  5
200
330
1F
100
AcDbEntity
  8
LAY-10
  6
CONTINUOUS
 62
     7
100
AcDbLine
 10
263.7409385295306
 20
840.9633275631036
 30
0.0
 11
256.6309876514437
 21
848.0732784408747
 31
0.0
  0
LINE
  5
201
330
1F
100
AcDbEntity
  8
LAY-10
  6
CONTINUOUS
 62
     7
100
AcDbLine
 10
262.7637786897305
 20
840.5262738405031
 30
0.0
 11
255.8403805384198
 21
847.4496719918111
 31
0.0
  0
DIMENSION
  5
203
330
1F
100
AcDbEntity
  8
LAY-10
  6
CONTINUOUS
 62
     4
100
AcDbDimension
  2
*D25
 10
2269.28108032978
 20
706.9067066788998
 30
0.0
 11
1269.28108032981
 21
731.9067066788998
 31
0.0
 70
   160
  3
ISO-25
100
AcDbAlignedDimension
 13
269.2810803298402
 23
842.9067066789244
 33
0.0
 14
2269.28108032978
 24
842.9067066789244
 34
0.0
100
AcDbRotatedDimension
1001
ACAD
1000
DSTYLE
1002
{
1070
   270
1070
     2
1070
     6
1000
EX_BNORM
1070
     7
1000
EX_BNORM
1070
    41
1040
25.0
1070
    42
1040
17.99999952316284
1070
    44
1040
15.0
1070
    73
1070
     0
1070
    74
1070
     0
1070
    75
1070
     0
1070
    76
1070
     0
1070
    77
1070
     1
1070
    78
1070
     8
1070
   140
1040
31.181104
1070
   147
1040
0.0
1070
   173
1070
     1
1070
   176
1070
     4
1070
   177
1070
     4
1070
   178
1070
     7
1070
   271
1070
     1
1070
   277
1070
     2
1070
   279
1070
     2
1070
   280
1070
     0
1070
   287
1070
     5
1070
   340
1005
202
1002
}
  0
DIMENSION
  5
211
330
1F
100
AcDbEntity
  8
LAY-10
  6
CONTINUOUS
 62
     4
100
AcDbDimension
  2
*D26
 10
2324.28108032978
 20
1106.9067066789
 30
0.0
 11
1269.281080329805
 21
1131.9067066789
 31
0.0
 70
   160
  3
ISO-25
100
AcDbAlignedDimension
 13
214.28108032983
 23
936.9067066788762
 33
0.0
 14
2324.28108032978
 24
936.9067066788762
 34
0.0
100
AcDbRotatedDimension
1001
ACAD
1000
DSTYLE
1002
{
1070
   270
1070
     2
1070
     6
1000
EX_BNORM
1070
     7
1000
EX_BNORM
1070
    41
1040
25.0
1070
    42
1040
15.0
1070
    44
1040
15.0
1070
    73
1070
     0
1070
    74
1070
     0
1070
    75
1070
     0
1070
    76
1070
     0
1070
    77
1070
     1
1070
    78
1070
     8
1070
   140
1040
31.181104
1070
   147
1040
0.0
1070
   173
1070
     1
1070
   176
1070
     4
1070
   177
1070
     4
1070
   178
1070
     7
1070
   271
1070
     1
1070
   277
1070
     2
1070
   279
1070
     2
1070
   280
1070
     0
1070
   287
1070
     5
1070
   340
1005
202
1002
}
  0
DIMENSION
  5
21E
330
1F
100
AcDbEntity
  8
LAY-10
  6
CONTINUOUS
 62
     4
100
AcDbDimension
  2
*D27
 10
644.2810803297613
 20
1036.9067066789
 30
0.0
 11
437.2810803298113
 21
1061.9067066789
 31
0.0
 70
   160
  3
ISO-25
100
AcDbAlignedDimension
 13
230.2810803298613
 23
936.9067066789034
 33
0.0
 14
644.2810803297613
 24
936.9067066789034
 34
0.0
100
AcDbRotatedDimension
1001
ACAD
1000
DSTYLE
1002
{
1070
   270
1070
     2
1070
     6
1000
EX_BNORM
1070
     7
1000
EX_BNORM
1070
    41
1040
25.0
1070
    42
1040
15.0
1070
    44
1040
15.0
1070
    73
1070
     0
1070
    74
1070
     0
1070
    75
1070
     0
1070
    76
1070
     0
1070
    77
1070
     1
1070
    78
1070
     8
1070
   140
1040
31.181104
1070
   147
1040
0.0
1070
   173
1070
     1
1070
   176
1070
     4
1070
   177
1070
     4
1070
   178
1070
     7
1070
   271
1070
     1
1070
   277
1070
     2
1070
   279
1070
     2
1070
   280
1070
     0
1070
   287
1070
     5
1070
   340
1005
202
1002
}
  0
DIMENSION
  5
22B
330
1F
100
AcDbEntity
  8
LAY-10
  6
CONTINUOUS
 62
     4
100
AcDbDimension
  2
*D28
 10
2459.2810803298
 20
836.9067066788762
 30
0.0
 11
2434.2810803298
 21
886.9067066788758
 31
0.0
 70
   160
  3
ISO-25
100
AcDbAlignedDimension
 13
2324.28108032978
 23
936.9067066788762
 33
0.0
 14
2312.48108032978
 24
836.9067066788762
 34
0.0
 50
90.0
100
AcDbRotatedDimension
1001
ACAD
1000
DSTYLE
1002
{
1070
   270
1070
     2
1070
     6
1000
EX_BNORM
1070
     7
1000
EX_BNORM
1070
    41
1040
25.0
1070
    42
1040
15.0
1070
    44
1040
15.0
1070
    73
1070
     0
1070
    74
1070
     0
1070
    75
1070
     0
1070
    76
1070
     0
1070
    77
1070
     1
1070
    78
1070
     8
1070
   140
1040
31.181104
1070
   147
1040
0.0
1070
   173
1070
     1
1070
   176
1070
     4
1070
   177
1070
     4
1070
   178
1070
     7
1070
   271
1070
     1
1070
   277
1070
     2
1070
   279
1070
     2
1070
   280
1070
     0
1070
   287
1070
     5
1070
   340
1005
202
1002
}
  0
LINE
  5
238
330
1F
100
AcDbEntity
  8
LAY-10
  6
HIDDEN
 62
     7
100
AcDbLine
 10
1184.781080329921
 20
1309.606706678996
 30
0.0
 11
1184.781080329924
 21
1345.715340220035
 31
0.0
  0
LINE
  5
239
330
1F
100
AcDbEntity
  8
LAY-10
  6
HIDDEN
 62
     7
100
AcDbLine
 10
1138.081080329924
 20
1345.715340220035
 30
0.0
 11
1196.081080329924
 21
1345.715340220035
 31
0.0
  0
LINE
  5
23A
330
1F
100
AcDbEntity
  8
LAY-10
  6
HIDDEN
 62
     7
100
AcDbLine
 10
1153.781080329924
 20
1309.606706678996
 30
0.0
 11
1153.781080329924
 21
1345.606706678995
 31
0.0
  0
LINE
  5
23B
330
1F
100
AcDbEntity
  8
LAY-10
  6
HIDDEN
 62
     7
100
AcDbLine
 10
1153.781080329924
 20
1309.606706678996
 30
0.0
 11
1184.781080329921
 21
1309.606706678996
 31
0.0
  0
LINE
  5
23C
330
1F
100
AcDbEntity
  8
LAY-10
  6
CONTINUOUS
 62
     7
100
AcDbLine
 10
1256.247746996602
 20
1664.140040012237
 30
0.0
 11
1257.247746996602
 21
1663.140040012237
 31
0.0
  0
LINE
  5
23D
330
1F
100
AcDbEntity
  8
LAY-10
  6
CONTINUOUS
 62
     7
100
AcDbLine
 10
214.2810803299326
 20
2480.806706678951
 30
0.0
 11
229.2810803299326
 21
2465.806706678951
 31
0.0
  0
LINE
  5
23E
330
1F
100
AcDbEntity
  8
LAY-10
  6
CONTINUOUS
 62
     7
100
AcDbLine
 10
229.2810803299326
 20
1311.806706678951
 30
0.0
 11
214.2810803299326
 21
1296.806706678951
 31
0.0
  0
LINE
  5
23F
330
1F
100
AcDbEntity
  8
LAY-10
  6
CONTINUOUS
 62
     7
100
AcDbLine
 10
229.2810803299326
 20
1311.806706678951
 30
0.0
 11
229.2810803299326
 21
2465.806706678951
 31
0.0
  0
LINE
  5
240
330
1F
100
AcDbEntity
  8
LAY-10
  6
CONTINUOUS
 62
     7
100
AcDbLine
 10
214.2810803299326
 20
1296.806706678951
 30
0.0
 11
214.2810803299326
 21
2480.806706678951
 31
0.0
  0
LINE
  5
241
330
1F
100
AcDbEntity
  8
LAY-10
  6
CONTINUOUS
 62
     7
100
AcDbLine
 10
2309.281080329912
 20
2465.806706678951
 30
0.0
 11
2324.281080329913
 21
2480.806706678951
 31
0.0
  0
LINE
  5
242
330
1F
100
AcDbEntity
  8
LAY-10
  6
CONTINUOUS
 62
     7
100
AcDbLine
 10
2309.281080329912
 20
1311.806706678951
 30
0.0
 11
2324.281080329913
 21
1296.806706678952
 31
0.0
  0
LINE
  5
243
330
1F
100
AcDbEntity
  8
LAY-10
  6
CONTINUOUS
 62
     7
100
AcDbLine
 10
2309.281080329912
 20
2465.806706678951
 30
0.0
 11
2309.281080329912
 21
1311.806706678949
 31
0.0
  0
LINE
  5
244
330
1F
100
AcDbEntity
  8
LAY-10
  6
CONTINUOUS
 62
     7
100
AcDbLine
 10
2324.281080329913
 20
1296.806706678951
 30
0.0
 11
2324.281080329913
 21
2480.806706678951
 31
0.0
  0
LINE
  5
245
330
1F
100
AcDbEntity
  8
LAY-10
  6
CONTINUOUS
 62
     7
100
AcDbLine
 10
2309.281080329912
 20
1311.806706678949
 30
0.0
 11
229.2810803299326
 21
1311.806706678951
 31
0.0
  0
LINE
  5
246
330
1F
100
AcDbEntity
  8
LAY-10
  6
CONTINUOUS
 62
     7
100
AcDbLine
 10
214.2810803299326
 20
1296.806706678951
 30
0.0
 11
2324.281080329913
 21
1296.806706678949
 31
0.0
  0
LINE
  5
247
330
1F
100
AcDbEntity
  8
LAY-10
  6
CONTINUOUS
 62
     7
100
AcDbLine
 10
214.2810803299326
 20
2480.806706678951
 30
0.0
 11
2324.281080329913
 21
2480.806706678951
 31
0.0
  0
LINE
  5
248
330
1F
100
AcDbEntity
  8
LAY-10
  6
CONTINUOUS
 62
     7
100
AcDbLine
 10
2309.281080329912
 20
2465.806706678951
 30
0.0
 11
229.2810803299326
 21
2465.806706678951
 31
0.0
  0
LINE
  5
249
330
1F
100
AcDbEntity
  8
LAY-10
  6
CONTINUOUS
 62
     7
100
AcDbLine
 10
230.2810803299207
 20
1312.806706678884
 30
0.0
 11
230.2810803299207
 21
2464.806706678885
 31
0.0
  0
LINE
  5
24A
330
1F
100
AcDbEntity
  8
LAY-10
  6
CONTINUOUS
 62
     7
100
AcDbLine
 10
644.2810803299207
 20
1312.806706678884
 30
0.0
 11
644.2810803299207
 21
2464.806706678885
 31
0.0
  0
LINE
  5
24B
330
1F
100
AcDbEntity
  8
LAY-10
  6
CONTINUOUS
 62
     7
100
AcDbLine
 10
230.2810803299207
 20
2464.806706678885
 30
0.0
 11
644.2810803299207
 21
2464.806706678885
 31
0.0
  0
LINE
  5
24C
330
1F
100
AcDbEntity
  8
LAY-10
  6
CONTINUOUS
 62
     7
100
AcDbLine
 10
230.2810803299207
 20
1312.806706678884
 30
0.0
 11
644.2810803299333
 21
1312.806706678884
 31
0.0
  0
LINE
  5
24D
330
1F
100
AcDbEntity
  8
LAY-10
  6
CONTINUOUS
 62
     7
100
AcDbLine
 10
646.2810803299207
 20
1312.806706678884
 30
0.0
 11
646.2810803299207
 21
2464.806706678885
 31
0.0
  0
LINE
  5
24E
330
1F
100
AcDbEntity
  8
LAY-10
  6
CONTINUOUS
 62
     7
100
AcDbLine
 10
646.2810803299207
 20
2464.806706678885
 30
0.0
 11
1060.281080329921
 21
2464.806706678885
 31
0.0
  0
LINE
  5
24F
330
1F
100
AcDbEntity
  8
LAY-10
  6
CONTINUOUS
 62
     7
100
AcDbLine
 10
2306.281080329901
 20
1351.806706678884
 30
0.0
 11
2306.281080329901
 21
2425.806706678884
 31
0.0
  0
LINE
  5
250
330
1F
100
AcDbEntity
  8
LAY-10
  6
CONTINUOUS
 62
     7
100
AcDbLine
 10
1014.781080329915
 20
2480.806706679047
 30
0.0
 11
1014.781080329915
 21
2509.705191488884
 31
0.0
  0
LINE
  5
251
330
1F
100
AcDbEntity
  8
LAY-10
  6
CONTINUOUS
 62
     7
100
AcDbLine
 10
1023.781080329915
 20
2480.806706679047
 30
0.0
 11
1023.781080329915
 21
2509.705191488884
 31
0.0
  0
LINE
  5
252
330
1F
100
AcDbEntity
  8
LAY-10
  6
CONTINUOUS
 62
     7
100
AcDbLine
 10
1014.781080329915
 20
2509.705191488884
 30
0.0
 11
1023.781080329915
 21
2509.705191488884
 31
0.0
  0
LINE
  5
253
330
1F
100
AcDbEntity
  8
LAY-10
  6
CONTINUOUS
 62
     7
100
AcDbLine
 10
1514.781080329915
 20
2480.806706679047
 30
0.0
 11
1514.781080329915
 21
2509.705191488884
 31
0.0
  0
LINE
  5
254
330
1F
100
AcDbEntity
  8
LAY-10
  6
CONTINUOUS
 62
     7
100
AcDbLine
 10
1523.781080329915
 20
2480.806706679047
 30
0.0
 11
1523.781080329915
 21
2509.705191488884
 31
0.0
  0
LINE
  5
255
330
1F
100
AcDbEntity
  8
LAY-10
  6
CONTINUOUS
 62
     7
100
AcDbLine
 10
1514.781080329915
 20
2509.705191488884
 30
0.0
 11
1523.781080329915
 21
2509.705191488884
 31
0.0
  0
LINE
  5
256
330
1F
100
AcDbEntity
  8
LAY-10
  6
CONTINUOUS
 62
     7
100
AcDbLine
 10
2014.781080329915
 20
2480.806706679047
 30
0.0
 11
2014.781080329915
 21
2509.705191488884
 31
0.0
  0
LINE
  5
257
330
1F
100
AcDbEntity
  8
LAY-10
  6
CONTINUOUS
 62
     7
100
AcDbLine
 10
2023.781080329915
 20
2480.806706679047
 30
0.0
 11
2023.781080329915
 21
2509.705191488884
 31
0.0
  0
LINE
  5
258
330
1F
100
AcDbEntity
  8
LAY-10
  6
CONTINUOUS
 62
     7
100
AcDbLine
 10
2014.781080329915
 20
2509.705191488884
 30
0.0
 11
2023.781080329915
 21
2509.705191488884
 31
0.0
  0
LINE
  5
259
330
1F
100
AcDbEntity
  8
LAY-10
  6
CONTINUOUS
 62
     7
100
AcDbLine
 10
523.7810803298535
 20
2480.806706679047
 30
0.0
 11
523.7810803298535
 21
2509.705191488884
 31
0.0
  0
LINE
  5
25A
330
1F
100
AcDbEntity
  8
LAY-10
  6
CONTINUOUS
 62
     7
100
AcDbLine
 10
514.7810803298535
 20
2480.806706679047
 30
0.0
 11
514.7810803298535
 21
2509.705191488884
 31
0.0
  0
LINE
  5
25B
330
1F
100
AcDbEntity
  8
LAY-10
  6
CONTINUOUS
 62
     7
100
AcDbLine
 10
523.7810803298535
 20
2509.705191488884
 30
0.0
 11
514.7810803298535
 21
2509.705191488884
 31
0.0
  0
LINE
  5
25C
330
1F
100
AcDbEntity
  8
LAY-10
  6
CONTINUOUS
 62
     7
100
AcDbLine
 10
1014.781080329915
 20
1296.806706678851
 30
0.0
 11
1014.781080329915
 21
1267.908221869014
 31
0.0
  0
LINE
  5
25D
330
1F
100
AcDbEntity
  8
LAY-10
  6
CONTINUOUS
 62
     7
100
AcDbLine
 10
1023.781080329915
 20
1296.806706678851
 30
0.0
 11
1023.781080329915
 21
1267.908221869014
 31
0.0
  0
LINE
  5
25E
330
1F
100
AcDbEntity
  8
LAY-10
  6
CONTINUOUS
 62
     7
100
AcDbLine
 10
1014.781080329915
 20
1267.908221869014
 30
0.0
 11
1023.781080329915
 21
1267.908221869014
 31
0.0
  0
LINE
  5
25F
330
1F
100
AcDbEntity
  8
LAY-10
  6
CONTINUOUS
 62
     7
100
AcDbLine
 10
1514.781080329915
 20
1296.806706678851
 30
0.0
 11
1514.781080329915
 21
1267.908221869014
 31
0.0
  0
LINE
  5
260
330
1F
100
AcDbEntity
  8
LAY-10
  6
CONTINUOUS
 62
     7
100
AcDbLine
 10
1523.781080329915
 20
1296.806706678851
 30
0.0
 11
1523.781080329915
 21
1267.908221869014
 31
0.0
  0
LINE
  5
261
330
1F
100
AcDbEntity
  8
LAY-10
  6
CONTINUOUS
 62
     7
100
AcDbLine
 10
1514.781080329915
 20
1267.908221869014
 30
0.0
 11
1523.781080329915
 21
1267.908221869014
 31
0.0
  0
LINE
  5
262
330
1F
100
AcDbEntity
  8
LAY-10
  6
CONTINUOUS
 62
     7
100
AcDbLine
 10
2014.781080329915
 20
1296.806706678852
 30
0.0
 11
2014.781080329915
 21
1267.908221869015
 31
0.0
  0
LINE
  5
263
330
1F
100
AcDbEntity
  8
LAY-10
  6
CONTINUOUS
 62
     7
100
AcDbLine
 10
2023.781080329915
 20
1296.806706678852
 30
0.0
 11
2023.781080329915
 21
1267.908221869015
 31
0.0
  0
LINE
  5
264
330
1F
100
AcDbEntity
  8
LAY-10
  6
CONTINUOUS
 62
     7
100
AcDbLine
 10
2014.781080329915
 20
1267.908221869015
 30
0.0
 11
2023.781080329915
 21
1267.908221869015
 31
0.0
  0
LINE
  5
265
330
1F
100
AcDbEntity
  8
LAY-10
  6
CONTINUOUS
 62
     7
100
AcDbLine
 10
523.7810803298535
 20
1296.806706678851
 30
0.0
 11
523.7810803298535
 21
1267.908221869014
 31
0.0
  0
LINE
  5
266
330
1F
100
AcDbEntity
  8
LAY-10
  6
CONTINUOUS
 62
     7
100
AcDbLine
 10
514.7810803298535
 20
1296.806706678851
 30
0.0
 11
514.7810803298535
 21
1267.908221869014
 31
0.0
  0
LINE
  5
267
330
1F
100
AcDbEntity
  8
LAY-10
  6
CONTINUOUS
 62
     7
100
AcDbLine
 10
523.7810803298535
 20
1267.908221869014
 30
0.0
 11
514.7810803298535
 21
1267.908221869014
 31
0.0
  0
LINE
  5
268
330
1F
100
AcDbEntity
  8
LAY-10
  6
CONTINUOUS
 62
     7
100
AcDbLine
 10
214.281080329888
 20
2143.30670667892
 30
0.0
 11
179.7257412705503
 21
2143.306706678921
 31
0.0
  0
LINE
  5
269
330
1F
100
AcDbEntity
  8
LAY-10
  6
CONTINUOUS
 62
     7
100
AcDbLine
 10
214.281080329888
 20
2134.306706678918
 30
0.0
 11
179.7257412705503
 21
2134.306706678919
 31
0.0
  0
LINE
  5
26A
330
1F
100
AcDbEntity
  8
LAY-10
  6
CONTINUOUS
 62
     7
100
AcDbLine
 10
179.7257412705503
 20
2143.306706678921
 30
0.0
 11
179.7257412705503
 21
2134.306706678919
 31
0.0
  0
LINE
  5
26B
330
1F
100
AcDbEntity
  8
LAY-10
  6
CONTINUOUS
 62
     7
100
AcDbLine
 10
214.281080329888
 20
1634.306706678978
 30
0.0
 11
179.7257412705503
 21
1634.306706678977
 31
0.0
  0
LINE
  5
26C
330
1F
100
AcDbEntity
  8
LAY-10
  6
CONTINUOUS
 62
     7
100
AcDbLine
 10
214.281080329888
 20
1643.30670667898
 30
0.0
 11
179.7257412705503
 21
1643.306706678979
 31
0.0
  0
LINE
  5
26D
330
1F
100
AcDbEntity
  8
LAY-10
  6
CONTINUOUS
 62
     7
100
AcDbLine
 10
179.7257412705503
 20
1634.306706678977
 30
0.0
 11
179.7257412705503
 21
1643.306706678979
 31
0.0
  0
LINE
  5
26E
330
1F
100
AcDbEntity
  8
LAY-10
  6
CONTINUOUS
 62
     7
100
AcDbLine
 10
2324.281080329881
 20
2143.30670667892
 30
0.0
 11
2358.836419389218
 21
2143.306706678921
 31
0.0
  0
LINE
  5
26F
330
1F
100
AcDbEntity
  8
LAY-10
  6
CONTINUOUS
 62
     7
100
AcDbLine
 10
2324.281080329881
 20
2134.306706678918
 30
0.0
 11
2358.836419389218
 21
2134.306706678919
 31
0.0
  0
LINE
  5
270
330
1F
100
AcDbEntity
  8
LAY-10
  6
CONTINUOUS
 62
     7
100
AcDbLine
 10
2358.836419389218
 20
2143.306706678921
 30
0.0
 11
2358.836419389218
 21
2134.306706678919
 31
0.0
  0
LINE
  5
271
330
1F
100
AcDbEntity
  8
LAY-10
  6
CONTINUOUS
 62
     7
100
AcDbLine
 10
2324.281080329881
 20
1634.306706678978
 30
0.0
 11
2358.836419389218
 21
1634.306706678977
 31
0.0
  0
LINE
  5
272
330
1F
100
AcDbEntity
  8
LAY-10
  6
CONTINUOUS
 62
     7
100
AcDbLine
 10
2324.281080329881
 20
1643.30670667898
 30
0.0
 11
2358.836419389218
 21
1643.306706678979
 31
0.0
  0
LINE
  5
273
330
1F
100
AcDbEntity
  8
LAY-10
  6
CONTINUOUS
 62
     7
100
AcDbLine
 10
2358.836419389218
 20
1634.306706678977
 30
0.0
 11
2358.836419389218
 21
1643.306706678979
 31
0.0
  0
LINE
  5
274
330
1F
100
AcDbEntity
  8
LAY-10
  6
CONTINUOUS
 62
     7
100
AcDbLine
 10
2168.281080329777
 20
2107.306706678921
 30
0.0
 11
2130.281080329777
 21
2107.306706678919
 31
0.0
  0
LINE
  5
275
330
1F
100
AcDbEntity
  8
LAY-10
  6
CONTINUOUS
 62
     7
100
AcDbLine
 10
2158.281080329777
 20
2082.306706678919
 30
0.0
 11
2158.281080329777
 21
2102.306706678919
 31
0.0
  0
LINE
  5
276
330
1F
100
AcDbEntity
  8
LAY-10
  6
CONTINUOUS
 62
     7
100
AcDbLine
 10
2183.981080329781
 20
2082.306706678919
 30
0.0
 11
2158.281080329777
 21
2082.306706678919
 31
0.0
  0
LINE
  5
277
330
1F
100
AcDbEntity
  8
LAY-10
  6
CONTINUOUS
 62
     7
100
AcDbLine
 10
2173.981080329778
 20
2072.306706678921
 30
0.0
 11
2168.281080329777
 21
2072.306706678921
 31
0.0
  0
LINE
  5
278
330
1F
100
AcDbEntity
  8
LAY-10
  6
CONTINUOUS
 62
     7
100
AcDbLine
 10
2168.281080329777
 20
2072.306706678921
 30
0.0
 11
2168.281080329777
 21
2082.306706678919
 31
0.0
  0
LINE
  5
279
330
1F
100
AcDbEntity
  8
LAY-10
  6
CONTINUOUS
 62
     7
100
AcDbLine
 10
2183.981080329781
 20
2082.306706678919
 30
0.0
 11
2183.981080329781
 21
2102.306706678919
 31
0.0
  0
LINE
  5
27A
330
1F
100
AcDbEntity
  8
LAY-10
  6
CONTINUOUS
 62
     7
100
AcDbLine
 10
2183.981080329781
 20
2102.306706678919
 30
0.0
 11
2158.281080329777
 21
2102.306706678919
 31
0.0
  0
LINE
  5
27B
330
1F
100
AcDbEntity
  8
LAY-10
  6
CONTINUOUS
 62
     7
100
AcDbLine
 10
2174.281080329777
 20
2107.306706678921
 30
0.0
 11
2174.281080329777
 21
2102.306706678919
 31
0.0
  0
ARC
  5
27C
330
1F
100
AcDbEntity
  8
LAY-10
  6
CONTINUOUS
 62
     7
100
AcDbCircle
 10
2168.281080329777
 20
2107.306706678921
 30
0.0
 40
6.000000000000005
100
AcDbArc
 50
0.0
 51
90.00000000000001
  0
LINE
  5
27D
330
1F
100
AcDbEntity
  8
LAY-10
  6
CONTINUOUS
 62
     7
100
AcDbLine
 10
2168.281080329777
 20
2113.306706678918
 30
0.0
 11
2130.281080329777
 21
2113.306706678918
 31
0.0
  0
ARC
  5
27E
330
1F
100
AcDbEntity
  8
LAY-10
  6
CONTINUOUS
 62
     7
100
AcDbCircle
 10
2130.281080329777
 20
2113.306706678918
 30
0.0
 40
6.000000000000005
100
AcDbArc
 50
180.0
 51
270.0000000000002
  0
LINE
  5
27F
330
1F
100
AcDbEntity
  8
LAY-10
  6
CONTINUOUS
 62
     7
100
AcDbLine
 10
2168.281080329777
 20
2201.306706678921
 30
0.0
 11
2130.281080329777
 21
2201.306706678919
 31
0.0
  0
LINE
  5
280
330
1F
100
AcDbEntity
  8
LAY-10
  6
CONTINUOUS
 62
     7
100
AcDbLine
 10
2168.281080329777
 20
2207.306706678921
 30
0.0
 11
2130.281080329777
 21
2207.306706678919
 31
0.0
  0
ARC
  5
281
330
1F
100
AcDbEntity
  8
LAY-10
  6
CONTINUOUS
 62
     7
100
AcDbCircle
 10
2130.281080329777
 20
2201.306706678919
 30
0.0
 40
6.000000000000005
100
AcDbArc
 50
90.00000000000001
 51
180.0
  0
ARC
  5
282
330
1F
100
AcDbEntity
  8
LAY-10
  6
CONTINUOUS
 62
     7
100
AcDbCircle
 10
2168.281080329777
 20
2207.306706678921
 30
0.0
 40
6.000000000000005
100
AcDbArc
 50
270.0000000000002
 51
0.0
  0
LINE
  5
283
330
1F
100
AcDbEntity
  8
LAY-10
  6
CONTINUOUS
 62
     7
100
AcDbLine
 10
2168.281080329777
 20
2242.306706678919
 30
0.0
 11
2168.281080329777
 21
2232.306706678921
 31
0.0
  0
LINE
  5
284
330
1F
100
AcDbEntity
  8
LAY-10
  6
CONTINUOUS
 62
     7
100
AcDbLine
 10
2174.281080329777
 20
2207.306706678921
 30
0.0
 11
2174.281080329777
 21
2212.306706678921
 31
0.0
  0
LINE
  5
285
330
1F
100
AcDbEntity
  8
LAY-10
  6
CONTINUOUS
 62
     7
100
AcDbLine
 10
2183.981080329781
 20
2212.306706678921
 30
0.0
 11
2158.281080329777
 21
2212.306706678921
 31
0.0
  0
LINE
  5
286
330
1F
100
AcDbEntity
  8
LAY-10
  6
CONTINUOUS
 62
     7
100
AcDbLine
 10
2158.281080329777
 20
2232.306706678921
 30
0.0
 11
2158.281080329777
 21
2212.306706678921
 31
0.0
  0
LINE
  5
287
330
1F
100
AcDbEntity
  8
LAY-10
  6
CONTINUOUS
 62
     7
100
AcDbLine
 10
2183.981080329781
 20
2232.306706678921
 30
0.0
 11
2158.281080329777
 21
2232.306706678921
 31
0.0
  0
LINE
  5
288
330
1F
100
AcDbEntity
  8
LAY-10
  6
CONTINUOUS
 62
     7
100
AcDbLine
 10
2174.281080329777
 20
2242.306706678919
 30
0.0
 11
2168.281080329777
 21
2242.306706678919
 31
0.0
  0
LINE
  5
289
330
1F
100
AcDbEntity
  8
LAY-10
  6
CONTINUOUS
 62
     7
100
AcDbLine
 10
2175.281080329777
 20
2212.306706678921
 30
0.0
 11
2175.281080329777
 21
2232.306706678921
 31
0.0
  0
LINE
  5
28A
330
1F
100
AcDbEntity
  8
LAY-10
  6
CONTINUOUS
 62
     7
100
AcDbLine
 10
2175.281080329777
 20
2102.306706678919
 30
0.0
 11
2175.281080329777
 21
2082.306706678919
 31
0.0
  0
LINE
  5
28B
330
1F
100
AcDbEntity
  8
LAY-10
  6
CONTINUOUS
 62
     7
100
AcDbLine
 10
2167.281080329777
 20
2082.306706678919
 30
0.0
 11
2167.281080329777
 21
2102.306706678919
 31
0.0
  0
LINE
  5
28C
330
1F
100
AcDbEntity
  8
LAY-10
  6
CONTINUOUS
 62
     7
100
AcDbLine
 10
2167.281080329777
 20
2212.306706678921
 30
0.0
 11
2167.281080329777
 21
2232.306706678921
 31
0.0
  0
LINE
  5
28D
330
1F
100
AcDbEntity
  8
LAY-10
  6
CONTINUOUS
 62
     7
100
AcDbLine
 10
2183.981080329781
 20
2212.306706678921
 30
0.0
 11
2183.981080329781
 21
2232.306706678921
 31
0.0
  0
LINE
  5
28E
330
1F
100
AcDbEntity
  8
LAY-10
  6
CONTINUOUS
 62
     7
100
AcDbLine
 10
2168.281080329777
 20
2102.306706678919
 30
0.0
 11
2168.281080329777
 21
2107.306706678921
 31
0.0
  0
LINE
  5
28F
330
1F
100
AcDbEntity
  8
LAY-10
  6
CONTINUOUS
 62
     7
100
AcDbLine
 10
2174.281080329777
 20
2082.306706678919
 30
0.0
 11
2174.281080329777
 21
2072.306706678921
 31
0.0
  0
LINE
  5
290
330
1F
100
AcDbEntity
  8
LAY-10
  6
CONTINUOUS
 62
     7
100
AcDbLine
 10
2168.281080329777
 20
2212.306706678921
 30
0.0
 11
2168.281080329777
 21
2207.306706678921
 31
0.0
  0
LINE
  5
291
330
1F
100
AcDbEntity
  8
LAY-10
  6
CONTINUOUS
 62
     7
100
AcDbLine
 10
2174.281080329777
 20
2232.306706678921
 30
0.0
 11
2174.281080329777
 21
2242.606706678921
 31
0.0
  0
LINE
  5
292
330
1F
100
AcDbEntity
  8
LAY-10
  6
CONTINUOUS
 62
     7
100
AcDbLine
 10
2130.281080329777
 20
2113.306706678918
 30
0.0
 11
2130.281080329777
 21
2201.306706678919
 31
0.0
  0
LINE
  5
293
330
1F
100
AcDbEntity
  8
LAY-10
  6
CONTINUOUS
 62
     7
100
AcDbLine
 10
2124.281080329781
 20
2113.306706678918
 30
0.0
 11
2124.281080329781
 21
2201.306706678919
 31
0.0
  0
LINE
  5
294
330
1F
100
AcDbEntity
  8
LAY-10
  6
CONTINUOUS
 62
     7
100
AcDbLine
 10
2168.281080329777
 20
1670.306706678977
 30
0.0
 11
2130.281080329777
 21
1670.306706678979
 31
0.0
  0
LINE
  5
295
330
1F
100
AcDbEntity
  8
LAY-10
  6
CONTINUOUS
 62
     7
100
AcDbLine
 10
2158.281080329777
 20
1695.306706678979
 30
0.0
 11
2158.281080329777
 21
1675.306706678979
 31
0.0
  0
LINE
  5
296
330
1F
100
AcDbEntity
  8
LAY-10
  6
CONTINUOUS
 62
     7
100
AcDbLine
 10
2183.981080329781
 20
1695.306706678979
 30
0.0
 11
2158.281080329777
 21
1695.306706678979
 31
0.0
  0
LINE
  5
297
330
1F
100
AcDbEntity
  8
LAY-10
  6
CONTINUOUS
 62
     7
100
AcDbLine
 10
2173.981080329778
 20
1705.306706678977
 30
0.0
 11
2168.281080329777
 21
1705.306706678977
 31
0.0
  0
LINE
  5
298
330
1F
100
AcDbEntity
  8
LAY-10
  6
CONTINUOUS
 62
     7
100
AcDbLine
 10
2168.281080329777
 20
1705.306706678977
 30
0.0
 11
2168.281080329777
 21
1695.306706678979
 31
0.0
  0
LINE
  5
299
330
1F
100
AcDbEntity
  8
LAY-10
  6
CONTINUOUS
 62
     7
100
AcDbLine
 10
2183.981080329781
 20
1695.306706678979
 30
0.0
 11
2183.981080329781
 21
1675.306706678979
 31
0.0
  0
LINE
  5
29A
330
1F
100
AcDbEntity
  8
LAY-10
  6
CONTINUOUS
 62
     7
100
AcDbLine
 10
2183.981080329781
 20
1675.306706678979
 30
0.0
 11
2158.281080329777
 21
1675.306706678979
 31
0.0
  0
LINE
  5
29B
330
1F
100
AcDbEntity
  8
LAY-10
  6
CONTINUOUS
 62
     7
100
AcDbLine
 10
2174.281080329777
 20
1670.306706678977
 30
0.0
 11
2174.281080329777
 21
1675.306706678979
 31
0.0
  0
ARC
  5
29C
330
1F
100
AcDbEntity
  8
LAY-10
  6
CONTINUOUS
 62
     7
100
AcDbCircle
 10
2168.281080329777
 20
1670.306706678977
 30
0.0
 40
6.000000000000005
100
AcDbArc
 50
270.0
 51
0.0
  0
LINE
  5
29D
330
1F
100
AcDbEntity
  8
LAY-10
  6
CONTINUOUS
 62
     7
100
AcDbLine
 10
2168.281080329777
 20
1664.306706678981
 30
0.0
 11
2130.281080329777
 21
1664.306706678981
 31
0.0
  0
ARC
  5
29E
330
1F
100
AcDbEntity
  8
LAY-10
  6
CONTINUOUS
 62
     7
100
AcDbCircle
 10
2130.281080329777
 20
1664.306706678981
 30
0.0
 40
6.000000000000005
100
AcDbArc
 50
90.00000000000001
 51
180.0
  0
LINE
  5
29F
330
1F
100
AcDbEntity
  8
LAY-10
  6
CONTINUOUS
 62
     7
100
AcDbLine
 10
2168.281080329777
 20
1576.306706678977
 30
0.0
 11
2130.281080329777
 21
1576.306706678979
 31
0.0
  0
LINE
  5
2A0
330
1F
100
AcDbEntity
  8
LAY-10
  6
CONTINUOUS
 62
     7
100
AcDbLine
 10
2168.281080329777
 20
1570.306706678977
 30
0.0
 11
2130.281080329777
 21
1570.306706678979
 31
0.0
  0
ARC
  5
2A1
330
1F
100
AcDbEntity
  8
LAY-10
  6
CONTINUOUS
 62
     7
100
AcDbCircle
 10
2130.281080329777
 20
1576.306706678979
 30
0.0
 40
6.000000000000005
100
AcDbArc
 50
180.0
 51
270.0
  0
ARC
  5
2A2
330
1F
100
AcDbEntity
  8
LAY-10
  6
CONTINUOUS
 62
     7
100
AcDbCircle
 10
2168.281080329777
 20
1570.306706678977
 30
0.0
 40
6.000000000000005
100
AcDbArc
 50
0.0
 51
90.00000000000001
  0
LINE
  5
2A3
330
1F
100
AcDbEntity
  8
LAY-10
  6
CONTINUOUS
 62
     7
100
AcDbLine
 10
2168.281080329777
 20
1535.306706678979
 30
0.0
 11
2168.281080329777
 21
1545.306706678977
 31
0.0
  0
LINE
  5
2A4
330
1F
100
AcDbEntity
  8
LAY-10
  6
CONTINUOUS
 62
     7
100
AcDbLine
 10
2174.281080329777
 20
1570.306706678977
 30
0.0
 11
2174.281080329777
 21
1565.306706678977
 31
0.0
  0
LINE
  5
2A5
330
1F
100
AcDbEntity
  8
LAY-10
  6
CONTINUOUS
 62
     7
100
AcDbLine
 10
2183.981080329781
 20
1565.306706678977
 30
0.0
 11
2158.281080329777
 21
1565.306706678977
 31
0.0
  0
LINE
  5
2A6
330
1F
100
AcDbEntity
  8
LAY-10
  6
CONTINUOUS
 62
     7
100
AcDbLine
 10
2158.281080329777
 20
1545.306706678977
 30
0.0
 11
2158.281080329777
 21
1565.306706678977
 31
0.0
  0
LINE
  5
2A7
330
1F
100
AcDbEntity
  8
LAY-10
  6
CONTINUOUS
 62
     7
100
AcDbLine
 10
2183.981080329781
 20
1545.306706678977
 30
0.0
 11
2158.281080329777
 21
1545.306706678977
 31
0.0
  0
LINE
  5
2A8
330
1F
100
AcDbEntity
  8
LAY-10
  6
CONTINUOUS
 62
     7
100
AcDbLine
 10
2174.281080329777
 20
1535.306706678979
 30
0.0
 11
2168.281080329777
 21
1535.306706678979
 31
0.0
  0
LINE
  5
2A9
330
1F
100
AcDbEntity
  8
LAY-10
  6
CONTINUOUS
 62
     7
100
AcDbLine
 10
2175.281080329777
 20
1565.306706678977
 30
0.0
 11
2175.281080329777
 21
1545.306706678977
 31
0.0
  0
LINE
  5
2AA
330
1F
100
AcDbEntity
  8
LAY-10
  6
CONTINUOUS
 62
     7
100
AcDbLine
 10
2175.281080329777
 20
1675.306706678979
 30
0.0
 11
2175.281080329777
 21
1695.306706678979
 31
0.0
  0
LINE
  5
2AB
330
1F
100
AcDbEntity
  8
LAY-10
  6
CONTINUOUS
 62
     7
100
AcDbLine
 10
2167.281080329777
 20
1695.306706678979
 30
0.0
 11
2167.281080329777
 21
1675.306706678979
 31
0.0
  0
LINE
  5
2AC
330
1F
100
AcDbEntity
  8
LAY-10
  6
CONTINUOUS
 62
     7
100
AcDbLine
 10
2167.281080329777
 20
1565.306706678977
 30
0.0
 11
2167.281080329777
 21
1545.306706678977
 31
0.0
  0
LINE
  5
2AD
330
1F
100
AcDbEntity
  8
LAY-10
  6
CONTINUOUS
 62
     7
100
AcDbLine
 10
2183.981080329781
 20
1565.306706678977
 30
0.0
 11
2183.981080329781
 21
1545.306706678977
 31
0.0
  0
LINE
  5
2AE
330
1F
100
AcDbEntity
  8
LAY-10
  6
CONTINUOUS
 62
     7
100
AcDbLine
 10
2168.281080329777
 20
1675.306706678979
 30
0.0
 11
2168.281080329777
 21
1670.306706678977
 31
0.0
  0
LINE
  5
2AF
330
1F
100
AcDbEntity
  8
LAY-10
  6
CONTINUOUS
 62
     7
100
AcDbLine
 10
2174.281080329777
 20
1695.306706678979
 30
0.0
 11
2174.281080329777
 21
1705.306706678977
 31
0.0
  0
LINE
  5
2B0
330
1F
100
AcDbEntity
  8
LAY-10
  6
CONTINUOUS
 62
     7
100
AcDbLine
 10
2168.281080329777
 20
1565.306706678977
 30
0.0
 11
2168.281080329777
 21
1570.306706678977
 31
0.0
  0
LINE
  5
2B1
330
1F
100
AcDbEntity
  8
LAY-10
  6
CONTINUOUS
 62
     7
100
AcDbLine
 10
2174.281080329777
 20
1545.306706678977
 30
0.0
 11
2174.281080329777
 21
1535.006706678978
 31
0.0
  0
LINE
  5
2B2
330
1F
100
AcDbEntity
  8
LAY-10
  6
CONTINUOUS
 62
     7
100
AcDbLine
 10
2130.281080329777
 20
1664.306706678981
 30
0.0
 11
2130.281080329777
 21
1576.306706678979
 31
0.0
  0
LINE
  5
2B3
330
1F
100
AcDbEntity
  8
LAY-10
  6
CONTINUOUS
 62
     7
100
AcDbLine
 10
2124.281080329781
 20
1664.306706678981
 30
0.0
 11
2124.281080329781
 21
1576.306706678979
 31
0.0
  0
LINE
  5
2B4
330
1F
100
AcDbEntity
  8
LAY-10
  6
CONTINUOUS
 62
     7
100
AcDbLine
 10
1103.2810803299
 20
1311.8067066789
 30
0.0
 11
1435.2810803299
 21
2465.806706679
 31
0.0
  0
LINE
  5
2B5
330
1F
100
AcDbEntity
  8
LAY-10
  6
CONTINUOUS
 62
     7
100
AcDbLine
 10
1062.281080329921
 20
2464.806706678885
 30
0.0
 11
1434.993385355863
 21
2464.806706678885
 31
0.0
  0
LINE
  5
2B6
330
1F
100
AcDbEntity
  8
LAY-10
  6
CONTINUOUS
 62
     7
100
AcDbLine
 10
2309.281080329913
 20
1348.806706678951
 30
0.0
 11
1113.925794368042
 21
1348.806706678951
 31
0.0
  0
LINE
  5
2B7
330
1F
100
AcDbEntity
  8
LAY-10
  6
CONTINUOUS
 62
     7
100
AcDbLine
 10
2306.281080329901
 20
1351.806706678884
 30
0.0
 11
1114.788879290033
 21
1351.806706678884
 31
0.0
  0
LINE
  5
2B8
330
1F
100
AcDbEntity
  8
LAY-10
  6
CONTINUOUS
 62
     7
100
AcDbLine
 10
646.2810803299211
 20
1312.806706678885
 30
0.0
 11
1060.281080329921
 21
1312.806706678885
 31
0.0
  0
LINE
  5
2B9
330
1F
100
AcDbEntity
  8
LAY-10
  6
CONTINUOUS
 62
     7
100
AcDbLine
 10
1060.281080329921
 20
1312.806706678885
 30
0.0
 11
1060.281080329921
 21
2464.806706678885
 31
0.0
  0
LINE
  5
2BA
330
1F
100
AcDbEntity
  8
LAY-10
  6
CONTINUOUS
 62
     7
100
AcDbLine
 10
1062.281080329921
 20
1312.806706679012
 30
0.0
 11
1062.281080329921
 21
2464.806706678885
 31
0.0
  0
LINE
  5
2BB
330
1F
100
AcDbEntity
  8
LAY-10
  6
CONTINUOUS
 62
     7
100
AcDbLine
 10
1062.2810803299
 20
1312.806706679
 30
0.0
 11
1103.568775303932
 21
1312.806706679
 31
0.0
  0
LINE
  5
2BC
330
1F
100
AcDbEntity
  8
LAY-10
  6
CONTINUOUS
 62
     7
100
AcDbLine
 10
2309.281080329913
 20
2428.806706678951
 30
0.0
 11
1424.636366291758
 21
2428.806706678951
 31
0.0
  0
LINE
  5
2BD
330
1F
100
AcDbEntity
  8
LAY-10
  6
CONTINUOUS
 62
     7
100
AcDbLine
 10
2306.281080329901
 20
2425.806706678884
 30
0.0
 11
1423.773281369729
 21
2425.806706678884
 31
0.0
  0
LINE
  5
2BE
330
1F
100
AcDbEntity
  8
LAY-10
  6
CONTINUOUS
 62
     7
100
AcDbLine
 10
291.7810803296064
 20
2405.129037149599
 30
0.0
 11
274.1034108003067
 21
2422.806706678899
 31
0.0
  0
LINE
  5
2BF
330
1F
100
AcDbEntity
  8
LAY-10
  6
CONTINUOUS
 62
     7
100
AcDbLine
 10
291.7810803277042
 20
2458.162045737699
 30
0.0
 11
298.4257412690161
 21
2464.806706678899
 31
0.0
  0
LINE
  5
2C0
330
1F
100
AcDbEntity
  8
LAY-10
  6
CONTINUOUS
 62
     7
100
AcDbLine
 10
327.1364193877073
 20
2405.129037148802
 30
0.0
 11
309.4587498587051
 21
2422.806706678401
 31
0.0
  0
LINE
  5
2C1
330
1F
100
AcDbEntity
  8
LAY-10
  6
CONTINUOUS
 62
     7
100
AcDbLine
 10
327.1364193877046
 20
2440.484376208102
 30
0.0
 11
309.4587498587023
 21
2458.162045737801
 31
0.0
  0
LINE
  5
2C2
330
1F
100
AcDbEntity
  8
LAY-10
  6
CONTINUOUS
 62
     7
100
AcDbLine
 10
291.7810803287055
 20
2422.806706678399
 30
0.0
 11
309.4587498587037
 21
2440.484376208101
 31
0.0
  0
LINE
  5
2C3
330
1F
100
AcDbEntity
  8
LAY-10
  6
CONTINUOUS
 62
     7
100
AcDbLine
 10
274.1034108007041
 20
2458.162045736698
 30
0.0
 11
291.7810803300047
 21
2440.484376207399
 31
0.0
  0
LINE
  5
2C4
330
1F
100
AcDbEntity
  8
LAY-10
  6
CONTINUOUS
 62
     7
100
AcDbLine
 10
344.8140889189061
 20
2440.484376208899
 30
0.0
 11
331.2810803299065
 21
2426.95136761967
 31
0.0
  0
LINE
  5
2C5
330
1F
100
AcDbEntity
  8
LAY-10
  6
CONTINUOUS
 62
     7
100
AcDbLine
 10
238.7480717419055
 20
2422.806706677898
 30
0.0
 11
256.4257412712066
 21
2405.129037148598
 31
0.0
  0
LINE
  5
2C6
330
1F
100
AcDbEntity
  8
LAY-10
  6
CONTINUOUS
 62
     7
100
AcDbLine
 10
256.4257412706059
 20
2440.484376207997
 30
0.0
 11
238.7480717413053
 21
2458.162045737296
 31
0.0
  0
LINE
  5
2C7
330
1F
100
AcDbEntity
  8
LAY-10
  6
CONTINUOUS
 62
     7
100
AcDbLine
 10
274.1034108006054
 20
2440.484376208298
 30
0.0
 11
256.4257412709065
 21
2422.806706678298
 31
0.0
  0
LINE
  5
2C8
330
1F
100
AcDbEntity
  8
LAY-10
  6
CONTINUOUS
 62
     7
100
AcDbLine
 10
327.1364193892057
 20
2352.096028560899
 30
0.0
 11
344.8140889189061
 21
2369.773698090899
 31
0.0
  0
LINE
  5
2C9
330
1F
100
AcDbEntity
  8
LAY-10
  6
CONTINUOUS
 62
     7
100
AcDbLine
 10
344.8140889189061
 20
2405.129037149899
 30
0.0
 11
327.1364193892057
 21
2387.451367619899
 31
0.0
  0
LINE
  5
2CA
330
1F
100
AcDbEntity
  8
LAY-10
  6
CONTINUOUS
 62
     7
100
AcDbLine
 10
439.8470975087396
 20
2464.806706678899
 30
0.0
 11
433.2024365684759
 21
2458.162045738899
 31
0.0
  0
LINE
  5
2CB
330
1F
100
AcDbEntity
  8
LAY-10
  6
CONTINUOUS
 62
     7
100
AcDbLine
 10
404.4917584490698
 20
2464.806706678899
 30
0.0
 11
397.8470975088061
 21
2458.162045738899
 31
0.0
  0
LINE
  5
2CC
330
1F
100
AcDbEntity
  8
LAY-10
  6
CONTINUOUS
 62
     7
100
AcDbLine
 10
369.1364193893931
 20
2464.806706678899
 30
0.0
 11
362.4917584485059
 21
2458.162045737899
 31
0.0
  0
LINE
  5
2CD
330
1F
100
AcDbEntity
  8
LAY-10
  6
CONTINUOUS
 62
     7
100
AcDbLine
 10
230.281080329906
 20
2255.240689502954
 30
0.0
 11
238.7480717407059
 21
2263.707680913898
 31
0.0
  0
LINE
  5
2CE
330
1F
100
AcDbEntity
  8
LAY-10
  6
CONTINUOUS
 62
     7
100
AcDbLine
 10
238.7480717407059
 20
2281.385350442898
 30
0.0
 11
256.4257412704063
 21
2263.707680913898
 31
0.0
  0
LINE
  5
2CF
330
1F
100
AcDbEntity
  8
LAY-10
  6
CONTINUOUS
 62
     7
100
AcDbLine
 10
256.4257412704063
 20
2281.385350442898
 30
0.0
 11
274.1034108001061
 21
2299.063019972898
 31
0.0
  0
LINE
  5
2D0
330
1F
100
AcDbEntity
  8
LAY-10
  6
CONTINUOUS
 62
     7
100
AcDbLine
 10
274.1034108002062
 20
2352.096028560899
 30
0.0
 11
291.781080329806
 21
2334.418359031899
 31
0.0
  0
LINE
  5
2D1
330
1F
100
AcDbEntity
  8
LAY-10
  6
CONTINUOUS
 62
     7
100
AcDbLine
 10
309.4587498595059
 20
2369.773698090898
 30
0.0
 11
291.781080329806
 21
2352.096028560899
 31
0.0
  0
LINE
  5
2D2
330
1F
100
AcDbEntity
  8
LAY-10
  6
CONTINUOUS
 62
     7
100
AcDbLine
 10
274.1034108002062
 20
2369.773698090899
 30
0.0
 11
256.4257412705059
 21
2352.096028560899
 31
0.0
  0
LINE
  5
2D3
330
1F
100
AcDbEntity
  8
LAY-10
  6
CONTINUOUS
 62
     7
100
AcDbLine
 10
309.4587498595059
 20
2352.096028560899
 30
0.0
 11
327.1364193892057
 21
2334.418359031899
 31
0.0
  0
LINE
  5
2D4
330
1F
100
AcDbEntity
  8
LAY-10
  6
CONTINUOUS
 62
     7
100
AcDbLine
 10
291.781080329806
 20
2316.740689501898
 30
0.0
 11
309.4587498595059
 21
2334.418359031899
 31
0.0
  0
LINE
  5
2D5
330
1F
100
AcDbEntity
  8
LAY-10
  6
CONTINUOUS
 62
     7
100
AcDbLine
 10
274.1034108001061
 20
2316.740689501898
 30
0.0
 11
291.781080329806
 21
2299.063019972898
 31
0.0
  0
LINE
  5
2D6
330
1F
100
AcDbEntity
  8
LAY-10
  6
CONTINUOUS
 62
     7
100
AcDbLine
 10
256.4257412704063
 20
2334.418359031898
 30
0.0
 11
238.748071740806
 21
2352.096028560899
 31
0.0
  0
LINE
  5
2D7
330
1F
100
AcDbEntity
  8
LAY-10
  6
CONTINUOUS
 62
     7
100
AcDbLine
 10
238.748071740806
 20
2369.773698090899
 30
0.0
 11
230.281080329906
 21
2361.306706679855
 31
0.0
  0
LINE
  5
2D8
330
1F
100
AcDbEntity
  8
LAY-10
  6
CONTINUOUS
 62
     7
100
AcDbLine
 10
238.748071740806
 20
2334.418359031898
 30
0.0
 11
230.281080329906
 21
2325.951367620854
 31
0.0
  0
LINE
  5
2D9
330
1F
100
AcDbEntity
  8
LAY-10
  6
CONTINUOUS
 62
     7
100
AcDbLine
 10
238.748071740806
 20
2316.740689501898
 30
0.0
 11
256.4257412704063
 21
2299.063019972898
 31
0.0
  0
LINE
  5
2DA
330
1F
100
AcDbEntity
  8
LAY-10
  6
CONTINUOUS
 62
     7
100
AcDbLine
 10
274.1034108001061
 20
2334.418359031898
 30
0.0
 11
256.4257412704063
 21
2316.740689501898
 31
0.0
  0
LINE
  5
2DB
330
1F
100
AcDbEntity
  8
LAY-10
  6
CONTINUOUS
 62
     7
100
AcDbLine
 10
238.7480717407059
 20
2299.063019972898
 30
0.0
 11
230.281080329906
 21
2290.596028561954
 31
0.0
  0
LINE
  5
2DC
330
1F
100
AcDbEntity
  8
LAY-10
  6
CONTINUOUS
 62
     7
100
AcDbLine
 10
362.4917584486059
 20
2440.484376208899
 30
0.0
 11
344.8140889189061
 21
2458.162045738899
 31
0.0
  0
LINE
  5
2DD
330
1F
100
AcDbEntity
  8
LAY-10
  6
CONTINUOUS
 62
     7
100
AcDbLine
 10
344.8140889189061
 20
2422.806706678899
 30
0.0
 11
362.4917584486059
 21
2405.129037149899
 31
0.0
  0
LINE
  5
2DE
330
1F
100
AcDbEntity
  8
LAY-10
  6
CONTINUOUS
 62
     7
100
AcDbLine
 10
309.4587498596059
 20
2387.451367619899
 30
0.0
 11
327.1364193892057
 21
2369.773698090899
 31
0.0
  0
LINE
  5
2DF
330
1F
100
AcDbEntity
  8
LAY-10
  6
CONTINUOUS
 62
     7
100
AcDbLine
 10
309.4587498596059
 20
2405.129037149899
 30
0.0
 11
291.781080329906
 21
2387.451367619899
 31
0.0
  0
LINE
  5
2E0
330
1F
100
AcDbEntity
  8
LAY-10
  6
CONTINUOUS
 62
     7
100
AcDbLine
 10
344.8140889189061
 20
2387.451367619899
 30
0.0
 11
362.4917584486059
 21
2369.773698090899
 31
0.0
  0
LINE
  5
2E1
330
1F
100
AcDbEntity
  8
LAY-10
  6
CONTINUOUS
 62
     7
100
AcDbLine
 10
362.4917584486059
 20
2422.806706678899
 30
0.0
 11
380.1694279782058
 21
2440.484376208899
 31
0.0
  0
LINE
  5
2E2
330
1F
100
AcDbEntity
  8
LAY-10
  6
CONTINUOUS
 62
     7
100
AcDbLine
 10
362.4917584486059
 20
2387.451367619899
 30
0.0
 11
380.1694279782058
 21
2405.129037149899
 31
0.0
  0
LINE
  5
2E3
330
1F
100
AcDbEntity
  8
LAY-10
  6
CONTINUOUS
 62
     7
100
AcDbLine
 10
380.1694279782058
 20
2422.806706678899
 30
0.0
 11
397.8470975079061
 21
2405.129037149899
 31
0.0
  0
LINE
  5
2E4
330
1F
100
AcDbEntity
  8
LAY-10
  6
CONTINUOUS
 62
     7
100
AcDbLine
 10
291.781080329806
 20
2369.773698090898
 30
0.0
 11
274.1034108002062
 21
2387.451367619899
 31
0.0
  0
LINE
  5
2E5
330
1F
100
AcDbEntity
  8
LAY-10
  6
CONTINUOUS
 62
     7
100
AcDbLine
 10
256.4257412705059
 20
2369.773698090899
 30
0.0
 11
238.748071740806
 21
2387.451367619899
 31
0.0
  0
LINE
  5
2E6
330
1F
100
AcDbEntity
  8
LAY-10
  6
CONTINUOUS
 62
     7
100
AcDbLine
 10
274.1034108002062
 20
2405.129037149899
 30
0.0
 11
256.4257412705059
 21
2387.451367619899
 31
0.0
  0
LINE
  5
2E7
330
1F
100
AcDbEntity
  8
LAY-10
  6
CONTINUOUS
 62
     7
100
AcDbLine
 10
238.748071740906
 20
2405.129037150898
 30
0.0
 11
230.281080329906
 21
2396.662045739754
 31
0.0
  0
LINE
  5
2E8
330
1F
100
AcDbEntity
  8
LAY-10
  6
CONTINUOUS
 62
     7
100
AcDbLine
 10
333.78108033061
 20
2464.806706678899
 30
0.0
 11
327.1364193884021
 21
2458.162045737103
 31
0.0
  0
LINE
  5
2E9
330
1F
100
AcDbEntity
  8
LAY-10
  6
CONTINUOUS
 62
     7
100
AcDbLine
 10
238.7480717422061
 20
2440.484376207296
 30
0.0
 11
230.281080329881
 21
2432.017384794825
 31
0.0
  0
LINE
  5
2EA
330
1F
100
AcDbEntity
  8
LAY-10
  6
CONTINUOUS
 62
     7
100
AcDbLine
 10
256.4257412704054
 20
2458.162045736096
 30
0.0
 11
263.0704022128683
 21
2464.806706678897
 31
0.0
  0
LINE
  5
2EB
330
1F
100
AcDbEntity
  8
LAY-10
  6
CONTINUOUS
 62
     7
100
AcDbLine
 10
397.353768306062
 20
2440.977705410852
 30
0.0
 11
380.1694279783063
 21
2458.162045738899
 31
0.0
  0
LINE
  5
2EC
330
1F
100
AcDbEntity
  8
LAY-10
  6
CONTINUOUS
 62
     7
100
AcDbLine
 10
424.8945909066813
 20
2448.792221869764
 30
0.0
 11
415.524767037706
 21
2458.162045738899
 31
0.0
  0
LINE
  5
2ED
330
1F
100
AcDbEntity
  8
LAY-10
  6
CONTINUOUS
 62
     7
100
AcDbLine
 10
397.3537683060562
 20
2422.806706678899
 30
0.0
 11
415.0314378356555
 21
2440.484376208899
 31
0.0
  0
LINE
  5
2EE
330
1F
100
AcDbEntity
  8
LAY-10
  6
CONTINUOUS
 62
     7
100
AcDbLine
 10
447.7810803299038
 20
2443.806706678883
 30
0.0
 11
449.3873803427053
 21
2443.806706678883
 31
0.0
  0
LINE
  5
2EF
330
1F
100
AcDbEntity
  8
LAY-10
  6
CONTINUOUS
 62
     7
100
AcDbLine
 10
447.7810803299038
 20
2435.806706678885
 30
0.0
 11
449.3873803427053
 21
2435.806706678885
 31
0.0
  0
LINE
  5
2F0
330
1F
100
AcDbEntity
  8
LAY-10
  6
CONTINUOUS
 62
     7
100
AcDbLine
 10
447.7810803299038
 20
2435.806706678885
 30
0.0
 11
447.7810803299038
 21
2443.806706678883
 31
0.0
  0
LINE
  5
2F1
330
1F
100
AcDbEntity
  8
LAY-10
  6
CONTINUOUS
 62
     7
100
AcDbLine
 10
437.2810803299038
 20
2446.306706678883
 30
0.0
 11
441.2810803299038
 21
2439.806706678883
 31
0.0
  0
LINE
  5
2F2
330
1F
100
AcDbEntity
  8
LAY-10
  6
CONTINUOUS
 62
     7
100
AcDbLine
 10
441.2810803299038
 20
2439.806706678883
 30
0.0
 11
437.2810803299038
 21
2433.306706678883
 31
0.0
  0
LINE
  5
2F3
330
1F
100
AcDbEntity
  8
LAY-10
  6
CONTINUOUS
 62
     7
100
AcDbLine
 10
437.2810803299038
 20
2433.306706678883
 30
0.0
 11
433.2810803299038
 21
2439.806706678883
 31
0.0
  0
LINE
  5
2F4
330
1F
100
AcDbEntity
  8
LAY-10
  6
CONTINUOUS
 62
     7
100
AcDbLine
 10
433.2810803299038
 20
2439.806706678883
 30
0.0
 11
437.2810803299038
 21
2446.306706678883
 31
0.0
  0
CIRCLE
  5
2F5
330
1F
100
AcDbEntity
  8
LAY-10
  6
CONTINUOUS
 62
     7
100
AcDbCircle
 10
437.2810803299001
 20
2439.8067066789
 30
0.0
 40
13.00000000000001
  0
ARC
  5
2F6
330
1F
100
AcDbEntity
  8
LAY-10
  6
CONTINUOUS
 62
     7
100
AcDbCircle
 10
437.2810803299038
 20
2439.806706678883
 30
0.0
 40
12.75000000000001
100
AcDbArc
 50
18.28388994040769
 51
341.7161100596018
  0
LINE
  5
2F7
330
1F
100
AcDbEntity
  8
LAY-10
  6
CONTINUOUS
 62
     7
100
AcDbLine
 10
707.7810803296063
 20
2405.129037149599
 30
0.0
 11
690.1034108003066
 21
2422.806706678899
 31
0.0
  0
LINE
  5
2F8
330
1F
100
AcDbEntity
  8
LAY-10
  6
CONTINUOUS
 62
     7
100
AcDbLine
 10
707.7810803277041
 20
2458.162045737699
 30
0.0
 11
714.425741269016
 21
2464.806706678899
 31
0.0
  0
LINE
  5
2F9
330
1F
100
AcDbEntity
  8
LAY-10
  6
CONTINUOUS
 62
     7
100
AcDbLine
 10
743.1364193877073
 20
2405.129037148802
 30
0.0
 11
725.4587498587049
 21
2422.806706678401
 31
0.0
  0
LINE
  5
2FA
330
1F
100
AcDbEntity
  8
LAY-10
  6
CONTINUOUS
 62
     7
100
AcDbLine
 10
743.1364193877046
 20
2440.484376208102
 30
0.0
 11
725.4587498587023
 21
2458.162045737801
 31
0.0
  0
LINE
  5
2FB
330
1F
100
AcDbEntity
  8
LAY-10
  6
CONTINUOUS
 62
     7
100
AcDbLine
 10
707.7810803287055
 20
2422.806706678399
 30
0.0
 11
725.4587498587036
 21
2440.484376208101
 31
0.0
  0
LINE
  5
2FC
330
1F
100
AcDbEntity
  8
LAY-10
  6
CONTINUOUS
 62
     7
100
AcDbLine
 10
690.103410800704
 20
2458.162045736698
 30
0.0
 11
707.7810803300046
 21
2440.484376207399
 31
0.0
  0
LINE
  5
2FD
330
1F
100
AcDbEntity
  8
LAY-10
  6
CONTINUOUS
 62
     7
100
AcDbLine
 10
760.814088918906
 20
2440.484376208899
 30
0.0
 11
747.2810803299064
 21
2426.95136761967
 31
0.0
  0
LINE
  5
2FE
330
1F
100
AcDbEntity
  8
LAY-10
  6
CONTINUOUS
 62
     7
100
AcDbLine
 10
654.7480717419055
 20
2422.806706677898
 30
0.0
 11
672.4257412712066
 21
2405.129037148598
 31
0.0
  0
LINE
  5
2FF
330
1F
100
AcDbEntity
  8
LAY-10
  6
CONTINUOUS
 62
     7
100
AcDbLine
 10
672.4257412706058
 20
2440.484376207997
 30
0.0
 11
654.7480717413052
 21
2458.162045737296
 31
0.0
  0
LINE
  5
300
330
1F
100
AcDbEntity
  8
LAY-10
  6
CONTINUOUS
 62
     7
100
AcDbLine
 10
690.1034108006054
 20
2440.484376208298
 30
0.0
 11
672.4257412709064
 21
2422.806706678298
 31
0.0
  0
LINE
  5
301
330
1F
100
AcDbEntity
  8
LAY-10
  6
CONTINUOUS
 62
     7
100
AcDbLine
 10
743.1364193892057
 20
2352.096028560899
 30
0.0
 11
760.814088918906
 21
2369.773698090899
 31
0.0
  0
LINE
  5
302
330
1F
100
AcDbEntity
  8
LAY-10
  6
CONTINUOUS
 62
     7
100
AcDbLine
 10
760.814088918906
 20
2405.129037149899
 30
0.0
 11
743.1364193892057
 21
2387.451367619899
 31
0.0
  0
LINE
  5
303
330
1F
100
AcDbEntity
  8
LAY-10
  6
CONTINUOUS
 62
     7
100
AcDbLine
 10
855.8470975087397
 20
2464.806706678899
 30
0.0
 11
849.2024365684758
 21
2458.162045738899
 31
0.0
  0
LINE
  5
304
330
1F
100
AcDbEntity
  8
LAY-10
  6
CONTINUOUS
 62
     7
100
AcDbLine
 10
820.4917584490698
 20
2464.806706678899
 30
0.0
 11
813.847097508806
 21
2458.162045738899
 31
0.0
  0
LINE
  5
305
330
1F
100
AcDbEntity
  8
LAY-10
  6
CONTINUOUS
 62
     7
100
AcDbLine
 10
785.1364193893932
 20
2464.806706678899
 30
0.0
 11
778.4917584485058
 21
2458.162045737899
 31
0.0
  0
LINE
  5
306
330
1F
100
AcDbEntity
  8
LAY-10
  6
CONTINUOUS
 62
     7
100
AcDbLine
 10
646.2810803299059
 20
2255.240689502954
 30
0.0
 11
654.7480717407059
 21
2263.707680913898
 31
0.0
  0
LINE
  5
307
330
1F
100
AcDbEntity
  8
LAY-10
  6
CONTINUOUS
 62
     7
100
AcDbLine
 10
654.7480717407059
 20
2281.385350442898
 30
0.0
 11
672.4257412704062
 21
2263.707680913898
 31
0.0
  0
LINE
  5
308
330
1F
100
AcDbEntity
  8
LAY-10
  6
CONTINUOUS
 62
     7
100
AcDbLine
 10
672.4257412704062
 20
2281.385350442898
 30
0.0
 11
690.103410800106
 21
2299.063019972898
 31
0.0
  0
LINE
  5
309
330
1F
100
AcDbEntity
  8
LAY-10
  6
CONTINUOUS
 62
     7
100
AcDbLine
 10
690.103410800206
 20
2352.096028560899
 30
0.0
 11
707.781080329806
 21
2334.418359031899
 31
0.0
  0
LINE
  5
30A
330
1F
100
AcDbEntity
  8
LAY-10
  6
CONTINUOUS
 62
     7
100
AcDbLine
 10
725.4587498595058
 20
2369.773698090898
 30
0.0
 11
707.781080329806
 21
2352.096028560899
 31
0.0
  0
LINE
  5
30B
330
1F
100
AcDbEntity
  8
LAY-10
  6
CONTINUOUS
 62
     7
100
AcDbLine
 10
690.103410800206
 20
2369.773698090899
 30
0.0
 11
672.4257412705058
 21
2352.096028560899
 31
0.0
  0
LINE
  5
30C
330
1F
100
AcDbEntity
  8
LAY-10
  6
CONTINUOUS
 62
     7
100
AcDbLine
 10
725.4587498595058
 20
2352.096028560899
 30
0.0
 11
743.1364193892057
 21
2334.418359031899
 31
0.0
  0
LINE
  5
30D
330
1F
100
AcDbEntity
  8
LAY-10
  6
CONTINUOUS
 62
     7
100
AcDbLine
 10
707.781080329806
 20
2316.740689501898
 30
0.0
 11
725.4587498595058
 21
2334.418359031899
 31
0.0
  0
LINE
  5
30E
330
1F
100
AcDbEntity
  8
LAY-10
  6
CONTINUOUS
 62
     7
100
AcDbLine
 10
690.103410800106
 20
2316.740689501898
 30
0.0
 11
707.781080329806
 21
2299.063019972898
 31
0.0
  0
LINE
  5
30F
330
1F
100
AcDbEntity
  8
LAY-10
  6
CONTINUOUS
 62
     7
100
AcDbLine
 10
672.4257412704062
 20
2334.418359031898
 30
0.0
 11
654.7480717408059
 21
2352.096028560899
 31
0.0
  0
LINE
  5
310
330
1F
100
AcDbEntity
  8
LAY-10
  6
CONTINUOUS
 62
     7
100
AcDbLine
 10
654.7480717408059
 20
2369.773698090899
 30
0.0
 11
646.2810803299059
 21
2361.306706679855
 31
0.0
  0
LINE
  5
311
330
1F
100
AcDbEntity
  8
LAY-10
  6
CONTINUOUS
 62
     7
100
AcDbLine
 10
654.7480717408059
 20
2334.418359031898
 30
0.0
 11
646.2810803299059
 21
2325.951367620854
 31
0.0
  0
LINE
  5
312
330
1F
100
AcDbEntity
  8
LAY-10
  6
CONTINUOUS
 62
     7
100
AcDbLine
 10
654.7480717408059
 20
2316.740689501898
 30
0.0
 11
672.4257412704062
 21
2299.063019972898
 31
0.0
  0
LINE
  5
313
330
1F
100
AcDbEntity
  8
LAY-10
  6
CONTINUOUS
 62
     7
100
AcDbLine
 10
690.103410800106
 20
2334.418359031898
 30
0.0
 11
672.4257412704062
 21
2316.740689501898
 31
0.0
  0
LINE
  5
314
330
1F
100
AcDbEntity
  8
LAY-10
  6
CONTINUOUS
 62
     7
100
AcDbLine
 10
654.7480717407059
 20
2299.063019972898
 30
0.0
 11
646.2810803299059
 21
2290.596028561954
 31
0.0
  0
LINE
  5
315
330
1F
100
AcDbEntity
  8
LAY-10
  6
CONTINUOUS
 62
     7
100
AcDbLine
 10
778.4917584486059
 20
2440.484376208899
 30
0.0
 11
760.814088918906
 21
2458.162045738899
 31
0.0
  0
LINE
  5
316
330
1F
100
AcDbEntity
  8
LAY-10
  6
CONTINUOUS
 62
     7
100
AcDbLine
 10
760.814088918906
 20
2422.806706678899
 30
0.0
 11
778.4917584486059
 21
2405.129037149899
 31
0.0
  0
LINE
  5
317
330
1F
100
AcDbEntity
  8
LAY-10
  6
CONTINUOUS
 62
     7
100
AcDbLine
 10
725.4587498596059
 20
2387.451367619899
 30
0.0
 11
743.1364193892057
 21
2369.773698090899
 31
0.0
  0
LINE
  5
318
330
1F
100
AcDbEntity
  8
LAY-10
  6
CONTINUOUS
 62
     7
100
AcDbLine
 10
725.4587498596059
 20
2405.129037149899
 30
0.0
 11
707.781080329906
 21
2387.451367619899
 31
0.0
  0
LINE
  5
319
330
1F
100
AcDbEntity
  8
LAY-10
  6
CONTINUOUS
 62
     7
100
AcDbLine
 10
760.814088918906
 20
2387.451367619899
 30
0.0
 11
778.4917584486059
 21
2369.773698090899
 31
0.0
  0
LINE
  5
31A
330
1F
100
AcDbEntity
  8
LAY-10
  6
CONTINUOUS
 62
     7
100
AcDbLine
 10
778.4917584486059
 20
2422.806706678899
 30
0.0
 11
796.1694279782057
 21
2440.484376208899
 31
0.0
  0
LINE
  5
31B
330
1F
100
AcDbEntity
  8
LAY-10
  6
CONTINUOUS
 62
     7
100
AcDbLine
 10
778.4917584486059
 20
2387.451367619899
 30
0.0
 11
796.1694279782057
 21
2405.129037149899
 31
0.0
  0
LINE
  5
31C
330
1F
100
AcDbEntity
  8
LAY-10
  6
CONTINUOUS
 62
     7
100
AcDbLine
 10
796.1694279782057
 20
2422.806706678899
 30
0.0
 11
813.847097507906
 21
2405.129037149899
 31
0.0
  0
LINE
  5
31D
330
1F
100
AcDbEntity
  8
LAY-10
  6
CONTINUOUS
 62
     7
100
AcDbLine
 10
707.781080329806
 20
2369.773698090898
 30
0.0
 11
690.103410800206
 21
2387.451367619899
 31
0.0
  0
LINE
  5
31E
330
1F
100
AcDbEntity
  8
LAY-10
  6
CONTINUOUS
 62
     7
100
AcDbLine
 10
672.4257412705058
 20
2369.773698090899
 30
0.0
 11
654.7480717408059
 21
2387.451367619899
 31
0.0
  0
LINE
  5
31F
330
1F
100
AcDbEntity
  8
LAY-10
  6
CONTINUOUS
 62
     7
100
AcDbLine
 10
690.103410800206
 20
2405.129037149899
 30
0.0
 11
672.4257412705058
 21
2387.451367619899
 31
0.0
  0
LINE
  5
320
330
1F
100
AcDbEntity
  8
LAY-10
  6
CONTINUOUS
 62
     7
100
AcDbLine
 10
654.748071740906
 20
2405.129037150898
 30
0.0
 11
646.2810803299059
 21
2396.662045739754
 31
0.0
  0
LINE
  5
321
330
1F
100
AcDbEntity
  8
LAY-10
  6
CONTINUOUS
 62
     7
100
AcDbLine
 10
749.7810803306098
 20
2464.806706678899
 30
0.0
 11
743.1364193884021
 21
2458.162045737103
 31
0.0
  0
LINE
  5
322
330
1F
100
AcDbEntity
  8
LAY-10
  6
CONTINUOUS
 62
     7
100
AcDbLine
 10
654.7480717422061
 20
2440.484376207296
 30
0.0
 11
646.2810803298809
 21
2432.017384794825
 31
0.0
  0
LINE
  5
323
330
1F
100
AcDbEntity
  8
LAY-10
  6
CONTINUOUS
 62
     7
100
AcDbLine
 10
672.4257412704052
 20
2458.162045736096
 30
0.0
 11
679.0704022128682
 21
2464.806706678897
 31
0.0
  0
LINE
  5
324
330
1F
100
AcDbEntity
  8
LAY-10
  6
CONTINUOUS
 62
     7
100
AcDbLine
 10
813.3537683060621
 20
2440.977705410852
 30
0.0
 11
796.1694279783063
 21
2458.162045738899
 31
0.0
  0
LINE
  5
325
330
1F
100
AcDbEntity
  8
LAY-10
  6
CONTINUOUS
 62
     7
100
AcDbLine
 10
840.8945909066813
 20
2448.792221869764
 30
0.0
 11
831.5247670377059
 21
2458.162045738899
 31
0.0
  0
LINE
  5
326
330
1F
100
AcDbEntity
  8
LAY-10
  6
CONTINUOUS
 62
     7
100
AcDbLine
 10
813.353768306056
 20
2422.806706678899
 30
0.0
 11
831.0314378356554
 21
2440.484376208899
 31
0.0
  0
LINE
  5
327
330
1F
100
AcDbEntity
  8
LAY-10
  6
CONTINUOUS
 62
     7
100
AcDbLine
 10
863.7810803299038
 20
2443.806706678883
 30
0.0
 11
865.3873803427052
 21
2443.806706678883
 31
0.0
  0
LINE
  5
328
330
1F
100
AcDbEntity
  8
LAY-10
  6
CONTINUOUS
 62
     7
100
AcDbLine
 10
863.7810803299038
 20
2435.806706678885
 30
0.0
 11
865.3873803427052
 21
2435.806706678885
 31
0.0
  0
LINE
  5
329
330
1F
100
AcDbEntity
  8
LAY-10
  6
CONTINUOUS
 62
     7
100
AcDbLine
 10
863.7810803299038
 20
2435.806706678885
 30
0.0
 11
863.7810803299038
 21
2443.806706678883
 31
0.0
  0
LINE
  5
32A
330
1F
100
AcDbEntity
  8
LAY-10
  6
CONTINUOUS
 62
     7
100
AcDbLine
 10
853.2810803299037
 20
2446.306706678883
 30
0.0
 11
857.2810803299037
 21
2439.806706678883
 31
0.0
  0
LINE
  5
32B
330
1F
100
AcDbEntity
  8
LAY-10
  6
CONTINUOUS
 62
     7
100
AcDbLine
 10
857.2810803299037
 20
2439.806706678883
 30
0.0
 11
853.2810803299037
 21
2433.306706678883
 31
0.0
  0
LINE
  5
32C
330
1F
100
AcDbEntity
  8
LAY-10
  6
CONTINUOUS
 62
     7
100
AcDbLine
 10
853.2810803299037
 20
2433.306706678883
 30
0.0
 11
849.2810803299037
 21
2439.806706678883
 31
0.0
  0
LINE
  5
32D
330
1F
100
AcDbEntity
  8
LAY-10
  6
CONTINUOUS
 62
     7
100
AcDbLine
 10
849.2810803299037
 20
2439.806706678883
 30
0.0
 11
853.2810803299037
 21
2446.306706678883
 31
0.0
  0
CIRCLE
  5
32E
330
1F
100
AcDbEntity
  8
LAY-10
  6
CONTINUOUS
 62
     7
100
AcDbCircle
 10
853.2810803299001
 20
2439.8067066789
 30
0.0
 40
13.00000000000001
  0
ARC
  5
32F
330
1F
100
AcDbEntity
  8
LAY-10
  6
CONTINUOUS
 62
     7
100
AcDbCircle
 10
853.2810803299037
 20
2439.806706678883
 30
0.0
 40
12.75000000000001
100
AcDbArc
 50
18.28388994040769
 51
341.7161100596018
  0
LINE
  5
330
330
1F
100
AcDbEntity
  8
LAY-10
  6
CONTINUOUS
 62
     7
100
AcDbLine
 10
1123.781080329586
 20
2405.129037149599
 30
0.0
 11
1106.103410800287
 21
2422.806706678899
 31
0.0
  0
LINE
  5
331
330
1F
100
AcDbEntity
  8
LAY-10
  6
CONTINUOUS
 62
     7
100
AcDbLine
 10
1123.781080327684
 20
2458.162045737699
 30
0.0
 11
1130.425741268996
 21
2464.806706678899
 31
0.0
  0
LINE
  5
332
330
1F
100
AcDbEntity
  8
LAY-10
  6
CONTINUOUS
 62
     7
100
AcDbLine
 10
1159.136419387687
 20
2405.129037148802
 30
0.0
 11
1141.458749858685
 21
2422.806706678401
 31
0.0
  0
LINE
  5
333
330
1F
100
AcDbEntity
  8
LAY-10
  6
CONTINUOUS
 62
     7
100
AcDbLine
 10
1159.136419387685
 20
2440.484376208102
 30
0.0
 11
1141.458749858682
 21
2458.162045737801
 31
0.0
  0
LINE
  5
334
330
1F
100
AcDbEntity
  8
LAY-10
  6
CONTINUOUS
 62
     7
100
AcDbLine
 10
1123.781080328685
 20
2422.806706678399
 30
0.0
 11
1141.458749858684
 21
2440.484376208101
 31
0.0
  0
LINE
  5
335
330
1F
100
AcDbEntity
  8
LAY-10
  6
CONTINUOUS
 62
     7
100
AcDbLine
 10
1106.103410800684
 20
2458.162045736698
 30
0.0
 11
1123.781080329985
 21
2440.484376207399
 31
0.0
  0
LINE
  5
336
330
1F
100
AcDbEntity
  8
LAY-10
  6
CONTINUOUS
 62
     7
100
AcDbLine
 10
1176.814088918886
 20
2440.484376208899
 30
0.0
 11
1163.281080329886
 21
2426.95136761967
 31
0.0
  0
LINE
  5
337
330
1F
100
AcDbEntity
  8
LAY-10
  6
CONTINUOUS
 62
     7
100
AcDbLine
 10
1070.748071741885
 20
2422.806706677898
 30
0.0
 11
1088.425741271187
 21
2405.129037148598
 31
0.0
  0
LINE
  5
338
330
1F
100
AcDbEntity
  8
LAY-10
  6
CONTINUOUS
 62
     7
100
AcDbLine
 10
1088.425741270586
 20
2440.484376207997
 30
0.0
 11
1070.748071741285
 21
2458.162045737296
 31
0.0
  0
LINE
  5
339
330
1F
100
AcDbEntity
  8
LAY-10
  6
CONTINUOUS
 62
     7
100
AcDbLine
 10
1106.103410800585
 20
2440.484376208298
 30
0.0
 11
1088.425741270886
 21
2422.806706678298
 31
0.0
  0
LINE
  5
33A
330
1F
100
AcDbEntity
  8
LAY-10
  6
CONTINUOUS
 62
     7
100
AcDbLine
 10
1159.136419389186
 20
2352.096028560899
 30
0.0
 11
1176.814088918886
 21
2369.773698090899
 31
0.0
  0
LINE
  5
33B
330
1F
100
AcDbEntity
  8
LAY-10
  6
CONTINUOUS
 62
     7
100
AcDbLine
 10
1176.814088918886
 20
2405.129037149899
 30
0.0
 11
1159.136419389186
 21
2387.451367619899
 31
0.0
  0
LINE
  5
33C
330
1F
100
AcDbEntity
  8
LAY-10
  6
CONTINUOUS
 62
     7
100
AcDbLine
 10
1271.84709750872
 20
2464.806706678899
 30
0.0
 11
1265.202436568456
 21
2458.162045738899
 31
0.0
  0
LINE
  5
33D
330
1F
100
AcDbEntity
  8
LAY-10
  6
CONTINUOUS
 62
     7
100
AcDbLine
 10
1236.49175844905
 20
2464.806706678899
 30
0.0
 11
1229.847097508786
 21
2458.162045738899
 31
0.0
  0
LINE
  5
33E
330
1F
100
AcDbEntity
  8
LAY-10
  6
CONTINUOUS
 62
     7
100
AcDbLine
 10
1201.136419389373
 20
2464.806706678899
 30
0.0
 11
1194.491758448486
 21
2458.162045737899
 31
0.0
  0
LINE
  5
33F
330
1F
100
AcDbEntity
  8
LAY-10
  6
CONTINUOUS
 62
     7
100
AcDbLine
 10
1062.281080329886
 20
2255.240689502954
 30
0.0
 11
1070.748071740686
 21
2263.707680913898
 31
0.0
  0
LINE
  5
340
330
1F
100
AcDbEntity
  8
LAY-10
  6
CONTINUOUS
 62
     7
100
AcDbLine
 10
1070.748071740686
 20
2281.385350442898
 30
0.0
 11
1088.425741270386
 21
2263.707680913898
 31
0.0
  0
LINE
  5
341
330
1F
100
AcDbEntity
  8
LAY-10
  6
CONTINUOUS
 62
     7
100
AcDbLine
 10
1088.425741270386
 20
2281.385350442898
 30
0.0
 11
1106.103410800086
 21
2299.063019972898
 31
0.0
  0
LINE
  5
342
330
1F
100
AcDbEntity
  8
LAY-10
  6
CONTINUOUS
 62
     7
100
AcDbLine
 10
1106.103410800186
 20
2352.096028560899
 30
0.0
 11
1123.781080329786
 21
2334.418359031899
 31
0.0
  0
LINE
  5
343
330
1F
100
AcDbEntity
  8
LAY-10
  6
CONTINUOUS
 62
     7
100
AcDbLine
 10
1141.458749859486
 20
2369.773698090898
 30
0.0
 11
1123.781080329786
 21
2352.096028560899
 31
0.0
  0
LINE
  5
344
330
1F
100
AcDbEntity
  8
LAY-10
  6
CONTINUOUS
 62
     7
100
AcDbLine
 10
1106.103410800186
 20
2369.773698090899
 30
0.0
 11
1088.425741270486
 21
2352.096028560899
 31
0.0
  0
LINE
  5
345
330
1F
100
AcDbEntity
  8
LAY-10
  6
CONTINUOUS
 62
     7
100
AcDbLine
 10
1141.458749859486
 20
2352.096028560899
 30
0.0
 11
1159.136419389186
 21
2334.418359031899
 31
0.0
  0
LINE
  5
346
330
1F
100
AcDbEntity
  8
LAY-10
  6
CONTINUOUS
 62
     7
100
AcDbLine
 10
1123.781080329786
 20
2316.740689501898
 30
0.0
 11
1141.458749859486
 21
2334.418359031899
 31
0.0
  0
LINE
  5
347
330
1F
100
AcDbEntity
  8
LAY-10
  6
CONTINUOUS
 62
     7
100
AcDbLine
 10
1106.103410800086
 20
2316.740689501898
 30
0.0
 11
1123.781080329786
 21
2299.063019972898
 31
0.0
  0
LINE
  5
348
330
1F
100
AcDbEntity
  8
LAY-10
  6
CONTINUOUS
 62
     7
100
AcDbLine
 10
1088.425741270386
 20
2334.418359031898
 30
0.0
 11
1070.748071740786
 21
2352.096028560899
 31
0.0
  0
LINE
  5
349
330
1F
100
AcDbEntity
  8
LAY-10
  6
CONTINUOUS
 62
     7
100
AcDbLine
 10
1070.748071740786
 20
2369.773698090899
 30
0.0
 11
1062.281080329886
 21
2361.306706679855
 31
0.0
  0
LINE
  5
34A
330
1F
100
AcDbEntity
  8
LAY-10
  6
CONTINUOUS
 62
     7
100
AcDbLine
 10
1070.748071740786
 20
2334.418359031898
 30
0.0
 11
1062.281080329886
 21
2325.951367620854
 31
0.0
  0
LINE
  5
34B
330
1F
100
AcDbEntity
  8
LAY-10
  6
CONTINUOUS
 62
     7
100
AcDbLine
 10
1070.748071740786
 20
2316.740689501898
 30
0.0
 11
1088.425741270386
 21
2299.063019972898
 31
0.0
  0
LINE
  5
34C
330
1F
100
AcDbEntity
  8
LAY-10
  6
CONTINUOUS
 62
     7
100
AcDbLine
 10
1106.103410800086
 20
2334.418359031898
 30
0.0
 11
1088.425741270386
 21
2316.740689501898
 31
0.0
  0
LINE
  5
34D
330
1F
100
AcDbEntity
  8
LAY-10
  6
CONTINUOUS
 62
     7
100
AcDbLine
 10
1070.748071740686
 20
2299.063019972898
 30
0.0
 11
1062.281080329886
 21
2290.596028561954
 31
0.0
  0
LINE
  5
34E
330
1F
100
AcDbEntity
  8
LAY-10
  6
CONTINUOUS
 62
     7
100
AcDbLine
 10
1194.491758448586
 20
2440.484376208899
 30
0.0
 11
1176.814088918886
 21
2458.162045738899
 31
0.0
  0
LINE
  5
34F
330
1F
100
AcDbEntity
  8
LAY-10
  6
CONTINUOUS
 62
     7
100
AcDbLine
 10
1176.814088918886
 20
2422.806706678899
 30
0.0
 11
1194.491758448586
 21
2405.129037149899
 31
0.0
  0
LINE
  5
350
330
1F
100
AcDbEntity
  8
LAY-10
  6
CONTINUOUS
 62
     7
100
AcDbLine
 10
1141.458749859586
 20
2387.451367619899
 30
0.0
 11
1159.136419389186
 21
2369.773698090899
 31
0.0
  0
LINE
  5
351
330
1F
100
AcDbEntity
  8
LAY-10
  6
CONTINUOUS
 62
     7
100
AcDbLine
 10
1141.458749859586
 20
2405.129037149899
 30
0.0
 11
1123.781080329886
 21
2387.451367619899
 31
0.0
  0
LINE
  5
352
330
1F
100
AcDbEntity
  8
LAY-10
  6
CONTINUOUS
 62
     7
100
AcDbLine
 10
1176.814088918886
 20
2387.451367619899
 30
0.0
 11
1194.491758448586
 21
2369.773698090899
 31
0.0
  0
LINE
  5
353
330
1F
100
AcDbEntity
  8
LAY-10
  6
CONTINUOUS
 62
     7
100
AcDbLine
 10
1194.491758448586
 20
2422.806706678899
 30
0.0
 11
1212.169427978186
 21
2440.484376208899
 31
0.0
  0
LINE
  5
354
330
1F
100
AcDbEntity
  8
LAY-10
  6
CONTINUOUS
 62
     7
100
AcDbLine
 10
1194.491758448586
 20
2387.451367619899
 30
0.0
 11
1212.169427978186
 21
2405.129037149899
 31
0.0
  0
LINE
  5
355
330
1F
100
AcDbEntity
  8
LAY-10
  6
CONTINUOUS
 62
     7
100
AcDbLine
 10
1212.169427978186
 20
2422.806706678899
 30
0.0
 11
1229.847097507886
 21
2405.129037149899
 31
0.0
  0
LINE
  5
356
330
1F
100
AcDbEntity
  8
LAY-10
  6
CONTINUOUS
 62
     7
100
AcDbLine
 10
1123.781080329786
 20
2369.773698090898
 30
0.0
 11
1106.103410800186
 21
2387.451367619899
 31
0.0
  0
LINE
  5
357
330
1F
100
AcDbEntity
  8
LAY-10
  6
CONTINUOUS
 62
     7
100
AcDbLine
 10
1088.425741270486
 20
2369.773698090899
 30
0.0
 11
1070.748071740786
 21
2387.451367619899
 31
0.0
  0
LINE
  5
358
330
1F
100
AcDbEntity
  8
LAY-10
  6
CONTINUOUS
 62
     7
100
AcDbLine
 10
1106.103410800186
 20
2405.129037149899
 30
0.0
 11
1088.425741270486
 21
2387.451367619899
 31
0.0
  0
LINE
  5
359
330
1F
100
AcDbEntity
  8
LAY-10
  6
CONTINUOUS
 62
     7
100
AcDbLine
 10
1070.748071740886
 20
2405.129037150898
 30
0.0
 11
1062.281080329886
 21
2396.662045739754
 31
0.0
  0
LINE
  5
35A
330
1F
100
AcDbEntity
  8
LAY-10
  6
CONTINUOUS
 62
     7
100
AcDbLine
 10
1165.78108033059
 20
2464.806706678899
 30
0.0
 11
1159.136419388382
 21
2458.162045737103
 31
0.0
  0
LINE
  5
35B
330
1F
100
AcDbEntity
  8
LAY-10
  6
CONTINUOUS
 62
     7
100
AcDbLine
 10
1070.748071742186
 20
2440.484376207296
 30
0.0
 11
1062.281080329861
 21
2432.017384794825
 31
0.0
  0
LINE
  5
35C
330
1F
100
AcDbEntity
  8
LAY-10
  6
CONTINUOUS
 62
     7
100
AcDbLine
 10
1088.425741270385
 20
2458.162045736096
 30
0.0
 11
1095.070402212848
 21
2464.806706678897
 31
0.0
  0
LINE
  5
35D
330
1F
100
AcDbEntity
  8
LAY-10
  6
CONTINUOUS
 62
     7
100
AcDbLine
 10
1229.353768306042
 20
2440.977705410852
 30
0.0
 11
1212.169427978286
 21
2458.162045738899
 31
0.0
  0
LINE
  5
35E
330
1F
100
AcDbEntity
  8
LAY-10
  6
CONTINUOUS
 62
     7
100
AcDbLine
 10
1256.894590906661
 20
2448.792221869764
 30
0.0
 11
1247.524767037686
 21
2458.162045738899
 31
0.0
  0
LINE
  5
35F
330
1F
100
AcDbEntity
  8
LAY-10
  6
CONTINUOUS
 62
     7
100
AcDbLine
 10
1229.353768306036
 20
2422.806706678899
 30
0.0
 11
1247.031437835635
 21
2440.484376208899
 31
0.0
  0
LINE
  5
360
330
1F
100
AcDbEntity
  8
LAY-10
  6
CONTINUOUS
 62
     7
100
AcDbLine
 10
1279.781080329884
 20
2443.806706678883
 30
0.0
 11
1281.387380342685
 21
2443.806706678883
 31
0.0
  0
LINE
  5
361
330
1F
100
AcDbEntity
  8
LAY-10
  6
CONTINUOUS
 62
     7
100
AcDbLine
 10
1279.781080329884
 20
2435.806706678885
 30
0.0
 11
1281.387380342685
 21
2435.806706678885
 31
0.0
  0
LINE
  5
362
330
1F
100
AcDbEntity
  8
LAY-10
  6
CONTINUOUS
 62
     7
100
AcDbLine
 10
1279.781080329884
 20
2435.806706678885
 30
0.0
 11
1279.781080329884
 21
2443.806706678883
 31
0.0
  0
LINE
  5
363
330
1F
100
AcDbEntity
  8
LAY-10
  6
CONTINUOUS
 62
     7
100
AcDbLine
 10
1269.281080329884
 20
2446.306706678883
 30
0.0
 11
1273.281080329884
 21
2439.806706678883
 31
0.0
  0
LINE
  5
364
330
1F
100
AcDbEntity
  8
LAY-10
  6
CONTINUOUS
 62
     7
100
AcDbLine
 10
1273.281080329884
 20
2439.806706678883
 30
0.0
 11
1269.281080329884
 21
2433.306706678883
 31
0.0
  0
LINE
  5
365
330
1F
100
AcDbEntity
  8
LAY-10
  6
CONTINUOUS
 62
     7
100
AcDbLine
 10
1269.281080329884
 20
2433.306706678883
 30
0.0
 11
1265.281080329884
 21
2439.806706678883
 31
0.0
  0
LINE
  5
366
330
1F
100
AcDbEntity
  8
LAY-10
  6
CONTINUOUS
 62
     7
100
AcDbLine
 10
1265.281080329884
 20
2439.806706678883
 30
0.0
 11
1269.281080329884
 21
2446.306706678883
 31
0.0
  0
CIRCLE
  5
367
330
1F
100
AcDbEntity
  8
LAY-10
  6
CONTINUOUS
 62
     7
100
AcDbCircle
 10
1269.28108032988
 20
2439.8067066789
 30
0.0
 40
13.00000000000001
  0
ARC
  5
368
330
1F
100
AcDbEntity
  8
LAY-10
  6
CONTINUOUS
 62
     7
100
AcDbCircle
 10
1269.281080329884
 20
2439.806706678883
 30
0.0
 40
12.75000000000001
100
AcDbArc
 50
18.28388994040769
 51
341.7161100596018
  0
ARC
  5
369
330
1F
100
AcDbEntity
  8
LAY-10
  6
CONTINUOUS
 62
     7
100
AcDbCircle
 10
437.2810803299046
 20
1337.806706678884
 30
0.0
 40
12.75000000000001
100
AcDbArc
 50
18.28388994040202
 51
341.7161100595968
  0
CIRCLE
  5
36A
330
1F
100
AcDbEntity
  8
LAY-10
  6
CONTINUOUS
 62
     7
100
AcDbCircle
 10
437.2810803299001
 20
1337.8067066789
 30
0.0
 40
13.00000000000001
  0
LINE
  5
36B
330
1F
100
AcDbEntity
  8
LAY-10
  6
CONTINUOUS
 62
     7
100
AcDbLine
 10
433.2810803299046
 20
1337.806706678884
 30
0.0
 11
437.2810803299046
 21
1344.306706678884
 31
0.0
  0
LINE
  5
36C
330
1F
100
AcDbEntity
  8
LAY-10
  6
CONTINUOUS
 62
     7
100
AcDbLine
 10
437.2810803299046
 20
1331.306706678884
 30
0.0
 11
433.2810803299046
 21
1337.806706678884
 31
0.0
  0
LINE
  5
36D
330
1F
100
AcDbEntity
  8
LAY-10
  6
CONTINUOUS
 62
     7
100
AcDbLine
 10
441.2810803299047
 20
1337.806706678884
 30
0.0
 11
437.2810803299046
 21
1331.306706678884
 31
0.0
  0
LINE
  5
36E
330
1F
100
AcDbEntity
  8
LAY-10
  6
CONTINUOUS
 62
     7
100
AcDbLine
 10
437.2810803299046
 20
1344.306706678884
 30
0.0
 11
441.2810803299047
 21
1337.806706678884
 31
0.0
  0
LINE
  5
36F
330
1F
100
AcDbEntity
  8
LAY-10
  6
CONTINUOUS
 62
     7
100
AcDbLine
 10
447.7810803299046
 20
1333.806706678884
 30
0.0
 11
447.7810803299046
 21
1341.806706678883
 31
0.0
  0
LINE
  5
370
330
1F
100
AcDbEntity
  8
LAY-10
  6
CONTINUOUS
 62
     7
100
AcDbLine
 10
447.7810803299046
 20
1333.806706678884
 30
0.0
 11
449.3873803427061
 21
1333.806706678884
 31
0.0
  0
LINE
  5
371
330
1F
100
AcDbEntity
  8
LAY-10
  6
CONTINUOUS
 62
     7
100
AcDbLine
 10
447.7810803299046
 20
1341.806706678883
 30
0.0
 11
449.3873803427061
 21
1341.806706678883
 31
0.0
  0
LINE
  5
372
330
1F
100
AcDbEntity
  8
LAY-10
  6
CONTINUOUS
 62
     7
100
AcDbLine
 10
477.2083923537446
 20
1354.806706678901
 30
0.0
 11
459.5307228241447
 21
1337.129037148901
 31
0.0
  0
LINE
  5
373
330
1F
100
AcDbEntity
  8
LAY-10
  6
CONTINUOUS
 62
     7
100
AcDbLine
 10
449.6675697531194
 20
1328.821191488036
 30
0.0
 11
459.0373936220942
 21
1319.451367618901
 31
0.0
  0
LINE
  5
374
330
1F
100
AcDbEntity
  8
LAY-10
  6
CONTINUOUS
 62
     7
100
AcDbLine
 10
477.2083923537386
 20
1336.635707946948
 30
0.0
 11
494.392732681494
 21
1319.451367618901
 31
0.0
  0
LINE
  5
375
330
1F
100
AcDbEntity
  8
LAY-10
  6
CONTINUOUS
 62
     7
100
AcDbLine
 10
618.1364193893953
 20
1319.451367621704
 30
0.0
 11
611.4917584469324
 21
1312.806706678903
 31
0.0
  0
LINE
  5
376
330
1F
100
AcDbEntity
  8
LAY-10
  6
CONTINUOUS
 62
     7
100
AcDbLine
 10
635.8140889175941
 20
1337.129037150504
 30
0.0
 11
644.2810803299191
 21
1345.596028562974
 31
0.0
  0
LINE
  5
377
330
1F
100
AcDbEntity
  8
LAY-10
  6
CONTINUOUS
 62
     7
100
AcDbLine
 10
540.7810803291907
 20
1312.806706678901
 30
0.0
 11
547.425741271398
 21
1319.451367620697
 31
0.0
  0
LINE
  5
378
330
1F
100
AcDbEntity
  8
LAY-10
  6
CONTINUOUS
 62
     7
100
AcDbLine
 10
635.8140889188946
 20
1372.484376206902
 30
0.0
 11
644.2810803298946
 21
1380.951367618046
 31
0.0
  0
LINE
  5
379
330
1F
100
AcDbEntity
  8
LAY-10
  6
CONTINUOUS
 62
     7
100
AcDbLine
 10
600.458749859594
 20
1372.484376207902
 30
0.0
 11
618.1364193892944
 21
1390.1620457379
 31
0.0
  0
LINE
  5
37A
330
1F
100
AcDbEntity
  8
LAY-10
  6
CONTINUOUS
 62
     7
100
AcDbLine
 10
618.1364193892944
 20
1407.839715266902
 30
0.0
 11
635.8140889189947
 21
1390.1620457379
 31
0.0
  0
LINE
  5
37B
330
1F
100
AcDbEntity
  8
LAY-10
  6
CONTINUOUS
 62
     7
100
AcDbLine
 10
582.7810803299947
 20
1407.839715266902
 30
0.0
 11
600.458749859594
 21
1390.1620457379
 31
0.0
  0
LINE
  5
37C
330
1F
100
AcDbEntity
  8
LAY-10
  6
CONTINUOUS
 62
     7
100
AcDbLine
 10
494.392732681595
 20
1354.806706678901
 30
0.0
 11
476.7150631518946
 21
1372.484376207902
 31
0.0
  0
LINE
  5
37D
330
1F
100
AcDbEntity
  8
LAY-10
  6
CONTINUOUS
 62
     7
100
AcDbLine
 10
512.0704022111943
 20
1390.162045737901
 30
0.0
 11
494.392732681595
 21
1372.484376207902
 31
0.0
  0
LINE
  5
37E
330
1F
100
AcDbEntity
  8
LAY-10
  6
CONTINUOUS
 62
     7
100
AcDbLine
 10
512.0704022111943
 20
1354.806706678901
 30
0.0
 11
494.392732681595
 21
1337.129037148901
 31
0.0
  0
LINE
  5
37F
330
1F
100
AcDbEntity
  8
LAY-10
  6
CONTINUOUS
 62
     7
100
AcDbLine
 10
529.7480717408946
 20
1390.162045737901
 30
0.0
 11
512.0704022111943
 21
1407.839715266901
 31
0.0
  0
LINE
  5
380
330
1F
100
AcDbEntity
  8
LAY-10
  6
CONTINUOUS
 62
     7
100
AcDbLine
 10
565.1034108001943
 20
1372.484376207902
 30
0.0
 11
582.7810803298946
 21
1390.162045737901
 31
0.0
  0
LINE
  5
381
330
1F
100
AcDbEntity
  8
LAY-10
  6
CONTINUOUS
 62
     7
100
AcDbLine
 10
565.1034108001943
 20
1390.162045737901
 30
0.0
 11
547.4257412705949
 21
1407.839715266901
 31
0.0
  0
LINE
  5
382
330
1F
100
AcDbEntity
  8
LAY-10
  6
CONTINUOUS
 62
     7
100
AcDbLine
 10
529.7480717408946
 20
1354.806706678901
 30
0.0
 11
512.0704022111943
 21
1372.484376207902
 31
0.0
  0
LINE
  5
383
330
1F
100
AcDbEntity
  8
LAY-10
  6
CONTINUOUS
 62
     7
100
AcDbLine
 10
512.0704022111943
 20
1337.129037148901
 30
0.0
 11
529.7480717408946
 21
1319.451367618902
 31
0.0
  0
LINE
  5
384
330
1F
100
AcDbEntity
  8
LAY-10
  6
CONTINUOUS
 62
     7
100
AcDbLine
 10
635.8140889190947
 20
1478.550393384902
 30
0.0
 11
644.2810803298946
 21
1487.017384795846
 31
0.0
  0
LINE
  5
385
330
1F
100
AcDbEntity
  8
LAY-10
  6
CONTINUOUS
 62
     7
100
AcDbLine
 10
600.4587498596941
 20
1443.195054325902
 30
0.0
 11
618.1364193893944
 21
1460.872723855902
 31
0.0
  0
LINE
  5
386
330
1F
100
AcDbEntity
  8
LAY-10
  6
CONTINUOUS
 62
     7
100
AcDbLine
 10
635.8140889189947
 20
1460.872723855902
 30
0.0
 11
618.1364193893944
 21
1478.550393384902
 31
0.0
  0
LINE
  5
387
330
1F
100
AcDbEntity
  8
LAY-10
  6
CONTINUOUS
 62
     7
100
AcDbLine
 10
635.8140889189947
 20
1443.195054325902
 30
0.0
 11
644.2810803298946
 21
1451.662045736945
 31
0.0
  0
LINE
  5
388
330
1F
100
AcDbEntity
  8
LAY-10
  6
CONTINUOUS
 62
     7
100
AcDbLine
 10
635.8140889189947
 20
1407.839715266902
 30
0.0
 11
644.2810803298946
 21
1416.306706677945
 31
0.0
  0
LINE
  5
389
330
1F
100
AcDbEntity
  8
LAY-10
  6
CONTINUOUS
 62
     7
100
AcDbLine
 10
618.1364193893944
 20
1443.195054325902
 30
0.0
 11
635.8140889189947
 21
1425.517384796901
 31
0.0
  0
LINE
  5
38A
330
1F
100
AcDbEntity
  8
LAY-10
  6
CONTINUOUS
 62
     7
100
AcDbLine
 10
600.4587498596941
 20
1460.872723855902
 30
0.0
 11
582.7810803299947
 21
1478.550393384902
 31
0.0
  0
LINE
  5
38B
330
1F
100
AcDbEntity
  8
LAY-10
  6
CONTINUOUS
 62
     7
100
AcDbLine
 10
582.7810803299947
 20
1460.872723855902
 30
0.0
 11
565.1034108002943
 21
1443.195054325901
 31
0.0
  0
LINE
  5
38C
330
1F
100
AcDbEntity
  8
LAY-10
  6
CONTINUOUS
 62
     7
100
AcDbLine
 10
565.1034108002943
 20
1425.517384796902
 30
0.0
 11
547.4257412705949
 21
1443.195054325901
 31
0.0
  0
LINE
  5
38D
330
1F
100
AcDbEntity
  8
LAY-10
  6
CONTINUOUS
 62
     7
100
AcDbLine
 10
600.458749859594
 20
1407.839715266902
 30
0.0
 11
618.1364193892944
 21
1425.517384796901
 31
0.0
  0
LINE
  5
38E
330
1F
100
AcDbEntity
  8
LAY-10
  6
CONTINUOUS
 62
     7
100
AcDbLine
 10
565.1034108002943
 20
1407.839715266902
 30
0.0
 11
582.7810803299947
 21
1425.517384796902
 31
0.0
  0
LINE
  5
38F
330
1F
100
AcDbEntity
  8
LAY-10
  6
CONTINUOUS
 62
     7
100
AcDbLine
 10
600.458749859594
 20
1425.517384796901
 30
0.0
 11
582.7810803299947
 21
1443.195054325901
 31
0.0
  0
LINE
  5
390
330
1F
100
AcDbEntity
  8
LAY-10
  6
CONTINUOUS
 62
     7
100
AcDbLine
 10
618.1364193893944
 20
1496.228062914902
 30
0.0
 11
600.4587498596941
 21
1478.550393384902
 31
0.0
  0
LINE
  5
391
330
1F
100
AcDbEntity
  8
LAY-10
  6
CONTINUOUS
 62
     7
100
AcDbLine
 10
635.8140889190947
 20
1496.228062914902
 30
0.0
 11
618.1364193893944
 21
1513.905732443902
 31
0.0
  0
LINE
  5
392
330
1F
100
AcDbEntity
  8
LAY-10
  6
CONTINUOUS
 62
     7
100
AcDbLine
 10
644.2810803298946
 20
1522.372723854846
 30
0.0
 11
635.8140889190947
 21
1513.905732443902
 31
0.0
  0
LINE
  5
393
330
1F
100
AcDbEntity
  8
LAY-10
  6
CONTINUOUS
 62
     7
100
AcDbLine
 10
505.4257412704076
 20
1312.806706678901
 30
0.0
 11
512.0704022112943
 21
1319.451367619901
 31
0.0
  0
LINE
  5
394
330
1F
100
AcDbEntity
  8
LAY-10
  6
CONTINUOUS
 62
     7
100
AcDbLine
 10
470.0704022107304
 20
1312.806706678901
 30
0.0
 11
476.7150631509942
 21
1319.451367618902
 31
0.0
  0
LINE
  5
395
330
1F
100
AcDbEntity
  8
LAY-10
  6
CONTINUOUS
 62
     7
100
AcDbLine
 10
434.715063151061
 20
1312.806706678901
 30
0.0
 11
441.3597240913243
 21
1319.451367618902
 31
0.0
  0
LINE
  5
396
330
1F
100
AcDbEntity
  8
LAY-10
  6
CONTINUOUS
 62
     7
100
AcDbLine
 10
529.7480717408946
 20
1372.484376207902
 30
0.0
 11
547.4257412705949
 21
1390.162045737901
 31
0.0
  0
LINE
  5
397
330
1F
100
AcDbEntity
  8
LAY-10
  6
CONTINUOUS
 62
     7
100
AcDbLine
 10
547.4257412705949
 20
1425.517384796902
 30
0.0
 11
529.7480717408946
 21
1407.839715266901
 31
0.0
  0
LINE
  5
398
330
1F
100
AcDbEntity
  8
LAY-10
  6
CONTINUOUS
 62
     7
100
AcDbLine
 10
600.4587498591948
 20
1337.129037149502
 30
0.0
 11
618.1364193888942
 21
1354.806706679502
 31
0.0
  0
LINE
  5
399
330
1F
100
AcDbEntity
  8
LAY-10
  6
CONTINUOUS
 62
     7
100
AcDbLine
 10
618.1364193891943
 20
1337.129037149803
 30
0.0
 11
635.8140889184954
 21
1319.451367620504
 31
0.0
  0
LINE
  5
39A
330
1F
100
AcDbEntity
  8
LAY-10
  6
CONTINUOUS
 62
     7
100
AcDbLine
 10
635.8140889178951
 20
1354.806706679902
 30
0.0
 11
618.136419388594
 21
1372.484376209201
 31
0.0
  0
LINE
  5
39B
330
1F
100
AcDbEntity
  8
LAY-10
  6
CONTINUOUS
 62
     7
100
AcDbLine
 10
529.7480717408946
 20
1337.129037148901
 30
0.0
 11
543.2810803298937
 21
1350.66204573813
 31
0.0
  0
LINE
  5
39C
330
1F
100
AcDbEntity
  8
LAY-10
  6
CONTINUOUS
 62
     7
100
AcDbLine
 10
600.4587498590965
 20
1319.451367621102
 30
0.0
 11
582.7810803297955
 21
1337.129037150401
 31
0.0
  0
LINE
  5
39D
330
1F
100
AcDbEntity
  8
LAY-10
  6
CONTINUOUS
 62
     7
100
AcDbLine
 10
582.7810803310952
 20
1354.806706679401
 30
0.0
 11
565.1034108010965
 21
1337.129037149699
 31
0.0
  0
LINE
  5
39E
330
1F
100
AcDbEntity
  8
LAY-10
  6
CONTINUOUS
 62
     7
100
AcDbLine
 10
547.4257412720956
 20
1337.129037149698
 30
0.0
 11
565.1034108010983
 21
1319.451367619999
 31
0.0
  0
LINE
  5
39F
330
1F
100
AcDbEntity
  8
LAY-10
  6
CONTINUOUS
 62
     7
100
AcDbLine
 10
547.4257412720929
 20
1372.484376208998
 30
0.0
 11
565.1034108010956
 21
1354.806706679399
 31
0.0
  0
LINE
  5
3A0
330
1F
100
AcDbEntity
  8
LAY-10
  6
CONTINUOUS
 62
     7
100
AcDbLine
 10
582.7810803320965
 20
1319.4513676201
 30
0.0
 11
576.1364193907841
 21
1312.806706678901
 31
0.0
  0
LINE
  5
3A1
330
1F
100
AcDbEntity
  8
LAY-10
  6
CONTINUOUS
 62
     7
100
AcDbLine
 10
582.7810803301938
 20
1372.484376208201
 30
0.0
 11
600.458749859494
 21
1354.806706678901
 31
0.0
  0
ARC
  5
3A2
330
1F
100
AcDbEntity
  8
LAY-10
  6
CONTINUOUS
 62
     7
100
AcDbCircle
 10
853.281080329885
 20
1337.806706678884
 30
0.0
 40
12.75000000000001
100
AcDbArc
 50
18.28388994040202
 51
341.7161100595968
  0
CIRCLE
  5
3A3
330
1F
100
AcDbEntity
  8
LAY-10
  6
CONTINUOUS
 62
     7
100
AcDbCircle
 10
853.2810803298804
 20
1337.8067066789
 30
0.0
 40
13.00000000000001
  0
LINE
  5
3A4
330
1F
100
AcDbEntity
  8
LAY-10
  6
CONTINUOUS
 62
     7
100
AcDbLine
 10
849.2810803298848
 20
1337.806706678884
 30
0.0
 11
853.281080329885
 21
1344.306706678884
 31
0.0
  0
LINE
  5
3A5
330
1F
100
AcDbEntity
  8
LAY-10
  6
CONTINUOUS
 62
     7
100
AcDbLine
 10
853.281080329885
 20
1331.306706678884
 30
0.0
 11
849.2810803298848
 21
1337.806706678884
 31
0.0
  0
LINE
  5
3A6
330
1F
100
AcDbEntity
  8
LAY-10
  6
CONTINUOUS
 62
     7
100
AcDbLine
 10
857.2810803298848
 20
1337.806706678884
 30
0.0
 11
853.281080329885
 21
1331.306706678884
 31
0.0
  0
LINE
  5
3A7
330
1F
100
AcDbEntity
  8
LAY-10
  6
CONTINUOUS
 62
     7
100
AcDbLine
 10
853.281080329885
 20
1344.306706678884
 30
0.0
 11
857.2810803298848
 21
1337.806706678884
 31
0.0
  0
LINE
  5
3A8
330
1F
100
AcDbEntity
  8
LAY-10
  6
CONTINUOUS
 62
     7
100
AcDbLine
 10
863.7810803298848
 20
1333.806706678884
 30
0.0
 11
863.7810803298848
 21
1341.806706678883
 31
0.0
  0
LINE
  5
3A9
330
1F
100
AcDbEntity
  8
LAY-10
  6
CONTINUOUS
 62
     7
100
AcDbLine
 10
863.7810803298848
 20
1333.806706678884
 30
0.0
 11
865.3873803426865
 21
1333.806706678884
 31
0.0
  0
LINE
  5
3AA
330
1F
100
AcDbEntity
  8
LAY-10
  6
CONTINUOUS
 62
     7
100
AcDbLine
 10
863.7810803298848
 20
1341.806706678883
 30
0.0
 11
865.3873803426865
 21
1341.806706678883
 31
0.0
  0
LINE
  5
3AB
330
1F
100
AcDbEntity
  8
LAY-10
  6
CONTINUOUS
 62
     7
100
AcDbLine
 10
893.2083923537249
 20
1354.806706678901
 30
0.0
 11
875.530722824125
 21
1337.129037148901
 31
0.0
  0
LINE
  5
3AC
330
1F
100
AcDbEntity
  8
LAY-10
  6
CONTINUOUS
 62
     7
100
AcDbLine
 10
865.6675697530995
 20
1328.821191488036
 30
0.0
 11
875.0373936220745
 21
1319.451367618901
 31
0.0
  0
LINE
  5
3AD
330
1F
100
AcDbEntity
  8
LAY-10
  6
CONTINUOUS
 62
     7
100
AcDbLine
 10
893.2083923537189
 20
1336.635707946948
 30
0.0
 11
910.3927326814742
 21
1319.451367618901
 31
0.0
  0
LINE
  5
3AE
330
1F
100
AcDbEntity
  8
LAY-10
  6
CONTINUOUS
 62
     7
100
AcDbLine
 10
1034.136419389376
 20
1319.451367621704
 30
0.0
 11
1027.491758446913
 21
1312.806706678903
 31
0.0
  0
LINE
  5
3AF
330
1F
100
AcDbEntity
  8
LAY-10
  6
CONTINUOUS
 62
     7
100
AcDbLine
 10
1051.814088917574
 20
1337.129037150504
 30
0.0
 11
1060.281080329899
 21
1345.596028562974
 31
0.0
  0
LINE
  5
3B0
330
1F
100
AcDbEntity
  8
LAY-10
  6
CONTINUOUS
 62
     7
100
AcDbLine
 10
956.7810803291709
 20
1312.806706678901
 30
0.0
 11
963.4257412713782
 21
1319.451367620697
 31
0.0
  0
LINE
  5
3B1
330
1F
100
AcDbEntity
  8
LAY-10
  6
CONTINUOUS
 62
     7
100
AcDbLine
 10
1051.814088918875
 20
1372.484376206902
 30
0.0
 11
1060.281080329875
 21
1380.951367618046
 31
0.0
  0
LINE
  5
3B2
330
1F
100
AcDbEntity
  8
LAY-10
  6
CONTINUOUS
 62
     7
100
AcDbLine
 10
1016.458749859574
 20
1372.484376207902
 30
0.0
 11
1034.136419389275
 21
1390.1620457379
 31
0.0
  0
LINE
  5
3B3
330
1F
100
AcDbEntity
  8
LAY-10
  6
CONTINUOUS
 62
     7
100
AcDbLine
 10
1034.136419389275
 20
1407.839715266902
 30
0.0
 11
1051.814088918975
 21
1390.1620457379
 31
0.0
  0
LINE
  5
3B4
330
1F
100
AcDbEntity
  8
LAY-10
  6
CONTINUOUS
 62
     7
100
AcDbLine
 10
998.7810803299749
 20
1407.839715266902
 30
0.0
 11
1016.458749859574
 21
1390.1620457379
 31
0.0
  0
LINE
  5
3B5
330
1F
100
AcDbEntity
  8
LAY-10
  6
CONTINUOUS
 62
     7
100
AcDbLine
 10
910.3927326815751
 20
1354.806706678901
 30
0.0
 11
892.7150631518748
 21
1372.484376207902
 31
0.0
  0
LINE
  5
3B6
330
1F
100
AcDbEntity
  8
LAY-10
  6
CONTINUOUS
 62
     7
100
AcDbLine
 10
928.0704022111746
 20
1390.162045737901
 30
0.0
 11
910.3927326815751
 21
1372.484376207902
 31
0.0
  0
LINE
  5
3B7
330
1F
100
AcDbEntity
  8
LAY-10
  6
CONTINUOUS
 62
     7
100
AcDbLine
 10
928.0704022111746
 20
1354.806706678901
 30
0.0
 11
910.3927326815751
 21
1337.129037148901
 31
0.0
  0
LINE
  5
3B8
330
1F
100
AcDbEntity
  8
LAY-10
  6
CONTINUOUS
 62
     7
100
AcDbLine
 10
945.7480717408748
 20
1390.162045737901
 30
0.0
 11
928.0704022111746
 21
1407.839715266901
 31
0.0
  0
LINE
  5
3B9
330
1F
100
AcDbEntity
  8
LAY-10
  6
CONTINUOUS
 62
     7
100
AcDbLine
 10
981.1034108001746
 20
1372.484376207902
 30
0.0
 11
998.7810803298748
 21
1390.162045737901
 31
0.0
  0
LINE
  5
3BA
330
1F
100
AcDbEntity
  8
LAY-10
  6
CONTINUOUS
 62
     7
100
AcDbLine
 10
981.1034108001746
 20
1390.162045737901
 30
0.0
 11
963.4257412705751
 21
1407.839715266901
 31
0.0
  0
LINE
  5
3BB
330
1F
100
AcDbEntity
  8
LAY-10
  6
CONTINUOUS
 62
     7
100
AcDbLine
 10
945.7480717408748
 20
1354.806706678901
 30
0.0
 11
928.0704022111746
 21
1372.484376207902
 31
0.0
  0
LINE
  5
3BC
330
1F
100
AcDbEntity
  8
LAY-10
  6
CONTINUOUS
 62
     7
100
AcDbLine
 10
928.0704022111746
 20
1337.129037148901
 30
0.0
 11
945.7480717408748
 21
1319.451367618902
 31
0.0
  0
LINE
  5
3BD
330
1F
100
AcDbEntity
  8
LAY-10
  6
CONTINUOUS
 62
     7
100
AcDbLine
 10
1051.814088919075
 20
1478.550393384902
 30
0.0
 11
1060.281080329875
 21
1487.017384795846
 31
0.0
  0
LINE
  5
3BE
330
1F
100
AcDbEntity
  8
LAY-10
  6
CONTINUOUS
 62
     7
100
AcDbLine
 10
1016.458749859674
 20
1443.195054325902
 30
0.0
 11
1034.136419389375
 21
1460.872723855902
 31
0.0
  0
LINE
  5
3BF
330
1F
100
AcDbEntity
  8
LAY-10
  6
CONTINUOUS
 62
     7
100
AcDbLine
 10
1051.814088918975
 20
1460.872723855902
 30
0.0
 11
1034.136419389375
 21
1478.550393384902
 31
0.0
  0
LINE
  5
3C0
330
1F
100
AcDbEntity
  8
LAY-10
  6
CONTINUOUS
 62
     7
100
AcDbLine
 10
1051.814088918975
 20
1443.195054325902
 30
0.0
 11
1060.281080329875
 21
1451.662045736945
 31
0.0
  0
LINE
  5
3C1
330
1F
100
AcDbEntity
  8
LAY-10
  6
CONTINUOUS
 62
     7
100
AcDbLine
 10
1051.814088918975
 20
1407.839715266902
 30
0.0
 11
1060.281080329875
 21
1416.306706677945
 31
0.0
  0
LINE
  5
3C2
330
1F
100
AcDbEntity
  8
LAY-10
  6
CONTINUOUS
 62
     7
100
AcDbLine
 10
1034.136419389375
 20
1443.195054325902
 30
0.0
 11
1051.814088918975
 21
1425.517384796901
 31
0.0
  0
LINE
  5
3C3
330
1F
100
AcDbEntity
  8
LAY-10
  6
CONTINUOUS
 62
     7
100
AcDbLine
 10
1016.458749859674
 20
1460.872723855902
 30
0.0
 11
998.7810803299749
 21
1478.550393384902
 31
0.0
  0
LINE
  5
3C4
330
1F
100
AcDbEntity
  8
LAY-10
  6
CONTINUOUS
 62
     7
100
AcDbLine
 10
998.7810803299749
 20
1460.872723855902
 30
0.0
 11
981.1034108002747
 21
1443.195054325901
 31
0.0
  0
LINE
  5
3C5
330
1F
100
AcDbEntity
  8
LAY-10
  6
CONTINUOUS
 62
     7
100
AcDbLine
 10
981.1034108002747
 20
1425.517384796902
 30
0.0
 11
963.4257412705751
 21
1443.195054325901
 31
0.0
  0
LINE
  5
3C6
330
1F
100
AcDbEntity
  8
LAY-10
  6
CONTINUOUS
 62
     7
100
AcDbLine
 10
1016.458749859574
 20
1407.839715266902
 30
0.0
 11
1034.136419389275
 21
1425.517384796901
 31
0.0
  0
LINE
  5
3C7
330
1F
100
AcDbEntity
  8
LAY-10
  6
CONTINUOUS
 62
     7
100
AcDbLine
 10
981.1034108002747
 20
1407.839715266902
 30
0.0
 11
998.7810803299749
 21
1425.517384796902
 31
0.0
  0
LINE
  5
3C8
330
1F
100
AcDbEntity
  8
LAY-10
  6
CONTINUOUS
 62
     7
100
AcDbLine
 10
1016.458749859574
 20
1425.517384796901
 30
0.0
 11
998.7810803299749
 21
1443.195054325901
 31
0.0
  0
LINE
  5
3C9
330
1F
100
AcDbEntity
  8
LAY-10
  6
CONTINUOUS
 62
     7
100
AcDbLine
 10
1034.136419389375
 20
1496.228062914902
 30
0.0
 11
1016.458749859674
 21
1478.550393384902
 31
0.0
  0
LINE
  5
3CA
330
1F
100
AcDbEntity
  8
LAY-10
  6
CONTINUOUS
 62
     7
100
AcDbLine
 10
1051.814088919075
 20
1496.228062914902
 30
0.0
 11
1034.136419389375
 21
1513.905732443902
 31
0.0
  0
LINE
  5
3CB
330
1F
100
AcDbEntity
  8
LAY-10
  6
CONTINUOUS
 62
     7
100
AcDbLine
 10
1060.281080329875
 20
1522.372723854846
 30
0.0
 11
1051.814088919075
 21
1513.905732443902
 31
0.0
  0
LINE
  5
3CC
330
1F
100
AcDbEntity
  8
LAY-10
  6
CONTINUOUS
 62
     7
100
AcDbLine
 10
921.4257412703878
 20
1312.806706678901
 30
0.0
 11
928.0704022112747
 21
1319.451367619901
 31
0.0
  0
LINE
  5
3CD
330
1F
100
AcDbEntity
  8
LAY-10
  6
CONTINUOUS
 62
     7
100
AcDbLine
 10
886.0704022107107
 20
1312.806706678901
 30
0.0
 11
892.7150631509744
 21
1319.451367618902
 31
0.0
  0
LINE
  5
3CE
330
1F
100
AcDbEntity
  8
LAY-10
  6
CONTINUOUS
 62
     7
100
AcDbLine
 10
850.7150631510412
 20
1312.806706678901
 30
0.0
 11
857.3597240913045
 21
1319.451367618902
 31
0.0
  0
LINE
  5
3CF
330
1F
100
AcDbEntity
  8
LAY-10
  6
CONTINUOUS
 62
     7
100
AcDbLine
 10
945.7480717408748
 20
1372.484376207902
 30
0.0
 11
963.4257412705751
 21
1390.162045737901
 31
0.0
  0
LINE
  5
3D0
330
1F
100
AcDbEntity
  8
LAY-10
  6
CONTINUOUS
 62
     7
100
AcDbLine
 10
963.4257412705751
 20
1425.517384796902
 30
0.0
 11
945.7480717408748
 21
1407.839715266901
 31
0.0
  0
LINE
  5
3D1
330
1F
100
AcDbEntity
  8
LAY-10
  6
CONTINUOUS
 62
     7
100
AcDbLine
 10
1016.458749859175
 20
1337.129037149502
 30
0.0
 11
1034.136419388874
 21
1354.806706679502
 31
0.0
  0
LINE
  5
3D2
330
1F
100
AcDbEntity
  8
LAY-10
  6
CONTINUOUS
 62
     7
100
AcDbLine
 10
1034.136419389175
 20
1337.129037149803
 30
0.0
 11
1051.814088918476
 21
1319.451367620504
 31
0.0
  0
LINE
  5
3D3
330
1F
100
AcDbEntity
  8
LAY-10
  6
CONTINUOUS
 62
     7
100
AcDbLine
 10
1051.814088917875
 20
1354.806706679902
 30
0.0
 11
1034.136419388574
 21
1372.484376209201
 31
0.0
  0
LINE
  5
3D4
330
1F
100
AcDbEntity
  8
LAY-10
  6
CONTINUOUS
 62
     7
100
AcDbLine
 10
945.7480717408748
 20
1337.129037148901
 30
0.0
 11
959.2810803298739
 21
1350.66204573813
 31
0.0
  0
LINE
  5
3D5
330
1F
100
AcDbEntity
  8
LAY-10
  6
CONTINUOUS
 62
     7
100
AcDbLine
 10
1016.458749859077
 20
1319.451367621102
 30
0.0
 11
998.7810803297757
 21
1337.129037150401
 31
0.0
  0
LINE
  5
3D6
330
1F
100
AcDbEntity
  8
LAY-10
  6
CONTINUOUS
 62
     7
100
AcDbLine
 10
998.7810803310754
 20
1354.806706679401
 30
0.0
 11
981.1034108010767
 21
1337.129037149699
 31
0.0
  0
LINE
  5
3D7
330
1F
100
AcDbEntity
  8
LAY-10
  6
CONTINUOUS
 62
     7
100
AcDbLine
 10
963.4257412720758
 20
1337.129037149698
 30
0.0
 11
981.1034108010786
 21
1319.451367619999
 31
0.0
  0
LINE
  5
3D8
330
1F
100
AcDbEntity
  8
LAY-10
  6
CONTINUOUS
 62
     7
100
AcDbLine
 10
963.4257412720731
 20
1372.484376208998
 30
0.0
 11
981.1034108010758
 21
1354.806706679399
 31
0.0
  0
LINE
  5
3D9
330
1F
100
AcDbEntity
  8
LAY-10
  6
CONTINUOUS
 62
     7
100
AcDbLine
 10
998.7810803320767
 20
1319.4513676201
 30
0.0
 11
992.1364193907643
 21
1312.806706678901
 31
0.0
  0
LINE
  5
3DA
330
1F
100
AcDbEntity
  8
LAY-10
  6
CONTINUOUS
 62
     7
100
AcDbLine
 10
998.7810803301741
 20
1372.484376208201
 30
0.0
 11
1016.458749859474
 21
1354.806706678901
 31
0.0
  0
LINE
  5
3DB
330
1F
100
AcDbEntity
  8
LAY-10
  6
HIDDEN
 62
     7
100
AcDbLine
 10
819.2810803298264
 20
819.1067066789069
 30
0.0
 11
819.2810803298264
 21
836.9067066789063
 31
0.0
  0
LINE
  5
3DC
330
1F
100
AcDbEntity
  8
LAY-10
  6
CONTINUOUS
 62
     7
100
AcDbLine
 10
819.28108032983
 20
806.9067066789007
 30
0.0
 11
819.28108032983
 21
819.106706678906
 31
0.0
  0
LINE
  5
3DD
330
1F
100
AcDbEntity
  8
LAY-10
  6
CONTINUOUS
 62
     7
100
AcDbLine
 10
719.28108032983
 20
806.9067066789007
 30
0.0
 11
819.28108032983
 21
806.9067066789007
 31
0.0
  0
LINE
  5
3DE
330
1F
100
AcDbEntity
  8
LAY-10
  6
CONTINUOUS
 62
     7
100
AcDbLine
 10
719.28108032983
 20
806.9067066789007
 30
0.0
 11
719.28108032983
 21
819.1067066789033
 31
0.0
  0
LINE
  5
3DF
330
1F
100
AcDbEntity
  8
LAY-10
  6
HIDDEN
 62
     7
100
AcDbLine
 10
819.2810803298264
 20
836.9067066789063
 30
0.0
 11
719.28108032983
 21
836.9067066789063
 31
0.0
  0
LINE
  5
3E0
330
1F
100
AcDbEntity
  8
LAY-10
  6
HIDDEN
 62
     7
100
AcDbLine
 10
719.2810803298266
 20
819.1067066789069
 30
0.0
 11
719.2810803298266
 21
836.9067066789063
 31
0.0
  0
LINE
  5
3E1
330
1F
100
AcDbEntity
  8
LAY-10
  6
HIDDEN
 62
     7
100
AcDbLine
 10
1719.281080329836
 20
819.1067066789066
 30
0.0
 11
1719.281080329836
 21
836.9067066789057
 31
0.0
  0
LINE
  5
3E2
330
1F
100
AcDbEntity
  8
LAY-10
  6
CONTINUOUS
 62
     7
100
AcDbLine
 10
1719.281080329832
 20
806.9067066789003
 30
0.0
 11
1719.281080329832
 21
819.1067066789055
 31
0.0
  0
LINE
  5
3E3
330
1F
100
AcDbEntity
  8
LAY-10
  6
CONTINUOUS
 62
     7
100
AcDbLine
 10
1819.281080329832
 20
806.9067066789003
 30
0.0
 11
1719.281080329832
 21
806.9067066789003
 31
0.0
  0
LINE
  5
3E4
330
1F
100
AcDbEntity
  8
LAY-10
  6
CONTINUOUS
 62
     7
100
AcDbLine
 10
1819.281080329832
 20
806.9067066789007
 30
0.0
 11
1819.281080329832
 21
819.1067066789033
 31
0.0
  0
LINE
  5
3E5
330
1F
100
AcDbEntity
  8
LAY-10
  6
HIDDEN
 62
     7
100
AcDbLine
 10
1719.281080329836
 20
836.9067066789057
 30
0.0
 11
1819.281080329832
 21
836.9067066789057
 31
0.0
  0
LINE
  5
3E6
330
1F
100
AcDbEntity
  8
LAY-10
  6
HIDDEN
 62
     7
100
AcDbLine
 10
1819.281080329835
 20
819.1067066789066
 30
0.0
 11
1819.281080329835
 21
836.9067066789057
 31
0.0
  0
LINE
  5
3E7
330
1F
100
AcDbEntity
  8
LAY-10
  6
CONTINUOUS
 62
     7
100
AcDbLine
 10
2303.281080329831
 20
840.1067066789034
 30
0.0
 11
2303.281080329831
 21
849.1067066789033
 31
0.0
  0
ARC
  5
3E8
330
1F
100
AcDbEntity
  8
LAY-10
  6
CONTINUOUS
 62
     7
100
AcDbCircle
 10
2303.281080329831
 20
849.3067066789041
 30
0.0
 40
3.000000000000003
100
AcDbArc
 50
0.0
 51
90.00000000000001
  0
LINE
  5
3E9
330
1F
100
AcDbEntity
  8
LAY-10
  6
CONTINUOUS
 62
     7
100
AcDbLine
 10
2306.281080329829
 20
840.1067066789034
 30
0.0
 11
2306.281080329829
 21
849.3067066789041
 31
0.0
  0
LINE
  5
3EA
330
1F
100
AcDbEntity
  8
LAY-10
  6
CONTINUOUS
 62
     7
100
AcDbLine
 10
2288.281080329831
 20
840.1067066789042
 30
0.0
 11
2288.281080329831
 21
836.9067066789034
 31
0.0
  0
LINE
  5
3EB
330
1F
100
AcDbEntity
  8
LAY-10
  6
CONTINUOUS
 62
     7
100
AcDbLine
 10
2288.281080329831
 20
849.1067066789043
 30
0.0
 11
2288.281080329831
 21
852.306706678904
 31
0.0
  0
LINE
  5
3EC
330
1F
100
AcDbEntity
  8
LAY-10
  6
CONTINUOUS
 62
     7
100
AcDbLine
 10
2300.281080329829
 20
849.1067066789043
 30
0.0
 11
2300.281080329829
 21
852.306706678904
 31
0.0
  0
LINE
  5
3ED
330
1F
100
AcDbEntity
  8
LAY-10
  6
CONTINUOUS
 62
     7
100
AcDbLine
 10
2300.281080329829
 20
840.1067066789042
 30
0.0
 11
2300.281080329829
 21
836.9067066789034
 31
0.0
  0
ARC
  5
3EE
330
1F
100
AcDbEntity
  8
LAY-10
  6
CONTINUOUS
 62
     7
100
AcDbCircle
 10
2312.48108032983
 20
839.9067066789044
 30
0.0
 40
3.000000000000003
100
AcDbArc
 50
270.0000000000002
 51
0.0
  0
LINE
  5
3EF
330
1F
100
AcDbEntity
  8
LAY-10
  6
CONTINUOUS
 62
     7
100
AcDbLine
 10
2272.281080329831
 20
840.1067066789034
 30
0.0
 11
2272.281080329831
 21
849.1067066789033
 31
0.0
  0
LINE
  5
3F0
330
1F
100
AcDbEntity
  8
LAY-10
  6
CONTINUOUS
 62
     7
100
AcDbLine
 10
2269.281080329831
 20
836.9067066789044
 30
0.0
 11
2269.281080329831
 21
849.1067066789033
 31
0.0
  0
LINE
  5
3F1
330
1F
100
AcDbEntity
  8
LAY-10
  6
CONTINUOUS
 62
     7
100
AcDbLine
 10
2289.281080329829
 20
840.1067066789034
 30
0.0
 11
2259.281080329829
 21
840.1067066789034
 31
0.0
  0
LINE
  5
3F2
330
1F
100
AcDbEntity
  8
LAY-10
  6
CONTINUOUS
 62
     7
100
AcDbLine
 10
2303.281080329831
 20
849.1067066789033
 30
0.0
 11
2299.281080329831
 21
849.1067066789033
 31
0.0
  0
LINE
  5
3F3
330
1F
100
AcDbEntity
  8
LAY-10
  6
CONTINUOUS
 62
     7
100
AcDbLine
 10
2299.281080329829
 20
840.1067066789034
 30
0.0
 11
2312.281080329829
 21
840.1067066789034
 31
0.0
  0
LINE
  5
3F4
330
1F
100
AcDbEntity
  8
LAY-10
  6
CONTINUOUS
 62
     7
100
AcDbLine
 10
2259.281080329829
 20
836.9067066789044
 30
0.0
 11
2312.48108032983
 21
836.9067066789044
 31
0.0
  0
LINE
  5
3F5
330
1F
100
AcDbEntity
  8
LAY-10
  6
CONTINUOUS
 62
     7
100
AcDbLine
 10
2299.281080329829
 20
854.3067066789041
 30
0.0
 11
2299.281080329829
 21
861.7827066789037
 31
0.0
  0
LINE
  5
3F6
330
1F
100
AcDbEntity
  8
LAY-10
  6
CONTINUOUS
 62
     7
100
AcDbLine
 10
2289.281080329829
 20
854.3067066789041
 30
0.0
 11
2289.281080329829
 21
861.7827066789037
 31
0.0
  0
LINE
  5
3F7
330
1F
100
AcDbEntity
  8
LAY-10
  6
CONTINUOUS
 62
     7
100
AcDbLine
 10
2289.281080329829
 20
862.7067066789036
 30
0.0
 11
2289.281080329829
 21
865.9067066789044
 31
0.0
  0
LINE
  5
3F8
330
1F
100
AcDbEntity
  8
LAY-10
  6
CONTINUOUS
 62
     7
100
AcDbLine
 10
2290.281080329829
 20
866.9067066789044
 30
0.0
 11
2298.281080329829
 21
866.9067066789044
 31
0.0
  0
LINE
  5
3F9
330
1F
100
AcDbEntity
  8
LAY-10
  6
CONTINUOUS
 62
     7
100
AcDbLine
 10
2289.281080329829
 20
865.9067066789044
 30
0.0
 11
2290.281080329829
 21
866.9067066789044
 31
0.0
  0
LINE
  5
3FA
330
1F
100
AcDbEntity
  8
LAY-10
  6
CONTINUOUS
 62
     7
100
AcDbLine
 10
2299.281080329829
 20
862.7067066789036
 30
0.0
 11
2299.281080329829
 21
865.9067066789044
 31
0.0
  0
LINE
  5
3FB
330
1F
100
AcDbEntity
  8
LAY-10
  6
CONTINUOUS
 62
     7
100
AcDbLine
 10
2299.281080329829
 20
865.9067066789044
 30
0.0
 11
2298.281080329829
 21
866.9067066789044
 31
0.0
  0
ARC
  5
3FC
330
1F
100
AcDbEntity
  8
LAY-10
  6
CONTINUOUS
 62
     7
100
AcDbCircle
 10
2294.281080329829
 20
848.6143884970858
 30
0.0
 40
18.10768181818181
100
AcDbArc
 50
253.9708781133887
 51
286.0291218866089
  0
LINE
  5
3FD
330
1F
100
AcDbEntity
  8
LAY-10
  6
CONTINUOUS
 62
     7
100
AcDbLine
 10
2286.781080329831
 20
830.5067066789038
 30
0.0
 11
2301.781080329829
 21
830.5067066789038
 31
0.0
  0
ARC
  5
3FE
330
1F
100
AcDbEntity
  8
LAY-10
  6
CONTINUOUS
 62
     7
100
AcDbCircle
 10
2286.781080329831
 20
835.2976271334496
 30
0.0
 40
4.790920454545454
100
AcDbArc
 50
238.5455606612232
 51
301.4544393387644
  0
LINE
  5
3FF
330
1F
100
AcDbEntity
  8
LAY-10
  6
CONTINUOUS
 62
     7
100
AcDbLine
 10
2284.281080329831
 20
836.9067066789044
 30
0.0
 11
2284.281080329831
 21
831.2107066789044
 31
0.0
  0
LINE
  5
400
330
1F
100
AcDbEntity
  8
LAY-10
  6
CONTINUOUS
 62
     7
100
AcDbLine
 10
2281.941080329831
 20
836.9067066789025
 30
0.0
 11
2284.281080329831
 21
834.6267066789028
 31
0.0
  0
ARC
  5
401
330
1F
100
AcDbEntity
  8
LAY-10
  6
CONTINUOUS
 62
     7
100
AcDbCircle
 10
2301.781080329829
 20
835.2976271334496
 30
0.0
 40
4.790920454545454
100
AcDbArc
 50
238.545560661226
 51
301.4544393387861
  0
LINE
  5
402
330
1F
100
AcDbEntity
  8
LAY-10
  6
CONTINUOUS
 62
     7
100
AcDbLine
 10
2304.281080329829
 20
836.9067066789044
 30
0.0
 11
2304.281080329829
 21
831.2107066789044
 31
0.0
  0
LINE
  5
403
330
1F
100
AcDbEntity
  8
LAY-10
  6
CONTINUOUS
 62
     7
100
AcDbLine
 10
2304.281080329831
 20
834.5667066789042
 30
0.0
 11
2306.561080329832
 21
836.9067066789044
 31
0.0
  0
LINE
  5
404
330
1F
100
AcDbEntity
  8
LAY-10
  6
CONTINUOUS
 62
     7
100
AcDbLine
 10
2289.281080329829
 20
831.2107066789044
 30
0.0
 11
2289.281080329829
 21
852.306706678904
 31
0.0
  0
LINE
  5
405
330
1F
100
AcDbEntity
  8
LAY-10
  6
CONTINUOUS
 62
     7
100
AcDbLine
 10
2299.281080329829
 20
831.2107066789044
 30
0.0
 11
2299.281080329829
 21
852.306706678904
 31
0.0
  0
LINE
  5
406
330
1F
100
AcDbEntity
  8
LAY-10
  6
CONTINUOUS
 62
     7
100
AcDbLine
 10
2299.281080329829
 20
841.9067066789034
 30
0.0
 11
2289.281080329829
 21
841.9067066789034
 31
0.0
  0
ELLIPSE
  5
407
330
1F
100
AcDbEntity
  8
LAY-10
  6
CONTINUOUS
 62
     7
100
AcDbEllipse
 10
2278.201080329831
 20
844.6233733456035
 30
0.0
 11
-5.80947501931002
 21
7.114554987124524E-16
 31
0.0
210
0.0
220
0.0
230
1.0
 40
0.7745966692416307
 41
0.0
 42
6.283185307179586
  0
LINE
  5
408
330
1F
100
AcDbEntity
  8
LAY-10
  6
CONTINUOUS
 62
     7
100
AcDbLine
 10
2289.281080329829
 20
865.9067066789044
 30
0.0
 11
2299.281080329829
 21
865.9067066789044
 31
0.0
  0
LINE
  5
409
330
1F
100
AcDbEntity
  8
LAY-10
  6
CONTINUOUS
 62
     7
100
AcDbLine
 10
2298.281080329829
 20
866.9067066789044
 30
0.0
 11
2298.281080329829
 21
862.7067066789036
 31
0.0
  0
LINE
  5
40A
330
1F
100
AcDbEntity
  8
LAY-10
  6
CONTINUOUS
 62
     7
100
AcDbLine
 10
2290.281080329829
 20
866.9067066789044
 30
0.0
 11
2290.281080329829
 21
862.7067066789036
 31
0.0
  0
LINE
  5
40B
330
1F
100
AcDbEntity
  8
LAY-10
  6
CONTINUOUS
 62
     7
100
AcDbLine
 10
2290.281080329829
 20
852.306706678904
 30
0.0
 11
2290.281080329829
 21
841.9067066789034
 31
0.0
  0
LINE
  5
40C
330
1F
100
AcDbEntity
  8
LAY-10
  6
CONTINUOUS
 62
     7
100
AcDbLine
 10
2298.281080329829
 20
852.306706678904
 30
0.0
 11
2298.281080329829
 21
841.9067066789034
 31
0.0
  0
LINE
  5
40D
330
1F
100
AcDbEntity
  8
LAY-10
  6
CONTINUOUS
 62
     7
100
AcDbLine
 10
2290.281080329829
 20
841.9067066789034
 30
0.0
 11
2289.281080329829
 21
840.9067066789044
 31
0.0
  0
LINE
  5
40E
330
1F
100
AcDbEntity
  8
LAY-10
  6
CONTINUOUS
 62
     7
100
AcDbLine
 10
2298.281080329829
 20
841.9067066789034
 30
0.0
 11
2299.281080329829
 21
840.9067066789044
 31
0.0
  0
LINE
  5
40F
330
1F
100
AcDbEntity
  8
LAY-10
  6
CONTINUOUS
 62
     7
100
AcDbLine
 10
2312.281080329829
 20
933.9067066789025
 30
0.0
 11
2312.281080329829
 21
840.1067066789034
 31
0.0
  0
LINE
  5
410
330
1F
100
AcDbEntity
  8
LAY-10
  6
CONTINUOUS
 62
     7
100
AcDbLine
 10
2315.48108032983
 20
839.9067066789036
 30
0.0
 11
2315.48108032983
 21
933.9067066789025
 31
0.0
  0
CIRCLE
  5
411
330
1F
100
AcDbEntity
  8
LAY-10
  6
CONTINUOUS
 62
     7
100
AcDbCircle
 10
2127.581080329833
 20
855.3067066789032
 30
0.0
 40
3.000000000000003
  0
LINE
  5
412
330
1F
100
AcDbEntity
  8
LAY-10
  6
CONTINUOUS
 62
     7
100
AcDbLine
 10
2171.281971330801
 20
858.3049246769647
 30
0.0
 11
2171.481080329831
 21
858.3049246769647
 31
0.0
  0
ARC
  5
413
330
1F
100
AcDbEntity
  8
LAY-10
  6
CONTINUOUS
 62
     7
100
AcDbCircle
 10
2171.281080329832
 20
855.3067066789032
 30
0.0
 40
4.0
100
AcDbArc
 50
0.0
 51
131.4394216791113
  0
ARC
  5
414
330
1F
100
AcDbEntity
  8
LAY-10
  6
CONTINUOUS
 62
     7
100
AcDbCircle
 10
2175.28108032983
 20
853.3067066789031
 30
0.0
 40
1.0
100
AcDbArc
 50
180.0
 51
270.0000000000002
  0
LINE
  5
415
330
1F
100
AcDbEntity
  8
LAY-10
  6
CONTINUOUS
 62
     7
100
AcDbLine
 10
2175.28108032983
 20
855.3067066789032
 30
0.0
 11
2175.28108032983
 21
853.3067066789031
 31
0.0
  0
LINE
  5
416
330
1F
100
AcDbEntity
  8
LAY-10
  6
CONTINUOUS
 62
     7
100
AcDbLine
 10
2175.28108032983
 20
853.3067066789031
 30
0.0
 11
2184.28108032983
 21
853.306706678904
 31
0.0
  0
LINE
  5
417
330
1F
100
AcDbEntity
  8
LAY-10
  6
CONTINUOUS
 62
     7
100
AcDbLine
 10
2184.28108032983
 20
853.306706678904
 30
0.0
 11
2184.28108032983
 21
852.306706678904
 31
0.0
  0
LINE
  5
418
330
1F
100
AcDbEntity
  8
LAY-10
  6
CONTINUOUS
 62
     7
100
AcDbLine
 10
2174.28108032983
 20
853.3067066789031
 30
0.0
 11
2174.28108032983
 21
855.3067066789032
 31
0.0
  0
LINE
  5
419
330
1F
100
AcDbEntity
  8
LAY-10
  6
CONTINUOUS
 62
     7
100
AcDbLine
 10
2127.490212949907
 20
858.3053302163404
 30
0.0
 11
2171.371947709756
 21
858.3053302163394
 31
0.0
  0
ARC
  5
41A
330
1F
100
AcDbEntity
  8
LAY-10
  6
CONTINUOUS
 62
     7
100
AcDbCircle
 10
2171.281080329832
 20
855.3067066789032
 30
0.0
 40
3.000000000000003
100
AcDbArc
 50
270.0000000000002
 51
91.7357045889959
  0
LINE
  5
41B
330
1F
100
AcDbEntity
  8
LAY-10
  6
CONTINUOUS
 62
     7
100
AcDbLine
 10
232.2810803298327
 20
840.1067066789042
 30
0.0
 11
232.2810803298327
 21
849.3067066789041
 31
0.0
  0
LINE
  5
41C
330
1F
100
AcDbEntity
  8
LAY-10
  6
CONTINUOUS
 62
     7
100
AcDbLine
 10
235.281080329831
 20
840.1067066789042
 30
0.0
 11
235.281080329831
 21
849.1067066789033
 31
0.0
  0
ARC
  5
41D
330
1F
100
AcDbEntity
  8
LAY-10
  6
CONTINUOUS
 62
     7
100
AcDbCircle
 10
235.281080329831
 20
849.3067066789041
 30
0.0
 40
3.000000000000003
100
AcDbArc
 50
90.00000000000001
 51
180.0
  0
LINE
  5
41E
330
1F
100
AcDbEntity
  8
LAY-10
  6
CONTINUOUS
 62
     7
100
AcDbLine
 10
238.2810803298328
 20
840.1067066789042
 30
0.0
 11
238.2810803298328
 21
836.9067066789034
 31
0.0
  0
LINE
  5
41F
330
1F
100
AcDbEntity
  8
LAY-10
  6
CONTINUOUS
 62
     7
100
AcDbLine
 10
238.2810803298328
 20
849.1067066789033
 30
0.0
 11
238.2810803298328
 21
852.3067066789031
 31
0.0
  0
LINE
  5
420
330
1F
100
AcDbEntity
  8
LAY-10
  6
CONTINUOUS
 62
     7
100
AcDbLine
 10
250.281080329831
 20
849.1067066789033
 30
0.0
 11
250.281080329831
 21
852.3067066789031
 31
0.0
  0
LINE
  5
421
330
1F
100
AcDbEntity
  8
LAY-10
  6
CONTINUOUS
 62
     7
100
AcDbLine
 10
250.281080329831
 20
840.1067066789042
 30
0.0
 11
250.281080329831
 21
836.9067066789034
 31
0.0
  0
ARC
  5
422
330
1F
100
AcDbEntity
  8
LAY-10
  6
CONTINUOUS
 62
     7
100
AcDbCircle
 10
226.0810803298321
 20
839.9067066789044
 30
0.0
 40
3.000000000000003
100
AcDbArc
 50
180.0
 51
270.0000000000002
  0
LINE
  5
423
330
1F
100
AcDbEntity
  8
LAY-10
  6
CONTINUOUS
 62
     7
100
AcDbLine
 10
266.2810803298309
 20
849.1067066789024
 30
0.0
 11
266.2810803298309
 21
840.1067066789034
 31
0.0
  0
LINE
  5
424
330
1F
100
AcDbEntity
  8
LAY-10
  6
CONTINUOUS
 62
     7
100
AcDbLine
 10
269.281080329831
 20
836.9067066789044
 30
0.0
 11
269.281080329831
 21
849.1067066789033
 31
0.0
  0
LINE
  5
425
330
1F
100
AcDbEntity
  8
LAY-10
  6
CONTINUOUS
 62
     7
100
AcDbLine
 10
249.281080329831
 20
840.1067066789042
 30
0.0
 11
279.2810803298327
 21
840.1067066789042
 31
0.0
  0
LINE
  5
426
330
1F
100
AcDbEntity
  8
LAY-10
  6
CONTINUOUS
 62
     7
100
AcDbLine
 10
239.2810803298309
 20
849.1067066789033
 30
0.0
 11
235.281080329831
 21
849.1067066789033
 31
0.0
  0
LINE
  5
427
330
1F
100
AcDbEntity
  8
LAY-10
  6
CONTINUOUS
 62
     7
100
AcDbLine
 10
279.2810803298327
 20
836.9067066789044
 30
0.0
 11
226.0810803298321
 21
836.9067066789044
 31
0.0
  0
LINE
  5
428
330
1F
100
AcDbEntity
  8
LAY-10
  6
CONTINUOUS
 62
     7
100
AcDbLine
 10
226.2810803298328
 20
840.1067066789042
 30
0.0
 11
239.2810803298309
 21
840.1067066789042
 31
0.0
  0
LINE
  5
429
330
1F
100
AcDbEntity
  8
LAY-10
  6
CONTINUOUS
 62
     7
100
AcDbLine
 10
286.2810803298328
 20
846.1067066789042
 30
0.0
 11
365.7810803298308
 21
846.1067066789042
 31
0.0
  0
ARC
  5
42A
330
1F
100
AcDbEntity
  8
LAY-10
  6
CONTINUOUS
 62
     7
100
AcDbCircle
 10
244.2810803298327
 20
848.6143884970858
 30
0.0
 40
18.10768181818181
100
AcDbArc
 50
253.9708781133856
 51
286.0291218866075
  0
LINE
  5
42B
330
1F
100
AcDbEntity
  8
LAY-10
  6
CONTINUOUS
 62
     7
100
AcDbLine
 10
236.7810803298328
 20
830.5067066789038
 30
0.0
 11
251.781080329831
 21
830.5067066789038
 31
0.0
  0
ARC
  5
42C
330
1F
100
AcDbEntity
  8
LAY-10
  6
CONTINUOUS
 62
     7
100
AcDbCircle
 10
236.7810803298328
 20
835.2976271334496
 30
0.0
 40
4.790920454545454
100
AcDbArc
 50
238.5455606612283
 51
301.4544393387621
  0
LINE
  5
42D
330
1F
100
AcDbEntity
  8
LAY-10
  6
CONTINUOUS
 62
     7
100
AcDbLine
 10
234.2810803298328
 20
836.9067066789044
 30
0.0
 11
234.2810803298328
 21
831.2107066789044
 31
0.0
  0
LINE
  5
42E
330
1F
100
AcDbEntity
  8
LAY-10
  6
CONTINUOUS
 62
     7
100
AcDbLine
 10
231.9410803298308
 20
836.9067066789017
 30
0.0
 11
234.2810803298328
 21
834.6267066789028
 31
0.0
  0
ARC
  5
42F
330
1F
100
AcDbEntity
  8
LAY-10
  6
CONTINUOUS
 62
     7
100
AcDbCircle
 10
251.781080329831
 20
835.2976271334496
 30
0.0
 40
4.790920454545454
100
AcDbArc
 50
238.5455606612255
 51
301.4544393387848
  0
LINE
  5
430
330
1F
100
AcDbEntity
  8
LAY-10
  6
CONTINUOUS
 62
     7
100
AcDbLine
 10
254.281080329831
 20
836.9067066789044
 30
0.0
 11
254.281080329831
 21
831.2107066789044
 31
0.0
  0
LINE
  5
431
330
1F
100
AcDbEntity
  8
LAY-10
  6
CONTINUOUS
 62
     7
100
AcDbLine
 10
254.2810803298327
 20
834.5667066789042
 30
0.0
 11
256.5610803298334
 21
836.9067066789044
 31
0.0
  0
LINE
  5
432
330
1F
100
AcDbEntity
  8
LAY-10
  6
CONTINUOUS
 62
     7
100
AcDbLine
 10
249.281080329831
 20
831.2107066789044
 30
0.0
 11
249.281080329831
 21
852.306706678904
 31
0.0
  0
LINE
  5
433
330
1F
100
AcDbEntity
  8
LAY-10
  6
CONTINUOUS
 62
     7
100
AcDbLine
 10
239.2810803298309
 20
831.2107066789044
 30
0.0
 11
239.2810803298309
 21
852.306706678904
 31
0.0
  0
LINE
  5
434
330
1F
100
AcDbEntity
  8
LAY-10
  6
CONTINUOUS
 62
     7
100
AcDbLine
 10
249.281080329831
 20
841.9067066789034
 30
0.0
 11
239.2810803298309
 21
841.9067066789034
 31
0.0
  0
LINE
  5
435
330
1F
100
AcDbEntity
  8
LAY-10
  6
CONTINUOUS
 62
     7
100
AcDbLine
 10
249.281080329831
 20
854.3067066789041
 30
0.0
 11
249.281080329831
 21
861.7827066789037
 31
0.0
  0
LINE
  5
436
330
1F
100
AcDbEntity
  8
LAY-10
  6
CONTINUOUS
 62
     7
100
AcDbLine
 10
239.2810803298309
 20
854.3067066789041
 30
0.0
 11
239.2810803298309
 21
861.7827066789037
 31
0.0
  0
LINE
  5
437
330
1F
100
AcDbEntity
  8
LAY-10
  6
CONTINUOUS
 62
     7
100
AcDbLine
 10
239.2810803298309
 20
862.7067066789036
 30
0.0
 11
239.2810803298309
 21
865.9067066789034
 31
0.0
  0
LINE
  5
438
330
1F
100
AcDbEntity
  8
LAY-10
  6
CONTINUOUS
 62
     7
100
AcDbLine
 10
240.281080329831
 20
866.9067066789034
 30
0.0
 11
248.281080329831
 21
866.9067066789034
 31
0.0
  0
LINE
  5
439
330
1F
100
AcDbEntity
  8
LAY-10
  6
CONTINUOUS
 62
     7
100
AcDbLine
 10
239.2810803298309
 20
865.9067066789034
 30
0.0
 11
240.281080329831
 21
866.9067066789034
 31
0.0
  0
LINE
  5
43A
330
1F
100
AcDbEntity
  8
LAY-10
  6
CONTINUOUS
 62
     7
100
AcDbLine
 10
249.281080329831
 20
862.7067066789036
 30
0.0
 11
249.281080329831
 21
865.9067066789034
 31
0.0
  0
LINE
  5
43B
330
1F
100
AcDbEntity
  8
LAY-10
  6
CONTINUOUS
 62
     7
100
AcDbLine
 10
249.281080329831
 20
865.9067066789034
 30
0.0
 11
248.281080329831
 21
866.9067066789034
 31
0.0
  0
ELLIPSE
  5
43C
330
1F
100
AcDbEntity
  8
LAY-10
  6
CONTINUOUS
 62
     7
100
AcDbEllipse
 10
260.3610803298307
 20
844.6233733456035
 30
0.0
 11
-5.80947501931002
 21
7.114554987124524E-16
 31
0.0
210
0.0
220
0.0
230
1.0
 40
0.7745966692416307
 41
0.0
 42
6.283185307179586
  0
LINE
  5
43D
330
1F
100
AcDbEntity
  8
LAY-10
  6
CONTINUOUS
 62
     7
100
AcDbLine
 10
239.2810803298309
 20
865.9067066789034
 30
0.0
 11
249.281080329831
 21
865.9067066789034
 31
0.0
  0
LINE
  5
43E
330
1F
100
AcDbEntity
  8
LAY-10
  6
CONTINUOUS
 62
     7
100
AcDbLine
 10
240.281080329831
 20
866.9067066789034
 30
0.0
 11
240.281080329831
 21
862.7067066789036
 31
0.0
  0
LINE
  5
43F
330
1F
100
AcDbEntity
  8
LAY-10
  6
CONTINUOUS
 62
     7
100
AcDbLine
 10
240.281080329831
 20
852.306706678904
 30
0.0
 11
240.281080329831
 21
841.9067066789034
 31
0.0
  0
LINE
  5
440
330
1F
100
AcDbEntity
  8
LAY-10
  6
CONTINUOUS
 62
     7
100
AcDbLine
 10
248.281080329831
 20
852.306706678904
 30
0.0
 11
248.281080329831
 21
841.9067066789034
 31
0.0
  0
LINE
  5
441
330
1F
100
AcDbEntity
  8
LAY-10
  6
CONTINUOUS
 62
     7
100
AcDbLine
 10
248.281080329831
 20
866.9067066789034
 30
0.0
 11
248.281080329831
 21
862.7067066789036
 31
0.0
  0
LINE
  5
442
330
1F
100
AcDbEntity
  8
LAY-10
  6
CONTINUOUS
 62
     7
100
AcDbLine
 10
248.281080329831
 20
841.9067066789034
 30
0.0
 11
249.281080329831
 21
840.9067066789034
 31
0.0
  0
LINE
  5
443
330
1F
100
AcDbEntity
  8
LAY-10
  6
CONTINUOUS
 62
     7
100
AcDbLine
 10
240.281080329831
 20
841.9067066789034
 30
0.0
 11
239.2810803298309
 21
840.9067066789034
 31
0.0
  0
LINE
  5
444
330
1F
100
AcDbEntity
  8
LAY-10
  6
CONTINUOUS
 62
     7
100
AcDbLine
 10
223.081080329832
 20
839.9067066789036
 30
0.0
 11
223.081080329832
 21
933.9067066789025
 31
0.0
  0
LINE
  5
445
330
1F
100
AcDbEntity
  8
LAY-10
  6
CONTINUOUS
 62
     7
100
AcDbLine
 10
226.2810803298328
 20
933.9067066789045
 30
0.0
 11
226.2810803298328
 21
840.1067066789051
 31
0.0
  0
CIRCLE
  5
446
330
1F
100
AcDbEntity
  8
LAY-10
  6
CONTINUOUS
 62
     7
100
AcDbCircle
 10
410.9810803299279
 20
855.3067066789032
 30
0.0
 40
3.000000000000003
  0
LINE
  5
447
330
1F
100
AcDbEntity
  8
LAY-10
  6
CONTINUOUS
 62
     7
100
AcDbLine
 10
367.2801893289595
 20
858.3049246769647
 30
0.0
 11
367.0810803299296
 21
858.3049246769647
 31
0.0
  0
ARC
  5
448
330
1F
100
AcDbEntity
  8
LAY-10
  6
CONTINUOUS
 62
     7
100
AcDbCircle
 10
367.2810803299288
 20
855.3067066789032
 30
0.0
 40
4.0
100
AcDbArc
 50
48.56057832088977
 51
180.0
  0
ARC
  5
449
330
1F
100
AcDbEntity
  8
LAY-10
  6
CONTINUOUS
 62
     7
100
AcDbCircle
 10
363.2810803299305
 20
853.3067066789031
 30
0.0
 40
1.0
100
AcDbArc
 50
270.0
 51
0.0
  0
LINE
  5
44A
330
1F
100
AcDbEntity
  8
LAY-10
  6
CONTINUOUS
 62
     7
100
AcDbLine
 10
363.2810803299305
 20
855.3067066789032
 30
0.0
 11
363.2810803299305
 21
853.3067066789031
 31
0.0
  0
LINE
  5
44B
330
1F
100
AcDbEntity
  8
LAY-10
  6
CONTINUOUS
 62
     7
100
AcDbLine
 10
363.2810803299305
 20
853.3067066789031
 30
0.0
 11
354.2810803299305
 21
853.306706678904
 31
0.0
  0
LINE
  5
44C
330
1F
100
AcDbEntity
  8
LAY-10
  6
CONTINUOUS
 62
     7
100
AcDbLine
 10
354.2810803299305
 20
853.306706678904
 30
0.0
 11
354.2810803299305
 21
852.306706678904
 31
0.0
  0
LINE
  5
44D
330
1F
100
AcDbEntity
  8
LAY-10
  6
CONTINUOUS
 62
     7
100
AcDbLine
 10
364.2810803299305
 20
853.3067066789031
 30
0.0
 11
364.2810803299305
 21
855.3067066789032
 31
0.0
  0
LINE
  5
44E
330
1F
100
AcDbEntity
  8
LAY-10
  6
CONTINUOUS
 62
     7
100
AcDbLine
 10
411.0719477098536
 20
858.3053302163404
 30
0.0
 11
367.1902129500047
 21
858.3053302163394
 31
0.0
  0
ARC
  5
44F
330
1F
100
AcDbEntity
  8
LAY-10
  6
CONTINUOUS
 62
     7
100
AcDbCircle
 10
367.2810803299288
 20
855.3067066789032
 30
0.0
 40
3.000000000000003
100
AcDbArc
 50
88.26429541100414
 51
270.0
  0
LINE
  5
450
330
1F
100
AcDbEntity
  8
LAY-10
  6
CONTINUOUS
 62
     7
100
AcDbLine
 10
2289.281080329829
 20
849.1067066789033
 30
0.0
 11
249.2810803298327
 21
849.1067066789033
 31
0.0
  0
LINE
  5
451
330
1F
100
AcDbEntity
  8
LAY-10
  6
CONTINUOUS
 62
     7
100
AcDbLine
 10
279.2810803298327
 20
819.1067066789033
 30
0.0
 11
2259.281080329829
 21
819.1067066789033
 31
0.0
  0
LINE
  5
452
330
1F
100
AcDbEntity
  8
LAY-10
  6
CONTINUOUS
 62
     7
100
AcDbLine
 10
233.781080329831
 20
852.306706678904
 30
0.0
 11
2304.781080329831
 21
852.306706678904
 31
0.0
  0
LINE
  5
453
330
1F
100
AcDbEntity
  8
LAY-10
  6
CONTINUOUS
 62
     7
100
AcDbLine
 10
2252.281080329829
 20
846.1067066789042
 30
0.0
 11
365.7810803298308
 21
846.1067066789042
 31
0.0
  0
LINE
  5
454
330
1F
100
AcDbEntity
  8
LAY-10
  6
CONTINUOUS
 62
     7
100
AcDbLine
 10
226.2810803298328
 20
882.4067066788899
 30
0.0
 11
2312.281080329829
 21
882.4067066788903
 31
0.0
  0
LINE
  5
455
330
1F
100
AcDbEntity
  8
LAY-10
  6
CONTINUOUS
 62
     7
100
AcDbLine
 10
2312.281080329829
 20
880.4067066788898
 30
0.0
 11
226.2810803298328
 21
880.4067066788898
 31
0.0
  0
LINE
  5
456
330
1F
100
AcDbEntity
  8
LAY-10
  6
CONTINUOUS
 62
     7
100
AcDbLine
 10
185.3825955199975
 20
840.2082218690367
 30
0.0
 11
220.7379345793254
 21
875.5635609283645
 31
0.0
  0
LINE
  5
457
330
1F
100
AcDbEntity
  8
LAY-10
  6
CONTINUOUS
 62
     7
100
AcDbLine
 10
185.3825955199975
 20
840.2082218690367
 30
0.0
 11
179.725741270506
 21
845.865076118529
 31
0.0
  0
LINE
  5
458
330
1F
100
AcDbEntity
  8
LAY-10
  6
CONTINUOUS
 62
     7
100
AcDbLine
 10
179.725741270506
 20
845.865076118529
 30
0.0
 11
215.0810803298321
 21
881.2204151778551
 31
0.0
  0
LINE
  5
459
330
1F
100
AcDbEntity
  8
LAY-10
  6
CONTINUOUS
 62
     7
100
AcDbLine
 10
215.0810803298321
 20
881.2204151778551
 30
0.0
 11
215.0810803298321
 21
907.9067066788713
 31
0.0
  0
LINE
  5
45A
330
1F
100
AcDbEntity
  8
LAY-10
  6
CONTINUOUS
 62
     7
100
AcDbLine
 10
215.0810803298321
 20
907.9067066788713
 30
0.0
 11
223.081080329832
 21
907.9067066788713
 31
0.0
  0
ARC
  5
45B
330
1F
100
AcDbEntity
  8
LAY-10
  6
CONTINUOUS
 62
     7
100
AcDbCircle
 10
215.0810803298321
 20
881.2204151778551
 30
0.0
 40
8.0
100
AcDbArc
 50
315.0000000000102
 51
0.0
  0
LINE
  5
45C
330
1F
100
AcDbEntity
  8
LAY-10
  6
CONTINUOUS
 62
     7
100
AcDbLine
 10
2353.179565139665
 20
840.2082218690367
 30
0.0
 11
2317.824226080337
 21
875.5635609283636
 31
0.0
  0
LINE
  5
45D
330
1F
100
AcDbEntity
  8
LAY-10
  6
CONTINUOUS
 62
     7
100
AcDbLine
 10
2358.836419389156
 20
845.865076118529
 30
0.0
 11
2323.48108032983
 21
881.2204151778551
 31
0.0
  0
LINE
  5
45E
330
1F
100
AcDbEntity
  8
LAY-10
  6
CONTINUOUS
 62
     7
100
AcDbLine
 10
2353.179565139665
 20
840.2082218690367
 30
0.0
 11
2358.836419389156
 21
845.865076118529
 31
0.0
  0
LINE
  5
45F
330
1F
100
AcDbEntity
  8
LAY-10
  6
CONTINUOUS
 62
     7
100
AcDbLine
 10
2323.48108032983
 20
881.2204151778551
 30
0.0
 11
2323.48108032983
 21
907.9067066788703
 31
0.0
  0
LINE
  5
460
330
1F
100
AcDbEntity
  8
LAY-10
  6
CONTINUOUS
 62
     7
100
AcDbLine
 10
2323.48108032983
 20
907.9067066788703
 30
0.0
 11
2315.48108032983
 21
907.9067066788703
 31
0.0
  0
ARC
  5
461
330
1F
100
AcDbEntity
  8
LAY-10
  6
CONTINUOUS
 62
     7
100
AcDbCircle
 10
2323.48108032983
 20
881.2204151778551
 30
0.0
 40
8.0
100
AcDbArc
 50
180.0
 51
224.9999999999978
  0
LINE
  5
462
330
1F
100
AcDbEntity
  8
LAY-10
  6
CONTINUOUS
 62
     7
100
AcDbLine
 10
2728.78108032989
 20
1891.056706678901
 30
0.0
 11
2772.78108032989
 21
1891.056706678901
 31
0.0
  0
LINE
  5
463
330
1F
100
AcDbEntity
  8
LAY-10
  6
CONTINUOUS
 62
     7
100
AcDbLine
 10
2728.78108032989
 20
1886.5567066789
 30
0.0
 11
2772.78108032989
 21
1886.5567066789
 31
0.0
  0
LINE
  5
464
330
1F
100
AcDbEntity
  8
LAY-10
  6
CONTINUOUS
 62
     7
100
AcDbLine
 10
2724.281080329879
 20
2465.806706678918
 30
0.0
 11
2739.281080329879
 21
2465.806706678918
 31
0.0
  0
LINE
  5
465
330
1F
100
AcDbEntity
  8
LAY-10
  6
CONTINUOUS
 62
     7
100
AcDbLine
 10
2727.281080329878
 20
2468.806706678916
 30
0.0
 11
2727.281080329878
 21
2480.806706678918
 31
0.0
  0
LINE
  5
466
330
1F
100
AcDbEntity
  8
LAY-10
  6
CONTINUOUS
 62
     7
100
AcDbLine
 10
2739.281080329879
 20
2465.806706678918
 30
0.0
 11
2739.281080329879
 21
2468.806706678916
 31
0.0
  0
LINE
  5
467
330
1F
100
AcDbEntity
  8
LAY-10
  6
CONTINUOUS
 62
     7
100
AcDbLine
 10
2724.281080329879
 20
2480.806706678918
 30
0.0
 11
2727.281080329878
 21
2480.806706678918
 31
0.0
  0
LINE
  5
468
330
1F
100
AcDbEntity
  8
LAY-10
  6
CONTINUOUS
 62
     7
100
AcDbLine
 10
2724.281080329879
 20
2465.806706678918
 30
0.0
 11
2724.281080329879
 21
2480.806706678918
 31
0.0
  0
LINE
  5
469
330
1F
100
AcDbEntity
  8
LAY-10
  6
CONTINUOUS
 62
     7
100
AcDbLine
 10
2783.981080329876
 20
2468.6929981799
 30
0.0
 11
2783.981080329876
 21
2432.006706678915
 31
0.0
  0
ARC
  5
46A
330
1F
100
AcDbEntity
  8
LAY-10
  6
CONTINUOUS
 62
     7
100
AcDbCircle
 10
2791.981080329873
 20
2468.692998179932
 30
0.0
 40
8.0
100
AcDbArc
 50
134.9999999999862
 51
180.0
  0
LINE
  5
46B
330
1F
100
AcDbEntity
  8
LAY-10
  6
CONTINUOUS
 62
     7
100
AcDbLine
 10
2827.336419389202
 20
2504.048337239258
 30
0.0
 11
2791.981080329877
 21
2468.692998179932
 31
0.0
  0
LINE
  5
46C
330
1F
100
AcDbEntity
  8
LAY-10
  6
CONTINUOUS
 62
     7
100
AcDbLine
 10
2821.67956513971
 20
2509.705191488752
 30
0.0
 11
2827.336419389202
 21
2504.048337239258
 31
0.0
  0
LINE
  5
46D
330
1F
100
AcDbEntity
  8
LAY-10
  6
CONTINUOUS
 62
     7
100
AcDbLine
 10
2821.67956513971
 20
2509.705191488752
 30
0.0
 11
2786.324226080384
 21
2474.349852429425
 31
0.0
  0
LINE
  5
46E
330
1F
100
AcDbEntity
  8
LAY-10
  6
CONTINUOUS
 62
     7
100
AcDbLine
 10
2727.281080329878
 20
2468.806706678916
 30
0.0
 11
2777.781080329877
 21
2468.806706678916
 31
0.0
  0
LINE
  5
46F
330
1F
100
AcDbEntity
  8
LAY-10
  6
CONTINUOUS
 62
     7
100
AcDbLine
 10
2777.981080329875
 20
2472.006706678915
 30
0.0
 11
2727.281080329878
 21
2472.006706678915
 31
0.0
  0
ARC
  5
470
330
1F
100
AcDbEntity
  8
LAY-10
  6
CONTINUOUS
 62
     7
100
AcDbCircle
 10
2783.781080329876
 20
2431.806706678918
 30
0.0
 40
3.000000000000003
100
AcDbArc
 50
180.0
 51
270.0000000000002
  0
ARC
  5
471
330
1F
100
AcDbEntity
  8
LAY-10
  6
CONTINUOUS
 62
     7
100
AcDbCircle
 10
2777.981080329875
 20
2466.006706678915
 30
0.0
 40
6.000000000000006
100
AcDbArc
 50
0.0
 51
90.00000000000001
  0
ARC
  5
472
330
1F
100
AcDbEntity
  8
LAY-10
  6
CONTINUOUS
 62
     7
100
AcDbCircle
 10
2777.781080329877
 20
2465.806706678918
 30
0.0
 40
3.000000000000003
100
AcDbArc
 50
0.0
 51
90.00000000000001
  0
LINE
  5
473
330
1F
100
AcDbEntity
  8
LAY-10
  6
CONTINUOUS
 62
     7
100
AcDbLine
 10
2783.9810803299
 20
2432.006706678915
 30
0.0
 11
2821.281080329878
 21
2432.006706678915
 31
0.0
  0
LINE
  5
474
330
1F
100
AcDbEntity
  8
LAY-10
  6
CONTINUOUS
 62
     7
100
AcDbLine
 10
2783.7810803299
 20
2428.806706678918
 30
0.0
 11
2821.081080329879
 21
2428.806706678918
 31
0.0
  0
LINE
  5
475
330
1F
100
AcDbEntity
  8
LAY-10
  6
CONTINUOUS
 62
     7
100
AcDbLine
 10
2821.081080329879
 20
2418.806706678918
 30
0.0
 11
2821.081080329879
 21
2428.806706678918
 31
0.0
  0
LINE
  5
476
330
1F
100
AcDbEntity
  8
LAY-10
  6
CONTINUOUS
 62
     7
100
AcDbLine
 10
2812.081080329875
 20
2418.806706678918
 30
0.0
 11
2812.081080329875
 21
2422.806706678918
 31
0.0
  0
LINE
  5
477
330
1F
100
AcDbEntity
  8
LAY-10
  6
CONTINUOUS
 62
     7
100
AcDbLine
 10
2821.081080329879
 20
2408.806706678916
 30
0.0
 11
2821.081080329879
 21
2378.806706678916
 31
0.0
  0
LINE
  5
478
330
1F
100
AcDbEntity
  8
LAY-10
  6
CONTINUOUS
 62
     7
100
AcDbLine
 10
2824.281080329876
 20
2378.806706678916
 30
0.0
 11
2824.281080329876
 21
2429.006706678919
 31
0.0
  0
LINE
  5
479
330
1F
100
AcDbEntity
  8
LAY-10
  6
CONTINUOUS
 62
     7
100
AcDbLine
 10
2789.481080329876
 20
2468.006706678919
 30
0.0
 11
2820.481080329878
 21
2468.006706678919
 31
0.0
  0
LINE
  5
47A
330
1F
100
AcDbEntity
  8
LAY-10
  6
CONTINUOUS
 62
     7
100
AcDbLine
 10
2789.481080329876
 20
2468.006706678919
 30
0.0
 11
2789.481080329876
 21
2432.006706678915
 31
0.0
  0
LINE
  5
47B
330
1F
100
AcDbEntity
  8
LAY-10
  6
CONTINUOUS
 62
     7
100
AcDbLine
 10
2820.481080329878
 20
2468.006706678919
 30
0.0
 11
2820.481080329878
 21
2432.006706678915
 31
0.0
  0
LINE
  5
47C
330
1F
100
AcDbEntity
  8
LAY-10
  6
CONTINUOUS
 62
     7
100
AcDbLine
 10
2822.860242205653
 20
2431.557441429945
 30
0.0
 11
2822.916661079118
 21
2431.61386030341
 31
0.0
  0
LINE
  5
47D
330
1F
100
AcDbEntity
  8
LAY-10
  6
CONTINUOUS
 62
     7
100
AcDbLine
 10
2822.389947023758
 20
2431.794253029241
 30
0.0
 11
2822.587266478628
 21
2431.991572484108
 31
0.0
  0
LINE
  5
47E
330
1F
100
AcDbEntity
  8
LAY-10
  6
CONTINUOUS
 62
     7
100
AcDbLine
 10
2821.842326720248
 20
2431.953739506916
 30
0.0
 11
2822.257871878142
 21
2432.369284664807
 31
0.0
  0
LINE
  5
47F
330
1F
100
AcDbEntity
  8
LAY-10
  6
CONTINUOUS
 62
     7
100
AcDbLine
 10
2821.188187111063
 20
2432.006706678919
 30
0.0
 11
2821.928477277663
 21
2432.746996845518
 31
0.0
  0
LINE
  5
480
330
1F
100
AcDbEntity
  8
LAY-10
  6
CONTINUOUS
 62
     7
100
AcDbLine
 10
2820.481080329881
 20
2432.006706678922
 30
0.0
 11
2821.599082677174
 21
2433.124709026216
 31
0.0
  0
LINE
  5
481
330
1F
100
AcDbEntity
  8
LAY-10
  6
CONTINUOUS
 62
     7
100
AcDbLine
 10
2820.481080329866
 20
2432.713813460093
 30
0.0
 11
2821.269688076687
 21
2433.502421206916
 31
0.0
  0
LINE
  5
482
330
1F
100
AcDbEntity
  8
LAY-10
  6
CONTINUOUS
 62
     7
100
AcDbLine
 10
2820.481080329871
 20
2433.420920241285
 30
0.0
 11
2820.9402934762
 21
2433.880133387614
 31
0.0
  0
LINE
  5
483
330
1F
100
AcDbEntity
  8
LAY-10
  6
CONTINUOUS
 62
     7
100
AcDbLine
 10
2820.481080329866
 20
2434.12802702247
 30
0.0
 11
2820.610898875733
 21
2434.257845568335
 31
0.0
  0
LINE
  5
484
330
1F
100
AcDbEntity
  8
LAY-10
  6
CONTINUOUS
 62
     7
100
AcDbLine
 10
2820.481080329878
 20
2434.406706678917
 30
0.0
 11
2823.130005114851
 21
2431.369221681939
 31
0.0
  0
LINE
  5
485
330
1F
100
AcDbEntity
  8
LAY-10
  6
CONTINUOUS
 62
     7
100
AcDbLine
 10
2787.251840155864
 20
2432.114626509369
 30
0.0
 11
2787.359759986316
 21
2432.006706678915
 31
0.0
  0
LINE
  5
486
330
1F
100
AcDbEntity
  8
LAY-10
  6
CONTINUOUS
 62
     7
100
AcDbLine
 10
2787.609985148929
 20
2432.46358829749
 30
0.0
 11
2788.0668667675
 21
2432.006706678922
 31
0.0
  0
LINE
  5
487
330
1F
100
AcDbEntity
  8
LAY-10
  6
CONTINUOUS
 62
     7
100
AcDbLine
 10
2787.968130142005
 20
2432.812550085601
 30
0.0
 11
2788.773973548693
 21
2432.006706678915
 31
0.0
  0
LINE
  5
488
330
1F
100
AcDbEntity
  8
LAY-10
  6
CONTINUOUS
 62
     7
100
AcDbLine
 10
2788.326275135071
 20
2433.161511873724
 30
0.0
 11
2789.481080329885
 21
2432.006706678908
 31
0.0
  0
LINE
  5
489
330
1F
100
AcDbEntity
  8
LAY-10
  6
CONTINUOUS
 62
     7
100
AcDbLine
 10
2788.684420128134
 20
2433.510473661844
 30
0.0
 11
2789.48108032988
 21
2432.7138134601
 31
0.0
  0
LINE
  5
48A
330
1F
100
AcDbEntity
  8
LAY-10
  6
CONTINUOUS
 62
     7
100
AcDbLine
 10
2789.042565121209
 20
2433.859435449957
 30
0.0
 11
2789.48108032987
 21
2433.420920241292
 31
0.0
  0
LINE
  5
48B
330
1F
100
AcDbEntity
  8
LAY-10
  6
CONTINUOUS
 62
     7
100
AcDbLine
 10
2789.400710114275
 20
2434.208397238078
 30
0.0
 11
2789.48108032988
 21
2434.128027022477
 31
0.0
  0
LINE
  5
48C
330
1F
100
AcDbEntity
  8
LAY-10
  6
CONTINUOUS
 62
     7
100
AcDbLine
 10
2787.141080329874
 20
2432.006706678915
 30
0.0
 11
2789.481080329876
 21
2434.286706678918
 31
0.0
  0
ARC
  5
48D
330
1F
100
AcDbEntity
  8
LAY-10
  6
CONTINUOUS
 62
     7
100
AcDbCircle
 10
2819.081080329874
 20
2371.806706678916
 30
0.0
 40
4.0
100
AcDbArc
 50
90.00000000000001
 51
180.0
  0
ARC
  5
48E
330
1F
100
AcDbEntity
  8
LAY-10
  6
CONTINUOUS
 62
     7
100
AcDbCircle
 10
2813.081080329876
 20
2350.806706678918
 30
0.0
 40
2.0
100
AcDbArc
 50
270.0000000000002
 51
0.0
  0
ARC
  5
48F
330
1F
100
AcDbEntity
  8
LAY-10
  6
CONTINUOUS
 62
     7
100
AcDbCircle
 10
2840.081080329876
 20
2377.806706678916
 30
0.0
 40
2.0
100
AcDbArc
 50
270.0000000000002
 51
0.0
  0
LINE
  5
490
330
1F
100
AcDbEntity
  8
LAY-10
  6
CONTINUOUS
 62
     7
100
AcDbLine
 10
2842.081080329875
 20
2378.806706678916
 30
0.0
 11
2842.081080329875
 21
2377.806706678916
 31
0.0
  0
LINE
  5
491
330
1F
100
AcDbEntity
  8
LAY-10
  6
CONTINUOUS
 62
     7
100
AcDbLine
 10
2812.081080329875
 20
2348.806706678918
 30
0.0
 11
2813.081080329876
 21
2348.806706678918
 31
0.0
  0
LINE
  5
492
330
1F
100
AcDbEntity
  8
LAY-10
  6
CONTINUOUS
 62
     7
100
AcDbLine
 10
2819.081080329874
 20
2375.806706678918
 30
0.0
 11
2840.081080329876
 21
2375.806706678918
 31
0.0
  0
LINE
  5
493
330
1F
100
AcDbEntity
  8
LAY-10
  6
CONTINUOUS
 62
     7
100
AcDbLine
 10
2812.081080329875
 20
2378.806706678916
 30
0.0
 11
2842.081080329875
 21
2378.806706678916
 31
0.0
  0
LINE
  5
494
330
1F
100
AcDbEntity
  8
LAY-10
  6
CONTINUOUS
 62
     7
100
AcDbLine
 10
2854.281080329869
 20
2388.806706678918
 30
0.0
 11
2812.081080329875
 21
2388.806706678918
 31
0.0
  0
ARC
  5
495
330
1F
100
AcDbEntity
  8
LAY-10
  6
CONTINUOUS
 62
     7
100
AcDbCircle
 10
2852.281080329869
 20
2389.806706678827
 30
0.0
 40
2.0
100
AcDbArc
 50
0.0
 51
90.00000000000001
  0
LINE
  5
496
330
1F
100
AcDbEntity
  8
LAY-10
  6
CONTINUOUS
 62
     7
100
AcDbLine
 10
2854.281080329869
 20
2388.806706678827
 30
0.0
 11
2854.281080329869
 21
2389.806706678827
 31
0.0
  0
LINE
  5
497
330
1F
100
AcDbEntity
  8
LAY-10
  6
CONTINUOUS
 62
     7
100
AcDbLine
 10
2831.28108032987
 20
2391.806706678827
 30
0.0
 11
2852.281080329869
 21
2391.806706678827
 31
0.0
  0
ARC
  5
498
330
1F
100
AcDbEntity
  8
LAY-10
  6
CONTINUOUS
 62
     7
100
AcDbCircle
 10
2831.28108032987
 20
2395.806706678827
 30
0.0
 40
4.0
100
AcDbArc
 50
180.0
 51
270.0000000000002
  0
LINE
  5
499
330
1F
100
AcDbEntity
  8
LAY-10
  6
CONTINUOUS
 62
     7
100
AcDbLine
 10
2827.28108032987
 20
2395.806706678827
 30
0.0
 11
2827.28108032987
 21
2403.806706678874
 31
0.0
  0
LINE
  5
49A
330
1F
100
AcDbEntity
  8
LAY-10
  6
CONTINUOUS
 62
     7
100
AcDbLine
 10
2821.081080329879
 20
2391.806706678918
 30
0.0
 11
2812.081080329875
 21
2391.806706678918
 31
0.0
  0
ARC
  5
49B
330
1F
100
AcDbEntity
  8
LAY-10
  6
CONTINUOUS
 62
     7
100
AcDbCircle
 10
2811.881080329875
 20
2422.806706678918
 30
0.0
 40
3.000000000000003
100
AcDbArc
 50
90.00000000000001
 51
180.0
  0
ARC
  5
49C
330
1F
100
AcDbEntity
  8
LAY-10
  6
CONTINUOUS
 62
     7
100
AcDbCircle
 10
2821.281080329878
 20
2429.006706678919
 30
0.0
 40
3.000000000000003
100
AcDbArc
 50
0.0
 51
90.00000000000001
  0
LINE
  5
49D
330
1F
100
AcDbEntity
  8
LAY-10
  6
CONTINUOUS
 62
     7
100
AcDbLine
 10
2821.081080329879
 20
2422.806706678918
 30
0.0
 11
2812.081080329875
 21
2422.806706678918
 31
0.0
  0
LINE
  5
49E
330
1F
100
AcDbEntity
  8
LAY-10
  6
CONTINUOUS
 62
     7
100
AcDbLine
 10
2821.081080329879
 20
2425.806706678918
 30
0.0
 11
2811.881080329875
 21
2425.806706678918
 31
0.0
  0
LINE
  5
49F
330
1F
100
AcDbEntity
  8
LAY-10
  6
CONTINUOUS
 62
     7
100
AcDbLine
 10
2812.081080329875
 20
2419.806706678918
 30
0.0
 11
2808.881080329876
 21
2419.806706678918
 31
0.0
  0
LINE
  5
4A0
330
1F
100
AcDbEntity
  8
LAY-10
  6
CONTINUOUS
 62
     7
100
AcDbLine
 10
2812.081080329875
 20
2407.806706678918
 30
0.0
 11
2808.881080329876
 21
2407.806706678918
 31
0.0
  0
LINE
  5
4A1
330
1F
100
AcDbEntity
  8
LAY-10
  6
CONTINUOUS
 62
     7
100
AcDbLine
 10
2821.081080329879
 20
2419.806706678918
 30
0.0
 11
2824.281080329876
 21
2419.806706678918
 31
0.0
  0
LINE
  5
4A2
330
1F
100
AcDbEntity
  8
LAY-10
  6
CONTINUOUS
 62
     7
100
AcDbLine
 10
2821.081080329879
 20
2407.806706678918
 30
0.0
 11
2824.281080329876
 21
2407.806706678918
 31
0.0
  0
LINE
  5
4A3
330
1F
100
AcDbEntity
  8
LAY-10
  6
CONTINUOUS
 62
     7
100
AcDbLine
 10
2780.781080329896
 20
2464.806706678881
 30
0.0
 11
2724.281080329896
 21
2464.806706678881
 31
0.0
  0
LINE
  5
4A4
330
1F
100
AcDbEntity
  8
LAY-10
  6
CONTINUOUS
 62
     7
100
AcDbLine
 10
2778.781080329894
 20
2464.125580243835
 30
0.0
 11
2780.781080329897
 21
2462.320283585632
 31
0.0
  0
LINE
  5
4A5
330
1F
100
AcDbEntity
  8
LAY-10
  6
CONTINUOUS
 62
     7
100
AcDbLine
 10
2778.781080329897
 20
2463.418473462646
 30
0.0
 11
2780.781080329897
 21
2461.613176804445
 31
0.0
  0
LINE
  5
4A6
330
1F
100
AcDbEntity
  8
LAY-10
  6
CONTINUOUS
 62
     7
100
AcDbLine
 10
2778.781080329894
 20
2462.711366681462
 30
0.0
 11
2780.781080329897
 21
2460.906070023257
 31
0.0
  0
LINE
  5
4A7
330
1F
100
AcDbEntity
  8
LAY-10
  6
CONTINUOUS
 62
     7
100
AcDbLine
 10
2778.781080329897
 20
2462.004259900274
 30
0.0
 11
2780.781080329897
 21
2460.198963242071
 31
0.0
  0
LINE
  5
4A8
330
1F
100
AcDbEntity
  8
LAY-10
  6
CONTINUOUS
 62
     7
100
AcDbLine
 10
2778.781080329894
 20
2461.297153119091
 30
0.0
 11
2780.781080329897
 21
2459.491856460884
 31
0.0
  0
LINE
  5
4A9
330
1F
100
AcDbEntity
  8
LAY-10
  6
CONTINUOUS
 62
     7
100
AcDbLine
 10
2778.781080329897
 20
2460.5900463379
 30
0.0
 11
2780.781080329897
 21
2458.784749679699
 31
0.0
  0
LINE
  5
4AA
330
1F
100
AcDbEntity
  8
LAY-10
  6
CONTINUOUS
 62
     7
100
AcDbLine
 10
2778.781080329894
 20
2459.882939556715
 30
0.0
 11
2780.781080329897
 21
2458.07764289851
 31
0.0
  0
LINE
  5
4AB
330
1F
100
AcDbEntity
  8
LAY-10
  6
CONTINUOUS
 62
     7
100
AcDbLine
 10
2778.781080329897
 20
2459.175832775527
 30
0.0
 11
2780.781080329897
 21
2457.370536117325
 31
0.0
  0
LINE
  5
4AC
330
1F
100
AcDbEntity
  8
LAY-10
  6
CONTINUOUS
 62
     7
100
AcDbLine
 10
2778.781080329894
 20
2458.468725994344
 30
0.0
 11
2780.781080329897
 21
2456.663429336138
 31
0.0
  0
LINE
  5
4AD
330
1F
100
AcDbEntity
  8
LAY-10
  6
CONTINUOUS
 62
     7
100
AcDbLine
 10
2778.781080329897
 20
2457.761619213155
 30
0.0
 11
2780.783030438773
 21
2455.959669104279
 31
0.0
  0
LINE
  5
4AE
330
1F
100
AcDbEntity
  8
LAY-10
  6
CONTINUOUS
 62
     7
100
AcDbLine
 10
2778.781080329894
 20
2457.05451243197
 30
0.0
 11
2780.781080329897
 21
2455.252965693651
 31
0.0
  0
LINE
  5
4AF
330
1F
100
AcDbEntity
  8
LAY-10
  6
CONTINUOUS
 62
     7
100
AcDbLine
 10
2778.781080329897
 20
2456.347405650782
 30
0.0
 11
2780.781080329895
 21
2454.547405650784
 31
0.0
  0
LINE
  5
4B0
330
1F
100
AcDbEntity
  8
LAY-10
  6
CONTINUOUS
 62
     7
100
AcDbLine
 10
2778.781080329894
 20
2455.640298869597
 30
0.0
 11
2780.781080329898
 21
2453.840298869596
 31
0.0
  0
LINE
  5
4B1
330
1F
100
AcDbEntity
  8
LAY-10
  6
CONTINUOUS
 62
     7
100
AcDbLine
 10
2778.781080329897
 20
2454.93319208841
 30
0.0
 11
2780.781080329895
 21
2453.133192088411
 31
0.0
  0
LINE
  5
4B2
330
1F
100
AcDbEntity
  8
LAY-10
  6
CONTINUOUS
 62
     7
100
AcDbLine
 10
2778.781080329894
 20
2454.226085307224
 30
0.0
 11
2780.781080329898
 21
2452.426085307223
 31
0.0
  0
LINE
  5
4B3
330
1F
100
AcDbEntity
  8
LAY-10
  6
CONTINUOUS
 62
     7
100
AcDbLine
 10
2778.781080329897
 20
2453.518978526035
 30
0.0
 11
2780.781080329895
 21
2451.718978526038
 31
0.0
  0
LINE
  5
4B4
330
1F
100
AcDbEntity
  8
LAY-10
  6
CONTINUOUS
 62
     7
100
AcDbLine
 10
2778.781080329894
 20
2452.811871744851
 30
0.0
 11
2780.781080329898
 21
2451.01187174485
 31
0.0
  0
LINE
  5
4B5
330
1F
100
AcDbEntity
  8
LAY-10
  6
CONTINUOUS
 62
     7
100
AcDbLine
 10
2778.781080329897
 20
2452.104764963664
 30
0.0
 11
2780.781080329895
 21
2450.304764963665
 31
0.0
  0
LINE
  5
4B6
330
1F
100
AcDbEntity
  8
LAY-10
  6
CONTINUOUS
 62
     7
100
AcDbLine
 10
2778.781080329894
 20
2451.397658182478
 30
0.0
 11
2780.781080329898
 21
2449.597658182475
 31
0.0
  0
LINE
  5
4B7
330
1F
100
AcDbEntity
  8
LAY-10
  6
CONTINUOUS
 62
     7
100
AcDbLine
 10
2778.781080329897
 20
2450.690551401291
 30
0.0
 11
2780.781080329895
 21
2448.890551401291
 31
0.0
  0
LINE
  5
4B8
330
1F
100
AcDbEntity
  8
LAY-10
  6
CONTINUOUS
 62
     7
100
AcDbLine
 10
2778.781080329894
 20
2449.983444620106
 30
0.0
 11
2780.781080329898
 21
2448.183444620103
 31
0.0
  0
LINE
  5
4B9
330
1F
100
AcDbEntity
  8
LAY-10
  6
CONTINUOUS
 62
     7
100
AcDbLine
 10
2778.781080329897
 20
2449.276337838917
 30
0.0
 11
2780.781080329895
 21
2447.47633783892
 31
0.0
  0
LINE
  5
4BA
330
1F
100
AcDbEntity
  8
LAY-10
  6
CONTINUOUS
 62
     7
100
AcDbLine
 10
2778.781080329894
 20
2448.569231057732
 30
0.0
 11
2780.781080329898
 21
2446.769231057729
 31
0.0
  0
LINE
  5
4BB
330
1F
100
AcDbEntity
  8
LAY-10
  6
CONTINUOUS
 62
     7
100
AcDbLine
 10
2778.781080329897
 20
2447.862124276544
 30
0.0
 11
2780.781080329894
 21
2446.062124276546
 31
0.0
  0
LINE
  5
4BC
330
1F
100
AcDbEntity
  8
LAY-10
  6
CONTINUOUS
 62
     7
100
AcDbLine
 10
2778.781080329894
 20
2447.155017495359
 30
0.0
 11
2780.781080329898
 21
2445.355017495357
 31
0.0
  0
LINE
  5
4BD
330
1F
100
AcDbEntity
  8
LAY-10
  6
CONTINUOUS
 62
     7
100
AcDbLine
 10
2778.781080329897
 20
2446.44791071417
 30
0.0
 11
2780.781080329894
 21
2444.647910714173
 31
0.0
  0
LINE
  5
4BE
330
1F
100
AcDbEntity
  8
LAY-10
  6
CONTINUOUS
 62
     7
100
AcDbLine
 10
2778.781080329894
 20
2445.740803932986
 30
0.0
 11
2780.781080329898
 21
2443.940803932984
 31
0.0
  0
LINE
  5
4BF
330
1F
100
AcDbEntity
  8
LAY-10
  6
CONTINUOUS
 62
     7
100
AcDbLine
 10
2778.781080329897
 20
2445.033697151797
 30
0.0
 11
2780.781080329894
 21
2443.233697151802
 31
0.0
  0
LINE
  5
4C0
330
1F
100
AcDbEntity
  8
LAY-10
  6
CONTINUOUS
 62
     7
100
AcDbLine
 10
2778.781080329894
 20
2444.326590370614
 30
0.0
 11
2780.781080329898
 21
2442.526590370611
 31
0.0
  0
LINE
  5
4C1
330
1F
100
AcDbEntity
  8
LAY-10
  6
CONTINUOUS
 62
     7
100
AcDbLine
 10
2778.781080329897
 20
2443.619483589424
 30
0.0
 11
2780.781080329894
 21
2441.819483589428
 31
0.0
  0
LINE
  5
4C2
330
1F
100
AcDbEntity
  8
LAY-10
  6
CONTINUOUS
 62
     7
100
AcDbLine
 10
2778.781080329894
 20
2442.912376808241
 30
0.0
 11
2780.781080329897
 21
2441.112376808238
 31
0.0
  0
LINE
  5
4C3
330
1F
100
AcDbEntity
  8
LAY-10
  6
CONTINUOUS
 62
     7
100
AcDbLine
 10
2778.781080329897
 20
2442.205270027051
 30
0.0
 11
2780.781080329894
 21
2440.405270027055
 31
0.0
  0
LINE
  5
4C4
330
1F
100
AcDbEntity
  8
LAY-10
  6
CONTINUOUS
 62
     7
100
AcDbLine
 10
2778.781080329894
 20
2441.498163245868
 30
0.0
 11
2780.781080329897
 21
2439.698163245865
 31
0.0
  0
LINE
  5
4C5
330
1F
100
AcDbEntity
  8
LAY-10
  6
CONTINUOUS
 62
     7
100
AcDbLine
 10
2778.781080329897
 20
2440.791056464678
 30
0.0
 11
2780.781080329894
 21
2438.991056464682
 31
0.0
  0
LINE
  5
4C6
330
1F
100
AcDbEntity
  8
LAY-10
  6
CONTINUOUS
 62
     7
100
AcDbLine
 10
2778.781080329894
 20
2440.083949683496
 30
0.0
 11
2780.781080329897
 21
2438.283949683491
 31
0.0
  0
LINE
  5
4C7
330
1F
100
AcDbEntity
  8
LAY-10
  6
CONTINUOUS
 62
     7
100
AcDbLine
 10
2778.781080329897
 20
2439.376842902306
 30
0.0
 11
2780.781080329894
 21
2437.576842902309
 31
0.0
  0
LINE
  5
4C8
330
1F
100
AcDbEntity
  8
LAY-10
  6
CONTINUOUS
 62
     7
100
AcDbLine
 10
2778.781080329894
 20
2438.669736121123
 30
0.0
 11
2780.781080329897
 21
2436.86973612112
 31
0.0
  0
LINE
  5
4C9
330
1F
100
AcDbEntity
  8
LAY-10
  6
CONTINUOUS
 62
     7
100
AcDbLine
 10
2778.781080329897
 20
2437.962629339932
 30
0.0
 11
2780.781080329894
 21
2436.162629339936
 31
0.0
  0
LINE
  5
4CA
330
1F
100
AcDbEntity
  8
LAY-10
  6
CONTINUOUS
 62
     7
100
AcDbLine
 10
2778.781080329894
 20
2437.255522558749
 30
0.0
 11
2780.781080329897
 21
2435.455522558746
 31
0.0
  0
LINE
  5
4CB
330
1F
100
AcDbEntity
  8
LAY-10
  6
CONTINUOUS
 62
     7
100
AcDbLine
 10
2779.593231755533
 20
2464.806706678881
 30
0.0
 11
2780.781080329897
 21
2463.734497148005
 31
0.0
  0
LINE
  5
4CC
330
1F
100
AcDbEntity
  8
LAY-10
  6
CONTINUOUS
 62
     7
100
AcDbLine
 10
2780.362695594643
 20
2464.806706678881
 30
0.0
 11
2780.781080329897
 21
2464.440159537487
 31
0.0
  0
LINE
  5
4CD
330
1F
100
AcDbEntity
  8
LAY-10
  6
CONTINUOUS
 62
     7
100
AcDbLine
 10
2778.781080329894
 20
2435.841308996376
 30
0.0
 11
2779.930638460418
 21
2434.806706678904
 31
0.0
  0
LINE
  5
4CE
330
1F
100
AcDbEntity
  8
LAY-10
  6
CONTINUOUS
 62
     7
100
AcDbLine
 10
2778.781080329897
 20
2435.134202215186
 30
0.0
 11
2779.1449642591
 21
2434.806706678904
 31
0.0
  0
LINE
  5
4CF
330
1F
100
AcDbEntity
  8
LAY-10
  6
CONTINUOUS
 62
     7
100
AcDbLine
 10
2778.781080329897
 20
2436.548415777559
 30
0.0
 11
2780.716312661738
 21
2434.806706678904
 31
0.0
  0
LINE
  5
4D0
330
1F
100
AcDbEntity
  8
LAY-10
  6
CONTINUOUS
 62
     7
100
AcDbLine
 10
2780.781080329897
 20
2434.806706678904
 30
0.0
 11
2778.781080329897
 21
2434.806706678904
 31
0.0
  0
LINE
  5
4D1
330
1F
100
AcDbEntity
  8
LAY-10
  6
CONTINUOUS
 62
     7
100
AcDbLine
 10
2778.809862686548
 20
2464.806706678881
 30
0.0
 11
2780.781080329897
 21
2463.027390366817
 31
0.0
  0
LINE
  5
4D2
330
1F
100
AcDbEntity
  8
LAY-10
  6
CONTINUOUS
 62
     7
100
AcDbLine
 10
2789.4810803299
 20
2438.692998179934
 30
0.0
 11
2783.981080329876
 21
2438.692998179934
 31
0.0
  0
LINE
  5
4D3
330
1F
100
AcDbEntity
  8
LAY-10
  6
CONTINUOUS
 62
     7
100
AcDbLine
 10
2791.981080329877
 20
2468.692998179932
 30
0.0
 11
2791.981080329877
 21
2468.006706678919
 31
0.0
  0
ARC
  5
4D4
330
1F
100
AcDbEntity
  8
LAY-10
  6
CONTINUOUS
 62
     7
100
AcDbCircle
 10
2777.781080329889
 20
2417.806706678903
 30
0.0
 40
3.000000000000003
100
AcDbArc
 50
180.0
 51
270.0000000000002
  0
ARC
  5
4D5
330
1F
100
AcDbEntity
  8
LAY-10
  6
CONTINUOUS
 62
     7
100
AcDbCircle
 10
2731.781080329887
 20
2463.806706678904
 30
0.0
 40
3.000000000000003
100
AcDbArc
 50
180.0
 51
270.0000000000002
  0
ARC
  5
4D6
330
1F
100
AcDbEntity
  8
LAY-10
  6
CONTINUOUS
 62
     7
100
AcDbCircle
 10
2768.281080329889
 20
2454.306706678902
 30
0.0
 40
6.500000000000004
100
AcDbArc
 50
0.0
 51
90.00000000000001
  0
LINE
  5
4D7
330
1F
100
AcDbEntity
  8
LAY-10
  6
CONTINUOUS
 62
     7
100
AcDbLine
 10
2768.281080329889
 20
2460.806706678902
 30
0.0
 11
2728.781080329899
 21
2460.806706678902
 31
0.0
  0
LINE
  5
4D8
330
1F
100
AcDbEntity
  8
LAY-10
  6
CONTINUOUS
 62
     7
100
AcDbLine
 10
2778.781080329889
 20
2414.8067066789
 30
0.0
 11
2777.781080329889
 21
2414.8067066789
 31
0.0
  0
LINE
  5
4D9
330
1F
100
AcDbEntity
  8
LAY-10
  6
CONTINUOUS
 62
     7
100
AcDbLine
 10
2724.281080329879
 20
1311.806706678916
 30
0.0
 11
2739.281080329879
 21
1311.806706678916
 31
0.0
  0
LINE
  5
4DA
330
1F
100
AcDbEntity
  8
LAY-10
  6
CONTINUOUS
 62
     7
100
AcDbLine
 10
2724.281080329879
 20
1311.806706678916
 30
0.0
 11
2724.281080329879
 21
1296.806706678916
 31
0.0
  0
LINE
  5
4DB
330
1F
100
AcDbEntity
  8
LAY-10
  6
CONTINUOUS
 62
     7
100
AcDbLine
 10
2727.281080329878
 20
1308.806706678916
 30
0.0
 11
2727.281080329878
 21
1296.806706678916
 31
0.0
  0
LINE
  5
4DC
330
1F
100
AcDbEntity
  8
LAY-10
  6
CONTINUOUS
 62
     7
100
AcDbLine
 10
2739.281080329879
 20
1311.806706678916
 30
0.0
 11
2739.281080329879
 21
1308.806706678916
 31
0.0
  0
LINE
  5
4DD
330
1F
100
AcDbEntity
  8
LAY-10
  6
CONTINUOUS
 62
     7
100
AcDbLine
 10
2724.281080329879
 20
1296.806706678916
 30
0.0
 11
2727.281080329878
 21
1296.806706678916
 31
0.0
  0
LINE
  5
4DE
330
1F
100
AcDbEntity
  8
LAY-10
  6
CONTINUOUS
 62
     7
100
AcDbLine
 10
2783.981080329876
 20
1308.9204151779
 30
0.0
 11
2783.981080329874
 21
1311.606706678967
 31
0.0
  0
LINE
  5
4DF
330
1F
100
AcDbEntity
  8
LAY-10
  6
CONTINUOUS
 62
     7
100
AcDbLine
 10
2821.679565139712
 20
1267.908221869081
 30
0.0
 11
2827.336419389202
 21
1273.565076118574
 31
0.0
  0
LINE
  5
4E0
330
1F
100
AcDbEntity
  8
LAY-10
  6
CONTINUOUS
 62
     7
100
AcDbLine
 10
2827.336419389202
 20
1273.565076118574
 30
0.0
 11
2791.981080329877
 21
1308.9204151779
 31
0.0
  0
ARC
  5
4E1
330
1F
100
AcDbEntity
  8
LAY-10
  6
CONTINUOUS
 62
     7
100
AcDbCircle
 10
2791.981080329877
 20
1308.9204151779
 30
0.0
 40
8.0
100
AcDbArc
 50
180.0
 51
224.9999999999919
  0
LINE
  5
4E2
330
1F
100
AcDbEntity
  8
LAY-10
  6
CONTINUOUS
 62
     7
100
AcDbLine
 10
2821.679565139712
 20
1267.908221869081
 30
0.0
 11
2786.324226080384
 21
1303.263560928409
 31
0.0
  0
LINE
  5
4E3
330
1F
100
AcDbEntity
  8
LAY-10
  6
CONTINUOUS
 62
     7
100
AcDbLine
 10
2783.981080329874
 20
1311.606706678967
 30
0.0
 11
2783.981080329876
 21
1345.606706678914
 31
0.0
  0
LINE
  5
4E4
330
1F
100
AcDbEntity
  8
LAY-10
  6
CONTINUOUS
 62
     7
100
AcDbLine
 10
2727.281080329878
 20
1308.806706678916
 30
0.0
 11
2777.781080329877
 21
1308.806706678916
 31
0.0
  0
ARC
  5
4E5
330
1F
100
AcDbEntity
  8
LAY-10
  6
CONTINUOUS
 62
     7
100
AcDbCircle
 10
2783.781080329876
 20
1345.806706678914
 30
0.0
 40
3.000000000000003
100
AcDbArc
 50
90.00000000000001
 51
180.0
  0
ARC
  5
4E6
330
1F
100
AcDbEntity
  8
LAY-10
  6
CONTINUOUS
 62
     7
100
AcDbCircle
 10
2777.981080329875
 20
1311.606706678917
 30
0.0
 40
6.000000000000006
100
AcDbArc
 50
270.0000000000002
 51
0.0
  0
ARC
  5
4E7
330
1F
100
AcDbEntity
  8
LAY-10
  6
CONTINUOUS
 62
     7
100
AcDbCircle
 10
2777.781080329877
 20
1311.806706678916
 30
0.0
 40
3.000000000000003
100
AcDbArc
 50
270.0000000000002
 51
0.0
  0
LINE
  5
4E8
330
1F
100
AcDbEntity
  8
LAY-10
  6
CONTINUOUS
 62
     7
100
AcDbLine
 10
2777.981080329875
 20
1305.606706678914
 30
0.0
 11
2727.281080329878
 21
1305.606706678914
 31
0.0
  0
LINE
  5
4E9
330
1F
100
AcDbEntity
  8
LAY-10
  6
CONTINUOUS
 62
     7
100
AcDbLine
 10
2824.281080329876
 20
1398.806706678916
 30
0.0
 11
2824.281080329876
 21
1348.606706678916
 31
0.0
  0
LINE
  5
4EA
330
1F
100
AcDbEntity
  8
LAY-10
  6
CONTINUOUS
 62
     7
100
AcDbLine
 10
2789.400710114286
 20
1343.405016119769
 30
0.0
 11
2789.481080329866
 21
1343.485386335348
 31
0.0
  0
LINE
  5
4EB
330
1F
100
AcDbEntity
  8
LAY-10
  6
CONTINUOUS
 62
     7
100
AcDbLine
 10
2789.04256512121
 20
1343.753977907878
 30
0.0
 11
2789.481080329873
 21
1344.192493116542
 31
0.0
  0
LINE
  5
4EC
330
1F
100
AcDbEntity
  8
LAY-10
  6
CONTINUOUS
 62
     7
100
AcDbLine
 10
2788.684420128149
 20
1344.102939696001
 30
0.0
 11
2789.481080329857
 21
1344.899599897712
 31
0.0
  0
LINE
  5
4ED
330
1F
100
AcDbEntity
  8
LAY-10
  6
CONTINUOUS
 62
     7
100
AcDbLine
 10
2788.326275135081
 20
1344.451901484125
 30
0.0
 11
2789.481080329873
 21
1345.606706678914
 31
0.0
  0
LINE
  5
4EE
330
1F
100
AcDbEntity
  8
LAY-10
  6
CONTINUOUS
 62
     7
100
AcDbLine
 10
2787.968130142006
 20
1344.800863272236
 30
0.0
 11
2788.773973548681
 21
1345.60670667891
 31
0.0
  0
LINE
  5
4EF
330
1F
100
AcDbEntity
  8
LAY-10
  6
CONTINUOUS
 62
     7
100
AcDbLine
 10
2787.609985148942
 20
1345.149825060357
 30
0.0
 11
2788.0668667675
 21
1345.606706678914
 31
0.0
  0
LINE
  5
4F0
330
1F
100
AcDbEntity
  8
LAY-10
  6
CONTINUOUS
 62
     7
100
AcDbLine
 10
2787.251840155879
 20
1345.49878684848
 30
0.0
 11
2787.359759986316
 21
1345.606706678919
 31
0.0
  0
LINE
  5
4F1
330
1F
100
AcDbEntity
  8
LAY-10
  6
CONTINUOUS
 62
     7
100
AcDbLine
 10
2787.141080329874
 20
1345.606706678914
 30
0.0
 11
2789.481080329876
 21
1343.326706678917
 31
0.0
  0
LINE
  5
4F2
330
1F
100
AcDbEntity
  8
LAY-10
  6
CONTINUOUS
 62
     7
100
AcDbLine
 10
2820.481080329878
 20
1343.485386335356
 30
0.0
 11
2820.610898875726
 21
1343.355567789512
 31
0.0
  0
LINE
  5
4F3
330
1F
100
AcDbEntity
  8
LAY-10
  6
CONTINUOUS
 62
     7
100
AcDbLine
 10
2820.481080329894
 20
1344.192493116528
 30
0.0
 11
2820.940293476212
 21
1343.733279970211
 31
0.0
  0
LINE
  5
4F4
330
1F
100
AcDbEntity
  8
LAY-10
  6
CONTINUOUS
 62
     7
100
AcDbLine
 10
2820.481080329886
 20
1344.899599897721
 30
0.0
 11
2821.269688076701
 21
1344.110992150909
 31
0.0
  0
LINE
  5
4F5
330
1F
100
AcDbEntity
  8
LAY-10
  6
CONTINUOUS
 62
     7
100
AcDbLine
 10
2820.481080329881
 20
1345.606706678913
 30
0.0
 11
2821.599082677185
 21
1344.488704331609
 31
0.0
  0
LINE
  5
4F6
330
1F
100
AcDbEntity
  8
LAY-10
  6
CONTINUOUS
 62
     7
100
AcDbLine
 10
2821.188187111073
 20
1345.606706678905
 30
0.0
 11
2821.928477277662
 21
1344.866416512319
 31
0.0
  0
LINE
  5
4F7
330
1F
100
AcDbEntity
  8
LAY-10
  6
CONTINUOUS
 62
     7
100
AcDbLine
 10
2821.842326720248
 20
1345.659673850919
 30
0.0
 11
2822.25787187815
 21
1345.244128693017
 31
0.0
  0
LINE
  5
4F8
330
1F
100
AcDbEntity
  8
LAY-10
  6
CONTINUOUS
 62
     7
100
AcDbLine
 10
2822.389947023758
 20
1345.819160328595
 30
0.0
 11
2822.587266478638
 21
1345.621840873716
 31
0.0
  0
LINE
  5
4F9
330
1F
100
AcDbEntity
  8
LAY-10
  6
CONTINUOUS
 62
     7
100
AcDbLine
 10
2822.860242205653
 20
1346.055971927889
 30
0.0
 11
2822.916661079124
 21
1345.999553054414
 31
0.0
  0
LINE
  5
4FA
330
1F
100
AcDbEntity
  8
LAY-10
  6
CONTINUOUS
 62
     7
100
AcDbLine
 10
2820.481080329878
 20
1343.206706678915
 30
0.0
 11
2823.130005114851
 21
1346.244191675892
 31
0.0
  0
LINE
  5
4FB
330
1F
100
AcDbEntity
  8
LAY-10
  6
CONTINUOUS
 62
     7
100
AcDbLine
 10
2789.481080329876
 20
1309.606706678917
 30
0.0
 11
2820.481080329878
 21
1309.606706678917
 31
0.0
  0
LINE
  5
4FC
330
1F
100
AcDbEntity
  8
LAY-10
  6
CONTINUOUS
 62
     7
100
AcDbLine
 10
2820.481080329878
 20
1309.606706678917
 30
0.0
 11
2820.481080329878
 21
1345.606706678917
 31
0.0
  0
LINE
  5
4FD
330
1F
100
AcDbEntity
  8
LAY-10
  6
CONTINUOUS
 62
     7
100
AcDbLine
 10
2789.481080329876
 20
1309.606706678917
 30
0.0
 11
2789.481080329876
 21
1345.606706678914
 31
0.0
  0
ARC
  5
4FE
330
1F
100
AcDbEntity
  8
LAY-10
  6
CONTINUOUS
 62
     7
100
AcDbCircle
 10
2819.081080329874
 20
1405.806706678917
 30
0.0
 40
4.0
100
AcDbArc
 50
180.0
 51
270.0000000000002
  0
ARC
  5
4FF
330
1F
100
AcDbEntity
  8
LAY-10
  6
CONTINUOUS
 62
     7
100
AcDbCircle
 10
2840.081080329876
 20
1399.806706678916
 30
0.0
 40
2.0
100
AcDbArc
 50
0.0
 51
90.00000000000001
  0
LINE
  5
500
330
1F
100
AcDbEntity
  8
LAY-10
  6
CONTINUOUS
 62
     7
100
AcDbLine
 10
2842.081080329875
 20
1398.806706678916
 30
0.0
 11
2842.081080329875
 21
1399.806706678916
 31
0.0
  0
LINE
  5
501
330
1F
100
AcDbEntity
  8
LAY-10
  6
CONTINUOUS
 62
     7
100
AcDbLine
 10
2819.081080329874
 20
1401.806706678917
 30
0.0
 11
2840.081080329876
 21
1401.806706678917
 31
0.0
  0
LINE
  5
502
330
1F
100
AcDbEntity
  8
LAY-10
  6
CONTINUOUS
 62
     7
100
AcDbLine
 10
2812.081080329875
 20
1398.806706678916
 30
0.0
 11
2842.081080329875
 21
1398.806706678916
 31
0.0
  0
LINE
  5
503
330
1F
100
AcDbEntity
  8
LAY-10
  6
CONTINUOUS
 62
     7
100
AcDbLine
 10
2854.281080329868
 20
1388.806706678916
 30
0.0
 11
2812.081080329875
 21
1388.806706678916
 31
0.0
  0
ARC
  5
504
330
1F
100
AcDbEntity
  8
LAY-10
  6
CONTINUOUS
 62
     7
100
AcDbCircle
 10
2852.281080329868
 20
1387.806706679008
 30
0.0
 40
2.0
100
AcDbArc
 50
270.0000000000002
 51
0.0
  0
LINE
  5
505
330
1F
100
AcDbEntity
  8
LAY-10
  6
CONTINUOUS
 62
     7
100
AcDbLine
 10
2854.281080329868
 20
1388.806706679008
 30
0.0
 11
2854.281080329868
 21
1387.806706679008
 31
0.0
  0
LINE
  5
506
330
1F
100
AcDbEntity
  8
LAY-10
  6
CONTINUOUS
 62
     7
100
AcDbLine
 10
2831.28108032987
 20
1385.806706679007
 30
0.0
 11
2852.281080329868
 21
1385.806706679007
 31
0.0
  0
LINE
  5
507
330
1F
100
AcDbEntity
  8
LAY-10
  6
CONTINUOUS
 62
     7
100
AcDbLine
 10
2821.081080329879
 20
1358.806706678916
 30
0.0
 11
2821.081080329879
 21
1348.806706678916
 31
0.0
  0
LINE
  5
508
330
1F
100
AcDbEntity
  8
LAY-10
  6
CONTINUOUS
 62
     7
100
AcDbLine
 10
2821.081080329879
 20
1368.806706678916
 30
0.0
 11
2821.081080329879
 21
1398.806706678916
 31
0.0
  0
LINE
  5
509
330
1F
100
AcDbEntity
  8
LAY-10
  6
CONTINUOUS
 62
     7
100
AcDbLine
 10
2783.781080329876
 20
1348.806706678916
 30
0.0
 11
2821.081080329879
 21
1348.806706678916
 31
0.0
  0
LINE
  5
50A
330
1F
100
AcDbEntity
  8
LAY-10
  6
CONTINUOUS
 62
     7
100
AcDbLine
 10
2783.981080329876
 20
1345.606706678917
 30
0.0
 11
2821.281080329878
 21
1345.606706678917
 31
0.0
  0
ARC
  5
50B
330
1F
100
AcDbEntity
  8
LAY-10
  6
CONTINUOUS
 62
     7
100
AcDbCircle
 10
2831.28108032987
 20
1381.806706679008
 30
0.0
 40
4.0
100
AcDbArc
 50
90.00000000000001
 51
180.0
  0
LINE
  5
50C
330
1F
100
AcDbEntity
  8
LAY-10
  6
CONTINUOUS
 62
     7
100
AcDbLine
 10
2827.28108032987
 20
1381.806706679008
 30
0.0
 11
2827.28108032987
 21
1373.80670667896
 31
0.0
  0
LINE
  5
50D
330
1F
100
AcDbEntity
  8
LAY-10
  6
CONTINUOUS
 62
     7
100
AcDbLine
 10
2821.081080329879
 20
1385.806706678916
 30
0.0
 11
2812.081080329875
 21
1385.806706678916
 31
0.0
  0
ARC
  5
50E
330
1F
100
AcDbEntity
  8
LAY-10
  6
CONTINUOUS
 62
     7
100
AcDbCircle
 10
2821.281080329878
 20
1348.606706678916
 30
0.0
 40
3.000000000000003
100
AcDbArc
 50
270.0000000000002
 51
0.0
  0
LINE
  5
50F
330
1F
100
AcDbEntity
  8
LAY-10
  6
CONTINUOUS
 62
     7
100
AcDbLine
 10
2821.081080329879
 20
1351.806706678918
 30
0.0
 11
2811.881080329875
 21
1351.806706678918
 31
0.0
  0
ARC
  5
510
330
1F
100
AcDbEntity
  8
LAY-10
  6
CONTINUOUS
 62
     7
100
AcDbCircle
 10
2811.881080329875
 20
1354.806706678916
 30
0.0
 40
3.000000000000003
100
AcDbArc
 50
180.0
 51
270.0000000000002
  0
LINE
  5
511
330
1F
100
AcDbEntity
  8
LAY-10
  6
CONTINUOUS
 62
     7
100
AcDbLine
 10
2821.081080329879
 20
1354.806706678916
 30
0.0
 11
2812.081080329875
 21
1354.806706678916
 31
0.0
  0
LINE
  5
512
330
1F
100
AcDbEntity
  8
LAY-10
  6
CONTINUOUS
 62
     7
100
AcDbLine
 10
2812.081080329875
 20
1357.806706678916
 30
0.0
 11
2808.881080329876
 21
1357.806706678916
 31
0.0
  0
LINE
  5
513
330
1F
100
AcDbEntity
  8
LAY-10
  6
CONTINUOUS
 62
     7
100
AcDbLine
 10
2812.081080329875
 20
1369.806706678916
 30
0.0
 11
2808.881080329876
 21
1369.806706678916
 31
0.0
  0
LINE
  5
514
330
1F
100
AcDbEntity
  8
LAY-10
  6
CONTINUOUS
 62
     7
100
AcDbLine
 10
2821.081080329879
 20
1357.806706678916
 30
0.0
 11
2824.281080329876
 21
1357.806706678916
 31
0.0
  0
LINE
  5
515
330
1F
100
AcDbEntity
  8
LAY-10
  6
CONTINUOUS
 62
     7
100
AcDbLine
 10
2821.081080329879
 20
1369.806706678916
 30
0.0
 11
2824.281080329876
 21
1369.806706678916
 31
0.0
  0
LINE
  5
516
330
1F
100
AcDbEntity
  8
LAY-10
  6
CONTINUOUS
 62
     7
100
AcDbLine
 10
2812.081080329875
 20
1358.806706678916
 30
0.0
 11
2812.081080329875
 21
1354.806706678916
 31
0.0
  0
LINE
  5
517
330
1F
100
AcDbEntity
  8
LAY-10
  6
CONTINUOUS
 62
     7
100
AcDbLine
 10
2780.781080329896
 20
1312.806706678875
 30
0.0
 11
2724.281080329896
 21
1312.806706678875
 31
0.0
  0
LINE
  5
518
330
1F
100
AcDbEntity
  8
LAY-10
  6
CONTINUOUS
 62
     7
100
AcDbLine
 10
2780.781080329898
 20
1313.48783311392
 30
0.0
 11
2778.781080329896
 21
1315.293129772123
 31
0.0
  0
LINE
  5
519
330
1F
100
AcDbEntity
  8
LAY-10
  6
CONTINUOUS
 62
     7
100
AcDbLine
 10
2780.781080329896
 20
1314.194939895109
 30
0.0
 11
2778.781080329896
 21
1316.000236553311
 31
0.0
  0
LINE
  5
51A
330
1F
100
AcDbEntity
  8
LAY-10
  6
CONTINUOUS
 62
     7
100
AcDbLine
 10
2780.781080329898
 20
1314.902046676294
 30
0.0
 11
2778.781080329896
 21
1316.707343334499
 31
0.0
  0
LINE
  5
51B
330
1F
100
AcDbEntity
  8
LAY-10
  6
CONTINUOUS
 62
     7
100
AcDbLine
 10
2780.781080329896
 20
1315.609153457481
 30
0.0
 11
2778.781080329896
 21
1317.414450115685
 31
0.0
  0
LINE
  5
51C
330
1F
100
AcDbEntity
  8
LAY-10
  6
CONTINUOUS
 62
     7
100
AcDbLine
 10
2780.781080329898
 20
1316.316260238666
 30
0.0
 11
2778.781080329896
 21
1318.121556896871
 31
0.0
  0
LINE
  5
51D
330
1F
100
AcDbEntity
  8
LAY-10
  6
CONTINUOUS
 62
     7
100
AcDbLine
 10
2780.781080329896
 20
1317.023367019855
 30
0.0
 11
2778.781080329896
 21
1318.828663678057
 31
0.0
  0
LINE
  5
51E
330
1F
100
AcDbEntity
  8
LAY-10
  6
CONTINUOUS
 62
     7
100
AcDbLine
 10
2780.781080329898
 20
1317.73047380104
 30
0.0
 11
2778.781080329896
 21
1319.535770459245
 31
0.0
  0
LINE
  5
51F
330
1F
100
AcDbEntity
  8
LAY-10
  6
CONTINUOUS
 62
     7
100
AcDbLine
 10
2780.781080329896
 20
1318.437580582228
 30
0.0
 11
2778.781080329896
 21
1320.24287724043
 31
0.0
  0
LINE
  5
520
330
1F
100
AcDbEntity
  8
LAY-10
  6
CONTINUOUS
 62
     7
100
AcDbLine
 10
2780.781080329898
 20
1319.144687363412
 30
0.0
 11
2778.781080329896
 21
1320.949984021618
 31
0.0
  0
LINE
  5
521
330
1F
100
AcDbEntity
  8
LAY-10
  6
CONTINUOUS
 62
     7
100
AcDbLine
 10
2780.781080329896
 20
1319.8517941446
 30
0.0
 11
2778.779130221019
 21
1321.653744253476
 31
0.0
  0
LINE
  5
522
330
1F
100
AcDbEntity
  8
LAY-10
  6
CONTINUOUS
 62
     7
100
AcDbLine
 10
2780.781080329898
 20
1320.558900925785
 30
0.0
 11
2778.781080329896
 21
1322.360447664105
 31
0.0
  0
LINE
  5
523
330
1F
100
AcDbEntity
  8
LAY-10
  6
CONTINUOUS
 62
     7
100
AcDbLine
 10
2780.781080329896
 20
1321.266007706973
 30
0.0
 11
2778.781080329898
 21
1323.066007706971
 31
0.0
  0
LINE
  5
524
330
1F
100
AcDbEntity
  8
LAY-10
  6
CONTINUOUS
 62
     7
100
AcDbLine
 10
2780.781080329898
 20
1321.973114488158
 30
0.0
 11
2778.781080329894
 21
1323.77311448816
 31
0.0
  0
LINE
  5
525
330
1F
100
AcDbEntity
  8
LAY-10
  6
CONTINUOUS
 62
     7
100
AcDbLine
 10
2780.781080329896
 20
1322.680221269346
 30
0.0
 11
2778.781080329898
 21
1324.480221269344
 31
0.0
  0
LINE
  5
526
330
1F
100
AcDbEntity
  8
LAY-10
  6
CONTINUOUS
 62
     7
100
AcDbLine
 10
2780.781080329898
 20
1323.387328050532
 30
0.0
 11
2778.781080329894
 21
1325.187328050532
 31
0.0
  0
LINE
  5
527
330
1F
100
AcDbEntity
  8
LAY-10
  6
CONTINUOUS
 62
     7
100
AcDbLine
 10
2780.781080329896
 20
1324.09443483172
 30
0.0
 11
2778.781080329898
 21
1325.894434831718
 31
0.0
  0
LINE
  5
528
330
1F
100
AcDbEntity
  8
LAY-10
  6
CONTINUOUS
 62
     7
100
AcDbLine
 10
2780.781080329898
 20
1324.801541612904
 30
0.0
 11
2778.781080329894
 21
1326.601541612905
 31
0.0
  0
LINE
  5
529
330
1F
100
AcDbEntity
  8
LAY-10
  6
CONTINUOUS
 62
     7
100
AcDbLine
 10
2780.781080329896
 20
1325.508648394092
 30
0.0
 11
2778.781080329898
 21
1327.308648394091
 31
0.0
  0
LINE
  5
52A
330
1F
100
AcDbEntity
  8
LAY-10
  6
CONTINUOUS
 62
     7
100
AcDbLine
 10
2780.781080329898
 20
1326.215755175277
 30
0.0
 11
2778.781080329894
 21
1328.01575517528
 31
0.0
  0
LINE
  5
52B
330
1F
100
AcDbEntity
  8
LAY-10
  6
CONTINUOUS
 62
     7
100
AcDbLine
 10
2780.781080329896
 20
1326.922861956466
 30
0.0
 11
2778.781080329898
 21
1328.722861956464
 31
0.0
  0
LINE
  5
52C
330
1F
100
AcDbEntity
  8
LAY-10
  6
CONTINUOUS
 62
     7
100
AcDbLine
 10
2780.781080329898
 20
1327.62996873765
 30
0.0
 11
2778.781080329894
 21
1329.429968737652
 31
0.0
  0
LINE
  5
52D
330
1F
100
AcDbEntity
  8
LAY-10
  6
CONTINUOUS
 62
     7
100
AcDbLine
 10
2780.781080329896
 20
1328.337075518838
 30
0.0
 11
2778.781080329898
 21
1330.137075518836
 31
0.0
  0
LINE
  5
52E
330
1F
100
AcDbEntity
  8
LAY-10
  6
CONTINUOUS
 62
     7
100
AcDbLine
 10
2780.781080329898
 20
1329.044182300024
 30
0.0
 11
2778.781080329894
 21
1330.844182300027
 31
0.0
  0
LINE
  5
52F
330
1F
100
AcDbEntity
  8
LAY-10
  6
CONTINUOUS
 62
     7
100
AcDbLine
 10
2780.781080329896
 20
1329.751289081212
 30
0.0
 11
2778.781080329898
 21
1331.551289081209
 31
0.0
  0
LINE
  5
530
330
1F
100
AcDbEntity
  8
LAY-10
  6
CONTINUOUS
 62
     7
100
AcDbLine
 10
2780.781080329898
 20
1330.458395862396
 30
0.0
 11
2778.781080329894
 21
1332.258395862398
 31
0.0
  0
LINE
  5
531
330
1F
100
AcDbEntity
  8
LAY-10
  6
CONTINUOUS
 62
     7
100
AcDbLine
 10
2780.781080329896
 20
1331.165502643585
 30
0.0
 11
2778.781080329898
 21
1332.965502643582
 31
0.0
  0
LINE
  5
532
330
1F
100
AcDbEntity
  8
LAY-10
  6
CONTINUOUS
 62
     7
100
AcDbLine
 10
2780.781080329898
 20
1331.87260942477
 30
0.0
 11
2778.781080329894
 21
1333.672609424771
 31
0.0
  0
LINE
  5
533
330
1F
100
AcDbEntity
  8
LAY-10
  6
CONTINUOUS
 62
     7
100
AcDbLine
 10
2780.781080329896
 20
1332.579716205958
 30
0.0
 11
2778.781080329898
 21
1334.379716205954
 31
0.0
  0
LINE
  5
534
330
1F
100
AcDbEntity
  8
LAY-10
  6
CONTINUOUS
 62
     7
100
AcDbLine
 10
2780.781080329898
 20
1333.286822987142
 30
0.0
 11
2778.781080329894
 21
1335.086822987144
 31
0.0
  0
LINE
  5
535
330
1F
100
AcDbEntity
  8
LAY-10
  6
CONTINUOUS
 62
     7
100
AcDbLine
 10
2780.781080329896
 20
1333.993929768332
 30
0.0
 11
2778.781080329898
 21
1335.793929768328
 31
0.0
  0
LINE
  5
536
330
1F
100
AcDbEntity
  8
LAY-10
  6
CONTINUOUS
 62
     7
100
AcDbLine
 10
2780.781080329898
 20
1334.701036549514
 30
0.0
 11
2778.781080329896
 21
1336.501036549518
 31
0.0
  0
LINE
  5
537
330
1F
100
AcDbEntity
  8
LAY-10
  6
CONTINUOUS
 62
     7
100
AcDbLine
 10
2780.781080329896
 20
1335.408143330704
 30
0.0
 11
2778.781080329898
 21
1337.2081433307
 31
0.0
  0
LINE
  5
538
330
1F
100
AcDbEntity
  8
LAY-10
  6
CONTINUOUS
 62
     7
100
AcDbLine
 10
2780.781080329898
 20
1336.115250111888
 30
0.0
 11
2778.781080329896
 21
1337.915250111891
 31
0.0
  0
LINE
  5
539
330
1F
100
AcDbEntity
  8
LAY-10
  6
CONTINUOUS
 62
     7
100
AcDbLine
 10
2780.781080329896
 20
1336.822356893077
 30
0.0
 11
2778.781080329898
 21
1338.622356893075
 31
0.0
  0
LINE
  5
53A
330
1F
100
AcDbEntity
  8
LAY-10
  6
CONTINUOUS
 62
     7
100
AcDbLine
 10
2780.781080329898
 20
1337.52946367426
 30
0.0
 11
2778.781080329896
 21
1339.329463674264
 31
0.0
  0
LINE
  5
53B
330
1F
100
AcDbEntity
  8
LAY-10
  6
CONTINUOUS
 62
     7
100
AcDbLine
 10
2780.781080329896
 20
1338.23657045545
 30
0.0
 11
2778.781080329898
 21
1340.036570455446
 31
0.0
  0
LINE
  5
53C
330
1F
100
AcDbEntity
  8
LAY-10
  6
CONTINUOUS
 62
     7
100
AcDbLine
 10
2780.781080329898
 20
1338.943677236633
 30
0.0
 11
2778.781080329896
 21
1340.743677236635
 31
0.0
  0
LINE
  5
53D
330
1F
100
AcDbEntity
  8
LAY-10
  6
CONTINUOUS
 62
     7
100
AcDbLine
 10
2780.781080329896
 20
1339.650784017824
 30
0.0
 11
2778.781080329898
 21
1341.450784017819
 31
0.0
  0
LINE
  5
53E
330
1F
100
AcDbEntity
  8
LAY-10
  6
CONTINUOUS
 62
     7
100
AcDbLine
 10
2780.781080329898
 20
1340.357890799006
 30
0.0
 11
2778.781080329896
 21
1342.157890799009
 31
0.0
  0
LINE
  5
53F
330
1F
100
AcDbEntity
  8
LAY-10
  6
CONTINUOUS
 62
     7
100
AcDbLine
 10
2779.96892890426
 20
1312.806706678875
 30
0.0
 11
2778.781080329896
 21
1313.878916209751
 31
0.0
  0
LINE
  5
540
330
1F
100
AcDbEntity
  8
LAY-10
  6
CONTINUOUS
 62
     7
100
AcDbLine
 10
2779.19946506515
 20
1312.806706678875
 30
0.0
 11
2778.781080329896
 21
1313.173253820268
 31
0.0
  0
LINE
  5
541
330
1F
100
AcDbEntity
  8
LAY-10
  6
CONTINUOUS
 62
     7
100
AcDbLine
 10
2780.781080329898
 20
1341.77210436138
 30
0.0
 11
2779.631522199374
 21
1342.806706678852
 31
0.0
  0
LINE
  5
542
330
1F
100
AcDbEntity
  8
LAY-10
  6
CONTINUOUS
 62
     7
100
AcDbLine
 10
2780.781080329896
 20
1342.47921114257
 30
0.0
 11
2780.417196400692
 21
1342.806706678852
 31
0.0
  0
LINE
  5
543
330
1F
100
AcDbEntity
  8
LAY-10
  6
CONTINUOUS
 62
     7
100
AcDbLine
 10
2780.781080329896
 20
1341.064997580196
 30
0.0
 11
2778.845847998055
 21
1342.806706678852
 31
0.0
  0
LINE
  5
544
330
1F
100
AcDbEntity
  8
LAY-10
  6
CONTINUOUS
 62
     7
100
AcDbLine
 10
2778.781080329896
 20
1342.806706678852
 30
0.0
 11
2780.781080329896
 21
1342.806706678852
 31
0.0
  0
LINE
  5
545
330
1F
100
AcDbEntity
  8
LAY-10
  6
CONTINUOUS
 62
     7
100
AcDbLine
 10
2780.752297973244
 20
1312.806706678875
 30
0.0
 11
2778.781080329896
 21
1314.586022990939
 31
0.0
  0
LINE
  5
546
330
1F
100
AcDbEntity
  8
LAY-10
  6
CONTINUOUS
 62
     7
100
AcDbLine
 10
2789.481080329876
 20
1338.9204151779
 30
0.0
 11
2783.981080329876
 21
1338.9204151779
 31
0.0
  0
LINE
  5
547
330
1F
100
AcDbEntity
  8
LAY-10
  6
CONTINUOUS
 62
     7
100
AcDbLine
 10
2791.981080329877
 20
1308.9204151779
 30
0.0
 11
2791.981080329877
 21
1309.606706678917
 31
0.0
  0
ARC
  5
548
330
1F
100
AcDbEntity
  8
LAY-10
  6
CONTINUOUS
 62
     7
100
AcDbCircle
 10
2777.781080329889
 20
1359.806706678898
 30
0.0
 40
3.000000000000003
100
AcDbArc
 50
90.00000000000001
 51
180.0
  0
ARC
  5
549
330
1F
100
AcDbEntity
  8
LAY-10
  6
CONTINUOUS
 62
     7
100
AcDbCircle
 10
2731.781080329887
 20
1313.806706678897
 30
0.0
 40
3.000000000000003
100
AcDbArc
 50
90.00000000000001
 51
180.0
  0
ARC
  5
54A
330
1F
100
AcDbEntity
  8
LAY-10
  6
CONTINUOUS
 62
     7
100
AcDbCircle
 10
2768.281080329889
 20
1323.306706678899
 30
0.0
 40
6.500000000000004
100
AcDbArc
 50
270.0000000000002
 51
0.0
  0
LINE
  5
54B
330
1F
100
AcDbEntity
  8
LAY-10
  6
CONTINUOUS
 62
     7
100
AcDbLine
 10
2768.281080329889
 20
1316.806706678899
 30
0.0
 11
2728.781080329899
 21
1316.806706678899
 31
0.0
  0
LINE
  5
54C
330
1F
100
AcDbEntity
  8
LAY-10
  6
CONTINUOUS
 62
     7
100
AcDbLine
 10
2778.781080329889
 20
1362.806706678901
 30
0.0
 11
2777.781080329889
 21
1362.806706678901
 31
0.0
  0
LINE
  5
54D
330
1F
100
AcDbEntity
  8
LAY-10
  6
CONTINUOUS
 62
     7
100
AcDbLine
 10
2780.781080329877
 20
2465.806706678919
 30
0.0
 11
2780.781080329877
 21
1311.806706678916
 31
0.0
  0
LINE
  5
54E
330
1F
100
AcDbEntity
  8
LAY-10
  6
CONTINUOUS
 62
     7
100
AcDbLine
 10
2812.081080329875
 20
2408.806706678916
 30
0.0
 11
2812.081080329875
 21
1368.806706678916
 31
0.0
  0
LINE
  5
54F
330
1F
100
AcDbEntity
  8
LAY-10
  6
CONTINUOUS
 62
     7
100
AcDbLine
 10
2808.881080329876
 20
2424.3067066789
 30
0.0
 11
2808.881080329876
 21
1354.806706678917
 31
0.0
  0
LINE
  5
550
330
1F
100
AcDbEntity
  8
LAY-10
  6
CONTINUOUS
 62
     7
100
AcDbLine
 10
2815.081080329874
 20
1405.806706678917
 30
0.0
 11
2815.081080329874
 21
2371.806706678916
 31
0.0
  0
LINE
  5
551
330
1F
100
AcDbEntity
  8
LAY-10
  6
CONTINUOUS
 62
     7
100
AcDbLine
 10
2842.081080329875
 20
1399.806706678916
 30
0.0
 11
2842.081080329875
 21
2377.806706678916
 31
0.0
  0
LINE
  5
552
330
1F
100
AcDbEntity
  8
LAY-10
  6
CONTINUOUS
 62
     7
100
AcDbLine
 10
2728.781080329899
 20
2464.806706678886
 30
0.0
 11
2728.781080329899
 21
1312.806706678914
 31
0.0
  0
LINE
  5
553
330
1F
100
AcDbEntity
  8
LAY-10
  6
CONTINUOUS
 62
     7
100
AcDbLine
 10
2724.281080329899
 20
2464.806706678886
 30
0.0
 11
2724.281080329899
 21
1312.806706678914
 31
0.0
  0
LINE
  5
554
330
1F
100
AcDbEntity
  8
LAY-10
  6
CONTINUOUS
 62
     7
100
AcDbLine
 10
2778.781080329888
 20
2464.806706678901
 30
0.0
 11
2778.781080329888
 21
1312.8067066789
 31
0.0
  0
LINE
  5
555
330
1F
100
AcDbEntity
  8
LAY-10
  6
CONTINUOUS
 62
     7
100
AcDbLine
 10
2774.781080329889
 20
1323.3067066789
 30
0.0
 11
2774.781080329889
 21
2454.306706678902
 31
0.0
  0
LINE
  5
556
330
1F
100
AcDbEntity
  8
LAY-10
  6
CONTINUOUS
 62
     7
100
AcDbLine
 10
2772.78108032989
 20
1318.616290919076
 30
0.0
 11
2772.78108032989
 21
2458.997122438725
 31
0.0
  0
LINE
  5
557
330
1F
100
AcDbEntity
  8
LAY-10
  6
CONTINUOUS
 62
     7
100
AcDbLine
 10
2807.881080329876
 20
2232.306706678918
 30
0.0
 11
2807.881080329876
 21
2212.306706678918
 31
0.0
  0
LINE
  5
558
330
1F
100
AcDbEntity
  8
LAY-10
  6
CONTINUOUS
 62
     7
100
AcDbLine
 10
2807.881080329876
 20
2102.306706678918
 30
0.0
 11
2807.881080329876
 21
2082.306706678918
 31
0.0
  0
LINE
  5
559
330
1F
100
AcDbEntity
  8
LAY-10
  6
CONTINUOUS
 62
     7
100
AcDbLine
 10
2800.881080329873
 20
2082.306706678918
 30
0.0
 11
2808.881080329876
 21
2082.306706678918
 31
0.0
  0
LINE
  5
55A
330
1F
100
AcDbEntity
  8
LAY-10
  6
CONTINUOUS
 62
     7
100
AcDbLine
 10
2800.881080329873
 20
2232.306706678918
 30
0.0
 11
2808.881080329876
 21
2232.306706678918
 31
0.0
  0
LINE
  5
55B
330
1F
100
AcDbEntity
  8
LAY-10
  6
CONTINUOUS
 62
     7
100
AcDbLine
 10
2800.881080329873
 20
2212.306706678918
 30
0.0
 11
2808.881080329876
 21
2212.306706678918
 31
0.0
  0
LINE
  5
55C
330
1F
100
AcDbEntity
  8
LAY-10
  6
CONTINUOUS
 62
     7
100
AcDbLine
 10
2802.881080329875
 20
2232.306706678918
 30
0.0
 11
2802.881080329875
 21
2242.606706678916
 31
0.0
  0
LINE
  5
55D
330
1F
100
AcDbEntity
  8
LAY-10
  6
CONTINUOUS
 62
     7
100
AcDbLine
 10
2802.881080329875
 20
2102.306706678918
 30
0.0
 11
2802.881080329875
 21
2212.306706678918
 31
0.0
  0
LINE
  5
55E
330
1F
100
AcDbEntity
  8
LAY-10
  6
CONTINUOUS
 62
     7
100
AcDbLine
 10
2802.881080329875
 20
2072.306706678918
 30
0.0
 11
2802.881080329875
 21
2082.306706678918
 31
0.0
  0
LINE
  5
55F
330
1F
100
AcDbEntity
  8
LAY-10
  6
CONTINUOUS
 62
     7
100
AcDbLine
 10
2800.881080329873
 20
2212.306706678918
 30
0.0
 11
2800.881080329873
 21
2232.306706678918
 31
0.0
  0
LINE
  5
560
330
1F
100
AcDbEntity
  8
LAY-10
  6
CONTINUOUS
 62
     7
100
AcDbLine
 10
2800.881080329873
 20
2082.306706678918
 30
0.0
 11
2800.881080329873
 21
2102.306706678918
 31
0.0
  0
LINE
  5
561
330
1F
100
AcDbEntity
  8
LAY-10
  6
CONTINUOUS
 62
     7
100
AcDbLine
 10
2800.881080329873
 20
2102.306706678918
 30
0.0
 11
2808.881080329876
 21
2102.306706678918
 31
0.0
  0
LINE
  5
562
330
1F
100
AcDbEntity
  8
LAY-10
  6
CONTINUOUS
 62
     7
100
AcDbLine
 10
2802.881080329875
 20
2242.606706678916
 30
0.0
 11
2808.881080329876
 21
2242.606706678916
 31
0.0
  0
LINE
  5
563
330
1F
100
AcDbEntity
  8
LAY-10
  6
CONTINUOUS
 62
     7
100
AcDbLine
 10
2802.881080329875
 20
2072.306706678918
 30
0.0
 11
2808.881080329876
 21
2072.306706678918
 31
0.0
  0
ARC
  5
564
330
1F
100
AcDbEntity
  8
LAY-10
  6
CONTINUOUS
 62
     7
100
AcDbCircle
 10
2805.881080329878
 20
2204.306706678916
 30
0.0
 40
3.000000000000003
100
AcDbArc
 50
180.0
 51
0.0
  0
ARC
  5
565
330
1F
100
AcDbEntity
  8
LAY-10
  6
CONTINUOUS
 62
     7
100
AcDbCircle
 10
2805.881080329878
 20
2110.306706678916
 30
0.0
 40
3.000000000000003
100
AcDbArc
 50
0.0
 51
180.0
  0
LINE
  5
566
330
1F
100
AcDbEntity
  8
LAY-10
  6
CONTINUOUS
 62
     7
100
AcDbLine
 10
2807.881080329876
 20
1545.30670667898
 30
0.0
 11
2807.881080329876
 21
1565.30670667898
 31
0.0
  0
LINE
  5
567
330
1F
100
AcDbEntity
  8
LAY-10
  6
CONTINUOUS
 62
     7
100
AcDbLine
 10
2807.881080329876
 20
1675.30670667898
 30
0.0
 11
2807.881080329876
 21
1695.30670667898
 31
0.0
  0
LINE
  5
568
330
1F
100
AcDbEntity
  8
LAY-10
  6
CONTINUOUS
 62
     7
100
AcDbLine
 10
2800.881080329873
 20
1695.30670667898
 30
0.0
 11
2808.881080329876
 21
1695.30670667898
 31
0.0
  0
LINE
  5
569
330
1F
100
AcDbEntity
  8
LAY-10
  6
CONTINUOUS
 62
     7
100
AcDbLine
 10
2800.881080329873
 20
1545.30670667898
 30
0.0
 11
2808.881080329876
 21
1545.30670667898
 31
0.0
  0
LINE
  5
56A
330
1F
100
AcDbEntity
  8
LAY-10
  6
CONTINUOUS
 62
     7
100
AcDbLine
 10
2800.881080329873
 20
1565.30670667898
 30
0.0
 11
2808.881080329876
 21
1565.30670667898
 31
0.0
  0
LINE
  5
56B
330
1F
100
AcDbEntity
  8
LAY-10
  6
CONTINUOUS
 62
     7
100
AcDbLine
 10
2802.881080329875
 20
1545.30670667898
 30
0.0
 11
2802.881080329875
 21
1535.006706678983
 31
0.0
  0
LINE
  5
56C
330
1F
100
AcDbEntity
  8
LAY-10
  6
CONTINUOUS
 62
     7
100
AcDbLine
 10
2802.881080329875
 20
1675.30670667898
 30
0.0
 11
2802.881080329875
 21
1565.30670667898
 31
0.0
  0
LINE
  5
56D
330
1F
100
AcDbEntity
  8
LAY-10
  6
CONTINUOUS
 62
     7
100
AcDbLine
 10
2802.881080329875
 20
1705.30670667898
 30
0.0
 11
2802.881080329875
 21
1695.30670667898
 31
0.0
  0
LINE
  5
56E
330
1F
100
AcDbEntity
  8
LAY-10
  6
CONTINUOUS
 62
     7
100
AcDbLine
 10
2800.881080329873
 20
1565.30670667898
 30
0.0
 11
2800.881080329873
 21
1545.30670667898
 31
0.0
  0
LINE
  5
56F
330
1F
100
AcDbEntity
  8
LAY-10
  6
CONTINUOUS
 62
     7
100
AcDbLine
 10
2800.881080329873
 20
1695.30670667898
 30
0.0
 11
2800.881080329873
 21
1675.30670667898
 31
0.0
  0
LINE
  5
570
330
1F
100
AcDbEntity
  8
LAY-10
  6
CONTINUOUS
 62
     7
100
AcDbLine
 10
2800.881080329873
 20
1675.30670667898
 30
0.0
 11
2808.881080329876
 21
1675.30670667898
 31
0.0
  0
LINE
  5
571
330
1F
100
AcDbEntity
  8
LAY-10
  6
CONTINUOUS
 62
     7
100
AcDbLine
 10
2802.881080329875
 20
1535.006706678983
 30
0.0
 11
2808.881080329876
 21
1535.006706678983
 31
0.0
  0
LINE
  5
572
330
1F
100
AcDbEntity
  8
LAY-10
  6
CONTINUOUS
 62
     7
100
AcDbLine
 10
2802.881080329875
 20
1705.30670667898
 30
0.0
 11
2808.881080329876
 21
1705.30670667898
 31
0.0
  0
ARC
  5
573
330
1F
100
AcDbEntity
  8
LAY-10
  6
CONTINUOUS
 62
     7
100
AcDbCircle
 10
2805.881080329878
 20
1573.306706678982
 30
0.0
 40
3.000000000000003
100
AcDbArc
 50
0.0
 51
180.0
  0
ARC
  5
574
330
1F
100
AcDbEntity
  8
LAY-10
  6
CONTINUOUS
 62
     7
100
AcDbCircle
 10
2805.881080329878
 20
1667.306706678982
 30
0.0
 40
3.000000000000003
100
AcDbArc
 50
180.0
 51
0.0
  0
LINE
  5
575
330
1F
100
AcDbEntity
  8
LAY-10
  6
CONTINUOUS
 62
     7
100
AcDbLine
 10
2728.78108032989
 20
2179.056706678901
 30
0.0
 11
2772.78108032989
 21
2179.056706678901
 31
0.0
  0
LINE
  5
576
330
1F
100
AcDbEntity
  8
LAY-10
  6
CONTINUOUS
 62
     7
100
AcDbLine
 10
2728.78108032989
 20
2174.5567066789
 30
0.0
 11
2772.78108032989
 21
2174.5567066789
 31
0.0
  0
LINE
  5
577
330
1F
100
AcDbEntity
  8
LAY-10
  6
CONTINUOUS
 62
     7
100
AcDbLine
 10
2728.78108032989
 20
1598.556706678998
 30
0.0
 11
2772.78108032989
 21
1598.556706678998
 31
0.0
  0
LINE
  5
578
330
1F
100
AcDbEntity
  8
LAY-10
  6
CONTINUOUS
 62
     7
100
AcDbLine
 10
2728.78108032989
 20
1603.056706678999
 30
0.0
 11
2772.78108032989
 21
1603.056706678999
 31
0.0
  0
LINE
  5
579
330
1F
100
AcDbEntity
  8
LAY-10
  6
CONTINUOUS
 62
     7
100
AcDbLine
 10
230.2810803298601
 20
936.9067066787829
 30
0.0
 11
644.28108032986
 21
936.9067066787829
 31
0.0
  0
LINE
  5
57A
330
1F
100
AcDbEntity
  8
LAY-10
  6
CONTINUOUS
 62
     7
100
AcDbLine
 10
230.2810803298601
 20
932.4067066787837
 30
0.0
 11
644.28108032986
 21
932.4067066787837
 31
0.0
  0
ARC
  5
57B
330
1F
100
AcDbEntity
  8
LAY-10
  6
CONTINUOUS
 62
     7
100
AcDbCircle
 10
240.7810803298601
 20
892.9067066787783
 30
0.0
 40
6.500000000000004
100
AcDbArc
 50
180.0
 51
270.0000000000002
  0
ARC
  5
57C
330
1F
100
AcDbEntity
  8
LAY-10
  6
CONTINUOUS
 62
     7
100
AcDbCircle
 10
231.2810803298601
 20
929.4067066787784
 30
0.0
 40
3.000000000000003
100
AcDbArc
 50
0.0
 51
90.00000000000001
  0
ARC
  5
57D
330
1F
100
AcDbEntity
  8
LAY-10
  6
CONTINUOUS
 62
     7
100
AcDbCircle
 10
277.281080329861
 20
883.4067066787801
 30
0.0
 40
3.000000000000003
100
AcDbArc
 50
0.0
 51
90.00000000000001
  0
ARC
  5
57E
330
1F
100
AcDbEntity
  8
LAY-10
  6
CONTINUOUS
 62
     7
100
AcDbCircle
 10
597.2810803298628
 20
883.4067066787801
 30
0.0
 40
3.000000000000003
100
AcDbArc
 50
90.00000000000001
 51
180.0
  0
ARC
  5
57F
330
1F
100
AcDbEntity
  8
LAY-10
  6
CONTINUOUS
 62
     7
100
AcDbCircle
 10
643.2810803298637
 20
929.4067066787784
 30
0.0
 40
3.000000000000003
100
AcDbArc
 50
90.00000000000001
 51
180.0
  0
LINE
  5
580
330
1F
100
AcDbEntity
  8
LAY-10
  6
CONTINUOUS
 62
     7
100
AcDbLine
 10
230.281080329861
 20
882.4067066787819
 30
0.0
 11
230.281080329861
 21
936.9067066787829
 31
0.0
  0
LINE
  5
581
330
1F
100
AcDbEntity
  8
LAY-10
  6
CONTINUOUS
 62
     7
100
AcDbLine
 10
644.2810803298628
 20
882.4067066787819
 30
0.0
 11
644.2810803298628
 21
936.9067066787801
 31
0.0
  0
LINE
  5
582
330
1F
100
AcDbEntity
  8
LAY-10
  6
CONTINUOUS
 62
     7
100
AcDbLine
 10
339.5310803298543
 20
932.4067066787837
 30
0.0
 11
339.5310803298543
 21
888.4067066787838
 31
0.0
  0
LINE
  5
583
330
1F
100
AcDbEntity
  8
LAY-10
  6
CONTINUOUS
 62
     7
100
AcDbLine
 10
335.0310803298659
 20
932.4067066787837
 30
0.0
 11
335.0310803298659
 21
888.4067066787838
 31
0.0
  0
LINE
  5
584
330
1F
100
AcDbEntity
  8
LAY-10
  6
CONTINUOUS
 62
     7
100
AcDbLine
 10
539.5310803298541
 20
932.4067066787837
 30
0.0
 11
539.5310803298541
 21
888.4067066787838
 31
0.0
  0
LINE
  5
585
330
1F
100
AcDbEntity
  8
LAY-10
  6
CONTINUOUS
 62
     7
100
AcDbLine
 10
535.0310803298657
 20
932.4067066787837
 30
0.0
 11
535.0310803298657
 21
888.4067066787838
 31
0.0
  0
LINE
  5
586
330
1F
100
AcDbEntity
  8
LAY-10
  6
CONTINUOUS
 62
     7
100
AcDbLine
 10
280.281080329861
 20
882.4067066787828
 30
0.0
 11
280.281080329861
 21
883.4067066787801
 31
0.0
  0
LINE
  5
587
330
1F
100
AcDbEntity
  8
LAY-10
  6
CONTINUOUS
 62
     7
100
AcDbLine
 10
594.2810803298628
 20
882.4067066787819
 30
0.0
 11
594.2810803298628
 21
883.4067066787801
 31
0.0
  0
LINE
  5
588
330
1F
100
AcDbEntity
  8
LAY-10
  6
CONTINUOUS
 62
     7
100
AcDbLine
 10
633.7810803298628
 20
886.4067066787783
 30
0.0
 11
240.7810803298601
 21
886.4067066787783
 31
0.0
  0
LINE
  5
589
330
1F
100
AcDbEntity
  8
LAY-10
  6
CONTINUOUS
 62
     7
100
AcDbLine
 10
236.0906645700348
 20
888.4067066787801
 30
0.0
 11
638.4714960896883
 21
888.4067066787801
 31
0.0
  0
LINE
  5
58A
330
1F
100
AcDbEntity
  8
LAY-10
  6
CONTINUOUS
 62
     7
100
AcDbLine
 10
234.281080329861
 20
892.9067066787783
 30
0.0
 11
234.281080329861
 21
932.4067066787837
 31
0.0
  0
LINE
  5
58B
330
1F
100
AcDbEntity
  8
LAY-10
  6
CONTINUOUS
 62
     7
100
AcDbLine
 10
640.2810803298628
 20
892.9067066787783
 30
0.0
 11
640.2810803298628
 21
932.4067066787837
 31
0.0
  0
ARC
  5
58C
330
1F
100
AcDbEntity
  8
LAY-10
  6
CONTINUOUS
 62
     7
100
AcDbCircle
 10
633.7810803298628
 20
892.9067066787783
 30
0.0
 40
6.500000000000004
100
AcDbArc
 50
270.0000000000002
 51
0.0
  0
LINE
  5
58D
330
1F
100
AcDbEntity
  8
LAY-10
  6
CONTINUOUS
 62
     7
100
AcDbLine
 10
646.2810803298598
 20
936.9067066787829
 30
0.0
 11
1060.28108032986
 21
936.9067066787829
 31
0.0
  0
LINE
  5
58E
330
1F
100
AcDbEntity
  8
LAY-10
  6
CONTINUOUS
 62
     7
100
AcDbLine
 10
646.2810803298598
 20
932.4067066787837
 30
0.0
 11
1060.28108032986
 21
932.4067066787837
 31
0.0
  0
ARC
  5
58F
330
1F
100
AcDbEntity
  8
LAY-10
  6
CONTINUOUS
 62
     7
100
AcDbCircle
 10
656.7810803298598
 20
892.9067066787783
 30
0.0
 40
6.500000000000004
100
AcDbArc
 50
180.0
 51
270.0000000000002
  0
ARC
  5
590
330
1F
100
AcDbEntity
  8
LAY-10
  6
CONTINUOUS
 62
     7
100
AcDbCircle
 10
647.2810803298598
 20
929.4067066787784
 30
0.0
 40
3.000000000000003
100
AcDbArc
 50
0.0
 51
90.00000000000001
  0
ARC
  5
591
330
1F
100
AcDbEntity
  8
LAY-10
  6
CONTINUOUS
 62
     7
100
AcDbCircle
 10
693.2810803298607
 20
883.4067066787801
 30
0.0
 40
3.000000000000003
100
AcDbArc
 50
0.0
 51
90.00000000000001
  0
ARC
  5
592
330
1F
100
AcDbEntity
  8
LAY-10
  6
CONTINUOUS
 62
     7
100
AcDbCircle
 10
1013.281080329863
 20
883.4067066787801
 30
0.0
 40
3.000000000000003
100
AcDbArc
 50
90.00000000000001
 51
180.0
  0
ARC
  5
593
330
1F
100
AcDbEntity
  8
LAY-10
  6
CONTINUOUS
 62
     7
100
AcDbCircle
 10
1059.281080329863
 20
929.4067066787784
 30
0.0
 40
3.000000000000003
100
AcDbArc
 50
90.00000000000001
 51
180.0
  0
LINE
  5
594
330
1F
100
AcDbEntity
  8
LAY-10
  6
CONTINUOUS
 62
     7
100
AcDbLine
 10
646.2810803298607
 20
882.4067066787819
 30
0.0
 11
646.2810803298607
 21
936.9067066787829
 31
0.0
  0
LINE
  5
595
330
1F
100
AcDbEntity
  8
LAY-10
  6
CONTINUOUS
 62
     7
100
AcDbLine
 10
1060.281080329863
 20
882.4067066787819
 30
0.0
 11
1060.281080329863
 21
936.9067066787801
 31
0.0
  0
LINE
  5
596
330
1F
100
AcDbEntity
  8
LAY-10
  6
CONTINUOUS
 62
     7
100
AcDbLine
 10
755.531080329854
 20
932.4067066787837
 30
0.0
 11
755.531080329854
 21
888.4067066787838
 31
0.0
  0
LINE
  5
597
330
1F
100
AcDbEntity
  8
LAY-10
  6
CONTINUOUS
 62
     7
100
AcDbLine
 10
751.0310803298656
 20
932.4067066787837
 30
0.0
 11
751.0310803298656
 21
888.4067066787838
 31
0.0
  0
LINE
  5
598
330
1F
100
AcDbEntity
  8
LAY-10
  6
CONTINUOUS
 62
     7
100
AcDbLine
 10
955.5310803298539
 20
932.4067066787837
 30
0.0
 11
955.5310803298539
 21
888.4067066787838
 31
0.0
  0
LINE
  5
599
330
1F
100
AcDbEntity
  8
LAY-10
  6
CONTINUOUS
 62
     7
100
AcDbLine
 10
951.0310803298655
 20
932.4067066787837
 30
0.0
 11
951.0310803298655
 21
888.4067066787838
 31
0.0
  0
LINE
  5
59A
330
1F
100
AcDbEntity
  8
LAY-10
  6
CONTINUOUS
 62
     7
100
AcDbLine
 10
696.2810803298607
 20
882.4067066787828
 30
0.0
 11
696.2810803298607
 21
883.4067066787801
 31
0.0
  0
LINE
  5
59B
330
1F
100
AcDbEntity
  8
LAY-10
  6
CONTINUOUS
 62
     7
100
AcDbLine
 10
1010.281080329863
 20
882.4067066787819
 30
0.0
 11
1010.281080329863
 21
883.4067066787801
 31
0.0
  0
LINE
  5
59C
330
1F
100
AcDbEntity
  8
LAY-10
  6
CONTINUOUS
 62
     7
100
AcDbLine
 10
1049.781080329863
 20
886.4067066787783
 30
0.0
 11
656.7810803298598
 21
886.4067066787783
 31
0.0
  0
LINE
  5
59D
330
1F
100
AcDbEntity
  8
LAY-10
  6
CONTINUOUS
 62
     7
100
AcDbLine
 10
652.0906645700345
 20
888.4067066787801
 30
0.0
 11
1054.471496089688
 21
888.4067066787801
 31
0.0
  0
LINE
  5
59E
330
1F
100
AcDbEntity
  8
LAY-10
  6
CONTINUOUS
 62
     7
100
AcDbLine
 10
650.2810803298607
 20
892.9067066787783
 30
0.0
 11
650.2810803298607
 21
932.4067066787837
 31
0.0
  0
LINE
  5
59F
330
1F
100
AcDbEntity
  8
LAY-10
  6
CONTINUOUS
 62
     7
100
AcDbLine
 10
1056.281080329863
 20
892.9067066787783
 30
0.0
 11
1056.281080329863
 21
932.4067066787837
 31
0.0
  0
ARC
  5
5A0
330
1F
100
AcDbEntity
  8
LAY-10
  6
CONTINUOUS
 62
     7
100
AcDbCircle
 10
1049.781080329863
 20
892.9067066787783
 30
0.0
 40
6.500000000000004
100
AcDbArc
 50
270.0000000000002
 51
0.0
  0
LINE
  5
5A1
330
1F
100
AcDbEntity
  8
LAY-10
  6
CONTINUOUS
 62
     7
100
AcDbLine
 10
1062.2810803298
 20
936.906706678883
 30
0.0
 11
1476.2810803298
 21
936.906706678883
 31
0.0
  0
LINE
  5
5A2
330
1F
100
AcDbEntity
  8
LAY-10
  6
CONTINUOUS
 62
     7
100
AcDbLine
 10
1062.2810803298
 20
932.4067066788838
 30
0.0
 11
1476.2810803298
 21
932.4067066788838
 31
0.0
  0
ARC
  5
5A3
330
1F
100
AcDbEntity
  8
LAY-10
  6
CONTINUOUS
 62
     7
100
AcDbCircle
 10
1072.7810803298
 20
892.9067066788783
 30
0.0
 40
6.500000000000004
100
AcDbArc
 50
180.0
 51
270.0000000000002
  0
ARC
  5
5A4
330
1F
100
AcDbEntity
  8
LAY-10
  6
CONTINUOUS
 62
     7
100
AcDbCircle
 10
1063.2810803298
 20
929.4067066788784
 30
0.0
 40
3.000000000000003
100
AcDbArc
 50
0.0
 51
90.00000000000001
  0
ARC
  5
5A5
330
1F
100
AcDbEntity
  8
LAY-10
  6
CONTINUOUS
 62
     7
100
AcDbCircle
 10
1109.281080329801
 20
883.4067066788801
 30
0.0
 40
3.000000000000003
100
AcDbArc
 50
0.0
 51
90.00000000000001
  0
ARC
  5
5A6
330
1F
100
AcDbEntity
  8
LAY-10
  6
CONTINUOUS
 62
     7
100
AcDbCircle
 10
1429.281080329803
 20
883.4067066788801
 30
0.0
 40
3.000000000000003
100
AcDbArc
 50
90.00000000000001
 51
180.0
  0
ARC
  5
5A7
330
1F
100
AcDbEntity
  8
LAY-10
  6
CONTINUOUS
 62
     7
100
AcDbCircle
 10
1475.281080329804
 20
929.4067066788784
 30
0.0
 40
3.000000000000003
100
AcDbArc
 50
90.00000000000001
 51
180.0
  0
LINE
  5
5A8
330
1F
100
AcDbEntity
  8
LAY-10
  6
CONTINUOUS
 62
     7
100
AcDbLine
 10
1062.281080329801
 20
882.406706678882
 30
0.0
 11
1062.281080329801
 21
936.906706678883
 31
0.0
  0
LINE
  5
5A9
330
1F
100
AcDbEntity
  8
LAY-10
  6
CONTINUOUS
 62
     7
100
AcDbLine
 10
1476.281080329803
 20
882.406706678882
 30
0.0
 11
1476.281080329803
 21
936.9067066788801
 31
0.0
  0
LINE
  5
5AA
330
1F
100
AcDbEntity
  8
LAY-10
  6
CONTINUOUS
 62
     7
100
AcDbLine
 10
1171.531080329794
 20
932.4067066788838
 30
0.0
 11
1171.531080329794
 21
888.4067066788839
 31
0.0
  0
LINE
  5
5AB
330
1F
100
AcDbEntity
  8
LAY-10
  6
CONTINUOUS
 62
     7
100
AcDbLine
 10
1167.031080329806
 20
932.4067066788838
 30
0.0
 11
1167.031080329806
 21
888.4067066788839
 31
0.0
  0
LINE
  5
5AC
330
1F
100
AcDbEntity
  8
LAY-10
  6
CONTINUOUS
 62
     7
100
AcDbLine
 10
1371.531080329794
 20
932.4067066788838
 30
0.0
 11
1371.531080329794
 21
888.4067066788839
 31
0.0
  0
LINE
  5
5AD
330
1F
100
AcDbEntity
  8
LAY-10
  6
CONTINUOUS
 62
     7
100
AcDbLine
 10
1367.031080329805
 20
932.4067066788838
 30
0.0
 11
1367.031080329805
 21
888.4067066788839
 31
0.0
  0
LINE
  5
5AE
330
1F
100
AcDbEntity
  8
LAY-10
  6
CONTINUOUS
 62
     7
100
AcDbLine
 10
1112.281080329801
 20
882.4067066788829
 30
0.0
 11
1112.281080329801
 21
883.4067066788801
 31
0.0
  0
LINE
  5
5AF
330
1F
100
AcDbEntity
  8
LAY-10
  6
CONTINUOUS
 62
     7
100
AcDbLine
 10
1426.281080329803
 20
882.406706678882
 30
0.0
 11
1426.281080329803
 21
883.4067066788801
 31
0.0
  0
LINE
  5
5B0
330
1F
100
AcDbEntity
  8
LAY-10
  6
CONTINUOUS
 62
     7
100
AcDbLine
 10
1465.781080329803
 20
886.4067066788783
 30
0.0
 11
1072.7810803298
 21
886.4067066788783
 31
0.0
  0
LINE
  5
5B1
330
1F
100
AcDbEntity
  8
LAY-10
  6
CONTINUOUS
 62
     7
100
AcDbLine
 10
1068.090664569975
 20
888.4067066788801
 30
0.0
 11
1470.471496089628
 21
888.4067066788801
 31
0.0
  0
LINE
  5
5B2
330
1F
100
AcDbEntity
  8
LAY-10
  6
CONTINUOUS
 62
     7
100
AcDbLine
 10
1066.281080329801
 20
892.9067066788783
 30
0.0
 11
1066.281080329801
 21
932.4067066788838
 31
0.0
  0
LINE
  5
5B3
330
1F
100
AcDbEntity
  8
LAY-10
  6
CONTINUOUS
 62
     7
100
AcDbLine
 10
1472.281080329803
 20
892.9067066788783
 30
0.0
 11
1472.281080329803
 21
932.4067066788838
 31
0.0
  0
ARC
  5
5B4
330
1F
100
AcDbEntity
  8
LAY-10
  6
CONTINUOUS
 62
     7
100
AcDbCircle
 10
1465.781080329803
 20
892.9067066788783
 30
0.0
 40
6.500000000000004
100
AcDbArc
 50
270.0000000000002
 51
0.0
  0
LINE
  5
5B5
330
1F
100
AcDbEntity
  8
LAY-10
  6
CONTINUOUS
 62
     7
100
AcDbLine
 10
1478.2810803299
 20
936.9067066787829
 30
0.0
 11
1892.2810803299
 21
936.9067066787829
 31
0.0
  0
LINE
  5
5B6
330
1F
100
AcDbEntity
  8
LAY-10
  6
CONTINUOUS
 62
     7
100
AcDbLine
 10
1478.2810803299
 20
932.4067066787837
 30
0.0
 11
1892.2810803299
 21
932.4067066787837
 31
0.0
  0
ARC
  5
5B7
330
1F
100
AcDbEntity
  8
LAY-10
  6
CONTINUOUS
 62
     7
100
AcDbCircle
 10
1488.7810803299
 20
892.9067066787783
 30
0.0
 40
6.500000000000004
100
AcDbArc
 50
180.0
 51
270.0000000000002
  0
ARC
  5
5B8
330
1F
100
AcDbEntity
  8
LAY-10
  6
CONTINUOUS
 62
     7
100
AcDbCircle
 10
1479.2810803299
 20
929.4067066787784
 30
0.0
 40
3.000000000000003
100
AcDbArc
 50
0.0
 51
90.00000000000001
  0
ARC
  5
5B9
330
1F
100
AcDbEntity
  8
LAY-10
  6
CONTINUOUS
 62
     7
100
AcDbCircle
 10
1525.281080329901
 20
883.4067066787801
 30
0.0
 40
3.000000000000003
100
AcDbArc
 50
0.0
 51
90.00000000000001
  0
ARC
  5
5BA
330
1F
100
AcDbEntity
  8
LAY-10
  6
CONTINUOUS
 62
     7
100
AcDbCircle
 10
1845.281080329903
 20
883.4067066787801
 30
0.0
 40
3.000000000000003
100
AcDbArc
 50
90.00000000000001
 51
180.0
  0
ARC
  5
5BB
330
1F
100
AcDbEntity
  8
LAY-10
  6
CONTINUOUS
 62
     7
100
AcDbCircle
 10
1891.281080329903
 20
929.4067066787784
 30
0.0
 40
3.000000000000003
100
AcDbArc
 50
90.00000000000001
 51
180.0
  0
LINE
  5
5BC
330
1F
100
AcDbEntity
  8
LAY-10
  6
CONTINUOUS
 62
     7
100
AcDbLine
 10
1478.281080329901
 20
882.4067066787819
 30
0.0
 11
1478.281080329901
 21
936.9067066787829
 31
0.0
  0
LINE
  5
5BD
330
1F
100
AcDbEntity
  8
LAY-10
  6
CONTINUOUS
 62
     7
100
AcDbLine
 10
1892.281080329903
 20
882.4067066787819
 30
0.0
 11
1892.281080329903
 21
936.9067066787801
 31
0.0
  0
LINE
  5
5BE
330
1F
100
AcDbEntity
  8
LAY-10
  6
CONTINUOUS
 62
     7
100
AcDbLine
 10
1587.531080329894
 20
932.4067066787837
 30
0.0
 11
1587.531080329894
 21
888.4067066787838
 31
0.0
  0
LINE
  5
5BF
330
1F
100
AcDbEntity
  8
LAY-10
  6
CONTINUOUS
 62
     7
100
AcDbLine
 10
1583.031080329906
 20
932.4067066787837
 30
0.0
 11
1583.031080329906
 21
888.4067066787838
 31
0.0
  0
LINE
  5
5C0
330
1F
100
AcDbEntity
  8
LAY-10
  6
CONTINUOUS
 62
     7
100
AcDbLine
 10
1787.531080329894
 20
932.4067066787837
 30
0.0
 11
1787.531080329894
 21
888.4067066787838
 31
0.0
  0
LINE
  5
5C1
330
1F
100
AcDbEntity
  8
LAY-10
  6
CONTINUOUS
 62
     7
100
AcDbLine
 10
1783.031080329906
 20
932.4067066787837
 30
0.0
 11
1783.031080329906
 21
888.4067066787838
 31
0.0
  0
LINE
  5
5C2
330
1F
100
AcDbEntity
  8
LAY-10
  6
CONTINUOUS
 62
     7
100
AcDbLine
 10
1528.281080329901
 20
882.4067066787828
 30
0.0
 11
1528.281080329901
 21
883.4067066787801
 31
0.0
  0
LINE
  5
5C3
330
1F
100
AcDbEntity
  8
LAY-10
  6
CONTINUOUS
 62
     7
100
AcDbLine
 10
1842.281080329903
 20
882.4067066787819
 30
0.0
 11
1842.281080329903
 21
883.4067066787801
 31
0.0
  0
LINE
  5
5C4
330
1F
100
AcDbEntity
  8
LAY-10
  6
CONTINUOUS
 62
     7
100
AcDbLine
 10
1881.781080329903
 20
886.4067066787783
 30
0.0
 11
1488.7810803299
 21
886.4067066787783
 31
0.0
  0
LINE
  5
5C5
330
1F
100
AcDbEntity
  8
LAY-10
  6
CONTINUOUS
 62
     7
100
AcDbLine
 10
1484.090664570075
 20
888.4067066787801
 30
0.0
 11
1886.471496089728
 21
888.4067066787801
 31
0.0
  0
LINE
  5
5C6
330
1F
100
AcDbEntity
  8
LAY-10
  6
CONTINUOUS
 62
     7
100
AcDbLine
 10
1482.281080329901
 20
892.9067066787783
 30
0.0
 11
1482.281080329901
 21
932.4067066787837
 31
0.0
  0
LINE
  5
5C7
330
1F
100
AcDbEntity
  8
LAY-10
  6
CONTINUOUS
 62
     7
100
AcDbLine
 10
1888.281080329903
 20
892.9067066787783
 30
0.0
 11
1888.281080329903
 21
932.4067066787837
 31
0.0
  0
ARC
  5
5C8
330
1F
100
AcDbEntity
  8
LAY-10
  6
CONTINUOUS
 62
     7
100
AcDbCircle
 10
1881.781080329903
 20
892.9067066787783
 30
0.0
 40
6.500000000000004
100
AcDbArc
 50
270.0000000000002
 51
0.0
  0
LINE
  5
5C9
330
1F
100
AcDbEntity
  8
LAY-10
  6
CONTINUOUS
 62
     7
100
AcDbLine
 10
1894.2810803299
 20
936.9067066787829
 30
0.0
 11
2308.2810803299
 21
936.9067066787829
 31
0.0
  0
LINE
  5
5CA
330
1F
100
AcDbEntity
  8
LAY-10
  6
CONTINUOUS
 62
     7
100
AcDbLine
 10
1894.2810803299
 20
932.4067066787837
 30
0.0
 11
2308.2810803299
 21
932.4067066787837
 31
0.0
  0
ARC
  5
5CB
330
1F
100
AcDbEntity
  8
LAY-10
  6
CONTINUOUS
 62
     7
100
AcDbCircle
 10
1904.7810803299
 20
892.9067066787783
 30
0.0
 40
6.500000000000004
100
AcDbArc
 50
180.0
 51
270.0000000000002
  0
ARC
  5
5CC
330
1F
100
AcDbEntity
  8
LAY-10
  6
CONTINUOUS
 62
     7
100
AcDbCircle
 10
1895.2810803299
 20
929.4067066787784
 30
0.0
 40
3.000000000000003
100
AcDbArc
 50
0.0
 51
90.00000000000001
  0
ARC
  5
5CD
330
1F
100
AcDbEntity
  8
LAY-10
  6
CONTINUOUS
 62
     7
100
AcDbCircle
 10
1941.281080329901
 20
883.4067066787801
 30
0.0
 40
3.000000000000003
100
AcDbArc
 50
0.0
 51
90.00000000000001
  0
ARC
  5
5CE
330
1F
100
AcDbEntity
  8
LAY-10
  6
CONTINUOUS
 62
     7
100
AcDbCircle
 10
2261.281080329903
 20
883.4067066787801
 30
0.0
 40
3.000000000000003
100
AcDbArc
 50
90.00000000000001
 51
180.0
  0
ARC
  5
5CF
330
1F
100
AcDbEntity
  8
LAY-10
  6
CONTINUOUS
 62
     7
100
AcDbCircle
 10
2307.281080329903
 20
929.4067066787784
 30
0.0
 40
3.000000000000003
100
AcDbArc
 50
90.00000000000001
 51
180.0
  0
LINE
  5
5D0
330
1F
100
AcDbEntity
  8
LAY-10
  6
CONTINUOUS
 62
     7
100
AcDbLine
 10
1894.281080329901
 20
882.4067066787819
 30
0.0
 11
1894.281080329901
 21
936.9067066787829
 31
0.0
  0
LINE
  5
5D1
330
1F
100
AcDbEntity
  8
LAY-10
  6
CONTINUOUS
 62
     7
100
AcDbLine
 10
2308.281080329903
 20
882.4067066787819
 30
0.0
 11
2308.281080329903
 21
936.9067066787801
 31
0.0
  0
LINE
  5
5D2
330
1F
100
AcDbEntity
  8
LAY-10
  6
CONTINUOUS
 62
     7
100
AcDbLine
 10
2003.531080329894
 20
932.4067066787837
 30
0.0
 11
2003.531080329894
 21
888.4067066787838
 31
0.0
  0
LINE
  5
5D3
330
1F
100
AcDbEntity
  8
LAY-10
  6
CONTINUOUS
 62
     7
100
AcDbLine
 10
1999.031080329906
 20
932.4067066787837
 30
0.0
 11
1999.031080329906
 21
888.4067066787838
 31
0.0
  0
LINE
  5
5D4
330
1F
100
AcDbEntity
  8
LAY-10
  6
CONTINUOUS
 62
     7
100
AcDbLine
 10
2203.531080329894
 20
932.4067066787837
 30
0.0
 11
2203.531080329894
 21
888.4067066787838
 31
0.0
  0
LINE
  5
5D5
330
1F
100
AcDbEntity
  8
LAY-10
  6
CONTINUOUS
 62
     7
100
AcDbLine
 10
2199.031080329906
 20
932.4067066787837
 30
0.0
 11
2199.031080329906
 21
888.4067066787838
 31
0.0
  0
LINE
  5
5D6
330
1F
100
AcDbEntity
  8
LAY-10
  6
CONTINUOUS
 62
     7
100
AcDbLine
 10
1944.281080329901
 20
882.4067066787828
 30
0.0
 11
1944.281080329901
 21
883.4067066787801
 31
0.0
  0
LINE
  5
5D7
330
1F
100
AcDbEntity
  8
LAY-10
  6
CONTINUOUS
 62
     7
100
AcDbLine
 10
2258.281080329903
 20
882.4067066787819
 30
0.0
 11
2258.281080329903
 21
883.4067066787801
 31
0.0
  0
LINE
  5
5D8
330
1F
100
AcDbEntity
  8
LAY-10
  6
CONTINUOUS
 62
     7
100
AcDbLine
 10
2297.781080329903
 20
886.4067066787783
 30
0.0
 11
1904.7810803299
 21
886.4067066787783
 31
0.0
  0
LINE
  5
5D9
330
1F
100
AcDbEntity
  8
LAY-10
  6
CONTINUOUS
 62
     7
100
AcDbLine
 10
1900.090664570075
 20
888.4067066787801
 30
0.0
 11
2302.471496089728
 21
888.4067066787801
 31
0.0
  0
LINE
  5
5DA
330
1F
100
AcDbEntity
  8
LAY-10
  6
CONTINUOUS
 62
     7
100
AcDbLine
 10
1898.281080329901
 20
892.9067066787783
 30
0.0
 11
1898.281080329901
 21
932.4067066787837
 31
0.0
  0
LINE
  5
5DB
330
1F
100
AcDbEntity
  8
LAY-10
  6
CONTINUOUS
 62
     7
100
AcDbLine
 10
2304.281080329903
 20
892.9067066787783
 30
0.0
 11
2304.281080329903
 21
932.4067066787837
 31
0.0
  0
ARC
  5
5DC
330
1F
100
AcDbEntity
  8
LAY-10
  6
CONTINUOUS
 62
     7
100
AcDbCircle
 10
2297.781080329903
 20
892.9067066787783
 30
0.0
 40
6.500000000000004
100
AcDbArc
 50
270.0000000000002
 51
0.0
  0
ARC
  5
5DD
330
1F
100
AcDbEntity
  8
LAY-10
  6
CONTINUOUS
 62
     7
100
AcDbCircle
 10
2813.081080329876
 20
1426.806706678918
 30
0.0
 40
2.0
100
AcDbArc
 50
0.0
 51
90.00000000000001
  0
LINE
  5
5DE
330
1F
100
AcDbEntity
  8
LAY-10
  6
CONTINUOUS
 62
     7
100
AcDbLine
 10
2812.081080329875
 20
1428.806706678918
 30
0.0
 11
2813.081080329876
 21
1428.806706678918
 31
0.0
  0
LINE
  5
5DF
330
1F
100
AcDbEntity
  8
LAY-10
  6
CENTER
 62
     2
100
AcDbLine
 10
1269.281080329884
 20
1252.908221869101
 30
0.0
 11
1269.281080329884
 21
2524.705191488801
 31
0.0
  0
LINE
  5
5E0
330
1F
100
AcDbEntity
  8
LAY-10
  6
CENTER
 62
     2
100
AcDbLine
 10
1169.281080329932
 20
1345.661023449549
 30
0.0
 11
1169.281080329932
 21
1303.86102344955
 31
0.0
  0
LINE
  5
5E1
330
1F
100
AcDbEntity
  8
LAY-10
  6
CENTER
 62
     2
100
AcDbLine
 10
2294.281080329952
 20
1348.806706678909
 30
0.0
 11
2294.281080329952
 21
1380.806706678908
 31
0.0
  0
LINE
  5
5E2
330
1F
100
AcDbEntity
  8
LAY-10
  6
CENTER
 62
     2
100
AcDbLine
 10
2307.68108032995
 20
1363.806706678909
 30
0.0
 11
2279.281080329952
 21
1363.806706678909
 31
0.0
  0
LINE
  5
5E3
330
1F
100
AcDbEntity
  8
LAY-10
  6
CENTER
 62
     2
100
AcDbLine
 10
2294.281080330075
 20
1902.206706678923
 30
0.0
 11
2294.281080330075
 21
1873.806706678923
 31
0.0
  0
LINE
  5
5E4
330
1F
100
AcDbEntity
  8
LAY-10
  6
CENTER
 62
     2
100
AcDbLine
 10
2309.281080329879
 20
2413.806706678933
 30
0.0
 11
2277.281080329879
 21
2413.806706678934
 31
0.0
  0
LINE
  5
5E5
330
1F
100
AcDbEntity
  8
LAY-10
  6
CENTER
 62
     2
100
AcDbLine
 10
2294.281080329879
 20
2427.206706678933
 30
0.0
 11
2294.281080329879
 21
2398.806706678934
 31
0.0
  0
LINE
  5
5E6
330
1F
100
AcDbEntity
  8
LAY-10
  6
CENTER
 62
     2
100
AcDbLine
 10
170.3825955200318
 20
1888.806706678949
 30
0.0
 11
2368.179565139834
 21
1888.806706678949
 31
0.0
  0
LINE
  5
5E7
330
1F
100
AcDbEntity
  8
LAY-10
  6
CENTER
 62
     2
100
AcDbLine
 10
1019.281080329915
 20
2480.806706679047
 30
0.0
 11
1019.281080329915
 21
2522.606706679046
 31
0.0
  0
LINE
  5
5E8
330
1F
100
AcDbEntity
  8
LAY-10
  6
CENTER
 62
     2
100
AcDbLine
 10
1519.281080329915
 20
2480.806706679047
 30
0.0
 11
1519.281080329915
 21
2522.606706679046
 31
0.0
  0
LINE
  5
5E9
330
1F
100
AcDbEntity
  8
LAY-10
  6
CENTER
 62
     2
100
AcDbLine
 10
2019.281080329915
 20
2480.806706679047
 30
0.0
 11
2019.281080329915
 21
2522.606706679046
 31
0.0
  0
LINE
  5
5EA
330
1F
100
AcDbEntity
  8
LAY-10
  6
CENTER
 62
     2
100
AcDbLine
 10
519.2810803298535
 20
2480.806706679047
 30
0.0
 11
519.2810803298535
 21
2522.606706679046
 31
0.0
  0
LINE
  5
5EB
330
1F
100
AcDbEntity
  8
LAY-10
  6
CENTER
 62
     2
100
AcDbLine
 10
1019.281080329915
 20
1296.806706678851
 30
0.0
 11
1019.281080329915
 21
1255.006706678852
 31
0.0
  0
LINE
  5
5EC
330
1F
100
AcDbEntity
  8
LAY-10
  6
CENTER
 62
     2
100
AcDbLine
 10
1519.281080329915
 20
1296.806706678851
 30
0.0
 11
1519.281080329915
 21
1255.006706678852
 31
0.0
  0
LINE
  5
5ED
330
1F
100
AcDbEntity
  8
LAY-10
  6
CENTER
 62
     2
100
AcDbLine
 10
2019.281080329915
 20
1296.806706678852
 30
0.0
 11
2019.281080329915
 21
1255.006706678852
 31
0.0
  0
LINE
  5
5EE
330
1F
100
AcDbEntity
  8
LAY-10
  6
CENTER
 62
     2
100
AcDbLine
 10
519.2810803298535
 20
1296.806706678851
 30
0.0
 11
519.2810803298535
 21
1255.006706678852
 31
0.0
  0
LINE
  5
5EF
330
1F
100
AcDbEntity
  8
LAY-10
  6
CENTER
 62
     2
100
AcDbLine
 10
214.281080329888
 20
2138.80670667892
 30
0.0
 11
172.4810803298888
 21
2138.80670667892
 31
0.0
  0
LINE
  5
5F0
330
1F
100
AcDbEntity
  8
LAY-10
  6
CENTER
 62
     2
100
AcDbLine
 10
214.281080329888
 20
1638.806706678978
 30
0.0
 11
172.4810803298888
 21
1638.806706678978
 31
0.0
  0
LINE
  5
5F1
330
1F
100
AcDbEntity
  8
LAY-10
  6
CENTER
 62
     2
100
AcDbLine
 10
2324.281080329881
 20
2138.80670667892
 30
0.0
 11
2366.08108032988
 21
2138.80670667892
 31
0.0
  0
LINE
  5
5F2
330
1F
100
AcDbEntity
  8
LAY-10
  6
CENTER
 62
     2
100
AcDbLine
 10
2324.281080329881
 20
1638.806706678978
 30
0.0
 11
2366.08108032988
 21
1638.806706678978
 31
0.0
  0
LINE
  5
5F3
330
1F
100
AcDbEntity
  8
LAY-10
  6
CENTER
 62
     2
100
AcDbLine
 10
1766.781080329926
 20
1363.806706678838
 30
0.0
 11
1798.781080329923
 21
1363.806706678837
 31
0.0
  0
LINE
  5
5F4
330
1F
100
AcDbEntity
  8
LAY-10
  6
CENTER
 62
     2
100
AcDbLine
 10
1781.781080329926
 20
1350.406706678837
 30
0.0
 11
1781.781080329926
 21
1378.806706678837
 31
0.0
  0
LINE
  5
5F5
330
1F
100
AcDbEntity
  8
LAY-10
  6
CENTER
 62
     2
100
AcDbLine
 10
1781.781080329926
 20
2427.206706678933
 30
0.0
 11
1781.781080329926
 21
2398.806706678934
 31
0.0
  0
LINE
  5
5F6
330
1F
100
AcDbEntity
  8
LAY-10
  6
CENTER
 62
     2
100
AcDbLine
 10
1766.781080329926
 20
2413.806706678933
 30
0.0
 11
1798.781080329925
 21
2413.806706678934
 31
0.0
  0
LINE
  5
5F7
330
1F
100
AcDbEntity
  8
LAY-10
  6
CENTER
 62
     2
100
AcDbLine
 10
1254.281080329826
 20
1363.806706678838
 30
0.0
 11
1286.281080329823
 21
1363.806706678837
 31
0.0
  0
LINE
  5
5F8
330
1F
100
AcDbEntity
  8
LAY-10
  6
CENTER
 62
     2
100
AcDbLine
 10
418.7560803299023
 20
2439.806706678881
 30
0.0
 11
456.2560803299023
 21
2439.806706678881
 31
0.0
  0
LINE
  5
5F9
330
1F
100
AcDbEntity
  8
LAY-10
  6
CENTER
 62
     2
100
AcDbLine
 10
437.2810803299038
 20
2458.406706678883
 30
0.0
 11
437.2810803299038
 21
2419.506706678884
 31
0.0
  0
LINE
  5
5FA
330
1F
100
AcDbEntity
  8
LAY-10
  6
CENTER
 62
     2
100
AcDbLine
 10
834.7560803299024
 20
2439.806706678881
 30
0.0
 11
872.2560803299024
 21
2439.806706678881
 31
0.0
  0
LINE
  5
5FB
330
1F
100
AcDbEntity
  8
LAY-10
  6
CENTER
 62
     2
100
AcDbLine
 10
853.2810803299037
 20
2458.406706678883
 30
0.0
 11
853.2810803299037
 21
2419.506706678884
 31
0.0
  0
LINE
  5
5FC
330
1F
100
AcDbEntity
  8
LAY-10
  6
CENTER
 62
     2
100
AcDbLine
 10
1250.756080329882
 20
2439.806706678881
 30
0.0
 11
1288.256080329882
 21
2439.806706678881
 31
0.0
  0
LINE
  5
5FD
330
1F
100
AcDbEntity
  8
LAY-10
  6
CENTER
 62
     2
100
AcDbLine
 10
1269.281080329884
 20
2458.406706678883
 30
0.0
 11
1269.281080329884
 21
2419.506706678884
 31
0.0
  0
LINE
  5
5FE
330
1F
100
AcDbEntity
  8
LAY-10
  6
CENTER
 62
     2
100
AcDbLine
 10
418.7560803299032
 20
1337.806706678883
 30
0.0
 11
456.2560803299032
 21
1337.806706678883
 31
0.0
  0
LINE
  5
5FF
330
1F
100
AcDbEntity
  8
LAY-10
  6
CENTER
 62
     2
100
AcDbLine
 10
437.2810803299046
 20
1356.406706678884
 30
0.0
 11
437.2810803299046
 21
1317.506706678883
 31
0.0
  0
LINE
  5
600
330
1F
100
AcDbEntity
  8
LAY-10
  6
CENTER
 62
     2
100
AcDbLine
 10
834.7560803298834
 20
1337.806706678883
 30
0.0
 11
872.2560803298834
 21
1337.806706678883
 31
0.0
  0
LINE
  5
601
330
1F
100
AcDbEntity
  8
LAY-10
  6
CENTER
 62
     2
100
AcDbLine
 10
853.281080329885
 20
1356.406706678884
 30
0.0
 11
853.281080329885
 21
1317.506706678883
 31
0.0
  0
LINE
  5
602
330
1F
100
AcDbEntity
  8
LAY-10
  6
CENTER
 62
     2
100
AcDbLine
 10
1269.281080329831
 20
970.906706678903
 30
0.0
 11
1269.281080329831
 21
792.1067066789042
 31
0.0
  0
LINE
  5
603
330
1F
100
AcDbEntity
  8
LAY-10
  6
CENTER
 62
     2
100
AcDbLine
 10
2294.281080329829
 20
871.1067066789042
 30
0.0
 11
2294.281080329829
 21
824.0367066789045
 31
0.0
  0
LINE
  5
604
330
1F
100
AcDbEntity
  8
LAY-10
  6
CENTER
 62
     2
100
AcDbLine
 10
244.2810803298327
 20
871.1067066789042
 30
0.0
 11
244.2810803298327
 21
824.0367066789045
 31
0.0
  0
LINE
  5
605
330
1F
100
AcDbEntity
  8
LAY-10
  6
CENTER
 62
     2
100
AcDbLine
 10
2694.182595520042
 20
1888.806706678918
 30
0.0
 11
2872.982595520042
 21
1888.806706678918
 31
0.0
  0
LINE
  5
606
330
1F
100
AcDbEntity
  8
LAY-10
  6
CENTER
 62
     2
100
AcDbLine
 10
2786.182595520037
 20
2413.806706678918
 30
0.0
 11
2837.38259552004
 21
2413.806706678918
 31
0.0
  0
LINE
  5
607
330
1F
100
AcDbEntity
  8
LAY-10
  6
CENTER
 62
     2
100
AcDbLine
 10
2804.981080329875
 20
2475.106706678914
 30
0.0
 11
2804.981080329875
 21
2426.606706678917
 31
0.0
  0
LINE
  5
608
330
1F
100
AcDbEntity
  8
LAY-10
  6
CENTER
 62
     2
100
AcDbLine
 10
2786.182595520037
 20
1363.806706678916
 30
0.0
 11
2837.38259552004
 21
1363.806706678916
 31
0.0
  0
LINE
  5
609
330
1F
100
AcDbEntity
  8
LAY-10
  6
CENTER
 62
     2
100
AcDbLine
 10
2804.981080329875
 20
1302.506706678917
 30
0.0
 11
2804.981080329875
 21
1351.006706678917
 31
0.0
  0
DIMENSION
  5
60A
330
1F
100
AcDbEntity
  8
LAY-20
  6
CONTINUOUS
 62
     4
100
AcDbDimension
  2
*D29
 10
223.08108032983
 20
636.9067066788998
 30
0.0
 11
1269.281080329815
 21
661.9067066788997
 31
0.0
 70
   160
  3
ISO-25
100
AcDbAlignedDimension
 13
2315.4810803298
 23
839.9067066789003
 33
0.0
 14
223.08108032983
 24
839.9067066789003
 34
0.0
100
AcDbRotatedDimension
1001
ACAD
1000
DSTYLE
1002
{
1070
   270
1070
     2
1070
     6
1000
EX_BNORM
1070
     7
1000
EX_BNORM
1070
    41
1040
25.0
1070
    42
1040
15.0
1070
    44
1040
15.0
1070
    73
1070
     0
1070
    74
1070
     0
1070
    75
1070
     0
1070
    76
1070
     0
1070
    77
1070
     1
1070
    78
1070
     0
1070
   140
1040
31.181104
1070
   147
1040
0.0
1070
   173
1070
     1
1070
   176
1070
     4
1070
   177
1070
     4
1070
   178
1070
     7
1070
   271
1070
     0
1070
   277
1070
     2
1070
   279
1070
     2
1070
   280
1070
     0
1070
   287
1070
     5
1070
   340
1005
202
1002
}
  0
DIMENSION
  5
617
330
1F
100
AcDbEntity
  8
LAY-20
  6
CONTINUOUS
 62
     4
100
AcDbDimension
  2
*D30
 10
1401.2810803298
 20
936.9067066788998
 30
0.0
 11
1376.2810803298
 21
1001.906706678899
 31
0.0
 70
   160
  3
ISO-25
100
AcDbAlignedDimension
 13
1401.2810803298
 23
932.4067066789003
 33
0.0
 14
1401.2810803298
 24
936.9067066788998
 34
0.0
 50
90.0
100
AcDbRotatedDimension
1001
ACAD
1000
DSTYLE
1002
{
1070
   270
1070
     2
1070
     6
1000
EX_BNORM
1070
     7
1000
EX_BNORM
1070
    41
1040
25.0
1070
    42
1040
0.0
1070
    44
1040
0.0
1070
    73
1070
     0
1070
    74
1070
     0
1070
    75
1070
     1
1070
    76
1070
     1
1070
    77
1070
     1
1070
    78
1070
     8
1070
   140
1040
31.181104
1070
   147
1040
0.0
1070
   173
1070
     1
1070
   176
1070
     4
1070
   177
1070
     4
1070
   178
1070
     7
1070
   271
1070
     1
1070
   277
1070
     2
1070
   279
1070
     2
1070
   280
1070
     2
1070
   287
1070
     5
1070
   340
1005
202
1002
}
  0
DIMENSION
  5
624
330
1F
100
AcDbEntity
  8
LAY-20
  6
CONTINUOUS
 62
     4
100
AcDbDimension
  2
*D31
 10
2554.2810803299
 20
1296.8067066789
 30
0.0
 11
2529.2810803299
 21
1888.8067066789
 31
0.0
 70
   160
  3
ISO-25
100
AcDbAlignedDimension
 13
2724.2810803299
 23
2480.8067066789
 33
0.0
 14
2724.2810803299
 24
1296.8067066789
 34
0.0
 50
90.0
100
AcDbRotatedDimension
1001
ACAD
1000
DSTYLE
1002
{
1070
   270
1070
     2
1070
     6
1000
EX_BNORM
1070
     7
1000
EX_BNORM
1070
    41
1040
25.0
1070
    42
1040
15.0
1070
    44
1040
15.0
1070
    73
1070
     0
1070
    74
1070
     0
1070
    75
1070
     0
1070
    76
1070
     0
1070
    77
1070
     1
1070
    78
1070
     8
1070
   140
1040
31.181104
1070
   147
1040
0.0
1070
   173
1070
     1
1070
   176
1070
     4
1070
   177
1070
     4
1070
   178
1070
     7
1070
   271
1070
     1
1070
   277
1070
     2
1070
   279
1070
     2
1070
   280
1070
     0
1070
   287
1070
     5
1070
   340
1005
202
1002
}
  0
DIMENSION
  5
631
330
1F
100
AcDbEntity
  8
LAY-20
  6
CONTINUOUS
 62
     4
100
AcDbDimension
  2
*D32
 10
2624.2810803299
 20
2464.806706678918
 30
0.0
 11
2599.2810803299
 21
1888.806706678917
 31
0.0
 70
   160
  3
ISO-25
100
AcDbAlignedDimension
 13
2724.281080329878
 23
1312.806706678916
 33
0.0
 14
2724.281080329878
 24
2464.806706678918
 34
0.0
 50
90.0
100
AcDbRotatedDimension
1001
ACAD
1000
DSTYLE
1002
{
1070
   270
1070
     2
1070
     6
1000
EX_BNORM
1070
     7
1000
EX_BNORM
1070
    41
1040
25.0
1070
    42
1040
15.0
1070
    44
1040
15.0
1070
    73
1070
     0
1070
    74
1070
     0
1070
    75
1070
     0
1070
    76
1070
     0
1070
    77
1070
     1
1070
    78
1070
     8
1070
   140
1040
31.181104
1070
   147
1040
0.0
1070
   173
1070
     1
1070
   176
1070
     4
1070
   177
1070
     4
1070
   178
1070
     7
1070
   271
1070
     1
1070
   277
1070
     2
1070
   279
1070
     2
1070
   280
1070
     0
1070
   287
1070
     5
1070
   340
1005
202
1002
}
  0
DIMENSION
  5
63E
330
1F
100
AcDbEntity
  8
LAY-20
  6
CONTINUOUS
 62
     4
100
AcDbDimension
  2
*D33
 10
2954.2810803299
 20
1388.8067066789
 30
0.0
 11
2929.2810803299
 21
1888.80670667885
 31
0.0
 70
   160
  3
ISO-25
100
AcDbAlignedDimension
 13
2854.2810803299
 23
2388.8067066788
 33
0.0
 14
2854.2810803299
 24
1388.8067066789
 34
0.0
 50
90.0
100
AcDbRotatedDimension
1001
ACAD
1000
DSTYLE
1002
{
1070
   270
1070
     2
1070
     6
1000
EX_BNORM
1070
     7
1000
EX_BNORM
1070
    41
1040
25.0
1070
    42
1040
15.0
1070
    44
1040
15.0
1070
    73
1070
     0
1070
    74
1070
     0
1070
    75
1070
     0
1070
    76
1070
     0
1070
    77
1070
     1
1070
    78
1070
     8
1070
   140
1040
31.181104
1070
   147
1040
0.0
1070
   173
1070
     1
1070
   176
1070
     4
1070
   177
1070
     4
1070
   178
1070
     7
1070
   271
1070
     1
1070
   277
1070
     2
1070
   279
1070
     2
1070
   280
1070
     0
1070
   287
1070
     5
1070
   340
1005
202
1002
}
  0
DIMENSION
  5
64B
330
1F
100
AcDbEntity
  8
LAY-20
  6
CONTINUOUS
 62
     4
100
AcDbDimension
  2
*D34
 10
3024.281080329901
 20
1305.6067066789
 30
0.0
 11
2999.281080329901
 21
1888.8067066789
 31
0.0
 70
   160
  3
ISO-25
100
AcDbAlignedDimension
 13
2777.9810803299
 23
2472.0067066789
 33
0.0
 14
2777.9810803299
 24
1305.6067066789
 34
0.0
 50
90.0
100
AcDbRotatedDimension
1001
ACAD
1000
DSTYLE
1002
{
1070
   270
1070
     2
1070
     6
1000
EX_BNORM
1070
     7
1000
EX_BNORM
1070
    41
1040
25.0
1070
    42
1040
15.0
1070
    44
1040
15.0
1070
    73
1070
     0
1070
    74
1070
     0
1070
    75
1070
     0
1070
    76
1070
     0
1070
    77
1070
     1
1070
    78
1070
     0
1070
   140
1040
31.181104
1070
   147
1040
0.0
1070
   173
1070
     1
1070
   176
1070
     4
1070
   177
1070
     4
1070
   178
1070
     7
1070
   271
1070
     0
1070
   277
1070
     2
1070
   279
1070
     2
1070
   280
1070
     0
1070
   287
1070
     5
1070
   340
1005
202
1002
}
  0
LINE
  5
658
330
1F
100
AcDbEntity
  8
LAY-255
  6
CONTINUOUS
 62
     7
100
AcDbLine
 10
50.0
 20
100.0
 30
0.0
 11
3850.0
 21
100.0
 31
0.0
  0
LINE
  5
659
330
1F
100
AcDbEntity
  8
LAY-255
  6
CONTINUOUS
 62
     7
100
AcDbLine
 10
50.0
 20
2800.0
 30
0.0
 11
3850.0
 21
2800.0
 31
0.0
  0
LINE
  5
65A
330
1F
100
AcDbEntity
  8
LAY-255
  6
CONTINUOUS
 62
     7
100
AcDbLine
 10
3850.0
 20
100.0
 30
0.0
 11
3850.0
 21
2800.0
 31
0.0
  0
LINE
  5
65B
330
1F
100
AcDbEntity
  8
LAY-255
  6
CONTINUOUS
 62
     7
100
AcDbLine
 10
3850.0
 20
220.0
 30
0.0
 11
2850.0
 21
220.0
 31
0.0
  0
LINE
  5
65C
330
1F
100
AcDbEntity
  8
LAY-255
  6
CONTINUOUS
 62
     7
100
AcDbLine
 10
2888.0
 20
160.0
 30
0.0
 11
2968.0
 21
210.0
 31
0.0
  0
LINE
  5
65D
330
1F
100
AcDbEntity
  8
LAY-255
  6
CONTINUOUS
 62
     7
100
AcDbLine
 10
2968.0
 20
210.0
 30
0.0
 11
3048.0
 21
160.0
 31
0.0
  0
LINE
  5
65E
330
1F
100
AcDbEntity
  8
LAY-255
  6
CONTINUOUS
 62
     7
100
AcDbLine
 10
3048.0
 20
160.0
 30
0.0
 11
2968.0
 21
110.0
 31
0.0
  0
LINE
  5
65F
330
1F
100
AcDbEntity
  8
LAY-255
  6
CONTINUOUS
 62
     7
100
AcDbLine
 10
2968.0
 20
110.0
 30
0.0
 11
2888.0
 21
160.0
 31
0.0
  0
LINE
  5
660
330
1F
100
AcDbEntity
  8
LAY-255
  6
CONTINUOUS
 62
     4
100
AcDbLine
 10
2850.0
 20
280.0
 30
0.0
 11
3850.0
 21
280.0
 31
0.0
  0
LINE
  5
661
330
1F
100
AcDbEntity
  8
LAY-255
  6
CONTINUOUS
 62
     7
100
AcDbLine
 10
2850.0
 20
100.0
 30
0.0
 11
2850.0
 21
670.0
 31
0.0
  0
POINT
  5
662
330
1F
100
AcDbEntity
  8
LAY-255
  6
CONTINUOUS
 62
     7
100
AcDbPoint
 10
2890.0
 20
400.0
 30
0.0
  0
LINE
  5
663
330
1F
100
AcDbEntity
  8
LAY-255
  6
CONTINUOUS
 62
     4
100
AcDbLine
 10
3350.0
 20
280.0
 30
0.0
 11
3350.0
 21
220.0
 31
0.0
  0
LINE
  5
664
330
1F
100
AcDbEntity
  8
LAY-255
  6
CONTINUOUS
 62
     7
100
AcDbLine
 10
3850.0
 20
670.0
 30
0.0
 11
2850.0
 21
670.0
 31
0.0
  0
LINE
  5
665
330
1F
100
AcDbEntity
  8
LAY-255
  6
CONTINUOUS
 62
     4
100
AcDbLine
 10
3830.0
 20
550.0
 30
0.0
 11
2870.0
 21
550.0
 31
0.0
  0
LINE
  5
666
330
1F
100
AcDbEntity
  8
LAY-255
  6
CONTINUOUS
 62
     4
100
AcDbLine
 10
3830.0
 20
610.0
 30
0.0
 11
2870.0
 21
610.0
 31
0.0
  0
POINT
  5
667
330
1F
100
AcDbEntity
  8
LAY-255
  6
CONTINUOUS
 62
     7
100
AcDbPoint
 10
2890.0
 20
500.0
 30
0.0
  0
POINT
  5
668
330
1F
100
AcDbEntity
  8
LAY-255
  6
CONTINUOUS
 62
     7
100
AcDbPoint
 10
3000.0
 20
560.0
 30
0.0
  0
POINT
  5
669
330
1F
100
AcDbEntity
  8
LAY-255
  6
CONTINUOUS
 62
     7
100
AcDbPoint
 10
3000.0
 20
620.0
 30
0.0
  0
POINT
  5
66A
330
1F
100
AcDbEntity
  8
LAY-255
  6
CONTINUOUS
 62
     7
100
AcDbPoint
 10
2890.0
 20
350.0
 30
0.0
  0
POINT
  5
66B
330
1F
100
AcDbEntity
  8
LAY-255
  6
CONTINUOUS
 62
     7
100
AcDbPoint
 10
2890.0
 20
450.0
 30
0.0
  0
POINT
  5
66C
330
1F
100
AcDbEntity
  8
LAY-255
  6
CONTINUOUS
 62
     7
100
AcDbPoint
 10
2890.0
 20
300.0
 30
0.0
  0
POINT
  5
66D
330
1F
100
AcDbEntity
  8
LAY-255
  6
CONTINUOUS
 62
     7
100
AcDbPoint
 10
2890.0
 20
350.0
 30
0.0
  0
LINE
  5
66E
330
1F
100
AcDbEntity
  8
LAY-255
  6
CONTINUOUS
 62
     7
100
AcDbLine
 10
50.0
 20
100.0
 30
0.0
 11
50.0
 21
2800.0
 31
0.0
  0
TEXT
  5
66F
330
1F
100
AcDbEntity
  8
LAY-255
  6
CONTINUOUS
 62
     7
100
AcDbText
 10
3081.3837890625
 20
155.4374999999999
 30
0.0
 40
51.5625
  1
福西鋳物株式会社
 41
1.342691999659091
  7
EXCADSTD
100
AcDbText
  0
TEXT
  5
670
330
1F
100
AcDbEntity
  8
LAY-255
  6
CONTINUOUS
 62
     7
100
AcDbText
 10
3085.09375
 20
119.8124999999999
 30
0.0
 40
17.1875
  1
ＦＵＫＵＮＩＳＨＩ
 41
1.204799226045263
  7
EXCADSTD
100
AcDbText
  0
TEXT
  5
671
330
1F
100
AcDbEntity
  8
LAY-255
  6
CONTINUOUS
 62
     7
100
AcDbText
 10
3327.191964285714
 20
119.8124999999999
 30
0.0
 40
17.1875
  1
ＦＯＵＮＤＲＹ
 41
1.243252752978497
  7
EXCADSTD
100
AcDbText
  0
TEXT
  5
672
330
1F
100
AcDbEntity
  8
LAY-255
  6
CONTINUOUS
 62
     7
100
AcDbText
 10
3519.945914381009
 20
119.8124999999999
 30
0.0
 40
17.1875
  1
ＣＯ.,ＬＴＤ.
 41
1.243831036226633
  7
EXCADSTD
100
AcDbText
  0
TEXT
  5
673
330
1F
100
AcDbEntity
  8
LAY-255
  6
CONTINUOUS
 62
     7
100
AcDbText
 10
2940.34375
 20
137.1875
 30
0.0
 40
51.5625
  1
S
 41
0.7582677563636363
  7
EXCADSTD
100
AcDbText
  0
TEXT
  5
674
330
1F
100
AcDbEntity
  8
LAY-255
  6
CONTINUOUS
 62
     7
100
AcDbText
 10
2971.046875
 20
137.4941037735999
 30
0.0
 40
51.5625
  1
F
 41
0.7440945272727272
  7
EXCADSTD
100
AcDbText
  0
TEXT
  5
675
330
1F
100
AcDbEntity
  8
LAY-255
  6
CONTINUOUS
 62
     7
100
AcDbText
 10
3371.0546875
 20
244.21875
 30
0.0
 40
25.78125
  1
縮尺
 41
1.080708718181818
  7
EXCADSTD
100
AcDbText
  0
TEXT
  5
676
330
1F
100
AcDbEntity
  8
LAY-255
  6
CONTINUOUS
 62
     7
100
AcDbText
 10
2872.65625
 20
565.625
 30
0.0
 40
34.375
  1
型式
 41
1.056348480681818
  7
EXCADSTD
100
AcDbText
  0
TEXT
  5
677
330
1F
100
AcDbEntity
  8
LAY-255
  6
CONTINUOUS
 62
     7
100
AcDbText
 10
2874.21875
 20
625.625
 30
0.0
 40
34.375
  1
品名
 41
0.9788386340909091
  7
EXCADSTD
100
AcDbText
  0
TEXT
  5
678
330
1F
100
AcDbEntity
  8
LAY-255
  6
CONTINUOUS
 62
     7
100
AcDbText
 10
2871.5234375
 20
244.21875
 30
0.0
 40
25.78125
  1
作成日
 41
1.000629973818182
  7
EXCADSTD
100
AcDbText
  0
TEXT
  5
679
330
1F
100
AcDbEntity
  8
LAY-255
  6
CONTINUOUS
 62
     7
100
AcDbText
 10
2891.40625
 20
505.625
 30
0.0
 40
34.375
  1
材質：スチール
 41
1.029301719225037
  7
EXCADSTD
100
AcDbText
  0
TEXT
  5
67A
330
1F
100
AcDbEntity
  8
LAY-255
  6
CONTINUOUS
 62
     7
100
AcDbText
 10
2893.75
 20
455.625
 30
0.0
 40
34.375
  1
受枠目地：ステンレス鋼
 41
1.012216953889409
  7
EXCADSTD
100
AcDbText
  0
TEXT
  5
67B
330
1F
100
AcDbEntity
  8
LAY-255
  6
CONTINUOUS
 62
     7
100
AcDbText
 10
2892.03125
 20
405.625
 30
0.0
 40
34.375
  1
適用荷重：Ｔ－２
 41
1.000225024415584
  7
EXCADSTD
100
AcDbText
  0
TEXT
  5
67C
330
1F
100
AcDbEntity
  8
LAY-255
  6
CONTINUOUS
 62
     7
100
AcDbText
 10
3007.5
 20
565.625
 30
0.0
 40
34.375
  1
ＳＦ－１００×２００ＣＭＰ－２型
 41
1.005351056466069
  7
EXCADSTD
100
AcDbText
  0
TEXT
  5
67D
330
1F
100
AcDbEntity
  8
LAY-255
  6
CONTINUOUS
 62
     7
100
AcDbText
 10
3001.5625
 20
625.625
 30
0.0
 40
34.375
  1
縞鋼板製マシンハッチ
 41
1.016284949586777
  7
EXCADSTD
100
AcDbText
  0
TEXT
  5
67E
330
1F
100
AcDbEntity
  8
LAY-255
  6
CONTINUOUS
 62
     7
100
AcDbText
 10
3008.90625
 20
235.625
 30
0.0
 40
34.375
  1
０９／０７／２４
 41
0.9794713675324676
  7
EXCADSTD
100
AcDbText
  0
TEXT
  5
67F
330
1F
100
AcDbEntity
  8
LAY-255
  6
CONTINUOUS
 62
     7
100
AcDbText
 10
3482.8125
 20
235.625
 30
0.0
 40
34.375
  1
１：１０
 41
0.9243863385026738
  7
EXCADSTD
100
AcDbText
  0
ENDSEC
  0
SECTION
  2
OBJECTS
  0
DICTIONARY
  5
C
330
0
100
AcDbDictionary
  3
ACAD_GROUP
350
D
  3
ACAD_LAYOUT
350
1A
  3
ACAD_MATERIAL
350
43
  3
ACAD_MLEADERSTYLE
350
6B
  3
ACAD_MLINESTYLE
350
17
  3
ACAD_PLOTSETTINGS
350
19
  3
ACAD_SCALELIST
350
47
  3
ACAD_VISUALSTYLE
350
2A
  3
ACDBHEADERROUNDTRIPXREC
350
680
  3
ACDBVARIABLEDICTIONARY
350
6A1
  0
DICTIONARY
  5
6AC
330
8
100
AcDbDictionary
280
     1
  3
ACAD_XREC_ROUNDTRIP
360
6AD
  0
DICTIONARY
  5
D
102
{ACAD_REACTORS
330
C
102
}
330
C
100
AcDbDictionary
  0
DICTIONARY
  5
1A
102
{ACAD_REACTORS
330
C
102
}
330
C
100
AcDbDictionary
  0
DICTIONARY
  5
43
102
{ACAD_REACTORS
330
C
102
}
330
C
100
AcDbDictionary
  3
BYBLOCK
350
45
  3
BYLAYER
350
44
  3
GLOBAL
350
46
  0
DICTIONARY
  5
6B
102
{ACAD_REACTORS
330
C
102
}
330
C
100
AcDbDictionary
  3
STANDARD
350
6C
  0
DICTIONARY
  5
17
102
{ACAD_REACTORS
330
C
102
}
330
C
100
AcDbDictionary
  3
STANDARD
350
18
  0
DICTIONARY
  5
19
102
{ACAD_REACTORS
330
C
102
}
330
C
100
AcDbDictionary
  0
DICTIONARY
  5
47
102
{ACAD_REACTORS
330
C
102
}
330
C
100
AcDbDictionary
  3
A0
350
48
  3
A1
350
49
  3
A2
350
4A
  3
A3
350
4B
  3
A4
350
4C
  3
A5
350
4D
  3
A6
350
4E
  3
A7
350
4F
  3
A8
350
50
  3
A9
350
51
  3
B0
350
52
  3
B1
350
53
  3
B2
350
54
  3
B3
350
55
  3
B4
350
56
  3
B5
350
57
  3
B6
350
58
  3
B7
350
59
  3
B8
350
5A
  3
B9
350
5B
  3
C0
350
5C
  3
C1
350
5D
  3
C2
350
5E
  3
C3
350
5F
  3
C4
350
60
  3
C5
350
61
  3
C6
350
62
  3
C7
350
63
  3
C8
350
64
  3
C9
350
65
  3
D0
350
66
  3
D1
350
67
  3
D2
350
68
  0
DICTIONARY
  5
2A
102
{ACAD_REACTORS
330
C
102
}
330
C
100
AcDbDictionary
  3
2DWIREFRAME
350
2F
  3
BASIC
350
32
  3
BRIGHTEN
350
36
  3
COLORCHANGE
350
3A
  3
CONCEPTUAL
350
34
  3
DIM
350
35
  3
EDGECOLOROFF
350
3D
  3
FACEPATTERN
350
39
  3
FLAT
350
2B
  3
FLATWITHEDGES
350
2C
  3
GOURAUD
350
2D
  3
GOURAUDWITHEDGES
350
2E
  3
HIDDEN
350
31
  3
JITTEROFF
350
3B
  3
LINEPATTERN
350
38
  3
OVERHANGOFF
350
3C
  3
REALISTIC
350
33
  3
SHADED
350
42
  3
SHADED_WITH_EDGES
350
41
  3
SHADES_OF_GRAY
350
3E
  3
SKETCHY
350
3F
  3
THICKEN
350
37
  3
WIREFRAME
350
30
  3
X-RAY
350
40
  0
DICTIONARY
  5
680
102
{ACAD_REACTORS
330
C
102
}
330
C
100
AcDbDictionary
  3
CEPSNID
350
68A
  3
CEPSNTYPE
350
689
  3
DIMSTYLEDATA
350
6A0
  3
FINGERPRINTGUID
350
68B
  3
HYPERLINKBASE
350
683
  3
INSUNITS
350
688
  3
LAYOUTDICT
350
685
  3
LWETCUNION
350
687
  3
PLOTSETDICT
350
686
  3
PSVPSCALE
350
68D
  3
PUCSBASE
350
690
  3
PUCSORGBACK
350
696
  3
PUCSORGBOTTOM
350
692
  3
PUCSORGFRONT
350
695
  3
PUCSORGLEFT
350
693
  3
PUCSORGRIGHT
350
694
  3
PUCSORGTOP
350
691
  3
PUCSORTHOREF
350
68E
  3
PUCSORTHOVIEW
350
68F
  3
STYLESHEET
350
684
  3
TSTACKALIGN
350
681
  3
TSTACKSIZE
350
682
  3
UCSBASE
350
699
  3
UCSORGBACK
350
69F
  3
UCSORGBOTTOM
350
69B
  3
UCSORGFRONT
350
69E
  3
UCSORGLEFT
350
69C
  3
UCSORGRIGHT
350
69D
  3
UCSORGTOP
350
69A
  3
UCSORTHOREF
350
697
  3
UCSORTHOVIEW
350
698
  3
VERSIONGUID
350
68C
  0
DICTIONARY
  5
6A1
102
{ACAD_REACTORS
330
C
102
}
330
C
100
AcDbDictionary
  3
CANNOSCALE
350
6AE
  3
CENTEREXE
350
6A8
  3
CENTERLTYPEFILE
350
6A9
  3
CMLEADERSTYLE
350
6A3
  3
CTABLESTYLE
350
6A2
  3
DIMASSOC
350
6AA
  3
HIDETEXT
350
6AB
  3
MSLTSCALE
350
6AF
  3
PSOLHEIGHT
350
6A5
  3
PSOLWIDTH
350
6A4
  0
XRECORD
  5
6AD
102
{ACAD_REACTORS
330
6AC
102
}
330
6AC
100
AcDbXrecord
102
VTR_0.000_0.000_1.000_1.000_VISUALSTYLE
340
2F
102
VTR_0.000_0.000_1.000_1.000_GRIDDISPLAY
 70
     3
102
VTR_0.000_0.000_1.000_1.000_GRIDMAJOR
 70
     5
102
VTR_0.000_0.000_1.000_1.000_DEFAULTLIGHTING
280
     1
102
VTR_0.000_0.000_1.000_1.000_DEFAULTLIGHTINGTYPE
 70
     1
102
VTR_0.000_0.000_1.000_1.000_BRIGHTNESS
141
0.0
102
VTR_0.000_0.000_1.000_1.000_CONTRAST
142
0.0
  0
MATERIAL
  5
45
102
{ACAD_REACTORS
330
43
102
}
102
{ACAD_XDICTIONARY
360
6B2
102
}
330
43
100
AcDbMaterial
  1
BYBLOCK
  0
MATERIAL
  5
44
102
{ACAD_REACTORS
330
43
102
}
102
{ACAD_XDICTIONARY
360
6B0
102
}
330
43
100
AcDbMaterial
  1
BYLAYER
  0
MATERIAL
  5
46
102
{ACAD_REACTORS
330
43
102
}
102
{ACAD_XDICTIONARY
360
6B4
102
}
330
43
100
AcDbMaterial
  1
GLOBAL
  0
ACAD_PROXY_OBJECT
  5
6C
102
{ACAD_REACTORS
330
6B
102
}
330
6B
100
AcDbProxyObject
 90
      499
 91
      505
 93
      610
310
40901902A4063FBFFFFFE0000000000000020400000000000020404214DD185B99185C990000000000000104090141901A00000000000004100000000000000041025764000000000000039000
340
14
340
0
340
11
340
0
 94
        0
1001
ACAD_MLEADERVER
1070
     2
  0
MLINESTYLE
  5
18
102
{ACAD_REACTORS
330
17
102
}
330
17
100
AcDbMlineStyle
  2
Standard
 70
     0
  3

 62
   256
 51
90.0
 52
90.0
 71
     2
 49
0.5
 62
   256
  6
BYLAYER
 49
-0.5
 62
   256
  6
BYLAYER
  0
ACAD_PROXY_OBJECT
  5
48
102
{ACAD_REACTORS
330
47
102
}
330
47
100
AcDbProxyObject
 90
      499
 91
      503
 93
       41
310
903313A31580
  0
ACAD_PROXY_OBJECT
  5
49
102
{ACAD_REACTORS
330
47
102
}
330
47
100
AcDbProxyObject
 90
      499
 91
      503
 93
      105
310
903313A324000000000000004000
  0
ACAD_PROXY_OBJECT
  5
4A
102
{ACAD_REACTORS
330
47
102
}
330
47
100
AcDbProxyObject
 90
      499
 91
      503
 93
      105
310
903313A344000000000000104000
  0
ACAD_PROXY_OBJECT
  5
4B
102
{ACAD_REACTORS
330
47
102
}
330
47
100
AcDbProxyObject
 90
      499
 91
      503
 93
      105
310
903313A354000000000000144000
  0
ACAD_PROXY_OBJECT
  5
4C
102
{ACAD_REACTORS
330
47
102
}
330
47
100
AcDbProxyObject
 90
      499
 91
      503
 93
      105
310
903313A384000000000000204000
  0
ACAD_PROXY_OBJECT
  5
4D
102
{ACAD_REACTORS
330
47
102
}
330
47
100
AcDbProxyObject
 90
      499
 91
      503
 93
      113
310
904313A31304000000000000244000
  0
ACAD_PROXY_OBJECT
  5
4E
102
{ACAD_REACTORS
330
47
102
}
330
47
100
AcDbProxyObject
 90
      499
 91
      503
 93
      113
310
904313A31364000000000000304000
  0
ACAD_PROXY_OBJECT
  5
4F
102
{ACAD_REACTORS
330
47
102
}
330
47
100
AcDbProxyObject
 90
      499
 91
      503
 93
      113
310
904313A32304000000000000344000
  0
ACAD_PROXY_OBJECT
  5
50
102
{ACAD_REACTORS
330
47
102
}
330
47
100
AcDbProxyObject
 90
      499
 91
      503
 93
      113
310
904313A333040000000000003E4000
  0
ACAD_PROXY_OBJECT
  5
51
102
{ACAD_REACTORS
330
47
102
}
330
47
100
AcDbProxyObject
 90
      499
 91
      503
 93
      113
310
904313A34304000000000000444000
  0
ACAD_PROXY_OBJECT
  5
52
102
{ACAD_REACTORS
330
47
102
}
330
47
100
AcDbProxyObject
 90
      499
 91
      503
 93
      113
310
904313A35304000000000000494000
  0
ACAD_PROXY_OBJECT
  5
53
102
{ACAD_REACTORS
330
47
102
}
330
47
100
AcDbProxyObject
 90
      499
 91
      503
 93
      121
310
905313A3130304000000000000594000
  0
ACAD_PROXY_OBJECT
  5
54
102
{ACAD_REACTORS
330
47
102
}
330
47
100
AcDbProxyObject
 90
      499
 91
      503
 93
      105
310
903323A310000000000000010100
  0
ACAD_PROXY_OBJECT
  5
55
102
{ACAD_REACTORS
330
47
102
}
330
47
100
AcDbProxyObject
 90
      499
 91
      503
 93
      105
310
903343A310000000000000410100
  0
ACAD_PROXY_OBJECT
  5
56
102
{ACAD_REACTORS
330
47
102
}
330
47
100
AcDbProxyObject
 90
      499
 91
      503
 93
      105
310
903383A310000000000000810100
  0
ACAD_PROXY_OBJECT
  5
57
102
{ACAD_REACTORS
330
47
102
}
330
47
100
AcDbProxyObject
 90
      499
 91
      503
 93
      113
310
90431303A310000000000000910100
  0
ACAD_PROXY_OBJECT
  5
58
102
{ACAD_REACTORS
330
47
102
}
330
47
100
AcDbProxyObject
 90
      499
 91
      503
 93
      121
310
9053130303A310000000000001650100
  0
ACAD_PROXY_OBJECT
  5
59
102
{ACAD_REACTORS
330
47
102
}
330
47
100
AcDbProxyObject
 90
      499
 91
      503
 93
      257
310
90E312F31323822203D2031272D3022000000000000200FC000000000000284000
  0
ACAD_PROXY_OBJECT
  5
5A
102
{ACAD_REACTORS
330
47
102
}
330
47
100
AcDbProxyObject
 90
      499
 91
      503
 93
      249
310
90D312F363422203D2031272D3022000000000000240FC000000000000284000
  0
ACAD_PROXY_OBJECT
  5
5B
102
{ACAD_REACTORS
330
47
102
}
330
47
100
AcDbProxyObject
 90
      499
 91
      503
 93
      249
310
90D312F333222203D2031272D3022000000000000280FC000000000000284000
  0
ACAD_PROXY_OBJECT
  5
5C
102
{ACAD_REACTORS
330
47
102
}
330
47
100
AcDbProxyObject
 90
      499
 91
      503
 93
      249
310
90D312F313622203D2031272D30220000000000002C0FC000000000000284000
  0
ACAD_PROXY_OBJECT
  5
5D
102
{ACAD_REACTORS
330
47
102
}
330
47
100
AcDbProxyObject
 90
      499
 91
      503
 93
      249
310
90D332F333222203D2031272D30220000000000002E0FC000000000000284000
  0
ACAD_PROXY_OBJECT
  5
5E
102
{ACAD_REACTORS
330
47
102
}
330
47
100
AcDbProxyObject
 90
      499
 91
      503
 93
      241
310
90C312F3822203D2031272D3022000000000000300FC000000000000284000
  0
ACAD_PROXY_OBJECT
  5
5F
102
{ACAD_REACTORS
330
47
102
}
330
47
100
AcDbProxyObject
 90
      499
 91
      503
 93
      249
310
90D332F313622203D2031272D3022000000000000320FC000000000000284000
  0
ACAD_PROXY_OBJECT
  5
60
102
{ACAD_REACTORS
330
47
102
}
330
47
100
AcDbProxyObject
 90
      499
 91
      503
 93
      241
310
90C312F3422203D2031272D3022000000000000340FC000000000000284000
  0
ACAD_PROXY_OBJECT
  5
61
102
{ACAD_REACTORS
330
47
102
}
330
47
100
AcDbProxyObject
 90
      499
 91
      503
 93
      241
310
90C332F3822203D2031272D3022000000000000360FC000000000000284000
  0
ACAD_PROXY_OBJECT
  5
62
102
{ACAD_REACTORS
330
47
102
}
330
47
100
AcDbProxyObject
 90
      499
 91
      503
 93
      241
310
90C312F3222203D2031272D3022000000000000380FC000000000000284000
  0
ACAD_PROXY_OBJECT
  5
63
102
{ACAD_REACTORS
330
47
102
}
330
47
100
AcDbProxyObject
 90
      499
 91
      503
 93
      241
310
90C332F3422203D2031272D30220000000000003A0FC000000000000284000
  0
ACAD_PROXY_OBJECT
  5
64
102
{ACAD_REACTORS
330
47
102
}
330
47
100
AcDbProxyObject
 90
      499
 91
      503
 93
      161
310
90A3122203D2031272D30224000000000000284000
  0
ACAD_PROXY_OBJECT
  5
65
102
{ACAD_REACTORS
330
47
102
}
330
47
100
AcDbProxyObject
 90
      499
 91
      503
 93
      257
310
90E312D312F3222203D2031272D30220000000000003E0FC000000000000284000
  0
ACAD_PROXY_OBJECT
  5
66
102
{ACAD_REACTORS
330
47
102
}
330
47
100
AcDbProxyObject
 90
      499
 91
      503
 93
      225
310
90A3322203D2031272D302200000000000002100000000000000284000
  0
ACAD_PROXY_OBJECT
  5
67
102
{ACAD_REACTORS
330
47
102
}
330
47
100
AcDbProxyObject
 90
      499
 91
      503
 93
      225
310
90A3622203D2031272D302200000000000006100000000000000284000
  0
ACAD_PROXY_OBJECT
  5
68
102
{ACAD_REACTORS
330
47
102
}
330
47
100
AcDbProxyObject
 90
      499
 91
      503
 93
      249
310
90D31272D3022203D2031272D30220000000000000A100000000000000284000
  0
ACAD_PROXY_OBJECT
  5
2F
102
{ACAD_REACTORS
330
2A
102
}
330
2A
100
AcDbProxyObject
 90
      499
 91
      501
 93
      436
310
42CC9915DA5C99599C985B595049028333333333333E33F0000000000000F90107901411070040501600405405064090741402480A0340
1001
ACAD
1000
AcDbSavedByObjectVersion
1070
     0
  0
ACAD_PROXY_OBJECT
  5
32
102
{ACAD_REACTORS
330
2A
102
}
330
2A
100
AcDbProxyObject
 90
      499
 91
      501
 93
      388
310
4150985CDA58D07406404333333333333E33F0000000000000F90107A41107004050150841D405064090741402480A0350
1001
ACAD
1000
AcDbSavedByObjectVersion
1070
     0
  0
ACAD_PROXY_OBJECT
  5
36
102
{ACAD_REACTORS
330
2A
102
}
330
2A
100
AcDbProxyObject
 90
      499
 91
      501
 93
      428
310
42109C9A59DA1D195B90C409028333333333333E33F0000000000000F9010790141107004050150841D405064090741402480A029950
1001
ACAD
1000
AcDbSavedByObjectVersion
1070
     0
  0
ACAD_PROXY_OBJECT
  5
3A
102
{ACAD_REACTORS
330
2A
102
}
330
2A
100
AcDbProxyObject
 90
      499
 91
      501
 93
      452
310
42D0DBDB1BDC90DA185B99D95104090240C333333333333E33F0000000000000F90108901411070040501508421405064090741402480A0350
1001
ACAD
1000
AcDbSavedByObjectVersion
1070
     0
  0
ACAD_PROXY_OBJECT
  5
34
102
{ACAD_REACTORS
330
2A
102
}
330
2A
100
AcDbProxyObject
 90
      499
 91
      501
 93
      500
310
4290DBDB98D95C1D1D585B10940D028333333333333E33F0000000000000F90107902409070040501000000000018199010841D405064090740C02480A0340
1001
ACAD
1000
AcDbSavedByObjectVersion
1070
     0
  0
ACAD_PROXY_OBJECT
  5
35
102
{ACAD_REACTORS
330
2A
102
}
330
2A
100
AcDbProxyObject
 90
      499
 91
      501
 93
      412
310
40D11A5B50B409028333333333333E33F0000000000000F9010790141107004050150841D405064090741402480A02677FFFFFD0
1001
ACAD
1000
AcDbSavedByObjectVersion
1070
     0
  0
ACAD_PROXY_OBJECT
  5
3D
102
{ACAD_REACTORS
330
2A
102
}
330
2A
100
AcDbProxyObject
 90
      499
 91
      501
 93
      452
310
43115919D950DBDB1BDC93D999916409028333333333333E33F0000000000000F9010790141107004050150841D405064090741402480A0350
1001
ACAD
1000
AcDbSavedByObjectVersion
1070
     0
  0
ACAD_PROXY_OBJECT
  5
39
102
{ACAD_REACTORS
330
2A
102
}
330
2A
100
AcDbProxyObject
 90
      499
 91
      501
 93
      444
310
42D19858D95C185D1D195C9B90F409028333333333333E33F0000000000000F9010790141107004050150841D405064090741402480A0350
1001
ACAD
1000
AcDbSavedByObjectVersion
1070
     0
  0
ACAD_PROXY_OBJECT
  5
2B
102
{ACAD_REACTORS
330
2A
102
}
330
2A
100
AcDbProxyObject
 90
      499
 91
      501
 93
      380
310
41119B185D240901404333333333333E33F0000000000000F9010740A907004050150841D405064090741402480A1B50
1001
ACAD
1000
AcDbSavedByObjectVersion
1070
     0
  0
ACAD_PROXY_OBJECT
  5
2C
102
{ACAD_REACTORS
330
2A
102
}
330
2A
100
AcDbProxyObject
 90
      499
 91
      501
 93
      468
310
43519B185D15DA5D1A115919D95CD0140901404333333333333E33F0000000000000F90107409019070040501600405405064090741402480A1B50
1001
ACAD
1000
AcDbSavedByObjectVersion
1070
     0
  0
ACAD_PROXY_OBJECT
  5
2D
102
{ACAD_REACTORS
330
2A
102
}
330
2A
100
AcDbProxyObject
 90
      499
 91
      501
 93
      404
310
41D1DBDD5C985D5910240902404333333333333E33F0000000000000F9010740A9070040501641D405064090741402480A1B50
1001
ACAD
1000
AcDbSavedByObjectVersion
1070
     0
  0
ACAD_PROXY_OBJECT
  5
2E
102
{ACAD_REACTORS
330
2A
102
}
330
2A
100
AcDbProxyObject
 90
      499
 91
      501
 93
      492
310
4411DBDD5C985D5915DA5D1A115919D95CD0340902404333333333333E33F0000000000000F90107409019070040501600405405064090741402480A1B50
1001
ACAD
1000
AcDbSavedByObjectVersion
1070
     0
  0
ACAD_PROXY_OBJECT
  5
31
102
{ACAD_REACTORS
330
2A
102
}
330
2A
100
AcDbProxyObject
 90
      499
 91
      501
 93
      476
310
41921A5919195B90640502408333333333333E33F0000000000000F901079024090700405020000000000001110200405405064090740C02480A0340
1001
ACAD
1000
AcDbSavedByObjectVersion
1070
     0
  0
ACAD_PROXY_OBJECT
  5
3B
102
{ACAD_REACTORS
330
2A
102
}
330
2A
100
AcDbProxyObject
 90
      499
 91
      501
 93
      428
310
42529A5D1D195C93D999914409028333333333333E33F0000000000000F9010790141107004050150A41D405064090741402480A0350
1001
ACAD
1000
AcDbSavedByObjectVersion
1070
     0
  0
ACAD_PROXY_OBJECT
  5
38
102
{ACAD_REACTORS
330
2A
102
}
330
2A
100
AcDbProxyObject
 90
      499
 91
      501
 93
      444
310
42D31A5B995C185D1D195C9B90E409028333333333333E33F0000000000000F9010790141107004050750841D405064090741402483A0350
1001
ACAD
1000
AcDbSavedByObjectVersion
1070
     0
  0
ACAD_PROXY_OBJECT
  5
3C
102
{ACAD_REACTORS
330
2A
102
}
330
2A
100
AcDbProxyObject
 90
      499
 91
      501
 93
      444
310
42D3DD995C9A185B99D3D999915409028333333333333E33F0000000000000F9010790141107004050150941D405064090741402480A0350
1001
ACAD
1000
AcDbSavedByObjectVersion
1070
     0
  0
ACAD_PROXY_OBJECT
  5
33
102
{ACAD_REACTORS
330
2A
102
}
330
2A
100
AcDbProxyObject
 90
      499
 91
      501
 93
      428
310
425499585B1A5CDD1A58D08409038333333333333E33F0000000000000F9010740A907004050150800405405064090740C02480A1B40
1001
ACAD
1000
AcDbSavedByObjectVersion
1070
     0
  0
ACAD_PROXY_OBJECT
  5
42
102
{ACAD_REACTORS
330
2A
102
}
330
2A
100
AcDbProxyObject
 90
      499
 91
      501
 93
      420
310
4194DA1859195911B40902404333333333333E33F0000000000000F9010740A41107004050150800405405064090840C02480A0B40
1001
ACAD
1000
AcDbSavedByObjectVersion
1070
     0
  0
ACAD_PROXY_OBJECT
  5
41
102
{ACAD_REACTORS
330
2A
102
}
330
2A
100
AcDbProxyObject
 90
      499
 91
      501
 93
      516
310
4454DA18591959081DDA5D1A08195919D95CD1A40902404333333333333E33F0000000000000F901074090142907004050250800405405064090740C02480A0B40
1001
ACAD
1000
AcDbSavedByObjectVersion
1070
     0
  0
ACAD_PROXY_OBJECT
  5
3E
102
{ACAD_REACTORS
330
2A
102
}
330
2A
100
AcDbProxyObject
 90
      499
 91
      501
 93
      532
310
4394DA1859195CC81BD98811DC985E5174090240C333333333333E33F0000000000000F901079024090741D01000000000000111010841D405064090740C02480A0340
1001
ACAD
1000
AcDbSavedByObjectVersion
1070
     0
  0
ACAD_PROXY_OBJECT
  5
3F
102
{ACAD_REACTORS
330
2A
102
}
330
2A
100
AcDbProxyObject
 90
      499
 91
      501
 93
      476
310
41D4DAD95D18DA1E51840502408333333333333E33F0000000000000F901079024090741D01000000000000111010B41D405064090741802480A0340
1001
ACAD
1000
AcDbSavedByObjectVersion
1070
     0
  0
ACAD_PROXY_OBJECT
  5
37
102
{ACAD_REACTORS
330
2A
102
}
330
2A
100
AcDbProxyObject
 90
      499
 91
      501
 93
      412
310
41D51A1A58DAD95B90D409028333333333333E33F0000000000000F9010790141107004050150C41D405064090741402480A0350
1001
ACAD
1000
AcDbSavedByObjectVersion
1070
     0
  0
ACAD_PROXY_OBJECT
  5
30
102
{ACAD_REACTORS
330
2A
102
}
330
2A
100
AcDbProxyObject
 90
      499
 91
      501
 93
      420
310
4255DA5C99599C985B595059028333333333333E33F0000000000000F90107901411070040501600405405064090740C02480A0340
1001
ACAD
1000
AcDbSavedByObjectVersion
1070
     0
  0
ACAD_PROXY_OBJECT
  5
40
102
{ACAD_REACTORS
330
2A
102
}
330
2A
100
AcDbProxyObject
 90
      499
 91
      501
 93
      404
310
41560B54985E51940902404000000000000E03F0000000000000F9010740501907004050150841D405064090740C02480A1B40
1001
ACAD
1000
AcDbSavedByObjectVersion
1070
     0
  0
XRECORD
  5
68A
102
{ACAD_REACTORS
330
680
102
}
330
680
100
AcDbXrecord
340
0
  0
XRECORD
  5
689
102
{ACAD_REACTORS
330
680
102
}
330
680
100
AcDbXrecord
 90
        0
  0
XRECORD
  5
6A0
102
{ACAD_REACTORS
330
680
102
}
330
680
100
AcDbXrecord
1000
DSTYLE
1002
{
1070
   340
340
11
1002
}
  0
XRECORD
  5
68B
102
{ACAD_REACTORS
330
680
102
}
330
680
100
AcDbXrecord
  1
{7c1f2cc4-70f6-4877-bc4f-aee8a53b1392}
  0
XRECORD
  5
683
102
{ACAD_REACTORS
330
680
102
}
330
680
100
AcDbXrecord
  1

  0
XRECORD
  5
688
102
{ACAD_REACTORS
330
680
102
}
330
680
100
AcDbXrecord
 90
        4
  0
XRECORD
  5
685
102
{ACAD_REACTORS
330
680
102
}
330
680
100
AcDbXrecord
340
1A
  0
XRECORD
  5
687
102
{ACAD_REACTORS
330
680
102
}
330
680
100
AcDbXrecord
 90
    10781
  0
XRECORD
  5
686
102
{ACAD_REACTORS
330
680
102
}
330
680
100
AcDbXrecord
340
19
  0
XRECORD
  5
68D
102
{ACAD_REACTORS
330
680
102
}
330
680
100
AcDbXrecord
 40
0.0
  0
XRECORD
  5
690
102
{ACAD_REACTORS
330
680
102
}
330
680
100
AcDbXrecord
340
0
  0
XRECORD
  5
696
102
{ACAD_REACTORS
330
680
102
}
330
680
100
AcDbXrecord
 10
0.0
 20
0.0
 30
0.0
  0
XRECORD
  5
692
102
{ACAD_REACTORS
330
680
102
}
330
680
100
AcDbXrecord
 10
0.0
 20
0.0
 30
0.0
  0
XRECORD
  5
695
102
{ACAD_REACTORS
330
680
102
}
330
680
100
AcDbXrecord
 10
0.0
 20
0.0
 30
0.0
  0
XRECORD
  5
693
102
{ACAD_REACTORS
330
680
102
}
330
680
100
AcDbXrecord
 10
0.0
 20
0.0
 30
0.0
  0
XRECORD
  5
694
102
{ACAD_REACTORS
330
680
102
}
330
680
100
AcDbXrecord
 10
0.0
 20
0.0
 30
0.0
  0
XRECORD
  5
691
102
{ACAD_REACTORS
330
680
102
}
330
680
100
AcDbXrecord
 10
0.0
 20
0.0
 30
0.0
  0
XRECORD
  5
68E
102
{ACAD_REACTORS
330
680
102
}
330
680
100
AcDbXrecord
340
0
  0
XRECORD
  5
68F
102
{ACAD_REACTORS
330
680
102
}
330
680
100
AcDbXrecord
 70
     0
  0
XRECORD
  5
684
102
{ACAD_REACTORS
330
680
102
}
330
680
100
AcDbXrecord
  1

  0
XRECORD
  5
681
102
{ACAD_REACTORS
330
680
102
}
330
680
100
AcDbXrecord
 90
        1
  0
XRECORD
  5
682
102
{ACAD_REACTORS
330
680
102
}
330
680
100
AcDbXrecord
 90
       70
  0
XRECORD
  5
699
102
{ACAD_REACTORS
330
680
102
}
330
680
100
AcDbXrecord
340
0
  0
XRECORD
  5
69F
102
{ACAD_REACTORS
330
680
102
}
330
680
100
AcDbXrecord
 10
0.0
 20
0.0
 30
0.0
  0
XRECORD
  5
69B
102
{ACAD_REACTORS
330
680
102
}
330
680
100
AcDbXrecord
 10
0.0
 20
0.0
 30
0.0
  0
XRECORD
  5
69E
102
{ACAD_REACTORS
330
680
102
}
330
680
100
AcDbXrecord
 10
0.0
 20
0.0
 30
0.0
  0
XRECORD
  5
69C
102
{ACAD_REACTORS
330
680
102
}
330
680
100
AcDbXrecord
 10
0.0
 20
0.0
 30
0.0
  0
XRECORD
  5
69D
102
{ACAD_REACTORS
330
680
102
}
330
680
100
AcDbXrecord
 10
0.0
 20
0.0
 30
0.0
  0
XRECORD
  5
69A
102
{ACAD_REACTORS
330
680
102
}
330
680
100
AcDbXrecord
 10
0.0
 20
0.0
 30
0.0
  0
XRECORD
  5
697
102
{ACAD_REACTORS
330
680
102
}
330
680
100
AcDbXrecord
340
0
  0
XRECORD
  5
698
102
{ACAD_REACTORS
330
680
102
}
330
680
100
AcDbXrecord
 70
     0
  0
XRECORD
  5
68C
102
{ACAD_REACTORS
330
680
102
}
330
680
100
AcDbXrecord
  1
{FAEB1C32-E019-11D5-929B-00C0DF256EC4}
  0
DICTIONARYVAR
  5
6AE
102
{ACAD_REACTORS
330
6A1
102
}
330
6A1
100
DictionaryVariables
280
     0
  1
1:1
  0
DICTIONARYVAR
  5
6A8
102
{ACAD_REACTORS
330
6A1
102
}
330
6A1
100
DictionaryVariables
280
     0
  1
3.500000
  0
DICTIONARYVAR
  5
6A9
102
{ACAD_REACTORS
330
6A1
102
}
330
6A1
100
DictionaryVariables
280
     0
  1
acadiso.lin
  0
DICTIONARYVAR
  5
6A3
102
{ACAD_REACTORS
330
6A1
102
}
330
6A1
100
DictionaryVariables
280
     0
  1
Standard
  0
DICTIONARYVAR
  5
6A2
102
{ACAD_REACTORS
330
6A1
102
}
330
6A1
100
DictionaryVariables
280
     0
  1
Standard
  0
DICTIONARYVAR
  5
6AA
102
{ACAD_REACTORS
330
6A1
102
}
330
6A1
100
DictionaryVariables
280
     0
  1
2
  0
DICTIONARYVAR
  5
6AB
102
{ACAD_REACTORS
330
6A1
102
}
330
6A1
100
DictionaryVariables
280
     0
  1
1
  0
DICTIONARYVAR
  5
6AF
102
{ACAD_REACTORS
330
6A1
102
}
330
6A1
100
DictionaryVariables
280
     0
  1
1
  0
DICTIONARYVAR
  5
6A5
102
{ACAD_REACTORS
330
6A1
102
}
330
6A1
100
DictionaryVariables
280
     0
  1
80.000000
  0
DICTIONARYVAR
  5
6A4
102
{ACAD_REACTORS
330
6A1
102
}
330
6A1
100
DictionaryVariables
280
     0
  1
5.000000
  0
DICTIONARY
  5
6B2
330
45
100
AcDbDictionary
280
     1
  3
ACAD_XREC_ROUNDTRIP
360
6B3
  0
DICTIONARY
  5
6B0
330
44
100
AcDbDictionary
280
     1
  3
ACAD_XREC_ROUNDTRIP
360
6B1
  0
DICTIONARY
  5
6B4
330
46
100
AcDbDictionary
280
     1
  3
ACAD_XREC_ROUNDTRIP
360
6B5
  0
XRECORD
  5
6B3
102
{ACAD_REACTORS
330
6B2
102
}
330
6B2
100
AcDbXrecord
102
MATERIAL
148
0.0
149
0.0
149
0.0
 93
        0
 94
      127
282
     0
 72
     1
 77
     1
171
     1
175
     1
179
     1
273
     0
  0
XRECORD
  5
6B1
102
{ACAD_REACTORS
330
6B0
102
}
330
6B0
100
AcDbXrecord
102
MATERIAL
148
0.0
149
0.0
149
0.0
 93
        0
 94
      127
282
     0
 72
     1
 77
     1
171
     1
175
     1
179
     1
273
     0
  0
XRECORD
  5
6B5
102
{ACAD_REACTORS
330
6B4
102
}
330
6B4
100
AcDbXrecord
102
MATERIAL
148
0.0
149
0.0
149
0.0
 93
        0
 94
      127
282
     0
 72
     1
 77
     1
171
     1
175
     1
179
     1
273
     0
  0
ENDSEC
  0
EOF
